  0
SECTION
  2
HEADER
  9
$ACADVER
  1
AC1021
  9
$ACADMAINTVER
 70
    25
  9
$DWGCODEPAGE
  3
ANSI_932
  9
$LASTSAVEDBY
  1
Shimosaki
  9
$INSBASE
 10
0.0
 20
0.0
 30
0.0
  9
$EXTMIN
 10
-975.000000000241
 20
-1431.525522471113
 30
-14.42861111111111
  9
$EXTMAX
 10
975.000000000241
 20
1405.9972926413
 30
14.42861111111111
  9
$LIMMIN
 10
-1049.999999999759
 20
-1466.630278437926
  9
$LIMMAX
 10
1050.000000000241
 20
1453.369721562073
  9
$ORTHOMODE
 70
     0
  9
$REGENMODE
 70
     1
  9
$FILLMODE
 70
     1
  9
$QTEXTMODE
 70
     0
  9
$MIRRTEXT
 70
     1
  9
$LTSCALE
 40
50.8
  9
$ATTMODE
 70
     1
  9
$TEXTSIZE
 40
0.0
  9
$TRACEWID
 40
1.0
  9
$TEXTSTYLE
  7
Standard
  9
$CLAYER
  8
ADF70-2203
  9
$CELTYPE
  6
Continuous
  9
$CECOLOR
 62
   256
  9
$CELTSCALE
 40
1.0
  9
$DISPSILH
 70
     0
  9
$DIMSCALE
 40
1.0
  9
$DIMASZ
 40
9.999389648437498
  9
$DIMEXO
 40
25.0
  9
$DIMDLI
 40
0.9999999999999999
  9
$DIMRND
 40
0.0
  9
$DIMDLE
 40
0.0
  9
$DIMEXE
 40
0.0
  9
$DIMTP
 40
0.0
  9
$DIMTM
 40
0.0
  9
$DIMTXT
 40
24.4326171875
  9
$DIMCEN
 40
0.0
  9
$DIMTSZ
 40
0.0
  9
$DIMTOL
 70
     0
  9
$DIMLIM
 70
     0
  9
$DIMTIH
 70
     0
  9
$DIMTOH
 70
     0
  9
$DIMSE1
 70
     0
  9
$DIMSE2
 70
     0
  9
$DIMTAD
 70
     1
  9
$DIMZIN
 70
    11
  9
$DIMBLK
  1
DOT
  9
$DIMASO
 70
     1
  9
$DIMSHO
 70
     1
  9
$DIMPOST
  1
<>
  9
$DIMAPOST
  1
[]
  9
$DIMALT
 70
     0
  9
$DIMALTD
 70
     1
  9
$DIMALTF
 40
1.0
  9
$DIMLFAC
 40
1.0
  9
$DIMTOFL
 70
     0
  9
$DIMTVP
 40
0.0
  9
$DIMTIX
 70
     1
  9
$DIMSOXD
 70
     0
  9
$DIMSAH
 70
     0
  9
$DIMBLK1
  1

  9
$DIMBLK2
  1

  9
$DIMSTYLE
  2
tform線あり
  9
$DIMCLRD
 70
     0
  9
$DIMCLRE
 70
     0
  9
$DIMCLRT
 70
     0
  9
$DIMTFAC
 40
1.0
  9
$DIMGAP
 40
0.4999999999999999
  9
$DIMJUST
 70
     0
  9
$DIMSD1
 70
     0
  9
$DIMSD2
 70
     0
  9
$DIMTOLJ
 70
     1
  9
$DIMTZIN
 70
    11
  9
$DIMALTZ
 70
    11
  9
$DIMALTTZ
 70
    11
  9
$DIMUPT
 70
     0
  9
$DIMDEC
 70
     1
  9
$DIMTDEC
 70
     1
  9
$DIMALTU
 70
     2
  9
$DIMALTTD
 70
     2
  9
$DIMTXSTY
  7
ＭＳ ゴシック
  9
$DIMAUNIT
 70
     0
  9
$DIMADEC
 70
     2
  9
$DIMALTRND
 40
0.0
  9
$DIMAZIN
 70
     0
  9
$DIMDSEP
 70
    46
  9
$DIMATFIT
 70
     0
  9
$DIMFRAC
 70
     2
  9
$DIMLDRBLK
  1

  9
$DIMLUNIT
 70
     2
  9
$DIMLWD
 70
    -2
  9
$DIMLWE
 70
    -2
  9
$DIMTMOVE
 70
     0
  9
$DIMFXL
 40
1.0
  9
$DIMFXLON
 70
     0
  9
$DIMJOGANG
 40
0.7853981633974483
  9
$DIMTFILL
 70
     0
  9
$DIMTFILLCLR
 70
     0
  9
$DIMARCSYM
 70
     0
  9
$DIMLTYPE
  6

  9
$DIMLTEX1
  6

  9
$DIMLTEX2
  6

  9
$LUNITS
 70
     2
  9
$LUPREC
 70
     4
  9
$SKETCHINC
 40
0.1
  9
$FILLETRAD
 40
0.0
  9
$AUNITS
 70
     0
  9
$AUPREC
 70
     0
  9
$MENU
  1
acad
  9
$ELEVATION
 40
0.0
  9
$PELEVATION
 40
0.0
  9
$THICKNESS
 40
0.0
  9
$LIMCHECK
 70
     0
  9
$CHAMFERA
 40
0.0
  9
$CHAMFERB
 40
0.0
  9
$CHAMFERC
 40
0.0
  9
$CHAMFERD
 40
0.0
  9
$SKPOLY
 70
     0
  9
$TDCREATE
 40
2447893.375
  9
$TDUCREATE
 40
0.0
  9
$TDUPDATE
 40
2457435.720359896
  9
$TDUUPDATE
 40
2457435.345359896
  9
$TDINDWG
 40
0.0013428241
  9
$TDUSRTIMER
 40
2457435.344017291
  9
$USRTIMER
 70
     1
  9
$ANGBASE
 50
0.0
  9
$ANGDIR
 70
     0
  9
$PDMODE
 70
     1
  9
$PDSIZE
 40
-2.0
  9
$PLINEWID
 40
0.0
  9
$SPLFRAME
 70
     0
  9
$SPLINETYPE
 70
     6
  9
$SPLINESEGS
 70
     8
  9
$HANDSEED
  5
25A
  9
$SURFTAB1
 70
     6
  9
$SURFTAB2
 70
     6
  9
$SURFTYPE
 70
     6
  9
$SURFU
 70
     6
  9
$SURFV
 70
     6
  9
$UCSBASE
  2

  9
$UCSNAME
  2

  9
$UCSORG
 10
0.0
 20
0.0
 30
0.0
  9
$UCSXDIR
 10
1.0
 20
0.0
 30
0.0
  9
$UCSYDIR
 10
0.0
 20
1.0
 30
0.0
  9
$UCSORTHOREF
  2

  9
$UCSORTHOVIEW
 70
     0
  9
$UCSORGTOP
 10
0.0
 20
0.0
 30
0.0
  9
$UCSORGBOTTOM
 10
0.0
 20
0.0
 30
0.0
  9
$UCSORGLEFT
 10
0.0
 20
0.0
 30
0.0
  9
$UCSORGRIGHT
 10
0.0
 20
0.0
 30
0.0
  9
$UCSORGFRONT
 10
0.0
 20
0.0
 30
0.0
  9
$UCSORGBACK
 10
0.0
 20
0.0
 30
0.0
  9
$PUCSBASE
  2

  9
$PUCSNAME
  2

  9
$PUCSORG
 10
0.0
 20
0.0
 30
0.0
  9
$PUCSXDIR
 10
1.0
 20
0.0
 30
0.0
  9
$PUCSYDIR
 10
0.0
 20
1.0
 30
0.0
  9
$PUCSORTHOREF
  2

  9
$PUCSORTHOVIEW
 70
     0
  9
$PUCSORGTOP
 10
0.0
 20
0.0
 30
0.0
  9
$PUCSORGBOTTOM
 10
0.0
 20
0.0
 30
0.0
  9
$PUCSORGLEFT
 10
0.0
 20
0.0
 30
0.0
  9
$PUCSORGRIGHT
 10
0.0
 20
0.0
 30
0.0
  9
$PUCSORGFRONT
 10
0.0
 20
0.0
 30
0.0
  9
$PUCSORGBACK
 10
0.0
 20
0.0
 30
0.0
  9
$USERI1
 70
     0
  9
$USERI2
 70
     0
  9
$USERI3
 70
     0
  9
$USERI4
 70
     0
  9
$USERI5
 70
     0
  9
$USERR1
 40
0.0
  9
$USERR2
 40
0.0
  9
$USERR3
 40
0.0
  9
$USERR4
 40
0.0
  9
$USERR5
 40
0.0
  9
$WORLDVIEW
 70
     1
  9
$SHADEDGE
 70
     3
  9
$SHADEDIF
 70
    70
  9
$TILEMODE
 70
     1
  9
$MAXACTVP
 70
    64
  9
$PINSBASE
 10
0.0
 20
0.0
 30
0.0
  9
$PLIMCHECK
 70
     0
  9
$PEXTMIN
 10
1.000000000000000E+20
 20
1.000000000000000E+20
 30
1.000000000000000E+20
  9
$PEXTMAX
 10
-1.000000000000000E+20
 20
-1.000000000000000E+20
 30
-1.000000000000000E+20
  9
$PLIMMIN
 10
0.0
 20
0.0
  9
$PLIMMAX
 10
0.0
 20
0.0
  9
$UNITMODE
 70
     0
  9
$VISRETAIN
 70
     0
  9
$PLINEGEN
 70
     1
  9
$PSLTSCALE
 70
     0
  9
$TREEDEPTH
 70
  3020
  9
$CMLSTYLE
  2
Standard
  9
$CMLJUST
 70
     0
  9
$CMLSCALE
 40
1.0
  9
$PROXYGRAPHICS
 70
     0
  9
$MEASUREMENT
 70
     1
  9
$CELWEIGHT
370
     0
  9
$ENDCAPS
280
     0
  9
$JOINSTYLE
280
     0
  9
$LWDISPLAY
290
     1
  9
$INSUNITS
 70
     4
  9
$HYPERLINKBASE
  1

  9
$STYLESHEET
  1

  9
$XEDIT
290
     1
  9
$CEPSNTYPE
380
     0
  9
$PSTYLEMODE
290
     1
  9
$FINGERPRINTGUID
  2

  9
$VERSIONGUID
  2

  9
$EXTNAMES
290
     1
  9
$PSVPSCALE
 40
0.0
  9
$OLESTARTUP
290
     0
  9
$SORTENTS
280
   127
  9
$INDEXCTL
280
     0
  9
$HIDETEXT
280
     1
  9
$XCLIPFRAME
290
     0
  9
$HALOGAP
280
     0
  9
$OBSCOLOR
 70
   257
  9
$OBSLTYPE
280
     0
  9
$INTERSECTIONDISPLAY
280
     0
  9
$INTERSECTIONCOLOR
 70
   257
  9
$DIMASSOC
280
     2
  9
$PROJECTNAME
  1

  9
$CAMERADISPLAY
290
     0
  9
$LENSLENGTH
 40
50.0
  9
$CAMERAHEIGHT
 40
0.0
  9
$STEPSPERSEC
 40
2.0
  9
$STEPSIZE
 40
6.0
  9
$3DDWFPREC
 40
2.0
  9
$PSOLWIDTH
 40
0.25
  9
$PSOLHEIGHT
 40
4.0
  9
$LOFTANG1
 40
1.570796326794897
  9
$LOFTANG2
 40
1.570796326794897
  9
$LOFTMAG1
 40
0.0
  9
$LOFTMAG2
 40
0.0
  9
$LOFTPARAM
 70
     7
  9
$LOFTNORMALS
280
     1
  9
$LATITUDE
 40
37.795
  9
$LONGITUDE
 40
-122.394
  9
$NORTHDIRECTION
 40
0.0
  9
$TIMEZONE
 70
 -8000
  9
$LIGHTGLYPHDISPLAY
280
     1
  9
$TILEMODELIGHTSYNCH
280
     1
  9
$SOLIDHIST
280
     1
  9
$SHOWHIST
280
     1
  9
$DWFFRAME
280
     2
  9
$DGNFRAME
280
     2
  9
$REALWORLDSCALE
290
     1
  9
$INTERFERECOLOR
 62
   256
  9
$CSHADOW
280
     0
  9
$SHADOWPLANELOCATION
 40
0.0
  0
ENDSEC
  0
SECTION
  2
CLASSES
  0
CLASS
  1
LWPOLYLINE
  2
AcDbPolyline
  3
ObjectDBX Classes
 90
        0
 91
        1
280
     0
281
     1
  0
CLASS
  1
IMAGE
  2
AcDbRasterImage
  3
ISM
 90
      127
 91
        5
280
     0
281
     1
  0
CLASS
  1
OLE2FRAME
  2
AcDbOle2Frame
  3
ObjectDBX Classes
 90
        0
 91
        1
280
     0
281
     1
  0
CLASS
  1
HATCH
  2
AcDbHatch
  3
ObjectDBX Classes
 90
        0
 91
        1
280
     0
281
     1
  0
CLASS
  1
DICTIONARYVAR
  2
AcDbDictionaryVar
  3
ObjectDBX Classes
 90
        0
 91
        4
280
     0
281
     0
  0
CLASS
  1
RASTERVARIABLES
  2
AcDbRasterVariables
  3
ISM
 90
        0
 91
        5
280
     0
281
     0
  0
CLASS
  1
IMAGEDEF
  2
AcDbRasterImageDef
  3
ISM
 90
        0
 91
        4
280
     0
281
     0
  0
CLASS
  1
IMAGEDEF_REACTOR
  2
AcDbRasterImageDefReactor
  3
ISM
 90
        1
 91
        4
280
     0
281
     0
  0
CLASS
  1
IDBUFFER
  2
AcDbIdBuffer
  3
ObjectDBX Classes
 90
        0
 91
        4
280
     0
281
     0
  0
CLASS
  1
SPATIAL_FILTER
  2
AcDbSpatialFilter
  3
ObjectDBX Classes
 90
        0
 91
        4
280
     0
281
     0
  0
CLASS
  1
XRECORD
  2
AcDbXrecord
  3
ObjectDBX Classes
 90
        0
 91
        1
280
     0
281
     0
  0
CLASS
  1
SORTENTSTABLE
  2
AcDbSortentsTable
  3
ObjectDBX Classes
 90
        0
 91
        4
280
     0
281
     0
  0
CLASS
  1
LAYER_INDEX
  2
AcDbLayerIndex
  3
ObjectDBX Classes
 90
        0
 91
        4
280
     0
281
     0
  0
CLASS
  1
SPATIAL_INDEX
  2
AcDbSpatialIndex
  3
AutoCAD 2000
 90
        0
 91
        4
280
     0
281
     0
  0
CLASS
  1
OBJECT_PTR
  2
CAseDLPNTableRecord
  3
ASE-LPNTableRecord
 90
        1
 91
        4
280
     0
281
     0
  0
CLASS
  1
LAYOUT
  2
AcDbLayout
  3
ObjectDBX Classes
 90
        0
 91
        1
280
     0
281
     0
  0
CLASS
  1
PLOTSETTINGS
  2
AcDbPlotSettings
  3
ObjectDBX Classes
 90
        0
 91
        4
280
     0
281
     0
  0
CLASS
  1
ACDBDICTIONARYWDFLT
  2
AcDbDictionaryWithDefault
  3
ObjectDBX Classes
 90
        0
 91
        5
280
     0
281
     0
  0
CLASS
  1
ACDBPLACEHOLDER
  2
AcDbPlaceHolder
  3
ObjectDBX Classes
 90
        0
 91
        1
280
     0
281
     0
  0
CLASS
  1
SCALE
  2
AcDbScale
  3
ObjectDBX Classes
 90
     1153
 91
        5
280
     0
281
     0
  0
CLASS
  1
VISUALSTYLE
  2
AcDbVisualStyle
  3
ObjectDBX Classes
 90
     4095
 91
        5
280
     0
281
     0
  0
CLASS
  1
MATERIAL
  2
AcDbMaterial
  3
ObjectDBX Classes
 90
     1153
 91
        5
280
     0
281
     0
  0
CLASS
  1
TABLESTYLE
  2
AcDbTableStyle
  3
ObjectDBX Classes
 90
     4095
 91
        5
280
     0
281
     0
  0
CLASS
  1
SUN
  2
AcDbSun
  3
SCENEOE
 90
     1153
 91
        5
280
     0
281
     0
  0
CLASS
  1
CELLSTYLEMAP
  2
AcDbCellStyleMap
  3
ObjectDBX Classes
 90
     1152
 91
        4
280
     0
281
     0
  0
ENDSEC
  0
SECTION
  2
TABLES
  0
TABLE
  2
VPORT
  5
7
330
0
100
AcDbSymbolTable
 70
     1
  0
VPORT
  5
15
330
7
100
AcDbSymbolTableRecord
100
AcDbViewportTableRecord
  2
*ACTIVE
 70
     0
 10
0.0
 20
0.0
 11
1.0
 21
1.0
 12
1257.447354906539
 22
10.89524816311518
 13
0.0
 23
0.0
 14
1.0
 24
1.0
 15
0.0
 25
0.0
 16
0.0
 26
0.0
 36
1.0
 17
0.0
 27
0.0
 37
0.0
 40
3546.903518890515
 41
2.289655172413793
 42
50.0
 43
0.0
 44
0.0
 50
0.0
 51
0.0
 71
    16
 72
  2000
 73
     1
 74
     1
 75
     0
 76
     0
 77
     0
 78
     0
281
     0
 65
     0
110
0.0
120
0.0
130
0.0
111
1.0
121
0.0
131
0.0
112
0.0
122
1.0
132
0.0
 79
     0
146
0.0
348
22E
 60
     3
 61
     5
292
     1
282
     1
141
0.0
142
0.0
 63
   250
361
249
  0
ENDTAB
  0
TABLE
  2
LTYPE
  5
4
330
0
100
AcDbSymbolTable
 70
    14
  0
LTYPE
  5
11
330
4
100
AcDbSymbolTableRecord
100
AcDbLinetypeTableRecord
  2
ByBlock
 70
     0
  3

 72
    65
 73
     0
 40
0.0
  0
LTYPE
  5
12
330
4
100
AcDbSymbolTableRecord
100
AcDbLinetypeTableRecord
  2
ByLayer
 70
     0
  3

 72
    65
 73
     0
 40
0.0
  0
LTYPE
  5
13
330
4
100
AcDbSymbolTableRecord
100
AcDbLinetypeTableRecord
  2
Continuous
 70
     0
  3
Solid line
 72
    65
 73
     0
 40
0.0
  0
LTYPE
  5
37
330
4
100
AcDbSymbolTableRecord
100
AcDbLinetypeTableRecord
  2
STYLE_01
 70
     0
  3

 72
    65
 73
     2
 40
3.75
 49
2.5
 74
     0
 49
-1.25
 74
     0
  0
LTYPE
  5
38
330
4
100
AcDbSymbolTableRecord
100
AcDbLinetypeTableRecord
  2
STYLE_02
 70
     0
  3

 72
    65
 73
     4
 40
0.3937007874015748
 49
0.1968503937007874
 74
     0
 49
-0.0984251968503937
 74
     0
 49
0.0005
 74
     0
 49
-0.0979251968503937
 74
     0
  0
LTYPE
  5
39
330
4
100
AcDbSymbolTableRecord
100
AcDbLinetypeTableRecord
  2
STYLE_03
 70
     0
  3

 72
    65
 73
     2
 40
1.25
 49
1.04164
 74
     0
 49
-0.2083599999999999
 74
     0
  0
LTYPE
  5
3A
330
4
100
AcDbSymbolTableRecord
100
AcDbLinetypeTableRecord
  2
STYLE_04
 70
     0
  3

 72
    65
 73
     2
 40
1.52771
 49
1.319425
 74
     0
 49
-0.208285
 74
     0
  0
LTYPE
  5
3B
330
4
100
AcDbSymbolTableRecord
100
AcDbLinetypeTableRecord
  2
STYLE_05
 70
     0
  3

 72
    65
 73
     2
 40
0.20828
 49
0.069425
 74
     0
 49
-0.138855
 74
     0
  0
LTYPE
  5
3C
330
4
100
AcDbSymbolTableRecord
100
AcDbLinetypeTableRecord
  2
STYLE_06
 70
     0
  3

 72
    65
 73
     4
 40
1.04164
 49
0.625
 74
     0
 49
-0.20828
 74
     0
 49
0.06943
 74
     0
 49
-0.13893
 74
     0
  0
LTYPE
  5
3D
330
4
100
AcDbSymbolTableRecord
100
AcDbLinetypeTableRecord
  2
STYLE_07
 70
     0
  3

 72
    65
 73
     6
 40
1.875
 49
0.625
 74
     0
 49
-0.20828
 74
     0
 49
0.6250000000000001
 74
     0
 49
-0.2083599999999999
 74
     0
 49
0.06943
 74
     0
 49
-0.1389299999999999
 74
     0
  0
LTYPE
  5
3E
330
4
100
AcDbSymbolTableRecord
100
AcDbLinetypeTableRecord
  2
STYLE_08
 70
     0
  3

 72
    65
 73
     6
 40
1.25
 49
0.625
 74
     0
 49
-0.20828
 74
     0
 49
0.06943
 74
     0
 49
-0.13893
 74
     0
 49
0.0694299999999999
 74
     0
 49
-0.13893
 74
     0
  0
LTYPE
  5
3F
330
4
100
AcDbSymbolTableRecord
100
AcDbLinetypeTableRecord
  2
STYLE_09
 70
     0
  3

 72
    65
 73
     4
 40
5.0
 49
3.75
 74
     0
 49
-0.2777849999999998
 74
     0
 49
0.6944300000000003
 74
     0
 49
-0.2777849999999998
 74
     0
  0
LTYPE
  5
40
330
4
100
AcDbSymbolTableRecord
100
AcDbLinetypeTableRecord
  2
STYLE_10
 70
     0
  3

 72
    65
 73
     6
 40
5.9375
 49
3.75
 74
     0
 49
-0.2777849999999998
 74
     0
 49
0.6944300000000003
 74
     0
 49
-0.2777849999999998
 74
     0
 49
0.625
 74
     0
 49
-0.3125
 74
     0
  0
LTYPE
  5
41
330
4
100
AcDbSymbolTableRecord
100
AcDbLinetypeTableRecord
  2
STYLE_11
 70
     0
  3

 72
    65
 73
     2
 40
0.0694444881889764
 49
0.0347222440944882
 74
     0
 49
-0.0347222440944882
 74
     0
  0
LTYPE
  5
42
330
4
100
AcDbSymbolTableRecord
100
AcDbLinetypeTableRecord
  2
STYLE_12
 70
     0
  3

 72
    65
 73
     2
 40
0.3937007874015748
 49
0.1968503937007874
 74
     0
 49
-0.1968503937007874
 74
     0
  0
LTYPE
  5
43
330
4
100
AcDbSymbolTableRecord
100
AcDbLinetypeTableRecord
  2
STYLE_13
 70
     0
  3

 72
    65
 73
     2
 40
0.41664
 49
0.20828
 74
     0
 49
-0.20836
 74
     0
  0
ENDTAB
  0
TABLE
  2
LAYER
  5
2
330
0
100
AcDbSymbolTable
 70
     5
  0
LAYER
  5
14
330
2
100
AcDbSymbolTableRecord
100
AcDbLayerTableRecord
  2
0
 70
     0
 62
     7
  6
Continuous
370
    -3
390
1D
347
245
  0
LAYER
  5
44
330
2
100
AcDbSymbolTableRecord
100
AcDbLayerTableRecord
  2
Defpoints
 70
     0
 62
     7
  6
Continuous
290
     0
370
    -3
390
1D
347
245
  0
LAYER
  5
45
330
2
100
AcDbSymbolTableRecord
100
AcDbLayerTableRecord
  2
template
 70
     0
 62
     7
  6
Continuous
370
    -3
390
1D
347
245
  0
LAYER
  5
46
330
2
100
AcDbSymbolTableRecord
100
AcDbLayerTableRecord
  2
notes
 70
     0
 62
     7
  6
Continuous
370
    -3
390
1D
347
245
  0
LAYER
  5
47
330
2
100
AcDbSymbolTableRecord
100
AcDbLayerTableRecord
  2
ADF70-2203
 70
     0
 62
     7
  6
Continuous
370
    -3
390
1D
347
245
  0
ENDTAB
  0
TABLE
  2
STYLE
  5
3
330
0
100
AcDbSymbolTable
 70
     2
  0
STYLE
  5
17
330
3
100
AcDbSymbolTableRecord
100
AcDbTextStyleTableRecord
  2
Standard
 70
     0
 40
0.0
 41
1.0
 50
0.0
 71
     0
 42
0.0
  3
txt
  4
BIGFONT.SHX
  0
STYLE
  5
36
330
3
100
AcDbSymbolTableRecord
100
AcDbTextStyleTableRecord
  2
ＭＳ ゴシック
 70
     0
 40
0.0
 41
1.0
 50
0.0
 71
     0
 42
0.0
  3

  4
ＭＳ ゴシック
1001
ACAD
1000
ＭＳ ゴシック
1071
        0
  0
ENDTAB
  0
TABLE
  2
VIEW
  5
5
330
0
100
AcDbSymbolTable
 70
     0
  0
ENDTAB
  0
TABLE
  2
UCS
  5
6
330
0
100
AcDbSymbolTable
 70
     0
  0
ENDTAB
  0
TABLE
  2
APPID
  5
8
330
0
100
AcDbSymbolTable
 70
     1
  0
APPID
  5
16
330
8
100
AcDbSymbolTableRecord
100
AcDbRegAppTableRecord
  2
ACAD
 70
     0
  0
ENDTAB
  0
TABLE
  2
DIMSTYLE
  5
9
330
0
100
AcDbSymbolTable
 70
     2
100
AcDbDimStyleTable
  0
DIMSTYLE
105
18
330
9
100
AcDbSymbolTableRecord
100
AcDbDimStyleTableRecord
  2
Standard
 70
     0
178
     0
340
17
  0
DIMSTYLE
105
50
330
9
100
AcDbSymbolTableRecord
100
AcDbDimStyleTableRecord
  2
tform線あり
 70
     0
  3
<>
  4
[]
 41
9.999389648437498
 42
25.0
 43
0.9999999999999999
 44
0.0
 73
     0
 74
     0
 77
     1
 78
    11
140
24.4326171875
141
0.0
143
1.0
147
0.4999999999999999
171
     1
174
     1
178
     0
179
     2
271
     1
272
     1
276
     2
284
    11
285
    11
286
    11
289
     0
340
36
341
48
342
48
  0
ENDTAB
  0
TABLE
  2
BLOCK_RECORD
  5
1
330
0
100
AcDbSymbolTable
 70
    20
  0
BLOCK_RECORD
  5
A
330
1
100
AcDbSymbolTableRecord
100
AcDbBlockTableRecord
  2
*MODEL_SPACE
340
20
 70
     0
280
     1
281
     0
  0
BLOCK_RECORD
  5
B
330
1
100
AcDbSymbolTableRecord
100
AcDbBlockTableRecord
  2
*PAPER_SPACE
340
21
 70
     0
280
     1
281
     0
  0
BLOCK_RECORD
  5
48
330
1
100
AcDbSymbolTableRecord
100
AcDbBlockTableRecord
  2
_DOT
340
0
 70
     0
280
     1
281
     0
  0
BLOCK_RECORD
  5
23
330
1
100
AcDbSymbolTableRecord
100
AcDbBlockTableRecord
  2
グループ
340
0
102
{BLKREFS
331
14F
102
}
 70
     0
280
     1
281
     0
  0
BLOCK_RECORD
  5
24
330
1
100
AcDbSymbolTableRecord
100
AcDbBlockTableRecord
  2
*D2
340
0
 70
     0
280
     1
281
     0
  0
BLOCK_RECORD
  5
25
330
1
100
AcDbSymbolTableRecord
100
AcDbBlockTableRecord
  2
*D3
340
0
 70
     0
280
     1
281
     0
  0
BLOCK_RECORD
  5
26
330
1
100
AcDbSymbolTableRecord
100
AcDbBlockTableRecord
  2
*D4
340
0
 70
     0
280
     1
281
     0
  0
BLOCK_RECORD
  5
27
330
1
100
AcDbSymbolTableRecord
100
AcDbBlockTableRecord
  2
*D5
340
0
 70
     0
280
     1
281
     0
  0
BLOCK_RECORD
  5
28
330
1
100
AcDbSymbolTableRecord
100
AcDbBlockTableRecord
  2
*D6
340
0
 70
     0
280
     1
281
     0
  0
BLOCK_RECORD
  5
29
330
1
100
AcDbSymbolTableRecord
100
AcDbBlockTableRecord
  2
*D7
340
0
 70
     0
280
     1
281
     0
  0
BLOCK_RECORD
  5
2A
330
1
100
AcDbSymbolTableRecord
100
AcDbBlockTableRecord
  2
*D8
340
0
 70
     0
280
     1
281
     0
  0
BLOCK_RECORD
  5
2B
330
1
100
AcDbSymbolTableRecord
100
AcDbBlockTableRecord
  2
*D9
340
0
 70
     0
280
     1
281
     0
  0
BLOCK_RECORD
  5
2C
330
1
100
AcDbSymbolTableRecord
100
AcDbBlockTableRecord
  2
*D10
340
0
 70
     0
280
     1
281
     0
  0
BLOCK_RECORD
  5
2D
330
1
100
AcDbSymbolTableRecord
100
AcDbBlockTableRecord
  2
*D11
340
0
 70
     0
280
     1
281
     0
  0
BLOCK_RECORD
  5
2E
330
1
100
AcDbSymbolTableRecord
100
AcDbBlockTableRecord
  2
*D12
340
0
 70
     0
280
     1
281
     0
  0
BLOCK_RECORD
  5
2F
330
1
100
AcDbSymbolTableRecord
100
AcDbBlockTableRecord
  2
*D13
340
0
 70
     0
280
     1
281
     0
  0
BLOCK_RECORD
  5
30
330
1
100
AcDbSymbolTableRecord
100
AcDbBlockTableRecord
  2
*D14
340
0
 70
     0
280
     1
281
     0
  0
BLOCK_RECORD
  5
31
330
1
100
AcDbSymbolTableRecord
100
AcDbBlockTableRecord
  2
*D15
340
0
 70
     0
280
     1
281
     0
  0
BLOCK_RECORD
  5
32
330
1
100
AcDbSymbolTableRecord
100
AcDbBlockTableRecord
  2
*D16
340
0
 70
     0
280
     1
281
     0
  0
BLOCK_RECORD
  5
33
330
1
100
AcDbSymbolTableRecord
100
AcDbBlockTableRecord
  2
*D17
340
0
 70
     0
280
     1
281
     0
  0
BLOCK_RECORD
  5
34
330
1
100
AcDbSymbolTableRecord
100
AcDbBlockTableRecord
  2
*D18
340
0
 70
     0
280
     1
281
     0
  0
BLOCK_RECORD
  5
35
330
1
100
AcDbSymbolTableRecord
100
AcDbBlockTableRecord
  2
*D19
340
0
 70
     0
280
     1
281
     0
  0
ENDTAB
  0
ENDSEC
  0
SECTION
  2
BLOCKS
  0
BLOCK
  5
D
330
A
100
AcDbEntity
  8
0
390
1D
100
AcDbBlockBegin
  2
*MODEL_SPACE
 70
     0
 10
0.0
 20
0.0
 30
0.0
  3
*MODEL_SPACE
  1
*MODEL_SPACE
  0
ENDBLK
  5
E
330
A
100
AcDbEntity
  8
0
390
1D
100
AcDbBlockEnd
  0
BLOCK
  5
F
330
B
100
AcDbEntity
 67
     1
  8
0
390
1D
100
AcDbBlockBegin
  2
*PAPER_SPACE
 70
     0
 10
0.0
 20
0.0
 30
0.0
  3
*PAPER_SPACE
  1
*PAPER_SPACE
  0
ENDBLK
  5
10
330
B
100
AcDbEntity
 67
     1
  8
0
390
1D
100
AcDbBlockEnd
  0
BLOCK
  5
49
330
48
100
AcDbEntity
  8
0
390
1D
100
AcDbBlockBegin
  2
_DOT
 70
     0
 10
0.0
 20
0.0
 30
0.0
  3
_DOT
  1
_DOT
  0
POLYLINE
  5
4A
330
48
100
AcDbEntity
  8
0
  6
ByBlock
 62
     0
370
    -2
390
1D
100
AcDb2dPolyline
 66
     1
 10
0.0
 20
0.0
 30
0.0
 70
     1
 40
0.5
 41
0.5
  0
VERTEX
  5
4B
330
4A
100
AcDbEntity
  8
0
  6
ByBlock
 62
     0
370
    -2
390
1D
100
AcDbVertex
100
AcDb2dVertex
 10
-0.25
 20
0.0
 30
0.0
 42
1.0
  0
VERTEX
  5
4C
330
4A
100
AcDbEntity
  8
0
  6
ByBlock
 62
     0
370
    -2
390
1D
100
AcDbVertex
100
AcDb2dVertex
 10
0.25
 20
0.0
 30
0.0
 42
1.0
  0
SEQEND
  5
4D
330
4A
100
AcDbEntity
  8
0
390
1D
  0
LINE
  5
4E
330
48
100
AcDbEntity
  8
0
  6
ByBlock
 62
     0
370
    -2
390
1D
100
AcDbLine
 10
-0.5
 20
0.0
 30
0.0
 11
-1.0
 21
0.0
 31
0.0
  0
ENDBLK
  5
4F
330
48
100
AcDbEntity
  8
0
390
1D
100
AcDbBlockEnd
  0
BLOCK
  5
51
330
23
100
AcDbEntity
  8
template
390
1D
100
AcDbBlockBegin
  2
グループ
 70
     0
 10
0.0
 20
0.0
 30
0.0
  3
グループ
  1
グループ
  0
LWPOLYLINE
  5
52
330
23
100
AcDbEntity
  8
0
  6
Continuous
 62
     7
370
    15
390
1D
100
AcDbPolyline
 90
        8
 70
   129
 43
0.0
 10
-3294.51085840251
 20
-222.652398812394
 10
-3294.51085840251
 20
-228.6497875059699
 10
-3304.012055320513
 20
-228.6497875059699
 10
-3304.012055320513
 20
-253.1007507694787
 10
-3312.367432582296
 20
-253.1007507694787
 10
-3312.367432582296
 20
-228.6497875059699
 10
-3321.700389528605
 20
-228.6497875059699
 10
-3321.700389528605
 20
-222.652398812394
  0
LWPOLYLINE
  5
53
330
23
100
AcDbEntity
  8
0
  6
Continuous
 62
     7
370
    15
390
1D
100
AcDbPolyline
 90
      101
 70
   128
 43
0.0
 10
-3281.782566571953
 20
-223.3806473053305
 10
-3281.767216543167
 20
-223.3762865486451
 42
-0.022222160781234
 10
-3281.477211966497
 20
-223.3076620834008
 10
-3281.461418202505
 20
-223.3046586603042
 42
-0.0146883565597729
 10
-3281.198715497279
 20
-223.2626554733545
 42
-0.012745884419214
 10
-3280.934076530126
 20
-223.2351185052819
 10
-3280.871621451813
 20
-223.2302250826938
 42
-0.0198099018565701
 10
-3280.480772342341
 20
-223.2151399252971
 10
-3280.428960872892
 20
-223.2151937009622
 42
-0.0147617382764874
 10
-3279.934337411918
 20
-223.2303137262071
 10
-3279.861645957043
 20
-223.2346863330948
 42
-0.0162624548999547
 10
-3279.471492327579
 20
-223.2709192083671
 10
-3279.349959936318
 20
-223.286205767364
 42
-0.0080020874645632
 10
-3279.204380905228
 20
-223.306888614632
 10
-3279.166061434631
 20
-223.3129598924434
 42
-0.0053821929680754
 10
-3279.097577329318
 20
-223.3245674162647
 10
-3279.823983028517
 20
-225.5054958719786
 42
0.0108667757397704
 10
-3279.891300098648
 20
-225.4923087567587
 10
-3279.928768121837
 20
-225.4858110141643
 42
0.0170663203307088
 10
-3280.071984908753
 20
-225.4659814168725
 10
-3280.139860241436
 20
-225.458934246285
 42
0.0220162375265428
 10
-3280.420239649289
 20
-225.4422518855149
 10
-3280.498095216343
 20
-225.4410525182484
 42
0.0282606915791534
 10
-3280.833731539921
 20
-225.4548557952174
 10
-3280.877644813696
 20
-225.4591557852214
 42
0.016967721368644
 10
-3281.123569308652
 20
-225.4916928347731
 42
0.0190576269874873
 10
-3281.366477271235
 20
-225.5418397068802
 10
-3281.372736459343
 20
-225.5433826809888
 42
0.0213685642845605
 10
-3281.62312094382
 20
-225.6165829660933
 10
-3281.628610838737
 20
-225.6184459621526
 42
0.0237595297604394
 10
-3281.88210572364
 20
-225.7181304840499
 10
-3281.887207797666
 20
-225.7204222595263
 42
0.0261857468812923
 10
-3282.139378573896
 20
-225.8499585969015
 10
-3282.149804762982
 20
-225.8560240713692
 42
0.0272553062020064
 10
-3282.38623453822
 20
-226.0113962773136
 10
-3282.420997551735
 20
-226.0370574254091
 42
0.0325996893188888
 10
-3282.571152895382
 20
-226.1638052983772
 10
-3282.594862324503
 20
-226.1866233268877
 42
0.0138050960638988
 10
-3282.686745480715
 20
-226.2800729884417
 42
0.0125280103790428
 10
-3282.773588013541
 20
-226.3782363150333
 10
-3282.797268458457
 20
-226.4063948132291
 42
0.020521802472057
 10
-3282.922368533966
 20
-226.568188127452
 10
-3282.944834874458
 20
-226.5998478572851
 42
0.0163110129594536
 10
-3283.100545253718
 20
-226.8351782923698
 10
-3283.10326914976
 20
-226.8396020543405
 42
0.013189734188569
 10
-3283.250069670658
 20
-227.0927341466906
 10
-3283.251769766032
 20
-227.0958523858407
 42
0.0107895576062709
 10
-3283.389546468239
 20
-227.3620675954676
 10
-3283.390279357768
 20
-227.3635618281223
 42
0.0091371507211665
 10
-3283.518759306407
 20
-227.6380870258591
 10
-3283.548504937827
 20
-227.7047935330407
 42
0.0135418326351155
 10
-3283.720218876897
 20
-228.1197313183044
 10
-3283.753823685338
 20
-228.2075974606059
 42
0.0092834542418715
 10
-3283.925052745254
 20
-228.6814959588961
 10
-3283.950669872967
 20
-228.7567370286769
 42
0.0054261043576069
 10
-3284.058308021265
 20
-229.0845010017546
 10
-3284.075834007474
 20
-229.1398891640861
 42
0.0008225090833128
 10
-3284.144504059272
 20
-229.3581579221338
 10
-3285.129193191205
 20
-232.3830492153904
 10
-3281.896569351131
 20
-232.3830492153904
 10
-3282.400761780985
 20
-234.2875275137428
 10
-3285.656818062968
 20
-234.2875275137428
 10
-3291.485967095322
 20
-253.1007505797477
 10
-3293.311064705632
 20
-253.1007505797477
 10
-3287.476386670131
 20
-234.2875275137428
 10
-3289.881503039172
 20
-234.2875275137428
 10
-3289.377310609318
 20
-232.3830492153904
 10
-3286.948761798368
 20
-232.3830492153904
 10
-3286.08860688018
 20
-229.7466362146915
 42
-0.0005863560656416
 10
-3286.051872202054
 20
-229.6298097946495
 10
-3285.975784368316
 20
-229.3888174950143
 42
-0.0087522378924329
 10
-3285.776316224853
 20
-228.793541407852
 10
-3285.68405194944
 20
-228.5334012393407
 42
-0.0077400953832625
 10
-3285.426118290314
 20
-227.8403965618066
 10
-3285.410353318734
 20
-227.7999656784185
 42
-0.0082369946328445
 10
-3285.163268848123
 20
-227.1958866122249
 42
-0.0085725238364812
 10
-3284.896022752122
 20
-226.600460572942
 10
-3284.794393151118
 20
-226.3840394709625
 42
-0.0168109410602718
 10
-3284.507448722383
 20
-225.8228319448483
 10
-3284.381605331948
 20
-225.5958679118928
 42
-0.0007817726860867
 10
-3284.327320981868
 20
-225.4983236668198
 10
-3284.327192675854
 20
-225.4980939580906
 42
-0.0036626142164191
 10
-3284.272304811829
 20
-225.4014960781149
 42
-0.0080221150645521
 10
-3284.215180556407
 20
-225.3062168433366
 10
-3284.184480605061
 20
-225.2568258942398
 42
-0.0202139325573582
 10
-3284.056824865251
 20
-225.0688442935532
 10
-3284.002757400067
 20
-224.9957654293175
 42
-0.0249323791798598
 10
-3283.743594606349
 20
-224.6797201871643
 10
-3283.719454792221
 20
-224.6531059142507
 42
-0.0242132121535371
 10
-3283.379774050677
 20
-224.3132224280459
 10
-3283.331862477929
 20
-224.2697132918612
 42
-0.0251017527859383
 10
-3283.047880777287
 20
-224.0367205460958
 10
-3283.046435300483
 20
-224.035651288524
 42
-0.0130868069038289
 10
-3282.748174650516
 20
-223.8268708199744
 10
-3282.746612831373
 20
-223.8258373796991
 42
-0.0290329526392516
 10
-3282.43550168998
 20
-223.64501187807
 10
-3282.405656127994
 20
-223.6299094952305
 42
-0.0160250190053172
 10
-3282.13975171423
 20
-223.5058933850172
 42
-0.026760037478215
 10
-3281.864475636762
 20
-223.405145064469
 10
-3281.83773971724
 20
-223.396952505643
 42
-0.004998158765081
 10
-3281.782566571953
 20
-223.3806473053305
 42
-0.004998158765081
  0
LWPOLYLINE
  5
54
330
23
100
AcDbEntity
  8
0
  6
Continuous
 62
     7
370
    15
390
1D
100
AcDbPolyline
 90
      118
 70
   128
 43
0.0
 10
-3261.968199007506
 20
-232.4570325432178
 10
-3260.093077083006
 20
-232.4570325432178
 10
-3260.931115988607
 20
-235.1385990696178
 42
-0.0010587229237507
 10
-3260.899660173043
 20
-235.1016945362729
 10
-3260.841466082402
 20
-235.0337122800868
 42
-0.0071874740409956
 10
-3260.691090864304
 20
-234.8630715880566
 10
-3260.549368091042
 20
-234.7068354467445
 42
-0.0148118053512128
 10
-3260.099238798321
 20
-234.239221600723
 10
-3260.012016463425
 20
-234.1538242798749
 42
-0.0086273358689451
 10
-3259.676467662419
 20
-233.8364486458615
 10
-3259.632633946187
 20
-233.7963990015226
 42
-0.0103138323110341
 10
-3259.37461024396
 20
-233.5702358641902
 10
-3259.328835837636
 20
-233.5317538169327
 42
-0.0060206748567086
 10
-3259.155987773521
 20
-233.3899591661756
 10
-3259.153956642615
 20
-233.3883334605288
 42
-0.0067069027278123
 10
-3258.981663827972
 20
-233.2541828267493
 10
-3258.979115062039
 20
-233.2522526568684
 42
-0.0076184352059309
 10
-3258.808209796175
 20
-233.1268777816302
 42
-0.0089652861662637
 10
-3258.633248833441
 20
-233.0072445212985
 10
-3258.596897113299
 20
-232.9833333078172
 42
-0.0156916245948137
 10
-3258.400937616135
 20
-232.8630708213403
 42
-0.0023299011058227
 10
-3258.20067557214
 20
-232.7498928817912
 10
-3258.185291439775
 20
-232.7412928867348
 42
-0.0107669341494995
 10
-3257.951054614673
 20
-232.616892753385
 10
-3257.928789813599
 20
-232.6056760034353
 42
-0.0078058045900816
 10
-3257.645199695643
 20
-232.4683145477953
 10
-3257.635292607937
 20
-232.4637054199284
 42
-0.0181829330466947
 10
-3257.324983203323
 20
-232.332841678833
 10
-3257.270927760753
 20
-232.3123265588884
 42
-0.0208411536022511
 10
-3256.921842793305
 20
-232.1962360963961
 10
-3256.907486693178
 20
-232.1921176514429
 42
-0.0222799817141043
 10
-3256.57876689926
 20
-232.1134760853023
 10
-3256.569877936024
 20
-232.1117640747174
 42
-0.0215509523892003
 10
-3256.253406967743
 20
-232.0648483861829
 10
-3256.210925006692
 20
-232.0604108593919
 42
-0.0182545924878892
 10
-3255.976816227389
 20
-232.0445670340011
 10
-3255.937415211046
 20
-232.0433424889221
 42
-0.0072962856524574
 10
-3255.781492331352
 20
-232.0407731603998
 10
-3255.752392660785
 20
-232.040718324996
 42
-0.0059227516334517
 10
-3255.654643161635
 20
-232.0416920367865
 10
-3255.625400944142
 20
-232.0423298033902
 42
-0.001183311193047
 10
-3255.586149660431
 20
-232.0432788076998
 10
-3256.381536256038
 20
-234.5820127527988
 42
0.0143932051657872
 10
-3256.407937638388
 20
-234.5718137827536
 10
-3256.415209610806
 20
-234.5692425638962
 42
0.0234388603494613
 10
-3256.45704047674
 20
-234.5566233281804
 10
-3256.465722139651
 20
-234.5544423661759
 42
0.0199162743019514
 10
-3256.526010973732
 20
-234.5418256308404
 10
-3256.546824911537
 20
-234.5383284314123
 42
0.0293643550666221
 10
-3256.649899770297
 20
-234.5271783857591
 10
-3256.674584951016
 20
-234.5259667687405
 42
0.0214606686879826
 10
-3256.827725866967
 20
-234.5250282083231
 10
-3256.837097777787
 20
-234.5253731198674
 42
0.0167564054174839
 10
-3257.008617968897
 20
-234.5374501622356
 10
-3257.017077761654
 20
-234.5383315026626
 42
0.0137677553251312
 10
-3257.204431074919
 20
-234.563080811206
 10
-3257.211782814426
 20
-234.564258731174
 42
0.0118497261476834
 10
-3257.412280578531
 20
-234.6012760813637
 10
-3257.418430585775
 20
-234.6025629440833
 42
0.0106421143873253
 10
-3257.629311473063
 20
-234.6513953196588
 10
-3257.634220281449
 20
-234.6526426623432
 42
0.0099746379687406
 10
-3257.852678750613
 20
-234.7128171906581
 10
-3257.914226790782
 20
-234.7310990692886
 42
0.0191613675864846
 10
-3258.250211253296
 20
-234.8450764495747
 10
-3258.338271026044
 20
-234.8787633599
 42
0.0205274080142814
 10
-3258.723577797944
 20
-235.0445917677262
 10
-3258.781227079923
 20
-235.0722597322972
 42
0.0181256912180892
 10
-3259.039504020593
 20
-235.2079435512763
 10
-3259.09245940391
 20
-235.2382611644926
 42
0.0140709242417886
 10
-3259.237414338535
 20
-235.3267558379255
 10
-3259.263663207153
 20
-235.3438126566407
 42
0.0086667884379193
 10
-3259.352589368696
 20
-235.4038153245237
 42
0.0036408192043965
 10
-3259.440022606764
 20
-235.465996182341
 10
-3259.475249481198
 20
-235.4914371282289
 42
0.005226078128572
 10
-3259.631478178578
 20
-235.6067695148548
 10
-3259.647685034849
 20
-235.6189976254813
 42
0.0050024435890839
 10
-3259.833688377923
 20
-235.7622801937556
 10
-3259.849006534423
 20
-235.7743262161893
 42
0.0136138710275664
 10
-3260.059447802749
 20
-235.949292721103
 10
-3260.093115678542
 20
-235.9788716938168
 42
0.0172815186920249
 10
-3260.357519220201
 20
-236.2278683664375
 10
-3260.360081566047
 20
-236.2304541835873
 42
0.0189403858001104
 10
-3260.610663364631
 20
-236.5032594483986
 10
-3260.643294858163
 20
-236.5416033798907
 42
0.018504419950683
 10
-3260.835251297142
 20
-236.7848519610117
 42
0.0088565243901255
 10
-3261.013711403768
 20
-237.0383683811573
 10
-3261.022889383419
 20
-237.0519097609217
 42
0.0157195347219819
 10
-3261.20610998975
 20
-237.3414319702315
 10
-3261.252192931684
 20
-237.4195841672592
 42
0.009545187978676
 10
-3261.417278481822
 20
-237.7121788096148
 10
-3261.428426400747
 20
-237.7328494817386
 42
0.0100351706242108
 10
-3261.560470149911
 20
-237.9899050422375
 42
0.0086935915410403
 10
-3261.682801301699
 20
-238.25173818763
 10
-3261.686122043119
 20
-238.2591805106138
 42
0.0072580174872818
 10
-3261.806468495075
 20
-238.5397725022235
 10
-3261.80973012837
 20
-238.5476925282147
 42
0.0060005122623574
 10
-3261.928930796723
 20
-238.8473021988474
 10
-3261.932141775054
 20
-238.8556637267246
 42
0.0049017786987548
 10
-3262.05104193391
 20
-239.1745927073245
 10
-3262.054207740302
 20
-239.1833456445594
 42
0.0039415167611667
 10
-3262.173644018376
 20
-239.5218877070234
 10
-3262.176775121011
 20
-239.5309909078487
 42
0.0031035838755328
 10
-3262.297579906689
 20
-239.8894307695749
 10
-3262.300689951235
 20
-239.898851390997
 42
0.0025070747153455
 10
-3262.423591302563
 20
-240.2774986079826
 10
-3262.460885198975
 20
-240.3943902731939
 42
0.0029081910280803
 10
-3262.652903496758
 20
-241.0085539313914
 10
-3262.693706665304
 20
-241.1417771737615
 42
0.0009266453731591
 10
-3262.962124039587
 20
-242.0240016335826
 10
-3262.983011512115
 20
-242.0931135124461
 42
-0.0005809993668935
 10
-3263.26034819285
 20
-243.0069216195599
 10
-3263.326629991086
 20
-243.2244065516008
 42
-0.0012018708172709
 10
-3263.473614300552
 20
-243.7025692162402
 10
-3263.525934152102
 20
-243.871328357057
 42
-0.0002691059612581
 10
-3263.569503633286
 20
-244.011595977448
 10
-3266.402459531575
 20
-253.1007505797477
 10
-3268.220448423554
 20
-253.1007505797477
 10
-3261.968199007506
 20
-232.4570325432178
  0
SPLINE
  5
55
330
23
100
AcDbEntity
  8
0
  6
Continuous
 62
     7
370
    15
390
1D
100
AcDbSpline
210
0.0
220
0.0
230
1.0
 70
    15
 71
     2
 72
   782
 73
   779
 74
     0
 42
0.000000001
 43
0.000001
 40
0.0
 40
0.0
 40
0.0
 40
1.0
 40
1.0
 40
2.0
 40
2.0
 40
3.0
 40
3.0
 40
4.0
 40
4.0
 40
5.0
 40
5.0
 40
6.0
 40
6.0
 40
7.0
 40
7.0
 40
8.0
 40
8.0
 40
9.0
 40
9.0
 40
10.0
 40
10.0
 40
11.0
 40
11.0
 40
12.0
 40
12.0
 40
13.0
 40
13.0
 40
14.0
 40
14.0
 40
15.0
 40
15.0
 40
16.0
 40
16.0
 40
17.0
 40
17.0
 40
18.0
 40
18.0
 40
19.0
 40
19.0
 40
20.0
 40
20.0
 40
21.0
 40
21.0
 40
22.0
 40
22.0
 40
23.0
 40
23.0
 40
24.0
 40
24.0
 40
25.0
 40
25.0
 40
26.0
 40
26.0
 40
27.0
 40
27.0
 40
28.0
 40
28.0
 40
29.0
 40
29.0
 40
30.0
 40
30.0
 40
31.0
 40
31.0
 40
32.0
 40
32.0
 40
33.0
 40
33.0
 40
34.0
 40
34.0
 40
35.0
 40
35.0
 40
36.0
 40
36.0
 40
37.0
 40
37.0
 40
38.0
 40
38.0
 40
39.0
 40
39.0
 40
40.0
 40
40.0
 40
41.0
 40
41.0
 40
42.0
 40
42.0
 40
43.0
 40
43.0
 40
44.0
 40
44.0
 40
45.0
 40
45.0
 40
46.0
 40
46.0
 40
47.0
 40
47.0
 40
48.0
 40
48.0
 40
49.0
 40
49.0
 40
50.0
 40
50.0
 40
51.0
 40
51.0
 40
52.0
 40
52.0
 40
53.0
 40
53.0
 40
54.0
 40
54.0
 40
55.0
 40
55.0
 40
56.0
 40
56.0
 40
57.0
 40
57.0
 40
58.0
 40
58.0
 40
59.0
 40
59.0
 40
60.0
 40
60.0
 40
61.0
 40
61.0
 40
62.0
 40
62.0
 40
63.0
 40
63.0
 40
64.0
 40
64.0
 40
65.0
 40
65.0
 40
66.0
 40
66.0
 40
67.0
 40
67.0
 40
68.0
 40
68.0
 40
69.0
 40
69.0
 40
70.0
 40
70.0
 40
71.0
 40
71.0
 40
72.0
 40
72.0
 40
73.0
 40
73.0
 40
74.0
 40
74.0
 40
75.0
 40
75.0
 40
76.0
 40
76.0
 40
77.0
 40
77.0
 40
78.0
 40
78.0
 40
79.0
 40
79.0
 40
80.0
 40
80.0
 40
81.0
 40
81.0
 40
82.0
 40
82.0
 40
83.0
 40
83.0
 40
84.0
 40
84.0
 40
85.0
 40
85.0
 40
86.0
 40
86.0
 40
87.0
 40
87.0
 40
88.0
 40
88.0
 40
89.0
 40
89.0
 40
90.0
 40
90.0
 40
91.0
 40
91.0
 40
92.0
 40
92.0
 40
93.0
 40
93.0
 40
94.0
 40
94.0
 40
95.0
 40
95.0
 40
96.0
 40
96.0
 40
97.0
 40
97.0
 40
98.0
 40
98.0
 40
99.0
 40
99.0
 40
100.0
 40
100.0
 40
101.0
 40
101.0
 40
102.0
 40
102.0
 40
103.0
 40
103.0
 40
104.0
 40
104.0
 40
105.0
 40
105.0
 40
106.0
 40
106.0
 40
107.0
 40
107.0
 40
108.0
 40
108.0
 40
109.0
 40
109.0
 40
110.0
 40
110.0
 40
111.0
 40
111.0
 40
112.0
 40
112.0
 40
113.0
 40
113.0
 40
114.0
 40
114.0
 40
115.0
 40
115.0
 40
116.0
 40
116.0
 40
117.0
 40
117.0
 40
118.0
 40
118.0
 40
119.0
 40
119.0
 40
120.0
 40
120.0
 40
121.0
 40
121.0
 40
122.0
 40
122.0
 40
123.0
 40
123.0
 40
124.0
 40
124.0
 40
125.0
 40
125.0
 40
126.0
 40
126.0
 40
127.0
 40
127.0
 40
128.0
 40
128.0
 40
129.0
 40
129.0
 40
130.0
 40
130.0
 40
131.0
 40
131.0
 40
132.0
 40
132.0
 40
133.0
 40
133.0
 40
134.0
 40
134.0
 40
135.0
 40
135.0
 40
136.0
 40
136.0
 40
137.0
 40
137.0
 40
138.0
 40
138.0
 40
139.0
 40
139.0
 40
140.0
 40
140.0
 40
141.0
 40
141.0
 40
142.0
 40
142.0
 40
143.0
 40
143.0
 40
144.0
 40
144.0
 40
145.0
 40
145.0
 40
146.0
 40
146.0
 40
147.0
 40
147.0
 40
148.0
 40
148.0
 40
149.0
 40
149.0
 40
150.0
 40
150.0
 40
151.0
 40
151.0
 40
152.0
 40
152.0
 40
153.0
 40
153.0
 40
154.0
 40
154.0
 40
155.0
 40
155.0
 40
156.0
 40
156.0
 40
157.0
 40
157.0
 40
158.0
 40
158.0
 40
159.0
 40
159.0
 40
160.0
 40
160.0
 40
161.0
 40
161.0
 40
162.0
 40
162.0
 40
163.0
 40
163.0
 40
164.0
 40
164.0
 40
165.0
 40
165.0
 40
166.0
 40
166.0
 40
167.0
 40
167.0
 40
168.0
 40
168.0
 40
169.0
 40
169.0
 40
170.0
 40
170.0
 40
171.0
 40
171.0
 40
172.0
 40
172.0
 40
173.0
 40
173.0
 40
174.0
 40
174.0
 40
175.0
 40
175.0
 40
176.0
 40
176.0
 40
177.0
 40
177.0
 40
178.0
 40
178.0
 40
179.0
 40
179.0
 40
180.0
 40
180.0
 40
181.0
 40
181.0
 40
182.0
 40
182.0
 40
183.0
 40
183.0
 40
184.0
 40
184.0
 40
185.0
 40
185.0
 40
186.0
 40
186.0
 40
187.0
 40
187.0
 40
188.0
 40
188.0
 40
189.0
 40
189.0
 40
190.0
 40
190.0
 40
191.0
 40
191.0
 40
192.0
 40
192.0
 40
193.0
 40
193.0
 40
194.0
 40
194.0
 40
195.0
 40
195.0
 40
196.0
 40
196.0
 40
197.0
 40
197.0
 40
198.0
 40
198.0
 40
199.0
 40
199.0
 40
200.0
 40
200.0
 40
201.0
 40
201.0
 40
202.0
 40
202.0
 40
203.0
 40
203.0
 40
204.0
 40
204.0
 40
205.0
 40
205.0
 40
206.0
 40
206.0
 40
207.0
 40
207.0
 40
208.0
 40
208.0
 40
209.0
 40
209.0
 40
210.0
 40
210.0
 40
211.0
 40
211.0
 40
212.0
 40
212.0
 40
213.0
 40
213.0
 40
214.0
 40
214.0
 40
215.0
 40
215.0
 40
216.0
 40
216.0
 40
217.0
 40
217.0
 40
218.0
 40
218.0
 40
219.0
 40
219.0
 40
220.0
 40
220.0
 40
221.0
 40
221.0
 40
222.0
 40
222.0
 40
223.0
 40
223.0
 40
224.0
 40
224.0
 40
225.0
 40
225.0
 40
226.0
 40
226.0
 40
227.0
 40
227.0
 40
228.0
 40
228.0
 40
229.0
 40
229.0
 40
230.0
 40
230.0
 40
231.0
 40
231.0
 40
232.0
 40
232.0
 40
233.0
 40
233.0
 40
234.0
 40
234.0
 40
235.0
 40
235.0
 40
236.0
 40
236.0
 40
237.0
 40
237.0
 40
238.0
 40
238.0
 40
239.0
 40
239.0
 40
240.0
 40
240.0
 40
241.0
 40
241.0
 40
242.0
 40
242.0
 40
243.0
 40
243.0
 40
244.0
 40
244.0
 40
245.0
 40
245.0
 40
246.0
 40
246.0
 40
247.0
 40
247.0
 40
248.0
 40
248.0
 40
249.0
 40
249.0
 40
250.0
 40
250.0
 40
251.0
 40
251.0
 40
252.0
 40
252.0
 40
253.0
 40
253.0
 40
254.0
 40
254.0
 40
255.0
 40
255.0
 40
256.0
 40
256.0
 40
257.0
 40
257.0
 40
258.0
 40
258.0
 40
259.0
 40
259.0
 40
260.0
 40
260.0
 40
261.0
 40
261.0
 40
262.0
 40
262.0
 40
263.0
 40
263.0
 40
264.0
 40
264.0
 40
265.0
 40
265.0
 40
266.0
 40
266.0
 40
267.0
 40
267.0
 40
268.0
 40
268.0
 40
269.0
 40
269.0
 40
270.0
 40
270.0
 40
271.0
 40
271.0
 40
272.0
 40
272.0
 40
273.0
 40
273.0
 40
274.0
 40
274.0
 40
275.0
 40
275.0
 40
276.0
 40
276.0
 40
277.0
 40
277.0
 40
278.0
 40
278.0
 40
279.0
 40
279.0
 40
280.0
 40
280.0
 40
281.0
 40
281.0
 40
282.0
 40
282.0
 40
283.0
 40
283.0
 40
284.0
 40
284.0
 40
285.0
 40
285.0
 40
286.0
 40
286.0
 40
287.0
 40
287.0
 40
288.0
 40
288.0
 40
289.0
 40
289.0
 40
290.0
 40
290.0
 40
291.0
 40
291.0
 40
292.0
 40
292.0
 40
293.0
 40
293.0
 40
294.0
 40
294.0
 40
295.0
 40
295.0
 40
296.0
 40
296.0
 40
297.0
 40
297.0
 40
298.0
 40
298.0
 40
299.0
 40
299.0
 40
300.0
 40
300.0
 40
301.0
 40
301.0
 40
302.0
 40
302.0
 40
303.0
 40
303.0
 40
304.0
 40
304.0
 40
305.0
 40
305.0
 40
306.0
 40
306.0
 40
307.0
 40
307.0
 40
308.0
 40
308.0
 40
309.0
 40
309.0
 40
310.0
 40
310.0
 40
311.0
 40
311.0
 40
312.0
 40
312.0
 40
313.0
 40
313.0
 40
314.0
 40
314.0
 40
315.0
 40
315.0
 40
316.0
 40
316.0
 40
317.0
 40
317.0
 40
318.0
 40
318.0
 40
319.0
 40
319.0
 40
320.0
 40
320.0
 40
321.0
 40
321.0
 40
322.0
 40
322.0
 40
323.0
 40
323.0
 40
324.0
 40
324.0
 40
325.0
 40
325.0
 40
326.0
 40
326.0
 40
327.0
 40
327.0
 40
328.0
 40
328.0
 40
329.0
 40
329.0
 40
330.0
 40
330.0
 40
331.0
 40
331.0
 40
332.0
 40
332.0
 40
333.0
 40
333.0
 40
334.0
 40
334.0
 40
335.0
 40
335.0
 40
336.0
 40
336.0
 40
337.0
 40
337.0
 40
338.0
 40
338.0
 40
339.0
 40
339.0
 40
340.0
 40
340.0
 40
341.0
 40
341.0
 40
342.0
 40
342.0
 40
343.0
 40
343.0
 40
344.0
 40
344.0
 40
345.0
 40
345.0
 40
346.0
 40
346.0
 40
347.0
 40
347.0
 40
348.0
 40
348.0
 40
349.0
 40
349.0
 40
350.0
 40
350.0
 40
351.0
 40
351.0
 40
352.0
 40
352.0
 40
353.0
 40
353.0
 40
354.0
 40
354.0
 40
355.0
 40
355.0
 40
356.0
 40
356.0
 40
357.0
 40
357.0
 40
358.0
 40
358.0
 40
359.0
 40
359.0
 40
360.0
 40
360.0
 40
361.0
 40
361.0
 40
362.0
 40
362.0
 40
363.0
 40
363.0
 40
364.0
 40
364.0
 40
365.0
 40
365.0
 40
366.0
 40
366.0
 40
367.0
 40
367.0
 40
368.0
 40
368.0
 40
369.0
 40
369.0
 40
370.0
 40
370.0
 40
371.0
 40
371.0
 40
372.0
 40
372.0
 40
373.0
 40
373.0
 40
374.0
 40
374.0
 40
375.0
 40
375.0
 40
376.0
 40
376.0
 40
377.0
 40
377.0
 40
378.0
 40
378.0
 40
379.0
 40
379.0
 40
380.0
 40
380.0
 40
381.0
 40
381.0
 40
382.0
 40
382.0
 40
383.0
 40
383.0
 40
384.0
 40
384.0
 40
385.0
 40
385.0
 40
386.0
 40
386.0
 40
387.0
 40
387.0
 40
388.0
 40
388.0
 40
389.0
 40
389.0
 40
389.0
 10
-3251.639494556773
 20
-232.4461061798554
 30
0.0
 41
1.0
 10
-3250.821070448053
 20
-232.4461061798554
 30
0.0
 41
1.0
 10
-3250.002646339332
 20
-232.4461061798554
 30
0.0
 41
1.0
 10
-3250.416400074849
 20
-233.7887324441051
 30
0.0
 41
1.0
 10
-3250.830153810366
 20
-235.1313587083548
 30
0.0
 41
1.0
 10
-3250.811814315167
 20
-235.1026579353957
 30
0.0
 41
0.999995726439481
 10
-3250.793307318297
 20
-235.0740648851832
 30
0.0
 41
1.0
 10
-3250.762877994195
 20
-235.0270520068621
 30
0.0
 41
1.0
 10
-3250.732448670093
 20
-234.980039128541
 30
0.0
 41
1.0
 10
-3250.653083024987
 20
-234.8574203216381
 30
0.0
 41
0.9995394069080992
 10
-3250.566424633434
 20
-234.7398422598952
 30
0.0
 41
1.0
 10
-3250.530667771175
 20
-234.691327367303
 30
0.0
 41
1.0
 10
-3250.494910908916
 20
-234.6428124747108
 30
0.0
 41
1.0
 10
-3250.361184241098
 20
-234.4613721995841
 30
0.0
 41
0.9994460617143391
 10
-3250.215683759809
 20
-234.2892298019325
 30
0.0
 41
1.0
 10
-3250.211295578833
 20
-234.2840381215489
 30
0.0
 41
1.0
 10
-3250.206907397857
 20
-234.2788464411653
 30
0.0
 41
1.0
 10
-3250.07018327852
 20
-234.117087404282
 30
0.0
 41
0.9994359394934309
 10
-3249.922909048169
 20
-233.9648712031183
 30
0.0
 41
1.0
 10
-3249.920525694214
 20
-233.9624078727426
 30
0.0
 41
1.0
 10
-3249.918142340258
 20
-233.9599445423669
 30
0.0
 41
1.0
 10
-3249.775634817815
 20
-233.8126550019509
 30
0.0
 41
0.9995293688568088
 10
-3249.624363136836
 20
-233.6743817897894
 30
0.0
 41
1.0
 10
-3249.605069377573
 20
-233.6567459041388
 30
0.0
 41
1.0
 10
-3249.58577561831
 20
-233.6391100184882
 30
0.0
 41
1.0
 10
-3249.473091455854
 20
-233.5361085776259
 30
0.0
 41
0.9997087614802792
 10
-3249.355568566899
 20
-233.4386642968275
 30
0.0
 41
1.0
 10
-3249.336402493729
 20
-233.4227727183242
 30
0.0
 41
1.0
 10
-3249.317236420559
 20
-233.4068811398209
 30
0.0
 41
1.0
 10
-3249.23804567795
 20
-233.3412200160348
 30
0.0
 41
0.9999595338693027
 10
-3249.157686407088
 20
-233.2769942853746
 30
0.0
 41
1.0
 10
-3249.077327136222
 20
-233.2127685547106
 30
0.0
 41
0.999974941750579
 10
-3248.996066601874
 20
-233.1496870007611
 30
0.0
 41
1.0
 10
-3248.975080455705
 20
-233.133395713454
 30
0.0
 41
1.0
 10
-3248.954094309535
 20
-233.1171044261469
 30
0.0
 41
1.0
 10
-3248.869526424249
 20
-233.0514554163179
 30
0.0
 41
0.9999792037122777
 10
-3248.784118824487
 20
-232.9869026346806
 30
0.0
 41
1.0
 10
-3248.763293998535
 20
-232.9711628123921
 30
0.0
 41
1.0
 10
-3248.742469172583
 20
-232.9554229901036
 30
0.0
 41
1.0
 10
-3248.698711224647
 20
-232.9223498529832
 30
0.0
 41
0.9999993373899672
 10
-3248.655029538575
 20
-232.889176057613
 30
0.0
 41
1.0
 10
-3248.611347852428
 20
-232.8560022621866
 30
0.0
 41
0.9999160953816548
 10
-3248.566821441504
 20
-232.8239711969846
 30
0.0
 41
1.0
 10
-3248.533999554088
 20
-232.8003600414027
 30
0.0
 41
1.0
 10
-3248.501177666673
 20
-232.7767488858209
 30
0.0
 41
1.0
 10
-3248.391007480916
 20
-232.6974955094535
 30
0.0
 41
0.9980964527231323
 10
-3248.271918487415
 20
-232.6324080365977
 30
0.0
 41
1.0
 10
-3248.234885880487
 20
-232.6121680570045
 30
0.0
 41
1.0
 10
-3248.197853273558
 20
-232.5919280774112
 30
0.0
 41
1.0
 10
-3248.018526260285
 20
-232.4939178267098
 30
0.0
 41
0.998457281057318
 10
-3247.829437693926
 20
-232.4163955653631
 30
0.0
 41
1.0
 10
-3247.825791424531
 20
-232.4149006730259
 30
0.0
 41
1.0
 10
-3247.822145155138
 20
-232.4134057806887
 30
0.0
 41
1.0
 10
-3247.640349127571
 20
-232.3388733040177
 30
0.0
 41
0.998783852803355
 10
-3247.452096469008
 20
-232.282607663851
 30
0.0
 41
1.0
 10
-3247.447858519808
 20
-232.2813410101604
 30
0.0
 41
1.0
 10
-3247.443620570608
 20
-232.2800743564698
 30
0.0
 41
1.0
 10
-3247.263843810448
 20
-232.2263420236853
 30
0.0
 41
0.9990652816208005
 10
-3247.080097878733
 20
-232.1883383441432
 30
0.0
 41
1.0
 10
-3247.074909477701
 20
-232.1872652410366
 30
0.0
 41
1.0
 10
-3247.06972107667
 20
-232.1861921379301
 30
0.0
 41
1.0
 10
-3246.896351947015
 20
-232.1503346646011
 30
0.0
 41
0.9992909934270748
 10
-3246.720776180558
 20
-232.1276242321346
 30
0.0
 41
1.0
 10
-3246.545200414097
 20
-232.1049137996679
 30
0.0
 41
0.9994553539448612
 10
-3246.368508981006
 20
-232.0938344954618
 30
0.0
 41
1.0
 10
-3246.333074573211
 20
-232.091612607414
 30
0.0
 41
1.0
 10
-3246.297640165416
 20
-232.0893907193663
 30
0.0
 41
1.0
 10
-3246.131414398846
 20
-232.0789676569547
 30
0.0
 41
0.9990928098293097
 10
-3245.964904606943
 20
-232.0827272981891
 30
0.0
 41
1.0
 10
-3245.926342771671
 20
-232.0835979897221
 30
0.0
 41
1.0
 10
-3245.8877809364
 20
-232.084468681255
 30
0.0
 41
1.0
 10
-3245.798394815036
 20
-232.086486939424
 30
0.0
 41
0.9998382089205802
 10
-3245.709139132255
 20
-232.0917190659517
 30
0.0
 41
1.0
 10
-3245.708709226034
 20
-232.091744266854
 30
0.0
 41
1.0
 10
-3245.708279319814
 20
-232.0917694677563
 30
0.0
 41
1.0
 10
-3245.619883449464
 20
-232.0969511924801
 30
0.0
 41
0.9997558016758696
 10
-3245.531802872268
 20
-232.1060337078462
 30
0.0
 41
1.0
 10
-3245.531326733837
 20
-232.1060828053289
 30
0.0
 41
1.0
 10
-3245.530850595406
 20
-232.1061319028117
 30
0.0
 41
1.0
 10
-3245.443722295065
 20
-232.1151162232129
 30
0.0
 41
0.9996565144181159
 10
-3245.357184441725
 20
-232.1286535299017
 30
0.0
 41
1.0
 10
-3245.356718516348
 20
-232.1287264156329
 30
0.0
 41
1.0
 10
-3245.356252590972
 20
-232.1287993013641
 30
0.0
 41
1.0
 10
-3245.270646588387
 20
-232.14219083659
 30
0.0
 41
0.9995321806867975
 10
-3245.186019508054
 20
-232.16079132502
 30
0.0
 41
1.0
 10
-3245.185630313483
 20
-232.1608768674858
 30
0.0
 41
1.0
 10
-3245.185241118911
 20
-232.1609624099517
 30
0.0
 41
1.0
 10
-3245.101392427726
 20
-232.1793918134494
 30
0.0
 41
0.9993819199219441
 10
-3245.01904589353
 20
-232.2036671967099
 30
0.0
 41
1.0
 10
-3245.018807460033
 20
-232.2037374858192
 30
0.0
 41
1.0
 10
-3245.018569026535
 20
-232.2038077749285
 30
0.0
 41
1.0
 10
-3244.936699359335
 20
-232.2279425799704
 30
0.0
 41
0.999208856850576
 10
-3244.857006840346
 20
-232.258507815765
 30
0.0
 41
1.0
 10
-3244.777325849464
 20
-232.2890674164996
 30
0.0
 41
0.9990226101774602
 10
-3244.70065517956
 20
-232.3265448481128
 30
0.0
 41
1.0
 10
-3244.623996037766
 20
-232.3640166446637
 30
0.0
 41
0.9988424273971266
 10
-3244.551292410555
 20
-232.408681419916
 30
0.0
 41
1.0
 10
-3244.551024702173
 20
-232.4088458839898
 30
0.0
 41
1.0
 10
-3244.550756993791
 20
-232.4090103480636
 30
0.0
 41
1.0
 10
-3244.477517949821
 20
-232.4540040514602
 30
0.0
 41
0.9986928844491495
 10
-3244.409255083111
 20
-232.5062397857403
 30
0.0
 41
1.0
 10
-3244.408673790887
 20
-232.5066845989683
 30
0.0
 41
1.0
 10
-3244.408092498665
 20
-232.5071294121964
 30
0.0
 41
1.0
 10
-3244.338667047512
 20
-232.5602547729295
 30
0.0
 41
0.9986007262275219
 10
-3244.275240877746
 20
-232.6204155426229
 30
0.0
 41
1.0
 10
-3244.274346462287
 20
-232.6212639104592
 30
0.0
 41
1.0
 10
-3244.273452046828
 20
-232.6221122782955
 30
0.0
 41
1.0
 10
-3244.208237046148
 20
-232.6839697836575
 30
0.0
 41
0.9985581491379225
 10
-3244.150029434448
 20
-232.7524622739285
 30
0.0
 41
1.0
 10
-3244.140770980851
 20
-232.7633566316314
 30
0.0
 41
1.0
 10
-3244.131512527254
 20
-232.7742509893343
 30
0.0
 41
1.0
 10
-3244.054788008363
 20
-232.8645321950053
 30
0.0
 41
0.9970460233517516
 10
-3243.992796107206
 20
-232.9654992791836
 30
0.0
 41
1.0
 10
-3243.978326742122
 20
-232.9890657382714
 30
0.0
 41
1.0
 10
-3243.963857377038
 20
-233.0126321973592
 30
0.0
 41
1.0
 10
-3243.924120677028
 20
-233.0773519213884
 30
0.0
 41
0.998846881663625
 10
-3243.890774306278
 20
-233.1455843738129
 30
0.0
 41
1.0
 10
-3243.883738283785
 20
-233.1599812949547
 30
0.0
 41
1.0
 10
-3243.876702261291
 20
-233.1743782160964
 30
0.0
 41
1.0
 10
-3243.857427935526
 20
-233.2138168262425
 30
0.0
 41
0.9998431189998035
 10
-3243.839562608032
 20
-233.2539133806813
 30
0.0
 41
1.0
 10
-3243.821697280533
 20
-233.2940099351306
 30
0.0
 41
0.9999989989912167
 10
-3243.803718557078
 20
-233.3340557727886
 30
0.0
 41
1.0
 10
-3243.797546245502
 20
-233.3478039895598
 30
0.0
 41
1.0
 10
-3243.791373933926
 20
-233.3615522063311
 30
0.0
 41
1.0
 10
-3243.761050587317
 20
-233.4290944775373
 30
0.0
 41
0.999879035631876
 10
-3243.732842707181
 20
-233.497547229471
 30
0.0
 41
1.0
 10
-3243.726007525893
 20
-233.5141343309073
 30
0.0
 41
1.0
 10
-3243.719172344604
 20
-233.5307214323435
 30
0.0
 41
1.0
 10
-3243.695614682228
 20
-233.5878893872215
 30
0.0
 41
0.9998227574562221
 10
-3243.67422593384
 20
-233.6459036954951
 30
0.0
 41
1.0
 10
-3243.652837185448
 20
-233.7039180037778
 30
0.0
 41
0.9996797971041615
 10
-3243.634410900487
 20
-233.7629401229038
 30
0.0
 41
1.0
 10
-3243.630507097763
 20
-233.7754445810662
 30
0.0
 41
1.0
 10
-3243.62660329504
 20
-233.7879490392286
 30
0.0
 41
1.0
 10
-3243.60036940463
 20
-233.8719800746821
 30
0.0
 41
0.9979274938732203
 10
-3243.585144881151
 20
-233.9586844333401
 30
0.0
 41
1.0
 10
-3243.582921193891
 20
-233.971348434154
 30
0.0
 41
1.0
 10
-3243.580697506631
 20
-233.984012434968
 30
0.0
 41
1.0
 10
-3243.569767566931
 20
-234.0462589422674
 30
0.0
 41
0.9994985982136613
 10
-3243.562799401753
 20
-234.1090724434194
 30
0.0
 41
1.0
 10
-3243.555831236577
 20
-234.1718859445576
 30
0.0
 41
0.9996372611201468
 10
-3243.552255370809
 20
-234.2349835232361
 30
0.0
 41
1.0
 10
-3243.552086793319
 20
-234.2379581403221
 30
0.0
 41
1.0
 10
-3243.55191821583
 20
-234.240932757408
 30
0.0
 41
1.0
 10
-3243.548005195083
 20
-234.3099795702511
 30
0.0
 41
0.9997730630734959
 10
-3243.547036881595
 20
-234.3791303942817
 30
0.0
 41
1.0
 10
-3243.546979775178
 20
-234.3832085734269
 30
0.0
 41
1.0
 10
-3243.546922668759
 20
-234.387286752572
 30
0.0
 41
1.0
 10
-3243.545840142435
 20
-234.4645939348848
 30
0.0
 41
0.9998772614071656
 10
-3243.547180229166
 20
-234.5418970814439
 30
0.0
 41
1.0
 10
-3243.547269492365
 20
-234.547046245284
 30
0.0
 41
1.0
 10
-3243.547358755564
 20
-234.5521954091241
 30
0.0
 41
1.0
 10
-3243.548877368693
 20
-234.6397968833625
 30
0.0
 41
0.9999415567325509
 10
-3243.552289678939
 20
-234.7273450450416
 30
0.0
 41
1.0
 10
-3243.552530999614
 20
-234.7335365047749
 30
0.0
 41
1.0
 10
-3243.552772320289
 20
-234.7397279645081
 30
0.0
 41
1.0
 10
-3243.556667271887
 20
-234.8396590456751
 30
0.0
 41
0.9999716810432063
 10
-3243.562065855006
 20
-234.9395201839211
 30
0.0
 41
1.0
 10
-3243.565278653795
 20
-234.9989494335757
 30
0.0
 41
1.0
 10
-3243.568491452584
 20
-235.0583786832303
 30
0.0
 41
1.0
 10
-3243.576565361736
 20
-235.2077270844956
 30
0.0
 41
0.9999819129900921
 10
-3243.586435153352
 20
-235.3569675621936
 30
0.0
 41
1.0
 10
-3243.596304944968
 20
-235.506208039905
 30
0.0
 41
1.0
 10
-3243.598744265532
 20
-235.5434010857543
 30
0.0
 41
1.0
 10
-3243.576046031698
 20
-235.5046600884199
 30
0.0
 41
0.999998212805476
 10
-3243.553201472956
 20
-235.4660051944841
 30
0.0
 41
1.0
 10
-3243.526291913066
 20
-235.4204719804202
 30
0.0
 41
1.0
 10
-3243.499382353176
 20
-235.3749387663563
 30
0.0
 41
1.0
 10
-3243.422718674649
 20
-235.2452174442848
 30
0.0
 41
0.9998609190057887
 10
-3243.341771361786
 20
-235.1181250623528
 30
0.0
 41
1.0
 10
-3243.312123040299
 20
-235.0715753293888
 30
0.0
 41
1.0
 10
-3243.282474718813
 20
-235.0250255964248
 30
0.0
 41
1.0
 10
-3243.200202498581
 20
-234.8958530264386
 30
0.0
 41
0.9999067609734522
 10
-3243.114433489124
 20
-234.7689753370065
 30
0.0
 41
1.0
 10
-3243.112028785918
 20
-234.7654180709438
 30
0.0
 41
1.0
 10
-3243.109624082711
 20
-234.7618608048811
 30
0.0
 41
1.0
 10
-3243.028664479653
 20
-234.6420976475564
 30
0.0
 41
0.9998784952149228
 10
-3242.944010869978
 20
-234.5249164308565
 30
0.0
 41
1.0
 10
-3242.859357260303
 20
-234.4077352141549
 30
0.0
 41
0.9998532968283559
 10
-3242.770739639484
 20
-234.2935223056901
 30
0.0
 41
1.0
 10
-3242.75077785049
 20
-234.2677949846664
 30
0.0
 41
1.0
 10
-3242.730816061496
 20
-234.2420676636426
 30
0.0
 41
1.0
 10
-3242.612332011736
 20
-234.0893620526718
 30
0.0
 41
0.9991551975795134
 10
-3242.481707562109
 20
-233.946902490585
 30
0.0
 41
1.0
 10
-3242.478197946127
 20
-233.9430748889577
 30
0.0
 41
1.0
 10
-3242.474688330145
 20
-233.9392472873303
 30
0.0
 41
1.0
 10
-3242.351083112482
 20
-233.804442928497
 30
0.0
 41
0.999741814418119
 10
-3242.221480972786
 20
-233.675393517889
 30
0.0
 41
1.0
 10
-3242.091878833086
 20
-233.5463441072778
 30
0.0
 41
0.9989238204633738
 10
-3241.950876284835
 20
-233.4298591452386
 30
0.0
 41
1.0
 10
-3241.905628606695
 20
-233.3924791536294
 30
0.0
 41
1.0
 10
-3241.860380928555
 20
-233.3550991620202
 30
0.0
 41
1.0
 10
-3241.720140871333
 20
-233.2392441087289
 30
0.0
 41
0.9990825084096473
 10
-3241.570500938729
 20
-233.1358151108963
 30
0.0
 41
1.0
 10
-3241.560455574672
 20
-233.1288718978163
 30
0.0
 41
1.0
 10
-3241.550410210614
 20
-233.1219286847364
 30
0.0
 41
1.0
 10
-3241.420861006126
 20
-233.0323861130639
 30
0.0
 41
0.9998164899825263
 10
-3241.28797680275
 20
-232.9478718715469
 30
0.0
 41
1.0
 10
-3241.276131242229
 20
-232.9403381050246
 30
0.0
 41
1.0
 10
-3241.264285681708
 20
-232.9328043385022
 30
0.0
 41
1.0
 10
-3241.155092599381
 20
-232.8633576300348
 30
0.0
 41
0.9997473449131107
 10
-3241.042888642124
 20
-232.7988886722148
 30
0.0
 41
1.0
 10
-3240.930684684879
 20
-232.7344197144016
 30
0.0
 41
0.9999327861146579
 10
-3240.817016074111
 20
-232.6725697227179
 30
0.0
 41
1.0
 10
-3240.81646407155
 20
-232.6722693640386
 30
0.0
 41
1.0
 10
-3240.815912068989
 20
-232.6719690053594
 30
0.0
 41
1.0
 10
-3240.701139453103
 20
-232.6095182963192
 30
0.0
 41
0.9996956420484135
 10
-3240.58342612726
 20
-232.552804829343
 30
0.0
 41
1.0
 10
-3240.552985722366
 20
-232.5381388526127
 30
0.0
 41
1.0
 10
-3240.522545317473
 20
-232.5234728758824
 30
0.0
 41
1.0
 10
-3240.419568210734
 20
-232.4738592174411
 30
0.0
 41
0.9998070570176931
 10
-3240.314721821794
 20
-232.4283286305405
 30
0.0
 41
1.0
 10
-3240.209875432854
 20
-232.3827980436398
 30
0.0
 41
0.9997827436147012
 10
-3240.103222496248
 20
-232.3416768723296
 30
0.0
 41
1.0
 10
-3240.083999646614
 20
-232.3342652986962
 30
0.0
 41
1.0
 10
-3240.06477679698
 20
-232.3268537250628
 30
0.0
 41
1.0
 10
-3239.919678161109
 20
-232.2709094064863
 30
0.0
 41
0.9988031841976254
 10
-3239.769807798503
 20
-232.2294093423185
 30
0.0
 41
1.0
 10
-3239.74489055014
 20
-232.2225095965115
 30
0.0
 41
1.0
 10
-3239.719973301776
 20
-232.2156098507046
 30
0.0
 41
1.0
 10
-3239.552703276129
 20
-232.169291708298
 30
0.0
 41
0.9984748040550644
 10
-3239.381346367481
 20
-232.141697476033
 30
0.0
 41
1.0
 10
-3239.376607231232
 20
-232.1409343155196
 30
0.0
 41
1.0
 10
-3239.371868094984
 20
-232.1401711550062
 30
0.0
 41
1.0
 10
-3239.209989458833
 20
-232.1141032437684
 30
0.0
 41
0.9984436495480707
 10
-3239.046214715107
 20
-232.1062252899494
 30
0.0
 41
1.0
 10
-3239.024517506974
 20
-232.1051816027497
 30
0.0
 41
1.0
 10
-3239.002820298841
 20
-232.10413791555
 30
0.0
 41
1.0
 10
-3238.88243997138
 20
-232.0983473361308
 30
0.0
 41
0.998795478933576
 10
-3238.762071726472
 20
-232.104383863873
 30
0.0
 41
1.0
 10
-3238.74210693398
 20
-232.1053851082114
 30
0.0
 41
1.0
 10
-3238.722142141488
 20
-232.1063863525499
 30
0.0
 41
1.0
 10
-3238.641703481569
 20
-232.1104203916146
 30
0.0
 41
0.999794159587647
 10
-3238.561494703468
 20
-232.1177144575363
 30
0.0
 41
1.0
 10
-3238.481285925378
 20
-232.125008523457
 30
0.0
 41
0.9998589466236957
 10
-3238.401367378516
 20
-232.1349923779077
 30
0.0
 41
1.0
 10
-3238.368961176709
 20
-232.1390407348268
 30
0.0
 41
1.0
 10
-3238.336554974902
 20
-232.1430890917459
 30
0.0
 41
1.0
 10
-3238.191824024431
 20
-232.1611696600344
 30
0.0
 41
0.9993495063249463
 10
-3238.048772780664
 20
-232.1896353697762
 30
0.0
 41
1.0
 10
-3238.015839083514
 20
-232.1961888329906
 30
0.0
 41
1.0
 10
-3237.982905386364
 20
-232.2027422962051
 30
0.0
 41
1.0
 10
-3237.873611563158
 20
-232.2244906303404
 30
0.0
 41
0.9996788715560099
 10
-3237.7655599912
 20
-232.2517484297041
 30
0.0
 41
1.0
 10
-3237.763496988662
 20
-232.2522688562767
 30
0.0
 41
1.0
 10
-3237.761433986124
 20
-232.2527892828494
 30
0.0
 41
1.0
 10
-3237.657508419245
 20
-232.2790062290664
 30
0.0
 41
0.9995480654492376
 10
-3237.555346184014
 20
-232.3114211856915
 30
0.0
 41
1.0
 10
-3237.553656541886
 20
-232.311957290605
 30
0.0
 41
1.0
 10
-3237.551966899759
 20
-232.3124933955185
 30
0.0
 41
1.0
 10
-3237.453183948785
 20
-232.3438361423159
 30
0.0
 41
0.9993867959457247
 10
-3237.356836790342
 20
-232.3820155116057
 30
0.0
 41
1.0
 10
-3237.355593841256
 20
-232.3825080535021
 30
0.0
 41
1.0
 10
-3237.354350892171
 20
-232.3830005953985
 30
0.0
 41
1.0
 10
-3237.260489631899
 20
-232.4201948808955
 30
0.0
 41
0.9992050256521068
 10
-3237.169889956866
 20
-232.4647487801342
 30
0.0
 41
1.0
 10
-3237.169155274152
 20
-232.4651100725958
 30
0.0
 41
1.0
 10
-3237.168420591438
 20
-232.4654713650575
 30
0.0
 41
1.0
 10
-3237.079290281833
 20
-232.5093026793731
 30
0.0
 41
0.999022235074229
 10
-3236.994380220439
 20
-232.5608359470713
 30
0.0
 41
1.0
 10
-3236.994196335155
 20
-232.5609475499772
 30
0.0
 41
1.0
 10
-3236.99401244987
 20
-232.5610591528831
 30
0.0
 41
1.0
 10
-3236.909470159043
 20
-232.6123692147714
 30
0.0
 41
0.9988642743805007
 10
-3236.830195624427
 20
-232.6714934022948
 30
0.0
 41
1.0
 10
-3236.750921089809
 20
-232.7306175898182
 30
0.0
 41
0.9987681233309391
 10
-3236.677897305533
 20
-232.7973082812188
 30
0.0
 41
1.0
 10
-3236.677568377567
 20
-232.797608682434
 30
0.0
 41
1.0
 10
-3236.6772394496
 20
-232.7979090836492
 30
0.0
 41
1.0
 10
-3236.603557809392
 20
-232.8652005774792
 30
0.0
 41
0.9987496570899127
 10
-3236.536964004065
 20
-232.9395133915652
 30
0.0
 41
1.0
 10
-3236.536191834304
 20
-232.940375064923
 30
0.0
 41
1.0
 10
-3236.535419664544
 20
-232.9412367382808
 30
0.0
 41
1.0
 10
-3236.467281519699
 20
-233.0172728990792
 30
0.0
 41
0.9988147669825553
 10
-3236.406859265477
 20
-233.0995739059179
 30
0.0
 41
1.0
 10
-3236.405739939396
 20
-233.1010985372743
 30
0.0
 41
1.0
 10
-3236.404620613315
 20
-233.1026231686308
 30
0.0
 41
1.0
 10
-3236.341959706933
 20
-233.1879734381821
 30
0.0
 41
0.9989452636217995
 10
-3236.287392793968
 20
-233.2787121273454
 30
0.0
 41
1.0
 10
-3236.286044067885
 20
-233.2809549083669
 30
0.0
 41
1.0
 10
-3236.284695341802
 20
-233.2831976893884
 30
0.0
 41
1.0
 10
-3236.22743097667
 20
-233.3784219405978
 30
0.0
 41
0.9991046436070703
 10
-3236.178421763349
 20
-233.4781463736205
 30
0.0
 41
1.0
 10
-3236.176957901759
 20
-233.4811250536948
 30
0.0
 41
1.0
 10
-3236.175494040168
 20
-233.4841037337691
 30
0.0
 41
1.0
 10
-3236.123557103665
 20
-233.589785526942
 30
0.0
 41
0.9992763831100954
 10
-3236.079803975109
 20
-233.6991095889011
 30
0.0
 41
1.0
 10
-3236.078324705447
 20
-233.7028057764319
 30
0.0
 41
1.0
 10
-3236.076845435785
 20
-233.7065019639626
 30
0.0
 41
1.0
 10
-3236.030133767903
 20
-233.8232184009839
 30
0.0
 41
0.9994163472882921
 10
-3235.991500736714
 20
-233.9428519894459
 30
0.0
 41
1.0
 10
-3235.990262584467
 20
-233.946686133231
 30
0.0
 41
1.0
 10
-3235.989024432219
 20
-233.9505202770162
 30
0.0
 41
1.0
 10
-3235.949140871202
 20
-234.0740263384934
 30
0.0
 41
0.999726805589015
 10
-3235.91507281529
 20
-234.1992613704444
 30
0.0
 41
1.0
 10
-3235.914142635022
 20
-234.2026807365476
 30
0.0
 41
1.0
 10
-3235.913212454754
 20
-234.2061001026507
 30
0.0
 41
1.0
 10
-3235.881004759379
 20
-234.3244964023895
 30
0.0
 41
0.9996701319000024
 10
-3235.854919142607
 20
-234.4443903556586
 30
0.0
 41
1.0
 10
-3235.828833525837
 20
-234.5642843089222
 30
0.0
 41
0.9995785451110585
 10
-3235.809749948497
 20
-234.6854900699553
 30
0.0
 41
1.0
 10
-3235.805530166323
 20
-234.7122912247202
 30
0.0
 41
1.0
 10
-3235.801310384149
 20
-234.739092379485
 30
0.0
 41
1.0
 10
-3235.774735408211
 20
-234.9078783531877
 30
0.0
 41
0.9979925101216365
 10
-3235.769709822285
 20
-235.0786696812784
 30
0.0
 41
1.0
 10
-3235.76888500986
 20
-235.1067004047609
 30
0.0
 41
1.0
 10
-3235.768060197436
 20
-235.1347311282434
 30
0.0
 41
1.0
 10
-3235.764684236359
 20
-235.2494610093709
 30
0.0
 41
0.9995314902263722
 10
-3235.768334428497
 20
-235.364182493122
 30
0.0
 41
1.0
 10
-3235.771984620636
 20
-235.4789039768804
 30
0.0
 41
0.9996245486944917
 10
-3235.781913715768
 20
-235.5932532480113
 30
0.0
 41
1.0
 10
-3235.782076763761
 20
-235.5951310041399
 30
0.0
 41
1.0
 10
-3235.782239811755
 20
-235.5970087602684
 30
0.0
 41
1.0
 10
-3235.792495002873
 20
-235.7151135436541
 30
0.0
 41
0.9997286095000816
 10
-3235.808240326444
 20
-235.8326124525394
 30
0.0
 41
1.0
 10
-3235.808633819095
 20
-235.8355488772503
 30
0.0
 41
1.0
 10
-3235.809027311747
 20
-235.8384853019613
 30
0.0
 41
1.0
 10
-3235.82555962062
 20
-235.961857060266
 30
0.0
 41
0.9998265533969218
 10
-3235.846675079353
 20
-236.0845275350589
 30
0.0
 41
1.0
 10
-3235.847351621489
 20
-236.0884579135611
 30
0.0
 41
1.0
 10
-3235.848028163626
 20
-236.0923882920632
 30
0.0
 41
1.0
 10
-3235.870496706633
 20
-236.222919523871
 30
0.0
 41
0.9999022530853839
 10
-3235.896606171244
 20
-236.3527714925146
 30
0.0
 41
1.0
 10
-3235.897584812408
 20
-236.3576386348971
 30
0.0
 41
1.0
 10
-3235.898563453573
 20
-236.3625057772797
 30
0.0
 41
1.0
 10
-3235.926630200517
 20
-236.5020920307043
 30
0.0
 41
0.9999524761933021
 10
-3235.957413169354
 20
-236.6411045238809
 30
0.0
 41
1.0
 10
-3235.958689276526
 20
-236.6468672831716
 30
0.0
 41
1.0
 10
-3235.959965383699
 20
-236.6526300424622
 30
0.0
 41
1.0
 10
-3235.99330056689
 20
-236.8031680542491
 30
0.0
 41
0.9999813588712267
 10
-3236.028471567689
 20
-236.9532877669188
 30
0.0
 41
1.0
 10
-3236.030025493142
 20
-236.9599203573254
 30
0.0
 41
1.0
 10
-3236.031579418594
 20
-236.966552947732
 30
0.0
 41
1.0
 10
-3236.069858270309
 20
-237.1299378412589
 30
0.0
 41
0.9999955237680148
 10
-3236.1091141483
 20
-237.2930907449053
 30
0.0
 41
1.0
 10
-3236.121395783926
 20
-237.3441349353953
 30
0.0
 41
1.0
 10
-3236.133677419552
 20
-237.3951791258853
 30
0.0
 41
1.0
 10
-3236.197496568824
 20
-237.6604204106294
 30
0.0
 41
0.9999993604811732
 10
-3236.261915516016
 20
-237.9255166614088
 30
0.0
 41
1.0
 10
-3236.26663435154
 20
-237.9449355693557
 30
0.0
 41
1.0
 10
-3236.271353187064
 20
-237.9643544773027
 30
0.0
 41
1.0
 10
-3236.345209805325
 20
-238.2682885440634
 30
0.0
 41
0.9999659914729662
 10
-3236.424069401211
 20
-238.5709630906259
 30
0.0
 41
1.0
 10
-3236.429022090141
 20
-238.5899722278058
 30
0.0
 41
1.0
 10
-3236.433974779071
 20
-238.6089813649858
 30
0.0
 41
1.0
 10
-3236.522739752813
 20
-238.9496741858938
 30
0.0
 41
0.9999441976025968
 10
-3236.618682785774
 20
-239.288415611183
 30
0.0
 41
1.0
 10
-3236.635383304202
 20
-239.3473793237211
 30
0.0
 41
1.0
 10
-3236.652083822631
 20
-239.4063430362593
 30
0.0
 41
1.0
 10
-3236.781427892458
 20
-239.8630118866555
 30
0.0
 41
0.9999625120740145
 10
-3236.918660659795
 20
-240.3173724206952
 30
0.0
 41
1.0
 10
-3236.954450602865
 20
-240.4358684472817
 30
0.0
 41
1.0
 10
-3236.990240545936
 20
-240.5543644738682
 30
0.0
 41
1.0
 10
-3237.064760749978
 20
-240.8010915519708
 30
0.0
 41
0.9999793386321553
 10
-3237.142446773113
 20
-241.0468401912019
 30
0.0
 41
1.0
 10
-3237.220132796251
 20
-241.292588830438
 30
0.0
 41
1.0
 10
-3237.230912355121
 20
-241.3266067348127
 30
0.0
 41
1.0
 10
-3239.081285408391
 20
-247.2136786572802
 30
0.0
 41
1.0
 10
-3240.93165846166
 20
-253.1007505797477
 30
0.0
 41
1.0
 10
-3241.892915151683
 20
-253.1007505797477
 30
0.0
 41
1.0
 10
-3242.854171841707
 20
-253.1007505797477
 30
0.0
 41
1.0
 10
-3241.235227063028
 20
-247.9527220779582
 30
0.0
 41
1.0
 10
-3239.61628228435
 20
-242.8046935761688
 30
0.0
 41
1.0
 10
-3239.571116461167
 20
-242.66066235387
 30
0.0
 41
1.0
 10
-3239.525950637983
 20
-242.5166311315711
 30
0.0
 41
1.0
 10
-3239.355646220628
 20
-241.9735401024325
 30
0.0
 41
0.999991165788689
 10
-3239.189913408959
 20
-241.4290365711029
 30
0.0
 41
1.0
 10
-3239.160217465463
 20
-241.3314726310684
 30
0.0
 41
1.0
 10
-3239.130521521967
 20
-241.233908691034
 30
0.0
 41
1.0
 10
-3239.024180597281
 20
-240.8845330397492
 30
0.0
 41
0.9999952428188636
 10
-3238.919997007953
 20
-240.5345080153896
 30
0.0
 41
1.0
 10
-3238.914937537614
 20
-240.5175097410892
 30
0.0
 41
1.0
 10
-3238.909878067273
 20
-240.5005114667889
 30
0.0
 41
1.0
 10
-3238.81581341862
 20
-240.1844829910117
 30
0.0
 41
0.9999931687561741
 10
-3238.724087580755
 20
-239.8677677777696
 30
0.0
 41
1.0
 10
-3238.719152316304
 20
-239.8507270685281
 30
0.0
 41
1.0
 10
-3238.714217051853
 20
-239.8336863592866
 30
0.0
 41
1.0
 10
-3238.632361742889
 20
-239.5510525645275
 30
0.0
 41
0.9999893840807952
 10
-3238.553114516424
 20
-239.2676764352525
 30
0.0
 41
1.0
 10
-3238.473867289957
 20
-238.9843003059669
 30
0.0
 41
0.9999833980072261
 10
-3238.397891049209
 20
-238.7000297229141
 30
0.0
 41
1.0
 10
-3238.388887112489
 20
-238.6663408444467
 30
0.0
 41
1.0
 10
-3238.37988317577
 20
-238.6326519659792
 30
0.0
 41
1.0
 10
-3238.310918626909
 20
-238.3746161337042
 30
0.0
 41
0.9999233658067392
 10
-3238.248363655694
 20
-238.1149519749995
 30
0.0
 41
1.0
 10
-3238.185808684474
 20
-237.855287816277
 30
0.0
 41
1.0
 10
-3238.146325265616
 20
-237.6914811518509
 30
0.0
 41
1.0
 10
-3238.141346661644
 20
-237.6708261900012
 30
0.0
 41
1.0
 10
-3238.136368057671
 20
-237.6501712281515
 30
0.0
 41
1.0
 10
-3238.106841846762
 20
-237.527674487438
 30
0.0
 41
0.999986867084173
 10
-3238.078572762762
 20
-237.4048815417793
 30
0.0
 41
1.0
 10
-3238.074675275602
 20
-237.3879519543538
 30
0.0
 41
1.0
 10
-3238.070777788443
 20
-237.3710223669283
 30
0.0
 41
1.0
 10
-3238.050303678765
 20
-237.2820885961271
 30
0.0
 41
0.9999778173345587
 10
-3238.03101608065
 20
-237.1928899789034
 30
0.0
 41
1.0
 10
-3238.011728482537
 20
-237.1036913616813
 30
0.0
 41
0.9999602692860164
 10
-3237.994034123907
 20
-237.0141630732571
 30
0.0
 41
1.0
 10
-3237.990830291828
 20
-236.9979526183662
 30
0.0
 41
1.0
 10
-3237.987626459749
 20
-236.9817421634752
 30
0.0
 41
1.0
 10
-3237.963524436962
 20
-236.8597929652728
 30
0.0
 41
0.9995617985320479
 10
-3237.946681089743
 20
-236.7366312175634
 30
0.0
 41
1.0
 10
-3237.944216599837
 20
-236.7186104001987
 30
0.0
 41
1.0
 10
-3237.941752109931
 20
-236.700589582834
 30
0.0
 41
1.0
 10
-3237.921468848883
 20
-236.5522745331362
 30
0.0
 41
0.9991121410639895
 10
-3237.913743495295
 20
-236.4027784343328
 30
0.0
 41
1.0
 10
-3237.912824705271
 20
-236.3849985977586
 30
0.0
 41
1.0
 10
-3237.911905915246
 20
-236.3672187611844
 30
0.0
 41
1.0
 10
-3237.906018141707
 20
-236.2532823355286
 30
0.0
 41
0.9989792494906555
 10
-3237.910437233824
 20
-236.1392794996283
 30
0.0
 41
1.0
 10
-3237.911085205693
 20
-236.1225632536916
 30
0.0
 41
1.0
 10
-3237.911733177562
 20
-236.105847007755
 30
0.0
 41
1.0
 10
-3237.914856325942
 20
-236.0252766637203
 30
0.0
 41
0.9997820295394396
 10
-3237.921340323318
 20
-235.9449069419859
 30
0.0
 41
1.0
 10
-3237.927824320694
 20
-235.8645372202368
 30
0.0
 41
0.9998335105971828
 10
-3237.937236516206
 20
-235.7844576037824
 30
0.0
 41
1.0
 10
-3237.938831440882
 20
-235.770887873304
 30
0.0
 41
1.0
 10
-3237.940426365558
 20
-235.7573181428257
 30
0.0
 41
1.0
 10
-3237.953028410422
 20
-235.6500990654092
 30
0.0
 41
0.9996876457879517
 10
-3237.970972323221
 20
-235.5436436376931
 30
0.0
 41
1.0
 10
-3237.973203986367
 20
-235.5304039024501
 30
0.0
 41
1.0
 10
-3237.975435649512
 20
-235.517164167207
 30
0.0
 41
1.0
 10
-3237.989231470932
 20
-235.4353180232494
 30
0.0
 41
0.9995547496493853
 10
-3238.007884792824
 20
-235.3544405260604
 30
0.0
 41
1.0
 10
-3238.008258749695
 20
-235.3528191153555
 30
0.0
 41
1.0
 10
-3238.008632706567
 20
-235.3511977046506
 30
0.0
 41
1.0
 10
-3238.026538114717
 20
-235.2735630288699
 30
0.0
 41
0.9994899427175342
 10
-3238.049363023397
 20
-235.1972297460348
 30
0.0
 41
1.0
 10
-3238.049821550137
 20
-235.1956962962462
 30
0.0
 41
1.0
 10
-3238.050280076878
 20
-235.1941628464576
 30
0.0
 41
1.0
 10
-3238.072187932076
 20
-235.1208964632009
 30
0.0
 41
0.9993784877591144
 10
-3238.099203567182
 20
-235.0493557580414
 30
0.0
 41
1.0
 10
-3238.099735258158
 20
-235.0479477753254
 30
0.0
 41
1.0
 10
-3238.100266949133
 20
-235.0465397926095
 30
0.0
 41
1.0
 10
-3238.126219202288
 20
-234.9778150528859
 30
0.0
 41
0.999243083225565
 10
-3238.157435737448
 20
-234.9113159008141
 30
0.0
 41
1.0
 10
-3238.158017853504
 20
-234.9100758456996
 30
0.0
 41
1.0
 10
-3238.158599969559
 20
-234.908835790585
 30
0.0
 41
1.0
 10
-3238.188652272607
 20
-234.8448167487479
 30
0.0
 41
0.9990789632799011
 10
-3238.224082899384
 20
-234.7836101369962
 30
0.0
 41
1.0
 10
-3238.224678605564
 20
-234.7825810511419
 30
0.0
 41
1.0
 10
-3238.225274311743
 20
-234.7815519652876
 30
0.0
 41
1.0
 10
-3238.259513526159
 20
-234.7224035252507
 30
0.0
 41
0.9988874801122053
 10
-3238.299172802193
 20
-234.6667438128287
 30
0.0
 41
1.0
 10
-3238.29972832826
 20
-234.6659641611511
 30
0.0
 41
1.0
 10
-3238.300283854326
 20
-234.6651845094735
 30
0.0
 41
1.0
 10
-3238.338832078227
 20
-234.6110841004077
 30
0.0
 41
0.9986762060689658
 10
-3238.382734549501
 20
-234.5612303859717
 30
0.0
 41
1.0
 10
-3238.383178509833
 20
-234.5607262441556
 30
0.0
 41
1.0
 10
-3238.383622470164
 20
-234.5602221023394
 30
0.0
 41
1.0
 10
-3238.426637020776
 20
-234.5113766715338
 30
0.0
 41
0.9984621642489484
 10
-3238.474794577555
 20
-234.4675933710614
 30
0.0
 41
1.0
 10
-3238.475041212073
 20
-234.4673691388965
 30
0.0
 41
1.0
 10
-3238.475287846592
 20
-234.4671449067316
 30
0.0
 41
1.0
 10
-3238.522952134334
 20
-234.4238100705894
 30
0.0
 41
0.9982724693850829
 10
-3238.575370766175
 20
-234.3863657200726
 30
0.0
 41
1.0
 10
-3238.627789398018
 20
-234.3489213695538
 30
0.0
 41
0.9981399180158096
 10
-3238.684375461412
 20
-234.3181348501101
 30
0.0
 41
1.0
 10
-3238.684421123489
 20
-234.3181100069536
 30
0.0
 41
1.0
 10
-3238.684466785566
 20
-234.3180851637972
 30
0.0
 41
1.0
 10
-3238.741144173116
 20
-234.2872489580395
 30
0.0
 41
0.9980927086834638
 10
-3238.801189524183
 20
-234.2636321491869
 30
0.0
 41
1.0
 10
-3238.801629693895
 20
-234.2634590233119
 30
0.0
 41
1.0
 10
-3238.802069863606
 20
-234.2632858974368
 30
0.0
 41
1.0
 10
-3238.862995554095
 20
-234.2393228368349
 30
0.0
 41
0.9981411356562758
 10
-3238.926384075495
 20
-234.2229501953288
 30
0.0
 41
1.0
 10
-3238.927266192197
 20
-234.2227223531233
 30
0.0
 41
1.0
 10
-3238.928148308898
 20
-234.2224945109178
 30
0.0
 41
1.0
 10
-3238.9933010637
 20
-234.2056661850017
 30
0.0
 41
0.9983031812937601
 10
-3239.059968492693
 20
-234.1965268238255
 30
0.0
 41
1.0
 10
-3239.068839518098
 20
-234.1953107051539
 30
0.0
 41
1.0
 10
-3239.077710543504
 20
-234.1940945864824
 30
0.0
 41
1.0
 10
-3239.132060186009
 20
-234.1866438564911
 30
0.0
 41
0.9983887708262488
 10
-3239.1869040353
 20
-234.1853991828581
 30
0.0
 41
1.0
 10
-3239.194967440518
 20
-234.1852161849832
 30
0.0
 41
1.0
 10
-3239.203030845736
 20
-234.1850331871084
 30
0.0
 41
1.0
 10
-3239.241747884596
 20
-234.1841545092248
 30
0.0
 41
0.9998869563079654
 10
-3239.280473837796
 20
-234.1844403785844
 30
0.0
 41
1.0
 10
-3239.319199790983
 20
-234.184726247944
 30
0.0
 41
0.999997232009809
 10
-3239.357923970203
 20
-234.1851943474731
 30
0.0
 41
1.0
 10
-3239.377276986786
 20
-234.1854282875625
 30
0.0
 41
1.0
 10
-3239.396630003369
 20
-234.185662227652
 30
0.0
 41
1.0
 10
-3239.474060215736
 20
-234.1865982073596
 30
0.0
 41
0.9997304945086697
 10
-3239.551363521979
 20
-234.1911273011459
 30
0.0
 41
1.0
 10
-3239.560413163682
 20
-234.1916575071358
 30
0.0
 41
1.0
 10
-3239.569462805386
 20
-234.1921877131257
 30
0.0
 41
1.0
 10
-3239.664865395027
 20
-234.1977772188912
 30
0.0
 41
0.999788830641505
 10
-3239.759957730871
 20
-234.2072821833804
 30
0.0
 41
1.0
 10
-3239.768678792446
 20
-234.2081538980127
 30
0.0
 41
1.0
 10
-3239.77739985402
 20
-234.209025612645
 30
0.0
 41
1.0
 10
-3239.889934313008
 20
-234.2202740063981
 30
0.0
 41
0.9984170238190416
 10
-3240.00049346036
 20
-234.2440900883341
 30
0.0
 41
1.0
 10
-3240.036874591347
 20
-234.2519271241403
 30
0.0
 41
1.0
 10
-3240.073255722333
 20
-234.2597641599464
 30
0.0
 41
1.0
 10
-3240.188446790754
 20
-234.2845780264561
 30
0.0
 41
0.997659285420052
 10
-3240.299174957159
 20
-234.3248767036031
 30
0.0
 41
1.0
 10
-3240.409903123563
 20
-234.36517538075
 30
0.0
 41
0.9993255074352618
 10
-3240.517374922356
 20
-234.4134922792435
 30
0.0
 41
1.0
 10
-3240.522000101279
 20
-234.4155716554428
 30
0.0
 41
1.0
 10
-3240.526625280201
 20
-234.4176510316421
 30
0.0
 41
1.0
 10
-3240.643347436838
 20
-234.4701266825335
 30
0.0
 41
0.9976475078273962
 10
-3240.75179478115
 20
-234.5380746721929
 30
0.0
 41
1.0
 10
-3240.770137175282
 20
-234.5495671510056
 30
0.0
 41
1.0
 10
-3240.788479569414
 20
-234.5610596298183
 30
0.0
 41
1.0
 10
-3240.87268176097
 20
-234.6138167505894
 30
0.0
 41
0.9995131336407482
 10
-3240.953429475928
 20
-234.6717229625431
 30
0.0
 41
1.0
 10
-3241.034177190889
 20
-234.7296291744989
 30
0.0
 41
0.9995810107606107
 10
-3241.111438838623
 20
-234.7921108569688
 30
0.0
 41
1.0
 10
-3241.114408869828
 20
-234.79451272843
 30
0.0
 41
1.0
 10
-3241.117378901034
 20
-234.7969145998912
 30
0.0
 41
1.0
 10
-3241.200580611188
 20
-234.8642000252902
 30
0.0
 41
0.9996617837954097
 10
-3241.280171298327
 20
-234.9357204808533
 30
0.0
 41
1.0
 10
-3241.2923020492
 20
-234.9466212138406
 30
0.0
 41
1.0
 10
-3241.304432800073
 20
-234.9575219468279
 30
0.0
 41
1.0
 10
-3241.372708327469
 20
-235.0188745622999
 30
0.0
 41
0.9997267750053327
 10
-3241.438041835754
 20
-235.083351098826
 30
0.0
 41
1.0
 10
-3241.503375344038
 20
-235.1478276353513
 30
0.0
 41
0.9999667288964962
 10
-3241.56764828719
 20
-235.2133614422512
 30
0.0
 41
1.0
 10
-3241.636475734962
 20
-235.2835391010067
 30
0.0
 41
1.0
 10
-3241.705303182734
 20
-235.3537167597623
 30
0.0
 41
1.0
 10
-3241.907231021434
 20
-235.5596058841756
 30
0.0
 41
0.9988205335174913
 10
-3242.088236638416
 20
-235.7841101162403
 30
0.0
 41
1.0
 10
-3242.118876603318
 20
-235.8221133666669
 30
0.0
 41
1.0
 10
-3242.14951656822
 20
-235.8601166170936
 30
0.0
 41
1.0
 10
-3242.39180211501
 20
-236.1606273500149
 30
0.0
 41
0.9997077826755429
 10
-3242.619280066113
 20
-236.4724971442279
 30
0.0
 41
1.0
 10
-3242.621003481244
 20
-236.4748599276087
 30
0.0
 41
1.0
 10
-3242.622726896376
 20
-236.4772227109895
 30
0.0
 41
1.0
 10
-3242.853651677745
 20
-236.7938180719697
 30
0.0
 41
0.9989147567078586
 10
-3243.054115180632
 20
-237.1305275331614
 30
0.0
 41
1.0
 10
-3243.078856325937
 20
-237.1720841137098
 30
0.0
 41
1.0
 10
-3243.103597471241
 20
-237.2136406942583
 30
0.0
 41
1.0
 10
-3243.258808769877
 20
-237.4743420787092
 30
0.0
 41
0.9997476598180952
 10
-3243.402153757386
 20
-237.7417518272898
 30
0.0
 41
1.0
 10
-3243.545498744897
 20
-238.0091615758744
 30
0.0
 41
0.999625896710941
 10
-3243.674006996829
 20
-238.2840095124994
 30
0.0
 41
1.0
 10
-3243.687206906278
 20
-238.3122409125957
 30
0.0
 41
1.0
 10
-3243.700406815728
 20
-238.340472312692
 30
0.0
 41
1.0
 10
-3243.840615536727
 20
-238.6403447106425
 30
0.0
 41
0.9998735413946447
 10
-3243.971216883447
 20
-238.9445243101087
 30
0.0
 41
1.0
 10
-3243.974659711512
 20
-238.9525428955838
 30
0.0
 41
1.0
 10
-3243.978102539577
 20
-238.9605614810589
 30
0.0
 41
1.0
 10
-3244.101818230172
 20
-239.2487039095879
 30
0.0
 41
0.9999377418860864
 10
-3244.219073032342
 20
-239.5395353772514
 30
0.0
 41
1.0
 10
-3244.336327834528
 20
-239.830366844954
 30
0.0
 41
0.9999508299507547
 10
-3244.447791777912
 20
-240.1234665217923
 30
0.0
 41
1.0
 10
-3244.450872546566
 20
-240.1315675477343
 30
0.0
 41
1.0
 10
-3244.45395331522
 20
-240.1396685736764
 30
0.0
 41
1.0
 10
-3244.571578795918
 20
-240.4489703024146
 30
0.0
 41
0.9999609228437673
 10
-3244.683717398788
 20
-240.7603033184197
 30
0.0
 41
1.0
 10
-3244.686673409142
 20
-240.7685101588398
 30
0.0
 41
1.0
 10
-3244.689629419495
 20
-240.77671699926
 30
0.0
 41
1.0
 10
-3244.807680043069
 20
-241.1044636960975
 30
0.0
 41
0.999967460740562
 10
-3244.92042756914
 20
-241.4340723160991
 30
0.0
 41
1.0
 10
-3244.971825959699
 20
-241.5843315117824
 30
0.0
 41
1.0
 10
-3245.023224350259
 20
-241.7345907074657
 30
0.0
 41
1.0
 10
-3245.139234957018
 20
-242.0737386899708
 30
0.0
 41
0.9999287532306242
 10
-3245.24711636099
 20
-242.4155594289522
 30
0.0
 41
1.0
 10
-3245.293593617134
 20
-242.5628219733381
 30
0.0
 41
1.0
 10
-3245.340070873278
 20
-242.7100845177241
 30
0.0
 41
1.0
 10
-3245.354997764975
 20
-242.7573801679742
 30
0.0
 41
0.9999998223481702
 10
-3245.369868273691
 20
-242.8046935761688
 30
0.0
 41
1.0
 10
-3246.990524410487
 20
-247.9527220779582
 30
0.0
 41
1.0
 10
-3248.611180547282
 20
-253.1007505797477
 30
0.0
 41
1.0
 10
-3249.516488991173
 20
-253.1007505797477
 30
0.0
 41
1.0
 10
-3250.421797435064
 20
-253.1007505797477
 30
0.0
 41
1.0
 10
-3248.569713023678
 20
-247.2136786572802
 30
0.0
 41
1.0
 10
-3246.717628612292
 20
-241.3266067348127
 30
0.0
 41
1.0
 10
-3246.707506853989
 20
-241.294563521363
 30
0.0
 41
1.0
 10
-3246.63489918514
 20
-241.0642639795371
 30
0.0
 41
1.0
 10
-3246.562291516282
 20
-240.8339644376874
 30
0.0
 41
0.9999825681974471
 10
-3246.492408477066
 20
-240.6028235426074
 30
0.0
 41
1.0
 10
-3246.444117414907
 20
-240.4430989591168
 30
0.0
 41
1.0
 10
-3246.395826352748
 20
-240.2833743756262
 30
0.0
 41
1.0
 10
-3246.298673999436
 20
-239.9620391538668
 30
0.0
 41
0.9999672528961643
 10
-3246.206735193818
 20
-239.6391736082963
 30
0.0
 41
1.0
 10
-3246.203946310144
 20
-239.6293797628933
 30
0.0
 41
1.0
 10
-3246.201157426471
 20
-239.6195859174903
 30
0.0
 41
1.0
 10
-3246.114796388192
 20
-239.3163080627032
 30
0.0
 41
0.9999899749128244
 10
-3246.03115477866
 20
-239.0122689742576
 30
0.0
 41
1.0
 10
-3246.021048859648
 20
-238.9755337365995
 30
0.0
 41
1.0
 10
-3246.010942940636
 20
-238.9387984989414
 30
0.0
 41
1.0
 10
-3245.947513169132
 20
-238.7082298858288
 30
0.0
 41
0.9999214200502129
 10
-3245.889883740747
 20
-238.4761435435959
 30
0.0
 41
1.0
 10
-3245.877117888558
 20
-238.4247326581662
 30
0.0
 41
1.0
 10
-3245.864352036369
 20
-238.3733217727366
 30
0.0
 41
1.0
 10
-3245.832254312362
 20
-238.2440572013558
 30
0.0
 41
0.999982868165595
 10
-3245.801672060374
 20
-238.1144257269191
 30
0.0
 41
1.0
 10
-3245.771089808376
 20
-237.984794252438
 30
0.0
 41
0.9999389844480465
 10
-3245.743378819583
 20
-237.854518796523
 30
0.0
 41
1.0
 10
-3245.736241075866
 20
-237.8209626926999
 30
0.0
 41
1.0
 10
-3245.729103332149
 20
-237.7874065888767
 30
0.0
 41
1.0
 10
-3245.687116855924
 20
-237.5900189253258
 30
0.0
 41
0.9998933699441267
 10
-3245.650912591526
 20
-237.3914893175919
 30
0.0
 41
1.0
 10
-3245.649539766305
 20
-237.383961296871
 30
0.0
 41
1.0
 10
-3245.648166941084
 20
-237.37643327615
 30
0.0
 41
1.0
 10
-3245.609217026249
 20
-237.1628476269977
 30
0.0
 41
0.9996850305193649
 10
-3245.581033349991
 20
-236.9475766215608
 30
0.0
 41
1.0
 10
-3245.579038316622
 20
-236.9323382674457
 30
0.0
 41
1.0
 10
-3245.577043283254
 20
-236.9170999133306
 30
0.0
 41
1.0
 10
-3245.549635420794
 20
-236.7077546861691
 30
0.0
 41
0.9994697936706721
 10
-3245.535910861573
 20
-236.4970694908324
 30
0.0
 41
1.0
 10
-3245.535433792324
 20
-236.4897460186172
 30
0.0
 41
1.0
 10
-3245.534956723074
 20
-236.4824225464019
 30
0.0
 41
1.0
 10
-3245.522186302353
 20
-236.2863842954976
 30
0.0
 41
0.999180489313651
 10
-3245.525314618627
 20
-236.0899554455282
 30
0.0
 41
1.0
 10
-3245.525398497449
 20
-236.0846886441195
 30
0.0
 41
1.0
 10
-3245.525482376271
 20
-236.0794218427108
 30
0.0
 41
1.0
 10
-3245.528442934899
 20
-235.8935265955589
 30
0.0
 41
0.9988448329321373
 10
-3245.549234480523
 20
-235.7087740057214
 30
0.0
 41
1.0
 10
-3245.550828554226
 20
-235.6946091499497
 30
0.0
 41
1.0
 10
-3245.552422627929
 20
-235.6804442941781
 30
0.0
 41
1.0
 10
-3245.570026026147
 20
-235.5240214158877
 30
0.0
 41
0.9985503209458166
 10
-3245.604342298447
 20
-235.3703972317987
 30
0.0
 41
1.0
 10
-3245.611928290518
 20
-235.3364369043958
 30
0.0
 41
1.0
 10
-3245.61951428259
 20
-235.3024765769929
 30
0.0
 41
1.0
 10
-3245.638658570747
 20
-235.2167730477064
 30
0.0
 41
0.9991036781370102
 10
-3245.664983432397
 20
-235.1329959603845
 30
0.0
 41
1.0
 10
-3245.668965657856
 20
-235.1203227978661
 30
0.0
 41
1.0
 10
-3245.672947883314
 20
-235.1076496353477
 30
0.0
 41
1.0
 10
-3245.69130829405
 20
-235.0492188730525
 30
0.0
 41
0.9998874504368244
 10
-3245.711413501727
 20
-234.9913652708362
 30
0.0
 41
1.0
 10
-3245.731518709404
 20
-234.9335116686171
 30
0.0
 41
0.9994041637543911
 10
-3245.755567322336
 20
-234.8771829647326
 30
0.0
 41
1.0
 10
-3245.759764106562
 20
-234.8673529002451
 30
0.0
 41
1.0
 10
-3245.763960890789
 20
-234.8575228357575
 30
0.0
 41
1.0
 10
-3245.791839721782
 20
-234.7922226697919
 30
0.0
 41
0.9991846840700889
 10
-3245.824896078475
 20
-234.7293846385119
 30
0.0
 41
1.0
 10
-3245.826032684872
 20
-234.7272240220537
 30
0.0
 41
1.0
 10
-3245.827169291269
 20
-234.7250634055956
 30
0.0
 41
1.0
 10
-3245.85795243517
 20
-234.6665466072288
 30
0.0
 41
0.9989253167922675
 10
-3245.894021859223
 20
-234.6111316788414
 30
0.0
 41
1.0
 10
-3245.895075983897
 20
-234.6095121840796
 30
0.0
 41
1.0
 10
-3245.896130108571
 20
-234.6078926893178
 30
0.0
 41
1.0
 10
-3245.930091283278
 20
-234.5557167504516
 30
0.0
 41
0.9986467172836689
 10
-3245.969288435916
 20
-234.5073507168216
 30
0.0
 41
1.0
 10
-3245.970162564615
 20
-234.5062721145452
 30
0.0
 41
1.0
 10
-3245.971036693314
 20
-234.5051935122688
 30
0.0
 41
1.0
 10
-3246.008485588551
 20
-234.4589846831941
 30
0.0
 41
0.9984001104266736
 10
-3246.05091231907
 20
-234.4172995758232
 30
0.0
 41
1.0
 10
-3246.05149945718
 20
-234.4167227009415
 30
0.0
 41
1.0
 10
-3246.05208659529
 20
-234.4161458260597
 30
0.0
 41
1.0
 10
-3246.093339049587
 20
-234.3756144684546
 30
0.0
 41
0.9982442159082665
 10
-3246.139095150923
 20
-234.3402459071942
 30
0.0
 41
1.0
 10
-3246.139309946387
 20
-234.3400798745491
 30
0.0
 41
1.0
 10
-3246.139524741851
 20
-234.3399138419039
 30
0.0
 41
1.0
 10
-3246.184851252261
 20
-234.3048773459321
 30
0.0
 41
0.9982450060833294
 10
-3246.23400223133
 20
-234.2754455629005
 30
0.0
 41
1.0
 10
-3246.283153210401
 20
-234.2460137798678
 30
0.0
 41
0.9983922639636604
 10
-3246.335319516565
 20
-234.2223341452136
 30
0.0
 41
1.0
 10
-3246.335546393891
 20
-234.2222311597318
 30
0.0
 41
1.0
 10
-3246.335773271216
 20
-234.22212817425
 30
0.0
 41
1.0
 10
-3246.388393332028
 20
-234.1982425686336
 30
0.0
 41
0.9986517147151439
 10
-3246.443206304898
 20
-234.1799414495115
 30
0.0
 41
1.0
 10
-3246.443884226325
 20
-234.17971510308
 30
0.0
 41
1.0
 10
-3246.444562147753
 20
-234.1794887566484
 30
0.0
 41
1.0
 10
-3246.500730963479
 20
-234.1607349446634
 30
0.0
 41
0.9989435598957394
 10
-3246.55838435063
 20
-234.147217242429
 30
0.0
 41
1.0
 10
-3246.559464470211
 20
-234.1469639921761
 30
0.0
 41
1.0
 10
-3246.560544589792
 20
-234.1467107419232
 30
0.0
 41
1.0
 10
-3246.620358216107
 20
-234.1326865391825
 30
0.0
 41
0.9992249241239823
 10
-3246.681089725005
 20
-234.1234111964674
 30
0.0
 41
1.0
 10
-3246.682503413295
 20
-234.1231952880596
 30
0.0
 41
1.0
 10
-3246.683917101586
 20
-234.1229793796518
 30
0.0
 41
1.0
 10
-3246.747475987062
 20
-234.1132722201215
 30
0.0
 41
0.9994396597833779
 10
-3246.811541923602
 20
-234.1078392977753
 30
0.0
 41
1.0
 10
-3246.83068259108
 20
-234.1062161300566
 30
0.0
 41
1.0
 10
-3246.849823258558
 20
-234.104592962338
 30
0.0
 41
1.0
 10
-3246.952170530049
 20
-234.0959137045549
 30
0.0
 41
0.9987693403120872
 10
-3247.054874153636
 20
-234.0974167680076
 30
0.0
 41
1.0
 10
-3247.065128487865
 20
-234.0975668397818
 30
0.0
 41
1.0
 10
-3247.075382822094
 20
-234.097716911556
 30
0.0
 41
1.0
 10
-3247.184938588272
 20
-234.0993202558436
 30
0.0
 41
0.9989753644966709
 10
-3247.293900588287
 20
-234.1108232627686
 30
0.0
 41
1.0
 10
-3247.402862588305
 20
-234.1223262696938
 30
0.0
 41
0.998319006730481
 10
-3247.50976139927
 20
-234.1463612614808
 30
0.0
 41
1.0
 10
-3247.518662350876
 20
-234.1483625400433
 30
0.0
 41
1.0
 10
-3247.527563302482
 20
-234.1503638186059
 30
0.0
 41
1.0
 10
-3247.652264016663
 20
-234.1784013675182
 30
0.0
 41
0.9985539388301683
 10
-3247.773233770341
 20
-234.2196650435642
 30
0.0
 41
1.0
 10
-3247.7755792013
 20
-234.2204650873798
 30
0.0
 41
1.0
 10
-3247.777924632259
 20
-234.2212651311953
 30
0.0
 41
1.0
 10
-3247.903585247857
 20
-234.2641288948724
 30
0.0
 41
0.9988468746494087
 10
-3248.024555590159
 20
-234.3188469799354
 30
0.0
 41
1.0
 10
-3248.027738412147
 20
-234.3202866544951
 30
0.0
 41
1.0
 10
-3248.030921234135
 20
-234.3217263290549
 30
0.0
 41
1.0
 10
-3248.158257220413
 20
-234.3793237632371
 30
0.0
 41
0.9991322885918815
 10
-3248.28035780447
 20
-234.447319095419
 30
0.0
 41
1.0
 10
-3248.297959815511
 20
-234.4571212974069
 30
0.0
 41
1.0
 10
-3248.315561826551
 20
-234.4669234993947
 30
0.0
 41
1.0
 10
-3248.41773850761
 20
-234.5238236151764
 30
0.0
 41
0.9993860037850221
 10
-3248.515679511688
 20
-234.5877396307678
 30
0.0
 41
1.0
 10
-3248.52129782454
 20
-234.5914061254625
 30
0.0
 41
1.0
 10
-3248.526916137392
 20
-234.5950726201573
 30
0.0
 41
1.0
 10
-3248.613620515765
 20
-234.651655646358
 30
0.0
 41
0.9998821494952664
 10
-3248.698546891575
 20
-234.7108738764331
 30
0.0
 41
1.0
 10
-3248.783473267386
 20
-234.7700921065086
 30
0.0
 41
0.9997976482743514
 10
-3248.865948897793
 20
-234.8326785145533
 30
0.0
 41
1.0
 10
-3248.880585162597
 20
-234.8437852043322
 30
0.0
 41
1.0
 10
-3248.895221427401
 20
-234.8548918941112
 30
0.0
 41
1.0
 10
-3249.006969587405
 20
-234.9396916817057
 30
0.0
 41
0.9998091630800634
 10
-3249.115319865429
 20
-235.0287920324035
 30
0.0
 41
1.0
 10
-3249.128325617913
 20
-235.0394871328548
 30
0.0
 41
1.0
 10
-3249.141331370397
 20
-235.0501822333061
 30
0.0
 41
1.0
 10
-3249.275693153375
 20
-235.160672784896
 30
0.0
 41
0.9995035112317754
 10
-3249.402829031138
 20
-235.2794066019097
 30
0.0
 41
1.0
 10
-3249.41247634153
 20
-235.2884163480726
 30
0.0
 41
1.0
 10
-3249.422123651923
 20
-235.2974260942356
 30
0.0
 41
1.0
 10
-3249.545546714685
 20
-235.412692465989
 30
0.0
 41
0.9994630424298716
 10
-3249.661155120466
 20
-235.5357952092213
 30
0.0
 41
1.0
 10
-3249.664837959238
 20
-235.5397167887349
 30
0.0
 41
1.0
 10
-3249.66852079801
 20
-235.5436383682486
 30
0.0
 41
1.0
 10
-3249.776763526251
 20
-235.6588979524576
 30
0.0
 41
0.999516069374937
 10
-3249.877629555782
 20
-235.7806653703291
 30
0.0
 41
1.0
 10
-3249.879563275863
 20
-235.7829997945381
 30
0.0
 41
1.0
 10
-3249.881496995945
 20
-235.7853342187471
 30
0.0
 41
1.0
 10
-3249.978495585316
 20
-235.9024327882041
 30
0.0
 41
0.9996561470514449
 10
-3250.06922180398
 20
-236.0244555506508
 30
0.0
 41
1.0
 10
-3250.075379469885
 20
-236.0327373396967
 30
0.0
 41
1.0
 10
-3250.081537135789
 20
-236.0410191287426
 30
0.0
 41
1.0
 10
-3250.159948022648
 20
-236.1464783131027
 30
0.0
 41
0.9998349055172275
 10
-3250.234475304578
 20
-236.2547168967634
 30
0.0
 41
1.0
 10
-3250.309002586514
 20
-236.3629554804329
 30
0.0
 41
0.9999728109558279
 10
-3250.381925482418
 20
-236.472281405977
 30
0.0
 41
1.0
 10
-3250.383240697831
 20
-236.474253175482
 30
0.0
 41
1.0
 10
-3250.384555913244
 20
-236.4762249449871
 30
0.0
 41
1.0
 10
-3250.460109239971
 20
-236.5894944095369
 30
0.0
 41
0.9999972147378577
 10
-3250.535127050332
 20
-236.703119252352
 30
0.0
 41
1.0
 10
-3250.540098592964
 20
-236.7106493408399
 30
0.0
 41
1.0
 10
-3250.545070135597
 20
-236.7181794293277
 30
0.0
 41
1.0
 10
-3250.630031031216
 20
-236.8468644491093
 30
0.0
 41
0.999937197900739
 10
-3250.712086380616
 20
-236.9774213628805
 30
0.0
 41
1.0
 10
-3250.71559526498
 20
-236.9830042909484
 30
0.0
 41
1.0
 10
-3250.719104149343
 20
-236.9885872190164
 30
0.0
 41
1.0
 10
-3250.808177267475
 20
-237.130309988931
 30
0.0
 41
0.9998272025610607
 10
-3250.891920658359
 20
-237.2752458656761
 30
0.0
 41
1.0
 10
-3250.907135830381
 20
-237.3015789801284
 30
0.0
 41
1.0
 10
-3250.922351002402
 20
-237.3279120945807
 30
0.0
 41
1.0
 10
-3251.036524737331
 20
-237.5255142002342
 30
0.0
 41
0.9995217214838512
 10
-3251.138264426885
 20
-237.729796528092
 30
0.0
 41
1.0
 10
-3251.145907989526
 20
-237.7451439778074
 30
0.0
 41
1.0
 10
-3251.153551552167
 20
-237.7604914275227
 30
0.0
 41
1.0
 10
-3251.240456844752
 20
-237.9349878855939
 30
0.0
 41
0.9998269762607681
 10
-3251.320811311019
 20
-238.1125961723094
 30
0.0
 41
1.0
 10
-3251.40116577729
 20
-238.2902044590287
 30
0.0
 41
0.9998944747386711
 10
-3251.476326571853
 20
-238.470072184655
 30
0.0
 41
1.0
 10
-3251.481280241442
 20
-238.4819268395656
 30
0.0
 41
1.0
 10
-3251.48623391103
 20
-238.4937814944761
 30
0.0
 41
1.0
 10
-3251.566880971588
 20
-238.6867784345051
 30
0.0
 41
0.9999506734409115
 10
-3251.643678500496
 20
-238.8813392393723
 30
0.0
 41
1.0
 10
-3251.65827846577
 20
-238.9183271611875
 30
0.0
 41
1.0
 10
-3251.672878431045
 20
-238.9553150830027
 30
0.0
 41
1.0
 10
-3251.720476029409
 20
-239.0759000442528
 30
0.0
 41
0.9999912393955022
 10
-3251.767062473422
 20
-239.1968792469243
 30
0.0
 41
1.0
 10
-3251.813648917451
 20
-239.3178584496383
 30
0.0
 41
0.9999927113989282
 10
-3251.859310211851
 20
-239.4391898571562
 30
0.0
 41
1.0
 10
-3251.873278643242
 20
-239.476306839138
 30
0.0
 41
1.0
 10
-3251.887247074634
 20
-239.5134238211199
 30
0.0
 41
1.0
 10
-3251.960845231817
 20
-239.7089891926032
 30
0.0
 41
0.9999487550950025
 10
-3252.030468856785
 20
-239.9060045577737
 30
0.0
 41
1.0
 10
-3252.054062466731
 20
-239.9727678680921
 30
0.0
 41
1.0
 10
-3252.077656076677
 20
-240.0395311784105
 30
0.0
 41
1.0
 10
-3252.172341711043
 20
-240.3074650132237
 30
0.0
 41
0.999980843694914
 10
-3252.263703299681
 20
-240.5765504444771
 30
0.0
 41
1.0
 10
-3252.355064888325
 20
-240.8456358757504
 30
0.0
 41
0.9999873932921186
 10
-3252.443719597048
 20
-241.1156252307789
 30
0.0
 41
1.0
 10
-3252.463811953914
 20
-241.1768145635198
 30
0.0
 41
1.0
 10
-3252.483904310779
 20
-241.2380038962608
 30
0.0
 41
1.0
 10
-3252.612743733227
 20
-241.6303719167531
 30
0.0
 41
0.999979488302636
 10
-3252.736546518179
 20
-242.0243581230104
 30
0.0
 41
1.0
 10
-3252.747698777632
 20
-242.0598487332952
 30
0.0
 41
1.0
 10
-3252.758851037084
 20
-242.09533934358
 30
0.0
 41
1.0
 10
-3252.901409200979
 20
-242.5490120956599
 30
0.0
 41
0.9999982761761049
 10
-3253.042281640982
 20
-243.0032111177411
 30
0.0
 41
1.0
 10
-3254.630421973554
 20
-248.0519808487444
 30
0.0
 41
1.0
 10
-3256.218562306127
 20
-253.1007505797477
 30
0.0
 41
1.0
 10
-3257.167312917603
 20
-253.1007505797477
 30
0.0
 41
1.0
 10
-3258.11606352908
 20
-253.1007505797477
 30
0.0
 41
1.0
 10
-3254.877779042927
 20
-242.7734283798015
 30
0.0
 41
1.0
 10
-3251.639494556773
 20
-232.4461061798554
 30
0.0
 41
1.0
  0
LWPOLYLINE
  5
56
330
23
100
AcDbEntity
  8
0
  6
Continuous
 62
     7
370
    15
390
1D
100
AcDbPolyline
 90
      232
 70
   128
 43
0.0
 10
-3277.3430403306
 20
-233.5304490113706
 42
0.00043708006918
 10
-3277.395917504665
 20
-233.5991156506178
 10
-3277.4352017358
 20
-233.6502227635234
 42
0.0030481992154841
 10
-3277.565540452844
 20
-233.8219444557678
 10
-3277.60405212467
 20
-233.8733312396557
 42
0.0042058245766079
 10
-3277.808037175379
 20
-234.150336984785
 10
-3277.86044229784
 20
-234.2227698315102
 42
0.0120948898738927
 10
-3278.156486214594
 20
-234.6535194360484
 10
-3278.252678713728
 20
-234.8010001712912
 42
0.0141601263952491
 10
-3278.556322760645
 20
-235.2966695080195
 10
-3278.595860028071
 20
-235.3655134754502
 42
0.0071131081306667
 10
-3278.80113235131
 20
-235.7350162742894
 42
0.0068458791011497
 10
-3278.996011878165
 20
-236.1101078377894
 10
-3279.00282374061
 20
-236.1236695514891
 42
0.006412088029037
 10
-3279.20096599065
 20
-236.5310940263988
 10
-3279.208500676172
 20
-236.5471058831292
 42
0.0058857236445948
 10
-3279.411256068028
 20
-236.9914819941303
 10
-3279.419430994337
 20
-237.0099721477982
 42
0.0053189741892908
 10
-3279.628135307009
 20
-237.495935621725
 10
-3279.636883112686
 20
-237.5169174999122
 42
0.0047503650417747
 10
-3279.852856838819
 20
-238.0491169330778
 10
-3279.862125087185
 20
-238.0725933092298
 42
0.0042071762174046
 10
-3280.086672470915
 20
-238.6556869033049
 10
-3280.096421873262
 20
-238.6816530781692
 42
0.0036680086487323
 10
-3280.330876516573
 20
-239.3202884626992
 10
-3280.341084296421
 20
-239.348736997045
 42
0.0032573142632238
 10
-3280.58671658241
 20
-240.047589656862
 10
-3280.655367103237
 20
-240.247052740874
 42
0.0026133366648182
 10
-3281.003812301987
 20
-241.2769160245232
 10
-3281.067069089503
 20
-241.467146859962
 42
0.0020592950745327
 10
-3281.280932158455
 20
-242.1192505125293
 10
-3281.283983949608
 20
-242.1286870009101
 42
0.0025609928534171
 10
-3281.485804451103
 20
-242.7638322233049
 10
-3281.488395818254
 20
-242.7721345643203
 42
0.003136235624335
 10
-3281.677886603907
 20
-243.392897420425
 10
-3281.680017646838
 20
-243.4000387266484
 42
0.0037229918031073
 10
-3281.856818033761
 20
-244.0090240286103
 10
-3281.858496622969
 20
-244.0149709187893
 42
0.0043077623710102
 10
-3282.022237425032
 20
-244.6147896505537
 42
0.0047654161820879
 10
-3282.175066147539
 20
-245.2174757394193
 10
-3282.209530756388
 20
-245.3590375166058
 42
0.0112969368448109
 10
-3282.405395114534
 20
-246.2507296772449
 10
-3282.433401503627
 20
-246.3935577233278
 42
0.0130056762571649
 10
-3282.634238747274
 20
-247.5804987949728
 10
-3282.65477849742
 20
-247.7245769084408
 42
0.0138721532143073
 10
-3282.758481501959
 20
-248.6314063942755
 10
-3282.777776989869
 20
-248.8549041162337
 42
0.0071254697014183
 10
-3282.81112363579
 20
-249.3180911250478
 10
-3282.816084609956
 20
-249.4040951196561
 42
0.0028881799205744
 10
-3282.831222903243
 20
-249.6958368294505
 42
0.0060297297136988
 10
-3282.841155103019
 20
-249.9877857655785
 10
-3282.842217384686
 20
-250.0361781375128
 42
0.0229523164164228
 10
-3282.8344863569
 20
-250.358932983782
 10
-3282.83026058338
 20
-250.4193365177964
 42
0.0123673300657081
 10
-3282.811181936861
 20
-250.620457242973
 42
0.0128577674465542
 10
-3282.781986546455
 20
-250.8203550928996
 10
-3282.774860673068
 20
-250.8616839074967
 42
0.0285717853758829
 10
-3282.710366671373
 20
-251.139800058806
 10
-3282.696698147705
 20
-251.1864548282899
 42
0.0316283099161149
 10
-3282.580887567791
 20
-251.5054693301131
 10
-3282.577838876036
 20
-251.5124557024379
 42
0.033898482423986
 10
-3282.428407165069
 20
-251.8000216666278
 10
-3282.426098435696
 20
-251.8038126959088
 42
0.0350228718362195
 10
-3282.243738145025
 20
-252.0608646805806
 10
-3282.242852893247
 20
-252.061943758349
 42
0.0347476747533901
 10
-3282.02842820601
 20
-252.2891288055647
 42
0.0331337701915336
 10
-3281.785184880262
 20
-252.4852574676438
 10
-3281.784084781748
 20
-252.4860301708146
 42
0.0305233319078431
 10
-3281.515540086176
 20
-252.651158340905
 10
-3281.512310041673
 20
-252.6528823527686
 42
0.0273744481156768
 10
-3281.219756330101
 20
-252.7890204966584
 10
-3281.214651794961
 20
-252.7910640811288
 42
0.0240964406195307
 10
-3280.899174719318
 20
-252.9000478074094
 10
-3280.892591390106
 20
-252.9019725470852
 42
0.0209636179808647
 10
-3280.555191237454
 20
-252.985440695017
 10
-3280.547558777004
 20
-252.9869926080187
 42
0.0181388704691506
 10
-3280.189236385005
 20
-253.0464087012327
 10
-3280.180955536628
 20
-253.0474748850497
 42
0.0156086547588693
 10
-3279.802768172439
 20
-253.0842110716264
 10
-3279.759572920109
 20
-253.0870495741055
 42
0.0137148329021476
 10
-3279.431899774813
 20
-253.0995698293567
 10
-3279.385963584872
 20
-253.1000642624719
 42
0.0051057823881772
 10
-3279.149817998295
 20
-253.1001945168811
 42
0.0052256693321911
 10
-3278.913720714511
 20
-253.0954456924168
 10
-3278.843493930766
 20
-253.0932987264027
 42
0.0161507179050397
 10
-3278.467756852664
 20
-253.069648356076
 10
-3278.447743892292
 20
-253.0677381607886
 42
0.0101216737827349
 10
-3278.033716670801
 20
-253.019745230423
 10
-3277.999663381375
 20
-253.0150975336135
 42
0.0245291776403693
 10
-3277.522873725824
 20
-252.9260224555372
 10
-3277.438050410297
 20
-252.9058265351908
 42
0.0143509212562129
 10
-3277.08141930636
 20
-252.8100219014126
 42
0.0156557857032123
 10
-3276.731203241635
 20
-252.6930106855946
 10
-3276.723702027138
 20
-252.6902405238396
 42
0.0170137333633433
 10
-3276.367106031459
 20
-252.5445829089694
 10
-3276.360002109049
 20
-252.5413950734048
 42
0.0183105364408071
 10
-3276.000652440883
 20
-252.3640600315804
 10
-3275.993705676244
 20
-252.3603095967084
 42
0.0194899958151168
 10
-3275.635224935264
 20
-252.1483306148199
 10
-3275.628211055923
 20
-252.1438052725226
 42
0.0204869852953101
 10
-3275.274196753823
 20
-251.8942852574316
 10
-3275.266931145243
 20
-251.8887051920884
 42
0.0212516938562491
 10
-3274.920941214131
 20
-251.5988011951907
 10
-3274.87442452006
 20
-251.5563338851013
 42
0.0215248918254229
 10
-3274.614398351171
 20
-251.2975696061056
 10
-3274.569368616793
 20
-251.248725484759
 42
0.0114578554948511
 10
-3274.414576463113
 20
-251.0729025512975
 10
-3274.403381927129
 20
-251.0595837877544
 42
0.0061531305135633
 10
-3274.276907281132
 20
-250.9052942544464
 42
0.0006325587122494
 10
-3274.152528796752
 20
-250.7492908784841
 10
-3274.129488661929
 20
-250.7203173581113
 42
0.0041897761558529
 10
-3273.961033257919
 20
-250.5047979820011
 10
-3273.902571138065
 20
-250.4286966350643
 42
0.0092993880039843
 10
-3273.62595921083
 20
-250.0544178711662
 10
-3273.543564717633
 20
-249.9384808675991
 42
0.0159321727094575
 10
-3273.196958234999
 20
-249.4163066468557
 10
-3273.152602099606
 20
-249.3446270825979
 42
0.0085547317023314
 10
-3272.918090334284
 20
-248.950752133381
 42
0.0084601156887105
 10
-3272.697114156847
 20
-248.5491252843583
 10
-3272.688998683012
 20
-248.5337656020758
 42
0.0081429654285163
 10
-3272.465749412568
 20
-248.0940440895221
 10
-3272.45688924839
 20
-248.0758652475157
 42
0.007657458131974
 10
-3272.230481737832
 20
-247.5926823722825
 10
-3272.2210020971
 20
-247.5716178939596
 42
0.0070682724199638
 10
-3271.990557189295
 20
-247.0395805891819
 10
-3271.980566905311
 20
-247.0155914001667
 42
0.0064559514443889
 10
-3271.745233697134
 20
-246.4292791336573
 10
-3271.734824338965
 20
-246.4023442082056
 42
0.0058311413906767
 10
-3271.493777602199
 20
-245.756312113814
 10
-3271.483022524815
 20
-245.7264277726614
 42
0.0052312425823169
 10
-3271.235441246748
 20
-245.0152253587489
 10
-3271.224397410394
 20
-244.9823986467571
 42
0.0046680544795637
 10
-3270.969468982655
 20
-244.2005723309879
 10
-3270.927476832622
 20
-244.0675890937285
 42
0.0041666856444158
 10
-3270.724190820221
 20
-243.4046203187047
 10
-3270.686528379543
 20
-243.2780392110037
 42
0.0015170975158967
 10
-3270.565341801144
 20
-242.8661708595573
 42
-0.0004887993113905
 10
-3270.445002028026
 20
-242.4540524475313
 10
-3270.368524770526
 20
-242.1930950615742
 42
0.0002583378931342
 10
-3270.095310200298
 20
-241.2590383578346
 10
-3270.013537350855
 20
-240.9789390987083
 42
0.0006636169669224
 10
-3269.819669590874
 20
-240.3115861752251
 10
-3269.814572936535
 20
-240.2939545923731
 42
0.00105891313249
 10
-3269.63312423561
 20
-239.6612232492962
 10
-3269.628142165134
 20
-239.6437103422934
 42
0.0015655524458425
 10
-3269.459871957947
 20
-239.0450936630752
 10
-3269.455041757515
 20
-239.0277015040769
 42
0.0021640440481038
 10
-3269.300751785546
 20
-238.4626744861213
 10
-3269.296117566118
 20
-238.4454097561367
 42
0.0028763871850169
 10
-3269.156601848063
 20
-237.9134418052804
 10
-3269.152215983898
 20
-237.8963178271358
 42
0.0037310511941827
 10
-3269.028259292058
 20
-237.396870233102
 10
-3269.024184071766
 20
-237.3799099618432
 42
0.0047652197768638
 10
-3268.916560171261
 20
-236.9124321935515
 10
-3268.912869571929
 20
-236.8956726383628
 42
0.0060276699297958
 10
-3268.822339472784
 20
-236.4595968432573
 10
-3268.8191207825
 20
-236.4430956289742
 42
0.0075824337755095
 10
-3268.74643147308
 20
-236.0378284645219
 10
-3268.743786095702
 20
-236.021673517084
 42
0.0095130624602379
 10
-3268.689670860068
 20
-235.6465841639996
 10
-3268.682684636186
 20
-235.590650605885
 42
0.0121054653235081
 10
-3268.656093305608
 20
-235.3257547774092
 10
-3268.655226815851
 20
-235.3143513345113
 42
0.0069050827375262
 10
-3268.640137997811
 20
-235.0714101076359
 10
-3268.639002698142
 20
-235.0478838505786
 42
0.0169063976714352
 10
-3268.636175419162
 20
-234.8516911232904
 10
-3268.637346070694
 20
-234.7913553619087
 42
0.0052007732947288
 10
-3268.639599519286
 20
-234.7157619717891
 42
0.005403812329684
 10
-3268.659563031123
 20
-234.595743675793
 10
-3268.664648886996
 20
-234.567085189198
 42
0.0112050460487862
 10
-3268.700033249058
 20
-234.3907587508407
 10
-3268.717858211095
 20
-234.3112171641382
 42
0.0240764468016334
 10
-3268.808755577242
 20
-233.9809801286317
 10
-3268.827314340057
 20
-233.9243599636345
 42
0.0256812331837711
 10
-3268.970677260243
 20
-233.5526357573858
 10
-3268.976086686065
 20
-233.5405044223942
 42
0.02683605012123
 10
-3269.145513926915
 20
-233.2095112883751
 10
-3269.151050334548
 20
-233.1999916180649
 42
0.0274670231727447
 10
-3269.343251310963
 20
-232.9077042431455
 10
-3269.348632610925
 20
-232.9004250956053
 42
0.0275035967099185
 10
-3269.560205490488
 20
-232.6449092053001
 10
-3269.565274991455
 20
-232.639430117669
 42
0.0269557673532605
 10
-3269.792678534894
 20
-232.4187878317074
 10
-3269.797421592681
 20
-232.4146578772426
 42
0.0259124802216127
 10
-3270.036976424107
 20
-232.2269673500942
 10
-3270.041507269287
 20
-232.2237818477654
 42
0.024516215300734
 10
-3270.289423622384
 20
-232.0670488386535
 10
-3270.293950168708
 20
-232.0644886414527
 42
0.0229282588835621
 10
-3270.546369725535
 20
-231.9366204489537
 10
-3270.551150219375
 20
-231.9344681491905
 42
0.0212984135686283
 10
-3270.804188171834
 20
-231.8332692319494
 10
-3270.809492456808
 20
-231.8314056691878
 42
0.019755546234034
 10
-3271.059270794526
 20
-231.7545902512246
 42
0.018351189679188
 10
-3271.314199519989
 20
-231.6970073442592
 10
-3271.400564716713
 20
-231.6808045538741
 42
0.033805787715814
 10
-3271.686072065973
 20
-231.6469961487338
 10
-3271.777077471016
 20
-231.6424164934723
 42
0.0091990524478418
 10
-3271.882924579649
 20
-231.6390406375504
 42
0.0028333980809638
 10
-3271.988838495641
 20
-231.6382125300336
 10
-3271.989753948691
 20
-231.6382105602096
 42
-0.0023619827824253
 10
-3272.097499963805
 20
-231.637469719131
 10
-3272.133905133973
 20
-231.637047412668
 42
0.0008824598480973
 10
-3272.314461123782
 20
-231.6352716344301
 10
-3272.358322556229
 20
-231.6349176729042
 42
0.0038132665768401
 10
-3272.626605452108
 20
-231.6347987368376
 10
-3272.643139106901
 20
-231.6349175029811
 42
0.0060665569329173
 10
-3272.944419598495
 20
-231.640737802402
 10
-3272.958669930517
 20
-231.6411861103695
 42
0.0080356953330892
 10
-3273.288128646859
 20
-231.6568538324366
 10
-3273.300198661944
 20
-231.6576224153769
 42
0.0098996399106499
 10
-3273.652961746594
 20
-231.687107644575
 10
-3273.66300745597
 20
-231.6881479407732
 42
0.0117740981361589
 10
-3274.034164314317
 20
-231.7354401883028
 10
-3274.042387010801
 20
-231.7366853048738
 42
0.0137435215134509
 10
-3274.426975830288
 20
-231.805782278436
 10
-3274.433632869409
 20
-231.8071681746691
 42
0.0158359869381089
 10
-3274.826629963212
 20
-231.90206026315
 10
-3274.832043150079
 20
-231.9035502040203
 42
0.0180554124030005
 10
-3275.228358194691
 20
-232.028188220259
 10
-3275.232914982775
 20
-232.0298042565254
 42
0.0203657431286208
 10
-3275.627392500591
 20
-232.1880645980432
 10
-3275.631536039593
 20
-232.189926219483
 42
0.0226819684655274
 10
-3276.018972095795
 20
-232.3855687981529
 10
-3276.023171886815
 20
-232.3879343900738
 42
0.0248634984609752
 10
-3276.398353827995
 20
-232.6245610360199
 10
-3276.446548756777
 20
-232.6584180778442
 42
0.026704419088543
 10
-3276.720841453697
 20
-232.8738584537149
 42
0.0139303002197421
 10
-3276.977008619633
 20
-233.1110972946243
 10
-3276.981862005357
 20
-233.1158499574869
 42
0.0283460963450365
 10
-3277.225934599586
 20
-233.3835806179345
 10
-3277.26560310474
 20
-233.4323821954051
 42
0.0070695364826894
 10
-3277.3430403306
 20
-233.5304490113706
 42
0.0070695364826894
  0
LWPOLYLINE
  5
57
330
23
100
AcDbEntity
  8
0
  6
Continuous
 62
     7
370
    15
390
1D
100
AcDbPolyline
 90
      226
 70
   128
 43
0.0
 10
-3280.871860767847
 20
-249.2520378175545
 42
-0.0026277636611889
 10
-3280.871938651646
 20
-249.1852658917704
 10
-3280.871721293414
 20
-249.1321106743684
 42
-0.0088680296757751
 10
-3280.867944677123
 20
-248.9590948919962
 10
-3280.865598318009
 20
-248.8998148665117
 42
-0.0077381705614724
 10
-3280.849552207246
 20
-248.6085543707157
 10
-3280.848684296073
 20
-248.5962661370285
 42
-0.0068872530546335
 10
-3280.822052216327
 20
-248.2810443849893
 10
-3280.820847992139
 20
-248.2688034059407
 42
-0.0062130021489766
 10
-3280.783254275316
 20
-247.9299337147452
 10
-3280.781750371776
 20
-247.9177598427857
 42
-0.005672692967959
 10
-3280.732828512283
 20
-247.5555646207353
 10
-3280.731055066629
 20
-247.5434708204269
 42
-0.0052341884501358
 10
-3280.670444480375
 20
-247.1582775649428
 10
-3280.668426491593
 20
-247.1462726349166
 42
-0.0049768450180708
 10
-3280.595687810179
 20
-246.7384280675549
 10
-3280.571438795444
 20
-246.609880084478
 42
-0.0089029805631503
 10
-3280.434357943657
 20
-245.9481046370909
 10
-3280.401612568331
 20
-245.8030732065322
 42
-0.0080318257100733
 10
-3280.172063953991
 20
-244.8573635746795
 10
-3280.160079027542
 20
-244.8112329394884
 42
-0.0074265721316431
 10
-3279.876067488692
 20
-243.781168361107
 10
-3279.85618794559
 20
-243.7130343005672
 42
-0.0069711922704903
 10
-3279.528883367069
 20
-242.6467665601905
 10
-3279.468931419981
 20
-242.4607452018761
 42
-0.0052070422900008
 10
-3279.239506194704
 20
-241.7734731247886
 10
-3279.222225002475
 20
-241.7234458440079
 42
-0.0009167004448393
 10
-3279.019133115242
 20
-241.1389899960174
 42
-0.0025162726941063
 10
-3278.812035484947
 20
-240.5559487317638
 10
-3278.774810873182
 20
-240.4527991859699
 42
-0.0028212681458025
 10
-3278.526634954211
 20
-239.7770685537783
 10
-3278.516804191467
 20
-239.7507611091196
 42
-0.0031964916824845
 10
-3278.280511933798
 20
-239.1305563469746
 10
-3278.270877479797
 20
-239.1057463568252
 42
-0.0036281836451697
 10
-3278.045771518698
 20
-238.5383056759382
 10
-3278.036333108541
 20
-238.5150082444371
 42
-0.0041269166835456
 10
-3277.821715411882
 20
-237.9975673484571
 10
-3277.789082455472
 20
-237.9206889021229
 42
-0.0047472213058918
 10
-3277.632037649907
 20
-237.5602674342126
 10
-3277.625143568702
 20
-237.5448468368876
 42
-0.0025651660001942
 10
-3277.476785534849
 20
-237.2175187811322
 42
-0.0057144634995157
 10
-3277.323035841085
 20
-236.8927091077849
 10
-3277.295005135677
 20
-236.8352007253772
 42
-0.006538806837784
 10
-3277.111538107936
 20
-236.4709682287105
 10
-3277.103079652165
 20
-236.454708649356
 42
-0.0074510843036375
 10
-3276.92689740628
 20
-236.1280203682182
 10
-3276.918717735751
 20
-236.1133795909539
 42
-0.0084648979863389
 10
-3276.749083882649
 20
-235.8214705799883
 10
-3276.741227756155
 20
-235.8084635883276
 42
-0.0095638542805906
 10
-3276.577392308566
 20
-235.5485747163589
 10
-3276.56991736489
 20
-235.5372053548956
 42
-0.0107191626801235
 10
-3276.411115784507
 20
-235.3065941203594
 10
-3276.404099050775
 20
-235.2968580279933
 42
-0.0118458573917865
 10
-3276.249550952264
 20
-235.0927858326841
 42
-0.0129184518176746
 10
-3276.085098328661
 20
-234.896625316512
 10
-3276.054953556299
 20
-234.8624992376139
 42
-0.0217742579641677
 10
-3275.878341233964
 20
-234.679292467364
 10
-3275.867595689499
 20
-234.6690756341575
 42
-0.0097266568648514
 10
-3275.701538070648
 20
-234.5172280597237
 42
-0.0187720905740902
 10
-3275.527190494767
 20
-234.3751592063413
 10
-3275.496484504078
 20
-234.3520001239339
 42
-0.0179428207515059
 10
-3275.264063784088
 20
-234.1894479468267
 10
-3275.260411457172
 20
-234.1870840119392
 42
-0.0170047877704073
 10
-3275.024647819641
 20
-234.0456234977875
 10
-3275.020864830895
 20
-234.0435251927514
 42
-0.0160190788359535
 10
-3274.78395628326
 20
-233.9218738907631
 42
-0.0151102861496856
 10
-3274.539924500811
 20
-233.8151911147077
 10
-3274.487537998602
 20
-233.7941509818138
 42
-0.0271945441881467
 10
-3274.128875439541
 20
-233.6722861711073
 10
-3274.059810639056
 20
-233.6529366298417
 42
-0.0237596594020086
 10
-3273.644013792033
 20
-233.5574859178599
 10
-3273.575950938302
 20
-233.5452312297331
 42
-0.0213715440563037
 10
-3273.290076006857
 20
-233.5062841982233
 10
-3273.229928840641
 20
-233.5006944835226
 42
-0.0101465655827208
 10
-3273.062436308644
 20
-233.4885509402583
 10
-3273.053095922445
 20
-233.4880640252609
 42
-0.0100375910883776
 10
-3272.903941821884
 20
-233.4832882073358
 10
-3272.893682552203
 20
-233.4831657683214
 42
-0.0103625633382426
 10
-3272.764974557548
 20
-233.484297201848
 10
-3272.742708906281
 20
-233.4849545603129
 42
-0.0115689250207703
 10
-3272.658658168753
 20
-233.489384066558
 42
-0.0072438037432919
 10
-3272.574819889312
 20
-233.4969732663076
 10
-3272.558019379841
 20
-233.4987398090316
 42
-0.0217917313133169
 10
-3272.44144961653
 20
-233.5161597017523
 10
-3272.375849525958
 20
-233.5289063101677
 42
-0.0332943556745644
 10
-3272.171457360933
 20
-233.5829466014742
 10
-3272.141284792384
 20
-233.5931146785923
 42
-0.0184824084817889
 10
-3272.002779735918
 20
-233.6455656939792
 42
-0.0198002050693909
 10
-3271.868705395419
 20
-233.7084497541785
 10
-3271.866818758042
 20
-233.7094275410584
 42
-0.0212242342974581
 10
-3271.734679815635
 20
-233.7851902798539
 10
-3271.732864520096
 20
-233.7863360820598
 42
-0.022609060579038
 10
-3271.604360618874
 20
-233.8758157256246
 10
-3271.602516177137
 20
-233.8772279786118
 42
-0.0238457052260516
 10
-3271.479334095851
 20
-233.9812238744676
 10
-3271.477381367285
 20
-233.9830387522403
 42
-0.0248160564150685
 10
-3271.361179859986
 20
-234.1023133534468
 10
-3271.359076226582
 20
-234.1046986871535
 42
-0.0254109591461802
 10
-3271.251471008717
 20
-234.2399870731166
 10
-3271.249222986802
 20
-234.2431286215184
 42
-0.0255528488285968
 10
-3271.151776308008
 20
-234.3951556757474
 10
-3271.149445208089
 20
-234.3992372873603
 42
-0.0252146793215598
 10
-3271.063664182079
 20
-234.568739533359
 10
-3271.061361942922
 20
-234.5739216152701
 42
-0.0244265635959176
 10
-3270.988707249162
 20
-234.7616681873151
 10
-3270.97946084769
 20
-234.7895336056613
 42
-0.023131961288372
 10
-3270.9335380687
 20
-234.9528346524562
 42
-0.0112130424361633
 10
-3270.89890204616
 20
-235.1190382526539
 10
-3270.89769952105
 20
-235.1255348395322
 42
-0.0210527881257563
 10
-3270.87201304568
 20
-235.3065904849654
 10
-3270.868502450857
 20
-235.3419960335207
 42
-0.0190029892404547
 10
-3270.853060977311
 20
-235.5955318798174
 10
-3270.852251000868
 20
-235.631007494162
 42
-0.0137974553657507
 10
-3270.853799853704
 20
-235.9560389009086
 10
-3270.854645308659
 20
-235.9821576454782
 42
-0.0081336634219091
 10
-3270.869504643882
 20
-236.2875051130875
 42
-0.0073526923569808
 10
-3270.893813177257
 20
-236.5922533573772
 10
-3270.895074601039
 20
-236.6055900320387
 42
-0.00668861386789
 10
-3270.930810187088
 20
-236.9361760755594
 10
-3270.932467276556
 20
-236.9497976945273
 42
-0.0061359187354963
 10
-3270.980317878606
 20
-237.3065616746263
 10
-3270.982355379679
 20
-237.3204564774566
 42
-0.005669861006586
 10
-3271.043005710448
 20
-237.703735046303
 10
-3271.045411143769
 20
-237.7178941655253
 42
-0.0052721077278655
 10
-3271.11954334456
 20
-238.1280215051556
 10
-3271.122306493411
 20
-238.1424381405892
 42
-0.004928927217608
 10
-3271.210600611521
 20
-238.579746651761
 10
-3271.213713106194
 20
-238.5944155045274
 42
-0.0047415956711161
 10
-3271.316951097727
 20
-239.0592122619439
 10
-3271.351719308085
 20
-239.2090193573213
 42
-0.0084404470904111
 10
-3271.541735751649
 20
-239.9692433818222
 10
-3271.547862439643
 20
-239.9921075060058
 42
-0.0039635940255541
 10
-3271.769316123924
 20
-240.7930963702445
 10
-3271.782692919106
 20
-240.840027986845
 42
-0.0072475040839329
 10
-3272.050139806959
 20
-241.7292477032037
 10
-3272.120352133791
 20
-241.9509880531894
 42
-0.0051345458828991
 10
-3272.407111505856
 20
-242.8253132410184
 10
-3272.428637772641
 20
-242.8887395082016
 42
-0.0019150016601852
 10
-3272.68417117949
 20
-243.6322886283745
 10
-3272.690638783919
 20
-243.6508760933902
 42
-0.0021524362746143
 10
-3272.93911683495
 20
-244.3552019150039
 10
-3272.948327255627
 20
-244.3809554932508
 42
-0.0024331286821783
 10
-3273.184582514682
 20
-245.0315548014236
 10
-3273.193630467229
 20
-245.0560981077659
 42
-0.0027449721790877
 10
-3273.418245038069
 20
-245.6552279867024
 10
-3273.427135045444
 20
-245.6785505765102
 42
-0.0031083229770142
 10
-3273.640677532071
 20
-246.2284746141343
 10
-3273.649413663743
 20
-246.2505643299855
 42
-0.0035311343280478
 10
-3273.852454849338
 20
-246.7535474557221
 10
-3273.861040188495
 20
-246.7743901792552
 42
-0.004024564093879
 10
-3274.05415199228
 20
-247.2326995018249
 10
-3274.062588105876
 20
-247.2522788698817
 42
-0.004601513585208
 10
-3274.246344399047
 20
-247.6681838995391
 10
-3274.254630576879
 20
-247.6864810390006
 42
-0.0052768638274366
 10
-3274.429608095831
 20
-248.0622539232616
 10
-3274.43774030645
 20
-248.079247261789
 42
-0.0060672675645417
 10
-3274.604519919224
 20
-248.417162884919
 10
-3274.612489399706
 20
-248.4328281439168
 42
-0.0069904648871991
 10
-3274.771657793707
 20
-248.7351639505799
 10
-3274.779449193327
 20
-248.7494744998242
 42
-0.0080637022759064
 10
-3274.931601053663
 20
-249.0185098029604
 10
-3274.939190086287
 20
-249.0314376685479
 42
-0.0093006455670827
 10
-3275.084930762826
 20
-249.2694520670642
 10
-3275.092281429569
 20
-249.2809700362363
 42
-0.0107060778059648
 10
-3275.232229973009
 20
-249.4902403536164
 10
-3275.23929174129
 20
-249.5003258961857
 42
-0.0122723111408755
 10
-3275.374085459486
 20
-249.6831192256712
 10
-3275.374411683047
 20
-249.6835396134895
 42
-0.0141836319623942
 10
-3275.517993286014
 20
-249.8581093713104
 10
-3275.524941041665
 20
-249.8660843715741
 42
-0.0175957477189856
 10
-3275.6648472097
 20
-250.01570525998
 42
-0.0080466359680596
 10
-3275.812310974719
 20
-250.1580277881204
 10
-3275.858345519248
 20
-250.2010482262224
 42
-0.0269600260401312
 10
-3276.111625765227
 20
-250.413371484728
 10
-3276.178192901535
 20
-250.4633228993599
 42
-0.0178362839753027
 10
-3276.418137391184
 20
-250.6303408256078
 10
-3276.425382362185
 20
-250.6350093378129
 42
-0.0174650732643912
 10
-3276.661718559626
 20
-250.7758703027719
 42
-0.016924013016238
 10
-3276.90718480548
 20
-250.9001625625477
 10
-3276.953170961041
 20
-250.9215245181165
 42
-0.0318883036835322
 10
-3277.303521816661
 20
-251.0578628276265
 10
-3277.371887351829
 20
-251.079563448103
 42
-0.0284435909894336
 10
-3277.747937478117
 20
-251.1757808835767
 10
-3277.783095638615
 20
-251.1826744794052
 42
-0.0243909341004347
 10
-3278.096539099535
 20
-251.2283955104353
 10
-3278.146819826306
 20
-251.233241057337
 42
-0.0196639292932556
 10
-3278.362415403833
 20
-251.2454893428505
 10
-3278.414239474998
 20
-251.2463926035873
 42
-0.0100501510711505
 10
-3278.526662756661
 20
-251.2460922052342
 10
-3278.558322618004
 20
-251.2453711333489
 42
-0.0019752031104085
 10
-3278.607414954687
 20
-251.2440589731392
 10
-3278.610175257913
 20
-251.2439742813127
 42
0.0065378751958465
 10
-3278.653751832663
 20
-251.243207390098
 42
-0.016797469461922
 10
-3278.697282655594
 20
-251.2415474915719
 10
-3278.701361994857
 20
-251.241254480677
 42
-0.0081283276311878
 10
-3278.752921792593
 20
-251.2367074870394
 10
-3278.764661366474
 20
-251.2354795694607
 42
-0.0126703440165416
 10
-3278.839379662269
 20
-251.2257447783892
 10
-3278.862167529945
 20
-251.222186522474
 42
-0.0117852088431916
 10
-3278.981706515777
 20
-251.2006235273168
 10
-3279.03708696754
 20
-251.1892799870823
 42
-0.0251774592296549
 10
-3279.263931006548
 20
-251.1307819776491
 10
-3279.308650196398
 20
-251.1168151583144
 42
-0.0146525199892728
 10
-3279.495043183937
 20
-251.0525486311159
 42
-0.0166929435867535
 10
-3279.677020840064
 20
-250.976741498061
 10
-3279.681677471337
 20
-250.9746165974473
 42
-0.0191684358430887
 10
-3279.866861102588
 20
-250.8813805136567
 10
-3279.870193688344
 20
-250.879539266104
 42
-0.0221181781799559
 10
-3280.053503992247
 20
-250.7674057677325
 10
-3280.055853796254
 20
-250.7658214697421
 42
-0.0254984685377543
 10
-3280.23214394664
 20
-250.6334103197718
 10
-3280.25462609434
 20
-250.6146580108378
 42
-0.0292492648817155
 10
-3280.379395033184
 20
-250.4975652111932
 42
-0.0159048957487869
 10
-3280.493235030631
 20
-250.369545219598
 10
-3280.494553821213
 20
-250.3679636065741
 42
-0.0343813379572698
 10
-3280.59719108284
 20
-250.2260922808038
 10
-3280.6286826142
 20
-250.1755888887119
 42
-0.036911727570528
 10
-3280.714575116098
 20
-250.0121116477621
 42
-0.019175137991754
 10
-3280.781768501653
 20
-249.8397070417631
 10
-3280.783531825415
 20
-249.8346136970813
 42
-0.0378178042225802
 10
-3280.833326544199
 20
-249.6456729209977
 10
-3280.839321839931
 20
-249.6131123027894
 42
-0.018484604646427
 10
-3280.860039039223
 20
-249.4713594822581
 42
-0.0179866351308719
 10
-3280.870372044297
 20
-249.32846866917
 10
-3280.870428486743
 20
-249.3269109825644
 42
-0.0085497186139063
 10
-3280.871860767847
 20
-249.2520378175545
 42
-0.0085497186139063
  0
ENDBLK
  5
58
330
23
100
AcDbEntity
  8
template
390
1D
100
AcDbBlockEnd
  0
BLOCK
  5
59
330
24
100
AcDbEntity
  8
notes
390
1D
100
AcDbBlockBegin
  2
*D2
 70
     1
 10
0.0
 20
0.0
 30
0.0
  3
*D2
  1
*D2
  0
LINE
  5
5A
330
24
100
AcDbEntity
  8
0
  6
Continuous
 62
     0
370
    -2
390
1D
100
AcDbLine
 10
-717.3092269493027
 20
823.1162280010399
 30
0.0
 11
-717.3092269493027
 21
910.0
 31
0.0
  0
LINE
  5
5B
330
24
100
AcDbEntity
  8
0
  6
Continuous
 62
     0
370
    -2
390
1D
100
AcDbLine
 10
-137.3092269019671
 20
823.1162280010399
 30
0.0
 11
-137.3092269019671
 21
910.0
 31
0.0
  0
LINE
  5
5C
330
24
100
AcDbEntity
  8
0
  6
Continuous
 62
     0
370
    -2
390
1D
100
AcDbLine
 10
-717.3092269493027
 20
910.0
 30
0.0
 11
-137.3092269019671
 21
910.0
 31
0.0
  0
CIRCLE
  5
5D
102
{ACAD_REACTORS
330
5E
102
}
330
24
100
AcDbEntity
  8
0
  6
Continuous
 62
     0
370
    -2
390
1D
100
AcDbCircle
 10
-717.3092269493027
 20
910.0
 30
0.0
 40
4.99969482421875
  0
HATCH
  5
5E
330
24
100
AcDbEntity
  8
0
  6
Continuous
 62
     0
370
    -2
390
1D
100
AcDbHatch
 10
0.0
 20
0.0
 30
0.0
210
0.0
220
0.0
230
1.0
  2
SOLID
 70
     1
 71
     1
 91
        1
 92
        1
 93
        1
 72
     2
 10
-717.3092269493027
 20
910.0
 40
4.99969482421875
 50
0.0
 51
360.0
 73
     0
 97
        1
330
5D
 75
     0
 76
     1
 98
        1
 10
0.0
 20
0.0
  0
CIRCLE
  5
5F
102
{ACAD_REACTORS
330
60
102
}
330
24
100
AcDbEntity
  8
0
  6
Continuous
 62
     0
370
    -2
390
1D
100
AcDbCircle
 10
-137.3092269019671
 20
910.0
 30
0.0
 40
4.99969482421875
  0
HATCH
  5
60
330
24
100
AcDbEntity
  8
0
  6
Continuous
 62
     0
370
    -2
390
1D
100
AcDbHatch
 10
0.0
 20
0.0
 30
0.0
210
0.0
220
0.0
230
1.0
  2
SOLID
 70
     1
 71
     1
 91
        1
 92
        1
 93
        1
 72
     2
 10
-137.3092269019671
 20
910.0
 40
4.99969482421875
 50
0.0
 51
360.0
 73
     0
 97
        1
330
5F
 75
     0
 76
     1
 98
        1
 10
0.0
 20
0.0
  0
MTEXT
  5
61
330
24
100
AcDbEntity
  8
0
 62
     0
390
1D
100
AcDbMText
 10
-451.1217286078108
 20
943.8776171875002
 30
0.0
 40
24.4326171875
 41
0.0
 46
0.0
 71
     1
 72
     1
  1
580
  7
ＭＳ ゴシック
 73
     1
 44
0.7828267384257843
  0
POINT
  5
62
330
24
100
AcDbEntity
  8
Defpoints
 62
     0
370
     0
390
1D
100
AcDbPoint
 10
-137.3092269019671
 20
798.1162280010399
 30
0.0
  0
POINT
  5
63
330
24
100
AcDbEntity
  8
Defpoints
 62
     0
370
     0
390
1D
100
AcDbPoint
 10
-717.3092269493027
 20
798.1162280010399
 30
0.0
  0
POINT
  5
64
330
24
100
AcDbEntity
  8
Defpoints
 62
     0
370
     0
390
1D
100
AcDbPoint
 10
-717.3092269493027
 20
910.0
 30
0.0
  0
ENDBLK
  5
65
330
24
100
AcDbEntity
  8
notes
390
1D
100
AcDbBlockEnd
  0
BLOCK
  5
66
330
25
100
AcDbEntity
  8
notes
390
1D
100
AcDbBlockBegin
  2
*D3
 70
     1
 10
0.0
 20
0.0
 30
0.0
  3
*D3
  1
*D3
  0
LINE
  5
67
330
25
100
AcDbEntity
  8
0
  6
Continuous
 62
     0
370
    -2
390
1D
100
AcDbLine
 10
-122.3445273613197
 20
810.0
 30
0.0
 11
-13.75504374493903
 21
810.0
 31
0.0
  0
LINE
  5
68
330
25
100
AcDbEntity
  8
0
  6
Continuous
 62
     0
370
    -2
390
1D
100
AcDbLine
 10
-122.342649849541
 20
360.0036093178148
 30
0.0
 11
-13.75504374493903
 21
360.0036093178148
 31
0.0
  0
LINE
  5
69
330
25
100
AcDbEntity
  8
0
  6
Continuous
 62
     0
370
    -2
390
1D
100
AcDbLine
 10
-13.75504374493903
 20
810.0
 30
0.0
 11
-13.75504374493903
 21
360.0036093178148
 31
0.0
  0
CIRCLE
  5
6A
102
{ACAD_REACTORS
330
6B
102
}
330
25
100
AcDbEntity
  8
0
  6
Continuous
 62
     0
370
    -2
390
1D
100
AcDbCircle
 10
-13.75504374493903
 20
810.0
 30
0.0
 40
4.99969482421875
  0
HATCH
  5
6B
330
25
100
AcDbEntity
  8
0
  6
Continuous
 62
     0
370
    -2
390
1D
100
AcDbHatch
 10
0.0
 20
0.0
 30
0.0
210
0.0
220
0.0
230
1.0
  2
SOLID
 70
     1
 71
     1
 91
        1
 92
        1
 93
        1
 72
     2
 10
-13.75504374493903
 20
810.0
 40
4.99969482421875
 50
0.0
 51
360.0
 73
     0
 97
        1
330
6A
 75
     0
 76
     1
 98
        1
 10
0.0
 20
0.0
  0
CIRCLE
  5
6C
102
{ACAD_REACTORS
330
6D
102
}
330
25
100
AcDbEntity
  8
0
  6
Continuous
 62
     0
370
    -2
390
1D
100
AcDbCircle
 10
-13.75504374493903
 20
360.0036093178148
 30
0.0
 40
4.99969482421875
  0
HATCH
  5
6D
330
25
100
AcDbEntity
  8
0
  6
Continuous
 62
     0
370
    -2
390
1D
100
AcDbHatch
 10
0.0
 20
0.0
 30
0.0
210
0.0
220
0.0
230
1.0
  2
SOLID
 70
     1
 71
     1
 91
        1
 92
        1
 93
        1
 72
     2
 10
-13.75504374493903
 20
360.0036093178148
 40
4.99969482421875
 50
0.0
 51
360.0
 73
     0
 97
        1
330
6C
 75
     0
 76
     1
 98
        1
 10
0.0
 20
0.0
  0
MTEXT
  5
6E
330
25
100
AcDbEntity
  8
0
 62
     0
390
1D
100
AcDbMText
 10
-47.63266093243874
 20
561.189302976732
 30
0.0
 40
24.4326171875
 41
0.0
 46
0.0
 71
     1
 72
     1
  1
450
  7
ＭＳ ゴシック
 11
0.0
 21
1.0
 31
0.0
 73
     1
 44
0.7828267384257843
  0
POINT
  5
6F
330
25
100
AcDbEntity
  8
Defpoints
 62
     0
370
     0
390
1D
100
AcDbPoint
 10
-147.342649849541
 20
360.0036093178148
 30
0.0
  0
POINT
  5
70
330
25
100
AcDbEntity
  8
Defpoints
 62
     0
370
     0
390
1D
100
AcDbPoint
 10
-147.3445273613197
 20
810.0
 30
0.0
  0
POINT
  5
71
330
25
100
AcDbEntity
  8
Defpoints
 62
     0
370
     0
390
1D
100
AcDbPoint
 10
-13.75504374493903
 20
810.0
 30
0.0
  0
ENDBLK
  5
72
330
25
100
AcDbEntity
  8
notes
390
1D
100
AcDbBlockEnd
  0
BLOCK
  5
73
330
26
100
AcDbEntity
  8
notes
390
1D
100
AcDbBlockBegin
  2
*D4
 70
     1
 10
0.0
 20
0.0
 30
0.0
  3
*D4
  1
*D4
  0
LINE
  5
74
330
26
100
AcDbEntity
  8
0
  6
Continuous
 62
     0
370
    -2
390
1D
100
AcDbLine
 10
-742.3092269493027
 20
704.9901843275195
 30
0.0
 11
-817.3092269493027
 21
704.9901843275195
 31
0.0
  0
LINE
  5
75
330
26
100
AcDbEntity
  8
0
  6
Continuous
 62
     0
370
    -2
390
1D
100
AcDbLine
 10
-733.2466127777097
 20
810.0
 30
0.0
 11
-817.3092269493027
 21
810.0
 31
0.0
  0
LINE
  5
76
330
26
100
AcDbEntity
  8
0
  6
Continuous
 62
     0
370
    -2
390
1D
100
AcDbLine
 10
-817.3092269493027
 20
704.9901843275195
 30
0.0
 11
-817.3092269493027
 21
810.0
 31
0.0
  0
CIRCLE
  5
77
102
{ACAD_REACTORS
330
78
102
}
330
26
100
AcDbEntity
  8
0
  6
Continuous
 62
     0
370
    -2
390
1D
100
AcDbCircle
 10
-817.3092269493027
 20
704.9901843275195
 30
0.0
 40
4.99969482421875
  0
HATCH
  5
78
330
26
100
AcDbEntity
  8
0
  6
Continuous
 62
     0
370
    -2
390
1D
100
AcDbHatch
 10
0.0
 20
0.0
 30
0.0
210
0.0
220
0.0
230
1.0
  2
SOLID
 70
     1
 71
     1
 91
        1
 92
        1
 93
        1
 72
     2
 10
-817.3092269493027
 20
704.9901843275195
 40
4.99969482421875
 50
0.0
 51
360.0
 73
     0
 97
        1
330
77
 75
     0
 76
     1
 98
        1
 10
0.0
 20
0.0
  0
CIRCLE
  5
79
102
{ACAD_REACTORS
330
7A
102
}
330
26
100
AcDbEntity
  8
0
  6
Continuous
 62
     0
370
    -2
390
1D
100
AcDbCircle
 10
-817.3092269493027
 20
810.0
 30
0.0
 40
4.99969482421875
  0
HATCH
  5
7A
330
26
100
AcDbEntity
  8
0
  6
Continuous
 62
     0
370
    -2
390
1D
100
AcDbHatch
 10
0.0
 20
0.0
 30
0.0
210
0.0
220
0.0
230
1.0
  2
SOLID
 70
     1
 71
     1
 91
        1
 92
        1
 93
        1
 72
     2
 10
-817.3092269493027
 20
810.0
 40
4.99969482421875
 50
0.0
 51
360.0
 73
     0
 97
        1
330
79
 75
     0
 76
     1
 98
        1
 10
0.0
 20
0.0
  0
MTEXT
  5
7B
330
26
100
AcDbEntity
  8
0
 62
     0
390
1D
100
AcDbMText
 10
-851.1868441368024
 20
733.6825904815842
 30
0.0
 40
24.4326171875
 41
0.0
 46
0.0
 71
     1
 72
     1
  1
105
  7
ＭＳ ゴシック
 11
0.0
 21
1.0
 31
0.0
 73
     1
 44
0.7828267384257843
  0
POINT
  5
7C
330
26
100
AcDbEntity
  8
Defpoints
 62
     0
370
     0
390
1D
100
AcDbPoint
 10
-708.2466127777097
 20
810.0
 30
0.0
  0
POINT
  5
7D
330
26
100
AcDbEntity
  8
Defpoints
 62
     0
370
     0
390
1D
100
AcDbPoint
 10
-717.3092269493027
 20
704.9901843275195
 30
0.0
  0
POINT
  5
7E
330
26
100
AcDbEntity
  8
Defpoints
 62
     0
370
     0
390
1D
100
AcDbPoint
 10
-817.3092269493027
 20
704.9901843275195
 30
0.0
  0
ENDBLK
  5
7F
330
26
100
AcDbEntity
  8
notes
390
1D
100
AcDbBlockEnd
  0
BLOCK
  5
80
330
27
100
AcDbEntity
  8
notes
390
1D
100
AcDbBlockBegin
  2
*D5
 70
     1
 10
0.0
 20
0.0
 30
0.0
  3
*D5
  1
*D5
  0
LINE
  5
81
330
27
100
AcDbEntity
  8
0
  6
Continuous
 62
     0
370
    -2
390
1D
100
AcDbLine
 10
190.0009387558898
 20
365.0018046589075
 30
0.0
 11
190.0009387558898
 21
262.5036093178148
 31
0.0
  0
LINE
  5
82
330
27
100
AcDbEntity
  8
0
  6
Continuous
 62
     0
370
    -2
390
1D
100
AcDbLine
 10
710.0009387558898
 20
365.0018046589075
 30
0.0
 11
710.0009387558898
 21
262.5036093178148
 31
0.0
  0
LINE
  5
83
330
27
100
AcDbEntity
  8
0
  6
Continuous
 62
     0
370
    -2
390
1D
100
AcDbLine
 10
190.0009387558898
 20
262.5036093178148
 30
0.0
 11
710.0009387558898
 21
262.5036093178148
 31
0.0
  0
CIRCLE
  5
84
102
{ACAD_REACTORS
330
85
102
}
330
27
100
AcDbEntity
  8
0
  6
Continuous
 62
     0
370
    -2
390
1D
100
AcDbCircle
 10
190.0009387558898
 20
262.5036093178148
 30
0.0
 40
4.99969482421875
  0
HATCH
  5
85
330
27
100
AcDbEntity
  8
0
  6
Continuous
 62
     0
370
    -2
390
1D
100
AcDbHatch
 10
0.0
 20
0.0
 30
0.0
210
0.0
220
0.0
230
1.0
  2
SOLID
 70
     1
 71
     1
 91
        1
 92
        1
 93
        1
 72
     2
 10
190.0009387558898
 20
262.5036093178148
 40
4.99969482421875
 50
0.0
 51
360.0
 73
     0
 97
        1
330
84
 75
     0
 76
     1
 98
        1
 10
0.0
 20
0.0
  0
CIRCLE
  5
86
102
{ACAD_REACTORS
330
87
102
}
330
27
100
AcDbEntity
  8
0
  6
Continuous
 62
     0
370
    -2
390
1D
100
AcDbCircle
 10
710.0009387558898
 20
262.5036093178148
 30
0.0
 40
4.99969482421875
  0
HATCH
  5
87
330
27
100
AcDbEntity
  8
0
  6
Continuous
 62
     0
370
    -2
390
1D
100
AcDbHatch
 10
0.0
 20
0.0
 30
0.0
210
0.0
220
0.0
230
1.0
  2
SOLID
 70
     1
 71
     1
 91
        1
 92
        1
 93
        1
 72
     2
 10
710.0009387558898
 20
262.5036093178148
 40
4.99969482421875
 50
0.0
 51
360.0
 73
     0
 97
        1
330
86
 75
     0
 76
     1
 98
        1
 10
0.0
 20
0.0
  0
MTEXT
  5
88
330
27
100
AcDbEntity
  8
0
 62
     0
390
1D
100
AcDbMText
 10
426.1884370737143
 20
296.3812265053148
 30
0.0
 40
24.4326171875
 41
0.0
 46
0.0
 71
     1
 72
     1
  1
520
  7
ＭＳ ゴシック
 73
     1
 44
0.7828267384257843
  0
POINT
  5
89
330
27
100
AcDbEntity
  8
Defpoints
 62
     0
370
     0
390
1D
100
AcDbPoint
 10
710.0009387558898
 20
390.0018046589075
 30
0.0
  0
POINT
  5
8A
330
27
100
AcDbEntity
  8
Defpoints
 62
     0
370
     0
390
1D
100
AcDbPoint
 10
190.0009387558898
 20
390.0018046589075
 30
0.0
  0
POINT
  5
8B
330
27
100
AcDbEntity
  8
Defpoints
 62
     0
370
     0
390
1D
100
AcDbPoint
 10
190.0009387558898
 20
262.5036093178148
 30
0.0
  0
ENDBLK
  5
8C
330
27
100
AcDbEntity
  8
notes
390
1D
100
AcDbBlockEnd
  0
BLOCK
  5
8D
330
28
100
AcDbEntity
  8
notes
390
1D
100
AcDbBlockBegin
  2
*D6
 70
     1
 10
0.0
 20
0.0
 30
0.0
  3
*D6
  1
*D6
  0
LINE
  5
8E
330
28
100
AcDbEntity
  8
0
  6
Continuous
 62
     0
370
    -2
390
1D
100
AcDbLine
 10
735.0009387558898
 20
780.0018046589075
 30
0.0
 11
855.2291584121381
 21
780.0018046589075
 31
0.0
  0
LINE
  5
8F
330
28
100
AcDbEntity
  8
0
  6
Continuous
 62
     0
370
    -2
390
1D
100
AcDbLine
 10
735.0009387558898
 20
390.0018046589075
 30
0.0
 11
855.2291584121381
 21
390.0018046589075
 31
0.0
  0
LINE
  5
90
330
28
100
AcDbEntity
  8
0
  6
Continuous
 62
     0
370
    -2
390
1D
100
AcDbLine
 10
855.2291584121381
 20
780.0018046589075
 30
0.0
 11
855.2291584121381
 21
390.0018046589075
 31
0.0
  0
CIRCLE
  5
91
102
{ACAD_REACTORS
330
92
102
}
330
28
100
AcDbEntity
  8
0
  6
Continuous
 62
     0
370
    -2
390
1D
100
AcDbCircle
 10
855.2291584121381
 20
780.0018046589075
 30
0.0
 40
4.99969482421875
  0
HATCH
  5
92
330
28
100
AcDbEntity
  8
0
  6
Continuous
 62
     0
370
    -2
390
1D
100
AcDbHatch
 10
0.0
 20
0.0
 30
0.0
210
0.0
220
0.0
230
1.0
  2
SOLID
 70
     1
 71
     1
 91
        1
 92
        1
 93
        1
 72
     2
 10
855.2291584121381
 20
780.0018046589075
 40
4.99969482421875
 50
0.0
 51
360.0
 73
     0
 97
        1
330
91
 75
     0
 76
     1
 98
        1
 10
0.0
 20
0.0
  0
CIRCLE
  5
93
102
{ACAD_REACTORS
330
94
102
}
330
28
100
AcDbEntity
  8
0
  6
Continuous
 62
     0
370
    -2
390
1D
100
AcDbCircle
 10
855.2291584121381
 20
390.0018046589075
 30
0.0
 40
4.99969482421875
  0
HATCH
  5
94
330
28
100
AcDbEntity
  8
0
  6
Continuous
 62
     0
370
    -2
390
1D
100
AcDbHatch
 10
0.0
 20
0.0
 30
0.0
210
0.0
220
0.0
230
1.0
  2
SOLID
 70
     1
 71
     1
 91
        1
 92
        1
 93
        1
 72
     2
 10
855.2291584121381
 20
390.0018046589075
 40
4.99969482421875
 50
0.0
 51
360.0
 73
     0
 97
        1
330
93
 75
     0
 76
     1
 98
        1
 10
0.0
 20
0.0
  0
MTEXT
  5
95
330
28
100
AcDbEntity
  8
0
 62
     0
390
1D
100
AcDbMText
 10
821.3515412246379
 20
561.189302976732
 30
0.0
 40
24.4326171875
 41
0.0
 46
0.0
 71
     1
 72
     1
  1
390
  7
ＭＳ ゴシック
 11
0.0
 21
1.0
 31
0.0
 73
     1
 44
0.7828267384257843
  0
POINT
  5
96
330
28
100
AcDbEntity
  8
Defpoints
 62
     0
370
     0
390
1D
100
AcDbPoint
 10
710.0009387558898
 20
390.0018046589075
 30
0.0
  0
POINT
  5
97
330
28
100
AcDbEntity
  8
Defpoints
 62
     0
370
     0
390
1D
100
AcDbPoint
 10
710.0009387558898
 20
780.0018046589075
 30
0.0
  0
POINT
  5
98
330
28
100
AcDbEntity
  8
Defpoints
 62
     0
370
     0
390
1D
100
AcDbPoint
 10
855.2291584121381
 20
780.0018046589075
 30
0.0
  0
ENDBLK
  5
99
330
28
100
AcDbEntity
  8
notes
390
1D
100
AcDbBlockEnd
  0
BLOCK
  5
9A
330
29
100
AcDbEntity
  8
notes
390
1D
100
AcDbBlockBegin
  2
*D7
 70
     1
 10
0.0
 20
0.0
 30
0.0
  3
*D7
  1
*D7
  0
LINE
  5
9B
330
29
100
AcDbEntity
  8
0
  6
Continuous
 62
     0
370
    -2
390
1D
100
AcDbLine
 10
-741.8446617065929
 20
704.9901843275195
 30
0.0
 11
-817.3092269493027
 21
704.9901843275195
 31
0.0
  0
LINE
  5
9C
330
29
100
AcDbEntity
  8
0
  6
Continuous
 62
     0
370
    -2
390
1D
100
AcDbLine
 10
-741.8446617065929
 20
414.9495734002787
 30
0.0
 11
-817.3092269493027
 21
414.9495734002787
 31
0.0
  0
LINE
  5
9D
330
29
100
AcDbEntity
  8
0
  6
Continuous
 62
     0
370
    -2
390
1D
100
AcDbLine
 10
-817.3092269493027
 20
704.9901843275195
 30
0.0
 11
-817.3092269493027
 21
414.9495734002787
 31
0.0
  0
CIRCLE
  5
9E
102
{ACAD_REACTORS
330
9F
102
}
330
29
100
AcDbEntity
  8
0
  6
Continuous
 62
     0
370
    -2
390
1D
100
AcDbCircle
 10
-817.3092269493027
 20
704.9901843275195
 30
0.0
 40
4.99969482421875
  0
HATCH
  5
9F
330
29
100
AcDbEntity
  8
0
  6
Continuous
 62
     0
370
    -2
390
1D
100
AcDbHatch
 10
0.0
 20
0.0
 30
0.0
210
0.0
220
0.0
230
1.0
  2
SOLID
 70
     1
 71
     1
 91
        1
 92
        1
 93
        1
 72
     2
 10
-817.3092269493027
 20
704.9901843275195
 40
4.99969482421875
 50
0.0
 51
360.0
 73
     0
 97
        1
330
9E
 75
     0
 76
     1
 98
        1
 10
0.0
 20
0.0
  0
CIRCLE
  5
A0
102
{ACAD_REACTORS
330
A1
102
}
330
29
100
AcDbEntity
  8
0
  6
Continuous
 62
     0
370
    -2
390
1D
100
AcDbCircle
 10
-817.3092269493027
 20
414.9495734002787
 30
0.0
 40
4.99969482421875
  0
HATCH
  5
A1
330
29
100
AcDbEntity
  8
0
  6
Continuous
 62
     0
370
    -2
390
1D
100
AcDbHatch
 10
0.0
 20
0.0
 30
0.0
210
0.0
220
0.0
230
1.0
  2
SOLID
 70
     1
 71
     1
 91
        1
 92
        1
 93
        1
 72
     2
 10
-817.3092269493027
 20
414.9495734002787
 40
4.99969482421875
 50
0.0
 51
360.0
 73
     0
 97
        1
330
A0
 75
     0
 76
     1
 98
        1
 10
0.0
 20
0.0
  0
MTEXT
  5
A2
330
29
100
AcDbEntity
  8
0
 62
     0
390
1D
100
AcDbMText
 10
-851.1868441368024
 20
536.1573771817236
 30
0.0
 40
24.4326171875
 41
0.0
 46
0.0
 71
     1
 72
     1
  1
290
  7
ＭＳ ゴシック
 11
0.0
 21
1.0
 31
0.0
 73
     1
 44
0.7828267384257843
  0
POINT
  5
A3
330
29
100
AcDbEntity
  8
Defpoints
 62
     0
370
     0
390
1D
100
AcDbPoint
 10
-716.8446617065929
 20
414.9495734002787
 30
0.0
  0
POINT
  5
A4
330
29
100
AcDbEntity
  8
Defpoints
 62
     0
370
     0
390
1D
100
AcDbPoint
 10
-716.8446617065929
 20
704.9901843275195
 30
0.0
  0
POINT
  5
A5
330
29
100
AcDbEntity
  8
Defpoints
 62
     0
370
     0
390
1D
100
AcDbPoint
 10
-817.3092269493027
 20
704.9901843275195
 30
0.0
  0
ENDBLK
  5
A6
330
29
100
AcDbEntity
  8
notes
390
1D
100
AcDbBlockEnd
  0
BLOCK
  5
A7
330
2A
100
AcDbEntity
  8
notes
390
1D
100
AcDbBlockBegin
  2
*D8
 70
     1
 10
0.0
 20
0.0
 30
0.0
  3
*D8
  1
*D8
  0
LINE
  5
A8
330
2A
100
AcDbEntity
  8
0
  6
Continuous
 62
     0
370
    -2
390
1D
100
AcDbLine
 10
-766.8446617065929
 20
414.9495734002787
 30
0.0
 11
-817.3092269493027
 21
414.9495734002787
 31
0.0
  0
LINE
  5
A9
330
2A
100
AcDbEntity
  8
0
  6
Continuous
 62
     0
370
    -2
390
1D
100
AcDbLine
 10
-727.9466098651064
 20
360.0036093178148
 30
0.0
 11
-817.3092269493027
 21
360.0036093178148
 31
0.0
  0
LINE
  5
AA
330
2A
100
AcDbEntity
  8
0
  6
Continuous
 62
     0
370
    -2
390
1D
100
AcDbLine
 10
-817.3092269493027
 20
414.9495734002787
 30
0.0
 11
-817.3092269493027
 21
360.0036093178148
 31
0.0
  0
CIRCLE
  5
AB
102
{ACAD_REACTORS
330
AC
102
}
330
2A
100
AcDbEntity
  8
0
  6
Continuous
 62
     0
370
    -2
390
1D
100
AcDbCircle
 10
-817.3092269493027
 20
414.9495734002787
 30
0.0
 40
4.99969482421875
  0
HATCH
  5
AC
330
2A
100
AcDbEntity
  8
0
  6
Continuous
 62
     0
370
    -2
390
1D
100
AcDbHatch
 10
0.0
 20
0.0
 30
0.0
210
0.0
220
0.0
230
1.0
  2
SOLID
 70
     1
 71
     1
 91
        1
 92
        1
 93
        1
 72
     2
 10
-817.3092269493027
 20
414.9495734002787
 40
4.99969482421875
 50
0.0
 51
360.0
 73
     0
 97
        1
330
AB
 75
     0
 76
     1
 98
        1
 10
0.0
 20
0.0
  0
CIRCLE
  5
AD
102
{ACAD_REACTORS
330
AE
102
}
330
2A
100
AcDbEntity
  8
0
  6
Continuous
 62
     0
370
    -2
390
1D
100
AcDbCircle
 10
-817.3092269493027
 20
360.0036093178148
 30
0.0
 40
4.99969482421875
  0
HATCH
  5
AE
330
2A
100
AcDbEntity
  8
0
  6
Continuous
 62
     0
370
    -2
390
1D
100
AcDbHatch
 10
0.0
 20
0.0
 30
0.0
210
0.0
220
0.0
230
1.0
  2
SOLID
 70
     1
 71
     1
 91
        1
 92
        1
 93
        1
 72
     2
 10
-817.3092269493027
 20
360.0036093178148
 40
4.99969482421875
 50
0.0
 51
360.0
 73
     0
 97
        1
330
AD
 75
     0
 76
     1
 98
        1
 10
0.0
 20
0.0
  0
MTEXT
  5
AF
330
2A
100
AcDbEntity
  8
0
 62
     0
390
1D
100
AcDbMText
 10
-851.1868441368024
 20
371.6015913590468
 30
0.0
 40
24.4326171875
 41
0.0
 46
0.0
 71
     1
 72
     1
  1
55
  7
ＭＳ ゴシック
 11
0.0
 21
1.0
 31
0.0
 73
     1
 44
0.7828267384257843
  0
POINT
  5
B0
330
2A
100
AcDbEntity
  8
Defpoints
 62
     0
370
     0
390
1D
100
AcDbPoint
 10
-702.9466098651064
 20
360.0036093178148
 30
0.0
  0
POINT
  5
B1
330
2A
100
AcDbEntity
  8
Defpoints
 62
     0
370
     0
390
1D
100
AcDbPoint
 10
-741.8446617065929
 20
414.9495734002787
 30
0.0
  0
POINT
  5
B2
330
2A
100
AcDbEntity
  8
Defpoints
 62
     0
370
     0
390
1D
100
AcDbPoint
 10
-817.3092269493027
 20
414.9495734002787
 30
0.0
  0
ENDBLK
  5
B3
330
2A
100
AcDbEntity
  8
notes
390
1D
100
AcDbBlockEnd
  0
BLOCK
  5
B4
330
2B
100
AcDbEntity
  8
notes
390
1D
100
AcDbBlockBegin
  2
*D9
 70
     1
 10
0.0
 20
0.0
 30
0.0
  3
*D9
  1
*D9
  0
LINE
  5
B5
330
2B
100
AcDbEntity
  8
0
  6
Continuous
 62
     0
370
    -2
390
1D
100
AcDbLine
 10
-662.3092269493027
 20
352.1636334396799
 30
0.0
 11
-662.3092269493027
 21
260.0036093178148
 31
0.0
  0
LINE
  5
B6
330
2B
100
AcDbEntity
  8
0
  6
Continuous
 62
     0
370
    -2
390
1D
100
AcDbLine
 10
-192.3092269493027
 20
335.0036093178148
 30
0.0
 11
-192.3092269493027
 21
260.0036093178148
 31
0.0
  0
LINE
  5
B7
330
2B
100
AcDbEntity
  8
0
  6
Continuous
 62
     0
370
    -2
390
1D
100
AcDbLine
 10
-662.3092269493027
 20
260.0036093178148
 30
0.0
 11
-192.3092269493027
 21
260.0036093178148
 31
0.0
  0
CIRCLE
  5
B8
102
{ACAD_REACTORS
330
B9
102
}
330
2B
100
AcDbEntity
  8
0
  6
Continuous
 62
     0
370
    -2
390
1D
100
AcDbCircle
 10
-662.3092269493027
 20
260.0036093178148
 30
0.0
 40
4.99969482421875
  0
HATCH
  5
B9
330
2B
100
AcDbEntity
  8
0
  6
Continuous
 62
     0
370
    -2
390
1D
100
AcDbHatch
 10
0.0
 20
0.0
 30
0.0
210
0.0
220
0.0
230
1.0
  2
SOLID
 70
     1
 71
     1
 91
        1
 92
        1
 93
        1
 72
     2
 10
-662.3092269493027
 20
260.0036093178148
 40
4.99969482421875
 50
0.0
 51
360.0
 73
     0
 97
        1
330
B8
 75
     0
 76
     1
 98
        1
 10
0.0
 20
0.0
  0
CIRCLE
  5
BA
102
{ACAD_REACTORS
330
BB
102
}
330
2B
100
AcDbEntity
  8
0
  6
Continuous
 62
     0
370
    -2
390
1D
100
AcDbCircle
 10
-192.3092269493027
 20
260.0036093178148
 30
0.0
 40
4.99969482421875
  0
HATCH
  5
BB
330
2B
100
AcDbEntity
  8
0
  6
Continuous
 62
     0
370
    -2
390
1D
100
AcDbHatch
 10
0.0
 20
0.0
 30
0.0
210
0.0
220
0.0
230
1.0
  2
SOLID
 70
     1
 71
     1
 91
        1
 92
        1
 93
        1
 72
     2
 10
-192.3092269493027
 20
260.0036093178148
 40
4.99969482421875
 50
0.0
 51
360.0
 73
     0
 97
        1
330
BA
 75
     0
 76
     1
 98
        1
 10
0.0
 20
0.0
  0
MTEXT
  5
BC
330
2B
100
AcDbEntity
  8
0
 62
     0
390
1D
100
AcDbMText
 10
-448.9143298759491
 20
293.8812265053148
 30
0.0
 40
24.4326171875
 41
0.0
 46
0.0
 71
     1
 72
     1
  1
470
  7
ＭＳ ゴシック
 73
     1
 44
0.7828267384257843
  0
POINT
  5
BD
330
2B
100
AcDbEntity
  8
Defpoints
 62
     0
370
     0
390
1D
100
AcDbPoint
 10
-192.3092269493027
 20
360.0036093178148
 30
0.0
  0
POINT
  5
BE
330
2B
100
AcDbEntity
  8
Defpoints
 62
     0
370
     0
390
1D
100
AcDbPoint
 10
-662.3092269493027
 20
377.1636334396799
 30
0.0
  0
POINT
  5
BF
330
2B
100
AcDbEntity
  8
Defpoints
 62
     0
370
     0
390
1D
100
AcDbPoint
 10
-662.3092269493027
 20
260.0036093178148
 30
0.0
  0
ENDBLK
  5
C0
330
2B
100
AcDbEntity
  8
notes
390
1D
100
AcDbBlockEnd
  0
BLOCK
  5
C1
330
2C
100
AcDbEntity
  8
notes
390
1D
100
AcDbBlockBegin
  2
*D10
 70
     1
 10
0.0
 20
0.0
 30
0.0
  3
*D10
  1
*D10
  0
LINE
  5
C2
330
2C
100
AcDbEntity
  8
0
  6
Continuous
 62
     0
370
    -2
390
1D
100
AcDbLine
 10
-192.3092269493027
 20
352.1636334396799
 30
0.0
 11
-192.3092269493027
 21
260.0036093178148
 31
0.0
  0
LINE
  5
C3
330
2C
100
AcDbEntity
  8
0
  6
Continuous
 62
     0
370
    -2
390
1D
100
AcDbLine
 10
-137.3092269493027
 20
352.1636334396799
 30
0.0
 11
-137.3092269493027
 21
260.0036093178148
 31
0.0
  0
LINE
  5
C4
330
2C
100
AcDbEntity
  8
0
  6
Continuous
 62
     0
370
    -2
390
1D
100
AcDbLine
 10
-192.3092269493027
 20
260.0036093178148
 30
0.0
 11
-137.3092269493027
 21
260.0036093178148
 31
0.0
  0
CIRCLE
  5
C5
102
{ACAD_REACTORS
330
C6
102
}
330
2C
100
AcDbEntity
  8
0
  6
Continuous
 62
     0
370
    -2
390
1D
100
AcDbCircle
 10
-192.3092269493027
 20
260.0036093178148
 30
0.0
 40
4.99969482421875
  0
HATCH
  5
C6
330
2C
100
AcDbEntity
  8
0
  6
Continuous
 62
     0
370
    -2
390
1D
100
AcDbHatch
 10
0.0
 20
0.0
 30
0.0
210
0.0
220
0.0
230
1.0
  2
SOLID
 70
     1
 71
     1
 91
        1
 92
        1
 93
        1
 72
     2
 10
-192.3092269493027
 20
260.0036093178148
 40
4.99969482421875
 50
0.0
 51
360.0
 73
     0
 97
        1
330
C5
 75
     0
 76
     1
 98
        1
 10
0.0
 20
0.0
  0
CIRCLE
  5
C7
102
{ACAD_REACTORS
330
C8
102
}
330
2C
100
AcDbEntity
  8
0
  6
Continuous
 62
     0
370
    -2
390
1D
100
AcDbCircle
 10
-137.3092269493027
 20
260.0036093178148
 30
0.0
 40
4.99969482421875
  0
HATCH
  5
C8
330
2C
100
AcDbEntity
  8
0
  6
Continuous
 62
     0
370
    -2
390
1D
100
AcDbHatch
 10
0.0
 20
0.0
 30
0.0
210
0.0
220
0.0
230
1.0
  2
SOLID
 70
     1
 71
     1
 91
        1
 92
        1
 93
        1
 72
     2
 10
-137.3092269493027
 20
260.0036093178148
 40
4.99969482421875
 50
0.0
 51
360.0
 73
     0
 97
        1
330
C7
 75
     0
 76
     1
 98
        1
 10
0.0
 20
0.0
  0
MTEXT
  5
C9
330
2C
100
AcDbEntity
  8
0
 62
     0
390
1D
100
AcDbMText
 10
-180.6842269493027
 20
293.8812265053148
 30
0.0
 40
24.4326171875
 41
0.0
 46
0.0
 71
     1
 72
     1
  1
55
  7
ＭＳ ゴシック
 73
     1
 44
0.7828267384257843
  0
POINT
  5
CA
330
2C
100
AcDbEntity
  8
Defpoints
 62
     0
370
     0
390
1D
100
AcDbPoint
 10
-137.3092269493027
 20
377.1636334396799
 30
0.0
  0
POINT
  5
CB
330
2C
100
AcDbEntity
  8
Defpoints
 62
     0
370
     0
390
1D
100
AcDbPoint
 10
-192.3092269493027
 20
377.1636334396799
 30
0.0
  0
POINT
  5
CC
330
2C
100
AcDbEntity
  8
Defpoints
 62
     0
370
     0
390
1D
100
AcDbPoint
 10
-192.3092269493027
 20
260.0036093178148
 30
0.0
  0
ENDBLK
  5
CD
330
2C
100
AcDbEntity
  8
notes
390
1D
100
AcDbBlockEnd
  0
BLOCK
  5
CE
330
2D
100
AcDbEntity
  8
notes
390
1D
100
AcDbBlockBegin
  2
*D11
 70
     1
 10
0.0
 20
0.0
 30
0.0
  3
*D11
  1
*D11
  0
LINE
  5
CF
330
2D
100
AcDbEntity
  8
0
  6
Continuous
 62
     0
370
    -2
390
1D
100
AcDbLine
 10
193.0360994140733
 20
-403.0004438994089
 30
0.0
 11
111.9229210612857
 21
-403.0004438994089
 31
0.0
  0
LINE
  5
D0
330
2D
100
AcDbEntity
  8
0
  6
Continuous
 62
     0
370
    -2
390
1D
100
AcDbLine
 10
190.0367743469424
 20
-422.9546390878094
 30
0.0
 11
111.9229210612857
 21
-422.9546390878094
 31
0.0
  0
LINE
  5
D1
330
2D
100
AcDbEntity
  8
0
  6
Continuous
 62
     0
370
    -2
390
1D
100
AcDbLine
 10
111.9229210612857
 20
-403.0004438994089
 30
0.0
 11
111.9229210612857
 21
-422.9546390878094
 31
0.0
  0
CIRCLE
  5
D2
102
{ACAD_REACTORS
330
D3
102
}
330
2D
100
AcDbEntity
  8
0
  6
Continuous
 62
     0
370
    -2
390
1D
100
AcDbCircle
 10
111.9229210612857
 20
-403.0004438994089
 30
0.0
 40
4.99969482421875
  0
HATCH
  5
D3
330
2D
100
AcDbEntity
  8
0
  6
Continuous
 62
     0
370
    -2
390
1D
100
AcDbHatch
 10
0.0
 20
0.0
 30
0.0
210
0.0
220
0.0
230
1.0
  2
SOLID
 70
     1
 71
     1
 91
        1
 92
        1
 93
        1
 72
     2
 10
111.9229210612857
 20
-403.0004438994089
 40
4.99969482421875
 50
0.0
 51
360.0
 73
     0
 97
        1
330
D2
 75
     0
 76
     1
 98
        1
 10
0.0
 20
0.0
  0
CIRCLE
  5
D4
102
{ACAD_REACTORS
330
D5
102
}
330
2D
100
AcDbEntity
  8
0
  6
Continuous
 62
     0
370
    -2
390
1D
100
AcDbCircle
 10
111.9229210612857
 20
-422.9546390878094
 30
0.0
 40
4.99969482421875
  0
HATCH
  5
D5
330
2D
100
AcDbEntity
  8
0
  6
Continuous
 62
     0
370
    -2
390
1D
100
AcDbHatch
 10
0.0
 20
0.0
 30
0.0
210
0.0
220
0.0
230
1.0
  2
SOLID
 70
     1
 71
     1
 91
        1
 92
        1
 93
        1
 72
     2
 10
111.9229210612857
 20
-422.9546390878094
 40
4.99969482421875
 50
0.0
 51
360.0
 73
     0
 97
        1
330
D4
 75
     0
 76
     1
 98
        1
 10
0.0
 20
0.0
  0
MTEXT
  5
D6
330
2D
100
AcDbEntity
  8
0
 62
     0
390
1D
100
AcDbMText
 10
78.045303873786
 20
-428.8525414936091
 30
0.0
 40
24.4326171875
 41
0.0
 46
0.0
 71
     1
 72
     1
  1
20
  7
ＭＳ ゴシック
 11
0.0
 21
1.0
 31
0.0
 73
     1
 44
0.7828267384257843
  0
POINT
  5
D7
330
2D
100
AcDbEntity
  8
Defpoints
 62
     0
370
     0
390
1D
100
AcDbPoint
 10
215.0367743469424
 20
-422.9546390878094
 30
0.0
  0
POINT
  5
D8
330
2D
100
AcDbEntity
  8
Defpoints
 62
     0
370
     0
390
1D
100
AcDbPoint
 10
218.0360994140733
 20
-403.0004438994089
 30
0.0
  0
POINT
  5
D9
330
2D
100
AcDbEntity
  8
Defpoints
 62
     0
370
     0
390
1D
100
AcDbPoint
 10
111.9229210612857
 20
-403.0004438994089
 30
0.0
  0
ENDBLK
  5
DA
330
2D
100
AcDbEntity
  8
notes
390
1D
100
AcDbBlockEnd
  0
BLOCK
  5
DB
330
2E
100
AcDbEntity
  8
notes
390
1D
100
AcDbBlockBegin
  2
*D12
 70
     1
 10
0.0
 20
0.0
 30
0.0
  3
*D12
  1
*D12
  0
LINE
  5
DC
330
2E
100
AcDbEntity
  8
0
  6
Continuous
 62
     0
370
    -2
390
1D
100
AcDbLine
 10
-118.5388109850592
 20
-403.0
 30
0.0
 11
-37.31606601845488
 21
-403.0
 31
0.0
  0
LINE
  5
DD
330
2E
100
AcDbEntity
  8
0
  6
Continuous
 62
     0
370
    -2
390
1D
100
AcDbLine
 10
-217.8446617065929
 20
-563.0
 30
0.0
 11
-37.31606601845488
 21
-563.0
 31
0.0
  0
LINE
  5
DE
330
2E
100
AcDbEntity
  8
0
  6
Continuous
 62
     0
370
    -2
390
1D
100
AcDbLine
 10
-37.31606601845488
 20
-403.0
 30
0.0
 11
-37.31606601845488
 21
-563.0
 31
0.0
  0
CIRCLE
  5
DF
102
{ACAD_REACTORS
330
E0
102
}
330
2E
100
AcDbEntity
  8
0
  6
Continuous
 62
     0
370
    -2
390
1D
100
AcDbCircle
 10
-37.31606601845488
 20
-403.0
 30
0.0
 40
4.99969482421875
  0
HATCH
  5
E0
330
2E
100
AcDbEntity
  8
0
  6
Continuous
 62
     0
370
    -2
390
1D
100
AcDbHatch
 10
0.0
 20
0.0
 30
0.0
210
0.0
220
0.0
230
1.0
  2
SOLID
 70
     1
 71
     1
 91
        1
 92
        1
 93
        1
 72
     2
 10
-37.31606601845488
 20
-403.0
 40
4.99969482421875
 50
0.0
 51
360.0
 73
     0
 97
        1
330
DF
 75
     0
 76
     1
 98
        1
 10
0.0
 20
0.0
  0
CIRCLE
  5
E1
102
{ACAD_REACTORS
330
E2
102
}
330
2E
100
AcDbEntity
  8
0
  6
Continuous
 62
     0
370
    -2
390
1D
100
AcDbCircle
 10
-37.31606601845488
 20
-563.0
 30
0.0
 40
4.99969482421875
  0
HATCH
  5
E2
330
2E
100
AcDbEntity
  8
0
  6
Continuous
 62
     0
370
    -2
390
1D
100
AcDbHatch
 10
0.0
 20
0.0
 30
0.0
210
0.0
220
0.0
230
1.0
  2
SOLID
 70
     1
 71
     1
 91
        1
 92
        1
 93
        1
 72
     2
 10
-37.31606601845488
 20
-563.0
 40
4.99969482421875
 50
0.0
 51
360.0
 73
     0
 97
        1
330
E1
 75
     0
 76
     1
 98
        1
 10
0.0
 20
0.0
  0
MTEXT
  5
E3
330
2E
100
AcDbEntity
  8
0
 62
     0
390
1D
100
AcDbMText
 10
-71.19368320595458
 20
-506.8125016821755
 30
0.0
 40
24.4326171875
 41
0.0
 46
0.0
 71
     1
 72
     1
  1
160
  7
ＭＳ ゴシック
 11
0.0
 21
1.0
 31
0.0
 73
     1
 44
0.7828267384257843
  0
POINT
  5
E4
330
2E
100
AcDbEntity
  8
Defpoints
 62
     0
370
     0
390
1D
100
AcDbPoint
 10
-242.8446617065929
 20
-563.0
 30
0.0
  0
POINT
  5
E5
330
2E
100
AcDbEntity
  8
Defpoints
 62
     0
370
     0
390
1D
100
AcDbPoint
 10
-143.5388109850592
 20
-403.0
 30
0.0
  0
POINT
  5
E6
330
2E
100
AcDbEntity
  8
Defpoints
 62
     0
370
     0
390
1D
100
AcDbPoint
 10
-37.31606601845488
 20
-403.0
 30
0.0
  0
ENDBLK
  5
E7
330
2E
100
AcDbEntity
  8
notes
390
1D
100
AcDbBlockEnd
  0
BLOCK
  5
E8
330
2F
100
AcDbEntity
  8
notes
390
1D
100
AcDbBlockBegin
  2
*D13
 70
     1
 10
0.0
 20
0.0
 30
0.0
  3
*D13
  1
*D13
  0
LINE
  5
E9
330
2F
100
AcDbEntity
  8
0
  6
Continuous
 62
     0
370
    -2
390
1D
100
AcDbLine
 10
661.8047835249449
 20
-440.3995316886633
 30
0.0
 11
661.8047835249449
 21
-717.0
 31
0.0
  0
LINE
  5
EA
330
2F
100
AcDbEntity
  8
0
  6
Continuous
 62
     0
370
    -2
390
1D
100
AcDbLine
 10
411.8047835249449
 20
-582.8050451107372
 30
0.0
 11
411.8047835249449
 21
-717.0
 31
0.0
  0
LINE
  5
EB
330
2F
100
AcDbEntity
  8
0
  6
Continuous
 62
     0
370
    -2
390
1D
100
AcDbLine
 10
661.8047835249449
 20
-717.0
 30
0.0
 11
411.8047835249449
 21
-717.0
 31
0.0
  0
CIRCLE
  5
EC
102
{ACAD_REACTORS
330
ED
102
}
330
2F
100
AcDbEntity
  8
0
  6
Continuous
 62
     0
370
    -2
390
1D
100
AcDbCircle
 10
661.8047835249449
 20
-717.0
 30
0.0
 40
4.99969482421875
  0
HATCH
  5
ED
330
2F
100
AcDbEntity
  8
0
  6
Continuous
 62
     0
370
    -2
390
1D
100
AcDbHatch
 10
0.0
 20
0.0
 30
0.0
210
0.0
220
0.0
230
1.0
  2
SOLID
 70
     1
 71
     1
 91
        1
 92
        1
 93
        1
 72
     2
 10
661.8047835249449
 20
-717.0
 40
4.99969482421875
 50
0.0
 51
360.0
 73
     0
 97
        1
330
EC
 75
     0
 76
     1
 98
        1
 10
0.0
 20
0.0
  0
CIRCLE
  5
EE
102
{ACAD_REACTORS
330
EF
102
}
330
2F
100
AcDbEntity
  8
0
  6
Continuous
 62
     0
370
    -2
390
1D
100
AcDbCircle
 10
411.8047835249449
 20
-717.0
 30
0.0
 40
4.99969482421875
  0
HATCH
  5
EF
330
2F
100
AcDbEntity
  8
0
  6
Continuous
 62
     0
370
    -2
390
1D
100
AcDbHatch
 10
0.0
 20
0.0
 30
0.0
210
0.0
220
0.0
230
1.0
  2
SOLID
 70
     1
 71
     1
 91
        1
 92
        1
 93
        1
 72
     2
 10
411.8047835249449
 20
-717.0
 40
4.99969482421875
 50
0.0
 51
360.0
 73
     0
 97
        1
330
EE
 75
     0
 76
     1
 98
        1
 10
0.0
 20
0.0
  0
MTEXT
  5
F0
330
2F
100
AcDbEntity
  8
0
 62
     0
390
1D
100
AcDbMText
 10
508.1874983178245
 20
-683.1223828125001
 30
0.0
 40
24.4326171875
 41
0.0
 46
0.0
 71
     1
 72
     1
  1
250
  7
ＭＳ ゴシック
 73
     1
 44
0.7828267384257843
  0
POINT
  5
F1
330
2F
100
AcDbEntity
  8
Defpoints
 62
     0
370
     0
390
1D
100
AcDbPoint
 10
411.8047835249449
 20
-557.8050451107372
 30
0.0
  0
POINT
  5
F2
330
2F
100
AcDbEntity
  8
Defpoints
 62
     0
370
     0
390
1D
100
AcDbPoint
 10
661.8047835249449
 20
-415.3995316886633
 30
0.0
  0
POINT
  5
F3
330
2F
100
AcDbEntity
  8
Defpoints
 62
     0
370
     0
390
1D
100
AcDbPoint
 10
661.8047835249449
 20
-717.0
 30
0.0
  0
ENDBLK
  5
F4
330
2F
100
AcDbEntity
  8
notes
390
1D
100
AcDbBlockEnd
  0
BLOCK
  5
F5
330
30
100
AcDbEntity
  8
notes
390
1D
100
AcDbBlockBegin
  2
*D14
 70
     1
 10
0.0
 20
0.0
 30
0.0
  3
*D14
  1
*D14
  0
LINE
  5
F6
330
30
100
AcDbEntity
  8
0
  6
Continuous
 62
     0
370
    -2
390
1D
100
AcDbLine
 10
661.9193117434711
 20
-396.9163750739605
 30
0.0
 11
661.9193117434711
 21
-303.0002707833697
 31
0.0
  0
LINE
  5
F7
330
30
100
AcDbEntity
  8
0
  6
Continuous
 62
     0
370
    -2
390
1D
100
AcDbLine
 10
606.9542156540824
 20
-386.9974803449128
 30
0.0
 11
606.9542156540824
 21
-303.0002707833697
 31
0.0
  0
LINE
  5
F8
330
30
100
AcDbEntity
  8
0
  6
Continuous
 62
     0
370
    -2
390
1D
100
AcDbLine
 10
661.9193117434711
 20
-303.0002707833697
 30
0.0
 11
606.9542156540824
 21
-303.0002707833697
 31
0.0
  0
CIRCLE
  5
F9
102
{ACAD_REACTORS
330
FA
102
}
330
30
100
AcDbEntity
  8
0
  6
Continuous
 62
     0
370
    -2
390
1D
100
AcDbCircle
 10
661.9193117434711
 20
-303.0002707833697
 30
0.0
 40
4.99969482421875
  0
HATCH
  5
FA
330
30
100
AcDbEntity
  8
0
  6
Continuous
 62
     0
370
    -2
390
1D
100
AcDbHatch
 10
0.0
 20
0.0
 30
0.0
210
0.0
220
0.0
230
1.0
  2
SOLID
 70
     1
 71
     1
 91
        1
 92
        1
 93
        1
 72
     2
 10
661.9193117434711
 20
-303.0002707833697
 40
4.99969482421875
 50
0.0
 51
360.0
 73
     0
 97
        1
330
F9
 75
     0
 76
     1
 98
        1
 10
0.0
 20
0.0
  0
CIRCLE
  5
FB
102
{ACAD_REACTORS
330
FC
102
}
330
30
100
AcDbEntity
  8
0
  6
Continuous
 62
     0
370
    -2
390
1D
100
AcDbCircle
 10
606.9542156540824
 20
-303.0002707833697
 30
0.0
 40
4.99969482421875
  0
HATCH
  5
FC
330
30
100
AcDbEntity
  8
0
  6
Continuous
 62
     0
370
    -2
390
1D
100
AcDbHatch
 10
0.0
 20
0.0
 30
0.0
210
0.0
220
0.0
230
1.0
  2
SOLID
 70
     1
 71
     1
 91
        1
 92
        1
 93
        1
 72
     2
 10
606.9542156540824
 20
-303.0002707833697
 40
4.99969482421875
 50
0.0
 51
360.0
 73
     0
 97
        1
330
FB
 75
     0
 76
     1
 98
        1
 10
0.0
 20
0.0
  0
MTEXT
  5
FD
330
30
100
AcDbEntity
  8
0
 62
     0
390
1D
100
AcDbMText
 10
618.5617636987768
 20
-269.1226535958697
 30
0.0
 40
24.4326171875
 41
0.0
 46
0.0
 71
     1
 72
     1
  1
55
  7
ＭＳ ゴシック
 73
     1
 44
0.7828267384257843
  0
POINT
  5
FE
330
30
100
AcDbEntity
  8
Defpoints
 62
     0
370
     0
390
1D
100
AcDbPoint
 10
606.9542156540824
 20
-411.9974803449128
 30
0.0
  0
POINT
  5
FF
330
30
100
AcDbEntity
  8
Defpoints
 62
     0
370
     0
390
1D
100
AcDbPoint
 10
661.9193117434711
 20
-421.9163750739605
 30
0.0
  0
POINT
  5
100
330
30
100
AcDbEntity
  8
Defpoints
 62
     0
370
     0
390
1D
100
AcDbPoint
 10
661.9193117434711
 20
-303.0002707833697
 30
0.0
  0
ENDBLK
  5
101
330
30
100
AcDbEntity
  8
notes
390
1D
100
AcDbBlockEnd
  0
BLOCK
  5
102
330
31
100
AcDbEntity
  8
notes
390
1D
100
AcDbBlockBegin
  2
*D15
 70
     1
 10
0.0
 20
0.0
 30
0.0
  3
*D15
  1
*D15
  0
LINE
  5
103
330
31
100
AcDbEntity
  8
0
  6
Continuous
 62
     0
370
    -2
390
1D
100
AcDbLine
 10
-614.8087575476893
 20
-590.2179645659149
 30
0.0
 11
-614.8087575476893
 21
-663.0
 31
0.0
  0
LINE
  5
104
330
31
100
AcDbEntity
  8
0
  6
Continuous
 62
     0
370
    -2
390
1D
100
AcDbLine
 10
-239.8087575476893
 20
-590.2179645659149
 30
0.0
 11
-239.8087575476893
 21
-663.0
 31
0.0
  0
LINE
  5
105
330
31
100
AcDbEntity
  8
0
  6
Continuous
 62
     0
370
    -2
390
1D
100
AcDbLine
 10
-614.8087575476893
 20
-663.0
 30
0.0
 11
-239.8087575476893
 21
-663.0
 31
0.0
  0
CIRCLE
  5
106
102
{ACAD_REACTORS
330
107
102
}
330
31
100
AcDbEntity
  8
0
  6
Continuous
 62
     0
370
    -2
390
1D
100
AcDbCircle
 10
-614.8087575476893
 20
-663.0
 30
0.0
 40
4.99969482421875
  0
HATCH
  5
107
330
31
100
AcDbEntity
  8
0
  6
Continuous
 62
     0
370
    -2
390
1D
100
AcDbHatch
 10
0.0
 20
0.0
 30
0.0
210
0.0
220
0.0
230
1.0
  2
SOLID
 70
     1
 71
     1
 91
        1
 92
        1
 93
        1
 72
     2
 10
-614.8087575476893
 20
-663.0
 40
4.99969482421875
 50
0.0
 51
360.0
 73
     0
 97
        1
330
106
 75
     0
 76
     1
 98
        1
 10
0.0
 20
0.0
  0
CIRCLE
  5
108
102
{ACAD_REACTORS
330
109
102
}
330
31
100
AcDbEntity
  8
0
  6
Continuous
 62
     0
370
    -2
390
1D
100
AcDbCircle
 10
-239.8087575476893
 20
-663.0
 30
0.0
 40
4.99969482421875
  0
HATCH
  5
109
330
31
100
AcDbEntity
  8
0
  6
Continuous
 62
     0
370
    -2
390
1D
100
AcDbHatch
 10
0.0
 20
0.0
 30
0.0
210
0.0
220
0.0
230
1.0
  2
SOLID
 70
     1
 71
     1
 91
        1
 92
        1
 93
        1
 72
     2
 10
-239.8087575476893
 20
-663.0
 40
4.99969482421875
 50
0.0
 51
360.0
 73
     0
 97
        1
330
108
 75
     0
 76
     1
 98
        1
 10
0.0
 20
0.0
  0
MTEXT
  5
10A
330
31
100
AcDbEntity
  8
0
 62
     0
390
1D
100
AcDbMText
 10
-451.1212592298652
 20
-629.1223828125001
 30
0.0
 40
24.4326171875
 41
0.0
 46
0.0
 71
     1
 72
     1
  1
375
  7
ＭＳ ゴシック
 73
     1
 44
0.7828267384257843
  0
POINT
  5
10B
330
31
100
AcDbEntity
  8
Defpoints
 62
     0
370
     0
390
1D
100
AcDbPoint
 10
-239.8087575476893
 20
-565.2179645659149
 30
0.0
  0
POINT
  5
10C
330
31
100
AcDbEntity
  8
Defpoints
 62
     0
370
     0
390
1D
100
AcDbPoint
 10
-614.8087575476893
 20
-565.2179645659149
 30
0.0
  0
POINT
  5
10D
330
31
100
AcDbEntity
  8
Defpoints
 62
     0
370
     0
390
1D
100
AcDbPoint
 10
-614.8087575476893
 20
-663.0
 30
0.0
  0
ENDBLK
  5
10E
330
31
100
AcDbEntity
  8
notes
390
1D
100
AcDbBlockEnd
  0
BLOCK
  5
10F
330
32
100
AcDbEntity
  8
notes
390
1D
100
AcDbBlockBegin
  2
*D16
 70
     1
 10
0.0
 20
0.0
 30
0.0
  3
*D16
  1
*D16
  0
LINE
  5
110
330
32
100
AcDbEntity
  8
0
  6
Continuous
 62
     0
370
    -2
390
1D
100
AcDbLine
 10
436.8901293632593
 20
-402.9995051435194
 30
0.0
 11
434.406504156133
 21
-402.9995051435194
 31
0.0
  0
LINE
  5
111
330
32
100
AcDbEntity
  8
0
  6
Continuous
 62
     0
370
    -2
390
1D
100
AcDbLine
 10
436.8905873925523
 20
-512.9995051435194
 30
0.0
 11
434.406504156133
 21
-512.9995051435194
 31
0.0
  0
LINE
  5
112
330
32
100
AcDbEntity
  8
0
  6
Continuous
 62
     0
370
    -2
390
1D
100
AcDbLine
 10
434.406504156133
 20
-402.9995051435194
 30
0.0
 11
434.406504156133
 21
-221.125
 31
0.0
  0
LINE
  5
113
330
32
100
AcDbEntity
  8
0
  6
Continuous
 62
     0
370
    -2
390
1D
100
AcDbLine
 10
434.406504156133
 20
-402.9995051435194
 30
0.0
 11
434.406504156133
 21
-512.9995051435194
 31
0.0
  0
CIRCLE
  5
114
102
{ACAD_REACTORS
330
115
102
}
330
32
100
AcDbEntity
  8
0
  6
Continuous
 62
     0
370
    -2
390
1D
100
AcDbCircle
 10
434.406504156133
 20
-402.9995051435194
 30
0.0
 40
4.99969482421875
  0
HATCH
  5
115
330
32
100
AcDbEntity
  8
0
  6
Continuous
 62
     0
370
    -2
390
1D
100
AcDbHatch
 10
0.0
 20
0.0
 30
0.0
210
0.0
220
0.0
230
1.0
  2
SOLID
 70
     1
 71
     1
 91
        1
 92
        1
 93
        1
 72
     2
 10
434.406504156133
 20
-402.9995051435194
 40
4.99969482421875
 50
0.0
 51
360.0
 73
     0
 97
        1
330
114
 75
     0
 76
     1
 98
        1
 10
0.0
 20
0.0
  0
CIRCLE
  5
116
102
{ACAD_REACTORS
330
117
102
}
330
32
100
AcDbEntity
  8
0
  6
Continuous
 62
     0
370
    -2
390
1D
100
AcDbCircle
 10
434.406504156133
 20
-512.9995051435194
 30
0.0
 40
4.99969482421875
  0
HATCH
  5
117
330
32
100
AcDbEntity
  8
0
  6
Continuous
 62
     0
370
    -2
390
1D
100
AcDbHatch
 10
0.0
 20
0.0
 30
0.0
210
0.0
220
0.0
230
1.0
  2
SOLID
 70
     1
 71
     1
 91
        1
 92
        1
 93
        1
 72
     2
 10
434.406504156133
 20
-512.9995051435194
 40
4.99969482421875
 50
0.0
 51
360.0
 73
     0
 97
        1
330
116
 75
     0
 76
     1
 98
        1
 10
0.0
 20
0.0
  0
MTEXT
  5
118
330
32
100
AcDbEntity
  8
0
 62
     0
390
1D
100
AcDbMText
 10
400.5288869686328
 20
-364.0
 30
0.0
 40
24.4326171875
 41
0.0
 46
0.0
 71
     1
 72
     1
  1
110(深さ)
  7
ＭＳ ゴシック
 11
0.0
 21
1.0
 31
0.0
 73
     1
 44
0.7828267384257843
  0
POINT
  5
119
330
32
100
AcDbEntity
  8
Defpoints
 62
     0
370
     0
390
1D
100
AcDbPoint
 10
411.8905873925523
 20
-512.9995051435194
 30
0.0
  0
POINT
  5
11A
330
32
100
AcDbEntity
  8
Defpoints
 62
     0
370
     0
390
1D
100
AcDbPoint
 10
411.8901293632593
 20
-402.9995051435194
 30
0.0
  0
POINT
  5
11B
330
32
100
AcDbEntity
  8
Defpoints
 62
     0
370
     0
390
1D
100
AcDbPoint
 10
434.406504156133
 20
-402.9995051435194
 30
0.0
  0
ENDBLK
  5
11C
330
32
100
AcDbEntity
  8
notes
390
1D
100
AcDbBlockEnd
  0
BLOCK
  5
11D
330
33
100
AcDbEntity
  8
ADF70-2203
390
1D
100
AcDbBlockBegin
  2
*D17
 70
     1
 10
0.0
 20
0.0
 30
0.0
  3
*D17
  1
*D17
  0
LINE
  5
11E
330
33
100
AcDbEntity
  8
0
  6
Continuous
 62
     0
370
    -2
390
1D
100
AcDbLine
 10
754.9646995643157
 20
810.0
 30
0.0
 11
855.2291584121381
 21
810.0
 31
0.0
  0
LINE
  5
11F
330
33
100
AcDbEntity
  8
0
  6
Continuous
 62
     0
370
    -2
390
1D
100
AcDbLine
 10
736.9841597456721
 20
780.0
 30
0.0
 11
855.2291584121381
 21
780.0
 31
0.0
  0
LINE
  5
120
330
33
100
AcDbEntity
  8
0
  6
Continuous
 62
     0
370
    -2
390
1D
100
AcDbLine
 10
855.2291584121381
 20
810.0
 30
0.0
 11
855.2291584121381
 21
858.75
 31
0.0
  0
LINE
  5
121
330
33
100
AcDbEntity
  8
0
  6
Continuous
 62
     0
370
    -2
390
1D
100
AcDbLine
 10
855.2291584121381
 20
810.0
 30
0.0
 11
855.2291584121381
 21
780.0
 31
0.0
  0
CIRCLE
  5
122
102
{ACAD_REACTORS
330
123
102
}
330
33
100
AcDbEntity
  8
0
  6
Continuous
 62
     0
370
    -2
390
1D
100
AcDbCircle
 10
855.2291584121381
 20
810.0
 30
0.0
 40
4.99969482421875
  0
HATCH
  5
123
330
33
100
AcDbEntity
  8
0
  6
Continuous
 62
     0
370
    -2
390
1D
100
AcDbHatch
 10
0.0
 20
0.0
 30
0.0
210
0.0
220
0.0
230
1.0
  2
SOLID
 70
     1
 71
     1
 91
        1
 92
        1
 93
        1
 72
     2
 10
855.2291584121381
 20
810.0
 40
4.99969482421875
 50
0.0
 51
360.0
 73
     0
 97
        1
330
122
 75
     0
 76
     1
 98
        1
 10
0.0
 20
0.0
  0
CIRCLE
  5
124
102
{ACAD_REACTORS
330
125
102
}
330
33
100
AcDbEntity
  8
0
  6
Continuous
 62
     0
370
    -2
390
1D
100
AcDbCircle
 10
855.2291584121381
 20
780.0
 30
0.0
 40
4.99969482421875
  0
HATCH
  5
125
330
33
100
AcDbEntity
  8
0
  6
Continuous
 62
     0
370
    -2
390
1D
100
AcDbHatch
 10
0.0
 20
0.0
 30
0.0
210
0.0
220
0.0
230
1.0
  2
SOLID
 70
     1
 71
     1
 91
        1
 92
        1
 93
        1
 72
     2
 10
855.2291584121381
 20
780.0
 40
4.99969482421875
 50
0.0
 51
360.0
 73
     0
 97
        1
330
124
 75
     0
 76
     1
 98
        1
 10
0.0
 20
0.0
  0
MTEXT
  5
126
330
33
100
AcDbEntity
  8
0
 62
     0
390
1D
100
AcDbMText
 10
821.3515412246379
 20
827.0
 30
0.0
 40
24.4326171875
 41
0.0
 46
0.0
 71
     1
 72
     1
  1
30
  7
ＭＳ ゴシック
 11
0.0
 21
1.0
 31
0.0
 73
     1
 44
0.7828267384257843
  0
POINT
  5
127
330
33
100
AcDbEntity
  8
Defpoints
 62
     0
370
     0
390
1D
100
AcDbPoint
 10
711.9841597456721
 20
780.0
 30
0.0
  0
POINT
  5
128
330
33
100
AcDbEntity
  8
Defpoints
 62
     0
370
     0
390
1D
100
AcDbPoint
 10
729.9646995643157
 20
810.0
 30
0.0
  0
POINT
  5
129
330
33
100
AcDbEntity
  8
Defpoints
 62
     0
370
     0
390
1D
100
AcDbPoint
 10
855.2291584121381
 20
810.0
 30
0.0
  0
ENDBLK
  5
12A
330
33
100
AcDbEntity
  8
ADF70-2203
390
1D
100
AcDbBlockEnd
  0
BLOCK
  5
12B
330
34
100
AcDbEntity
  8
ADF70-2203
390
1D
100
AcDbBlockBegin
  2
*D18
 70
     1
 10
0.0
 20
0.0
 30
0.0
  3
*D18
  1
*D18
  0
LINE
  5
12C
330
34
100
AcDbEntity
  8
0
  6
Continuous
 62
     0
370
    -2
390
1D
100
AcDbLine
 10
710.0009387558898
 20
365.0018046589075
 30
0.0
 11
710.0009387558898
 21
262.5036093178148
 31
0.0
  0
LINE
  5
12D
330
34
100
AcDbEntity
  8
0
  6
Continuous
 62
     0
370
    -2
390
1D
100
AcDbLine
 10
740.0009387558898
 20
346.9924743100501
 30
0.0
 11
740.0009387558898
 21
262.5036093178148
 31
0.0
  0
LINE
  5
12E
330
34
100
AcDbEntity
  8
0
  6
Continuous
 62
     0
370
    -2
390
1D
100
AcDbLine
 10
740.0009387558898
 20
262.5036093178148
 30
0.0
 11
798.0822091310515
 21
262.5036093178148
 31
0.0
  0
LINE
  5
12F
330
34
100
AcDbEntity
  8
0
  6
Continuous
 62
     0
370
    -2
390
1D
100
AcDbLine
 10
710.0009387558898
 20
262.5036093178148
 30
0.0
 11
740.0009387558898
 21
262.5036093178148
 31
0.0
  0
CIRCLE
  5
130
102
{ACAD_REACTORS
330
131
102
}
330
34
100
AcDbEntity
  8
0
  6
Continuous
 62
     0
370
    -2
390
1D
100
AcDbCircle
 10
710.0009387558898
 20
262.5036093178148
 30
0.0
 40
4.99969482421875
  0
HATCH
  5
131
330
34
100
AcDbEntity
  8
0
  6
Continuous
 62
     0
370
    -2
390
1D
100
AcDbHatch
 10
0.0
 20
0.0
 30
0.0
210
0.0
220
0.0
230
1.0
  2
SOLID
 70
     1
 71
     1
 91
        1
 92
        1
 93
        1
 72
     2
 10
710.0009387558898
 20
262.5036093178148
 40
4.99969482421875
 50
0.0
 51
360.0
 73
     0
 97
        1
330
130
 75
     0
 76
     1
 98
        1
 10
0.0
 20
0.0
  0
CIRCLE
  5
132
102
{ACAD_REACTORS
330
133
102
}
330
34
100
AcDbEntity
  8
0
  6
Continuous
 62
     0
370
    -2
390
1D
100
AcDbCircle
 10
740.0009387558898
 20
262.5036093178148
 30
0.0
 40
4.99969482421875
  0
HATCH
  5
133
330
34
100
AcDbEntity
  8
0
  6
Continuous
 62
     0
370
    -2
390
1D
100
AcDbHatch
 10
0.0
 20
0.0
 30
0.0
210
0.0
220
0.0
230
1.0
  2
SOLID
 70
     1
 71
     1
 91
        1
 92
        1
 93
        1
 72
     2
 10
740.0009387558898
 20
262.5036093178148
 40
4.99969482421875
 50
0.0
 51
360.0
 73
     0
 97
        1
330
132
 75
     0
 76
     1
 98
        1
 10
0.0
 20
0.0
  0
MTEXT
  5
134
330
34
100
AcDbEntity
  8
0
 62
     0
390
1D
100
AcDbMText
 10
766.3322091310515
 20
296.3812265053148
 30
0.0
 40
24.4326171875
 41
0.0
 46
0.0
 71
     1
 72
     1
  1
30
  7
ＭＳ ゴシック
 73
     1
 44
0.7828267384257843
  0
POINT
  5
135
330
34
100
AcDbEntity
  8
Defpoints
 62
     0
370
     0
390
1D
100
AcDbPoint
 10
740.0009387558898
 20
371.9924743100501
 30
0.0
  0
POINT
  5
136
330
34
100
AcDbEntity
  8
Defpoints
 62
     0
370
     0
390
1D
100
AcDbPoint
 10
710.0009387558898
 20
390.0018046589075
 30
0.0
  0
POINT
  5
137
330
34
100
AcDbEntity
  8
Defpoints
 62
     0
370
     0
390
1D
100
AcDbPoint
 10
710.0009387558898
 20
262.5036093178148
 30
0.0
  0
ENDBLK
  5
138
330
34
100
AcDbEntity
  8
ADF70-2203
390
1D
100
AcDbBlockEnd
  0
BLOCK
  5
139
330
35
100
AcDbEntity
  8
ADF70-2203
390
1D
100
AcDbBlockBegin
  2
*D19
 70
     1
 10
0.0
 20
0.0
 30
0.0
  3
*D19
  1
*D19
  0
LINE
  5
13A
330
35
100
AcDbEntity
  8
0
  6
Continuous
 62
     0
370
    -2
390
1D
100
AcDbLine
 10
314.2436823514577
 20
-587.8799594496764
 30
0.0
 11
314.2436823514577
 21
-639.375
 31
0.0
  0
LINE
  5
13B
330
35
100
AcDbEntity
  8
0
  6
Continuous
 62
     0
370
    -2
390
1D
100
AcDbLine
 10
559.2436823514577
 20
-587.5344972823201
 30
0.0
 11
559.2436823514577
 21
-639.375
 31
0.0
  0
LINE
  5
13C
330
35
100
AcDbEntity
  8
0
  6
Continuous
 62
     0
370
    -2
390
1D
100
AcDbLine
 10
314.2436823514577
 20
-639.375
 30
0.0
 11
559.2436823514577
 21
-639.375
 31
0.0
  0
CIRCLE
  5
13D
102
{ACAD_REACTORS
330
13E
102
}
330
35
100
AcDbEntity
  8
0
  6
Continuous
 62
     0
370
    -2
390
1D
100
AcDbCircle
 10
314.2436823514577
 20
-639.375
 30
0.0
 40
4.99969482421875
  0
HATCH
  5
13E
330
35
100
AcDbEntity
  8
0
  6
Continuous
 62
     0
370
    -2
390
1D
100
AcDbHatch
 10
0.0
 20
0.0
 30
0.0
210
0.0
220
0.0
230
1.0
  2
SOLID
 70
     1
 71
     1
 91
        1
 92
        1
 93
        1
 72
     2
 10
314.2436823514577
 20
-639.375
 40
4.99969482421875
 50
0.0
 51
360.0
 73
     0
 97
        1
330
13D
 75
     0
 76
     1
 98
        1
 10
0.0
 20
0.0
  0
CIRCLE
  5
13F
102
{ACAD_REACTORS
330
140
102
}
330
35
100
AcDbEntity
  8
0
  6
Continuous
 62
     0
370
    -2
390
1D
100
AcDbCircle
 10
559.2436823514577
 20
-639.375
 30
0.0
 40
4.99969482421875
  0
HATCH
  5
140
330
35
100
AcDbEntity
  8
0
  6
Continuous
 62
     0
370
    -2
390
1D
100
AcDbHatch
 10
0.0
 20
0.0
 30
0.0
210
0.0
220
0.0
230
1.0
  2
SOLID
 70
     1
 71
     1
 91
        1
 92
        1
 93
        1
 72
     2
 10
559.2436823514577
 20
-639.375
 40
4.99969482421875
 50
0.0
 51
360.0
 73
     0
 97
        1
330
13F
 75
     0
 76
     1
 98
        1
 10
0.0
 20
0.0
  0
MTEXT
  5
141
330
35
100
AcDbEntity
  8
0
 62
     0
390
1D
100
AcDbMText
 10
420.1874983178245
 20
-605.4973828125001
 30
0.0
 40
24.4326171875
 41
0.0
 46
0.0
 71
     1
 72
     1
  1
245
  7
ＭＳ ゴシック
 73
     1
 44
0.7828267384257843
  0
POINT
  5
142
330
35
100
AcDbEntity
  8
Defpoints
 62
     0
370
     0
390
1D
100
AcDbPoint
 10
559.2436823514577
 20
-562.5344972823201
 30
0.0
  0
POINT
  5
143
330
35
100
AcDbEntity
  8
Defpoints
 62
     0
370
     0
390
1D
100
AcDbPoint
 10
314.2436823514577
 20
-562.8799594496764
 30
0.0
  0
POINT
  5
144
330
35
100
AcDbEntity
  8
Defpoints
 62
     0
370
     0
390
1D
100
AcDbPoint
 10
314.2436823514577
 20
-639.375
 30
0.0
  0
ENDBLK
  5
145
330
35
100
AcDbEntity
  8
ADF70-2203
390
1D
100
AcDbBlockEnd
  0
ENDSEC
  0
SECTION
  2
ENTITIES
  0
MTEXT
  5
146
330
A
100
AcDbEntity
  8
template
 62
     7
390
1D
100
AcDbMText
 10
-967.999999999759
 20
-1147.417629233701
 30
0.0
 40
16.28841145833333
 41
0.0
 46
0.0
 71
     1
 72
     1
  1
品名
  7
ＭＳ ゴシック
 73
     1
 44
0.7828267384257843
  0
MTEXT
  5
147
330
A
100
AcDbEntity
  8
template
 62
     7
390
1D
100
AcDbMText
 10
-967.999999999759
 20
-1232.417629233701
 30
0.0
 40
16.28841145833333
 41
0.0
 46
0.0
 71
     1
 72
     1
  1
仕様
  7
ＭＳ ゴシック
 73
     1
 44
0.7828267384257843
  0
MTEXT
  5
148
330
A
100
AcDbEntity
  8
template
 62
     7
390
1D
100
AcDbMText
 10
-914.999999999759
 20
-1176.000090171201
 30
0.0
 40
24.4326171875
 41
0.0
 46
0.0
 71
     1
 72
     1
  1
洗面器 -CATALANO,Star-
  7
ＭＳ ゴシック
 73
     1
 44
0.7828267384257843
  0
LINE
  5
149
330
A
100
AcDbEntity
  8
template
  6
Continuous
 62
     7
370
     5
390
1D
100
AcDbLine
 10
974.999999999759
 20
-1224.0027073587
 30
0.0
 11
-975.000000000241
 21
-1224.0027073587
 31
0.0
  0
LWPOLYLINE
  5
14A
330
A
100
AcDbEntity
  8
template
  6
Continuous
 62
     7
370
     5
390
1D
100
AcDbPolyline
 90
        5
 70
   128
 43
0.0
 10
975.000000000241
 20
1405.9972926413
 10
-974.999999999759
 20
1405.9972926413
 10
-974.999999999759
 20
-1394.0027073587
 10
975.000000000241
 20
-1394.0027073587
 10
975.000000000241
 20
1405.9972926413
  0
LINE
  5
14B
330
A
100
AcDbEntity
  8
template
  6
Continuous
 62
     7
370
     5
390
1D
100
AcDbLine
 10
974.999999999759
 20
-1139.0027073587
 30
0.0
 11
-975.000000000241
 21
-1139.0027073587
 31
0.0
  0
LINE
  5
14C
330
A
100
AcDbEntity
  8
template
  6
Continuous
 62
     7
370
     5
390
1D
100
AcDbLine
 10
975.000000000241
 20
-1309.0027073587
 30
0.0
 11
222.000000000241
 21
-1309.0027073587
 31
0.0
  0
MTEXT
  5
14D
330
A
100
AcDbEntity
  8
template
 62
     7
390
1D
100
AcDbMText
 10
-974.9999999995562
 20
-1405.856529415557
 30
0.0
 40
21.71788194444445
 41
0.0
 46
0.0
 71
     1
 72
     1
  1
120406SO
  7
ＭＳ ゴシック
 73
     1
 44
0.7828267384257843
  0
MTEXT
  5
14E
330
A
100
AcDbEntity
  8
template
 62
     7
390
1D
100
AcDbMText
 10
251.8714062525009
 20
-1338.913101832008
 30
0.0
 40
24.4326171875
 41
0.0
 46
0.0
 71
     1
 72
     1
  1
大洋金物株式会社 ティーフォルム事業部
  7
ＭＳ ゴシック
 73
     1
 44
0.7828267384257843
  0
INSERT
  5
14F
330
A
100
AcDbEntity
  8
template
 62
     7
390
1D
100
AcDbBlockReference
  2
グループ
 10
4181.939366205585
 20
-1111.837322211292
 30
0.0
  0
MTEXT
  5
150
330
A
100
AcDbEntity
  8
template
 62
     7
390
1D
100
AcDbMText
 10
784.0000000005002
 20
-1261.000090171201
 30
0.0
 40
24.4326171875
 41
0.0
 46
0.0
 71
     1
 72
     1
  1
1:10
  7
ＭＳ ゴシック
 73
     1
 44
0.7828267384257843
  0
MTEXT
  5
151
330
A
100
AcDbEntity
  8
template
 62
     7
390
1D
100
AcDbMText
 10
731.0000000005002
 20
-1232.417629233701
 30
0.0
 40
16.28841145833333
 41
0.0
 46
0.0
 71
     1
 72
     1
  1
縮尺
  7
ＭＳ ゴシック
 73
     1
 44
0.7828267384257843
  0
LINE
  5
152
330
A
100
AcDbEntity
  8
template
  6
Continuous
 62
     7
370
     5
390
1D
100
AcDbLine
 10
724.0000000005002
 20
-1309.0027073587
 30
0.0
 11
724.0000000005002
 21
-1224.0027073587
 31
0.0
  0
MTEXT
  5
153
330
A
100
AcDbEntity
  8
template
 62
     7
390
1D
100
AcDbMText
 10
480.0000000005002
 20
-1232.417629233701
 30
0.0
 40
16.28841145833333
 41
0.0
 46
0.0
 71
     1
 72
     1
  1
容量
  7
ＭＳ ゴシック
 73
     1
 44
0.7828267384257843
  0
MTEXT
  5
154
330
A
100
AcDbEntity
  8
template
 62
     7
390
1D
100
AcDbMText
 10
533.0000000005002
 20
-1261.000090171201
 30
0.0
 40
24.4326171875
 41
0.0
 46
0.0
 71
     1
 72
     1
  1
5L
  7
ＭＳ ゴシック
 73
     1
 44
0.7828267384257843
  0
LINE
  5
155
330
A
100
AcDbEntity
  8
template
  6
Continuous
 62
     7
370
     5
390
1D
100
AcDbLine
 10
473.0000000005002
 20
-1309.0027073587
 30
0.0
 11
473.0000000005002
 21
-1224.0027073587
 31
0.0
  0
MTEXT
  5
156
330
A
100
AcDbEntity
  8
template
 62
     7
390
1D
100
AcDbMText
 10
229.0000000005002
 20
-1147.417629233701
 30
0.0
 40
16.28841145833333
 41
0.0
 46
0.0
 71
     1
 72
     1
  1
品番
  7
ＭＳ ゴシック
 73
     1
 44
0.7828267384257843
  0
MTEXT
  5
157
330
A
100
AcDbEntity
  8
template
 62
     7
390
1D
100
AcDbMText
 10
229.0000000005002
 20
-1232.417629233701
 30
0.0
 40
16.28841145833333
 41
0.0
 46
0.0
 71
     1
 72
     1
  1
重量
  7
ＭＳ ゴシック
 73
     1
 44
0.7828267384257843
  0
MTEXT
  5
158
330
A
100
AcDbEntity
  8
template
 62
     7
390
1D
100
AcDbMText
 10
282.0000000005002
 20
-1176.000090171201
 30
0.0
 40
24.4326171875
 41
0.0
 46
0.0
 71
     1
 72
     1
  1
ADF70-2203
  7
ＭＳ ゴシック
 73
     1
 44
0.7828267384257843
  0
MTEXT
  5
159
330
A
100
AcDbEntity
  8
template
 62
     7
390
1D
100
AcDbMText
 10
282.0000000005002
 20
-1261.000090171201
 30
0.0
 40
24.4326171875
 41
0.0
 46
0.0
 71
     1
 72
     1
  1
16kg
  7
ＭＳ ゴシック
 73
     1
 44
0.7828267384257843
  0
LINE
  5
15A
330
A
100
AcDbEntity
  8
template
  6
Continuous
 62
     7
370
     5
390
1D
100
AcDbLine
 10
222.0000000005002
 20
-1394.0027073587
 30
0.0
 11
222.0000000005002
 21
-1139.0027073587
 31
0.0
  0
MTEXT
  5
15B
330
A
100
AcDbEntity
  8
template
 62
     7
390
1D
100
AcDbMText
 10
-914.9999999997599
 20
-1261.000090171201
 30
0.0
 40
24.4326171875
 41
0.0
 46
79.29651640808025
 71
     1
 72
     1
  1
{オーバーカウンター/オーバーフロー付き/\P陶器/ホワイト}
  7
ＭＳ ゴシック
 73
     1
 44
1.304711230709641
1001
ACAD
1000
ACAD_MTEXT_DEFINED_HEIGHT_BEGIN
1070
    46
1040
79.29651640808025
1000
ACAD_MTEXT_DEFINED_HEIGHT_END
  0
LINE
  5
15C
330
A
100
AcDbEntity
  8
template
  6
Continuous
 62
     7
370
    25
390
1D
100
AcDbLine
 10
-601.8882683706588
 20
-1130.942419250376
 30
0.0
 11
-601.8882683951988
 21
-1130.942419250101
 31
0.0
  0
MTEXT
  5
15D
330
A
100
AcDbEntity
  8
notes
 62
     7
390
1D
100
AcDbMText
 10
-826.3671607758015
 20
145.6618422692484
 30
0.0
 40
24.4326171875
 41
839.6891765678031
 46
0.0
 71
     1
 72
     1
  1
＝φ30もしくはφ35の水栓取付用穴あけ加工を承ります。\P  必要な場合、ご注文の際にご指示ください。
  7
ＭＳ ゴシック
 73
     1
 44
1.174240107638676
  0
CIRCLE
  5
15E
330
A
100
AcDbEntity
  8
notes
  6
STYLE_12
 62
     7
370
     5
390
1D
100
AcDbCircle
 10
-859.5744593412737
 20
131.2684271348262
 30
0.0
 40
17.5
  0
DIMENSION
  5
15F
330
A
100
AcDbEntity
  8
notes
  6
Continuous
 62
     7
370
     5
390
1D
100
AcDbDimension
  2
*D2
 10
-717.3092269493027
 20
910.0
 30
0.0
 11
-427.3092269256349
 21
910.0
 31
0.0
 70
    32
 71
     5
 42
0.0
 73
     0
 74
     0
 75
     0
  3
tform線あり
100
AcDbAlignedDimension
 13
-137.3092269019671
 23
798.1162280010399
 33
0.0
 14
-717.3092269493027
 24
798.1162280010399
 34
0.0
100
AcDbRotatedDimension
1001
ACAD
1000
DSTYLE
1002
{
1070
   271
1070
     7
1070
   279
1070
     2
1070
   340
1005
36
1070
   147
1040
5.0
1002
}
  0
DIMENSION
  5
160
330
A
100
AcDbEntity
  8
notes
  6
Continuous
 62
     7
370
     5
390
1D
100
AcDbDimension
  2
*D3
 10
-13.75504374493903
 20
810.0
 30
0.0
 11
-13.75504374493903
 21
585.0018046589075
 31
0.0
 70
    32
 71
     5
 42
0.0
 73
     0
 74
     0
 75
     0
  3
tform線あり
100
AcDbAlignedDimension
 13
-147.342649849541
 23
360.0036093178148
 33
0.0
 14
-147.3445273613197
 24
810.0
 34
0.0
 50
90.0
100
AcDbRotatedDimension
1001
ACAD
1000
DSTYLE
1002
{
1070
   279
1070
     2
1070
   340
1005
36
1070
   147
1040
5.0
1002
}
  0
DIMENSION
  5
161
330
A
100
AcDbEntity
  8
notes
  6
Continuous
 62
     7
370
     5
390
1D
100
AcDbDimension
  2
*D4
 10
-817.3092269493027
 20
704.9901843275195
 30
0.0
 11
-817.3092269493027
 21
757.4950921637596
 31
0.0
 70
    32
 71
     5
 42
0.0
 73
     0
 74
     0
 75
     0
  3
tform線あり
100
AcDbAlignedDimension
 13
-708.2466127777097
 23
810.0
 33
0.0
 14
-717.3092269493027
 24
704.9901843275195
 34
0.0
 50
90.0
100
AcDbRotatedDimension
1001
ACAD
1000
DSTYLE
1002
{
1070
   279
1070
     2
1070
   340
1005
36
1070
   147
1040
5.0
1002
}
  0
DIMENSION
  5
162
330
A
100
AcDbEntity
  8
notes
  6
Continuous
 62
     7
370
     5
390
1D
100
AcDbDimension
  2
*D5
 10
190.0009387558898
 20
262.5036093178148
 30
0.0
 11
450.0009387558898
 21
262.5036093178148
 31
0.0
 70
    32
 71
     5
 42
0.0
 73
     0
 74
     0
 75
     0
  3
tform線あり
100
AcDbAlignedDimension
 13
710.0009387558898
 23
390.0018046589075
 33
0.0
 14
190.0009387558898
 24
390.0018046589075
 34
0.0
100
AcDbRotatedDimension
1001
ACAD
1000
DSTYLE
1002
{
1070
   279
1070
     2
1070
   340
1005
36
1070
   147
1040
5.0
1002
}
  0
DIMENSION
  5
163
330
A
100
AcDbEntity
  8
notes
  6
Continuous
 62
     7
370
     5
390
1D
100
AcDbDimension
  2
*D6
 10
855.2291584121381
 20
780.0018046589075
 30
0.0
 11
855.2291584121381
 21
585.0018046589075
 31
0.0
 70
    32
 71
     5
 42
0.0
 73
     0
 74
     0
 75
     0
  3
tform線あり
100
AcDbAlignedDimension
 13
710.0009387558898
 23
390.0018046589075
 33
0.0
 14
710.0009387558898
 24
780.0018046589075
 34
0.0
 50
90.0
100
AcDbRotatedDimension
1001
ACAD
1000
DSTYLE
1002
{
1070
   279
1070
     2
1070
   340
1005
36
1070
   147
1040
5.0
1002
}
  0
DIMENSION
  5
164
330
A
100
AcDbEntity
  8
notes
  6
Continuous
 62
     7
370
     5
390
1D
100
AcDbDimension
  2
*D7
 10
-817.3092269493027
 20
704.9901843275195
 30
0.0
 11
-817.3092269493027
 21
559.9698788638991
 31
0.0
 70
    32
 71
     5
 42
0.0
 73
     0
 74
     0
 75
     0
  3
tform線あり
100
AcDbAlignedDimension
 13
-716.8446617065929
 23
414.9495734002787
 33
0.0
 14
-716.8446617065929
 24
704.9901843275195
 34
0.0
 50
90.0
100
AcDbRotatedDimension
1001
ACAD
1000
DSTYLE
1002
{
1070
   279
1070
     2
1070
   340
1005
36
1070
   147
1040
5.0
1002
}
  0
DIMENSION
  5
165
330
A
100
AcDbEntity
  8
notes
  6
Continuous
 62
     7
370
     5
390
1D
100
AcDbDimension
  2
*D8
 10
-817.3092269493027
 20
414.9495734002787
 30
0.0
 11
-817.3092269493027
 21
387.4765913590468
 31
0.0
 70
    32
 71
     5
 42
0.0
 73
     0
 74
     0
 75
     0
  3
tform線あり
100
AcDbAlignedDimension
 13
-702.9466098651064
 23
360.0036093178148
 33
0.0
 14
-741.8446617065929
 24
414.9495734002787
 34
0.0
 50
90.0
100
AcDbRotatedDimension
1001
ACAD
1000
DSTYLE
1002
{
1070
   271
1070
     0
1070
   279
1070
     2
1070
   340
1005
36
1070
   147
1040
5.0
1002
}
  0
DIMENSION
  5
166
330
A
100
AcDbEntity
  8
notes
  6
Continuous
 62
     7
370
     5
390
1D
100
AcDbDimension
  2
*D9
 10
-662.3092269493027
 20
260.0036093178148
 30
0.0
 11
-425.1018281937731
 21
265.0036093178148
 31
0.0
 70
   128
 71
     5
 42
0.0
 73
     0
 74
     0
 75
     0
  3
tform線あり
100
AcDbAlignedDimension
 13
-192.3092269493027
 23
360.0036093178148
 33
0.0
 14
-662.3092269493027
 24
377.1636334396799
 34
0.0
100
AcDbRotatedDimension
1001
ACAD
1000
DSTYLE
1002
{
1070
   279
1070
     2
1070
   340
1005
36
1070
   147
1040
5.0
1002
}
  0
DIMENSION
  5
167
330
A
100
AcDbEntity
  8
notes
  6
Continuous
 62
     7
370
     5
390
1D
100
AcDbDimension
  2
*D10
 10
-192.3092269493027
 20
260.0036093178148
 30
0.0
 11
-164.8092269493027
 21
260.0036093178148
 31
0.0
 70
    32
 71
     5
 42
0.0
 73
     0
 74
     0
 75
     0
  3
tform線あり
100
AcDbAlignedDimension
 13
-137.3092269493027
 23
377.1636334396799
 33
0.0
 14
-192.3092269493027
 24
377.1636334396799
 34
0.0
100
AcDbRotatedDimension
1001
ACAD
1000
DSTYLE
1002
{
1070
   279
1070
     2
1070
   340
1005
36
1070
   147
1040
5.0
1002
}
  0
DIMENSION
  5
168
330
A
100
AcDbEntity
  8
notes
  6
Continuous
 62
     7
370
     5
390
1D
100
AcDbDimension
  2
*D11
 10
111.9229210612857
 20
-403.0004438994089
 30
0.0
 11
111.9229210612857
 21
-412.9775414936091
 31
0.0
 70
    32
 71
     5
 42
0.0
 73
     0
 74
     0
 75
     0
  3
tform線あり
100
AcDbAlignedDimension
 13
215.0367743469424
 23
-422.9546390878094
 33
0.0
 14
218.0360994140733
 24
-403.0004438994089
 34
0.0
 50
90.0
100
AcDbRotatedDimension
1001
ACAD
1000
DSTYLE
1002
{
1070
   279
1070
     2
1070
   340
1005
36
1070
   147
1040
5.0
1002
}
  0
DIMENSION
  5
169
330
A
100
AcDbEntity
  8
notes
  6
Continuous
 62
     7
370
     5
390
1D
100
AcDbDimension
  2
*D12
 10
-37.31606601845488
 20
-403.0
 30
0.0
 11
-37.31606601845488
 21
-483.0
 31
0.0
 70
    32
 71
     5
 42
0.0
 73
     0
 74
     0
 75
     0
  3
tform線あり
100
AcDbAlignedDimension
 13
-242.8446617065929
 23
-563.0
 33
0.0
 14
-143.5388109850592
 24
-403.0
 34
0.0
 50
90.0
100
AcDbRotatedDimension
1001
ACAD
1000
DSTYLE
1002
{
1070
   279
1070
     2
1070
   340
1005
36
1070
   147
1040
5.0
1002
}
  0
DIMENSION
  5
16A
330
A
100
AcDbEntity
  8
notes
  6
Continuous
 62
     7
370
     5
390
1D
100
AcDbDimension
  2
*D13
 10
661.8047835249449
 20
-717.0
 30
0.0
 11
532.0
 21
-712.0
 31
0.0
 70
   128
 71
     5
 42
0.0
 73
     0
 74
     0
 75
     0
  3
tform線あり
100
AcDbAlignedDimension
 13
411.8047835249449
 23
-557.8050451107372
 33
0.0
 14
661.8047835249449
 24
-415.3995316886633
 34
0.0
100
AcDbRotatedDimension
1001
ACAD
1000
DSTYLE
1002
{
1070
   279
1070
     2
1070
   340
1005
36
1070
   147
1040
5.0
1002
}
  0
DIMENSION
  5
16B
330
A
100
AcDbEntity
  8
notes
  6
Continuous
 62
     7
370
     5
390
1D
100
AcDbDimension
  2
*D14
 10
661.9193117434711
 20
-303.0002707833697
 30
0.0
 11
634.4367636987768
 21
-303.0002707833697
 31
0.0
 70
    32
 71
     5
 42
0.0
 73
     0
 74
     0
 75
     0
  3
tform線あり
100
AcDbAlignedDimension
 13
606.9542156540824
 23
-411.9974803449128
 33
0.0
 14
661.9193117434711
 24
-421.9163750739605
 34
0.0
100
AcDbRotatedDimension
1001
ACAD
1000
DSTYLE
1002
{
1070
   279
1070
     2
1070
   340
1005
36
1070
   147
1040
5.0
1002
}
  0
DIMENSION
  5
16C
330
A
100
AcDbEntity
  8
notes
  6
Continuous
 62
     7
370
     5
390
1D
100
AcDbDimension
  2
*D15
 10
-614.8087575476893
 20
-663.0
 30
0.0
 11
-427.3087575476893
 21
-663.0
 31
0.0
 70
    32
 71
     5
 42
0.0
 73
     0
 74
     0
 75
     0
  3
tform線あり
100
AcDbAlignedDimension
 13
-239.8087575476893
 23
-565.2179645659149
 33
0.0
 14
-614.8087575476893
 24
-565.2179645659149
 34
0.0
100
AcDbRotatedDimension
1001
ACAD
1000
DSTYLE
1002
{
1070
   279
1070
     2
1070
   340
1005
36
1070
   147
1040
5.0
1002
}
  0
MTEXT
  5
16D
330
A
100
AcDbEntity
  8
notes
 62
     7
390
1D
100
AcDbMText
 10
122.5465076252995
 20
142.1276171874999
 30
0.0
 40
24.4326171875
 41
0.0
 46
0.0
 71
     1
 72
     1
  1
※陶器製品には寸法公差があります。\P洗面器の収め方をご確認の上、必ず現物に合わせて\Pカウンター切込を行ってください。
  7
ＭＳ ゴシック
 73
     1
 44
1.174240107638676
  0
MTEXT
  5
16E
330
A
100
AcDbEntity
  8
notes
 62
     7
390
1D
100
AcDbMText
 10
297.428261715982
 20
973.9962987811045
 30
0.0
 40
24.4326171875
 41
0.0
 46
0.0
 71
     1
 72
     1
  1
カウンター切込寸法
  7
ＭＳ ゴシック
 73
     1
 44
0.7828267384257843
  0
DIMENSION
  5
16F
330
A
100
AcDbEntity
  8
notes
  6
Continuous
 62
     7
370
     5
390
1D
100
AcDbDimension
  2
*D16
 10
434.406504156133
 20
-402.9995051435194
 30
0.0
 11
439.406504156133
 21
-364.0
 31
0.0
 70
   128
 71
     5
 42
0.0
 73
     0
 74
     0
 75
     0
  3
tform線あり
100
AcDbAlignedDimension
 13
411.8905873925523
 23
-512.9995051435194
 33
0.0
 14
411.8901293632593
 24
-402.9995051435194
 34
0.0
 50
90.0
100
AcDbRotatedDimension
1001
ACAD
1000
DSTYLE
1002
{
1070
   279
1070
     2
1070
   340
1005
36
1070
     3
1000
<>(深さ)
1070
   174
1070
     0
1070
   147
1040
5.0
1002
}
  0
LINE
  5
170
330
A
100
AcDbEntity
  8
ADF70-2203
  6
Continuous
 62
     7
370
    15
390
1D
100
AcDbLine
 10
-427.3087575476893
 20
668.7673495731151
 30
0.0
 11
-237.4369300819999
 21
668.7673495731151
 31
0.0
  0
LWPOLYLINE
  5
171
330
A
100
AcDbEntity
  8
ADF70-2203
  6
Continuous
 62
     7
370
    15
390
1D
100
AcDbPolyline
 90
        5
 70
   128
 43
0.0
 10
-231.2073459989078
 20
665.6544350433476
 10
-232.591072180112
 20
666.8072272757222
 10
-234.0912040916228
 20
667.7290855592662
 10
-235.8222699519647
 20
668.4218874057585
 10
-237.4369300819999
 20
668.7673495731151
  0
LWPOLYLINE
  5
172
330
A
100
AcDbEntity
  8
ADF70-2203
  6
Continuous
 62
     7
370
    15
390
1D
100
AcDbPolyline
 90
        5
 70
   128
 43
0.0
 10
-228.0925539573618
 20
659.4248509602544
 10
-228.4380161247173
 20
661.1540393088167
 10
-229.1308179712105
 20
662.770576950632
 10
-230.054553766533
 20
664.2688313503631
 10
-231.2073459989078
 20
665.6544350433476
  0
LINE
  5
173
330
A
100
AcDbEntity
  8
ADF70-2203
  6
Continuous
 62
     7
370
    15
390
1D
100
AcDbLine
 10
-228.0925539573618
 20
659.4248509602544
 30
0.0
 11
-228.0925539573618
 21
459.6313124978485
 31
0.0
  0
LINE
  5
174
330
A
100
AcDbEntity
  8
ADF70-2203
  6
Continuous
 62
     7
370
    15
390
1D
100
AcDbLine
 10
-237.4369300819999
 20
451.1724081546831
 30
0.0
 11
-427.3087575476893
 21
451.2869363732088
 31
0.0
  0
LWPOLYLINE
  5
175
330
A
100
AcDbEntity
  8
ADF70-2203
  6
Continuous
 62
     7
370
    15
390
1D
100
AcDbPolyline
 90
        5
 70
   128
 43
0.0
 10
-231.2073459989078
 20
454.2872001962298
 10
-230.054553766533
 20
455.6709263774351
 10
-229.1308179712105
 20
457.2855865074712
 10
-228.4380161247173
 20
458.9002466375075
 10
-228.0925539573618
 20
460.6313124978485
  0
LWPOLYLINE
  5
176
330
A
100
AcDbEntity
  8
ADF70-2203
  6
Continuous
 62
     7
370
    15
390
1D
100
AcDbPolyline
 90
        5
 70
   128
 43
0.0
 10
-237.4369300819999
 20
451.1724081546831
 10
-235.8222699519647
 20
451.5178703220399
 10
-234.0912040916228
 20
452.2106721685323
 10
-232.591072180112
 20
453.1325304520758
 10
-231.2073459989078
 20
454.2872001962298
  0
LINE
  5
177
330
A
100
AcDbEntity
  8
ADF70-2203
  6
Continuous
 62
     7
370
    15
390
1D
100
AcDbLine
 10
-427.3087575476893
 20
451.2869363732088
 30
0.0
 11
-617.1824625251593
 21
451.1724081546831
 31
0.0
  0
LWPOLYLINE
  5
178
330
A
100
AcDbEntity
  8
ADF70-2203
  6
Continuous
 62
     7
370
    15
390
1D
100
AcDbPolyline
 90
        5
 70
   128
 43
0.0
 10
-623.411107852362
 20
454.2872001962298
 10
-622.027381671156
 20
453.1325304520758
 10
-620.527249759647
 20
452.2106721685323
 10
-618.91258962961
 20
451.5178703220399
 10
-617.1824625251593
 20
451.1724081546831
  0
LWPOLYLINE
  5
179
330
A
100
AcDbEntity
  8
ADF70-2203
  6
Continuous
 62
     7
370
    15
390
1D
100
AcDbPolyline
 90
        5
 70
   128
 43
0.0
 10
-626.525899893908
 20
460.6313124978485
 10
-626.1794989706632
 20
458.9002466375075
 10
-625.4876358800593
 20
457.2855865074712
 10
-624.5648388406262
 20
455.6709263774351
 10
-623.411107852362
 20
454.2853226844506
  0
LINE
  5
17A
330
A
100
AcDbEntity
  8
ADF70-2203
  6
Continuous
 62
     7
370
    15
390
1D
100
AcDbLine
 10
-617.1824625251593
 20
668.7673495731151
 30
0.0
 11
-427.3087575476893
 21
668.7673495731151
 31
0.0
  0
LINE
  5
17B
330
A
100
AcDbEntity
  8
ADF70-2203
  6
Continuous
 62
     7
370
    15
390
1D
100
AcDbLine
 10
-626.525899893908
 20
460.6313124978485
 30
0.0
 11
-626.525899893908
 21
659.4248509602544
 31
0.0
  0
LWPOLYLINE
  5
17C
330
A
100
AcDbEntity
  8
ADF70-2203
  6
Continuous
 62
     7
370
    15
390
1D
100
AcDbPolyline
 90
        5
 70
   128
 43
0.0
 10
-623.411107852362
 20
665.6544350433476
 10
-622.027381671156
 20
666.8072272757222
 10
-620.527249759647
 20
667.7290855592662
 10
-618.91258962961
 20
668.4218874057585
 10
-617.1824625251593
 20
668.7673495731151
  0
LWPOLYLINE
  5
17D
330
A
100
AcDbEntity
  8
ADF70-2203
  6
Continuous
 62
     7
370
    15
390
1D
100
AcDbPolyline
 90
        5
 70
   128
 43
0.0
 10
-626.525899893908
 20
659.4248509602544
 10
-626.1794989706632
 20
661.1540393088167
 10
-625.4876358800593
 20
662.770576950632
 10
-624.5648388406262
 20
664.2688313503631
 10
-623.411107852362
 20
665.6544350433476
  0
LINE
  5
17E
330
A
100
AcDbEntity
  8
ADF70-2203
  6
Continuous
 62
     7
370
    15
390
1D
100
AcDbLine
 10
-647.7511705567686
 20
704.9901843275195
 30
0.0
 11
-206.8672832945012
 21
704.9901843275195
 31
0.0
  0
LWPOLYLINE
  5
17F
330
A
100
AcDbEntity
  8
ADF70-2203
  6
Continuous
 62
     7
370
    15
390
1D
100
AcDbPolyline
 90
       40
 70
   128
 43
0.0
 10
-662.7468571365334
 20
689.9926202359743
 10
-662.5159231877024
 20
692.9928840589951
 42
-0.0021751613659499
 10
-662.486946525114
 20
693.1356765728949
 10
-662.4648896793396
 20
693.2419941278465
 42
-0.0087813062987142
 10
-662.3849622808493
 20
693.5958918509034
 10
-662.3256863294937
 20
693.8384460963725
 42
-0.0178469713195408
 10
-662.091383029735
 20
694.6676825949783
 10
-662.0469914332698
 20
694.8057582923332
 42
-0.0181311941101933
 10
-661.6667991704608
 20
695.8560192312805
 10
-661.6641173801681
 20
695.8626643723655
 42
-0.0183672775225504
 10
-661.214200018796
 20
696.8693107243748
 10
-661.2116925367445
 20
696.8744096104947
 42
-0.0185633179848116
 10
-660.6941193558678
 20
697.8351027235713
 10
-660.6919837514461
 20
697.8387368834817
 42
-0.018715726940047
 10
-660.1088389979241
 20
698.7511036971891
 10
-660.1072891309468
 20
698.7533395422706
 42
-0.0188276164938751
 10
-659.4606218900763
 20
699.6150400209679
 10
-659.3751052145044
 20
699.7204794043555
 42
-0.0188855150311393
 10
-658.8440998035312
 20
700.3268782985581
 42
-0.0094615094886493
 10
-658.279343402357
 20
700.9024721376086
 42
-0.0188803534154764
 10
-657.6830445469259
 20
701.4449780824243
 42
-0.009443406425304
 10
-657.0564402734162
 20
701.9533017977058
 10
-657.0552036972304
 20
701.9542668084259
 42
-0.0187887625549857
 10
-656.3987165274839
 20
702.4280070572108
 10
-656.3977996125568
 20
702.4286176975443
 42
-0.0093745327440063
 10
-655.7134678042466
 20
702.8660696425793
 10
-655.7107250536337
 20
702.8677513316113
 42
-0.0185896676727067
 10
-654.9977737572963
 20
703.2692187264151
 10
-654.8761795691744
 20
703.3318550287884
 42
-0.0092264408963046
 10
-654.3801167319789
 20
703.575915098131
 42
-0.0092082140297158
 10
-653.8753946257048
 20
703.8015246326815
 10
-653.7442167294739
 20
703.8572857253687
 42
-0.01820777661179
 10
-652.962079152042
 20
704.1566300605637
 10
-652.7637971459444
 20
704.2243506364789
 42
-0.0179168492069915
 10
-651.803559226526
 20
704.5143370273331
 10
-651.5633173318865
 20
704.5775924502639
 42
-0.0132287426520922
 10
-651.0700988683157
 20
704.6935964657112
 10
-650.8932881220908
 20
704.7302749391274
 42
-0.0021710589005213
 10
-650.750495623899
 20
704.7592503786886
 10
-647.7511705567686
 20
704.9901843275195
  0
LWPOLYLINE
  5
180
330
A
100
AcDbEntity
  8
ADF70-2203
  6
Continuous
 62
     7
370
    15
390
1D
100
AcDbPolyline
 90
       28
 70
   128
 43
0.0
 10
-662.7468571365334
 20
690.0332311632151
 10
-662.7468571365334
 20
430.1022766375906
 10
-662.5159231877024
 20
427.1038903263488
 10
-661.7085931226848
 20
424.2200322336332
 10
-660.3248669414788
 20
421.6816363082739
 10
-658.4792728626126
 20
419.3741743317457
 10
-656.1718108860841
 20
417.5285802528788
 10
-653.5188867422003
 20
416.1448540716733
 10
-650.750495623899
 20
415.3375240066553
 10
-647.7511705567686
 20
414.9901843275195
 10
-206.8672832945012
 20
414.9901843275195
 10
-203.9834252017863
 20
415.3375240066553
 10
-201.0995671090695
 20
416.1448540716733
 10
-198.4447654534069
 20
417.5285802528788
 10
-196.1391809886572
 20
419.3741743317457
 10
-194.2935869097892
 20
421.6816363082739
 10
-192.909860728585
 20
424.2200322336332
 10
-192.1025306635656
 20
427.1038903263488
 10
-191.8697192029558
 20
430.1022766375906
 10
-191.8697192029558
 20
690.0332311632151
 10
-192.1025306635656
 20
693.0334949862358
 10
-192.909860728585
 20
695.8009473486463
 10
-194.2935869097892
 20
698.4557490043107
 10
-196.1391809886572
 20
700.76133346906
 10
-198.4447654534069
 20
702.6069275479267
 10
-201.0995671090695
 20
703.9925312409114
 10
-203.9834252017863
 20
704.7998613059294
 10
-206.8672832945012
 20
705.0307952547605
  0
LWPOLYLINE
  5
181
330
A
100
AcDbEntity
  8
ADF70-2203
  6
Continuous
 62
     7
370
    15
390
1D
100
AcDbPolyline
 90
       61
 70
   128
 43
0.0
 10
-717.3092269493027
 20
799.9646995406474
 10
-717.3092269493027
 20
369.9243815586417
 10
-717.079231756361
 20
367.9623817494698
 10
-716.6173638587006
 20
366.1167876706029
 10
-716.392169693122
 20
365.6974692566453
 42
0.0405867429172245
 10
-715.1311765855489
 20
363.7472472501165
 10
-715.0173780125388
 20
363.599127525365
 42
0.0515201129416805
 10
-713.679408179074
 20
362.185904692471
 10
-713.5023535397058
 20
362.0337842532465
 42
0.0577761259136718
 10
-712.2764174825352
 20
361.2051680511099
 10
-712.2182660059862
 20
361.1749715390799
 42
0.0278055753812341
 10
-710.9815498640619
 20
360.6177109107111
 10
-710.8107152518105
 20
360.5518915920516
 42
0.034964939226235
 10
-709.8643128024714
 20
360.2613608411741
 10
-709.5263080988998
 20
360.182949587936
 42
0.0045196284740497
 10
-709.2349875432319
 20
360.1181375363408
 10
-707.2739264899501
 20
360.0036093178148
 10
-147.342649849541
 20
360.0036093178148
 42
0.0104586592010891
 10
-147.0348057594101
 20
359.9897920641856
 10
-146.8036661656688
 20
359.9842581555338
 42
0.0400314725675501
 10
-146.0367067599082
 20
360.0273166513628
 10
-145.4968969474276
 20
360.101243515071
 42
0.0697751969130239
 10
-143.7240318773556
 20
360.6022737452383
 10
-143.432570395169
 20
360.7306021973604
 42
0.0610292900386627
 10
-141.3023053919496
 20
361.9978929443271
 10
-141.0435751350642
 20
362.1981013795289
 42
0.0590843358404878
 10
-139.7165899628972
 20
363.5019357299198
 10
-139.5153917833477
 20
363.7526998699932
 42
0.0309720676284907
 10
-138.8076386114108
 20
364.7562465976275
 10
-138.6849706108269
 20
364.955286474235
 42
0.0329767318005722
 10
-138.3292014008193
 20
365.6281264586387
 10
-138.2354122956494
 20
365.8378879481561
 42
0.0088039759632171
 10
-138.1165569669847
 20
366.1167876706029
 10
-137.5382833390177
 20
367.9623817494698
 10
-137.3092269019671
 20
369.9243815586417
 10
-137.3092269019671
 20
799.9646995406474
 10
-137.5401608507982
 20
801.9248218380403
 42
0.0051202164929644
 10
-137.5981064183452
 20
802.1990379285799
 10
-137.671001904605
 20
802.5273446509129
 42
0.0367913459851892
 10
-137.9446032580936
 20
803.4374211706049
 10
-138.101739434941
 20
803.8479153900666
 42
0.0553375584512133
 10
-138.936320406262
 20
805.4661696695828
 10
-138.9863381031682
 20
805.5414060949283
 42
0.0559465985160624
 10
-140.2728281831651
 20
807.0734680674657
 10
-140.3398360125821
 20
807.1372297973378
 42
0.0502189970810414
 10
-141.7768880967378
 20
808.2530546657936
 10
-142.1500706624402
 20
808.4869551960908
 42
0.0316371517992887
 10
-142.9816555400175
 20
808.9376087778339
 10
-143.2856507898277
 20
809.078267935949
 42
0.0044686107026755
 10
-143.5388109850592
 20
809.192669934982
 10
-145.3844050639273
 20
809.7690660511694
 10
-147.3445273613197
 20
810.0
 10
-707.2739264899501
 20
810.0
 10
-709.2349875432319
 20
809.7690660511694
 10
-711.1960485965155
 20
809.192669934982
 10
-712.9261757009663
 20
808.2708116514382
 10
-714.4253688565877
 20
807.1161419072841
 10
-715.579099844852
 20
805.6160099957742
 10
-716.6173638587006
 20
803.886821647212
 10
-717.079231756361
 20
801.9248218380403
 10
-717.3092269493027
 20
799.9646995406474
  0
LINE
  5
182
330
A
100
AcDbEntity
  8
ADF70-2203
  6
Continuous
 62
     7
370
    15
390
1D
100
AcDbLine
 10
-707.2739264899501
 20
810.0
 30
0.0
 11
-147.3445273613197
 21
810.0
 31
0.0
  0
LINE
  5
183
330
A
100
AcDbEntity
  8
ADF70-2203
  6
Continuous
 62
     7
370
    15
390
1D
100
AcDbLine
 10
-137.3092269019671
 20
799.9646995406474
 30
0.0
 11
-137.3092269019671
 21
369.9243815586417
 31
0.0
  0
LINE
  5
184
330
A
100
AcDbEntity
  8
ADF70-2203
  6
Continuous
 62
     7
370
    15
390
1D
100
AcDbLine
 10
-147.342649849541
 20
360.0036093178148
 30
0.0
 11
-707.2739264899501
 21
360.0036093178148
 31
0.0
  0
LINE
  5
185
330
A
100
AcDbEntity
  8
ADF70-2203
  6
Continuous
 62
     7
370
    15
390
1D
100
AcDbLine
 10
-717.3092269493027
 20
369.9243815586417
 30
0.0
 11
-717.3092269493027
 21
799.9646995406474
 31
0.0
  0
LWPOLYLINE
  5
186
330
A
100
AcDbEntity
  8
ADF70-2203
  6
Continuous
 62
     7
370
    15
390
1D
100
AcDbPolyline
 90
      161
 70
   128
 43
0.0
 10
-414.8505281373928
 20
688.0324979385814
 10
-415.0814620862238
 20
688.8398280035995
 10
-415.7733251768277
 20
689.6471580686175
 42
0.0071792335452557
 10
-415.8869973019528
 20
689.7337926192477
 10
-415.9168907777139
 20
689.7559045237822
 42
0.0129413500654053
 10
-416.0948199017575
 20
689.8805245842959
 10
-416.1282610376493
 20
689.902679097609
 42
0.0116439514879567
 10
-416.3799891792514
 20
690.0611391117152
 10
-416.3850155401124
 20
690.0641420521845
 42
0.0105528617205895
 10
-416.6537151872508
 20
690.2170731997085
 10
-416.6588899891594
 20
690.219875555712
 42
0.0095885357187471
 10
-416.943994208711
 20
690.3672717164654
 10
-416.9492483755739
 20
690.3698616221691
 42
0.0089333435631039
 10
-417.2502202667974
 20
690.5115918278279
 10
-417.3379388977273
 20
690.5510003129452
 42
0.0153799330164545
 10
-417.8230414428945
 20
690.7512444693002
 10
-417.9204978652278
 20
690.7880078784897
 42
0.013066129720136
 10
-418.6129665303615
 20
691.0287547727598
 10
-418.6331284539556
 20
691.0351790188797
 42
0.0113349682537415
 10
-419.3771701974465
 20
691.253805998168
 10
-419.3961092922827
 20
691.2589076137767
 42
0.0099982904471242
 10
-420.1869087594923
 20
691.4550534113105
 10
-420.2043141087433
 20
691.4590028708985
 42
0.0089642702953794
 10
-421.0369541889468
 20
691.6323034999834
 10
-421.0526000489735
 20
691.6352683396076
 42
0.0081664262403557
 10
-421.9220908325788
 20
691.7853672149251
 10
-421.935812673164
 20
691.7875058334391
 42
0.0075567452500969
 10
-422.8371115860791
 20
691.9140571834623
 10
-422.8487895580765
 20
691.9155172834865
 42
0.0071007402039964
 10
-423.7768152821054
 20
692.0181862794125
 10
-423.7863627588149
 20
692.0191054928769
 42
0.0067737037288198
 10
-424.7360045621799
 20
692.0975671372828
 10
-424.7433607941357
 20
692.0980746959176
 42
0.0065691522421669
 10
-425.7094864730443
 20
692.1519918817003
 10
-425.9608557227784
 20
692.1627096370851
 42
0.0128645104657424
 10
-427.4310671545309
 20
692.1875351705573
 10
-427.6808158751082
 20
692.1853264559256
 42
0.006495651172442
 10
-428.6621061377818
 20
692.1638969339988
 10
-428.6660014521494
 20
692.1637612218603
 42
0.0066686516183173
 10
-429.6385974062623
 20
692.1168819637419
 10
-429.6447003563826
 20
692.1165061585937
 42
0.0069389614655895
 10
-430.6034602425616
 20
692.0440998902172
 10
-430.6117189343504
 20
692.0433607939262
 42
0.0073217692115055
 10
-431.5515214389434
 20
691.9453637097529
 10
-431.5618622217953
 20
691.944132119228
 42
0.0078335735884454
 10
-432.4776107807438
 20
691.8204873963018
 10
-432.4899323987756
 20
691.818626733985
 42
0.0084976643047929
 10
-433.3765621583789
 20
691.6692856354712
 10
-433.3907276481041
 20
691.666651339285
 42
0.0093459512357292
 10
-434.2432153140235
 20
691.4915731725739
 10
-434.3580865247686
 20
691.4657351530075
 42
0.0105008903635871
 10
-434.9743603847801
 20
691.313452741339
 10
-434.9869980939502
 20
691.3100468190894
 42
0.0056287222295218
 10
-435.5729403171363
 20
691.1450355550623
 10
-435.5796638130014
 20
691.1430601500583
 42
0.0126872993405991
 10
-436.1456819100877
 20
690.9610384806813
 10
-436.1595014135846
 20
690.9562041912961
 42
0.0069004050394246
 10
-436.6905828918334
 20
690.7621566027392
 10
-436.6977470912934
 20
690.7594262886262
 42
0.0158176480116649
 10
-437.2051145729592
 20
690.5474548873317
 10
-437.2956629716027
 20
690.5062145233069
 42
0.0089590031112308
 10
-437.6125163631878
 20
690.3549912759513
 10
-437.617225292709
 20
690.3526393698398
 42
0.0096394586617013
 10
-437.9189043694732
 20
690.1946255114863
 10
-437.9235177772298
 20
690.1920945855079
 42
0.0105089636625514
 10
-438.2094597202467
 20
690.0273154218983
 10
-438.2139180855465
 20
690.0246198407642
 42
0.0114798210611274
 10
-438.4835394393222
 20
689.8530300429497
 10
-438.4877777239199
 20
689.8501939875937
 42
0.0125594964423265
 10
-438.7404989560328
 20
689.671735970423
 10
-438.744441309479
 20
689.6688009827728
 42
0.0137402993203047
 10
-438.9796984839932
 20
689.4833976077703
 10
-439.0103126267868
 20
689.4578766988484
 42
0.0150776922835551
 10
-439.1748481881605
 20
689.3120861515708
 10
-439.2021132255977
 20
689.2864189789834
 42
0.008224232423791
 10
-439.3060578162149
 20
689.185290170956
 10
-439.7669869579859
 20
688.4943658362429
 10
-439.7669869579859
 20
687.687035771225
 42
0.0131074688846661
 10
-439.7063441004766
 20
687.5650754709404
 10
-439.6899922867315
 20
687.534244421035
 42
0.0246507440962475
 10
-439.5847243261987
 20
687.3574050655461
 10
-439.5644867703368
 20
687.3269317758579
 42
0.0227112364707575
 10
-439.399789710109
 20
687.1018236721259
 10
-439.397328453816
 20
687.0987616761213
 42
0.0207265719850744
 10
-439.2085243357624
 20
686.8828442767428
 10
-439.2052406416879
 20
686.8793890725142
 42
0.0187639307755976
 10
-438.9931424966653
 20
686.6723535458868
 10
-438.9891275836417
 20
686.6687183998313
 42
0.0169109874866002
 10
-438.7545148700419
 20
686.4703123096263
 10
-438.7498824372587
 20
686.4666561062932
 42
0.015210157330119
 10
-438.4935118492458
 20
686.2766756233184
 10
-438.4883855296639
 20
686.2731131298838
 42
0.0136792713302603
 10
-438.2110093175688
 20
686.0913983678736
 10
-438.2055099731197
 20
686.0880069152349
 42
0.0123190353766269
 10
-437.9078855220741
 20
685.9144332824285
 10
-437.9021249231982
 20
685.911261256347
 42
0.0111203970891756
 10
-437.5850201286357
 20
685.745731111384
 10
-437.5790979513358
 20
685.7428054091224
 42
0.0100694211977343
 10
-437.2432933342925
 20
685.5852407963903
 10
-437.2372964476044
 20
685.5825729610569
 42
0.0091504025226232
 10
-436.8835853811743
 20
685.4329098189949
 10
-436.8775883806311
 20
685.4305007677406
 42
0.0083476791518061
 10
-436.5067762899398
 20
685.2886845346268
 10
-436.5008426422119
 20
685.2865280661783
 42
0.0077969065451917
 10
-436.1137072701522
 20
685.1526274519674
 10
-436.0034533098233
 20
685.1164080617064
 42
0.0135353132402599
 10
-435.3887492036456
 20
684.9327494250406
 10
-435.2690875015705
 20
684.9004982265049
 42
0.0116104696574314
 10
-434.4051765026879
 20
684.6890441966873
 10
-434.3848043604312
 20
684.6845564704356
 42
0.0101702049919987
 10
-433.4715402316606
 20
684.5027686060102
 10
-433.4534301969352
 20
684.4995452071944
 42
0.0090619072302967
 10
-432.4974869525304
 20
684.347215394368
 10
-432.4819242995709
 20
684.3450238889
 42
0.008212587946896
 10
-431.4900727543845
 20
684.2219302609378
 10
-431.4772618644465
 20
684.2205536085705
 42
0.0075702517622445
 10
-430.4563418204807
 20
684.1264572402451
 10
-430.4464289437792
 20
684.1256947468355
 42
0.007098082522809
 10
-429.403330568598
 20
684.0603402638997
 10
-429.3964186483799
 20
684.060005628503
 42
0.006787100678906
 10
-428.3380683965534
 20
684.0231575388057
 10
-428.0659970754205
 20
684.0173810090259
 42
0.0130618033464743
 10
-426.4685122077053
 20
684.0251985808054
 10
-426.1957533998611
 20
684.0336611155094
 42
0.0065330534168474
 10
-425.1445962653788
 20
684.0800279230612
 10
-425.1359097438462
 20
684.0805248780216
 42
0.0067071836503309
 10
-424.103710200372
 20
684.1534798200228
 10
-424.0919326456997
 20
684.1544711825904
 42
0.0070118043111199
 10
-423.0856543446944
 20
684.2534026730812
 10
-423.0708502211573
 20
684.2550680429304
 42
0.0074761772566913
 10
-422.0974258284232
 20
684.3793369408027
 10
-422.0796933249585
 20
684.3818706945494
 42
0.0081349454080663
 10
-421.1460157004531
 20
684.5308197234754
 10
-421.0183967724379
 20
684.5533135648277
 42
0.0091173749209116
 10
-420.3447774776878
 20
684.6847510498947
 10
-420.3279650703707
 20
684.6883509138474
 42
0.0048851415844765
 10
-419.6917621439843
 20
684.831089002578
 10
-419.6826259470463
 20
684.8332327586852
 42
0.0111461394738406
 10
-419.0696200947486
 20
684.9915663616875
 10
-419.0502896269718
 20
684.9970216267561
 42
0.0061059445250988
 10
-418.4815268790544
 20
685.1650576215536
 10
-418.4712763873022
 20
685.1682226419932
 42
0.0143924607864392
 10
-417.9303707381323
 20
685.3524476750054
 10
-417.8306794549608
 20
685.3896360174856
 42
0.0083847699708955
 10
-417.4966577286623
 20
685.5206593025987
 10
-417.4895482109723
 20
685.5235865690458
 42
0.009213130265
 10
-417.1744596905446
 20
685.6601635017912
 10
-417.1673331470638
 20
685.6634098000591
 42
0.01032385295788
 10
-416.871946618654
 20
685.8054002365839
 10
-416.8648892159381
 20
685.8089738932708
 42
0.0116442250043072
 10
-416.5899815044895
 20
685.9563197633863
 10
-416.5830974666114
 20
685.9602185027268
 42
0.0132194825591621
 10
-416.3294266152097
 20
686.1128779038775
 10
-416.3228488344203
 20
686.1170771862576
 42
0.0150743994983463
 10
-416.0911336825111
 20
686.2750335110618
 10
-416.0596436476271
 20
686.2979198055514
 42
0.0173784916225595
 10
-415.9000080900041
 20
686.422641189354
 10
-415.8731348944939
 20
686.4451835418706
 42
0.0099964234778765
 10
-415.7733251768277
 20
686.532366027071
 10
-415.0814620862238
 20
687.3396960920891
 10
-414.8505281373928
 20
688.0324979385814
  0
LINE
  5
187
330
A
100
AcDbEntity
  8
ADF70-2203
  6
Continuous
 62
     7
370
    15
390
1D
100
AcDbLine
 10
-658.4792728626126
 20
700.7207225418192
 30
0.0
 11
-623.411107852362
 21
665.6525575315686
 31
0.0
  0
LINE
  5
188
330
A
100
AcDbEntity
  8
ADF70-2203
  6
Continuous
 62
     7
370
    15
390
1D
100
AcDbLine
 10
-196.1391809886572
 20
700.7207225418192
 30
0.0
 11
-231.2073459989078
 21
665.6525575315686
 31
0.0
  0
LINE
  5
189
330
A
100
AcDbEntity
  8
ADF70-2203
  6
Continuous
 62
     7
370
    15
390
1D
100
AcDbLine
 10
-196.1391809886572
 20
419.333563404505
 30
0.0
 11
-231.2073459989078
 21
454.2853226844506
 31
0.0
  0
CIRCLE
  5
18A
330
A
100
AcDbEntity
  8
ADF70-2203
  6
STYLE_12
 62
     7
370
    15
390
1D
100
AcDbCircle
 10
-427.309226925634
 20
755.0
 30
0.0
 40
17.5
  0
LINE
  5
18B
330
A
100
AcDbEntity
  8
ADF70-2203
  6
Continuous
 62
     7
370
    15
390
1D
100
AcDbLine
 10
-658.4792728626144
 20
419.333563404505
 30
0.0
 11
-623.411107852362
 21
454.2853226844506
 31
0.0
  0
CIRCLE
  5
18C
330
A
100
AcDbEntity
  8
ADF70-2203
  6
Continuous
 62
     7
370
    15
390
1D
100
AcDbCircle
 10
-427.309226925634
 20
560.0
 30
0.0
 40
22.5
  0
CIRCLE
  5
18D
330
A
100
AcDbEntity
  8
ADF70-2203
  6
Continuous
 62
     7
370
    15
390
1D
100
AcDbCircle
 10
-427.309226925634
 20
560.0
 30
0.0
 40
34.5
  0
LINE
  5
18E
330
A
100
AcDbEntity
  8
ADF70-2203
  6
STYLE_13
 62
     7
370
     5
390
1D
100
AcDbLine
 10
229.5580563688668
 20
704.9901843275195
 30
0.0
 11
670.4419436311332
 21
704.9901843275195
 31
0.0
  0
LWPOLYLINE
  5
18F
330
A
100
AcDbEntity
  8
ADF70-2203
  6
STYLE_13
 62
     7
370
     5
390
1D
100
AcDbPolyline
 90
       40
 70
   128
 43
0.0
 10
214.562369789101
 20
689.9926202359743
 10
214.7933037379321
 20
692.9928840589951
 42
-0.0021751613622653
 10
214.8222804005563
 20
693.1356765730695
 10
214.8443372462948
 20
693.2419941278465
 42
-0.0087813062991513
 10
214.9242646447851
 20
693.5958918509034
 10
214.9835405961412
 20
693.8384460963725
 42
-0.0178469713191041
 10
215.2178438958999
 20
694.6676825949783
 10
215.2622354923674
 20
694.8057582923407
 42
-0.0181311941098653
 10
215.6424277551746
 20
695.8560192312805
 10
215.6451095454636
 20
695.8626643723567
 42
-0.018367277522741
 10
216.0950269068394
 20
696.8693107243748
 10
216.0975343889022
 20
696.8744096105186
 42
-0.0185633179838598
 10
216.6151075697671
 20
697.8351027235713
 10
216.6172431741707
 20
697.8387368834499
 42
-0.018715726940823
 10
217.2003879277104
 20
698.7511036971891
 10
217.2019377946722
 20
698.7533395422479
 42
-0.0188276164946014
 10
217.8486050355582
 20
699.6150400209679
 10
217.9341217111332
 20
699.7204794043589
 42
-0.0188855150315304
 10
218.4651271221037
 20
700.3268782985581
 42
-0.0094615094888562
 10
219.0298835232784
 20
700.9024721376086
 42
-0.0188803534161363
 10
219.6261823787095
 20
701.4449780824243
 42
-0.0094434064257053
 10
220.2527866522178
 20
701.9533017977046
 10
220.254023228405
 20
701.9542668084259
 42
-0.0187887625555575
 10
220.9105103981474
 20
702.4280070572083
 10
220.9114273130781
 20
702.4286176975443
 42
-0.0093745327436302
 10
221.5957591214496
 20
702.866069642617
 10
221.5985018720012
 20
702.8677513316113
 42
-0.0185896676708019
 10
222.3114531683718
 20
703.2692187264322
 10
222.4330473564605
 20
703.3318550287881
 42
-0.0092264408959736
 10
222.929110193656
 20
703.575915098131
 42
-0.0092082140288994
 10
223.4338322999697
 20
703.8015246326986
 10
223.5650101961605
 20
703.8572857253687
 42
-0.0182077766110603
 10
224.3471477735943
 20
704.1566300605641
 10
224.5454297797041
 20
704.2243506364839
 42
-0.0179168492066521
 10
225.5056676991085
 20
704.5143370273331
 10
225.7459095937324
 20
704.57759245026
 42
-0.01322874265215
 10
226.2391280573192
 20
704.6935964657112
 10
226.4159388035941
 20
704.7302749391376
 42
-0.0021710589006811
 10
226.5587313017363
 20
704.7592503786886
 10
229.5580563688668
 20
704.9901843275195
  0
LWPOLYLINE
  5
190
330
A
100
AcDbEntity
  8
ADF70-2203
  6
STYLE_13
 62
     7
370
     5
390
1D
100
AcDbPolyline
 90
       28
 70
   128
 43
0.0
 10
214.562369789101
 20
689.9926202359743
 10
214.562369789101
 20
429.0616657103499
 10
214.7933037379321
 20
426.0632793991081
 10
215.6006338029497
 20
423.1794213063924
 10
216.9843599841556
 20
420.6410253810332
 10
218.8299540630219
 20
418.333563404505
 10
221.1374160395503
 20
416.487969325638
 10
223.7903401834351
 20
415.1042431444325
 10
226.5587313017363
 20
414.2969130794145
 10
229.5580563688668
 20
413.9495734002787
 10
670.4419436311332
 20
413.9495734002787
 10
673.325801723849
 20
414.2969130794145
 10
676.2096598165649
 20
415.1042431444325
 10
678.8644614722284
 20
416.487969325638
 10
681.1700459369781
 20
418.333563404505
 10
683.0156400158453
 20
420.6410253810332
 10
684.3993661970503
 20
423.1794213063924
 10
685.2066962620688
 20
426.0632793991081
 10
685.4395077226786
 20
429.0616657103499
 10
685.4395077226786
 20
689.9926202359743
 10
685.2066962620688
 20
692.9928840589951
 10
684.3993661970503
 20
695.7603364214056
 10
683.0156400158453
 20
698.41513807707
 10
681.1700459369781
 20
700.7207225418192
 10
678.8644614722284
 20
702.5663166206859
 10
676.2096598165649
 20
703.9519203136706
 10
673.325801723849
 20
704.7592503786886
 10
670.4419436311332
 20
704.9901843275195
  0
LWPOLYLINE
  5
191
330
A
100
AcDbEntity
  8
ADF70-2203
  6
STYLE_13
 62
     7
370
     5
390
1D
100
AcDbPolyline
 90
       61
 70
   128
 43
0.0
 10
159.9999999763318
 20
799.9646995406474
 10
159.9999999763318
 20
369.9243815586417
 10
160.2299951692735
 20
367.9623817494698
 10
160.6918630669347
 20
366.1167876706029
 10
160.9170572325065
 20
365.6974692566571
 42
0.0405867429171613
 10
162.178050340086
 20
363.7472472501165
 10
162.2918489130971
 20
363.5991275253641
 42
0.0515201129415329
 10
163.6298187465609
 20
362.185904692471
 10
163.8068733859263
 20
362.0337842532492
 42
0.0577761259138536
 10
165.0328094430997
 20
361.2051680511099
 10
165.0909609196519
 20
361.1749715390783
 42
0.027805575380929
 10
166.327677061573
 20
360.6177109107111
 10
166.4985116738226
 20
360.5518915920522
 42
0.0349649392264337
 10
167.4449141231635
 20
360.2613608411741
 10
167.7829188267365
 20
360.1829495879358
 42
0.0045196284755344
 10
168.0742393824025
 20
360.1181375363408
 10
170.0353004356853
 20
360.0036093178148
 10
729.9665770760944
 20
360.0036093178148
 42
0.0104586592021299
 10
730.2744211662193
 20
359.9897920641858
 10
730.5055607599661
 20
359.9842581555338
 42
0.0400314725679505
 10
731.2725201657263
 20
360.0273166513628
 10
731.8123299782069
 20
360.101243515071
 42
0.0697751969132993
 10
733.5851950482788
 20
360.6022737452381
 10
733.8766565304654
 20
360.7306021973604
 42
0.0610292900383211
 10
736.0069215336812
 20
361.9978929443239
 10
736.2656517905716
 20
362.19810137953
 42
0.0590843358402989
 10
737.5926369627373
 20
363.5019357299198
 10
737.793835142294
 20
363.7526998700021
 42
0.0309720676286785
 10
738.5015883142237
 20
364.7562465976275
 10
738.6242563148021
 20
364.9552864742261
 42
0.0329767318002138
 10
738.9800255248151
 20
365.6281264586387
 10
739.0738146299846
 20
365.8378879481561
 42
0.0088039759638936
 10
739.1926699586497
 20
366.1167876706029
 10
739.7709435866168
 20
367.9623817494698
 10
740.0000000236682
 20
369.9243815586417
 10
740.0000000236682
 20
799.9646995406474
 10
739.7690660748372
 20
801.9248218380403
 42
0.0051202164942479
 10
739.7111205072742
 20
802.1990379286524
 10
739.6382250210299
 20
802.5273446509129
 42
0.0367913459848898
 10
739.3646236675409
 20
803.4374211706051
 10
739.2074874906934
 20
803.8479153900666
 42
0.0553375584511245
 10
738.3729065193734
 20
805.4661696695821
 10
738.3228888224662
 20
805.5414060949283
 42
0.0559465985158917
 10
737.0363987424698
 20
807.0734680674657
 10
736.9693909130588
 20
807.1372297973319
 42
0.0502189970811726
 10
735.5323388288971
 20
808.2530546657936
 10
735.1591562631938
 20
808.4869551960915
 42
0.0316371517993983
 10
734.3275713856169
 20
808.9376087778339
 10
734.0235761357912
 20
809.0782679359561
 42
0.0044686107020202
 10
733.7704159405753
 20
809.192669934982
 10
731.9248218617081
 20
809.7690660511694
 10
729.9646995643157
 20
810.0
 10
170.0353004356853
 20
810.0
 10
168.0742393824025
 20
809.7690660511694
 10
166.1131783291198
 20
809.192669934982
 10
164.3830512246691
 20
808.2708116514382
 10
162.8838580690476
 20
807.1161419072841
 10
161.7301270807834
 20
805.6160099957742
 10
160.6918630669347
 20
803.886821647212
 10
160.2299951692735
 20
801.9248218380403
 10
159.9999999763318
 20
799.9646995406474
  0
LINE
  5
192
330
A
100
AcDbEntity
  8
ADF70-2203
  6
STYLE_13
 62
     7
370
     5
390
1D
100
AcDbLine
 10
170.0353004356853
 20
810.0
 30
0.0
 11
729.9646995643157
 21
810.0
 31
0.0
  0
LINE
  5
193
330
A
100
AcDbEntity
  8
ADF70-2203
  6
STYLE_13
 62
     7
370
     5
390
1D
100
AcDbLine
 10
740.0000000236682
 20
799.9646995406474
 30
0.0
 11
740.0000000236682
 21
369.9243815586417
 31
0.0
  0
LINE
  5
194
330
A
100
AcDbEntity
  8
ADF70-2203
  6
STYLE_13
 62
     7
370
     5
390
1D
100
AcDbLine
 10
729.9665770760944
 20
360.0036093178148
 30
0.0
 11
170.0353004356853
 21
360.0036093178148
 31
0.0
  0
LINE
  5
195
330
A
100
AcDbEntity
  8
ADF70-2203
  6
STYLE_13
 62
     7
370
     5
390
1D
100
AcDbLine
 10
159.9999999763318
 20
369.9243815586417
 30
0.0
 11
159.9999999763318
 21
799.9646995406474
 31
0.0
  0
CIRCLE
  5
196
330
A
100
AcDbEntity
  8
ADF70-2203
  6
STYLE_13
 62
     7
370
     5
390
1D
100
AcDbCircle
 10
450.0000000000005
 20
755.0
 30
0.0
 40
17.5
  0
POLYLINE
  5
197
330
A
100
AcDbEntity
  8
ADF70-2203
  6
Continuous
 62
     7
370
    15
390
1D
100
AcDb2dPolyline
 66
     1
 10
0.0
 20
0.0
 30
0.0
 70
     1
 75
     5
  0
VERTEX
  5
198
330
197
100
AcDbEntity
  8
ADF70-2203
  6
Continuous
 62
     7
370
    15
390
1D
100
AcDbVertex
100
AcDb2dVertex
 10
190.0009387558898
 20
780.0018046589075
 30
0.0
  0
VERTEX
  5
199
330
197
100
AcDbEntity
  8
ADF70-2203
  6
Continuous
 62
     7
370
    15
390
1D
100
AcDbVertex
100
AcDb2dVertex
 10
710.0009387558898
 20
780.0018046589075
 30
0.0
  0
VERTEX
  5
19A
330
197
100
AcDbEntity
  8
ADF70-2203
  6
Continuous
 62
     7
370
    15
390
1D
100
AcDbVertex
100
AcDb2dVertex
 10
710.0009387558898
 20
390.0018046589075
 30
0.0
  0
VERTEX
  5
19B
330
197
100
AcDbEntity
  8
ADF70-2203
  6
Continuous
 62
     7
370
    15
390
1D
100
AcDbVertex
100
AcDb2dVertex
 10
190.0009387558898
 20
390.0018046589075
 30
0.0
  0
SEQEND
  5
19C
330
197
100
AcDbEntity
  8
ADF70-2203
  6
Continuous
 62
     7
370
    15
390
1D
  0
CIRCLE
  5
19D
330
A
100
AcDbEntity
  8
ADF70-2203
  6
STYLE_12
 62
     7
370
     5
390
1D
100
AcDbCircle
 10
450.0000000000005
 20
560.0
 30
0.0
 40
22.5
  0
LWPOLYLINE
  5
19E
330
A
100
AcDbEntity
  8
ADF70-2203
  6
STYLE_12
 62
     7
370
    15
390
1D
100
AcDbPolyline
 90
        7
 70
   128
 43
0.0
 10
510.2295025736889
 20
-506.6805435772862
 10
512.6514927687435
 20
-506.1041474610988
 10
514.8425490149671
 20
-505.182289177555
 10
516.9190770426644
 20
-503.9130912148754
 10
518.6501429030054
 20
-502.1820253545343
 10
520.0338690842113
 20
-500.2219030571414
 10
521.07213309806
 20
-498.0289692991391
  0
LINE
  5
19F
330
A
100
AcDbEntity
  8
ADF70-2203
  6
Continuous
 62
     7
370
    15
390
1D
100
AcDbLine
 10
266.3707626555283
 20
-403.0004438994089
 30
0.0
 11
557.4094960709904
 21
-402.9985663876298
 31
0.0
  0
SPLINE
  5
1A0
330
A
100
AcDbEntity
  8
ADF70-2203
  6
STYLE_12
 62
     7
370
    15
390
1D
100
AcDbSpline
210
0.0
220
0.0
230
1.0
 70
    12
 71
     2
 72
    18
 73
    15
 74
     0
 42
0.000000001
 43
0.000001
 40
0.0
 40
0.0
 40
0.0
 40
1.0
 40
1.0
 40
2.0
 40
2.0
 40
3.0
 40
3.0
 40
4.0
 40
4.0
 40
5.0
 40
5.0
 40
6.0
 40
6.0
 40
7.0
 40
7.0
 40
7.0
 10
455.2052648632584
 20
-513.3719955580408
 30
0.0
 41
1.0
 10
455.0897978888433
 20
-513.3719955580408
 30
0.0
 41
1.0
 10
454.9743309144283
 20
-513.3719955580408
 30
0.0
 41
1.0
 10
454.4363260164405
 20
-513.3795656531368
 30
0.0
 41
1.0
 10
448.2396769320908
 20
-513.4644726074363
 30
0.0
 41
1.0
 10
442.0430278477461
 20
-513.5493795617358
 30
0.0
 41
0.9999924605402801
 10
435.8459062321917
 20
-513.5861592766436
 30
0.0
 41
1.0
 10
425.5978173736903
 20
-513.6469813501718
 30
0.0
 41
1.0
 10
415.3497285151889
 20
-513.7078034237
 30
0.0
 41
1.0
 10
399.9748993513076
 20
-513.799052533929
 30
0.0
 41
0.9999520870087737
 10
384.6012303513749
 20
-513.5892914827923
 30
0.0
 41
1.0
 10
369.2275613514289
 20
-513.3795304316552
 30
0.0
 41
1.0
 10
368.6895220817855
 20
-513.3719955580408
 30
0.0
 41
1.0
 10
368.6322579725229
 20
-513.3719955580408
 30
0.0
 41
1.0
 10
368.5749938632603
 20
-513.3719955580408
 30
0.0
 41
1.0
  0
LWPOLYLINE
  5
1A1
330
A
100
AcDbEntity
  8
ADF70-2203
  6
STYLE_12
 62
     7
370
    15
390
1D
100
AcDbPolyline
 90
        5
 70
   128
 43
0.0
 10
510.2295025736889
 20
-506.6805435772862
 10
454.7433969655972
 20
-513.3719955580408
 10
451.8595388728813
 20
-514.0629198927539
 10
449.2066147289966
 20
-515.2175896369077
 10
446.8991527524681
 20
-516.8322497669437
  0
LINE
  5
1A2
330
A
100
AcDbEntity
  8
ADF70-2203
  6
Continuous
 62
     7
370
    15
390
1D
100
AcDbLine
 10
212.8466568566087
 20
-422.9546390878094
 30
0.0
 11
660.8829252414012
 21
-422.9546390878094
 31
0.0
  0
LINE
  5
1A3
330
A
100
AcDbEntity
  8
ADF70-2203
  6
Continuous
 62
     7
370
    15
390
1D
100
AcDbLine
 10
550.0271197555226
 20
-520.8689000920344
 30
0.0
 11
550.1416479740478
 21
-520.8689000920344
 31
0.0
  0
LINE
  5
1A4
330
A
100
AcDbEntity
  8
ADF70-2203
  6
Continuous
 62
     7
370
    15
390
1D
100
AcDbLine
 10
511.6132287548944
 20
-562.8799594496764
 30
0.0
 11
518.5356146844802
 21
-562.8799594496764
 31
0.0
  0
LINE
  5
1A5
330
A
100
AcDbEntity
  8
ADF70-2203
  6
Continuous
 62
     7
370
    15
390
1D
100
AcDbLine
 10
511.6132287548944
 20
-562.8799594496764
 30
0.0
 11
317.0110103617326
 21
-562.8799594496764
 31
0.0
  0
LINE
  5
1A6
330
A
100
AcDbEntity
  8
ADF70-2203
  6
Continuous
 62
     7
370
    15
390
1D
100
AcDbLine
 10
518.5356146844802
 20
-562.8799594496764
 30
0.0
 11
556.716694224498
 21
-562.8799594496764
 31
0.0
  0
LWPOLYLINE
  5
1A7
330
A
100
AcDbEntity
  8
ADF70-2203
  6
Continuous
 62
     7
370
    15
390
1D
100
AcDbPolyline
 90
        5
 70
   128
 43
0.0
 10
556.716694224498
 20
-562.8799594496764
 10
557.8713639686516
 20
-562.5344972823201
 10
558.9096279825003
 20
-561.8416954358278
 10
559.4860240986877
 20
-560.8034314219789
 10
609.6847964909166
 20
-422.9546390878094
  0
LINE
  5
1A8
330
A
100
AcDbEntity
  8
ADF70-2203
  6
STYLE_12
 62
     7
370
    15
390
1D
100
AcDbLine
 10
388.8765287307961
 20
-557.8050451107372
 30
0.0
 11
434.9037299957226
 21
-557.8050451107372
 31
0.0
  0
LINE
  5
1A9
330
A
100
AcDbEntity
  8
ADF70-2203
  6
STYLE_12
 62
     7
370
    15
390
1D
100
AcDbLine
 10
518.6501429030054
 20
-502.1820253545343
 30
0.0
 11
544.6048657374472
 21
-426.6458272455434
 31
0.0
  0
LINE
  5
1AA
330
A
100
AcDbEntity
  8
ADF70-2203
  6
STYLE_12
 62
     7
370
    15
390
1D
100
AcDbLine
 10
544.6048657374472
 20
-426.6458272455434
 30
0.0
 11
551.7563081040848
 21
-406.9206884941945
 31
0.0
  0
LWPOLYLINE
  5
1AB
330
A
100
AcDbEntity
  8
ADF70-2203
  6
STYLE_12
 62
     7
370
    15
390
1D
100
AcDbPolyline
 90
        6
 70
   128
 43
0.0
 10
557.4094960709904
 20
-402.9985663876298
 10
555.9093641594795
 20
-403.1149721179346
 10
554.5256379782745
 20
-403.6913682341221
 10
553.3709682341209
 20
-404.4986982991401
 10
552.4491099505763
 20
-405.536962312989
 10
551.7563081040848
 20
-406.9206884941945
  0
LINE
  5
1AC
330
A
100
AcDbEntity
  8
ADF70-2203
  6
Continuous
 62
     7
370
    15
390
1D
100
AcDbLine
 10
655.6916051721569
 20
-402.9985663876298
 30
0.0
 11
557.4094960709904
 21
-402.9985663876298
 31
0.0
  0
LWPOLYLINE
  5
1AD
330
A
100
AcDbEntity
  8
ADF70-2203
  6
Continuous
 62
     7
370
    15
390
1D
100
AcDbPolyline
 90
        7
 70
   128
 43
0.0
 10
661.6902553064197
 20
-408.8826883033661
 10
661.4593213575886
 20
-407.266150661551
 10
660.7665195110962
 20
-405.8824244803455
 10
659.8446612275525
 20
-404.613226517666
 10
658.5754632648727
 20
-403.6913682341221
 10
657.1898595718881
 20
-403.1149721179346
 10
655.6916051721569
 20
-402.9985663876298
  0
LINE
  5
1AE
330
A
100
AcDbEntity
  8
ADF70-2203
  6
Continuous
 62
     7
370
    15
390
1D
100
AcDbLine
 10
661.6902553064197
 20
-408.8826883033661
 30
0.0
 11
661.9193117434711
 21
-421.9163750739605
 31
0.0
  0
LWPOLYLINE
  5
1AF
330
A
100
AcDbEntity
  8
ADF70-2203
  6
Continuous
 62
     7
370
    15
390
1D
100
AcDbPolyline
 90
        4
 70
   128
 43
0.0
 10
660.8829252414012
 20
-422.9546390878094
 10
661.3429156272837
 20
-422.8401108692836
 10
661.8047835249449
 20
-422.3782429716222
 10
661.9193117434711
 20
-421.9163750739605
  0
LINE
  5
1B0
330
A
100
AcDbEntity
  8
ADF70-2203
  6
Continuous
 62
     7
370
    15
390
1D
100
AcDbLine
 10
653.6150771444595
 20
-422.9546390878094
 30
0.0
 11
660.8829252414012
 21
-422.9546390878094
 31
0.0
  0
LINE
  5
1B1
330
A
100
AcDbEntity
  8
ADF70-2203
  6
STYLE_12
 62
     7
370
    15
390
1D
100
AcDbLine
 10
388.1837268843042
 20
-526.2911541101091
 30
0.0
 11
435.4801261119096
 21
-526.2911541101091
 31
0.0
  0
LWPOLYLINE
  5
1B2
330
A
100
AcDbEntity
  8
ADF70-2203
  6
STYLE_12
 62
     7
370
    15
390
1D
100
AcDbPolyline
 90
        7
 70
   128
 43
0.0
 10
302.7062481166799
 20
-498.0289692991391
 10
303.7445121305286
 20
-500.2219030571414
 10
305.1301158235133
 20
-502.1820253545343
 10
306.8593041720751
 20
-503.9130912148754
 10
308.9358321997729
 20
-505.182289177555
 10
311.1268884459964
 20
-506.1041474610988
 10
313.4343504225249
 20
-506.6805435772862
  0
LINE
  5
1B3
330
A
100
AcDbEntity
  8
ADF70-2203
  6
STYLE_12
 62
     7
370
    15
390
1D
100
AcDbLine
 10
369.0349842491423
 20
-513.3719955580408
 30
0.0
 11
313.4343504225249
 21
-506.6805435772862
 31
0.0
  0
LWPOLYLINE
  5
1B4
330
A
100
AcDbEntity
  8
ADF70-2203
  6
STYLE_12
 62
     7
370
    15
390
1D
100
AcDbPolyline
 90
        4
 70
   128
 43
0.0
 10
376.8792284622718
 20
-516.8322497669437
 10
374.4572382672172
 20
-515.2175896369077
 10
371.8043141233325
 20
-514.0629198927539
 10
369.0349842491423
 20
-513.3719955580408
  0
LINE
  5
1B5
330
A
100
AcDbEntity
  8
ADF70-2203
  6
STYLE_13
 62
     7
370
    15
390
1D
100
AcDbLine
 10
388.1837268843042
 20
-526.2911541101091
 30
0.0
 11
388.8765287307961
 21
-557.8050451107372
 31
0.0
  0
LINE
  5
1B6
330
A
100
AcDbEntity
  8
ADF70-2203
  6
Continuous
 62
     7
370
    15
390
1D
100
AcDbLine
 10
264.0440755325462
 20
-422.9546390878094
 30
0.0
 11
314.2416804875425
 21
-560.8034314219789
 31
0.0
  0
LWPOLYLINE
  5
1B7
330
A
100
AcDbEntity
  8
ADF70-2203
  6
Continuous
 62
     7
370
    15
390
1D
100
AcDbPolyline
 90
        4
 70
   128
 43
0.0
 10
314.2416804875425
 20
-560.8034314219789
 10
314.8199541155095
 20
-561.8416954358278
 10
315.856340617579
 20
-562.5344972823201
 10
317.0110103617326
 20
-562.8799594496764
  0
LINE
  5
1B8
330
A
100
AcDbEntity
  8
ADF70-2203
  6
Continuous
 62
     7
370
    15
390
1D
100
AcDbLine
 10
212.2683832286421
 20
-422.8419883810628
 30
0.0
 11
212.8466568566087
 21
-422.9546390878094
 31
0.0
  0
LINE
  5
1B9
330
A
100
AcDbEntity
  8
ADF70-2203
  6
Continuous
 62
     7
370
    15
390
1D
100
AcDbLine
 10
211.9229210612857
 20
-422.3801204834014
 30
0.0
 11
212.2683832286421
 21
-422.8419883810628
 31
0.0
  0
LINE
  5
1BA
330
A
100
AcDbEntity
  8
ADF70-2203
  6
Continuous
 62
     7
370
    15
390
1D
100
AcDbLine
 10
211.80839284276
 20
-421.9182525857397
 30
0.0
 11
211.9229210612857
 21
-422.3801204834014
 31
0.0
  0
LINE
  5
1BB
330
A
100
AcDbEntity
  8
ADF70-2203
  6
Continuous
 62
     7
370
    15
390
1D
100
AcDbLine
 10
211.80839284276
 20
-421.9182525857397
 30
0.0
 11
212.0374492798114
 21
-408.8845658151455
 31
0.0
  0
LWPOLYLINE
  5
1BC
330
A
100
AcDbEntity
  8
ADF70-2203
  6
Continuous
 62
     7
370
    15
390
1D
100
AcDbPolyline
 90
        7
 70
   128
 43
0.0
 10
218.0360994140733
 20
-403.0004438994089
 10
216.5378450143421
 20
-403.1168496297138
 10
215.0377131028322
 20
-403.6913682341221
 10
213.8849208704573
 20
-404.6151040294452
 10
212.8466568566087
 20
-405.8843019921247
 10
212.2683832286421
 20
-407.266150661551
 10
212.0374492798114
 20
-408.8845658151455
  0
LINE
  5
1BD
330
A
100
AcDbEntity
  8
ADF70-2203
  6
STYLE_12
 62
     7
370
    15
390
1D
100
AcDbLine
 10
376.8792284622718
 20
-516.8322497669437
 30
0.0
 11
388.1837268843042
 21
-526.2911541101091
 31
0.0
  0
LINE
  5
1BE
330
A
100
AcDbEntity
  8
ADF70-2203
  6
Continuous
 62
     7
370
    15
390
1D
100
AcDbLine
 10
218.0360994140733
 20
-403.0004438994089
 30
0.0
 11
263.6014327813386
 21
-403.0004438994089
 31
0.0
  0
LWPOLYLINE
  5
1BF
330
A
100
AcDbEntity
  8
ADF70-2203
  6
STYLE_12
 62
     7
370
    15
390
1D
100
AcDbPolyline
 90
       26
 70
   128
 43
0.0
 10
302.7062481166799
 20
-498.0289692991391
 10
272.9458089059776
 20
-409.5754901498586
 42
0.0015738716112439
 10
272.8826108658104
 20
-409.4292764888639
 10
272.8063657969851
 20
-409.2543911114828
 42
0.0124912027008456
 10
272.5779721178178
 20
-408.7643123413162
 10
272.531138632552
 20
-408.6700431764502
 42
0.0094433579633119
 10
272.1842462862992
 20
-408.0036850319502
 10
272.1639292031887
 20
-407.966394009774
 42
0.0225952148815693
 10
271.731495998803
 20
-407.251557886837
 10
271.6546506485793
 20
-407.1365950723967
 42
0.026722194946256
 10
271.0553087594176
 20
-406.3360683344775
 10
271.0469732849947
 20
-406.3260932183348
 42
0.029443411357659
 10
270.3796897007887
 20
-405.6168993679389
 42
0.0297789135528828
 10
269.6333287064322
 20
-404.9915249149698
 10
269.5393402515965
 20
-404.9218547479329
 42
0.0275547720514077
 10
268.9139181383184
 20
-404.5095990880087
 42
0.0127702771312917
 10
268.2565386586302
 20
-404.1486289197049
 10
268.2380153424292
 20
-404.1390650029103
 42
0.0215490379504769
 10
267.52003815126
 20
-403.8067173869031
 10
267.5071338747584
 20
-403.8014064786158
 42
0.0092696861233476
 10
266.7434954507303
 20
-403.5035534507267
 10
266.6151946870636
 20
-403.4562314765498
 42
0.0147975440636999
 10
265.9667120705799
 20
-403.2386195907229
 10
265.7149551113375
 20
-403.1623473309871
 42
0.001232691346818
 10
265.5634325905107
 20
-403.1168496297138
 10
263.6014327813386
 20
-403.0004438994089
  0
LINE
  5
1C0
330
A
100
AcDbEntity
  8
ADF70-2203
  6
Continuous
 62
     7
370
    15
390
1D
100
AcDbLine
 10
590.2274632139752
 20
-412.9985663876298
 30
0.0
 11
590.2274632139752
 21
-402.9985663876298
 31
0.0
  0
LINE
  5
1C1
330
A
100
AcDbEntity
  8
ADF70-2203
  6
Continuous
 62
     7
370
    15
390
1D
100
AcDbLine
 10
623.6809680941901
 20
-412.9985663876298
 30
0.0
 11
623.6809680941901
 21
-402.9985663876298
 31
0.0
  0
LINE
  5
1C2
330
A
100
AcDbEntity
  8
ADF70-2203
  6
STYLE_12
 62
     7
370
    15
390
1D
100
AcDbLine
 10
446.784624533942
 20
-516.8322497669437
 30
0.0
 11
435.4801261119096
 21
-526.2911541101091
 31
0.0
  0
LINE
  5
1C3
330
A
100
AcDbEntity
  8
ADF70-2203
  6
STYLE_12
 62
     7
370
    15
390
1D
100
AcDbLine
 10
435.3556832966606
 20
-526.2911541101091
 30
0.0
 11
434.7873242654177
 21
-557.8050451107372
 31
0.0
  0
LWPOLYLINE
  5
1C4
330
A
100
AcDbEntity
  8
ADF70-2203
  6
Continuous
 62
     7
370
    15
390
1D
100
AcDbPolyline
 90
        3
 70
   128
 43
0.0
 10
-716.8482978075317
 20
-422.8396669698748
 10
-716.3873686657589
 20
-422.9541951884006
 10
-709.1195205688164
 20
-422.9541951884006
  0
POLYLINE
  5
1C5
330
A
100
AcDbEntity
  8
ADF70-2203
  6
Continuous
 62
     9
370
    15
390
1D
100
AcDb2dPolyline
 66
     1
 10
0.0
 20
0.0
 30
0.0
 70
     1
 75
     5
  0
VERTEX
  5
1C6
330
1C5
100
AcDbEntity
  8
ADF70-2203
  6
Continuous
 62
     9
370
    15
390
1D
100
AcDbVertex
100
AcDb2dVertex
 10
-716.8482978075317
 20
-422.8396669698748
 30
0.0
  0
VERTEX
  5
1C7
330
1C5
100
AcDbEntity
  8
ADF70-2203
  6
Continuous
 62
     9
370
    15
390
1D
100
AcDbVertex
100
AcDb2dVertex
 10
-716.3873686657589
 20
-422.9541951884006
 30
0.0
  0
VERTEX
  5
1C8
330
1C5
100
AcDbEntity
  8
ADF70-2203
  6
Continuous
 62
     9
370
    15
390
1D
100
AcDbVertex
100
AcDb2dVertex
 10
-709.1195205688164
 20
-422.9541951884006
 30
0.0
  0
SEQEND
  5
1C9
330
1C5
100
AcDbEntity
  8
ADF70-2203
  6
Continuous
 62
     9
370
    15
390
1D
  0
LWPOLYLINE
  5
1CA
330
A
100
AcDbEntity
  8
ADF70-2203
  6
Continuous
 62
     7
370
    15
390
1D
100
AcDbPolyline
 90
        3
 70
   128
 43
0.0
 10
-191.8697192029558
 20
-403.0
 10
-193.3717286262454
 20
-403.1145282185258
 10
-142.1532072920745
 20
-403.1145282185258
  0
POLYLINE
  5
1CB
330
A
100
AcDbEntity
  8
ADF70-2203
  6
Continuous
 62
     9
370
    15
390
1D
100
AcDb2dPolyline
 66
     1
 10
0.0
 20
0.0
 30
0.0
 70
     1
 75
     5
  0
VERTEX
  5
1CC
330
1CB
100
AcDbEntity
  8
ADF70-2203
  6
Continuous
 62
     9
370
    15
390
1D
100
AcDbVertex
100
AcDb2dVertex
 10
-191.8697192029558
 20
-403.0
 30
0.0
  0
VERTEX
  5
1CD
330
1CB
100
AcDbEntity
  8
ADF70-2203
  6
Continuous
 62
     9
370
    15
390
1D
100
AcDbVertex
100
AcDb2dVertex
 10
-193.3717286262454
 20
-403.1145282185258
 30
0.0
  0
VERTEX
  5
1CE
330
1CB
100
AcDbEntity
  8
ADF70-2203
  6
Continuous
 62
     9
370
    15
390
1D
100
AcDbVertex
100
AcDb2dVertex
 10
-142.1532072920745
 20
-403.1145282185258
 30
0.0
  0
SEQEND
  5
1CF
330
1CB
100
AcDbEntity
  8
ADF70-2203
  6
Continuous
 62
     9
370
    15
390
1D
  0
LWPOLYLINE
  5
1D0
330
A
100
AcDbEntity
  8
ADF70-2203
  6
Continuous
 62
     7
370
    15
390
1D
100
AcDbPolyline
 90
        3
 70
   128
 43
0.0
 10
-191.8697192029558
 20
-403.0
 10
-143.5388109850592
 20
-403.0
 10
-142.1532072920745
 20
-403.1145282185258
  0
POLYLINE
  5
1D1
330
A
100
AcDbEntity
  8
ADF70-2203
  6
Continuous
 62
     9
370
    15
390
1D
100
AcDb2dPolyline
 66
     1
 10
0.0
 20
0.0
 30
0.0
 70
     1
 75
     5
  0
VERTEX
  5
1D2
330
1D1
100
AcDbEntity
  8
ADF70-2203
  6
Continuous
 62
     9
370
    15
390
1D
100
AcDbVertex
100
AcDb2dVertex
 10
-191.8697192029558
 20
-403.0
 30
0.0
  0
VERTEX
  5
1D3
330
1D1
100
AcDbEntity
  8
ADF70-2203
  6
Continuous
 62
     9
370
    15
390
1D
100
AcDbVertex
100
AcDb2dVertex
 10
-143.5388109850592
 20
-403.0
 30
0.0
  0
VERTEX
  5
1D4
330
1D1
100
AcDbEntity
  8
ADF70-2203
  6
Continuous
 62
     9
370
    15
390
1D
100
AcDbVertex
100
AcDb2dVertex
 10
-142.1532072920745
 20
-403.1145282185258
 30
0.0
  0
SEQEND
  5
1D5
330
1D1
100
AcDbEntity
  8
ADF70-2203
  6
Continuous
 62
     9
370
    15
390
1D
  0
LINE
  5
1D6
330
A
100
AcDbEntity
  8
ADF70-2203
  6
Continuous
 62
     7
370
    15
390
1D
100
AcDbLine
 10
-193.3717286262454
 20
-403.1145282185258
 30
0.0
 11
-142.0368015617696
 21
-403.1145282185258
 31
0.0
  0
LINE
  5
1D7
330
A
100
AcDbEntity
  8
ADF70-2203
  6
Continuous
 62
     7
370
    15
390
1D
100
AcDbLine
 10
-193.3717286262454
 20
-403.1145282185258
 30
0.0
 11
-142.0368015617696
 21
-403.1145282185258
 31
0.0
  0
LINE
  5
1D8
330
A
100
AcDbEntity
  8
ADF70-2203
  6
Continuous
 62
     7
370
    15
390
1D
100
AcDbLine
 10
-662.7468571365334
 20
-403.0
 30
0.0
 11
-191.8697192029558
 21
-403.0
 31
0.0
  0
SPLINE
  5
1D9
330
A
100
AcDbEntity
  8
ADF70-2203
  6
STYLE_12
 62
     7
370
    15
390
1D
100
AcDbSpline
210
0.0
220
0.0
230
1.0
 70
    12
 71
     2
 72
    38
 73
    35
 74
     0
 42
0.000000001
 43
0.000001
 40
0.0
 40
0.0
 40
0.0
 40
1.0
 40
1.0
 40
2.0
 40
2.0
 40
3.0
 40
3.0
 40
4.0
 40
4.0
 40
5.0
 40
5.0
 40
6.0
 40
6.0
 40
7.0
 40
7.0
 40
8.0
 40
8.0
 40
9.0
 40
9.0
 40
10.0
 40
10.0
 40
11.0
 40
11.0
 40
12.0
 40
12.0
 40
13.0
 40
13.0
 40
14.0
 40
14.0
 40
15.0
 40
15.0
 40
16.0
 40
16.0
 40
17.0
 40
17.0
 40
17.0
 10
-427.3087575476893
 20
-513.3715516586319
 30
0.0
 41
1.0
 10
-423.1561708702393
 20
-513.3715516586319
 30
0.0
 41
1.0
 10
-419.0035841927893
 20
-513.3715516586319
 30
0.0
 41
1.0
 10
-418.8294410263534
 20
-513.370425065286
 30
0.0
 41
1.0
 10
-417.5232825279527
 20
-513.3632793865728
 30
0.0
 41
1.0
 10
-416.217124029592
 20
-513.3561337078594
 30
0.0
 41
0.999990459586636
 10
-414.9109529498837
 20
-513.3603991867926
 30
0.0
 41
1.0
 10
-414.3449625843205
 20
-513.362247505147
 30
0.0
 41
1.0
 10
-413.7789722187581
 20
-513.3640958235015
 30
0.0
 41
1.0
 10
-412.3853667765961
 20
-513.3686468312118
 30
0.0
 41
0.9999983113355153
 10
-410.9917874746725
 20
-513.3783199985237
 30
0.0
 41
1.0
 10
-409.5981399270113
 20
-513.3879938328056
 30
0.0
 41
0.9999989978335058
 10
-408.204525357326
 20
-513.4016136974192
 30
0.0
 41
1.0
 10
-406.8107977245654
 20
-513.4152347521667
 30
0.0
 41
0.9999995487489957
 10
-405.4170984861094
 20
-513.4315037782114
 30
0.0
 41
1.0
 10
-404.0233544307011
 20
-513.447773327417
 30
0.0
 41
0.999999877229578
 10
-402.629627165571
 20
-513.4654227440701
 30
0.0
 41
1.0
 10
-401.2358177894639
 20
-513.483073200533
 30
0.0
 41
1.0
 10
-399.8420084133577
 20
-513.5007236569959
 30
0.0
 41
1.0
 10
-398.4483494840169
 20
-513.5183722082811
 30
0.0
 41
0.9999999051009059
 10
-397.0546756811227
 20
-513.5348044538434
 30
0.0
 41
1.0
 10
-395.6610697256183
 20
-513.5512358994434
 30
0.0
 41
0.9999995848568196
 10
-394.2674361397185
 20
-513.5651276459688
 30
0.0
 41
1.0
 10
-392.8739620757588
 20
-513.5790176787305
 30
0.0
 41
0.9999990521833564
 10
-391.4804550465278
 20
-513.5890705347848
 30
0.0
 41
1.0
 10
-390.0870396927203
 20
-513.5991224770264
 30
0.0
 41
0.9999983762604537
 10
-388.6935971605453
 20
-513.6041522888204
 30
0.0
 41
1.0
 10
-388.2147642986702
 20
-513.6058806982242
 30
0.0
 41
1.0
 10
-387.735931436795
 20
-513.6076091076278
 30
0.0
 41
1.0
 10
-386.6041103104581
 20
-513.6116945629794
 30
0.0
 41
0.9999932849632642
 10
-385.4722896410758
 20
-513.6074843947918
 30
0.0
 41
1.0
 10
-384.3404689717354
 20
-513.6032742266038
 30
0.0
 41
1.0
 10
-384.1663531313679
 20
-513.6024856074628
 30
0.0
 41
1.0
 10
-384.0508861569533
 20
-513.6606884726151
 30
0.0
 41
1.0
 10
-383.9354191825387
 20
-513.7188913377674
 30
0.0
 41
1.0
  0
LINE
  5
1DA
330
A
100
AcDbEntity
  8
ADF70-2203
  6
Continuous
 62
     7
370
    15
390
1D
100
AcDbLine
 10
-709.1195205688164
 20
-422.9541951884006
 30
0.0
 11
-138.3456134040371
 21
-422.9541951884006
 31
0.0
  0
LINE
  5
1DB
330
A
100
AcDbEntity
  8
ADF70-2203
  6
Continuous
 62
     7
370
    15
390
1D
100
AcDbLine
 10
-242.5099669091614
 20
-563.0
 30
0.0
 11
-612.1066094303296
 21
-563.0
 31
0.0
  0
LINE
  5
1DC
330
A
100
AcDbEntity
  8
ADF70-2203
  6
STYLE_12
 62
     7
370
    15
390
1D
100
AcDbLine
 10
-450.9569571614938
 20
-526.2907102107004
 30
0.0
 11
-403.661496689776
 21
-526.2907102107004
 31
0.0
  0
LINE
  5
1DD
330
A
100
AcDbEntity
  8
ADF70-2203
  6
STYLE_12
 62
     7
370
    15
390
1D
100
AcDbLine
 10
-450.2641553150006
 20
-557.8046012113284
 30
0.0
 11
-404.3533597803798
 21
-557.8046012113284
 31
0.0
  0
SPLINE
  5
1DE
330
A
100
AcDbEntity
  8
ADF70-2203
  6
STYLE_12
 62
     7
370
    15
390
1D
100
AcDbSpline
210
0.0
220
0.0
230
1.0
 70
    12
 71
     2
 72
    38
 73
    35
 74
     0
 42
0.000000001
 43
0.000001
 40
0.0
 40
0.0
 40
0.0
 40
1.0
 40
1.0
 40
2.0
 40
2.0
 40
3.0
 40
3.0
 40
4.0
 40
4.0
 40
5.0
 40
5.0
 40
6.0
 40
6.0
 40
7.0
 40
7.0
 40
8.0
 40
8.0
 40
9.0
 40
9.0
 40
10.0
 40
10.0
 40
11.0
 40
11.0
 40
12.0
 40
12.0
 40
13.0
 40
13.0
 40
14.0
 40
14.0
 40
15.0
 40
15.0
 40
16.0
 40
16.0
 40
17.0
 40
17.0
 40
17.0
 10
-427.3087575476893
 20
-513.3715516586319
 30
0.0
 41
1.0
 10
-431.519077712348
 20
-513.3715516586319
 30
0.0
 41
1.0
 10
-435.7293978770067
 20
-513.3715516586319
 30
0.0
 41
1.0
 10
-435.9035409344378
 20
-513.3704532308072
 30
0.0
 41
1.0
 10
-437.2097001882021
 20
-513.3635081553807
 30
0.0
 41
1.0
 10
-438.5158594419463
 20
-513.3565630799545
 30
0.0
 41
0.9999906315522055
 10
-439.8220298736023
 20
-513.360925850017
 30
0.0
 41
1.0
 10
-440.3880198898996
 20
-513.3628163263585
 30
0.0
 41
1.0
 10
-440.9540099061969
 20
-513.3647068027
 30
0.0
 41
1.0
 10
-442.3476152995045
 20
-513.3693616163005
 30
0.0
 41
0.9999983446336187
 10
-443.7411945259137
 20
-513.3790878411517
 30
0.0
 41
1.0
 10
-445.1348418892521
 20
-513.3888145415517
 30
0.0
 41
0.9999990193168985
 10
-446.5284565418324
 20
-513.4024447574402
 30
0.0
 41
1.0
 10
-447.9221839778456
 20
-513.4160758855352
 30
0.0
 41
0.9999995602903569
 10
-449.3158833974394
 20
-513.4323209162912
 30
0.0
 41
1.0
 10
-450.7096274630139
 20
-513.448566383699
 30
0.0
 41
0.9999998834793318
 10
-452.1033551930568
 20
-513.4661576514835
 30
0.0
 41
1.0
 10
-453.4971644682282
 20
-513.4837499485093
 30
0.0
 41
1.0
 10
-454.8909737434005
 20
-513.5013422455352
 30
0.0
 41
1.0
 10
-456.2846325729206
 20
-513.518932643675
 30
0.0
 41
0.9999999020738417
 10
-457.6783064202846
 20
-513.5352899777713
 30
0.0
 41
1.0
 10
-459.0719124834332
 20
-513.5516466398266
 30
0.0
 41
0.999999584909744
 10
-460.4655460393933
 20
-513.5654637068235
 30
0.0
 41
1.0
 10
-461.8590202556279
 20
-513.5792794456142
 30
0.0
 41
0.9999990563900094
 10
-463.252527171514
 20
-513.589266503478
 30
0.0
 41
1.0
 10
-464.6459425319481
 20
-513.5992529051773
 30
0.0
 41
0.9999983871660362
 10
-466.0393847743726
 20
-513.6042340732729
 30
0.0
 41
1.0
 10
-466.5182174986894
 20
-513.6059457669598
 30
0.0
 41
1.0
 10
-466.9970502230053
 20
-513.6076574606468
 30
0.0
 41
1.0
 10
-468.1288716362724
 20
-513.6117034071103
 30
0.0
 41
0.999993341653908
 10
-469.2606924340853
 20
-513.6074888165541
 30
0.0
 41
1.0
 10
-470.3925132319182
 20
-513.6032742259974
 30
0.0
 41
1.0
 10
-470.5666289384262
 20
-513.6024856074628
 30
0.0
 41
1.0
 10
-470.6820959128418
 20
-513.6606884726151
 30
0.0
 41
1.0
 10
-470.7975628872573
 20
-513.7188913377674
 30
0.0
 41
1.0
  0
LWPOLYLINE
  5
1DF
330
A
100
AcDbEntity
  8
ADF70-2203
  6
STYLE_12
 62
     7
370
    15
390
1D
100
AcDbPolyline
 90
        8
 70
   128
 43
0.0
 10
-450.2641553150006
 20
-557.8046012113284
 10
-450.9569571614938
 20
-526.2907102107004
 10
-461.9150546602796
 20
-517.1772680348915
 10
-463.8761157135614
 20
-515.7954193654652
 10
-466.0681107156743
 20
-514.6407496213114
 10
-468.3755726922027
 20
-513.9479477748191
 10
-470.7975628872573
 20
-513.7188913377674
 10
-615.4523354207067
 20
-506.1037035616901
  0
LWPOLYLINE
  5
1E0
330
A
100
AcDbEntity
  8
ADF70-2203
  6
STYLE_12
 62
     7
370
    15
390
1D
100
AcDbPolyline
 90
        7
 70
   128
 43
0.0
 10
-626.525899893908
 20
-497.9139971812042
 10
-625.4876358800593
 20
-500.1069309392069
 10
-623.9884427244397
 20
-502.0670532365996
 10
-622.2573768640978
 20
-503.6817133666357
 10
-620.1817875922898
 20
-504.9509113293154
 10
-617.8743256157613
 20
-505.7582413943334
 10
-615.4523354207067
 20
-506.1037035616901
  0
LINE
  5
1E1
330
A
100
AcDbEntity
  8
ADF70-2203
  6
Continuous
 62
     7
370
    15
390
1D
100
AcDbLine
 10
-716.3873686657589
 20
-422.9541951884006
 30
0.0
 11
-709.1195205688164
 21
-422.9541951884006
 31
0.0
  0
LINE
  5
1E2
330
A
100
AcDbEntity
  8
ADF70-2203
  6
Continuous
 62
     7
370
    15
390
1D
100
AcDbLine
 10
-716.8482978075317
 20
-422.8396669698748
 30
0.0
 11
-716.3873686657589
 21
-422.9541951884006
 31
0.0
  0
LINE
  5
1E3
330
A
100
AcDbEntity
  8
ADF70-2203
  6
Continuous
 62
     7
370
    15
390
1D
100
AcDbLine
 10
-717.1946987307765
 20
-422.3796765839924
 30
0.0
 11
-716.8482978075317
 21
-422.8396669698748
 31
0.0
  0
LINE
  5
1E4
330
A
100
AcDbEntity
  8
ADF70-2203
  6
Continuous
 62
     7
370
    15
390
1D
100
AcDbLine
 10
-717.3092269493027
 20
-421.9178086863308
 30
0.0
 11
-717.1946987307765
 21
-422.3796765839924
 31
0.0
  0
LINE
  5
1E5
330
A
100
AcDbEntity
  8
ADF70-2203
  6
Continuous
 62
     7
370
    15
390
1D
100
AcDbLine
 10
-717.079231756361
 20
-408.8822444039573
 30
0.0
 11
-717.3092269493027
 21
-421.9178086863308
 31
0.0
  0
LINE
  5
1E6
330
A
100
AcDbEntity
  8
ADF70-2203
  6
Continuous
 62
     7
370
    15
390
1D
100
AcDbLine
 10
-716.8482978075317
 20
-407.2675842739212
 30
0.0
 11
-717.079231756361
 21
-408.8822444039573
 31
0.0
  0
LINE
  5
1E7
330
A
100
AcDbEntity
  8
ADF70-2203
  6
Continuous
 62
     7
370
    15
390
1D
100
AcDbLine
 10
-716.2719016913434
 20
-405.8838580927157
 30
0.0
 11
-716.8482978075317
 21
-407.2675842739212
 31
0.0
  0
LINE
  5
1E8
330
A
100
AcDbEntity
  8
ADF70-2203
  6
Continuous
 62
     7
370
    15
390
1D
100
AcDbLine
 10
-715.3491046519102
 20
-404.6146601300362
 30
0.0
 11
-716.2719016913434
 21
-405.8838580927157
 31
0.0
  0
LINE
  5
1E9
330
A
100
AcDbEntity
  8
ADF70-2203
  6
Continuous
 62
     7
370
    15
390
1D
100
AcDbLine
 10
-714.0799066892305
 20
-403.6909243347133
 30
0.0
 11
-715.3491046519102
 21
-404.6146601300362
 31
0.0
  0
LINE
  5
1EA
330
A
100
AcDbEntity
  8
ADF70-2203
  6
Continuous
 62
     7
370
    15
390
1D
100
AcDbLine
 10
-712.6952417521352
 20
-403.1145282185258
 30
0.0
 11
-714.0799066892305
 21
-403.6909243347133
 31
0.0
  0
LINE
  5
1EB
330
A
100
AcDbEntity
  8
ADF70-2203
  6
Continuous
 62
     7
370
    15
390
1D
100
AcDbLine
 10
-711.0805816221
 20
-403.0
 30
0.0
 11
-712.6952417521352
 21
-403.1145282185258
 31
0.0
  0
LINE
  5
1EC
330
A
100
AcDbEntity
  8
ADF70-2203
  6
Continuous
 62
     7
370
    15
390
1D
100
AcDbLine
 10
-662.7468571365334
 20
-403.0
 30
0.0
 11
-711.0805816221
 21
-403.0
 31
0.0
  0
LINE
  5
1ED
330
A
100
AcDbEntity
  8
ADF70-2203
  6
STYLE_12
 62
     7
370
    15
390
1D
100
AcDbLine
 10
-661.3631309553293
 20
-403.1145282185258
 30
0.0
 11
-662.7468571365334
 21
-403.0
 31
0.0
  0
LINE
  5
1EE
330
A
100
AcDbEntity
  8
ADF70-2203
  6
STYLE_12
 62
     7
370
    15
390
1D
100
AcDbLine
 10
-659.978466018234
 20
-403.6909243347133
 30
0.0
 11
-661.3631309553293
 21
-403.1145282185258
 31
0.0
  0
LINE
  5
1EF
330
A
100
AcDbEntity
  8
ADF70-2203
  6
STYLE_12
 62
     7
370
    15
390
1D
100
AcDbLine
 10
-658.8247350299698
 20
-404.4982543997313
 30
0.0
 11
-659.978466018234
 21
-403.6909243347133
 31
0.0
  0
LINE
  5
1F0
330
A
100
AcDbEntity
  8
ADF70-2203
  6
STYLE_12
 62
     7
370
    15
390
1D
100
AcDbLine
 10
-657.7864710161211
 20
-405.5365184135802
 30
0.0
 11
-658.8247350299698
 21
-404.4982543997313
 31
0.0
  0
LINE
  5
1F1
330
A
100
AcDbEntity
  8
ADF70-2203
  6
STYLE_12
 62
     7
370
    15
390
1D
100
AcDbLine
 10
-657.0946079255173
 20
-406.9202445947855
 30
0.0
 11
-657.7864710161211
 21
-405.5365184135802
 31
0.0
  0
LINE
  5
1F2
330
A
100
AcDbEntity
  8
ADF70-2203
  6
STYLE_12
 62
     7
370
    15
390
1D
100
AcDbLine
 10
-626.525899893908
 20
-491.0139971812042
 30
0.0
 11
-657.0946079255173
 21
-406.9202445947855
 31
0.0
  0
POLYLINE
  5
1F3
330
A
100
AcDbEntity
  8
ADF70-2203
  6
Continuous
 62
     7
370
    15
390
1D
100
AcDb2dPolyline
 66
     1
 10
0.0
 20
0.0
 30
0.0
 75
     5
  0
VERTEX
  5
1F4
330
1F3
100
AcDbEntity
  8
ADF70-2203
  6
Continuous
 62
     7
370
    15
390
1D
100
AcDbVertex
100
AcDb2dVertex
 10
-665.0788632696076
 20
-422.9541951884005
 30
0.0
  0
VERTEX
  5
1F5
330
1F3
100
AcDbEntity
  8
ADF70-2203
  6
Continuous
 62
     7
370
    15
390
1D
100
AcDbVertex
100
AcDb2dVertex
 10
-614.9904675230464
 20
-561.0366546293891
 30
0.0
  0
VERTEX
  5
1F6
330
1F3
100
AcDbEntity
  8
ADF70-2203
  6
Continuous
 62
     7
370
    15
390
1D
100
AcDbVertex
100
AcDb2dVertex
 10
-614.2986044324425
 20
-562.0747452851144
 30
0.0
  0
VERTEX
  5
1F7
330
1F3
100
AcDbEntity
  8
ADF70-2203
  6
Continuous
 62
     7
370
    15
390
1D
100
AcDbVertex
100
AcDb2dVertex
 10
-613.2603404185938
 20
-562.7686863212787
 30
0.0
  0
VERTEX
  5
1F8
330
1F3
100
AcDbEntity
  8
ADF70-2203
  6
Continuous
 62
     7
370
    15
390
1D
100
AcDbVertex
100
AcDb2dVertex
 10
-612.1066094303296
 20
-563.0
 30
0.0
  0
SEQEND
  5
1F9
330
1F3
100
AcDbEntity
  8
ADF70-2203
  6
Continuous
 62
     7
370
    15
390
1D
  0
LWPOLYLINE
  5
1FA
330
A
100
AcDbEntity
  8
ADF70-2203
  6
STYLE_12
 62
     7
370
    15
390
1D
100
AcDbPolyline
 90
        3
 70
   128
 43
0.0
 10
-404.3533597803798
 20
-557.8046012113284
 10
-403.661496689776
 20
-526.2907102107004
 10
-392.7024604351009
 20
-517.1772680348915
  0
LWPOLYLINE
  5
1FB
330
A
100
AcDbEntity
  8
ADF70-2203
  6
Continuous
 62
     7
370
    15
390
1D
100
AcDbPolyline
 90
        5
 70
   128
 43
0.0
 10
-383.9354191825387
 20
-513.7188913377674
 10
-386.3583481334827
 20
-513.9479477748191
 10
-388.6648713541199
 20
-514.6407496213114
 10
-390.7413993818191
 20
-515.7954193654652
 10
-392.7024604351009
 20
-517.1772680348915
  0
LWPOLYLINE
  5
1FC
330
A
100
AcDbEntity
  8
ADF70-2203
  6
STYLE_13
 62
     7
370
    15
390
1D
100
AcDbPolyline
 90
       24
 70
   128
 43
0.0
 10
-383.9354191825387
 20
-513.7188913377674
 10
-239.1661184305631
 20
-506.1037035616901
 42
0.0068242626709679
 10
-238.9219462396659
 20
-506.0960903905844
 10
-238.6137615541766
 20
-506.0822689963658
 42
0.036494066158133
 10
-237.7607007912102
 20
-505.9813339455247
 10
-237.5762786600526
 20
-505.9457264284118
 42
0.0227038963115889
 10
-236.3748836502864
 20
-505.6566491675147
 10
-236.243567296423
 20
-505.6186710683678
 42
0.0414646499636156
 10
-234.8372360222238
 20
-505.0822298485175
 10
-234.5998381684431
 20
-504.9683452064141
 42
0.0384132092170923
 10
-232.8414705819787
 20
-503.9520190592222
 10
-232.6220543872896
 20
-503.8016278940339
 42
0.0377704059548293
 10
-231.4251815634971
 20
-502.8409177468851
 10
-231.4198577871939
 20
-502.8359394075062
 42
0.0191141740853426
 10
-230.3476985784018
 20
-501.7536421712061
 10
-230.3429207566196
 20
-501.748435457115
 42
0.040847836223257
 10
-229.4189639327869
 20
-500.5599403615327
 10
-229.3440227664878
 20
-500.4453479956311
 42
0.0219899307425045
 10
-228.7139629675521
 20
-499.3827048515152
 10
-228.6250162107926
 20
-499.2164367522122
 42
0.0358210473604787
 10
-228.2757669006578
 20
-498.4335533592202
 10
-228.1707735181963
 20
-498.1441267990242
 42
0.0065308354241214
 10
-228.0906764455813
 20
-497.9139971812042
 10
-197.5229071698614
 20
-406.9202445947855
  0
LWPOLYLINE
  5
1FD
330
A
100
AcDbEntity
  8
ADF70-2203
  6
Continuous
 62
     7
370
    15
390
1D
100
AcDbPolyline
 90
        6
 70
   128
 43
0.0
 10
-191.8697192029558
 20
-403.0
 10
-193.3717286262454
 20
-403.1145282185258
 10
-194.7535772956726
 20
-403.6909243347133
 10
-195.9082470398262
 20
-404.4982543997313
 10
-196.8301053233699
 20
-405.5365184135802
 10
-197.5229071698614
 20
-406.9202445947855
  0
LINE
  5
1FE
330
A
100
AcDbEntity
  8
ADF70-2203
  6
Continuous
 62
     7
370
    15
390
1D
100
AcDbLine
 10
-191.8697192029558
 20
-403.0
 30
0.0
 11
-143.5388109850592
 21
-403.0
 31
0.0
  0
LWPOLYLINE
  5
1FF
330
A
100
AcDbEntity
  8
ADF70-2203
  6
Continuous
 62
     7
370
    15
390
1D
100
AcDbPolyline
 90
        7
 70
   128
 43
0.0
 10
-137.5382833390177
 20
-408.8822444039573
 10
-137.7710947996275
 20
-407.2675842739212
 10
-138.3456134040371
 20
-405.8838580927157
 10
-139.3857549296645
 20
-404.6146601300362
 10
-140.5385471620393
 20
-403.6909243347133
 10
-142.0368015617696
 20
-403.1145282185258
 10
-143.5388109850592
 20
-403.0
  0
LINE
  5
200
330
A
100
AcDbEntity
  8
ADF70-2203
  6
Continuous
 62
     7
370
    15
390
1D
100
AcDbLine
 10
-137.5382833390177
 20
-408.8822444039573
 30
0.0
 11
-137.3092269019671
 21
-421.9178086863308
 31
0.0
  0
LWPOLYLINE
  5
201
330
A
100
AcDbEntity
  8
ADF70-2203
  6
Continuous
 62
     7
370
    15
390
1D
100
AcDbPolyline
 90
        4
 70
   128
 43
0.0
 10
-138.3456134040371
 20
-422.9541951884006
 10
-137.8837455063749
 20
-422.8396669698748
 10
-137.4218776087127
 20
-422.3796765839924
 10
-137.3092269019671
 20
-421.9178086863308
  0
LINE
  5
202
330
A
100
AcDbEntity
  8
ADF70-2203
  6
Continuous
 62
     7
370
    15
390
1D
100
AcDbLine
 10
-189.5407608742426
 20
-422.9541951884005
 30
0.0
 11
-239.7425145467496
 21
-561.0380001908281
 31
0.0
  0
LWPOLYLINE
  5
203
330
A
100
AcDbEntity
  8
ADF70-2203
  6
Continuous
 62
     7
370
    15
390
1D
100
AcDbPolyline
 90
        4
 70
   128
 43
0.0
 10
-242.5099669091614
 20
-563.0
 10
-241.3571746767866
 20
-562.7690660511694
 10
-240.3207881747167
 20
-562.076264204677
 10
-239.7425145467496
 20
-561.0380001908281
  0
DIMENSION
  5
204
330
A
100
AcDbEntity
  8
ADF70-2203
  6
Continuous
 62
     7
370
     5
390
1D
100
AcDbDimension
  2
*D17
 10
855.2291584121381
 20
810.0
 30
0.0
 11
860.2291584121381
 21
827.0
 31
0.0
 70
   128
 71
     5
 42
0.0
 73
     0
 74
     0
 75
     0
  3
tform線あり
100
AcDbAlignedDimension
 13
711.9841597456721
 23
780.0
 33
0.0
 14
729.9646995643157
 24
810.0
 34
0.0
 50
90.0
100
AcDbRotatedDimension
1001
ACAD
1000
DSTYLE
1002
{
1070
   279
1070
     2
1070
   340
1005
36
1070
   174
1070
     0
1070
   147
1040
5.0
1002
}
  0
DIMENSION
  5
205
330
A
100
AcDbEntity
  8
ADF70-2203
  6
Continuous
 62
     7
370
     5
390
1D
100
AcDbDimension
  2
*D18
 10
710.0009387558898
 20
262.5036093178148
 30
0.0
 11
766.3322091310515
 21
267.5036093178148
 31
0.0
 70
   128
 71
     5
 42
0.0
 73
     0
 74
     0
 75
     0
  3
tform線あり
100
AcDbAlignedDimension
 13
740.0009387558898
 23
371.9924743100501
 33
0.0
 14
710.0009387558898
 24
390.0018046589075
 34
0.0
100
AcDbRotatedDimension
1001
ACAD
1000
DSTYLE
1002
{
1070
   279
1070
     2
1070
   340
1005
36
1070
   174
1070
     0
1070
   147
1040
5.0
1002
}
  0
DIMENSION
  5
206
330
A
100
AcDbEntity
  8
ADF70-2203
  6
Continuous
 62
     7
370
     5
390
1D
100
AcDbDimension
  2
*D19
 10
314.2436823514577
 20
-639.375
 30
0.0
 11
444.0
 21
-634.375
 31
0.0
 70
   128
 71
     5
 42
0.0
 73
     0
 74
     0
 75
     0
  3
tform線あり
100
AcDbAlignedDimension
 13
559.2436823514577
 23
-562.5344972823201
 33
0.0
 14
314.2436823514577
 24
-562.8799594496764
 34
0.0
100
AcDbRotatedDimension
1001
ACAD
1000
DSTYLE
1002
{
1070
   279
1070
     2
1070
   340
1005
36
1070
   147
1040
5.0
1002
}
  0
ENDSEC
  0
SECTION
  2
OBJECTS
  0
DICTIONARY
  5
19
330
0
100
AcDbDictionary
281
     1
  3
ACAD_DETAILVIEWSTYLE
350
254
  3
ACAD_GROUP
350
1A
  3
ACAD_IMAGE_VARS
350
24A
  3
ACAD_LAYOUT
350
1E
  3
ACAD_MATERIAL
350
242
  3
ACAD_MLEADERSTYLE
350
252
  3
ACAD_MLINESTYLE
350
1B
  3
ACAD_PLOTSETTINGS
350
22
  3
ACAD_PLOTSTYLENAME
350
1F
  3
ACAD_SCALELIST
350
207
  3
ACAD_SECTIONVIEWSTYLE
350
255
  3
ACAD_TABLESTYLE
350
246
  3
ACAD_VISUALSTYLE
350
229
  3
ACDB_RECOMPOSE_DATA
350
259
  3
AcDbVariableDictionary
350
24B
  3
APPDATA
350
248
  0
SUN
  5
249
330
15
100
AcDbSun
 90
        1
290
     0
 63
     7
421
 16777215
 40
1.0
291
     1
 91
  2455826
 92
 54000000
292
     0
 70
     2
 71
   256
280
     1
  0
DICTIONARY
  5
254
102
{ACAD_REACTORS
330
19
102
}
330
19
100
AcDbDictionary
281
     1
  0
DICTIONARY
  5
1A
102
{ACAD_REACTORS
330
19
102
}
330
19
100
AcDbDictionary
281
     1
  0
RASTERVARIABLES
  5
24A
102
{ACAD_REACTORS
330
19
102
}
330
19
100
AcDbRasterVariables
 90
        0
 70
     1
 71
     1
 72
     1
  0
DICTIONARY
  5
1E
102
{ACAD_REACTORS
330
19
102
}
330
19
100
AcDbDictionary
281
     1
  3
Layout1
350
21
  3
Model
350
20
  0
DICTIONARY
  5
242
102
{ACAD_REACTORS
330
19
102
}
330
19
100
AcDbDictionary
281
     1
  3
ByBlock
350
244
  3
ByLayer
350
243
  3
Global
350
245
  0
DICTIONARY
  5
252
102
{ACAD_REACTORS
330
19
102
}
330
19
100
AcDbDictionary
281
     1
  0
DICTIONARY
  5
1B
102
{ACAD_REACTORS
330
19
102
}
330
19
100
AcDbDictionary
281
     1
  3
Standard
350
1C
  0
DICTIONARY
  5
22
102
{ACAD_REACTORS
330
19
102
}
330
19
100
AcDbDictionary
281
     1
  0
ACDBDICTIONARYWDFLT
  5
1F
102
{ACAD_REACTORS
330
19
102
}
330
19
100
AcDbDictionary
281
     1
  3
Normal
350
1D
100
AcDbDictionaryWithDefault
340
1D
  0
DICTIONARY
  5
207
102
{ACAD_REACTORS
330
19
102
}
330
19
100
AcDbDictionary
281
     1
  3
A0
350
208
  3
A1
350
209
  3
A2
350
20A
  3
A3
350
20B
  3
A4
350
20C
  3
A5
350
20D
  3
A6
350
20E
  3
A7
350
20F
  3
A8
350
210
  3
A9
350
211
  3
B0
350
212
  3
B1
350
213
  3
B2
350
214
  3
B3
350
215
  3
B4
350
216
  3
B5
350
217
  3
B6
350
218
  3
B7
350
219
  3
B8
350
21A
  3
B9
350
21B
  3
C0
350
21C
  3
C1
350
21D
  3
C2
350
21E
  3
C3
350
21F
  3
C4
350
220
  3
C5
350
221
  3
C6
350
222
  3
C7
350
223
  3
C8
350
224
  3
C9
350
225
  3
D0
350
226
  3
D1
350
227
  3
D2
350
228
  0
DICTIONARY
  5
255
102
{ACAD_REACTORS
330
19
102
}
330
19
100
AcDbDictionary
281
     1
  0
DICTIONARY
  5
246
102
{ACAD_REACTORS
330
19
102
}
330
19
100
AcDbDictionary
281
     1
  3
Standard
350
247
  0
DICTIONARY
  5
229
102
{ACAD_REACTORS
330
19
102
}
330
19
100
AcDbDictionary
281
     1
  3
2dWireframe
350
22E
  3
Basic
350
231
  3
Brighten
350
235
  3
ColorChange
350
239
  3
Conceptual
350
233
  3
Dim
350
234
  3
EdgeColorOff
350
23C
  3
Facepattern
350
238
  3
Flat
350
22A
  3
FlatWithEdges
350
22B
  3
Gouraud
350
22C
  3
GouraudWithEdges
350
22D
  3
Hidden
350
230
  3
JitterOff
350
23A
  3
Linepattern
350
237
  3
OverhangOff
350
23B
  3
Realistic
350
232
  3
Shaded
350
241
  3
Shaded with edges
350
240
  3
Shades of Gray
350
23D
  3
Sketchy
350
23E
  3
Thicken
350
236
  3
Wireframe
350
22F
  3
X-Ray
350
23F
  0
XRECORD
  5
259
102
{ACAD_REACTORS
330
19
102
}
330
19
100
AcDbXrecord
280
     1
 90
        1
330
247
  0
DICTIONARY
  5
24B
102
{ACAD_REACTORS
330
19
102
}
330
19
100
AcDbDictionary
281
     1
  3
CANNOSCALE
350
24C
  3
CTABLESTYLE
350
251
  3
LIGHTINGUNITS
350
24D
  3
MSLTSCALE
350
253
  0
DICTIONARY
  5
248
102
{ACAD_REACTORS
330
19
102
}
330
19
100
AcDbDictionary
281
     1
  0
LAYOUT
  5
21
102
{ACAD_REACTORS
330
1E
102
}
330
1E
100
AcDbPlotSettings
  1

  2

  4

  6

 40
0.0
 41
0.0
 42
0.0
 43
0.0
 44
0.0
 45
0.0
 46
0.0
 47
0.0
 48
0.0
 49
0.0
140
0.0
141
0.0
142
1.0
143
1.0
 70
     0
 72
     0
 73
     0
 74
     0
  7

 75
     0
 76
     0
 77
     2
 78
   300
147
1.0
148
0.0
149
0.0
100
AcDbLayout
  1
Layout1
 70
     0
 71
     0
 10
0.0
 20
0.0
 11
0.0
 21
0.0
 12
0.0
 22
0.0
 32
0.0
 14
0.0
 24
0.0
 34
0.0
 15
0.0
 25
0.0
 35
0.0
146
0.0
 13
0.0
 23
0.0
 33
0.0
 16
0.0
 26
0.0
 36
0.0
 17
0.0
 27
0.0
 37
0.0
 76
     0
330
B
  0
LAYOUT
  5
20
102
{ACAD_REACTORS
330
1E
102
}
330
1E
100
AcDbPlotSettings
  1

  2

  4

  6

 40
0.0
 41
0.0
 42
0.0
 43
0.0
 44
0.0
 45
0.0
 46
0.0
 47
0.0
 48
0.0
 49
0.0
140
0.0
141
0.0
142
1.0
143
1.0
 70
  1024
 72
     0
 73
     0
 74
     0
  7

 75
     0
 76
     0
 77
     2
 78
   300
147
1.0
148
0.0
149
0.0
100
AcDbLayout
  1
Model
 70
     0
 71
     1
 10
-1049.999999999759
 20
-1466.630278437926
 11
1050.000000000241
 21
1453.369721562073
 12
0.0
 22
0.0
 32
0.0
 14
0.0
 24
0.0
 34
0.0
 15
0.0
 25
0.0
 35
0.0
146
0.0
 13
0.0
 23
0.0
 33
0.0
 16
0.0
 26
0.0
 36
0.0
 17
0.0
 27
0.0
 37
0.0
 76
     0
330
A
331
15
  0
MATERIAL
  5
244
102
{ACAD_REACTORS
330
242
102
}
330
242
100
AcDbMaterial
  1
ByBlock
 72
     1
 94
      127
  0
MATERIAL
  5
243
102
{ACAD_REACTORS
330
242
102
}
330
242
100
AcDbMaterial
  1
ByLayer
 72
     1
 94
      127
  0
MATERIAL
  5
245
102
{ACAD_REACTORS
330
242
102
}
330
242
100
AcDbMaterial
  1
Global
 72
     1
 94
      127
  0
MLINESTYLE
  5
1C
102
{ACAD_REACTORS
330
1B
102
}
330
1B
100
AcDbMlineStyle
  2
Standard
 70
     0
  3

 62
     0
 51
90.0
 52
90.0
 71
     2
 49
0.5
 62
   256
  6
BYLAYER
 49
-0.5
 62
   256
  6
BYLAYER
  0
ACDBPLACEHOLDER
  5
1D
102
{ACAD_REACTORS
330
1F
102
}
330
1F
  0
SCALE
  5
208
102
{ACAD_REACTORS
330
207
102
}
330
207
100
AcDbScale
 70
     0
300
1:1
140
1.0
141
1.0
290
     1
  0
SCALE
  5
209
102
{ACAD_REACTORS
330
207
102
}
330
207
100
AcDbScale
 70
     0
300
1:2
140
1.0
141
2.0
290
     0
  0
SCALE
  5
20A
102
{ACAD_REACTORS
330
207
102
}
330
207
100
AcDbScale
 70
     0
300
1:4
140
1.0
141
4.0
290
     0
  0
SCALE
  5
20B
102
{ACAD_REACTORS
330
207
102
}
330
207
100
AcDbScale
 70
     0
300
1:5
140
1.0
141
5.0
290
     0
  0
SCALE
  5
20C
102
{ACAD_REACTORS
330
207
102
}
330
207
100
AcDbScale
 70
     0
300
1:8
140
1.0
141
8.0
290
     0
  0
SCALE
  5
20D
102
{ACAD_REACTORS
330
207
102
}
330
207
100
AcDbScale
 70
     0
300
1:10
140
1.0
141
10.0
290
     0
  0
SCALE
  5
20E
102
{ACAD_REACTORS
330
207
102
}
330
207
100
AcDbScale
 70
     0
300
1:16
140
1.0
141
16.0
290
     0
  0
SCALE
  5
20F
102
{ACAD_REACTORS
330
207
102
}
330
207
100
AcDbScale
 70
     0
300
1:20
140
1.0
141
20.0
290
     0
  0
SCALE
  5
210
102
{ACAD_REACTORS
330
207
102
}
330
207
100
AcDbScale
 70
     0
300
1:30
140
1.0
141
30.0
290
     0
  0
SCALE
  5
211
102
{ACAD_REACTORS
330
207
102
}
330
207
100
AcDbScale
 70
     0
300
1:40
140
1.0
141
40.0
290
     0
  0
SCALE
  5
212
102
{ACAD_REACTORS
330
207
102
}
330
207
100
AcDbScale
 70
     0
300
1:50
140
1.0
141
50.0
290
     0
  0
SCALE
  5
213
102
{ACAD_REACTORS
330
207
102
}
330
207
100
AcDbScale
 70
     0
300
1:100
140
1.0
141
100.0
290
     0
  0
SCALE
  5
214
102
{ACAD_REACTORS
330
207
102
}
330
207
100
AcDbScale
 70
     0
300
2:1
140
2.0
141
1.0
290
     0
  0
SCALE
  5
215
102
{ACAD_REACTORS
330
207
102
}
330
207
100
AcDbScale
 70
     0
300
4:1
140
4.0
141
1.0
290
     0
  0
SCALE
  5
216
102
{ACAD_REACTORS
330
207
102
}
330
207
100
AcDbScale
 70
     0
300
8:1
140
8.0
141
1.0
290
     0
  0
SCALE
  5
217
102
{ACAD_REACTORS
330
207
102
}
330
207
100
AcDbScale
 70
     0
300
10:1
140
10.0
141
1.0
290
     0
  0
SCALE
  5
218
102
{ACAD_REACTORS
330
207
102
}
330
207
100
AcDbScale
 70
     0
300
100:1
140
100.0
141
1.0
290
     0
  0
SCALE
  5
219
102
{ACAD_REACTORS
330
207
102
}
330
207
100
AcDbScale
 70
     0
300
1/128" = 1'-0"
140
0.0078125
141
12.0
290
     0
  0
SCALE
  5
21A
102
{ACAD_REACTORS
330
207
102
}
330
207
100
AcDbScale
 70
     0
300
1/64" = 1'-0"
140
0.015625
141
12.0
290
     0
  0
SCALE
  5
21B
102
{ACAD_REACTORS
330
207
102
}
330
207
100
AcDbScale
 70
     0
300
1/32" = 1'-0"
140
0.03125
141
12.0
290
     0
  0
SCALE
  5
21C
102
{ACAD_REACTORS
330
207
102
}
330
207
100
AcDbScale
 70
     0
300
1/16" = 1'-0"
140
0.0625
141
12.0
290
     0
  0
SCALE
  5
21D
102
{ACAD_REACTORS
330
207
102
}
330
207
100
AcDbScale
 70
     0
300
3/32" = 1'-0"
140
0.09375
141
12.0
290
     0
  0
SCALE
  5
21E
102
{ACAD_REACTORS
330
207
102
}
330
207
100
AcDbScale
 70
     0
300
1/8" = 1'-0"
140
0.125
141
12.0
290
     0
  0
SCALE
  5
21F
102
{ACAD_REACTORS
330
207
102
}
330
207
100
AcDbScale
 70
     0
300
3/16" = 1'-0"
140
0.1875
141
12.0
290
     0
  0
SCALE
  5
220
102
{ACAD_REACTORS
330
207
102
}
330
207
100
AcDbScale
 70
     0
300
1/4" = 1'-0"
140
0.25
141
12.0
290
     0
  0
SCALE
  5
221
102
{ACAD_REACTORS
330
207
102
}
330
207
100
AcDbScale
 70
     0
300
3/8" = 1'-0"
140
0.375
141
12.0
290
     0
  0
SCALE
  5
222
102
{ACAD_REACTORS
330
207
102
}
330
207
100
AcDbScale
 70
     0
300
1/2" = 1'-0"
140
0.5
141
12.0
290
     0
  0
SCALE
  5
223
102
{ACAD_REACTORS
330
207
102
}
330
207
100
AcDbScale
 70
     0
300
3/4" = 1'-0"
140
0.75
141
12.0
290
     0
  0
SCALE
  5
224
102
{ACAD_REACTORS
330
207
102
}
330
207
100
AcDbScale
 70
     0
300
1" = 1'-0"
140
1.0
141
12.0
290
     0
  0
SCALE
  5
225
102
{ACAD_REACTORS
330
207
102
}
330
207
100
AcDbScale
 70
     0
300
1-1/2" = 1'-0"
140
1.5
141
12.0
290
     0
  0
SCALE
  5
226
102
{ACAD_REACTORS
330
207
102
}
330
207
100
AcDbScale
 70
     0
300
3" = 1'-0"
140
3.0
141
12.0
290
     0
  0
SCALE
  5
227
102
{ACAD_REACTORS
330
207
102
}
330
207
100
AcDbScale
 70
     0
300
6" = 1'-0"
140
6.0
141
12.0
290
     0
  0
SCALE
  5
228
102
{ACAD_REACTORS
330
207
102
}
330
207
100
AcDbScale
 70
     0
300
1'-0" = 1'-0"
140
12.0
141
12.0
290
     0
  0
TABLESTYLE
  5
247
102
{ACAD_REACTORS
330
246
102
}
102
{ACAD_XDICTIONARY
360
257
102
}
330
246
100
AcDbTableStyle
  3
Standard
 70
     0
 71
     0
 40
0.06
 41
0.06
280
     0
281
     0
  7
Standard
140
4.5
170
     2
 62
     0
 63
   257
283
     0
 90
        4
 91
        0
  1

274
    -2
284
     1
 64
     0
275
    -2
285
     1
 65
     0
276
    -2
286
     1
 66
     0
277
    -2
287
     1
 67
     0
278
    -2
288
     1
 68
     0
279
    -2
289
     1
 69
     0
  7
Standard
140
6.0
170
     5
 62
     0
 63
   257
283
     0
 90
        4
 91
        0
  1

274
    -2
284
     1
 64
     0
275
    -2
285
     1
 65
     0
276
    -2
286
     1
 66
     0
277
    -2
287
     1
 67
     0
278
    -2
288
     1
 68
     0
279
    -2
289
     1
 69
     0
  7
Standard
140
4.5
170
     5
 62
     0
 63
   257
283
     0
 90
        4
 91
        0
  1

274
    -2
284
     1
 64
     0
275
    -2
285
     1
 65
     0
276
    -2
286
     1
 66
     0
277
    -2
287
     1
 67
     0
278
    -2
288
     1
 68
     0
279
    -2
289
     1
 69
     0
  0
VISUALSTYLE
  5
22E
102
{ACAD_REACTORS
330
229
102
}
330
229
100
AcDbVisualStyle
  2
2dWireframe
 70
     4
 71
     0
 72
     2
 73
     0
 90
        0
 40
0.6
 41
30.0
 62
     5
 63
     7
421
 16777215
 74
     1
 91
        4
 64
     7
 65
   257
 75
     1
175
     1
 42
1.0
 92
        0
 66
   257
 43
1.0
 76
     1
 77
     6
 78
     2
 67
     7
 79
     5
170
     0
171
     0
290
     0
174
     0
 93
        1
 44
0.0
173
     0
291
     0
 45
0.0
  0
VISUALSTYLE
  5
231
102
{ACAD_REACTORS
330
229
102
}
330
229
100
AcDbVisualStyle
  2
Basic
 70
     7
 71
     1
 72
     0
 73
     1
 90
        0
 40
0.6
 41
30.0
 62
     5
 63
     7
421
 16777215
 74
     0
 91
        4
 64
     7
 65
   257
 75
     1
175
     1
 42
1.0
 92
        8
 66
     7
 43
1.0
 76
     1
 77
     6
 78
     2
 67
     7
 79
     5
170
     0
171
     0
290
     0
174
     0
 93
        1
 44
0.0
173
     0
291
     1
 45
0.0
  0
VISUALSTYLE
  5
235
102
{ACAD_REACTORS
330
229
102
}
330
229
100
AcDbVisualStyle
  2
Brighten
 70
    12
 71
     2
 72
     2
 73
     0
 90
        0
 40
0.6
 41
30.0
 62
     5
 63
     7
421
 16777215
 74
     1
 91
        4
 64
     7
 65
   257
 75
     1
175
     1
 42
1.0
 92
        8
 66
     7
 43
1.0
 76
     1
 77
     6
 78
     2
 67
     7
 79
     5
170
     0
171
     0
290
     0
174
     0
 93
        1
 44
50.0
173
     0
291
     1
 45
0.0
  0
VISUALSTYLE
  5
239
102
{ACAD_REACTORS
330
229
102
}
330
229
100
AcDbVisualStyle
  2
ColorChange
 70
    16
 71
     2
 72
     2
 73
     3
 90
        0
 40
0.6
 41
30.0
 62
     5
 63
     8
421
  8421504
 74
     1
 91
        4
 64
     7
 65
   257
 75
     1
175
     1
 42
1.0
 92
        8
 66
     8
424
  8421504
 43
1.0
 76
     1
 77
     6
 78
     2
 67
     7
 79
     5
170
     0
171
     0
290
     0
174
     0
 93
        1
 44
0.0
173
     0
291
     1
 45
0.0
  0
VISUALSTYLE
  5
233
102
{ACAD_REACTORS
330
229
102
}
330
229
100
AcDbVisualStyle
  2
Conceptual
 70
     9
 71
     3
 72
     2
 73
     0
 90
        0
 40
0.6
 41
30.0
 62
     5
 63
     7
421
 16777215
 74
     2
 91
        2
 64
     7
 65
   257
 75
     1
175
     1
 42
179.0
 92
        8
 66
     7
 43
1.0
 76
     1
 77
     6
 78
     2
 67
     7
 79
     3
170
     0
171
     0
290
     0
174
     0
 93
        1
 44
0.0
173
     0
291
     0
 45
0.0
  0
VISUALSTYLE
  5
234
102
{ACAD_REACTORS
330
229
102
}
330
229
100
AcDbVisualStyle
  2
Dim
 70
    11
 71
     2
 72
     2
 73
     0
 90
        0
 40
0.6
 41
30.0
 62
     5
 63
     7
421
 16777215
 74
     1
 91
        4
 64
     7
 65
   257
 75
     1
175
     1
 42
1.0
 92
        8
 66
     7
 43
1.0
 76
     1
 77
     6
 78
     2
 67
     7
 79
     5
170
     0
171
     0
290
     0
174
     0
 93
        1
 44
-50.0
173
     0
291
     1
 45
0.0
  0
VISUALSTYLE
  5
23C
102
{ACAD_REACTORS
330
229
102
}
330
229
100
AcDbVisualStyle
  2
EdgeColorOff
 70
    22
 71
     2
 72
     2
 73
     0
 90
        0
 40
0.6
 41
30.0
 62
     5
 63
     7
421
 16777215
 74
     1
 91
        4
 64
     7
 65
   257
 75
     1
175
     1
 42
1.0
 92
        8
 66
     7
 43
1.0
 76
     1
 77
     6
 78
     2
 67
     7
 79
     5
170
     0
171
     0
290
     0
174
     0
 93
        1
 44
0.0
173
     0
291
     1
 45
0.0
  0
VISUALSTYLE
  5
238
102
{ACAD_REACTORS
330
229
102
}
330
229
100
AcDbVisualStyle
  2
Facepattern
 70
    15
 71
     2
 72
     2
 73
     0
 90
        0
 40
0.6
 41
30.0
 62
     5
 63
     7
421
 16777215
 74
     1
 91
        4
 64
     7
 65
   257
 75
     1
175
     1
 42
1.0
 92
        8
 66
     7
 43
1.0
 76
     1
 77
     6
 78
     2
 67
     7
 79
     5
170
     0
171
     0
290
     0
174
     0
 93
        1
 44
0.0
173
     0
291
     1
 45
0.0
  0
VISUALSTYLE
  5
22A
102
{ACAD_REACTORS
330
229
102
}
330
229
100
AcDbVisualStyle
  2
Flat
 70
     0
 71
     2
 72
     1
 73
     1
 90
        2
 40
0.6
 41
30.0
 62
     5
 63
     7
421
 16777215
 74
     0
 91
        0
 64
     7
 65
   257
 75
     1
175
     1
 42
1.0
 92
        8
 66
     7
 43
1.0
 76
     1
 77
     6
 78
     2
 67
     7
 79
     5
170
     0
171
     0
290
     0
174
     0
 93
       13
 44
0.0
173
     0
291
     1
 45
0.0
  0
VISUALSTYLE
  5
22B
102
{ACAD_REACTORS
330
229
102
}
330
229
100
AcDbVisualStyle
  2
FlatWithEdges
 70
     1
 71
     2
 72
     1
 73
     1
 90
        2
 40
0.6
 41
30.0
 62
     5
 63
     7
421
 16777215
 74
     1
 91
        0
 64
     7
 65
   257
 75
     1
175
     1
 42
1.0
 92
        0
 66
   257
 43
1.0
 76
     1
 77
     6
 78
     2
 67
     7
 79
     5
170
     0
171
     0
290
     0
174
     0
 93
       13
 44
0.0
173
     0
291
     1
 45
0.0
  0
VISUALSTYLE
  5
22C
102
{ACAD_REACTORS
330
229
102
}
330
229
100
AcDbVisualStyle
  2
Gouraud
 70
     2
 71
     2
 72
     2
 73
     1
 90
        2
 40
0.6
 41
30.0
 62
     5
 63
     7
421
 16777215
 74
     0
 91
        0
 64
     7
 65
   257
 75
     1
175
     1
 42
1.0
 92
        0
 66
     7
 43
1.0
 76
     1
 77
     6
 78
     2
 67
     7
 79
     5
170
     0
171
     0
290
     0
174
     0
 93
       13
 44
0.0
173
     0
291
     1
 45
0.0
  0
VISUALSTYLE
  5
22D
102
{ACAD_REACTORS
330
229
102
}
330
229
100
AcDbVisualStyle
  2
GouraudWithEdges
 70
     3
 71
     2
 72
     2
 73
     1
 90
        2
 40
0.6
 41
30.0
 62
     5
 63
     7
421
 16777215
 74
     1
 91
        0
 64
     7
 65
   257
 75
     1
175
     1
 42
1.0
 92
        0
 66
   257
 43
1.0
 76
     1
 77
     6
 78
     2
 67
     7
 79
     5
170
     0
171
     0
290
     0
174
     0
 93
       13
 44
0.0
173
     0
291
     1
 45
0.0
  0
VISUALSTYLE
  5
230
102
{ACAD_REACTORS
330
229
102
}
330
229
100
AcDbVisualStyle
  2
Hidden
 70
     6
 71
     1
 72
     2
 73
     2
 90
        0
 40
0.6
 41
30.0
 62
     5
 63
     7
421
 16777215
 74
     2
 91
        2
 64
     7
 65
   257
 75
     2
175
     1
 42
40.0
 92
        0
 66
   257
 43
1.0
 76
     1
 77
     6
 78
     2
 67
     7
 79
     3
170
     0
171
     0
290
     0
174
     0
 93
        1
 44
0.0
173
     0
291
     0
 45
0.0
  0
VISUALSTYLE
  5
23A
102
{ACAD_REACTORS
330
229
102
}
330
229
100
AcDbVisualStyle
  2
JitterOff
 70
    20
 71
     2
 72
     2
 73
     0
 90
        0
 40
0.6
 41
30.0
 62
     5
 63
     7
421
 16777215
 74
     1
 91
        4
 64
     7
 65
   257
 75
     1
175
     1
 42
1.0
 92
       10
 66
     7
 43
1.0
 76
     1
 77
     6
 78
     2
 67
     7
 79
     5
170
     0
171
     0
290
     0
174
     0
 93
        1
 44
0.0
173
     0
291
     1
 45
0.0
  0
VISUALSTYLE
  5
237
102
{ACAD_REACTORS
330
229
102
}
330
229
100
AcDbVisualStyle
  2
Linepattern
 70
    14
 71
     2
 72
     2
 73
     0
 90
        0
 40
0.6
 41
30.0
 62
     5
 63
     7
421
 16777215
 74
     1
 91
        4
 64
     7
 65
   257
 75
     7
175
     7
 42
1.0
 92
        8
 66
     7
 43
1.0
 76
     1
 77
     6
 78
     2
 67
     7
 79
     5
170
     0
171
     0
290
     0
174
     0
 93
        1
 44
0.0
173
     0
291
     1
 45
0.0
  0
VISUALSTYLE
  5
23B
102
{ACAD_REACTORS
330
229
102
}
330
229
100
AcDbVisualStyle
  2
OverhangOff
 70
    21
 71
     2
 72
     2
 73
     0
 90
        0
 40
0.6
 41
30.0
 62
     5
 63
     7
421
 16777215
 74
     1
 91
        4
 64
     7
 65
   257
 75
     1
175
     1
 42
1.0
 92
        9
 66
     7
 43
1.0
 76
     1
 77
     6
 78
     2
 67
     7
 79
     5
170
     0
171
     0
290
     0
174
     0
 93
        1
 44
0.0
173
     0
291
     1
 45
0.0
  0
VISUALSTYLE
  5
232
102
{ACAD_REACTORS
330
229
102
}
330
229
100
AcDbVisualStyle
  2
Realistic
 70
     8
 71
     2
 72
     3
 73
     0
 90
        2
 40
0.6
 41
30.0
 62
     5
 63
     7
421
 16777215
 74
     0
 91
        0
 64
     7
 65
   257
 75
     1
175
     1
 42
1.0
 92
        8
 66
   257
 43
1.0
 76
     1
 77
     6
 78
     2
 67
     7
 79
     3
170
     0
171
     0
290
     0
174
     0
 93
       13
 44
0.0
173
     0
291
     0
 45
0.0
  0
VISUALSTYLE
  5
241
102
{ACAD_REACTORS
330
229
102
}
330
229
100
AcDbVisualStyle
  2
Shaded
 70
    27
 71
     2
 72
     2
 73
     1
 90
        2
 40
0.6
 41
30.0
 62
     5
 63
     7
421
 16777215
 74
     0
 91
        4
 64
     7
 65
   257
 75
     1
175
     1
 42
1.0
 92
        8
 66
   257
 43
1.0
 76
     1
 77
     6
 78
     2
 67
     8
425
  7895160
 79
     3
170
     0
171
     0
290
     0
174
     0
 93
        5
 44
0.0
173
     0
291
     0
 45
0.0
  0
VISUALSTYLE
  5
240
102
{ACAD_REACTORS
330
229
102
}
330
229
100
AcDbVisualStyle
  2
Shaded with edges
 70
    26
 71
     2
 72
     2
 73
     1
 90
        2
 40
0.6
 41
30.0
 62
     5
 63
     7
421
 16777215
 74
     1
 91
       10
 64
     7
 65
   257
 75
     2
175
     1
 42
1.0
 92
        8
 66
   257
 43
1.0
 76
     1
 77
     6
 78
     2
 67
     7
 79
     3
170
     0
171
     0
290
     0
174
     0
 93
        5
 44
0.0
173
     0
291
     0
 45
0.0
  0
VISUALSTYLE
  5
23D
102
{ACAD_REACTORS
330
229
102
}
330
229
100
AcDbVisualStyle
  2
Shades of Gray
 70
    23
 71
     2
 72
     2
 73
     3
 90
        0
 40
0.6
 41
30.0
 62
     5
 63
     7
421
 16777215
 74
     2
 91
        2
 64
     7
 65
     7
 75
     1
175
     1
 42
40.0
 92
        8
 66
     7
 43
1.0
 76
     1
 77
     6
 78
     2
 67
     7
 79
     3
170
     0
171
     0
290
     0
174
     0
 93
        1
 44
0.0
173
     0
291
     0
 45
0.0
  0
VISUALSTYLE
  5
23E
102
{ACAD_REACTORS
330
229
102
}
330
229
100
AcDbVisualStyle
  2
Sketchy
 70
    24
 71
     1
 72
     2
 73
     2
 90
        0
 40
0.6
 41
30.0
 62
     5
 63
     7
421
 16777215
 74
     2
 91
        2
 64
     7
 65
     7
 75
     1
175
     1
 42
40.0
 92
       11
 66
     7
 43
1.0
 76
     1
 77
     6
 78
     2
 67
     7
 79
     6
170
     0
171
     0
290
     0
174
     0
 93
        1
 44
0.0
173
     0
291
     0
 45
0.0
  0
VISUALSTYLE
  5
236
102
{ACAD_REACTORS
330
229
102
}
330
229
100
AcDbVisualStyle
  2
Thicken
 70
    13
 71
     2
 72
     2
 73
     0
 90
        0
 40
0.6
 41
30.0
 62
     5
 63
     7
421
 16777215
 74
     1
 91
        4
 64
     7
 65
   257
 75
     1
175
     1
 42
1.0
 92
       12
 66
     7
 43
1.0
 76
     1
 77
     6
 78
     2
 67
     7
 79
     5
170
     0
171
     0
290
     0
174
     0
 93
        1
 44
0.0
173
     0
291
     1
 45
0.0
  0
VISUALSTYLE
  5
22F
102
{ACAD_REACTORS
330
229
102
}
330
229
100
AcDbVisualStyle
  2
Wireframe
 70
     5
 71
     0
 72
     2
 73
     0
 90
        0
 40
0.6
 41
30.0
 62
     5
 63
     7
421
 16777215
 74
     1
 91
        4
 64
     7
 65
   257
 75
     1
175
     1
 42
1.0
 92
        0
 66
   257
 43
1.0
 76
     1
 77
     6
 78
     2
 67
     7
 79
     3
170
     0
171
     0
290
     0
174
     0
 93
        1
 44
0.0
173
     0
291
     0
 45
0.0
  0
VISUALSTYLE
  5
23F
102
{ACAD_REACTORS
330
229
102
}
330
229
100
AcDbVisualStyle
  2
X-Ray
 70
    25
 71
     2
 72
     2
 73
     1
 90
        1
 40
0.5
 41
30.0
 62
     5
 63
     7
421
 16777215
 74
     1
 91
        0
 64
     7
 65
   257
 75
     1
175
     1
 42
1.0
 92
        8
 66
     7
 43
1.0
 76
     1
 77
     6
 78
     2
 67
     7
 79
     3
170
     0
171
     0
290
     0
174
     0
 93
       13
 44
0.0
173
     0
291
     0
 45
0.0
  0
DICTIONARYVAR
  5
24C
102
{ACAD_REACTORS
330
24B
102
}
330
24B
100
DictionaryVariables
280
     0
  1
1:1
  0
DICTIONARYVAR
  5
251
102
{ACAD_REACTORS
330
24B
102
}
330
24B
100
DictionaryVariables
280
     0
  1
Standard
  0
DICTIONARYVAR
  5
24D
102
{ACAD_REACTORS
330
24B
102
}
330
24B
100
DictionaryVariables
280
     0
  1
0
  0
DICTIONARYVAR
  5
253
102
{ACAD_REACTORS
330
24B
102
}
330
24B
100
DictionaryVariables
280
     0
  1
0
  0
DICTIONARY
  5
257
330
247
100
AcDbDictionary
280
     1
281
     1
  3
ACAD_ROUNDTRIP_2008_TABLESTYLE_CELLSTYLEMAP
360
258
  0
CELLSTYLEMAP
  5
258
102
{ACAD_REACTORS
330
257
102
}
330
257
100
AcDbCellStyleMap
 90
        3
300
CELLSTYLE
  1
TABLEFORMAT_BEGIN
 90
        5
170
     1
 91
        0
 92
        0
 62
   257
 93
        1
300
CONTENTFORMAT
  1
CONTENTFORMAT_BEGIN
 90
        0
 91
        0
 92
        4
 93
        0
300

 40
0.0
140
1.0
 94
        5
 62
     0
340
17
144
6.0
309
CONTENTFORMAT_END
171
     1
301
MARGIN
  1
CELLMARGIN_BEGIN
 40
1.5
 40
1.5
 40
1.5
 40
1.5
 40
1.5
 40
1.5
309
CELLMARGIN_END
 94
        6
 95
        1
302
GRIDFORMAT
  1
GRIDFORMAT_BEGIN
 90
        0
 91
        1
 62
     0
 92
       -2
340
11
 93
        0
 40
0.045
309
GRIDFORMAT_END
 95
        2
302
GRIDFORMAT
  1
GRIDFORMAT_BEGIN
 90
        0
 91
        1
 62
     0
 92
       -2
340
11
 93
        0
 40
0.045
309
GRIDFORMAT_END
 95
        4
302
GRIDFORMAT
  1
GRIDFORMAT_BEGIN
 90
        0
 91
        1
 62
     0
 92
       -2
340
11
 93
        0
 40
0.045
309
GRIDFORMAT_END
 95
        8
302
GRIDFORMAT
  1
GRIDFORMAT_BEGIN
 90
        0
 91
        1
 62
     0
 92
       -2
340
11
 93
        0
 40
0.045
309
GRIDFORMAT_END
 95
       16
302
GRIDFORMAT
  1
GRIDFORMAT_BEGIN
 90
        0
 91
        1
 62
     0
 92
       -2
340
11
 93
        0
 40
0.045
309
GRIDFORMAT_END
 95
       32
302
GRIDFORMAT
  1
GRIDFORMAT_BEGIN
 90
        0
 91
        1
 62
     0
 92
       -2
340
11
 93
        0
 40
0.045
309
GRIDFORMAT_END
309
TABLEFORMAT_END
  1
CELLSTYLE_BEGIN
 90
        1
 91
        1
300
_TITLE
309
CELLSTYLE_END
300
CELLSTYLE
  1
TABLEFORMAT_BEGIN
 90
        5
170
     1
 91
        0
 92
        0
 62
   257
 93
        1
300
CONTENTFORMAT
  1
CONTENTFORMAT_BEGIN
 90
        0
 91
        0
 92
        4
 93
        0
300

 40
0.0
140
1.0
 94
        5
 62
     0
340
17
144
4.5
309
CONTENTFORMAT_END
171
     1
301
MARGIN
  1
CELLMARGIN_BEGIN
 40
1.5
 40
1.5
 40
1.5
 40
1.5
 40
1.5
 40
1.5
309
CELLMARGIN_END
 94
        6
 95
        1
302
GRIDFORMAT
  1
GRIDFORMAT_BEGIN
 90
        0
 91
        1
 62
     0
 92
       -2
340
11
 93
        0
 40
0.045
309
GRIDFORMAT_END
 95
        2
302
GRIDFORMAT
  1
GRIDFORMAT_BEGIN
 90
        0
 91
        1
 62
     0
 92
       -2
340
11
 93
        0
 40
0.045
309
GRIDFORMAT_END
 95
        4
302
GRIDFORMAT
  1
GRIDFORMAT_BEGIN
 90
        0
 91
        1
 62
     0
 92
       -2
340
11
 93
        0
 40
0.045
309
GRIDFORMAT_END
 95
        8
302
GRIDFORMAT
  1
GRIDFORMAT_BEGIN
 90
        0
 91
        1
 62
     0
 92
       -2
340
11
 93
        0
 40
0.045
309
GRIDFORMAT_END
 95
       16
302
GRIDFORMAT
  1
GRIDFORMAT_BEGIN
 90
        0
 91
        1
 62
     0
 92
       -2
340
11
 93
        0
 40
0.045
309
GRIDFORMAT_END
 95
       32
302
GRIDFORMAT
  1
GRIDFORMAT_BEGIN
 90
        0
 91
        1
 62
     0
 92
       -2
340
11
 93
        0
 40
0.045
309
GRIDFORMAT_END
309
TABLEFORMAT_END
  1
CELLSTYLE_BEGIN
 90
        2
 91
        1
300
_HEADER
309
CELLSTYLE_END
300
CELLSTYLE
  1
TABLEFORMAT_BEGIN
 90
        5
170
     1
 91
        0
 92
        0
 62
   257
 93
        1
300
CONTENTFORMAT
  1
CONTENTFORMAT_BEGIN
 90
        0
 91
        0
 92
        4
 93
        0
300

 40
0.0
140
1.0
 94
        2
 62
     0
340
17
144
4.5
309
CONTENTFORMAT_END
171
     1
301
MARGIN
  1
CELLMARGIN_BEGIN
 40
1.5
 40
1.5
 40
1.5
 40
1.5
 40
1.5
 40
1.5
309
CELLMARGIN_END
 94
        6
 95
        1
302
GRIDFORMAT
  1
GRIDFORMAT_BEGIN
 90
        0
 91
        1
 62
     0
 92
       -2
340
11
 93
        0
 40
0.045
309
GRIDFORMAT_END
 95
        2
302
GRIDFORMAT
  1
GRIDFORMAT_BEGIN
 90
        0
 91
        1
 62
     0
 92
       -2
340
11
 93
        0
 40
0.045
309
GRIDFORMAT_END
 95
        4
302
GRIDFORMAT
  1
GRIDFORMAT_BEGIN
 90
        0
 91
        1
 62
     0
 92
       -2
340
11
 93
        0
 40
0.045
309
GRIDFORMAT_END
 95
        8
302
GRIDFORMAT
  1
GRIDFORMAT_BEGIN
 90
        0
 91
        1
 62
     0
 92
       -2
340
11
 93
        0
 40
0.045
309
GRIDFORMAT_END
 95
       16
302
GRIDFORMAT
  1
GRIDFORMAT_BEGIN
 90
        0
 91
        1
 62
     0
 92
       -2
340
11
 93
        0
 40
0.045
309
GRIDFORMAT_END
 95
       32
302
GRIDFORMAT
  1
GRIDFORMAT_BEGIN
 90
        0
 91
        1
 62
     0
 92
       -2
340
11
 93
        0
 40
0.045
309
GRIDFORMAT_END
309
TABLEFORMAT_END
  1
CELLSTYLE_BEGIN
 90
        3
 91
        2
300
_DATA
309
CELLSTYLE_END
  0
ENDSEC
  0
EOF
