  0
SECTION
  2
HEADER
  9
$ACADVER
  1
AC1015
  9
$ACADMAINTVER
 70
               6
  9
$DWGCODEPAGE
  3
ANSI_932
  9
$INSBASE
 10
0.0
 20
0.0
 30
0.0
  9
$EXTMIN
 10
-992.94444444492638
 20
-1437.522815112412
 30
-14.834305555555554
  9
$EXTMAX
 10
957.05555555555588
 20
1400.0
 30
14.834305555555554
  9
$LIMMIN
 10
0.0
 20
0.0
  9
$LIMMAX
 10
0.0
 20
0.0
  9
$ORTHOMODE
 70
               0
  9
$REGENMODE
 70
               1
  9
$FILLMODE
 70
               1
  9
$QTEXTMODE
 70
               0
  9
$MIRRTEXT
 70
               1
  9
$LTSCALE
 40
50.799999999999997
  9
$ATTMODE
 70
               1
  9
$TEXTSIZE
 40
0.2
  9
$TRACEWID
 40
1.0
  9
$TEXTSTYLE
  7
Standard
  9
$CLAYER
  8
notes
  9
$CELTYPE
  6
Continuous
  9
$CECOLOR
 62
             256
  9
$CELTSCALE
 40
1.0
  9
$DISPSILH
 70
               0
  9
$DIMSCALE
 40
1.0
  9
$DIMASZ
 40
9.9993896484374982
  9
$DIMEXO
 40
24.999999999999996
  9
$DIMDLI
 40
0.9999999999999999
  9
$DIMRND
 40
0.0
  9
$DIMDLE
 40
0.0
  9
$DIMEXE
 40
0.0
  9
$DIMTP
 40
0.0
  9
$DIMTM
 40
0.0
  9
$DIMTXT
 40
24.432617187500004
  9
$DIMCEN
 40
0.0
  9
$DIMTSZ
 40
0.0
  9
$DIMTOL
 70
               0
  9
$DIMLIM
 70
               0
  9
$DIMTIH
 70
               0
  9
$DIMTOH
 70
               0
  9
$DIMSE1
 70
               0
  9
$DIMSE2
 70
               0
  9
$DIMTAD
 70
               1
  9
$DIMZIN
 70
              11
  9
$DIMBLK
  1
_DOT
  9
$DIMASO
 70
               1
  9
$DIMSHO
 70
               1
  9
$DIMPOST
  1
<>
  9
$DIMAPOST
  1
[]
  9
$DIMALT
 70
               0
  9
$DIMALTD
 70
               3
  9
$DIMALTF
 40
0.0393700787401575
  9
$DIMLFAC
 40
1.0
  9
$DIMTOFL
 70
               1
  9
$DIMTVP
 40
0.0
  9
$DIMTIX
 70
               1
  9
$DIMSOXD
 70
               0
  9
$DIMSAH
 70
               0
  9
$DIMBLK1
  1

  9
$DIMBLK2
  1

  9
$DIMSTYLE
  2
tform線あり
  9
$DIMCLRD
 70
               0
  9
$DIMCLRE
 70
               0
  9
$DIMCLRT
 70
               0
  9
$DIMTFAC
 40
0.8
  9
$DIMGAP
 40
0.4999999999999999
  9
$DIMJUST
 70
               0
  9
$DIMSD1
 70
               0
  9
$DIMSD2
 70
               0
  9
$DIMTOLJ
 70
               1
  9
$DIMTZIN
 70
              11
  9
$DIMALTZ
 70
              15
  9
$DIMALTTZ
 70
              15
  9
$DIMUPT
 70
               0
  9
$DIMDEC
 70
               1
  9
$DIMTDEC
 70
               1
  9
$DIMALTU
 70
               4
  9
$DIMALTTD
 70
               2
  9
$DIMTXSTY
  7
ＭＳ ゴシック
  9
$DIMAUNIT
 70
               0
  9
$DIMADEC
 70
               2
  9
$DIMALTRND
 40
0.0
  9
$DIMAZIN
 70
               0
  9
$DIMDSEP
 70
              46
  9
$DIMATFIT
 70
               0
  9
$DIMFRAC
 70
               2
  9
$DIMLDRBLK
  1

  9
$DIMLUNIT
 70
               2
  9
$DIMLWD
 70
              -2
  9
$DIMLWE
 70
              -2
  9
$DIMTMOVE
 70
               0
  9
$LUNITS
 70
               2
  9
$LUPREC
 70
               4
  9
$SKETCHINC
 40
0.1
  9
$FILLETRAD
 40
0.0
  9
$AUNITS
 70
               0
  9
$AUPREC
 70
               0
  9
$MENU
  1
acad
  9
$ELEVATION
 40
0.0
  9
$PELEVATION
 40
0.0
  9
$THICKNESS
 40
0.0
  9
$LIMCHECK
 70
               0
  9
$CHAMFERA
 40
0.0
  9
$CHAMFERB
 40
0.0
  9
$CHAMFERC
 40
0.0
  9
$CHAMFERD
 40
0.0
  9
$SKPOLY
 70
               0
  9
$TDCREATE
 40
2456029.400891204
  9
$TDUCREATE
 40
0.000000000
  9
$TDUPDATE
 40
2456029.400891204
  9
$TDUUPDATE
 40
0.000000000
  9
$TDINDWG
 40
0.0000000000
  9
$TDUSRTIMER
 40
0.0000000000
  9
$USRTIMER
 70
               1
  9
$ANGBASE
 50
0.0
  9
$ANGDIR
 70
               0
  9
$PDMODE
 70
               1
  9
$PDSIZE
 40
-2.0
  9
$PLINEWID
 40
0.0
  9
$SPLFRAME
 70
               0
  9
$SPLINETYPE
 70
               6
  9
$SPLINESEGS
 70
               8
  9
$HANDSEED
  5
1E2
  9
$SURFTAB1
 70
               6
  9
$SURFTAB2
 70
               6
  9
$SURFTYPE
 70
               6
  9
$SURFU
 70
               6
  9
$SURFV
 70
               6
  9
$UCSBASE
  2

  9
$UCSNAME
  2

  9
$UCSORG
 10
0.0
 20
0.0
 30
0.0
  9
$UCSXDIR
 10
1.0
 20
0.0
 30
0.0
  9
$UCSYDIR
 10
0.0
 20
1.0
 30
0.0
  9
$UCSORTHOREF
  2

  9
$UCSORTHOVIEW
 70
               0
  9
$UCSORGTOP
 10
0.0
 20
0.0
 30
0.0
  9
$UCSORGBOTTOM
 10
0.0
 20
0.0
 30
0.0
  9
$UCSORGLEFT
 10
0.0
 20
0.0
 30
0.0
  9
$UCSORGRIGHT
 10
0.0
 20
0.0
 30
0.0
  9
$UCSORGFRONT
 10
0.0
 20
0.0
 30
0.0
  9
$UCSORGBACK
 10
0.0
 20
0.0
 30
0.0
  9
$PUCSBASE
  2

  9
$PUCSNAME
  2

  9
$PUCSORG
 10
0.0
 20
0.0
 30
0.0
  9
$PUCSXDIR
 10
1.0
 20
0.0
 30
0.0
  9
$PUCSYDIR
 10
0.0
 20
1.0
 30
0.0
  9
$PUCSORTHOREF
  2

  9
$PUCSORTHOVIEW
 70
               0
  9
$PUCSORGTOP
 10
0.0
 20
0.0
 30
0.0
  9
$PUCSORGBOTTOM
 10
0.0
 20
0.0
 30
0.0
  9
$PUCSORGLEFT
 10
0.0
 20
0.0
 30
0.0
  9
$PUCSORGRIGHT
 10
0.0
 20
0.0
 30
0.0
  9
$PUCSORGFRONT
 10
0.0
 20
0.0
 30
0.0
  9
$PUCSORGBACK
 10
0.0
 20
0.0
 30
0.0
  9
$USERI1
 70
               0
  9
$USERI2
 70
               0
  9
$USERI3
 70
               0
  9
$USERI4
 70
               0
  9
$USERI5
 70
               0
  9
$USERR1
 40
0.0
  9
$USERR2
 40
0.0
  9
$USERR3
 40
0.0
  9
$USERR4
 40
0.0
  9
$USERR5
 40
0.0
  9
$WORLDVIEW
 70
               1
  9
$SHADEDGE
 70
               3
  9
$SHADEDIF
 70
              70
  9
$TILEMODE
 70
               1
  9
$MAXACTVP
 70
              64
  9
$PINSBASE
 10
0.0
 20
0.0
 30
0.0
  9
$PLIMCHECK
 70
               0
  9
$PEXTMIN
 10
1.0000000000000000E+20
 20
1.0000000000000000E+20
 30
1.0000000000000000E+20
  9
$PEXTMAX
 10
-1.0000000000000000E+20
 20
-1.0000000000000000E+20
 30
-1.0000000000000000E+20
  9
$PLIMMIN
 10
0.0
 20
0.0
  9
$PLIMMAX
 10
12.0
 20
9.0
  9
$UNITMODE
 70
               0
  9
$VISRETAIN
 70
               0
  9
$PLINEGEN
 70
               1
  9
$PSLTSCALE
 70
               0
  9
$TREEDEPTH
 70
            3020
  9
$CMLSTYLE
  2
Standard
  9
$CMLJUST
 70
               0
  9
$CMLSCALE
 40
1.0
  9
$PROXYGRAPHICS
 70
               0
  9
$MEASUREMENT
 70
               1
  9
$CELWEIGHT
370
               0
  9
$ENDCAPS
280
               0
  9
$JOINSTYLE
280
               0
  9
$LWDISPLAY
290
               1
  9
$INSUNITS
 70
               4
  9
$HYPERLINKBASE
  1

  9
$STYLESHEET
  1

  9
$XEDIT
290
               1
  9
$CEPSNTYPE
380
               0
  9
$PSTYLEMODE
290
               1
  9
$FINGERPRINTGUID
  2

  9
$VERSIONGUID
  2

  9
$EXTNAMES
290
               1
  9
$PSVPSCALE
 40
0.0
  0
ENDSEC
  0
SECTION
  2
CLASSES
  0
CLASS
  1
LWPOLYLINE
  2
AcDbPolyline
  3
AutoCAD 2000
 90
        0
280
               0
281
               1
  0
CLASS
  1
IMAGE
  2
AcDbRasterImage
  3
ISM
 90
      127
280
               0
281
               1
  0
CLASS
  1
OLE2FRAME
  2
AcDbOle2Frame
  3
AutoCAD 2000
 90
        0
280
               0
281
               1
  0
CLASS
  1
HATCH
  2
AcDbHatch
  3
AutoCAD 2000
 90
        0
280
               0
281
               1
  0
CLASS
  1
DICTIONARYVAR
  2
AcDbDictionaryVar
  3
AutoCAD 2000
 90
        0
280
               0
281
               0
  0
CLASS
  1
RASTERVARIABLES
  2
AcDbRasterVariables
  3
ISM
 90
        0
280
               0
281
               0
  0
CLASS
  1
IMAGEDEF
  2
AcDbRasterImageDef
  3
ISM
 90
        0
280
               0
281
               0
  0
CLASS
  1
IMAGEDEF_REACTOR
  2
AcDbRasterImageDefReactor
  3
ISM
 90
        1
280
               0
281
               0
  0
CLASS
  1
IDBUFFER
  2
AcDbIdBuffer
  3
AutoCAD 2000
 90
        0
280
               0
281
               0
  0
CLASS
  1
SPATIAL_FILTER
  2
AcDbSpatialFilter
  3
AutoCAD 2000
 90
        0
280
               0
281
               0
  0
CLASS
  1
XRECORD
  2
AcDbXrecord
  3
AutoCAD 2000
 90
        0
280
               0
281
               0
  0
CLASS
  1
SORTENTSTABLE
  2
AcDbSortentsTable
  3
AutoCAD 2000
 90
        0
280
               0
281
               0
  0
CLASS
  1
LAYER_INDEX
  2
AcDbLayerIndex
  3
AutoCAD 2000
 90
        0
280
               0
281
               0
  0
CLASS
  1
SPATIAL_INDEX
  2
AcDbSpatialIndex
  3
AutoCAD 2000
 90
        0
280
               0
281
               0
  0
CLASS
  1
OBJECT_PTR
  2
CAseDLPNTableRecord
  3
"ASE-LPNTableRecord"
 90
        1
280
               0
281
               0
  0
CLASS
  1
LAYOUT
  2
AcDbLayout
  3
AutoCAD 2000
 90
        0
280
               0
281
               0
  0
CLASS
  1
PLOTSETTINGS
  2
AcDbPlotSettings
  3
AutoCAD 2000
 90
        0
280
               0
281
               0
  0
CLASS
  1
ACDBDICTIONARYWDFLT
  2
AcDbDictionaryWithDefault
  3
AutoCAD 2000
 90
        0
280
               0
281
               0
  0
CLASS
  1
ACDBPLACEHOLDER
  2
AcDbPlaceHolder
  3
AutoCAD 2000
 90
        0
280
               0
281
               0
  0
ENDSEC
  0
SECTION
  2
TABLES
  0
TABLE
  2
VPORT
  5
7
100
AcDbSymbolTable
 70
               1
  0
VPORT
  5
15
100
AcDbSymbolTableRecord
100
AcDbViewportTableRecord
  2
*ACTIVE
 70
               0
 10
0.0
 20
0.0
 11
1.0
 21
1.0
 12
-17.944444444685246
 22
-18.761407556205995
 13
0.0
 23
0.0
 14
1.0
 24
1.0
 15
0.0
 25
0.0
 16
0.0
 26
0.0
 36
1.0
 17
0.0
 27
0.0
 37
0.0
 40
2837.522815112412
 41
0.688564
 42
50.0
 43
0.0
 44
0.0
 50
0.0
 51
0.0
 71
               0
 72
            2000
 73
               1
 74
               1
 75
               0
 76
               0
 77
               0
 78
               0
281
               0
 65
               0
110
0.0
120
0.0
130
0.0
111
1.0
121
0.0
131
0.0
112
0.0
122
1.0
132
0.0
345
0
346
0
 79
               0
146
0.0
  0
ENDTAB
  0
TABLE
  2
LTYPE
  5
4
100
AcDbSymbolTable
 70
              16
  0
LTYPE
  5
11
100
AcDbSymbolTableRecord
100
AcDbLinetypeTableRecord
  2
ByBlock
 70
              64
  3

 72
              65
 73
               0
 40
0.0
  0
LTYPE
  5
12
100
AcDbSymbolTableRecord
100
AcDbLinetypeTableRecord
  2
ByLayer
 70
              64
  3

 72
              65
 73
               0
 40
0.0
  0
LTYPE
  5
13
100
AcDbSymbolTableRecord
100
AcDbLinetypeTableRecord
  2
Continuous
 70
              64
  3
Solid line
 72
              65
 73
               0
 40
0.0
  0
LTYPE
  5
35
100
AcDbSymbolTableRecord
100
AcDbLinetypeTableRecord
  2
STYLE_01
 70
               0
  3

 72
              65
 73
               2
 40
0.41664
 49
0.20828
 74
               0
 49
-0.20836
 74
               0
  0
LTYPE
  5
36
100
AcDbSymbolTableRecord
100
AcDbLinetypeTableRecord
  2
STYLE_02
 70
               0
  3

 72
              65
 73
               2
 40
0.6944250000000001
 49
0.48607
 74
               0
 49
-0.2083550000000001
 74
               0
  0
LTYPE
  5
37
100
AcDbSymbolTableRecord
100
AcDbLinetypeTableRecord
  2
STYLE_03
 70
               0
  3

 72
              65
 73
               2
 40
1.25
 49
1.0416400000000001
 74
               0
 49
-0.2083599999999999
 74
               0
  0
LTYPE
  5
38
100
AcDbSymbolTableRecord
100
AcDbLinetypeTableRecord
  2
STYLE_04
 70
               0
  3

 72
              65
 73
               2
 40
1.5277099999999999
 49
1.3194249999999998
 74
               0
 49
-0.208285
 74
               0
  0
LTYPE
  5
39
100
AcDbSymbolTableRecord
100
AcDbLinetypeTableRecord
  2
STYLE_05
 70
               0
  3

 72
              65
 73
               2
 40
0.20828
 49
0.069425
 74
               0
 49
-0.138855
 74
               0
  0
LTYPE
  5
3A
100
AcDbSymbolTableRecord
100
AcDbLinetypeTableRecord
  2
STYLE_06
 70
               0
  3

 72
              65
 73
               4
 40
1.0416400000000001
 49
0.625
 74
               0
 49
-0.20828
 74
               0
 49
0.06943
 74
               0
 49
-0.13893
 74
               0
  0
LTYPE
  5
3B
100
AcDbSymbolTableRecord
100
AcDbLinetypeTableRecord
  2
STYLE_07
 70
               0
  3

 72
              65
 73
               6
 40
1.875
 49
0.625
 74
               0
 49
-0.20828
 74
               0
 49
0.6250000000000001
 74
               0
 49
-0.2083599999999999
 74
               0
 49
0.06943
 74
               0
 49
-0.1389299999999999
 74
               0
  0
LTYPE
  5
3C
100
AcDbSymbolTableRecord
100
AcDbLinetypeTableRecord
  2
STYLE_08
 70
               0
  3

 72
              65
 73
               6
 40
1.25
 49
0.625
 74
               0
 49
-0.20828
 74
               0
 49
0.06943
 74
               0
 49
-0.13893
 74
               0
 49
0.0694299999999999
 74
               0
 49
-0.13893
 74
               0
  0
LTYPE
  5
3D
100
AcDbSymbolTableRecord
100
AcDbLinetypeTableRecord
  2
STYLE_09
 70
               0
  3

 72
              65
 73
               4
 40
5.0
 49
3.75
 74
               0
 49
-0.2777849999999998
 74
               0
 49
0.6944300000000003
 74
               0
 49
-0.2777849999999998
 74
               0
  0
LTYPE
  5
3E
100
AcDbSymbolTableRecord
100
AcDbLinetypeTableRecord
  2
STYLE_10
 70
               0
  3

 72
              65
 73
               6
 40
5.9375
 49
3.75
 74
               0
 49
-0.2777849999999998
 74
               0
 49
0.6944300000000003
 74
               0
 49
-0.2777849999999998
 74
               0
 49
0.625
 74
               0
 49
-0.3125
 74
               0
  0
LTYPE
  5
3F
100
AcDbSymbolTableRecord
100
AcDbLinetypeTableRecord
  2
STYLE_11
 70
               0
  3

 72
              65
 73
               2
 40
0.1875
 49
0.125
 74
               0
 49
-0.0625
 74
               0
  0
LTYPE
  5
40
100
AcDbSymbolTableRecord
100
AcDbLinetypeTableRecord
  2
STYLE_12
 70
               0
  3

 72
              65
 73
               2
 40
0.3937007874015748
 49
0.1968503937007874
 74
               0
 49
-0.1968503937007874
 74
               0
  0
LTYPE
  5
41
100
AcDbSymbolTableRecord
100
AcDbLinetypeTableRecord
  2
STYLE_13
 70
               0
  3

 72
              65
 73
               2
 40
0.1230314960629921
 49
0.0615157480314961
 74
               0
 49
-0.0615157480314961
 74
               0
  0
ENDTAB
  0
TABLE
  2
LAYER
  5
2
100
AcDbSymbolTable
 70
               5
  0
LAYER
  5
14
100
AcDbSymbolTableRecord
100
AcDbLayerTableRecord
  2
0
 70
               0
 62
               7
  6
Continuous
290
               1
370
              -3
390
1D
  0
LAYER
  5
42
100
AcDbSymbolTableRecord
100
AcDbLayerTableRecord
  2
Defpoints
 70
               0
 62
               7
  6
Continuous
290
               0
370
              -3
390
1D
  0
LAYER
  5
43
100
AcDbSymbolTableRecord
100
AcDbLayerTableRecord
  2
template
 70
               0
 62
               7
  6
Continuous
290
               1
370
              -3
390
1D
  0
LAYER
  5
44
100
AcDbSymbolTableRecord
100
AcDbLayerTableRecord
  2
notes
 70
               0
 62
               7
  6
Continuous
290
               1
370
              -3
390
1D
  0
LAYER
  5
45
100
AcDbSymbolTableRecord
100
AcDbLayerTableRecord
  2
ADF70-2302
 70
               0
 62
               7
  6
Continuous
290
               1
370
              -3
390
1D
  0
ENDTAB
  0
TABLE
  2
STYLE
  5
3
100
AcDbSymbolTable
 70
               2
  0
STYLE
  5
17
100
AcDbSymbolTableRecord
100
AcDbTextStyleTableRecord
  2
Standard
 70
               0
 40
0.0
 41
1.0
 50
0.0
 71
               0
 42
0.0
  3
txt
  4
BIGFONT.SHX
  0
STYLE
  5
34
100
AcDbSymbolTableRecord
100
AcDbTextStyleTableRecord
  2
ＭＳ ゴシック
 70
               0
 40
0.0
 41
1.0
 50
0.0
 71
               0
 42
0.0
  3

  4
ＭＳ ゴシック
1001
ACAD
1000
ＭＳ ゴシック
1071
        0
  0
ENDTAB
  0
TABLE
  2
VIEW
  5
5
100
AcDbSymbolTable
 70
               0
  0
ENDTAB
  0
TABLE
  2
UCS
  5
6
100
AcDbSymbolTable
 70
               0
  0
ENDTAB
  0
TABLE
  2
APPID
  5
8
100
AcDbSymbolTable
 70
               1
  0
APPID
  5
16
100
AcDbSymbolTableRecord
100
AcDbRegAppTableRecord
  2
ACAD
 70
               0
  0
ENDTAB
  0
TABLE
  2
DIMSTYLE
  5
9
100
AcDbSymbolTable
 70
               2
100
AcDbDimStyleTable
 71
               0
  0
DIMSTYLE
105
18
100
AcDbSymbolTableRecord
100
AcDbDimStyleTableRecord
  2
Standard
 70
               0
  3

  4

 40
1.0
 41
0.18
 42
0.0625
 43
0.38
 44
0.18
 45
0.0
 46
0.0
 47
0.0
 48
0.0
 71
               0
 72
               0
 73
               1
 74
               1
 75
               0
 76
               0
 77
               0
 78
               0
 79
               0
140
0.18
141
0.09
142
0.0
143
25.399999999999999
144
1.0
145
0.0
146
1.0
147
0.09
148
0.0
170
               0
171
               2
172
               0
173
               0
174
               0
175
               0
176
               0
177
               0
178
               0
179
               0
271
               4
272
               4
273
               2
274
               2
275
               0
276
               0
277
               2
278
              46
279
               0
280
               0
281
               0
282
               0
283
               1
284
               0
285
               0
286
               0
288
               0
289
               3
340
17
341
0
342
0
343
0
344
0
371
              -2
372
              -2
  0
DIMSTYLE
105
4E
100
AcDbSymbolTableRecord
100
AcDbDimStyleTableRecord
  2
tform線あり
 70
               0
  3
<>
  4
[]
 40
1.0
 41
9.9993896484374982
 42
24.999999999999996
 43
0.9999999999999999
 44
0.0
 45
0.0
 46
0.0
 47
0.0
 48
0.0
 71
               0
 72
               0
 73
               0
 74
               0
 75
               0
 76
               0
 77
               1
 78
              11
 79
               0
140
24.432617187500004
141
0.0
142
0.0
143
0.0393700787401575
144
1.0
145
0.0
146
0.8
147
0.4999999999999999
148
0.0
170
               0
171
               3
172
               1
173
               0
174
               1
175
               0
176
               0
177
               0
178
               0
179
               2
271
               1
272
               1
273
               4
274
               2
275
               0
276
               2
277
               2
278
              46
279
               0
280
               0
281
               0
282
               0
283
               1
284
              11
285
              15
286
              15
288
               0
289
               0
340
34
341
46
342
46
343
0
344
0
371
              -2
372
              -2
  0
ENDTAB
  0
TABLE
  2
BLOCK_RECORD
  5
1
100
AcDbSymbolTable
 70
              18
  0
BLOCK_RECORD
  5
A
100
AcDbSymbolTableRecord
100
AcDbBlockTableRecord
  2
*MODEL_SPACE
340
20
  0
BLOCK_RECORD
  5
B
100
AcDbSymbolTableRecord
100
AcDbBlockTableRecord
  2
*PAPER_SPACE
340
21
  0
BLOCK_RECORD
  5
46
100
AcDbSymbolTableRecord
100
AcDbBlockTableRecord
  2
_DOT
340
0
  0
BLOCK_RECORD
  5
23
100
AcDbSymbolTableRecord
100
AcDbBlockTableRecord
  2
グループ
340
0
102
{BLKREFS
331
12D
102
}
  0
BLOCK_RECORD
  5
24
100
AcDbSymbolTableRecord
100
AcDbBlockTableRecord
  2
*D2
340
0
  0
BLOCK_RECORD
  5
25
100
AcDbSymbolTableRecord
100
AcDbBlockTableRecord
  2
*D3
340
0
  0
BLOCK_RECORD
  5
26
100
AcDbSymbolTableRecord
100
AcDbBlockTableRecord
  2
*D4
340
0
  0
BLOCK_RECORD
  5
27
100
AcDbSymbolTableRecord
100
AcDbBlockTableRecord
  2
*D5
340
0
  0
BLOCK_RECORD
  5
28
100
AcDbSymbolTableRecord
100
AcDbBlockTableRecord
  2
*D6
340
0
  0
BLOCK_RECORD
  5
29
100
AcDbSymbolTableRecord
100
AcDbBlockTableRecord
  2
*D7
340
0
  0
BLOCK_RECORD
  5
2A
100
AcDbSymbolTableRecord
100
AcDbBlockTableRecord
  2
*D8
340
0
  0
BLOCK_RECORD
  5
2B
100
AcDbSymbolTableRecord
100
AcDbBlockTableRecord
  2
*D9
340
0
  0
BLOCK_RECORD
  5
2C
100
AcDbSymbolTableRecord
100
AcDbBlockTableRecord
  2
*D10
340
0
  0
BLOCK_RECORD
  5
2D
100
AcDbSymbolTableRecord
100
AcDbBlockTableRecord
  2
*D11
340
0
  0
BLOCK_RECORD
  5
2E
100
AcDbSymbolTableRecord
100
AcDbBlockTableRecord
  2
*D12
340
0
  0
BLOCK_RECORD
  5
2F
100
AcDbSymbolTableRecord
100
AcDbBlockTableRecord
  2
*D13
340
0
  0
BLOCK_RECORD
  5
30
100
AcDbSymbolTableRecord
100
AcDbBlockTableRecord
  2
*D14
340
0
  0
BLOCK_RECORD
  5
31
100
AcDbSymbolTableRecord
100
AcDbBlockTableRecord
  2
*D15
340
0
  0
BLOCK_RECORD
  5
32
100
AcDbSymbolTableRecord
100
AcDbBlockTableRecord
  2
*D16
340
0
  0
BLOCK_RECORD
  5
33
100
AcDbSymbolTableRecord
100
AcDbBlockTableRecord
  2
*D17
340
0
  0
ENDTAB
  0
ENDSEC
  0
SECTION
  2
BLOCKS
  0
BLOCK
  5
D
100
AcDbEntity
  8
0
390
0
100
AcDbBlockBegin
  2
*MODEL_SPACE
 70
               0
 10
0.0
 20
0.0
 30
0.0
  3
*MODEL_SPACE
  1

  0
ENDBLK
  5
E
100
AcDbEntity
  8
0
390
0
100
AcDbBlockEnd
  0
BLOCK
  5
F
100
AcDbEntity
 67
               1
  8
0
390
0
100
AcDbBlockBegin
  2
*PAPER_SPACE
 70
               0
 10
0.0
 20
0.0
 30
0.0
  3
*PAPER_SPACE
  1

  0
ENDBLK
  5
10
100
AcDbEntity
 67
               1
  8
0
390
0
100
AcDbBlockEnd
  0
BLOCK
  5
47
100
AcDbEntity
  8
0
390
0
100
AcDbBlockBegin
  2
_DOT
 70
               0
 10
0.0
 20
0.0
 30
0.0
  3
_DOT
  1

  0
POLYLINE
  5
48
100
AcDbEntity
  8
0
370
              -2
390
0
  6
ByBlock
 62
               0
100
AcDb2dPolyline
 66
               1
 10
0.0
 20
0.0
 30
0.0
 70
               1
 40
0.5
 41
0.5
  0
VERTEX
  5
49
100
AcDbEntity
  8
0
370
              -2
390
0
  6
ByBlock
 62
               0
100
AcDbVertex
100
AcDb2dVertex
 10
-0.25
 20
0.0
 30
0.0
 42
1.0
  0
VERTEX
  5
4A
100
AcDbEntity
  8
0
370
              -2
390
0
  6
ByBlock
 62
               0
100
AcDbVertex
100
AcDb2dVertex
 10
0.25
 20
0.0
 30
0.0
 42
1.0
  0
SEQEND
  5
4B
100
AcDbEntity
  8
0
390
0
  0
LINE
  5
4C
100
AcDbEntity
  8
0
370
              -2
390
0
  6
ByBlock
 62
               0
100
AcDbLine
 10
-0.5
 20
0.0
 30
0.0
 11
-1.0
 21
0.0
 31
0.0
  0
ENDBLK
  5
4D
100
AcDbEntity
  8
0
390
0
100
AcDbBlockEnd
  0
BLOCK
  5
4F
100
AcDbEntity
  8
template
390
0
100
AcDbBlockBegin
  2
グループ
 70
               0
 10
0.0
 20
0.0
 30
0.0
  3
グループ
  1

  0
LWPOLYLINE
  5
50
100
AcDbEntity
  8
0
370
              15
390
0
  6
Continuous
 62
               7
100
AcDbPolyline
 90
        8
 70
             129
 10
869.48406335838945
 20
-1340.4870136649852
 10
869.48406335838945
 20
-1346.4844023585611
 10
859.98286644038626
 20
-1346.4844023585611
 10
859.98286644038626
 20
-1370.9353656220696
 10
851.62748917860335
 20
-1370.9353656220696
 10
851.62748917860335
 20
-1346.4844023585611
 10
842.29453223229393
 20
-1346.4844023585611
 10
842.29453223229393
 20
-1340.4870136649852
  0
LWPOLYLINE
  5
51
100
AcDbEntity
  8
0
370
              15
390
0
  6
Continuous
 62
               7
100
AcDbPolyline
 90
      101
 70
             128
 10
882.21235518894628
 20
-1341.2152621579216
 10
882.22770521772918
 20
-1341.2109014012372
 42
-0.0222221607814586
 10
882.51770979440244
 20
-1341.142276935992
 10
882.53350355839768
 20
-1341.1392735128948
 42
-0.0146883565587483
 10
882.79620626362021
 20
-1341.0972703259456
 42
-0.012745884418185
 10
883.06084523077561
 20
-1341.0697333578728
 10
883.12330030908606
 20
-1341.0648399352849
 42
-0.0198099018566816
 10
883.51414941855751
 20
-1341.0497547778882
 10
883.56596088800666
 20
-1341.0498085535532
 42
-0.0147617382765255
 10
884.06058434897761
 20
-1341.0649285787979
 10
884.13327580385578
 20
-1341.0693011856856
 42
-0.0162624549002273
 10
884.52342943332042
 20
-1341.105534060958
 10
884.64496182458765
 20
-1341.1208206199556
 42
-0.0080020874661618
 10
884.79054085567111
 20
-1341.1415034672229
 10
884.82886032626584
 20
-1341.147574745034
 42
-0.0053821929674823
 10
884.89734443158113
 20
-1341.1591822688556
 10
884.17093873238241
 20
-1343.3401107245695
 42
0.0108667757386811
 10
884.10362166225593
 20
-1343.3269236093504
 10
884.06615363906201
 20
-1343.3204258667552
 42
0.0170663203309071
 10
883.92293685214827
 20
-1343.3005962694635
 10
883.85506151946356
 20
-1343.2935490988759
 42
0.0220162375277295
 10
883.57468211160619
 20
-1343.2768667381058
 10
883.49682654455728
 20
-1343.2756673708393
 42
0.0282606915785984
 10
883.16119022097826
 20
-1343.2894706478085
 10
883.1172769472031
 20
-1343.2937706378125
 42
0.0169677213686591
 10
882.87135245224704
 20
-1343.3263076873641
 42
0.0190576269866942
 10
882.62844448966655
 20
-1343.3764545594704
 10
882.6221853015561
 20
-1343.3779975335797
 42
0.0213685642849968
 10
882.371800817078
 20
-1343.4511978186847
 10
882.36631092216203
 20
-1343.4530608147436
 42
0.023759529759325
 10
882.1128160372615
 20
-1343.5527453366401
 10
882.10771396323366
 20
-1343.5550371121174
 42
0.0261857468818703
 10
881.85554318700486
 20
-1343.6845734494912
 10
881.8451169979179
 20
-1343.6906389239596
 42
0.0272553062017985
 10
881.60868722267844
 20
-1343.8460111299046
 10
881.57392420916688
 20
-1343.8716722779984
 42
0.0325996893185438
 10
881.42376886551745
 20
-1343.9984201509681
 10
881.40005943639994
 20
-1344.0212381794754
 42
0.013805096063099
 10
881.30817628018417
 20
-1344.1146878410327
 42
0.0125280103807736
 10
881.22133374734915
 20
-1344.2128511676347
 10
881.19765330244229
 20
-1344.2410096658202
 42
0.02052180247431
 10
881.07255322692845
 20
-1344.4028029800495
 10
881.05008688644148
 20
-1344.4344627098762
 42
0.0163110129582237
 10
880.89437650719253
 20
-1344.6697931449423
 10
880.89165261113919
 20
-1344.6742169069316
 42
0.013189734189513
 10
880.74485209022987
 20
-1344.9273489993022
 10
880.74315199486682
 20
-1344.9304672384317
 42
0.0107895576060315
 10
880.60537529265935
 20
-1345.1966824480598
 10
880.60464240313092
 20
-1345.1981766807132
 42
0.009137150721535
 10
880.47616245448251
 20
-1345.4727018784704
 10
880.44641682307224
 20
-1345.5394083856318
 42
0.0135418326351345
 10
880.27470288399809
 20
-1345.954346170907
 10
880.2410980755684
 20
-1346.0422123131764
 42
0.0092834542408621
 10
880.06986901564551
 20
-1346.5161108114871
 10
880.04425188792527
 20
-1346.5913518812881
 42
0.0054261043584433
 10
879.93661373963494
 20
-1346.9191158543456
 10
879.91908775342063
 20
-1346.974504016692
 42
0.0008225090824017
 10
879.85041770162752
 20
-1347.1927727747247
 10
878.86572856969406
 20
-1350.2176640679813
 10
882.09835240976781
 20
-1350.2176640679813
 10
881.59415997991437
 20
-1352.1221423663337
 10
878.33810369793105
 20
-1352.1221423663337
 10
872.50895466557722
 20
-1370.9353654323386
 10
870.6838570552668
 20
-1370.9353654323386
 10
876.51853509076773
 20
-1352.1221423663337
 10
874.11341872172761
 20
-1352.1221423663337
 10
874.61761115158106
 20
-1350.2176640679813
 10
877.04615996253096
 20
-1350.2176640679813
 10
877.90631488071949
 20
-1347.5812510672827
 42
-0.0005863560630144
 10
877.94304955891482
 20
-1347.464424647017
 10
878.0191373925835
 20
-1347.2234323476055
 42
-0.0087522378929516
 10
878.21860553603858
 20
-1346.6281562604638
 10
878.31086981145484
 20
-1346.368016091943
 42
-0.0077400953828939
 10
878.56880347058495
 20
-1345.6750114143977
 10
878.58456844216232
 20
-1345.6345805310154
 42
-0.0082369946330787
 10
878.83165291277578
 20
-1345.0305014648159
 42
-0.0085725238363112
 10
879.09889900878056
 20
-1344.4350754255247
 10
879.20052860978626
 20
-1344.2186543235434
 42
-0.016810941059309
 10
879.48747303851599
 20
-1343.6574467974394
 10
879.61331642896198
 20
-1343.4304827644655
 42
-0.0007817726876666
 10
879.66760077903166
 20
-1343.3329385194108
 10
879.6677290850381
 20
-1343.3327088106937
 42
-0.0036626142164967
 10
879.72261694907024
 20
-1343.2361109307058
 42
-0.0080221150664651
 10
879.7797412044838
 20
-1343.1408316959419
 10
879.81044115583813
 20
-1343.0914407468308
 42
-0.0202139325559529
 10
879.9380968956458
 20
-1342.903459146148
 10
879.99216436083248
 20
-1342.8303802819087
 42
-0.024932379180016
 10
880.25132715454708
 20
-1342.5143350397593
 10
880.27546696867864
 20
-1342.4877207668417
 42
-0.0242132121538574
 10
880.61514771022325
 20
-1342.1478372806353
 10
880.66305928297061
 20
-1342.1043281444522
 42
-0.0251017527856977
 10
880.94704098361194
 20
-1341.8713353986868
 10
880.9484864604259
 20
-1341.8702661411078
 42
-0.0130868069041452
 10
881.24674711038301
 20
-1341.6614856725653
 10
881.24830892952446
 20
-1341.6604522322912
 42
-0.0290329526392482
 10
881.55942007091903
 20
-1341.479626730661
 10
881.58926563290834
 20
-1341.4645243478199
 42
-0.0160250190047506
 10
881.85517004666974
 20
-1341.3405082376082
 42
-0.0267600374781903
 10
882.13044612413944
 20
-1341.2397599170592
 10
882.1571820436593
 20
-1341.2315673582339
 42
-0.0049981587689005
 10
882.21235518894628
 20
-1341.2152621579216
 42
-0.0049981587689005
  0
LWPOLYLINE
  5
52
100
AcDbEntity
  8
0
370
              15
390
0
  6
Continuous
 62
               7
100
AcDbPolyline
 90
      118
 70
             128
 10
902.02672275339319
 20
-1350.2916473958089
 10
903.90184467789277
 20
-1350.2916473958089
 10
903.06380577229288
 20
-1352.9732139222087
 42
-0.001058722925114
 10
903.09526158780807
 20
-1352.9363093889201
 10
903.15345567849681
 20
-1352.8683271326779
 42
-0.007187474041069
 10
903.30383089659938
 20
-1352.697686440644
 10
903.44555366985708
 20
-1352.5414502993356
 42
-0.0148118053513132
 10
903.89568296256743
 20
-1352.0738364533247
 10
903.98290529747521
 20
-1351.9884391324656
 42
-0.0086273358691382
 10
904.31845409848006
 20
-1351.6710634984527
 10
904.36228781470788
 20
-1351.6310138541178
 42
-0.0103138323108921
 10
904.62031151693941
 20
-1351.4048507167813
 10
904.66608592326293
 20
-1351.366368669524
 42
-0.0060206748566175
 10
904.8389339873786
 20
-1351.2245740187666
 10
904.84096511826726
 20
-1351.2229483131332
 42
-0.0067069027301675
 10
905.0132579329271
 20
-1351.0887976793404
 10
905.01580669885925
 20
-1351.0868675094605
 42
-0.0076184352042255
 10
905.18671196472451
 20
-1350.9614926342213
 42
-0.0089652861680862
 10
905.36167292745472
 20
-1350.8418593738916
 10
905.39802464760373
 20
-1350.8179481604059
 42
-0.0156916245934203
 10
905.59398414476414
 20
-1350.6976856739313
 42
-0.0023299011071689
 10
905.79424618870974
 20
-1350.5845077344095
 10
905.8096303211239
 20
-1350.5759077393257
 42
-0.0107669341480636
 10
906.04386714623274
 20
-1350.4515076059722
 10
906.06613194730005
 20
-1350.4402908560262
 42
-0.0078058045894601
 10
906.34972206525561
 20
-1350.3029294003863
 10
906.35962915296193
 20
-1350.2983202725193
 42
-0.0181829330472488
 10
906.66993855757494
 20
-1350.1674565314247
 10
906.72399400014535
 20
-1350.1469414114797
 42
-0.0208411536030652
 10
907.07307896759448
 20
-1350.0308509489871
 10
907.08743506771805
 20
-1350.0267325040347
 42
-0.0222799817138322
 10
907.41615486163914
 20
-1349.9480909378933
 10
907.42504382487948
 20
-1349.9463789273077
 42
-0.0215509523886542
 10
907.74151479315606
 20
-1349.8994632387739
 10
907.7839967542053
 20
-1349.8950257119832
 42
-0.0182545924872251
 10
908.01810553351027
 20
-1349.8791818865923
 10
908.05750654985411
 20
-1349.8779573415131
 42
-0.0072962856533126
 10
908.21342942954709
 20
-1349.8753880129909
 10
908.24252910010864
 20
-1349.8753331775872
 42
-0.0059227516314246
 10
908.34027859926414
 20
-1349.8763068893775
 10
908.36952081678453
 20
-1349.8769446559818
 42
-0.0011833111903731
 10
908.40877210046847
 20
-1349.8778936602907
 10
907.6133855048613
 20
-1352.4166276053897
 42
0.0143932051521741
 10
907.58698412251363
 20
-1352.4064286353457
 10
907.57971215009343
 20
-1352.4038574164872
 42
0.0234388603509231
 10
907.53788128415897
 20
-1352.3912381807711
 10
907.52919962124861
 20
-1352.3890572187668
 42
0.0199162742983812
 10
907.46891078716885
 20
-1352.3764404834317
 10
907.4480968493624
 20
-1352.3729432840032
 42
0.0293643550674025
 10
907.3450219906008
 20
-1352.3617932383499
 10
907.32033680988286
 20
-1352.3605816213314
 42
0.021460668686946
 10
907.16719589393404
 20
-1352.3596430609141
 10
907.15782398311251
 20
-1352.3599879724584
 42
0.0167564054178458
 10
906.98630379200051
 20
-1352.3720650148268
 10
906.97784399924512
 20
-1352.3729463552536
 42
0.0137677553246526
 10
906.7904906859842
 20
-1352.3976956637964
 10
906.7831389464726
 20
-1352.398873583765
 42
0.0118497261493884
 10
906.58264118236116
 20
-1352.4358909339562
 10
906.57649117512403
 20
-1352.4371777966742
 42
0.010642114388643
 10
906.36561028784377
 20
-1352.4860101722477
 10
906.36070147944997
 20
-1352.4872575149341
 42
0.009974637970708
 10
906.1422430102823
 20
-1352.5474320432504
 10
906.08069497011718
 20
-1352.5657139218795
 42
0.0191613675862525
 10
905.74471050760121
 20
-1352.6796913021667
 10
905.65665073485286
 20
-1352.7133782124918
 42
0.0205274080143976
 10
905.27134396295537
 20
-1352.8792066203173
 10
905.21369468097942
 20
-1352.9068745848867
 42
0.0181256912187841
 10
904.95541774030642
 20
-1353.0425584038674
 10
904.90246235699215
 20
-1353.0728760170823
 42
0.0140709242414387
 10
904.75750742236403
 20
-1353.1613706905164
 10
904.73125855374713
 20
-1353.1784275092309
 42
0.0086667884399119
 10
904.642332392203
 20
-1353.2384301771147
 42
0.0036408192026964
 10
904.5548991541657
 20
-1353.3006110349099
 10
904.51967227970101
 20
-1353.3260519808198
 42
0.0052260781284804
 10
904.36344358230951
 20
-1353.4413843674545
 10
904.34723672605037
 20
-1353.4536124780723
 42
0.0050024435895583
 10
904.16123338298121
 20
-1353.5968950463428
 10
904.1459152264764
 20
-1353.6089410687803
 42
0.0136138710284539
 10
903.93547395815051
 20
-1353.783907573694
 10
903.90180608235744
 20
-1353.8134865464078
 42
0.0172815186910609
 10
903.6374025407024
 20
-1354.0624832190238
 10
903.63484019485236
 20
-1354.0650690361783
 42
0.0189403857993623
 10
903.38425839627143
 20
-1354.3378743009846
 10
903.35162690273444
 20
-1354.3762182324831
 42
0.0185044199505625
 10
903.15967046375727
 20
-1354.6194668136027
 42
0.0088565243895127
 10
902.98121035713223
 20
-1354.8729832337478
 10
902.97203237748033
 20
-1354.8865246135128
 42
0.0157195347231422
 10
902.78881177114533
 20
-1355.1760468228299
 10
902.74272882921969
 20
-1355.254199019842
 42
0.0095451879780477
 10
902.57764327907773
 20
-1355.5467936622058
 10
902.56649536014015
 20
-1355.5674643343525
 42
0.0100351706261566
 10
902.43445161098884
 20
-1355.8245198948287
 42
0.0086935915418594
 10
902.31212045919847
 20
-1356.086353040225
 10
902.3087997177804
 20
-1356.0937953632049
 42
0.007258017486272
 10
902.18845326583607
 20
-1356.3743873547862
 10
902.18519163252904
 20
-1356.3823073808057
 42
0.0060005122616334
 10
902.06599096418461
 20
-1356.6819170514157
 10
902.06277998584471
 20
-1356.6902785793156
 42
0.0049017786982947
 10
901.94387982698697
 20
-1357.0092075599209
 10
901.94071402059683
 20
-1357.0179604971504
 42
0.0039415167603797
 10
901.82127774253991
 20
-1357.3565025595644
 10
901.81814663988803
 20
-1357.3656057604396
 42
0.0031035838765255
 10
901.69734185419441
 20
-1357.724045622215
 10
901.69423180966464
 20
-1357.7334662435881
 42
0.0025070747151158
 10
901.57133045834814
 20
-1358.1121134605355
 10
901.53403656192381
 20
-1358.2290051257851
 42
0.0029081910283022
 10
901.34201826412141
 20
-1358.8431687840489
 10
901.30121509559592
 20
-1358.9763920263526
 42
0.0009266453732265
 10
901.03279772128019
 20
-1359.8586164862793
 10
901.01191024859224
 20
-1359.9277283656718
 42
-0.0005809993663083
 10
900.73457356804943
 20
-1360.8415364721509
 10
900.66829176979127
 20
-1361.0590214042625
 42
-0.0012018708171438
 10
900.52130746034732
 20
-1361.5371840688313
 10
900.46898760879253
 20
-1361.7059432096619
 42
-0.0002691059603814
 10
900.42541812761328
 20
-1361.8462108300391
 10
897.59246222932393
 20
-1370.9353654323386
 10
895.7744733373454
 20
-1370.9353654323386
 10
902.02672275339319
 20
-1350.2916473958089
  0
SPLINE
  5
53
100
AcDbEntity
  8
0
370
              15
390
0
  6
Continuous
 62
               7
100
AcDbSpline
210
0.0
220
0.0
230
1.0
 70
              13
 71
               2
 72
             782
 73
             779
 74
               0
 42
0.000001
 43
0.000001
 40
0.0
 40
0.0
 40
0.0
 40
1.0
 40
1.0
 40
2.0
 40
2.0
 40
3.0
 40
3.0
 40
4.0
 40
4.0
 40
5.0
 40
5.0
 40
6.0
 40
6.0
 40
7.0
 40
7.0
 40
8.0
 40
8.0
 40
9.0
 40
9.0
 40
10.0
 40
10.0
 40
11.0
 40
11.0
 40
12.0
 40
12.0
 40
13.0
 40
13.0
 40
14.0
 40
14.0
 40
15.0
 40
15.0
 40
16.0
 40
16.0
 40
17.0
 40
17.0
 40
18.0
 40
18.0
 40
19.0
 40
19.0
 40
20.0
 40
20.0
 40
21.0
 40
21.0
 40
22.0
 40
22.0
 40
23.0
 40
23.0
 40
24.0
 40
24.0
 40
25.0
 40
25.0
 40
26.0
 40
26.0
 40
27.0
 40
27.0
 40
28.0
 40
28.0
 40
29.0
 40
29.0
 40
30.0
 40
30.0
 40
31.0
 40
31.0
 40
32.0
 40
32.0
 40
33.0
 40
33.0
 40
34.0
 40
34.0
 40
35.0
 40
35.0
 40
36.0
 40
36.0
 40
37.0
 40
37.0
 40
38.0
 40
38.0
 40
39.0
 40
39.0
 40
40.0
 40
40.0
 40
41.0
 40
41.0
 40
42.0
 40
42.0
 40
43.0
 40
43.0
 40
44.0
 40
44.0
 40
45.0
 40
45.0
 40
46.0
 40
46.0
 40
47.0
 40
47.0
 40
48.0
 40
48.0
 40
49.0
 40
49.0
 40
50.0
 40
50.0
 40
51.0
 40
51.0
 40
52.0
 40
52.0
 40
53.0
 40
53.0
 40
54.0
 40
54.0
 40
55.0
 40
55.0
 40
56.0
 40
56.0
 40
57.0
 40
57.0
 40
58.0
 40
58.0
 40
59.0
 40
59.0
 40
60.0
 40
60.0
 40
61.0
 40
61.0
 40
62.0
 40
62.0
 40
63.0
 40
63.0
 40
64.0
 40
64.0
 40
65.0
 40
65.0
 40
66.0
 40
66.0
 40
67.0
 40
67.0
 40
68.0
 40
68.0
 40
69.0
 40
69.0
 40
70.0
 40
70.0
 40
71.0
 40
71.0
 40
72.0
 40
72.0
 40
73.0
 40
73.0
 40
74.0
 40
74.0
 40
75.0
 40
75.0
 40
76.0
 40
76.0
 40
77.0
 40
77.0
 40
78.0
 40
78.0
 40
79.0
 40
79.0
 40
80.0
 40
80.0
 40
81.0
 40
81.0
 40
82.0
 40
82.0
 40
83.0
 40
83.0
 40
84.0
 40
84.0
 40
85.0
 40
85.0
 40
86.0
 40
86.0
 40
87.0
 40
87.0
 40
88.0
 40
88.0
 40
89.0
 40
89.0
 40
90.0
 40
90.0
 40
91.0
 40
91.0
 40
92.0
 40
92.0
 40
93.0
 40
93.0
 40
94.0
 40
94.0
 40
95.0
 40
95.0
 40
96.0
 40
96.0
 40
97.0
 40
97.0
 40
98.0
 40
98.0
 40
99.0
 40
99.0
 40
100.0
 40
100.0
 40
101.0
 40
101.0
 40
102.0
 40
102.0
 40
103.0
 40
103.0
 40
104.0
 40
104.0
 40
105.0
 40
105.0
 40
106.0
 40
106.0
 40
107.0
 40
107.0
 40
108.0
 40
108.0
 40
109.0
 40
109.0
 40
110.0
 40
110.0
 40
111.0
 40
111.0
 40
112.0
 40
112.0
 40
113.0
 40
113.0
 40
114.0
 40
114.0
 40
115.0
 40
115.0
 40
116.0
 40
116.0
 40
117.0
 40
117.0
 40
118.0
 40
118.0
 40
119.0
 40
119.0
 40
120.0
 40
120.0
 40
121.0
 40
121.0
 40
122.0
 40
122.0
 40
123.0
 40
123.0
 40
124.0
 40
124.0
 40
125.0
 40
125.0
 40
126.0
 40
126.0
 40
127.0
 40
127.0
 40
128.0
 40
128.0
 40
129.0
 40
129.0
 40
130.0
 40
130.0
 40
131.0
 40
131.0
 40
132.0
 40
132.0
 40
133.0
 40
133.0
 40
134.0
 40
134.0
 40
135.0
 40
135.0
 40
136.0
 40
136.0
 40
137.0
 40
137.0
 40
138.0
 40
138.0
 40
139.0
 40
139.0
 40
140.0
 40
140.0
 40
141.0
 40
141.0
 40
142.0
 40
142.0
 40
143.0
 40
143.0
 40
144.0
 40
144.0
 40
145.0
 40
145.0
 40
146.0
 40
146.0
 40
147.0
 40
147.0
 40
148.0
 40
148.0
 40
149.0
 40
149.0
 40
150.0
 40
150.0
 40
151.0
 40
151.0
 40
152.0
 40
152.0
 40
153.0
 40
153.0
 40
154.0
 40
154.0
 40
155.0
 40
155.0
 40
156.0
 40
156.0
 40
157.0
 40
157.0
 40
158.0
 40
158.0
 40
159.0
 40
159.0
 40
160.0
 40
160.0
 40
161.0
 40
161.0
 40
162.0
 40
162.0
 40
163.0
 40
163.0
 40
164.0
 40
164.0
 40
165.0
 40
165.0
 40
166.0
 40
166.0
 40
167.0
 40
167.0
 40
168.0
 40
168.0
 40
169.0
 40
169.0
 40
170.0
 40
170.0
 40
171.0
 40
171.0
 40
172.0
 40
172.0
 40
173.0
 40
173.0
 40
174.0
 40
174.0
 40
175.0
 40
175.0
 40
176.0
 40
176.0
 40
177.0
 40
177.0
 40
178.0
 40
178.0
 40
179.0
 40
179.0
 40
180.0
 40
180.0
 40
181.0
 40
181.0
 40
182.0
 40
182.0
 40
183.0
 40
183.0
 40
184.0
 40
184.0
 40
185.0
 40
185.0
 40
186.0
 40
186.0
 40
187.0
 40
187.0
 40
188.0
 40
188.0
 40
189.0
 40
189.0
 40
190.0
 40
190.0
 40
191.0
 40
191.0
 40
192.0
 40
192.0
 40
193.0
 40
193.0
 40
194.0
 40
194.0
 40
195.0
 40
195.0
 40
196.0
 40
196.0
 40
197.0
 40
197.0
 40
198.0
 40
198.0
 40
199.0
 40
199.0
 40
200.0
 40
200.0
 40
201.0
 40
201.0
 40
202.0
 40
202.0
 40
203.0
 40
203.0
 40
204.0
 40
204.0
 40
205.0
 40
205.0
 40
206.0
 40
206.0
 40
207.0
 40
207.0
 40
208.0
 40
208.0
 40
209.0
 40
209.0
 40
210.0
 40
210.0
 40
211.0
 40
211.0
 40
212.0
 40
212.0
 40
213.0
 40
213.0
 40
214.0
 40
214.0
 40
215.0
 40
215.0
 40
216.0
 40
216.0
 40
217.0
 40
217.0
 40
218.0
 40
218.0
 40
219.0
 40
219.0
 40
220.0
 40
220.0
 40
221.0
 40
221.0
 40
222.0
 40
222.0
 40
223.0
 40
223.0
 40
224.0
 40
224.0
 40
225.0
 40
225.0
 40
226.0
 40
226.0
 40
227.0
 40
227.0
 40
228.0
 40
228.0
 40
229.0
 40
229.0
 40
230.0
 40
230.0
 40
231.0
 40
231.0
 40
232.0
 40
232.0
 40
233.0
 40
233.0
 40
234.0
 40
234.0
 40
235.0
 40
235.0
 40
236.0
 40
236.0
 40
237.0
 40
237.0
 40
238.0
 40
238.0
 40
239.0
 40
239.0
 40
240.0
 40
240.0
 40
241.0
 40
241.0
 40
242.0
 40
242.0
 40
243.0
 40
243.0
 40
244.0
 40
244.0
 40
245.0
 40
245.0
 40
246.0
 40
246.0
 40
247.0
 40
247.0
 40
248.0
 40
248.0
 40
249.0
 40
249.0
 40
250.0
 40
250.0
 40
251.0
 40
251.0
 40
252.0
 40
252.0
 40
253.0
 40
253.0
 40
254.0
 40
254.0
 40
255.0
 40
255.0
 40
256.0
 40
256.0
 40
257.0
 40
257.0
 40
258.0
 40
258.0
 40
259.0
 40
259.0
 40
260.0
 40
260.0
 40
261.0
 40
261.0
 40
262.0
 40
262.0
 40
263.0
 40
263.0
 40
264.0
 40
264.0
 40
265.0
 40
265.0
 40
266.0
 40
266.0
 40
267.0
 40
267.0
 40
268.0
 40
268.0
 40
269.0
 40
269.0
 40
270.0
 40
270.0
 40
271.0
 40
271.0
 40
272.0
 40
272.0
 40
273.0
 40
273.0
 40
274.0
 40
274.0
 40
275.0
 40
275.0
 40
276.0
 40
276.0
 40
277.0
 40
277.0
 40
278.0
 40
278.0
 40
279.0
 40
279.0
 40
280.0
 40
280.0
 40
281.0
 40
281.0
 40
282.0
 40
282.0
 40
283.0
 40
283.0
 40
284.0
 40
284.0
 40
285.0
 40
285.0
 40
286.0
 40
286.0
 40
287.0
 40
287.0
 40
288.0
 40
288.0
 40
289.0
 40
289.0
 40
290.0
 40
290.0
 40
291.0
 40
291.0
 40
292.0
 40
292.0
 40
293.0
 40
293.0
 40
294.0
 40
294.0
 40
295.0
 40
295.0
 40
296.0
 40
296.0
 40
297.0
 40
297.0
 40
298.0
 40
298.0
 40
299.0
 40
299.0
 40
300.0
 40
300.0
 40
301.0
 40
301.0
 40
302.0
 40
302.0
 40
303.0
 40
303.0
 40
304.0
 40
304.0
 40
305.0
 40
305.0
 40
306.0
 40
306.0
 40
307.0
 40
307.0
 40
308.0
 40
308.0
 40
309.0
 40
309.0
 40
310.0
 40
310.0
 40
311.0
 40
311.0
 40
312.0
 40
312.0
 40
313.0
 40
313.0
 40
314.0
 40
314.0
 40
315.0
 40
315.0
 40
316.0
 40
316.0
 40
317.0
 40
317.0
 40
318.0
 40
318.0
 40
319.0
 40
319.0
 40
320.0
 40
320.0
 40
321.0
 40
321.0
 40
322.0
 40
322.0
 40
323.0
 40
323.0
 40
324.0
 40
324.0
 40
325.0
 40
325.0
 40
326.0
 40
326.0
 40
327.0
 40
327.0
 40
328.0
 40
328.0
 40
329.0
 40
329.0
 40
330.0
 40
330.0
 40
331.0
 40
331.0
 40
332.0
 40
332.0
 40
333.0
 40
333.0
 40
334.0
 40
334.0
 40
335.0
 40
335.0
 40
336.0
 40
336.0
 40
337.0
 40
337.0
 40
338.0
 40
338.0
 40
339.0
 40
339.0
 40
340.0
 40
340.0
 40
341.0
 40
341.0
 40
342.0
 40
342.0
 40
343.0
 40
343.0
 40
344.0
 40
344.0
 40
345.0
 40
345.0
 40
346.0
 40
346.0
 40
347.0
 40
347.0
 40
348.0
 40
348.0
 40
349.0
 40
349.0
 40
350.0
 40
350.0
 40
351.0
 40
351.0
 40
352.0
 40
352.0
 40
353.0
 40
353.0
 40
354.0
 40
354.0
 40
355.0
 40
355.0
 40
356.0
 40
356.0
 40
357.0
 40
357.0
 40
358.0
 40
358.0
 40
359.0
 40
359.0
 40
360.0
 40
360.0
 40
361.0
 40
361.0
 40
362.0
 40
362.0
 40
363.0
 40
363.0
 40
364.0
 40
364.0
 40
365.0
 40
365.0
 40
366.0
 40
366.0
 40
367.0
 40
367.0
 40
368.0
 40
368.0
 40
369.0
 40
369.0
 40
370.0
 40
370.0
 40
371.0
 40
371.0
 40
372.0
 40
372.0
 40
373.0
 40
373.0
 40
374.0
 40
374.0
 40
375.0
 40
375.0
 40
376.0
 40
376.0
 40
377.0
 40
377.0
 40
378.0
 40
378.0
 40
379.0
 40
379.0
 40
380.0
 40
380.0
 40
381.0
 40
381.0
 40
382.0
 40
382.0
 40
383.0
 40
383.0
 40
384.0
 40
384.0
 40
385.0
 40
385.0
 40
386.0
 40
386.0
 40
387.0
 40
387.0
 40
388.0
 40
388.0
 40
389.0
 40
389.0
 40
389.0
 10
912.35542720412604
 20
-1350.2807210324463
 30
0.0
 41
1.0
 10
913.17385131284641
 20
-1350.2807210324463
 30
0.0
 41
1.0
 10
913.99227542156677
 20
-1350.2807210324463
 30
0.0
 41
1.0
 10
913.57852168605007
 20
-1351.623347296696
 30
0.0
 41
1.0
 10
913.16476795053336
 20
-1352.9659735609457
 30
0.0
 41
1.0
 10
913.18310744570363
 20
-1352.9372727880309
 30
0.0
 41
0.9999957264408771
 10
913.20161444253745
 20
-1352.9086797378754
 30
0.0
 41
1.0
 10
913.23204376667206
 20
-1352.8616668595037
 30
0.0
 41
1.0
 10
913.26247309080668
 20
-1352.8146539811321
 30
0.0
 41
1.0
 10
913.34183873591076
 20
-1352.6920351742313
 30
0.0
 41
0.9995394069080824
 10
913.42849712746317
 20
-1352.5744571124892
 30
0.0
 41
1.0
 10
913.46425398972542
 20
-1352.5259422198924
 30
0.0
 41
1.0
 10
913.50001085198778
 20
-1352.4774273272953
 30
0.0
 41
1.0
 10
913.6337375198043
 20
-1352.2959870521711
 30
0.0
 41
0.9994460617143226
 10
913.77923800109033
 20
-1352.1238446545235
 30
0.0
 41
1.0
 10
913.78362618206415
 20
-1352.1186529741422
 30
0.0
 41
1.0
 10
913.78801436303809
 20
-1352.113461293761
 30
0.0
 41
1.0
 10
913.92473848237717
 20
-1351.951702256875
 30
0.0
 41
0.9994359394934205
 10
914.07201271272959
 20
-1351.7994860557092
 30
0.0
 41
1.0
 10
914.07439606668288
 20
-1351.7970227253359
 30
0.0
 41
1.0
 10
914.07677942063617
 20
-1351.7945593949628
 30
0.0
 41
1.0
 10
914.21928694307951
 20
-1351.6472698545458
 30
0.0
 41
0.9995293688567617
 10
914.37055862406328
 20
-1351.5089966423805
 30
0.0
 41
1.0
 10
914.38985238332486
 20
-1351.491360756731
 30
0.0
 41
1.0
 10
914.40914614258645
 20
-1351.4737248710812
 30
0.0
 41
1.0
 10
914.52183030504443
 20
-1351.3707234302174
 30
0.0
 41
0.9997087614804048
 10
914.63935319400048
 20
-1351.2732791494186
 30
0.0
 41
1.0
 10
914.65851926718278
 20
-1351.2573875709049
 30
0.0
 41
1.0
 10
914.6776853403652
 20
-1351.2414959923913
 30
0.0
 41
1.0
 10
914.75687608295948
 20
-1351.1758348686174
 30
0.0
 41
0.9999595338694192
 10
914.83723535381068
 20
-1351.1116091379656
 30
0.0
 41
1.0
 10
914.91759462467417
 20
-1351.0473834073041
 30
0.0
 41
0.999974941751543
 10
914.99885515901985
 20
-1350.9843018533561
 30
0.0
 41
1.0
 10
915.01984130516917
 20
-1350.9680105660645
 30
0.0
 41
1.0
 10
915.04082745131848
 20
-1350.9517192787732
 30
0.0
 41
1.0
 10
915.12539533663289
 20
-1350.8860702689221
 30
0.0
 41
0.9999792037125567
 10
915.21080293641171
 20
-1350.8215174872716
 30
0.0
 41
1.0
 10
915.23162776231368
 20
-1350.8057776650212
 30
0.0
 41
1.0
 10
915.25245258821565
 20
-1350.7900378427705
 30
0.0
 41
1.0
 10
915.29621053617075
 20
-1350.7569647056359
 30
0.0
 41
0.9999993373856818
 10
915.33989222232435
 20
-1350.7237909102041
 30
0.0
 41
1.0
 10
915.38357390846534
 20
-1350.6906171147818
 30
0.0
 41
0.9999160953817072
 10
915.42810031938723
 20
-1350.6585860495818
 30
0.0
 41
1.0
 10
915.46092220680669
 20
-1350.634974893997
 30
0.0
 41
1.0
 10
915.49374409422614
 20
-1350.6113637384119
 30
0.0
 41
1.0
 10
915.60391427998456
 20
-1350.532110362044
 30
0.0
 41
0.9980964527231393
 10
915.72300327348603
 20
-1350.4670228891875
 30
0.0
 41
1.0
 10
915.76003588041272
 20
-1350.4467829095952
 30
0.0
 41
1.0
 10
915.79706848733952
 20
-1350.4265429300028
 30
0.0
 41
1.0
 10
915.97639550061353
 20
-1350.3285326793011
 30
0.0
 41
0.9984572810573006
 10
916.16548406697336
 20
-1350.2510104179541
 30
0.0
 41
1.0
 10
916.16913033636934
 20
-1350.2495155256161
 30
0.0
 41
1.0
 10
916.17277660576531
 20
-1350.2480206332782
 30
0.0
 41
1.0
 10
916.35457263333251
 20
-1350.1734881566076
 30
0.0
 41
0.9987838528033908
 10
916.54282529189152
 20
-1350.1172225164419
 30
0.0
 41
1.0
 10
916.54706324109168
 20
-1350.1159558627512
 30
0.0
 41
1.0
 10
916.55130119029184
 20
-1350.1146892090605
 30
0.0
 41
1.0
 10
916.73107795045223
 20
-1350.0609568762759
 30
0.0
 41
0.9990652816207277
 10
916.91482388216662
 20
-1350.0229531967341
 30
0.0
 41
1.0
 10
916.92001228319623
 20
-1350.0218800936279
 30
0.0
 41
1.0
 10
916.92520068422573
 20
-1350.0208069905218
 30
0.0
 41
1.0
 10
917.09856981388032
 20
-1349.9849495171923
 30
0.0
 41
0.9992909934270279
 10
917.27414558034081
 20
-1349.9622390847255
 30
0.0
 41
1.0
 10
917.44972134679824
 20
-1349.939528652259
 30
0.0
 41
0.9994553539448207
 10
917.62641277989076
 20
-1349.9284493480529
 30
0.0
 41
1.0
 10
917.66184718768955
 20
-1349.9262274600051
 30
0.0
 41
1.0
 10
917.69728159548822
 20
-1349.924005571957
 30
0.0
 41
1.0
 10
917.86350736205509
 20
-1349.9135825095454
 30
0.0
 41
0.9990928098292808
 10
918.03001715395567
 20
-1349.9173421507801
 30
0.0
 41
1.0
 10
918.0685789892251
 20
-1349.9182128423131
 30
0.0
 41
1.0
 10
918.10714082449454
 20
-1349.9190835338459
 30
0.0
 41
1.0
 10
918.19652694585591
 20
-1349.9211017920145
 30
0.0
 41
0.9998382089204702
 10
918.28578262864448
 20
-1349.9263339185427
 30
0.0
 41
1.0
 10
918.28621253486619
 20
-1349.9263591194449
 30
0.0
 41
1.0
 10
918.28664244108791
 20
-1349.9263843203473
 30
0.0
 41
1.0
 10
918.37503831143249
 20
-1349.9315660450709
 30
0.0
 41
0.9997558016758517
 10
918.46311888863147
 20
-1349.9406485604372
 30
0.0
 41
1.0
 10
918.46359502706105
 20
-1349.9406976579198
 30
0.0
 41
1.0
 10
918.46407116549062
 20
-1349.9407467554024
 30
0.0
 41
1.0
 10
918.55119946583227
 20
-1349.9497310758038
 30
0.0
 41
0.9996565144181171
 10
918.63773731917445
 20
-1349.9632683824927
 30
0.0
 41
1.0
 10
918.63820324454946
 20
-1349.9633412682238
 30
0.0
 41
1.0
 10
918.63866916992458
 20
-1349.9634141539545
 30
0.0
 41
1.0
 10
918.72427517251401
 20
-1349.9768056891812
 30
0.0
 41
0.9995321806866616
 10
918.8089022528444
 20
-1349.9954061776109
 30
0.0
 41
1.0
 10
918.80929144741867
 20
-1349.9954917200773
 30
0.0
 41
1.0
 10
918.80968064199305
 20
-1349.9955772625437
 30
0.0
 41
1.0
 10
918.8935293331748
 20
-1350.0140066660408
 30
0.0
 41
0.9993819199219489
 10
918.97587586736859
 20
-1350.038282049301
 30
0.0
 41
1.0
 10
918.97611430086567
 20
-1350.03835233841
 30
0.0
 41
1.0
 10
918.97635273436288
 20
-1350.0384226275191
 30
0.0
 41
1.0
 10
919.05822240156385
 20
-1350.0625574325613
 30
0.0
 41
0.9992088568505585
 10
919.13791492055304
 20
-1350.093122668356
 30
0.0
 41
1.0
 10
919.21759591143211
 20
-1350.1236822690892
 30
0.0
 41
0.9990226101772418
 10
919.29426658133923
 20
-1350.1611597007038
 30
0.0
 41
1.0
 10
919.37092572313645
 20
-1350.1986314972569
 30
0.0
 41
0.998842427397283
 10
919.4436293503486
 20
-1350.2432962725095
 30
0.0
 41
1.0
 10
919.44389705872845
 20
-1350.2434607365822
 30
0.0
 41
1.0
 10
919.4441647671083
 20
-1350.2436252006546
 30
0.0
 41
1.0
 10
919.51740381107834
 20
-1350.2886189040512
 30
0.0
 41
0.998692884449106
 10
919.58566667778894
 20
-1350.3408546383314
 30
0.0
 41
1.0
 10
919.58624797001175
 20
-1350.3412994515593
 30
0.0
 41
1.0
 10
919.58682926223457
 20
-1350.3417442647874
 30
0.0
 41
1.0
 10
919.65625471338956
 20
-1350.3948696255227
 30
0.0
 41
0.9986007262278064
 10
919.7196808831568
 20
-1350.4550303952167
 30
0.0
 41
1.0
 10
919.72057529861388
 20
-1350.4558787630517
 30
0.0
 41
1.0
 10
919.72146971407096
 20
-1350.4567271308865
 30
0.0
 41
1.0
 10
919.78668471475203
 20
-1350.5185846362501
 30
0.0
 41
0.9985581491381206
 10
919.84489232645387
 20
-1350.587077126522
 30
0.0
 41
1.0
 10
919.85415078004962
 20
-1350.5979714842238
 30
0.0
 41
1.0
 10
919.86340923364537
 20
-1350.6088658419253
 30
0.0
 41
1.0
 10
919.9401337525386
 20
-1350.6991470476003
 30
0.0
 41
0.997046023352044
 10
920.00212565369793
 20
-1350.8001141317818
 30
0.0
 41
1.0
 10
920.01659501877771
 20
-1350.8236805908637
 30
0.0
 41
1.0
 10
920.0310643838576
 20
-1350.8472470499453
 30
0.0
 41
1.0
 10
920.07080108386913
 20
-1350.9119667739756
 30
0.0
 41
0.998846881663589
 10
920.10414745462094
 20
-1350.9801992264038
 30
0.0
 41
1.0
 10
920.11118347711226
 20
-1350.994596147541
 30
0.0
 41
1.0
 10
920.11821949960358
 20
-1351.0089930686781
 30
0.0
 41
1.0
 10
920.13749382537355
 20
-1351.0484316788336
 30
0.0
 41
0.9998431189998148
 10
920.15535915286739
 20
-1351.0885282332722
 30
0.0
 41
1.0
 10
920.17322448038976
 20
-1351.1286247877752
 30
0.0
 41
0.9999989989707198
 10
920.19120320381262
 20
-1351.1686706253599
 30
0.0
 41
1.0
 10
920.19737551539276
 20
-1351.182418842141
 30
0.0
 41
1.0
 10
920.20354782697291
 20
-1351.1961670589221
 30
0.0
 41
1.0
 10
920.23387117358357
 20
-1351.2637093301314
 30
0.0
 41
0.9998790356319811
 10
920.26207905372166
 20
-1351.3321620820693
 30
0.0
 41
1.0
 10
920.26891423500479
 20
-1351.348749183494
 30
0.0
 41
1.0
 10
920.27574941628802
 20
-1351.3653362849188
 30
0.0
 41
1.0
 10
920.29930707866822
 20
-1351.4225042398036
 30
0.0
 41
0.9998227574561032
 10
920.32069582705958
 20
-1351.4805185480861
 30
0.0
 41
1.0
 10
920.34208457544798
 20
-1351.53853285636
 30
0.0
 41
0.999679797104028
 10
920.36051086040709
 20
-1351.597554975478
 30
0.0
 41
1.0
 10
920.36441466313318
 20
-1351.6100594336488
 30
0.0
 41
1.0
 10
920.36831846585926
 20
-1351.6225638918195
 30
0.0
 41
1.0
 10
920.39455235626929
 20
-1351.7065949272742
 30
0.0
 41
0.9979274938733839
 10
920.40977687974851
 20
-1351.7932992859351
 30
0.0
 41
1.0
 10
920.41200056701007
 20
-1351.8059632867585
 30
0.0
 41
1.0
 10
920.41422425427163
 20
-1351.8186272875816
 30
0.0
 41
1.0
 10
920.42515419396943
 20
-1351.88087379487
 30
0.0
 41
0.9994985982137972
 10
920.43212235914621
 20
-1351.9436872960105
 30
0.0
 41
1.0
 10
920.43909052432309
 20
-1352.0065007971518
 30
0.0
 41
0.9996372611201598
 10
920.44266639009084
 20
-1352.0695983758337
 30
0.0
 41
1.0
 10
920.44283496758021
 20
-1352.0725729929163
 30
0.0
 41
1.0
 10
920.44300354506959
 20
-1352.0755476099989
 30
0.0
 41
1.0
 10
920.44691656581608
 20
-1352.1445944228408
 30
0.0
 41
0.9997730630735291
 10
920.44788487930407
 20
-1352.2137452468758
 30
0.0
 41
1.0
 10
920.4479419857222
 20
-1352.2178234260193
 30
0.0
 41
1.0
 10
920.44799909214032
 20
-1352.2219016051629
 30
0.0
 41
1.0
 10
920.44908161846445
 20
-1352.2992087874843
 30
0.0
 41
0.9998772614071387
 10
920.44774153173285
 20
-1352.3765119340453
 30
0.0
 41
1.0
 10
920.44765226853406
 20
-1352.3816610978802
 30
0.0
 41
1.0
 10
920.44756300533538
 20
-1352.386810261715
 30
0.0
 41
1.0
 10
920.4460443922062
 20
-1352.4744117359501
 30
0.0
 41
0.9999415567324733
 10
920.4426320819598
 20
-1352.5619598976357
 30
0.0
 41
1.0
 10
920.44239076128474
 20
-1352.5681513573672
 30
0.0
 41
1.0
 10
920.44214944060957
 20
-1352.574342817099
 30
0.0
 41
1.0
 10
920.43825448901305
 20
-1352.6742738982471
 30
0.0
 41
0.999971681042178
 10
920.43285590589539
 20
-1352.774135036457
 30
0.0
 41
1.0
 10
920.42964310710579
 20
-1352.8335642861298
 30
0.0
 41
1.0
 10
920.42643030831618
 20
-1352.8929935358026
 30
0.0
 41
1.0
 10
920.41835639916383
 20
-1353.0423419370782
 30
0.0
 41
0.9999819129888402
 10
920.4084866075475
 20
-1353.1915824147845
 30
0.0
 41
1.0
 10
920.39861681593084
 20
-1353.3408228924959
 30
0.0
 41
1.0
 10
920.39617749536706
 20
-1353.3780159383455
 30
0.0
 41
1.0
 10
920.41887572920371
 20
-1353.3392749410064
 30
0.0
 41
0.9999982128141852
 10
920.44172028797379
 20
-1353.3006200470236
 30
0.0
 41
1.0
 10
920.46862984784855
 20
-1353.2550868329854
 30
0.0
 41
1.0
 10
920.4955394077233
 20
-1353.2095536189472
 30
0.0
 41
1.0
 10
920.57220308624983
 20
-1353.0798322968767
 30
0.0
 41
0.9998609190056974
 10
920.6531503991099
 20
-1352.9527399149499
 30
0.0
 41
1.0
 10
920.6827987205902
 20
-1352.9061901819948
 30
0.0
 41
1.0
 10
920.71244704207049
 20
-1352.8596404490397
 30
0.0
 41
1.0
 10
920.7947192623119
 20
-1352.7304678790379
 30
0.0
 41
0.9999067609735608
 10
920.88048827177545
 20
-1352.6035901895975
 30
0.0
 41
1.0
 10
920.88289297497874
 20
-1352.6000329235392
 30
0.0
 41
1.0
 10
920.88529767818204
 20
-1352.5964756574808
 30
0.0
 41
1.0
 10
920.96625728124138
 20
-1352.4767125001536
 30
0.0
 41
0.9998784952147927
 10
921.05091089092093
 20
-1352.3595312834475
 30
0.0
 41
1.0
 10
921.13556450060332
 20
-1352.2423500667376
 30
0.0
 41
0.9998532968282405
 10
921.22418212142657
 20
-1352.1281371582663
 30
0.0
 41
1.0
 10
921.24414391041751
 20
-1352.1024098372463
 30
0.0
 41
1.0
 10
921.26410569940856
 20
-1352.0766825162264
 30
0.0
 41
1.0
 10
921.38258974916675
 20
-1351.9239769052588
 30
0.0
 41
0.9991551975795658
 10
921.51321419878934
 20
-1351.7815173431761
 30
0.0
 41
1.0
 10
921.51672381476567
 20
-1351.7776897415556
 30
0.0
 41
1.0
 10
921.520233430742
 20
-1351.7738621399349
 30
0.0
 41
1.0
 10
921.64383864841034
 20
-1351.6390577810951
 30
0.0
 41
0.9997418144181396
 10
921.77344078811348
 20
-1351.5100083704801
 30
0.0
 41
1.0
 10
921.90304292781525
 20
-1351.3809589598668
 30
0.0
 41
0.9989238204633596
 10
922.04404547606714
 20
-1351.2644739978271
 30
0.0
 41
1.0
 10
922.08929315420437
 20
-1351.2270940062201
 30
0.0
 41
1.0
 10
922.13454083234171
 20
-1351.1897140146132
 30
0.0
 41
1.0
 10
922.27478088956491
 20
-1351.0738589613206
 30
0.0
 41
0.9990825084096418
 10
922.42442082216962
 20
-1350.9704299634873
 30
0.0
 41
1.0
 10
922.4344661862259
 20
-1350.9634867504083
 30
0.0
 41
1.0
 10
922.44451155028219
 20
-1350.956543537329
 30
0.0
 41
1.0
 10
922.57406075477422
 20
-1350.8670009656539
 30
0.0
 41
0.999816489982614
 10
922.70694495814985
 20
-1350.7824867241379
 30
0.0
 41
1.0
 10
922.718790518677
 20
-1350.7749529576115
 30
0.0
 41
1.0
 10
922.73063607920426
 20
-1350.7674191910851
 30
0.0
 41
1.0
 10
922.83982916152638
 20
-1350.6979724826213
 30
0.0
 41
0.9997473449131797
 10
922.9520331187756
 20
-1350.6335035248057
 30
0.0
 41
1.0
 10
923.06423707602994
 20
-1350.5690345669873
 30
0.0
 41
0.9999327861147987
 10
923.17790568679982
 20
-1350.5071845753023
 30
0.0
 41
1.0
 10
923.1784576893549
 20
-1350.5068842166263
 30
0.0
 41
1.0
 10
923.17900969190987
 20
-1350.5065838579503
 30
0.0
 41
1.0
 10
923.29378230779116
 20
-1350.4441331489122
 30
0.0
 41
0.9996956420483206
 10
923.41149563362944
 20
-1350.3874196819386
 30
0.0
 41
1.0
 10
923.44193603852659
 20
-1350.3727537052064
 30
0.0
 41
1.0
 10
923.47237644342363
 20
-1350.3580877284744
 30
0.0
 41
1.0
 10
923.57535355016603
 20
-1350.3084740700319
 30
0.0
 41
0.9998070570176123
 10
923.68019993910525
 20
-1350.2629434831315
 30
0.0
 41
1.0
 10
923.78504632804515
 20
-1350.2174128962306
 30
0.0
 41
0.9997827436147351
 10
923.8916992646524
 20
-1350.17629172492
 30
0.0
 41
1.0
 10
923.91092211428554
 20
-1350.1688801512869
 30
0.0
 41
1.0
 10
923.93014496391879
 20
-1350.1614685776537
 30
0.0
 41
1.0
 10
924.07524359979323
 20
-1350.1055242590764
 30
0.0
 41
0.9988031841977212
 10
924.22511396239952
 20
-1350.0640241949084
 30
0.0
 41
1.0
 10
924.25003121075986
 20
-1350.0571244491025
 30
0.0
 41
1.0
 10
924.2749484591202
 20
-1350.0502247032964
 30
0.0
 41
1.0
 10
924.44221848476855
 20
-1350.0039065608892
 30
0.0
 41
0.9984748040549728
 10
924.61357539341873
 20
-1349.9763123286241
 30
0.0
 41
1.0
 10
924.61831452966885
 20
-1349.9755491681103
 30
0.0
 41
1.0
 10
924.62305366591886
 20
-1349.9747860075968
 30
0.0
 41
1.0
 10
924.78493230206891
 20
-1349.9487180963592
 30
0.0
 41
0.9984436495480337
 10
924.9487070457925
 20
-1349.9408401425405
 30
0.0
 41
1.0
 10
924.97040425392197
 20
-1349.9397964553409
 30
0.0
 41
1.0
 10
924.99210146205155
 20
-1349.9387527681413
 30
0.0
 41
1.0
 10
925.1124817895153
 20
-1349.9329621887218
 30
0.0
 41
0.9987954789335238
 10
925.23285003442697
 20
-1349.9389987164641
 30
0.0
 41
1.0
 10
925.25281482692492
 20
-1349.9399999608029
 30
0.0
 41
1.0
 10
925.27277961942286
 20
-1349.9410012051417
 30
0.0
 41
1.0
 10
925.35321827934035
 20
-1349.9450352442068
 30
0.0
 41
0.9997941595877324
 10
925.43342705743112
 20
-1349.9523293101274
 30
0.0
 41
1.0
 10
925.51363583552336
 20
-1349.9596233760483
 30
0.0
 41
0.9998589466237868
 10
925.59355438237571
 20
-1349.969607230498
 30
0.0
 41
1.0
 10
925.62596058418637
 20
-1349.9736555874174
 30
0.0
 41
1.0
 10
925.65836678599703
 20
-1349.977703944337
 30
0.0
 41
1.0
 10
925.80309773646843
 20
-1349.9957845126255
 30
0.0
 41
0.9993495063249182
 10
925.94614898023406
 20
-1350.0242502223671
 30
0.0
 41
1.0
 10
925.97908267738512
 20
-1350.0308036855818
 30
0.0
 41
1.0
 10
926.01201637453607
 20
-1350.0373571487962
 30
0.0
 41
1.0
 10
926.12131019774142
 20
-1350.0591054829315
 30
0.0
 41
0.9996788715560641
 10
926.22936176969915
 20
-1350.086363282295
 30
0.0
 41
1.0
 10
926.2314247722386
 20
-1350.0868837088681
 30
0.0
 41
1.0
 10
926.23348777477815
 20
-1350.0874041354411
 30
0.0
 41
1.0
 10
926.33741334165586
 20
-1350.113621081658
 30
0.0
 41
0.9995480654492424
 10
926.43957557688509
 20
-1350.1460360382825
 30
0.0
 41
1.0
 10
926.44126521901546
 20
-1350.1465721431969
 30
0.0
 41
1.0
 10
926.44295486114584
 20
-1350.1471082481112
 30
0.0
 41
1.0
 10
926.5417378121158
 20
-1350.1784509949075
 30
0.0
 41
0.9993867959456879
 10
926.6380849705572
 20
-1350.2166303641968
 30
0.0
 41
1.0
 10
926.63932791964203
 20
-1350.2171229060932
 30
0.0
 41
1.0
 10
926.64057086872685
 20
-1350.2176154479894
 30
0.0
 41
1.0
 10
926.73443212899929
 20
-1350.2548097334864
 30
0.0
 41
0.9992050256521639
 10
926.82503180403296
 20
-1350.2993636327253
 30
0.0
 41
1.0
 10
926.82576648674558
 20
-1350.2997249251862
 30
0.0
 41
1.0
 10
926.8265011694582
 20
-1350.300086217647
 30
0.0
 41
1.0
 10
926.91563147906572
 20
-1350.3439175319636
 30
0.0
 41
0.9990222350741799
 10
927.00054154045995
 20
-1350.3954507996623
 30
0.0
 41
1.0
 10
927.00072542574219
 20
-1350.3955624025668
 30
0.0
 41
1.0
 10
927.00090931102443
 20
-1350.3956740054714
 30
0.0
 41
1.0
 10
927.08545160185349
 20
-1350.4469840673605
 30
0.0
 41
0.998864274380517
 10
927.16472613647272
 20
-1350.5061082548857
 30
0.0
 41
1.0
 10
927.2440006710915
 20
-1350.5652324424109
 30
0.0
 41
0.9987681233310543
 10
927.31702445536746
 20
-1350.6319231338116
 30
0.0
 41
1.0
 10
927.31735338333351
 20
-1350.6322235350258
 30
0.0
 41
1.0
 10
927.31768231129945
 20
-1350.6325239362402
 30
0.0
 41
1.0
 10
927.39136395150786
 20
-1350.6998154300702
 30
0.0
 41
0.9987496570899009
 10
927.45795775683609
 20
-1350.7741282441582
 30
0.0
 41
1.0
 10
927.45872992659565
 20
-1350.7749899175151
 30
0.0
 41
1.0
 10
927.45950209635521
 20
-1350.775851590872
 30
0.0
 41
1.0
 10
927.52764024120268
 20
-1350.851887751674
 30
0.0
 41
0.9988147669827378
 10
927.58806249542829
 20
-1350.9341887585169
 30
0.0
 41
1.0
 10
927.58918182150592
 20
-1350.9357133898693
 30
0.0
 41
1.0
 10
927.59030114758366
 20
-1350.9372380212219
 30
0.0
 41
1.0
 10
927.65296205396385
 20
-1351.0225882907694
 30
0.0
 41
0.9989452636216906
 10
927.70752896692431
 20
-1351.113326979925
 30
0.0
 41
1.0
 10
927.70887769301066
 20
-1351.1155697609522
 30
0.0
 41
1.0
 10
927.7102264190969
 20
-1351.1178125419794
 30
0.0
 41
1.0
 10
927.76749078422995
 20
-1351.21303679319
 30
0.0
 41
0.9991046436070314
 10
927.81649999755155
 20
-1351.3127612262156
 30
0.0
 41
1.0
 10
927.8179638591414
 20
-1351.3157399062879
 30
0.0
 41
1.0
 10
927.81942772073126
 20
-1351.3187185863601
 30
0.0
 41
1.0
 10
927.87136465723268
 20
-1351.4244003795304
 30
0.0
 41
0.9992763831101232
 10
927.91511778578774
 20
-1351.5337244414861
 30
0.0
 41
1.0
 10
927.91659705545112
 20
-1351.5374206290198
 30
0.0
 41
1.0
 10
927.91807632511461
 20
-1351.5411168165538
 30
0.0
 41
1.0
 10
927.96478799299632
 20
-1351.6578332535764
 30
0.0
 41
0.9994163472883454
 10
928.00342102418676
 20
-1351.7774668420427
 30
0.0
 41
1.0
 10
928.00465917643328
 20
-1351.7813009858246
 30
0.0
 41
1.0
 10
928.00589732867979
 20
-1351.7851351296067
 30
0.0
 41
1.0
 10
928.04578088969697
 20
-1351.9086411910848
 30
0.0
 41
0.9997268055890187
 10
928.079848945609
 20
-1352.0338762230356
 30
0.0
 41
1.0
 10
928.08077912587942
 20
-1352.0372955891473
 30
0.0
 41
1.0
 10
928.08170930614972
 20
-1352.0407149552591
 30
0.0
 41
1.0
 10
928.11391700152149
 20
-1352.1591112549888
 30
0.0
 41
0.999670131900115
 10
928.14000261829153
 20
-1352.2790052082496
 30
0.0
 41
1.0
 10
928.16608823506135
 20
-1352.3988991615092
 30
0.0
 41
0.9995785451109415
 10
928.18517181240065
 20
-1352.5201049225375
 30
0.0
 41
1.0
 10
928.18939159457489
 20
-1352.5469060773057
 30
0.0
 41
1.0
 10
928.19361137674912
 20
-1352.5737072320737
 30
0.0
 41
1.0
 10
928.22018635268785
 20
-1352.7424932057775
 30
0.0
 41
0.9979925101216206
 10
928.22521193861405
 20
-1352.9132845338693
 30
0.0
 41
1.0
 10
928.22603675103869
 20
-1352.9413152573497
 30
0.0
 41
1.0
 10
928.22686156346333
 20
-1352.96934598083
 30
0.0
 41
1.0
 10
928.23023752454048
 20
-1353.0840758619597
 30
0.0
 41
0.9995314902263083
 10
928.22658733240189
 20
-1353.198797345713
 30
0.0
 41
1.0
 10
928.22293714026341
 20
-1353.3135188294634
 30
0.0
 41
0.9996245486944361
 10
928.2130080451326
 20
-1353.4278681005871
 30
0.0
 41
1.0
 10
928.21284499713829
 20
-1353.4297458567235
 30
0.0
 41
1.0
 10
928.21268194914398
 20
-1353.4316236128595
 30
0.0
 41
1.0
 10
928.20242675802558
 20
-1353.5497283962463
 30
0.0
 41
0.9997286095000937
 10
928.18668143445484
 20
-1353.667227305137
 30
0.0
 41
1.0
 10
928.1862879418037
 20
-1353.6701637298447
 30
0.0
 41
1.0
 10
928.18589444915256
 20
-1353.6731001545525
 30
0.0
 41
1.0
 10
928.16936214028146
 20
-1353.7964719128465
 30
0.0
 41
0.9998265533968218
 10
928.14824668154836
 20
-1353.9191423876364
 30
0.0
 41
1.0
 10
928.14757013941096
 20
-1353.9230727661452
 30
0.0
 41
1.0
 10
928.14689359727356
 20
-1353.9270031446542
 30
0.0
 41
1.0
 10
928.12442505426543
 20
-1354.0575343764633
 30
0.0
 41
0.9999022530851771
 10
928.09831558965629
 20
-1354.1873863450978
 30
0.0
 41
1.0
 10
928.09733694849115
 20
-1354.1922534874843
 30
0.0
 41
1.0
 10
928.09635830732589
 20
-1354.1971206298706
 30
0.0
 41
1.0
 10
928.06829156038248
 20
-1354.3367068832958
 30
0.0
 41
0.9999524761932952
 10
928.03750859154775
 20
-1354.4757193764603
 30
0.0
 41
1.0
 10
928.03623248437361
 20
-1354.4814821357568
 30
0.0
 41
1.0
 10
928.03495637719948
 20
-1354.4872448950532
 30
0.0
 41
1.0
 10
928.00162119401898
 20
-1354.637782906801
 30
0.0
 41
0.9999813588727503
 10
927.96645019322352
 20
-1354.7879026194546
 30
0.0
 41
1.0
 10
927.96489626776429
 20
-1354.7945352098889
 30
0.0
 41
1.0
 10
927.96334234230494
 20
-1354.8011678003231
 30
0.0
 41
1.0
 10
927.92506349059124
 20
-1354.9645526938436
 30
0.0
 41
0.9999955237700667
 10
927.88580761260596
 20
-1355.1277055974701
 30
0.0
 41
1.0
 10
927.87352597697634
 20
-1355.1787497879732
 30
0.0
 41
1.0
 10
927.86124434134672
 20
-1355.2297939784764
 30
0.0
 41
1.0
 10
927.79742519209356
 20
-1355.4950352631454
 30
0.0
 41
0.9999993604507451
 10
927.73300624494107
 20
-1355.7601315137654
 30
0.0
 41
1.0
 10
927.72828740938826
 20
-1355.7795504218295
 30
0.0
 41
1.0
 10
927.72356857383545
 20
-1355.7989693298937
 30
0.0
 41
1.0
 10
927.64971195557416
 20
-1356.1029033966552
 30
0.0
 41
0.9999659914730671
 10
927.57085235968827
 20
-1356.4055779432169
 30
0.0
 41
1.0
 10
927.56589967075831
 20
-1356.4245870803968
 30
0.0
 41
1.0
 10
927.56094698182835
 20
-1356.4435962175767
 30
0.0
 41
1.0
 10
927.47218200808334
 20
-1356.7842890384948
 30
0.0
 41
0.9999441976025114
 10
927.37623897511639
 20
-1357.1230304638059
 30
0.0
 41
1.0
 10
927.35953845669246
 20
-1357.1819941763281
 30
0.0
 41
1.0
 10
927.34283793826842
 20
-1357.2409578888503
 30
0.0
 41
1.0
 10
927.21349386845282
 20
-1357.6976267392083
 30
0.0
 41
0.9999625120731808
 10
927.07626110113188
 20
-1358.151987273196
 30
0.0
 41
1.0
 10
927.04047115804701
 20
-1358.2704832998293
 30
0.0
 41
1.0
 10
927.00468121496215
 20
-1358.3889793264627
 30
0.0
 41
1.0
 10
926.93016101092007
 20
-1358.6357064045674
 30
0.0
 41
0.9999793386307924
 10
926.85247498778597
 20
-1358.881455043793
 30
0.0
 41
1.0
 10
926.77478896464845
 20
-1359.1272036830292
 30
0.0
 41
1.0
 10
926.76400940577764
 20
-1359.1612215874038
 30
0.0
 41
1.0
 10
924.91363635250843
 20
-1365.0482935098712
 30
0.0
 41
1.0
 10
923.06326329923922
 20
-1370.9353654323386
 30
0.0
 41
1.0
 10
922.10200660921578
 20
-1370.9353654323386
 30
0.0
 41
1.0
 10
921.14074991919233
 20
-1370.9353654323386
 30
0.0
 41
1.0
 10
922.75969469787071
 20
-1365.7873369305491
 30
0.0
 41
1.0
 10
924.3786394765491
 20
-1360.6393084287597
 30
0.0
 41
1.0
 10
924.42380529971319
 20
-1360.4952772065226
 30
0.0
 41
1.0
 10
924.46897112287718
 20
-1360.3512459842857
 30
0.0
 41
1.0
 10
924.63927554024588
 20
-1359.8081549551034
 30
0.0
 41
0.9999911657905769
 10
924.80500835194061
 20
-1359.263651423694
 30
0.0
 41
1.0
 10
924.83470429543445
 20
-1359.1660874836653
 30
0.0
 41
1.0
 10
924.8644002389284
 20
-1359.0685235436363
 30
0.0
 41
1.0
 10
924.97074116361932
 20
-1358.719147892336
 30
0.0
 41
0.9999952428132507
 10
925.07492475294589
 20
-1358.3691228679806
 30
0.0
 41
1.0
 10
925.07998422328092
 20
-1358.3521245936968
 30
0.0
 41
1.0
 10
925.08504369361606
 20
-1358.3351263194127
 30
0.0
 41
1.0
 10
925.17910834227951
 20
-1358.0190978436015
 30
0.0
 41
0.999993168750806
 10
925.27083418014445
 20
-1357.7023826303605
 30
0.0
 41
1.0
 10
925.27576944460407
 20
-1357.6853419210893
 30
0.0
 41
1.0
 10
925.28070470906357
 20
-1357.6683012118181
 30
0.0
 41
1.0
 10
925.36256001801485
 20
-1357.3856674171016
 30
0.0
 41
0.9999893840785346
 10
925.44180724447483
 20
-1357.1022912878434
 30
0.0
 41
1.0
 10
925.52105447093027
 20
-1356.8189151586021
 30
0.0
 41
0.9999833980058704
 10
925.59703071166837
 20
-1356.5346445755874
 30
0.0
 41
1.0
 10
925.60603464839312
 20
-1356.5009556970999
 30
0.0
 41
1.0
 10
925.61503858511787
 20
-1356.4672668186122
 30
0.0
 41
1.0
 10
925.68400313398581
 20
-1356.2092309863099
 30
0.0
 41
0.9999233658064124
 10
925.74655810520528
 20
-1355.9495668275904
 30
0.0
 41
1.0
 10
925.80911307642555
 20
-1355.6899026688679
 30
0.0
 41
1.0
 10
925.84859649528312
 20
-1355.5260960044418
 30
0.0
 41
1.0
 10
925.85357509926484
 20
-1355.5054410425528
 30
0.0
 41
1.0
 10
925.85855370324657
 20
-1355.4847860806638
 30
0.0
 41
1.0
 10
925.88807991414842
 20
-1355.3622893399834
 30
0.0
 41
0.9999868670849518
 10
925.91634899813687
 20
-1355.2394963943702
 30
0.0
 41
1.0
 10
925.92024648529559
 20
-1355.2225668069491
 30
0.0
 41
1.0
 10
925.92414397245432
 20
-1355.2056372195279
 30
0.0
 41
1.0
 10
925.94461808213327
 20
-1355.1167034487235
 30
0.0
 41
0.9999778173354782
 10
925.96390568024856
 20
-1355.0275048314943
 30
0.0
 41
1.0
 10
925.98319327836657
 20
-1354.9383062142524
 30
0.0
 41
0.9999602692866358
 10
926.00088763700035
 20
-1354.8487779258091
 30
0.0
 41
1.0
 10
926.00409146907509
 20
-1354.8325674709376
 30
0.0
 41
1.0
 10
926.00729530114995
 20
-1354.8163570160661
 30
0.0
 41
1.0
 10
926.03139732393629
 20
-1354.6944078178665
 30
0.0
 41
0.9995617985320425
 10
926.04824067115453
 20
-1354.5712460701629
 30
0.0
 41
1.0
 10
926.05070516106082
 20
-1354.5532252527973
 30
0.0
 41
1.0
 10
926.05316965096711
 20
-1354.5352044354315
 30
0.0
 41
1.0
 10
926.07345291201511
 20
-1354.3868893857318
 30
0.0
 41
0.9991121410640141
 10
926.08117826560374
 20
-1354.2373932869239
 30
0.0
 41
1.0
 10
926.08209705562831
 20
-1354.2196134503474
 30
0.0
 41
1.0
 10
926.08301584565288
 20
-1354.2018336137712
 30
0.0
 41
1.0
 10
926.08890361919202
 20
-1354.0878971881175
 30
0.0
 41
0.9989792494905496
 10
926.08448452707466
 20
-1353.9738943522193
 30
0.0
 41
1.0
 10
926.08383655520606
 20
-1353.9571781062932
 30
0.0
 41
1.0
 10
926.08318858333746
 20
-1353.9404618603671
 30
0.0
 41
1.0
 10
926.08006543495731
 20
-1353.859891516322
 30
0.0
 41
0.9997820295393576
 10
926.07358143758165
 20
-1353.779521794577
 30
0.0
 41
1.0
 10
926.067097440206
 20
-1353.6991520728334
 30
0.0
 41
0.9998335105974702
 10
926.05768524469431
 20
-1353.6190724563835
 30
0.0
 41
1.0
 10
926.05609032001792
 20
-1353.6055027259001
 30
0.0
 41
1.0
 10
926.05449539534152
 20
-1353.5919329954168
 30
0.0
 41
1.0
 10
926.0418933504767
 20
-1353.4847139179979
 30
0.0
 41
0.9996876457878879
 10
926.02394943767865
 20
-1353.3782584902835
 30
0.0
 41
1.0
 10
926.0217177745335
 20
-1353.3650187550429
 30
0.0
 41
1.0
 10
926.01948611138846
 20
-1353.3517790198021
 30
0.0
 41
1.0
 10
926.00569028996733
 20
-1353.2699328758429
 30
0.0
 41
0.9995547496494741
 10
925.98703696807456
 20
-1353.1890553786513
 30
0.0
 41
1.0
 10
925.98666301120284
 20
-1353.1874339679443
 30
0.0
 41
1.0
 10
925.98628905433122
 20
-1353.1858125572371
 30
0.0
 41
1.0
 10
925.96838364618179
 20
-1353.1081778814603
 30
0.0
 41
0.9994899427176212
 10
925.94555873750255
 20
-1353.0318445986259
 30
0.0
 41
1.0
 10
925.94510021076201
 20
-1353.0303111488381
 30
0.0
 41
1.0
 10
925.94464168402146
 20
-1353.0287776990504
 30
0.0
 41
1.0
 10
925.92273382882365
 20
-1352.9555113157928
 30
0.0
 41
0.9993784877590276
 10
925.89571819371668
 20
-1352.8839706106326
 30
0.0
 41
1.0
 10
925.89518650274022
 20
-1352.8825626279131
 30
0.0
 41
1.0
 10
925.89465481176364
 20
-1352.8811546451936
 30
0.0
 41
1.0
 10
925.86870255860993
 20
-1352.8124299054728
 30
0.0
 41
0.9992430832253705
 10
925.83748602345077
 20
-1352.7459307534052
 30
0.0
 41
1.0
 10
925.83690390739412
 20
-1352.7446906982877
 30
0.0
 41
1.0
 10
925.83632179133735
 20
-1352.7434506431703
 30
0.0
 41
1.0
 10
925.80626948829104
 20
-1352.6794316013356
 30
0.0
 41
0.9990789632796856
 10
925.77083886151468
 20
-1352.6182249895874
 30
0.0
 41
1.0
 10
925.77024315533311
 20
-1352.6171959037288
 30
0.0
 41
1.0
 10
925.76964744915153
 20
-1352.6161668178704
 30
0.0
 41
1.0
 10
925.73540823473763
 20
-1352.5570183778373
 30
0.0
 41
0.9988874801121344
 10
925.69574895870585
 20
-1352.5013586654197
 30
0.0
 41
1.0
 10
925.69519343264176
 20
-1352.5005790137452
 30
0.0
 41
1.0
 10
925.69463790657767
 20
-1352.4997993620707
 30
0.0
 41
1.0
 10
925.65608968267406
 20
-1352.445698953002
 30
0.0
 41
0.9986762060692158
 10
925.61218721139778
 20
-1352.3958452385627
 30
0.0
 41
1.0
 10
925.61174325106549
 20
-1352.3953410967461
 30
0.0
 41
1.0
 10
925.6112992907332
 20
-1352.3948369549294
 30
0.0
 41
1.0
 10
925.5682847401215
 20
-1352.3459915241237
 30
0.0
 41
0.9984621642488536
 10
925.52012718334379
 20
-1352.3022082236525
 30
0.0
 41
1.0
 10
925.5198805488269
 20
-1352.3019839914887
 30
0.0
 41
1.0
 10
925.51963391430991
 20
-1352.3017597593248
 30
0.0
 41
1.0
 10
925.47196962656517
 20
-1352.2584249231807
 30
0.0
 41
0.9982724693851918
 10
925.41955099472455
 20
-1352.2209805726636
 30
0.0
 41
1.0
 10
925.36713236288392
 20
-1352.1835362221464
 30
0.0
 41
0.9981399180159312
 10
925.3105462994904
 20
-1352.1527497027027
 30
0.0
 41
1.0
 10
925.31050063741168
 20
-1352.1527248595453
 30
0.0
 41
1.0
 10
925.31045497533285
 20
-1352.1527000163881
 30
0.0
 41
1.0
 10
925.25377758778211
 20
-1352.12186381063
 30
0.0
 41
0.998092708683763
 10
925.19373223671516
 20
-1352.0982470017773
 30
0.0
 41
1.0
 10
925.19329206700399
 20
-1352.0980738759026
 30
0.0
 41
1.0
 10
925.19285189729283
 20
-1352.0979007500277
 30
0.0
 41
1.0
 10
925.13192620680331
 20
-1352.0739376894253
 30
0.0
 41
0.9981411356561152
 10
925.06853768540361
 20
-1352.0575650479198
 30
0.0
 41
1.0
 10
925.06765556870221
 20
-1352.0573372057142
 30
0.0
 41
1.0
 10
925.0667734520008
 20
-1352.0571093635087
 30
0.0
 41
1.0
 10
925.00162069719784
 20
-1352.040281037592
 30
0.0
 41
0.9983031812934221
 10
924.93495326820232
 20
-1352.0311416764159
 30
0.0
 41
1.0
 10
924.92608224280002
 20
-1352.0299255577447
 30
0.0
 41
1.0
 10
924.91721121739783
 20
-1352.0287094390735
 30
0.0
 41
1.0
 10
924.8628615748928
 20
-1352.0212587090823
 30
0.0
 41
0.998388770826396
 10
924.80801772559892
 20
-1352.0200140354491
 30
0.0
 41
1.0
 10
924.79995432037992
 20
-1352.0198310375742
 30
0.0
 41
1.0
 10
924.79189091516093
 20
-1352.0196480396994
 30
0.0
 41
1.0
 10
924.75317387630457
 20
-1352.0187693618159
 30
0.0
 41
0.9998869563077298
 10
924.71444792310342
 20
-1352.0190552311756
 30
0.0
 41
1.0
 10
924.67572196991046
 20
-1352.0193411005353
 30
0.0
 41
0.9999972320108522
 10
924.63699779070851
 20
-1352.0198092000639
 30
0.0
 41
1.0
 10
924.6176447741193
 20
-1352.0200431401536
 30
0.0
 41
1.0
 10
924.59829175752998
 20
-1352.020277080243
 30
0.0
 41
1.0
 10
924.52086154515905
 20
-1352.0212130599507
 30
0.0
 41
0.9997304945086664
 10
924.44355823892124
 20
-1352.0257421537369
 30
0.0
 41
1.0
 10
924.43450859721725
 20
-1352.0262723597268
 30
0.0
 41
1.0
 10
924.42545895551314
 20
-1352.0268025657167
 30
0.0
 41
1.0
 10
924.33005636586734
 20
-1352.0323920714827
 30
0.0
 41
0.9997888306416769
 10
924.23496403002503
 20
-1352.0418970359717
 30
0.0
 41
1.0
 10
924.22624296845197
 20
-1352.042768750604
 30
0.0
 41
1.0
 10
924.21752190687891
 20
-1352.043640465236
 30
0.0
 41
1.0
 10
924.10498744789186
 20
-1352.054888858989
 30
0.0
 41
0.9984170238190535
 10
923.99442830054136
 20
-1352.0787049409246
 30
0.0
 41
1.0
 10
923.95804716955354
 20
-1352.086541976731
 30
0.0
 41
1.0
 10
923.9216660385656
 20
-1352.0943790125373
 30
0.0
 41
1.0
 10
923.80647497014479
 20
-1352.1191928790468
 30
0.0
 41
0.9976592854198632
 10
923.69574680374012
 20
-1352.1594915561941
 30
0.0
 41
1.0
 10
923.58501863733488
 20
-1352.1997902333414
 30
0.0
 41
0.9993255074352924
 10
923.47754683854521
 20
-1352.2481071318332
 30
0.0
 41
1.0
 10
923.47292165962153
 20
-1352.250186508033
 30
0.0
 41
1.0
 10
923.46829648069775
 20
-1352.2522658842331
 30
0.0
 41
1.0
 10
923.35157432406072
 20
-1352.3047415351248
 30
0.0
 41
0.9976475078274536
 10
923.24312697975074
 20
-1352.3726895247828
 30
0.0
 41
1.0
 10
923.22478458561545
 20
-1352.3841820035977
 30
0.0
 41
1.0
 10
923.20644219148016
 20
-1352.3956744824127
 30
0.0
 41
1.0
 10
923.12223999992784
 20
-1352.4484316031812
 30
0.0
 41
0.9995131336406564
 10
923.04149228497079
 20
-1352.5063378151342
 30
0.0
 41
1.0
 10
922.96074457001225
 20
-1352.5642440270883
 30
0.0
 41
0.9995810107606037
 10
922.88348292228204
 20
-1352.6267257095553
 30
0.0
 41
1.0
 10
922.88051289107329
 20
-1352.6291275810188
 30
0.0
 41
1.0
 10
922.87754285986443
 20
-1352.6315294524823
 30
0.0
 41
1.0
 10
922.79434114971298
 20
-1352.6988148778792
 30
0.0
 41
0.9996617837953771
 10
922.71475046257501
 20
-1352.7703353334418
 30
0.0
 41
1.0
 10
922.70261971170157
 20
-1352.7812360664293
 30
0.0
 41
1.0
 10
922.69048896082813
 20
-1352.7921367994168
 30
0.0
 41
1.0
 10
922.62221343342935
 20
-1352.8534894148911
 30
0.0
 41
0.9997267750052457
 10
922.55687992514504
 20
-1352.917965951417
 30
0.0
 41
1.0
 10
922.49154641685914
 20
-1352.9824424879446
 30
0.0
 41
0.9999667288961386
 10
922.42727347370965
 20
-1353.0479762948419
 30
0.0
 41
1.0
 10
922.35844602593704
 20
-1353.1181539535976
 30
0.0
 41
1.0
 10
922.28961857816444
 20
-1353.1883316123533
 30
0.0
 41
1.0
 10
922.08769073946939
 20
-1353.3942207367622
 30
0.0
 41
0.9988205335175459
 10
921.90668512249113
 20
-1353.618724968821
 30
0.0
 41
1.0
 10
921.87604515758494
 20
-1353.6567282192527
 30
0.0
 41
1.0
 10
921.84540519267875
 20
-1353.6947314696845
 30
0.0
 41
1.0
 10
921.60311964588936
 20
-1353.9952422026056
 30
0.0
 41
0.9997077826754568
 10
921.37564169478401
 20
-1354.307111996822
 30
0.0
 41
1.0
 10
921.37391827965382
 20
-1354.3094747802011
 30
0.0
 41
1.0
 10
921.37219486452364
 20
-1354.3118375635804
 30
0.0
 41
1.0
 10
921.14127008315722
 20
-1354.6284329245561
 30
0.0
 41
0.9989147567078753
 10
920.94080658027337
 20
-1354.9651423857417
 30
0.0
 41
1.0
 10
920.91606543496812
 20
-1355.0066989662914
 30
0.0
 41
1.0
 10
920.89132428966286
 20
-1355.0482555468409
 30
0.0
 41
1.0
 10
920.7361129910239
 20
-1355.3089569312965
 30
0.0
 41
0.9997476598181637
 10
920.59276800351313
 20
-1355.5763666798807
 30
0.0
 41
1.0
 10
920.44942301600292
 20
-1355.8437764284643
 30
0.0
 41
0.9996258967110105
 10
920.32091476406924
 20
-1356.1186243650927
 30
0.0
 41
1.0
 10
920.30771485461992
 20
-1356.1468557651876
 30
0.0
 41
1.0
 10
920.29451494517048
 20
-1356.1750871652825
 30
0.0
 41
1.0
 10
920.15430622417182
 20
-1356.4749595632331
 30
0.0
 41
0.9998735413945429
 10
920.02370487745202
 20
-1356.7791391626997
 30
0.0
 41
1.0
 10
920.02026204939125
 20
-1356.7871577481651
 30
0.0
 41
1.0
 10
920.01681922133048
 20
-1356.7951763336303
 30
0.0
 41
1.0
 10
919.89310353073188
 20
-1357.083318762167
 30
0.0
 41
0.9999377418864223
 10
919.77584872855687
 20
-1357.3741502298424
 30
0.0
 41
1.0
 10
919.65859392638208
 20
-1357.6649816975171
 30
0.0
 41
0.9999508299511924
 10
919.5471299830067
 20
-1357.9580813743335
 30
0.0
 41
1.0
 10
919.54404921434298
 20
-1357.9661824003006
 30
0.0
 41
1.0
 10
919.54096844567937
 20
-1357.9742834262674
 30
0.0
 41
1.0
 10
919.42334296498075
 20
-1358.2835851550076
 30
0.0
 41
0.9999609228436536
 10
919.31120436210472
 20
-1358.5949181710275
 30
0.0
 41
1.0
 10
919.30824835175429
 20
-1358.6031250114393
 30
0.0
 41
1.0
 10
919.30529234140386
 20
-1358.611331851851
 30
0.0
 41
1.0
 10
919.18724171783219
 20
-1358.939078548681
 30
0.0
 41
0.9999674607397981
 10
919.07449419175975
 20
-1359.2686871686881
 30
0.0
 41
1.0
 10
919.02309580119845
 20
-1359.4189463643766
 30
0.0
 41
1.0
 10
918.97169741063715
 20
-1359.569205560065
 30
0.0
 41
1.0
 10
918.85568680387803
 20
-1359.9083535425721
 30
0.0
 41
0.9999287532310558
 10
918.74780539990888
 20
-1360.2501742815432
 30
0.0
 41
1.0
 10
918.70132814381896
 20
-1360.3974368257582
 30
0.0
 41
1.0
 10
918.65485088772903
 20
-1360.5446993699734
 30
0.0
 41
1.0
 10
918.63992399598055
 20
-1360.591995020385
 30
0.0
 41
0.999999822336312
 10
918.62505348720765
 20
-1360.6393084287597
 30
0.0
 41
1.0
 10
917.00439735041221
 20
-1365.7873369305491
 30
0.0
 41
1.0
 10
915.38374121361676
 20
-1370.9353654323386
 30
0.0
 41
1.0
 10
914.47843276972583
 20
-1370.9353654323386
 30
0.0
 41
1.0
 10
913.5731243258349
 20
-1370.9353654323386
 30
0.0
 41
1.0
 10
915.42520873722094
 20
-1365.0482935098712
 30
0.0
 41
1.0
 10
917.27729314860699
 20
-1359.1612215874038
 30
0.0
 41
1.0
 10
917.28741490690982
 20
-1359.1291783739539
 30
0.0
 41
1.0
 10
917.36002257575956
 20
-1358.898878832128
 30
0.0
 41
1.0
 10
917.43263024460452
 20
-1358.668579290317
 30
0.0
 41
0.9999825681965578
 10
917.50251328380648
 20
-1358.4374383952843
 30
0.0
 41
1.0
 10
917.55080434597335
 20
-1358.2777138117685
 30
0.0
 41
1.0
 10
917.59909540814022
 20
-1358.1179892282528
 30
0.0
 41
1.0
 10
917.6962477614594
 20
-1357.7966540064704
 30
0.0
 41
0.9999672528963061
 10
917.78818656708154
 20
-1357.4737884608874
 30
0.0
 41
1.0
 10
917.79097545074842
 20
-1357.4639946155071
 30
0.0
 41
1.0
 10
917.79376433441541
 20
-1357.454200770127
 30
0.0
 41
1.0
 10
917.88012537269901
 20
-1357.1509229153216
 30
0.0
 41
0.9999899749173026
 10
917.96376698223958
 20
-1356.8468838268486
 30
0.0
 41
1.0
 10
917.97387290125835
 20
-1356.8101485891657
 30
0.0
 41
1.0
 10
917.98397882027712
 20
-1356.7734133514828
 30
0.0
 41
1.0
 10
918.04740859177514
 20
-1356.5428447383938
 30
0.0
 41
0.9999214200504947
 10
918.10503802015205
 20
-1356.3107583961869
 30
0.0
 41
1.0
 10
918.11780387233307
 20
-1356.2593475107888
 30
0.0
 41
1.0
 10
918.13056972451409
 20
-1356.2079366253906
 30
0.0
 41
1.0
 10
918.1626674485276
 20
-1356.0786720539859
 30
0.0
 41
0.9999828681658074
 10
918.19324970052514
 20
-1355.94904057951
 30
0.0
 41
1.0
 10
918.22383195251859
 20
-1355.8194091050505
 30
0.0
 41
0.9999389844479716
 10
918.25154294130857
 20
-1355.6891336491481
 30
0.0
 41
1.0
 10
918.25868068502939
 20
-1355.655577545308
 30
0.0
 41
1.0
 10
918.26581842875021
 20
-1355.6220214414677
 30
0.0
 41
1.0
 10
918.30780490498057
 20
-1355.4246337778893
 30
0.0
 41
0.9998933699440061
 10
918.3440091693833
 20
-1355.2261041701274
 30
0.0
 41
1.0
 10
918.34538199459905
 20
-1355.2185761494343
 30
0.0
 41
1.0
 10
918.34675481981481
 20
-1355.2110481287411
 30
0.0
 41
1.0
 10
918.38570473465063
 20
-1354.9974624795846
 30
0.0
 41
0.9996850305193265
 10
918.41388841090918
 20
-1354.7821914741476
 30
0.0
 41
1.0
 10
918.41588344427794
 20
-1354.7669531200297
 30
0.0
 41
1.0
 10
918.4178784776467
 20
-1354.7517147659119
 30
0.0
 41
1.0
 10
918.44528634010601
 20
-1354.5423695387535
 30
0.0
 41
0.9994697936706588
 10
918.45901089932568
 20
-1354.3316843434234
 30
0.0
 41
1.0
 10
918.45948796857533
 20
-1354.3243608712114
 30
0.0
 41
1.0
 10
918.4599650378251
 20
-1354.3170373989994
 30
0.0
 41
1.0
 10
918.47273545854523
 20
-1354.1209991480905
 30
0.0
 41
0.9991804893137161
 10
918.46960714227248
 20
-1353.9245702981193
 30
0.0
 41
1.0
 10
918.46952326345036
 20
-1353.9193034967066
 30
0.0
 41
1.0
 10
918.46943938462823
 20
-1353.9140366952936
 30
0.0
 41
1.0
 10
918.46647882599973
 20
-1353.7281414481458
 30
0.0
 41
0.9988448329321499
 10
918.44568728037598
 20
-1353.5433888583125
 30
0.0
 41
1.0
 10
918.44409320667307
 20
-1353.5292240025422
 30
0.0
 41
1.0
 10
918.44249913297017
 20
-1353.5150591467718
 30
0.0
 41
1.0
 10
918.42489573475234
 20
-1353.35863626848
 30
0.0
 41
0.9985503209458784
 10
918.39057946245271
 20
-1353.2050120843899
 30
0.0
 41
1.0
 10
918.38299347038139
 20
-1353.1710517569891
 30
0.0
 41
1.0
 10
918.37540747831008
 20
-1353.1370914295885
 30
0.0
 41
1.0
 10
918.35626319015284
 20
-1353.051387900299
 30
0.0
 41
0.999103678136972
 10
918.32993832850195
 20
-1352.9676108129756
 30
0.0
 41
1.0
 10
918.32595610304577
 20
-1352.9549376504644
 30
0.0
 41
1.0
 10
918.32197387758958
 20
-1352.9422644879533
 30
0.0
 41
1.0
 10
918.30361346685049
 20
-1352.8838337256498
 30
0.0
 41
0.9998874504368316
 10
918.28350825917221
 20
-1352.8259801234274
 30
0.0
 41
1.0
 10
918.26340305149381
 20
-1352.7681265212041
 30
0.0
 41
0.9994041637543586
 10
918.23935443855942
 20
-1352.7117978173139
 30
0.0
 41
1.0
 10
918.23515765433535
 20
-1352.7019677528319
 30
0.0
 41
1.0
 10
918.23096087011129
 20
-1352.6921376883502
 30
0.0
 41
1.0
 10
918.20308203911748
 20
-1352.6268375223842
 30
0.0
 41
0.9991846840701387
 10
918.17002568242378
 20
-1352.5639994911028
 30
0.0
 41
1.0
 10
918.16888907602902
 20
-1352.5618388746484
 30
0.0
 41
1.0
 10
918.16775246963425
 20
-1352.5596782581943
 30
0.0
 41
1.0
 10
918.13696932573089
 20
-1352.5011614598229
 30
0.0
 41
0.9989253167923485
 10
918.1008999016758
 20
-1352.4457465314324
 30
0.0
 41
1.0
 10
918.09984577700152
 20
-1352.4441270366699
 30
0.0
 41
1.0
 10
918.09879165232712
 20
-1352.4425075419074
 30
0.0
 41
1.0
 10
918.06483047762038
 20
-1352.3903316030412
 30
0.0
 41
0.9986467172835745
 10
918.02563332498357
 20
-1352.3419655694127
 30
0.0
 41
1.0
 10
918.02475919628318
 20
-1352.3408869671348
 30
0.0
 41
1.0
 10
918.02388506758291
 20
-1352.3398083648572
 30
0.0
 41
1.0
 10
917.98643617234609
 20
-1352.2935995357827
 30
0.0
 41
0.9984001104265458
 10
917.94400944182894
 20
-1352.2519144284142
 30
0.0
 41
1.0
 10
917.94342230371956
 20
-1352.2513375535329
 30
0.0
 41
1.0
 10
917.94283516561018
 20
-1352.2507606786517
 30
0.0
 41
1.0
 10
917.90158271131202
 20
-1352.210229321046
 30
0.0
 41
0.998244215908387
 10
917.85582660997613
 20
-1352.1748607597854
 30
0.0
 41
1.0
 10
917.8556118145143
 20
-1352.1746947271422
 30
0.0
 41
1.0
 10
917.85539701905248
 20
-1352.1745286944988
 30
0.0
 41
1.0
 10
917.81007050864002
 20
-1352.1394921985247
 30
0.0
 41
0.9982450060837003
 10
917.76091952956881
 20
-1352.1100604154915
 30
0.0
 41
1.0
 10
917.7117685504968
 20
-1352.0806286324575
 30
0.0
 41
0.9983922639634462
 10
917.65960224433161
 20
-1352.0569489978034
 30
0.0
 41
1.0
 10
917.65937536700744
 20
-1352.0568460123222
 30
0.0
 41
1.0
 10
917.65914848968328
 20
-1352.0567430268409
 30
0.0
 41
1.0
 10
917.60652842886941
 20
-1352.032857421224
 30
0.0
 41
0.9986517147150219
 10
917.55171545600138
 20
-1352.0145563021022
 30
0.0
 41
1.0
 10
917.55103753457365
 20
-1352.0143299556707
 30
0.0
 41
1.0
 10
917.55035961314582
 20
-1352.0141036092393
 30
0.0
 41
1.0
 10
917.49419079742279
 20
-1351.9953497972549
 30
0.0
 41
0.9989435598956695
 10
917.43653741027288
 20
-1351.9818320950208
 30
0.0
 41
1.0
 10
917.43545729069012
 20
-1351.9815788447675
 30
0.0
 41
1.0
 10
917.43437717110737
 20
-1351.9813255945141
 30
0.0
 41
1.0
 10
917.3745635447915
 20
-1351.9673013917734
 30
0.0
 41
0.9992249241239188
 10
917.31383203589382
 20
-1351.9580260490584
 30
0.0
 41
1.0
 10
917.31241834760351
 20
-1351.9578101406505
 30
0.0
 41
1.0
 10
917.3110046593132
 20
-1351.9575942322429
 30
0.0
 41
1.0
 10
917.24744577383353
 20
-1351.9478870727121
 30
0.0
 41
0.9994396597834451
 10
917.18337983729725
 20
-1351.9424541503663
 30
0.0
 41
1.0
 10
917.16423916981921
 20
-1351.9408309826476
 30
0.0
 41
1.0
 10
917.14509850234117
 20
-1351.939207814929
 30
0.0
 41
1.0
 10
917.04275123084858
 20
-1351.9305285571459
 30
0.0
 41
0.9987693403121016
 10
916.94004760726114
 20
-1351.9320316205985
 30
0.0
 41
1.0
 10
916.92979327303317
 20
-1351.9321816923728
 30
0.0
 41
1.0
 10
916.9195389388052
 20
-1351.932331764147
 30
0.0
 41
1.0
 10
916.80998317262743
 20
-1351.9339351084345
 30
0.0
 41
0.9989753644966617
 10
916.70102117261172
 20
-1351.9454381153596
 30
0.0
 41
1.0
 10
916.59205917259533
 20
-1351.9569411222847
 30
0.0
 41
0.9983190067305636
 10
916.48516036163051
 20
-1351.9809761140714
 30
0.0
 41
1.0
 10
916.47625941002366
 20
-1351.982977392634
 30
0.0
 41
1.0
 10
916.46735845841681
 20
-1351.9849786711968
 30
0.0
 41
1.0
 10
916.34265774423886
 20
-1352.0130162201087
 30
0.0
 41
0.9985539388302842
 10
916.2216879905618
 20
-1352.0542798961542
 30
0.0
 41
1.0
 10
916.21934255960082
 20
-1352.0550799399703
 30
0.0
 41
1.0
 10
916.21699712863983
 20
-1352.0558799837863
 30
0.0
 41
1.0
 10
916.09133651304194
 20
-1352.0987437474635
 30
0.0
 41
0.998846874649414
 10
915.97036617074298
 20
-1352.1534618325252
 30
0.0
 41
1.0
 10
915.96718334875322
 20
-1352.1549015070855
 30
0.0
 41
1.0
 10
915.96400052676358
 20
-1352.156341181646
 30
0.0
 41
1.0
 10
915.83666454048569
 20
-1352.2139386158283
 30
0.0
 41
0.9991322885919332
 10
915.71456395642804
 20
-1352.2819339480106
 30
0.0
 41
1.0
 10
915.69696194538437
 20
-1352.2917361500004
 30
0.0
 41
1.0
 10
915.6793599343406
 20
-1352.3015383519901
 30
0.0
 41
1.0
 10
915.57718325328392
 20
-1352.3584384677704
 30
0.0
 41
0.9993860037849133
 10
915.47924224921064
 20
-1352.4223544833587
 30
0.0
 41
1.0
 10
915.47362393635456
 20
-1352.4260209780562
 30
0.0
 41
1.0
 10
915.46800562349847
 20
-1352.4296874727536
 30
0.0
 41
1.0
 10
915.3813012451335
 20
-1352.4862704989498
 30
0.0
 41
0.9998821494952587
 10
915.2963748693245
 20
-1352.5454887290241
 30
0.0
 41
1.0
 10
915.21144849351435
 20
-1352.6047069590993
 30
0.0
 41
0.9997976482744335
 10
915.12897286311522
 20
-1352.6672933671373
 30
0.0
 41
1.0
 10
915.11433659830675
 20
-1352.6784000569198
 30
0.0
 41
1.0
 10
915.09970033349828
 20
-1352.6895067467024
 30
0.0
 41
1.0
 10
914.98795217348345
 20
-1352.7743065343047
 30
0.0
 41
0.9998091630800637
 10
914.87960189545515
 20
-1352.8634068850067
 30
0.0
 41
1.0
 10
914.86659614297878
 20
-1352.8741019854519
 30
0.0
 41
1.0
 10
914.8535903905024
 20
-1352.8847970858972
 30
0.0
 41
1.0
 10
914.71922860751692
 20
-1352.9952876374932
 30
0.0
 41
0.999503511231705
 10
914.59209272975261
 20
-1353.1140214545092
 30
0.0
 41
1.0
 10
914.58244541936824
 20
-1353.1230312006644
 30
0.0
 41
1.0
 10
914.57279810898387
 20
-1353.1320409468196
 30
0.0
 41
1.0
 10
914.44937504621805
 20
-1353.2473073185761
 30
0.0
 41
0.9994630424299398
 10
914.33376664043283
 20
-1353.3704100618124
 30
0.0
 41
1.0
 10
914.33008380165995
 20
-1353.374331641327
 30
0.0
 41
1.0
 10
914.32640096288708
 20
-1353.3782532208415
 30
0.0
 41
1.0
 10
914.2181582346476
 20
-1353.4935128050488
 30
0.0
 41
0.9995160693749824
 10
914.117292205117
 20
-1353.6152802229201
 30
0.0
 41
1.0
 10
914.11535848503684
 20
-1353.6176146471275
 30
0.0
 41
1.0
 10
914.11342476495668
 20
-1353.619949071335
 30
0.0
 41
1.0
 10
914.01642617558491
 20
-1353.7370476407925
 30
0.0
 41
0.9996561470514916
 10
913.92569995691917
 20
-1353.8590704032417
 30
0.0
 41
1.0
 10
913.91954229102146
 20
-1353.8673521922783
 30
0.0
 41
1.0
 10
913.91338462512374
 20
-1353.8756339813149
 30
0.0
 41
1.0
 10
913.83497373825708
 20
-1353.9810931656859
 30
0.0
 41
0.9998349055171945
 10
913.76044645632112
 20
-1354.0893317493544
 30
0.0
 41
1.0
 10
913.68591917438334
 20
-1354.1975703330259
 30
0.0
 41
0.9999728109561825
 10
913.61299627846233
 20
-1354.3068962585976
 30
0.0
 41
1.0
 10
913.61168106305877
 20
-1354.308868028088
 30
0.0
 41
1.0
 10
913.6103658476552
 20
-1354.3108397975782
 30
0.0
 41
1.0
 10
913.53481252091683
 20
-1354.4241092621455
 30
0.0
 41
0.9999972147441171
 10
913.45979471056228
 20
-1354.5377341049516
 30
0.0
 41
1.0
 10
913.45482316793255
 20
-1354.5452641934353
 30
0.0
 41
1.0
 10
913.4498516253027
 20
-1354.5527942819188
 30
0.0
 41
1.0
 10
913.36489072968857
 20
-1354.681479301692
 30
0.0
 41
0.9999371979009855
 10
913.28283538028529
 20
-1354.8120362154675
 30
0.0
 41
1.0
 10
913.27932649592049
 20
-1354.8176191435373
 30
0.0
 41
1.0
 10
913.27581761155568
 20
-1354.8232020716073
 30
0.0
 41
1.0
 10
913.18674449342677
 20
-1354.9649248415169
 30
0.0
 41
0.9998272025610059
 10
913.10300110254377
 20
-1355.1098607182607
 30
0.0
 41
1.0
 10
913.08778593052045
 20
-1355.1361938327163
 30
0.0
 41
1.0
 10
913.07257075849714
 20
-1355.1625269471717
 30
0.0
 41
1.0
 10
912.958397023565
 20
-1355.3601290528309
 30
0.0
 41
0.9995217214837968
 10
912.85665733400947
 20
-1355.5644113806934
 30
0.0
 41
1.0
 10
912.84901377137726
 20
-1355.5797588303908
 30
0.0
 41
1.0
 10
912.84137020874493
 20
-1355.595106280088
 30
0.0
 41
1.0
 10
912.75446491615241
 20
-1355.7696027381753
 30
0.0
 41
0.9998269762606518
 10
912.67411044987944
 20
-1355.9472110249005
 30
0.0
 41
1.0
 10
912.59375598360759
 20
-1356.1248193116237
 30
0.0
 41
0.9998944747387247
 10
912.51859518904303
 20
-1356.3046870372527
 30
0.0
 41
1.0
 10
912.51364151945074
 20
-1356.3165416921729
 30
0.0
 41
1.0
 10
912.50868784985846
 20
-1356.3283963470928
 30
0.0
 41
1.0
 10
912.42804078930658
 20
-1356.5213932871088
 30
0.0
 41
0.9999506734408759
 10
912.35124326040363
 20
-1356.7159540919633
 30
0.0
 41
1.0
 10
912.33664329513761
 20
-1356.7529420137571
 30
0.0
 41
1.0
 10
912.32204332987158
 20
-1356.7899299355506
 30
0.0
 41
1.0
 10
912.27444573150706
 20
-1356.9105148968015
 30
0.0
 41
0.9999912393901111
 10
912.2278592874776
 20
-1357.0314940995152
 30
0.0
 41
1.0
 10
912.18127284345633
 20
-1357.1524733022081
 30
0.0
 41
0.9999927113942342
 10
912.1356115490737
 20
-1357.2738047096791
 30
0.0
 41
1.0
 10
912.12164311766958
 20
-1357.3109216916951
 30
0.0
 41
1.0
 10
912.10767468626545
 20
-1357.3480386737108
 30
0.0
 41
1.0
 10
912.03407652907629
 20
-1357.5436040452091
 30
0.0
 41
0.9999487550945426
 10
911.96445290410566
 20
-1357.7406194103887
 30
0.0
 41
1.0
 10
911.94085929416713
 20
-1357.8073827206863
 30
0.0
 41
1.0
 10
911.9172656842286
 20
-1357.8741460309836
 30
0.0
 41
1.0
 10
911.8225800498592
 20
-1358.1420798658048
 30
0.0
 41
0.9999808436928435
 10
911.7312184612183
 20
-1358.411165297068
 30
0.0
 41
1.0
 10
911.63985687257616
 20
-1358.6802507283346
 30
0.0
 41
0.9999873932895466
 10
911.55120216385762
 20
-1358.9502400833492
 30
0.0
 41
1.0
 10
911.53110980698875
 20
-1359.0114294161003
 30
0.0
 41
1.0
 10
911.51101745011999
 20
-1359.0726187488517
 30
0.0
 41
1.0
 10
911.3821780276653
 20
-1359.464986769364
 30
0.0
 41
0.9999794883030317
 10
911.2583752427131
 20
-1359.8589729756236
 30
0.0
 41
1.0
 10
911.24722298326719
 20
-1359.8944635858875
 30
0.0
 41
1.0
 10
911.23607072382117
 20
-1359.9299541961511
 30
0.0
 41
1.0
 10
911.09351255992533
 20
-1360.3836269482333
 30
0.0
 41
0.999998276175321
 10
910.95264011991753
 20
-1360.8378259703322
 30
0.0
 41
1.0
 10
909.36449978734493
 20
-1365.8865957013354
 30
0.0
 41
1.0
 10
907.77635945477232
 20
-1370.9353654323386
 30
0.0
 41
1.0
 10
906.82760884329593
 20
-1370.9353654323386
 30
0.0
 41
1.0
 10
905.87885823181955
 20
-1370.9353654323386
 30
0.0
 41
1.0
 10
909.1171427179728
 20
-1360.6080432323924
 30
0.0
 41
1.0
 10
912.35542720412604
 20
-1350.2807210324463
 30
0.0
 41
1.0
  0
LWPOLYLINE
  5
54
100
AcDbEntity
  8
0
370
              15
390
0
  6
Continuous
 62
               7
100
AcDbPolyline
 90
      232
 70
             128
 10
886.651881430299
 20
-1351.3650638639615
 42
0.000437080068672
 10
886.5990042564016
 20
-1351.4337305029906
 10
886.55972002509952
 20
-1351.4848376161144
 42
0.0030481992176331
 10
886.42938130795835
 20
-1351.6565593084879
 10
886.39086963622981
 20
-1351.7079460922469
 42
0.0042058245757186
 10
886.18688458557006
 20
-1351.9849518373067
 10
886.13447946305928
 20
-1352.0573846841012
 42
0.0120948898743514
 10
885.83843554629436
 20
-1352.4881342886556
 10
885.74224304717586
 20
-1352.6356150238753
 42
0.0141601263948774
 10
885.43859900025382
 20
-1353.1312843606106
 10
885.39906173283168
 20
-1353.2001283280358
 42
0.0071131081298705
 10
885.1937894095895
 20
-1353.5696311268805
 42
0.0068458791005435
 10
884.99890988273739
 20
-1353.9447226903746
 10
884.99209802028872
 20
-1353.9582844040801
 42
0.0064120880288833
 10
884.7939557702515
 20
-1354.3657088789837
 10
884.78642108472741
 20
-1354.3817207357201
 42
0.0058857236449226
 10
884.58366569285477
 20
-1354.8260968467573
 10
884.57549076656176
 20
-1354.8445870003891
 42
0.0053189741897957
 10
884.36678645389418
 20
-1355.3305504743073
 10
884.35803864821287
 20
-1355.3515323525032
 42
0.0047503650419529
 10
884.1420649220546
 20
-1355.8837317857322
 10
884.1327966737141
 20
-1355.9072081618208
 42
0.0042071762175299
 10
883.90824928998154
 20
-1356.4903017559031
 10
883.89849988763763
 20
-1356.5162679307603
 42
0.0036680086485204
 10
883.66404524432335
 20
-1357.1549033152974
 10
883.65383746447765
 20
-1357.183351849636
 42
0.0032573142628489
 10
883.40820517850875
 20
-1357.8822045093957
 10
883.33955465767554
 20
-1358.081667593427
 42
0.0026133366647014
 10
882.99110945891232
 20
-1359.1115308771143
 10
882.92785267142142
 20
-1359.3017617124779
 42
0.0020592950741789
 10
882.7139896024446
 20
-1359.9538653651205
 10
882.7109378112832
 20
-1359.9633018535249
 42
0.0025609928533575
 10
882.50911730979578
 20
-1360.598447075896
 10
882.50652594265875
 20
-1360.6067494168697
 42
0.0031362356243858
 10
882.31703515699212
 20
-1361.2275122730161
 10
882.31490411407481
 20
-1361.2346535791933
 42
0.0037229918026824
 10
882.13810372713829
 20
-1361.8436388812013
 10
882.1364251379382
 20
-1361.8495857713533
 42
0.0043077623707637
 10
881.9726843358668
 20
-1362.4494045031447
 42
0.0047654161822452
 10
881.81985561335375
 20
-1363.0520905920353
 10
881.78539100451167
 20
-1363.1936523691968
 42
0.0112969368446437
 10
881.58952664636831
 20
-1364.0853445298196
 10
881.56152025727147
 20
-1364.2281725759187
 42
0.0130056762570148
 10
881.36068301362491
 20
-1365.4151136475637
 10
881.34014326347756
 20
-1365.5591917610423
 42
0.0138721532145211
 10
881.23644025893987
 20
-1366.4660212468664
 10
881.21714477103205
 20
-1366.6895189687914
 42
0.0071254697007219
 10
881.18379812510932
 20
-1367.1527059776388
 10
881.17883715094501
 20
-1367.2387099722173
 42
0.0028881799208171
 10
881.16369885765619
 20
-1367.5304516820415
 42
0.0060297297142904
 10
881.15376665788017
 20
-1367.8224006181797
 10
881.15270437621359
 20
-1367.8707929900922
 42
0.0229523164159214
 10
881.16043540399937
 20
-1368.193547836373
 10
881.16466117751975
 20
-1368.2539513703884
 42
0.0123673300666821
 10
881.18373982403807
 20
-1368.455072095564
 42
0.0128577674471294
 10
881.21293521444409
 20
-1368.6549699454893
 10
881.22006108783137
 20
-1368.6962987600878
 42
0.0285717853759772
 10
881.28455508952698
 20
-1368.9744149114008
 10
881.29822361319339
 20
-1369.0210696808779
 42
0.031628309915812
 10
881.41403419310768
 20
-1369.3400841827042
 10
881.41708288486325
 20
-1369.3470705550299
 42
0.0338984824238185
 10
881.56651459583031
 20
-1369.6346365192189
 10
881.56882332519979
 20
-1369.6384275484943
 42
0.0350228718354504
 10
881.75118361587374
 20
-1369.8954795331717
 10
881.75206886765
 20
-1369.8965586109373
 42
0.0347476747533932
 10
881.96649355488898
 20
-1370.1237436581557
 42
0.0331337701906306
 10
882.20973688063555
 20
-1370.3198723202333
 10
882.21083697915151
 20
-1370.3206450234056
 42
0.0305233319084998
 10
882.479381674725
 20
-1370.4857731934972
 10
882.48261171922604
 20
-1370.4874972053597
 42
0.0273744481151518
 10
882.77516543080071
 20
-1370.6236353492502
 10
882.78026996593792
 20
-1370.6256789337197
 42
0.0240964406193332
 10
883.09574704158342
 20
-1370.734662660001
 10
883.10233037079354
 20
-1370.7365873996762
 42
0.0209636179812815
 10
883.43973052344427
 20
-1370.820055547608
 10
883.44736298389489
 20
-1370.8216074606098
 42
0.0181388704691786
 10
883.80568537589465
 20
-1370.881023553824
 10
883.81396622427155
 20
-1370.8820897376409
 42
0.0156086547584804
 10
884.19215358845952
 20
-1370.9188259242176
 10
884.23534884079447
 20
-1370.9216644266969
 42
0.0137148329027425
 10
884.56302198608626
 20
-1370.9341846819477
 10
884.60895817602034
 20
-1370.9346791150629
 42
0.0051057823878864
 10
884.84510376260448
 20
-1370.9348093694721
 42
0.005225669331292
 10
885.08120104638635
 20
-1370.930060545008
 10
885.15142783013255
 20
-1370.9279135789939
 42
0.0161507179049566
 10
885.52716490823593
 20
-1370.9042632086671
 10
885.54717786860692
 20
-1370.9023530133798
 42
0.0101216737831979
 10
885.96120509009495
 20
-1370.8543600830146
 10
885.99525837952433
 20
-1370.8497123862046
 42
0.0245291776398725
 10
886.47204803507645
 20
-1370.760637308128
 10
886.55687135060032
 20
-1370.7404413877821
 42
0.0143509212556167
 10
886.91350245453907
 20
-1370.6446367540036
 42
0.015655785704372
 10
887.26371851927036
 20
-1370.5276255381834
 10
887.27121973376097
 20
-1370.5248553764307
 42
0.017013733362879
 10
887.62781572944095
 20
-1370.3791977615599
 10
887.63491965184983
 20
-1370.3760099259957
 42
0.0183105364407043
 10
887.99426932001393
 20
-1370.1986748841728
 10
888.00121608465486
 20
-1370.1949244492994
 42
0.019489995815344
 10
888.35969682563666
 20
-1369.98294546741
 10
888.36671070497562
 20
-1369.9784201251136
 42
0.020486985295283
 10
888.72072500707441
 20
-1369.7289001100241
 10
888.72799061565661
 20
-1369.7233200446794
 42
0.021251693855417
 10
889.07398054675934
 20
-1369.4334160477897
 10
889.12049724084443
 20
-1369.3909487376875
 42
0.0215248918257989
 10
889.38052340972786
 20
-1369.1321844586967
 10
889.42555314410947
 20
-1369.0833403373456
 42
0.0114578554956763
 10
889.5803452977857
 20
-1368.9075174038885
 10
889.59153983377053
 20
-1368.8941986403452
 42
0.0061531305134618
 10
889.71801447976668
 20
-1368.7399091070374
 42
0.0006325587125346
 10
889.8423929640004
 20
-1368.5839057312585
 10
889.86543309897002
 20
-1368.5549322107022
 42
0.0041897761554985
 10
890.03388850294084
 20
-1368.3394128346431
 10
890.09235062283494
 20
-1368.2633114876553
 42
0.0092993880039604
 10
890.36896255006286
 20
-1367.8890327237659
 10
890.45135704325389
 20
-1367.7730957202082
 42
0.0159321727084796
 10
890.79796352590006
 20
-1367.2509214994468
 10
890.84231966129448
 20
-1367.1792419351882
 42
0.0085547317025675
 10
891.07683142661483
 20
-1366.7853669859721
 42
0.0084601156889977
 10
891.29780760405242
 20
-1366.3837401369485
 10
891.3059230778872
 20
-1366.368380454667
 42
0.0081429654284813
 10
891.52917234832262
 20
-1365.9286589421304
 10
891.53803251250872
 20
-1365.9104801001067
 42
0.0076574581327707
 10
891.76444002308074
 20
-1365.4272972248421
 10
891.77391966379912
 20
-1365.4062327465506
 42
0.0070682724206619
 10
892.00436457161072
 20
-1364.8741954417578
 10
892.01435485558761
 20
-1364.8502062527577
 42
0.0064559514446877
 10
892.2496880637658
 20
-1364.2638939862477
 10
892.26009742193423
 20
-1364.2369590607966
 42
0.0058311413906791
 10
892.50114415869473
 20
-1363.5909269664189
 10
892.51189923608445
 20
-1363.5610426252524
 42
0.0052312425817929
 10
892.75948051412729
 20
-1362.8498402114124
 10
892.77052435050518
 20
-1362.8170134993481
 42
0.004668054479641
 10
893.02545277823879
 20
-1362.0351871835965
 10
893.06744492828113
 20
-1361.902203946308
 42
0.0041666856446073
 10
893.27073094067828
 20
-1361.2392351712956
 10
893.30839338133546
 20
-1361.1126540636642
 42
0.0015170975157046
 10
893.42957995975507
 20
-1360.7007857121482
 42
-0.0004887993119299
 10
893.54991973283416
 20
-1360.2886673002565
 10
893.62639699037322
 20
-1360.0277099141651
 42
0.0002583378927582
 10
893.89961156040386
 20
-1359.0936532111016
 10
893.98138441000378
 20
-1358.8135539514385
 42
0.0006636169672675
 10
894.17525217002549
 20
-1358.1462010278162
 10
894.1803488243836
 20
-1358.1285694448979
 42
0.001058913132359
 10
894.36179752528915
 20
-1357.4958381018873
 10
894.3667795957673
 20
-1357.4783251948757
 42
0.0015655524459843
 10
894.53504980295236
 20
-1356.8797085156664
 10
894.53988000337404
 20
-1356.8623163567063
 42
0.0021640440478376
 10
894.69416997535336
 20
-1356.2972893387123
 10
894.69880419477852
 20
-1356.2800246087363
 42
0.0028763871853836
 10
894.83831991283637
 20
-1355.7480566578713
 10
894.8427057770092
 20
-1355.7309326796951
 42
0.0037310511944896
 10
894.96666246884047
 20
-1355.2314850856931
 10
894.97073768912878
 20
-1355.2145248144507
 42
0.0047652197770823
 10
895.07836158963789
 20
-1354.7470470461426
 10
895.08205218896069
 20
-1354.7302874909949
 42
0.0060276699299778
 10
895.172582288115
 20
-1354.2942116958484
 10
895.17580097840528
 20
-1354.2777104815336
 42
0.00758243377598
 10
895.24849028781955
 20
-1353.872443317113
 10
895.25113566519872
 20
-1353.8562883696691
 42
0.0095130624604218
 10
895.30525090083097
 20
-1353.4811990165906
 10
895.31223712471365
 20
-1353.4252654584736
 42
0.0121054653229581
 10
895.33882845529149
 20
-1353.1603696300001
 10
895.33969494505095
 20
-1353.1489661870726
 42
0.0069050827388389
 10
895.35478376308868
 20
-1352.9060249602269
 10
895.35591906275727
 20
-1352.8824987031799
 42
0.0169063976699325
 10
895.35874634173751
 20
-1352.6863059758814
 10
895.35757569020598
 20
-1352.6259702145171
 42
0.0052007732912688
 10
895.35532224161329
 20
-1352.5503768243802
 42
0.0054038123306421
 10
895.33535872977257
 20
-1352.4303585283596
 10
895.33027287390394
 20
-1352.4017000417891
 42
0.0112050460466158
 10
895.29488851184612
 20
-1352.2253736034534
 10
895.27706354980478
 20
-1352.1458320167292
 42
0.0240764468009747
 10
895.186166183659
 20
-1351.815594981229
 10
895.16760742084568
 20
-1351.7589748162354
 42
0.0256812331835939
 10
895.02424450065575
 20
-1351.3872506099767
 10
895.01883507483421
 20
-1351.3751192749867
 42
0.0268360501217043
 10
894.84940783398451
 20
-1351.044126140966
 10
894.84387142634932
 20
-1351.0346064706534
 42
0.0274670231730954
 10
894.65167044993609
 20
-1350.7423190957365
 10
894.64628914997331
 20
-1350.735039948195
 42
0.0275035967095445
 10
894.43471627041163
 20
-1350.4795240578912
 10
894.42964676944462
 20
-1350.4740449702604
 42
0.0269557673527476
 10
894.20224322600552
 20
-1350.2534026842984
 10
894.19750016822275
 20
-1350.2492727298375
 42
0.0259124802208948
 10
893.95794533679214
 20
-1350.0615822026853
 10
893.95341449161151
 20
-1350.0583967003558
 42
0.024516215300025
 10
893.7054981385154
 20
-1349.9016636912445
 10
893.70097159218915
 20
-1349.8991034940425
 42
0.0229282588841714
 10
893.44855203536372
 20
-1349.7712353015447
 10
893.44377154152892
 20
-1349.7690830017837
 42
0.021298413569347
 10
893.1907335890653
 20
-1349.6678840845404
 10
893.18542930409819
 20
-1349.6660205217813
 42
0.0197555462344347
 10
892.9356509663728
 20
-1349.5892051038156
 42
0.0183511896785049
 10
892.6807222409077
 20
-1349.5316221968499
 10
892.59435704418604
 20
-1349.5154194064651
 42
0.0338057877146519
 10
892.30884969492638
 20
-1349.4816110013248
 10
892.21784428988269
 20
-1349.4770313460633
 42
0.0091990524501854
 10
892.11199718125044
 20
-1349.4736554901413
 42
0.0028333980782233
 10
892.0060832652739
 20
-1349.4728273826247
 10
892.00516781220813
 20
-1349.4728254128006
 42
-0.0023619827824899
 10
891.89742179713664
 20
-1349.4720845717225
 10
891.86101662692636
 20
-1349.4716622652591
 42
0.0008824598478378
 10
891.68046063721965
 20
-1349.469886487022
 10
891.63659920467057
 20
-1349.4695325254952
 42
0.0038132665768147
 10
891.36831630879476
 20
-1349.4694135894288
 10
891.35178265399827
 20
-1349.4695323555723
 42
0.0060665569336472
 10
891.05050216239113
 20
-1349.4753526549935
 10
891.03625183038162
 20
-1349.4758009629606
 42
0.0080356953334934
 10
890.70679311404535
 20
-1349.4914686850273
 10
890.69472309895514
 20
-1349.492237267968
 42
0.0098996399105623
 10
890.34196001430462
 20
-1349.5217224971661
 10
890.33191430492957
 20
-1349.5227627933643
 42
0.0117740981370086
 10
889.96075744657696
 20
-1349.5700550408949
 10
889.95253475009827
 20
-1349.571300157465
 42
0.0137435215133645
 10
889.56794593061591
 20
-1349.640397131026
 10
889.56128889148977
 20
-1349.6417830272601
 42
0.015835986938862
 10
889.16829179768376
 20
-1349.7366751157417
 10
889.16287861082014
 20
-1349.7381650566113
 42
0.0180554124026426
 10
888.76656356621095
 20
-1349.8628030728489
 10
888.76200677812437
 20
-1349.8644191091164
 42
0.0203657431283593
 10
888.36752926030897
 20
-1350.0226794506339
 10
888.36338572130569
 20
-1350.024541072074
 42
0.0226819684657457
 10
887.97594966510394
 20
-1350.220183650744
 10
887.97174987408391
 20
-1350.2225492426649
 42
0.0248634984601269
 10
887.59656793290344
 20
-1350.4591758886115
 10
887.54837300412009
 20
-1350.4930329304368
 42
0.0267044190886983
 10
887.27408030720221
 20
-1350.7084733063059
 42
0.0139303002199415
 10
887.0179131412599
 20
-1350.9457121472215
 10
887.01305975554249
 20
-1350.9504648100781
 42
0.028346096344271
 10
886.76898716131666
 20
-1351.2181954705213
 10
886.72931865615874
 20
-1351.266997047996
 42
0.0070695364826265
 10
886.651881430299
 20
-1351.3650638639615
 42
0.0070695364826265
  0
LWPOLYLINE
  5
55
100
AcDbEntity
  8
0
370
              15
390
0
  6
Continuous
 62
               7
100
AcDbPolyline
 90
      226
 70
             128
 10
883.1230609930526
 20
-1367.0866526701457
 42
-0.0026277636632777
 10
883.12298310925257
 20
-1367.0198807444151
 10
883.12320046748459
 20
-1366.9667255269594
 42
-0.0088680296714984
 10
883.12697708377766
 20
-1366.7937097445538
 10
883.12932344289004
 20
-1366.7344297191028
 42
-0.0077381705622123
 10
883.14536955365304
 20
-1366.4431692233061
 10
883.14623746482619
 20
-1366.4308809896195
 42
-0.0068872530526634
 10
883.17286954457506
 20
-1366.1156592375432
 10
883.17407376876042
 20
-1366.1034182585317
 42
-0.0062130021491017
 10
883.21166748558892
 20
-1365.7645485672883
 10
883.21317138912343
 20
-1365.7523746953766
 42
-0.0056726929668005
 10
883.26209324862714
 20
-1365.3901794732531
 10
883.26386669427006
 20
-1365.3780856730179
 42
-0.0052341884499846
 10
883.32447728053182
 20
-1364.9928924174897
 10
883.32649526930663
 20
-1364.9808874875077
 42
-0.0049768450170975
 10
883.39923395073458
 20
-1364.5730429200669
 10
883.42348296545481
 20
-1364.4444949370691
 42
-0.0089029805627051
 10
883.56056381724875
 20
-1363.7827194896504
 10
883.59330919256809
 20
-1363.6376880591231
 42
-0.008031825710113
 10
883.82285780690938
 20
-1362.6919784272673
 10
883.83484273335705
 20
-1362.6458477920794
 42
-0.0074265721318356
 10
884.11885427220591
 20
-1361.6157832137028
 10
884.13873381532517
 20
-1361.5476491531047
 42
-0.0069711922701817
 10
884.46603839383033
 20
-1360.4813814127815
 10
884.52599034093453
 20
-1360.2953600544149
 42
-0.0052070422896343
 10
884.7554155661951
 20
-1359.6080879773795
 10
884.77269675837999
 20
-1359.5580606967258
 42
-0.0009167004447636
 10
884.97578864565685
 20
-1358.9736048486084
 42
-0.0025162726943765
 10
885.18288627591403
 20
-1358.3905635844612
 10
885.22011088772365
 20
-1358.2874140385438
 42
-0.0028212681458394
 10
885.46828680668796
 20
-1357.6116834063694
 10
885.47811756943702
 20
-1357.5853759616969
 42
-0.0031964916822826
 10
885.71440982710089
 20
-1356.9651711995657
 10
885.72404428109542
 20
-1356.9403612094338
 42
-0.00362818364512
 10
885.94915024220109
 20
-1356.3729205285292
 10
885.95858865235732
 20
-1356.3496230970293
 42
-0.0041269166835641
 10
886.17320634901773
 20
-1355.832182201048
 10
886.20583930543921
 20
-1355.7553037546852
 42
-0.0047472213056243
 10
886.36288411099213
 20
-1355.3948822868035
 10
886.36977819218669
 20
-1355.379461689502
 42
-0.002565165999829
 10
886.5181362260505
 20
-1355.0521336337231
 42
-0.0057144634991951
 10
886.67188591982563
 20
-1354.7273239603526
 10
886.69991662521738
 20
-1354.6698155779779
 42
-0.0065388068376906
 10
886.88338365296272
 20
-1354.3055830813014
 10
886.89184210874919
 20
-1354.2893235019167
 42
-0.0074510843023697
 10
887.06802435461918
 20
-1353.9626352208093
 10
887.07620402514578
 20
-1353.9479944435484
 42
-0.0084648979857829
 10
887.24583787825031
 20
-1353.6560854325794
 10
887.25369400473494
 20
-1353.6430784409342
 42
-0.00956385428046
 10
887.41752945233259
 20
-1353.38318956895
 10
887.42500439600735
 20
-1353.3718202074901
 42
-0.0107191626804065
 10
887.58380597639189
 20
-1353.1412089729504
 10
887.59082271012164
 20
-1353.1314728805876
 42
-0.0118458573904121
 10
887.74537080863547
 20
-1352.927400685275
 42
-0.0129184518187152
 10
887.90982343224221
 20
-1352.7312401690986
 10
887.93996820459927
 20
-1352.697114090206
 42
-0.0217742579637731
 10
888.11658052693542
 20
-1352.513907319955
 10
888.12732607139912
 20
-1352.5036904867488
 42
-0.0097266568649456
 10
888.29338369025163
 20
-1352.3518429123146
 42
-0.0187720905720662
 10
888.46773126613857
 20
-1352.2097740589275
 10
888.49843725681319
 20
-1352.186614976531
 42
-0.0179428207522269
 10
888.73085797681142
 20
-1352.0240627994176
 10
888.73451030373076
 20
-1352.0216988645275
 42
-0.017004787769614
 10
888.97027394125757
 20
-1351.8802383503785
 10
888.97405692999985
 20
-1351.8781400453445
 42
-0.0160190788364313
 10
889.21096547763943
 20
-1351.7564887433541
 42
-0.0151102861489948
 10
889.45499726009143
 20
-1351.6498059672972
 10
889.50738376229788
 20
-1351.6287658344047
 42
-0.0271945441887156
 10
889.86604632135629
 20
-1351.5069010236987
 10
889.93511112184217
 20
-1351.487551482433
 42
-0.0237596594025361
 10
890.35090796886675
 20
-1351.392100770451
 10
890.41897082259834
 20
-1351.3798460823241
 42
-0.0213715440552745
 10
890.70484575404248
 20
-1351.3408990508144
 10
890.76499292026131
 20
-1351.3353093361134
 42
-0.0101465655812814
 10
890.93248545225458
 20
-1351.3231657928493
 10
890.94182583844724
 20
-1351.3226788778522
 42
-0.0100375910884862
 10
891.09097993901537
 20
-1351.3179030599267
 10
891.10123920869876
 20
-1351.3177806209123
 42
-0.0103625633381622
 10
891.22994720335066
 20
-1351.3189120544389
 10
891.25221285461612
 20
-1351.3195694129038
 42
-0.0115689250244154
 10
891.33626359214554
 20
-1351.3239989191491
 42
-0.0072438037413622
 10
891.42010187159769
 20
-1351.3315881188998
 10
891.43690238105751
 20
-1351.3333546616227
 42
-0.021791731313142
 10
891.55347214437063
 20
-1351.3507745543436
 10
891.61907223493768
 20
-1351.3635211627582
 42
-0.0332943556765081
 10
891.82346439996604
 20
-1351.4175614540652
 10
891.85363696852028
 20
-1351.4277295311852
 42
-0.0184824084793825
 10
891.99214202498149
 20
-1351.4801805465702
 42
-0.0198002050703393
 10
892.12621636547908
 20
-1351.5430646067684
 10
892.12810300285776
 20
-1351.5440423936493
 42
-0.0212242342977532
 10
892.2602419452586
 20
-1351.6198051324418
 10
892.26205724080319
 20
-1351.6209509346509
 42
-0.0226090605787778
 10
892.39056114202617
 20
-1351.7104305782163
 10
892.39240558376241
 20
-1351.7118428312028
 42
-0.0238457052251294
 10
892.51558766505411
 20
-1351.8158387270639
 10
892.51754039361435
 20
-1351.8176536048313
 42
-0.0248160564145752
 10
892.63374190091577
 20
-1351.9369282060411
 10
892.63584553431701
 20
-1351.9393135397445
 42
-0.025410959144989
 10
892.74345075218264
 20
-1352.0746019257083
 10
892.74569877409704
 20
-1352.0777434741094
 42
-0.0255528488281724
 10
892.84314545289351
 20
-1352.2297705283427
 10
892.84547655281028
 20
-1352.2338521399513
 42
-0.0252146793217342
 10
892.93125757882046
 20
-1352.4033543859505
 10
892.93355981797708
 20
-1352.408536467861
 42
-0.0244265635947248
 10
893.00621451173868
 20
-1352.596283039908
 10
893.01546091320699
 20
-1352.6241484582458
 42
-0.0231319612895664
 10
893.061383692199
 20
-1352.7874495050473
 42
-0.0112130424360685
 10
893.09601971473717
 20
-1352.9536531052349
 10
893.09722223984977
 20
-1352.9601496921232
 42
-0.0210527881231789
 10
893.12290871522089
 20
-1353.1412053375666
 10
893.12641931004248
 20
-1353.1766108861116
 42
-0.0190029892420688
 10
893.14186078358694
 20
-1353.4301467323824
 10
893.14267076003102
 20
-1353.465622346753
 42
-0.0137974553657955
 10
893.14112190719516
 20
-1353.7906537534952
 10
893.14027645223962
 20
-1353.8167724980869
 42
-0.0081336634212145
 10
893.12541711701738
 20
-1354.1221199656784
 42
-0.0073526923578945
 10
893.10110858364339
 20
-1354.4268682099569
 10
893.09984715986002
 20
-1354.4402048846296
 42
-0.0066886138698397
 10
893.06411157381478
 20
-1354.7707909281171
 10
893.06245448434368
 20
-1354.7844125471183
 42
-0.0061359187352531
 10
893.01460388229282
 20
-1355.1411765272185
 10
893.01256638121993
 20
-1355.1550713300476
 42
-0.0056698610066007
 10
892.95191605045113
 20
-1355.5383498988951
 10
892.9495106171297
 20
-1355.5525090181163
 42
-0.0052721077272008
 10
892.87537841633127
 20
-1355.9626363577877
 10
892.8726152674883
 20
-1355.9770529931802
 42
-0.0049289272178094
 10
892.78432114939028
 20
-1356.4143615042933
 10
892.78120865470578
 20
-1356.4290303571183
 42
-0.0047415956711791
 10
892.67797066317371
 20
-1356.893827114528
 10
892.64320245281374
 20
-1357.0436342099122
 42
-0.0084404470903083
 10
892.45318600924156
 20
-1357.8038582344443
 10
892.44705932125623
 20
-1357.8267223585967
 42
-0.003963594025829
 10
892.22560563697516
 20
-1358.6277112228338
 10
892.21222884179269
 20
-1358.674642839436
 42
-0.0072475040836265
 10
891.94478195392639
 20
-1359.5638625558365
 10
891.87456962710701
 20
-1359.7856029057834
 42
-0.0051345458829478
 10
891.58781025504334
 20
-1360.6599280936093
 10
891.56628398827013
 20
-1360.723354360756
 42
-0.001915001660091
 10
891.31075058140914
 20
-1361.4669034809654
 10
891.30428297701451
 20
-1361.485490945882
 42
-0.0021524362752172
 10
891.05580492594902
 20
-1362.1898167675949
 10
891.04659450526276
 20
-1362.2155703458679
 42
-0.0024331286823351
 10
890.81033924621659
 20
-1362.8661696540146
 10
890.80129129365741
 20
-1362.8907129603924
 42
-0.0027449721788045
 10
890.57667672283071
 20
-1363.4898428392933
 10
890.56778671543225
 20
-1363.5131654291617
 42
-0.0031083229767864
 10
890.35424422882852
 20
-1364.0630894667252
 10
890.34550809715688
 20
-1364.085179182573
 42
-0.0035311343282797
 10
890.14246691156109
 20
-1364.588162308313
 10
890.13388157242468
 20
-1364.609005031796
 42
-0.0040245640949515
 10
889.94076976861902
 20
-1365.0673143544159
 10
889.93233365501055
 20
-1365.0868937225005
 42
-0.0046015135852277
 10
889.74857736185231
 20
-1365.5027987521303
 10
889.74029118402825
 20
-1365.5210958915729
 42
-0.0052768638274971
 10
889.5653136650684
 20
-1365.8968687758527
 10
889.55718145443871
 20
-1365.9138621144018
 42
-0.0060672675642957
 10
889.3904018416755
 20
-1366.2517777375101
 10
889.38243236119763
 20
-1366.2674429965002
 42
-0.0069904648874999
 10
889.22326396719245
 20
-1366.5697788031709
 10
889.21547256757731
 20
-1366.5840893524064
 42
-0.0080637022760648
 10
889.06332070723579
 20
-1366.8531246555513
 10
889.05573167460648
 20
-1366.8660525211487
 42
-0.0093006455670349
 10
888.909990998073
 20
-1367.1040669196552
 10
888.90264033133155
 20
-1367.115584888825
 42
-0.0107060778049688
 10
888.76269178789084
 20
-1367.3248552062075
 10
888.75563001961302
 20
-1367.3349407487708
 42
-0.0122723111414786
 10
888.62083630141319
 20
-1367.5177340782623
 10
888.62051007786295
 20
-1367.518154466067
 42
-0.0141836319626316
 10
888.47692847488509
 20
-1367.6927242239015
 10
888.46998071922997
 20
-1367.7006992241697
 42
-0.0175957477206743
 10
888.33007455119844
 20
-1367.8503201125711
 42
-0.0080466359679561
 10
888.18261078618161
 20
-1367.9926426407098
 10
888.1365762416508
 20
-1368.0356630788135
 42
-0.0269600260393889
 10
887.88329599566725
 20
-1368.2479863373233
 10
887.81672885937098
 20
-1368.2979377519464
 42
-0.0178362839755543
 10
887.57678436971491
 20
-1368.464955678199
 10
887.56953939871437
 20
-1368.4696241904039
 42
-0.0174650732650646
 10
887.33320320127325
 20
-1368.610485155363
 42
-0.0169240130162938
 10
887.08773695541493
 20
-1368.7347774151408
 10
887.04175079985771
 20
-1368.7561393707076
 42
-0.0318883036841992
 10
886.69139994423847
 20
-1368.8924776802176
 10
886.62303440907112
 20
-1368.9141783006937
 42
-0.0284435909901468
 10
886.24698428278191
 20
-1369.0103957361678
 10
886.21182612228245
 20
-1369.0172893319964
 42
-0.0243909341011414
 10
885.89838266136439
 20
-1369.0630103630263
 10
885.84810193459759
 20
-1369.0678559099274
 42
-0.0196639292936648
 10
885.63250635706606
 20
-1369.0801041954414
 10
885.58068228590253
 20
-1369.0810074561782
 42
-0.0100501510681266
 10
885.46825900423835
 20
-1369.0807070578251
 10
885.43659914288514
 20
-1369.0799859859394
 42
-0.0019752031122458
 10
885.38750680621285
 20
-1369.0786738257302
 10
885.38474650299122
 20
-1369.078589133904
 42
0.0065378751983304
 10
885.34116992823601
 20
-1369.0778222426891
 42
-0.016797469465352
 10
885.2976391053013
 20
-1369.0761623441626
 10
885.29355976604211
 20
-1369.075869333268
 42
-0.0081283276285791
 10
885.2419999683118
 20
-1369.0713223396308
 10
885.23026039442493
 20
-1369.0700944220516
 42
-0.0126703440172364
 10
885.15554209863001
 20
-1369.06035963098
 10
885.13275423095467
 20
-1369.0568013750649
 42
-0.0117852088435651
 10
885.01321524512343
 20
-1369.0352383799079
 10
884.95783479335932
 20
-1369.0238948396732
 42
-0.025177459229097
 10
884.73099075435175
 20
-1368.9653968302405
 10
884.68627156450339
 20
-1368.9514300109061
 42
-0.0146525199893363
 10
884.49987857696192
 20
-1368.8871634837069
 42
-0.0166929435854114
 10
884.31790092083395
 20
-1368.8113563506517
 10
884.31324428956202
 20
-1368.8092314500382
 42
-0.0191684358430329
 10
884.12806065831126
 20
-1368.7159953662474
 10
884.12472807255585
 20
-1368.714154118695
 42
-0.022118178181174
 10
883.94141776865479
 20
-1368.602020620325
 10
883.93906796464523
 20
-1368.6004363223333
 42
-0.0254984685387123
 10
883.76277781425949
 20
-1368.4680251723632
 10
883.74029566655793
 20
-1368.4492728634273
 42
-0.02924926488051
 10
883.61552672771495
 20
-1368.3321800637841
 42
-0.0159048957497783
 10
883.50168673026576
 20
-1368.2041600721861
 10
883.50036793968559
 20
-1368.2025784591651
 42
-0.0343813379564902
 10
883.39773067805913
 20
-1368.0607071333955
 10
883.36623914669906
 20
-1368.0102037413023
 42
-0.036911727570582
 10
883.28034664480128
 20
-1367.846726500353
 42
-0.0191751379910785
 10
883.21315325924445
 20
-1367.6743218943477
 10
883.2113899354847
 20
-1367.6692285496722
 42
-0.0378178042223385
 10
883.16159521670068
 20
-1367.4802877735922
 10
883.15559992096985
 20
-1367.4477271553926
 42
-0.018484604647943
 10
883.13488272167569
 20
-1367.305974334849
 42
-0.0179866351308491
 10
883.12454971660225
 20
-1367.1630835217713
 10
883.12449327415629
 20
-1367.1615258351553
 42
-0.0085497186124142
 10
883.1230609930526
 20
-1367.0866526701457
 42
-0.0085497186124142
  0
ENDBLK
  5
56
100
AcDbEntity
  8
template
390
0
100
AcDbBlockEnd
  0
BLOCK
  5
57
100
AcDbEntity
  8
notes
390
0
100
AcDbBlockBegin
  2
*D2
 70
               1
 10
0.0
 20
0.0
 30
0.0
  3
*D2
  1

  0
LINE
  5
58
100
AcDbEntity
  8
0
370
              -2
390
0
  6
Continuous
 62
               0
100
AcDbLine
 10
-550.36001272302246
 20
-357.02792274565917
 30
0.0
 11
-550.36001272302246
 21
-252.02967214163073
 31
0.0
  0
LINE
  5
59
100
AcDbEntity
  8
0
370
              -2
390
0
  6
Continuous
 62
               0
100
AcDbLine
 10
-270.36001272302275
 20
-357.02792274565917
 30
0.0
 11
-270.36001272302275
 21
-252.02967214163073
 31
0.0
  0
LINE
  5
5A
100
AcDbEntity
  8
0
370
              -2
390
0
  6
Continuous
 62
               0
100
AcDbLine
 10
-550.36001272302246
 20
-252.02967214163073
 30
0.0
 11
-270.36001272302275
 21
-252.02967214163073
 31
0.0
  0
CIRCLE
  5
5B
102
{ACAD_REACTORS
330
5C
102
}
100
AcDbEntity
  8
0
370
              -2
390
0
  6
Continuous
 62
               0
100
AcDbCircle
 10
-550.36001272302246
 20
-252.02967214163073
 30
0.0
 40
4.99969482421875
  0
HATCH
  5
5C
100
AcDbEntity
  8
0
370
              -2
390
0
  6
Continuous
 62
               0
100
AcDbHatch
 10
0.0
 20
0.0
 30
0.0
210
0.0
220
0.0
230
1.0
  2
SOLID
 70
               1
 71
               1
 91
        1
 92
        1
 93
        1
 72
               2
 10
-550.36001272302246
 20
-252.02967214163073
 40
4.99969482421875
 50
0.0
 51
360.0
 73
               0
 97
        1
330
5B
 75
               0
 76
               1
 98
        1
 10
0.0
 20
0.0
  0
CIRCLE
  5
5D
102
{ACAD_REACTORS
330
5E
102
}
100
AcDbEntity
  8
0
370
              -2
390
0
  6
Continuous
 62
               0
100
AcDbCircle
 10
-270.36001272302275
 20
-252.02967214163073
 30
0.0
 40
4.99969482421875
  0
HATCH
  5
5E
100
AcDbEntity
  8
0
370
              -2
390
0
  6
Continuous
 62
               0
100
AcDbHatch
 10
0.0
 20
0.0
 30
0.0
210
0.0
220
0.0
230
1.0
  2
SOLID
 70
               1
 71
               1
 91
        1
 92
        1
 93
        1
 72
               2
 10
-270.36001272302275
 20
-252.02967214163073
 40
4.99969482421875
 50
0.0
 51
360.0
 73
               0
 97
        1
330
5D
 75
               0
 76
               1
 98
        1
 10
0.0
 20
0.0
  0
MTEXT
  5
5F
100
AcDbEntity
  8
0
390
0
 62
               0
100
AcDbMText
 10
-434.17251440519857
 20
-218.15205495413073
 30
0.0
 40
24.432617187500004
 41
0.0
 71
               1
 72
               1
  1
280
  7
ＭＳ ゴシック
 73
               1
 44
0.7828267384257843
  0
POINT
  5
60
100
AcDbEntity
  8
Defpoints
370
               0
390
0
 62
               0
100
AcDbPoint
 10
-270.36001272302275
 20
-382.02792274565917
 30
0.0
  0
POINT
  5
61
100
AcDbEntity
  8
Defpoints
370
               0
390
0
 62
               0
100
AcDbPoint
 10
-550.36001272302246
 20
-382.02792274565917
 30
0.0
  0
POINT
  5
62
100
AcDbEntity
  8
Defpoints
370
               0
390
0
 62
               0
100
AcDbPoint
 10
-550.36001272302246
 20
-252.02967214163073
 30
0.0
  0
ENDBLK
  5
63
100
AcDbEntity
  8
notes
390
0
100
AcDbBlockEnd
  0
BLOCK
  5
64
100
AcDbEntity
  8
notes
390
0
100
AcDbBlockBegin
  2
*D3
 70
               1
 10
0.0
 20
0.0
 30
0.0
  3
*D3
  1

  0
LINE
  5
65
100
AcDbEntity
  8
0
370
              -2
390
0
  6
Continuous
 62
               0
100
AcDbLine
 10
-595.3600127230219
 20
-402.02792274565917
 30
0.0
 11
-823.0019662289609
 21
-402.02792274565917
 31
0.0
  0
LINE
  5
66
100
AcDbEntity
  8
0
370
              -2
390
0
  6
Continuous
 62
               0
100
AcDbLine
 10
-775.18069664596317
 20
-352.02792274565917
 30
0.0
 11
-823.0019662289609
 21
-352.02792274565917
 31
0.0
  0
LINE
  5
67
100
AcDbEntity
  8
0
370
              -2
390
0
  6
Continuous
 62
               0
100
AcDbLine
 10
-823.0019662289609
 20
-402.02792274565917
 30
0.0
 11
-823.0019662289609
 21
-352.02792274565917
 31
0.0
  0
CIRCLE
  5
68
102
{ACAD_REACTORS
330
69
102
}
100
AcDbEntity
  8
0
370
              -2
390
0
  6
Continuous
 62
               0
100
AcDbCircle
 10
-823.0019662289609
 20
-402.02792274565917
 30
0.0
 40
4.99969482421875
  0
HATCH
  5
69
100
AcDbEntity
  8
0
370
              -2
390
0
  6
Continuous
 62
               0
100
AcDbHatch
 10
0.0
 20
0.0
 30
0.0
210
0.0
220
0.0
230
1.0
  2
SOLID
 70
               1
 71
               1
 91
        1
 92
        1
 93
        1
 72
               2
 10
-823.0019662289609
 20
-402.02792274565917
 40
4.99969482421875
 50
0.0
 51
360.0
 73
               0
 97
        1
330
68
 75
               0
 76
               1
 98
        1
 10
0.0
 20
0.0
  0
CIRCLE
  5
6A
102
{ACAD_REACTORS
330
6B
102
}
100
AcDbEntity
  8
0
370
              -2
390
0
  6
Continuous
 62
               0
100
AcDbCircle
 10
-823.0019662289609
 20
-352.02792274565917
 30
0.0
 40
4.99969482421875
  0
HATCH
  5
6B
100
AcDbEntity
  8
0
370
              -2
390
0
  6
Continuous
 62
               0
100
AcDbHatch
 10
0.0
 20
0.0
 30
0.0
210
0.0
220
0.0
230
1.0
  2
SOLID
 70
               1
 71
               1
 91
        1
 92
        1
 93
        1
 72
               2
 10
-823.0019662289609
 20
-352.02792274565917
 40
4.99969482421875
 50
0.0
 51
360.0
 73
               0
 97
        1
330
6A
 75
               0
 76
               1
 98
        1
 10
0.0
 20
0.0
  0
MTEXT
  5
6C
100
AcDbEntity
  8
0
390
0
 62
               0
100
AcDbMText
 10
-856.87958341646095
 20
-392.90292274565917
 30
0.0
 40
24.432617187500004
 41
0.0
 71
               1
 72
               1
  1
50
  7
ＭＳ ゴシック
 11
0.0
 21
1.0
 31
0.0
 73
               1
 44
0.7828267384257843
  0
POINT
  5
6D
100
AcDbEntity
  8
Defpoints
370
               0
390
0
 62
               0
100
AcDbPoint
 10
-750.18069664596317
 20
-352.02792274565917
 30
0.0
  0
POINT
  5
6E
100
AcDbEntity
  8
Defpoints
370
               0
390
0
 62
               0
100
AcDbPoint
 10
-570.36001272302212
 20
-402.02792274565917
 30
0.0
  0
POINT
  5
6F
100
AcDbEntity
  8
Defpoints
370
               0
390
0
 62
               0
100
AcDbPoint
 10
-823.00196622896112
 20
-402.02792274565917
 30
0.0
  0
ENDBLK
  5
70
100
AcDbEntity
  8
notes
390
0
100
AcDbBlockEnd
  0
BLOCK
  5
71
100
AcDbEntity
  8
notes
390
0
100
AcDbBlockBegin
  2
*D4
 70
               1
 10
0.0
 20
0.0
 30
0.0
  3
*D4
  1

  0
LINE
  5
72
100
AcDbEntity
  8
0
370
              -2
390
0
  6
Continuous
 62
               0
100
AcDbLine
 10
-60.17930036316266
 20
873.91504996814638
 30
0.0
 11
-60.17930036316266
 21
1001.9150499681464
 31
0.0
  0
LINE
  5
73
100
AcDbEntity
  8
0
370
              -2
390
0
  6
Continuous
 62
               0
100
AcDbLine
 10
-760.17930036316204
 20
873.91504996814638
 30
0.0
 11
-760.17930036316204
 21
1001.9150499681464
 31
0.0
  0
LINE
  5
74
100
AcDbEntity
  8
0
370
              -2
390
0
  6
Continuous
 62
               0
100
AcDbLine
 10
-60.17930036316266
 20
1001.9150499681464
 30
0.0
 11
-760.17930036316204
 21
1001.9150499681464
 31
0.0
  0
CIRCLE
  5
75
102
{ACAD_REACTORS
330
76
102
}
100
AcDbEntity
  8
0
370
              -2
390
0
  6
Continuous
 62
               0
100
AcDbCircle
 10
-60.17930036316266
 20
1001.9150499681464
 30
0.0
 40
4.99969482421875
  0
HATCH
  5
76
100
AcDbEntity
  8
0
370
              -2
390
0
  6
Continuous
 62
               0
100
AcDbHatch
 10
0.0
 20
0.0
 30
0.0
210
0.0
220
0.0
230
1.0
  2
SOLID
 70
               1
 71
               1
 91
        1
 92
        1
 93
        1
 72
               2
 10
-60.17930036316266
 20
1001.9150499681464
 40
4.99969482421875
 50
0.0
 51
360.0
 73
               0
 97
        1
330
75
 75
               0
 76
               1
 98
        1
 10
0.0
 20
0.0
  0
CIRCLE
  5
77
102
{ACAD_REACTORS
330
78
102
}
100
AcDbEntity
  8
0
370
              -2
390
0
  6
Continuous
 62
               0
100
AcDbCircle
 10
-760.17930036316204
 20
1001.9150499681464
 30
0.0
 40
4.99969482421875
  0
HATCH
  5
78
100
AcDbEntity
  8
0
370
              -2
390
0
  6
Continuous
 62
               0
100
AcDbHatch
 10
0.0
 20
0.0
 30
0.0
210
0.0
220
0.0
230
1.0
  2
SOLID
 70
               1
 71
               1
 91
        1
 92
        1
 93
        1
 72
               2
 10
-760.17930036316204
 20
1001.9150499681464
 40
4.99969482421875
 50
0.0
 51
360.0
 73
               0
 97
        1
330
77
 75
               0
 76
               1
 98
        1
 10
0.0
 20
0.0
  0
MTEXT
  5
79
100
AcDbEntity
  8
0
390
0
 62
               0
100
AcDbMText
 10
-433.99180204533866
 20
1035.7926671556463
 30
0.0
 40
24.432617187500004
 41
0.0
 71
               1
 72
               1
  1
700
  7
ＭＳ ゴシック
 73
               1
 44
0.7828267384257843
  0
POINT
  5
7A
100
AcDbEntity
  8
Defpoints
370
               0
390
0
 62
               0
100
AcDbPoint
 10
-760.17930036316204
 20
848.91504996814638
 30
0.0
  0
POINT
  5
7B
100
AcDbEntity
  8
Defpoints
370
               0
390
0
 62
               0
100
AcDbPoint
 10
-60.17930036316266
 20
848.91504996814638
 30
0.0
  0
POINT
  5
7C
100
AcDbEntity
  8
Defpoints
370
               0
390
0
 62
               0
100
AcDbPoint
 10
-60.17930036316266
 20
1001.9150499681464
 30
0.0
  0
ENDBLK
  5
7D
100
AcDbEntity
  8
notes
390
0
100
AcDbBlockEnd
  0
BLOCK
  5
7E
100
AcDbEntity
  8
notes
390
0
100
AcDbBlockBegin
  2
*D5
 70
               1
 10
0.0
 20
0.0
 30
0.0
  3
*D5
  1

  0
LINE
  5
7F
100
AcDbEntity
  8
0
370
              -2
390
0
  6
Continuous
 62
               0
100
AcDbLine
 10
-38.179300363162675
 20
851.91504996814638
 30
0.0
 11
39.820699636837254
 21
851.91504996814638
 31
0.0
  0
LINE
  5
80
100
AcDbEntity
  8
0
370
              -2
390
0
  6
Continuous
 62
               0
100
AcDbLine
 10
-237.82519419965851
 20
331.9538052529474
 30
0.0
 11
39.820699636837254
 21
331.9538052529474
 31
0.0
  0
LINE
  5
81
100
AcDbEntity
  8
0
370
              -2
390
0
  6
Continuous
 62
               0
100
AcDbLine
 10
39.820699636837254
 20
851.91504996814638
 30
0.0
 11
39.820699636837254
 21
331.9538052529474
 31
0.0
  0
CIRCLE
  5
82
102
{ACAD_REACTORS
330
83
102
}
100
AcDbEntity
  8
0
370
              -2
390
0
  6
Continuous
 62
               0
100
AcDbCircle
 10
39.820699636837254
 20
851.91504996814638
 30
0.0
 40
4.99969482421875
  0
HATCH
  5
83
100
AcDbEntity
  8
0
370
              -2
390
0
  6
Continuous
 62
               0
100
AcDbHatch
 10
0.0
 20
0.0
 30
0.0
210
0.0
220
0.0
230
1.0
  2
SOLID
 70
               1
 71
               1
 91
        1
 92
        1
 93
        1
 72
               2
 10
39.820699636837254
 20
851.91504996814638
 40
4.99969482421875
 50
0.0
 51
360.0
 73
               0
 97
        1
330
82
 75
               0
 76
               1
 98
        1
 10
0.0
 20
0.0
  0
CIRCLE
  5
84
102
{ACAD_REACTORS
330
85
102
}
100
AcDbEntity
  8
0
370
              -2
390
0
  6
Continuous
 62
               0
100
AcDbCircle
 10
39.820699636837254
 20
331.9538052529474
 30
0.0
 40
4.99969482421875
  0
HATCH
  5
85
100
AcDbEntity
  8
0
370
              -2
390
0
  6
Continuous
 62
               0
100
AcDbHatch
 10
0.0
 20
0.0
 30
0.0
210
0.0
220
0.0
230
1.0
  2
SOLID
 70
               1
 71
               1
 91
        1
 92
        1
 93
        1
 72
               2
 10
39.820699636837254
 20
331.9538052529474
 40
4.99969482421875
 50
0.0
 51
360.0
 73
               0
 97
        1
330
84
 75
               0
 76
               1
 98
        1
 10
0.0
 20
0.0
  0
MTEXT
  5
86
100
AcDbEntity
  8
0
390
0
 62
               0
100
AcDbMText
 10
5.9430824493373304
 20
568.12192592837141
 30
0.0
 40
24.432617187500004
 41
0.0
 71
               1
 72
               1
  1
520
  7
ＭＳ ゴシック
 11
0.0
 21
1.0
 31
0.0
 73
               1
 44
0.7828267384257843
  0
POINT
  5
87
100
AcDbEntity
  8
Defpoints
370
               0
390
0
 62
               0
100
AcDbPoint
 10
-262.82519419965848
 20
331.9538052529474
 30
0.0
  0
POINT
  5
88
100
AcDbEntity
  8
Defpoints
370
               0
390
0
 62
               0
100
AcDbPoint
 10
-63.17930036316266
 20
851.91504996814638
 30
0.0
  0
POINT
  5
89
100
AcDbEntity
  8
Defpoints
370
               0
390
0
 62
               0
100
AcDbPoint
 10
39.82069963683734
 20
851.91504996814638
 30
0.0
  0
ENDBLK
  5
8A
100
AcDbEntity
  8
notes
390
0
100
AcDbBlockEnd
  0
BLOCK
  5
8B
100
AcDbEntity
  8
notes
390
0
100
AcDbBlockBegin
  2
*D6
 70
               1
 10
0.0
 20
0.0
 30
0.0
  3
*D6
  1

  0
LINE
  5
8C
100
AcDbEntity
  8
0
370
              -2
390
0
  6
Continuous
 62
               0
100
AcDbLine
 10
-785.17930036316204
 20
716.91504996819731
 30
0.0
 11
-860.17930036316204
 21
716.91504996819731
 31
0.0
  0
LINE
  5
8D
100
AcDbEntity
  8
0
370
              -2
390
0
  6
Continuous
 62
               0
100
AcDbLine
 10
-725.46239124418014
 20
406.91504996819731
 30
0.0
 11
-860.17930036316204
 21
406.91504996819731
 31
0.0
  0
LINE
  5
8E
100
AcDbEntity
  8
0
370
              -2
390
0
  6
Continuous
 62
               0
100
AcDbLine
 10
-860.17930036316204
 20
716.91504996819731
 30
0.0
 11
-860.17930036316204
 21
406.91504996819731
 31
0.0
  0
CIRCLE
  5
8F
102
{ACAD_REACTORS
330
90
102
}
100
AcDbEntity
  8
0
370
              -2
390
0
  6
Continuous
 62
               0
100
AcDbCircle
 10
-860.17930036316204
 20
716.91504996819731
 30
0.0
 40
4.99969482421875
  0
HATCH
  5
90
100
AcDbEntity
  8
0
370
              -2
390
0
  6
Continuous
 62
               0
100
AcDbHatch
 10
0.0
 20
0.0
 30
0.0
210
0.0
220
0.0
230
1.0
  2
SOLID
 70
               1
 71
               1
 91
        1
 92
        1
 93
        1
 72
               2
 10
-860.17930036316204
 20
716.91504996819731
 40
4.99969482421875
 50
0.0
 51
360.0
 73
               0
 97
        1
330
8F
 75
               0
 76
               1
 98
        1
 10
0.0
 20
0.0
  0
CIRCLE
  5
91
102
{ACAD_REACTORS
330
92
102
}
100
AcDbEntity
  8
0
370
              -2
390
0
  6
Continuous
 62
               0
100
AcDbCircle
 10
-860.17930036316204
 20
406.91504996819731
 30
0.0
 40
4.99969482421875
  0
HATCH
  5
92
100
AcDbEntity
  8
0
370
              -2
390
0
  6
Continuous
 62
               0
100
AcDbHatch
 10
0.0
 20
0.0
 30
0.0
210
0.0
220
0.0
230
1.0
  2
SOLID
 70
               1
 71
               1
 91
        1
 92
        1
 93
        1
 72
               2
 10
-860.17930036316204
 20
406.91504996819731
 40
4.99969482421875
 50
0.0
 51
360.0
 73
               0
 97
        1
330
91
 75
               0
 76
               1
 98
        1
 10
0.0
 20
0.0
  0
MTEXT
  5
93
100
AcDbEntity
  8
0
390
0
 62
               0
100
AcDbMText
 10
-894.05691755066209
 20
538.10254828602183
 30
0.0
 40
24.432617187500004
 41
0.0
 71
               1
 72
               1
  1
315
  7
ＭＳ ゴシック
 11
0.0
 21
1.0
 31
0.0
 73
               1
 44
0.7828267384257843
  0
POINT
  5
94
100
AcDbEntity
  8
Defpoints
370
               0
390
0
 62
               0
100
AcDbPoint
 10
-700.46239124418014
 20
406.91504996819731
 30
0.0
  0
POINT
  5
95
100
AcDbEntity
  8
Defpoints
370
               0
390
0
 62
               0
100
AcDbPoint
 10
-760.17930036316204
 20
716.91504996819731
 30
0.0
  0
POINT
  5
96
100
AcDbEntity
  8
Defpoints
370
               0
390
0
 62
               0
100
AcDbPoint
 10
-860.17930036316204
 20
716.91504996819731
 30
0.0
  0
ENDBLK
  5
97
100
AcDbEntity
  8
notes
390
0
100
AcDbBlockEnd
  0
BLOCK
  5
98
100
AcDbEntity
  8
notes
390
0
100
AcDbBlockBegin
  2
*D7
 70
               1
 10
0.0
 20
0.0
 30
0.0
  3
*D7
  1

  0
LINE
  5
99
100
AcDbEntity
  8
0
370
              -2
390
0
  6
Continuous
 62
               0
100
AcDbLine
 10
-786.80327038675034
 20
716.91504996819731
 30
0.0
 11
-860.17930036316204
 21
716.91504996819731
 31
0.0
  0
LINE
  5
9A
100
AcDbEntity
  8
0
370
              -2
390
0
  6
Continuous
 62
               0
100
AcDbLine
 10
-786.80327038675034
 20
851.91504996814638
 30
0.0
 11
-860.17930036316204
 21
851.91504996814638
 31
0.0
  0
LINE
  5
9B
100
AcDbEntity
  8
0
370
              -2
390
0
  6
Continuous
 62
               0
100
AcDbLine
 10
-860.17930036316204
 20
716.91504996819731
 30
0.0
 11
-860.17930036316204
 21
851.91504996814638
 31
0.0
  0
CIRCLE
  5
9C
102
{ACAD_REACTORS
330
9D
102
}
100
AcDbEntity
  8
0
370
              -2
390
0
  6
Continuous
 62
               0
100
AcDbCircle
 10
-860.17930036316204
 20
716.91504996819731
 30
0.0
 40
4.99969482421875
  0
HATCH
  5
9D
100
AcDbEntity
  8
0
370
              -2
390
0
  6
Continuous
 62
               0
100
AcDbHatch
 10
0.0
 20
0.0
 30
0.0
210
0.0
220
0.0
230
1.0
  2
SOLID
 70
               1
 71
               1
 91
        1
 92
        1
 93
        1
 72
               2
 10
-860.17930036316204
 20
716.91504996819731
 40
4.99969482421875
 50
0.0
 51
360.0
 73
               0
 97
        1
330
9C
 75
               0
 76
               1
 98
        1
 10
0.0
 20
0.0
  0
CIRCLE
  5
9E
102
{ACAD_REACTORS
330
9F
102
}
100
AcDbEntity
  8
0
370
              -2
390
0
  6
Continuous
 62
               0
100
AcDbCircle
 10
-860.17930036316204
 20
851.91504996814638
 30
0.0
 40
4.99969482421875
  0
HATCH
  5
9F
100
AcDbEntity
  8
0
370
              -2
390
0
  6
Continuous
 62
               0
100
AcDbHatch
 10
0.0
 20
0.0
 30
0.0
210
0.0
220
0.0
230
1.0
  2
SOLID
 70
               1
 71
               1
 91
        1
 92
        1
 93
        1
 72
               2
 10
-860.17930036316204
 20
851.91504996814638
 40
4.99969482421875
 50
0.0
 51
360.0
 73
               0
 97
        1
330
9E
 75
               0
 76
               1
 98
        1
 10
0.0
 20
0.0
  0
MTEXT
  5
A0
100
AcDbEntity
  8
0
390
0
 62
               0
100
AcDbMText
 10
-894.05691755066209
 20
760.60254828599636
 30
0.0
 40
24.432617187500004
 41
0.0
 71
               1
 72
               1
  1
135
  7
ＭＳ ゴシック
 11
0.0
 21
1.0
 31
0.0
 73
               1
 44
0.7828267384257843
  0
POINT
  5
A1
100
AcDbEntity
  8
Defpoints
370
               0
390
0
 62
               0
100
AcDbPoint
 10
-761.80327038675034
 20
851.91504996814638
 30
0.0
  0
POINT
  5
A2
100
AcDbEntity
  8
Defpoints
370
               0
390
0
 62
               0
100
AcDbPoint
 10
-761.80327038675034
 20
716.91504996819731
 30
0.0
  0
POINT
  5
A3
100
AcDbEntity
  8
Defpoints
370
               0
390
0
 62
               0
100
AcDbPoint
 10
-860.17930036316204
 20
716.91504996819731
 30
0.0
  0
ENDBLK
  5
A4
100
AcDbEntity
  8
notes
390
0
100
AcDbBlockEnd
  0
BLOCK
  5
A5
100
AcDbEntity
  8
notes
390
0
100
AcDbBlockBegin
  2
*D8
 70
               1
 10
0.0
 20
0.0
 30
0.0
  3
*D8
  1

  0
LINE
  5
A6
100
AcDbEntity
  8
0
370
              -2
390
0
  6
Continuous
 62
               0
100
AcDbLine
 10
-510.17930036316295
 20
822.33087444982584
 30
0.0
 11
-510.17930036316295
 21
951.91504996814638
 31
0.0
  0
LINE
  5
A7
100
AcDbEntity
  8
0
370
              -2
390
0
  6
Continuous
 62
               0
100
AcDbLine
 10
-410.17930036316318
 20
823.83087444982539
 30
0.0
 11
-410.17930036316318
 21
951.91504996814638
 31
0.0
  0
LINE
  5
A8
100
AcDbEntity
  8
0
370
              -2
390
0
  6
Continuous
 62
               0
100
AcDbLine
 10
-510.17930036316295
 20
951.91504996814638
 30
0.0
 11
-410.17930036316318
 21
951.91504996814638
 31
0.0
  0
CIRCLE
  5
A9
102
{ACAD_REACTORS
330
AA
102
}
100
AcDbEntity
  8
0
370
              -2
390
0
  6
Continuous
 62
               0
100
AcDbCircle
 10
-510.17930036316295
 20
951.91504996814638
 30
0.0
 40
4.99969482421875
  0
HATCH
  5
AA
100
AcDbEntity
  8
0
370
              -2
390
0
  6
Continuous
 62
               0
100
AcDbHatch
 10
0.0
 20
0.0
 30
0.0
210
0.0
220
0.0
230
1.0
  2
SOLID
 70
               1
 71
               1
 91
        1
 92
        1
 93
        1
 72
               2
 10
-510.17930036316295
 20
951.91504996814638
 40
4.99969482421875
 50
0.0
 51
360.0
 73
               0
 97
        1
330
A9
 75
               0
 76
               1
 98
        1
 10
0.0
 20
0.0
  0
CIRCLE
  5
AB
102
{ACAD_REACTORS
330
AC
102
}
100
AcDbEntity
  8
0
370
              -2
390
0
  6
Continuous
 62
               0
100
AcDbCircle
 10
-410.17930036316318
 20
951.91504996814638
 30
0.0
 40
4.99969482421875
  0
HATCH
  5
AC
100
AcDbEntity
  8
0
370
              -2
390
0
  6
Continuous
 62
               0
100
AcDbHatch
 10
0.0
 20
0.0
 30
0.0
210
0.0
220
0.0
230
1.0
  2
SOLID
 70
               1
 71
               1
 91
        1
 92
        1
 93
        1
 72
               2
 10
-410.17930036316318
 20
951.91504996814638
 40
4.99969482421875
 50
0.0
 51
360.0
 73
               0
 97
        1
330
AB
 75
               0
 76
               1
 98
        1
 10
0.0
 20
0.0
  0
MTEXT
  5
AD
100
AcDbEntity
  8
0
390
0
 62
               0
100
AcDbMText
 10
-483.9918020453386
 20
985.79266715564643
 30
0.0
 40
24.432617187500004
 41
0.0
 71
               1
 72
               1
  1
100
  7
ＭＳ ゴシック
 73
               1
 44
0.7828267384257843
  0
POINT
  5
AE
100
AcDbEntity
  8
Defpoints
370
               0
390
0
 62
               0
100
AcDbPoint
 10
-410.17930036316318
 20
798.83087444982539
 30
0.0
  0
POINT
  5
AF
100
AcDbEntity
  8
Defpoints
370
               0
390
0
 62
               0
100
AcDbPoint
 10
-510.17930036316295
 20
797.33087444982584
 30
0.0
  0
POINT
  5
B0
100
AcDbEntity
  8
Defpoints
370
               0
390
0
 62
               0
100
AcDbPoint
 10
-510.17930036316295
 20
951.91504996814638
 30
0.0
  0
ENDBLK
  5
B1
100
AcDbEntity
  8
notes
390
0
100
AcDbBlockEnd
  0
BLOCK
  5
B2
100
AcDbEntity
  8
notes
390
0
100
AcDbBlockBegin
  2
*D9
 70
               1
 10
0.0
 20
0.0
 30
0.0
  3
*D9
  1

  0
LINE
  5
B3
100
AcDbEntity
  8
0
370
              -2
390
0
  6
Continuous
 62
               0
100
AcDbLine
 10
-410.17930036316318
 20
823.83087444982539
 30
0.0
 11
-410.17930036316318
 21
951.91504996814638
 31
0.0
  0
LINE
  5
B4
100
AcDbEntity
  8
0
370
              -2
390
0
  6
Continuous
 62
               0
100
AcDbLine
 10
-310.17930036316358
 20
822.33087444981675
 30
0.0
 11
-310.17930036316358
 21
951.91504996814638
 31
0.0
  0
LINE
  5
B5
100
AcDbEntity
  8
0
370
              -2
390
0
  6
Continuous
 62
               0
100
AcDbLine
 10
-410.17930036316318
 20
951.91504996814638
 30
0.0
 11
-310.17930036316358
 21
951.91504996814638
 31
0.0
  0
CIRCLE
  5
B6
102
{ACAD_REACTORS
330
B7
102
}
100
AcDbEntity
  8
0
370
              -2
390
0
  6
Continuous
 62
               0
100
AcDbCircle
 10
-410.17930036316318
 20
951.91504996814638
 30
0.0
 40
4.99969482421875
  0
HATCH
  5
B7
100
AcDbEntity
  8
0
370
              -2
390
0
  6
Continuous
 62
               0
100
AcDbHatch
 10
0.0
 20
0.0
 30
0.0
210
0.0
220
0.0
230
1.0
  2
SOLID
 70
               1
 71
               1
 91
        1
 92
        1
 93
        1
 72
               2
 10
-410.17930036316318
 20
951.91504996814638
 40
4.99969482421875
 50
0.0
 51
360.0
 73
               0
 97
        1
330
B6
 75
               0
 76
               1
 98
        1
 10
0.0
 20
0.0
  0
CIRCLE
  5
B8
102
{ACAD_REACTORS
330
B9
102
}
100
AcDbEntity
  8
0
370
              -2
390
0
  6
Continuous
 62
               0
100
AcDbCircle
 10
-310.17930036316358
 20
951.91504996814638
 30
0.0
 40
4.99969482421875
  0
HATCH
  5
B9
100
AcDbEntity
  8
0
370
              -2
390
0
  6
Continuous
 62
               0
100
AcDbHatch
 10
0.0
 20
0.0
 30
0.0
210
0.0
220
0.0
230
1.0
  2
SOLID
 70
               1
 71
               1
 91
        1
 92
        1
 93
        1
 72
               2
 10
-310.17930036316358
 20
951.91504996814638
 40
4.99969482421875
 50
0.0
 51
360.0
 73
               0
 97
        1
330
B8
 75
               0
 76
               1
 98
        1
 10
0.0
 20
0.0
  0
MTEXT
  5
BA
100
AcDbEntity
  8
0
390
0
 62
               0
100
AcDbMText
 10
-383.99180204533894
 20
985.79266715564643
 30
0.0
 40
24.432617187500004
 41
0.0
 71
               1
 72
               1
  1
100
  7
ＭＳ ゴシック
 73
               1
 44
0.7828267384257843
  0
POINT
  5
BB
100
AcDbEntity
  8
Defpoints
370
               0
390
0
 62
               0
100
AcDbPoint
 10
-310.17930036316358
 20
797.33087444981675
 30
0.0
  0
POINT
  5
BC
100
AcDbEntity
  8
Defpoints
370
               0
390
0
 62
               0
100
AcDbPoint
 10
-410.17930036316318
 20
798.83087444982539
 30
0.0
  0
POINT
  5
BD
100
AcDbEntity
  8
Defpoints
370
               0
390
0
 62
               0
100
AcDbPoint
 10
-410.17930036316318
 20
951.91504996814638
 30
0.0
  0
ENDBLK
  5
BE
100
AcDbEntity
  8
notes
390
0
100
AcDbBlockEnd
  0
BLOCK
  5
BF
100
AcDbEntity
  8
notes
390
0
100
AcDbBlockBegin
  2
*D10
 70
               1
 10
0.0
 20
0.0
 30
0.0
  3
*D10
  1

  0
LINE
  5
C0
100
AcDbEntity
  8
0
370
              -2
390
0
  6
Continuous
 62
               0
100
AcDbLine
 10
-396.44199598269563
 20
792.17229817355451
 30
0.0
 11
-226.97487276138634
 21
925.91504996814638
 31
0.0
  0
CIRCLE
  5
C1
102
{ACAD_REACTORS
330
C2
102
}
100
AcDbEntity
  8
0
370
              -2
390
0
  6
Continuous
 62
               0
100
AcDbCircle
 10
-396.44199598269563
 20
792.17229817355451
 30
0.0
 40
4.99969482421875
  0
HATCH
  5
C2
100
AcDbEntity
  8
0
370
              -2
390
0
  6
Continuous
 62
               0
100
AcDbHatch
 10
0.0
 20
0.0
 30
0.0
210
0.0
220
0.0
230
1.0
  2
SOLID
 70
               1
 71
               1
 91
        1
 92
        1
 93
        1
 72
               2
 10
-396.44199598269563
 20
792.17229817355451
 40
4.99969482421875
 50
0.0
 51
360.0
 73
               0
 97
        1
330
C1
 75
               0
 76
               1
 98
        1
 10
0.0
 20
0.0
  0
LINE
  5
C3
100
AcDbEntity
  8
0
370
              -2
390
0
  6
Continuous
 62
               0
100
AcDbLine
 10
-226.97487276138634
 20
925.91504996814638
 30
0.0
 11
-99.974872761386251
 21
925.91504996814638
 31
0.0
  0
MTEXT
  5
C4
100
AcDbEntity
  8
0
390
0
 62
               0
100
AcDbMText
 10
-163.47487276138634
 20
959.79266715564643
 30
0.0
 40
24.432617187500004
 41
0.0
 71
               1
 72
               1
  1
φ35
  7
ＭＳ ゴシック
 73
               1
 44
0.7828267384257843
  0
POINT
  5
C5
100
AcDbEntity
  8
Defpoints
370
               0
390
0
 62
               0
100
AcDbPoint
 10
-423.91660474363096
 20
770.48945072609604
 30
0.0
  0
POINT
  5
C6
100
AcDbEntity
  8
Defpoints
370
               0
390
0
 62
               0
100
AcDbPoint
 10
-396.44199598269563
 20
792.17229817355451
 30
0.0
  0
ENDBLK
  5
C7
100
AcDbEntity
  8
notes
390
0
100
AcDbBlockEnd
  0
BLOCK
  5
C8
100
AcDbEntity
  8
notes
390
0
100
AcDbBlockBegin
  2
*D11
 70
               1
 10
0.0
 20
0.0
 30
0.0
  3
*D11
  1

  0
LINE
  5
C9
100
AcDbEntity
  8
0
370
              -2
390
0
  6
Continuous
 62
               0
100
AcDbLine
 10
-685.17930036316181
 20
365.91504996814638
 30
0.0
 11
-685.17930036316181
 21
222.0
 31
0.0
  0
LINE
  5
CA
100
AcDbEntity
  8
0
370
              -2
390
0
  6
Continuous
 62
               0
100
AcDbLine
 10
-125.17930036316181
 20
365.91504996814194
 30
0.0
 11
-125.17930036316181
 21
222.0
 31
0.0
  0
LINE
  5
CB
100
AcDbEntity
  8
0
370
              -2
390
0
  6
Continuous
 62
               0
100
AcDbLine
 10
-685.17930036316181
 20
222.0
 30
0.0
 11
-125.17930036316181
 21
222.0
 31
0.0
  0
CIRCLE
  5
CC
102
{ACAD_REACTORS
330
CD
102
}
100
AcDbEntity
  8
0
370
              -2
390
0
  6
Continuous
 62
               0
100
AcDbCircle
 10
-685.17930036316181
 20
222.0
 30
0.0
 40
4.99969482421875
  0
HATCH
  5
CD
100
AcDbEntity
  8
0
370
              -2
390
0
  6
Continuous
 62
               0
100
AcDbHatch
 10
0.0
 20
0.0
 30
0.0
210
0.0
220
0.0
230
1.0
  2
SOLID
 70
               1
 71
               1
 91
        1
 92
        1
 93
        1
 72
               2
 10
-685.17930036316181
 20
222.0
 40
4.99969482421875
 50
0.0
 51
360.0
 73
               0
 97
        1
330
CC
 75
               0
 76
               1
 98
        1
 10
0.0
 20
0.0
  0
CIRCLE
  5
CE
102
{ACAD_REACTORS
330
CF
102
}
100
AcDbEntity
  8
0
370
              -2
390
0
  6
Continuous
 62
               0
100
AcDbCircle
 10
-125.17930036316181
 20
222.0
 30
0.0
 40
4.99969482421875
  0
HATCH
  5
CF
100
AcDbEntity
  8
0
370
              -2
390
0
  6
Continuous
 62
               0
100
AcDbHatch
 10
0.0
 20
0.0
 30
0.0
210
0.0
220
0.0
230
1.0
  2
SOLID
 70
               1
 71
               1
 91
        1
 92
        1
 93
        1
 72
               2
 10
-125.17930036316181
 20
222.0
 40
4.99969482421875
 50
0.0
 51
360.0
 73
               0
 97
        1
330
CE
 75
               0
 76
               1
 98
        1
 10
0.0
 20
0.0
  0
MTEXT
  5
D0
100
AcDbEntity
  8
0
390
0
 62
               0
100
AcDbMText
 10
-418.60183939625551
 20
255.87761718749999
 30
0.0
 40
24.432617187500004
 41
0.0
 71
               1
 72
               1
  1
560
  7
ＭＳ ゴシック
 73
               1
 44
0.7828267384257843
  0
POINT
  5
D1
100
AcDbEntity
  8
Defpoints
370
               0
390
0
 62
               0
100
AcDbPoint
 10
-125.17930036316181
 20
390.91504996814194
 30
0.0
  0
POINT
  5
D2
100
AcDbEntity
  8
Defpoints
370
               0
390
0
 62
               0
100
AcDbPoint
 10
-685.17930036316181
 20
390.91504996814638
 30
0.0
  0
POINT
  5
D3
100
AcDbEntity
  8
Defpoints
370
               0
390
0
 62
               0
100
AcDbPoint
 10
-685.17930036316181
 20
222.0
 30
0.0
  0
ENDBLK
  5
D4
100
AcDbEntity
  8
notes
390
0
100
AcDbBlockEnd
  0
BLOCK
  5
D5
100
AcDbEntity
  8
notes
390
0
100
AcDbBlockBegin
  2
*D12
 70
               1
 10
0.0
 20
0.0
 30
0.0
  3
*D12
  1

  0
LINE
  5
D6
100
AcDbEntity
  8
0
370
              -2
390
0
  6
Continuous
 62
               0
100
AcDbLine
 10
-45.716215565174771
 20
-352.02792274565917
 30
0.0
 11
1.8483552093113755
 21
-352.02792274565917
 31
0.0
  0
LINE
  5
D7
100
AcDbEntity
  8
0
370
              -2
390
0
  6
Continuous
 62
               0
100
AcDbLine
 10
-276.97472162883042
 20
-572.02792274565923
 30
0.0
 11
1.8483552093113755
 21
-572.02792274565923
 31
0.0
  0
LINE
  5
D8
100
AcDbEntity
  8
0
370
              -2
390
0
  6
Continuous
 62
               0
100
AcDbLine
 10
1.8483552093113755
 20
-352.02792274565917
 30
0.0
 11
1.8483552093113755
 21
-572.02792274565923
 31
0.0
  0
CIRCLE
  5
D9
102
{ACAD_REACTORS
330
DA
102
}
100
AcDbEntity
  8
0
370
              -2
390
0
  6
Continuous
 62
               0
100
AcDbCircle
 10
1.8483552093113755
 20
-352.02792274565917
 30
0.0
 40
4.99969482421875
  0
HATCH
  5
DA
100
AcDbEntity
  8
0
370
              -2
390
0
  6
Continuous
 62
               0
100
AcDbHatch
 10
0.0
 20
0.0
 30
0.0
210
0.0
220
0.0
230
1.0
  2
SOLID
 70
               1
 71
               1
 91
        1
 92
        1
 93
        1
 72
               2
 10
1.8483552093113755
 20
-352.02792274565917
 40
4.99969482421875
 50
0.0
 51
360.0
 73
               0
 97
        1
330
D9
 75
               0
 76
               1
 98
        1
 10
0.0
 20
0.0
  0
CIRCLE
  5
DB
102
{ACAD_REACTORS
330
DC
102
}
100
AcDbEntity
  8
0
370
              -2
390
0
  6
Continuous
 62
               0
100
AcDbCircle
 10
1.8483552093113755
 20
-572.02792274565923
 30
0.0
 40
4.99969482421875
  0
HATCH
  5
DC
100
AcDbEntity
  8
0
370
              -2
390
0
  6
Continuous
 62
               0
100
AcDbHatch
 10
0.0
 20
0.0
 30
0.0
210
0.0
220
0.0
230
1.0
  2
SOLID
 70
               1
 71
               1
 91
        1
 92
        1
 93
        1
 72
               2
 10
1.8483552093113755
 20
-572.02792274565923
 40
4.99969482421875
 50
0.0
 51
360.0
 73
               0
 97
        1
330
DB
 75
               0
 76
               1
 98
        1
 10
0.0
 20
0.0
  0
MTEXT
  5
DD
100
AcDbEntity
  8
0
390
0
 62
               0
100
AcDbMText
 10
-32.029261978188636
 20
-485.84042442783476
 30
0.0
 40
24.432617187500004
 41
0.0
 71
               1
 72
               1
  1
220
  7
ＭＳ ゴシック
 11
0.0
 21
1.0
 31
0.0
 73
               1
 44
0.7828267384257843
  0
POINT
  5
DE
100
AcDbEntity
  8
Defpoints
370
               0
390
0
 62
               0
100
AcDbPoint
 10
-301.97472162883042
 20
-572.02792274565923
 30
0.0
  0
POINT
  5
DF
100
AcDbEntity
  8
Defpoints
370
               0
390
0
 62
               0
100
AcDbPoint
 10
-70.716215565174764
 20
-352.02792274565917
 30
0.0
  0
POINT
  5
E0
100
AcDbEntity
  8
Defpoints
370
               0
390
0
 62
               0
100
AcDbPoint
 10
1.8483552093113644
 20
-352.02792274565917
 30
0.0
  0
ENDBLK
  5
E1
100
AcDbEntity
  8
notes
390
0
100
AcDbBlockEnd
  0
BLOCK
  5
E2
100
AcDbEntity
  8
notes
390
0
100
AcDbBlockBegin
  2
*D13
 70
               1
 10
0.0
 20
0.0
 30
0.0
  3
*D13
  1

  0
LINE
  5
E3
100
AcDbEntity
  8
0
370
              -2
390
0
  6
Continuous
 62
               0
100
AcDbLine
 10
724.15673369463786
 20
-327.02792274565832
 30
0.0
 11
724.15673369463786
 21
-252.02967214163073
 31
0.0
  0
LINE
  5
E4
100
AcDbEntity
  8
0
370
              -2
390
0
  6
Continuous
 62
               0
100
AcDbLine
 10
794.15673369463786
 20
-332.02792274566195
 30
0.0
 11
794.15673369463786
 21
-252.02967214163073
 31
0.0
  0
LINE
  5
E5
100
AcDbEntity
  8
0
370
              -2
390
0
  6
Continuous
 62
               0
100
AcDbLine
 10
724.15673369463786
 20
-252.02967214163073
 30
0.0
 11
794.15673369463786
 21
-252.02967214163073
 31
0.0
  0
CIRCLE
  5
E6
102
{ACAD_REACTORS
330
E7
102
}
100
AcDbEntity
  8
0
370
              -2
390
0
  6
Continuous
 62
               0
100
AcDbCircle
 10
724.15673369463786
 20
-252.02967214163073
 30
0.0
 40
4.99969482421875
  0
HATCH
  5
E7
100
AcDbEntity
  8
0
370
              -2
390
0
  6
Continuous
 62
               0
100
AcDbHatch
 10
0.0
 20
0.0
 30
0.0
210
0.0
220
0.0
230
1.0
  2
SOLID
 70
               1
 71
               1
 91
        1
 92
        1
 93
        1
 72
               2
 10
724.15673369463786
 20
-252.02967214163073
 40
4.99969482421875
 50
0.0
 51
360.0
 73
               0
 97
        1
330
E6
 75
               0
 76
               1
 98
        1
 10
0.0
 20
0.0
  0
CIRCLE
  5
E8
102
{ACAD_REACTORS
330
E9
102
}
100
AcDbEntity
  8
0
370
              -2
390
0
  6
Continuous
 62
               0
100
AcDbCircle
 10
794.15673369463786
 20
-252.02967214163073
 30
0.0
 40
4.99969482421875
  0
HATCH
  5
E9
100
AcDbEntity
  8
0
370
              -2
390
0
  6
Continuous
 62
               0
100
AcDbHatch
 10
0.0
 20
0.0
 30
0.0
210
0.0
220
0.0
230
1.0
  2
SOLID
 70
               1
 71
               1
 91
        1
 92
        1
 93
        1
 72
               2
 10
794.15673369463786
 20
-252.02967214163073
 40
4.99969482421875
 50
0.0
 51
360.0
 73
               0
 97
        1
330
E8
 75
               0
 76
               1
 98
        1
 10
0.0
 20
0.0
  0
MTEXT
  5
EA
100
AcDbEntity
  8
0
390
0
 62
               0
100
AcDbMText
 10
743.28173369463786
 20
-218.15205495413073
 30
0.0
 40
24.432617187500004
 41
0.0
 71
               1
 72
               1
  1
70
  7
ＭＳ ゴシック
 73
               1
 44
0.7828267384257843
  0
POINT
  5
EB
100
AcDbEntity
  8
Defpoints
370
               0
390
0
 62
               0
100
AcDbPoint
 10
794.15673369463786
 20
-357.02792274566195
 30
0.0
  0
POINT
  5
EC
100
AcDbEntity
  8
Defpoints
370
               0
390
0
 62
               0
100
AcDbPoint
 10
724.15673369463786
 20
-352.02792274565832
 30
0.0
  0
POINT
  5
ED
100
AcDbEntity
  8
Defpoints
370
               0
390
0
 62
               0
100
AcDbPoint
 10
724.15673369463786
 20
-252.02967214163073
 30
0.0
  0
ENDBLK
  5
EE
100
AcDbEntity
  8
notes
390
0
100
AcDbBlockEnd
  0
BLOCK
  5
EF
100
AcDbEntity
  8
notes
390
0
100
AcDbBlockBegin
  2
*D14
 70
               1
 10
0.0
 20
0.0
 30
0.0
  3
*D14
  1

  0
LINE
  5
F0
100
AcDbEntity
  8
0
370
              -2
390
0
  6
Continuous
 62
               0
100
AcDbLine
 10
556.60559829589113
 20
-597.89085367386542
 30
0.0
 11
556.60559829589113
 21
-672.02792274565923
 31
0.0
  0
LINE
  5
F1
100
AcDbEntity
  8
0
370
              -2
390
0
  6
Continuous
 62
               0
100
AcDbLine
 10
794.15672350210536
 20
-529.53987107545686
 30
0.0
 11
794.15672350210536
 21
-672.02792274565923
 31
0.0
  0
LINE
  5
F2
100
AcDbEntity
  8
0
370
              -2
390
0
  6
Continuous
 62
               0
100
AcDbLine
 10
556.60559829589113
 20
-672.02792274565923
 30
0.0
 11
794.15672350210536
 21
-672.02792274565923
 31
0.0
  0
CIRCLE
  5
F3
102
{ACAD_REACTORS
330
F4
102
}
100
AcDbEntity
  8
0
370
              -2
390
0
  6
Continuous
 62
               0
100
AcDbCircle
 10
556.60559829589113
 20
-672.02792274565923
 30
0.0
 40
4.99969482421875
  0
HATCH
  5
F4
100
AcDbEntity
  8
0
370
              -2
390
0
  6
Continuous
 62
               0
100
AcDbHatch
 10
0.0
 20
0.0
 30
0.0
210
0.0
220
0.0
230
1.0
  2
SOLID
 70
               1
 71
               1
 91
        1
 92
        1
 93
        1
 72
               2
 10
556.60559829589113
 20
-672.02792274565923
 40
4.99969482421875
 50
0.0
 51
360.0
 73
               0
 97
        1
330
F3
 75
               0
 76
               1
 98
        1
 10
0.0
 20
0.0
  0
CIRCLE
  5
F5
102
{ACAD_REACTORS
330
F6
102
}
100
AcDbEntity
  8
0
370
              -2
390
0
  6
Continuous
 62
               0
100
AcDbCircle
 10
794.15672350210536
 20
-672.02792274565923
 30
0.0
 40
4.99969482421875
  0
HATCH
  5
F6
100
AcDbEntity
  8
0
370
              -2
390
0
  6
Continuous
 62
               0
100
AcDbHatch
 10
0.0
 20
0.0
 30
0.0
210
0.0
220
0.0
230
1.0
  2
SOLID
 70
               1
 71
               1
 91
        1
 92
        1
 93
        1
 72
               2
 10
794.15672350210536
 20
-672.02792274565923
 40
4.99969482421875
 50
0.0
 51
360.0
 73
               0
 97
        1
330
F5
 75
               0
 76
               1
 98
        1
 10
0.0
 20
0.0
  0
MTEXT
  5
F7
100
AcDbEntity
  8
0
390
0
 62
               0
100
AcDbMText
 10
654.7637110855793
 20
-642.02496972552501
 30
0.0
 40
21.154362416107382
 41
0.0
 71
               1
 72
               1
  1
240
  7
ＭＳ ゴシック
 73
               1
 44
0.7828267384257844
  0
POINT
  5
F8
100
AcDbEntity
  8
Defpoints
370
               0
390
0
 62
               0
100
AcDbPoint
 10
794.15672350210536
 20
-504.53987107545692
 30
0.0
  0
POINT
  5
F9
100
AcDbEntity
  8
Defpoints
370
               0
390
0
 62
               0
100
AcDbPoint
 10
556.60559829589113
 20
-572.89085367386542
 30
0.0
  0
POINT
  5
FA
100
AcDbEntity
  8
Defpoints
370
               0
390
0
 62
               0
100
AcDbPoint
 10
556.60559829589113
 20
-672.02792274565923
 30
0.0
  0
ENDBLK
  5
FB
100
AcDbEntity
  8
notes
390
0
100
AcDbBlockEnd
  0
BLOCK
  5
FC
100
AcDbEntity
  8
notes
390
0
100
AcDbBlockBegin
  2
*D15
 70
               1
 10
0.0
 20
0.0
 30
0.0
  3
*D15
  1

  0
LINE
  5
FD
100
AcDbEntity
  8
0
370
              -2
390
0
  6
Continuous
 62
               0
100
AcDbLine
 10
530.0
 20
-352.02792274566013
 30
0.0
 11
549.375
 21
-352.02792274566013
 31
0.0
  0
LINE
  5
FE
100
AcDbEntity
  8
0
370
              -2
390
0
  6
Continuous
 62
               0
100
AcDbLine
 10
530.0
 20
-527.02792274566013
 30
0.0
 11
549.375
 21
-527.02792274566013
 31
0.0
  0
LINE
  5
FF
100
AcDbEntity
  8
0
370
              -2
390
0
  6
Continuous
 62
               0
100
AcDbLine
 10
549.375
 20
-352.02792274566013
 30
0.0
 11
549.375
 21
-194.35832209767597
 31
0.0
  0
LINE
  5
100
100
AcDbEntity
  8
0
370
              -2
390
0
  6
Continuous
 62
               0
100
AcDbLine
 10
549.375
 20
-352.02792274566013
 30
0.0
 11
549.375
 21
-527.02792274566013
 31
0.0
  0
CIRCLE
  5
101
102
{ACAD_REACTORS
330
102
102
}
100
AcDbEntity
  8
0
370
              -2
390
0
  6
Continuous
 62
               0
100
AcDbCircle
 10
549.375
 20
-352.02792274566013
 30
0.0
 40
4.99969482421875
  0
HATCH
  5
102
100
AcDbEntity
  8
0
370
              -2
390
0
  6
Continuous
 62
               0
100
AcDbHatch
 10
0.0
 20
0.0
 30
0.0
210
0.0
220
0.0
230
1.0
  2
SOLID
 70
               1
 71
               1
 91
        1
 92
        1
 93
        1
 72
               2
 10
549.375
 20
-352.02792274566013
 40
4.99969482421875
 50
0.0
 51
360.0
 73
               0
 97
        1
330
101
 75
               0
 76
               1
 98
        1
 10
0.0
 20
0.0
  0
CIRCLE
  5
103
102
{ACAD_REACTORS
330
104
102
}
100
AcDbEntity
  8
0
370
              -2
390
0
  6
Continuous
 62
               0
100
AcDbCircle
 10
549.375
 20
-527.02792274566013
 30
0.0
 40
4.99969482421875
  0
HATCH
  5
104
100
AcDbEntity
  8
0
370
              -2
390
0
  6
Continuous
 62
               0
100
AcDbHatch
 10
0.0
 20
0.0
 30
0.0
210
0.0
220
0.0
230
1.0
  2
SOLID
 70
               1
 71
               1
 91
        1
 92
        1
 93
        1
 72
               2
 10
549.375
 20
-527.02792274566013
 40
4.99969482421875
 50
0.0
 51
360.0
 73
               0
 97
        1
330
103
 75
               0
 76
               1
 98
        1
 10
0.0
 20
0.0
  0
MTEXT
  5
105
100
AcDbEntity
  8
0
390
0
 62
               0
100
AcDbMText
 10
515.49738281249995
 20
-337.23332209767597
 30
0.0
 40
24.432617187500004
 41
0.0
 71
               1
 72
               1
  1
175(深さ)
  7
ＭＳ ゴシック
 11
0.0
 21
1.0
 31
0.0
 73
               1
 44
0.7828267384257843
  0
POINT
  5
106
100
AcDbEntity
  8
Defpoints
370
               0
390
0
 62
               0
100
AcDbPoint
 10
555.0
 20
-527.02792274566013
 30
0.0
  0
POINT
  5
107
100
AcDbEntity
  8
Defpoints
370
               0
390
0
 62
               0
100
AcDbPoint
 10
555.0
 20
-352.02792274566013
 30
0.0
  0
POINT
  5
108
100
AcDbEntity
  8
Defpoints
370
               0
390
0
 62
               0
100
AcDbPoint
 10
549.375
 20
-352.02792274566013
 30
0.0
  0
ENDBLK
  5
109
100
AcDbEntity
  8
notes
390
0
100
AcDbBlockEnd
  0
BLOCK
  5
10A
100
AcDbEntity
  8
notes
390
0
100
AcDbBlockBegin
  2
*D16
 70
               1
 10
0.0
 20
0.0
 30
0.0
  3
*D16
  1

  0
LINE
  5
10B
100
AcDbEntity
  8
0
370
              -2
390
0
  6
Continuous
 62
               0
100
AcDbLine
 10
259.36736878628892
 20
-352.02792274564558
 30
0.0
 11
190.0
 21
-352.02792274564558
 31
0.0
  0
LINE
  5
10C
100
AcDbEntity
  8
0
370
              -2
390
0
  6
Continuous
 62
               0
100
AcDbLine
 10
445.91593805854427
 20
-552.02792274564558
 30
0.0
 11
190.0
 21
-552.02792274564558
 31
0.0
  0
LINE
  5
10D
100
AcDbEntity
  8
0
370
              -2
390
0
  6
Continuous
 62
               0
100
AcDbLine
 10
190.0
 20
-352.02792274564558
 30
0.0
 11
190.0
 21
-552.02792274564558
 31
0.0
  0
CIRCLE
  5
10E
102
{ACAD_REACTORS
330
10F
102
}
100
AcDbEntity
  8
0
370
              -2
390
0
  6
Continuous
 62
               0
100
AcDbCircle
 10
190.0
 20
-352.02792274564558
 30
0.0
 40
4.99969482421875
  0
HATCH
  5
10F
100
AcDbEntity
  8
0
370
              -2
390
0
  6
Continuous
 62
               0
100
AcDbHatch
 10
0.0
 20
0.0
 30
0.0
210
0.0
220
0.0
230
1.0
  2
SOLID
 70
               1
 71
               1
 91
        1
 92
        1
 93
        1
 72
               2
 10
190.0
 20
-352.02792274564558
 40
4.99969482421875
 50
0.0
 51
360.0
 73
               0
 97
        1
330
10E
 75
               0
 76
               1
 98
        1
 10
0.0
 20
0.0
  0
CIRCLE
  5
110
102
{ACAD_REACTORS
330
111
102
}
100
AcDbEntity
  8
0
370
              -2
390
0
  6
Continuous
 62
               0
100
AcDbCircle
 10
190.0
 20
-552.02792274564558
 30
0.0
 40
4.99969482421875
  0
HATCH
  5
111
100
AcDbEntity
  8
0
370
              -2
390
0
  6
Continuous
 62
               0
100
AcDbHatch
 10
0.0
 20
0.0
 30
0.0
210
0.0
220
0.0
230
1.0
  2
SOLID
 70
               1
 71
               1
 91
        1
 92
        1
 93
        1
 72
               2
 10
190.0
 20
-552.02792274564558
 40
4.99969482421875
 50
0.0
 51
360.0
 73
               0
 97
        1
330
110
 75
               0
 76
               1
 98
        1
 10
0.0
 20
0.0
  0
MTEXT
  5
112
100
AcDbEntity
  8
0
390
0
 62
               0
100
AcDbMText
 10
156.12238281250001
 20
-475.84042442782112
 30
0.0
 40
24.432617187500004
 41
0.0
 71
               1
 72
               1
  1
200
  7
ＭＳ ゴシック
 11
0.0
 21
1.0
 31
0.0
 73
               1
 44
0.7828267384257843
  0
POINT
  5
113
100
AcDbEntity
  8
Defpoints
370
               0
390
0
 62
               0
100
AcDbPoint
 10
470.91593805854427
 20
-552.02792274564558
 30
0.0
  0
POINT
  5
114
100
AcDbEntity
  8
Defpoints
370
               0
390
0
 62
               0
100
AcDbPoint
 10
284.36736878628892
 20
-352.02792274564558
 30
0.0
  0
POINT
  5
115
100
AcDbEntity
  8
Defpoints
370
               0
390
0
 62
               0
100
AcDbPoint
 10
190.0
 20
-352.02792274564558
 30
0.0
  0
ENDBLK
  5
116
100
AcDbEntity
  8
notes
390
0
100
AcDbBlockEnd
  0
BLOCK
  5
117
100
AcDbEntity
  8
notes
390
0
100
AcDbBlockBegin
  2
*D17
 70
               1
 10
0.0
 20
0.0
 30
0.0
  3
*D17
  1

  0
LINE
  5
118
100
AcDbEntity
  8
0
370
              -2
390
0
  6
Continuous
 62
               0
100
AcDbLine
 10
700.0
 20
-352.02792274566013
 30
0.0
 11
696.0
 21
-352.02792274566013
 31
0.0
  0
LINE
  5
119
100
AcDbEntity
  8
0
370
              -2
390
0
  6
Continuous
 62
               0
100
AcDbLine
 10
700.0
 20
-357.02792274566195
 30
0.0
 11
696.0
 21
-357.02792274566195
 31
0.0
  0
LINE
  5
11A
100
AcDbEntity
  8
0
370
              -2
390
0
  6
Continuous
 62
               0
100
AcDbLine
 10
696.0
 20
-352.02792274566013
 30
0.0
 11
696.0
 21
-288.125
 31
0.0
  0
LINE
  5
11B
100
AcDbEntity
  8
0
370
              -2
390
0
  6
Continuous
 62
               0
100
AcDbLine
 10
696.0
 20
-352.02792274566013
 30
0.0
 11
696.0
 21
-357.02792274566195
 31
0.0
  0
CIRCLE
  5
11C
102
{ACAD_REACTORS
330
11D
102
}
100
AcDbEntity
  8
0
370
              -2
390
0
  6
Continuous
 62
               0
100
AcDbCircle
 10
696.0
 20
-352.02792274566013
 30
0.0
 40
4.99969482421875
  0
HATCH
  5
11D
100
AcDbEntity
  8
0
370
              -2
390
0
  6
Continuous
 62
               0
100
AcDbHatch
 10
0.0
 20
0.0
 30
0.0
210
0.0
220
0.0
230
1.0
  2
SOLID
 70
               1
 71
               1
 91
        1
 92
        1
 93
        1
 72
               2
 10
696.0
 20
-352.02792274566013
 40
4.99969482421875
 50
0.0
 51
360.0
 73
               0
 97
        1
330
11C
 75
               0
 76
               1
 98
        1
 10
0.0
 20
0.0
  0
CIRCLE
  5
11E
102
{ACAD_REACTORS
330
11F
102
}
100
AcDbEntity
  8
0
370
              -2
390
0
  6
Continuous
 62
               0
100
AcDbCircle
 10
696.0
 20
-357.02792274566195
 30
0.0
 40
4.99969482421875
  0
HATCH
  5
11F
100
AcDbEntity
  8
0
370
              -2
390
0
  6
Continuous
 62
               0
100
AcDbHatch
 10
0.0
 20
0.0
 30
0.0
210
0.0
220
0.0
230
1.0
  2
SOLID
 70
               1
 71
               1
 91
        1
 92
        1
 93
        1
 72
               2
 10
696.0
 20
-357.02792274566195
 40
4.99969482421875
 50
0.0
 51
360.0
 73
               0
 97
        1
330
11E
 75
               0
 76
               1
 98
        1
 10
0.0
 20
0.0
  0
MTEXT
  5
120
100
AcDbEntity
  8
0
390
0
 62
               0
100
AcDbMText
 10
662.12238281249995
 20
-304.0
 30
0.0
 40
24.432617187500004
 41
0.0
 71
               1
 72
               1
  1
5
  7
ＭＳ ゴシック
 11
0.0
 21
1.0
 31
0.0
 73
               1
 44
0.7828267384257843
  0
POINT
  5
121
100
AcDbEntity
  8
Defpoints
370
               0
390
0
 62
               0
100
AcDbPoint
 10
675.0
 20
-357.02792274566195
 30
0.0
  0
POINT
  5
122
100
AcDbEntity
  8
Defpoints
370
               0
390
0
 62
               0
100
AcDbPoint
 10
675.0
 20
-352.02792274566013
 30
0.0
  0
POINT
  5
123
100
AcDbEntity
  8
Defpoints
370
               0
390
0
 62
               0
100
AcDbPoint
 10
696.0
 20
-352.02792274566013
 30
0.0
  0
ENDBLK
  5
124
100
AcDbEntity
  8
notes
390
0
100
AcDbBlockEnd
  0
ENDSEC
  0
SECTION
  2
ENTITIES
  0
MTEXT
  5
125
100
AcDbEntity
  8
template
390
0
 62
               7
100
AcDbMText
 10
-985.94444444444434
 20
-1153.4149218749994
 30
0.0
 40
16.288411458333332
 41
0.0
 71
               1
 72
               1
  1
品名
  7
ＭＳ ゴシック
 73
               1
 44
0.7828267384257843
  0
MTEXT
  5
126
100
AcDbEntity
  8
template
390
0
 62
               7
100
AcDbMText
 10
-985.94444444444434
 20
-1238.4149218749994
 30
0.0
 40
16.288411458333332
 41
0.0
 71
               1
 72
               1
  1
仕様
  7
ＭＳ ゴシック
 73
               1
 44
0.7828267384257843
  0
MTEXT
  5
127
100
AcDbEntity
  8
template
390
0
 62
               7
100
AcDbMText
 10
-932.94444444444434
 20
-1181.9973828124996
 30
0.0
 40
24.432617187500004
 41
0.0
 71
               1
 72
               1
  1
洗面器 -CATALANO,Canova Royal-
  7
ＭＳ ゴシック
 73
               1
 44
0.7828267384257843
  0
LINE
  5
128
100
AcDbEntity
  8
template
370
               5
390
0
  6
Continuous
 62
               7
100
AcDbLine
 10
957.0555555550734
 20
-1229.9999999999995
 30
0.0
 11
-992.94444444492638
 21
-1229.9999999999995
 31
0.0
  0
LINE
  5
129
100
AcDbEntity
  8
template
370
               5
390
0
  6
Continuous
 62
               7
100
AcDbLine
 10
957.0555555550734
 20
-1144.9999999999995
 30
0.0
 11
-992.94444444492638
 21
-1144.9999999999995
 31
0.0
  0
LINE
  5
12A
100
AcDbEntity
  8
template
370
               5
390
0
  6
Continuous
 62
               7
100
AcDbLine
 10
957.05555555555588
 20
-1314.9999999999995
 30
0.0
 11
204.05555555555577
 21
-1314.9999999999995
 31
0.0
  0
MTEXT
  5
12B
100
AcDbEntity
  8
template
390
0
 62
               7
100
AcDbMText
 10
-992.94444444424153
 20
-1411.8538220568564
 30
0.0
 40
21.717881944444446
 41
0.0
 71
               1
 72
               1
  1
120411SO
  7
ＭＳ ゴシック
 73
               1
 44
0.7828267384257843
  0
MTEXT
  5
12C
100
AcDbEntity
  8
template
390
0
 62
               7
100
AcDbMText
 10
233.92696180781547
 20
-1344.9103944733072
 30
0.0
 40
24.432617187500004
 41
0.0
 71
               1
 72
               1
  1
大洋金物株式会社 ティーフォルム事業部
  7
ＭＳ ゴシック
 73
               1
 44
0.7828267384257843
  0
INSERT
  5
12D
100
AcDbEntity
  8
template
390
0
 62
               7
100
AcDbBlockReference
  2
グループ
 10
0.0
 20
0.0
 30
0.0
  0
MTEXT
  5
12E
100
AcDbEntity
  8
template
390
0
 62
               7
100
AcDbMText
 10
766.05555555581464
 20
-1266.9973828124996
 30
0.0
 40
24.432617187500004
 41
0.0
 71
               1
 72
               1
  1
1:10
  7
ＭＳ ゴシック
 73
               1
 44
0.7828267384257843
  0
MTEXT
  5
12F
100
AcDbEntity
  8
template
390
0
 62
               7
100
AcDbMText
 10
713.05555555581464
 20
-1238.4149218749994
 30
0.0
 40
16.288411458333332
 41
0.0
 71
               1
 72
               1
  1
縮尺
  7
ＭＳ ゴシック
 73
               1
 44
0.7828267384257843
  0
LINE
  5
130
100
AcDbEntity
  8
template
370
               5
390
0
  6
Continuous
 62
               7
100
AcDbLine
 10
706.05555555581464
 20
-1314.9999999999995
 30
0.0
 11
706.05555555581464
 21
-1229.9999999999995
 31
0.0
  0
MTEXT
  5
131
100
AcDbEntity
  8
template
390
0
 62
               7
100
AcDbMText
 10
462.05555555581452
 20
-1238.4149218749994
 30
0.0
 40
16.288411458333332
 41
0.0
 71
               1
 72
               1
  1
容量
  7
ＭＳ ゴシック
 73
               1
 44
0.7828267384257843
  0
MTEXT
  5
132
100
AcDbEntity
  8
template
390
0
 62
               7
100
AcDbMText
 10
515.05555555581452
 20
-1266.9973828124996
 30
0.0
 40
24.432617187500004
 41
0.0
 71
               1
 72
               1
  1
13.5L
  7
ＭＳ ゴシック
 73
               1
 44
0.7828267384257843
  0
LINE
  5
133
100
AcDbEntity
  8
template
370
               5
390
0
  6
Continuous
 62
               7
100
AcDbLine
 10
455.05555555581452
 20
-1314.9999999999995
 30
0.0
 11
455.05555555581452
 21
-1229.9999999999995
 31
0.0
  0
MTEXT
  5
134
100
AcDbEntity
  8
template
390
0
 62
               7
100
AcDbMText
 10
211.05555555581452
 20
-1153.4149218749994
 30
0.0
 40
16.288411458333332
 41
0.0
 71
               1
 72
               1
  1
品番
  7
ＭＳ ゴシック
 73
               1
 44
0.7828267384257843
  0
MTEXT
  5
135
100
AcDbEntity
  8
template
390
0
 62
               7
100
AcDbMText
 10
211.05555555581452
 20
-1238.4149218749994
 30
0.0
 40
16.288411458333332
 41
0.0
 71
               1
 72
               1
  1
重量
  7
ＭＳ ゴシック
 73
               1
 44
0.7828267384257843
  0
MTEXT
  5
136
100
AcDbEntity
  8
template
390
0
 62
               7
100
AcDbMText
 10
264.05555555581452
 20
-1181.9973828124996
 30
0.0
 40
24.432617187500004
 41
0.0
 71
               1
 72
               1
  1
ADF70-2302
  7
ＭＳ ゴシック
 73
               1
 44
0.7828267384257843
  0
MTEXT
  5
137
100
AcDbEntity
  8
template
390
0
 62
               7
100
AcDbMText
 10
264.05555555581452
 20
-1266.9973828124996
 30
0.0
 40
24.432617187500004
 41
0.0
 71
               1
 72
               1
  1
22kg
  7
ＭＳ ゴシック
 73
               1
 44
0.7828267384257843
  0
LINE
  5
138
100
AcDbEntity
  8
template
370
               5
390
0
  6
Continuous
 62
               7
100
AcDbLine
 10
204.05555555581452
 20
-1399.9999999999995
 30
0.0
 11
204.05555555581452
 21
-1144.9999999999995
 31
0.0
  0
MTEXT
  5
139
100
AcDbEntity
  8
template
390
0
 62
               7
100
AcDbMText
 10
-932.94444444444525
 20
-1266.9973828124996
 30
0.0
 40
24.432617187500004
 41
0.0
 71
               1
 72
               1
  1
壁掛け/オーバーフロー付き/壁取付ボルト付属/\P陶器/ホワイト
  7
ＭＳ ゴシック
 73
               1
 44
1.3047112307096407
  0
LWPOLYLINE
  5
13A
100
AcDbEntity
  8
template
370
               5
390
0
  6
Continuous
 62
               7
100
AcDbPolyline
 90
        5
 70
             128
 10
957.05555555555588
 20
1400.0
 10
-992.94444444444434
 20
1400.0
 10
-992.94444444444434
 20
-1399.9999999999995
 10
957.05555555555588
 20
-1399.9999999999995
 10
957.05555555555588
 20
1400.0
  0
MTEXT
  5
13B
100
AcDbEntity
  8
notes
390
0
 62
               7
100
AcDbMText
 10
-221.70600277364346
 20
-266.53101812507725
 30
0.0
 40
24.432617187500004
 41
0.0
 71
               1
 72
               1
  1
壁取付ボルト穴(2ヶ所)
  7
ＭＳ ゴシック
 73
               1
 44
0.7828267384257843
  0
LINE
  5
13C
100
AcDbEntity
  8
notes
370
               5
390
0
  6
Continuous
 62
               7
100
AcDbLine
 10
-270.36001272302275
 20
-402.02792274565917
 30
0.0
 11
-209.45736802454323
 21
-296.54144781257725
 31
0.0
  0
MTEXT
  5
13D
100
AcDbEntity
  8
notes
390
0
 62
               7
100
AcDbMText
 10
-781.77989611390194
 20
141.34403130116681
 30
0.0
 40
24.432617187500004
 41
833.92979864183906
 71
               1
 72
               1
  1
＝φ30もしくはφ35の水栓取付用穴あけ加工を承ります。\P  必要な場合、ご注文の際にご指示ください。
  7
ＭＳ ゴシック
 73
               1
 44
1.0437689845677123
  0
SPLINE
  5
13E
100
AcDbEntity
  8
notes
370
               5
390
0
  6
STYLE_12
 62
               7
100
AcDbSpline
210
0.0
220
0.0
230
1.0
 70
               9
 71
               2
 72
              17
 73
              14
 74
               0
 42
0.000001
 43
0.000001
 40
0.0
 40
0.0
 40
0.0
 40
1.0
 40
2.0
 40
3.0
 40
4.0
 40
5.0
 40
6.0
 40
7.0
 40
8.0
 40
9.0
 40
10.0
 40
11.0
 40
12.0
 40
12.0
 40
12.0
 10
-786.93126330140194
 20
129.14951958241679
 30
0.0
 10
-786.93126330140194
 20
133.83848442616679
 30
0.0
 10
-791.62022814515194
 20
141.96055473866679
 30
0.0
 10
-799.74229845765194
 20
146.64903130116679
 30
0.0
 10
-809.12022814515194
 20
146.64903130116679
 30
0.0
 10
-817.24229845765194
 20
141.96055473866679
 30
0.0
 10
-821.93126330140194
 20
133.83848442616679
 30
0.0
 10
-821.93126330140194
 20
124.4605547386668
 30
0.0
 10
-817.24229845765194
 20
116.33848442616683
 30
0.0
 10
-809.12022814515194
 20
111.64903130116683
 30
0.0
 10
-799.74229845765194
 20
111.64903130116683
 30
0.0
 10
-791.62022814515194
 20
116.33848442616683
 30
0.0
 10
-786.93126330140194
 20
124.4605547386668
 30
0.0
 10
-786.93126330140194
 20
129.14951958241679
 30
0.0
  0
DIMENSION
  5
13F
100
AcDbEntity
  8
notes
370
               5
390
0
  6
Continuous
 62
               7
100
AcDbDimension
  2
*D2
 10
-550.36001272302246
 20
-252.02967214163073
 30
0.0
 11
-410.36001272302258
 21
-252.02967214163073
 31
0.0
 71
               5
 72
               1
 41
1.0
 42
0.0
  3
tform線あり
100
AcDbAlignedDimension
 13
-270.36001272302275
 23
-382.02792274565917
 33
0.0
 14
-550.36001272302246
 24
-382.02792274565917
 34
0.0
100
AcDbRotatedDimension
1001
ACAD
1000
DSTYLE
1002
{
1070
             279
1070
               2
1070
             340
1005
34
1070
             147
1040
5.0
1002
}
  0
DIMENSION
  5
140
100
AcDbEntity
  8
notes
370
               5
390
0
  6
Continuous
 62
               7
100
AcDbDimension
  2
*D3
 10
-823.00196622896112
 20
-402.02792274565917
 30
0.0
 11
-823.00196622896112
 21
-377.02792274565917
 31
0.0
 71
               5
 72
               1
 41
1.0
 42
0.0
  3
tform線あり
100
AcDbAlignedDimension
 13
-750.18069664596317
 23
-352.02792274565917
 33
0.0
 14
-570.36001272302212
 24
-402.02792274565917
 34
0.0
 50
90.0
100
AcDbRotatedDimension
1001
ACAD
1000
DSTYLE
1002
{
1070
             279
1070
               2
1070
             340
1005
34
1070
             147
1040
5.0
1002
}
  0
DIMENSION
  5
141
100
AcDbEntity
  8
notes
370
               5
390
0
  6
Continuous
 62
               7
100
AcDbDimension
  2
*D4
 10
-60.17930036316266
 20
1001.9150499681464
 30
0.0
 11
-410.17930036316238
 21
1001.9150499681464
 31
0.0
 71
               5
 72
               1
 41
1.0
 42
0.0
  3
tform線あり
100
AcDbAlignedDimension
 13
-760.17930036316204
 23
848.91504996814638
 33
0.0
 14
-60.17930036316266
 24
848.91504996814638
 34
0.0
100
AcDbRotatedDimension
1001
ACAD
1000
DSTYLE
1002
{
1070
             279
1070
               2
1070
             340
1005
34
1070
             147
1040
5.0
1002
}
  0
DIMENSION
  5
142
100
AcDbEntity
  8
notes
370
               5
390
0
  6
Continuous
 62
               7
100
AcDbDimension
  2
*D5
 10
39.82069963683734
 20
851.91504996814638
 30
0.0
 11
39.82069963683734
 21
591.93442761054689
 31
0.0
 71
               5
 72
               1
 41
1.0
 42
0.0
  3
tform線あり
100
AcDbAlignedDimension
 13
-262.82519419965848
 23
331.9538052529474
 33
0.0
 14
-63.17930036316266
 24
851.91504996814638
 34
0.0
 50
90.0
100
AcDbRotatedDimension
1001
ACAD
1000
DSTYLE
1002
{
1070
             279
1070
               2
1070
             340
1005
34
1070
             147
1040
5.0
1002
}
  0
DIMENSION
  5
143
100
AcDbEntity
  8
notes
370
               5
390
0
  6
Continuous
 62
               7
100
AcDbDimension
  2
*D6
 10
-860.17930036316204
 20
716.91504996819731
 30
0.0
 11
-860.17930036316204
 21
561.91504996819731
 31
0.0
 71
               5
 72
               1
 41
1.0
 42
0.0
  1
315
  3
tform線あり
100
AcDbAlignedDimension
 13
-700.46239124418014
 23
406.91504996819731
 33
0.0
 14
-760.17930036316204
 24
716.91504996819731
 34
0.0
 50
90.0
100
AcDbRotatedDimension
1001
ACAD
1000
DSTYLE
1002
{
1070
             279
1070
               2
1070
             340
1005
34
1070
             147
1040
5.0
1002
}
  0
DIMENSION
  5
144
100
AcDbEntity
  8
notes
370
               5
390
0
  6
Continuous
 62
               7
100
AcDbDimension
  2
*D7
 10
-860.17930036316204
 20
716.91504996819731
 30
0.0
 11
-860.17930036316204
 21
784.41504996817184
 31
0.0
 71
               5
 72
               1
 41
1.0
 42
0.0
  3
tform線あり
100
AcDbAlignedDimension
 13
-761.80327038675034
 23
851.91504996814638
 33
0.0
 14
-761.80327038675034
 24
716.91504996819731
 34
0.0
 50
90.0
100
AcDbRotatedDimension
1001
ACAD
1000
DSTYLE
1002
{
1070
             279
1070
               2
1070
             340
1005
34
1070
             147
1040
5.0
1002
}
  0
DIMENSION
  5
145
100
AcDbEntity
  8
notes
370
               5
390
0
  6
Continuous
 62
               7
100
AcDbDimension
  2
*D8
 10
-510.17930036316295
 20
951.91504996814638
 30
0.0
 11
-460.17930036316307
 21
951.91504996814638
 31
0.0
 71
               5
 72
               1
 41
1.0
 42
0.0
  3
tform線あり
100
AcDbAlignedDimension
 13
-410.17930036316318
 23
798.83087444982539
 33
0.0
 14
-510.17930036316295
 24
797.33087444982584
 34
0.0
100
AcDbRotatedDimension
1001
ACAD
1000
DSTYLE
1002
{
1070
             279
1070
               2
1070
             340
1005
34
1070
             147
1040
5.0
1002
}
  0
DIMENSION
  5
146
100
AcDbEntity
  8
notes
370
               5
390
0
  6
Continuous
 62
               7
100
AcDbDimension
  2
*D9
 10
-410.17930036316318
 20
951.91504996814638
 30
0.0
 11
-360.17930036316341
 21
951.91504996814638
 31
0.0
 71
               5
 72
               1
 41
1.0
 42
0.0
  3
tform線あり
100
AcDbAlignedDimension
 13
-310.17930036316358
 23
797.33087444981675
 33
0.0
 14
-410.17930036316318
 24
798.83087444982539
 34
0.0
100
AcDbRotatedDimension
1001
ACAD
1000
DSTYLE
1002
{
1070
             279
1070
               2
1070
             340
1005
34
1070
             147
1040
5.0
1002
}
  0
DIMENSION
  5
147
100
AcDbEntity
  8
notes
370
               5
390
0
  6
Continuous
 62
               7
100
AcDbDimension
  2
*D10
 10
-423.91660474363096
 20
770.48945072609604
 30
0.0
 11
-163.47487276138639
 21
925.91504996814649
 31
0.0
 70
               3
 71
               5
 72
               1
 41
1.0
 42
0.0
  3
tform線あり
100
AcDbDiametricDimension
 15
-396.44199598269563
 25
792.17229817355451
 35
0.0
 40
215.88475979210816
1001
ACAD
1000
DSTYLE
1002
{
1070
             172
1070
               0
1070
             289
1070
               0
1070
             342
1005
46
1070
             340
1005
34
1070
              75
1070
               1
1070
              76
1070
               1
1070
               3
1000

1070
             174
1070
               0
1070
             147
1040
5.0
1002
}
  0
DIMENSION
  5
148
100
AcDbEntity
  8
notes
370
               5
390
0
  6
Continuous
 62
               7
100
AcDbDimension
  2
*D11
 10
-685.17930036316181
 20
222.0
 30
0.0
 11
-394.78933771407998
 21
227.0
 31
0.0
 70
             128
 71
               5
 72
               1
 41
1.0
 42
0.0
  3
tform線あり
100
AcDbAlignedDimension
 13
-125.17930036316181
 23
390.91504996814194
 33
0.0
 14
-685.17930036316181
 24
390.91504996814638
 34
0.0
100
AcDbRotatedDimension
1001
ACAD
1000
DSTYLE
1002
{
1070
             279
1070
               2
1070
             340
1005
34
1070
             147
1040
5.0
1002
}
  0
DIMENSION
  5
149
100
AcDbEntity
  8
notes
370
               5
390
0
  6
Continuous
 62
               7
100
AcDbDimension
  2
*D12
 10
1.8483552093113644
 20
-352.02792274565917
 30
0.0
 11
1.8483552093113644
 21
-462.02792274565923
 31
0.0
 71
               5
 72
               1
 41
1.0
 42
0.0
  3
tform線あり
100
AcDbAlignedDimension
 13
-301.97472162883042
 23
-572.02792274565923
 33
0.0
 14
-70.716215565174764
 24
-352.02792274565917
 34
0.0
 50
90.0
100
AcDbRotatedDimension
1001
ACAD
1000
DSTYLE
1002
{
1070
             279
1070
               2
1070
             340
1005
34
1070
             147
1040
5.0
1002
}
  0
DIMENSION
  5
14A
100
AcDbEntity
  8
notes
370
               5
390
0
  6
Continuous
 62
               7
100
AcDbDimension
  2
*D13
 10
724.15673369463786
 20
-252.02967214163073
 30
0.0
 11
759.15673369463786
 21
-252.02967214163073
 31
0.0
 71
               5
 72
               1
 41
1.0
 42
0.0
  3
tform線あり
100
AcDbAlignedDimension
 13
794.15673369463786
 23
-357.02792274566195
 33
0.0
 14
724.15673369463786
 24
-352.02792274565832
 34
0.0
100
AcDbRotatedDimension
1001
ACAD
1000
DSTYLE
1002
{
1070
             279
1070
               2
1070
             340
1005
34
1070
             147
1040
5.0
1002
}
  0
DIMENSION
  5
14B
100
AcDbEntity
  8
notes
370
               5
390
0
  6
Continuous
 62
               7
100
AcDbDimension
  2
*D14
 10
556.60559829589113
 20
-672.02792274565923
 30
0.0
 11
675.38116089899825
 21
-672.02792274565923
 31
0.0
 71
               5
 72
               1
 41
1.0
 42
0.0
  1
240
  3
tform線あり
100
AcDbAlignedDimension
 13
794.15672350210536
 23
-504.53987107545692
 33
0.0
 14
556.60559829589113
 24
-572.89085367386542
 34
0.0
100
AcDbRotatedDimension
1001
ACAD
1000
DSTYLE
1002
{
1070
             271
1070
               0
1070
             279
1070
               2
1070
             340
1005
34
1070
             140
1040
21.154362416107382
1070
             147
1040
5.0
1002
}
  0
DIMENSION
  5
14C
100
AcDbEntity
  8
notes
370
               5
390
0
  6
Continuous
 62
               7
100
AcDbDimension
  2
*D15
 10
549.375
 20
-352.02792274566013
 30
0.0
 11
544.375
 21
-337.23332209767597
 31
0.0
 70
             128
 71
               5
 72
               1
 41
1.0
 42
0.0
  3
tform線あり
100
AcDbAlignedDimension
 13
555.0
 23
-527.02792274566013
 33
0.0
 14
555.0
 24
-352.02792274566013
 34
0.0
 50
90.0
100
AcDbRotatedDimension
1001
ACAD
1000
DSTYLE
1002
{
1070
             279
1070
               2
1070
             340
1005
34
1070
               3
1000
<>(深さ)
1070
             174
1070
               0
1070
             147
1040
5.0
1002
}
  0
DIMENSION
  5
14D
100
AcDbEntity
  8
notes
370
               5
390
0
  6
Continuous
 62
               7
100
AcDbDimension
  2
*D16
 10
190.0
 20
-352.02792274564558
 30
0.0
 11
190.0
 21
-452.02792274564558
 31
0.0
 71
               5
 72
               1
 41
1.0
 42
0.0
  3
tform線あり
100
AcDbAlignedDimension
 13
470.91593805854427
 23
-552.02792274564558
 33
0.0
 14
284.36736878628892
 24
-352.02792274564558
 34
0.0
 50
90.0
100
AcDbRotatedDimension
1001
ACAD
1000
DSTYLE
1002
{
1070
             279
1070
               2
1070
             340
1005
34
1070
             147
1040
5.0
1002
}
  0
DIMENSION
  5
14E
100
AcDbEntity
  8
notes
370
               5
390
0
  6
Continuous
 62
               7
100
AcDbDimension
  2
*D17
 10
696.0
 20
-352.02792274566013
 30
0.0
 11
701.0
 21
-304.0
 31
0.0
 70
             128
 71
               5
 72
               1
 41
1.0
 42
0.0
  3
tform線あり
100
AcDbAlignedDimension
 13
675.0
 23
-357.02792274566195
 33
0.0
 14
675.0
 24
-352.02792274566013
 34
0.0
 50
90.0
100
AcDbRotatedDimension
1001
ACAD
1000
DSTYLE
1002
{
1070
             279
1070
               2
1070
             340
1005
34
1070
             174
1070
               0
1070
             147
1040
5.0
1002
}
  0
LINE
  5
14F
100
AcDbEntity
  8
ADF70-2302
370
              15
390
0
  6
Continuous
 62
               7
100
AcDbLine
 10
-760.17930036316204
 20
848.91504996814638
 30
0.0
 11
-760.17930036316386
 21
559.57971473650014
 31
0.0
  0
LINE
  5
150
100
AcDbEntity
  8
ADF70-2302
370
              15
390
0
  6
Continuous
 62
               7
100
AcDbLine
 10
-60.17930036316266
 20
848.91504996814638
 30
0.0
 11
-60.17930036316266
 21
559.57971473649832
 31
0.0
  0
ARC
  5
151
100
AcDbEntity
  8
ADF70-2302
370
              15
390
0
  6
Continuous
 62
               7
100
AcDbCircle
 10
-410.17930036316523
 20
3490.1358858472204
 30
0.0
 40
3158.2208358790735
100
AcDbArc
 50
267.55758520041445
 51
272.44241479687264
  0
LINE
  5
152
100
AcDbEntity
  8
ADF70-2302
370
              15
390
0
  6
Continuous
 62
               7
100
AcDbLine
 10
-757.17930036316204
 20
851.91504996814638
 30
0.0
 11
-63.17930036316266
 21
851.91504996814638
 31
0.0
  0
ARC
  5
153
100
AcDbEntity
  8
ADF70-2302
370
              15
390
0
  6
Continuous
 62
               7
100
AcDbCircle
 10
-535.17930036316477
 20
559.57971473649832
 30
0.0
 40
224.99999999999909
100
AcDbArc
 50
179.99999999958311
 51
267.55758520083214
  0
ARC
  5
154
100
AcDbEntity
  8
ADF70-2302
370
              15
390
0
  6
Continuous
 62
               7
100
AcDbCircle
 10
-285.17930036316267
 20
559.57971473649832
 30
0.0
 40
224.99999999999986
100
AcDbArc
 50
272.44241479760268
 51
359.99999999885358
  0
LINE
  5
155
100
AcDbEntity
  8
ADF70-2302
370
              15
390
0
  6
Continuous
 62
               7
100
AcDbLine
 10
-735.17930036316204
 20
791.91504996814638
 30
0.0
 11
-735.17930036316386
 21
559.57971473650014
 31
0.0
  0
ARC
  5
156
100
AcDbEntity
  8
ADF70-2302
370
              15
390
0
  6
Continuous
 62
               7
100
AcDbCircle
 10
-535.17930036316477
 20
559.57971473649832
 30
0.0
 40
199.99999999999909
100
AcDbArc
 50
179.99999999958311
 51
267.55758520083214
  0
ARC
  5
157
100
AcDbEntity
  8
ADF70-2302
370
              15
390
0
  6
Continuous
 62
               7
100
AcDbCircle
 10
-410.17930036316523
 20
3490.1358858472204
 30
0.0
 40
3133.2208358790735
100
AcDbArc
 50
267.55758520041445
 51
272.44241479687264
  0
ARC
  5
158
100
AcDbEntity
  8
ADF70-2302
370
              15
390
0
  6
Continuous
 62
               7
100
AcDbCircle
 10
-285.17930036316267
 20
559.57971473649832
 30
0.0
 40
199.99999999999997
100
AcDbArc
 50
272.44241479760268
 51
359.99999999885358
  0
LINE
  5
159
100
AcDbEntity
  8
ADF70-2302
370
              15
390
0
  6
Continuous
 62
               7
100
AcDbLine
 10
-85.179300363162696
 20
791.91504996814638
 30
0.0
 11
-85.179300363162696
 21
559.57971473649832
 31
0.0
  0
LINE
  5
15A
100
AcDbEntity
  8
ADF70-2302
370
              15
390
0
  6
Continuous
 62
               7
100
AcDbLine
 10
-700.17930036316204
 20
826.91504996814638
 30
0.0
 11
-120.17930036316278
 21
826.91504996814638
 31
0.0
  0
LINE
  5
15B
100
AcDbEntity
  8
ADF70-2302
370
              15
390
0
  6
Continuous
 62
               7
100
AcDbLine
 10
-660.40634657384282
 20
716.91504996819731
 30
0.0
 11
-159.95225415248197
 21
716.91504996819731
 31
0.0
  0
CIRCLE
  5
15C
100
AcDbEntity
  8
ADF70-2302
370
              15
390
0
  6
Continuous
 62
               7
100
AcDbCircle
 10
-410.17930036316341
 20
614.36391117280891
 30
0.0
 40
37.162103597526823
  0
CIRCLE
  5
15D
100
AcDbEntity
  8
ADF70-2302
370
              15
390
0
  6
Continuous
 62
               7
100
AcDbCircle
 10
-410.17930036316341
 20
614.36391117280891
 30
0.0
 40
23.670807349855295
  0
CIRCLE
  5
15E
100
AcDbEntity
  8
ADF70-2302
370
              15
390
0
  6
Continuous
 62
               7
100
AcDbCircle
 10
-410.17930036316341
 20
614.36391117280891
 30
0.0
 40
37.162103597526823
  0
CIRCLE
  5
15F
100
AcDbEntity
  8
ADF70-2302
370
              15
390
0
  6
Continuous
 62
               7
100
AcDbCircle
 10
-410.17930036316341
 20
614.36391117280891
 30
0.0
 40
23.670807349855295
  0
ARC
  5
160
100
AcDbEntity
  8
ADF70-2302
370
              15
390
0
  6
Continuous
 62
               7
100
AcDbCircle
 10
-757.17930036316204
 20
848.91504996814638
 30
0.0
 40
3.0
100
AcDbArc
 50
90.0
 51
179.99999999958311
  0
ARC
  5
161
100
AcDbEntity
  8
ADF70-2302
370
              15
390
0
  6
Continuous
 62
               7
100
AcDbCircle
 10
-63.17930036316266
 20
848.91504996814638
 30
0.0
 40
3.0
100
AcDbArc
 50
0.0000000002084408
 51
89.999999999791584
  0
CIRCLE
  5
162
100
AcDbEntity
  8
ADF70-2302
370
              15
390
0
  6
Continuous
 62
               7
100
AcDbCircle
 10
-410.17930036316318
 20
781.33087444982539
 30
0.0
 40
17.5
  0
ARC
  5
163
100
AcDbEntity
  8
ADF70-2302
370
              15
390
0
  6
Continuous
 62
               7
100
AcDbCircle
 10
-700.17930036316204
 20
791.91504996814638
 30
0.0
 40
35.0
100
AcDbArc
 50
90.000000000208445
 51
180.0
  0
ARC
  5
164
100
AcDbEntity
  8
ADF70-2302
370
              15
390
0
  6
Continuous
 62
               7
100
AcDbCircle
 10
-120.17930036316278
 20
791.91504996814638
 30
0.0
 40
35.000000000000085
100
AcDbArc
 50
0.0000000002084408
 51
90.0
  0
ARC
  5
165
100
AcDbEntity
  8
ADF70-2302
370
              15
390
0
  6
Continuous
 62
               7
100
AcDbCircle
 10
-410.17930036316523
 20
3490.1358858472204
 30
0.0
 40
3093.4478820897548
100
AcDbArc
 50
267.55758520041445
 51
272.44241479687264
  0
ARC
  5
166
100
AcDbEntity
  8
ADF70-2302
370
              15
390
0
  6
Continuous
 62
               7
100
AcDbCircle
 10
-535.17930036316477
 20
559.57971473649832
 30
0.0
 40
160.22704621067987
100
AcDbArc
 50
179.99999999958305
 51
267.55758520083214
  0
LINE
  5
167
100
AcDbEntity
  8
ADF70-2302
370
              15
390
0
  6
Continuous
 62
               7
100
AcDbLine
 10
-695.40634657384282
 20
681.91504996819731
 30
0.0
 11
-695.40634657384464
 21
559.57971473650014
 31
0.0
  0
ARC
  5
168
100
AcDbEntity
  8
ADF70-2302
370
              15
390
0
  6
Continuous
 62
               7
100
AcDbCircle
 10
-285.17930036316267
 20
559.57971473649832
 30
0.0
 40
160.22704621068078
100
AcDbArc
 50
272.44241479760257
 51
359.99999999885358
  0
LINE
  5
169
100
AcDbEntity
  8
ADF70-2302
370
              15
390
0
  6
Continuous
 62
               7
100
AcDbLine
 10
-124.95225415248201
 20
681.91504996819731
 30
0.0
 11
-124.95225415248201
 21
559.57971473649832
 31
0.0
  0
ARC
  5
16A
100
AcDbEntity
  8
ADF70-2302
370
              15
390
0
  6
Continuous
 62
               7
100
AcDbCircle
 10
-660.40634657384282
 20
681.91504996819731
 30
0.0
 40
35.0
100
AcDbArc
 50
90.000000000208445
 51
180.0
  0
ARC
  5
16B
100
AcDbEntity
  8
ADF70-2302
370
              15
390
0
  6
Continuous
 62
               7
100
AcDbCircle
 10
-159.95225415248197
 20
681.91504996819731
 30
0.0
 40
34.999999999999957
100
AcDbArc
 50
0.0000000002084408
 51
90.0
  0
CIRCLE
  5
16C
100
AcDbEntity
  8
ADF70-2302
370
              15
390
0
  6
STYLE_12
 62
               7
100
AcDbCircle
 10
-510.17930036316295
 20
781.33087444982584
 30
0.0
 40
16.0
  0
CIRCLE
  5
16D
100
AcDbEntity
  8
ADF70-2302
370
              15
390
0
  6
STYLE_12
 62
               7
100
AcDbCircle
 10
-310.17930036316358
 20
781.33087444981675
 30
0.0
 40
16.0
  0
SPLINE
  5
16E
100
AcDbEntity
  8
ADF70-2302
370
              15
390
0
  6
Continuous
 62
               7
100
AcDbSpline
210
0.0
220
0.0
230
1.0
 70
               9
 71
               2
 72
              24
 73
              21
 74
               0
 42
0.000001
 43
0.000001
 40
0.0
 40
0.0
 40
0.0
 40
1.0
 40
2.0
 40
3.0
 40
4.0
 40
4.0
 40
5.0
 40
6.0
 40
7.0
 40
8.0
 40
8.0
 40
9.0
 40
10.0
 40
11.0
 40
12.0
 40
12.0
 40
13.0
 40
14.0
 40
15.0
 40
16.0
 40
16.0
 40
16.0
 10
-440.17930036316341
 20
714.50915987101234
 30
0.0
 10
-440.10067586035996
 20
714.41371707596045
 30
0.0
 10
-439.54159465500641
 20
714.3017652586268
 30
0.0
 10
-437.86833052509348
 20
714.14303119471469
 30
0.0
 10
-435.40358623854115
 20
714.06824634505347
 30
0.0
 10
-434.17930036316341
 20
714.06895761351916
 30
0.0
 10
-432.95498483239169
 20
714.06803057335446
 30
0.0
 10
-430.48627397659732
 20
714.13671757529755
 30
0.0
 10
-428.8205777424115
 20
714.30216799857681
 30
0.0
 10
-428.2579248659664
 20
714.41371707595954
 30
0.0
 10
-428.17930036316341
 20
714.50915987101234
 30
0.0
 10
-428.2579248659664
 20
714.60460266606424
 30
0.0
 10
-428.81700607132109
 20
714.71655448339834
 30
0.0
 10
-430.49027020123356
 20
714.87528854731045
 30
0.0
 10
-432.95501448778566
 20
714.95007339696986
 30
0.0
 10
-434.17930036316341
 20
714.94936212850507
 30
0.0
 10
-435.40361589393535
 20
714.95028916866841
 30
0.0
 10
-437.87232674972927
 20
714.88160216672713
 30
0.0
 10
-439.53802298391577
 20
714.71615174344834
 30
0.0
 10
-440.10067586035973
 20
714.60460266606424
 30
0.0
 10
-440.17930036316341
 20
714.50915987101234
 30
0.0
  0
SPLINE
  5
16F
100
AcDbEntity
  8
ADF70-2302
370
              15
390
0
  6
Continuous
 62
               7
100
AcDbSpline
210
0.0
220
0.0
230
1.0
 70
               9
 71
               2
 72
              24
 73
              21
 74
               0
 42
0.000001
 43
0.000001
 40
0.0
 40
0.0
 40
0.0
 40
1.0
 40
2.0
 40
3.0
 40
4.0
 40
4.0
 40
5.0
 40
6.0
 40
7.0
 40
8.0
 40
8.0
 40
9.0
 40
10.0
 40
11.0
 40
12.0
 40
12.0
 40
13.0
 40
14.0
 40
15.0
 40
16.0
 40
16.0
 40
16.0
 10
-416.17930036316341
 20
714.50915987101234
 30
0.0
 10
-416.10067586035996
 20
714.41371707596136
 30
0.0
 10
-415.54159465500618
 20
714.30176525862589
 30
0.0
 10
-413.86833052509326
 20
714.14303119471515
 30
0.0
 10
-411.40358623854092
 20
714.06824634505256
 30
0.0
 10
-410.17930036316341
 20
714.06895761351916
 30
0.0
 10
-408.95498483239146
 20
714.06803057335492
 30
0.0
 10
-406.48627397659732
 20
714.13671757529482
 30
0.0
 10
-404.82057774241127
 20
714.30216799857726
 30
0.0
 10
-404.2579248659664
 20
714.41371707595999
 30
0.0
 10
-404.17930036316341
 20
714.50915987101234
 30
0.0
 10
-404.25792486596686
 20
714.6046026660656
 30
0.0
 10
-404.81700607132041
 20
714.71655448339652
 30
0.0
 10
-406.49027020123333
 20
714.87528854730999
 30
0.0
 10
-408.95501448778589
 20
714.95007339697167
 30
0.0
 10
-410.17930036316341
 20
714.94936212850507
 30
0.0
 10
-411.40361589393535
 20
714.95028916866795
 30
0.0
 10
-413.87232674972972
 20
714.88160216672986
 30
0.0
 10
-415.53802298391577
 20
714.71615174344697
 30
0.0
 10
-416.10067586035973
 20
714.60460266606424
 30
0.0
 10
-416.17930036316341
 20
714.50915987101234
 30
0.0
  0
SPLINE
  5
170
100
AcDbEntity
  8
ADF70-2302
370
              15
390
0
  6
Continuous
 62
               7
100
AcDbSpline
210
0.0
220
0.0
230
1.0
 70
               9
 71
               2
 72
              24
 73
              21
 74
               0
 42
0.000001
 43
0.000001
 40
0.0
 40
0.0
 40
0.0
 40
1.0
 40
2.0
 40
3.0
 40
4.0
 40
4.0
 40
5.0
 40
6.0
 40
7.0
 40
8.0
 40
8.0
 40
9.0
 40
10.0
 40
11.0
 40
12.0
 40
12.0
 40
13.0
 40
14.0
 40
15.0
 40
16.0
 40
16.0
 40
16.0
 10
-392.17930036316341
 20
714.50915987101234
 30
0.0
 10
-392.10067586035996
 20
714.41371707596045
 30
0.0
 10
-391.54159465500686
 20
714.30176525862771
 30
0.0
 10
-389.86833052509303
 20
714.14303119471288
 30
0.0
 10
-387.40358623854138
 20
714.06824634505392
 30
0.0
 10
-386.17930036316341
 20
714.06895761351916
 30
0.0
 10
-384.95498483239169
 20
714.06803057335583
 30
0.0
 10
-382.48627397659732
 20
714.13671757529573
 30
0.0
 10
-380.82057774241105
 20
714.30216799857817
 30
0.0
 10
-380.2579248659664
 20
714.41371707595999
 30
0.0
 10
-380.17930036316341
 20
714.50915987101234
 30
0.0
 10
-380.25792486596686
 20
714.60460266606515
 30
0.0
 10
-380.81700607132041
 20
714.71655448339652
 30
0.0
 10
-382.49027020123356
 20
714.87528854731181
 30
0.0
 10
-384.95501448778589
 20
714.95007339696986
 30
0.0
 10
-386.17930036316341
 20
714.94936212850507
 30
0.0
 10
-387.40361589393513
 20
714.95028916866841
 30
0.0
 10
-389.87232674972927
 20
714.88160216672622
 30
0.0
 10
-391.53802298391622
 20
714.71615174344834
 30
0.0
 10
-392.1006758603595
 20
714.60460266606333
 30
0.0
 10
-392.17930036316341
 20
714.50915987101234
 30
0.0
  0
LINE
  5
171
100
AcDbEntity
  8
ADF70-2302
370
              15
390
0
  6
Continuous
 62
               7
100
AcDbLine
 10
-690.89903271844275
 20
-472.02792275582186
 30
0.0
 11
-129.45848281884898
 21
-472.02792274477514
 31
0.0
  0
LWPOLYLINE
  5
172
100
AcDbEntity
  8
ADF70-2302
370
              15
390
0
  6
Continuous
 62
               7
100
AcDbPolyline
 90
      103
 70
             128
 10
-517.57493594012362
 20
-551.96904940594118
 42
-0.0089939204817143
 10
-517.71182412479084
 20
-551.94270511782543
 10
-517.74499010380066
 20
-551.93570140724319
 42
-0.0186908980716047
 10
-517.94585441535651
 20
-551.88537588305746
 10
-517.97966805548072
 20
-551.87554750949778
 42
-0.0190885833740745
 10
-518.23146694378079
 20
-551.79181290538895
 10
-518.23349933115492
 20
-551.79104973239589
 42
-0.0192009286195571
 10
-518.47415283464352
 20
-551.68998005226172
 10
-518.47538784240737
 20
-551.68940464592117
 42
-0.0190649372435244
 10
-518.70519036937378
 20
-551.57147530106317
 10
-518.70571882305421
 20
-551.57117813681361
 42
-0.0186800079998574
 10
-518.9249472074913
 20
-551.43688435800254
 42
-0.0180679363361024
 10
-519.13379826326616
 20
-551.28679595533981
 42
-0.0172854271646972
 10
-519.33160131485431
 20
-551.12226589948943
 10
-519.33212485219303
 20
-551.12179889011873
 42
-0.0163607639115884
 10
-519.51944509219857
 20
-550.94336350569904
 10
-519.52031395203699
 20
-550.94247986915502
 42
-0.0153467344572014
 10
-519.69764395562026
 20
-550.75070201090523
 10
-519.69875660534194
 20
-550.74942205238744
 42
-0.0142861735512223
 10
-519.86657772844035
 20
-550.54484409971076
 10
-519.86784617298918
 20
-550.54320446496126
 42
-0.0132149688635508
 10
-520.0266253733505
 20
-550.32635396319438
 10
-520.02797677442049
 20
-550.32440211531025
 42
-0.012160916082666
 10
-520.17816551915257
 20
-550.09579725466551
 10
-520.17954212170594
 20
-550.09358656454265
 42
-0.01114390232064
 10
-520.32157686244966
 20
-549.85374088218259
 10
-520.32293478742804
 20
-549.8513266935754
 42
-0.0101768846275351
 10
-520.45723842756786
 20
-549.60075272982442
 10
-520.45854584661208
 20
-549.5981894803906
 42
-0.0092672077472674
 10
-520.58552970169467
 20
-549.33740137565189
 10
-520.5867647914348
 20
-549.33474067863494
 42
-0.0084179506159869
 10
-520.70683067710922
 20
-549.06425584554177
 10
-520.70797961731978
 20
-549.06154535357996
 42
-0.0076291282118315
 10
-520.82152183339076
 20
-548.78188541883026
 10
-520.82257699891215
 20
-548.77916827330432
 42
-0.007047206545901
 10
-520.92989799700842
 20
-548.49082878880881
 10
-520.95784624828866
 20
-548.41237526200189
 42
-0.0118371526328179
 10
-521.10633812550645
 20
-547.96210008760795
 10
-521.13160823209125
 20
-547.87890111931733
 42
-0.0094782837058652
 10
-521.30815771023401
 20
-547.25536500088356
 10
-521.31060227429748
 20
-547.2460620698605
 42
-0.0074824679816321
 10
-521.47052365262664
 20
-546.59817966941387
 10
-521.47237389099496
 20
-546.59017059901521
 42
-0.0057325324288892
 10
-521.6186411031249
 20
-545.92219969241376
 10
-521.61998077406076
 20
-545.91572745574535
 42
-0.0041673463615887
 10
-521.75557003059862
 20
-545.23200494321998
 10
-521.75647321016072
 20
-545.22724289593612
 42
-0.0027270113484429
 10
-521.88437913045095
 20
-544.53216856743563
 10
-521.88490243380716
 20
-544.52923499806616
 42
-0.0013830290671326
 10
-522.00812226050925
 20
-543.82725508996782
 10
-522.00845663713858
 20
-543.82531871702611
 42
-0.0000466163399832
 10
-522.1297131183793
 20
-543.12273256422691
 10
-522.14509641348423
 20
-543.0335488289395
 42
0.0013452675463987
 10
-522.23693059751633
 20
-542.50956592490843
 10
-522.2375016095142
 20
-542.50635864617504
 42
0.0011057382467052
 10
-522.33074715568353
 20
-541.98924359368743
 10
-522.33113664505322
 20
-541.98711060986159
 42
0.0034510950430618
 10
-522.42828057430893
 20
-541.4751382494253
 10
-522.42931614063787
 20
-541.4698790215499
 42
0.0022203547305598
 10
-522.53014456603364
 20
-540.9695433826621
 10
-522.53078719323503
 20
-540.96642605441275
 42
0.0058777070802811
 10
-522.6383406552402
 20
-540.47403720313127
 10
-522.63997333504346
 20
-540.46696259939893
 42
0.003518966982128
 10
-522.75340121577131
 20
-539.99078564256865
 10
-522.7543714516305
 20
-539.98683605808458
 42
0.0088182944778864
 10
-522.87741730945572
 20
-539.52152685602255
 10
-522.87981904819833
 20
-539.51305208585086
 42
0.0051268593172329
 10
-523.01082997948549
 20
-539.06820608664725
 10
-523.01221305221145
 20
-539.06368159290957
 42
0.0125447772481623
 10
-523.15583081347529
 20
-538.63283183850604
 10
-523.1832302248007
 20
-538.55702830690132
 42
0.0074363302850157
 10
-523.28693746035981
 20
-538.28293197631933
 10
-523.28816368678326
 20
-538.27983121261138
 42
0.0081760833773872
 10
-523.39782163954544
 20
-538.01527216226327
 10
-523.39915295578044
 20
-538.01220310639201
 42
0.0090849483184595
 10
-523.51509967662105
 20
-537.75768234662087
 10
-523.51652669581313
 20
-537.75469491800084
 42
0.0100720631683773
 10
-523.63915940496872
 20
-537.51072650871561
 10
-523.64066482187013
 20
-537.50787616483808
 42
0.0111376659658978
 10
-523.77039045295305
 20
-537.27496906271858
 10
-523.77194658933558
 20
-537.27231598764968
 42
0.0122774582746669
 10
-523.90918449214007
 20
-537.05097544895284
 10
-523.91075058158788
 20
-537.04858285153216
 42
0.0134806304755693
 10
-524.05593532910518
 20
-536.83931295630623
 10
-524.05745480285168
 20
-536.83724416699556
 42
0.0147276379458827
 10
-524.21103869461035
 20
-536.64055176308534
 10
-524.21243693320116
 20
-536.63886586668605
 42
0.015988084823787
 10
-524.37489155217031
 20
-536.45526609758394
 10
-524.37607479568783
 20
-536.45401201965058
 42
0.0172193625905811
 10
-524.54789076417455
 20
-536.28403528897502
 10
-524.54874703954715
 20
-536.28324462356386
 42
0.0183670013534263
 10
-524.73043107494311
 20
-536.12744433567036
 10
-524.73083400409746
 20
-536.12712371934117
 42
0.0193676487347577
 10
-524.92290256475383
 20
-535.98608352276437
 42
0.0201559086634624
 10
-525.12549467071995
 20
-535.86065612597861
 10
-525.12568831243539
 20
-535.86054677924426
 42
0.0206713918452777
 10
-525.33822124326696
 20
-535.75186132338388
 10
-525.3391617636405
 20
-535.75142841524189
 42
0.0208814216707049
 10
-525.56189209828915
 20
-535.65997351206772
 10
-525.56369222033993
 20
-535.65932077629554
 42
0.020724812582461
 10
-525.79690350664168
 20
-535.58553698546996
 10
-525.79801960408861
 20
-535.58523412768022
 42
0.0100749665638392
 10
-525.9192269032302
 20
-535.55495216997929
 42
0.0100749665638392
  0
ARC
  5
173
100
AcDbEntity
  8
ADF70-2302
370
              15
390
0
  6
Continuous
 62
               7
100
AcDbCircle
 10
-655.47741523739285
 20
-482.02792274481698
 30
0.0
 40
10.000000000000117
100
AcDbArc
 50
47.133034225065458
 51
90.0
  0
SPLINE
  5
174
100
AcDbEntity
  8
ADF70-2302
370
              15
390
0
  6
Continuous
 62
               7
100
AcDbSpline
210
0.0
220
0.0
230
1.0
 70
              12
 71
               2
 72
              64
 73
              61
 74
               0
 42
0.000001
 43
0.000001
 40
0.0
 40
0.0
 40
0.0
 40
1.0
 40
1.0
 40
2.0
 40
2.0
 40
3.0
 40
3.0
 40
4.0
 40
4.0
 40
5.0
 40
5.0
 40
6.0
 40
6.0
 40
7.0
 40
7.0
 40
8.0
 40
8.0
 40
9.0
 40
9.0
 40
10.0
 40
10.0
 40
11.0
 40
11.0
 40
12.0
 40
12.0
 40
13.0
 40
13.0
 40
14.0
 40
14.0
 40
15.0
 40
15.0
 40
16.0
 40
16.0
 40
17.0
 40
17.0
 40
18.0
 40
18.0
 40
19.0
 40
19.0
 40
20.0
 40
20.0
 40
21.0
 40
21.0
 40
22.0
 40
22.0
 40
23.0
 40
23.0
 40
24.0
 40
24.0
 40
25.0
 40
25.0
 40
26.0
 40
26.0
 40
27.0
 40
27.0
 40
28.0
 40
28.0
 40
29.0
 40
29.0
 40
30.0
 40
30.0
 40
30.0
 10
-648.67441393793786
 20
-474.69858625914611
 30
0.0
 41
1.0
 10
-648.61100057748695
 20
-474.75744547972045
 30
0.0
 41
0.9999998742727019
 10
-648.54752821227089
 20
-474.8162410660737
 30
0.0
 41
1.0
 10
-647.81737142909378
 20
-475.49259834456097
 30
0.0
 41
1.0
 10
-647.08721464591667
 20
-476.16895562304825
 30
0.0
 41
1.0
 10
-645.56342871430365
 20
-477.58046576641561
 30
0.0
 41
0.9997956714758474
 10
-643.98383453161284
 20
-478.92923063407119
 30
0.0
 41
1.0
 10
-643.47363691645978
 20
-479.36487203261555
 30
0.0
 41
1.0
 10
-642.96343930130672
 20
-479.80051343115991
 30
0.0
 41
1.0
 10
-640.3634498883066
 20
-482.02056109590683
 30
0.0
 41
0.9999100239448823
 10
-637.70484067430891
 20
-484.17006188183365
 30
0.0
 41
1.0
 10
-637.569394733933
 20
-484.27957070086416
 30
0.0
 41
1.0
 10
-637.43394879355719
 20
-484.38907951989466
 30
0.0
 41
1.0
 10
-634.50444769880346
 20
-486.75759794388625
 30
0.0
 41
0.9997516549850882
 10
-631.47231694345737
 20
-488.99322744615506
 30
0.0
 41
1.0
 10
-631.07130636992679
 20
-489.28889776555854
 30
0.0
 41
1.0
 10
-630.67029579639632
 20
-489.58456808496209
 30
0.0
 41
1.0
 10
-627.32224115504084
 20
-492.05313238359093
 30
0.0
 41
0.9998255447031309
 10
-623.88432140443308
 20
-494.39492387011313
 30
0.0
 41
1.0
 10
-620.44640165382452
 20
-496.73671535663584
 30
0.0
 41
0.9998387764462358
 10
-616.92661354735253
 20
-498.95355347961942
 30
0.0
 41
1.0
 10
-616.92385784224894
 20
-498.95528908186157
 30
0.0
 41
1.0
 10
-616.92110213714523
 20
-498.95702468410371
 30
0.0
 41
1.0
 10
-613.39580262046547
 20
-501.17733401157193
 30
0.0
 41
0.9998503088085781
 10
-609.79579358898013
 20
-503.27434263462459
 30
0.0
 41
1.0
 10
-609.79307695733212
 20
-503.27592507509672
 30
0.0
 41
1.0
 10
-609.79036032568411
 20
-503.27750751556886
 30
0.0
 41
1.0
 10
-606.18491803090126
 20
-505.37768101956669
 30
0.0
 41
0.999861979257762
 10
-602.51169149228974
 20
-507.35691058783732
 30
0.0
 41
1.0
 10
-602.50938479514207
 20
-507.35815349598681
 30
0.0
 41
1.0
 10
-602.50707809799439
 20
-507.35939640413625
 30
0.0
 41
1.0
 10
-598.82923816508651
 20
-509.34111178870637
 30
0.0
 41
0.9998721390446983
 10
-595.08990881046407
 20
-511.20420556391502
 30
0.0
 41
1.0
 10
-595.08653619018946
 20
-511.20588594754639
 30
0.0
 41
1.0
 10
-595.08316356991475
 20
-511.20756633117776
 30
0.0
 41
1.0
 10
-591.3357216631714
 20
-513.07470212673911
 30
0.0
 41
0.9998818801954226
 10
-587.5326626311238
 20
-514.82577577517418
 30
0.0
 41
1.0
 10
-583.72718981041658
 20
-516.57801252894274
 30
0.0
 41
0.9998913912032003
 10
-579.87172714857707
 20
-518.2173308914214
 30
0.0
 41
1.0
 10
-576.0145031908196
 20
-519.85743504943207
 30
0.0
 41
0.9998989473461308
 10
-572.11221150521806
 20
-521.38721866481887
 30
0.0
 41
1.0
 10
-572.10841422806777
 20
-521.38870730351778
 30
0.0
 41
1.0
 10
-572.10461695091749
 20
-521.39019594221668
 30
0.0
 41
1.0
 10
-568.20920500078751
 20
-522.91730622349405
 30
0.0
 41
0.999906258978574
 10
-564.27343888718769
 20
-524.33718127836278
 30
0.0
 41
1.0
 10
-564.26938388191149
 20
-524.33864417038251
 30
0.0
 41
1.0
 10
-564.26532887663529
 20
-524.34010706240224
 30
0.0
 41
1.0
 10
-560.33767277358788
 20
-525.75705633323139
 30
0.0
 41
0.999912512425355
 10
-556.37390890225674
 20
-527.06961249288292
 30
0.0
 41
1.0
 10
-552.4101450309247
 20
-528.3821686525348
 30
0.0
 41
0.9999166158806921
 10
-548.4138063180967
 20
-529.59192259126337
 30
0.0
 41
1.0
 10
-547.94598305041018
 20
-529.73353997692084
 30
0.0
 41
1.0
 10
-547.47815978272376
 20
-529.87515736257842
 30
0.0
 41
1.0
 10
-542.5461745345242
 20
-531.36814607262158
 30
0.0
 41
0.9998303840104545
 10
-537.56255035446077
 20
-532.67848336074542
 30
0.0
 41
1.0
 10
-537.0896292165703
 20
-532.80282784960127
 30
0.0
 41
1.0
 10
-536.61670807867995
 20
-532.92717233845713
 30
0.0
 41
1.0
 10
-531.3725515065687
 20
-534.30601104156119
 30
0.0
 41
0.9998723158203112
 10
-526.08701180843332
 20
-535.51656646013157
 30
0.0
 41
1.0
 10
-526.00312105577018
 20
-535.53578009033913
 30
0.0
 41
1.0
 10
-525.9192269032302
 20
-535.55495216998111
 30
0.0
 41
1.0
  0
LINE
  5
175
100
AcDbEntity
  8
ADF70-2302
370
              15
390
0
  6
Continuous
 62
               7
100
AcDbLine
 10
-70.1776261821704
 20
-352.03101095093672
 30
0.0
 11
-750.18067711471292
 21
-352.02792274565917
 31
0.0
  0
LINE
  5
176
100
AcDbEntity
  8
ADF70-2302
370
              15
390
0
  6
Continuous
 62
               7
100
AcDbLine
 10
-517.57493594012362
 20
-551.96904940594118
 30
0.0
 11
-302.78336252109131
 21
-551.96904940594118
 31
0.0
  0
LWPOLYLINE
  5
177
100
AcDbEntity
  8
ADF70-2302
370
              15
390
0
  6
Continuous
 62
               7
100
AcDbPolyline
 90
       56
 70
             128
 10
-525.9192269032302
 20
-535.55495216998111
 42
0.0042087842647621
 10
-525.33751279059652
 20
-535.68274701446921
 10
-524.84348564809727
 20
-535.78692696239909
 42
0.0107853658412688
 10
-523.26622926265679
 20
-536.08415846520802
 10
-522.65323630074306
 20
-536.18603760274505
 42
0.0074333917576012
 10
-519.83726157852914
 20
-536.61113404829428
 10
-519.61354339057675
 20
-536.64151196600983
 42
0.0054985652203837
 10
-516.33932541017577
 20
-537.04948935614937
 10
-516.12581344588557
 20
-537.07371230487001
 42
0.0042384084918413
 10
-512.41678750089022
 20
-537.46268620261515
 10
-512.2142875705166
 20
-537.4821889024613
 42
0.0033778859843758
 10
-508.09447352860815
 20
-537.85089405916449
 10
-507.9034135225171
 20
-537.86669276091538
 42
0.002766214301613
 10
-503.39706580549722
 20
-538.21423124154569
 10
-503.21770472965443
 20
-538.22706613745981
 42
0.0023966019959469
 10
-498.34915459722606
 20
-538.55200708417465
 10
-496.76525445978086
 20
-538.65009772438157
 42
0.0036879239121469
 10
-488.72411236574226
 20
-539.08857281644862
 10
-486.95099276546853
 20
-539.17214712697682
 42
0.0028506401014489
 10
-475.35763943783013
 20
-539.65236230007451
 10
-474.85647960888787
 20
-539.67025963654191
 42
0.0023445537258023
 10
-462.25623611467222
 20
-540.06108776920155
 10
-461.85245799321319
 20
-540.07171704426696
 42
0.002019842347896
 10
-448.44161844041014
 20
-540.37054372229136
 10
-448.13552711209661
 20
-540.37612717413663
 42
0.0018136397396265
 10
-434.11055433646965
 20
-540.58107230824692
 10
-424.72089590660391
 20
-540.68421769183067
 42
0.0059138627294845
 10
-392.02814972012845
 20
-540.6566566895151
 10
-382.62730511704916
 20
-540.53753579924296
 42
0.0018706098237275
 10
-368.73742705400514
 20
-540.30955696037222
 10
-368.40689797785717
 20
-540.30289488973756
 42
0.0020866742489964
 10
-355.18027405984901
 20
-539.98107537417786
 10
-354.75211907961989
 20
-539.96886976637029
 42
0.0024480087717016
 10
-342.38517102899732
 20
-539.55571275754369
 10
-340.55611350740679
 20
-539.48564069390761
 42
0.0030746313274833
 10
-331.85168366661981
 20
-539.09855232352697
 10
-330.18414968936139
 20
-539.01411934194459
 42
0.0018659810334002
 10
-324.81825702737058
 20
-538.72234522577696
 10
-324.65673774980201
 20
-538.71295781271317
 42
0.0021362598957968
 10
-319.61631650692362
 20
-538.39839774728148
 10
-319.44287228246731
 20
-538.38682939581372
 42
0.0025240677027075
 10
-314.7523828594197
 20
-538.05019225894216
 10
-314.56714887060525
 20
-538.03595773799555
 42
0.003045374563209
 10
-310.25100815802244
 20
-537.67782249235393
 10
-310.05419113733353
 20
-537.66028380374519
 42
0.0037661424685006
 10
-306.13671947937775
 20
-537.28142922994107
 10
-305.92864982891007
 20
-537.25972395903034
 42
0.0047985295845137
 10
-302.43399558406628
 20
-536.86123281991945
 10
-302.21520908290347
 20
-536.83415547554978
 42
0.0063459224327582
 10
-299.16723941887523
 20
-536.41759393330517
 10
-298.65966268201043
 20
-536.34165008504669
 42
0.0091066262612005
 10
-296.63832989822077
 20
-536.00147222550709
 10
-296.24440460780284
 20
-535.92777585796478
 42
0.006146195240017
 10
-295.02012614900633
 20
-535.68312275834592
 42
0.0037850871788994
 10
-294.43962466938814
 20
-535.55507857087503
 10
-294.43907155798462
 20
-535.55495216998111
  0
LINE
  5
178
100
AcDbEntity
  8
ADF70-2302
370
              15
390
0
  6
Continuous
 62
               7
100
AcDbLine
 10
-759.18446460581242
 20
-409.05545079392476
 30
0.0
 11
-61.173894619087882
 21
-409.05545079392476
 31
0.0
  0
LINE
  5
179
100
AcDbEntity
  8
ADF70-2302
370
              15
390
0
  6
Continuous
 62
               7
100
AcDbLine
 10
-760.1791735975263
 20
-362.2024468100314
 30
0.0
 11
-759.18417545495765
 21
-409.06083448976887
 31
0.0
  0
ARC
  5
17A
100
AcDbEntity
  8
ADF70-2302
370
              15
390
0
  6
Continuous
 62
               7
100
AcDbCircle
 10
-750.18069664596317
 20
-362.02792274565917
 30
0.0
 40
10.0
100
AcDbArc
 50
90.0
 51
180.9999999997672
  0
LWPOLYLINE
  5
17B
100
AcDbEntity
  8
ADF70-2302
370
              15
390
0
  6
Continuous
 62
               7
100
AcDbPolyline
 90
       76
 70
             128
 10
-753.83647832802023
 20
-414.96255446158983
 10
-753.83664125197777
 20
-414.9602946721464
 42
0.0167104891650887
 10
-753.85179409541581
 20
-414.81704903840517
 42
0.0178152731902847
 10
-753.87679141585909
 20
-414.67520091992674
 10
-753.87728774053483
 20
-414.67287301916139
 42
0.0180732562793039
 10
-753.91355115006468
 20
-414.52857127419929
 10
-753.91484390068297
 20
-414.52411500372972
 42
0.020034521721014
 10
-753.96490844714481
 20
-414.37425114163187
 10
-753.96655743556812
 20
-414.36990311444129
 42
0.0168257652398914
 10
-754.02394012972172
 20
-414.23270606875866
 10
-754.02738396428185
 20
-414.22519275838243
 42
0.0159866542620711
 10
-754.08628236217976
 20
-414.10683755383269
 42
0.0119479380965415
 10
-754.15171215003556
 20
-413.99192973268077
 10
-754.16080266814436
 20
-413.97681654752949
 42
0.0202805475732043
 10
-754.25283394409075
 20
-413.83698050672172
 10
-754.26842565664106
 20
-413.81526159642289
 42
0.0146272784896464
 10
-754.37578894017554
 20
-413.67458249151758
 10
-754.37631954731035
 20
-413.67392785722285
 42
0.0127727532664971
 10
-754.49014428774592
 20
-413.54060774345834
 42
0.0112643418025849
 10
-754.61025272015036
 20
-413.4129020430484
 10
-754.62646444044424
 20
-413.39642489007809
 42
0.0144954248160611
 10
-754.78631948671352
 20
-413.24310641954878
 10
-754.80342815921949
 20
-413.22762401569543
 42
0.0109353092736574
 10
-754.98564244671741
 20
-413.06983897147546
 10
-754.99553013207912
 20
-413.06164832812669
 42
0.0088602901371566
 10
-755.16380278936879
 20
-412.92721230962496
 10
-755.17684452039816
 20
-412.91716639797272
 42
0.0056808591358718
 10
-755.32266266756631
 20
-412.80746112418973
 10
-755.32556935512594
 20
-412.80532557899062
 42
0.0045111794960442
 10
-755.46774536967814
 20
-412.70283098292811
 10
-755.47277785172275
 20
-412.69927162697098
 42
0.0037537325545655
 10
-755.60651253684557
 20
-412.60618255460867
 42
0.0027118780364493
 10
-755.74144157600472
 20
-412.51482933246155
 10
-755.75965199634015
 20
-412.50264355043572
 42
0.003675631733554
 10
-755.93233338022981
 20
-412.38892003531032
 10
-755.95589658309609
 20
-412.37364907112777
 42
0.0024038831220223
 10
-756.17723168770135
 20
-412.23171144629777
 42
0.0011278182408858
 10
-756.39957472600236
 20
-412.09133372232822
 10
-756.62399510311764
 20
-411.95035144305291
 42
-0.0011669877804189
 10
-756.84285753552774
 20
-411.81214724124601
 10
-756.86135523793359
 20
-411.80040609197306
 42
-0.0022325109525836
 10
-757.04238157162024
 20
-411.68436507786799
 10
-757.0590483760044
 20
-411.6735760696962
 42
-0.0022190539788029
 10
-757.20579725581263
 20
-411.57765349078289
 42
-0.002751472612328
 10
-757.35158455916564
 20
-411.48027735567513
 10
-757.37407915489223
 20
-411.4650728015842
 42
-0.0059529867935718
 10
-757.56276202825666
 20
-411.33423875975461
 10
-757.58488895318646
 20
-411.31850242237448
 42
-0.0060334672676139
 10
-757.76257398078519
 20
-411.18887885516659
 10
-757.77087558899098
 20
-411.18266786681983
 42
-0.0073697191490573
 10
-757.92859972933786
 20
-411.06099719315233
 10
-757.92887838851368
 20
-411.06077560429776
 42
-0.0068961779048497
 10
-758.08251836660907
 20
-410.93510405880687
 42
-0.0100494606489687
 10
-758.23179592555687
 20
-410.80431273433931
 10
-758.23947795989022
 20
-410.79730417908195
 42
-0.0120539802520653
 10
-758.39665730164461
 20
-410.64680418369716
 10
-758.40542394621446
 20
-410.63799533305064
 42
-0.0139577327485341
 10
-758.5375222336221
 20
-410.49763491121001
 10
-758.54377235247671
 20
-410.4906109871136
 42
-0.0124094071096338
 10
-758.65615520142967
 20
-410.35782047109632
 42
-0.0149322796640996
 10
-758.76108919892806
 20
-410.21911912562035
 10
-758.76209819274743
 20
-410.21769923937217
 42
-0.0157928272325214
 10
-758.85637650114904
 20
-410.07573789059933
 42
-0.0175543314529585
 10
-758.9409751907765
 20
-409.92782689442987
 10
-758.94516582722849
 20
-409.9198639352993
 42
-0.0188811663367766
 10
-759.01259972209107
 20
-409.77907409471635
 10
-759.02116151870723
 20
-409.75931694707111
 42
-0.0164059079663395
 10
-759.06270108978606
 20
-409.6541306767628
 42
-0.010603530404735
 10
-759.09851241126012
 20
-409.54682151246919
 10
-759.10097228935706
 20
-409.53889448007402
 42
-0.0210470851726258
 10
-759.13414982125676
 20
-409.41357451310898
 10
-759.13942008495121
 20
-409.38963781119156
 42
-0.0208389574039526
 10
-759.16857980048599
 20
-409.22475894464486
 10
-759.16895106384209
 20
-409.22199183252656
 42
-0.0195944504687758
 10
-759.18417545495765
 20
-409.06083448976887
 10
-759.1844646056187
 20
-409.05545082693942
  0
LINE
  5
17C
100
AcDbEntity
  8
ADF70-2302
370
              15
390
0
  6
Continuous
 62
               7
100
AcDbLine
 10
-753.18597750238666
 20
-424.27204744620548
 30
0.0
 11
-753.83632819851016
 21
-414.9647029817931
 31
0.0
  0
ARC
  5
17D
100
AcDbEntity
  8
ADF70-2302
370
              15
390
0
  6
Continuous
 62
               7
100
AcDbCircle
 10
-749.1886757492274
 20
-424.1324904874761
 30
0.0
 40
3.9999587224951383
100
AcDbArc
 50
181.99942905584109
 51
269.99879610162026
  0
LWPOLYLINE
  5
17E
100
AcDbEntity
  8
ADF70-2302
370
              15
390
0
  6
Continuous
 62
               7
100
AcDbPolyline
 90
       77
 70
             128
 10
-690.89903271844275
 20
-472.02792275582186
 42
-0.0048052303372545
 10
-691.51473770323958
 20
-472.02200541064565
 10
-691.6649704012159
 20
-472.01911746635113
 42
-0.0098070762034259
 10
-692.58038622050788
 20
-471.98355005494864
 10
-693.0153918224745
 20
-471.95809593392477
 42
-0.0202839383375296
 10
-694.79295496799
 20
-471.78152180371887
 10
-695.09195849279581
 20
-471.73951603046561
 42
-0.0207182452924058
 10
-697.29145724209582
 20
-471.3369946859172
 10
-697.31983693603229
 20
-471.3305758778115
 42
-0.0207594792145969
 10
-699.42228916713862
 20
-470.762384240367
 10
-699.44184948679595
 20
-470.75621631574666
 42
-0.0204187280204504
 10
-701.45194815177331
 20
-470.03090971133969
 10
-701.46385350502089
 20
-470.02605594744051
 42
-0.0197175018362893
 10
-703.38604751447338
 20
-469.15250410700918
 10
-703.39165148571647
 20
-469.14968574346341
 42
-0.0187079747791892
 10
-705.23027631537013
 20
-468.1371214412822
 42
-0.0174685360360649
 10
-706.99039522450539
 20
-466.99470409719851
 42
-0.0160557294320673
 10
-708.66952063909775
 20
-465.7373186206911
 10
-708.67221943101833
 20
-465.73515904742652
 42
-0.0145620137391328
 10
-710.27666925497942
 20
-464.37278340284911
 10
-710.28159621625559
 20
-464.36834653559544
 42
-0.0130394761453764
 10
-711.81818236314814
 20
-462.91027983343247
 10
-711.82438404767481
 20
-462.90407984051507
 42
-0.011531627308382
 10
-713.29971454628685
 20
-461.35950333283762
 10
-713.306437118806
 20
-461.3521321589098
 42
-0.0100670148002449
 10
-714.72692531686596
 20
-459.73017980493415
 10
-714.73359600548815
 20
-459.7222463019545
 42
-0.0086611612187039
 10
-716.10548564740554
 20
-458.0320577942685
 10
-716.11168427023676
 20
-458.02414472758545
 42
-0.007320620432812
 10
-717.4410784698789
 20
-456.27489896513532
 10
-717.44650588176671
 20
-456.26753613594491
 42
-0.0060406252774106
 10
-718.73940675406459
 20
-454.46847926190605
 10
-718.75053100740945
 20
-454.45259861184763
 42
-0.0048276927635654
 10
-719.99966889202187
 20
-452.63221338675311
 10
-720.03686388993788
 20
-452.57687074184236
 42
-0.0035504484090847
 10
-721.1817509159041
 20
-450.84697979048877
 10
-721.20991161811241
 20
-450.80376616531402
 42
-0.0018267236681452
 10
-722.28014499231722
 20
-449.14826258288457
 10
-722.28073224860896
 20
-449.14734685766302
 42
-0.0003475598774937
 10
-723.34259006355092
 20
-447.48902655292585
 10
-723.34432613854119
 20
-447.4863111423179
 42
0.0011306953725361
 10
-724.40529314941114
 20
-445.83508280441555
 10
-724.40815572779854
 20
-445.8306497268843
 42
0.0026309098246112
 10
-725.47573134986749
 20
-444.19630423738334
 10
-725.47966854894776
 20
-444.19034551807022
 42
0.0041725520965056
 10
-726.56138681729203
 20
-442.5825621052806
 10
-726.56630506330509
 20
-442.57538210294314
 42
0.0057732286273828
 10
-727.66975184400781
 20
-441.00372722939954
 10
-727.67549602406859
 20
-440.99574334514767
 42
0.0074473347619452
 10
-728.80833368825233
 20
-439.46967174438458
 10
-728.95635793362442
 20
-439.27634900914268
 42
0.0092812600805517
 10
-729.83641459747662
 20
-438.17013453428871
 10
-729.84138578315265
 20
-438.1641185164429
 42
0.005235249987921
 10
-730.74322298304901
 20
-437.09571649937624
 42
0.0119594274362319
 10
-731.68104321312774
 20
-436.05919222228357
 10
-731.84226256259888
 20
-435.88935211561272
 42
0.0139137497954359
 10
-733.14025829468642
 20
-434.59599925881929
 10
-733.14445729333147
 20
-434.59204190079055
 42
0.0158491284843665
 10
-734.50829266718449
 20
-433.38597279599543
 10
-734.50977654641622
 20
-433.384742123911
 42
0.0177228882748536
 10
-735.94821864310325
 20
-432.27537914674411
 42
0.0194340448405176
 10
-737.46485435455725
 20
-431.27598989185037
 10
-737.4676117118255
 20
-431.27432285368485
 42
0.0208843187309889
 10
-739.06526788011092
 20
-430.3973315670263
 10
-739.07406448311974
 20
-430.39297051871353
 42
0.0219265902675004
 10
-740.75864876808771
 20
-429.64792808769556
 10
-740.98119228040446
 20
-429.5609551760067
 42
0.0224528808425778
 10
-742.33955608870667
 20
-429.09922531822002
 42
0.0113506507290688
 10
-743.72704705975275
 20
-428.73002649804272
 10
-743.75192771826471
 20
-428.72400724024345
 42
0.0222823667462869
 10
-745.21025684600443
 20
-428.43929414665268
 10
-745.22555534254263
 20
-428.43700938496812
 42
0.011022318686505
 10
-746.73138830516223
 20
-428.24594867584233
 10
-746.76866950586577
 20
-428.24205127457088
 42
0.0210926736808328
 10
-748.35743871262048
 20
-428.14344795060532
 10
-748.6362122515892
 20
-428.1379263647629
 42
0.0049459860146128
 10
-749.18875979630764
 20
-428.13244920908772
 42
0.0049459860146128
  0
LWPOLYLINE
  5
17F
100
AcDbEntity
  8
ADF70-2302
370
              15
390
0
  6
Continuous
 62
               7
100
AcDbPolyline
 90
      103
 70
             128
 10
-302.78342328477794
 20
-551.96904940594118
 42
0.0089939204836336
 10
-302.64653510011158
 20
-551.94270511782531
 10
-302.61336912110102
 20
-551.93570140724273
 42
0.0186908980699571
 10
-302.412504809545
 20
-551.88537588305644
 10
-302.37869116942176
 20
-551.87554750949698
 42
0.0190885833734804
 10
-302.12689228112077
 20
-551.7918129053885
 10
-302.12485989374755
 20
-551.79104973239578
 42
0.0192009286194188
 10
-301.88420639025782
 20
-551.68998005226217
 10
-301.88297138249277
 20
-551.68940464592106
 42
0.0190649372467917
 10
-301.65316885552721
 20
-551.57147530106272
 10
-301.65264040184701
 20
-551.57117813681327
 42
0.0186800079964475
 10
-301.43341201740969
 20
-551.43688435800163
 42
0.0180798318129793
 10
-301.22456096163461
 20
-551.28679595534027
 42
0.0172854271683087
 10
-301.02675791004549
 20
-551.12226589948807
 10
-301.02623437270796
 20
-551.12179889011827
 42
0.0163607639082555
 10
-300.838914132703
 20
-550.94336350569779
 10
-300.83804527286503
 20
-550.94247986915411
 42
0.0153467344567674
 10
-300.66071526928118
 20
-550.75070201090477
 10
-300.65960261955962
 20
-550.74942205238699
 42
0.0142861735506064
 10
-300.49178149645718
 20
-550.54484409970689
 10
-300.49051305191171
 20
-550.54320446496172
 42
0.0132149688659494
 10
-300.33173385155351
 20
-550.32635396319938
 10
-300.33038245048039
 20
-550.3244021153107
 42
0.0121609160834972
 10
-300.18019370575013
 20
-550.09579725466597
 10
-300.17881710319563
 20
-550.09358656454128
 42
0.0111439023180721
 10
-300.03678236245065
 20
-549.8537408821777
 10
-300.03542443747421
 20
-549.85132669357404
 42
0.0101768846263318
 10
-299.9011207973345
 20
-549.60075272982613
 10
-299.89981337828914
 20
-549.59818948039015
 42
0.0092672077516229
 10
-299.77282952320525
 20
-549.33740137564757
 10
-299.7715944334671
 20
-549.33474067863494
 42
0.0084179506126047
 10
-299.65152854779501
 20
-549.06425584554518
 10
-299.65037960758292
 20
-549.0615453535795
 42
0.0076291282121418
 10
-299.53683739150972
 20
-548.78188541882673
 10
-299.53578222598964
 20
-548.77916827330432
 42
0.0070472065466475
 10
-299.42846122789462
 20
-548.49082878881347
 10
-299.40051297661313
 20
-548.4123752620028
 42
0.011837152632171
 10
-299.2520210993946
 20
-547.96210008760772
 10
-299.22675099280997
 20
-547.87890111931824
 42
0.009478283706498
 10
-299.05020151466755
 20
-547.25536500088799
 10
-299.04775695060272
 20
-547.24606206985959
 42
0.0074824679820848
 10
-298.88783557227396
 20
-546.59817966941102
 10
-298.88598533390615
 20
-546.5901705990143
 42
0.005732532427779
 10
-298.73971812177484
 20
-545.92219969240489
 10
-298.73837845084091
 20
-545.91572745574581
 42
0.0041673463619783
 10
-298.60278919430232
 20
-545.23200494321941
 10
-298.60188601474039
 20
-545.22724289593612
 42
0.0027270113483818
 10
-298.47398009445271
 20
-544.53216856744984
 10
-298.47345679109395
 20
-544.52923499806616
 42
0.0013830290677146
 10
-298.35023696439498
 20
-543.82725508998271
 10
-298.34990258776116
 20
-543.82531871701531
 42
0.0000466163396855
 10
-298.22864610652306
 20
-543.12273256422645
 10
-298.21326281141802
 20
-543.03354882893836
 42
-0.0013452675476727
 10
-298.12142862738511
 20
-542.50956592490797
 10
-298.12085761539623
 20
-542.50635864622484
 42
-0.0011057382451991
 10
-298.02761206921724
 20
-541.98924359368789
 10
-298.02722257984482
 20
-541.98711060984715
 42
-0.0034510950439385
 10
-297.93007865059172
 20
-541.47513824942621
 10
-297.92904308426591
 20
-541.4698790215665
 42
-0.0022203547294598
 10
-297.82821465886701
 20
-540.96954338266346
 10
-297.82757203166489
 20
-540.96642605441059
 42
-0.0058777070804771
 10
-297.72001856966091
 20
-540.47403720313173
 10
-297.71838588985884
 20
-540.46696259940472
 42
-0.0035189669832678
 10
-297.60495800912923
 20
-539.99078564256956
 10
-297.60398777326952
 20
-539.98683605808355
 42
-0.008818294475662
 10
-297.48094191544516
 20
-539.521526856023
 10
-297.4785401767046
 20
-539.51305208585836
 42
-0.0051268593196287
 10
-297.34752924541573
 20
-539.06820608664771
 10
-297.34614617268937
 20
-539.06368159290901
 42
-0.0125447772465002
 10
-297.20252841142548
 20
-538.63283183850649
 10
-297.17512900009808
 20
-538.55702830689552
 42
-0.0074363302858603
 10
-297.07142176454164
 20
-538.28293197631979
 10
-297.07019553812063
 20
-538.27983121261821
 42
-0.0081760833771224
 10
-296.96053758535646
 20
-538.01527216226464
 10
-296.95920626912033
 20
-538.01220310639076
 42
-0.0090849483182204
 10
-296.84325954828074
 20
-537.75768234662087
 10
-296.8418325290898
 20
-537.75469491800334
 42
-0.0100720631698557
 10
-296.71919981993261
 20
-537.51072650871515
 10
-296.71769440303092
 20
-537.50787616483717
 42
-0.011137665964845
 10
-296.58796877194828
 20
-537.27496906271904
 10
-296.58641263556552
 20
-537.27231598764956
 42
-0.012277458275332
 10
-296.44917473276092
 20
-537.0509754489533
 10
-296.44760864331255
 20
-537.04858285153182
 42
-0.0134806304758964
 10
-296.3024238957949
 20
-536.83931295630669
 10
-296.30090442205073
 20
-536.8372441669992
 42
-0.0147276379424252
 10
-296.14732053028985
 20
-536.64055176308489
 10
-296.14592229169529
 20
-536.63886586668104
 42
-0.015988084826663
 10
-295.9834676727308
 20
-536.45526609758303
 10
-295.98228442921612
 20
-536.45401201965274
 42
-0.0172193625905949
 10
-295.81046846072678
 20
-536.28403528897502
 10
-295.80961218535163
 20
-536.28324462356147
 42
-0.0183670013532409
 10
-295.62792814995765
 20
-536.12744433567036
 10
-295.62752522080501
 20
-536.12712371934253
 42
-0.0193676487316098
 10
-295.43545666014717
 20
-535.98608352276301
 42
-0.0201559086703078
 10
-295.23286455418031
 20
-535.86065612597736
 10
-295.23267091246618
 20
-535.8605467792438
 42
-0.0206713918400917
 10
-295.02013798163603
 20
-535.7518613233857
 10
-295.01919746126151
 20
-535.75142841524325
 42
-0.020881421670364
 10
-294.79646712661344
 20
-535.65997351206795
 10
-294.79466700456197
 20
-535.65932077629554
 42
-0.0207248125859429
 10
-294.56145571825886
 20
-535.58553698546984
 10
-294.56033962081239
 20
-535.58523412768022
 42
-0.0100780593387766
 10
-294.43913232167125
 20
-535.55495216997929
 42
-0.0100780593387766
  0
ARC
  5
180
100
AcDbEntity
  8
ADF70-2302
370
              15
390
0
  6
Continuous
 62
               7
100
AcDbCircle
 10
-164.88094398750755
 20
-482.02792274481698
 30
0.0
 40
10.0
100
AcDbArc
 50
90.0
 51
132.86696577493251
  0
SPLINE
  5
181
100
AcDbEntity
  8
ADF70-2302
370
              15
390
0
  6
Continuous
 62
               7
100
AcDbSpline
210
0.0
220
0.0
230
1.0
 70
              12
 71
               2
 72
              64
 73
              61
 74
               0
 42
0.000001
 43
0.000001
 40
0.0
 40
0.0
 40
0.0
 40
1.0
 40
1.0
 40
2.0
 40
2.0
 40
3.0
 40
3.0
 40
4.0
 40
4.0
 40
5.0
 40
5.0
 40
6.0
 40
6.0
 40
7.0
 40
7.0
 40
8.0
 40
8.0
 40
9.0
 40
9.0
 40
10.0
 40
10.0
 40
11.0
 40
11.0
 40
12.0
 40
12.0
 40
13.0
 40
13.0
 40
14.0
 40
14.0
 40
15.0
 40
15.0
 40
16.0
 40
16.0
 40
17.0
 40
17.0
 40
18.0
 40
18.0
 40
19.0
 40
19.0
 40
20.0
 40
20.0
 40
21.0
 40
21.0
 40
22.0
 40
22.0
 40
23.0
 40
23.0
 40
24.0
 40
24.0
 40
25.0
 40
25.0
 40
26.0
 40
26.0
 40
27.0
 40
27.0
 40
28.0
 40
28.0
 40
29.0
 40
29.0
 40
30.0
 40
30.0
 40
30.0
 10
-171.68394528696251
 20
-474.69858625914611
 30
0.0
 41
1.0
 10
-171.7473586473622
 20
-474.75744547967321
 30
0.0
 41
0.9999998743498914
 10
-171.81083101260813
 20
-474.81624106605415
 30
0.0
 41
1.0
 10
-172.54098779579584
 20
-475.49259834455211
 30
0.0
 41
1.0
 10
-173.27114457898358
 20
-476.16895562305007
 30
0.0
 41
1.0
 10
-174.79493051059836
 20
-477.58046576642084
 30
0.0
 41
0.9997956714758165
 10
-176.37452469329179
 20
-478.92923063407659
 30
0.0
 41
1.0
 10
-176.8847223084426
 20
-479.36487203261845
 30
0.0
 41
1.0
 10
-177.39491992359342
 20
-479.80051343116037
 30
0.0
 41
1.0
 10
-179.99490933658871
 20
-482.02056109590012
 30
0.0
 41
0.9999100239449245
 10
-182.65351855057835
 20
-484.17006188182336
 30
0.0
 41
1.0
 10
-182.78896449096013
 20
-484.27957070085881
 30
0.0
 41
1.0
 10
-182.9244104313419
 20
-484.38907951989421
 30
0.0
 41
1.0
 10
-185.85391152609523
 20
-486.75759794388847
 30
0.0
 41
0.9997516549850698
 10
-188.88604228144612
 20
-488.99322744615768
 30
0.0
 41
1.0
 10
-189.28705285497534
 20
-489.28889776555991
 30
0.0
 41
1.0
 10
-189.68806342850459
 20
-489.58456808496209
 30
0.0
 41
1.0
 10
-193.03611806986129
 20
-492.05313238358849
 30
0.0
 41
0.9998255447030289
 10
-196.47403782046771
 20
-494.39492387011177
 30
0.0
 41
1.0
 10
-199.9119575710742
 20
-496.73671535663505
 30
0.0
 41
0.999838776446261
 10
-203.43174567754764
 20
-498.95355347961623
 30
0.0
 41
1.0
 10
-203.43450138265166
 20
-498.95528908185861
 30
0.0
 41
1.0
 10
-203.43725708775568
 20
-498.95702468410099
 30
0.0
 41
1.0
 10
-206.9625566044358
 20
-501.17733401156602
 30
0.0
 41
0.999850308808422
 10
-210.56256563592319
 20
-503.27434263462112
 30
0.0
 41
1.0
 10
-210.56528226757024
 20
-503.27592507509269
 30
0.0
 41
1.0
 10
-210.56799889921726
 20
-503.27750751556431
 30
0.0
 41
1.0
 10
-214.17344119399735
 20
-505.37768101956181
 30
0.0
 41
0.9998619792577308
 10
-217.84666773260923
 20
-507.35691058783311
 30
0.0
 41
1.0
 10
-217.84897442975782
 20
-507.35815349598306
 30
0.0
 41
1.0
 10
-217.8512811269064
 20
-507.35939640413307
 30
0.0
 41
1.0
 10
-221.52912105981395
 20
-509.34111178870353
 30
0.0
 41
0.9998721390447174
 10
-225.2684504144348
 20
-511.20420556391139
 30
0.0
 41
1.0
 10
-225.27182303470985
 20
-511.20588594754298
 30
0.0
 41
1.0
 10
-225.27519565498491
 20
-511.20756633117458
 30
0.0
 41
1.0
 10
-229.02265784708476
 20
-513.07465979512847
 30
0.0
 41
0.9998820524304273
 10
-232.82569659377472
 20
-514.82577577517191
 30
0.0
 41
1.0
 10
-236.63118315754173
 20
-516.57798148574977
 30
0.0
 41
0.999891510584739
 10
-240.48663207632111
 20
-518.2173308914214
 30
0.0
 41
1.0
 10
-244.34386438445804
 20
-519.85741460867212
 30
0.0
 41
0.9998990222155247
 10
-248.24614771967831
 20
-521.38721866482024
 30
0.0
 41
1.0
 10
-248.24994499682862
 20
-521.38870730351914
 30
0.0
 41
1.0
 10
-248.25374227397896
 20
-521.39019594221804
 30
0.0
 41
1.0
 10
-252.14915422410968
 20
-522.91730622349678
 30
0.0
 41
0.9999062589785526
 10
-256.08492033770864
 20
-524.33718127836414
 30
0.0
 41
1.0
 10
-256.08897534298353
 20
-524.3386441703833
 30
0.0
 41
1.0
 10
-256.09303034825848
 20
-524.34010706240258
 30
0.0
 41
1.0
 10
-260.0206864513051
 20
-525.75705633323059
 30
0.0
 41
0.999912512425711
 10
-263.98445032263982
 20
-527.06961249288383
 30
0.0
 41
1.0
 10
-267.94821419397147
 20
-528.38216865253594
 30
0.0
 41
0.9999166158805326
 10
-271.94455290679963
 20
-529.59192259126337
 30
0.0
 41
1.0
 10
-272.41237617448661
 20
-529.73353997692084
 30
0.0
 41
1.0
 10
-272.88019944217359
 20
-529.87515736257842
 30
0.0
 41
1.0
 10
-277.81218469037708
 20
-531.36814607262136
 30
0.0
 41
0.9998303840107103
 10
-282.79580887044273
 20
-532.67848336074644
 30
0.0
 41
1.0
 10
-283.26873000832899
 20
-532.80282784960127
 30
0.0
 41
1.0
 10
-283.74165114621525
 20
-532.92717233845622
 30
0.0
 41
1.0
 10
-288.9858077183298
 20
-534.30601104156199
 30
0.0
 41
0.9998723158203476
 10
-294.27134741646552
 20
-535.51656646013157
 30
0.0
 41
1.0
 10
-294.35523816912865
 20
-535.53578009033913
 30
0.0
 41
1.0
 10
-294.43913232166943
 20
-535.55495216998111
 30
0.0
 41
1.0
  0
LINE
  5
182
100
AcDbEntity
  8
ADF70-2302
370
              15
390
0
  6
Continuous
 62
               7
100
AcDbLine
 10
-60.179149230607258
 20
-362.20553501530895
 30
0.0
 11
-61.173894619087882
 21
-409.05545079392476
 31
0.0
  0
ARC
  5
183
100
AcDbEntity
  8
ADF70-2302
370
              15
390
0
  6
Continuous
 62
               7
100
AcDbCircle
 10
-70.1776261821704
 20
-362.03101095093672
 30
0.0
 40
10.000000000000339
100
AcDbArc
 50
359.00000000023283
 51
90.0
  0
LWPOLYLINE
  5
184
100
AcDbEntity
  8
ADF70-2302
370
              15
390
0
  6
Continuous
 62
               7
100
AcDbPolyline
 90
       76
 70
             128
 10
-66.521880896880063
 20
-414.96255446158983
 10
-66.521717972922531
 20
-414.96029467214578
 42
-0.0167104891628934
 10
-66.506565129485168
 20
-414.81704903840335
 42
-0.0178152731987856
 10
-66.481567809040939
 20
-414.67520091992571
 10
-66.481071484365472
 20
-414.67287301916184
 42
-0.0180732562705688
 10
-66.444808074835805
 20
-414.52857127420464
 10
-66.443515324215966
 20
-414.52411500372972
 42
-0.0200430533068931
 10
-66.393450777755149
 20
-414.37425114163096
 10
-66.391801789332149
 20
-414.36990311444117
 42
-0.0168257652438507
 10
-66.334419095178689
 20
-414.23270606876048
 10
-66.330975260618771
 20
-414.22519275838488
 42
-0.0159866542527448
 10
-66.27207686272078
 20
-414.10683755383315
 42
-0.0119479381049766
 10
-66.20664707486452
 20
-413.9919297326781
 10
-66.197556556756638
 20
-413.97681654752859
 42
-0.0202805475739068
 10
-66.105525280810284
 20
-413.83698050672382
 10
-66.089933568260165
 20
-413.81526159642578
 42
-0.0146272784841265
 10
-65.98257028472409
 20
-413.67458249151849
 10
-65.982039677588418
 20
-413.67392785722268
 42
-0.012772753269487
 10
-65.868214937153709
 20
-413.54060774345788
 42
-0.011264341802771
 10
-65.748106504749316
 20
-413.4129020430484
 10
-65.731894784454937
 20
-413.39642489007764
 42
-0.0144954248143521
 10
-65.572039738184699
 20
-413.24310641954696
 10
-65.554931065679227
 20
-413.22762401569389
 42
-0.01093530927745
 10
-65.372716778182451
 20
-413.06983897147592
 10
-65.362829092825393
 20
-413.06164832813118
 42
-0.0088602901298476
 10
-65.194556435530387
 20
-412.92721230962405
 10
-65.181514704501481
 20
-412.91716639797181
 42
-0.0056808591415218
 10
-65.035696557334006
 20
-412.80746112418791
 10
-65.0327898697752
 20
-412.80532557898937
 42
-0.0045111794985347
 10
-64.890613855221375
 20
-412.70283098292811
 10
-64.885581373163546
 20
-412.69927162696172
 42
-0.0037537325513804
 10
-64.751846688053604
 20
-412.60618255461048
 42
-0.0027118780331638
 10
-64.616917648896759
 20
-412.51482933246427
 10
-64.59870722855959
 20
-412.50264355043709
 42
-0.0036756317364387
 10
-64.426025844671955
 20
-412.38892003531214
 10
-64.402462641803425
 20
-412.37364907112823
 42
-0.0024036895300331
 10
-64.18112753719862
 20
-412.23171144629822
 42
-0.0011278182416918
 10
-63.958784498894431
 20
-412.09133372232594
 10
-63.734364121786292
 20
-411.95035144305496
 42
0.0011669877796102
 10
-63.515501689371654
 20
-411.81214724124555
 10
-63.49700398696757
 20
-411.80040609197385
 42
0.0022325109557944
 10
-63.31597765327961
 20
-411.68436507786708
 10
-63.299310848888389
 20
-411.67357606969051
 42
0.0022190539710541
 10
-63.152561969087678
 20
-411.57765349078335
 42
0.0027514726199418
 10
-63.006774665739876
 20
-411.48027735568047
 10
-62.984280070007848
 20
-411.46507280158556
 42
0.0059529867926765
 10
-62.795597196643627
 20
-411.33423875975427
 10
-62.773470271711446
 20
-411.31850242237226
 42
0.0060334672691333
 10
-62.595785244115
 20
-411.18887885516386
 10
-62.587483635905954
 20
-411.1826678668146
 42
0.007369719141706
 10
-62.429759495562671
 20
-411.06099719315051
 10
-62.429480836390894
 20
-411.06077560429924
 42
0.0068961779110259
 10
-62.275840858291126
 20
-410.93510405880596
 42
0.0100494606414277
 10
-62.12656329934314
 20
-410.8043127343401
 10
-62.118881265008945
 20
-410.7973041790824
 42
0.0120539802636576
 10
-61.961701923255809
 20
-410.64680418369807
 10
-61.952935278683974
 20
-410.63799533304916
 42
0.0139577327341601
 10
-61.820836991277979
 20
-410.49763491121092
 10
-61.814586872425934
 20
-410.49061098711786
 42
0.0124094071257958
 10
-61.702204023469953
 20
-410.35782047109677
 42
0.0149294774512051
 10
-61.59727002597247
 20
-410.2191191256199
 10
-61.596261032154494
 20
-410.21769923937376
 42
0.0157928272366402
 10
-61.50198272375092
 20
-410.07573789060069
 42
0.0175543314580394
 10
-61.417384034125377
 20
-409.92782689443169
 10
-61.413193397669659
 20
-409.91986393529385
 42
0.0188811663260515
 10
-61.345759502809237
 20
-409.7790740947159
 10
-61.33719770619394
 20
-409.75931694707407
 42
0.0164059079770945
 10
-61.295658135113904
 20
-409.65413067676326
 42
0.0106035303972054
 10
-61.259846813640188
 20
-409.54682151246891
 10
-61.257386935543586
 20
-409.53889448007493
 42
0.0210470851749116
 10
-61.224209403643755
 20
-409.41357451311177
 10
-61.218939139949761
 20
-409.38963781119628
 42
0.020838957405091
 10
-61.189779424413977
 20
-409.22475894464304
 10
-61.189408161056747
 20
-409.22199183251593
 42
0.0195944504658267
 10
-61.174183769941742
 20
-409.06083448976796
 10
-61.173894619281604
 20
-409.05545082693942
  0
LINE
  5
185
100
AcDbEntity
  8
ADF70-2302
370
              15
390
0
  6
Continuous
 62
               7
100
AcDbLine
 10
-67.172381722513649
 20
-424.27204744620548
 30
0.0
 11
-66.522031026390138
 21
-414.9647029817931
 31
0.0
  0
ARC
  5
186
100
AcDbEntity
  8
ADF70-2302
370
              15
390
0
  6
Continuous
 62
               7
100
AcDbCircle
 10
-71.169683475672912
 20
-424.1324904874761
 30
0.0
 40
3.9999587224955273
100
AcDbArc
 50
270.00120389838958
 51
358.00057094415888
  0
LWPOLYLINE
  5
187
100
AcDbEntity
  8
ADF70-2302
370
              15
390
0
  6
Continuous
 62
               7
100
AcDbPolyline
 90
       77
 70
             128
 10
-129.4593265064577
 20
-472.02792275582186
 42
0.0048052303371202
 10
-128.84362152165704
 20
-472.02200541064559
 10
-128.69338882368444
 20
-472.01911746635113
 42
0.0098070762035165
 10
-127.77797300439576
 20
-471.98355005494881
 10
-127.3429674024255
 20
-471.95809593392477
 42
0.0202839383374943
 10
-125.56540425690969
 20
-471.78152180371916
 10
-125.26640073210598
 20
-471.73951603046635
 42
0.0207182452926779
 10
-123.06690198280415
 20
-471.3369946859172
 10
-123.0385222888664
 20
-471.33057587781116
 42
0.0207594792146226
 10
-120.9360700577617
 20
-470.76238424036518
 10
-120.91650973810505
 20
-470.75621631574506
 42
0.0204187280197165
 10
-118.90641107312734
 20
-470.03090971133923
 10
-118.894505719878
 20
-470.02605594743937
 42
0.0197175018368821
 10
-116.97231171042625
 20
-469.15250410701009
 10
-116.96670773918345
 20
-469.14968574346449
 42
0.0187079747791881
 10
-115.12808290952891
 20
-468.13712144128175
 42
0.0174547046303348
 10
-113.36796400039468
 20
-466.99470409719851
 42
0.0160557294322195
 10
-111.68883858580429
 20
-465.73731862069263
 10
-111.68613979388229
 20
-465.73515904742698
 42
0.0145620137391233
 10
-110.08168996991999
 20
-464.37278340284792
 10
-110.07676300864469
 20
-464.36834653559498
 42
0.0130394761453461
 10
-108.54017686175413
 20
-462.91027983343378
 10
-108.5339751772257
 20
-462.90407984051461
 42
0.0115316273082375
 10
-107.05864467861413
 20
-461.35950333283876
 10
-107.05192210609439
 20
-461.35213215891025
 42
0.0100670148003662
 10
-105.63143390803098
 20
-459.73017980493154
 10
-105.62476321941213
 20
-459.72224630195586
 42
0.0086611612187424
 10
-104.252873577495
 20
-458.03205779427003
 10
-104.24667495466328
 20
-458.02414472758636
 42
0.0073206204327836
 10
-102.91728075501916
 20
-456.27489896513345
 10
-102.91185334313276
 20
-456.26753613594491
 42
0.0060406252776438
 10
-101.61895247084288
 20
-454.46847926191577
 10
-101.6078282174868
 20
-454.45259861184132
 42
0.0048276927630537
 10
-100.35869033287861
 20
-452.63221338675311
 10
-100.32149533496768
 20
-452.57687074185009
 42
0.0035504484093212
 10
-99.176608308995924
 20
-450.84697979049014
 10
-99.148447606772748
 20
-450.80376616529253
 42
0.0018267236683503
 10
-98.078214232582368
 20
-449.14826258288366
 10
-98.077626976326698
 20
-449.14734685771839
 42
0.0003475598771743
 10
-97.015769161348885
 20
-447.48902655292403
 10
-97.014033086340447
 20
-447.48631114228772
 42
-0.0011306953727447
 10
-95.953066075488437
 20
-445.83508280441555
 10
-95.950203497102947
 20
-445.8306497268872
 42
-0.0026309098240204
 10
-94.882627875032426
 20
-444.19630423738334
 10
-94.878690675953294
 20
-444.19034551807187
 42
-0.0041725520968482
 10
-93.796972407608678
 20
-442.58256210527969
 10
-93.792054161598628
 20
-442.57538210294672
 42
-0.0057732286273167
 10
-92.688607380892677
 20
-441.00372722939818
 10
-92.682863200830113
 20
-440.99574334514386
 42
-0.0074473347622201
 10
-91.550025536647695
 20
-439.46967174438367
 10
-91.402001291277713
 20
-439.27634900914495
 42
-0.0092812600803864
 10
-90.521944627423053
 20
-438.17013453428916
 10
-90.51697344174535
 20
-438.16411851644131
 42
-0.0052352499878242
 10
-89.615136241850323
 20
-437.09571649937669
 42
-0.0119594274359613
 10
-88.67731601177266
 20
-436.05919222228397
 10
-88.516096662297613
 20
-435.88935211560863
 42
-0.0139137497959539
 10
-87.218100930214277
 20
-434.59599925881929
 10
-87.213901931573631
 20
-434.5920419007947
 42
-0.0158491284838393
 10
-85.850066557716076
 20
-433.38597279599497
 10
-85.848582678481876
 20
-433.3847421239085
 42
-0.0177228882753326
 10
-84.410140581797208
 20
-432.27537914674275
 42
-0.0194340448405702
 10
-82.893504870342184
 20
-431.27598989184963
 10
-82.890747513074388
 20
-431.2743228536844
 42
-0.0208843187307706
 10
-81.293091344790213
 20
-430.39733156702715
 10
-81.284294741780599
 20
-430.39297051871398
 42
-0.0219265902673209
 10
-79.599710456815231
 20
-429.64792808769647
 10
-79.377166944493226
 20
-429.56095517600539
 42
-0.0224528808429763
 10
-78.018803136193426
 20
-429.09922531821957
 42
-0.0113506507285263
 10
-76.631312165150405
 20
-428.73002649804243
 10
-76.606431506635843
 20
-428.72400724024254
 42
-0.0222823667472357
 10
-75.148102378896468
 20
-428.43929414665268
 10
-75.132803882357919
 20
-428.43700938496812
 42
-0.0110223186856345
 10
-73.626970919735584
 20
-428.24594867584301
 10
-73.589689719034439
 20
-428.24205127457179
 42
-0.0210926736811281
 10
-72.000920512281127
 20
-428.14344795060538
 10
-71.722146973311112
 20
-428.1379263647629
 42
-0.0049456474683907
 10
-71.169599428592676
 20
-428.13244920908772
 42
-0.0049456474683907
  0
LINE
  5
188
100
AcDbEntity
  8
ADF70-2302
370
              15
390
0
  6
STYLE_05
 62
               7
100
AcDbLine
 10
-290.36001272302275
 20
-402.02792274565917
 30
0.0
 11
-250.36001272302278
 21
-402.02792274565917
 31
0.0
  0
LINE
  5
189
100
AcDbEntity
  8
ADF70-2302
370
              15
390
0
  6
STYLE_05
 62
               7
100
AcDbLine
 10
-270.36001272302275
 20
-422.02792274565917
 30
0.0
 11
-270.36001272302275
 21
-382.02792274565917
 31
0.0
  0
CIRCLE
  5
18A
100
AcDbEntity
  8
ADF70-2302
370
              15
390
0
  6
STYLE_05
 62
               7
100
AcDbCircle
 10
-270.36001272302275
 20
-402.02792274565917
 30
0.0
 40
10.0
  0
LINE
  5
18B
100
AcDbEntity
  8
ADF70-2302
370
              15
390
0
  6
STYLE_05
 62
               7
100
AcDbLine
 10
-570.36001272302212
 20
-402.02792274565917
 30
0.0
 11
-530.36001272302292
 21
-402.02792274565917
 31
0.0
  0
LINE
  5
18C
100
AcDbEntity
  8
ADF70-2302
370
              15
390
0
  6
STYLE_05
 62
               7
100
AcDbLine
 10
-550.36001272302246
 20
-422.02792274565917
 30
0.0
 11
-550.36001272302246
 21
-382.02792274565917
 31
0.0
  0
CIRCLE
  5
18D
100
AcDbEntity
  8
ADF70-2302
370
              15
390
0
  6
STYLE_05
 62
               7
100
AcDbCircle
 10
-550.36001272302246
 20
-402.02792274565917
 30
0.0
 40
9.9999999999997726
  0
LINE
  5
18E
100
AcDbEntity
  8
ADF70-2302
370
              15
390
0
  6
Continuous
 62
               7
100
AcDbLine
 10
-443.19062590002102
 20
-572.02792274565923
 30
0.0
 11
-433.1791492306096
 21
-572.02792274565923
 31
0.0
  0
LINE
  5
18F
100
AcDbEntity
  8
ADF70-2302
370
              15
390
0
  6
STYLE_12
 62
               7
100
AcDbLine
 10
-442.02723246110179
 20
-530.48691527570622
 30
0.0
 11
-433.84992092287246
 21
-537.34849437145454
 31
0.0
  0
ARC
  5
190
100
AcDbEntity
  8
ADF70-2302
370
              15
390
0
  6
STYLE_12
 62
               7
100
AcDbCircle
 10
-451.66904660639955
 20
-541.97758192249307
 30
0.0
 40
15.000000000000373
100
AcDbArc
 50
50.00000000004367
 51
84.689170073992969
  0
LINE
  5
191
100
AcDbEntity
  8
ADF70-2302
370
              15
390
0
  6
Continuous
 62
               7
100
AcDbLine
 10
-433.17914923060778
 20
-572.02792274565923
 30
0.0
 11
-387.17914923060778
 21
-572.02792274565923
 31
0.0
  0
LINE
  5
192
100
AcDbEntity
  8
ADF70-2302
370
              15
390
0
  6
STYLE_12
 62
               7
100
AcDbLine
 10
-386.50834188075203
 20
-537.3484644511816
 30
0.0
 11
-433.84995658046353
 21
-537.3484644511816
 31
0.0
  0
LINE
  5
193
100
AcDbEntity
  8
ADF70-2302
370
              15
390
0
  6
STYLE_12
 62
               7
100
AcDbLine
 10
-447.34125282813727
 20
-527.02792274566013
 30
0.0
 11
-373.01707601492518
 21
-527.02792274566013
 31
0.0
  0
LINE
  5
194
100
AcDbEntity
  8
ADF70-2302
370
              15
390
0
  6
Continuous
 62
               7
100
AcDbLine
 10
-387.1791492306096
 20
-572.02792274565923
 30
0.0
 11
-377.16770294304143
 21
-572.02792274565923
 31
0.0
  0
ARC
  5
195
100
AcDbEntity
  8
ADF70-2302
370
              15
390
0
  6
Continuous
 62
               7
100
AcDbCircle
 10
-377.16773332488657
 20
-569.02792274565923
 30
0.0
 40
3.0
100
AcDbArc
 50
269.99999999979156
 51
354.99999999960778
  0
LINE
  5
196
100
AcDbEntity
  8
ADF70-2302
370
              15
390
0
  6
Continuous
 62
               7
100
AcDbLine
 10
-374.17914923061318
 20
-569.28938997392265
 30
0.0
 11
-371.88984308344362
 21
-553.06636210849388
 31
0.0
  0
LINE
  5
197
100
AcDbEntity
  8
ADF70-2302
370
              15
390
0
  6
STYLE_12
 62
               7
100
AcDbLine
 10
-387.00560887072459
 20
-572.02792274565923
 30
0.0
 11
-386.50837226259716
 21
-537.34846445117978
 31
0.0
  0
LINE
  5
198
100
AcDbEntity
  8
ADF70-2302
370
              15
390
0
  6
STYLE_12
 62
               7
100
AcDbLine
 10
-378.33109638196254
 20
-530.4869152757044
 30
0.0
 11
-386.50837226259716
 21
-537.34846445117978
 31
0.0
  0
LINE
  5
199
100
AcDbEntity
  8
ADF70-2302
370
              15
390
0
  6
STYLE_12
 62
               7
100
AcDbLine
 10
-457.16328960646604
 20
-526.40217964353974
 30
0.0
 11
-450.28066467312271
 21
-527.04197361190268
 31
0.0
  0
LINE
  5
19A
100
AcDbEntity
  8
ADF70-2302
370
              15
390
0
  6
STYLE_12
 62
               7
100
AcDbLine
 10
-433.35265920865038
 20
-572.02792274565923
 30
0.0
 11
-433.95959726131537
 21
-537.2564649963183
 31
0.0
  0
LINE
  5
19B
100
AcDbEntity
  8
ADF70-2302
370
              15
390
0
  6
STYLE_12
 62
               7
100
AcDbLine
 10
-369.21274430535618
 20
-527.02792274566013
 30
0.0
 11
-356.11489628852189
 21
-526.57053581422656
 31
0.0
  0
ARC
  5
19C
100
AcDbEntity
  8
ADF70-2302
370
              15
390
0
  6
STYLE_12
 62
               7
100
AcDbCircle
 10
-368.68925185482135
 20
-541.97758192249307
 30
0.0
 40
15.000000000000004
100
AcDbArc
 50
92.000000000003652
 51
129.99999999992087
  0
ARC
  5
19D
100
AcDbEntity
  8
ADF70-2302
370
              15
390
0
  6
Continuous
 62
               7
100
AcDbCircle
 10
-361.92789610252674
 20
-553.93791953596951
 30
0.0
 40
10.000000000000281
100
AcDbArc
 50
168.98886993451907
 51
174.99999999981731
  0
ARC
  5
19E
100
AcDbEntity
  8
ADF70-2302
370
              15
390
0
  6
Continuous
 62
               7
100
AcDbCircle
 10
-443.19056513632893
 20
-569.02792274565923
 30
0.0
 40
2.9999999999999449
100
AcDbArc
 50
185.00000000039219
 51
270.00000000020844
  0
LINE
  5
19F
100
AcDbEntity
  8
ADF70-2302
370
              15
390
0
  6
Continuous
 62
               7
100
AcDbLine
 10
-446.17914923060232
 20
-569.28938997392265
 30
0.0
 11
-448.46845537777187
 21
-553.06636210849388
 31
0.0
  0
ARC
  5
1A0
100
AcDbEntity
  8
ADF70-2302
370
              15
390
0
  6
Continuous
 62
               7
100
AcDbCircle
 10
-458.43040235868864
 20
-553.93791953596951
 30
0.0
 40
10.00000000000027
100
AcDbArc
 50
5.00000000018274
 51
11.01113006548106
  0
LWPOLYLINE
  5
1A1
100
AcDbEntity
  8
ADF70-2302
370
              15
390
0
  6
STYLE_12
 62
               7
100
AcDbPolyline
 90
       74
 70
             128
 10
-90.054266415156107
 20
-357.03101095094945
 10
-90.044412667703611
 20
-357.03099379664832
 42
0.0078423502019067
 10
-89.743719392104921
 20
-357.025753605288
 42
0.0099009868593422
 10
-89.443423269982588
 20
-357.00984980100202
 10
-89.433259740910088
 20
-357.00910948225447
 42
0.0109655751286159
 10
-89.113601137398163
 20
-356.97876551663336
 10
-89.073677945414843
 20
-356.97409044846722
 42
0.0121247546246987
 10
-88.835334780487628
 20
-356.94030357966204
 42
0.0064084964339809
 10
-88.598357139996182
 20
-356.89769869080368
 10
-88.588541385680728
 20
-356.89580379084788
 42
0.0156484648639262
 10
-88.334274954561948
 20
-356.83841192884864
 10
-88.288431305814825
 20
-356.82654534368072
 42
0.0150177456985338
 10
-87.973860133163598
 20
-356.73495622695265
 10
-87.941800524406858
 20
-356.72456788676215
 42
0.0164327164119701
 10
-87.697003257713604
 20
-356.636257478049
 10
-87.656962324336604
 20
-356.62030726724055
 42
0.0096672542996944
 10
-87.496456451305093
 20
-356.55274614667775
 42
0.0085785182270317
 10
-87.338515946536432
 20
-356.47937144345485
 10
-87.313861704420432
 20
-356.46739932024167
 42
0.0154495816156873
 10
-87.111156875533837
 20
-356.36110547520099
 10
-87.081511556107088
 20
-356.34437272076485
 42
0.0149177471106564
 10
-86.827385252011268
 20
-356.19076479034823
 10
-86.807882556568401
 20
-356.17816704428998
 42
0.0185558865469419
 10
-86.526696922539358
 20
-355.98137745522473
 10
-86.508182340387407
 20
-355.96736816092778
 42
0.012603840930854
 10
-86.276052757377641
 20
-355.78234228709567
 42
0.0112136808272152
 10
-86.052981652728349
 20
-355.58646050937944
 10
-86.049368832445722
 20
-355.5831416370911
 42
0.0098207460969244
 10
-85.835574087924073
 20
-355.37885573881277
 10
-85.831746352408899
 20
-355.37505165641289
 42
0.0072136053229603
 10
-85.63255966091387
 20
-355.17130041218371
 10
-85.628799447569762
 20
-355.16734134753722
 42
0.0052790822972835
 10
-85.442191740473248
 20
-354.96666408490552
 10
-85.438854436095156
 20
-354.96299829962442
 42
0.0031054747663553
 10
-85.262260102192471
 20
-354.76658548868346
 10
-85.260203941711694
 20
-354.76426980584495
 42
0.0012601372897069
 10
-85.089429042308296
 20
-354.57096113119115
 10
-85.082160957614576
 20
-354.56269211386456
 42
-0.0005408236592574
 10
-84.926217932690946
 20
-354.38565974896807
 10
-84.920979691513992
 20
-354.37972605338894
 42
-0.0018078788393038
 10
-84.774726985809451
 20
-354.21525857113767
 42
-0.0029476729358456
 10
-84.626918257257557
 20
-354.05219129610504
 10
-84.606046287463272
 20
-354.02943572787905
 42
-0.0072477798283742
 10
-84.412561944754501
 20
-353.82453351871385
 10
-84.391063237621537
 20
-353.8024173086431
 42
-0.0074862880181887
 10
-84.200948759058377
 20
-353.61261253075742
 42
-0.0091127169922017
 10
-84.004649793747333
 20
-353.42923234684832
 10
-84.003788718683467
 20
-353.42845684028481
 42
-0.0106155273965637
 10
-83.798666868270402
 20
-353.25145901825755
 10
-83.797805435944923
 20
-353.25074703225329
 42
-0.0117238477873276
 10
-83.583238431233923
 20
-353.08171247569572
 10
-83.567391405952861
 20
-353.06981962895458
 42
-0.0168482557095803
 10
-83.311127863343216
 20
-352.890668811637
 10
-83.294510477622055
 20
-352.87986644224816
 42
-0.0148274169778762
 10
-83.041332196820662
 20
-352.72576523547474
 42
-0.0153682070678651
 10
-82.779323944265997
 20
-352.58722873620906
 10
-82.745231548364558
 20
-352.57052213196056
 42
-0.016377721985398
 10
-82.530408499141998
 20
-352.47384125217178
 42
-0.0081079711275627
 10
-82.311021740912736
 20
-352.38775668156342
 10
-82.309124180652219
 20
-352.38704738930147
 42
-0.0154844856964909
 10
-82.082163719845951
 20
-352.31013244875504
 10
-82.017730259879599
 20
-352.29049853171699
 42
-0.0124005962250855
 10
-81.810459688192026
 20
-352.23291641886709
 42
-0.0070936880037861
 10
-81.601058910287719
 20
-352.18344665103922
 10
-81.588599483305956
 20
-352.18068919884632
 42
-0.0132331583855318
 10
-81.352366649431758
 20
-352.13492883177776
 10
-81.312740583483759
 20
-352.12833566325168
 42
-0.0120676078215792
 10
-80.994893521257239
 20
-352.08330721372437
 42
-0.0109643592388865
 10
-80.675245516065246
 20
-352.05295515372796
 10
-80.665079787077858
 20
-352.05221436153084
 42
-0.0098886550246257
 10
-80.364798193428967
 20
-352.03629467189768
 10
-80.35464901960998
 20
-352.03595770096746
 42
-0.0078090663762783
 10
-80.074273935774571
 20
-352.03103049848625
 10
-80.054266415159717
 20
-352.03101095095309
  0
LINE
  5
1A2
100
AcDbEntity
  8
ADF70-2302
370
              15
390
0
  6
STYLE_12
 62
               7
100
AcDbLine
 10
-90.054266582366708
 20
-357.03101095094945
 30
0.0
 11
-116.04397924463949
 21
-357.03101095094945
 31
0.0
  0
ARC
  5
1A3
100
AcDbEntity
  8
ADF70-2302
370
              15
390
0
  6
STYLE_12
 62
               7
100
AcDbCircle
 10
-116.04397924460311
 20
-367.03101095094945
 30
0.0
 40
10.0
100
AcDbArc
 50
90.000000000208445
 51
171.57260983545558
  0
LWPOLYLINE
  5
1A4
100
AcDbEntity
  8
ADF70-2302
370
              15
390
0
  6
STYLE_12
 62
               7
100
AcDbPolyline
 90
       74
 70
             128
 10
-730.30403204605761
 20
-357.03101095094945
 10
-730.31388579350858
 20
-357.03099379664832
 42
-0.007842350202028
 10
-730.6145790691088
 20
-357.025753605288
 42
-0.0099009868594039
 10
-730.91487519123029
 20
-357.00984980100208
 10
-730.92503872030363
 20
-357.00910948225447
 42
-0.0109644841784123
 10
-731.24469732381556
 20
-356.97876551663336
 10
-731.2846205157997
 20
-356.97409044846717
 42
-0.012124754624595
 10
-731.52296368072609
 20
-356.94030357966204
 42
-0.0064084964338705
 10
-731.75994132121605
 20
-356.89769869080396
 10
-731.76975707553299
 20
-356.89580379084788
 42
-0.0156484648640287
 10
-732.02402350665193
 20
-356.83841192884859
 10
-732.06986715539915
 20
-356.82654534368066
 42
-0.0150177456985329
 10
-732.38443832805012
 20
-356.73495622695265
 10
-732.4164979368071
 20
-356.72456788676209
 42
-0.016432716411727
 10
-732.66129520350012
 20
-356.636257478049
 10
-732.70133613687631
 20
-356.62030726724089
 42
-0.0096672542996341
 10
-732.86184200990863
 20
-356.55274614667775
 42
-0.0085785182271272
 10
-733.01978251467369
 20
-356.47937144345661
 10
-733.04443675679329
 20
-356.46739932024167
 42
-0.0154495816156653
 10
-733.24714158568418
 20
-356.36110547519854
 10
-733.27678690510663
 20
-356.34437272076485
 42
-0.0149177471107877
 10
-733.53091320920248
 20
-356.19076479034823
 10
-733.55041590464532
 20
-356.17816704428998
 42
-0.0185631313951555
 10
-733.83160153867436
 20
-355.98137745522473
 10
-733.85011612082883
 20
-355.9673681609259
 42
-0.0126038409306414
 10
-734.08224570383607
 20
-355.78234228709567
 42
-0.0112136808273186
 10
-734.30531680848708
 20
-355.58646050937784
 10
-734.30892962876555
 20
-355.58314163709332
 42
-0.009820746097034
 10
-734.52272437328963
 20
-355.37885573881277
 10
-734.52655210880596
 20
-355.37505165641176
 42
-0.0072136053229892
 10
-734.72573880029984
 20
-355.17130041218371
 10
-734.7294990136445
 20
-355.16734134753671
 42
-0.0052790822971889
 10
-734.91610672074046
 20
-354.96666408490552
 10
-734.91944402511763
 20
-354.9629982996255
 42
-0.0031054747661028
 10
-735.09603835902124
 20
-354.76658548868346
 10
-735.0980945195173
 20
-354.76426980582767
 42
-0.0012601372897069
 10
-735.26886941890541
 20
-354.57096113119115
 10
-735.27613750360854
 20
-354.56269211385387
 42
0.0005408236592702
 10
-735.43208052852276
 20
-354.38565974896807
 10
-735.43731876970071
 20
-354.3797260533878
 42
0.0018078788396569
 10
-735.58357147540426
 20
-354.21525857113767
 42
0.0029476729360528
 10
-735.73138020395527
 20
-354.052191296106
 10
-735.75225217375043
 20
-354.02943572787905
 42
0.0072477798285657
 10
-735.9457365164659
 20
-353.82453351870697
 10
-735.96723522358855
 20
-353.80241730864685
 42
0.0074862880180497
 10
-736.15734970215533
 20
-353.61261253075742
 42
0.009112716992124
 10
-736.35364866746534
 20
-353.42923234684923
 10
-736.35450974253024
 20
-353.42845684028481
 42
0.0106155273965146
 10
-736.55963159294379
 20
-353.25145901825715
 10
-736.56049302526878
 20
-353.25074703225329
 42
0.0117238477875669
 10
-736.77506002998234
 20
-353.08171247569385
 10
-736.79090705526085
 20
-353.06981962895458
 42
0.0168482557093873
 10
-737.04717059786799
 20
-352.89066881163865
 10
-737.06378798359151
 20
-352.87986644224827
 42
0.0148274169779221
 10
-737.31696626439305
 20
-352.72576523547474
 42
0.0153682070679252
 10
-737.57897451694862
 20
-352.5872287362086
 10
-737.61306691284835
 20
-352.57052213196101
 42
0.0163777219853964
 10
-737.82788996207171
 20
-352.47384125217178
 42
0.0081079711278246
 10
-738.04727672030413
 20
-352.38775668156222
 10
-738.04917428056149
 20
-352.38704738930147
 42
0.0154844856962545
 10
-738.27613474136683
 20
-352.31013244875533
 10
-738.34056820133299
 20
-352.29049853171733
 42
0.0124005962250787
 10
-738.54783877302168
 20
-352.23291641886709
 42
0.007093688003749
 10
-738.7572395509311
 20
-352.18344665103808
 10
-738.76969897790775
 20
-352.18068919884632
 42
0.0132331583857396
 10
-739.00593181178317
 20
-352.13492883177753
 10
-739.04555787772995
 20
-352.12833566325168
 42
0.0120724389295828
 10
-739.36340493995647
 20
-352.08330721372437
 42
0.0109632987689456
 10
-739.68305294514846
 20
-352.05295515372796
 10
-739.69321867413532
 20
-352.0522143615309
 42
0.0098886550246137
 10
-739.99350026778473
 20
-352.03629467189768
 10
-740.00364944160435
 20
-352.03595770096746
 42
0.0078090663763183
 10
-740.28402452543912
 20
-352.03103049848625
 10
-740.30403204605398
 20
-352.03101095095309
  0
LINE
  5
1A5
100
AcDbEntity
  8
ADF70-2302
370
              15
390
0
  6
STYLE_12
 62
               7
100
AcDbLine
 10
-730.30403187884701
 20
-357.03101095094945
 30
0.0
 11
-704.31431921657429
 21
-357.03101095094945
 31
0.0
  0
ARC
  5
1A6
100
AcDbEntity
  8
ADF70-2302
370
              15
390
0
  6
STYLE_12
 62
               7
100
AcDbCircle
 10
-704.31431921661067
 20
-367.03101095094945
 30
0.0
 40
9.9999999999997744
100
AcDbArc
 50
8.4273901645444464
 51
89.999999999791584
  0
LWPOLYLINE
  5
1A7
100
AcDbEntity
  8
ADF70-2302
370
              15
390
0
  6
STYLE_12
 62
               7
100
AcDbPolyline
 90
       65
 70
             128
 10
-356.11489628852189
 20
-526.57053581422656
 42
0.002724788291492
 10
-353.38777786140179
 20
-526.49094088499237
 10
-352.70364707093358
 20
-526.4672415096378
 42
0.0053431562372189
 10
-348.61068421140618
 20
-526.28164614982632
 10
-346.54642750233592
 20
-526.16592645206288
 42
0.0101918862906299
 10
-338.33973848628909
 20
-525.53785110708736
 10
-336.95506037762277
 20
-525.40344115082894
 42
0.0096823120162082
 10
-326.01653129877087
 20
-524.12740486999485
 10
-325.99472690552409
 20
-524.12443228505686
 42
0.0092568610434332
 10
-315.06870551376238
 20
-522.42831181340512
 10
-315.05751453067529
 20
-522.42636175164603
 42
0.0089032456802216
 10
-304.17804115851715
 20
-520.3303367394567
 10
-304.16578130571082
 20
-520.32774755868377
 42
0.0086197732082382
 10
-293.39094378346618
 20
-517.85742803526614
 10
-293.36620669831683
 20
-517.85130593983922
 42
0.008404562344143
 10
-282.73088291556547
 20
-515.02868038088479
 10
-282.69342123045072
 20
-515.0180608910299
 42
0.0082573939493062
 10
-272.23254373117908
 20
-511.86512024613228
 10
-272.18228099704004
 20
-511.8490608255629
 42
0.0081789898135697
 10
-261.9306263309166
 20
-508.38776049124158
 10
-261.86760699737573
 20
-508.36532822398897
 42
0.0081719754001865
 10
-251.859871312591
 20
-504.61760798354334
 10
-251.7844424541415
 20
-504.58794676629668
 42
0.0082383797354993
 10
-242.05493526056361
 20
-500.57565046585904
 10
-241.96730115493889
 20
-500.5378103782146
 42
0.0083882190857253
 10
-232.55056386348778
 20
-496.28288219458818
 10
-232.45138101122029
 20
-496.23604757979314
 42
0.0086260105762016
 10
-223.38161816911122
 20
-491.76031481422922
 10
-223.27169961811265
 20
-491.70369383805445
 42
0.0089646680056225
 10
-214.58281736548304
 20
-487.02892123056569
 10
-214.46311545340561
 20
-486.96172488437105
 42
0.0094193130933967
 10
-206.18887372671847
 20
-482.10965738112571
 10
-206.06065484257874
 20
-482.03118638429686
 42
0.0100095120812372
 10
-198.23452463056842
 20
-477.02348450846
 10
-197.24658742953235
 20
-476.36309396243894
 42
0.0107961855983976
 10
-191.58223476376415
 20
-472.39716492748971
 42
0.0061283294722153
 10
-186.05446653654718
 20
-468.24116031523664
 10
-185.88816935410645
 20
-468.11291102649284
 42
0.0136924232882593
 10
-180.20572461597612
 20
-463.47701126475999
 10
-179.2007834356514
 20
-462.61025834671
 42
0.0143877719780274
 10
-172.33092023385655
 20
-456.33147360696046
 10
-172.23132628507651
 20
-456.23504563868261
 42
0.014886454358132
 10
-165.93407247951734
 20
-449.76386273391159
 10
-165.86151840260143
 20
-449.6847222424251
 42
0.0151741778632423
 10
-160.104708817447
 20
-443.00954125792941
 10
-160.05645675599527
 20
-442.95003235483972
 42
0.0152102080306986
 10
-154.80844204584074
 20
-436.05943550033862
 10
-154.78109547845878
 20
-436.02116882170043
 42
0.0149829307098318
 10
-150.01074397250198
 20
-428.90444180116828
 10
-150.00063455181044
 20
-428.88833675194962
 42
0.0144976077557544
 10
-145.6770519695321
 20
-421.53545047721451
 42
0.0137788498344718
 10
-141.77579978330857
 20
-413.94964468790363
 10
-141.77274930921061
 20
-413.94328843877469
 42
0.0128656346330367
 10
-138.27511899959487
 20
-406.1472268331309
 10
-138.26320229481388
 20
-406.11872328961198
 42
0.0118052011937638
 10
-135.13168600330923
 20
-398.10169456508044
 10
-135.1137857182832
 20
-398.05246931272308
 42
0.0106466229263389
 10
-132.31145061440478
 20
-389.80336584352307
 10
-132.28990071708174
 20
-389.73519827051678
 42
0.0094353970470524
 10
-129.78040996295647
 20
-381.24272178085425
 10
-129.47157925038206
 20
-380.12006508026963
 42
0.0081556055136336
 10
-127.7550035550066
 20
-373.45687896871817
 10
-127.49340810390245
 20
-372.36825294168005
 42
0.0036117319750658
 10
-126.4413767444166
 20
-367.84671818358811
 42
0.0016851155835236
 10
-125.93599911036833
 20
-365.5654247282867
 42
0.0016851155835236
  0
LWPOLYLINE
  5
1A8
100
AcDbEntity
  8
ADF70-2302
370
              15
390
0
  6
STYLE_12
 62
               7
100
AcDbPolyline
 90
       65
 70
             128
 10
-464.24340217269366
 20
-526.57053581422656
 42
-0.0027247882915098
 10
-466.97052059984185
 20
-526.49094088499135
 10
-467.65465139028197
 20
-526.4672415096378
 42
-0.0053431562372124
 10
-471.74761424980221
 20
-526.28164614982677
 10
-473.81187095887964
 20
-526.16592645206288
 42
-0.0101918862906313
 10
-482.01855997492692
 20
-525.53785110708725
 10
-483.40323808359278
 20
-525.40344115082894
 42
-0.0096823120162075
 10
-494.34176716244309
 20
-524.12740486999508
 10
-494.36357155569146
 20
-524.12443228505686
 42
-0.009256861043434
 10
-505.28959294745613
 20
-522.42831181340455
 10
-505.30078393054026
 20
-522.42636175164603
 42
-0.0089035718265116
 10
-516.18025730269824
 20
-520.3303367394567
 10
-516.19251715550263
 20
-520.32774755868422
 42
-0.0086197732082374
 10
-526.96735467774897
 20
-517.85742803526614
 10
-526.99209176289833
 20
-517.85130593983922
 42
-0.0084045623441446
 10
-537.62741554564946
 20
-515.02868038088479
 10
-537.66487723076443
 20
-515.0180608910299
 42
-0.0082573939492986
 10
-548.12575473003562
 20
-511.86512024613228
 10
-548.17601746417301
 20
-511.84906082556347
 42
-0.0081789898135791
 10
-558.42767213029799
 20
-508.38776049124158
 10
-558.49069146383681
 20
-508.36532822398971
 42
-0.0081719754001814
 10
-568.49842714862336
 20
-504.61760798354334
 10
-568.57385600707323
 20
-504.58794676629651
 42
-0.008238379735495
 10
-578.30336320065067
 20
-500.57565046585904
 10
-578.39099730627993
 20
-500.53781037821267
 42
-0.0083882190857146
 10
-587.80773459772638
 20
-496.28288219458818
 10
-587.90691744999265
 20
-496.23604757979376
 42
-0.0086260105762016
 10
-596.97668029210297
 20
-491.76031481422922
 10
-597.08659884310578
 20
-491.70369383805229
 42
-0.0089646680056202
 10
-605.77548109573115
 20
-487.02892123056569
 10
-605.89518300780389
 20
-486.96172488437367
 42
-0.0094193130934114
 10
-614.16942473449569
 20
-482.10965738112571
 10
-614.29764361863693
 20
-482.03118638429595
 42
-0.0100095120812345
 10
-622.12377383064575
 20
-477.02348450846
 10
-623.1117110316834
 20
-476.3630939624378
 42
-0.0107961855984124
 10
-628.77606369745001
 20
-472.39716492748971
 42
-0.0061283294722176
 10
-634.30383192466138
 20
-468.24116031524096
 10
-634.47012910710771
 20
-468.11291102649284
 42
-0.0136924232882522
 10
-640.15257384523886
 20
-463.47701126475937
 10
-641.15751502556134
 20
-462.61025834671119
 42
-0.0143877719780337
 10
-648.02737822735764
 20
-456.33147360696046
 10
-648.1269721761347
 20
-456.23504563868551
 42
-0.0148864543581404
 10
-654.42422598169685
 20
-449.76386273391159
 10
-654.49678005861563
 20
-449.68472224242197
 42
-0.015174177863246
 10
-660.2535896437671
 20
-443.00954125792941
 10
-660.30184170521716
 20
-442.95003235484177
 42
-0.0152102080307013
 10
-665.54985641537337
 20
-436.05943550033862
 10
-665.57720298275603
 20
-436.0211688216994
 42
-0.014982930709823
 10
-670.34755448871215
 20
-428.90444180116828
 10
-670.3576639094025
 20
-428.88833675195161
 42
-0.0144976077557525
 10
-674.68124649168203
 20
-421.53545047721451
 42
-0.0137788498344753
 10
-678.58249867790505
 20
-413.94964468790465
 10
-678.58554915200352
 20
-413.94328843877469
 42
-0.0128656346330373
 10
-682.0831794616189
 20
-406.14722683313187
 10
-682.09509616640025
 20
-406.11872328961198
 42
-0.0118052011937738
 10
-685.22661245790437
 20
-398.10169456508197
 10
-685.24451274293097
 20
-398.05246931272308
 42
-0.0106466229263383
 10
-688.04684784680978
 20
-389.8033658435217
 10
-688.06839774413243
 20
-389.73519827051678
 42
-0.0094353970470473
 10
-690.57788849825886
 20
-381.24272178085016
 10
-690.88671921083085
 20
-380.12006508027429
 42
-0.0081556055136404
 10
-692.60329490620757
 20
-373.45687896871817
 10
-692.86489035730972
 20
-372.36825294168835
 42
-0.0036117319750754
 10
-693.91692171679756
 20
-367.84671818358811
 42
-0.0016862740214361
 10
-694.42229935084583
 20
-365.5654247282867
 42
-0.0016862740214361
  0
ARC
  5
1A9
100
AcDbEntity
  8
ADF70-2302
370
              15
390
0
  6
Continuous
 62
               7
100
AcDbCircle
 10
792.15672350210536
 20
-505.02792274566013
 30
0.0
 40
2.0
100
AcDbArc
 50
270.00000000020844
 51
359.99999320597533
  0
LINE
  5
1AA
100
AcDbEntity
  8
ADF70-2302
370
              15
390
0
  6
Continuous
 62
               7
100
AcDbLine
 10
589.61705977438089
 20
-572.02792274565923
 30
0.0
 11
579.60558310496947
 21
-572.02792274565923
 31
0.0
  0
LINE
  5
1AB
100
AcDbEntity
  8
ADF70-2302
370
              15
390
0
  6
STYLE_12
 62
               7
100
AcDbLine
 10
588.45366633546166
 20
-530.48691527570622
 30
0.0
 11
580.27635479723233
 21
-537.34849437145454
 31
0.0
  0
ARC
  5
1AC
100
AcDbEntity
  8
ADF70-2302
370
              15
390
0
  6
STYLE_12
 62
               7
100
AcDbCircle
 10
598.09548048075942
 20
-541.97758192249307
 30
0.0
 40
15.000000000000069
100
AcDbArc
 50
95.310829926007031
 51
129.99999999995634
  0
LINE
  5
1AD
100
AcDbEntity
  8
ADF70-2302
370
              15
390
0
  6
Continuous
 62
               7
100
AcDbLine
 10
579.60558310496765
 20
-572.02792274565923
 30
0.0
 11
533.60558310496765
 21
-572.02792274565923
 31
0.0
  0
LINE
  5
1AE
100
AcDbEntity
  8
ADF70-2302
370
              15
390
0
  6
STYLE_12
 62
               7
100
AcDbLine
 10
580.2763904548234
 20
-537.3484644511816
 30
0.0
 11
532.9347757551119
 21
-537.3484644511816
 31
0.0
  0
LINE
  5
1AF
100
AcDbEntity
  8
ADF70-2302
370
              15
390
0
  6
STYLE_12
 62
               7
100
AcDbLine
 10
593.76768670249714
 20
-527.02792274566013
 30
0.0
 11
519.44350988928511
 21
-527.02792274566013
 31
0.0
  0
LINE
  5
1B0
100
AcDbEntity
  8
ADF70-2302
370
              15
390
0
  6
Continuous
 62
               7
100
AcDbLine
 10
533.60558310496947
 20
-572.02792274565923
 30
0.0
 11
523.59413681740136
 21
-572.02792274565923
 31
0.0
  0
ARC
  5
1B1
100
AcDbEntity
  8
ADF70-2302
370
              15
390
0
  6
Continuous
 62
               7
100
AcDbCircle
 10
523.5941671992465
 20
-569.02792274565923
 30
0.0
 40
2.9999999999999449
100
AcDbArc
 50
185.00000000039219
 51
270.00000000020844
  0
LINE
  5
1B2
100
AcDbEntity
  8
ADF70-2302
370
              15
390
0
  6
Continuous
 62
               7
100
AcDbLine
 10
520.60558310497311
 20
-569.28938997392265
 30
0.0
 11
518.31627695780355
 21
-553.06636210849388
 31
0.0
  0
LINE
  5
1B3
100
AcDbEntity
  8
ADF70-2302
370
              15
390
0
  6
STYLE_12
 62
               7
100
AcDbLine
 10
533.43204274508446
 20
-572.02792274565923
 30
0.0
 11
532.82674347333443
 21
-537.35035069198966
 31
0.0
  0
LINE
  5
1B4
100
AcDbEntity
  8
ADF70-2302
370
              15
390
0
  6
STYLE_12
 62
               7
100
AcDbLine
 10
524.75753025632241
 20
-530.4869152757044
 30
0.0
 11
532.93480613695704
 21
-537.34846445117978
 31
0.0
  0
LINE
  5
1B5
100
AcDbEntity
  8
ADF70-2302
370
              15
390
0
  6
STYLE_12
 62
               7
100
AcDbLine
 10
603.58972348082591
 20
-526.40217964353974
 30
0.0
 11
596.70709854748259
 21
-527.04197361190268
 31
0.0
  0
LINE
  5
1B6
100
AcDbEntity
  8
ADF70-2302
370
              15
390
0
  6
Continuous
 62
               7
100
AcDbLine
 10
592.60552234128465
 20
-569.28938997390264
 30
0.0
 11
592.80331931485728
 21
-567.02856022063293
 31
0.0
  0
LINE
  5
1B7
100
AcDbEntity
  8
ADF70-2302
370
              15
390
0
  6
STYLE_12
 62
               7
100
AcDbLine
 10
579.77909308301025
 20
-572.02792274565923
 30
0.0
 11
580.27635479723233
 21
-537.34849437145454
 31
0.0
  0
ARC
  5
1B8
100
AcDbEntity
  8
ADF70-2302
370
              15
390
0
  6
Continuous
 62
               7
100
AcDbCircle
 10
589.61693824700944
 20
-569.02792274565923
 30
0.0
 40
3.0
100
AcDbArc
 50
270.00000000062533
 51
355.00000000044446
  0
LINE
  5
1B9
100
AcDbEntity
  8
ADF70-2302
370
              15
390
0
  6
Continuous
 62
               7
100
AcDbLine
 10
794.15673369463786
 20
-418.58356704856919
 30
0.0
 11
794.15672350210536
 21
-505.02792298281634
 31
0.0
  0
LINE
  5
1BA
100
AcDbEntity
  8
ADF70-2302
370
              15
390
0
  6
Continuous
 62
               7
100
AcDbLine
 10
794.15673369463786
 20
-426.02792274535091
 30
0.0
 11
794.15673369463786
 21
-355.02792274566013
 31
0.0
  0
LINE
  5
1BB
100
AcDbEntity
  8
ADF70-2302
370
              15
390
0
  6
STYLE_12
 62
               7
100
AcDbLine
 10
515.85077802387787
 20
-527.12008487852165
 30
0.0
 11
502.75293000704369
 21
-526.66269794708808
 31
0.0
  0
ARC
  5
1BC
100
AcDbEntity
  8
ADF70-2302
370
              15
390
0
  6
STYLE_12
 62
               7
100
AcDbCircle
 10
515.11568572918134
 20
-541.97758192249307
 30
0.0
 40
15.000000000000226
100
AcDbArc
 50
50.000000000079481
 51
87.999999999996348
  0
SPLINE
  5
1BD
100
AcDbEntity
  8
ADF70-2302
370
              15
390
0
  6
STYLE_12
 62
               7
100
AcDbSpline
210
0.0
220
0.0
230
1.0
 70
              12
 71
               2
 72
              24
 73
              21
 74
               0
 42
0.000001
 43
0.000001
 40
0.0
 40
0.0
 40
0.0
 40
1.0
 40
1.0
 40
2.0
 40
2.0
 40
3.0
 40
3.0
 40
4.0
 40
4.0
 40
5.0
 40
5.0
 40
6.0
 40
6.0
 40
7.0
 40
7.0
 40
8.0
 40
8.0
 40
9.0
 40
9.0
 40
10.0
 40
10.0
 40
10.0
 10
658.50532621126024
 20
-366.36140413294993
 30
0.0
 41
1.0
 10
658.4058707839215
 20
-367.85286143622534
 30
0.0
 41
0.9999999369395911
 10
658.30747550893568
 20
-369.34438905825061
 30
0.0
 41
1.0
 10
658.30225923024057
 20
-369.42346016973596
 30
0.0
 41
1.0
 10
658.29704295154545
 20
-369.50253128122131
 30
0.0
 41
1.0
 10
658.18821511925864
 20
-371.15220112487259
 30
0.0
 41
0.9999999891547441
 10
658.07987926748956
 20
-372.80190335053459
 30
0.0
 41
1.0
 10
658.06545306141811
 20
-373.02158080610582
 30
0.0
 41
1.0
 10
658.05102685534678
 20
-373.2412582616771
 30
0.0
 41
1.0
 10
657.91383859153518
 20
-375.33031539695975
 30
0.0
 41
0.9999999583483561
 10
657.77543909195083
 20
-377.4192926404404
 30
0.0
 41
1.0
 10
657.77055036315073
 20
-377.49308223681726
 30
0.0
 41
1.0
 10
657.76566163435052
 20
-377.56687183319417
 30
0.0
 41
1.0
 10
657.62808952245609
 20
-379.64336063515361
 30
0.0
 41
0.9999997608896574
 10
657.48764599385333
 20
-381.71965720452295
 30
0.0
 41
1.0
 10
657.48384421209005
 20
-381.77586218962404
 30
0.0
 41
1.0
 10
657.48004243032676
 20
-381.83206717472507
 30
0.0
 41
1.0
 10
657.34720246524626
 20
-383.79595377396254
 30
0.0
 41
0.9999995828943987
 10
657.21077546466188
 20
-385.75959445024387
 30
0.0
 41
1.0
 10
657.20092429127874
 20
-385.90138577220728
 30
0.0
 41
1.0
 10
657.19104764758833
 20
-386.04317545044682
 30
0.0
 41
1.0
  0
LINE
  5
1BE
100
AcDbEntity
  8
ADF70-2302
370
              15
390
0
  6
STYLE_12
 62
               7
100
AcDbLine
 10
771.3546924066419
 20
-357.02792274566013
 30
0.0
 11
741.0725599689091
 21
-357.02792274566104
 31
0.0
  0
LINE
  5
1BF
100
AcDbEntity
  8
ADF70-2302
370
              15
390
0
  6
STYLE_12
 62
               7
100
AcDbLine
 10
706.0725599689091
 20
-357.02792274566195
 30
0.0
 11
668.48308913382482
 21
-357.02792274566195
 31
0.0
  0
LINE
  5
1C0
100
AcDbEntity
  8
ADF70-2302
370
              15
390
0
  6
Continuous
 62
               7
100
AcDbLine
 10
791.15673369463786
 20
-352.02792274566013
 30
0.0
 11
284.36736878628892
 21
-352.02792274564558
 31
0.0
  0
ARC
  5
1C1
100
AcDbEntity
  8
ADF70-2302
370
              15
390
0
  6
STYLE_12
 62
               7
100
AcDbCircle
 10
1127.6294618249456
 20
-359.43538225269162
 30
0.0
 40
354.30203061921014
100
AcDbArc
 50
179.12053650773461
 51
179.2912325861605
  0
ARC
  5
1C2
100
AcDbEntity
  8
ADF70-2302
370
              15
390
0
  6
STYLE_12
 62
               7
100
AcDbCircle
 10
775.36893301125622
 20
-354.02792274566013
 30
0.0
 40
2.0
100
AcDbArc
 50
90.0
 51
179.1205365075262
  0
ARC
  5
1C3
100
AcDbEntity
  8
ADF70-2302
370
              15
390
0
  6
STYLE_12
 62
               7
100
AcDbCircle
 10
771.3546924066419
 20
-355.02792274566013
 30
0.0
 40
2.0
100
AcDbArc
 50
270.00000000020844
 51
359.2912325861605
  0
ARC
  5
1C4
100
AcDbEntity
  8
ADF70-2302
370
              15
390
0
  6
Continuous
 62
               7
100
AcDbCircle
 10
791.15673369463786
 20
-355.02792274566013
 30
0.0
 40
3.0
100
AcDbArc
 50
0.0
 51
89.999999999791555
  0
LINE
  5
1C5
100
AcDbEntity
  8
ADF70-2302
370
              15
390
0
  6
Continuous
 62
               7
100
AcDbLine
 10
792.15672350210536
 20
-507.02792274566053
 30
0.0
 11
667.9918017886439
 21
-507.02792274566053
 31
0.0
  0
LINE
  5
1C6
100
AcDbEntity
  8
ADF70-2302
370
              15
390
0
  6
Continuous
 62
               7
100
AcDbLine
 10
345.10368538397472
 20
-472.02792272279362
 30
0.0
 11
363.39509575882278
 21
-472.02792274480339
 31
0.0
  0
LWPOLYLINE
  5
1C7
100
AcDbEntity
  8
ADF70-2302
370
              15
390
0
  6
Continuous
 62
               7
100
AcDbPolyline
 90
       98
 70
             128
 10
471.04430442047908
 20
-551.96904940593117
 42
-0.0093704871344415
 10
470.91593805854427
 20
-551.94424488862603
 10
470.88479037891886
 20
-551.93761836503404
 42
-0.0194127843827515
 10
470.69644929364716
 20
-551.88983967206548
 10
470.66485810723503
 20
-551.88050659769692
 42
-0.0197359701279351
 10
470.42833638488685
 20
-551.80035567221034
 10
470.42670018145185
 20
-551.79972820073931
 42
-0.0197404900311346
 10
470.20045373314599
 20
-551.70255669532048
 10
470.19959247235585
 20
-551.70214580208221
 42
-0.0194705282800427
 10
469.98333613730404
 20
-551.58843572552269
 10
469.98314840372751
 20
-551.5883274825386
 42
-0.0189363374789046
 10
469.77661267896804
 20
-551.45858458180396
 42
-0.0181774927003604
 10
469.58025504927951
 20
-551.31387587654092
 10
469.57990434127771
 20
-551.31359719377656
 42
-0.0172435483534089
 10
469.39358728576303
 20
-551.1547627392581
 10
469.39282531368065
 20
-551.15406639683033
 42
-0.0161885854808241
 10
469.21604631213773
 20
-550.98168670767325
 10
469.21498429865835
 20
-550.98058183792978
 42
-0.0150640552989259
 10
469.04724999118355
 20
-550.79521264014897
 10
469.04598649373031
 20
-550.7937288121359
 42
-0.0139143014395266
 10
468.88681745380899
 20
-550.59590698378361
 10
468.88543550441602
 20
-550.59408805236785
 42
-0.0127743623767523
 10
468.73436846162781
 20
-550.38433785121913
 10
468.73293488096181
 20
-550.38223618779102
 42
-0.0116697095849688
 10
468.58952288180399
 20
-550.16107485092004
 10
468.58808914726626
 20
-550.15874655183006
 42
-0.0106172082032079
 10
468.45190032584759
 20
-549.92668879196356
 10
468.45050435613541
 20
-549.92419007632816
 42
-0.0096266606385644
 10
468.32111994506067
 20
-549.68175135851118
 10
468.3197882815449
 20
-549.67913610636606
 42
-0.0087024714216375
 10
468.19680034874517
 20
-549.42683481368238
 10
468.19555037379143
 20
-549.4241530591537
 42
-0.0078451660444007
 10
468.07855960479884
 20
-549.16251176034575
 10
468.0774015842436
 20
-549.15980891166441
 42
-0.0070526461878609
 10
467.96601528744964
 20
-548.88935496405873
 10
467.96495413603236
 20
-548.88667153499136
 42
-0.006467458646719
 10
467.85886650232101
 20
-548.60790722264653
 10
467.83110931605836
 20
-548.53203216687757
 42
-0.010683020086078
 10
467.68240991406589
 20
-548.09696797079357
 10
467.65685824123932
 20
-548.0166409429728
 42
-0.0083255575691418
 10
467.47637517435174
 20
-547.41473975856343
 10
467.47388374774675
 20
-547.40589850501146
 42
-0.0063205674547479
 10
467.30633817174322
 20
-546.78119131000369
 10
467.30443649618576
 20
-546.77372478137227
 42
-0.004547258181738
 10
467.14683453040283
 20
-546.13053313496221
 10
467.14544930812838
 20
-546.12464888325462
 42
-0.0029343733832563
 10
466.99478396539979
 20
-545.4673711657789
 10
466.99385572334779
 20
-545.4632097171293
 42
-0.0014459943081435
 10
466.84712002405473
 20
-544.79630051915899
 10
466.82849281630178
 20
-544.71045825546344
 42
0.0000725876733991
 10
466.71882512840159
 20
-544.20541572774414
 10
466.7186804744573
 20
-544.20475003228341
 42
0.0005038621584662
 10
466.60872130033715
 20
-543.70116562508019
 42
0.0021723693577093
 10
466.496069306793
 20
-543.19818147219348
 10
466.45788992398303
 20
-543.03111962611069
 42
0.0037871395158736
 10
466.34093049137175
 20
-542.53661468193741
 10
466.33995967996361
 20
-542.53264458140916
 42
0.0023979004607876
 10
466.21886985062531
 20
-542.04754646042966
 10
466.21824814686715
 20
-542.04510572657114
 42
0.0063020330164561
 10
466.09005004213498
 20
-541.56708568091153
 10
466.08845947521462
 20
-541.56144021937882
 42
0.0037529457914836
 10
465.95393370925524
 20
-541.0973367283741
 10
465.95298117899108
 20
-541.09414048926647
 42
0.0093083242204162
 10
465.80842403965664
 20
-540.64013062915546
 10
465.80609257036821
 20
-540.63325372549707
 42
0.0053815296962169
 10
465.65305355413886
 20
-540.1973362910694
 10
465.65171672911009
 20
-540.19365569908302
 42
0.0130109708278268
 10
465.48566102019697
 20
-539.77106848794301
 10
465.4545784265124
 20
-539.69764024019264
 42
0.0076336200751038
 10
465.33557333910414
 20
-539.42804833327227
 10
465.33442989986821
 20
-539.42556148110123
 42
0.0083377002546514
 10
465.20924772058754
 20
-539.16484787175318
 10
465.20802682115004
 20
-539.16241016330662
 42
0.0091899036573971
 10
465.07631885462581
 20
-538.91108055046038
 10
465.07503587539259
 20
-538.90873807340847
 42
0.0100996101479126
 10
464.93639703338442
 20
-538.66731506836095
 10
464.93507530060327
 20
-538.66511743760816
 42
0.0110631823675258
 10
464.78909113028396
 20
-538.4341208706428
 10
464.78776380132228
 20
-538.4321200189712
 42
0.0120726943705179
 10
464.63400854913846
 20
-538.21206867124852
 10
464.6327204938849
 20
-538.21031688255232
 42
0.0131146608539917
 10
464.47075534762428
 20
-538.00173110045625
 10
464.4695647608562
 20
-538.00027813313591
 42
0.0141688369094459
 10
464.29893662811457
 20
-537.80368342766678
 10
464.29791598638394
 20
-537.80257266468038
 42
0.0152073951871509
 10
464.11815728451222
 20
-537.61850424837235
 10
464.11739316764516
 20
-537.61776799286986
 42
0.0161949310253352
 10
463.92802314066523
 20
-537.44677595368012
 10
463.9276143856942
 20
-537.44643022457899
 42
0.017089709089009
 10
463.72814245913889
 20
-537.28908474795548
 42
0.0178516592939174
 10
463.51812740040862
 20
-537.1460199920275
 42
0.0184219655543481
 10
463.29824956345249
 20
-537.01852004470925
 10
463.29759632444132
 20
-537.01817275119333
 42
0.0187840319339457
 10
463.06752459408079
 20
-536.90672853119077
 10
463.06616912509492
 20
-536.90613372505572
 42
0.0188815080529337
 10
462.82561324420357
 20
-536.81123364838822
 10
462.82475824883352
 20
-536.81093312730468
 42
0.0093152819948868
 10
462.70001345738149
 20
-536.76968118772743
 42
0.0093152819948868
  0
LWPOLYLINE
  5
1C8
100
AcDbEntity
  8
ADF70-2302
370
              15
390
0
  6
Continuous
 62
               7
100
AcDbPolyline
 90
        6
 70
             128
 10
667.9918017886439
 20
-507.02792274566053
 42
-0.0037292022639645
 10
666.64831317458732
 20
-510.4636900095158
 42
-0.0112145019556933
 10
664.70777901149506
 20
-515.01995803470959
 42
-0.0061537654807525
 10
662.61057511352158
 20
-519.50503732397715
 10
662.60850651934527
 20
-519.50932295249163
 42
-0.0103416098438277
 10
660.91604656226025
 20
-522.83803025051986
 42
-0.0103416098438277
  0
LWPOLYLINE
  5
1C9
100
AcDbEntity
  8
ADF70-2302
370
              15
390
0
  6
Continuous
 62
               7
100
AcDbPolyline
 90
        6
 70
             128
 10
636.71181511813097
 20
-551.96904800742243
 42
-0.0002172444564412
 10
636.64263155561059
 20
-552.02012022444455
 42
-0.018683432186782
 10
633.62201686048013
 20
-554.07829803241316
 10
633.1288846269332
 20
-554.38798612516553
 42
-0.0123803331484532
 10
630.45992251818245
 20
-555.97334882746986
 42
-0.0006365361410845
 10
630.32445602151404
 20
-556.04911667722149
 42
-0.0006365361410845
  0
LINE
  5
1CA
100
AcDbEntity
  8
ADF70-2302
370
              15
390
0
  6
Continuous
 62
               7
100
AcDbLine
 10
592.80331931485728
 20
-567.02856022063293
 30
0.0
 11
630.32446630429934
 21
-556.04911094312479
 31
0.0
  0
LINE
  5
1CB
100
AcDbEntity
  8
ADF70-2302
370
              15
390
0
  6
Continuous
 62
               7
100
AcDbLine
 10
660.10098131922098
 20
-546.17844498763475
 30
0.0
 11
660.91604656212712
 21
-522.83803024965528
 31
0.0
  0
ARC
  5
1CC
100
AcDbEntity
  8
ADF70-2302
370
              15
390
0
  6
STYLE_12
 62
               7
100
AcDbCircle
 10
668.48308913382482
 20
-367.02792274566195
 30
0.0
 40
10.0
100
AcDbArc
 50
90.000000000208445
 51
176.1782964483983
  0
ARC
  5
1CD
100
AcDbEntity
  8
ADF70-2302
370
              15
390
0
  6
Continuous
 62
               7
100
AcDbCircle
 10
284.36760125258172
 20
-362.02814311061661
 30
0.0
 40
10.000220367672998
100
AcDbArc
 50
90.001331904394902
 51
182.99867071623953
  0
LINE
  5
1CE
100
AcDbEntity
  8
ADF70-2302
370
              15
390
0
  6
Continuous
 62
               7
100
AcDbLine
 10
274.38108545337548
 20
-362.55151422642916
 30
0.0
 11
276.81825349679877
 21
-409.05545079391118
 31
0.0
  0
LWPOLYLINE
  5
1CF
100
AcDbEntity
  8
ADF70-2302
370
              15
390
0
  6
STYLE_12
 62
               7
100
AcDbPolyline
 90
       74
 70
             128
 10
304.24400901927459
 20
-357.02792274565832
 10
304.23415527182141
 20
-357.02790559135718
 42
-0.0078423502018678
 10
303.9334619962234
 20
-357.02266539999687
 42
-0.0099009868593611
 10
303.63316587410162
 20
-357.00676159571094
 10
303.62300234502857
 20
-357.00602127696334
 42
-0.0109644841784072
 10
303.30334374151664
 20
-356.97567731134222
 10
303.26342054953341
 20
-356.97100224317609
 42
-0.0121247546247451
 10
303.02507738460611
 20
-356.93721537437091
 42
-0.0064084964338434
 10
302.78809974411223
 20
-356.89461048551209
 10
302.77828398979921
 20
-356.89271558555674
 42
-0.0156484648639834
 10
302.52401755868055
 20
-356.83532372355751
 10
302.47817390993163
 20
-356.82345713838913
 42
-0.015017745698593
 10
302.16360273728208
 20
-356.73186802166151
 10
302.1315431285264
 20
-356.72147968147141
 42
-0.0164327164118572
 10
301.88674586183208
 20
-356.63316927275787
 10
301.84670492845663
 20
-356.61721906195004
 42
-0.0096672542996973
 10
301.68619905542357
 20
-356.54965794138661
 42
-0.0085785182269201
 10
301.52825855065453
 20
-356.47628323816355
 10
301.50360430853891
 20
-356.46431111495053
 42
-0.0154495816158236
 10
301.30089947965172
 20
-356.35801726990951
 10
301.27125416022557
 20
-356.34128451547372
 42
-0.0149177471106918
 10
301.01712785612921
 20
-356.18767658505675
 10
300.99762516068688
 20
-356.17507883899884
 42
-0.018563131395163
 10
300.71643952665784
 20
-355.9782892499336
 10
300.69792494450616
 20
-355.96427995563687
 42
-0.0126038409307912
 10
300.46579536149613
 20
-355.77925408180454
 42
-0.0112136808273149
 10
300.24272425684666
 20
-355.58337230408813
 10
300.23911143656426
 20
-355.58005343179997
 42
-0.0098207460969534
 10
300.02531669204257
 20
-355.37576753352164
 10
300.02148895652772
 20
-355.37196345112204
 42
-0.0072136053230315
 10
299.82230226503236
 20
-355.16821220689258
 10
299.8185420516877
 20
-355.16425314224551
 42
-0.0052790822972599
 10
299.63193434459174
 20
-354.96357587961438
 10
299.62859704021469
 20
-354.95991009433442
 42
-0.0031054747662548
 10
299.45200270631096
 20
-354.76349728339233
 10
299.44994654582587
 20
-354.76118160054892
 42
-0.001260137289806
 10
299.27917164642679
 20
-354.56787292590002
 10
299.27190356172366
 20
-354.55960390856274
 42
0.0005408236592445
 10
299.11596053680944
 20
-354.38257154367693
 10
299.11072229563393
 20
-354.37663784809945
 42
0.0018078788394036
 10
298.96446958992794
 20
-354.21217036584653
 42
0.0029476729359468
 10
298.81666086137488
 20
-354.04910309081259
 10
298.79578889158176
 20
-354.02634752258791
 42
0.0072477798283933
 10
298.60230454887261
 20
-353.82144531342232
 10
298.58080584174138
 20
-353.79932910335339
 42
0.007486288018148
 10
298.39069136317687
 20
-353.60952432546628
 42
0.009112716992239
 10
298.19439239786465
 20
-353.42614414155611
 10
298.19353132280196
 20
-353.42536863499367
 42
0.0106155273965754
 10
297.98840947238955
 20
-353.24837081296698
 10
297.98754804006342
 20
-353.24765882696215
 42
0.0117238477873786
 10
297.77298103535139
 20
-353.07862427040385
 10
297.75713401007135
 20
-353.06673142366344
 42
0.0168482557095349
 10
297.50087046746228
 20
-352.88758060634621
 10
297.48425308174052
 20
-352.87677823695702
 42
0.0148274169779961
 10
297.23107480093915
 20
-352.7226770301836
 42
0.0153682070678615
 10
296.96906654838529
 20
-352.58414053091832
 10
296.9349741524822
 20
-352.56743392666903
 42
0.0163777219854481
 10
296.72015110326049
 20
-352.47075304688065
 42
0.0081079711274685
 10
296.50076434503274
 20
-352.38466847627279
 10
296.49886678477071
 20
-352.38395918401034
 42
0.0154844856964797
 10
296.27190632396469
 20
-352.30704424346402
 10
296.20747286399859
 20
-352.28741032642597
 42
0.0124005962250502
 10
296.00020229231052
 20
-352.22982821357596
 42
0.0070936880036961
 10
295.7908015144024
 20
-352.18035844574723
 10
295.77834208742445
 20
-352.17760099355519
 42
0.0132331583855722
 10
295.5421092535509
 20
-352.13184062648673
 10
295.50248318760225
 20
-352.12524745796054
 42
0.0120724389295719
 10
295.18463612537573
 20
-352.08021900843323
 42
0.0109632987689494
 10
294.86498812018374
 20
-352.04986694843683
 10
294.85482239119608
 20
-352.04912615623971
 42
0.0098886550247309
 10
294.55454079754747
 20
-352.03320646660654
 10
294.54439162372904
 20
-352.03286949567638
 42
0.007809066376305
 10
294.26401653989308
 20
-352.02794229319511
 10
294.24400901927822
 20
-352.02792274566195
  0
LINE
  5
1D0
100
AcDbEntity
  8
ADF70-2302
370
              15
390
0
  6
STYLE_12
 62
               7
100
AcDbLine
 10
304.24400918648519
 20
-357.02792274565832
 30
0.0
 11
330.23372184875791
 21
-357.02792274565832
 31
0.0
  0
SPLINE
  5
1D1
100
AcDbEntity
  8
ADF70-2302
370
              15
390
0
  6
Continuous
 62
               7
100
AcDbSpline
210
0.0
220
0.0
230
1.0
 70
              12
 71
               2
 72
              76
 73
              73
 74
               0
 42
0.000001
 43
0.000001
 40
0.0
 40
0.0
 40
0.0
 40
1.0
 40
1.0
 40
2.0
 40
2.0
 40
3.0
 40
3.0
 40
4.0
 40
4.0
 40
5.0
 40
5.0
 40
6.0
 40
6.0
 40
7.0
 40
7.0
 40
8.0
 40
8.0
 40
9.0
 40
9.0
 40
10.0
 40
10.0
 40
11.0
 40
11.0
 40
12.0
 40
12.0
 40
13.0
 40
13.0
 40
14.0
 40
14.0
 40
15.0
 40
15.0
 40
16.0
 40
16.0
 40
17.0
 40
17.0
 40
18.0
 40
18.0
 40
19.0
 40
19.0
 40
20.0
 40
20.0
 40
21.0
 40
21.0
 40
22.0
 40
22.0
 40
23.0
 40
23.0
 40
24.0
 40
24.0
 40
25.0
 40
25.0
 40
26.0
 40
26.0
 40
27.0
 40
27.0
 40
28.0
 40
28.0
 40
29.0
 40
29.0
 40
30.0
 40
30.0
 40
31.0
 40
31.0
 40
32.0
 40
32.0
 40
33.0
 40
33.0
 40
34.0
 40
34.0
 40
35.0
 40
35.0
 40
36.0
 40
36.0
 40
36.0
 10
462.70001345738149
 20
-536.76968118772743
 30
0.0
 41
1.0
 10
462.6383905176948
 20
-536.75056923890179
 30
0.0
 41
0.9999999237250908
 10
462.57678251278514
 20
-536.73140920229321
 30
0.0
 41
1.0
 10
462.1608950509102
 20
-536.60206855887759
 30
0.0
 41
1.0
 10
461.74500758903525
 20
-536.47272791546197
 30
0.0
 41
1.0
 10
460.8516246603798
 20
-536.19488659202329
 30
0.0
 41
0.9999468154452255
 10
459.96416245764243
 20
-535.89867771819002
 30
0.0
 41
1.0
 10
459.01503611050543
 20
-535.58188716018776
 30
0.0
 41
1.0
 10
458.0659097633685
 20
-535.26509660218562
 30
0.0
 41
1.0
 10
455.28019486635685
 20
-534.33530661234772
 30
0.0
 41
0.9997503618032425
 10
452.53879971299602
 20
-533.2819930190816
 30
0.0
 41
1.0
 10
451.81611987029419
 20
-533.00432108223436
 30
0.0
 41
1.0
 10
451.09344002759241
 20
-532.726649145387
 30
0.0
 41
1.0
 10
447.80365639246156
 20
-531.46263077957792
 30
0.0
 41
0.9997841682338621
 10
444.56922223067397
 20
-530.06303996503721
 30
0.0
 41
1.0
 10
444.37727759670463
 20
-529.97998248630483
 30
0.0
 41
1.0
 10
444.18533296273529
 20
-529.89692500757246
 30
0.0
 41
1.0
 10
441.33478806888718
 20
-528.66344915049694
 30
0.0
 41
0.9998727995301654
 10
438.52503494837958
 20
-527.33968320304621
 30
0.0
 41
1.0
 10
438.52341721402411
 20
-527.33892103585208
 30
0.0
 41
1.0
 10
438.52179947966857
 20
-527.33815886865807
 30
0.0
 41
1.0
 10
435.71528182787233
 20
-526.0159172555957
 30
0.0
 41
0.999878574454688
 10
432.95133175122885
 20
-524.60685934798789
 30
0.0
 41
1.0
 10
432.94968531343716
 20
-524.60601999628989
 30
0.0
 41
1.0
 10
432.94803887564541
 20
-524.605180644592
 30
0.0
 41
1.0
 10
430.18738167458474
 20
-523.19780144037986
 30
0.0
 41
0.9998831070047914
 10
427.47104674567902
 20
-521.70667134537689
 30
0.0
 41
1.0
 10
427.46919708305302
 20
-521.70565597441589
 30
0.0
 41
1.0
 10
427.46734742042707
 20
-521.70464060345489
 30
0.0
 41
1.0
 10
424.75471181677233
 20
-520.21554125037335
 30
0.0
 41
0.9998854032383392
 10
422.08840048401873
 20
-518.64500227334588
 30
0.0
 41
1.0
 10
422.08287137301613
 20
-518.64174545774779
 30
0.0
 41
1.0
 10
422.07734226201359
 20
-518.6384886421497
 30
0.0
 41
1.0
 10
419.42208915126355
 20
-517.0744632963175
 30
0.0
 41
0.9998881400442155
 10
416.81480459548186
 20
-515.43171815183064
 30
0.0
 41
1.0
 10
416.81105409291308
 20
-515.42935511099154
 30
0.0
 41
1.0
 10
416.8073035903443
 20
-515.42699207015255
 30
0.0
 41
1.0
 10
414.20752003969841
 20
-513.78897300734263
 30
0.0
 41
0.999889150665174
 10
411.65766113368784
 20
-512.07427171564086
 30
0.0
 41
1.0
 10
411.65125660306916
 20
-512.06996486678008
 30
0.0
 41
1.0
 10
411.64485207245048
 20
-512.06565801791919
 30
0.0
 41
1.0
 10
409.10780222767477
 20
-510.35957042393744
 30
0.0
 41
0.999888321333146
 10
406.62287398831279
 20
-508.57842235641743
 30
0.0
 41
1.0
 10
406.61375295117
 20
-508.5718845749945
 30
0.0
 41
1.0
 10
406.60463191402727
 20
-508.56534679357156
 30
0.0
 41
1.0
 10
404.1379457489511
 20
-506.79727428889771
 30
0.0
 41
0.9998888735052797
 10
401.72506604345074
 20
-504.95645041205381
 30
0.0
 41
1.0
 10
399.31218633795106
 20
-503.11562653521042
 30
0.0
 41
0.9998866016241815
 10
396.95583795600373
 20
-501.20297305858253
 30
0.0
 41
1.0
 10
396.58709319781258
 20
-500.90366207844647
 30
0.0
 41
1.0
 10
396.21834843962137
 20
-500.60435109831036
 30
0.0
 41
1.0
 10
393.17450481798954
 20
-498.1336561323925
 30
0.0
 41
0.9996875704528874
 10
390.25793713416772
 20
-495.51393275897186
 30
0.0
 41
1.0
 10
389.89018404406636
 20
-495.18360908051579
 30
0.0
 41
1.0
 10
389.52243095396506
 20
-494.85328540205973
 30
0.0
 41
1.0
 10
387.34136945034589
 20
-492.89420938555122
 30
0.0
 41
0.9998741952075084
 10
385.22354619171904
 20
-490.86693713786286
 30
0.0
 41
1.0
 10
385.03546192442502
 20
-490.68689472225583
 30
0.0
 41
1.0
 10
384.84737765713106
 20
-490.50685230664885
 30
0.0
 41
1.0
 10
383.1057229330919
 20
-488.83966489017416
 30
0.0
 41
0.9998710068279686
 10
381.41851473487679
 20
-487.11739790875373
 30
0.0
 41
1.0
 10
381.41583085301647
 20
-487.11465825806039
 30
0.0
 41
1.0
 10
381.41314697115621
 20
-487.11191860736704
 30
0.0
 41
1.0
 10
379.73130653666152
 20
-485.39513092733307
 30
0.0
 41
0.9999400079145019
 10
378.08747731083315
 20
-483.64191312519603
 30
0.0
 41
1.0
 10
376.44364808500461
 20
-481.88869532305876
 30
0.0
 41
0.9998542931190552
 10
374.86062377652365
 20
-480.08038638259143
 30
0.0
 41
1.0
 10
374.70232009951758
 20
-479.89955406504248
 30
0.0
 41
1.0
 10
374.5440164225115
 20
-479.71872174749353
 30
0.0
 41
1.0
 10
372.84295727585146
 20
-477.77558009976934
 30
0.0
 41
0.9998761860275154
 10
371.20388639751275
 20
-475.77987262137026
 30
0.0
 41
1.0
 10
371.16577170238418
 20
-475.73346475511494
 30
0.0
 41
1.0
 10
371.12769463736061
 20
-475.68703049027022
 30
0.0
 41
1.0
  0
ARC
  5
1D2
100
AcDbEntity
  8
ADF70-2302
370
              15
390
0
  6
Continuous
 62
               7
100
AcDbCircle
 10
363.39509575882278
 20
-482.02792274480345
 30
0.0
 40
10.000000000000121
100
AcDbArc
 50
39.352466708118094
 51
90.0
  0
ARC
  5
1D3
100
AcDbEntity
  8
ADF70-2302
370
              15
390
0
  6
STYLE_12
 62
               7
100
AcDbCircle
 10
330.23372184872153
 20
-367.02792274565832
 30
0.0
 40
9.9999999999997744
100
AcDbArc
 50
8.4273901645444464
 51
89.999999999791584
  0
ARC
  5
1D4
100
AcDbEntity
  8
ADF70-2302
370
              15
390
0
  6
Continuous
 62
               7
100
AcDbCircle
 10
508.35432997688679
 20
-553.93791953596951
 30
0.0
 40
10.00000000000027
100
AcDbArc
 50
5.00000000018274
 51
11.01113006548106
  0
ARC
  5
1D5
100
AcDbEntity
  8
ADF70-2302
370
              15
390
0
  6
Continuous
 62
               7
100
AcDbCircle
 10
286.81404235319008
 20
-424.13249045444786
 30
0.0
 40
3.9999587224949109
100
AcDbArc
 50
181.99942905584118
 51
269.9987961016235
  0
LINE
  5
1D6
100
AcDbEntity
  8
ADF70-2302
370
              15
390
0
  6
Continuous
 62
               7
100
AcDbLine
 10
282.81674060003081
 20
-424.27204741317723
 30
0.0
 11
282.16638990390732
 21
-414.96470294876485
 31
0.0
  0
LWPOLYLINE
  5
1D7
100
AcDbEntity
  8
ADF70-2302
370
              15
390
0
  6
Continuous
 62
               7
100
AcDbPolyline
 90
       76
 70
             128
 10
282.16623977439724
 20
-414.96255442856159
 10
282.16607685043971
 20
-414.96029463911771
 42
0.0167104891596775
 10
282.15092400700144
 20
-414.81704900537488
 42
0.0178152731953623
 10
282.12592668655822
 20
-414.67520088689702
 10
282.12543036188265
 20
-414.67287298613246
 42
0.0180732562774332
 10
282.08916695235274
 20
-414.52857124117418
 10
282.0878742017336
 20
-414.52411497070193
 42
0.0200345217159714
 10
282.03780965527233
 20
-414.37425110860272
 10
282.03616066684862
 20
-414.36990308141088
 42
0.016825765248225
 10
281.97877797269587
 20
-414.23270603573042
 10
281.97533413813528
 20
-414.22519272535357
 42
0.0159866542557758
 10
281.91643574023749
 20
-414.10683752080536
 42
0.0119479380984556
 10
281.8510059523822
 20
-413.99192969965276
 10
281.84191543427335
 20
-413.97681651450125
 42
0.0202805475765176
 10
281.74988415832729
 20
-413.83698047369535
 10
281.7342924457775
 20
-413.81526156339783
 42
0.0146272784827335
 10
281.62692916224171
 20
-413.67458245849002
 10
281.62639855510599
 20
-413.67392782419415
 42
0.0127727532740952
 10
281.51257381467133
 20
-413.54060771043032
 42
0.011264341796352
 10
281.39246538226587
 20
-413.41290201001971
 10
281.37625366197256
 20
-413.39642485704962
 42
0.0144954248198224
 10
281.21639861570264
 20
-413.24310638651855
 10
281.19928994319639
 20
-413.22762398266502
 42
0.0109353092719668
 10
281.01707565570007
 20
-413.06983893844676
 10
281.00718797034239
 20
-413.06164829510129
 42
0.00886029013917
 10
280.83891531304801
 20
-412.92721227659626
 10
280.82587358201783
 20
-412.91716636494357
 42
0.0056808591353465
 10
280.68005543485026
 20
-412.80746109116239
 10
280.67714874729455
 20
-412.80532554596613
 42
0.0045111794933922
 10
280.53497273273854
 20
-412.702830949901
 10
280.52994025067869
 20
-412.69927159393302
 42
0.0037537325506261
 10
280.39620556557213
 20
-412.60618252157974
 42
0.0027118780428206
 10
280.26127652641941
 20
-412.51482929943541
 10
280.24306610607812
 20
-412.50264351740589
 42
0.0036756317337843
 10
280.07038472218824
 20
-412.38892000228191
 10
280.0468215193215
 20
-412.3736490380993
 42
0.0024038831210149
 10
279.82548641471533
 20
-412.2317114132702
 42
0.0011278182390277
 10
279.60314337643507
 20
-412.09133368931344
 10
279.37872299930376
 20
-411.95035141002654
 42
-0.0011669877758167
 10
279.15986056688928
 20
-411.81214720821822
 10
279.14136286449104
 20
-411.8004060589505
 42
-0.0022325109601303
 10
278.96033653079633
 20
-411.68436504483998
 10
278.94366972640489
 20
-411.67357603666306
 42
-0.0022190539752725
 10
278.79692084660485
 20
-411.57765345775329
 42
-0.002751472612724
 10
278.65113354325712
 20
-411.48027732264865
 10
278.62863894752684
 20
-411.46507276855505
 42
-0.0059529867905816
 10
278.43995607416298
 20
-411.33423872672665
 10
278.41782914923346
 20
-411.31850238934703
 42
-0.0060334672707091
 10
278.24014412163172
 20
-411.18887882213767
 10
278.23184251341866
 20
-411.1826678337855
 42
-0.0073697191463733
 10
278.07411837307893
 20
-411.06099716012363
 10
278.07383971391033
 20
-411.06077557127486
 42
-0.0068961779095304
 10
277.92019973580921
 20
-410.9351040257784
 42
-0.0100494606418567
 10
277.77092217686112
 20
-410.80431270131083
 10
277.76324014252742
 20
-410.79730414605342
 42
-0.0120539802566063
 10
277.60606080077298
 20
-410.64680415066982
 10
277.59729415620052
 20
-410.63799530002069
 42
-0.0139577327479565
 10
277.4651958687956
 20
-410.49763487818154
 10
277.45894574994372
 20
-410.49061095408814
 42
-0.0124094071089792
 10
277.34656290098803
 20
-410.35782043806717
 42
-0.0149322796617369
 10
277.24162890348919
 20
-410.21911909259211
 10
277.24061990967181
 20
-410.21769920634677
 42
-0.0157928272366306
 10
277.14634160126809
 20
-410.07573785757131
 42
-0.0175543314533408
 10
277.06174291164137
 20
-409.92782686140106
 10
277.05755227518915
 20
-409.91986390227004
 42
-0.0188811663314645
 10
276.99011838032732
 20
-409.77907406168924
 10
276.98155658371178
 20
-409.75931691404628
 42
-0.0164059079730666
 10
276.94001701263153
 20
-409.65413064373433
 42
-0.0106035303976382
 10
276.90420569115673
 20
-409.54682147943856
 10
276.90174581306076
 20
-409.53889444704669
 42
-0.0210470851777109
 10
276.86856828116157
 20
-409.41357448008506
 10
276.863298017467
 20
-409.38963777816593
 42
-0.0208389573996797
 10
276.83413830193115
 20
-409.22475891161548
 10
276.83376703857454
 20
-409.22199179949342
 42
-0.0195944504754259
 10
276.81854264745982
 20
-409.0608344567388
 10
276.81825349679877
 20
-409.05545079391118
  0
LWPOLYLINE
  5
1D8
100
AcDbEntity
  8
ADF70-2302
370
              15
390
0
  6
Continuous
 62
               7
100
AcDbPolyline
 90
       77
 70
             128
 10
345.10368538397472
 20
-472.02792272279362
 42
-0.004805230337344
 10
344.4879803991758
 20
-472.02200537761706
 10
344.33774770120192
 20
-472.01911743332244
 42
-0.0098070762032037
 10
343.42233188191102
 20
-471.98355002191965
 10
342.98732627994298
 20
-471.95809590089584
 42
-0.0202839383374652
 10
341.20976313442696
 20
-471.7815217706908
 10
340.91075960962417
 20
-471.73951599743822
 42
-0.0207182452929218
 10
338.71126086032211
 20
-471.33699465288873
 10
338.6828811663832
 20
-471.33057584478246
 42
-0.0207594792141355
 10
336.5804289352792
 20
-470.76238420733739
 10
336.56086861562301
 20
-470.75621628271745
 42
-0.020418728020578
 10
334.55076995064485
 20
-470.03090967831054
 10
334.5388645973951
 20
-470.02605591441045
 42
-0.0197175018361599
 10
332.61667058794421
 20
-469.15250407398003
 10
332.61106661670095
 20
-469.1496857104342
 42
-0.0187079747792434
 10
330.77244178704643
 20
-468.13712140825305
 42
-0.0174685360360359
 10
329.01232287791174
 20
-466.99470406417026
 42
-0.0160557294321296
 10
327.33319746332205
 20
-465.73731858766541
 10
327.33049867139937
 20
-465.73515901439919
 42
-0.0145620137392568
 10
325.72604884743708
 20
-464.3727833698203
 10
325.72112188616177
 20
-464.36834650256742
 42
-0.0130394761451597
 10
324.18453573927121
 20
-462.9102798004069
 10
324.17833405474232
 20
-462.90407980748728
 42
-0.0115316273086897
 10
322.70300355613102
 20
-461.3595032998108
 10
322.69628098361102
 20
-461.35213212588201
 42
-0.0100670148001511
 10
321.27579278554765
 20
-459.73017977190091
 10
321.26912209692966
 20
-459.72224626892626
 42
-0.0086611612186718
 10
319.89723245501438
 20
-458.03205776124213
 10
319.89103383218128
 20
-458.02414469455675
 42
-0.0073206204326632
 10
318.56163963253613
 20
-456.27489893210333
 10
318.55621222065076
 20
-456.26753610291621
 42
-0.0060406252777093
 10
317.26331134836192
 20
-454.46847922888992
 10
317.2521870950053
 20
-454.45259857881473
 42
-0.0048276927631529
 10
316.00304921039617
 20
-452.63221335372532
 10
315.96585421248386
 20
-452.57687070882025
 42
-0.0035504484093525
 10
314.82096718651349
 20
-450.84697975746167
 10
314.79280648429204
 20
-450.80376613226673
 42
-0.0018267236681604
 10
313.72257311009992
 20
-449.14826254985564
 10
313.72198585382495
 20
-449.14734682466025
 42
-0.0003475598774139
 10
312.66012803886645
 20
-447.48902651989624
 10
312.65839196385986
 20
-447.48631110926277
 42
0.0011306953729043
 10
311.597424953006
 20
-445.83508277138753
 10
311.59456237462041
 20
-445.83064969385902
 42
0.0026309098241418
 10
310.52698675254908
 20
-444.19630420435578
 10
310.5230495534712
 20
-444.19034548504624
 42
0.0041725520968
 10
309.44133128512442
 20
-442.58256207225304
 10
309.43641303911403
 20
-442.57538206991956
 42
0.0057732286268912
 10
308.33296625840933
 20
-441.00372719637176
 10
308.32722207834632
 20
-440.99574331211676
 42
0.0074473347623981
 10
307.19438441416571
 20
-439.46967171135657
 10
307.04636016879687
 20
-439.2763489761191
 42
0.0092812600802765
 10
306.16630350494108
 20
-438.17013450126046
 10
306.16133231926221
 20
-438.16411848341124
 42
0.0052352499880668
 10
305.25949511936881
 20
-437.09571646634777
 42
0.0119594274361982
 10
304.32167488929178
 20
-436.05919218925703
 10
304.16045553981388
 20
-435.88935208257902
 42
0.0139137497954828
 10
302.8624598077314
 20
-434.59599922579082
 10
302.85826080909027
 20
-434.59204186776577
 42
0.0158491284842482
 10
301.49442543523412
 20
-433.38597276296719
 10
301.49294155600091
 20
-433.38474209088156
 42
0.0177228882751319
 10
300.05449945931434
 20
-432.27537911371519
 42
0.019434044840268
 10
298.53786374785801
 20
-431.27598985881986
 10
298.53510639059198
 20
-431.2743228206557
 42
0.0208843187312565
 10
296.93745022230979
 20
-430.39733153399902
 10
296.92865361929819
 20
-430.39297048568483
 42
0.0219265902671319
 10
295.24406933433045
 20
-429.64792805466681
 10
295.02152582201069
 20
-429.56095514297658
 42
0.0224528808431578
 10
293.66316201371149
 20
-429.09922528519132
 42
0.0113506507285073
 10
292.27567104266871
 20
-428.73002646501504
 10
292.25079038415345
 20
-428.72400720721498
 42
0.0222823667468707
 10
290.79246125641419
 20
-428.43929411362473
 10
290.77716275987552
 20
-428.43700935194011
 42
0.0110223186862851
 10
289.27132979725241
 20
-428.24594864281539
 10
289.23404859655159
 20
-428.24205124154423
 42
0.0210926736803035
 10
287.6452793897958
 20
-428.14344791757753
 10
287.36650585082828
 20
-428.13792633173466
 42
0.0049459860146198
 10
286.81395830610984
 20
-428.13244917605948
 42
0.0049459860146198
  0
LINE
  5
1D9
100
AcDbEntity
  8
ADF70-2302
370
              15
390
0
  6
Continuous
 62
               7
100
AcDbLine
 10
471.04429637662054
 20
-551.96904800741936
 30
0.0
 11
654.10463635710641
 21
-551.96904800741936
 31
0.0
  0
ARC
  5
1DA
100
AcDbEntity
  8
ADF70-2302
370
              15
390
0
  6
Continuous
 62
               7
100
AcDbCircle
 10
654.10463635710641
 20
-545.96904800741936
 30
0.0
 40
6.0
100
AcDbArc
 50
270.0
 51
357.99999999999631
  0
LWPOLYLINE
  5
1DB
100
AcDbEntity
  8
ADF70-2302
370
              15
390
0
  6
STYLE_12
 62
               7
100
AcDbPolyline
 90
       67
 70
             128
 10
657.20092429127874
 20
-385.90138577220728
 42
-0.0002366843747906
 10
657.1025891850644
 20
-387.18524357574427
 10
656.97727517917451
 20
-388.81122807314
 42
-0.0017806572447958
 10
656.61155557026734
 20
-393.34570587615946
 10
656.41528463093971
 20
-395.67564643884077
 42
-0.0029955072345207
 10
655.58582793367918
 20
-404.86373358886283
 10
655.38931654509781
 20
-406.90396060819239
 42
-0.0037500291374155
 10
654.55020398938427
 20
-414.98061280873947
 42
-0.0021196988639478
 10
653.61631838989342
 20
-423.0470123974564
 10
653.61361991943477
 20
-423.06948595626204
 42
-0.0049838695472301
 10
652.56191663740697
 20
-431.14727374034123
 10
652.3712578928654
 20
-432.50575411565512
 42
-0.0028640466886374
 10
651.58973094242742
 20
-437.85162108870679
 10
651.58712724763882
 20
-437.86874522848126
 42
-0.0031057263107433
 10
650.74725283612827
 20
-443.17067033548216
 10
650.74353335657145
 20
-443.1932423235877
 42
-0.0033983009299936
 10
649.84251334892383
 20
-448.43868261896876
 10
649.83753129520142
 20
-448.46654996953578
 42
-0.0037203883071345
 10
648.87230684831547
 20
-453.64294949989142
 10
648.86590236974757
 20
-453.67593223997699
 42
-0.004076837298684
 10
647.83342761075983
 20
-458.77076556811323
 10
647.82542801565455
 20
-458.80865068163433
 42
-0.0044732759469894
 10
646.72266952447194
 20
-463.80942909609075
 10
646.71289005594201
 20
-463.85196374352461
 42
-0.0049162600964163
 10
645.53682562193649
 20
-468.74624282282224
 10
645.52507110544263
 20
-468.79312608164929
 42
-0.0054134400820135
 10
644.27268736593737
 20
-473.56851488045777
 10
644.25875518734108
 20
-473.6193877213118
 42
-0.0059737413440271
 10
642.92704358116896
 20
-478.26355986321278
 10
642.91072865669594
 20
-478.31799306799962
 42
-0.0066075480966329
 10
641.49667888101089
 20
-482.81870001145705
 10
641.47778156448817
 20
-482.87617977642196
 42
-0.0073268672719795
 10
639.97837138508521
 20
-487.22126643192598
 10
639.95670964579062
 20
-487.28117752910543
 42
-0.0081454295756473
 10
638.36888946071713
 20
-491.4586001806008
 10
638.34431717565008
 20
-491.52020685499519
 42
-0.0090786506666237
 10
636.66498716282831
 20
-495.5180528718638
 10
636.63742099643514
 20
-495.58047826152529
 42
-0.0101433214634944
 10
634.8633980246359
 20
-499.38698621081448
 10
634.8328560523255
 20
-499.44919219985218
 42
-0.0113568144875791
 10
632.96082693714891
 20
-503.05276943766876
 10
632.69746431982458
 20
-503.53275949014812
 42
-0.0128156345220876
 10
631.20460093743964
 20
-506.09556029482962
 10
631.17815929190067
 20
-506.1383899937278
 42
-0.0068719186923657
 10
629.63925025869207
 20
-508.5561096177351
 10
629.62475484940512
 20
-508.57820640939798
 42
-0.0152072115682139
 10
628.01153663362777
 20
-510.88150448492291
 10
627.71646511407664
 20
-511.27665768437981
 42
-0.008310758838699
 10
626.59929476603384
 20
-512.72200256086148
 42
-0.0086028760114905
 10
625.43389344152115
 20
-514.12872399771175
 10
625.1583297865518
 20
-514.44993550441438
 42
-0.0189069223707002
 10
623.34343742406145
 20
-516.41037426498144
 10
623.02364510665416
 20
-516.73062967840679
 42
-0.0210199529995611
 10
620.5400022426843
 20
-519.0171058829302
 10
620.50972667920257
 20
-519.042713140248
 42
-0.0231043206354804
 10
617.8975386929626
 20
-521.05274643808116
 10
617.87558145958758
 20
-521.06808143814055
 42
-0.0250450159709812
 10
615.12812405956015
 20
-522.78896800422604
 10
615.11845422335409
 20
-522.79437049310593
 42
-0.0266883061625552
 10
612.22834111433485
 20
-524.21237107306251
 10
611.85785857895144
 20
-524.37021810546537
 42
-0.0277623355496692
 10
609.58730520214522
 20
-525.1919812441779
 42
-0.0141633673141117
 10
607.25325424092216
 20
-525.82144610124692
 10
607.23653297249803
 20
-525.8254512647818
 42
-0.0281142759200166
 10
604.82668500350758
 20
-526.26118769227423
 10
604.41518072211306
 20
-526.31192099456121
 42
-0.0068832842700228
 10
603.58972348082591
 20
-526.40217964353974
 42
-0.0068832842700228
  0
LINE
  5
1DC
100
AcDbEntity
  8
ADF70-2302
370
              15
390
0
  6
STYLE_12
 62
               7
100
AcDbLine
 10
741.65673369463786
 20
-357.0279227456611
 30
0.0
 11
741.65673369463786
 21
-370.02792274566019
 31
0.0
  0
LINE
  5
1DD
100
AcDbEntity
  8
ADF70-2302
370
              15
390
0
  6
STYLE_12
 62
               7
100
AcDbLine
 10
706.65673369463786
 20
-357.02792274566201
 30
0.0
 11
706.65673369463786
 21
-370.02792274566019
 31
0.0
  0
LINE
  5
1DE
100
AcDbEntity
  8
ADF70-2302
370
              15
390
0
  6
STYLE_12
 62
               7
100
AcDbLine
 10
741.65673369463786
 20
-357.0279227456611
 30
0.0
 11
706.65673369463786
 21
-357.02792274566201
 31
0.0
  0
LINE
  5
1DF
100
AcDbEntity
  8
ADF70-2302
370
              15
390
0
  6
Continuous
 62
               7
100
AcDbLine
 10
794.15673369463786
 20
-409.05545079392476
 30
0.0
 11
276.81825349679968
 21
-409.05545079392476
 31
0.0
  0
LINE
  5
1E0
100
AcDbEntity
  8
ADF70-2302
370
              15
390
0
  6
Continuous
 62
               7
100
AcDbLine
 10
794.15672735730925
 20
-472.02792274714983
 30
0.0
 11
363.3953132496182
 21
-472.02792274714983
 31
0.0
  0
SPLINE
  5
1E1
100
AcDbEntity
  8
ADF70-2302
370
              15
390
0
  6
STYLE_12
 62
               7
100
AcDbSpline
210
0.0
220
0.0
230
1.0
 70
               8
 71
               2
 72
               6
 73
               3
 74
               0
 42
0.000001
 43
0.000001
 40
0.0
 40
0.0
 40
0.0
 40
1.0
 40
1.0
 40
1.0
 10
340.12574570017807
 20
-365.56236342505395
 30
0.0
 10
361.0
 20
-509.0
 30
0.0
 10
502.75293000704369
 20
-526.66269794708808
 30
0.0
  0
ENDSEC
  0
SECTION
  2
OBJECTS
  0
DICTIONARY
  5
19
100
AcDbDictionary
280
               0
281
               1
  3
ACAD_GROUP
350
1A
  3
ACAD_MLINESTYLE
350
1B
  3
ACAD_LAYOUT
350
1E
  3
ACAD_PLOTSETTINGS
350
22
  3
ACAD_PLOTSTYLENAME
350
1F
  0
DICTIONARY
  5
1A
102
{ACAD_REACTORS
330
19
102
}
100
AcDbDictionary
280
               0
281
               1
  0
DICTIONARY
  5
1B
102
{ACAD_REACTORS
330
19
102
}
100
AcDbDictionary
280
               0
281
               1
  3
Standard
350
1C
  0
MLINESTYLE
  5
1C
102
{ACAD_REACTORS
330
1B
102
}
100
AcDbMlineStyle
  2
Standard
 70
               0
  3

 62
               0
 51
90.0
 52
90.0
 71
               2
 49
0.5
 62
             256
  6
ByLayer
 49
-0.5
 62
             256
  6
ByLayer
  0
ACDBDICTIONARYWDFLT
  5
1F
102
{ACAD_REACTORS
330
19
102
}
100
AcDbDictionary
281
               1
  3
Normal
350
1D
100
AcDbDictionaryWithDefault
340
1D
  0
ACDBPLACEHOLDER
  5
1D
102
{ACAD_REACTORS
330
1F
102
}
  0
LAYOUT
  5
20
102
{ACAD_REACTORS
330
1E
102
}
100
AcDbPlotSettings
  1

  2

  4

  6

 40
0.0
 41
0.0
 42
0.0
 43
0.0
 44
0.0
 45
0.0
 46
0.0
 47
0.0
 48
0.0
 49
0.0
140
0.0
141
0.0
142
1.0
143
1.0
 70
            1024
 72
               0
 73
               0
 74
               0
  7

 75
               0
147
1.0
148
0.0
149
0.0
100
AcDbLayout
  1
Model
 70
               0
 71
               0
 10
0.0
 20
0.0
 11
0.0
 21
0.0
 12
0.0
 22
0.0
 32
0.0
 14
0.0
 24
0.0
 34
0.0
 15
0.0
 25
0.0
 35
0.0
146
0.0
 13
0.0
 23
0.0
 33
0.0
 16
0.0
 26
0.0
 36
0.0
 17
0.0
 27
0.0
 37
0.0
 76
               0
330
A
331
0
345
0
346
0
  0
LAYOUT
  5
21
102
{ACAD_REACTORS
330
1E
102
}
100
AcDbPlotSettings
  1

  2

  4

  6

 40
0.0
 41
0.0
 42
0.0
 43
0.0
 44
0.0
 45
0.0
 46
0.0
 47
0.0
 48
0.0
 49
0.0
140
0.0
141
0.0
142
1.0
143
1.0
 70
               0
 72
               0
 73
               0
 74
               0
  7

 75
               0
147
1.0
148
0.0
149
0.0
100
AcDbLayout
  1
Layout1
 70
               0
 71
               0
 10
0.0
 20
0.0
 11
0.0
 21
0.0
 12
0.0
 22
0.0
 32
0.0
 14
0.0
 24
0.0
 34
0.0
 15
0.0
 25
0.0
 35
0.0
146
0.0
 13
0.0
 23
0.0
 33
0.0
 16
0.0
 26
0.0
 36
0.0
 17
0.0
 27
0.0
 37
0.0
 76
               0
330
B
331
0
345
0
346
0
  0
DICTIONARY
  5
1E
102
{ACAD_REACTORS
330
19
102
}
100
AcDbDictionary
280
               0
281
               1
  3
Layout1
350
21
  3
Model
350
20
  0
DICTIONARY
  5
22
102
{ACAD_REACTORS
330
19
102
}
100
AcDbDictionary
280
               0
281
               1
  0
ENDSEC
  0
EOF
