  0
SECTION
  2
HEADER
  9
$ACADVER
  1
AC1021
  9
$ACADMAINTVER
 70
    25
  9
$DWGCODEPAGE
  3
ANSI_932
  9
$LASTSAVEDBY
  1
Shimosaki
  9
$INSBASE
 10
0.0
 20
0.0
 30
0.0
  9
$EXTMIN
 10
-975.0000000002409
 20
-1414.593117625651
 30
0.0
  9
$EXTMAX
 10
975.0000000002411
 20
1418.761407556206
 30
0.0000001718222377
  9
$LIMMIN
 10
-1049.999999999759
 20
-1479.504930098615
  9
$LIMMAX
 10
1050.000000000241
 20
1490.495069901385
  9
$ORTHOMODE
 70
     0
  9
$REGENMODE
 70
     1
  9
$FILLMODE
 70
     1
  9
$QTEXTMODE
 70
     0
  9
$MIRRTEXT
 70
     1
  9
$LTSCALE
 40
12.7
  9
$ATTMODE
 70
     1
  9
$TEXTSIZE
 40
0.0
  9
$TRACEWID
 40
1.0
  9
$TEXTSTYLE
  7
Standard
  9
$CLAYER
  8
Retino
  9
$CELTYPE
  6
Continuous
  9
$CECOLOR
 62
   256
  9
$CELTSCALE
 40
1.0
  9
$DISPSILH
 70
     0
  9
$DIMSCALE
 40
1.0
  9
$DIMASZ
 40
22.4482421875
  9
$DIMEXO
 40
15.875
  9
$DIMDLI
 40
10.16
  9
$DIMRND
 40
0.0
  9
$DIMDLE
 40
1.5875
  9
$DIMEXE
 40
31.75
  9
$DIMTP
 40
0.0
  9
$DIMTM
 40
0.0
  9
$DIMTXT
 40
24.4326171875
  9
$DIMCEN
 40
0.0
  9
$DIMTSZ
 40
0.0
  9
$DIMTOL
 70
     0
  9
$DIMLIM
 70
     0
  9
$DIMTIH
 70
     0
  9
$DIMTOH
 70
     0
  9
$DIMSE1
 70
     0
  9
$DIMSE2
 70
     0
  9
$DIMTAD
 70
     1
  9
$DIMZIN
 70
    11
  9
$DIMBLK
  1
VW_SLASH
  9
$DIMASO
 70
     1
  9
$DIMSHO
 70
     1
  9
$DIMPOST
  1
<>
  9
$DIMAPOST
  1
[]
  9
$DIMALT
 70
     0
  9
$DIMALTD
 70
     1
  9
$DIMALTF
 40
1.0
  9
$DIMLFAC
 40
1.0
  9
$DIMTOFL
 70
     1
  9
$DIMTVP
 40
0.0
  9
$DIMTIX
 70
     1
  9
$DIMSOXD
 70
     0
  9
$DIMSAH
 70
     0
  9
$DIMBLK1
  1

  9
$DIMBLK2
  1

  9
$DIMSTYLE
  2
Arch
  9
$DIMCLRD
 70
     0
  9
$DIMCLRE
 70
     0
  9
$DIMCLRT
 70
     0
  9
$DIMTFAC
 40
1.0
  9
$DIMGAP
 40
1.5875
  9
$DIMJUST
 70
     0
  9
$DIMSD1
 70
     0
  9
$DIMSD2
 70
     0
  9
$DIMTOLJ
 70
     1
  9
$DIMTZIN
 70
    11
  9
$DIMALTZ
 70
    11
  9
$DIMALTTZ
 70
    11
  9
$DIMUPT
 70
     0
  9
$DIMDEC
 70
     1
  9
$DIMTDEC
 70
     1
  9
$DIMALTU
 70
     2
  9
$DIMALTTD
 70
     2
  9
$DIMTXSTY
  7
ＭＳ ゴシック
  9
$DIMAUNIT
 70
     0
  9
$DIMADEC
 70
     2
  9
$DIMALTRND
 40
0.0
  9
$DIMAZIN
 70
     0
  9
$DIMDSEP
 70
    46
  9
$DIMATFIT
 70
     0
  9
$DIMFRAC
 70
     2
  9
$DIMLDRBLK
  1

  9
$DIMLUNIT
 70
     2
  9
$DIMLWD
 70
    -2
  9
$DIMLWE
 70
    -2
  9
$DIMTMOVE
 70
     0
  9
$DIMFXL
 40
1.0
  9
$DIMFXLON
 70
     0
  9
$DIMJOGANG
 40
0.7853981633974483
  9
$DIMTFILL
 70
     0
  9
$DIMTFILLCLR
 70
     0
  9
$DIMARCSYM
 70
     0
  9
$DIMLTYPE
  6

  9
$DIMLTEX1
  6

  9
$DIMLTEX2
  6

  9
$LUNITS
 70
     2
  9
$LUPREC
 70
     4
  9
$SKETCHINC
 40
0.1
  9
$FILLETRAD
 40
0.0
  9
$AUNITS
 70
     0
  9
$AUPREC
 70
     0
  9
$MENU
  1
acad
  9
$ELEVATION
 40
0.0
  9
$PELEVATION
 40
0.0
  9
$THICKNESS
 40
0.0
  9
$LIMCHECK
 70
     0
  9
$CHAMFERA
 40
0.0
  9
$CHAMFERB
 40
0.0
  9
$CHAMFERC
 40
0.0
  9
$CHAMFERD
 40
0.0
  9
$SKPOLY
 70
     0
  9
$TDCREATE
 40
2447893.375
  9
$TDUCREATE
 40
0.0
  9
$TDUPDATE
 40
2456897.791516944
  9
$TDUUPDATE
 40
2456897.416516944
  9
$TDINDWG
 40
0.0679909954
  9
$TDUSRTIMER
 40
2456897.414834595
  9
$USRTIMER
 70
     1
  9
$ANGBASE
 50
0.0
  9
$ANGDIR
 70
     0
  9
$PDMODE
 70
     1
  9
$PDSIZE
 40
-2.0
  9
$PLINEWID
 40
0.0
  9
$SPLFRAME
 70
     0
  9
$SPLINETYPE
 70
     6
  9
$SPLINESEGS
 70
     8
  9
$HANDSEED
  5
C91
  9
$SURFTAB1
 70
     6
  9
$SURFTAB2
 70
     6
  9
$SURFTYPE
 70
     6
  9
$SURFU
 70
     6
  9
$SURFV
 70
     6
  9
$UCSBASE
  2

  9
$UCSNAME
  2

  9
$UCSORG
 10
0.0
 20
0.0
 30
0.0
  9
$UCSXDIR
 10
1.0
 20
0.0
 30
0.0
  9
$UCSYDIR
 10
0.0
 20
1.0
 30
0.0
  9
$UCSORTHOREF
  2

  9
$UCSORTHOVIEW
 70
     0
  9
$UCSORGTOP
 10
0.0
 20
0.0
 30
0.0
  9
$UCSORGBOTTOM
 10
0.0
 20
0.0
 30
0.0
  9
$UCSORGLEFT
 10
0.0
 20
0.0
 30
0.0
  9
$UCSORGRIGHT
 10
0.0
 20
0.0
 30
0.0
  9
$UCSORGFRONT
 10
0.0
 20
0.0
 30
0.0
  9
$UCSORGBACK
 10
0.0
 20
0.0
 30
0.0
  9
$PUCSBASE
  2

  9
$PUCSNAME
  2

  9
$PUCSORG
 10
0.0
 20
0.0
 30
0.0
  9
$PUCSXDIR
 10
1.0
 20
0.0
 30
0.0
  9
$PUCSYDIR
 10
0.0
 20
1.0
 30
0.0
  9
$PUCSORTHOREF
  2

  9
$PUCSORTHOVIEW
 70
     0
  9
$PUCSORGTOP
 10
0.0
 20
0.0
 30
0.0
  9
$PUCSORGBOTTOM
 10
0.0
 20
0.0
 30
0.0
  9
$PUCSORGLEFT
 10
0.0
 20
0.0
 30
0.0
  9
$PUCSORGRIGHT
 10
0.0
 20
0.0
 30
0.0
  9
$PUCSORGFRONT
 10
0.0
 20
0.0
 30
0.0
  9
$PUCSORGBACK
 10
0.0
 20
0.0
 30
0.0
  9
$USERI1
 70
     0
  9
$USERI2
 70
     0
  9
$USERI3
 70
     0
  9
$USERI4
 70
     0
  9
$USERI5
 70
     0
  9
$USERR1
 40
0.0
  9
$USERR2
 40
0.0
  9
$USERR3
 40
0.0
  9
$USERR4
 40
0.0
  9
$USERR5
 40
0.0
  9
$WORLDVIEW
 70
     1
  9
$SHADEDGE
 70
     3
  9
$SHADEDIF
 70
    70
  9
$TILEMODE
 70
     1
  9
$MAXACTVP
 70
    64
  9
$PINSBASE
 10
0.0
 20
0.0
 30
0.0
  9
$PLIMCHECK
 70
     0
  9
$PEXTMIN
 10
1.000000000000000E+20
 20
1.000000000000000E+20
 30
1.000000000000000E+20
  9
$PEXTMAX
 10
-1.000000000000000E+20
 20
-1.000000000000000E+20
 30
-1.000000000000000E+20
  9
$PLIMMIN
 10
0.0
 20
0.0
  9
$PLIMMAX
 10
0.0
 20
0.0
  9
$UNITMODE
 70
     0
  9
$VISRETAIN
 70
     0
  9
$PLINEGEN
 70
     1
  9
$PSLTSCALE
 70
     0
  9
$TREEDEPTH
 70
  3020
  9
$CMLSTYLE
  2
Standard
  9
$CMLJUST
 70
     0
  9
$CMLSCALE
 40
1.0
  9
$PROXYGRAPHICS
 70
     0
  9
$MEASUREMENT
 70
     1
  9
$CELWEIGHT
370
     0
  9
$ENDCAPS
280
     0
  9
$JOINSTYLE
280
     0
  9
$LWDISPLAY
290
     1
  9
$INSUNITS
 70
     4
  9
$HYPERLINKBASE
  1

  9
$STYLESHEET
  1

  9
$XEDIT
290
     1
  9
$CEPSNTYPE
380
     0
  9
$PSTYLEMODE
290
     1
  9
$FINGERPRINTGUID
  2

  9
$VERSIONGUID
  2

  9
$EXTNAMES
290
     1
  9
$PSVPSCALE
 40
0.0
  9
$OLESTARTUP
290
     0
  9
$SORTENTS
280
   127
  9
$INDEXCTL
280
     0
  9
$HIDETEXT
280
     1
  9
$XCLIPFRAME
290
     0
  9
$HALOGAP
280
     0
  9
$OBSCOLOR
 70
   257
  9
$OBSLTYPE
280
     0
  9
$INTERSECTIONDISPLAY
280
     0
  9
$INTERSECTIONCOLOR
 70
   257
  9
$DIMASSOC
280
     2
  9
$PROJECTNAME
  1

  9
$CAMERADISPLAY
290
     0
  9
$LENSLENGTH
 40
50.0
  9
$CAMERAHEIGHT
 40
0.0
  9
$STEPSPERSEC
 40
2.0
  9
$STEPSIZE
 40
6.0
  9
$3DDWFPREC
 40
2.0
  9
$PSOLWIDTH
 40
0.25
  9
$PSOLHEIGHT
 40
4.0
  9
$LOFTANG1
 40
1.570796326794897
  9
$LOFTANG2
 40
1.570796326794897
  9
$LOFTMAG1
 40
0.0
  9
$LOFTMAG2
 40
0.0
  9
$LOFTPARAM
 70
     7
  9
$LOFTNORMALS
280
     1
  9
$LATITUDE
 40
37.795
  9
$LONGITUDE
 40
-122.394
  9
$NORTHDIRECTION
 40
0.0
  9
$TIMEZONE
 70
 -8000
  9
$LIGHTGLYPHDISPLAY
280
     1
  9
$TILEMODELIGHTSYNCH
280
     1
  9
$SOLIDHIST
280
     1
  9
$SHOWHIST
280
     1
  9
$DWFFRAME
280
     2
  9
$DGNFRAME
280
     2
  9
$REALWORLDSCALE
290
     1
  9
$INTERFERECOLOR
 62
   256
  9
$CSHADOW
280
     0
  9
$SHADOWPLANELOCATION
 40
0.0
  0
ENDSEC
  0
SECTION
  2
CLASSES
  0
CLASS
  1
LWPOLYLINE
  2
AcDbPolyline
  3
ObjectDBX Classes
 90
        0
 91
        1
280
     0
281
     1
  0
CLASS
  1
IMAGE
  2
AcDbRasterImage
  3
ISM
 90
      127
 91
        5
280
     0
281
     1
  0
CLASS
  1
OLE2FRAME
  2
AcDbOle2Frame
  3
ObjectDBX Classes
 90
        0
 91
        1
280
     0
281
     1
  0
CLASS
  1
HATCH
  2
AcDbHatch
  3
ObjectDBX Classes
 90
        0
 91
        1
280
     0
281
     1
  0
CLASS
  1
DICTIONARYVAR
  2
AcDbDictionaryVar
  3
ObjectDBX Classes
 90
        0
 91
        4
280
     0
281
     0
  0
CLASS
  1
RASTERVARIABLES
  2
AcDbRasterVariables
  3
ISM
 90
        0
 91
        5
280
     0
281
     0
  0
CLASS
  1
IMAGEDEF
  2
AcDbRasterImageDef
  3
ISM
 90
        0
 91
        4
280
     0
281
     0
  0
CLASS
  1
IMAGEDEF_REACTOR
  2
AcDbRasterImageDefReactor
  3
ISM
 90
        1
 91
        4
280
     0
281
     0
  0
CLASS
  1
IDBUFFER
  2
AcDbIdBuffer
  3
ObjectDBX Classes
 90
        0
 91
        4
280
     0
281
     0
  0
CLASS
  1
SPATIAL_FILTER
  2
AcDbSpatialFilter
  3
ObjectDBX Classes
 90
        0
 91
        4
280
     0
281
     0
  0
CLASS
  1
XRECORD
  2
AcDbXrecord
  3
ObjectDBX Classes
 90
        0
 91
        1
280
     0
281
     0
  0
CLASS
  1
SORTENTSTABLE
  2
AcDbSortentsTable
  3
ObjectDBX Classes
 90
        0
 91
        4
280
     0
281
     0
  0
CLASS
  1
LAYER_INDEX
  2
AcDbLayerIndex
  3
ObjectDBX Classes
 90
        0
 91
        4
280
     0
281
     0
  0
CLASS
  1
SPATIAL_INDEX
  2
AcDbSpatialIndex
  3
AutoCAD 2000
 90
        0
 91
        4
280
     0
281
     0
  0
CLASS
  1
OBJECT_PTR
  2
CAseDLPNTableRecord
  3
ASE-LPNTableRecord
 90
        1
 91
        4
280
     0
281
     0
  0
CLASS
  1
LAYOUT
  2
AcDbLayout
  3
ObjectDBX Classes
 90
        0
 91
        1
280
     0
281
     0
  0
CLASS
  1
PLOTSETTINGS
  2
AcDbPlotSettings
  3
ObjectDBX Classes
 90
        0
 91
        4
280
     0
281
     0
  0
CLASS
  1
ACDBDICTIONARYWDFLT
  2
AcDbDictionaryWithDefault
  3
ObjectDBX Classes
 90
        0
 91
        5
280
     0
281
     0
  0
CLASS
  1
ACDBPLACEHOLDER
  2
AcDbPlaceHolder
  3
ObjectDBX Classes
 90
        0
 91
        1
280
     0
281
     0
  0
CLASS
  1
SCALE
  2
AcDbScale
  3
ObjectDBX Classes
 90
     1153
 91
        5
280
     0
281
     0
  0
CLASS
  1
VISUALSTYLE
  2
AcDbVisualStyle
  3
ObjectDBX Classes
 90
     4095
 91
        5
280
     0
281
     0
  0
CLASS
  1
MATERIAL
  2
AcDbMaterial
  3
ObjectDBX Classes
 90
     1153
 91
        5
280
     0
281
     0
  0
CLASS
  1
TABLESTYLE
  2
AcDbTableStyle
  3
ObjectDBX Classes
 90
     4095
 91
        5
280
     0
281
     0
  0
CLASS
  1
SUN
  2
AcDbSun
  3
SCENEOE
 90
     1153
 91
        5
280
     0
281
     0
  0
CLASS
  1
DIMASSOC
  2
AcDbDimAssoc
  3
"AcDbDimAssoc|Product Desc:     AcDim ARX App For Dimension|Company:          Autodesk, Inc.|WEB Address:      www.autodesk.com"
 90
        0
 91
        4
280
     0
281
     0
  0
CLASS
  1
CELLSTYLEMAP
  2
AcDbCellStyleMap
  3
ObjectDBX Classes
 90
     1152
 91
        4
280
     0
281
     0
  0
ENDSEC
  0
SECTION
  2
TABLES
  0
TABLE
  2
VPORT
  5
7
330
0
100
AcDbSymbolTable
 70
     1
  0
VPORT
  5
15
330
7
100
AcDbSymbolTableRecord
100
AcDbViewportTableRecord
  2
*ACTIVE
 70
     0
 10
0.0
 20
0.0
 11
1.0
 21
1.0
 12
417.3770372278308
 22
219.2864494688793
 13
0.0
 23
0.0
 14
1.0
 24
1.0
 15
0.0
 25
0.0
 16
0.0
 26
0.0
 36
1.0
 17
0.0
 27
0.0
 37
0.0
 40
3642.833707320914
 41
2.184105960264901
 42
50.0
 43
0.0
 44
0.0
 50
0.0
 51
0.0
 71
    16
 72
  2000
 73
     1
 74
     1
 75
     0
 76
     0
 77
     0
 78
     0
281
     0
 65
     0
110
0.0
120
0.0
130
0.0
111
1.0
121
0.0
131
0.0
112
0.0
122
1.0
132
0.0
 79
     0
146
0.0
348
1FA
 60
     3
 61
     5
292
     1
282
     1
141
0.0
142
0.0
 63
   256
361
215
  0
ENDTAB
  0
TABLE
  2
LTYPE
  5
4
330
0
100
AcDbSymbolTable
 70
    14
  0
LTYPE
  5
11
330
4
100
AcDbSymbolTableRecord
100
AcDbLinetypeTableRecord
  2
ByBlock
 70
     0
  3

 72
    65
 73
     0
 40
0.0
  0
LTYPE
  5
12
330
4
100
AcDbSymbolTableRecord
100
AcDbLinetypeTableRecord
  2
ByLayer
 70
     0
  3

 72
    65
 73
     0
 40
0.0
  0
LTYPE
  5
13
330
4
100
AcDbSymbolTableRecord
100
AcDbLinetypeTableRecord
  2
Continuous
 70
     0
  3
Solid line
 72
    65
 73
     0
 40
0.0
  0
LTYPE
  5
35
330
4
100
AcDbSymbolTableRecord
100
AcDbLinetypeTableRecord
  2
STYLE_01
 70
     0
  3

 72
    65
 73
     2
 40
0.7076726616417839
 49
0.4162780337860838
 74
     0
 49
-0.2913946278557001
 74
     0
  0
LTYPE
  5
36
330
4
100
AcDbSymbolTableRecord
100
AcDbLinetypeTableRecord
  2
STYLE_02
 70
     0
  3

 72
    65
 73
     2
 40
0.7076726616417839
 49
0.4162780337860838
 74
     0
 49
-0.2913946278557001
 74
     0
  0
LTYPE
  5
37
330
4
100
AcDbSymbolTableRecord
100
AcDbLinetypeTableRecord
  2
STYLE_03
 70
     0
  3

 72
    65
 73
     2
 40
0.7076726616417839
 49
0.4162780337860838
 74
     0
 49
-0.2913946278557001
 74
     0
  0
LTYPE
  5
38
330
4
100
AcDbSymbolTableRecord
100
AcDbLinetypeTableRecord
  2
STYLE_04
 70
     0
  3

 72
    65
 73
     2
 40
0.7076726616417839
 49
0.4162780337860838
 74
     0
 49
-0.2913946278557001
 74
     0
  0
LTYPE
  5
39
330
4
100
AcDbSymbolTableRecord
100
AcDbLinetypeTableRecord
  2
STYLE_05
 70
     0
  3

 72
    65
 73
     2
 40
0.7076726616417839
 49
0.4162780337860838
 74
     0
 49
-0.2913946278557001
 74
     0
  0
LTYPE
  5
3A
330
4
100
AcDbSymbolTableRecord
100
AcDbLinetypeTableRecord
  2
STYLE_06
 70
     0
  3

 72
    65
 73
     2
 40
0.7076726616417839
 49
0.4162780337860838
 74
     0
 49
-0.2913946278557001
 74
     0
  0
LTYPE
  5
3B
330
4
100
AcDbSymbolTableRecord
100
AcDbLinetypeTableRecord
  2
STYLE_07
 70
     0
  3

 72
    65
 73
     2
 40
1.248834143412667
 49
0.6244170717063335
 74
     0
 49
-0.6244170717063335
 74
     0
  0
LTYPE
  5
3C
330
4
100
AcDbSymbolTableRecord
100
AcDbLinetypeTableRecord
  2
STYLE_08
 70
     0
  3

 72
    65
 73
     2
 40
1.248834143412667
 49
0.6244170717063335
 74
     0
 49
-0.6244170717063335
 74
     0
  0
LTYPE
  5
3D
330
4
100
AcDbSymbolTableRecord
100
AcDbLinetypeTableRecord
  2
STYLE_09
 70
     0
  3

 72
    65
 73
     2
 40
1.248834143412667
 49
0.6244170717063335
 74
     0
 49
-0.6244170717063335
 74
     0
  0
LTYPE
  5
3E
330
4
100
AcDbSymbolTableRecord
100
AcDbLinetypeTableRecord
  2
STYLE_10
 70
     0
  3

 72
    65
 73
     2
 40
0.6081893029086975
 49
0.4053419511253549
 74
     0
 49
-0.2028473517833426
 74
     0
  0
LTYPE
  5
3F
330
4
100
AcDbSymbolTableRecord
100
AcDbLinetypeTableRecord
  2
STYLE_11
 70
     0
  3

 72
    65
 73
     2
 40
0.6081893029086975
 49
0.4053419511253549
 74
     0
 49
-0.2028473517833426
 74
     0
  0
LTYPE
  5
40
330
4
100
AcDbSymbolTableRecord
100
AcDbLinetypeTableRecord
  2
STYLE_12
 70
     0
  3

 72
    65
 73
     2
 40
1.574803149606299
 49
0.7874015748031495
 74
     0
 49
-0.7874015748031495
 74
     0
  0
LTYPE
  5
224
330
4
100
AcDbSymbolTableRecord
100
AcDbLinetypeTableRecord
  2
HIDDEN
 70
     0
  3
Hidden __ __ __ __ __ __ __ __ __ __ __ __ __ _
 72
    65
 73
     2
 40
0.375
 49
0.25
 74
     0
 49
-0.125
 74
     0
  0
ENDTAB
  0
TABLE
  2
LAYER
  5
2
102
{ACAD_XDICTIONARY
360
C55
102
}
330
0
100
AcDbSymbolTable
 70
    14
  0
LAYER
  5
14
330
2
100
AcDbSymbolTableRecord
100
AcDbLayerTableRecord
  2
0
 70
     0
 62
     7
  6
Continuous
370
    -3
390
1D
347
211
  0
LAYER
  5
41
330
2
100
AcDbSymbolTableRecord
100
AcDbLayerTableRecord
  2
Defpoints
 70
     0
 62
     7
  6
Continuous
290
     0
370
    -3
390
1D
347
211
  0
LAYER
  5
42
330
2
100
AcDbSymbolTableRecord
100
AcDbLayerTableRecord
  2
template
 70
     0
 62
     7
  6
Continuous
370
    -3
390
1D
347
211
  0
LAYER
  5
43
330
2
100
AcDbSymbolTableRecord
100
AcDbLayerTableRecord
  2
notes
 70
     0
 62
     7
  6
Continuous
370
    -3
390
1D
347
211
  0
LAYER
  5
44
330
2
100
AcDbSymbolTableRecord
100
AcDbLayerTableRecord
  2
ADF70-2003
 70
     0
 62
     7
  6
Continuous
370
    -3
390
1D
347
211
  0
LAYER
  5
218
102
{ACAD_XDICTIONARY
360
219
102
}
330
2
100
AcDbSymbolTableRecord
100
AcDbLayerTableRecord
  2
QUOTE
 70
     0
 62
     5
  6
Continuous
370
    20
390
1D
347
211
  0
LAYER
  5
21E
102
{ACAD_XDICTIONARY
360
21F
102
}
330
2
100
AcDbSymbolTableRecord
100
AcDbLayerTableRecord
  2
CARTIGLIO E TESTI
 70
     0
 62
     4
  6
Continuous
370
    -3
390
1D
347
211
  0
LAYER
  5
221
330
2
100
AcDbSymbolTableRecord
100
AcDbLayerTableRecord
  2
Retino
 70
     0
 62
   254
  6
Continuous
370
     5
390
1D
347
211
1001
AcAecLayerStandard
1000

1000

  0
LAYER
  5
223
330
2
100
AcDbSymbolTableRecord
100
AcDbLayerTableRecord
  2
idraulica
 70
     0
 62
     4
  6
Continuous
370
    -3
390
1D
347
211
  0
LAYER
  5
ABE
330
2
100
AcDbSymbolTableRecord
100
AcDbLayerTableRecord
  2
ADF70-2401
 70
     0
 62
     7
  6
Continuous
370
    -3
390
1D
347
211
  0
LAYER
  5
B91
330
2
100
AcDbSymbolTableRecord
100
AcDbLayerTableRecord
  2
Dim
 70
     0
 62
     7
  6
Continuous
370
     9
390
1D
347
211
1001
AcAecLayerStandard
1000

1000

  0
LAYER
  5
BDE
330
2
100
AcDbSymbolTableRecord
100
AcDbLayerTableRecord
  2
MODEL
 70
     0
 62
     7
  6
Continuous
370
    -3
390
1D
347
211
  0
LAYER
  5
BE0
330
2
100
AcDbSymbolTableRecord
100
AcDbLayerTableRecord
  2
レイヤー 1
 70
     0
 62
     7
  6
Continuous
370
    -3
390
1D
347
211
  0
LAYER
  5
C74
330
2
100
AcDbSymbolTableRecord
100
AcDbLayerTableRecord
  2
waku
 70
     0
 62
    -7
  6
Continuous
370
    -3
390
1D
347
211
1001
AcAecLayerStandard
1000

1000

  0
ENDTAB
  0
TABLE
  2
STYLE
  5
3
330
0
100
AcDbSymbolTable
 70
     2
  0
STYLE
  5
17
330
3
100
AcDbSymbolTableRecord
100
AcDbTextStyleTableRecord
  2
Standard
 70
     0
 40
0.0
 41
1.0
 50
0.0
 71
     0
 42
0.0
  3
txt
  4
BIGFONT.SHX
  0
STYLE
  5
34
330
3
100
AcDbSymbolTableRecord
100
AcDbTextStyleTableRecord
  2
ＭＳ ゴシック
 70
     0
 40
0.0
 41
1.0
 50
0.0
 71
     0
 42
0.0
  3
msgothic.ttc
  4
ＭＳ ゴシック
1001
ACAD
1000
ＭＳ ゴシック
1071
        0
  0
ENDTAB
  0
TABLE
  2
VIEW
  5
5
330
0
100
AcDbSymbolTable
 70
     0
  0
ENDTAB
  0
TABLE
  2
UCS
  5
6
330
0
100
AcDbSymbolTable
 70
     0
  0
ENDTAB
  0
TABLE
  2
APPID
  5
8
330
0
100
AcDbSymbolTable
 70
     9
  0
APPID
  5
16
330
8
100
AcDbSymbolTableRecord
100
AcDbRegAppTableRecord
  2
ACAD
 70
     0
  0
APPID
  5
222
330
8
100
AcDbSymbolTableRecord
100
AcDbRegAppTableRecord
  2
AcAecLayerStandard
 70
     0
  0
APPID
  5
22A
330
8
100
AcDbSymbolTableRecord
100
AcDbRegAppTableRecord
  2
ACAD_DSTYLE_DIMJAG
 70
     0
  0
APPID
  5
22B
330
8
100
AcDbSymbolTableRecord
100
AcDbRegAppTableRecord
  2
ACAD_DSTYLE_DIMTALN
 70
     0
  0
APPID
  5
22C
330
8
100
AcDbSymbolTableRecord
100
AcDbRegAppTableRecord
  2
ACAD_PSEXT
 70
     0
  0
APPID
  5
22D
330
8
100
AcDbSymbolTableRecord
100
AcDbRegAppTableRecord
  2
AcLayerTools
 70
     0
  0
APPID
  5
22E
330
8
100
AcDbSymbolTableRecord
100
AcDbRegAppTableRecord
  2
GradientColor1ACI
 70
     0
  0
APPID
  5
22F
330
8
100
AcDbSymbolTableRecord
100
AcDbRegAppTableRecord
  2
GradientColor2ACI
 70
     0
  0
APPID
  5
A6D
330
8
100
AcDbSymbolTableRecord
100
AcDbRegAppTableRecord
  2
ACAD_DSTYLE_DIMRADIAL_EXTENSION
 70
     0
  0
ENDTAB
  0
TABLE
  2
DIMSTYLE
  5
9
330
0
100
AcDbSymbolTable
 70
     4
100
AcDbDimStyleTable
  0
DIMSTYLE
105
18
330
9
100
AcDbSymbolTableRecord
100
AcDbDimStyleTableRecord
  2
Standard
 70
     0
178
     0
340
17
  0
DIMSTYLE
105
4D
102
{ACAD_REACTORS
330
6C1
330
6D4
330
6E3
330
719
330
70A
330
6F5
330
728
330
76C
330
75D
330
77F
330
976
330
967
330
987
330
996
330
A5B
330
C37
102
}
330
9
100
AcDbSymbolTableRecord
100
AcDbDimStyleTableRecord
  2
tform線あり
 70
     0
  3
<>
  4
[]
 41
3.999755859375
 42
25.0
 43
0.9999999999999999
 44
0.0
 73
     0
 74
     0
 77
     1
 78
    11
140
24.4326171875
141
0.0
143
1.0
147
0.4999999999999999
171
     1
172
     1
174
     1
178
     0
179
     2
271
     1
272
     1
276
     2
284
    11
285
    11
286
    11
289
     0
340
34
341
45
342
45
  0
DIMSTYLE
105
57
330
9
100
AcDbSymbolTableRecord
100
AcDbDimStyleTableRecord
  2
Arch
 70
     0
  3
<>
  4
[]
 41
22.4482421875
 42
15.875
 43
10.16
 44
31.75
 46
1.5875
 73
     0
 74
     0
 77
     1
 78
    11
140
24.4326171875
141
0.0
143
1.0
147
1.5875
171
     1
172
     1
174
     1
178
     0
179
     2
271
     1
272
     1
276
     2
284
    11
285
    11
286
    11
289
     0
340
34
341
53
342
4E
  0
DIMSTYLE
105
AC9
102
{ACAD_REACTORS
330
BCB
102
}
330
9
100
AcDbSymbolTableRecord
100
AcDbDimStyleTableRecord
  2
JIS
 70
     0
  3
<>
  4
[]
 41
31.75
 42
0.0
 43
6.99999999999994
 44
19.9999999999962
 73
     0
 74
     0
 77
     1
 78
    11
140
24.4326171875
141
0.0
143
1.0
147
1.00000000000108
171
     1
174
     1
178
     0
179
     2
271
     1
272
     1
276
     2
284
    11
285
    11
286
    11
289
     0
340
34
341
53
342
53
  0
ENDTAB
  0
TABLE
  2
BLOCK_RECORD
  5
1
330
0
100
AcDbSymbolTable
 70
    36
  0
BLOCK_RECORD
  5
A
330
1
100
AcDbSymbolTableRecord
100
AcDbBlockTableRecord
  2
*MODEL_SPACE
340
20
 70
     0
280
     1
281
     0
  0
BLOCK_RECORD
  5
B
330
1
100
AcDbSymbolTableRecord
100
AcDbBlockTableRecord
  2
*PAPER_SPACE
340
21
 70
     0
280
     1
281
     0
  0
BLOCK_RECORD
  5
45
330
1
100
AcDbSymbolTableRecord
100
AcDbBlockTableRecord
  2
_DOT
340
0
102
{BLKREFS
331
6CA
331
6CB
331
6DD
331
6DE
331
0
331
0
331
6FE
331
6FF
331
713
331
714
331
722
331
723
331
731
331
732
331
766
331
767
331
0
331
0
331
788
331
789
331
970
331
971
331
0
331
0
331
98E
331
98F
331
99F
331
9A0
331
A64
331
A65
331
A78
331
A79
331
B04
331
B05
331
B14
331
B15
331
B2A
331
B2B
331
B7C
331
B7D
331
B8A
331
B8B
331
BD2
331
BD3
331
C40
331
C41
331
6ED
331
6EC
331
980
331
97F
331
776
331
775
102
}
 70
     0
280
     1
281
     0
  0
BLOCK_RECORD
  5
4E
330
1
100
AcDbSymbolTableRecord
100
AcDbBlockTableRecord
  2
VW_SLASH
340
0
 70
     0
280
     1
281
     0
  0
BLOCK_RECORD
  5
53
330
1
100
AcDbSymbolTableRecord
100
AcDbBlockTableRecord
  2
VW_FILLEDARROW
340
0
102
{BLKREFS
331
BC0
331
BC1
102
}
 70
     0
280
     1
281
     0
  0
BLOCK_RECORD
  5
23
330
1
100
AcDbSymbolTableRecord
100
AcDbBlockTableRecord
  2
グループ
340
0
 70
     0
280
     1
281
     0
  0
BLOCK_RECORD
  5
227
330
1
100
AcDbSymbolTableRecord
100
AcDbBlockTableRecord
  2
_None
340
0
 70
     0
280
     1
281
     0
  0
BLOCK_RECORD
  5
6C4
330
1
100
AcDbSymbolTableRecord
100
AcDbBlockTableRecord
  2
*D5
340
0
 70
     0
280
     1
281
     0
  0
BLOCK_RECORD
  5
6D7
330
1
100
AcDbSymbolTableRecord
100
AcDbBlockTableRecord
  2
*D6
340
0
 70
     0
280
     1
281
     0
  0
BLOCK_RECORD
  5
6E6
330
1
100
AcDbSymbolTableRecord
100
AcDbBlockTableRecord
  2
*D7
340
0
 70
     0
280
     1
281
     0
  0
BLOCK_RECORD
  5
6F8
330
1
100
AcDbSymbolTableRecord
100
AcDbBlockTableRecord
  2
*D8
340
0
 70
     0
280
     1
281
     0
  0
BLOCK_RECORD
  5
70D
330
1
100
AcDbSymbolTableRecord
100
AcDbBlockTableRecord
  2
*D9
340
0
 70
     0
280
     1
281
     0
  0
BLOCK_RECORD
  5
71C
330
1
100
AcDbSymbolTableRecord
100
AcDbBlockTableRecord
  2
*D10
340
0
 70
     0
280
     1
281
     0
  0
BLOCK_RECORD
  5
72B
330
1
100
AcDbSymbolTableRecord
100
AcDbBlockTableRecord
  2
*D11
340
0
 70
     0
280
     1
281
     0
  0
BLOCK_RECORD
  5
760
330
1
100
AcDbSymbolTableRecord
100
AcDbBlockTableRecord
  2
*D12
340
0
 70
     0
280
     1
281
     0
  0
BLOCK_RECORD
  5
76F
330
1
100
AcDbSymbolTableRecord
100
AcDbBlockTableRecord
  2
*D13
340
0
 70
     0
280
     1
281
     0
  0
BLOCK_RECORD
  5
782
330
1
100
AcDbSymbolTableRecord
100
AcDbBlockTableRecord
  2
*D14
340
0
 70
     0
280
     1
281
     0
  0
BLOCK_RECORD
  5
96A
330
1
100
AcDbSymbolTableRecord
100
AcDbBlockTableRecord
  2
*D15
340
0
 70
     0
280
     1
281
     0
  0
BLOCK_RECORD
  5
979
330
1
100
AcDbSymbolTableRecord
100
AcDbBlockTableRecord
  2
*D16
340
0
 70
     0
280
     1
281
     0
  0
BLOCK_RECORD
  5
988
330
1
100
AcDbSymbolTableRecord
100
AcDbBlockTableRecord
  2
*D17
340
0
 70
     0
280
     1
281
     0
  0
BLOCK_RECORD
  5
999
330
1
100
AcDbSymbolTableRecord
100
AcDbBlockTableRecord
  2
*D18
340
0
 70
     0
280
     1
281
     0
  0
BLOCK_RECORD
  5
A5E
330
1
100
AcDbSymbolTableRecord
100
AcDbBlockTableRecord
  2
*D19
340
0
 70
     0
280
     1
281
     0
  0
BLOCK_RECORD
  5
A71
330
1
100
AcDbSymbolTableRecord
100
AcDbBlockTableRecord
  2
*D20
340
0
 70
     0
280
     1
281
     0
  0
BLOCK_RECORD
  5
AED
330
1
100
AcDbSymbolTableRecord
100
AcDbBlockTableRecord
  2
*D21
340
0
 70
     0
280
     1
281
     0
  0
BLOCK_RECORD
  5
AFE
330
1
100
AcDbSymbolTableRecord
100
AcDbBlockTableRecord
  2
*D22
340
0
 70
     0
280
     1
281
     0
  0
BLOCK_RECORD
  5
B0C
330
1
100
AcDbSymbolTableRecord
100
AcDbBlockTableRecord
  2
*D23
340
0
 70
     0
280
     1
281
     0
  0
BLOCK_RECORD
  5
B21
330
1
100
AcDbSymbolTableRecord
100
AcDbBlockTableRecord
  2
*D24
340
0
 70
     0
280
     1
281
     0
  0
BLOCK_RECORD
  5
B65
330
1
100
AcDbSymbolTableRecord
100
AcDbBlockTableRecord
  2
*D25
340
0
 70
     0
280
     1
281
     0
  0
BLOCK_RECORD
  5
B76
330
1
100
AcDbSymbolTableRecord
100
AcDbBlockTableRecord
  2
*D26
340
0
 70
     0
280
     1
281
     0
  0
BLOCK_RECORD
  5
B84
330
1
100
AcDbSymbolTableRecord
100
AcDbBlockTableRecord
  2
*D27
340
0
 70
     0
280
     1
281
     0
  0
BLOCK_RECORD
  5
BBD
330
1
100
AcDbSymbolTableRecord
100
AcDbBlockTableRecord
  2
*D28
340
0
 70
     0
280
     1
281
     0
  0
BLOCK_RECORD
  5
BCE
330
1
100
AcDbSymbolTableRecord
100
AcDbBlockTableRecord
  2
*D29
340
0
 70
     0
280
     1
281
     0
  0
BLOCK_RECORD
  5
C0A
330
1
100
AcDbSymbolTableRecord
100
AcDbBlockTableRecord
  2
名称未設定-1
340
0
102
{BLKREFS
331
C35
102
}
 70
     1
280
     1
281
     0
  0
BLOCK_RECORD
  5
C0D
330
1
100
AcDbSymbolTableRecord
100
AcDbBlockTableRecord
  2
block 2
340
0
102
{BLKREFS
331
C0C
102
}
 70
     0
280
     1
281
     0
  0
BLOCK_RECORD
  5
C10
330
1
100
AcDbSymbolTableRecord
100
AcDbBlockTableRecord
  2
block 3
340
0
102
{BLKREFS
331
C0F
102
}
 70
     0
280
     1
281
     0
  0
BLOCK_RECORD
  5
C13
330
1
100
AcDbSymbolTableRecord
100
AcDbBlockTableRecord
  2
block 4
340
0
102
{BLKREFS
331
C12
102
}
 70
     0
280
     1
281
     0
  0
BLOCK_RECORD
  5
C22
330
1
100
AcDbSymbolTableRecord
100
AcDbBlockTableRecord
  2
block 5
340
0
102
{BLKREFS
331
C21
102
}
 70
     0
280
     1
281
     0
  0
BLOCK_RECORD
  5
C3A
330
1
100
AcDbSymbolTableRecord
100
AcDbBlockTableRecord
  2
*D35
340
0
 70
     0
280
     1
281
     0
  0
ENDTAB
  0
ENDSEC
  0
SECTION
  2
BLOCKS
  0
BLOCK
  5
D
330
A
100
AcDbEntity
  8
0
390
1D
100
AcDbBlockBegin
  2
*MODEL_SPACE
 70
     0
 10
0.0
 20
0.0
 30
0.0
  3
*MODEL_SPACE
  1
*MODEL_SPACE
  0
ENDBLK
  5
E
330
A
100
AcDbEntity
  8
0
390
1D
100
AcDbBlockEnd
  0
BLOCK
  5
F
330
B
100
AcDbEntity
 67
     1
  8
0
390
1D
100
AcDbBlockBegin
  2
*PAPER_SPACE
 70
     0
 10
0.0
 20
0.0
 30
0.0
  3
*PAPER_SPACE
  1
*PAPER_SPACE
  0
ENDBLK
  5
10
330
B
100
AcDbEntity
 67
     1
  8
0
390
1D
100
AcDbBlockEnd
  0
BLOCK
  5
46
330
45
100
AcDbEntity
  8
0
390
1D
100
AcDbBlockBegin
  2
_DOT
 70
     0
 10
0.0
 20
0.0
 30
0.0
  3
_DOT
  1
_DOT
  0
POLYLINE
  5
47
330
45
100
AcDbEntity
  8
0
  6
ByBlock
 62
     0
370
    -2
390
1D
100
AcDb2dPolyline
 66
     1
 10
0.0
 20
0.0
 30
0.0
 70
     1
 40
0.5
 41
0.5
  0
VERTEX
  5
48
330
47
100
AcDbEntity
  8
0
  6
ByBlock
 62
     0
370
    -2
390
1D
100
AcDbVertex
100
AcDb2dVertex
 10
-0.25
 20
0.0
 30
0.0
 42
1.0
  0
VERTEX
  5
49
330
47
100
AcDbEntity
  8
0
  6
ByBlock
 62
     0
370
    -2
390
1D
100
AcDbVertex
100
AcDb2dVertex
 10
0.25
 20
0.0
 30
0.0
 42
1.0
  0
SEQEND
  5
4A
330
47
100
AcDbEntity
  8
0
390
1D
  0
LINE
  5
4B
330
45
100
AcDbEntity
  8
0
  6
ByBlock
 62
     0
370
    -2
390
1D
100
AcDbLine
 10
-0.5
 20
0.0
 30
0.0
 11
-1.0
 21
0.0
 31
0.0
  0
ENDBLK
  5
4C
330
45
100
AcDbEntity
  8
0
390
1D
100
AcDbBlockEnd
  0
BLOCK
  5
4F
330
4E
100
AcDbEntity
  8
0
  6
ByBlock
 62
     0
370
    -2
390
1D
100
AcDbBlockBegin
  2
VW_SLASH
 70
     0
 10
0.0
 20
0.0
 30
0.0
  3
VW_SLASH
  1
VW_SLASH
  0
LINE
  5
50
330
4E
100
AcDbEntity
  8
0
  6
ByBlock
 62
     0
370
    -2
390
1D
100
AcDbLine
 10
0.0
 20
0.0
 30
0.0
 11
-1.0
 21
0.0
 31
0.0
  0
LINE
  5
51
330
4E
100
AcDbEntity
  8
0
  6
ByBlock
 62
     0
370
    20
390
1D
100
AcDbLine
 10
-0.4987813153181721
 20
-0.4987813153181719
 30
0.0
 11
0.4987813153181721
 21
0.4987813153181719
 31
0.0
  0
ENDBLK
  5
52
330
4E
100
AcDbEntity
  8
0
390
1D
100
AcDbBlockEnd
  0
BLOCK
  5
54
330
53
100
AcDbEntity
  8
0
  6
ByBlock
 62
     0
370
    -2
390
1D
100
AcDbBlockBegin
  2
VW_FILLEDARROW
 70
     0
 10
0.0
 20
0.0
 30
0.0
  3
VW_FILLEDARROW
  1
VW_FILLEDARROW
  0
SOLID
  5
55
330
53
100
AcDbEntity
  8
0
 62
     0
370
    -2
390
1D
100
AcDbTrace
 10
0.0
 20
0.0
 30
0.0
 11
-1.4107666015625
 21
-0.3780137715974714
 31
0.0
 12
-1.4107666015625
 22
0.3780137715974717
 32
0.0
 13
-1.4107666015625
 23
0.3780137715974717
 33
0.0
  0
ENDBLK
  5
56
330
53
100
AcDbEntity
  8
0
390
1D
100
AcDbBlockEnd
  0
BLOCK
  5
58
330
23
100
AcDbEntity
  8
template
390
1D
100
AcDbBlockBegin
  2
グループ
 70
     0
 10
0.0
 20
0.0
 30
0.0
  3
グループ
  1
グループ
  0
LWPOLYLINE
  5
59
330
23
100
AcDbEntity
  8
0
  6
Continuous
 62
     7
370
    15
390
1D
100
AcDbPolyline
 90
        8
 70
   129
 43
0.0
 10
691.4446650480781
 20
-1395.545231611638
 10
691.4446650480781
 20
-1401.542620305213
 10
681.943468130075
 20
-1401.542620305213
 10
681.943468130075
 20
-1425.993583568722
 10
673.5880908682916
 20
-1425.993583568722
 10
673.5880908682916
 20
-1401.542620305213
 10
664.2551339219822
 20
-1401.542620305213
 10
664.2551339219822
 20
-1395.545231611638
  0
LWPOLYLINE
  5
5A
330
23
100
AcDbEntity
  8
0
  6
Continuous
 62
     7
370
    15
390
1D
100
AcDbPolyline
 90
      101
 70
   128
 43
0.0
 10
704.1729568786354
 20
-1396.273480104574
 10
704.1883069074211
 20
-1396.269119347889
 42
-0.0222221607811395
 10
704.4783114840916
 20
-1396.200494882644
 10
704.4941052480801
 20
-1396.197491459548
 42
-0.0146883565590452
 10
704.7568079533089
 20
-1396.155488272598
 42
-0.0127458844181964
 10
705.0214469204687
 20
-1396.127951304525
 10
705.0839019987748
 20
-1396.123057881937
 42
-0.0198099018568988
 10
705.4747511082478
 20
-1396.107972724541
 10
705.5265625776951
 20
-1396.108026500206
 42
-0.0147617382761252
 10
706.0211860386702
 20
-1396.123146525451
 10
706.0938774935461
 20
-1396.127519132339
 42
-0.0162624549004173
 10
706.4840311230096
 20
-1396.163752007611
 10
706.6055635142662
 20
-1396.179038566607
 42
-0.008002087466736
 10
706.7511425453599
 20
-1396.199721413876
 10
706.7894620159489
 20
-1396.205792691686
 42
-0.0053821929678382
 10
706.8579461212698
 20
-1396.217400215508
 10
706.1315404220709
 20
-1398.398328671222
 42
0.0108667757415004
 10
706.0642233519413
 20
-1398.385141556003
 10
706.0267553287508
 20
-1398.378643813408
 42
0.0170663203309693
 10
705.8835385418296
 20
-1398.358814216116
 10
705.8156632091518
 20
-1398.351767045529
 42
0.0220162375273667
 10
705.535283801299
 20
-1398.335084684759
 10
705.4574282342452
 20
-1398.333885317492
 42
0.028260691578479
 10
705.121791910668
 20
-1398.347688594461
 10
705.0778786368957
 20
-1398.351988584465
 42
0.0169677213689703
 10
704.8319541419364
 20
-1398.384525634017
 42
0.0190576269863981
 10
704.5890461793568
 20
-1398.434672506123
 10
704.582786991245
 20
-1398.436215480232
 42
0.0213685642847085
 10
704.332402506766
 20
-1398.509415765338
 10
704.3269126118507
 20
-1398.511278761396
 42
0.0237595297603495
 10
704.073417726951
 20
-1398.610963283292
 10
704.0683156529226
 20
-1398.61325505877
 42
0.0261857468807904
 10
703.8161448766929
 20
-1398.742791396144
 10
703.8057186876077
 20
-1398.748856870611
 42
0.0272553062027397
 10
703.569288912367
 20
-1398.904229076557
 10
703.534525898858
 20
-1398.929890224649
 42
0.0325996893165644
 10
703.3843705552058
 20
-1399.056638097621
 10
703.3606611260813
 20
-1399.079456126135
 42
0.0138050960666916
 10
703.2687779698731
 20
-1399.172905787685
 42
0.0125280103788981
 10
703.1819354370356
 20
-1399.271069114291
 10
703.1582549921318
 20
-1399.299227612473
 42
0.0205218024731131
 10
703.0331549166203
 20
-1399.461020926698
 10
703.0106885761302
 20
-1399.492680656529
 42
0.0163110129596359
 10
702.8549781968793
 20
-1399.728011091598
 10
702.852254300828
 20
-1399.732434853584
 42
0.0131897341886712
 10
702.7054537799231
 20
-1399.985566945947
 10
702.703753684556
 20
-1399.988685185084
 42
0.0107895576071704
 10
702.5659769823421
 20
-1400.254900394726
 10
702.5652440928202
 20
-1400.256394627366
 42
0.009137150721061
 10
702.4367641441738
 20
-1400.530919825119
 10
702.4070185127616
 20
-1400.597626332284
 42
0.01354183263584
 10
702.2353045736892
 20
-1401.012564117555
 10
702.2016997652553
 20
-1401.100430259836
 42
0.0092834542408583
 10
702.0304707053351
 20
-1401.57432875814
 10
702.0048535776227
 20
-1401.649569827918
 42
0.0054261043580392
 10
701.8972154293247
 20
-1401.977333800998
 10
701.8796894431252
 20
-1402.032721963298
 42
0.0008225090786813
 10
701.8110193913158
 20
-1402.250990721378
 10
700.8263302593837
 20
-1405.275882014634
 10
704.0589540994565
 20
-1405.275882014634
 10
703.5547616696035
 20
-1407.180360312987
 10
700.29870538762
 20
-1407.180360312987
 10
694.4695563552664
 20
-1425.993583378991
 10
692.6444587449564
 20
-1425.993583378991
 10
698.4791367804569
 20
-1407.180360312987
 10
696.0740204114168
 20
-1407.180360312987
 10
696.5782128412698
 20
-1405.275882014634
 10
699.0067616522206
 20
-1405.275882014634
 10
699.8669165704082
 20
-1402.639469013935
 42
-0.0005863560651682
 10
699.9036512485729
 20
-1402.522642593766
 10
699.9797390822719
 20
-1402.281650294258
 42
-0.0087522378933164
 10
700.1792072257289
 20
-1401.686374207111
 10
700.2714715011455
 20
-1401.42623403859
 42
-0.0077400953826734
 10
700.5294051602737
 20
-1400.73322936105
 10
700.5451701318516
 20
-1400.692798477667
 42
-0.0082369946331959
 10
700.7922546024643
 20
-1400.088719411468
 42
-0.0085725238367015
 10
701.0595006984637
 20
-1399.493293372188
 10
701.1611302994756
 20
-1399.276872270193
 42
-0.0168109410599879
 10
701.4480747282046
 20
-1398.715664744092
 10
701.5739181186491
 20
-1398.488700711121
 42
-0.0007817726844358
 10
701.6282024687202
 20
-1398.391156466063
 10
701.6283307747345
 20
-1398.390926757332
 42
-0.0036626142189332
 10
701.6832186387587
 20
-1398.294328877359
 42
-0.0080221150661181
 10
701.7403428941623
 20
-1398.199049642611
 10
701.7710428455271
 20
-1398.149658693483
 42
-0.0202139325572134
 10
701.8986985853344
 20
-1397.961677092801
 10
701.9527660505214
 20
-1397.888598228561
 42
-0.0249323791796327
 10
702.2119288442403
 20
-1397.572552986407
 10
702.2360686583675
 20
-1397.545938713494
 42
-0.0242132121540088
 10
702.575749399911
 20
-1397.206055227289
 10
702.6236609726592
 20
-1397.162546091105
 42
-0.0251017527855215
 10
702.9076426733013
 20
-1396.929553345339
 10
702.9090881501153
 20
-1396.92848408776
 42
-0.0130868069037334
 10
703.2073488000719
 20
-1396.719703619218
 10
703.2089106192125
 20
-1396.718670178944
 42
-0.0290329526389075
 10
703.5200217606075
 20
-1396.537844677314
 10
703.5498673226
 20
-1396.522742294471
 42
-0.0160250190051603
 10
703.8157717363579
 20
-1396.398726184261
 42
-0.0267600374782059
 10
704.0910478138265
 20
-1396.297977863713
 10
704.1177837333485
 20
-1396.289785304887
 42
-0.0049981587629192
 10
704.1729568786354
 20
-1396.273480104574
 42
-0.0049981587629192
  0
LWPOLYLINE
  5
5B
330
23
100
AcDbEntity
  8
0
  6
Continuous
 62
     7
370
    15
390
1D
100
AcDbPolyline
 90
      118
 70
   128
 43
0.0
 10
723.9873244430814
 20
-1405.349865342461
 10
725.8624463675819
 20
-1405.349865342461
 10
725.0244074619818
 20
-1408.031431868862
 42
-0.0010587229264641
 10
725.0558632775586
 20
-1407.994527335499
 10
725.1140573681855
 20
-1407.92654507933
 42
-0.0071874740408015
 10
725.2644325862831
 20
-1407.755904387302
 10
725.4061553595461
 20
-1407.599668245988
 42
-0.0148118053512785
 10
725.8562846522543
 20
-1407.132054399979
 10
725.943506987166
 20
-1407.046657079116
 42
-0.008627335869069
 10
726.2790557881685
 20
-1406.729281445105
 10
726.3228895043962
 20
-1406.68923180077
 42
-0.0103138323117361
 10
726.5809132066283
 20
-1406.463068663434
 10
726.6266876129495
 20
-1406.424586616178
 42
-0.0060206748551145
 10
726.7995356770675
 20
-1406.282791965419
 10
726.8015668079556
 20
-1406.281166259786
 42
-0.0067069027304655
 10
726.9738596226157
 20
-1406.147015625993
 10
726.9764083885397
 20
-1406.145085456119
 42
-0.0076184352047302
 10
727.1473136544132
 20
-1406.019710580874
 42
-0.0089652861677587
 10
727.3222746171459
 20
-1405.900077320543
 10
727.3586263372953
 20
-1405.876166107057
 42
-0.0156916245939891
 10
727.5545858344535
 20
-1405.755903620584
 42
-0.0023299011056648
 10
727.7548478784215
 20
-1405.64272568105
 10
727.7702320108133
 20
-1405.634125685978
 42
-0.0107669341489211
 10
728.0044688359151
 20
-1405.509725552629
 10
728.0267336369893
 20
-1405.498508802679
 42
-0.0078058045899109
 10
728.3103237549368
 20
-1405.361147347043
 10
728.3202308426512
 20
-1405.356538219172
 42
-0.018182933046872
 10
728.630540247268
 20
-1405.225674478076
 10
728.6845956898313
 20
-1405.205159358134
 42
-0.0208411536028687
 10
729.0336806572836
 20
-1405.08906889564
 10
729.0480367574132
 20
-1405.084950450685
 42
-0.0222799817139651
 10
729.3767565513285
 20
-1405.006308884546
 10
729.3856455145662
 20
-1405.004596873961
 42
-0.0215509523879255
 10
729.7021164828452
 20
-1404.957681185427
 10
729.74459844389
 20
-1404.953243658636
 42
-0.0182545924875981
 10
729.9787072231989
 20
-1404.937399833245
 10
730.0181082395486
 20
-1404.936175288165
 42
-0.0072962856536331
 10
730.1740311192357
 20
-1404.933605959643
 10
730.2031307898028
 20
-1404.93355112424
 42
-0.0059227516322378
 10
730.3008802889531
 20
-1404.93452483603
 10
730.3301225064394
 20
-1404.935162602634
 42
-0.0011833111894172
 10
730.3693737901572
 20
-1404.936111606944
 10
729.5739871945511
 20
-1407.474845552043
 42
0.0143932051523024
 10
729.5475858121953
 20
-1407.464646581996
 10
729.5403138397819
 20
-1407.46207536314
 42
0.023438860350724
 10
729.4984829738487
 20
-1407.449456127424
 10
729.4898013109373
 20
-1407.44727516542
 42
0.0199162742979823
 10
729.4295124768579
 20
-1407.434658430084
 10
729.4086985390509
 20
-1407.431161230656
 42
0.0293643550666596
 10
729.305623680292
 20
-1407.420011185003
 10
729.2809384995712
 20
-1407.418799567984
 42
0.0214606686863921
 10
729.1277975836185
 20
-1407.417861007567
 10
729.1184256728015
 20
-1407.418205919111
 42
0.0167564054180274
 10
728.9469054816973
 20
-1407.430282961478
 10
728.9384456889343
 20
-1407.431164301906
 42
0.0137677553244483
 10
728.7510923756618
 20
-1407.455913610451
 10
728.743740636161
 20
-1407.457091530418
 42
0.0118497261486853
 10
728.5432428720588
 20
-1407.494108880607
 10
728.5370928648122
 20
-1407.495395743327
 42
0.0106421143891642
 10
728.3262119775236
 20
-1407.544228118903
 10
728.3213031691389
 20
-1407.545475461587
 42
0.0099746379699849
 10
728.1028446999762
 20
-1407.605649989902
 10
728.0412966598064
 20
-1407.623931868532
 42
0.0191613675859406
 10
727.7053121972912
 20
-1407.737909248819
 10
727.6172524245452
 20
-1407.771596159143
 42
0.0205274080143762
 10
727.2319456526443
 20
-1407.93742456697
 10
727.1742963706614
 20
-1407.965092531542
 42
0.018125691219821
 10
726.9160194299952
 20
-1408.10077635052
 10
726.8630640466816
 20
-1408.131093963734
 42
0.0140709242403268
 10
726.7181091120533
 20
-1408.219588637169
 10
726.6918602434405
 20
-1408.236645455881
 42
0.0086667884369086
 10
726.6029340818918
 20
-1408.296648123767
 42
0.0036408192045566
 10
726.5155008438388
 20
-1408.358828981573
 10
726.4802739693891
 20
-1408.384269927473
 42
0.0052260781286038
 10
726.3240452719978
 20
-1408.499602314108
 10
726.3078384157393
 20
-1408.511830424725
 42
0.0050024435886677
 10
726.1218350727006
 20
-1408.655112992972
 10
726.1065169161661
 20
-1408.667159015433
 42
0.0136138710266564
 10
725.8960756478403
 20
-1408.842125520346
 10
725.8624077720465
 20
-1408.87170449306
 42
0.0172815186929366
 10
725.5980042303844
 20
-1409.120701165683
 10
725.5954418845408
 20
-1409.123286982831
 42
0.0189403857987339
 10
725.3448600859628
 20
-1409.396092247634
 10
725.3122285924237
 20
-1409.434436179135
 42
0.0185044199509954
 10
725.120272153446
 20
-1409.677684760255
 42
0.0088565243898254
 10
724.9418120468144
 20
-1409.93120118041
 10
724.9326340671691
 20
-1409.944742560165
 42
0.0157195347226327
 10
724.7494134608346
 20
-1410.234264769481
 10
724.7033305189051
 20
-1410.312416966499
 42
0.0095451879791392
 10
724.5382449687663
 20
-1410.605011608858
 10
724.5270970498336
 20
-1410.625682280996
 42
0.0100351706247434
 10
724.3950533006778
 20
-1410.882737841481
 42
0.0086935915421987
 10
724.2727221488855
 20
-1411.144570986881
 10
724.2694014074691
 20
-1411.152013309857
 42
0.0072580174866564
 10
724.1490549555264
 20
-1411.432605301435
 10
724.1457933222177
 20
-1411.440525327458
 42
0.006000512262458
 10
724.0265926538702
 20
-1411.740134998078
 10
724.023381675534
 20
-1411.748496525968
 42
0.0049017786965081
 10
723.9044815166757
 20
-1412.067425506574
 10
723.9013157102859
 20
-1412.076178443803
 42
0.0039415167617019
 10
723.7818794322304
 20
-1412.414720506211
 10
723.7787483295765
 20
-1412.423823707092
 42
0.0031035838761812
 10
723.6579435438878
 20
-1412.782263568854
 10
723.6548334993536
 20
-1412.791684190241
 42
0.0025070747150438
 10
723.5319321480407
 20
-1413.170331407178
 10
723.4946382516132
 20
-1413.287223072437
 42
0.0029081910283165
 10
723.3026199537991
 20
-1413.901386730741
 10
723.2618167852856
 20
-1414.034609973005
 42
0.0009266453731442
 10
722.9933994109656
 20
-1414.916834432945
 10
722.9725119383313
 20
-1414.98594631216
 42
-0.0005809993664158
 10
722.6951752577384
 20
-1415.899754418803
 10
722.628893459475
 20
-1416.117239350932
 42
-0.0012018708166242
 10
722.4819091500362
 20
-1416.595402015484
 10
722.4295892984553
 20
-1416.764161156399
 42
-0.0002691059623927
 10
722.386019817302
 20
-1416.904428776691
 10
719.5530639190124
 20
-1425.993583378991
 10
717.7350750270339
 20
-1425.993583378991
 10
723.9873244430814
 20
-1405.349865342461
  0
SPLINE
  5
5C
330
23
100
AcDbEntity
  8
0
  6
Continuous
 62
     7
370
    15
390
1D
100
AcDbSpline
210
0.0
220
0.0
230
1.0
 70
    15
 71
     2
 72
   782
 73
   779
 74
     0
 42
0.000000001
 43
0.000001
 40
0.0
 40
0.0
 40
0.0
 40
1.0
 40
1.0
 40
2.0
 40
2.0
 40
3.0
 40
3.0
 40
4.0
 40
4.0
 40
5.0
 40
5.0
 40
6.0
 40
6.0
 40
7.0
 40
7.0
 40
8.0
 40
8.0
 40
9.0
 40
9.0
 40
10.0
 40
10.0
 40
11.0
 40
11.0
 40
12.0
 40
12.0
 40
13.0
 40
13.0
 40
14.0
 40
14.0
 40
15.0
 40
15.0
 40
16.0
 40
16.0
 40
17.0
 40
17.0
 40
18.0
 40
18.0
 40
19.0
 40
19.0
 40
20.0
 40
20.0
 40
21.0
 40
21.0
 40
22.0
 40
22.0
 40
23.0
 40
23.0
 40
24.0
 40
24.0
 40
25.0
 40
25.0
 40
26.0
 40
26.0
 40
27.0
 40
27.0
 40
28.0
 40
28.0
 40
29.0
 40
29.0
 40
30.0
 40
30.0
 40
31.0
 40
31.0
 40
32.0
 40
32.0
 40
33.0
 40
33.0
 40
34.0
 40
34.0
 40
35.0
 40
35.0
 40
36.0
 40
36.0
 40
37.0
 40
37.0
 40
38.0
 40
38.0
 40
39.0
 40
39.0
 40
40.0
 40
40.0
 40
41.0
 40
41.0
 40
42.0
 40
42.0
 40
43.0
 40
43.0
 40
44.0
 40
44.0
 40
45.0
 40
45.0
 40
46.0
 40
46.0
 40
47.0
 40
47.0
 40
48.0
 40
48.0
 40
49.0
 40
49.0
 40
50.0
 40
50.0
 40
51.0
 40
51.0
 40
52.0
 40
52.0
 40
53.0
 40
53.0
 40
54.0
 40
54.0
 40
55.0
 40
55.0
 40
56.0
 40
56.0
 40
57.0
 40
57.0
 40
58.0
 40
58.0
 40
59.0
 40
59.0
 40
60.0
 40
60.0
 40
61.0
 40
61.0
 40
62.0
 40
62.0
 40
63.0
 40
63.0
 40
64.0
 40
64.0
 40
65.0
 40
65.0
 40
66.0
 40
66.0
 40
67.0
 40
67.0
 40
68.0
 40
68.0
 40
69.0
 40
69.0
 40
70.0
 40
70.0
 40
71.0
 40
71.0
 40
72.0
 40
72.0
 40
73.0
 40
73.0
 40
74.0
 40
74.0
 40
75.0
 40
75.0
 40
76.0
 40
76.0
 40
77.0
 40
77.0
 40
78.0
 40
78.0
 40
79.0
 40
79.0
 40
80.0
 40
80.0
 40
81.0
 40
81.0
 40
82.0
 40
82.0
 40
83.0
 40
83.0
 40
84.0
 40
84.0
 40
85.0
 40
85.0
 40
86.0
 40
86.0
 40
87.0
 40
87.0
 40
88.0
 40
88.0
 40
89.0
 40
89.0
 40
90.0
 40
90.0
 40
91.0
 40
91.0
 40
92.0
 40
92.0
 40
93.0
 40
93.0
 40
94.0
 40
94.0
 40
95.0
 40
95.0
 40
96.0
 40
96.0
 40
97.0
 40
97.0
 40
98.0
 40
98.0
 40
99.0
 40
99.0
 40
100.0
 40
100.0
 40
101.0
 40
101.0
 40
102.0
 40
102.0
 40
103.0
 40
103.0
 40
104.0
 40
104.0
 40
105.0
 40
105.0
 40
106.0
 40
106.0
 40
107.0
 40
107.0
 40
108.0
 40
108.0
 40
109.0
 40
109.0
 40
110.0
 40
110.0
 40
111.0
 40
111.0
 40
112.0
 40
112.0
 40
113.0
 40
113.0
 40
114.0
 40
114.0
 40
115.0
 40
115.0
 40
116.0
 40
116.0
 40
117.0
 40
117.0
 40
118.0
 40
118.0
 40
119.0
 40
119.0
 40
120.0
 40
120.0
 40
121.0
 40
121.0
 40
122.0
 40
122.0
 40
123.0
 40
123.0
 40
124.0
 40
124.0
 40
125.0
 40
125.0
 40
126.0
 40
126.0
 40
127.0
 40
127.0
 40
128.0
 40
128.0
 40
129.0
 40
129.0
 40
130.0
 40
130.0
 40
131.0
 40
131.0
 40
132.0
 40
132.0
 40
133.0
 40
133.0
 40
134.0
 40
134.0
 40
135.0
 40
135.0
 40
136.0
 40
136.0
 40
137.0
 40
137.0
 40
138.0
 40
138.0
 40
139.0
 40
139.0
 40
140.0
 40
140.0
 40
141.0
 40
141.0
 40
142.0
 40
142.0
 40
143.0
 40
143.0
 40
144.0
 40
144.0
 40
145.0
 40
145.0
 40
146.0
 40
146.0
 40
147.0
 40
147.0
 40
148.0
 40
148.0
 40
149.0
 40
149.0
 40
150.0
 40
150.0
 40
151.0
 40
151.0
 40
152.0
 40
152.0
 40
153.0
 40
153.0
 40
154.0
 40
154.0
 40
155.0
 40
155.0
 40
156.0
 40
156.0
 40
157.0
 40
157.0
 40
158.0
 40
158.0
 40
159.0
 40
159.0
 40
160.0
 40
160.0
 40
161.0
 40
161.0
 40
162.0
 40
162.0
 40
163.0
 40
163.0
 40
164.0
 40
164.0
 40
165.0
 40
165.0
 40
166.0
 40
166.0
 40
167.0
 40
167.0
 40
168.0
 40
168.0
 40
169.0
 40
169.0
 40
170.0
 40
170.0
 40
171.0
 40
171.0
 40
172.0
 40
172.0
 40
173.0
 40
173.0
 40
174.0
 40
174.0
 40
175.0
 40
175.0
 40
176.0
 40
176.0
 40
177.0
 40
177.0
 40
178.0
 40
178.0
 40
179.0
 40
179.0
 40
180.0
 40
180.0
 40
181.0
 40
181.0
 40
182.0
 40
182.0
 40
183.0
 40
183.0
 40
184.0
 40
184.0
 40
185.0
 40
185.0
 40
186.0
 40
186.0
 40
187.0
 40
187.0
 40
188.0
 40
188.0
 40
189.0
 40
189.0
 40
190.0
 40
190.0
 40
191.0
 40
191.0
 40
192.0
 40
192.0
 40
193.0
 40
193.0
 40
194.0
 40
194.0
 40
195.0
 40
195.0
 40
196.0
 40
196.0
 40
197.0
 40
197.0
 40
198.0
 40
198.0
 40
199.0
 40
199.0
 40
200.0
 40
200.0
 40
201.0
 40
201.0
 40
202.0
 40
202.0
 40
203.0
 40
203.0
 40
204.0
 40
204.0
 40
205.0
 40
205.0
 40
206.0
 40
206.0
 40
207.0
 40
207.0
 40
208.0
 40
208.0
 40
209.0
 40
209.0
 40
210.0
 40
210.0
 40
211.0
 40
211.0
 40
212.0
 40
212.0
 40
213.0
 40
213.0
 40
214.0
 40
214.0
 40
215.0
 40
215.0
 40
216.0
 40
216.0
 40
217.0
 40
217.0
 40
218.0
 40
218.0
 40
219.0
 40
219.0
 40
220.0
 40
220.0
 40
221.0
 40
221.0
 40
222.0
 40
222.0
 40
223.0
 40
223.0
 40
224.0
 40
224.0
 40
225.0
 40
225.0
 40
226.0
 40
226.0
 40
227.0
 40
227.0
 40
228.0
 40
228.0
 40
229.0
 40
229.0
 40
230.0
 40
230.0
 40
231.0
 40
231.0
 40
232.0
 40
232.0
 40
233.0
 40
233.0
 40
234.0
 40
234.0
 40
235.0
 40
235.0
 40
236.0
 40
236.0
 40
237.0
 40
237.0
 40
238.0
 40
238.0
 40
239.0
 40
239.0
 40
240.0
 40
240.0
 40
241.0
 40
241.0
 40
242.0
 40
242.0
 40
243.0
 40
243.0
 40
244.0
 40
244.0
 40
245.0
 40
245.0
 40
246.0
 40
246.0
 40
247.0
 40
247.0
 40
248.0
 40
248.0
 40
249.0
 40
249.0
 40
250.0
 40
250.0
 40
251.0
 40
251.0
 40
252.0
 40
252.0
 40
253.0
 40
253.0
 40
254.0
 40
254.0
 40
255.0
 40
255.0
 40
256.0
 40
256.0
 40
257.0
 40
257.0
 40
258.0
 40
258.0
 40
259.0
 40
259.0
 40
260.0
 40
260.0
 40
261.0
 40
261.0
 40
262.0
 40
262.0
 40
263.0
 40
263.0
 40
264.0
 40
264.0
 40
265.0
 40
265.0
 40
266.0
 40
266.0
 40
267.0
 40
267.0
 40
268.0
 40
268.0
 40
269.0
 40
269.0
 40
270.0
 40
270.0
 40
271.0
 40
271.0
 40
272.0
 40
272.0
 40
273.0
 40
273.0
 40
274.0
 40
274.0
 40
275.0
 40
275.0
 40
276.0
 40
276.0
 40
277.0
 40
277.0
 40
278.0
 40
278.0
 40
279.0
 40
279.0
 40
280.0
 40
280.0
 40
281.0
 40
281.0
 40
282.0
 40
282.0
 40
283.0
 40
283.0
 40
284.0
 40
284.0
 40
285.0
 40
285.0
 40
286.0
 40
286.0
 40
287.0
 40
287.0
 40
288.0
 40
288.0
 40
289.0
 40
289.0
 40
290.0
 40
290.0
 40
291.0
 40
291.0
 40
292.0
 40
292.0
 40
293.0
 40
293.0
 40
294.0
 40
294.0
 40
295.0
 40
295.0
 40
296.0
 40
296.0
 40
297.0
 40
297.0
 40
298.0
 40
298.0
 40
299.0
 40
299.0
 40
300.0
 40
300.0
 40
301.0
 40
301.0
 40
302.0
 40
302.0
 40
303.0
 40
303.0
 40
304.0
 40
304.0
 40
305.0
 40
305.0
 40
306.0
 40
306.0
 40
307.0
 40
307.0
 40
308.0
 40
308.0
 40
309.0
 40
309.0
 40
310.0
 40
310.0
 40
311.0
 40
311.0
 40
312.0
 40
312.0
 40
313.0
 40
313.0
 40
314.0
 40
314.0
 40
315.0
 40
315.0
 40
316.0
 40
316.0
 40
317.0
 40
317.0
 40
318.0
 40
318.0
 40
319.0
 40
319.0
 40
320.0
 40
320.0
 40
321.0
 40
321.0
 40
322.0
 40
322.0
 40
323.0
 40
323.0
 40
324.0
 40
324.0
 40
325.0
 40
325.0
 40
326.0
 40
326.0
 40
327.0
 40
327.0
 40
328.0
 40
328.0
 40
329.0
 40
329.0
 40
330.0
 40
330.0
 40
331.0
 40
331.0
 40
332.0
 40
332.0
 40
333.0
 40
333.0
 40
334.0
 40
334.0
 40
335.0
 40
335.0
 40
336.0
 40
336.0
 40
337.0
 40
337.0
 40
338.0
 40
338.0
 40
339.0
 40
339.0
 40
340.0
 40
340.0
 40
341.0
 40
341.0
 40
342.0
 40
342.0
 40
343.0
 40
343.0
 40
344.0
 40
344.0
 40
345.0
 40
345.0
 40
346.0
 40
346.0
 40
347.0
 40
347.0
 40
348.0
 40
348.0
 40
349.0
 40
349.0
 40
350.0
 40
350.0
 40
351.0
 40
351.0
 40
352.0
 40
352.0
 40
353.0
 40
353.0
 40
354.0
 40
354.0
 40
355.0
 40
355.0
 40
356.0
 40
356.0
 40
357.0
 40
357.0
 40
358.0
 40
358.0
 40
359.0
 40
359.0
 40
360.0
 40
360.0
 40
361.0
 40
361.0
 40
362.0
 40
362.0
 40
363.0
 40
363.0
 40
364.0
 40
364.0
 40
365.0
 40
365.0
 40
366.0
 40
366.0
 40
367.0
 40
367.0
 40
368.0
 40
368.0
 40
369.0
 40
369.0
 40
370.0
 40
370.0
 40
371.0
 40
371.0
 40
372.0
 40
372.0
 40
373.0
 40
373.0
 40
374.0
 40
374.0
 40
375.0
 40
375.0
 40
376.0
 40
376.0
 40
377.0
 40
377.0
 40
378.0
 40
378.0
 40
379.0
 40
379.0
 40
380.0
 40
380.0
 40
381.0
 40
381.0
 40
382.0
 40
382.0
 40
383.0
 40
383.0
 40
384.0
 40
384.0
 40
385.0
 40
385.0
 40
386.0
 40
386.0
 40
387.0
 40
387.0
 40
388.0
 40
388.0
 40
389.0
 40
389.0
 40
389.0
 10
734.3160288938157
 20
-1405.338938979099
 30
0.0
 41
1.0
 10
735.1344530025358
 20
-1405.338938979099
 30
0.0
 41
1.0
 10
735.9528771112559
 20
-1405.338938979099
 30
0.0
 41
1.0
 10
735.5391233757396
 20
-1406.681565243349
 30
0.0
 41
1.0
 10
735.1253696402232
 20
-1408.024191507599
 30
0.0
 41
1.0
 10
735.1437091353533
 20
-1407.995490734745
 30
0.0
 41
0.9999957264393937
 10
735.1622161321656
 20
-1407.966897684623
 30
0.0
 41
1.0
 10
735.1926454563306
 20
-1407.919884806204
 30
0.0
 41
1.0
 10
735.2230747804956
 20
-1407.872871927784
 30
0.0
 41
1.0
 10
735.302440425601
 20
-1407.750253120881
 30
0.0
 41
0.999539406908025
 10
735.3890988171534
 20
-1407.632675059139
 30
0.0
 41
1.0
 10
735.4248556794157
 20
-1407.584160166542
 30
0.0
 41
1.0
 10
735.460612541678
 20
-1407.535645273946
 30
0.0
 41
1.0
 10
735.5943392094932
 20
-1407.354204998824
 30
0.0
 41
0.999446061714387
 10
735.7398396907797
 20
-1407.182062601176
 30
0.0
 41
1.0
 10
735.7442278717531
 20
-1407.176870920795
 30
0.0
 41
1.0
 10
735.7486160527263
 20
-1407.171679240415
 30
0.0
 41
1.0
 10
735.885340172065
 20
-1407.009920203529
 30
0.0
 41
0.999435939493453
 10
736.0326144024189
 20
-1406.857704002362
 30
0.0
 41
1.0
 10
736.0349977563724
 20
-1406.855240671989
 30
0.0
 41
1.0
 10
736.0373811103258
 20
-1406.852777341615
 30
0.0
 41
1.0
 10
736.1798886327687
 20
-1406.705487801199
 30
0.0
 41
0.9995293688567521
 10
736.3311603137522
 20
-1406.567214589033
 30
0.0
 41
1.0
 10
736.3504540730162
 20
-1406.549578703381
 30
0.0
 41
1.0
 10
736.3697478322802
 20
-1406.531942817729
 30
0.0
 41
1.0
 10
736.4824319947359
 20
-1406.428941376867
 30
0.0
 41
0.999708761480208
 10
736.5999548836894
 20
-1406.331497096071
 30
0.0
 41
1.0
 10
736.6191209568628
 20
-1406.315605517565
 30
0.0
 41
1.0
 10
736.6382870300364
 20
-1406.299713939058
 30
0.0
 41
1.0
 10
736.7174777726458
 20
-1406.234052815272
 30
0.0
 41
0.9999595338697558
 10
736.7978370434998
 20
-1406.169827084618
 30
0.0
 41
1.0
 10
736.8781963143645
 20
-1406.105601353956
 30
0.0
 41
0.9999749417499707
 10
736.9594568487117
 20
-1406.042519800007
 30
0.0
 41
1.0
 10
736.9804429948651
 20
-1406.026228512712
 30
0.0
 41
1.0
 10
737.0014291410184
 20
-1406.009937225417
 30
0.0
 41
1.0
 10
737.0859970263233
 20
-1405.944288215574
 30
0.0
 41
0.9999792037124599
 10
737.1714046261009
 20
-1405.879735433924
 30
0.0
 41
1.0
 10
737.1922294519829
 20
-1405.863995611689
 30
0.0
 41
1.0
 10
737.2130542778651
 20
-1405.848255789453
 30
0.0
 41
1.0
 10
737.2568122258149
 20
-1405.815182652323
 30
0.0
 41
0.9999993373647226
 10
737.3004939120133
 20
-1405.782008856856
 30
0.0
 41
1.0
 10
737.3441755981556
 20
-1405.748835061432
 30
0.0
 41
0.9999160953818085
 10
737.3887020090793
 20
-1405.716803996231
 30
0.0
 41
1.0
 10
737.4215238964971
 20
-1405.693192840648
 30
0.0
 41
1.0
 10
737.454345783915
 20
-1405.669581685064
 30
0.0
 41
1.0
 10
737.5645159696741
 20
-1405.590328308697
 30
0.0
 41
0.9980964527233226
 10
737.6836049631742
 20
-1405.525240835841
 30
0.0
 41
1.0
 10
737.720637570102
 20
-1405.505000856248
 30
0.0
 41
1.0
 10
737.7576701770298
 20
-1405.484760876655
 30
0.0
 41
1.0
 10
737.9369971903022
 20
-1405.386750625953
 30
0.0
 41
0.9984572810572024
 10
738.1260857566617
 20
-1405.309228364607
 30
0.0
 41
1.0
 10
738.1297320260566
 20
-1405.307733472269
 30
0.0
 41
1.0
 10
738.1333782954514
 20
-1405.306238579932
 30
0.0
 41
1.0
 10
738.3151743230198
 20
-1405.231706103261
 30
0.0
 41
0.9987838528033838
 10
738.5034269815801
 20
-1405.175440463095
 30
0.0
 41
1.0
 10
738.5076649307795
 20
-1405.174173809404
 30
0.0
 41
1.0
 10
738.5119028799788
 20
-1405.172907155714
 30
0.0
 41
1.0
 10
738.6916796401403
 20
-1405.119174822929
 30
0.0
 41
0.9990652816207314
 10
738.8754255718554
 20
-1405.081171143387
 30
0.0
 41
1.0
 10
738.8806139728872
 20
-1405.08009804028
 30
0.0
 41
1.0
 10
738.8858023739191
 20
-1405.079024937174
 30
0.0
 41
1.0
 10
739.0591715035723
 20
-1405.043167463845
 30
0.0
 41
0.999290993427044
 10
739.2347472700299
 20
-1405.020457031378
 30
0.0
 41
1.0
 10
739.4103230364873
 20
-1404.997746598912
 30
0.0
 41
0.9994553539448296
 10
739.5870144695792
 20
-1404.986667294706
 30
0.0
 41
1.0
 10
739.6224488773747
 20
-1404.984445406658
 30
0.0
 41
1.0
 10
739.6578832851702
 20
-1404.98222351861
 30
0.0
 41
1.0
 10
739.8241090517413
 20
-1404.971800456198
 30
0.0
 41
0.9990928098292969
 10
739.9906188436448
 20
-1404.975560097433
 30
0.0
 41
1.0
 10
740.0291806789176
 20
-1404.976430788966
 30
0.0
 41
1.0
 10
740.0677425141903
 20
-1404.977301480499
 30
0.0
 41
1.0
 10
740.1571286355484
 20
-1404.979319738667
 30
0.0
 41
0.9998382089206512
 10
740.2463843183336
 20
-1404.984551865195
 30
0.0
 41
1.0
 10
740.2468142245517
 20
-1404.984577066097
 30
0.0
 41
1.0
 10
740.2472441307698
 20
-1404.984602267
 30
0.0
 41
1.0
 10
740.3356400011181
 20
-1404.989783991723
 30
0.0
 41
0.9997558016758197
 10
740.4237205783206
 20
-1404.99886650709
 30
0.0
 41
1.0
 10
740.4241967167522
 20
-1404.998915604573
 30
0.0
 41
1.0
 10
740.4246728551838
 20
-1404.998964702055
 30
0.0
 41
1.0
 10
740.5118011555236
 20
-1405.007949022456
 30
0.0
 41
0.9996565144180654
 10
740.5983390088636
 20
-1405.021486329145
 30
0.0
 41
1.0
 10
740.5988049342432
 20
-1405.021559214877
 30
0.0
 41
1.0
 10
740.5992708596228
 20
-1405.021632100609
 30
0.0
 41
1.0
 10
740.6848768622073
 20
-1405.035023635835
 30
0.0
 41
0.9995321806867818
 10
740.769503942533
 20
-1405.053624124264
 30
0.0
 41
1.0
 10
740.7698931371024
 20
-1405.053709666729
 30
0.0
 41
1.0
 10
740.7702823316716
 20
-1405.053795209194
 30
0.0
 41
1.0
 10
740.8541310228587
 20
-1405.072224612692
 30
0.0
 41
0.9993819199219449
 10
740.9364775570571
 20
-1405.096499995954
 30
0.0
 41
1.0
 10
740.9367159905572
 20
-1405.096570285064
 30
0.0
 41
1.0
 10
740.9369544240574
 20
-1405.096640574174
 30
0.0
 41
1.0
 10
741.0188240912554
 20
-1405.120775379215
 30
0.0
 41
0.9992088568505461
 10
741.0985166102414
 20
-1405.151340615009
 30
0.0
 41
1.0
 10
741.1781976011206
 20
-1405.181900215742
 30
0.0
 41
0.9990226101774637
 10
741.254868271028
 20
-1405.219377647356
 30
0.0
 41
1.0
 10
741.3315274128265
 20
-1405.25684944391
 30
0.0
 41
0.9988424273970723
 10
741.4042310400387
 20
-1405.301514219163
 30
0.0
 41
1.0
 10
741.4044987484181
 20
-1405.301678683235
 30
0.0
 41
1.0
 10
741.4047664567975
 20
-1405.301843147307
 30
0.0
 41
1.0
 10
741.4780055007687
 20
-1405.346836850705
 30
0.0
 41
0.9986928844491979
 10
741.5462683674781
 20
-1405.399072584984
 30
0.0
 41
1.0
 10
741.5468496597009
 20
-1405.399517398212
 30
0.0
 41
1.0
 10
741.5474309519236
 20
-1405.39996221144
 30
0.0
 41
1.0
 10
741.6168564030793
 20
-1405.453087572175
 30
0.0
 41
0.9986007262276645
 10
741.680282572846
 20
-1405.513248341869
 30
0.0
 41
1.0
 10
741.6811769883029
 20
-1405.514096709704
 30
0.0
 41
1.0
 10
741.6820714037599
 20
-1405.514945077539
 30
0.0
 41
1.0
 10
741.7472864044407
 20
-1405.576802582903
 30
0.0
 41
0.9985581491383217
 10
741.8054940161428
 20
-1405.645295073175
 30
0.0
 41
1.0
 10
741.8147524697386
 20
-1405.656189430876
 30
0.0
 41
1.0
 10
741.8240109233343
 20
-1405.667083788578
 30
0.0
 41
1.0
 10
741.9007354422278
 20
-1405.757364994253
 30
0.0
 41
0.9970460233518351
 10
741.9627273433871
 20
-1405.858332078435
 30
0.0
 41
1.0
 10
741.9771967084664
 20
-1405.881898537516
 30
0.0
 41
1.0
 10
741.9916660735456
 20
-1405.905464996597
 30
0.0
 41
1.0
 10
742.0314027735583
 20
-1405.97018472063
 30
0.0
 41
0.9988468816639325
 10
742.0647491443101
 20
-1406.038417173057
 30
0.0
 41
1.0
 10
742.0717851668028
 20
-1406.052814094196
 30
0.0
 41
1.0
 10
742.0788211892956
 20
-1406.067211015336
 30
0.0
 41
1.0
 10
742.0980955150619
 20
-1406.106649625483
 30
0.0
 41
0.9998431189995758
 10
742.1159608425564
 20
-1406.146746179925
 30
0.0
 41
1.0
 10
742.133826170043
 20
-1406.186842734349
 30
0.0
 41
0.9999989989905842
 10
742.1518048934905
 20
-1406.226888571989
 30
0.0
 41
1.0
 10
742.1579772050761
 20
-1406.240636788782
 30
0.0
 41
1.0
 10
742.1641495166618
 20
-1406.254385005575
 30
0.0
 41
1.0
 10
742.1944728632737
 20
-1406.321927276786
 30
0.0
 41
0.9998790356320708
 10
742.22268074341
 20
-1406.39038002872
 30
0.0
 41
1.0
 10
742.2295159246947
 20
-1406.406967130148
 30
0.0
 41
1.0
 10
742.2363511059795
 20
-1406.423554231577
 30
0.0
 41
1.0
 10
742.2599087683582
 20
-1406.480722186459
 30
0.0
 41
0.9998227574561935
 10
742.2812975167485
 20
-1406.538736494739
 30
0.0
 41
1.0
 10
742.3026862651385
 20
-1406.596750803017
 30
0.0
 41
0.9996797971040854
 10
742.321112550098
 20
-1406.655772922136
 30
0.0
 41
1.0
 10
742.3250163528232
 20
-1406.668277380304
 30
0.0
 41
1.0
 10
742.3289201555485
 20
-1406.680781838472
 30
0.0
 41
1.0
 10
742.3551540459591
 20
-1406.764812873929
 30
0.0
 41
0.9979274938733608
 10
742.370378569438
 20
-1406.851517232589
 30
0.0
 41
1.0
 10
742.3726022566991
 20
-1406.864181233409
 30
0.0
 41
1.0
 10
742.3748259439601
 20
-1406.876845234229
 30
0.0
 41
1.0
 10
742.3857558836585
 20
-1406.93909174152
 30
0.0
 41
0.9994985982136861
 10
742.3927240488351
 20
-1407.001905242663
 30
0.0
 41
1.0
 10
742.3996922140117
 20
-1407.064718743804
 30
0.0
 41
0.9996372611202708
 10
742.40326807978
 20
-1407.127816322487
 30
0.0
 41
1.0
 10
742.4034366572694
 20
-1407.130790939569
 30
0.0
 41
1.0
 10
742.4036052347587
 20
-1407.133765556652
 30
0.0
 41
1.0
 10
742.4075182555056
 20
-1407.202812369501
 30
0.0
 41
0.9997730630734658
 10
742.408486568993
 20
-1407.271963193532
 30
0.0
 41
1.0
 10
742.408543675411
 20
-1407.276041372674
 30
0.0
 41
1.0
 10
742.4086007818291
 20
-1407.280119551816
 30
0.0
 41
1.0
 10
742.4096833081524
 20
-1407.357426734143
 30
0.0
 41
0.9998772614073438
 10
742.4083432214212
 20
-1407.434729880709
 30
0.0
 41
1.0
 10
742.4082539582225
 20
-1407.439879044538
 30
0.0
 41
1.0
 10
742.408164695024
 20
-1407.445028208368
 30
0.0
 41
1.0
 10
742.4066460818958
 20
-1407.532629682594
 30
0.0
 41
0.9999415567321985
 10
742.4032337716498
 20
-1407.62017784427
 30
0.0
 41
1.0
 10
742.4029924509744
 20
-1407.626369304011
 30
0.0
 41
1.0
 10
742.4027511302988
 20
-1407.632560763752
 30
0.0
 41
1.0
 10
742.3988561787024
 20
-1407.732491844899
 30
0.0
 41
0.9999716810431478
 10
742.3934575955839
 20
-1407.832352983124
 30
0.0
 41
1.0
 10
742.3902447967948
 20
-1407.891782232784
 30
0.0
 41
1.0
 10
742.3870319980058
 20
-1407.951211482444
 30
0.0
 41
1.0
 10
742.3789580888529
 20
-1408.100559883726
 30
0.0
 41
0.9999819129905159
 10
742.3690882972364
 20
-1408.249800361437
 30
0.0
 41
1.0
 10
742.35921850562
 20
-1408.399040839149
 30
0.0
 41
1.0
 10
742.356779185056
 20
-1408.436233884998
 30
0.0
 41
1.0
 10
742.3794774188702
 20
-1408.397492887696
 30
0.0
 41
0.9999982128165407
 10
742.4023219776444
 20
-1408.358837993707
 30
0.0
 41
1.0
 10
742.4292315375285
 20
-1408.313304779653
 30
0.0
 41
1.0
 10
742.4561410974125
 20
-1408.2677715656
 30
0.0
 41
1.0
 10
742.5328047759377
 20
-1408.138050243532
 30
0.0
 41
0.9998609190055862
 10
742.6137520887996
 20
-1408.010957861602
 30
0.0
 41
1.0
 10
742.643400410281
 20
-1407.964408128645
 30
0.0
 41
1.0
 10
742.6730487317624
 20
-1407.917858395688
 30
0.0
 41
1.0
 10
742.7553209520023
 20
-1407.788685825689
 30
0.0
 41
0.9999067609733638
 10
742.8410899614641
 20
-1407.66180813625
 30
0.0
 41
1.0
 10
742.8434946646628
 20
-1407.658250870199
 30
0.0
 41
1.0
 10
742.8458993678614
 20
-1407.654693604147
 30
0.0
 41
1.0
 10
742.926858970925
 20
-1407.534930446813
 30
0.0
 41
0.9998784952149692
 10
743.0115125806092
 20
-1407.4177492301
 30
0.0
 41
1.0
 10
743.0961661902925
 20
-1407.300568013389
 30
0.0
 41
0.9998532968282813
 10
743.1847838111202
 20
-1407.186355104912
 30
0.0
 41
1.0
 10
743.2047456001072
 20
-1407.160627783897
 30
0.0
 41
1.0
 10
743.2247073890943
 20
-1407.134900462882
 30
0.0
 41
1.0
 10
743.3431914388543
 20
-1406.982194851912
 30
0.0
 41
0.999155197579521
 10
743.4738158884779
 20
-1406.839735289828
 30
0.0
 41
1.0
 10
743.4773255044563
 20
-1406.835907688206
 30
0.0
 41
1.0
 10
743.4808351204348
 20
-1406.832080086583
 30
0.0
 41
1.0
 10
743.6044403381013
 20
-1406.697275727745
 30
0.0
 41
0.9997418144180863
 10
743.7340424778026
 20
-1406.568226317132
 30
0.0
 41
1.0
 10
743.8636446175034
 20
-1406.43917690652
 30
0.0
 41
0.9989238204633802
 10
744.0046471657553
 20
-1406.32269194448
 30
0.0
 41
1.0
 10
744.0498948438944
 20
-1406.285311952872
 30
0.0
 41
1.0
 10
744.0951425220337
 20
-1406.247931961263
 30
0.0
 41
1.0
 10
744.2353825792545
 20
-1406.132076907973
 30
0.0
 41
0.999082508409638
 10
744.3850225118581
 20
-1406.02864791014
 30
0.0
 41
1.0
 10
744.3950678759145
 20
-1406.021704697061
 30
0.0
 41
1.0
 10
744.405113239971
 20
-1406.014761483981
 30
0.0
 41
1.0
 10
744.5346624444604
 20
-1405.925218912308
 30
0.0
 41
0.9998164899826254
 10
744.6675466478387
 20
-1405.840704670791
 30
0.0
 41
1.0
 10
744.6793922083637
 20
-1405.833170904265
 30
0.0
 41
1.0
 10
744.6912377688886
 20
-1405.82563713774
 30
0.0
 41
1.0
 10
744.8004308512141
 20
-1405.756190429275
 30
0.0
 41
0.9997473449130667
 10
744.9126348084642
 20
-1405.691721471459
 30
0.0
 41
1.0
 10
745.0248387657141
 20
-1405.627252513642
 30
0.0
 41
0.999932786114645
 10
745.1385073764795
 20
-1405.56540252196
 30
0.0
 41
1.0
 10
745.139059379039
 20
-1405.565102163282
 30
0.0
 41
1.0
 10
745.1396113815986
 20
-1405.564801804603
 30
0.0
 41
1.0
 10
745.2543839974838
 20
-1405.502351095563
 30
0.0
 41
0.9996956420483979
 10
745.3720973233242
 20
-1405.445637628589
 30
0.0
 41
1.0
 10
745.4025377282178
 20
-1405.430971651858
 30
0.0
 41
1.0
 10
745.4329781331115
 20
-1405.416305675128
 30
0.0
 41
1.0
 10
745.5359552398535
 20
-1405.366692016685
 30
0.0
 41
0.999807057017638
 10
745.6408016287946
 20
-1405.321161429784
 30
0.0
 41
1.0
 10
745.7456480177347
 20
-1405.275630842883
 30
0.0
 41
0.9997827436148525
 10
745.8523009543452
 20
-1405.234509671571
 30
0.0
 41
1.0
 10
745.8715238039765
 20
-1405.227098097939
 30
0.0
 41
1.0
 10
745.890746653608
 20
-1405.219686524307
 30
0.0
 41
1.0
 10
746.03584528948
 20
-1405.16374220573
 30
0.0
 41
0.9988031841977076
 10
746.1857156520845
 20
-1405.122242141562
 30
0.0
 41
1.0
 10
746.2106329004486
 20
-1405.115342395755
 30
0.0
 41
1.0
 10
746.2355501488126
 20
-1405.108442649948
 30
0.0
 41
1.0
 10
746.402820174459
 20
-1405.062124507541
 30
0.0
 41
0.9984748040549548
 10
746.5741770831078
 20
-1405.034530275276
 30
0.0
 41
1.0
 10
746.5789162193555
 20
-1405.033767114763
 30
0.0
 41
1.0
 10
746.5836553556031
 20
-1405.03300395425
 30
0.0
 41
1.0
 10
746.7455339917555
 20
-1405.006936043012
 30
0.0
 41
0.9984436495479587
 10
746.9093087354818
 20
-1404.999058089193
 30
0.0
 41
1.0
 10
746.931005943615
 20
-1404.998014401993
 30
0.0
 41
1.0
 10
746.9527031517482
 20
-1404.996970714793
 30
0.0
 41
1.0
 10
747.0730834792081
 20
-1404.991180135374
 30
0.0
 41
0.9987954789335567
 10
747.1934517241157
 20
-1404.997216663116
 30
0.0
 41
1.0
 10
747.2134165166065
 20
-1404.998217907455
 30
0.0
 41
1.0
 10
747.2333813090974
 20
-1404.999219151793
 30
0.0
 41
1.0
 10
747.3138199690222
 20
-1405.003253190858
 30
0.0
 41
0.9997941595878399
 10
747.39402874712
 20
-1405.01054725678
 30
0.0
 41
1.0
 10
747.4742375252162
 20
-1405.017841322701
 30
0.0
 41
0.9998589466238262
 10
747.5541560720726
 20
-1405.027825177151
 30
0.0
 41
1.0
 10
747.5865622738793
 20
-1405.03187353407
 30
0.0
 41
1.0
 10
747.618968475686
 20
-1405.035921890989
 30
0.0
 41
1.0
 10
747.7636994261575
 20
-1405.054002459278
 30
0.0
 41
0.9993495063249053
 10
747.9067506699232
 20
-1405.08246816902
 30
0.0
 41
1.0
 10
747.9396843670743
 20
-1405.089021632234
 30
0.0
 41
1.0
 10
747.9726180642253
 20
-1405.095575095449
 30
0.0
 41
1.0
 10
748.0819118874308
 20
-1405.117323429585
 30
0.0
 41
0.9996788715560887
 10
748.1899634593879
 20
-1405.144581228948
 30
0.0
 41
1.0
 10
748.1920264619271
 20
-1405.145101655521
 30
0.0
 41
1.0
 10
748.1940894644662
 20
-1405.145622082094
 30
0.0
 41
1.0
 10
748.2980150313451
 20
-1405.171839028311
 30
0.0
 41
0.9995480654492079
 10
748.4001772665738
 20
-1405.204253984935
 30
0.0
 41
1.0
 10
748.4018669087015
 20
-1405.204790089849
 30
0.0
 41
1.0
 10
748.4035565508292
 20
-1405.205326194762
 30
0.0
 41
1.0
 10
748.5023395018023
 20
-1405.236668941559
 30
0.0
 41
0.9993867959456292
 10
748.5986866602457
 20
-1405.274848310849
 30
0.0
 41
1.0
 10
748.5999296093332
 20
-1405.275340852746
 30
0.0
 41
1.0
 10
748.6011725584208
 20
-1405.275833394644
 30
0.0
 41
1.0
 10
748.6950338186907
 20
-1405.31302768014
 30
0.0
 41
0.9992050256522351
 10
748.7856334937219
 20
-1405.357581579378
 30
0.0
 41
1.0
 10
748.7863681764342
 20
-1405.357942871839
 30
0.0
 41
1.0
 10
748.7871028591464
 20
-1405.358304164299
 30
0.0
 41
1.0
 10
748.8762331687548
 20
-1405.402135478616
 30
0.0
 41
0.9990222350740816
 10
748.9611432301485
 20
-1405.453668746315
 30
0.0
 41
1.0
 10
748.9613271154299
 20
-1405.453780349219
 30
0.0
 41
1.0
 10
748.9615110007113
 20
-1405.453891952123
 30
0.0
 41
1.0
 10
749.0460532915406
 20
-1405.505202014012
 30
0.0
 41
0.9988642743807069
 10
749.1253278261615
 20
-1405.564326201539
 30
0.0
 41
1.0
 10
749.2046023607818
 20
-1405.623450389064
 30
0.0
 41
0.9987681233309924
 10
749.277626145059
 20
-1405.690141080466
 30
0.0
 41
1.0
 10
749.277955073024
 20
-1405.690441481679
 30
0.0
 41
1.0
 10
749.2782840009891
 20
-1405.690741882893
 30
0.0
 41
1.0
 10
749.3519656411962
 20
-1405.758033376721
 30
0.0
 41
0.998749657089773
 10
749.4185594465238
 20
-1405.832346190809
 30
0.0
 41
1.0
 10
749.4193316162841
 20
-1405.833207864167
 30
0.0
 41
1.0
 10
749.4201037860444
 20
-1405.834069537524
 30
0.0
 41
1.0
 10
749.4882419308916
 20
-1405.910105698326
 30
0.0
 41
0.9988147669826888
 10
749.5486641851165
 20
-1405.992406705169
 30
0.0
 41
1.0
 10
749.5497835111944
 20
-1405.993931336522
 30
0.0
 41
1.0
 10
749.5509028372721
 20
-1405.995455967874
 30
0.0
 41
1.0
 10
749.6135637436521
 20
-1406.080806237421
 30
0.0
 41
0.9989452636216991
 10
749.6681306566134
 20
-1406.171544926578
 30
0.0
 41
1.0
 10
749.6694793826994
 20
-1406.173787707605
 30
0.0
 41
1.0
 10
749.6708281087854
 20
-1406.176030488632
 30
0.0
 41
1.0
 10
749.7280924739192
 20
-1406.271254739844
 30
0.0
 41
0.9991046436071438
 10
749.7771016872413
 20
-1406.37097917287
 30
0.0
 41
1.0
 10
749.7785655488308
 20
-1406.373957852941
 30
0.0
 41
1.0
 10
749.7800294104204
 20
-1406.376936533013
 30
0.0
 41
1.0
 10
749.831966346922
 20
-1406.482618326182
 30
0.0
 41
0.9992763831099363
 10
749.875719475476
 20
-1406.591942388137
 30
0.0
 41
1.0
 10
749.8771987451397
 20
-1406.595638575672
 30
0.0
 41
1.0
 10
749.8786780148034
 20
-1406.599334763206
 30
0.0
 41
1.0
 10
749.925389682685
 20
-1406.716051200232
 30
0.0
 41
0.9994163472884928
 10
749.9640227138749
 20
-1406.835684788695
 30
0.0
 41
1.0
 10
749.9652608661215
 20
-1406.839518932477
 30
0.0
 41
1.0
 10
749.9664990183682
 20
-1406.843353076259
 30
0.0
 41
1.0
 10
750.0063825793861
 20
-1406.96685913774
 30
0.0
 41
0.9997268055891213
 10
750.0404506352975
 20
-1407.092094169688
 30
0.0
 41
1.0
 10
750.0413808155668
 20
-1407.095513535796
 30
0.0
 41
1.0
 10
750.042310995836
 20
-1407.098932901903
 30
0.0
 41
1.0
 10
750.074518691209
 20
-1407.217329201637
 30
0.0
 41
0.999670131900046
 10
750.1006043079801
 20
-1407.337223154902
 30
0.0
 41
1.0
 10
750.1266899247507
 20
-1407.457117108165
 30
0.0
 41
0.9995785451109285
 10
750.1457735020904
 20
-1407.578322869197
 30
0.0
 41
1.0
 10
750.1499932842639
 20
-1407.605124023961
 30
0.0
 41
1.0
 10
750.1542130664374
 20
-1407.631925178725
 30
0.0
 41
1.0
 10
750.1807880423762
 20
-1407.800711152429
 30
0.0
 41
0.9979925101217477
 10
750.1858136283031
 20
-1407.971502480522
 30
0.0
 41
1.0
 10
750.1866384407278
 20
-1407.999533204001
 30
0.0
 41
1.0
 10
750.1874632531525
 20
-1408.027563927479
 30
0.0
 41
1.0
 10
750.19083921423
 20
-1408.142293808613
 30
0.0
 41
0.9995314902262548
 10
750.1871890220914
 20
-1408.257015292366
 30
0.0
 41
1.0
 10
750.1835388299531
 20
-1408.371736776113
 30
0.0
 41
0.9996245486944476
 10
750.1736097348222
 20
-1408.486086047237
 30
0.0
 41
1.0
 10
750.1734466868277
 20
-1408.487963803374
 30
0.0
 41
1.0
 10
750.1732836388333
 20
-1408.489841559512
 30
0.0
 41
1.0
 10
750.1630284477142
 20
-1408.607946342902
 30
0.0
 41
0.999728609500103
 10
750.147283124143
 20
-1408.725445251795
 30
0.0
 41
1.0
 10
750.1468896314923
 20
-1408.7283816765
 30
0.0
 41
1.0
 10
750.1464961388415
 20
-1408.731318101205
 30
0.0
 41
1.0
 10
750.1299638299693
 20
-1408.854689859503
 30
0.0
 41
0.9998265533969366
 10
750.108848371237
 20
-1408.977360334292
 30
0.0
 41
1.0
 10
750.1081718290998
 20
-1408.981290712799
 30
0.0
 41
1.0
 10
750.1074952869626
 20
-1408.985221091307
 30
0.0
 41
1.0
 10
750.0850267439565
 20
-1409.115752323107
 30
0.0
 41
0.9999022530850548
 10
750.0589172793475
 20
-1409.245604291742
 30
0.0
 41
1.0
 10
750.0579386381814
 20
-1409.250471434133
 30
0.0
 41
1.0
 10
750.0569599970154
 20
-1409.255338576523
 30
0.0
 41
1.0
 10
750.0288932500773
 20
-1409.394924829925
 30
0.0
 41
0.9999524761934144
 10
749.9981102812429
 20
-1409.533937323087
 30
0.0
 41
1.0
 10
749.996834174066
 20
-1409.539700082396
 30
0.0
 41
1.0
 10
749.9955580668889
 20
-1409.545462841706
 30
0.0
 41
1.0
 10
749.9622228836995
 20
-1409.696000853489
 30
0.0
 41
0.9999813588714462
 10
749.927051882904
 20
-1409.846120566143
 30
0.0
 41
1.0
 10
749.9254979574489
 20
-1409.852753156559
 30
0.0
 41
1.0
 10
749.9239440319939
 20
-1409.859385746975
 30
0.0
 41
1.0
 10
749.8856651802865
 20
-1410.022770640468
 30
0.0
 41
0.9999955237681655
 10
749.8464093023069
 20
-1410.185923544072
 30
0.0
 41
1.0
 10
749.8341276666714
 20
-1410.236967734601
 30
0.0
 41
1.0
 10
749.8218460310359
 20
-1410.288011925129
 30
0.0
 41
1.0
 10
749.7580268817725
 20
-1410.553253209842
 30
0.0
 41
0.999999360408094
 10
749.6936079346086
 20
-1410.818349460506
 30
0.0
 41
1.0
 10
749.6888890990665
 20
-1410.837768368526
 30
0.0
 41
1.0
 10
749.6841702635243
 20
-1410.857187276546
 30
0.0
 41
1.0
 10
749.6103136452633
 20
-1411.161121343304
 30
0.0
 41
0.9999659914725915
 10
749.5314540493787
 20
-1411.463795889861
 30
0.0
 41
1.0
 10
749.5265013604476
 20
-1411.482805027045
 30
0.0
 41
1.0
 10
749.5215486715165
 20
-1411.501814164229
 30
0.0
 41
1.0
 10
749.4327836977714
 20
-1411.842506985149
 30
0.0
 41
0.9999441976027729
 10
749.3368406648041
 20
-1412.181248410461
 30
0.0
 41
1.0
 10
749.3201401463805
 20
-1412.240212122982
 30
0.0
 41
1.0
 10
749.3034396279568
 20
-1412.299175835503
 30
0.0
 41
1.0
 10
749.1740955581449
 20
-1412.755844685848
 30
0.0
 41
0.9999625120733123
 10
749.0368627908205
 20
-1413.210205219847
 30
0.0
 41
1.0
 10
749.0010728477332
 20
-1413.328701246488
 30
0.0
 41
1.0
 10
748.9652829046461
 20
-1413.447197273129
 30
0.0
 41
1.0
 10
748.8907627006085
 20
-1413.693924351218
 30
0.0
 41
0.9999793386318153
 10
748.8130766774743
 20
-1413.939672990445
 30
0.0
 41
1.0
 10
748.7353906543372
 20
-1414.185421629682
 30
0.0
 41
1.0
 10
748.724611095467
 20
-1414.219439534056
 30
0.0
 41
1.0
 10
746.8742380421977
 20
-1420.106511456524
 30
0.0
 41
1.0
 10
745.0238649889284
 20
-1425.993583378991
 30
0.0
 41
1.0
 10
744.0626082989052
 20
-1425.993583378991
 30
0.0
 41
1.0
 10
743.1013516088819
 20
-1425.993583378991
 30
0.0
 41
1.0
 10
744.7202963875602
 20
-1420.845554877202
 30
0.0
 41
1.0
 10
746.3392411662385
 20
-1415.697526375413
 30
0.0
 41
1.0
 10
746.384406989414
 20
-1415.553495153138
 30
0.0
 41
1.0
 10
746.4295728125894
 20
-1415.409463930864
 30
0.0
 41
1.0
 10
746.5998772299511
 20
-1414.866372901702
 30
0.0
 41
0.9999911657889058
 10
746.7656100416293
 20
-1414.321869370346
 30
0.0
 41
1.0
 10
746.795305985132
 20
-1414.224305430289
 30
0.0
 41
1.0
 10
746.8250019286347
 20
-1414.126741490231
 30
0.0
 41
1.0
 10
746.9313428533128
 20
-1413.777365838974
 30
0.0
 41
0.999995242816861
 10
747.0355264426348
 20
-1413.427340814633
 30
0.0
 41
1.0
 10
747.0405859129686
 20
-1413.410342540354
 30
0.0
 41
1.0
 10
747.0456453833024
 20
-1413.393344266074
 30
0.0
 41
1.0
 10
747.139710031963
 20
-1413.077315790272
 30
0.0
 41
0.999993168752137
 10
747.2314358698336
 20
-1412.760600577013
 30
0.0
 41
1.0
 10
747.2363711342941
 20
-1412.743559867739
 30
0.0
 41
1.0
 10
747.2413063987547
 20
-1412.726519158464
 30
0.0
 41
1.0
 10
747.3231617077088
 20
-1412.443885363738
 30
0.0
 41
0.9999893840779529
 10
747.4024089341642
 20
-1412.160509234496
 30
0.0
 41
1.0
 10
747.4816561606266
 20
-1411.877133105229
 30
0.0
 41
0.9999833980071224
 10
747.5576324013665
 20
-1411.592862522206
 30
0.0
 41
1.0
 10
747.5666363380867
 20
-1411.559173643735
 30
0.0
 41
1.0
 10
747.575640274807
 20
-1411.525484765263
 30
0.0
 41
1.0
 10
747.6446048236734
 20
-1411.267448932966
 30
0.0
 41
0.9999233658067987
 10
747.7071597948939
 20
-1411.007784774243
 30
0.0
 41
1.0
 10
747.7697147661142
 20
-1410.748120615521
 30
0.0
 41
1.0
 10
747.8091981849716
 20
-1410.584313951095
 30
0.0
 41
1.0
 10
747.8141767889479
 20
-1410.563658989228
 30
0.0
 41
1.0
 10
747.8191553929241
 20
-1410.543004027362
 30
0.0
 41
1.0
 10
747.8486816038287
 20
-1410.420507286669
 30
0.0
 41
0.9999868670846683
 10
747.8769506878257
 20
-1410.297714341023
 30
0.0
 41
1.0
 10
747.8808481749829
 20
-1410.280784753608
 30
0.0
 41
1.0
 10
747.8847456621403
 20
-1410.263855166193
 30
0.0
 41
1.0
 10
747.9052197718192
 20
-1410.174921395391
 30
0.0
 41
0.999977817333924
 10
747.924507369938
 20
-1410.085722778147
 30
0.0
 41
1.0
 10
747.9437949680545
 20
-1409.996524160913
 30
0.0
 41
0.9999602692860674
 10
747.9614893266845
 20
-1409.906995872489
 30
0.0
 41
1.0
 10
747.964693158762
 20
-1409.890785417604
 30
0.0
 41
1.0
 10
747.9678969908396
 20
-1409.874574962719
 30
0.0
 41
1.0
 10
747.9919990136259
 20
-1409.752625764519
 30
0.0
 41
0.9995617985320574
 10
748.0088423608441
 20
-1409.629464016815
 30
0.0
 41
1.0
 10
748.0113068507505
 20
-1409.611443199448
 30
0.0
 41
1.0
 10
748.0137713406568
 20
-1409.593422382081
 30
0.0
 41
1.0
 10
748.0340546017047
 20
-1409.445107332382
 30
0.0
 41
0.999112141063979
 10
748.0417799552929
 20
-1409.295611233576
 30
0.0
 41
1.0
 10
748.0426987453175
 20
-1409.277831397
 30
0.0
 41
1.0
 10
748.043617535342
 20
-1409.260051560424
 30
0.0
 41
1.0
 10
748.0495053088812
 20
-1409.14611513477
 30
0.0
 41
0.9989792494905817
 10
748.045086216764
 20
-1409.032112298872
 30
0.0
 41
1.0
 10
748.0444382448952
 20
-1409.015396052941
 30
0.0
 41
1.0
 10
748.0437902730265
 20
-1408.998679807009
 30
0.0
 41
1.0
 10
748.040667124647
 20
-1408.918109462972
 30
0.0
 41
0.9997820295393216
 10
748.0341831272713
 20
-1408.837739741229
 30
0.0
 41
1.0
 10
748.0276991298952
 20
-1408.757370019479
 30
0.0
 41
0.9998335105973343
 10
748.0182869343827
 20
-1408.677290403029
 30
0.0
 41
1.0
 10
748.0166920097065
 20
-1408.66372067255
 30
0.0
 41
1.0
 10
748.0150970850304
 20
-1408.650150942069
 30
0.0
 41
1.0
 10
748.002495040165
 20
-1408.542931864651
 30
0.0
 41
0.9996876457881063
 10
747.9845511273668
 20
-1408.436476436932
 30
0.0
 41
1.0
 10
747.9823194642221
 20
-1408.423236701693
 30
0.0
 41
1.0
 10
747.9800878010774
 20
-1408.409996966454
 30
0.0
 41
1.0
 10
747.966291979657
 20
-1408.328150822495
 30
0.0
 41
0.9995547496492864
 10
747.947638657764
 20
-1408.247273325304
 30
0.0
 41
1.0
 10
747.9472647008924
 20
-1408.245651914598
 30
0.0
 41
1.0
 10
747.9468907440211
 20
-1408.244030503892
 30
0.0
 41
1.0
 10
747.9289853358712
 20
-1408.166395828114
 30
0.0
 41
0.9994899427176565
 10
747.9061604271915
 20
-1408.090062545278
 30
0.0
 41
1.0
 10
747.9057019004506
 20
-1408.088529095489
 30
0.0
 41
1.0
 10
747.9052433737097
 20
-1408.0869956457
 30
0.0
 41
1.0
 10
747.883335518512
 20
-1408.013729262444
 30
0.0
 41
0.9993784877591749
 10
747.8563198834058
 20
-1407.942188557285
 30
0.0
 41
1.0
 10
747.855788192429
 20
-1407.940780574565
 30
0.0
 41
1.0
 10
747.8552565014522
 20
-1407.939372591844
 30
0.0
 41
1.0
 10
747.8293042482995
 20
-1407.870647852126
 30
0.0
 41
0.9992430832252517
 10
747.7980877131399
 20
-1407.804148700058
 30
0.0
 41
1.0
 10
747.797505597083
 20
-1407.80290864494
 30
0.0
 41
1.0
 10
747.7969234810263
 20
-1407.801668589822
 30
0.0
 41
1.0
 10
747.7668711779804
 20
-1407.73764954799
 30
0.0
 41
0.9990789632801004
 10
747.7314405512038
 20
-1407.67644293624
 30
0.0
 41
1.0
 10
747.7308448450223
 20
-1407.675413850381
 30
0.0
 41
1.0
 10
747.7302491388407
 20
-1407.674384764523
 30
0.0
 41
1.0
 10
747.6960099244276
 20
-1407.61523632449
 30
0.0
 41
0.9988874801118164
 10
747.6563506483949
 20
-1407.559576612072
 30
0.0
 41
1.0
 10
747.6557951223306
 20
-1407.558796960398
 30
0.0
 41
1.0
 10
747.6552395962664
 20
-1407.558017308723
 30
0.0
 41
1.0
 10
747.616691372363
 20
-1407.503916899655
 30
0.0
 41
0.9986762060695423
 10
747.5727889010864
 20
-1407.454063185215
 30
0.0
 41
1.0
 10
747.5723449407544
 20
-1407.453559043399
 30
0.0
 41
1.0
 10
747.5719009804224
 20
-1407.453054901582
 30
0.0
 41
1.0
 10
747.5288864298099
 20
-1407.404209470775
 30
0.0
 41
0.9984621642485305
 10
747.4807288730321
 20
-1407.360426170305
 30
0.0
 41
1.0
 10
747.4804822385154
 20
-1407.360201938141
 30
0.0
 41
1.0
 10
747.4802356039985
 20
-1407.359977705977
 30
0.0
 41
1.0
 10
747.4325713162535
 20
-1407.316642869833
 30
0.0
 41
0.9982724693853041
 10
747.3801526844131
 20
-1407.279198519316
 30
0.0
 41
1.0
 10
747.3277340525717
 20
-1407.241754168798
 30
0.0
 41
0.9981399180156195
 10
747.2711479891788
 20
-1407.210967649355
 30
0.0
 41
1.0
 10
747.2711023271002
 20
-1407.210942806198
 30
0.0
 41
1.0
 10
747.2710566650217
 20
-1407.210917963041
 30
0.0
 41
1.0
 10
747.2143792774708
 20
-1407.180081757283
 30
0.0
 41
0.9980927086838904
 10
747.1543339264034
 20
-1407.15646494843
 30
0.0
 41
1.0
 10
747.1538937566927
 20
-1407.156291822555
 30
0.0
 41
1.0
 10
747.1534535869819
 20
-1407.156118696681
 30
0.0
 41
1.0
 10
747.0925278964938
 20
-1407.132155636079
 30
0.0
 41
0.9981411356561289
 10
747.0291393750953
 20
-1407.115782994573
 30
0.0
 41
1.0
 10
747.0282572583928
 20
-1407.115555152367
 30
0.0
 41
1.0
 10
747.0273751416903
 20
-1407.115327310162
 30
0.0
 41
1.0
 10
746.9622223868872
 20
-1407.098498984245
 30
0.0
 41
0.9983031812934925
 10
746.8955549578922
 20
-1407.089359623069
 30
0.0
 41
1.0
 10
746.8866839324895
 20
-1407.088143504398
 30
0.0
 41
1.0
 10
746.8778129070869
 20
-1407.086927385726
 30
0.0
 41
1.0
 10
746.8234632645816
 20
-1407.079476655735
 30
0.0
 41
0.9983887708264718
 10
746.768619415288
 20
-1407.078231982102
 30
0.0
 41
1.0
 10
746.7605560100666
 20
-1407.078048984227
 30
0.0
 41
1.0
 10
746.7524926048452
 20
-1407.077865986352
 30
0.0
 41
1.0
 10
746.7137755659909
 20
-1407.076987308468
 30
0.0
 41
0.9998869563078204
 10
746.675049612792
 20
-1407.077273177828
 30
0.0
 41
1.0
 10
746.6363236596122
 20
-1407.077559047187
 30
0.0
 41
0.9999972320166395
 10
746.5975994804239
 20
-1407.078027146716
 30
0.0
 41
1.0
 10
746.5782464638212
 20
-1407.078261086806
 30
0.0
 41
1.0
 10
746.5588934472185
 20
-1407.078495026896
 30
0.0
 41
1.0
 10
746.481463234847
 20
-1407.079431006603
 30
0.0
 41
0.9997304945086944
 10
746.4041599286086
 20
-1407.08396010039
 30
0.0
 41
1.0
 10
746.3951102869054
 20
-1407.084490306379
 30
0.0
 41
1.0
 10
746.3860606452022
 20
-1407.085020512369
 30
0.0
 41
1.0
 10
746.290658055558
 20
-1407.090610018135
 30
0.0
 41
0.9997888306415322
 10
746.1955657197177
 20
-1407.100114982624
 30
0.0
 41
1.0
 10
746.1868446581427
 20
-1407.100986697256
 30
0.0
 41
1.0
 10
746.1781235965677
 20
-1407.101858411889
 30
0.0
 41
1.0
 10
746.0655891375785
 20
-1407.113106805642
 30
0.0
 41
0.9984170238191102
 10
745.9550299902259
 20
-1407.136922887578
 30
0.0
 41
1.0
 10
745.9186488592408
 20
-1407.144759923384
 30
0.0
 41
1.0
 10
745.8822677282557
 20
-1407.15259695919
 30
0.0
 41
1.0
 10
745.7670766598341
 20
-1407.1774108257
 30
0.0
 41
0.9976592854199875
 10
745.656348493429
 20
-1407.217709502847
 30
0.0
 41
1.0
 10
745.5456203270232
 20
-1407.258008179994
 30
0.0
 41
0.999325507435214
 10
745.4381485282307
 20
-1407.306325078487
 30
0.0
 41
1.0
 10
745.4335233493084
 20
-1407.308404454686
 30
0.0
 41
1.0
 10
745.4288981703862
 20
-1407.310483830886
 30
0.0
 41
1.0
 10
745.3121760137493
 20
-1407.362959481777
 30
0.0
 41
0.9976475078274829
 10
745.2037286694389
 20
-1407.430907471436
 30
0.0
 41
1.0
 10
745.1853862753062
 20
-1407.442399950249
 30
0.0
 41
1.0
 10
745.1670438811735
 20
-1407.453892429062
 30
0.0
 41
1.0
 10
745.0828416896194
 20
-1407.506649549832
 30
0.0
 41
0.9995131336408364
 10
745.0020939746596
 20
-1407.564555761787
 30
0.0
 41
1.0
 10
744.9213462597005
 20
-1407.62246197374
 30
0.0
 41
0.9995810107604945
 10
744.8440846119685
 20
-1407.684943656209
 30
0.0
 41
1.0
 10
744.8411145807606
 20
-1407.687345527672
 30
0.0
 41
1.0
 10
744.8381445495529
 20
-1407.689747399135
 30
0.0
 41
1.0
 10
744.7549428394055
 20
-1407.757032824529
 30
0.0
 41
0.9996617837955174
 10
744.6753521522712
 20
-1407.828553280088
 30
0.0
 41
1.0
 10
744.6632214013912
 20
-1407.839454013081
 30
0.0
 41
1.0
 10
744.651090650511
 20
-1407.850354746075
 30
0.0
 41
1.0
 10
744.5828151231142
 20
-1407.911707361547
 30
0.0
 41
0.9997267750052112
 10
744.5174816148342
 20
-1407.97618389807
 30
0.0
 41
1.0
 10
744.4521481065552
 20
-1408.040660434591
 30
0.0
 41
0.9999667288962506
 10
744.3878751634127
 20
-1408.106194241481
 30
0.0
 41
1.0
 10
744.3190477156332
 20
-1408.176371900243
 30
0.0
 41
1.0
 10
744.2502202678538
 20
-1408.246549559006
 30
0.0
 41
1.0
 10
744.0482924291584
 20
-1408.452438683415
 30
0.0
 41
0.9988205335175562
 10
743.8672868121786
 20
-1408.676942915476
 30
0.0
 41
1.0
 10
743.836646847273
 20
-1408.714946165906
 30
0.0
 41
1.0
 10
743.8060068823675
 20
-1408.752949416337
 30
0.0
 41
1.0
 10
743.5637213355741
 20
-1409.053460149263
 30
0.0
 41
0.9997077826755185
 10
743.336243384468
 20
-1409.365329943482
 30
0.0
 41
1.0
 10
743.3345199693404
 20
-1409.367692726858
 30
0.0
 41
1.0
 10
743.3327965542126
 20
-1409.370055510233
 30
0.0
 41
1.0
 10
743.1018717728482
 20
-1409.686650871207
 30
0.0
 41
0.9989147567079316
 10
742.9014082699645
 20
-1410.023360332392
 30
0.0
 41
1.0
 10
742.8766671246572
 20
-1410.064916912945
 30
0.0
 41
1.0
 10
742.85192597935
 20
-1410.106473493498
 30
0.0
 41
1.0
 10
742.696714680712
 20
-1410.367174877951
 30
0.0
 41
0.9997476598182108
 10
742.5533696932021
 20
-1410.634584626534
 30
0.0
 41
1.0
 10
742.4100247056899
 20
-1410.90199437512
 30
0.0
 41
0.9996258967108904
 10
742.2815164537582
 20
-1411.176842311745
 30
0.0
 41
1.0
 10
742.2683165443104
 20
-1411.205073711836
 30
0.0
 41
1.0
 10
742.2551166348628
 20
-1411.233305111927
 30
0.0
 41
1.0
 10
742.1149079138625
 20
-1411.533177509882
 30
0.0
 41
0.9998735413945857
 10
741.9843065671407
 20
-1411.837357109352
 30
0.0
 41
1.0
 10
741.9808637390795
 20
-1411.845375694819
 30
0.0
 41
1.0
 10
741.9774209110182
 20
-1411.853394280285
 30
0.0
 41
1.0
 10
741.8537052204181
 20
-1412.141536708825
 30
0.0
 41
0.9999377418862883
 10
741.7364504182456
 20
-1412.432368176495
 30
0.0
 41
1.0
 10
741.6191956160726
 20
-1412.723199644165
 30
0.0
 41
0.9999508299502299
 10
741.507731672699
 20
-1413.016299320977
 30
0.0
 41
1.0
 10
741.5046509040336
 20
-1413.024400346948
 30
0.0
 41
1.0
 10
741.5015701353682
 20
-1413.03250137292
 30
0.0
 41
1.0
 10
741.3839446546606
 20
-1413.341803101683
 30
0.0
 41
0.999960922842913
 10
741.2718060517849
 20
-1413.653136117704
 30
0.0
 41
1.0
 10
741.2688500414388
 20
-1413.661342958104
 30
0.0
 41
1.0
 10
741.2658940310926
 20
-1413.669549798504
 30
0.0
 41
1.0
 10
741.1478434075217
 20
-1413.997296495331
 30
0.0
 41
0.9999674607407127
 10
741.0350958814552
 20
-1414.326905115322
 30
0.0
 41
1.0
 10
740.9836974908912
 20
-1414.477164311018
 30
0.0
 41
1.0
 10
740.9322991003273
 20
-1414.627423506715
 30
0.0
 41
1.0
 10
740.8162884935692
 20
-1414.96657148922
 30
0.0
 41
0.9999287532309528
 10
740.7084070895985
 20
-1415.308392228196
 30
0.0
 41
1.0
 10
740.6619298334374
 20
-1415.455654772637
 30
0.0
 41
1.0
 10
740.6154525772762
 20
-1415.602917317077
 30
0.0
 41
1.0
 10
740.6005256856313
 20
-1415.650212967161
 30
0.0
 41
0.9999998224103139
 10
740.585655176897
 20
-1415.697526375413
 30
0.0
 41
1.0
 10
738.9649990401017
 20
-1420.845554877202
 30
0.0
 41
1.0
 10
737.3443429033064
 20
-1425.993583378991
 30
0.0
 41
1.0
 10
736.4390344594153
 20
-1425.993583378991
 30
0.0
 41
1.0
 10
735.5337260155243
 20
-1425.993583378991
 30
0.0
 41
1.0
 10
737.3858104269098
 20
-1420.106511456524
 30
0.0
 41
1.0
 10
739.2378948382952
 20
-1414.219439534056
 30
0.0
 41
1.0
 10
739.2480165965985
 20
-1414.187396320607
 30
0.0
 41
1.0
 10
739.3206242654483
 20
-1413.957096778781
 30
0.0
 41
1.0
 10
739.3932319343
 20
-1413.726797236949
 30
0.0
 41
0.9999825681966444
 10
739.4631149735084
 20
-1413.495656341894
 30
0.0
 41
1.0
 10
739.5114060356707
 20
-1413.335931758394
 30
0.0
 41
1.0
 10
739.5596970978331
 20
-1413.176207174893
 30
0.0
 41
1.0
 10
739.6568494511487
 20
-1412.854871953124
 30
0.0
 41
0.9999672528965824
 10
739.7487882567707
 20
-1412.53200640754
 30
0.0
 41
1.0
 10
739.7515771404395
 20
-1412.522212562153
 30
0.0
 41
1.0
 10
739.7543660241083
 20
-1412.512418716767
 30
0.0
 41
1.0
 10
739.8407270623936
 20
-1412.209140861953
 30
0.0
 41
0.9999899749145799
 10
739.9243686719287
 20
-1411.905101773501
 30
0.0
 41
1.0
 10
739.9344745909472
 20
-1411.86836653582
 30
0.0
 41
1.0
 10
739.9445805099656
 20
-1411.831631298138
 30
0.0
 41
1.0
 10
740.0080102814643
 20
-1411.601062685048
 30
0.0
 41
0.9999214200503578
 10
740.0656397098414
 20
-1411.368976342839
 30
0.0
 41
1.0
 10
740.0784055620245
 20
-1411.317565457433
 30
0.0
 41
1.0
 10
740.0911714142077
 20
-1411.266154572026
 30
0.0
 41
1.0
 10
740.1232691382189
 20
-1411.136890000631
 30
0.0
 41
0.9999828681652326
 10
740.1538513902146
 20
-1411.007258526163
 30
0.0
 41
1.0
 10
740.18443364221
 20
-1410.877627051697
 30
0.0
 41
0.9999389844482226
 10
740.2121446309986
 20
-1410.747351595798
 30
0.0
 41
1.0
 10
740.219282374719
 20
-1410.713795491959
 30
0.0
 41
1.0
 10
740.2264201184394
 20
-1410.68023938812
 30
0.0
 41
1.0
 10
740.2684065946677
 20
-1410.482851724548
 30
0.0
 41
0.9998933699442158
 10
740.3046108590695
 20
-1410.284322116793
 30
0.0
 41
1.0
 10
740.3059836842864
 20
-1410.276794096093
 30
0.0
 41
1.0
 10
740.3073565095033
 20
-1410.269266075393
 30
0.0
 41
1.0
 10
740.3463064243379
 20
-1410.055680426244
 30
0.0
 41
0.9996850305193222
 10
740.3744901005974
 20
-1409.840409420805
 30
0.0
 41
1.0
 10
740.3764851339668
 20
-1409.825171066684
 30
0.0
 41
1.0
 10
740.378480167336
 20
-1409.809932712563
 30
0.0
 41
1.0
 10
740.4058880297956
 20
-1409.600587485407
 30
0.0
 41
0.9994697936706541
 10
740.4196125890153
 20
-1409.389902290076
 30
0.0
 41
1.0
 10
740.4200896582649
 20
-1409.382578817864
 30
0.0
 41
1.0
 10
740.4205667275147
 20
-1409.375255345653
 30
0.0
 41
1.0
 10
740.4333371482346
 20
-1409.179217094746
 30
0.0
 41
0.9991804893136677
 10
740.4302088319614
 20
-1408.982788244772
 30
0.0
 41
1.0
 10
740.4301249531393
 20
-1408.977521443358
 30
0.0
 41
1.0
 10
740.4300410743172
 20
-1408.972254641945
 30
0.0
 41
1.0
 10
740.427080515688
 20
-1408.786359394798
 30
0.0
 41
0.9988448329323231
 10
740.4062889700649
 20
-1408.601606804965
 30
0.0
 41
1.0
 10
740.4046948963619
 20
-1408.587441949194
 30
0.0
 41
1.0
 10
740.403100822659
 20
-1408.573277093423
 30
0.0
 41
1.0
 10
740.3854974244416
 20
-1408.41685421513
 30
0.0
 41
0.9985503209456761
 10
740.3511811521416
 20
-1408.263230031042
 30
0.0
 41
1.0
 10
740.3435951600704
 20
-1408.229269703642
 30
0.0
 41
1.0
 10
740.3360091679991
 20
-1408.195309376243
 30
0.0
 41
1.0
 10
740.3168648798418
 20
-1408.109605846955
 30
0.0
 41
0.9991036781372237
 10
740.2905400181903
 20
-1408.025828759628
 30
0.0
 41
1.0
 10
740.2865577927346
 20
-1408.013155597118
 30
0.0
 41
1.0
 10
740.2825755672789
 20
-1408.000482434608
 30
0.0
 41
1.0
 10
740.2642151565393
 20
-1407.942051672303
 30
0.0
 41
0.9998874504370062
 10
740.244109948861
 20
-1407.88419807008
 30
0.0
 41
1.0
 10
740.2240047411831
 20
-1407.826344467857
 30
0.0
 41
0.9994041637542719
 10
740.1999561282491
 20
-1407.770015763968
 30
0.0
 41
1.0
 10
740.1957593440247
 20
-1407.760185699486
 30
0.0
 41
1.0
 10
740.1915625598004
 20
-1407.750355635003
 30
0.0
 41
1.0
 10
740.163683728805
 20
-1407.685055469035
 30
0.0
 41
0.9991846840702705
 10
740.1306273721125
 20
-1407.622217437756
 30
0.0
 41
1.0
 10
740.129490765717
 20
-1407.6200568213
 30
0.0
 41
1.0
 10
740.1283541593216
 20
-1407.617896204845
 30
0.0
 41
1.0
 10
740.0975710154189
 20
-1407.559379406475
 30
0.0
 41
0.9989253167924678
 10
740.061501591365
 20
-1407.503964478085
 30
0.0
 41
1.0
 10
740.0604474666911
 20
-1407.502344983323
 30
0.0
 41
1.0
 10
740.0593933420174
 20
-1407.500725488562
 30
0.0
 41
1.0
 10
740.0254321673115
 20
-1407.448549549696
 30
0.0
 41
0.9986467172834761
 10
739.9862350146727
 20
-1407.400183516065
 30
0.0
 41
1.0
 10
739.9853608859719
 20
-1407.399104913787
 30
0.0
 41
1.0
 10
739.9844867572709
 20
-1407.398026311508
 30
0.0
 41
1.0
 10
739.9470378620342
 20
-1407.351817482435
 30
0.0
 41
0.9984001104268774
 10
739.9046111315179
 20
-1407.310132375067
 30
0.0
 41
1.0
 10
739.9040239934086
 20
-1407.309555500186
 30
0.0
 41
1.0
 10
739.9034368552994
 20
-1407.308978625305
 30
0.0
 41
1.0
 10
739.8621844010014
 20
-1407.268447267699
 30
0.0
 41
0.998244215908318
 10
739.8164282996654
 20
-1407.233078706438
 30
0.0
 41
1.0
 10
739.8162135042032
 20
-1407.232912673794
 30
0.0
 41
1.0
 10
739.8159987087412
 20
-1407.232746641151
 30
0.0
 41
1.0
 10
739.7706721983292
 20
-1407.197710145177
 30
0.0
 41
0.9982450060834225
 10
739.7215212192582
 20
-1407.168278362144
 30
0.0
 41
1.0
 10
739.6723702401863
 20
-1407.138846579111
 30
0.0
 41
0.99839226396354
 10
739.6202039340214
 20
-1407.115166944456
 30
0.0
 41
1.0
 10
739.619977056697
 20
-1407.115063958975
 30
0.0
 41
1.0
 10
739.6197501793727
 20
-1407.114960973494
 30
0.0
 41
1.0
 10
739.5671301185595
 20
-1407.091075367877
 30
0.0
 41
0.9986517147149457
 10
739.5123171456921
 20
-1407.072774248756
 30
0.0
 41
1.0
 10
739.5116392242635
 20
-1407.072547902324
 30
0.0
 41
1.0
 10
739.5109613028349
 20
-1407.072321555892
 30
0.0
 41
1.0
 10
739.4547924871108
 20
-1407.053567743907
 30
0.0
 41
0.9989435598957662
 10
739.3971390999599
 20
-1407.040050041673
 30
0.0
 41
1.0
 10
739.3960589803783
 20
-1407.03979679142
 30
0.0
 41
1.0
 10
739.3949788607965
 20
-1407.039543541167
 30
0.0
 41
1.0
 10
739.335165234483
 20
-1407.025519338427
 30
0.0
 41
0.999224924124028
 10
739.2744337255866
 20
-1407.016243995711
 30
0.0
 41
1.0
 10
739.2730200372944
 20
-1407.016028087303
 30
0.0
 41
1.0
 10
739.271606349002
 20
-1407.015812178895
 30
0.0
 41
1.0
 10
739.2080474635218
 20
-1407.006105019364
 30
0.0
 41
0.9994396597833277
 10
739.143981526984
 20
-1407.000672097019
 30
0.0
 41
1.0
 10
739.1248408595068
 20
-1406.9990489293
 30
0.0
 41
1.0
 10
739.1057001920294
 20
-1406.997425761582
 30
0.0
 41
1.0
 10
739.0033529205364
 20
-1406.988746503799
 30
0.0
 41
0.9987693403121365
 10
738.9006492969492
 20
-1406.990249567251
 30
0.0
 41
1.0
 10
738.8903949627214
 20
-1406.990399639025
 30
0.0
 41
1.0
 10
738.8801406284937
 20
-1406.9905497108
 30
0.0
 41
1.0
 10
738.7705848623157
 20
-1406.992153055087
 30
0.0
 41
0.9989753644965725
 10
738.6616228623002
 20
-1407.003656062012
 30
0.0
 41
1.0
 10
738.5526608622833
 20
-1407.015159068937
 30
0.0
 41
0.9983190067306023
 10
738.4457620513178
 20
-1407.039194060724
 30
0.0
 41
1.0
 10
738.4368610997116
 20
-1407.041195339287
 30
0.0
 41
1.0
 10
738.4279601481053
 20
-1407.04319661785
 30
0.0
 41
1.0
 10
738.3032594339288
 20
-1407.071234166761
 30
0.0
 41
0.998553938830407
 10
738.1822896802524
 20
-1407.112497842806
 30
0.0
 41
1.0
 10
738.1799442492904
 20
-1407.113297886623
 30
0.0
 41
1.0
 10
738.1775988183285
 20
-1407.114097930439
 30
0.0
 41
1.0
 10
738.0519382027304
 20
-1407.156961694116
 30
0.0
 41
0.9988468746494011
 10
737.9309678604304
 20
-1407.211679779178
 30
0.0
 41
1.0
 10
737.9277850384412
 20
-1407.213119453738
 30
0.0
 41
1.0
 10
737.9246022164521
 20
-1407.214559128298
 30
0.0
 41
1.0
 10
737.7972662301711
 20
-1407.272156562482
 30
0.0
 41
0.9991322885918295
 10
737.6751656461123
 20
-1407.340151894665
 30
0.0
 41
1.0
 10
737.6575636350719
 20
-1407.349954096653
 30
0.0
 41
1.0
 10
737.6399616240317
 20
-1407.359756298641
 30
0.0
 41
1.0
 10
737.537784942974
 20
-1407.416656414422
 30
0.0
 41
0.9993860037850123
 10
737.4398439388992
 20
-1407.480572430012
 30
0.0
 41
1.0
 10
737.4342256260481
 20
-1407.484238924706
 30
0.0
 41
1.0
 10
737.428607313197
 20
-1407.4879054194
 30
0.0
 41
1.0
 10
737.3419029348252
 20
-1407.5444884456
 30
0.0
 41
0.999882149495285
 10
737.2569765590129
 20
-1407.603706675677
 30
0.0
 41
1.0
 10
737.1720501832009
 20
-1407.662924905753
 30
0.0
 41
0.9997976482744108
 10
737.089574552798
 20
-1407.725511313794
 30
0.0
 41
1.0
 10
737.0749382879925
 20
-1407.736618003574
 30
0.0
 41
1.0
 10
737.060302023187
 20
-1407.747724693355
 30
0.0
 41
1.0
 10
736.9485538631732
 20
-1407.832524480957
 30
0.0
 41
0.9998091630799488
 10
736.8402035851483
 20
-1407.921624831656
 30
0.0
 41
1.0
 10
736.8271978326698
 20
-1407.932319932103
 30
0.0
 41
1.0
 10
736.8141920801913
 20
-1407.94301503255
 30
0.0
 41
1.0
 10
736.6798302972079
 20
-1408.053505584144
 30
0.0
 41
0.999503511231712
 10
736.5526944194418
 20
-1408.172239401162
 30
0.0
 41
1.0
 10
736.5430471090574
 20
-1408.181249147317
 30
0.0
 41
1.0
 10
736.533399798673
 20
-1408.190258893472
 30
0.0
 41
1.0
 10
736.4099767359057
 20
-1408.305525265229
 30
0.0
 41
0.9994630424298699
 10
736.2943683301214
 20
-1408.428628008465
 30
0.0
 41
1.0
 10
736.2906854913493
 20
-1408.432549587978
 30
0.0
 41
1.0
 10
736.2870026525773
 20
-1408.436471167492
 30
0.0
 41
1.0
 10
736.1787599243371
 20
-1408.5517307517
 30
0.0
 41
0.9995160693749491
 10
736.0778938948056
 20
-1408.673498169573
 30
0.0
 41
1.0
 10
736.0759601747257
 20
-1408.67583259378
 30
0.0
 41
1.0
 10
736.0740264546457
 20
-1408.678167017987
 30
0.0
 41
1.0
 10
735.977027865274
 20
-1408.795265587445
 30
0.0
 41
0.9996561470514883
 10
735.886301646608
 20
-1408.917288349895
 30
0.0
 41
1.0
 10
735.8801439807055
 20
-1408.925570138937
 30
0.0
 41
1.0
 10
735.8739863148031
 20
-1408.93385192798
 30
0.0
 41
1.0
 10
735.7955754279399
 20
-1409.039311112347
 30
0.0
 41
0.9998349055172462
 10
735.7210481460102
 20
-1409.147549696007
 30
0.0
 41
1.0
 10
735.6465208640776
 20
-1409.255788279671
 30
0.0
 41
0.9999728109565801
 10
735.5735979681685
 20
-1409.365114205224
 30
0.0
 41
1.0
 10
735.5722827527563
 20
-1409.367085974727
 30
0.0
 41
1.0
 10
735.5709675373441
 20
-1409.369057744231
 30
0.0
 41
1.0
 10
735.4954142106079
 20
-1409.482327208794
 30
0.0
 41
0.9999972147420022
 10
735.4203964002327
 20
-1409.595952051632
 30
0.0
 41
1.0
 10
735.4154248576122
 20
-1409.603482140102
 30
0.0
 41
1.0
 10
735.4104533149916
 20
-1409.611012228571
 30
0.0
 41
1.0
 10
735.3254924193748
 20
-1409.739697248349
 30
0.0
 41
0.9999371979005388
 10
735.243437069969
 20
-1409.870254162129
 30
0.0
 41
1.0
 10
735.2399281856069
 20
-1409.875837090195
 30
0.0
 41
1.0
 10
735.236419301245
 20
-1409.88142001826
 30
0.0
 41
1.0
 10
735.1473461831198
 20
-1410.023142788164
 30
0.0
 41
0.9998272025611552
 10
735.0636027922375
 20
-1410.168078664906
 30
0.0
 41
1.0
 10
735.0483876202118
 20
-1410.194411779365
 30
0.0
 41
1.0
 10
735.0331724481862
 20
-1410.220744893824
 30
0.0
 41
1.0
 10
734.9189987132538
 20
-1410.418346999483
 30
0.0
 41
0.9995217214838269
 10
734.8172590236968
 20
-1410.622629327348
 30
0.0
 41
1.0
 10
734.8096154610644
 20
-1410.637976777046
 30
0.0
 41
1.0
 10
734.801971898432
 20
-1410.653324226744
 30
0.0
 41
1.0
 10
734.7150666058425
 20
-1410.827820684824
 30
0.0
 41
0.9998269762608037
 10
734.6347121395679
 20
-1411.005428971553
 30
0.0
 41
1.0
 10
734.5543576732954
 20
-1411.183037258277
 30
0.0
 41
0.9998944747386967
 10
734.479196878733
 20
-1411.362904983901
 30
0.0
 41
1.0
 10
734.4742432091393
 20
-1411.374759638824
 30
0.0
 41
1.0
 10
734.4692895395457
 20
-1411.386614293747
 30
0.0
 41
1.0
 10
734.3886424789922
 20
-1411.579611233767
 30
0.0
 41
0.9999506734413415
 10
734.3118449500921
 20
-1411.774172038616
 30
0.0
 41
1.0
 10
734.2972449848276
 20
-1411.811159960406
 30
0.0
 41
1.0
 10
734.2826450195631
 20
-1411.848147882196
 30
0.0
 41
1.0
 10
734.2350474211883
 20
-1411.968732843474
 30
0.0
 41
0.9999912393934541
 10
734.1884609771664
 20
-1412.089712046168
 30
0.0
 41
1.0
 10
734.1418745331364
 20
-1412.210691248883
 30
0.0
 41
0.999992711397155
 10
734.0962132387365
 20
-1412.332022656401
 30
0.0
 41
1.0
 10
734.0822448073455
 20
-1412.369139638382
 30
0.0
 41
1.0
 10
734.0682763759546
 20
-1412.406256620364
 30
0.0
 41
1.0
 10
733.9946782187642
 20
-1412.601821991866
 30
0.0
 41
0.9999487550947215
 10
733.9250545937952
 20
-1412.798837357041
 30
0.0
 41
1.0
 10
733.9014609838586
 20
-1412.865600667333
 30
0.0
 41
1.0
 10
733.877867373922
 20
-1412.932363977625
 30
0.0
 41
1.0
 10
733.7831817395531
 20
-1413.200297812443
 30
0.0
 41
0.9999808436944156
 10
733.6918201509075
 20
-1413.469383243721
 30
0.0
 41
1.0
 10
733.6004585622622
 20
-1413.738468674997
 30
0.0
 41
0.999987393290483
 10
733.5118038535473
 20
-1414.00845803
 30
0.0
 41
1.0
 10
733.4917114966781
 20
-1414.069647362752
 30
0.0
 41
1.0
 10
733.4716191398088
 20
-1414.130836695505
 30
0.0
 41
1.0
 10
733.3427797173497
 20
-1414.523204716029
 30
0.0
 41
0.9999794883028583
 10
733.2189769323886
 20
-1414.917190922318
 30
0.0
 41
1.0
 10
733.2078246729442
 20
-1414.952681532577
 30
0.0
 41
1.0
 10
733.1966724134998
 20
-1414.988172142836
 30
0.0
 41
1.0
 10
733.0541142496165
 20
-1415.441844894879
 30
0.0
 41
0.9999982761779045
 10
732.9132418096065
 20
-1415.896043916985
 30
0.0
 41
1.0
 10
731.3251014770335
 20
-1420.944813647988
 30
0.0
 41
1.0
 10
729.7369611444606
 20
-1425.993583378991
 30
0.0
 41
1.0
 10
728.788210532985
 20
-1425.993583378991
 30
0.0
 41
1.0
 10
727.8394599215094
 20
-1425.993583378991
 30
0.0
 41
1.0
 10
731.0777444076625
 20
-1415.666261179045
 30
0.0
 41
1.0
 10
734.3160288938157
 20
-1405.338938979099
 30
0.0
 41
1.0
  0
LWPOLYLINE
  5
5D
330
23
100
AcDbEntity
  8
0
  6
Continuous
 62
     7
370
    15
390
1D
100
AcDbPolyline
 90
      232
 70
   128
 43
0.0
 10
708.6124831199882
 20
-1406.423281810614
 42
0.0004370800656556
 10
708.559605945894
 20
-1406.491948449899
 10
708.5203217147887
 20
-1406.543055562767
 42
0.0030481992188533
 10
708.389982997668
 20
-1406.714777255113
 10
708.3514713259187
 20
-1406.766164038899
 42
0.004205824576075
 10
708.1474862752484
 20
-1407.043169783974
 10
708.0950811527487
 20
-1407.115602630754
 42
0.0120948898733939
 10
707.7990372359884
 20
-1407.546352235301
 10
707.7028447368655
 20
-1407.693832970527
 42
0.0141601263952834
 10
707.3992006899421
 20
-1408.189502307263
 10
707.3596634225139
 20
-1408.258346274699
 42
0.0071131081308774
 10
707.1543910992782
 20
-1408.627849073533
 42
0.0068458790998744
 10
706.9595115724313
 20
-1409.002940637017
 10
706.9526997099779
 20
-1409.016502350733
 42
0.0064120880291886
 10
706.7545574599316
 20
-1409.423926825656
 10
706.7470227744166
 20
-1409.439938682373
 42
0.005885723644497
 10
706.5442673825494
 20
-1409.884314793397
 10
706.5360924562506
 20
-1409.902804947042
 42
0.0053189741900058
 10
706.3273881435885
 20
-1410.388768420947
 10
706.3186403379018
 20
-1410.409750299156
 42
0.0047503650419909
 10
706.1026666117449
 20
-1410.941949732383
 10
706.0933983634036
 20
-1410.965426108473
 42
0.0042071762166376
 10
705.8688509796737
 20
-1411.548519702548
 10
705.8591015773268
 20
-1411.574485877413
 42
0.0036680086486074
 10
705.6246469340139
 20
-1412.213121261944
 10
705.6144391541661
 20
-1412.241569796289
 42
0.0032573142630768
 10
705.3688068681978
 20
-1412.940422456047
 10
705.3001563473646
 20
-1413.139885540079
 42
0.0026133366645713
 10
704.9517111486016
 20
-1414.169748823767
 10
704.8884543611098
 20
-1414.359979659133
 42
0.0020592950741822
 10
704.6745912921338
 20
-1415.012083311773
 10
704.6715395009768
 20
-1415.021519800164
 42
0.0025609928527479
 10
704.4697189994845
 20
-1415.656665022548
 10
704.4671276323598
 20
-1415.664967363482
 42
0.0031362356249169
 10
704.2776368466807
 20
-1416.285730219668
 10
704.2755058037515
 20
-1416.292871525886
 42
0.0037229918024289
 10
704.0987054168268
 20
-1416.901856827854
 10
704.0970268276219
 20
-1416.907803718023
 42
0.0043077623711165
 10
703.9332860255549
 20
-1417.507622449797
 42
0.0047654161828918
 10
703.7804573030367
 20
-1418.110308538711
 10
703.7459926942006
 20
-1418.251870315849
 42
0.011296936844047
 10
703.5501283360583
 20
-1419.14356247647
 10
703.5221219469609
 20
-1419.286390522572
 42
0.0130056762571969
 10
703.3212847033142
 20
-1420.473331594216
 10
703.3007449531664
 20
-1420.617409707699
 42
0.0138721532146057
 10
703.1970419486292
 20
-1421.524239193519
 10
703.1777464607209
 20
-1421.74773691545
 42
0.0071254697003391
 10
703.1443998147984
 20
-1422.210923924291
 10
703.1394388406351
 20
-1422.296927918848
 42
0.0028881799197071
 10
703.1243005473448
 20
-1422.588669628694
 42
0.0060297297133949
 10
703.1143683475691
 20
-1422.880618564811
 10
703.113306065902
 20
-1422.929010936741
 42
0.0229523164166107
 10
703.1210370936883
 20
-1423.251765783026
 10
703.1252628672089
 20
-1423.312169317042
 42
0.0123673300639003
 10
703.1443415137269
 20
-1423.513290042217
 42
0.0128577674502626
 10
703.1735369041326
 20
-1423.713187892142
 10
703.18066277752
 20
-1423.75451670674
 42
0.0285717853750725
 10
703.2451567792157
 20
-1424.032632858053
 10
703.2588253028824
 20
-1424.079287627532
 42
0.0316283099164167
 10
703.3746358827962
 20
-1424.398302129357
 10
703.3776845745517
 20
-1424.405288501682
 42
0.033898482423795
 10
703.5271162855192
 20
-1424.692854465871
 10
703.5294250148888
 20
-1424.696645495147
 42
0.0350228718351019
 10
703.7117853055629
 20
-1424.953697479824
 10
703.7126705573381
 20
-1424.954776557588
 42
0.0347476747526009
 10
703.9270952445781
 20
-1425.181961604808
 42
0.0331337701910404
 10
704.1703385703249
 20
-1425.378090266886
 10
704.1714386688404
 20
-1425.378862970058
 42
0.0305233319088585
 10
704.4399833644152
 20
-1425.54399114015
 10
704.4432134089152
 20
-1425.545715152012
 42
0.0273744481148817
 10
704.7357671204885
 20
-1425.681853295902
 10
704.740871655627
 20
-1425.683896880372
 42
0.0240964406204831
 10
705.0563487312719
 20
-1425.792880606653
 10
705.0629320604826
 20
-1425.794805346329
 42
0.0209636179809006
 10
705.4003322131364
 20
-1425.878273494261
 10
705.407964673584
 20
-1425.879825407262
 42
0.0181388704693743
 10
705.7662870655823
 20
-1425.939241500476
 10
705.7745679139603
 20
-1425.940307684293
 42
0.0156086547585049
 10
706.1527552781482
 20
-1425.97704387087
 10
706.1959505304787
 20
-1425.979882373349
 42
0.0137148329021992
 10
706.5236236757751
 20
-1425.9924026286
 10
706.5695598657201
 20
-1425.992897061716
 42
0.0051057823888378
 10
706.8057054522938
 20
-1425.993027316125
 42
0.0052256693310995
 10
707.0418027360688
 20
-1425.98827849166
 10
707.112029519822
 20
-1425.986131525646
 42
0.0161507179050508
 10
707.4877665979279
 20
-1425.962481155319
 10
707.5077795582961
 20
-1425.960570960032
 42
0.0101216737834071
 10
707.921806779788
 20
-1425.912578029666
 10
707.955860069213
 20
-1425.907930332857
 42
0.0245291776394894
 10
708.4326497247637
 20
-1425.818855254781
 10
708.5174730402855
 20
-1425.798659334436
 42
0.0143509212560721
 10
708.8741041442277
 20
-1425.702854700656
 42
0.0156557857032607
 10
709.2243202089577
 20
-1425.585843484836
 10
709.2318214234497
 20
-1425.583073323083
 42
0.0170137333635593
 10
709.5884174191302
 20
-1425.437415708213
 10
709.5955213415386
 20
-1425.434227872649
 42
0.018310536440633
 10
709.9548710097062
 20
-1425.256892830824
 10
709.9618177743437
 20
-1425.253142395952
 42
0.0194899958151154
 10
710.3202985153282
 20
-1425.041163414061
 10
710.3273123946651
 20
-1425.036638071766
 42
0.0204869852959445
 10
710.6813266967599
 20
-1424.787118056679
 10
710.6885923053455
 20
-1424.781537991332
 42
0.0212516938544867
 10
711.0345822364483
 20
-1424.491633994442
 10
711.0810989305327
 20
-1424.44916668434
 42
0.0215248918255324
 10
711.3411250994163
 20
-1424.190402405349
 10
711.3861548337957
 20
-1424.141558284001
 42
0.0114578554950365
 10
711.5409469874744
 20
-1423.965735350541
 10
711.552141523465
 20
-1423.952416586991
 42
0.0061531305139603
 10
711.6786161694558
 20
-1423.79812705369
 42
0.0006325587116899
 10
711.8029946535913
 20
-1423.642123678035
 10
711.8260347886594
 20
-1423.613150157355
 42
0.0041897761568748
 10
711.9944901926351
 20
-1423.397630781289
 10
712.0529523125238
 20
-1423.321529434308
 42
0.0092993880026198
 10
712.32956423975
 20
-1422.94725067042
 10
712.4119587329478
 20
-1422.831313666853
 42
0.0159321727092208
 10
712.758565215589
 20
-1422.309139446099
 10
712.8029213509783
 20
-1422.237459881849
 42
0.0085547317021237
 10
713.0374331163034
 20
-1421.843584932624
 42
0.0084601156888976
 10
713.2584092937443
 20
-1421.441958083594
 10
713.2665247675754
 20
-1421.426598401319
 42
0.0081429654281421
 10
713.4897740380159
 20
-1420.986876888773
 10
713.4986342021971
 20
-1420.968698046759
 42
0.0076574581333109
 10
713.7250417127649
 20
-1420.485515171504
 10
713.7345213534877
 20
-1420.464450693203
 42
0.0070682724200188
 10
713.9649662612968
 20
-1419.932413388417
 10
713.9749565452762
 20
-1419.90842419941
 42
0.0064559514444867
 10
714.210289753452
 20
-1419.322111932907
 10
714.2206991116232
 20
-1419.295177007449
 42
0.0058311413910183
 10
714.4617458483896
 20
-1418.649144913054
 10
714.4725009257731
 20
-1418.619260571905
 42
0.0052312425815979
 10
714.7200822038133
 20
-1417.908058158072
 10
714.7311260401934
 20
-1417.875231446001
 42
0.0046680544794864
 10
714.9860544679292
 20
-1417.093405130243
 10
715.0280466179728
 20
-1416.960421892951
 42
0.0041666856452818
 10
715.231332630367
 20
-1416.297453117948
 10
715.2689950710239
 20
-1416.170872010317
 42
0.0015170975146252
 10
715.390181649444
 20
-1415.759003658801
 42
-0.0004887993104393
 10
715.510521422568
 20
-1415.346885246757
 10
715.5869986800622
 20
-1415.085927860818
 42
0.0002583378925702
 10
715.8602132501078
 20
-1414.1518711577
 10
715.9419860997115
 20
-1413.871771898024
 42
0.0006636169671734
 10
716.1358538597137
 20
-1413.204418974469
 10
716.1409505140772
 20
-1413.186787391532
 42
0.0010589131329553
 10
716.3223992149774
 20
-1412.55405604854
 10
716.3273812854577
 20
-1412.53654314152
 42
0.0015655524454746
 10
716.4956514926412
 20
-1411.937926462319
 10
716.500481693048
 20
-1411.920534303413
 42
0.0021640440485431
 10
716.6547716650425
 20
-1411.355507285365
 10
716.659405884478
 20
-1411.33824255535
 42
0.0028763871852364
 10
716.7989216025248
 20
-1410.806274604524
 10
716.8033074666864
 20
-1410.789150626392
 42
0.0037310511941232
 10
716.9272641585289
 20
-1410.289703032346
 10
716.9313393788245
 20
-1410.272742761073
 42
0.0047652197778439
 10
717.0389632793263
 20
-1409.805264992795
 10
717.0426538786445
 20
-1409.788505437668
 42
0.0060276699291235
 10
717.1331839778036
 20
-1409.352429642501
 10
717.1364026680933
 20
-1409.335928428189
 42
0.0075824337766473
 10
717.2090919775087
 20
-1408.930661263765
 10
717.2117373548878
 20
-1408.914506316322
 42
0.0095130624602773
 10
717.2658525905204
 20
-1408.539416963243
 10
717.2728388144033
 20
-1408.483483405124
 42
0.0121054653248089
 10
717.2994301449803
 20
-1408.218587576653
 10
717.3002966347402
 20
-1408.207184133718
 42
0.0069050827364387
 10
717.3153854527768
 20
-1407.964242906879
 10
717.3165207524454
 20
-1407.940716649833
 42
0.0169063976680271
 10
717.3193480314262
 20
-1407.744523922534
 10
717.3181773798954
 20
-1407.684188161189
 42
0.0052007732922789
 10
717.3159239313022
 20
-1407.608594771033
 42
0.0054038123306356
 10
717.2959604194633
 20
-1407.488576475023
 10
717.2908745635928
 20
-1407.459917988441
 42
0.0112050460454677
 10
717.2554902015338
 20
-1407.2835915501
 10
717.2376652394937
 20
-1407.204049963382
 42
0.0240764468016703
 10
717.1467678733477
 20
-1406.873812927881
 10
717.1282091105342
 20
-1406.817192762887
 42
0.0256812331826587
 10
716.9848461903443
 20
-1406.44546855663
 10
716.9794367645228
 20
-1406.433337221639
 42
0.0268360501216273
 10
716.8100095236737
 20
-1406.102344087619
 10
716.8044731160389
 20
-1406.092824417307
 42
0.0274670231736665
 10
716.6122721396255
 20
-1405.800537042389
 10
716.6068908396627
 20
-1405.793257894848
 42
0.0275035967097297
 10
716.3953179601008
 20
-1405.537742004544
 10
716.3902484591338
 20
-1405.532262916912
 42
0.02695576735277
 10
716.1628449156947
 20
-1405.311620630951
 10
716.1581018579133
 20
-1405.307490676491
 42
0.025912480219694
 10
715.9185470264815
 20
-1405.119800149338
 10
715.9140161812987
 20
-1405.116614647007
 42
0.0245162153011184
 10
715.6660998282046
 20
-1404.959881637897
 10
715.6615732818799
 20
-1404.957321440696
 42
0.0229282588825783
 10
715.4091537250529
 20
-1404.829453248197
 10
715.4043732312183
 20
-1404.827300948436
 42
0.0212984135704437
 10
715.1513352787547
 20
-1404.726102031193
 10
715.1460309937846
 20
-1404.724238468433
 42
0.0197555462334223
 10
714.8962526560622
 20
-1404.647423050468
 42
0.0183511896795367
 10
714.6413239305961
 20
-1404.589840143502
 10
714.5549587338744
 20
-1404.573637353117
 42
0.0338057877147139
 10
714.269451384615
 20
-1404.539828947977
 10
714.1784459795787
 20
-1404.535249292716
 42
0.009199052449126
 10
714.0725988709396
 20
-1404.531873436794
 42
0.0028333980784413
 10
713.9666849549283
 20
-1404.531045329277
 10
713.9657695018973
 20
-1404.531043359453
 42
-0.002361982779984
 10
713.8580234867931
 20
-1404.530302518375
 10
713.8216183166155
 20
-1404.529880211912
 42
0.0008824598473031
 10
713.6410623268129
 20
-1404.528104433674
 10
713.5972008943595
 20
-1404.527750472148
 42
0.0038132665768056
 10
713.3289179984896
 20
-1404.527631536081
 10
713.3123843436874
 20
-1404.527750302225
 42
0.0060665569335579
 10
713.0111038520898
 20
-1404.533570601646
 10
712.996853520071
 20
-1404.534018909613
 42
0.0080356953334856
 10
712.6673948037391
 20
-1404.549686631679
 10
712.6553247886445
 20
-1404.55045521462
 42
0.0098996399107866
 10
712.302561703988
 20
-1404.579940443819
 10
712.2925159946185
 20
-1404.580980740017
 42
0.0117740981369443
 10
711.9213591362698
 20
-1404.628272987547
 10
711.9131364397867
 20
-1404.629518104117
 42
0.0137435215135131
 10
711.5285476203042
 20
-1404.698615077679
 10
711.5218905811785
 20
-1404.700000973913
 42
0.015835986938566
 10
711.1288934873733
 20
-1404.794893062394
 10
711.1234803005086
 20
-1404.796383003264
 42
0.0180554124025302
 10
710.7271652558992
 20
-1404.921021019501
 10
710.7226084678127
 20
-1404.922637055769
 42
0.0203657431288818
 10
710.3281309499989
 20
-1405.080897397286
 10
710.3239874109945
 20
-1405.082759018727
 42
0.0226819684649572
 10
709.9365513547916
 20
-1405.278401597397
 10
709.932351563773
 20
-1405.280767189317
 42
0.0248634984610515
 10
709.5571696225925
 20
-1405.517393835264
 10
709.5089746938098
 20
-1405.551250877089
 42
0.0267044190876706
 10
709.2346819968911
 20
-1405.766691252958
 42
0.0139303002208931
 10
708.978514830947
 20
-1406.003930093875
 10
708.9736614452308
 20
-1406.00868275673
 42
0.028346096345288
 10
708.7295888510025
 20
-1406.276413417178
 10
708.6899203458483
 20
-1406.325214994649
 42
0.0070695364812021
 10
708.6124831199882
 20
-1406.423281810614
 42
0.0070695364812021
  0
LWPOLYLINE
  5
5E
330
23
100
AcDbEntity
  8
0
  6
Continuous
 62
     7
370
    15
390
1D
100
AcDbPolyline
 90
      226
 70
   128
 43
0.0
 10
705.0836626827418
 20
-1422.144870616798
 42
-0.0026277636603175
 10
705.0835847989418
 20
-1422.07809869105
 10
705.083802157174
 20
-1422.024943473612
 42
-0.0088680296722122
 10
705.0875787734672
 20
-1421.85192769121
 10
705.0899251325795
 20
-1421.792647665755
 42
-0.007738170561197
 10
705.105971243342
 20
-1421.501387169963
 10
705.1068391545155
 20
-1421.489098936272
 42
-0.0068872530534998
 10
705.1334712342641
 20
-1421.173877184198
 10
705.1346754584497
 20
-1421.161636205184
 42
-0.0062130021477177
 10
705.172269175278
 20
-1420.822766513939
 10
705.1737730788122
 20
-1420.810592642029
 42
-0.0056726929682074
 10
705.222694938314
 20
-1420.448397419917
 10
705.2244683839585
 20
-1420.436303619671
 42
-0.0052341884491533
 10
705.2850789702222
 20
-1420.051110364132
 10
705.2870969589953
 20
-1420.03910543416
 42
-0.0049768450172858
 10
705.3598356404196
 20
-1419.631260866738
 10
705.3840846551434
 20
-1419.502712883722
 42
-0.0089029805625445
 10
705.521165506937
 20
-1418.840937436303
 10
705.5539108822563
 20
-1418.695906005776
 42
-0.0080318257104336
 10
705.783459496599
 20
-1417.750196373917
 10
705.7954444230459
 20
-1417.704065738732
 42
-0.0074265721314712
 10
706.0794559618959
 20
-1416.674001160354
 10
706.099335505014
 20
-1416.60586709976
 42
-0.0069711922702813
 10
706.4266400835199
 20
-1415.539599359434
 10
706.4865920306271
 20
-1415.353578001058
 42
-0.0052070422893824
 10
706.7160172558847
 20
-1414.666305924032
 10
706.7332984480472
 20
-1414.616278643443
 42
-0.0009167004448772
 10
706.9363903353465
 20
-1414.031822795261
 42
-0.0025162726944869
 10
707.143487965615
 20
-1413.448781531082
 10
707.1807125774183
 20
-1413.345631985182
 42
-0.0028212681455024
 10
707.4288884963767
 20
-1412.669901353022
 10
707.4387192591282
 20
-1412.643593908343
 42
-0.0031964916825974
 10
707.6750115167893
 20
-1412.023389146218
 10
707.6846459707867
 20
-1411.998579156079
 42
-0.0036281836454126
 10
707.9097519318898
 20
-1411.431138475182
 10
707.9191903420441
 20
-1411.407841043687
 42
-0.0041269166827587
 10
708.1338080387063
 20
-1410.890400147701
 10
708.1664409951268
 20
-1410.81352170134
 42
-0.0047472213059883
 10
708.3234858006804
 20
-1410.453100233456
 10
708.3303798818904
 20
-1410.43767963612
 42
-0.0025651660001536
 10
708.4787379157392
 20
-1410.110351580376
 42
-0.0057144634982114
 10
708.6324876095142
 20
-1409.785541907006
 10
708.660518314906
 20
-1409.728033524631
 42
-0.0065388068374508
 10
708.8439853426512
 20
-1409.363801027954
 10
708.8524437984274
 20
-1409.347541448589
 42
-0.0074510843031307
 10
709.0286260443077
 20
-1409.020853167462
 10
709.0368057148454
 20
-1409.006212390181
 42
-0.0084648979860674
 10
709.2064395679395
 20
-1408.714303379232
 10
709.2142956944233
 20
-1408.701296387588
 42
-0.0095638542800659
 10
709.3781311420221
 20
-1408.441407515602
 10
709.3856060856989
 20
-1408.430038154139
 42
-0.0107191626798916
 10
709.544407666081
 20
-1408.199426919603
 10
709.5514243998056
 20
-1408.189690827247
 42
-0.0118458573903201
 10
709.7059724983242
 20
-1407.985618631928
 42
-0.0129184518197004
 10
709.870425121931
 20
-1407.789458115752
 10
709.9005698942905
 20
-1407.755332036856
 42
-0.0217742579626569
 10
710.0771822166248
 20
-1407.572125266608
 10
710.0879277610817
 20
-1407.561908433408
 42
-0.0097266568645025
 10
710.2539853799403
 20
-1407.410060858967
 42
-0.0187720905730345
 10
710.428332955829
 20
-1407.267992005579
 10
710.459038946502
 20
-1407.244832923183
 42
-0.0179428207519009
 10
710.6914596664997
 20
-1407.08228074607
 10
710.6951119934162
 20
-1407.079916811182
 42
-0.0170047877694755
 10
710.930875630946
 20
-1406.938456297031
 10
710.9346586196934
 20
-1406.936357991994
 42
-0.0160190788370869
 10
711.1715671673287
 20
-1406.814706690007
 42
-0.0151102861483678
 10
711.4155989497739
 20
-1406.708023913953
 10
711.4679854519868
 20
-1406.686983781058
 42
-0.0271945441891502
 10
711.8266480110456
 20
-1406.565118970351
 10
711.8957128115316
 20
-1406.545769429086
 42
-0.0237596594020177
 10
712.3115096585557
 20
-1406.450318717104
 10
712.3795725122884
 20
-1406.438064028976
 42
-0.0213715440556333
 10
712.6654474437314
 20
-1406.399116997467
 10
712.7255946099425
 20
-1406.393527282766
 42
-0.0101465655823377
 10
712.8930871419439
 20
-1406.381383739502
 10
712.9024275281444
 20
-1406.380896824505
 42
-0.0100375910877732
 10
713.0515816287048
 20
-1406.37612100658
 10
713.061840898388
 20
-1406.375998567565
 42
-0.0103625633381629
 10
713.1905488930402
 20
-1406.377130001092
 10
713.2128145443036
 20
-1406.377787359557
 42
-0.0115689250238921
 10
713.2968652818349
 20
-1406.382216865802
 42
-0.0072438037437719
 10
713.3807035612757
 20
-1406.389806065551
 10
713.3975040707469
 20
-1406.391572608275
 42
-0.0217917313136793
 10
713.5140738340627
 20
-1406.408992500997
 10
713.5796739246315
 20
-1406.421739109411
 42
-0.0332943556743249
 10
713.784066089655
 20
-1406.475779400718
 10
713.8142386581999
 20
-1406.485947477834
 42
-0.0184824084803604
 10
713.9527437146703
 20
-1406.538398493223
 42
-0.0198002050684035
 10
714.0868180551738
 20
-1406.601282553424
 10
714.0887046925468
 20
-1406.602260340302
 42
-0.0212242342979216
 10
714.2208436349454
 20
-1406.678023079093
 10
714.2226589304923
 20
-1406.679168881303
 42
-0.0226090605799701
 10
714.351162831714
 20
-1406.768648524868
 10
714.3530072734516
 20
-1406.770060777855
 42
-0.0238457052230895
 10
714.4761893547444
 20
-1406.874056673717
 10
714.4781420833037
 20
-1406.875871551484
 42
-0.0248160564170642
 10
714.5943435906042
 20
-1406.995146152693
 10
714.5964472240062
 20
-1406.997531486397
 42
-0.0254109591427755
 10
714.7040524418726
 20
-1407.132819872362
 10
714.7063004637862
 20
-1407.135961420762
 42
-0.0255528488304771
 10
714.8037471425839
 20
-1407.287988474997
 10
714.8060782424996
 20
-1407.292070086604
 42
-0.0252146793213479
 10
714.8918592685084
 20
-1407.461572332601
 10
714.894161507666
 20
-1407.466754414514
 42
-0.0244265635950992
 10
714.9668162014278
 20
-1407.654500986561
 10
714.9760626028955
 20
-1407.682366404897
 42
-0.023131961291086
 10
715.0219853818876
 20
-1407.8456674517
 42
-0.0112130424328967
 10
715.0566214044259
 20
-1408.011871051886
 10
715.0578239295387
 20
-1408.018367638776
 42
-0.0210527881261892
 10
715.08351040491
 20
-1408.199423284219
 10
715.0870209997315
 20
-1408.234828832764
 42
-0.0190029892412164
 10
715.1024624732754
 20
-1408.488364679033
 10
715.1032724497195
 20
-1408.523840293406
 42
-0.0137974553656762
 10
715.1017235968844
 20
-1408.848871700137
 10
715.100878141929
 20
-1408.874990444729
 42
-0.0081336634220815
 10
715.0860188067068
 20
-1409.180337912331
 42
-0.0073526923581541
 10
715.0617102733313
 20
-1409.485086156619
 10
715.0604488495487
 20
-1409.498422831282
 42
-0.0066886138671564
 10
715.0247132635013
 20
-1409.829008874786
 10
715.0230561740323
 20
-1409.842630493771
 42
-0.0061359187368343
 10
714.9752055719821
 20
-1410.199394473868
 10
714.9731680709087
 20
-1410.2132892767
 42
-0.0056698610062066
 10
714.9125177401406
 20
-1410.596567845541
 10
714.9101123068181
 20
-1410.610726964769
 42
-0.0052721077264913
 10
714.8359801060188
 20
-1411.020854304447
 10
714.8332169571772
 20
-1411.035270939833
 42
-0.0049289272192961
 10
714.7449228390766
 20
-1411.472579450959
 10
714.7418103443947
 20
-1411.487248303771
 42
-0.0047415956704985
 10
714.63857235286
 20
-1411.95204506119
 10
714.6038041425022
 20
-1412.101852156565
 42
-0.0084404470901356
 10
714.4137876989325
 20
-1412.862076181091
 10
714.4076610109455
 20
-1412.88494030525
 42
-0.003963594026461
 10
714.1862073266612
 20
-1413.685929169499
 10
714.1728305314823
 20
-1413.732860786089
 42
-0.0072475040834742
 10
713.9053836436203
 20
-1414.622080502475
 10
713.8351713167982
 20
-1414.843820852431
 42
-0.0051345458833235
 10
713.5484119447324
 20
-1415.718146040262
 10
713.5268856779634
 20
-1415.781572307396
 42
-0.0019150016598047
 10
713.2713522710978
 20
-1416.525121427618
 10
713.2648846666966
 20
-1416.543708892554
 42
-0.0021524362753751
 10
713.0164066156381
 20
-1417.248034714248
 10
713.007196194946
 20
-1417.273788292537
 42
-0.0024331286824064
 10
712.7709409359054
 20
-1417.924387600667
 10
712.7618929833557
 20
-1417.948930907019
 42
-0.0027449721782636
 10
712.5372784125198
 20
-1418.548060785946
 10
712.5283884051362
 20
-1418.571383375776
 42
-0.0031083229773981
 10
712.3148459185181
 20
-1419.121307413378
 10
712.3061097868379
 20
-1419.143397129248
 42
-0.0035311343283308
 10
712.1030686012505
 20
-1419.646380254966
 10
712.0944832621007
 20
-1419.667222978481
 42
-0.0040245640941515
 10
711.9013714583084
 20
-1420.125532301068
 10
711.8929353447056
 20
-1420.14511166914
 42
-0.0046015135855006
 10
711.7091790515419
 20
-1420.561016698783
 10
711.7008928737168
 20
-1420.579313838228
 42
-0.0052768638279613
 10
711.5259153547572
 20
-1420.955086722505
 10
711.5177831441306
 20
-1420.972080061047
 42
-0.0060672675623672
 10
711.3510035313643
 20
-1421.309995684162
 10
711.3430340508833
 20
-1421.325660943159
 42
-0.0069904648878484
 10
711.1838656568821
 20
-1421.627996749824
 10
711.1760742572775
 20
-1421.642307299039
 42
-0.0080637022773946
 10
711.0239223969252
 20
-1421.911342602204
 10
711.0163333642893
 20
-1421.924270467813
 42
-0.0093006455662244
 10
710.8705926877624
 20
-1422.162284866308
 10
710.8632420210187
 20
-1422.173802835481
 42
-0.0107060778059207
 10
710.7232934775798
 20
-1422.38307315286
 10
710.7162317093056
 20
-1422.393158695418
 42
-0.0122723111391545
 10
710.5814379911021
 20
-1422.575952024915
 10
710.581111767549
 20
-1422.576372412723
 42
-0.0141836319647614
 10
710.4375301645746
 20
-1422.750942170554
 10
710.4305824089195
 20
-1422.758917170822
 42
-0.0175957477194894
 10
710.2906762408879
 20
-1422.908538059223
 42
-0.0080466359684702
 10
710.1432124758579
 20
-1423.050860587374
 10
710.09717793134
 20
-1423.093881025466
 42
-0.0269600260392237
 10
709.8438976853605
 20
-1423.306204283972
 10
709.7773305490572
 20
-1423.356155698601
 42
-0.0178362839749178
 10
709.5373860594041
 20
-1423.523173624851
 10
709.5301410884034
 20
-1423.527842137056
 42
-0.017465073265316
 10
709.2938048909623
 20
-1423.668703102015
 42
-0.0169240130160914
 10
709.048338645102
 20
-1423.792995361794
 10
709.0023524895464
 20
-1423.81435731736
 42
-0.031888303684173
 10
708.6520016339294
 20
-1423.950695626869
 10
708.5836360987599
 20
-1423.972396247346
 42
-0.0284435909898039
 10
708.2075859724705
 20
-1424.06861368282
 10
708.172427811972
 20
-1424.075507278649
 42
-0.0243909341012264
 10
707.8589843510531
 20
-1424.121228309679
 10
707.80870362428
 20
-1424.126073856581
 42
-0.0196639292929396
 10
707.5931080467549
 20
-1424.138322142094
 10
707.5412839755988
 20
-1424.139225402831
 42
-0.0100501510691861
 10
707.4288606939267
 20
-1424.138925004478
 10
707.397200832564
 20
-1424.138203932592
 42
-0.0019752031124601
 10
707.3481084959017
 20
-1424.136891772383
 10
707.3453481926826
 20
-1424.136807080557
 42
0.0065378752000777
 10
707.3017716179252
 20
-1424.136040189341
 42
-0.016797469463673
 10
707.2582407949925
 20
-1424.134380290815
 10
707.2541614557308
 20
-1424.134087279921
 42
-0.0081283276314867
 10
707.202601658003
 20
-1424.129540286284
 10
707.1908620841136
 20
-1424.128312368704
 42
-0.0126703440166802
 10
707.1161437883133
 20
-1424.118577577632
 10
707.0933559206437
 20
-1424.115019321718
 42
-0.0117852088430084
 10
706.9738169348143
 20
-1424.093456326561
 10
706.9184364830485
 20
-1424.082112786326
 42
-0.0251774592295792
 10
706.6915924440418
 20
-1424.023614776894
 10
706.6468732541897
 20
-1424.009647957558
 42
-0.0146525199887249
 10
706.4604802666504
 20
-1423.945381430359
 42
-0.0166929435861992
 10
706.278502610524
 20
-1423.869574297305
 10
706.2738459792504
 20
-1423.867449396691
 42
-0.0191684358447049
 10
706.0886623480005
 20
-1423.7742133129
 10
706.0853297622448
 20
-1423.772372065348
 42
-0.0221181781793285
 10
705.9020194583434
 20
-1423.660238566977
 10
705.899669654334
 20
-1423.658654268986
 42
-0.025498468540217
 10
705.7233795039465
 20
-1423.526243119014
 10
705.700897356248
 20
-1423.507490810081
 42
-0.0292492648790213
 10
705.5761284174046
 20
-1423.390398010437
 42
-0.0159048957505041
 10
705.4622884199549
 20
-1423.262378018838
 10
705.4609696293751
 20
-1423.260796405818
 42
-0.0343813379554094
 10
705.3583323677492
 20
-1423.118925080049
 10
705.3268408363879
 20
-1423.068421687954
 42
-0.0369117275706191
 10
705.2409483344904
 20
-1422.904944447006
 42
-0.0191751379903174
 10
705.1737549489334
 20
-1422.732539841001
 10
705.1719916251736
 20
-1422.727446496325
 42
-0.0378178042227773
 10
705.1221969063888
 20
-1422.538505720244
 10
705.1162016106582
 20
-1422.505945102045
 42
-0.0184846046497297
 10
705.0954844113644
 20
-1422.364192281502
 42
-0.0179866351300584
 10
705.0851514062913
 20
-1422.221301468417
 10
705.0850949638457
 20
-1422.219743781808
 42
-0.0085497186260668
 10
705.0836626827418
 20
-1422.144870616798
 42
-0.0085497186260668
  0
ENDBLK
  5
5F
330
23
100
AcDbEntity
  8
template
390
1D
100
AcDbBlockEnd
  0
BLOCK
  5
228
330
227
100
AcDbEntity
  8
0
100
AcDbBlockBegin
  2
_None
 70
     0
 10
0.0
 20
0.0
 30
0.0
  3
_None
  1
_None
  0
ENDBLK
  5
229
330
227
100
AcDbEntity
  8
0
100
AcDbBlockEnd
  0
BLOCK
  5
6C5
330
6C4
100
AcDbEntity
  8
0
100
AcDbBlockBegin
  2
*D5
 70
     1
 10
0.0
 20
0.0
 30
0.0
  3
*D5
  1
*D54
  0
LINE
  5
6C7
330
6C4
100
AcDbEntity
  8
template
  6
Continuous
 62
     0
370
    -2
100
AcDbLine
 10
-804.2356342797634
 20
741.2454456776222
 30
0.0
 11
-804.2356342797634
 21
892.0484454723759
 31
0.0
  0
LINE
  5
6C8
330
6C4
100
AcDbEntity
  8
template
  6
Continuous
 62
     0
370
    -2
100
AcDbLine
 10
195.7643657202366
 20
741.2454456776222
 30
0.0
 11
195.7643657202366
 21
892.0484454723759
 31
0.0
  0
LINE
  5
6C9
330
6C4
100
AcDbEntity
  8
template
  6
Continuous
 62
     0
370
    -2
100
AcDbLine
 10
-800.2358784203884
 20
892.0484454723759
 30
0.0
 11
191.7646098608616
 21
892.0484454723759
 31
0.0
  0
INSERT
  5
6CA
330
6C4
100
AcDbEntity
  8
template
 62
     0
370
    -2
100
AcDbBlockReference
  2
_DOT
 10
-804.2356342797634
 20
892.0484454723759
 30
0.0
 41
3.999755859375
 42
3.999755859375
 43
3.999755859375
 50
180.0
  0
INSERT
  5
6CB
330
6C4
100
AcDbEntity
  8
template
 62
     0
370
    -2
100
AcDbBlockReference
  2
_DOT
 10
195.7643657202366
 20
892.0484454723759
 30
0.0
 41
3.999755859375
 42
3.999755859375
 43
3.999755859375
  0
MTEXT
  5
6CC
330
6C4
100
AcDbEntity
  8
template
  6
Continuous
 62
     0
370
     0
100
AcDbMText
 10
-304.2356342797634
 20
914.2647540661259
 30
0.0
 40
24.4326171875
 41
0.0
 46
0.0
 71
     5
 72
     1
  1
\A1;1000
  7
ＭＳ ゴシック
 73
     1
 44
1.0
  0
POINT
  5
6CD
330
6C4
100
AcDbEntity
  8
Defpoints
 62
     0
100
AcDbPoint
 10
-804.2356342797634
 20
716.2454456776222
 30
0.0
  0
POINT
  5
6CE
330
6C4
100
AcDbEntity
  8
Defpoints
 62
     0
100
AcDbPoint
 10
195.7643657202366
 20
716.2454456776222
 30
0.0
  0
POINT
  5
6CF
330
6C4
100
AcDbEntity
  8
Defpoints
 62
     0
100
AcDbPoint
 10
195.7643657202366
 20
892.0484454723759
 30
0.0
  0
ENDBLK
  5
6C6
330
6C4
100
AcDbEntity
  8
0
100
AcDbBlockEnd
  0
BLOCK
  5
6D8
330
6D7
100
AcDbEntity
  8
0
100
AcDbBlockBegin
  2
*D6
 70
     1
 10
0.0
 20
0.0
 30
0.0
  3
*D6
  1
*D55
  0
LINE
  5
6DA
330
6D7
100
AcDbEntity
  8
template
  6
Continuous
 62
     0
370
    -2
100
AcDbLine
 10
-304.3256342797636
 20
696.2000002768411
 30
0.0
 11
-304.3256342797636
 21
805.3067828904777
 31
0.0
  0
LINE
  5
6DB
330
6D7
100
AcDbEntity
  8
template
  6
Continuous
 62
     0
370
    -2
100
AcDbLine
 10
-404.3256342797636
 20
696.2000002768411
 30
0.0
 11
-404.3256342797636
 21
805.3067828904777
 31
0.0
  0
LINE
  5
6DC
330
6D7
100
AcDbEntity
  8
template
  6
Continuous
 62
     0
370
    -2
100
AcDbLine
 10
-308.3253901391386
 20
805.3067828904777
 30
0.0
 11
-400.3258784203886
 21
805.3067828904777
 31
0.0
  0
INSERT
  5
6DD
330
6D7
100
AcDbEntity
  8
template
 62
     0
370
    -2
100
AcDbBlockReference
  2
_DOT
 10
-304.3256342797636
 20
805.3067828904777
 30
0.0
 41
3.999755859375
 42
3.999755859375
 43
3.999755859375
  0
INSERT
  5
6DE
330
6D7
100
AcDbEntity
  8
template
 62
     0
370
    -2
100
AcDbBlockReference
  2
_DOT
 10
-404.3256342797636
 20
805.3067828904777
 30
0.0
 41
3.999755859375
 42
3.999755859375
 43
3.999755859375
 50
180.0
  0
MTEXT
  5
6DF
330
6D7
100
AcDbEntity
  8
template
  6
Continuous
 62
     0
370
     0
100
AcDbMText
 10
-354.3256342797636
 20
827.5230914842277
 30
0.0
 40
24.4326171875
 41
0.0
 46
0.0
 71
     5
 72
     1
  1
\A1;100
  7
ＭＳ ゴシック
 73
     1
 44
1.0
  0
POINT
  5
6E0
330
6D7
100
AcDbEntity
  8
Defpoints
 62
     0
100
AcDbPoint
 10
-304.3256342797636
 20
671.2000002768411
 30
0.0
  0
POINT
  5
6E1
330
6D7
100
AcDbEntity
  8
Defpoints
 62
     0
100
AcDbPoint
 10
-404.3256342797636
 20
671.2000002768411
 30
0.0
  0
POINT
  5
6E2
330
6D7
100
AcDbEntity
  8
Defpoints
 62
     0
100
AcDbPoint
 10
-404.3256342797636
 20
805.3067828904777
 30
0.0
  0
ENDBLK
  5
6D9
330
6D7
100
AcDbEntity
  8
0
100
AcDbBlockEnd
  0
BLOCK
  5
6E7
330
6E6
100
AcDbEntity
  8
0
100
AcDbBlockBegin
  2
*D7
 70
     1
 10
0.0
 20
0.0
 30
0.0
  3
*D7
  1
*D56
  0
LINE
  5
6E9
330
6E6
100
AcDbEntity
  8
template
  6
Continuous
 62
     0
370
    -2
100
AcDbLine
 10
-304.3256342797636
 20
696.2000002768411
 30
0.0
 11
-304.3256342797636
 21
805.3067828904777
 31
0.0
  0
LINE
  5
6EA
330
6E6
100
AcDbEntity
  8
template
  6
Continuous
 62
     0
370
    -2
100
AcDbLine
 10
-204.3256342797636
 20
696.2000002768411
 30
0.0
 11
-204.3256342797636
 21
805.3067828904777
 31
0.0
  0
LINE
  5
6EB
330
6E6
100
AcDbEntity
  8
template
  6
Continuous
 62
     0
370
    -2
100
AcDbLine
 10
-300.3258784203886
 20
805.3067828904777
 30
0.0
 11
-208.3253901391386
 21
805.3067828904777
 31
0.0
  0
INSERT
  5
6EC
330
6E6
100
AcDbEntity
  8
template
 62
     0
370
    -2
100
AcDbBlockReference
  2
_DOT
 10
-304.3256342797636
 20
805.3067828904777
 30
0.0
 41
3.999755859375
 42
3.999755859375
 43
3.999755859375
 50
180.0
  0
INSERT
  5
6ED
330
6E6
100
AcDbEntity
  8
template
 62
     0
370
    -2
100
AcDbBlockReference
  2
_DOT
 10
-204.3256342797636
 20
805.3067828904777
 30
0.0
 41
3.999755859375
 42
3.999755859375
 43
3.999755859375
  0
MTEXT
  5
6EE
330
6E6
100
AcDbEntity
  8
template
  6
Continuous
 62
     0
370
     0
100
AcDbMText
 10
-254.3256342797636
 20
827.5230914842277
 30
0.0
 40
24.4326171875
 41
0.0
 46
0.0
 71
     5
 72
     1
  1
\A1;100
  7
ＭＳ ゴシック
 73
     1
 44
1.0
  0
POINT
  5
6EF
330
6E6
100
AcDbEntity
  8
Defpoints
 62
     0
100
AcDbPoint
 10
-304.3256342797636
 20
671.2000002768411
 30
0.0
  0
POINT
  5
6F0
330
6E6
100
AcDbEntity
  8
Defpoints
 62
     0
100
AcDbPoint
 10
-204.3256342797636
 20
671.2000002768411
 30
0.0
  0
POINT
  5
6F1
330
6E6
100
AcDbEntity
  8
Defpoints
 62
     0
100
AcDbPoint
 10
-204.3256342797636
 20
805.3067828904777
 30
0.0
  0
ENDBLK
  5
6E8
330
6E6
100
AcDbEntity
  8
0
100
AcDbBlockEnd
  0
BLOCK
  5
6F9
330
6F8
100
AcDbEntity
  8
0
100
AcDbBlockBegin
  2
*D8
 70
     1
 10
0.0
 20
0.0
 30
0.0
  3
*D8
  1
*D57
  0
LINE
  5
6FB
330
6F8
100
AcDbEntity
  8
template
  6
Continuous
 62
     0
370
    -2
100
AcDbLine
 10
217.7643657202366
 20
719.2454456776222
 30
0.0
 11
264.2788674579191
 21
719.2454456776222
 31
0.0
  0
LINE
  5
6FC
330
6F8
100
AcDbEntity
  8
template
  6
Continuous
 62
     0
370
    -2
100
AcDbLine
 10
195.7643657202366
 20
239.2454456776231
 30
0.0
 11
264.2788674579191
 21
239.2454456776231
 31
0.0
  0
LINE
  5
6FD
330
6F8
100
AcDbEntity
  8
template
  6
Continuous
 62
     0
370
    -2
100
AcDbLine
 10
264.2788674579191
 20
715.2456898182472
 30
0.0
 11
264.2788674579191
 21
243.2452015369981
 31
0.0
  0
INSERT
  5
6FE
330
6F8
100
AcDbEntity
  8
template
 62
     0
370
    -2
100
AcDbBlockReference
  2
_DOT
 10
264.2788674579191
 20
719.2454456776222
 30
0.0
 41
3.999755859375
 42
3.999755859375
 43
3.999755859375
 50
90.0
  0
INSERT
  5
6FF
330
6F8
100
AcDbEntity
  8
template
 62
     0
370
    -2
100
AcDbBlockReference
  2
_DOT
 10
264.2788674579191
 20
239.2454456776231
 30
0.0
 41
3.999755859375
 42
3.999755859375
 43
3.999755859375
 50
270.0
  0
MTEXT
  5
700
330
6F8
100
AcDbEntity
  8
template
  6
Continuous
 62
     0
370
     0
100
AcDbMText
 10
242.0625588641691
 20
479.2454456776227
 30
0.0
 40
24.4326171875
 41
0.0
 46
0.0
 71
     5
 72
     1
  1
\A1;480
  7
ＭＳ ゴシック
 11
1.184237892933503E-16
 21
1.0
 31
0.0
 73
     1
 44
1.0
  0
POINT
  5
701
330
6F8
100
AcDbEntity
  8
Defpoints
 62
     0
100
AcDbPoint
 10
192.7643657202366
 20
719.2454456776222
 30
0.0
  0
POINT
  5
702
330
6F8
100
AcDbEntity
  8
Defpoints
 62
     0
100
AcDbPoint
 10
170.7643657202366
 20
239.2454456776231
 30
0.0
  0
POINT
  5
703
330
6F8
100
AcDbEntity
  8
Defpoints
 62
     0
100
AcDbPoint
 10
264.2788674579191
 20
239.2454456776231
 30
0.0
  0
ENDBLK
  5
6FA
330
6F8
100
AcDbEntity
  8
0
100
AcDbBlockEnd
  0
BLOCK
  5
70E
330
70D
100
AcDbEntity
  8
0
100
AcDbBlockBegin
  2
*D9
 70
     1
 10
0.0
 20
0.0
 30
0.0
  3
*D9
  1
*D58
  0
LINE
  5
710
330
70D
100
AcDbEntity
  8
template
  6
Continuous
 62
     0
370
    -2
100
AcDbLine
 10
-624.2356342797634
 20
214.2454456776222
 30
0.0
 11
-624.2356342797634
 21
104.3015194419801
 31
0.0
  0
LINE
  5
711
330
70D
100
AcDbEntity
  8
template
  6
Continuous
 62
     0
370
    -2
100
AcDbLine
 10
15.76436572023658
 20
214.2454456776229
 30
0.0
 11
15.76436572023658
 21
104.3015194419801
 31
0.0
  0
LINE
  5
712
330
70D
100
AcDbEntity
  8
template
  6
Continuous
 62
     0
370
    -2
100
AcDbLine
 10
-620.2358784203884
 20
104.3015194419801
 30
0.0
 11
11.76460986086158
 21
104.3015194419801
 31
0.0
  0
INSERT
  5
713
330
70D
100
AcDbEntity
  8
template
 62
     0
370
    -2
100
AcDbBlockReference
  2
_DOT
 10
-624.2356342797634
 20
104.3015194419801
 30
0.0
 41
3.999755859375
 42
3.999755859375
 43
3.999755859375
 50
180.0
  0
INSERT
  5
714
330
70D
100
AcDbEntity
  8
template
 62
     0
370
    -2
100
AcDbBlockReference
  2
_DOT
 10
15.76436572023658
 20
104.3015194419801
 30
0.0
 41
3.999755859375
 42
3.999755859375
 43
3.999755859375
  0
MTEXT
  5
715
330
70D
100
AcDbEntity
  8
template
  6
Continuous
 62
     0
370
     0
100
AcDbMText
 10
-304.2356342797634
 20
126.5178280357301
 30
0.0
 40
24.4326171875
 41
0.0
 46
0.0
 71
     5
 72
     1
  1
\A1;640
  7
ＭＳ ゴシック
 73
     1
 44
1.0
  0
POINT
  5
716
330
70D
100
AcDbEntity
  8
Defpoints
 62
     0
100
AcDbPoint
 10
-624.2356342797634
 20
239.2454456776222
 30
0.0
  0
POINT
  5
717
330
70D
100
AcDbEntity
  8
Defpoints
 62
     0
100
AcDbPoint
 10
15.76436572023658
 20
239.2454456776229
 30
0.0
  0
POINT
  5
718
330
70D
100
AcDbEntity
  8
Defpoints
 62
     0
100
AcDbPoint
 10
15.76436572023658
 20
104.3015194419801
 30
0.0
  0
ENDBLK
  5
70F
330
70D
100
AcDbEntity
  8
0
100
AcDbBlockEnd
  0
BLOCK
  5
71D
330
71C
100
AcDbEntity
  8
0
100
AcDbBlockBegin
  2
*D10
 70
     1
 10
0.0
 20
0.0
 30
0.0
  3
*D10
  1
*D59
  0
LINE
  5
71F
330
71C
100
AcDbEntity
  8
template
  6
Continuous
 62
     0
370
    -2
100
AcDbLine
 10
15.76436572023658
 20
214.2454456776229
 30
0.0
 11
15.76436572023658
 21
104.3015194419801
 31
0.0
  0
LINE
  5
720
330
71C
100
AcDbEntity
  8
template
  6
Continuous
 62
     0
370
    -2
100
AcDbLine
 10
195.7643657202366
 20
239.2454456776231
 30
0.0
 11
195.7643657202366
 21
104.3015194419801
 31
0.0
  0
LINE
  5
721
330
71C
100
AcDbEntity
  8
template
  6
Continuous
 62
     0
370
    -2
100
AcDbLine
 10
19.76412157961158
 20
104.3015194419801
 30
0.0
 11
191.7646098608616
 21
104.3015194419801
 31
0.0
  0
INSERT
  5
722
330
71C
100
AcDbEntity
  8
template
 62
     0
370
    -2
100
AcDbBlockReference
  2
_DOT
 10
15.76436572023658
 20
104.3015194419801
 30
0.0
 41
3.999755859375
 42
3.999755859375
 43
3.999755859375
 50
180.0
  0
INSERT
  5
723
330
71C
100
AcDbEntity
  8
template
 62
     0
370
    -2
100
AcDbBlockReference
  2
_DOT
 10
195.7643657202366
 20
104.3015194419801
 30
0.0
 41
3.999755859375
 42
3.999755859375
 43
3.999755859375
  0
MTEXT
  5
724
330
71C
100
AcDbEntity
  8
template
  6
Continuous
 62
     0
370
     0
100
AcDbMText
 10
105.7643657202366
 20
126.5178280357301
 30
0.0
 40
24.4326171875
 41
0.0
 46
0.0
 71
     5
 72
     1
  1
\A1;180
  7
ＭＳ ゴシック
 73
     1
 44
1.0
  0
POINT
  5
725
330
71C
100
AcDbEntity
  8
Defpoints
 62
     0
100
AcDbPoint
 10
15.76436572023658
 20
239.2454456776229
 30
0.0
  0
POINT
  5
726
330
71C
100
AcDbEntity
  8
Defpoints
 62
     0
100
AcDbPoint
 10
195.7643657202366
 20
264.2454456776231
 30
0.0
  0
POINT
  5
727
330
71C
100
AcDbEntity
  8
Defpoints
 62
     0
100
AcDbPoint
 10
195.7643657202366
 20
104.3015194419801
 30
0.0
  0
ENDBLK
  5
71E
330
71C
100
AcDbEntity
  8
0
100
AcDbBlockEnd
  0
BLOCK
  5
72C
330
72B
100
AcDbEntity
  8
0
100
AcDbBlockBegin
  2
*D11
 70
     1
 10
0.0
 20
0.0
 30
0.0
  3
*D11
  1
*D60
  0
LINE
  5
72E
330
72B
100
AcDbEntity
  8
template
  6
Continuous
 62
     0
370
    -2
100
AcDbLine
 10
-826.2356342797634
 20
719.2454456776222
 30
0.0
 11
-873.4971469417878
 21
719.2454456776222
 31
0.0
  0
LINE
  5
72F
330
72B
100
AcDbEntity
  8
template
  6
Continuous
 62
     0
370
    -2
100
AcDbLine
 10
-829.2356342797634
 20
589.251909465507
 30
0.0
 11
-873.4971469417878
 21
589.251909465507
 31
0.0
  0
LINE
  5
730
330
72B
100
AcDbEntity
  8
template
  6
Continuous
 62
     0
370
    -2
100
AcDbLine
 10
-873.4971469417878
 20
715.2456898182472
 30
0.0
 11
-873.4971469417878
 21
593.251665324882
 31
0.0
  0
INSERT
  5
731
330
72B
100
AcDbEntity
  8
template
 62
     0
370
    -2
100
AcDbBlockReference
  2
_DOT
 10
-873.4971469417878
 20
719.2454456776222
 30
0.0
 41
3.999755859375
 42
3.999755859375
 43
3.999755859375
 50
90.0
  0
INSERT
  5
732
330
72B
100
AcDbEntity
  8
template
 62
     0
370
    -2
100
AcDbBlockReference
  2
_DOT
 10
-873.4971469417878
 20
589.251909465507
 30
0.0
 41
3.999755859375
 42
3.999755859375
 43
3.999755859375
 50
270.0
  0
MTEXT
  5
733
330
72B
100
AcDbEntity
  8
template
  6
Continuous
 62
     0
370
     0
100
AcDbMText
 10
-895.7134555355378
 20
654.2486775715646
 30
0.0
 40
24.4326171875
 41
0.0
 46
0.0
 71
     5
 72
     1
  1
\A1;130
  7
ＭＳ ゴシック
 11
0.0
 21
1.0
 31
0.0
 73
     1
 44
1.0
  0
POINT
  5
734
330
72B
100
AcDbEntity
  8
Defpoints
 62
     0
100
AcDbPoint
 10
-801.2356342797634
 20
719.2454456776222
 30
0.0
  0
POINT
  5
735
330
72B
100
AcDbEntity
  8
Defpoints
 62
     0
100
AcDbPoint
 10
-804.2356342797634
 20
589.251909465507
 30
0.0
  0
POINT
  5
736
330
72B
100
AcDbEntity
  8
Defpoints
 62
     0
100
AcDbPoint
 10
-873.4971469417878
 20
589.251909465507
 30
0.0
  0
ENDBLK
  5
72D
330
72B
100
AcDbEntity
  8
0
100
AcDbBlockEnd
  0
BLOCK
  5
761
330
760
100
AcDbEntity
  8
0
100
AcDbBlockBegin
  2
*D12
 70
     1
 10
0.0
 20
0.0
 30
0.0
  3
*D12
  1
*D61
  0
LINE
  5
763
330
760
100
AcDbEntity
  8
template
  6
Continuous
 62
     0
370
    -2
100
AcDbLine
 10
-444.2356350497953
 20
-371.0908808706144
 30
0.0
 11
-444.2356350497953
 21
-274.2244091224965
 31
0.0
  0
LINE
  5
764
330
760
100
AcDbEntity
  8
template
  6
Continuous
 62
     0
370
    -2
100
AcDbLine
 10
-164.2356350497953
 20
-371.0908808706144
 30
0.0
 11
-164.2356350497953
 21
-274.2244091224965
 31
0.0
  0
LINE
  5
765
330
760
100
AcDbEntity
  8
template
  6
Continuous
 62
     0
370
    -2
100
AcDbLine
 10
-440.2358791904203
 20
-274.2244091224965
 30
0.0
 11
-168.2353909091703
 21
-274.2244091224965
 31
0.0
  0
INSERT
  5
766
330
760
100
AcDbEntity
  8
template
 62
     0
370
    -2
100
AcDbBlockReference
  2
_DOT
 10
-444.2356350497953
 20
-274.2244091224965
 30
0.0
 41
3.999755859375
 42
3.999755859375
 43
3.999755859375
 50
180.0
  0
INSERT
  5
767
330
760
100
AcDbEntity
  8
template
 62
     0
370
    -2
100
AcDbBlockReference
  2
_DOT
 10
-164.2356350497953
 20
-274.2244091224965
 30
0.0
 41
3.999755859375
 42
3.999755859375
 43
3.999755859375
  0
MTEXT
  5
768
330
760
100
AcDbEntity
  8
template
  6
Continuous
 62
     0
370
     0
100
AcDbMText
 10
-304.2356350497953
 20
-252.0081005287465
 30
0.0
 40
24.4326171875
 41
0.0
 46
0.0
 71
     5
 72
     1
  1
\A1;280
  7
ＭＳ ゴシック
 73
     1
 44
1.0
  0
POINT
  5
769
330
760
100
AcDbEntity
  8
Defpoints
 62
     0
100
AcDbPoint
 10
-444.2356350497953
 20
-396.0908808706144
 30
0.0
  0
POINT
  5
76A
330
760
100
AcDbEntity
  8
Defpoints
 62
     0
100
AcDbPoint
 10
-164.2356350497953
 20
-396.0908808706144
 30
0.0
  0
POINT
  5
76B
330
760
100
AcDbEntity
  8
Defpoints
 62
     0
100
AcDbPoint
 10
-164.2356350497953
 20
-274.2244091224965
 30
0.0
  0
ENDBLK
  5
762
330
760
100
AcDbEntity
  8
0
100
AcDbBlockEnd
  0
BLOCK
  5
770
330
76F
100
AcDbEntity
  8
0
100
AcDbBlockBegin
  2
*D13
 70
     1
 10
0.0
 20
0.0
 30
0.0
  3
*D13
  1
*D62
  0
LINE
  5
772
330
76F
100
AcDbEntity
  8
template
  6
Continuous
 62
     0
370
    -2
100
AcDbLine
 10
-823.1299908231927
 20
-376.0757221254597
 30
0.0
 11
-866.9386797571838
 21
-376.0757221254597
 31
0.0
  0
LINE
  5
773
330
76F
100
AcDbEntity
  8
template
  6
Continuous
 62
     0
370
    -2
100
AcDbLine
 10
-489.2204763046407
 20
-416.0757221254594
 30
0.0
 11
-866.9386797571838
 21
-416.0757221254594
 31
0.0
  0
LINE
  5
774
330
76F
100
AcDbEntity
  8
template
  6
Continuous
 62
     0
370
    -2
100
AcDbLine
 10
-866.9386797571838
 20
-380.0754779848347
 30
0.0
 11
-866.9386797571838
 21
-412.0759662660844
 31
0.0
  0
INSERT
  5
775
330
76F
100
AcDbEntity
  8
template
 62
     0
370
    -2
100
AcDbBlockReference
  2
_DOT
 10
-866.9386797571838
 20
-376.0757221254597
 30
0.0
 41
3.999755859375
 42
3.999755859375
 43
3.999755859375
 50
90.0
  0
INSERT
  5
776
330
76F
100
AcDbEntity
  8
template
 62
     0
370
    -2
100
AcDbBlockReference
  2
_DOT
 10
-866.9386797571838
 20
-416.0757221254594
 30
0.0
 41
3.999755859375
 42
3.999755859375
 43
3.999755859375
 50
270.0
  0
MTEXT
  5
777
330
76F
100
AcDbEntity
  8
template
  6
Continuous
 62
     0
370
     0
100
AcDbMText
 10
-889.1549883509338
 20
-396.0757221254595
 30
0.0
 40
24.4326171875
 41
0.0
 46
0.0
 71
     5
 72
     1
  1
\A1;40
  7
ＭＳ ゴシック
 11
0.0
 21
1.0
 31
0.0
 73
     1
 44
1.0
  0
POINT
  5
778
330
76F
100
AcDbEntity
  8
Defpoints
 62
     0
100
AcDbPoint
 10
-798.1299908231927
 20
-376.0757221254597
 30
0.0
  0
POINT
  5
779
330
76F
100
AcDbEntity
  8
Defpoints
 62
     0
100
AcDbPoint
 10
-464.2204763046407
 20
-416.0757221254594
 30
0.0
  0
POINT
  5
77A
330
76F
100
AcDbEntity
  8
Defpoints
 62
     0
100
AcDbPoint
 10
-866.9386797571838
 20
-416.0757221254594
 30
0.0
  0
ENDBLK
  5
771
330
76F
100
AcDbEntity
  8
0
100
AcDbBlockEnd
  0
BLOCK
  5
783
330
782
100
AcDbEntity
  8
0
100
AcDbBlockBegin
  2
*D14
 70
     1
 10
0.0
 20
0.0
 30
0.0
  3
*D14
  1
*D63
  0
LINE
  5
785
330
782
100
AcDbEntity
  8
template
  6
Continuous
 62
     0
370
    -2
100
AcDbLine
 10
214.6587207236125
 20
-376.0757221254594
 30
0.0
 11
264.2788674579191
 21
-376.0757221254594
 31
0.0
  0
LINE
  5
786
330
782
100
AcDbEntity
  8
template
  6
Continuous
 62
     0
370
    -2
100
AcDbLine
 10
-247.0391666965215
 20
-556.1049300349102
 30
0.0
 11
264.2788674579191
 21
-556.1049300349102
 31
0.0
  0
LINE
  5
787
330
782
100
AcDbEntity
  8
template
  6
Continuous
 62
     0
370
    -2
100
AcDbLine
 10
264.2788674579191
 20
-380.0754779848344
 30
0.0
 11
264.2788674579191
 21
-552.1051741755352
 31
0.0
  0
INSERT
  5
788
330
782
100
AcDbEntity
  8
template
 62
     0
370
    -2
100
AcDbBlockReference
  2
_DOT
 10
264.2788674579191
 20
-376.0757221254594
 30
0.0
 41
3.999755859375
 42
3.999755859375
 43
3.999755859375
 50
90.0
  0
INSERT
  5
789
330
782
100
AcDbEntity
  8
template
 62
     0
370
    -2
100
AcDbBlockReference
  2
_DOT
 10
264.2788674579191
 20
-556.1049300349102
 30
0.0
 41
3.999755859375
 42
3.999755859375
 43
3.999755859375
 50
270.0
  0
MTEXT
  5
78A
330
782
100
AcDbEntity
  8
template
  6
Continuous
 62
     0
370
     0
100
AcDbMText
 10
242.0625588641691
 20
-466.0903260801848
 30
0.0
 40
24.4326171875
 41
0.0
 46
0.0
 71
     5
 72
     1
  1
\A1;180
  7
ＭＳ ゴシック
 11
0.0
 21
1.0
 31
0.0
 73
     1
 44
1.0
  0
POINT
  5
78B
330
782
100
AcDbEntity
  8
Defpoints
 62
     0
100
AcDbPoint
 10
189.6587207236125
 20
-376.0757221254594
 30
0.0
  0
POINT
  5
78C
330
782
100
AcDbEntity
  8
Defpoints
 62
     0
100
AcDbPoint
 10
-272.0391666965215
 20
-556.1049300349102
 30
0.0
  0
POINT
  5
78D
330
782
100
AcDbEntity
  8
Defpoints
 62
     0
100
AcDbPoint
 10
264.2788674579191
 20
-556.1049300349102
 30
0.0
  0
ENDBLK
  5
784
330
782
100
AcDbEntity
  8
0
100
AcDbBlockEnd
  0
BLOCK
  5
96B
330
96A
100
AcDbEntity
  8
0
100
AcDbBlockBegin
  2
*D15
 70
     1
 10
0.0
 20
0.0
 30
0.0
  3
*D15
  1
*D74
  0
LINE
  5
96D
330
96A
100
AcDbEntity
  8
template
  6
Continuous
 62
     0
370
    -2
100
AcDbLine
 10
890.0815969912317
 20
-523.8334958256814
 30
0.0
 11
890.0815969912317
 21
-634.8133618584582
 31
0.0
  0
LINE
  5
96E
330
96A
100
AcDbEntity
  8
template
  6
Continuous
 62
     0
370
    -2
100
AcDbLine
 10
670.046058289257
 20
-582.38973557319
 30
0.0
 11
670.046058289257
 21
-634.8133618584582
 31
0.0
  0
LINE
  5
96F
330
96A
100
AcDbEntity
  8
template
  6
Continuous
 62
     0
370
    -2
100
AcDbLine
 10
886.0818411318567
 20
-634.8133618584582
 30
0.0
 11
674.045814148632
 21
-634.8133618584582
 31
0.0
  0
INSERT
  5
970
330
96A
100
AcDbEntity
  8
template
 62
     0
370
    -2
100
AcDbBlockReference
  2
_DOT
 10
890.0815969912317
 20
-634.8133618584582
 30
0.0
 41
3.999755859375
 42
3.999755859375
 43
3.999755859375
  0
INSERT
  5
971
330
96A
100
AcDbEntity
  8
template
 62
     0
370
    -2
100
AcDbBlockReference
  2
_DOT
 10
670.046058289257
 20
-634.8133618584582
 30
0.0
 41
3.999755859375
 42
3.999755859375
 43
3.999755859375
 50
180.0
  0
MTEXT
  5
972
330
96A
100
AcDbEntity
  8
template
  6
Continuous
 62
     0
370
     0
100
AcDbMText
 10
780.0638276402443
 20
-612.5970532647082
 30
0.0
 40
24.4326171875
 41
0.0
 46
0.0
 71
     5
 72
     1
  1
\A1;220
  7
ＭＳ ゴシック
 73
     1
 44
1.0
  0
POINT
  5
973
330
96A
100
AcDbEntity
  8
Defpoints
 62
     0
100
AcDbPoint
 10
890.0815969912317
 20
-498.8334958256814
 30
0.0
  0
POINT
  5
974
330
96A
100
AcDbEntity
  8
Defpoints
 62
     0
100
AcDbPoint
 10
670.046058289257
 20
-557.38973557319
 30
0.0
  0
POINT
  5
975
330
96A
100
AcDbEntity
  8
Defpoints
 62
     0
100
AcDbPoint
 10
670.046058289257
 20
-634.8133618584582
 30
0.0
  0
ENDBLK
  5
96C
330
96A
100
AcDbEntity
  8
0
100
AcDbBlockEnd
  0
BLOCK
  5
97A
330
979
100
AcDbEntity
  8
0
100
AcDbBlockBegin
  2
*D16
 70
     1
 10
0.0
 20
0.0
 30
0.0
  3
*D16
  1
*D75
  0
LINE
  5
97C
330
979
100
AcDbEntity
  8
template
  6
Continuous
 62
     0
370
    -2
100
AcDbLine
 10
386.3274194114806
 20
-376.0757221254594
 30
0.0
 11
364.4564099731373
 21
-376.0757221254594
 31
0.0
  0
LINE
  5
97D
330
979
100
AcDbEntity
  8
template
  6
Continuous
 62
     0
370
    -2
100
AcDbLine
 10
387.6528363273973
 20
-421.0757221254603
 30
0.0
 11
364.4564099731373
 21
-421.0757221254603
 31
0.0
  0
LINE
  5
97E
330
979
100
AcDbEntity
  8
template
  6
Continuous
 62
     0
370
    -2
100
AcDbLine
 10
364.4564099731373
 20
-380.0754779848344
 30
0.0
 11
364.4564099731373
 21
-417.0759662660853
 31
0.0
  0
INSERT
  5
97F
330
979
100
AcDbEntity
  8
template
 62
     0
370
    -2
100
AcDbBlockReference
  2
_DOT
 10
364.4564099731373
 20
-376.0757221254594
 30
0.0
 41
3.999755859375
 42
3.999755859375
 43
3.999755859375
 50
90.0
  0
INSERT
  5
980
330
979
100
AcDbEntity
  8
template
 62
     0
370
    -2
100
AcDbBlockReference
  2
_DOT
 10
364.4564099731373
 20
-421.0757221254603
 30
0.0
 41
3.999755859375
 42
3.999755859375
 43
3.999755859375
 50
270.0
  0
MTEXT
  5
981
330
979
100
AcDbEntity
  8
template
  6
Continuous
 62
     0
370
     0
100
AcDbMText
 10
342.2401013793873
 20
-398.5757221254598
 30
0.0
 40
24.4326171875
 41
0.0
 46
0.0
 71
     5
 72
     1
  1
\A1;45
  7
ＭＳ ゴシック
 11
0.0
 21
1.0
 31
0.0
 73
     1
 44
1.0
  0
POINT
  5
982
330
979
100
AcDbEntity
  8
Defpoints
 62
     0
100
AcDbPoint
 10
411.3274194114806
 20
-376.0757221254594
 30
0.0
  0
POINT
  5
983
330
979
100
AcDbEntity
  8
Defpoints
 62
     0
100
AcDbPoint
 10
412.6528363273973
 20
-421.0757221254603
 30
0.0
  0
POINT
  5
984
330
979
100
AcDbEntity
  8
Defpoints
 62
     0
100
AcDbPoint
 10
364.4564099731373
 20
-421.0757221254603
 30
0.0
  0
ENDBLK
  5
97B
330
979
100
AcDbEntity
  8
0
100
AcDbBlockEnd
  0
BLOCK
  5
989
330
988
100
AcDbEntity
  8
0
100
AcDbBlockBegin
  2
*D17
 70
     1
 10
0.0
 20
0.0
 30
0.0
  3
*D17
  1
*D76
  0
LINE
  5
98B
330
988
100
AcDbEntity
  8
template
  6
Continuous
 62
     0
370
    -2
100
AcDbLine
 10
387.6528363273856
 20
-421.0757221254603
 30
0.0
 11
364.4564099731373
 21
-421.0757221254603
 31
0.0
  0
LINE
  5
98C
330
988
100
AcDbEntity
  8
template
  6
Continuous
 62
     0
370
    -2
100
AcDbLine
 10
509.6287344189287
 20
-521.0757221254603
 30
0.0
 11
364.4564099731373
 21
-521.0757221254603
 31
0.0
  0
LINE
  5
98D
330
988
100
AcDbEntity
  8
template
  6
Continuous
 62
     0
370
    -2
100
AcDbLine
 10
364.4564099731373
 20
-425.0754779848353
 30
0.0
 11
364.4564099731373
 21
-517.0759662660853
 31
0.0
  0
INSERT
  5
98E
330
988
100
AcDbEntity
  8
template
 62
     0
370
    -2
100
AcDbBlockReference
  2
_DOT
 10
364.4564099731373
 20
-421.0757221254603
 30
0.0
 41
3.999755859375
 42
3.999755859375
 43
3.999755859375
 50
90.0
  0
INSERT
  5
98F
330
988
100
AcDbEntity
  8
template
 62
     0
370
    -2
100
AcDbBlockReference
  2
_DOT
 10
364.4564099731373
 20
-521.0757221254603
 30
0.0
 41
3.999755859375
 42
3.999755859375
 43
3.999755859375
 50
270.0
  0
MTEXT
  5
990
330
988
100
AcDbEntity
  8
template
  6
Continuous
 62
     0
370
     0
100
AcDbMText
 10
342.2401013793873
 20
-471.0757221254603
 30
0.0
 40
24.4326171875
 41
0.0
 46
0.0
 71
     5
 72
     1
  1
\A1;100
  7
ＭＳ ゴシック
 11
0.0
 21
1.0
 31
0.0
 73
     1
 44
1.0
  0
POINT
  5
991
330
988
100
AcDbEntity
  8
Defpoints
 62
     0
100
AcDbPoint
 10
412.6528363273856
 20
-421.0757221254603
 30
0.0
  0
POINT
  5
992
330
988
100
AcDbEntity
  8
Defpoints
 62
     0
100
AcDbPoint
 10
534.6287344189287
 20
-521.0757221254603
 30
0.0
  0
POINT
  5
993
330
988
100
AcDbEntity
  8
Defpoints
 62
     0
100
AcDbPoint
 10
364.4564099731373
 20
-521.0757221254603
 30
0.0
  0
ENDBLK
  5
98A
330
988
100
AcDbEntity
  8
0
100
AcDbBlockEnd
  0
BLOCK
  5
99A
330
999
100
AcDbEntity
  8
0
100
AcDbBlockBegin
  2
*D18
 70
     1
 10
0.0
 20
0.0
 30
0.0
  3
*D18
  1
*D77
  0
LINE
  5
99C
330
999
100
AcDbEntity
  8
template
  6
Continuous
 62
     0
370
    -2
100
AcDbLine
 10
-829.2356342797634
 20
589.251909465507
 30
0.0
 11
-873.4971469417878
 21
589.251909465507
 31
0.0
  0
LINE
  5
99D
330
999
100
AcDbEntity
  8
template
  6
Continuous
 62
     0
370
    -2
100
AcDbLine
 10
-829.2356342797634
 20
309.2454456776261
 30
0.0
 11
-873.4971469417878
 21
309.2454456776261
 31
0.0
  0
LINE
  5
99E
330
999
100
AcDbEntity
  8
template
  6
Continuous
 62
     0
370
    -2
100
AcDbLine
 10
-873.4971469417878
 20
585.252153606132
 30
0.0
 11
-873.4971469417878
 21
313.2452015370011
 31
0.0
  0
INSERT
  5
99F
330
999
100
AcDbEntity
  8
template
 62
     0
370
    -2
100
AcDbBlockReference
  2
_DOT
 10
-873.4971469417878
 20
589.251909465507
 30
0.0
 41
3.999755859375
 42
3.999755859375
 43
3.999755859375
 50
90.0
  0
INSERT
  5
9A0
330
999
100
AcDbEntity
  8
template
 62
     0
370
    -2
100
AcDbBlockReference
  2
_DOT
 10
-873.4971469417878
 20
309.2454456776261
 30
0.0
 41
3.999755859375
 42
3.999755859375
 43
3.999755859375
 50
270.0
  0
MTEXT
  5
9A1
330
999
100
AcDbEntity
  8
template
  6
Continuous
 62
     0
370
     0
100
AcDbMText
 10
-895.7134555355378
 20
449.2486775715665
 30
0.0
 40
24.4326171875
 41
0.0
 46
0.0
 71
     5
 72
     1
  1
\A1;280
  7
ＭＳ ゴシック
 11
0.0
 21
1.0
 31
0.0
 73
     1
 44
1.0
  0
POINT
  5
9A2
330
999
100
AcDbEntity
  8
Defpoints
 62
     0
100
AcDbPoint
 10
-804.2356342797634
 20
589.251909465507
 30
0.0
  0
POINT
  5
9A3
330
999
100
AcDbEntity
  8
Defpoints
 62
     0
100
AcDbPoint
 10
-804.2356342797634
 20
309.2454456776261
 30
0.0
  0
POINT
  5
9A4
330
999
100
AcDbEntity
  8
Defpoints
 62
     0
100
AcDbPoint
 10
-873.4971469417878
 20
309.2454456776261
 30
0.0
  0
ENDBLK
  5
99B
330
999
100
AcDbEntity
  8
0
100
AcDbBlockEnd
  0
BLOCK
  5
A5F
330
A5E
100
AcDbEntity
  8
0
100
AcDbBlockBegin
  2
*D19
 70
     1
 10
0.0
 20
0.0
 30
0.0
  3
*D19
  1
*D81
  0
LINE
  5
A61
330
A5E
100
AcDbEntity
  8
template
  6
Continuous
 62
     0
370
    -2
100
AcDbLine
 10
890.0815991555644
 20
-353.5757221457121
 30
0.0
 11
890.0815991555644
 21
-295.7140057715582
 31
0.0
  0
LINE
  5
A62
330
A5E
100
AcDbEntity
  8
template
  6
Continuous
 62
     0
370
    -2
100
AcDbLine
 10
825.0395945949474
 20
-353.5757221254594
 30
0.0
 11
825.0395945949474
 21
-295.7140057715582
 31
0.0
  0
LINE
  5
A63
330
A5E
100
AcDbEntity
  8
template
  6
Continuous
 62
     0
370
    -2
100
AcDbLine
 10
886.0818432961894
 20
-295.7140057715582
 30
0.0
 11
829.0393504543224
 21
-295.7140057715582
 31
0.0
  0
INSERT
  5
A64
330
A5E
100
AcDbEntity
  8
template
 62
     0
370
    -2
100
AcDbBlockReference
  2
_DOT
 10
890.0815991555644
 20
-295.7140057715582
 30
0.0
 41
3.999755859375
 42
3.999755859375
 43
3.999755859375
  0
INSERT
  5
A65
330
A5E
100
AcDbEntity
  8
template
 62
     0
370
    -2
100
AcDbBlockReference
  2
_DOT
 10
825.0395945949474
 20
-295.7140057715582
 30
0.0
 41
3.999755859375
 42
3.999755859375
 43
3.999755859375
 50
180.0
  0
MTEXT
  5
A66
330
A5E
100
AcDbEntity
  8
template
  6
Continuous
 62
     0
370
     0
100
AcDbMText
 10
857.5605968752559
 20
-273.4976971778082
 30
0.0
 40
24.4326171875
 41
0.0
 46
0.0
 71
     5
 72
     1
  1
\A1;65
  7
ＭＳ ゴシック
 73
     1
 44
1.0
  0
POINT
  5
A67
330
A5E
100
AcDbEntity
  8
Defpoints
 62
     0
100
AcDbPoint
 10
890.0815991555644
 20
-378.5757221457121
 30
0.0
  0
POINT
  5
A68
330
A5E
100
AcDbEntity
  8
Defpoints
 62
     0
100
AcDbPoint
 10
825.0395945949474
 20
-378.5757221254594
 30
0.0
  0
POINT
  5
A69
330
A5E
100
AcDbEntity
  8
Defpoints
 62
     0
100
AcDbPoint
 10
825.0395945949474
 20
-295.7140057715582
 30
0.0
  0
ENDBLK
  5
A60
330
A5E
100
AcDbEntity
  8
0
100
AcDbBlockEnd
  0
BLOCK
  5
A72
330
A71
100
AcDbEntity
  8
0
100
AcDbBlockBegin
  2
*D20
 70
     1
 10
0.0
 20
0.0
 30
0.0
  3
*D20
  1
*D20
  0
LINE
  5
A74
330
A71
100
AcDbEntity
  8
template
  6
Continuous
 62
     0
370
    -2
100
AcDbLine
 10
-294.7287432646646
 20
634.4609986172684
 30
0.0
 11
-219.7727335670553
 21
484.1957936984682
 31
0.0
  0
LINE
  5
A75
330
A71
100
AcDbEntity
  8
template
  6
Continuous
 62
     0
370
    -2
100
AcDbLine
 10
-313.9225252948626
 20
672.9390019364138
 30
0.0
 11
-315.7079046880285
 21
676.5181732590894
 31
0.0
  0
MTEXT
  5
A76
330
A71
100
AcDbEntity
  8
template
  6
Continuous
 62
     0
370
     0
100
AcDbMText
 10
-214.2641264519365
 20
523.1971312531258
 30
0.0
 40
24.4326171875
 41
0.0
 46
0.0
 71
     5
 72
     1
  1
\A1;%%c35
  7
ＭＳ ゴシック
 11
0.4463720926818947
 21
-0.8948474478226923
 31
0.0
 73
     1
 44
1.0
  0
LINE
  5
A77
330
A71
100
AcDbEntity
  8
template
  6
Continuous
 62
     0
370
    -2
100
AcDbLine
 10
-312.1371459016967
 20
669.3598306137382
 30
0.0
 11
-296.5141226578305
 21
638.040169939944
 31
0.0
  0
INSERT
  5
A78
330
A71
100
AcDbEntity
  8
template
 62
     0
370
    -2
100
AcDbBlockReference
  2
_DOT
 10
-312.1371459016967
 20
669.3598306137382
 30
0.0
 41
3.999755859375
 42
3.999755859375
 43
3.999755859375
 50
296.5111583253911
  0
INSERT
  5
A79
330
A71
100
AcDbEntity
  8
template
 62
     0
370
    -2
100
AcDbBlockReference
  2
_DOT
 10
-296.5141226578305
 20
638.040169939944
 30
0.0
 41
3.999755859375
 42
3.999755859375
 43
3.999755859375
 50
116.5111583253911
  0
POINT
  5
A7A
330
A71
100
AcDbEntity
  8
Defpoints
 62
     0
100
AcDbPoint
 10
-296.5141226578305
 20
638.040169939944
 30
0.0
  0
POINT
  5
A7B
330
A71
100
AcDbEntity
  8
Defpoints
 62
     0
100
AcDbPoint
 10
-312.1371459016967
 20
669.3598306137382
 30
0.0
  0
ENDBLK
  5
A73
330
A71
100
AcDbEntity
  8
0
100
AcDbBlockEnd
  0
BLOCK
  5
AEE
330
AED
100
AcDbEntity
  8
notes
390
1D
100
AcDbBlockBegin
  2
*D21
 70
     1
 10
0.0
 20
0.0
 30
0.0
  3
*D21
  1
*D22
  0
LINE
  5
AEF
330
AED
100
AcDbEntity
  8
0
  6
Continuous
 62
     0
370
    -2
390
1D
100
AcDbLine
 10
11518.24943852127
 20
-3912.47644389739
 30
0.0
 11
11538.47119374719
 21
-3912.47644389739
 31
0.0
  0
LINE
  5
AF0
330
AED
100
AcDbEntity
  8
0
  6
Continuous
 62
     0
370
    -2
390
1D
100
AcDbLine
 10
11518.24943852127
 20
-4042.47644389739
 30
0.0
 11
11538.47119374719
 21
-4042.47644389739
 31
0.0
  0
LINE
  5
AF1
330
AED
100
AcDbEntity
  8
0
  6
Continuous
 62
     0
370
    -2
390
1D
100
AcDbLine
 10
11538.47119374719
 20
-3912.47644389739
 30
0.0
 11
11538.47119374719
 21
-3743.823199123313
 31
0.0
  0
LINE
  5
AF2
330
AED
100
AcDbEntity
  8
0
  6
Continuous
 62
     0
370
    -2
390
1D
100
AcDbLine
 10
11538.47119374719
 20
-3912.47644389739
 30
0.0
 11
11538.47119374719
 21
-4042.47644389739
 31
0.0
  0
CIRCLE
  5
AF3
102
{ACAD_REACTORS
330
AF4
102
}
330
AED
100
AcDbEntity
  8
0
  6
Continuous
 62
     0
370
    -2
390
1D
100
AcDbCircle
 10
11538.47119374719
 20
-3912.47644389739
 30
0.0
 40
4.99969482421875
  0
HATCH
  5
AF4
330
AED
100
AcDbEntity
  8
0
  6
Continuous
 62
     0
370
    -2
390
1D
100
AcDbHatch
 10
0.0
 20
0.0
 30
0.0
210
0.0
220
0.0
230
1.0
  2
SOLID
 70
     1
 71
     1
 91
        1
 92
        1
 93
        1
 72
     2
 10
11538.47119374719
 20
-3912.47644389739
 40
4.99969482421875
 50
0.0
 51
360.0
 73
     0
 97
        1
330
AF3
 75
     0
 76
     1
 98
        1
 10
0.0
 20
0.0
  0
CIRCLE
  5
AF5
102
{ACAD_REACTORS
330
AF6
102
}
330
AED
100
AcDbEntity
  8
0
  6
Continuous
 62
     0
370
    -2
390
1D
100
AcDbCircle
 10
11538.47119374719
 20
-4042.47644389739
 30
0.0
 40
4.99969482421875
  0
HATCH
  5
AF6
330
AED
100
AcDbEntity
  8
0
  6
Continuous
 62
     0
370
    -2
390
1D
100
AcDbHatch
 10
0.0
 20
0.0
 30
0.0
210
0.0
220
0.0
230
1.0
  2
SOLID
 70
     1
 71
     1
 91
        1
 92
        1
 93
        1
 72
     2
 10
11538.47119374719
 20
-4042.47644389739
 40
4.99969482421875
 50
0.0
 51
360.0
 73
     0
 97
        1
330
AF5
 75
     0
 76
     1
 98
        1
 10
0.0
 20
0.0
  0
MTEXT
  5
AF7
330
AED
100
AcDbEntity
  8
0
 62
     0
390
1D
100
AcDbMText
 10
11504.59357655969
 20
-3886.698199123313
 30
0.0
 40
24.4326171875
 41
0.0
 46
0.0
 71
     1
 72
     1
  1
130(深さ)
  7
ＭＳ ゴシック
 11
0.0
 21
1.0
 31
0.0
 73
     1
 44
0.7828267384257843
  0
POINT
  5
AF8
330
AED
100
AcDbEntity
  8
Defpoints
 62
     0
370
     0
390
1D
100
AcDbPoint
 10
11543.24943852127
 20
-4042.47644389739
 30
0.0
  0
POINT
  5
AF9
330
AED
100
AcDbEntity
  8
Defpoints
 62
     0
370
     0
390
1D
100
AcDbPoint
 10
11543.24943852127
 20
-3912.47644389739
 30
0.0
  0
POINT
  5
AFA
330
AED
100
AcDbEntity
  8
Defpoints
 62
     0
370
     0
390
1D
100
AcDbPoint
 10
11538.47119374719
 20
-3912.47644389739
 30
0.0
  0
ENDBLK
  5
AFB
330
AED
100
AcDbEntity
  8
notes
390
1D
100
AcDbBlockEnd
  0
BLOCK
  5
AFF
330
AFE
100
AcDbEntity
  8
0
100
AcDbBlockBegin
  2
*D22
 70
     1
 10
0.0
 20
0.0
 30
0.0
  3
*D22
  1
*D23
  0
LINE
  5
B01
330
AFE
100
AcDbEntity
  8
notes
  6
Continuous
 62
     0
370
    -2
100
AcDbLine
 10
-125.3935267430097
 20
-130.0
 30
0.0
 11
-105.1717715170853
 21
-130.0
 31
0.0
  0
LINE
  5
B02
330
AFE
100
AcDbEntity
  8
notes
  6
Continuous
 62
     0
370
    -2
100
AcDbLine
 10
-125.3935267430097
 20
0.0000000000000015
 30
0.0
 11
-105.1717715170853
 21
0.0000000000000003
 31
0.0
  0
LINE
  5
B03
330
AFE
100
AcDbEntity
  8
notes
  6
Continuous
 62
     0
370
    -2
100
AcDbLine
 10
-105.1717715170853
 20
-126.000244140625
 30
0.0
 11
-105.1717715170853
 21
-3.999755859375
 31
0.0
  0
INSERT
  5
B04
330
AFE
100
AcDbEntity
  8
notes
 62
     0
370
    -2
100
AcDbBlockReference
  2
_DOT
 10
-105.1717715170853
 20
-130.0
 30
0.0
 41
3.999755859375
 42
3.999755859375
 43
3.999755859375
 50
270.0
  0
INSERT
  5
B05
330
AFE
100
AcDbEntity
  8
notes
 62
     0
370
    -2
100
AcDbBlockReference
  2
_DOT
 10
-105.1717715170853
 20
0.0000000000000003
 30
0.0
 41
3.999755859375
 42
3.999755859375
 43
3.999755859375
 50
90.0
  0
MTEXT
  5
B06
330
AFE
100
AcDbEntity
  8
notes
  6
Continuous
 62
     0
370
    15
100
AcDbMText
 10
-110.1717715170853
 20
25.77824477407648
 30
0.0
 40
24.4326171875
 41
0.0
 46
0.0
 71
     5
 72
     1
  1
\A1;130(深さ)
  7
ＭＳ ゴシック
 11
1.093142670400154E-16
 21
1.0
 31
0.0
 73
     1
 44
1.0
  0
POINT
  5
B07
330
AFE
100
AcDbEntity
  8
Defpoints
 62
     0
100
AcDbPoint
 10
-100.3935267430097
 20
-130.0
 30
0.0
  0
POINT
  5
B08
330
AFE
100
AcDbEntity
  8
Defpoints
 62
     0
100
AcDbPoint
 10
-100.3935267430097
 20
0.0
 30
0.0
  0
POINT
  5
B09
330
AFE
100
AcDbEntity
  8
Defpoints
 62
     0
100
AcDbPoint
 10
-105.1717715170853
 20
0.0000000000000003
 30
0.0
  0
ENDBLK
  5
B00
330
AFE
100
AcDbEntity
  8
0
100
AcDbBlockEnd
  0
BLOCK
  5
B0D
330
B0C
100
AcDbEntity
  8
0
100
AcDbBlockBegin
  2
*D23
 70
     1
 10
0.0
 20
0.0
 30
0.0
  3
*D23
  1
*D24
  0
LINE
  5
B0F
330
B0C
100
AcDbEntity
  8
notes
  6
Continuous
 62
     0
370
    -2
100
AcDbLine
 10
648.4330378584816
 20
-506.0757221254594
 30
0.0
 11
668.654793084406
 21
-506.0757221254594
 31
0.0
  0
LINE
  5
B10
330
B0C
100
AcDbEntity
  8
notes
  6
Continuous
 62
     0
370
    -2
100
AcDbLine
 10
648.4330378584816
 20
-376.0757221254594
 30
0.0
 11
668.654793084406
 21
-376.0757221254594
 31
0.0
  0
LINE
  5
B11
330
B0C
100
AcDbEntity
  8
notes
  6
Continuous
 62
     0
370
    -2
100
AcDbLine
 10
668.654793084406
 20
-506.0757221254594
 30
0.0
 11
668.654793084406
 21
-376.0757221254594
 31
0.0
  0
LINE
  5
B12
330
B0C
100
AcDbEntity
  8
notes
  6
Continuous
 62
     0
370
    -2
100
AcDbLine
 10
668.654793084406
 20
-516.0751221254594
 30
0.0
 11
668.654793084406
 21
-526.0745221254595
 31
0.0
  0
LINE
  5
B13
330
B0C
100
AcDbEntity
  8
notes
  6
Continuous
 62
     0
370
    -2
100
AcDbLine
 10
668.654793084406
 20
-366.0763221254594
 30
0.0
 11
668.654793084406
 21
-356.0769221254594
 31
0.0
  0
INSERT
  5
B14
330
B0C
100
AcDbEntity
  8
notes
 62
     0
370
    -2
100
AcDbBlockReference
  2
_DOT
 10
668.654793084406
 20
-506.0757221254594
 30
0.0
 41
9.999400000000001
 42
9.999400000000001
 43
9.999400000000001
 50
90.0
  0
INSERT
  5
B15
330
B0C
100
AcDbEntity
  8
notes
 62
     0
370
    -2
100
AcDbBlockReference
  2
_DOT
 10
668.654793084406
 20
-376.0757221254594
 30
0.0
 41
9.999400000000001
 42
9.999400000000001
 43
9.999400000000001
 50
270.0
  0
MTEXT
  5
B16
330
B0C
100
AcDbEntity
  8
notes
  6
Continuous
 62
     0
370
    15
100
AcDbMText
 10
663.654793084406
 20
-350.2974773513829
 30
0.0
 40
24.4326171875
 41
0.0
 46
0.0
 71
     5
 72
     1
  1
\A1;130(深さ)
  7
ＭＳ ゴシック
 11
0.0
 21
1.0
 31
0.0
 73
     1
 44
1.0
  0
POINT
  5
B17
330
B0C
100
AcDbEntity
  8
Defpoints
 62
     0
100
AcDbPoint
 10
673.4330378584816
 20
-506.0757221254594
 30
0.0
  0
POINT
  5
B1C
330
B0C
100
AcDbEntity
  8
Defpoints
 62
     0
100
AcDbPoint
 10
673.4330378584816
 20
-376.0757221254594
 30
0.0
  0
POINT
  5
B1D
330
B0C
100
AcDbEntity
  8
Defpoints
 62
     0
100
AcDbPoint
 10
668.654793084406
 20
-376.0757221254594
 30
0.0
  0
ENDBLK
  5
B0E
330
B0C
100
AcDbEntity
  8
0
100
AcDbBlockEnd
  0
BLOCK
  5
B22
330
B21
100
AcDbEntity
  8
0
100
AcDbBlockBegin
  2
*D24
 70
     1
 10
0.0
 20
0.0
 30
0.0
  3
*D24
  1
*D25
  0
LINE
  5
B24
330
B21
100
AcDbEntity
  8
notes
  6
Continuous
 62
     0
370
    -2
100
AcDbLine
 10
675.4034340146582
 20
-506.0757221254594
 30
0.0
 11
692.045086308547
 21
-506.0757221254594
 31
0.0
  0
LINE
  5
B25
330
B21
100
AcDbEntity
  8
notes
  6
Continuous
 62
     0
370
    -2
100
AcDbLine
 10
675.4034340146582
 20
-376.0757221254594
 30
0.0
 11
692.045086308547
 21
-376.0757221254594
 31
0.0
  0
LINE
  5
B26
330
B21
100
AcDbEntity
  8
notes
  6
Continuous
 62
     0
370
    -2
100
AcDbLine
 10
692.045086308547
 20
-376.0757221254594
 30
0.0
 11
692.045086308547
 21
-201.2660210259939
 31
0.0
  0
LINE
  5
B27
330
B21
100
AcDbEntity
  8
notes
  6
Continuous
 62
     0
370
    -2
100
AcDbLine
 10
692.045086308547
 20
-506.0757221254594
 30
0.0
 11
692.045086308547
 21
-376.0757221254594
 31
0.0
  0
LINE
  5
B28
330
B21
100
AcDbEntity
  8
notes
  6
Continuous
 62
     0
370
    -2
100
AcDbLine
 10
692.045086308547
 20
-510.0754779848344
 30
0.0
 11
692.045086308547
 21
-514.0752338442094
 31
0.0
  0
LINE
  5
B29
330
B21
100
AcDbEntity
  8
notes
  6
Continuous
 62
     0
370
    -2
100
AcDbLine
 10
692.045086308547
 20
-372.0759662660844
 30
0.0
 11
692.045086308547
 21
-368.0762104067094
 31
0.0
  0
INSERT
  5
B2A
330
B21
100
AcDbEntity
  8
notes
 62
     0
370
    -2
100
AcDbBlockReference
  2
_DOT
 10
692.045086308547
 20
-506.0757221254594
 30
0.0
 41
3.999755859375
 42
3.999755859375
 43
3.999755859375
 50
90.0
  0
INSERT
  5
B2B
330
B21
100
AcDbEntity
  8
notes
 62
     0
370
    -2
100
AcDbBlockReference
  2
_DOT
 10
692.045086308547
 20
-376.0757221254594
 30
0.0
 41
3.999755859375
 42
3.999755859375
 43
3.999755859375
 50
270.0
  0
MTEXT
  5
B2C
330
B21
100
AcDbEntity
  8
notes
  6
Continuous
 62
     0
370
    15
100
AcDbMText
 10
677.1664910937031
 20
-267.9539809869314
 30
0.0
 40
24.4326171875
 41
0.0
 46
0.0
 71
     5
 72
     1
  1
\A1;130(深さ)
  7
ＭＳ ゴシック
 11
0.0
 21
1.0
 31
0.0
 73
     1
 44
1.0
  0
POINT
  5
B30
330
B21
100
AcDbEntity
  8
Defpoints
 62
     0
100
AcDbPoint
 10
650.4034340146582
 20
-506.0757221254594
 30
0.0
  0
POINT
  5
B31
330
B21
100
AcDbEntity
  8
Defpoints
 62
     0
100
AcDbPoint
 10
650.4034340146582
 20
-376.0757221254594
 30
0.0
  0
POINT
  5
B32
330
B21
100
AcDbEntity
  8
Defpoints
 62
     0
100
AcDbPoint
 10
692.045086308547
 20
-376.0757221254594
 30
0.0
  0
ENDBLK
  5
B23
330
B21
100
AcDbEntity
  8
0
100
AcDbBlockEnd
  0
BLOCK
  5
B66
330
B65
100
AcDbEntity
  8
notes
390
1D
100
AcDbBlockBegin
  2
*D25
 70
     1
 10
0.0
 20
0.0
 30
0.0
  3
*D25
  1
*D27
  0
LINE
  5
B67
330
B65
100
AcDbEntity
  8
0
  6
Continuous
 62
     0
370
    -2
390
1D
100
AcDbLine
 10
11518.24943852127
 20
-3912.47644389739
 30
0.0
 11
11538.47119374719
 21
-3912.47644389739
 31
0.0
  0
LINE
  5
B68
330
B65
100
AcDbEntity
  8
0
  6
Continuous
 62
     0
370
    -2
390
1D
100
AcDbLine
 10
11518.24943852127
 20
-4042.47644389739
 30
0.0
 11
11538.47119374719
 21
-4042.47644389739
 31
0.0
  0
LINE
  5
B69
330
B65
100
AcDbEntity
  8
0
  6
Continuous
 62
     0
370
    -2
390
1D
100
AcDbLine
 10
11538.47119374719
 20
-3912.47644389739
 30
0.0
 11
11538.47119374719
 21
-3743.823199123313
 31
0.0
  0
LINE
  5
B6A
330
B65
100
AcDbEntity
  8
0
  6
Continuous
 62
     0
370
    -2
390
1D
100
AcDbLine
 10
11538.47119374719
 20
-3912.47644389739
 30
0.0
 11
11538.47119374719
 21
-4042.47644389739
 31
0.0
  0
CIRCLE
  5
B6B
102
{ACAD_REACTORS
330
B6C
102
}
330
B65
100
AcDbEntity
  8
0
  6
Continuous
 62
     0
370
    -2
390
1D
100
AcDbCircle
 10
11538.47119374719
 20
-3912.47644389739
 30
0.0
 40
4.99969482421875
  0
HATCH
  5
B6C
330
B65
100
AcDbEntity
  8
0
  6
Continuous
 62
     0
370
    -2
390
1D
100
AcDbHatch
 10
0.0
 20
0.0
 30
0.0
210
0.0
220
0.0
230
1.0
  2
SOLID
 70
     1
 71
     1
 91
        1
 92
        1
 93
        1
 72
     2
 10
11538.47119374719
 20
-3912.47644389739
 40
4.99969482421875
 50
0.0
 51
360.0
 73
     0
 97
        1
330
B6B
 75
     0
 76
     1
 98
        1
 10
0.0
 20
0.0
  0
CIRCLE
  5
B6D
102
{ACAD_REACTORS
330
B6E
102
}
330
B65
100
AcDbEntity
  8
0
  6
Continuous
 62
     0
370
    -2
390
1D
100
AcDbCircle
 10
11538.47119374719
 20
-4042.47644389739
 30
0.0
 40
4.99969482421875
  0
HATCH
  5
B6E
330
B65
100
AcDbEntity
  8
0
  6
Continuous
 62
     0
370
    -2
390
1D
100
AcDbHatch
 10
0.0
 20
0.0
 30
0.0
210
0.0
220
0.0
230
1.0
  2
SOLID
 70
     1
 71
     1
 91
        1
 92
        1
 93
        1
 72
     2
 10
11538.47119374719
 20
-4042.47644389739
 40
4.99969482421875
 50
0.0
 51
360.0
 73
     0
 97
        1
330
B6D
 75
     0
 76
     1
 98
        1
 10
0.0
 20
0.0
  0
MTEXT
  5
B6F
330
B65
100
AcDbEntity
  8
0
 62
     0
390
1D
100
AcDbMText
 10
11504.59357655969
 20
-3886.698199123313
 30
0.0
 40
24.4326171875
 41
0.0
 46
0.0
 71
     1
 72
     1
  1
130(深さ)
  7
ＭＳ ゴシック
 11
0.0
 21
1.0
 31
0.0
 73
     1
 44
0.7828267384257843
  0
POINT
  5
B70
330
B65
100
AcDbEntity
  8
Defpoints
 62
     0
370
     0
390
1D
100
AcDbPoint
 10
11543.24943852127
 20
-4042.47644389739
 30
0.0
  0
POINT
  5
B71
330
B65
100
AcDbEntity
  8
Defpoints
 62
     0
370
     0
390
1D
100
AcDbPoint
 10
11543.24943852127
 20
-3912.47644389739
 30
0.0
  0
POINT
  5
B72
330
B65
100
AcDbEntity
  8
Defpoints
 62
     0
370
     0
390
1D
100
AcDbPoint
 10
11538.47119374719
 20
-3912.47644389739
 30
0.0
  0
ENDBLK
  5
B73
330
B65
100
AcDbEntity
  8
notes
390
1D
100
AcDbBlockEnd
  0
BLOCK
  5
B77
330
B76
100
AcDbEntity
  8
0
100
AcDbBlockBegin
  2
*D26
 70
     1
 10
0.0
 20
0.0
 30
0.0
  3
*D26
  1
*D28
  0
LINE
  5
B79
330
B76
100
AcDbEntity
  8
notes
  6
Continuous
 62
     0
370
    -2
100
AcDbLine
 10
-125.3935267430097
 20
-130.0
 30
0.0
 11
-105.1717715170853
 21
-130.0
 31
0.0
  0
LINE
  5
B7A
330
B76
100
AcDbEntity
  8
notes
  6
Continuous
 62
     0
370
    -2
100
AcDbLine
 10
-125.3935267430097
 20
0.0000000000000015
 30
0.0
 11
-105.1717715170853
 21
0.0000000000000003
 31
0.0
  0
LINE
  5
B7B
330
B76
100
AcDbEntity
  8
notes
  6
Continuous
 62
     0
370
    -2
100
AcDbLine
 10
-105.1717715170853
 20
-126.000244140625
 30
0.0
 11
-105.1717715170853
 21
-3.999755859375
 31
0.0
  0
INSERT
  5
B7C
330
B76
100
AcDbEntity
  8
notes
 62
     0
370
    -2
100
AcDbBlockReference
  2
_DOT
 10
-105.1717715170853
 20
-130.0
 30
0.0
 41
3.999755859375
 42
3.999755859375
 43
3.999755859375
 50
270.0
  0
INSERT
  5
B7D
330
B76
100
AcDbEntity
  8
notes
 62
     0
370
    -2
100
AcDbBlockReference
  2
_DOT
 10
-105.1717715170853
 20
0.0000000000000003
 30
0.0
 41
3.999755859375
 42
3.999755859375
 43
3.999755859375
 50
90.0
  0
MTEXT
  5
B7E
330
B76
100
AcDbEntity
  8
notes
  6
Continuous
 62
     0
370
    15
100
AcDbMText
 10
-110.1717715170853
 20
25.77824477407648
 30
0.0
 40
24.4326171875
 41
0.0
 46
0.0
 71
     5
 72
     1
  1
\A1;130(深さ)
  7
ＭＳ ゴシック
 11
1.093142670400154E-16
 21
1.0
 31
0.0
 73
     1
 44
1.0
  0
POINT
  5
B7F
330
B76
100
AcDbEntity
  8
Defpoints
 62
     0
100
AcDbPoint
 10
-100.3935267430097
 20
-130.0
 30
0.0
  0
POINT
  5
B80
330
B76
100
AcDbEntity
  8
Defpoints
 62
     0
100
AcDbPoint
 10
-100.3935267430097
 20
0.0
 30
0.0
  0
POINT
  5
B81
330
B76
100
AcDbEntity
  8
Defpoints
 62
     0
100
AcDbPoint
 10
-105.1717715170853
 20
0.0000000000000003
 30
0.0
  0
ENDBLK
  5
B78
330
B76
100
AcDbEntity
  8
0
100
AcDbBlockEnd
  0
BLOCK
  5
B85
330
B84
100
AcDbEntity
  8
0
100
AcDbBlockBegin
  2
*D27
 70
     1
 10
0.0
 20
0.0
 30
0.0
  3
*D27
  1
*D29
  0
LINE
  5
B87
330
B84
100
AcDbEntity
  8
notes
  6
Continuous
 62
     0
370
    -2
100
AcDbLine
 10
648.4330378584816
 20
-506.0757221254594
 30
0.0
 11
668.654793084406
 21
-506.0757221254594
 31
0.0
  0
LINE
  5
B88
330
B84
100
AcDbEntity
  8
notes
  6
Continuous
 62
     0
370
    -2
100
AcDbLine
 10
648.4330378584816
 20
-376.0757221254594
 30
0.0
 11
668.654793084406
 21
-376.0757221254594
 31
0.0
  0
LINE
  5
B89
330
B84
100
AcDbEntity
  8
notes
  6
Continuous
 62
     0
370
    -2
100
AcDbLine
 10
668.654793084406
 20
-496.0763221254594
 30
0.0
 11
668.654793084406
 21
-386.0751221254594
 31
0.0
  0
INSERT
  5
B8A
330
B84
100
AcDbEntity
  8
notes
 62
     0
370
    -2
100
AcDbBlockReference
  2
_DOT
 10
668.654793084406
 20
-506.0757221254594
 30
0.0
 41
9.999400000000001
 42
9.999400000000001
 43
9.999400000000001
 50
270.0
  0
INSERT
  5
B8B
330
B84
100
AcDbEntity
  8
notes
 62
     0
370
    -2
100
AcDbBlockReference
  2
_DOT
 10
668.654793084406
 20
-376.0757221254594
 30
0.0
 41
9.999400000000001
 42
9.999400000000001
 43
9.999400000000001
 50
90.0
  0
MTEXT
  5
B8C
330
B84
100
AcDbEntity
  8
notes
  6
Continuous
 62
     0
370
    15
100
AcDbMText
 10
11533.4712
 20
-3886.6982
 30
0.0
 40
24.4326171875
 41
0.0
 46
0.0
 71
     5
 72
     1
  1
\A1;130(深さ)
  7
ＭＳ ゴシック
 11
0.0
 21
1.0
 31
0.0
 73
     1
 44
1.0
  0
POINT
  5
B8D
330
B84
100
AcDbEntity
  8
Defpoints
 62
     0
100
AcDbPoint
 10
673.4330378584816
 20
-506.0757221254594
 30
0.0
  0
POINT
  5
B8E
330
B84
100
AcDbEntity
  8
Defpoints
 62
     0
100
AcDbPoint
 10
673.4330378584816
 20
-376.0757221254594
 30
0.0
  0
POINT
  5
B8F
330
B84
100
AcDbEntity
  8
Defpoints
 62
     0
100
AcDbPoint
 10
668.654793084406
 20
-376.0757221254594
 30
0.0
  0
ENDBLK
  5
B86
330
B84
100
AcDbEntity
  8
0
100
AcDbBlockEnd
  0
BLOCK
  5
BBE
330
BBD
100
AcDbEntity
  8
0
100
AcDbBlockBegin
  2
*D28
 70
     1
 10
0.0
 20
0.0
 30
0.0
  3
*D28
  1
*D31
  0
LINE
  5
BBF
330
BBD
100
AcDbEntity
  8
Dim
  6
Continuous
 62
     0
370
    -2
100
AcDbLine
 10
-108.7355988247866
 20
-31.75
 30
0.0
 11
-108.7355988247866
 21
-99.24678892148358
 31
0.0
  0
INSERT
  5
BC0
330
BBD
100
AcDbEntity
  8
Dim
 62
     0
370
    -2
100
AcDbBlockReference
  2
VW_FILLEDARROW
 10
-108.7355988247866
 20
0.0
 30
0.0
 41
31.75
 42
31.75
 43
31.75
 50
90.0
  0
INSERT
  5
BC1
330
BBD
100
AcDbEntity
  8
Dim
 62
     0
370
    -2
100
AcDbBlockReference
  2
VW_FILLEDARROW
 10
-108.7355988247866
 20
-130.9967889214836
 30
0.0
 41
31.75
 42
31.75
 43
31.75
 50
270.0
  0
POINT
  5
BC2
330
BBD
100
AcDbEntity
  8
Defpoints
 62
     0
100
AcDbPoint
 10
-111.7471837248495
 20
0.0
 30
0.0
  0
POINT
  5
BC3
330
BBD
100
AcDbEntity
  8
Defpoints
 62
     0
100
AcDbPoint
 10
-108.7355988247866
 20
-130.9967889214836
 30
0.0
  0
POINT
  5
BC4
330
BBD
100
AcDbEntity
  8
Defpoints
 62
     0
100
AcDbPoint
 10
-108.7355988247866
 20
-130.9967889214836
 30
0.0
  0
ENDBLK
  5
BC5
330
BBD
100
AcDbEntity
  8
0
100
AcDbBlockEnd
  0
BLOCK
  5
BCF
330
BCE
100
AcDbEntity
  8
0
100
AcDbBlockBegin
  2
*D29
 70
     1
 10
0.0
 20
0.0
 30
0.0
  3
*D29
  1
*D32
  0
LINE
  5
BD1
330
BCE
100
AcDbEntity
  8
Dim
  6
Continuous
 62
     0
370
    -2
100
AcDbLine
 10
665.0909657767047
 20
-385.0757221254594
 30
0.0
 11
665.0909657767047
 21
-498.072511046943
 31
0.0
  0
INSERT
  5
BD2
330
BCE
100
AcDbEntity
  8
Dim
 62
     0
370
    -2
100
AcDbBlockReference
  2
_DOT
 10
665.0909657767047
 20
-376.0757221254594
 30
0.0
 41
9.0
 42
9.0
 43
9.0
 50
90.0
  0
INSERT
  5
BD3
330
BCE
100
AcDbEntity
  8
Dim
 62
     0
370
    -2
100
AcDbBlockReference
  2
_DOT
 10
665.0909657767047
 20
-507.072511046943
 30
0.0
 41
9.0
 42
9.0
 43
9.0
 50
270.0
  0
POINT
  5
BD4
330
BCE
100
AcDbEntity
  8
Defpoints
 62
     0
100
AcDbPoint
 10
662.0793808766418
 20
-376.0757221254594
 30
0.0
  0
POINT
  5
BD5
330
BCE
100
AcDbEntity
  8
Defpoints
 62
     0
100
AcDbPoint
 10
665.0909657767047
 20
-507.072511046943
 30
0.0
  0
POINT
  5
BD6
330
BCE
100
AcDbEntity
  8
Defpoints
 62
     0
100
AcDbPoint
 10
665.0909657767047
 20
-507.072511046943
 30
0.0
  0
ENDBLK
  5
BD0
330
BCE
100
AcDbEntity
  8
0
100
AcDbBlockEnd
  0
BLOCK
  5
C0B
330
C0A
100
AcDbEntity
  8
0
100
AcDbBlockBegin
  2
名称未設定-1
 70
     0
 10
0.0
 20
0.0
 30
0.0
  3
名称未設定-1
  1
名称未設定-1
  0
INSERT
  5
C0C
330
C0A
100
AcDbEntity
  8
レイヤー 1
100
AcDbBlockReference
  2
block 2
 10
0.0
 20
0.0
 30
0.0
  0
ENDBLK
  5
C31
330
C0A
100
AcDbEntity
  8
0
100
AcDbBlockEnd
  0
BLOCK
  5
C0E
330
C0D
100
AcDbEntity
  8
0
100
AcDbBlockBegin
  2
block 2
 70
     0
 10
0.0
 20
0.0
 30
0.0
  3
block 2
  1
block 2
  0
INSERT
  5
C0F
330
C0D
100
AcDbEntity
  8
レイヤー 1
100
AcDbBlockReference
  2
block 3
 10
0.0
 20
0.0
 30
0.0
  0
ENDBLK
  5
C30
330
C0D
100
AcDbEntity
  8
0
100
AcDbBlockEnd
  0
BLOCK
  5
C11
330
C10
100
AcDbEntity
  8
0
100
AcDbBlockBegin
  2
block 3
 70
     0
 10
0.0
 20
0.0
 30
0.0
  3
block 3
  1
block 3
  0
INSERT
  5
C12
330
C10
100
AcDbEntity
  8
レイヤー 1
100
AcDbBlockReference
  2
block 4
 10
0.0
 20
0.0
 30
0.0
  0
ENDBLK
  5
C2F
330
C10
100
AcDbEntity
  8
0
100
AcDbBlockEnd
  0
BLOCK
  5
C14
330
C13
100
AcDbEntity
  8
0
100
AcDbBlockBegin
  2
block 4
 70
     0
 10
0.0
 20
0.0
 30
0.0
  3
block 4
  1
block 4
  0
POLYLINE
  5
C15
330
C13
100
AcDbEntity
  8
レイヤー 1
370
     0
100
AcDb2dPolyline
 66
     1
 10
0.0
 20
0.0
 30
0.0
  0
VERTEX
  5
C16
330
C15
100
AcDbEntity
  8
レイヤー 1
370
     0
100
AcDbVertex
100
AcDb2dVertex
 10
83.79545727667795
 20
167.6444858234922
 30
0.0
  0
VERTEX
  5
C17
330
C15
100
AcDbEntity
  8
レイヤー 1
370
     0
100
AcDbVertex
100
AcDb2dVertex
 10
83.79545727667795
 20
159.7968976406313
 30
0.0
  0
VERTEX
  5
C18
330
C15
100
AcDbEntity
  8
レイヤー 1
370
     0
100
AcDbVertex
100
AcDb2dVertex
 10
71.3631329975216
 20
159.7968976406313
 30
0.0
  0
VERTEX
  5
C19
330
C15
100
AcDbEntity
  8
レイヤー 1
370
     0
100
AcDbVertex
100
AcDb2dVertex
 10
71.3631329975216
 20
127.8027915271048
 30
0.0
  0
VERTEX
  5
C1A
330
C15
100
AcDbEntity
  8
レイヤー 1
370
     0
100
AcDbVertex
100
AcDb2dVertex
 10
60.43011526263018
 20
127.8027915271048
 30
0.0
  0
VERTEX
  5
C1B
330
C15
100
AcDbEntity
  8
レイヤー 1
370
     0
100
AcDbVertex
100
AcDb2dVertex
 10
60.43011526263018
 20
159.7968976406313
 30
0.0
  0
VERTEX
  5
C1C
330
C15
100
AcDbEntity
  8
レイヤー 1
370
     0
100
AcDbVertex
100
AcDb2dVertex
 10
48.21793273020759
 20
159.7968976406313
 30
0.0
  0
VERTEX
  5
C1D
330
C15
100
AcDbEntity
  8
レイヤー 1
370
     0
100
AcDbVertex
100
AcDb2dVertex
 10
48.21793273020759
 20
167.6444858234922
 30
0.0
  0
VERTEX
  5
C1E
330
C15
100
AcDbEntity
  8
レイヤー 1
370
     0
100
AcDbVertex
100
AcDb2dVertex
 10
83.79545727667795
 20
167.6444858234922
 30
0.0
  0
SEQEND
  5
C1F
330
C15
100
AcDbEntity
  8
レイヤー 1
370
     0
  0
HATCH
  5
C20
330
C13
100
AcDbEntity
  8
レイヤー 1
 62
   250
420
  2234388
100
AcDbHatch
 10
0.0
 20
0.0
 30
0.0
210
0.0
220
0.0
230
1.0
  2
SOLID
 70
     1
 71
     0
 91
        1
 92
        1
 93
        8
 72
     1
 10
83.79545727667795
 20
167.6444858234922
 11
83.79545727667795
 21
159.7968976406313
 72
     1
 10
83.79545727667795
 20
159.7968976406313
 11
71.3631329975216
 21
159.7968976406313
 72
     1
 10
71.3631329975216
 20
159.7968976406313
 11
71.3631329975216
 21
127.8027915271048
 72
     1
 10
71.3631329975216
 20
127.8027915271048
 11
60.43011526263018
 21
127.8027915271048
 72
     1
 10
60.43011526263018
 20
127.8027915271048
 11
60.43011526263018
 21
159.7968976406313
 72
     1
 10
60.43011526263018
 20
159.7968976406313
 11
48.21793273020759
 21
159.7968976406313
 72
     1
 10
48.21793273020759
 20
159.7968976406313
 11
48.21793273020759
 21
167.6444858234922
 72
     1
 10
48.21793273020759
 20
167.6444858234922
 11
83.79545727667795
 21
167.6444858234922
 97
        0
 75
     2
 76
     1
 98
        0
  0
INSERT
  5
C21
330
C13
100
AcDbEntity
  8
レイヤー 1
100
AcDbBlockReference
  2
block 5
 10
0.0
 20
0.0
 30
0.0
  0
ENDBLK
  5
C2E
330
C13
100
AcDbEntity
  8
0
100
AcDbBlockEnd
  0
BLOCK
  5
C23
330
C22
100
AcDbEntity
  8
0
100
AcDbBlockBegin
  2
block 5
 70
     0
 10
0.0
 20
0.0
 30
0.0
  3
block 5
  1
block 5
  0
SPLINE
  5
C24
330
C22
100
AcDbEntity
  8
レイヤー 1
370
     0
100
AcDbSpline
210
0.0
220
0.0
230
1.0
 70
    11
 71
     3
 72
    56
 73
    52
 74
     0
 42
0.000000001
 43
0.0000000001
 40
0.0
 40
0.0
 40
0.0
 40
0.0
 40
1.0
 40
1.0
 40
1.0
 40
2.0
 40
2.0
 40
2.0
 40
3.0
 40
3.0
 40
3.0
 40
4.0
 40
4.0
 40
4.0
 40
5.0
 40
5.0
 40
5.0
 40
6.0
 40
6.0
 40
6.0
 40
7.0
 40
7.0
 40
7.0
 40
8.0
 40
8.0
 40
8.0
 40
9.0
 40
9.0
 40
9.0
 40
10.0
 40
10.0
 40
10.0
 40
11.0
 40
11.0
 40
11.0
 40
12.0
 40
12.0
 40
12.0
 40
13.0
 40
13.0
 40
13.0
 40
14.0
 40
14.0
 40
14.0
 40
15.0
 40
15.0
 40
15.0
 40
16.0
 40
16.0
 40
16.0
 40
17.0
 40
17.0
 40
17.0
 40
17.0
 10
100.4504378777679
 20
166.69157178364
 30
0.0
 10
101.9848844191641
 20
167.1313385124438
 30
0.0
 10
103.9637485713373
 20
166.7649523658846
 30
0.0
 10
103.9637485713373
 20
166.7649523658846
 30
0.0
 10
103.9637485713373
 20
166.7649523658846
 30
0.0
 10
103.0132460999156
 20
163.911205638077
 30
0.0
 10
103.0132460999156
 20
163.911205638077
 30
0.0
 10
103.0132460999156
 20
163.911205638077
 30
0.0
 10
101.0674548862189
 20
164.3601018759394
 30
0.0
 10
99.57090442016032
 20
163.1805004036133
 30
0.0
 10
98.40508333886608
 20
162.258247733807
 30
0.0
 10
97.65301849830304
 20
159.804132345923
 30
0.0
 10
97.3598406791005
 20
158.8699940888517
 30
0.0
 10
97.3598406791005
 20
158.8699940888517
 30
0.0
 10
96.07137411762282
 20
154.9119212747295
 30
0.0
 10
96.07137411762282
 20
154.9119212747295
 30
0.0
 10
96.07137411762282
 20
154.9119212747295
 30
0.0
 10
100.3012651448482
 20
154.9119212747295
 30
0.0
 10
100.3012651448482
 20
154.9119212747295
 30
0.0
 10
100.3012651448482
 20
154.9119212747295
 30
0.0
 10
99.64152892419852
 20
152.4199098115079
 30
0.0
 10
99.64152892419852
 20
152.4199098115079
 30
0.0
 10
99.64152892419852
 20
152.4199098115079
 30
0.0
 10
95.38097652692731
 20
152.4199098115079
 30
0.0
 10
95.38097652692731
 20
152.4199098115079
 30
0.0
 10
95.38097652692731
 20
152.4199098115079
 30
0.0
 10
87.75353009080013
 20
127.8027915271048
 30
0.0
 10
87.75353009080013
 20
127.8027915271048
 30
0.0
 10
87.75353009080013
 20
127.8027915271048
 30
0.0
 10
85.36538832498108
 20
127.8027915271048
 30
0.0
 10
85.36538832498108
 20
127.8027915271048
 30
0.0
 10
85.36538832498108
 20
127.8027915271048
 30
0.0
 10
93.00006946639998
 20
152.4199098115079
 30
0.0
 10
93.00006946639998
 20
152.4199098115079
 30
0.0
 10
93.00006946639998
 20
152.4199098115079
 30
0.0
 10
89.85297266450198
 20
152.4199098115079
 30
0.0
 10
89.85297266450198
 20
152.4199098115079
 30
0.0
 10
89.85297266450198
 20
152.4199098115079
 30
0.0
 10
90.51270888515164
 20
154.9119212747295
 30
0.0
 10
90.51270888515164
 20
154.9119212747295
 30
0.0
 10
90.51270888515164
 20
154.9119212747295
 30
0.0
 10
93.6904670570955
 20
154.9119212747295
 30
0.0
 10
93.6904670570955
 20
154.9119212747295
 30
0.0
 10
93.6904670570955
 20
154.9119212747295
 30
0.0
 10
94.81598049462158
 20
158.3616699146644
 30
0.0
 10
94.81598049462158
 20
158.3616699146644
 30
0.0
 10
95.7237637538445
 20
161.2605474231013
 30
0.0
 10
96.4968436907311
 20
162.8139420021662
 30
0.0
 10
97.15657991138076
 20
163.9844139654337
 30
0.0
 10
97.81183750494507
 20
165.1523021053827
 30
0.0
 10
99.1047826935081
 20
166.3084769129547
 30
0.0
 10
100.4504378777679
 20
166.69157178364
 30
0.0
  0
HATCH
  5
C25
330
C22
100
AcDbEntity
  8
レイヤー 1
 62
   250
420
  2234388
100
AcDbHatch
 10
0.0
 20
0.0
 30
0.0
210
0.0
220
0.0
230
1.0
  2
SOLID
 70
     1
 71
     0
 91
        1
 92
        1
 93
        1
 72
     4
 94
        3
 73
     0
 74
     1
 95
       56
 96
       52
 40
0.0
 40
0.0
 40
0.0
 40
0.0
 40
1.0
 40
1.0
 40
1.0
 40
2.0
 40
2.0
 40
2.0
 40
3.0
 40
3.0
 40
3.0
 40
4.0
 40
4.0
 40
4.0
 40
5.0
 40
5.0
 40
5.0
 40
6.0
 40
6.0
 40
6.0
 40
7.0
 40
7.0
 40
7.0
 40
8.0
 40
8.0
 40
8.0
 40
9.0
 40
9.0
 40
9.0
 40
10.0
 40
10.0
 40
10.0
 40
11.0
 40
11.0
 40
11.0
 40
12.0
 40
12.0
 40
12.0
 40
13.0
 40
13.0
 40
13.0
 40
14.0
 40
14.0
 40
14.0
 40
15.0
 40
15.0
 40
15.0
 40
16.0
 40
16.0
 40
16.0
 40
17.0
 40
17.0
 40
17.0
 40
17.0
 10
100.4504378777679
 20
166.69157178364
 10
101.9848844191641
 20
167.1313385124438
 10
103.9637485713373
 20
166.7649523658846
 10
103.9637485713373
 20
166.7649523658846
 10
103.9637485713373
 20
166.7649523658846
 10
103.0132460999156
 20
163.911205638077
 10
103.0132460999156
 20
163.911205638077
 10
103.0132460999156
 20
163.911205638077
 10
101.0674548862189
 20
164.3601018759394
 10
99.57090442016032
 20
163.1805004036133
 10
98.40508333886608
 20
162.258247733807
 10
97.65301849830304
 20
159.804132345923
 10
97.3598406791005
 20
158.8699940888517
 10
97.3598406791005
 20
158.8699940888517
 10
96.07137411762282
 20
154.9119212747295
 10
96.07137411762282
 20
154.9119212747295
 10
96.07137411762282
 20
154.9119212747295
 10
100.3012651448482
 20
154.9119212747295
 10
100.3012651448482
 20
154.9119212747295
 10
100.3012651448482
 20
154.9119212747295
 10
99.64152892419852
 20
152.4199098115079
 10
99.64152892419852
 20
152.4199098115079
 10
99.64152892419852
 20
152.4199098115079
 10
95.38097652692731
 20
152.4199098115079
 10
95.38097652692731
 20
152.4199098115079
 10
95.38097652692731
 20
152.4199098115079
 10
87.75353009080013
 20
127.8027915271048
 10
87.75353009080013
 20
127.8027915271048
 10
87.75353009080013
 20
127.8027915271048
 10
85.36538832498108
 20
127.8027915271048
 10
85.36538832498108
 20
127.8027915271048
 10
85.36538832498108
 20
127.8027915271048
 10
93.00006946639998
 20
152.4199098115079
 10
93.00006946639998
 20
152.4199098115079
 10
93.00006946639998
 20
152.4199098115079
 10
89.85297266450198
 20
152.4199098115079
 10
89.85297266450198
 20
152.4199098115079
 10
89.85297266450198
 20
152.4199098115079
 10
90.51270888515164
 20
154.9119212747295
 10
90.51270888515164
 20
154.9119212747295
 10
90.51270888515164
 20
154.9119212747295
 10
93.6904670570955
 20
154.9119212747295
 10
93.6904670570955
 20
154.9119212747295
 10
93.6904670570955
 20
154.9119212747295
 10
94.81598049462158
 20
158.3616699146644
 10
94.81598049462158
 20
158.3616699146644
 10
95.7237637538445
 20
161.2605474231013
 10
96.4968436907311
 20
162.8139420021662
 10
97.15657991138076
 20
163.9844139654337
 10
97.81183750494507
 20
165.1523021053827
 10
99.1047826935081
 20
166.3084769129547
 10
100.4504378777679
 20
166.69157178364
 97
        0
 75
     2
 76
     1
 98
        0
  0
SPLINE
  5
C26
330
C22
100
AcDbEntity
  8
レイヤー 1
370
     0
100
AcDbSpline
210
0.0
220
0.0
230
1.0
 70
    11
 71
     3
 72
    38
 73
    34
 74
     0
 42
0.000000001
 43
0.0000000001
 40
0.0
 40
0.0
 40
0.0
 40
0.0
 40
1.0
 40
1.0
 40
1.0
 40
2.0
 40
2.0
 40
2.0
 40
3.0
 40
3.0
 40
3.0
 40
4.0
 40
4.0
 40
4.0
 40
5.0
 40
5.0
 40
5.0
 40
6.0
 40
6.0
 40
6.0
 40
7.0
 40
7.0
 40
7.0
 40
8.0
 40
8.0
 40
8.0
 40
9.0
 40
9.0
 40
9.0
 40
10.0
 40
10.0
 40
10.0
 40
11.0
 40
11.0
 40
11.0
 40
11.0
 10
126.377554584636
 20
154.8151140277308
 30
0.0
 10
126.377554584636
 20
154.8151140277308
 30
0.0
 10
128.8311532078563
 20
154.8151140277308
 30
0.0
 10
128.8311532078563
 20
154.8151140277308
 30
0.0
 10
128.8311532078563
 20
154.8151140277308
 30
0.0
 10
127.7345785914971
 20
151.3062819612468
 30
0.0
 10
127.7345785914971
 20
151.3062819612468
 30
0.0
 10
128.571392836906
 20
152.2922689395754
 30
0.0
 10
129.8860421413442
 20
153.604506675583
 30
0.0
 10
131.0163787157314
 20
154.2664822097754
 30
0.0
 10
132.7044766171327
 20
155.2500576196734
 30
0.0
 10
133.6642808525008
 20
155.3847609420097
 30
0.0
 10
134.7284715499351
 20
155.3565111403944
 30
0.0
 10
134.7284715499351
 20
155.3565111403944
 30
0.0
 10
133.6877075172549
 20
152.0345756272799
 30
0.0
 10
133.6877075172549
 20
152.0345756272799
 30
0.0
 10
133.011434827367
 20
152.3184516825359
 30
0.0
 10
130.930940291334
 20
151.7768823149844
 30
0.0
 10
129.739280976855
 20
150.9162968950455
 30
0.0
 10
128.66613302525
 20
150.1454562717016
 30
0.0
 10
127.9192358313239
 20
149.4857200510519
 30
0.0
 10
127.0393578639405
 20
147.8282835196966
 30
0.0
 10
126.164647543194
 20
146.1699857139017
 30
0.0
 10
125.4742499524985
 20
143.5262176944419
 30
0.0
 10
124.2822461282437
 20
139.6959580071401
 30
0.0
 10
124.2822461282437
 20
139.6959580071401
 30
0.0
 10
120.5753209406769
 20
127.8027915271048
 30
0.0
 10
120.5753209406769
 20
127.8027915271048
 30
0.0
 10
120.5753209406769
 20
127.8027915271048
 30
0.0
 10
118.1964809388044
 20
127.8027915271048
 30
0.0
 10
118.1964809388044
 20
127.8027915271048
 30
0.0
 10
118.1964809388044
 20
127.8027915271048
 30
0.0
 10
126.377554584636
 20
154.8151140277308
 30
0.0
 10
126.377554584636
 20
154.8151140277308
 30
0.0
  0
HATCH
  5
C27
330
C22
100
AcDbEntity
  8
レイヤー 1
 62
   250
420
  2234388
100
AcDbHatch
 10
0.0
 20
0.0
 30
0.0
210
0.0
220
0.0
230
1.0
  2
SOLID
 70
     1
 71
     0
 91
        1
 92
        1
 93
        1
 72
     4
 94
        3
 73
     0
 74
     1
 95
       38
 96
       34
 40
0.0
 40
0.0
 40
0.0
 40
0.0
 40
1.0
 40
1.0
 40
1.0
 40
2.0
 40
2.0
 40
2.0
 40
3.0
 40
3.0
 40
3.0
 40
4.0
 40
4.0
 40
4.0
 40
5.0
 40
5.0
 40
5.0
 40
6.0
 40
6.0
 40
6.0
 40
7.0
 40
7.0
 40
7.0
 40
8.0
 40
8.0
 40
8.0
 40
9.0
 40
9.0
 40
9.0
 40
10.0
 40
10.0
 40
10.0
 40
11.0
 40
11.0
 40
11.0
 40
11.0
 10
126.377554584636
 20
154.8151140277308
 10
126.377554584636
 20
154.8151140277308
 10
128.8311532078563
 20
154.8151140277308
 10
128.8311532078563
 20
154.8151140277308
 10
128.8311532078563
 20
154.8151140277308
 10
127.7345785914971
 20
151.3062819612468
 10
127.7345785914971
 20
151.3062819612468
 10
128.571392836906
 20
152.2922689395754
 10
129.8860421413442
 20
153.604506675583
 10
131.0163787157314
 20
154.2664822097754
 10
132.7044766171327
 20
155.2500576196734
 10
133.6642808525008
 20
155.3847609420097
 10
134.7284715499351
 20
155.3565111403944
 10
134.7284715499351
 20
155.3565111403944
 10
133.6877075172549
 20
152.0345756272799
 10
133.6877075172549
 20
152.0345756272799
 10
133.011434827367
 20
152.3184516825359
 10
130.930940291334
 20
151.7768823149844
 10
129.739280976855
 20
150.9162968950455
 10
128.66613302525
 20
150.1454562717016
 10
127.9192358313239
 20
149.4857200510519
 10
127.0393578639405
 20
147.8282835196966
 10
126.164647543194
 20
146.1699857139017
 10
125.4742499524985
 20
143.5262176944419
 10
124.2822461282437
 20
139.6959580071401
 10
124.2822461282437
 20
139.6959580071401
 10
120.5753209406769
 20
127.8027915271048
 10
120.5753209406769
 20
127.8027915271048
 10
120.5753209406769
 20
127.8027915271048
 10
118.1964809388044
 20
127.8027915271048
 10
118.1964809388044
 20
127.8027915271048
 10
118.1964809388044
 20
127.8027915271048
 10
126.377554584636
 20
154.8151140277308
 10
126.377554584636
 20
154.8151140277308
 97
        0
 75
     2
 76
     1
 98
        0
  0
SPLINE
  5
C28
330
C22
100
AcDbEntity
  8
レイヤー 1
370
     0
100
AcDbSpline
210
0.0
220
0.0
230
1.0
 70
    11
 71
     3
 72
   104
 73
   100
 74
     0
 42
0.000000001
 43
0.0000000001
 40
0.0
 40
0.0
 40
0.0
 40
0.0
 40
1.0
 40
1.0
 40
1.0
 40
2.0
 40
2.0
 40
2.0
 40
3.0
 40
3.0
 40
3.0
 40
4.0
 40
4.0
 40
4.0
 40
5.0
 40
5.0
 40
5.0
 40
6.0
 40
6.0
 40
6.0
 40
7.0
 40
7.0
 40
7.0
 40
8.0
 40
8.0
 40
8.0
 40
9.0
 40
9.0
 40
9.0
 40
10.0
 40
10.0
 40
10.0
 40
11.0
 40
11.0
 40
11.0
 40
12.0
 40
12.0
 40
12.0
 40
13.0
 40
13.0
 40
13.0
 40
14.0
 40
14.0
 40
14.0
 40
15.0
 40
15.0
 40
15.0
 40
16.0
 40
16.0
 40
16.0
 40
17.0
 40
17.0
 40
17.0
 40
18.0
 40
18.0
 40
18.0
 40
19.0
 40
19.0
 40
19.0
 40
20.0
 40
20.0
 40
20.0
 40
21.0
 40
21.0
 40
21.0
 40
22.0
 40
22.0
 40
22.0
 40
23.0
 40
23.0
 40
23.0
 40
24.0
 40
24.0
 40
24.0
 40
25.0
 40
25.0
 40
25.0
 40
26.0
 40
26.0
 40
26.0
 40
27.0
 40
27.0
 40
27.0
 40
28.0
 40
28.0
 40
28.0
 40
29.0
 40
29.0
 40
29.0
 40
30.0
 40
30.0
 40
30.0
 40
31.0
 40
31.0
 40
31.0
 40
32.0
 40
32.0
 40
32.0
 40
33.0
 40
33.0
 40
33.0
 40
33.0
 10
139.8926730891197
 20
154.8294111834263
 30
0.0
 10
139.8926730891197
 20
154.8294111834263
 30
0.0
 10
142.0344903652445
 20
154.8294111834263
 30
0.0
 10
142.0344903652445
 20
154.8294111834263
 30
0.0
 10
142.0344903652445
 20
154.8294111834263
 30
0.0
 10
140.9516961399171
 20
151.3157559800812
 30
0.0
 10
140.9516961399171
 20
151.3157559800812
 30
0.0
 10
141.8928968473923
 20
152.7887075264977
 30
0.0
 10
142.7341897198865
 20
153.4484437471474
 30
0.0
 10
143.8552245303272
 20
154.2926649527359
 30
0.0
 10
144.9803934580775
 20
155.1296514530327
 30
0.0
 10
146.3139908001845
 20
155.3044901642492
 30
0.0
 10
147.241066606852
 20
155.3044901642492
 30
0.0
 10
148.3855280820469
 20
155.3044901642492
 30
0.0
 10
149.4969166187653
 20
155.0752189084569
 30
0.0
 10
150.0784491203092
 20
153.8172414621372
 30
0.0
 10
150.5228667310863
 20
152.833838307127
 30
0.0
 10
150.5414702589793
 20
152.7201500811143
 30
0.0
 10
150.4140016419347
 20
150.7765981809602
 30
0.0
 10
151.5818897818837
 20
152.7699317437168
 30
0.0
 10
152.4424752018226
 20
153.6256940267945
 30
0.0
 10
153.9038856707499
 20
154.4507949398263
 30
0.0
 10
155.4455669174378
 20
155.3044901642492
 30
0.0
 10
156.339225275853
 20
155.3659851592288
 30
0.0
 10
157.3748216618963
 20
155.2147453676543
 30
0.0
 10
158.911679771723
 20
154.9877134254046
 30
0.0
 10
159.8859534176746
 20
154.4390816074493
 30
0.0
 10
160.3965169054045
 20
152.7816450760939
 30
0.0
 10
160.9070803931344
 20
151.1219692311958
 30
0.0
 10
160.6328506116007
 20
150.2303779314354
 30
0.0
 10
159.9992971339115
 20
147.597634224801
 30
0.0
 10
159.7105979417943
 20
146.4014962832367
 30
0.0
 10
159.2947746424084
 20
144.9400858143094
 30
0.0
 10
158.7463150793409
 20
143.2092687007094
 30
0.0
 10
158.7463150793409
 20
143.2092687007094
 30
0.0
 10
153.9038856707499
 20
127.8027915271048
 30
0.0
 10
153.9038856707499
 20
127.8027915271048
 30
0.0
 10
153.9038856707499
 20
127.8027915271048
 30
0.0
 10
151.3882752878863
 20
127.8027915271048
 30
0.0
 10
151.3882752878863
 20
127.8027915271048
 30
0.0
 10
151.3882752878863
 20
127.8027915271048
 30
0.0
 10
155.6250565106276
 20
141.2751908193897
 30
0.0
 10
155.6250565106276
 20
141.2751908193897
 30
0.0
 10
156.5094131050963
 20
144.0936252951782
 30
0.0
 10
157.109893644309
 20
146.1506931664571
 30
0.0
 10
157.4220195011804
 20
147.4415712963654
 30
0.0
 10
157.8095929989511
 20
149.0530157726519
 30
0.0
 10
157.9656559273867
 20
149.5826995529385
 30
0.0
 10
157.7816877071116
 20
150.7529992613181
 30
0.0
 10
157.6111553680925
 20
151.8430281919372
 30
0.0
 10
157.0582171779396
 20
152.5547853887321
 30
0.0
 10
156.1170164704645
 20
152.5547853887321
 30
0.0
 10
155.1096698860365
 20
152.5547853887321
 30
0.0
 10
154.2962823053817
 20
152.4412694176073
 30
0.0
 10
153.156643967048
 20
151.2945686288697
 30
0.0
 10
152.0170056287143
 20
150.1476955852443
 30
0.0
 10
151.076149431015
 20
148.7930831468137
 30
0.0
 10
150.3337308641742
 20
147.2290087646991
 30
0.0
 10
149.5957909244188
 20
145.6683794803425
 30
0.0
 10
148.8530278478023
 20
143.6822806228776
 30
0.0
 10
148.0964843801539
 20
141.2751908193897
 30
0.0
 10
148.0964843801539
 20
141.2751908193897
 30
0.0
 10
143.8552245303272
 20
127.8027915271048
 30
0.0
 10
143.8552245303272
 20
127.8027915271048
 30
0.0
 10
143.8552245303272
 20
127.8027915271048
 30
0.0
 10
141.486030802177
 20
127.8027915271048
 30
0.0
 10
141.486030802177
 20
127.8027915271048
 30
0.0
 10
141.486030802177
 20
127.8027915271048
 30
0.0
 10
146.3329388378533
 20
143.2092687007094
 30
0.0
 10
146.3329388378533
 20
143.2092687007094
 30
0.0
 10
146.8483254624444
 20
144.8408669988801
 30
0.0
 10
147.2314203331297
 20
146.1837661049335
 30
0.0
 10
147.4867020769946
 20
147.224185627838
 30
0.0
 10
147.9169947869641
 20
149.0197705792876
 30
0.0
 10
148.0306830129768
 20
150.2400242051577
 30
0.0
 10
147.709255392159
 20
151.3157559800812
 30
0.0
 10
147.3874832615654
 20
152.3916600098926
 30
0.0
 10
146.8245542879144
 20
152.6683013598569
 30
0.0
 10
145.8840425999909
 20
152.6683013598569
 30
0.0
 10
145.0989048209514
 20
152.6683013598569
 30
0.0
 10
144.3282364524954
 20
152.3275811915945
 30
0.0
 10
143.4531816219731
 20
151.6538923250251
 30
0.0
 10
142.34627171234
 20
150.8074318058939
 30
0.0
 10
141.901854101563
 20
150.1097995099067
 30
0.0
 10
141.3578731655808
 20
149.289521733736
 30
0.0
 10
140.6299240093235
 20
148.192602607601
 30
0.0
 10
140.2850697237515
 20
147.455696197173
 30
0.0
 10
139.6652966370942
 20
145.8385673095858
 30
0.0
 10
139.0506911970739
 20
144.2214384219986
 30
0.0
 10
138.463991048893
 20
142.3252566160164
 30
0.0
 10
138.0571250036777
 20
141.0154304484394
 30
0.0
 10
138.0571250036777
 20
141.0154304484394
 30
0.0
 10
133.9009590684727
 20
127.8027915271048
 30
0.0
 10
133.9009590684727
 20
127.8027915271048
 30
0.0
 10
133.9009590684727
 20
127.8027915271048
 30
0.0
 10
131.4180771143097
 20
127.8027915271048
 30
0.0
 10
131.4180771143097
 20
127.8027915271048
 30
0.0
 10
131.4180771143097
 20
127.8027915271048
 30
0.0
 10
139.8926730891197
 20
154.8294111834263
 30
0.0
 10
139.8926730891197
 20
154.8294111834263
 30
0.0
  0
HATCH
  5
C29
330
C22
100
AcDbEntity
  8
レイヤー 1
 62
   250
420
  2234388
100
AcDbHatch
 10
0.0
 20
0.0
 30
0.0
210
0.0
220
0.0
230
1.0
  2
SOLID
 70
     1
 71
     0
 91
        1
 92
        1
 93
        1
 72
     4
 94
        3
 73
     0
 74
     1
 95
      104
 96
      100
 40
0.0
 40
0.0
 40
0.0
 40
0.0
 40
1.0
 40
1.0
 40
1.0
 40
2.0
 40
2.0
 40
2.0
 40
3.0
 40
3.0
 40
3.0
 40
4.0
 40
4.0
 40
4.0
 40
5.0
 40
5.0
 40
5.0
 40
6.0
 40
6.0
 40
6.0
 40
7.0
 40
7.0
 40
7.0
 40
8.0
 40
8.0
 40
8.0
 40
9.0
 40
9.0
 40
9.0
 40
10.0
 40
10.0
 40
10.0
 40
11.0
 40
11.0
 40
11.0
 40
12.0
 40
12.0
 40
12.0
 40
13.0
 40
13.0
 40
13.0
 40
14.0
 40
14.0
 40
14.0
 40
15.0
 40
15.0
 40
15.0
 40
16.0
 40
16.0
 40
16.0
 40
17.0
 40
17.0
 40
17.0
 40
18.0
 40
18.0
 40
18.0
 40
19.0
 40
19.0
 40
19.0
 40
20.0
 40
20.0
 40
20.0
 40
21.0
 40
21.0
 40
21.0
 40
22.0
 40
22.0
 40
22.0
 40
23.0
 40
23.0
 40
23.0
 40
24.0
 40
24.0
 40
24.0
 40
25.0
 40
25.0
 40
25.0
 40
26.0
 40
26.0
 40
26.0
 40
27.0
 40
27.0
 40
27.0
 40
28.0
 40
28.0
 40
28.0
 40
29.0
 40
29.0
 40
29.0
 40
30.0
 40
30.0
 40
30.0
 40
31.0
 40
31.0
 40
31.0
 40
32.0
 40
32.0
 40
32.0
 40
33.0
 40
33.0
 40
33.0
 40
33.0
 10
139.8926730891197
 20
154.8294111834263
 10
139.8926730891197
 20
154.8294111834263
 10
142.0344903652445
 20
154.8294111834263
 10
142.0344903652445
 20
154.8294111834263
 10
142.0344903652445
 20
154.8294111834263
 10
140.9516961399171
 20
151.3157559800812
 10
140.9516961399171
 20
151.3157559800812
 10
141.8928968473923
 20
152.7887075264977
 10
142.7341897198865
 20
153.4484437471474
 10
143.8552245303272
 20
154.2926649527359
 10
144.9803934580775
 20
155.1296514530327
 10
146.3139908001845
 20
155.3044901642492
 10
147.241066606852
 20
155.3044901642492
 10
148.3855280820469
 20
155.3044901642492
 10
149.4969166187653
 20
155.0752189084569
 10
150.0784491203092
 20
153.8172414621372
 10
150.5228667310863
 20
152.833838307127
 10
150.5414702589793
 20
152.7201500811143
 10
150.4140016419347
 20
150.7765981809602
 10
151.5818897818837
 20
152.7699317437168
 10
152.4424752018226
 20
153.6256940267945
 10
153.9038856707499
 20
154.4507949398263
 10
155.4455669174378
 20
155.3044901642492
 10
156.339225275853
 20
155.3659851592288
 10
157.3748216618963
 20
155.2147453676543
 10
158.911679771723
 20
154.9877134254046
 10
159.8859534176746
 20
154.4390816074493
 10
160.3965169054045
 20
152.7816450760939
 10
160.9070803931344
 20
151.1219692311958
 10
160.6328506116007
 20
150.2303779314354
 10
159.9992971339115
 20
147.597634224801
 10
159.7105979417943
 20
146.4014962832367
 10
159.2947746424084
 20
144.9400858143094
 10
158.7463150793409
 20
143.2092687007094
 10
158.7463150793409
 20
143.2092687007094
 10
153.9038856707499
 20
127.8027915271048
 10
153.9038856707499
 20
127.8027915271048
 10
153.9038856707499
 20
127.8027915271048
 10
151.3882752878863
 20
127.8027915271048
 10
151.3882752878863
 20
127.8027915271048
 10
151.3882752878863
 20
127.8027915271048
 10
155.6250565106276
 20
141.2751908193897
 10
155.6250565106276
 20
141.2751908193897
 10
156.5094131050963
 20
144.0936252951782
 10
157.109893644309
 20
146.1506931664571
 10
157.4220195011804
 20
147.4415712963654
 10
157.8095929989511
 20
149.0530157726519
 10
157.9656559273867
 20
149.5826995529385
 10
157.7816877071116
 20
150.7529992613181
 10
157.6111553680925
 20
151.8430281919372
 10
157.0582171779396
 20
152.5547853887321
 10
156.1170164704645
 20
152.5547853887321
 10
155.1096698860365
 20
152.5547853887321
 10
154.2962823053817
 20
152.4412694176073
 10
153.156643967048
 20
151.2945686288697
 10
152.0170056287143
 20
150.1476955852443
 10
151.076149431015
 20
148.7930831468137
 10
150.3337308641742
 20
147.2290087646991
 10
149.5957909244188
 20
145.6683794803425
 10
148.8530278478023
 20
143.6822806228776
 10
148.0964843801539
 20
141.2751908193897
 10
148.0964843801539
 20
141.2751908193897
 10
143.8552245303272
 20
127.8027915271048
 10
143.8552245303272
 20
127.8027915271048
 10
143.8552245303272
 20
127.8027915271048
 10
141.486030802177
 20
127.8027915271048
 10
141.486030802177
 20
127.8027915271048
 10
141.486030802177
 20
127.8027915271048
 10
146.3329388378533
 20
143.2092687007094
 10
146.3329388378533
 20
143.2092687007094
 10
146.8483254624444
 20
144.8408669988801
 10
147.2314203331297
 20
146.1837661049335
 10
147.4867020769946
 20
147.224185627838
 10
147.9169947869641
 20
149.0197705792876
 10
148.0306830129768
 20
150.2400242051577
 10
147.709255392159
 20
151.3157559800812
 10
147.3874832615654
 20
152.3916600098926
 10
146.8245542879144
 20
152.6683013598569
 10
145.8840425999909
 20
152.6683013598569
 10
145.0989048209514
 20
152.6683013598569
 10
144.3282364524954
 20
152.3275811915945
 10
143.4531816219731
 20
151.6538923250251
 10
142.34627171234
 20
150.8074318058939
 10
141.901854101563
 20
150.1097995099067
 10
141.3578731655808
 20
149.289521733736
 10
140.6299240093235
 20
148.192602607601
 10
140.2850697237515
 20
147.455696197173
 10
139.6652966370942
 20
145.8385673095858
 10
139.0506911970739
 20
144.2214384219986
 10
138.463991048893
 20
142.3252566160164
 10
138.0571250036777
 20
141.0154304484394
 10
138.0571250036777
 20
141.0154304484394
 10
133.9009590684727
 20
127.8027915271048
 10
133.9009590684727
 20
127.8027915271048
 10
133.9009590684727
 20
127.8027915271048
 10
131.4180771143097
 20
127.8027915271048
 10
131.4180771143097
 20
127.8027915271048
 10
131.4180771143097
 20
127.8027915271048
 10
139.8926730891197
 20
154.8294111834263
 10
139.8926730891197
 20
154.8294111834263
 97
        0
 75
     2
 76
     1
 98
        0
  0
SPLINE
  5
C2A
330
C22
100
AcDbEntity
  8
レイヤー 1
370
     0
100
AcDbSpline
210
0.0
220
0.0
230
1.0
 70
    11
 71
     3
 72
    29
 73
    25
 74
     0
 42
0.000000001
 43
0.0000000001
 40
0.0
 40
0.0
 40
0.0
 40
0.0
 40
1.0
 40
1.0
 40
1.0
 40
2.0
 40
2.0
 40
2.0
 40
3.0
 40
3.0
 40
3.0
 40
4.0
 40
4.0
 40
4.0
 40
5.0
 40
5.0
 40
5.0
 40
6.0
 40
6.0
 40
6.0
 40
7.0
 40
7.0
 40
7.0
 40
8.0
 40
8.0
 40
8.0
 40
8.0
 10
101.6420971922469
 20
132.8388354296931
 30
0.0
 10
101.630039350094
 20
134.7164137077823
 30
0.0
 10
102.2236296937908
 20
138.0598810818841
 30
0.0
 10
103.7487744712405
 20
142.5378191476827
 30
0.0
 10
105.819967243327
 20
148.5896501242061
 30
0.0
 10
107.0602024361932
 20
150.8074318058939
 30
0.0
 10
108.1522984254671
 20
151.8833358357054
 30
0.0
 10
109.741177511439
 20
153.4532668840085
 30
0.0
 10
111.8740375333931
 20
153.5290590346837
 30
0.0
 10
112.5075910110823
 20
153.4532668840085
 30
0.0
 10
113.4012493694975
 20
153.3490526768302
 30
0.0
 10
114.6683563248758
 20
152.7580461564518
 30
0.0
 10
114.7493161221879
 20
150.7838328862519
 30
0.0
 10
114.8106388622796
 20
149.0909118479895
 30
0.0
 10
114.3186789024427
 20
145.9191825971221
 30
0.0
 10
112.6164561002338
 20
140.9489400617108
 30
0.0
 10
110.6444821435766
 20
135.1746117095912
 30
0.0
 10
109.4669477299053
 20
132.8960240524753
 30
0.0
 10
108.5212683953448
 20
131.9072809959403
 30
0.0
 10
106.7346406980658
 20
130.0538184021569
 30
0.0
 10
104.8222669326213
 20
130.2336525051225
 30
0.0
 10
104.5408024457958
 20
130.2336525051225
 30
0.0
 10
104.1721769856939
 20
130.2336525051225
 30
0.0
 10
101.6465758193322
 20
130.6305277668397
 30
0.0
 10
101.6420971922469
 20
132.8388354296931
 30
0.0
  0
SPLINE
  5
C2B
330
C22
100
AcDbEntity
  8
レイヤー 1
370
     0
100
AcDbSpline
210
0.0
220
0.0
230
1.0
 70
    11
 71
     3
 72
    32
 73
    28
 74
     0
 42
0.000000001
 43
0.0000000001
 40
0.0
 40
0.0
 40
0.0
 40
0.0
 40
1.0
 40
1.0
 40
1.0
 40
2.0
 40
2.0
 40
2.0
 40
3.0
 40
3.0
 40
3.0
 40
4.0
 40
4.0
 40
4.0
 40
5.0
 40
5.0
 40
5.0
 40
6.0
 40
6.0
 40
6.0
 40
7.0
 40
7.0
 40
7.0
 40
8.0
 40
8.0
 40
8.0
 40
9.0
 40
9.0
 40
9.0
 40
9.0
 10
106.2595617172429
 20
153.4105476718098
 30
0.0
 10
104.8222669326213
 20
151.5474388043041
 30
0.0
 10
103.7177685914188
 20
149.8758773721411
 30
0.0
 10
101.9232171692965
 20
144.6141795664062
 30
0.0
 10
100.2754269116635
 20
139.7999999594306
 30
0.0
 10
99.22777268346732
 20
136.3052927937542
 30
0.0
 10
99.06964269637689
 20
132.039572749846
 30
0.0
 10
98.94665270641765
 20
128.8673267343149
 30
0.0
 10
100.8807305877373
 20
127.8027915271048
 30
0.0
 10
103.7129454545577
 20
127.8027915271048
 30
0.0
 10
104.9352661390825
 20
127.8027915271048
 30
0.0
 10
108.0151835347002
 20
127.8827177950895
 30
0.0
 10
110.2045431598849
 20
130.5926316915021
 30
0.0
 10
111.7417457794874
 20
132.4984597712065
 30
0.0
 10
113.155269389579
 20
134.475256864725
 30
0.0
 10
115.0562743324223
 20
140.9489400617108
 30
0.0
 10
116.6361961642235
 20
146.3680788349845
 30
0.0
 10
117.7282921534974
 20
149.8639917848761
 30
0.0
 10
117.6480213757369
 20
151.8595646611754
 30
0.0
 10
117.6480213757369
 20
151.8595646611754
 30
0.0
 10
117.6480213757369
 20
151.8595646611754
 30
0.0
 10
117.6480213757369
 20
151.8595646611754
 30
0.0
 10
117.13229024137
 20
155.18150017429
 30
0.0
 10
114.7162431837115
 20
155.886194920681
 30
0.0
 10
113.3351034925446
 20
155.886194920681
 30
0.0
 10
111.9829026225447
 20
155.886194920681
 30
0.0
 10
108.3414342923792
 20
156.1251124501957
 30
0.0
 10
106.2595617172429
 20
153.4105476718098
 30
0.0
  0
HATCH
  5
C2C
330
C22
100
AcDbEntity
  8
レイヤー 1
 62
   250
420
  2234388
100
AcDbHatch
 10
0.0
 20
0.0
 30
0.0
210
0.0
220
0.0
230
1.0
  2
SOLID
 70
     1
 71
     0
 91
        2
 92
        1
 93
        1
 72
     4
 94
        3
 73
     0
 74
     1
 95
       29
 96
       25
 40
0.0
 40
0.0
 40
0.0
 40
0.0
 40
1.0
 40
1.0
 40
1.0
 40
2.0
 40
2.0
 40
2.0
 40
3.0
 40
3.0
 40
3.0
 40
4.0
 40
4.0
 40
4.0
 40
5.0
 40
5.0
 40
5.0
 40
6.0
 40
6.0
 40
6.0
 40
7.0
 40
7.0
 40
7.0
 40
8.0
 40
8.0
 40
8.0
 40
8.0
 10
101.6420971922469
 20
132.8388354296931
 10
101.630039350094
 20
134.7164137077823
 10
102.2236296937908
 20
138.0598810818841
 10
103.7487744712405
 20
142.5378191476827
 10
105.819967243327
 20
148.5896501242061
 10
107.0602024361932
 20
150.8074318058939
 10
108.1522984254671
 20
151.8833358357054
 10
109.741177511439
 20
153.4532668840085
 10
111.8740375333931
 20
153.5290590346837
 10
112.5075910110823
 20
153.4532668840085
 10
113.4012493694975
 20
153.3490526768302
 10
114.6683563248758
 20
152.7580461564518
 10
114.7493161221879
 20
150.7838328862519
 10
114.8106388622796
 20
149.0909118479895
 10
114.3186789024427
 20
145.9191825971221
 10
112.6164561002338
 20
140.9489400617108
 10
110.6444821435766
 20
135.1746117095912
 10
109.4669477299053
 20
132.8960240524753
 10
108.5212683953448
 20
131.9072809959403
 10
106.7346406980658
 20
130.0538184021569
 10
104.8222669326213
 20
130.2336525051225
 10
104.5408024457958
 20
130.2336525051225
 10
104.1721769856939
 20
130.2336525051225
 10
101.6465758193322
 20
130.6305277668397
 10
101.6420971922469
 20
132.8388354296931
 97
        0
 92
        1
 93
        1
 72
     4
 94
        3
 73
     0
 74
     1
 95
       32
 96
       28
 40
0.0
 40
0.0
 40
0.0
 40
0.0
 40
1.0
 40
1.0
 40
1.0
 40
2.0
 40
2.0
 40
2.0
 40
3.0
 40
3.0
 40
3.0
 40
4.0
 40
4.0
 40
4.0
 40
5.0
 40
5.0
 40
5.0
 40
6.0
 40
6.0
 40
6.0
 40
7.0
 40
7.0
 40
7.0
 40
8.0
 40
8.0
 40
8.0
 40
9.0
 40
9.0
 40
9.0
 40
9.0
 10
106.2595617172429
 20
153.4105476718098
 10
104.8222669326213
 20
151.5474388043041
 10
103.7177685914188
 20
149.8758773721411
 10
101.9232171692965
 20
144.6141795664062
 10
100.2754269116635
 20
139.7999999594306
 10
99.22777268346732
 20
136.3052927937542
 10
99.06964269637689
 20
132.039572749846
 10
98.94665270641765
 20
128.8673267343149
 10
100.8807305877373
 20
127.8027915271048
 10
103.7129454545577
 20
127.8027915271048
 10
104.9352661390825
 20
127.8027915271048
 10
108.0151835347002
 20
127.8827177950895
 10
110.2045431598849
 20
130.5926316915021
 10
111.7417457794874
 20
132.4984597712065
 10
113.155269389579
 20
134.475256864725
 10
115.0562743324223
 20
140.9489400617108
 10
116.6361961642235
 20
146.3680788349845
 10
117.7282921534974
 20
149.8639917848761
 10
117.6480213757369
 20
151.8595646611754
 10
117.6480213757369
 20
151.8595646611754
 10
117.6480213757369
 20
151.8595646611754
 10
117.6480213757369
 20
151.8595646611754
 10
117.13229024137
 20
155.18150017429
 10
114.7162431837115
 20
155.886194920681
 10
113.3351034925446
 20
155.886194920681
 10
111.9829026225447
 20
155.886194920681
 10
108.3414342923792
 20
156.1251124501957
 10
106.2595617172429
 20
153.4105476718098
 97
        0
 75
     2
 76
     1
 98
        0
  0
ENDBLK
  5
C2D
330
C22
100
AcDbEntity
  8
0
100
AcDbBlockEnd
  0
BLOCK
  5
C3B
330
C3A
100
AcDbEntity
  8
0
100
AcDbBlockBegin
  2
*D35
 70
     1
 10
0.0
 20
0.0
 30
0.0
  3
*D35
  1
*D36
  0
LINE
  5
C3D
330
C3A
100
AcDbEntity
  8
template
  6
Continuous
 62
     0
370
    -2
100
AcDbLine
 10
-829.2356342797634
 20
309.2454456776261
 30
0.0
 11
-873.4971469417878
 21
309.2454456776261
 31
0.0
  0
LINE
  5
C3E
330
C3A
100
AcDbEntity
  8
template
  6
Continuous
 62
     0
370
    -2
100
AcDbLine
 10
-804.2356342797634
 20
239.2454456776222
 30
0.0
 11
-873.4971469417878
 21
239.2454456776222
 31
0.0
  0
LINE
  5
C3F
330
C3A
100
AcDbEntity
  8
template
  6
Continuous
 62
     0
370
    -2
100
AcDbLine
 10
-873.4971469417878
 20
305.2456898182511
 30
0.0
 11
-873.4971469417878
 21
243.2452015369972
 31
0.0
  0
INSERT
  5
C40
330
C3A
100
AcDbEntity
  8
template
 62
     0
370
    -2
100
AcDbBlockReference
  2
_DOT
 10
-873.4971469417878
 20
309.2454456776261
 30
0.0
 41
3.999755859375
 42
3.999755859375
 43
3.999755859375
 50
90.0
  0
INSERT
  5
C41
330
C3A
100
AcDbEntity
  8
template
 62
     0
370
    -2
100
AcDbBlockReference
  2
_DOT
 10
-873.4971469417878
 20
239.2454456776222
 30
0.0
 41
3.999755859375
 42
3.999755859375
 43
3.999755859375
 50
270.0
  0
MTEXT
  5
C42
330
C3A
100
AcDbEntity
  8
template
  6
Continuous
 62
     0
370
     0
100
AcDbMText
 10
-895.7134555355378
 20
274.2454456776242
 30
0.0
 40
24.4326171875
 41
0.0
 46
0.0
 71
     5
 72
     1
  1
\A1;70
  7
ＭＳ ゴシック
 11
0.0
 21
1.0
 31
0.0
 73
     1
 44
1.0
  0
POINT
  5
C43
330
C3A
100
AcDbEntity
  8
Defpoints
 62
     0
100
AcDbPoint
 10
-804.2356342797634
 20
309.2454456776261
 30
0.0
  0
POINT
  5
C44
330
C3A
100
AcDbEntity
  8
Defpoints
 62
     0
100
AcDbPoint
 10
-779.2356342797634
 20
239.2454456776222
 30
0.0
  0
POINT
  5
C45
330
C3A
100
AcDbEntity
  8
Defpoints
 62
     0
100
AcDbPoint
 10
-873.4971469417878
 20
239.2454456776222
 30
0.0
  0
ENDBLK
  5
C3C
330
C3A
100
AcDbEntity
  8
0
100
AcDbBlockEnd
  0
ENDSEC
  0
SECTION
  2
ENTITIES
  0
MTEXT
  5
12D
330
A
100
AcDbEntity
  8
template
 62
     7
390
1D
100
AcDbMText
 10
-967.9999999997589
 20
-1134.653514318794
 30
0.0
 40
16.28841145833333
 41
0.0
 46
0.0
 71
     1
 72
     1
  1
品名
  7
ＭＳ ゴシック
 73
     1
 44
0.7828267384257843
  0
MTEXT
  5
12E
330
A
100
AcDbEntity
  8
template
 62
     7
390
1D
100
AcDbMText
 10
-967.9999999997589
 20
-1219.653514318794
 30
0.0
 40
16.28841145833333
 41
0.0
 46
0.0
 71
     1
 72
     1
  1
仕様
  7
ＭＳ ゴシック
 73
     1
 44
0.7828267384257843
  0
MTEXT
  5
12F
330
A
100
AcDbEntity
  8
template
 62
     7
390
1D
100
AcDbMText
 10
-914.9999999997589
 20
-1163.235975256294
 30
0.0
 40
24.4326171875
 41
0.0
 46
24.4326171875
 71
     1
 72
     1
  1
{洗面器 -CATALANO,New Light-}
  7
ＭＳ ゴシック
 73
     1
 44
0.7828267384257843
1001
ACAD
1000
ACAD_MTEXT_DEFINED_HEIGHT_BEGIN
1070
    46
1040
24.4326171875
1000
ACAD_MTEXT_DEFINED_HEIGHT_END
  0
LINE
  5
130
330
A
100
AcDbEntity
  8
template
  6
Continuous
 62
     7
370
     5
390
1D
100
AcDbLine
 10
974.9999999997591
 20
-1211.238592443794
 30
0.0
 11
-975.0000000002409
 21
-1211.238592443794
 31
0.0
  0
LWPOLYLINE
  5
131
330
A
100
AcDbEntity
  8
template
  6
Continuous
 62
     7
370
     5
390
1D
100
AcDbPolyline
 90
        5
 70
   128
 43
0.0
 10
975.0000000002411
 20
1418.761407556206
 10
-974.9999999997589
 20
1418.761407556206
 10
-974.9999999997589
 20
-1381.238592443794
 10
975.0000000002411
 20
-1381.238592443794
 10
975.0000000002411
 20
1418.761407556206
  0
LINE
  5
132
330
A
100
AcDbEntity
  8
template
  6
Continuous
 62
     7
370
     5
390
1D
100
AcDbLine
 10
974.9999999997591
 20
-1126.238592443794
 30
0.0
 11
-975.0000000002409
 21
-1126.238592443794
 31
0.0
  0
LINE
  5
133
330
A
100
AcDbEntity
  8
template
  6
Continuous
 62
     7
370
     5
390
1D
100
AcDbLine
 10
975.0000000002411
 20
-1296.238592443794
 30
0.0
 11
222.0000000002411
 21
-1296.238592443794
 31
0.0
  0
MTEXT
  5
134
330
A
100
AcDbEntity
  8
template
 62
     7
390
1D
100
AcDbMText
 10
-974.9999999995551
 20
-1393.092414500651
 30
0.0
 40
21.71788194444445
 41
0.0
 46
21.71788194444445
 71
     1
 72
     1
  1
{140508Kx}
  7
ＭＳ ゴシック
 73
     1
 44
0.7828267384257843
1001
ACAD
1000
ACAD_MTEXT_DEFINED_HEIGHT_BEGIN
1070
    46
1040
21.71788194444445
1000
ACAD_MTEXT_DEFINED_HEIGHT_END
  0
MTEXT
  5
135
330
A
100
AcDbEntity
  8
template
 62
     7
390
1D
100
AcDbMText
 10
251.8714062525006
 20
-1326.148986917101
 30
0.0
 40
24.4326171875
 41
0.0
 46
0.0
 71
     1
 72
     1
  1
大洋金物株式会社 ティーフォルム事業部
  7
ＭＳ ゴシック
 73
     1
 44
0.7828267384257843
  0
MTEXT
  5
137
330
A
100
AcDbEntity
  8
template
 62
     7
390
1D
100
AcDbMText
 10
784.0000000004994
 20
-1248.235975256294
 30
0.0
 40
24.4326171875
 41
0.0
 46
0.0
 71
     1
 72
     1
  1
1:10
  7
ＭＳ ゴシック
 73
     1
 44
0.7828267384257843
  0
MTEXT
  5
138
330
A
100
AcDbEntity
  8
template
 62
     7
390
1D
100
AcDbMText
 10
731.0000000004994
 20
-1219.653514318794
 30
0.0
 40
16.28841145833333
 41
0.0
 46
0.0
 71
     1
 72
     1
  1
縮尺
  7
ＭＳ ゴシック
 73
     1
 44
0.7828267384257843
  0
LINE
  5
139
330
A
100
AcDbEntity
  8
template
  6
Continuous
 62
     7
370
     5
390
1D
100
AcDbLine
 10
724.0000000004994
 20
-1296.238592443794
 30
0.0
 11
724.0000000004994
 21
-1211.238592443794
 31
0.0
  0
MTEXT
  5
13A
330
A
100
AcDbEntity
  8
template
 62
     7
390
1D
100
AcDbMText
 10
480.0000000004994
 20
-1219.653514318794
 30
0.0
 40
16.28841145833333
 41
0.0
 46
0.0
 71
     1
 72
     1
  1
容量
  7
ＭＳ ゴシック
 73
     1
 44
0.7828267384257843
  0
MTEXT
  5
13B
330
A
100
AcDbEntity
  8
template
 62
     7
390
1D
100
AcDbMText
 10
533.0000000004994
 20
-1248.235975256294
 30
0.0
 40
24.4326171875
 41
0.0
 46
24.4326171875
 71
     1
 72
     1
  1
{11L}
  7
ＭＳ ゴシック
 73
     1
 44
0.7828267384257843
1001
ACAD
1000
ACAD_MTEXT_DEFINED_HEIGHT_BEGIN
1070
    46
1040
24.4326171875
1000
ACAD_MTEXT_DEFINED_HEIGHT_END
  0
LINE
  5
13C
330
A
100
AcDbEntity
  8
template
  6
Continuous
 62
     7
370
     5
390
1D
100
AcDbLine
 10
473.0000000004994
 20
-1296.238592443794
 30
0.0
 11
473.0000000004994
 21
-1211.238592443794
 31
0.0
  0
MTEXT
  5
13D
330
A
100
AcDbEntity
  8
template
 62
     7
390
1D
100
AcDbMText
 10
229.0000000004994
 20
-1134.653514318794
 30
0.0
 40
16.28841145833333
 41
0.0
 46
0.0
 71
     1
 72
     1
  1
品番
  7
ＭＳ ゴシック
 73
     1
 44
0.7828267384257843
  0
MTEXT
  5
13E
330
A
100
AcDbEntity
  8
template
 62
     7
390
1D
100
AcDbMText
 10
229.0000000004994
 20
-1219.653514318794
 30
0.0
 40
16.28841145833333
 41
0.0
 46
0.0
 71
     1
 72
     1
  1
重量
  7
ＭＳ ゴシック
 73
     1
 44
0.7828267384257843
  0
MTEXT
  5
13F
330
A
100
AcDbEntity
  8
template
 62
     7
390
1D
100
AcDbMText
 10
282.0000000004994
 20
-1163.235975256294
 30
0.0
 40
24.4326171875
 41
0.0
 46
24.4326171875
 71
     1
 72
     1
  1
{ADF70-2404}
  7
ＭＳ ゴシック
 73
     1
 44
0.7828267384257843
1001
ACAD
1000
ACAD_MTEXT_DEFINED_HEIGHT_BEGIN
1070
    46
1040
24.4326171875
1000
ACAD_MTEXT_DEFINED_HEIGHT_END
  0
MTEXT
  5
140
330
A
100
AcDbEntity
  8
template
 62
     7
390
1D
100
AcDbMText
 10
282.0000000004994
 20
-1248.235975256294
 30
0.0
 40
24.4326171875
 41
0.0
 46
24.4326171875
 71
     1
 72
     1
  1
{27kg}
  7
ＭＳ ゴシック
 73
     1
 44
0.7828267384257843
1001
ACAD
1000
ACAD_MTEXT_DEFINED_HEIGHT_BEGIN
1070
    46
1040
24.4326171875
1000
ACAD_MTEXT_DEFINED_HEIGHT_END
  0
LINE
  5
141
330
A
100
AcDbEntity
  8
template
  6
Continuous
 62
     7
370
     5
390
1D
100
AcDbLine
 10
222.0000000004994
 20
-1381.238592443794
 30
0.0
 11
222.0000000004994
 21
-1126.238592443794
 31
0.0
  0
MTEXT
  5
142
330
A
100
AcDbEntity
  8
template
 62
     7
390
1D
100
AcDbMText
 10
-914.9999999997589
 20
-1248.235975256294
 30
0.0
 40
24.4326171875
 41
0.0
 46
0.0
 71
     1
 72
     1
  1
壁掛け/オーバーフロー付き/壁取付ボルト付属/\P陶器/ホワイト
  7
ＭＳ ゴシック
 73
     1
 44
1.304711230709641
  0
LINE
  5
48F
330
A
100
AcDbEntity
  8
0
100
AcDbLine
 10
-582.6719037230255
 20
573.6108039061512
 30
0.000000071419721
 11
-25.79936487438636
 21
573.6108039061533
 31
0.000000068084522
  0
ARC
  5
490
330
A
100
AcDbEntity
  8
0
100
AcDbCircle
 10
-25.79936487438636
 20
553.6108039061533
 30
0.0000000467325883
 40
20.0
100
AcDbArc
 50
0.0
 51
90.0
  0
ARC
  5
491
330
A
100
AcDbEntity
  8
0
100
AcDbCircle
 10
-582.6719037230255
 20
553.6108039061512
 30
0.0000000979351083
 40
20.0
100
AcDbArc
 50
90.0
 51
180.0
  0
LINE
  5
492
330
A
100
AcDbEntity
  8
0
100
AcDbLine
 10
-602.6719036572895
 20
371.8869923710952
 30
0.0000000527826776
 11
-602.6719037230255
 21
553.6108039061512
 31
0.0000000677777192
  0
LINE
  5
493
330
A
100
AcDbEntity
  8
0
100
AcDbLine
 10
-582.6719036572895
 20
351.8869923710952
 30
0.0000000525777938
 11
-25.79936480864944
 21
351.8869923710972
 31
0.0000000548881977
  0
ARC
  5
494
330
A
100
AcDbEntity
  8
0
100
AcDbCircle
 10
-582.6719036572895
 20
371.8869923710952
 30
0.0000000918736983
 40
20.0
100
AcDbArc
 50
180.0
 51
270.0
  0
LINE
  5
495
330
A
100
AcDbEntity
  8
0
100
AcDbLine
 10
-5.799364808649443
 20
371.8869923710972
 30
0.0000000550994351
 11
-5.799364874386356
 21
553.6108039061533
 31
0.0000000668398768
  0
ARC
  5
496
330
A
100
AcDbEntity
  8
0
100
AcDbCircle
 10
-25.79936480864944
 20
371.8869923710972
 30
0.0
 40
20.0
100
AcDbArc
 50
270.0
 51
0.0
  0
CIRCLE
  5
49A
330
A
100
AcDbEntity
  8
0
100
AcDbCircle
 10
-304.2356342797634
 20
501.2454456776222
 30
0.0000000618125777
 40
38.0
  0
ELLIPSE
  5
49F
330
A
100
AcDbEntity
  8
0
100
AcDbEllipse
 10
-304.3384383936632
 20
586.6825686374602
 30
0.0000000650410684
 11
-12.5
 21
0.0
 31
0.0
210
0.0
220
0.0
230
1.0
 40
0.087874375302903
 41
0.0
 42
6.283185307179586
  0
LINE
  5
4A0
102
{ACAD_REACTORS
330
C39
102
}
330
A
100
AcDbEntity
  8
0
100
AcDbLine
 10
-304.2356342797639
 20
239.2454456776222
 30
0.0000000599416622
 11
-779.2356342797634
 21
239.2454456776222
 31
0.0000000607505108
  0
LINE
  5
4A1
330
A
100
AcDbEntity
  8
0
100
AcDbLine
 10
-804.2356342797634
 20
264.2454456776222
 30
0.0000000625019217
 11
-804.2356342797634
 21
716.2454456776222
 31
0.0000000611872234
  0
ARC
  5
4A2
330
A
100
AcDbEntity
  8
0
100
AcDbCircle
 10
-779.2356342797634
 20
264.2454456776222
 30
0.0000000566428965
 40
25.0
100
AcDbArc
 50
180.0
 51
270.0
  0
LINE
  5
4A3
102
{ACAD_REACTORS
330
72A
102
}
330
A
100
AcDbEntity
  8
0
100
AcDbLine
 10
-801.2356342797634
 20
719.2454456776222
 30
0.0000000611961575
 11
-304.2356342797634
 21
719.2454456776222
 31
0.0000000618125777
  0
ARC
  5
4A4
102
{ACAD_REACTORS
330
6C3
102
}
330
A
100
AcDbEntity
  8
0
100
AcDbCircle
 10
-801.2356342797634
 20
716.2454456776222
 30
0.0000000541542206
 40
3.0
100
AcDbArc
 50
90.0
 51
180.0
  0
LINE
  5
4A5
330
A
100
AcDbEntity
  8
0
100
AcDbLine
 10
-304.2356342797634
 20
589.2454456776222
 30
0.0000000618125777
 11
-594.7356341677691
 21
589.2454456776222
 31
0.0000000555075604
  0
ARC
  5
4A6
330
A
100
AcDbEntity
  8
0
100
AcDbCircle
 10
-595.3498582555881
 20
560.0652299718472
 30
0.0000000418698305
 40
29.18667949365972
100
AcDbArc
 50
88.79414011127406
 51
171.7655858120675
  0
LINE
  5
4A7
330
A
100
AcDbEntity
  8
0
100
AcDbLine
 10
-624.2356342797634
 20
564.2454456776222
 30
0.000000059011881
 11
-624.2356342797634
 21
324.2454456776261
 31
0.0000000574849123
  0
ARC
  5
4A8
330
A
100
AcDbEntity
  8
0
100
AcDbCircle
 10
-599.2356342797634
 20
324.2454456776261
 30
0.0000000453902064
 40
25.0
100
AcDbArc
 50
180.0
 51
270.0
  0
LINE
  5
4A9
330
A
100
AcDbEntity
  8
0
100
AcDbLine
 10
-599.2356342797634
 20
299.2454456776261
 30
0.0000000576654182
 11
-304.2356342797634
 21
299.2454456776261
 31
0.0000000590496363
  0
LINE
  5
4AA
102
{ACAD_REACTORS
330
6C3
102
}
330
A
100
AcDbEntity
  8
0
100
AcDbLine
 10
195.7643657202366
 20
264.2454456776231
 30
0.0000000625019217
 11
195.7643657202366
 21
716.2454456776222
 31
0.0000000611872234
  0
ARC
  5
4AB
330
A
100
AcDbEntity
  8
0
100
AcDbCircle
 10
192.7643657202366
 20
716.2454456776222
 30
0.0000000647566551
 40
3.0
100
AcDbArc
 50
0.0
 51
90.0
  0
LINE
  5
4AC
102
{ACAD_REACTORS
330
6F7
102
}
330
A
100
AcDbEntity
  8
0
100
AcDbLine
 10
192.7643657202366
 20
719.2454456776222
 30
0.0000000611961575
 11
-304.2356342797634
 21
719.2454456776222
 31
0.0000000618125777
  0
LINE
  5
4AD
330
A
100
AcDbEntity
  8
0
100
AcDbLine
 10
-304.2356342797634
 20
589.2454456776222
 30
0.0000000618125777
 11
-13.73563439167219
 21
589.2454456776243
 31
0.000000046344506
  0
LINE
  5
4AE
330
A
100
AcDbEntity
  8
0
100
AcDbLine
 10
-9.235634279763417
 20
299.2454456776281
 30
0.0000000450641151
 11
-304.2356342797634
 21
299.2454456776261
 31
0.0000000590496363
  0
CIRCLE
  5
4AF
330
A
100
AcDbEntity
  8
0
100
AcDbCircle
 10
-304.2356342797634
 20
501.2454456776222
 30
0.0000000618125777
 40
22.49999999999818
  0
LINE
  5
4B0
330
A
100
AcDbEntity
  8
0
100
AcDbLine
 10
-304.2356342797625
 20
239.2454456776222
 30
0.0000000599416622
 11
170.7643657202366
 21
239.2454456776231
 31
0.0000000607505108
  0
ARC
  5
4B1
102
{ACAD_REACTORS
330
6F7
330
71B
102
}
330
A
100
AcDbEntity
  8
0
100
AcDbCircle
 10
170.7643657202366
 20
264.2454456776231
 30
0.0000000486923198
 40
25.0
100
AcDbArc
 50
270.0
 51
0.0
  0
ARC
  5
4B2
330
A
100
AcDbEntity
  8
0
100
AcDbCircle
 10
-13.12141030393832
 20
560.0652299718472
 30
0.0000000557641499
 40
29.18667949365972
100
AcDbArc
 50
8.234414187932522
 51
91.20585988873042
  0
LINE
  5
4B3
330
A
100
AcDbEntity
  8
0
100
AcDbLine
 10
15.76436572023658
 20
564.2454456776222
 30
0.000000059011881
 11
15.76436572023658
 21
324.2454456776261
 31
0.0000000574849123
  0
ARC
  5
4B4
330
A
100
AcDbEntity
  8
0
100
AcDbCircle
 10
-9.235634279763417
 20
324.2454456776261
 30
0.0000000483619243
 40
25.0
100
AcDbArc
 50
270.0
 51
0.0
  0
ARC
  5
4B5
330
A
100
AcDbEntity
  8
0
  6
Continuous
100
AcDbCircle
 10
-582.4693695677065
 20
-468.9747221487392
 30
0.0000001049133791
 40
38.0
100
AcDbArc
 50
211.0974139550953
 51
266.9999999999944
  0
LINE
  5
4B6
102
{ACAD_REACTORS
330
781
102
}
330
A
100
AcDbEntity
  8
0
  6
Continuous
100
AcDbLine
 10
189.6587207236125
 20
-376.0757221254594
 30
0.0000001065971858
 11
-798.1299908232036
 21
-376.0757221254594
 31
0.0000001065971858
  0
ARC
  5
4B7
102
{ACAD_REACTORS
330
76E
102
}
330
A
100
AcDbEntity
  8
0
  6
Continuous
100
AcDbCircle
 10
-798.1299908231927
 20
-382.0757221254703
 30
0.0000001065971858
 40
6.000000000010687
100
AcDbArc
 50
90.00000000010422
 51
180.9999999998697
  0
LINE
  5
4B8
330
A
100
AcDbEntity
  8
0
  6
Continuous
100
AcDbLine
 10
-804.129076994142
 20
-382.1804365640801
 30
0.0000001065971858
 11
-803.5530598515102
 21
-415.1804365640833
 31
0.0000001065971858
  0
ARC
  5
4B9
330
A
100
AcDbEntity
  8
0
  6
Continuous
100
AcDbCircle
 10
-797.5539736805731
 20
-415.0757221254603
 30
0.0000001065971858
 40
5.999999999998693
100
AcDbArc
 50
180.999999999989
 51
269.9999999998046
  0
LINE
  5
4BA
330
A
100
AcDbEntity
  8
0
  6
Continuous
100
AcDbLine
 10
-412.8612148837769
 20
-515.9258879816994
 30
0.0000001065971858
 11
-584.4581359049384
 21
-506.9226444694132
 31
0.0000001048692884
  0
LINE
  5
4BB
330
A
100
AcDbEntity
  8
0
  6
Continuous
100
AcDbLine
 10
-272.0391666965215
 20
-556.1049300349102
 30
0.0000001065971858
 11
-336.43210360391
 21
-556.1049300349102
 31
0.0000001065971858
  0
ARC
  5
4BC
330
A
100
AcDbEntity
  8
0
  6
Continuous
100
AcDbCircle
 10
-26.00190053187362
 20
-468.9747221487392
 30
0.0000001049133791
 40
38.0
100
AcDbArc
 50
273.0000000000056
 51
328.9025860449058
  0
ARC
  5
4BD
330
A
100
AcDbEntity
  8
0
  6
Continuous
100
AcDbCircle
 10
189.6587207236125
 20
-382.0757221254703
 30
0.0000001065971858
 40
6.000000000010687
100
AcDbArc
 50
359.0000000001302
 51
89.99999999989578
  0
LINE
  5
4BE
330
A
100
AcDbEntity
  8
0
  6
Continuous
100
AcDbLine
 10
195.6578068945614
 20
-382.1804365640801
 30
0.0000001065971858
 11
195.0817897519296
 21
-415.1804365640833
 31
0.0000001065971858
  0
ARC
  5
4BF
330
A
100
AcDbEntity
  8
0
  6
Continuous
100
AcDbCircle
 10
189.0827035809925
 20
-415.0757221254603
 30
0.0000001065971858
 40
5.999999999998693
100
AcDbArc
 50
270.0000000001954
 51
359.000000000011
  0
LINE
  5
4C0
330
A
100
AcDbEntity
  8
0
  6
Continuous
100
AcDbLine
 10
189.0827035810134
 20
-421.0757221254594
 30
0.0000001065971858
 11
-797.5539736805731
 21
-421.0757221254594
 31
0.0000001065971858
  0
LINE
  5
4C1
330
A
100
AcDbEntity
  8
0
  6
Continuous
100
AcDbLine
 10
-195.0523083286016
 20
-515.8966712153415
 30
0.0000001065971858
 11
-24.01313419464259
 21
-506.9226444694132
 31
0.0000001048692884
  0
ARC
  5
4C2
330
A
100
AcDbEntity
  8
0
  6
Continuous
100
AcDbCircle
 10
-743.4519642899718
 20
-566.0757221254594
 30
0.0000001248614854
 40
150.0
100
AcDbArc
 50
31.09741395509469
 51
75.16488841803093
  0
ARC
  5
4C3
330
A
100
AcDbEntity
  8
0
  6
Continuous
100
AcDbCircle
 10
134.9806941904453
 20
-566.0757221254594
 30
0.0000001718222377
 40
150.0
100
AcDbArc
 50
104.8351115819691
 51
148.9025860448909
  0
LWPOLYLINE
  5
4C4
330
A
100
AcDbEntity
  8
0
  6
Continuous
100
AcDbPolyline
 90
        9
 70
     0
 43
0.0
 38
0.0000001065971858
 10
-409.2169506625855
 20
-519.4506873286223
 10
-409.3346798495973
 20
-518.7839163935641
 10
-409.5667126254762
 20
-518.1478690302833
 10
-409.9060070590699
 20
-517.5619467890724
 10
-410.3422634677613
 20
-517.0441664851173
 10
-410.8622219638551
 20
-516.6105002558693
 10
-411.4499523715699
 20
-516.2743567622165
 10
-412.0873501376832
 20
-516.0461119807223
 10
-412.8612148837769
 20
-515.9258879816994
  0
LINE
  5
4C5
330
A
100
AcDbEntity
  8
0
  6
Continuous
100
AcDbLine
 10
-409.216948733123
 20
-519.4506876868281
 30
0.0000001065971858
 11
-409.1119357242924
 21
-520.6509318587841
 31
0.0000001065971858
  0
LWPOLYLINE
  5
4C6
330
A
100
AcDbEntity
  8
0
  6
Continuous
100
AcDbPolyline
 90
        8
 70
     0
 43
0.0
 38
0.0000001065971858
 10
-406.1232006625855
 20
-523.3894652522063
 10
-406.745866067859
 20
-523.3241805232033
 10
-407.3412334994996
 20
-523.1307372248634
 10
-407.8837750034058
 20
-522.8182372248634
 10
-408.3494808749879
 20
-522.4003447688083
 10
-408.7181713657105
 20
-521.8945349848723
 10
-408.9744122104371
 20
-521.3228987849211
 10
-409.1119320468629
 20
-520.6509322321872
  0
LWPOLYLINE
  5
4C7
330
A
100
AcDbEntity
  8
0
  6
Continuous
100
AcDbPolyline
 90
        9
 70
     0
 43
0.0
 38
0.0000001065971858
 10
-199.3026974277227
 20
-520.0036162531833
 10
-199.1628201083863
 20
-519.2171248591403
 10
-198.8863232211797
 20
-518.4677237666115
 10
-198.4818890170777
 20
-517.7788542902922
 10
-197.9622051791875
 20
-517.1722029841403
 10
-197.3435299472535
 20
-516.6668814814543
 10
-196.6453030185426
 20
-516.2788314021095
 10
-195.8895428256715
 20
-516.0202559626564
 10
-195.0523083286016
 20
-515.8966712153415
  0
LWPOLYLINE
  5
4C8
330
A
100
AcDbEntity
  8
0
  6
Continuous
100
AcDbPolyline
 90
        9
 70
     0
 43
0.0
 38
0.0000001065971858
 10
-409.2169506625855
 20
-519.4506873286223
 10
-409.3346798495973
 20
-518.7839163935641
 10
-409.5667126254762
 20
-518.1478690302833
 10
-409.9060070590699
 20
-517.5619467890724
 10
-410.3422634677613
 20
-517.0441664851173
 10
-410.8622219638551
 20
-516.6105002558693
 10
-411.4499523715699
 20
-516.2743567622165
 10
-412.0873501376832
 20
-516.0461119807223
 10
-412.8612148837769
 20
-515.9258879816994
  0
LINE
  5
4C9
330
A
100
AcDbEntity
  8
0
  6
Continuous
100
AcDbLine
 10
-202.3480694369996
 20
-523.3894652522063
 30
0.0000001065971858
 11
-406.1232022027089
 21
-523.3894646305403
 31
0.0000001065971858
  0
LINE
  5
4CA
330
A
100
AcDbEntity
  8
0
  6
Continuous
100
AcDbLine
 10
-409.216948733123
 20
-519.4506876868281
 30
0.0000001065971858
 11
-409.1119357242924
 21
-520.6509318587841
 31
0.0000001065971858
  0
LINE
  5
4CB
330
A
100
AcDbEntity
  8
0
  6
Continuous
100
AcDbLine
 10
-199.3593343752923
 20
-520.6509318587841
 30
0.0000001065971858
 11
-199.3026986788404
 21
-520.0036152515531
 31
0.0000001065971858
  0
LWPOLYLINE
  5
4CC
330
A
100
AcDbEntity
  8
0
  6
Continuous
100
AcDbPolyline
 90
        8
 70
     0
 43
0.0
 38
0.0000001065971858
 10
-202.3480694369996
 20
-523.3894652522063
 10
-201.7256939487183
 20
-523.3241690791115
 10
-201.1298000888546
 20
-523.1307410395602
 10
-200.5873577670777
 20
-522.8183402216891
 10
-200.1218807773316
 20
-522.4002265131935
 10
-199.7530911044796
 20
-521.8942832148532
 10
-199.4968655185426
 20
-521.3231085932712
 10
-199.3593380527227
 20
-520.6509322321872
  0
LWPOLYLINE
  5
4CD
330
A
100
AcDbEntity
  8
0
  6
Continuous
100
AcDbPolyline
 90
        8
 70
     0
 43
0.0
 38
0.0000001065971858
 10
-406.1232006625855
 20
-523.3894652522063
 10
-406.745866067859
 20
-523.3241805232033
 10
-407.3412334994996
 20
-523.1307372248634
 10
-407.8837750034058
 20
-522.8182372248634
 10
-408.3494808749879
 20
-522.4003447688083
 10
-408.7181713657105
 20
-521.8945349848723
 10
-408.9744122104371
 20
-521.3228987849211
 10
-409.1119320468629
 20
-520.6509322321872
  0
LINE
  5
4CE
330
A
100
AcDbEntity
  8
0
  6
Continuous
100
AcDbLine
 10
-269.0460407809942
 20
-553.3079086459031
 30
0.0000001065971858
 11
-267.1045062782296
 21
-525.9779961952545
 31
0.0000001065971858
  0
LINE
  5
4CF
330
A
100
AcDbEntity
  8
0
  6
Continuous
100
AcDbLine
 10
-341.3667637635976
 20
-525.9779970469531
 30
0.0000001065971858
 11
-339.4252290141512
 21
-553.3079085524175
 31
0.0000001065971858
  0
LWPOLYLINE
  5
4D0
330
A
100
AcDbEntity
  8
0
  6
Continuous
100
AcDbPolyline
 90
        8
 70
     0
 43
0.0
 38
0.0000001065971858
 10
-272.0391666965215
 20
-556.1049300349102
 10
-271.4069264011114
 20
-556.0375471106524
 10
-270.8031628207891
 20
-555.8384256577845
 10
-270.2547810153692
 20
-555.5165970838414
 10
-269.7868664340704
 20
-555.0863402998796
 10
-269.4200642184942
 20
-554.5672007716055
 10
-269.1703045444219
 20
-553.9821804678784
 10
-269.0460407809942
 20
-553.3079086459031
  0
ARC
  5
4D1
330
A
100
AcDbEntity
  8
0
  6
Continuous
100
AcDbCircle
 10
-336.43210360391
 20
-553.1049300349102
 30
0.0000001065971858
 40
2.999999999999995
100
AcDbArc
 50
183.8795679633102
 51
270.0
  0
LWPOLYLINE
  5
4D2
330
A
100
AcDbEntity
  8
0
  6
Continuous
100
AcDbPolyline
 90
        4
 70
     0
 43
0.0
 38
0.0000001065971858
 10
-266.4659762940219
 20
-523.3894650565994
 10
-266.6573536472047
 20
-523.8300170100192
 10
-266.9496586398805
 20
-524.8633879816994
 10
-267.104508645984
 20
-525.9779967463473
  0
LWPOLYLINE
  5
4D3
330
A
100
AcDbEntity
  8
0
  6
Continuous
100
AcDbPolyline
 90
        4
 70
     0
 43
0.0
 38
0.0000001065971858
 10
-341.3667652682984
 20
-525.9779967463473
 10
-341.5124790744508
 20
-524.9072608149513
 10
-341.8010685519898
 20
-523.8659514582614
 10
-342.005608958596
 20
-523.3894648261471
  0
DIMENSION
  5
6C1
102
{ACAD_REACTORS
330
6C3
102
}
102
{ACAD_XDICTIONARY
360
6C2
102
}
330
A
100
AcDbEntity
  8
template
  6
Continuous
370
     0
100
AcDbDimension
  2
*D5
 10
195.7643657202366
 20
892.0484454723759
 30
0.0
 11
-304.2356342797634
 21
914.2647540661259
 31
0.0
 70
    32
 71
     5
 42
1000.0
 73
     0
 74
     0
 75
     0
  3
tform線あり
100
AcDbAlignedDimension
 13
-804.2356342797634
 23
716.2454456776222
 33
0.0000000541542206
 14
195.7643657202366
 24
716.2454456776222
 34
0.0000000611872234
100
AcDbRotatedDimension
1001
ACAD
1000
DSTYLE
1002
{
1070
   147
1040
10.0
1070
   341
1005
0
1002
}
  0
CIRCLE
  5
6D2
102
{ACAD_REACTORS
330
6E5
102
}
330
A
100
AcDbEntity
  8
0
  6
STYLE_11
 48
2.0
100
AcDbCircle
 10
-204.3256342797636
 20
653.7000002768411
 30
0.0000000627196568
 40
17.5
  0
CIRCLE
  5
6D3
102
{ACAD_REACTORS
330
6D6
102
}
330
A
100
AcDbEntity
  8
0
  6
STYLE_11
 48
2.0
100
AcDbCircle
 10
-404.3256342797636
 20
653.7000002768411
 30
0.0000000627196568
 40
17.5
  0
DIMENSION
  5
6D4
102
{ACAD_REACTORS
330
6D6
102
}
102
{ACAD_XDICTIONARY
360
6D5
102
}
330
A
100
AcDbEntity
  8
template
  6
Continuous
370
     0
100
AcDbDimension
  2
*D6
 10
-404.3256342797636
 20
805.3067828904777
 30
0.0
 11
-354.3256342797636
 21
827.5230914842277
 31
0.0
 70
    32
 71
     5
 42
100.0
 73
     0
 74
     0
 75
     0
  3
tform線あり
100
AcDbAlignedDimension
 13
-304.3256342797636
 23
671.2000002768411
 33
0.0000000627196568
 14
-404.3256342797636
 24
671.2000002768411
 34
0.0000000627196568
100
AcDbRotatedDimension
1001
ACAD
1000
DSTYLE
1002
{
1070
   147
1040
10.0
1070
   341
1005
0
1002
}
  0
DIMENSION
  5
6E3
102
{ACAD_REACTORS
330
6E5
102
}
102
{ACAD_XDICTIONARY
360
6E4
102
}
330
A
100
AcDbEntity
  8
template
  6
Continuous
370
     0
100
AcDbDimension
  2
*D7
 10
-204.3256342797636
 20
805.3067828904777
 30
0.0
 11
-254.3256342797636
 21
827.5230914842277
 31
0.0
 70
    32
 71
     5
 42
100.0
 73
     0
 74
     0
 75
     0
  3
tform線あり
100
AcDbAlignedDimension
 13
-304.3256342797636
 23
671.2000002768411
 33
0.0
 14
-204.3256342797636
 24
671.2000002768411
 34
0.0000000627196568
100
AcDbRotatedDimension
1001
ACAD
1000
DSTYLE
1002
{
1070
   147
1040
10.0
1070
   341
1005
0
1002
}
  0
CIRCLE
  5
6F3
330
A
100
AcDbEntity
  8
notes
  6
STYLE_12
 62
     7
370
     5
390
1D
100
AcDbCircle
 10
-684.2699263775935
 20
47.25718050845092
 30
0.0000000541542206
 40
17.50000000000011
  0
MTEXT
  5
6F4
330
A
100
AcDbEntity
  8
notes
 62
     7
390
1D
100
AcDbMText
 10
-656.5768419925639
 20
57.82868222225414
 30
0.0000000541542206
 40
24.4326171875
 41
842.8831565639147
 46
68.27975785302667
 71
     1
 72
     1
  1
{=φ30もしくはφ35の水栓取付用穴あけ加工を承ります。\P 必要な場合、ご注文の際にご指示ください。}
  7
ＭＳ ゴシック
 73
     1
 44
1.043768984567712
1001
ACAD
1000
ACAD_MTEXT_DEFINED_HEIGHT_BEGIN
1070
    46
1040
68.27975785302667
1000
ACAD_MTEXT_DEFINED_HEIGHT_END
  0
DIMENSION
  5
6F5
102
{ACAD_REACTORS
330
6F7
102
}
102
{ACAD_XDICTIONARY
360
6F6
102
}
330
A
100
AcDbEntity
  8
template
  6
Continuous
370
     0
100
AcDbDimension
  2
*D8
 10
264.2788674579191
 20
239.2454456776231
 30
0.0
 11
242.0625588641691
 21
479.2454456776227
 31
0.0
 70
    32
 71
     5
 42
479.9999999999991
 73
     0
 74
     0
 75
     0
  3
tform線あり
100
AcDbAlignedDimension
 13
192.7643657202366
 23
719.2454456776222
 33
0.0000000611961575
 14
170.7643657202366
 24
239.2454456776231
 34
0.0000000486923198
 50
90.0
100
AcDbRotatedDimension
1001
ACAD
1000
DSTYLE
1002
{
1070
   147
1040
10.0
1070
   341
1005
0
1002
}
  0
DIMENSION
  5
70A
330
A
100
AcDbEntity
  8
template
  6
Continuous
370
     0
100
AcDbDimension
  2
*D9
 10
15.76436572023658
 20
104.3015194419801
 30
0.0000000541542206
 11
-304.2356342797634
 21
126.5178280357301
 31
0.0000000541542206
 70
    32
 71
     5
 42
640.0
 73
     0
 74
     0
 75
     0
  3
tform線あり
100
AcDbAlignedDimension
 13
-624.2356342797634
 23
239.2454456776222
 33
0.0000000604865707
 14
15.76436572023658
 24
239.2454456776229
 34
0.0000000541542206
100
AcDbRotatedDimension
1001
ACAD
1000
DSTYLE
1002
{
1070
   147
1040
10.0
1070
   341
1005
0
1002
}
  0
DIMENSION
  5
719
102
{ACAD_REACTORS
330
71B
102
}
102
{ACAD_XDICTIONARY
360
71A
102
}
330
A
100
AcDbEntity
  8
template
  6
Continuous
370
     0
100
AcDbDimension
  2
*D10
 10
195.7643657202366
 20
104.3015194419801
 30
0.0000000541542206
 11
105.7643657202366
 21
126.5178280357301
 31
0.0000000541542206
 70
    32
 71
     5
 42
180.0
 73
     0
 74
     0
 75
     0
  3
tform線あり
100
AcDbAlignedDimension
 13
15.76436572023658
 23
239.2454456776229
 33
0.0000000604865707
 14
195.7643657202366
 24
264.2454456776231
 34
0.0000000486923198
100
AcDbRotatedDimension
1001
ACAD
1000
DSTYLE
1002
{
1070
   147
1040
10.0
1070
   341
1005
0
1002
}
  0
DIMENSION
  5
728
102
{ACAD_REACTORS
330
72A
102
}
102
{ACAD_XDICTIONARY
360
729
102
}
330
A
100
AcDbEntity
  8
template
  6
Continuous
370
     0
100
AcDbDimension
  2
*D11
 10
-873.4971469417878
 20
589.251909465507
 30
0.0000000541542206
 11
-895.7134555355378
 21
654.2486775715646
 31
0.0000000541542206
 70
    32
 71
     5
 42
129.9935362121153
 73
     0
 74
     0
 75
     0
  3
tform線あり
100
AcDbAlignedDimension
 13
-801.2356342797634
 23
719.2454456776222
 33
0.0000000611961575
 14
-804.2356342797634
 24
589.251909465507
 34
0.0000000615565999
 50
90.0
100
AcDbRotatedDimension
1001
ACAD
1000
DSTYLE
1002
{
1070
   147
1040
10.0
1070
   341
1005
0
1002
}
  0
CIRCLE
  5
739
330
A
100
AcDbEntity
  8
ADF70-2003
  6
STYLE_12
 62
     7
370
    15
390
1D
100
AcDbCircle
 10
-164.2356350497953
 20
-416.0757221254594
 30
0.0000001065971858
 40
10.0
  0
LINE
  5
73A
102
{ACAD_REACTORS
330
75F
102
}
330
A
100
AcDbEntity
  8
ADF70-2003
  6
STYLE_12
 62
     7
370
    15
390
1D
100
AcDbLine
 10
-164.2356350497953
 20
-396.0908808706144
 30
0.0000001065971858
 11
-164.2356350497953
 21
-436.0605633803045
 31
0.0000001065971858
  0
LINE
  5
73B
330
A
100
AcDbEntity
  8
ADF70-2003
  6
STYLE_12
 62
     7
370
    15
390
1D
100
AcDbLine
 10
-144.2507937949499
 20
-416.0757221254594
 30
0.0000001065971858
 11
-184.2204763046407
 21
-416.0757221254594
 31
0.0000001065971858
  0
CIRCLE
  5
73C
330
A
100
AcDbEntity
  8
ADF70-2003
  6
STYLE_12
 62
     7
370
    15
390
1D
100
AcDbCircle
 10
-444.2356350497953
 20
-416.0757221254594
 30
0.0000001065971858
 40
10.0
  0
LINE
  5
73D
102
{ACAD_REACTORS
330
75F
102
}
330
A
100
AcDbEntity
  8
ADF70-2003
  6
STYLE_12
 62
     7
370
    15
390
1D
100
AcDbLine
 10
-444.2356350497953
 20
-396.0908808706144
 30
0.0000001065971858
 11
-444.2356350497953
 21
-436.0605633803045
 31
0.0000001065971858
  0
LINE
  5
73E
102
{ACAD_REACTORS
330
76E
102
}
330
A
100
AcDbEntity
  8
ADF70-2003
  6
STYLE_12
 62
     7
370
    15
390
1D
100
AcDbLine
 10
-424.2507937949499
 20
-416.0757221254594
 30
0.0000001065971858
 11
-464.2204763046407
 21
-416.0757221254594
 31
0.0000001065971858
  0
DIMENSION
  5
75D
102
{ACAD_REACTORS
330
75F
102
}
102
{ACAD_XDICTIONARY
360
75E
102
}
330
A
100
AcDbEntity
  8
template
  6
Continuous
370
     0
100
AcDbDimension
  2
*D12
 10
-164.2356350497953
 20
-274.2244091224965
 30
0.0000000541542206
 11
-304.2356350497953
 21
-252.0081005287465
 31
0.0000000541542206
 70
    32
 71
     5
 42
280.0
 73
     0
 74
     0
 75
     0
  3
tform線あり
100
AcDbAlignedDimension
 13
-444.2356350497953
 23
-396.0908808706144
 33
0.0000001065971858
 14
-164.2356350497953
 24
-396.0908808706144
 34
0.0000001065971858
100
AcDbRotatedDimension
1001
ACAD
1000
DSTYLE
1002
{
1070
   147
1040
10.0
1070
   341
1005
0
1002
}
  0
DIMENSION
  5
76C
102
{ACAD_REACTORS
330
76E
102
}
102
{ACAD_XDICTIONARY
360
76D
102
}
330
A
100
AcDbEntity
  8
template
  6
Continuous
370
     0
100
AcDbDimension
  2
*D13
 10
-866.9386797571838
 20
-416.0757221254594
 30
0.0000000541542206
 11
-889.1549883509338
 21
-396.0757221254595
 31
0.0000000541542206
 70
    32
 71
     5
 42
39.99999999999964
 73
     0
 74
     1
 75
     1
  3
tform線あり
100
AcDbAlignedDimension
 13
-798.1299908231927
 23
-376.0757221254597
 33
0.0000001065971858
 14
-464.2204763046407
 24
-416.0757221254594
 34
0.0000001065971858
 50
90.0
100
AcDbRotatedDimension
1001
ACAD
1000
DSTYLE
1002
{
1070
   147
1040
10.0
1070
   341
1005
0
1002
}
  0
MTEXT
  5
77D
330
A
100
AcDbEntity
  8
notes
 62
     7
390
1D
100
AcDbMText
 10
-99.6805822024312
 20
-296.3635126931226
 30
0.0000000541542206
 40
24.4326171875
 41
0.0
 46
0.0
 71
     1
 72
     1
  1
壁取付ボルト穴(2ヶ所)
  7
ＭＳ ゴシック
 73
     1
 44
0.7828267384257843
  0
LINE
  5
77E
330
A
100
AcDbEntity
  8
notes
  6
Continuous
 62
     7
370
     5
390
1D
100
AcDbLine
 10
-164.2000079891991
 20
-416.1218048050594
 30
0.0000000541542206
 11
-78.75395098307717
 21
-330.675747798936
 31
0.0000000541542206
  0
DIMENSION
  5
77F
102
{ACAD_REACTORS
330
781
102
}
102
{ACAD_XDICTIONARY
360
780
102
}
330
A
100
AcDbEntity
  8
template
  6
Continuous
370
     0
100
AcDbDimension
  2
*D14
 10
264.2788674579191
 20
-556.1049300349102
 30
0.0000000541542206
 11
242.0625588641691
 21
-466.0903260801848
 31
0.0000000541542206
 70
    32
 71
     5
 42
180.0292079094508
 73
     0
 74
     0
 75
     0
  3
tform線あり
100
AcDbAlignedDimension
 13
189.6587207236125
 23
-376.0757221254594
 33
0.0000001065971858
 14
-272.0391666965215
 24
-556.1049300349102
 34
0.0000001065971858
 50
90.0
100
AcDbRotatedDimension
1001
ACAD
1000
DSTYLE
1002
{
1070
   147
1040
10.0
1070
   341
1005
0
1002
}
  0
ARC
  5
88D
330
A
100
AcDbEntity
  8
0
  6
STYLE_09
100
AcDbCircle
 10
722.3939485796043
 20
-471.5068599336751
 30
0.0000001065971858
 40
29.22686383427451
100
AcDbArc
 50
289.1728357695387
 51
354.9999999998165
  0
ARC
  5
88E
330
A
100
AcDbEntity
  8
0
  6
STYLE_09
100
AcDbCircle
 10
773.8265646014913
 20
-391.0757221254594
 30
0.0000001065971858
 40
15.0
100
AcDbArc
 50
90.0
 51
174.9999999998171
  0
LWPOLYLINE
  5
890
330
A
100
AcDbEntity
  8
0
  6
STYLE_09
100
AcDbPolyline
 90
        2
 70
   128
 43
0.0
 38
0.0000001065971858
 10
713.1322523562214
 20
-505.6704100764264
 10
731.9926039187214
 20
-499.1125716364846
  0
LINE
  5
891
330
A
100
AcDbEntity
  8
0
  6
STYLE_09
100
AcDbLine
 10
731.9926039187214
 20
-499.1125716364846
 30
0.0000001065971858
 11
713.1323643287567
 21
-505.6703711430164
 31
0.0000001065971858
  0
ARC
  5
892
330
A
100
AcDbEntity
  8
0
  6
STYLE_09
100
AcDbCircle
 10
718.0586432019361
 20
-519.8383553490935
 30
0.0000001065971858
 40
15.0
100
AcDbArc
 50
109.1728185149992
 51
130.0000000000188
  0
LINE
  5
893
330
A
100
AcDbEntity
  8
0
  6
STYLE_09
100
AcDbLine
 10
708.4168290566374
 20
-508.3476887023094
 30
0.0000001065971858
 11
696.7997241692324
 21
-518.0955971286794
 31
0.0000001065971858
  0
ARC
  5
894
330
A
100
AcDbEntity
  8
0
  6
STYLE_09
100
AcDbCircle
 10
698.7280869982924
 20
-520.3937304580363
 30
0.0000001065971858
 40
3.0
100
AcDbArc
 50
130.0000000000148
 51
179.0000000000243
  0
LINE
  5
8A2
330
A
100
AcDbEntity
  8
0
  6
STYLE_09
100
AcDbLine
 10
755.9852770820896
 20
-422.8968729357717
 30
0.0000001065971858
 11
765.9472240630064
 21
-423.7684303632491
 31
0.0000001065971858
  0
LINE
  5
8A3
330
A
100
AcDbEntity
  8
0
  6
STYLE_09
100
AcDbLine
 10
768.0389618889515
 20
-399.8597576090474
 30
0.0000001065971858
 11
758.0770149080333
 21
-398.9882001815704
 31
0.0000001065971858
  0
LINE
  5
8A4
330
A
100
AcDbEntity
  8
0
  6
STYLE_09
100
AcDbLine
 10
695.7285439128225
 20
-520.3413732387244
 30
0.0000001065971858
 11
695.5489084741264
 21
-530.6326806291463
 31
0.0000001065971858
  0
LINE
  5
8A5
330
A
100
AcDbEntity
  8
0
  6
STYLE_09
100
AcDbLine
 10
695.3394476949884
 20
-542.6326806291463
 30
0.0000001065971858
 11
695.0815971224745
 21
-557.4049300349225
 31
0.0000001065971858
  0
LWPOLYLINE
  5
8A6
330
A
100
AcDbEntity
  8
0
  6
Continuous
100
AcDbPolyline
 90
       20
 70
   128
 43
0.0
 38
0.0000001065971858
 10
782.7750575436062
 20
-506.6918173967502
 10
782.4554296938675
 20
-507.7956236994724
 10
781.5353399721887
 20
-510.4181784785256
 10
780.4709555117386
 20
-512.9855498469333
 10
779.2655416933792
 20
-515.4897994196876
 10
777.9228216616414
 20
-517.9231871760353
 10
776.4469992129104
 20
-520.2782363093361
 10
774.8425833193567
 20
-522.5476226008404
 10
773.1145636050003
 20
-524.7243727839455
 10
771.2682501284387
 20
-526.8017291224464
 10
769.3093801943567
 20
-528.7733058131203
 10
767.2439733950393
 20
-530.6329802668556
 10
765.0784384218957
 20
-532.3750266230563
 10
762.8194509951375
 20
-533.9940528071384
 10
760.4739691225784
 20
-535.4850691950783
 10
758.0492941347854
 20
-536.8434580958351
 10
755.5529791323445
 20
-538.0649813807472
 10
752.9924932925003
 20
-539.1459750330914
 10
750.3755423037317
 20
-540.0830954707135
 10
747.6656271425984
 20
-540.8853758967384
  0
LWPOLYLINE
  5
8A8
330
A
100
AcDbEntity
  8
0
  6
Continuous
100
AcDbPolyline
 90
        4
 70
   128
 43
0.0
 38
0.0000001065971858
 10
747.6656271425984
 20
-540.8853701746925
 10
735.7571836916702
 20
-544.095733562754
 10
723.8754087893265
 20
-547.4033850825294
 10
709.4528509585164
 20
-551.5539120829567
  0
LWPOLYLINE
  5
8AE
330
A
100
AcDbEntity
  8
0
  6
Continuous
100
AcDbPolyline
 90
        7
 70
   128
 43
0.0
 38
0.0000001065971858
 10
709.4528509585164
 20
-551.5539120829567
 10
708.9022604433792
 20
-551.7749876177772
 10
708.4056402651565
 20
-552.1005348361005
 10
707.9829679934285
 20
-552.5169805682167
 10
707.6506887881067
 20
-553.0084189570412
 10
707.4214292971394
 20
-553.5559775031074
 10
707.2966963259476
 20
-554.2318150198921
  0
LINE
  5
8B0
330
A
100
AcDbEntity
  8
0
  6
Continuous
100
AcDbLine
 10
704.2780653445022
 20
-557.4049300349225
 30
0.0000001065971858
 11
695.0815968599875
 21
-557.4049300349225
 31
0.0000001065971858
  0
LWPOLYLINE
  5
8B1
330
A
100
AcDbEntity
  8
0
  6
Continuous
100
AcDbPolyline
 90
        8
 70
   128
 43
0.0
 38
0.0000001065971858
 10
707.2711912600296
 20
-554.6079086459144
 10
707.1612402407425
 20
-555.2338866389264
 10
706.9213568178914
 20
-555.8230858242973
 10
706.5632292238977
 20
-556.3482752240166
 10
706.1026464907425
 20
-556.7863359249104
 10
705.5597387758996
 20
-557.1173147058944
 10
704.9593931643265
 20
-557.3265348470673
 10
704.2780653445022
 20
-557.4049300349225
  0
LINE
  5
8BD
330
A
100
AcDbEntity
  8
0
  6
STYLE_09
100
AcDbLine
 10
751.5095953732264
 20
-474.0541489585694
 30
0.0000001065971858
 11
755.9852770820896
 21
-422.8968729357717
 31
0.0000001065971858
  0
LINE
  5
8BF
330
A
100
AcDbEntity
  8
0
  6
STYLE_09
100
AcDbLine
 10
758.0770149080333
 20
-398.9882001815704
 30
0.0000001065971858
 11
758.8836441301153
 21
-389.7683859842442
 31
0.0000001065971858
  0
LINE
  5
8C0
330
A
100
AcDbEntity
  8
0
  6
STYLE_09
100
AcDbLine
 10
758.0770149080333
 20
-398.9882001815704
 30
0.0000001065971858
 11
758.8836441301153
 21
-389.7683859842442
 31
0.0000001065971858
  0
LINE
  5
8C2
330
A
100
AcDbEntity
  8
0
  6
Continuous
100
AcDbLine
 10
890.0815986290374
 20
-443.5757221457112
 30
0.0000001065971858
 11
890.0815991555644
 21
-378.5757221457112
 31
0.0000001065971858
  0
LINE
  5
8C3
330
A
100
AcDbEntity
  8
0
  6
Continuous
100
AcDbLine
 10
887.5815991555644
 20
-376.0757221254594
 30
0.0000001065971858
 11
773.8265646014913
 21
-376.0757221254594
 31
0.0000001065971858
  0
ARC
  5
8C6
102
{ACAD_REACTORS
330
A5D
102
}
330
A
100
AcDbEntity
  8
0
  6
Continuous
100
AcDbCircle
 10
887.5815991555644
 20
-378.5757221254713
 30
0.0000001065971858
 40
2.500000000000057
100
AcDbArc
 50
359.9999995361148
 51
90.0
  0
ELLIPSE
  5
8D4
330
A
100
AcDbEntity
  8
0
  6
STYLE_09
100
AcDbEllipse
 10
695.4481533547244
 20
-536.6326806291463
 30
0.0000000972484476
 11
0.1047303895697935
 21
6.000000000000512
 31
0.0
210
0.0
220
0.0
230
-1.0
 40
0.2833345904345866
 41
3.141592653589793
 42
6.283185307179586
  0
LINE
  5
8D5
330
A
100
AcDbEntity
  8
0
  6
Continuous
100
AcDbLine
 10
707.2711912600296
 20
-554.6079086459144
 30
0.0000001065971858
 11
707.2966963259476
 21
-554.2318150198921
 31
0.0000001065971858
  0
LINE
  5
8D6
330
A
100
AcDbEntity
  8
0
  6
STYLE_09
100
AcDbLine
 10
755.9852770820896
 20
-422.8968729357717
 30
0.0000001065971858
 11
758.0770149080333
 21
-398.9882001815704
 31
0.0000001065971858
  0
LINE
  5
8D8
330
A
100
AcDbEntity
  8
0
  6
Continuous
100
AcDbLine
 10
695.0815968599875
 20
-557.4049300349225
 30
0.0000001065971858
 11
639.5690084902544
 21
-557.3712385727927
 31
0.0000001065971858
  0
LINE
  5
8D9
330
A
100
AcDbEntity
  8
0
  6
Continuous
100
AcDbLine
 10
545.2377150580414
 20
-521.0757221254603
 30
0.0
 11
633.2255606963579
 21
-521.0757221254603
 31
0.0
  0
LINE
  5
8DA
330
A
100
AcDbEntity
  8
0
  6
Continuous
100
AcDbLine
 10
460.1533135732984
 20
-376.0757221254594
 30
0.0000001065971858
 11
773.8265646014913
 21
-376.0757221254594
 31
0.0000001065971858
  0
LINE
  5
8DB
330
A
100
AcDbEntity
  8
0
  6
STYLE_09
100
AcDbLine
 10
710.3658401443206
 20
-507.3002616411691
 30
0.0000000972244017
 11
634.6669842933343
 21
-507.3002616411691
 31
0.0000000972244017
  0
LINE
  5
8DC
330
A
100
AcDbEntity
  8
0
  6
STYLE_09
100
AcDbLine
 10
696.0203310139984
 20
-519.329947761837
 30
0.0000000972484476
 11
648.1428629684633
 21
-519.329947761837
 31
0.0000000972484476
  0
LINE
  5
8DE
330
A
100
AcDbEntity
  8
0
100
AcDbLine
 10
883.6255736470437
 20
-506.6918173967502
 30
0.0000001065971858
 11
865.0815969912317
 21
-506.6918173967502
 31
0.0000001065971858
  0
LINE
  5
8E0
330
A
100
AcDbEntity
  8
0
100
AcDbLine
 10
890.0815969912317
 20
-443.8034727196865
 30
0.0000000963413685
 11
890.0815969912317
 21
-504.1918173967502
 31
0.0000001065971858
  0
ARC
  5
8E1
330
A
100
AcDbEntity
  8
0
100
AcDbCircle
 10
887.5815969912317
 20
-504.1918173967502
 30
0.0000001065971858
 40
2.5
100
AcDbArc
 50
270.0
 51
0.0
  0
LINE
  5
8E2
330
A
100
AcDbEntity
  8
0
100
AcDbLine
 10
887.5815969912317
 20
-506.6918173967502
 30
0.0000001065971858
 11
883.6255736470437
 21
-506.6918173967502
 31
0.0000001065971858
  0
LINE
  5
8E4
330
A
100
AcDbEntity
  8
0
100
AcDbLine
 10
865.0815969912317
 20
-506.6918173967502
 30
0.0000001065971858
 11
782.7750575436062
 21
-506.6918173967502
 31
0.0000001072091057
  0
LINE
  5
8EA
330
A
100
AcDbEntity
  8
0
  6
Continuous
100
AcDbLine
 10
415.1399901726886
 20
-421.0757221254594
 30
0.0000001065971858
 11
475.0602788143974
 21
-421.0757221254594
 31
0.0000001065971858
  0
LWPOLYLINE
  5
8ED
330
A
100
AcDbEntity
  8
0
  6
STYLE_09
100
AcDbPolyline
 90
        5
 70
   128
 43
0.0
 38
0.0000001065971858
 10
648.4346491305134
 20
-520.3413733637794
 10
648.3589941469925
 20
-519.7222785151466
 10
648.1569906679883
 20
-519.1322478449806
 10
647.8373629061484
 20
-518.5967749751076
 10
647.3634706942344
 20
-518.0955962336525
  0
LINE
  5
8EE
330
A
100
AcDbEntity
  8
0
  6
STYLE_09
100
AcDbLine
 10
649.0815968599884
 20
-557.4049300349225
 30
0.0000001065971858
 11
648.4346500696395
 21
-520.3413732387244
 31
0.0000001065971858
  0
LWPOLYLINE
  5
8EF
330
A
100
AcDbEntity
  8
0
  6
Continuous
100
AcDbPolyline
 90
       19
 70
   128
 43
0.0
 38
0.0000001065971858
 10
500.4663320986524
 20
-480.9286345637307
 10
501.5559927431843
 20
-483.3017272150974
 10
502.7815176455274
 20
-485.6075820124611
 10
504.1387869326375
 20
-487.8384474909768
 10
505.6232229677935
 20
-489.9867858088474
 10
507.2298208681843
 20
-492.0453643000583
 10
508.9531790224814
 20
-494.0072478449807
 10
510.7874533144734
 20
-495.8658217585544
 10
512.7265097109573
 20
-497.6148223078713
 10
514.7637716738484
 20
-499.2483596003518
 10
516.8924032656455
 20
-500.7609213984475
 10
519.1052175966993
 20
-502.1474150813083
 10
521.3947683779493
 20
-503.4031676447854
 10
523.7533194033404
 20
-504.5239447749123
 10
526.1729208437705
 20
-505.5059699213967
 10
528.6454550234573
 20
-506.3459357417092
 10
531.1625448672073
 20
-507.0410079157814
 10
533.7157370058794
 20
-507.5888480341897
 10
536.3669363466993
 20
-507.9963606989846
  0
LWPOLYLINE
  5
8F0
330
A
100
AcDbEntity
  8
0
  6
Continuous
100
AcDbPolyline
 90
       19
 70
   128
 43
0.0
 38
0.0000001065971858
 10
500.4663320986524
 20
-480.9286345637307
 10
501.5559927431843
 20
-483.3017272150974
 10
502.7815176455274
 20
-485.6075820124611
 10
504.1387869326375
 20
-487.8384474909768
 10
505.6232229677935
 20
-489.9867858088474
 10
507.2298208681843
 20
-492.0453643000583
 10
508.9531790224814
 20
-494.0072478449807
 10
510.7874533144734
 20
-495.8658217585544
 10
512.7265097109573
 20
-497.6148223078713
 10
514.7637716738484
 20
-499.2483596003518
 10
516.8924032656455
 20
-500.7609213984475
 10
519.1052175966993
 20
-502.1474150813083
 10
521.3947683779493
 20
-503.4031676447854
 10
523.7533194033404
 20
-504.5239447749123
 10
526.1729208437705
 20
-505.5059699213967
 10
528.6454550234573
 20
-506.3459357417092
 10
531.1625448672073
 20
-507.0410079157814
 10
533.7157370058794
 20
-507.5888480341897
 10
536.3669363466993
 20
-507.9963606989846
  0
ARC
  5
8F1
330
A
100
AcDbEntity
  8
0
  6
Continuous
100
AcDbCircle
 10
535.8161970560013
 20
-512.4625321022982
 30
0.0000001065971858
 40
4.500000000015611
100
AcDbArc
 50
5.000000001072253
 51
82.97012232191915
  0
ARC
  5
8F2
330
A
100
AcDbEntity
  8
0
  6
Continuous
100
AcDbCircle
 10
535.8161970551055
 20
-512.4625321022536
 30
0.0000001065971858
 40
4.50000000007867
100
AcDbArc
 50
4.99999999820049
 51
82.97012232087476
  0
LINE
  5
8F7
330
A
100
AcDbEntity
  8
0
  6
Continuous
100
AcDbLine
 10
544.0383625699124
 20
-521.0757221254603
 30
0.0
 11
545.2377122130633
 21
-521.0757221254603
 31
0.0
  0
LINE
  5
8F8
330
A
100
AcDbEntity
  8
0
  6
Continuous
100
AcDbLine
 10
541.0497824160354
 20
-518.3371897271059
 30
0.0
 11
540.2990731969865
 21
-512.0703312602286
 31
0.0000001065971858
  0
LWPOLYLINE
  5
8FB
330
A
100
AcDbEntity
  8
0
  6
Continuous
100
AcDbPolyline
 90
        8
 70
   128
 43
0.0
 10
541.0497824160354
 20
-518.3371897271059
 10
541.1690756289263
 20
-518.9514856865785
 10
541.4137045351763
 20
-519.5282335808656
 10
541.7721945254104
 20
-520.0413561394594
 10
542.2292868105674
 20
-520.4685984185126
 10
542.7654501406455
 20
-520.7918596794984
 10
543.3567739931843
 20
-520.9973116448305
 10
544.0383688418174
 20
-521.0757227471254
  0
ARC
  5
8FE
330
A
100
AcDbEntity
  8
0
  6
Continuous
100
AcDbCircle
 10
626.9348090114263
 20
-526.0180336533317
 30
0.0000001065971858
 40
8.000000000000032
100
AcDbArc
 50
3.879567963362399
 51
38.15485040058639
  0
ARC
  5
8FF
330
A
100
AcDbEntity
  8
0
  6
Continuous
100
AcDbCircle
 10
626.9348090114263
 20
-526.0180336533317
 30
0.0000001065971858
 40
7.999999999999999
100
AcDbArc
 50
3.879567963362399
 51
38.15485040058639
  0
LINE
  5
900
330
A
100
AcDbEntity
  8
0
  6
Continuous
100
AcDbLine
 10
636.8920032141514
 20
-554.6079113140495
 30
0.0000001065971858
 11
634.9164767720413
 21
-525.4767576066756
 31
0.0000001065971858
  0
LINE
  5
901
330
A
100
AcDbEntity
  8
0
  6
Continuous
100
AcDbLine
 10
649.0815971224745
 20
-557.4049300349225
 30
0.0000001065971858
 11
639.8851286379595
 21
-557.4049300349225
 31
0.0000001065971858
  0
LWPOLYLINE
  5
902
330
A
100
AcDbEntity
  8
0
  6
Continuous
100
AcDbPolyline
 90
        8
 70
   128
 43
0.0
 38
0.0000001065971858
 10
639.8851286379595
 20
-557.4049300349225
 10
639.2528883425493
 20
-557.3375471106633
 10
638.6491247622273
 20
-557.1384256577953
 10
638.1007429568074
 20
-556.8165970838531
 10
637.6328283755083
 20
-556.3863402998913
 10
637.2660261599324
 20
-555.8672007716164
 10
637.0162664858594
 20
-555.2821804678902
 10
636.8920027224324
 20
-554.6079086459144
  0
DIMENSION
  5
967
330
A
100
AcDbEntity
  8
template
  6
Continuous
370
     0
100
AcDbDimension
  2
*D15
 10
670.046058289257
 20
-634.8133618584582
 30
0.0
 11
780.0638276402443
 21
-612.5970532647082
 31
0.0
 70
    32
 71
     5
 42
220.0355387019747
 73
     0
 74
     0
 75
     0
  3
tform線あり
100
AcDbAlignedDimension
 13
890.0815969912317
 23
-498.8334958256814
 33
0.0000001065971858
 14
670.046058289257
 24
-557.38973557319
 34
0.0000001065971858
100
AcDbRotatedDimension
1001
ACAD
1000
DSTYLE
1002
{
1070
   147
1040
10.0
1070
   341
1005
0
1002
}
  0
DIMENSION
  5
976
330
A
100
AcDbEntity
  8
template
  6
Continuous
370
     0
100
AcDbDimension
  2
*D16
 10
364.4564099731373
 20
-421.0757221254603
 30
0.0
 11
342.2401013793873
 21
-398.5757221254598
 31
0.0
 70
    32
 71
     5
 42
45.00000000000091
 73
     0
 74
     1
 75
     1
  3
tform線あり
100
AcDbAlignedDimension
 13
411.3274194114806
 23
-376.0757221254594
 33
0.0000001065971858
 14
412.6528363273973
 24
-421.0757221254603
 34
0.0000001065971858
 50
90.0
100
AcDbRotatedDimension
1001
ACAD
1000
DSTYLE
1002
{
1070
   147
1040
10.0
1070
   341
1005
0
1002
}
  0
DIMENSION
  5
987
330
A
100
AcDbEntity
  8
template
  6
Continuous
370
     0
100
AcDbDimension
  2
*D17
 10
364.4564099731373
 20
-521.0757221254603
 30
0.0
 11
342.2401013793873
 21
-471.0757221254603
 31
0.0
 70
    32
 71
     5
 42
99.99999999999993
 73
     0
 74
     0
 75
     0
  3
tform線あり
100
AcDbAlignedDimension
 13
412.6528363273856
 23
-421.0757221254603
 33
0.0000001065971858
 14
534.6287344189287
 24
-521.0757221254603
 34
0.0000001065971858
 50
90.0
100
AcDbRotatedDimension
1001
ACAD
1000
DSTYLE
1002
{
1070
   147
1040
10.0
1070
   341
1005
0
1002
}
  0
DIMENSION
  5
996
330
A
100
AcDbEntity
  8
template
  6
Continuous
370
     0
100
AcDbDimension
  2
*D18
 10
-873.4971469417878
 20
309.2454456776261
 30
0.0
 11
-895.7134555355378
 21
449.2486775715665
 31
0.0
 70
    32
 71
     5
 42
280.0064637878809
 73
     0
 74
     0
 75
     0
  3
tform線あり
100
AcDbAlignedDimension
 13
-804.2356342797634
 23
589.251909465507
 33
0.0000000541542206
 14
-804.2356342797634
 24
309.2454456776261
 34
0.0000000624001198
 50
90.0
100
AcDbRotatedDimension
1001
ACAD
1000
DSTYLE
1002
{
1070
   147
1040
10.0
1070
   341
1005
0
1002
}
  0
LINE
  5
9AB
330
A
100
AcDbEntity
  8
0
  6
STYLE_09
100
AcDbLine
 10
-265.9513910798797
 20
-507.3002616411692
 30
0.0000000537089498
 11
-341.650246930866
 21
-507.3002616411692
 31
0.0000000537089498
  0
LINE
  5
9AC
330
A
100
AcDbEntity
  8
0
  6
STYLE_09
100
AcDbLine
 10
-280.2969002102019
 20
-519.3299477618372
 30
0.0000000537329957
 11
-328.174368255737
 21
-519.3299477618372
 31
0.0000000537329957
  0
LINE
  5
9AD
330
A
100
AcDbEntity
  8
template
  6
STYLE_09
370
     0
100
AcDbLine
 10
-341.650246930866
 20
-507.3002616411692
 30
0.0000000537089498
 11
-328.174368255737
 21
-519.3299477618372
 31
0.0000000537329957
  0
LINE
  5
9AE
330
A
100
AcDbEntity
  8
template
  6
STYLE_09
370
     0
100
AcDbLine
 10
-328.174368255737
 20
-519.3299477618372
 30
0.0000000537329957
 11
-328.174368255737
 21
-556.1049300349102
 31
0.0000001065971858
  0
LINE
  5
9AF
330
A
100
AcDbEntity
  8
template
  6
STYLE_09
370
     0
100
AcDbLine
 10
-265.9513910798797
 20
-507.3002616411692
 30
0.0000000537089498
 11
-280.2969002102019
 21
-519.3299477618372
 31
0.0000000537329957
  0
LINE
  5
9B0
330
A
100
AcDbEntity
  8
template
  6
STYLE_09
370
     0
100
AcDbLine
 10
-280.2969002102019
 20
-519.3299477618372
 30
0.0000000537329957
 11
-280.2969002102019
 21
-556.1049300349102
 31
0.0000001065971858
  0
ARC
  5
9E3
330
A
100
AcDbEntity
  8
0
  6
STYLE_09
100
AcDbCircle
 10
-573.2327063095513
 20
-463.3529323697278
 30
0.0000000602801984
 40
31.98157757692361
100
AcDbArc
 50
203.0000000000815
 51
263.1571814565433
  0
ARC
  5
A29
330
A
100
AcDbEntity
  8
0
  6
STYLE_09
100
AcDbCircle
 10
-633.0432070815724
 20
-391.0757221254939
 30
0.0000000582483966
 40
15.00000000003437
100
AcDbArc
 50
23.00000000009076
 51
89.99999999991968
  0
LINE
  5
A38
330
A
100
AcDbEntity
  8
template
  6
STYLE_09
370
     0
100
AcDbLine
 10
-619.2356342797634
 20
-385.2147551981195
 30
0.0000000582483966
 11
-602.6719036901204
 21
-475.849130267356
 31
0.0000000602801984
  0
LINE
  5
A39
330
A
100
AcDbEntity
  8
template
  6
STYLE_09
370
     0
100
AcDbLine
 10
-577.0431834375336
 20
-495.1066970026955
 30
0.0000000602801984
 11
-341.650246930866
 21
-507.3002616411692
 31
0.0000000537089498
  0
ARC
  5
A3A
330
A
100
AcDbEntity
  8
0
  6
STYLE_09
100
AcDbCircle
 10
25.44156907082663
 20
-391.0757221254939
 30
0.0000000582483966
 40
15.00000000003437
100
AcDbArc
 50
90.00000000008033
 51
156.9999999999092
  0
LINE
  5
A3B
330
A
100
AcDbEntity
  8
template
  6
STYLE_09
370
     0
100
AcDbLine
 10
11.63399626901764
 20
-385.2147551981195
 30
0.0000000582483966
 11
-4.929734320625357
 21
-475.849130267356
 31
0.0000000602801984
  0
ARC
  5
A3C
330
A
100
AcDbEntity
  8
0
  6
STYLE_09
100
AcDbCircle
 10
-34.36893170119447
 20
-463.3529323697278
 30
0.0000000602801984
 40
31.98157757692361
100
AcDbArc
 50
276.8428185434567
 51
336.9999999999185
  0
LINE
  5
A3D
330
A
100
AcDbEntity
  8
template
  6
STYLE_09
370
     0
100
AcDbLine
 10
-30.5584545732122
 20
-495.1066970026955
 30
0.0000000602801984
 11
-265.9513910798797
 21
-507.3002616411692
 31
0.0000000537089498
  0
LINE
  5
A51
330
A
100
AcDbEntity
  8
template
  6
Continuous
370
     0
100
AcDbLine
 10
809.0395945949474
 20
-381.0757221254594
 30
0.0000001065971858
 11
809.0395945949474
 21
-376.0757221254594
 31
0.0000001065971858
  0
LINE
  5
A52
330
A
100
AcDbEntity
  8
template
  6
Continuous
370
     0
100
AcDbLine
 10
841.0395945949474
 20
-381.0757221254594
 30
0.0000001065971858
 11
841.0395945949474
 21
-376.0757221254594
 31
0.0000001065971858
  0
LWPOLYLINE
  5
A53
330
A
100
AcDbEntity
  8
0
  6
Continuous
100
AcDbPolyline
 90
        2
 70
   128
 43
0.0
 38
0.0000001065971858
 10
475.0602788143987
 20
-421.0757221254595
 10
500.4663336531023
 20
-480.9286365234644
  0
DIMENSION
  5
A5B
102
{ACAD_REACTORS
330
A5D
102
}
102
{ACAD_XDICTIONARY
360
A5C
102
}
330
A
100
AcDbEntity
  8
template
  6
Continuous
370
     0
100
AcDbDimension
  2
*D19
 10
825.0395945949474
 20
-295.7140057715582
 30
0.0
 11
857.5605968752559
 21
-273.4976971778082
 31
0.0
 70
    32
 71
     5
 42
65.04200456061699
 73
     0
 74
     0
 75
     0
  3
tform線あり
100
AcDbAlignedDimension
 13
890.0815991555644
 23
-378.5757221457121
 33
0.0000001065971858
 14
825.0395945949474
 24
-378.5757221254594
 34
0.0000001065971858
100
AcDbRotatedDimension
1001
ACAD
1000
DSTYLE
1002
{
1070
   147
1040
10.0
1070
   341
1005
0
1002
}
  0
DIMENSION
  5
BCB
330
A
100
AcDbEntity
  8
Dim
  6
Continuous
100
AcDbDimension
  2
*D29
 10
665.0909657767047
 20
-507.072511046943
 30
0.0000000263364167
 11
642.8746571829547
 21
-441.0757221254598
 31
0.0000000263364167
 70
    32
  1
 
 71
     5
 42
130.9967889214836
 73
     0
 74
     0
 75
     0
  3
JIS
100
AcDbAlignedDimension
 13
662.0793808766418
 23
-376.0757221254594
 33
0.0000001063987696
 14
665.0909657767047
 24
-507.072511046943
 34
0.0000000263364167
 50
90.0
100
AcDbRotatedDimension
1001
ACAD
1000
DSTYLE
1002
{
1070
   147
1040
10.0
1070
    41
1040
9.0
1070
   173
1070
     1
1070
   342
1005
0
1070
   344
1005
45
1070
   343
1005
45
1070
    76
1070
     1
1070
    75
1070
     1
1070
   179
1070
     0
1070
   271
1070
     0
1070
    43
1040
25.0
1070
    44
1040
0.0
1070
    42
1040
25.0
1002
}
  0
LINE
  5
BCC
330
A
100
AcDbEntity
  8
Dim
  6
Continuous
100
AcDbLine
 10
665.0909657767047
 20
-376.0757221254594
 30
0.0000000263364167
 11
665.0909657767047
 21
-230.4349063226769
 31
0.0000000263364167
  0
MTEXT
  5
BCD
330
A
100
AcDbEntity
  8
Dim
  6
Continuous
100
AcDbMText
 10
624.8581972889508
 20
-364.2880803478058
 30
0.0000000205225216
 40
2.5
 41
167.8958581785473
 46
34.03333333333333
 71
     1
 72
     1
  1
{\H9.6x;130(深さ)}
  7
ＭＳ ゴシック
 11
3.061616997868383E-16
 21
1.0
 31
0.0
 73
     1
 44
1.0
1001
ACAD
1000
ACAD_MTEXT_DEFINED_HEIGHT_BEGIN
1070
    46
1040
34.03333333333333
1000
ACAD_MTEXT_DEFINED_HEIGHT_END
  0
INSERT
  5
C35
330
A
100
AcDbEntity
  8
0
  6
Continuous
370
     0
100
AcDbBlockReference
  2
名称未設定-1
 10
823.5445367253249
 20
-1452.404223078057
 30
0.0
 41
0.7619999999999999
 42
0.7619999999999999
 43
0.7619999999999999
  0
CIRCLE
  5
C36
102
{ACAD_REACTORS
330
6D6
102
}
330
A
100
AcDbEntity
  8
0
  6
STYLE_11
 48
2.0
100
AcDbCircle
 10
-304.3256342797636
 20
653.7000002768411
 30
0.0000000627196568
 40
17.5
  0
DIMENSION
  5
C37
102
{ACAD_REACTORS
330
C39
102
}
102
{ACAD_XDICTIONARY
360
C38
102
}
330
A
100
AcDbEntity
  8
template
  6
Continuous
370
     0
100
AcDbDimension
  2
*D35
 10
-873.4971469417878
 20
239.2454456776222
 30
0.0
 11
-895.7134555355378
 21
274.2454456776242
 31
0.0
 70
    32
 71
     5
 42
70.0000000000039
 73
     0
 74
     0
 75
     0
  3
tform線あり
100
AcDbAlignedDimension
 13
-804.2356342797634
 23
309.2454456776261
 33
0.0
 14
-779.2356342797634
 24
239.2454456776222
 34
0.0000000607505108
 50
90.0
100
AcDbRotatedDimension
1001
ACAD
1000
DSTYLE
1002
{
1070
   147
1040
10.0
1070
   341
1005
0
1002
}
  0
LWPOLYLINE
  5
C71
330
A
100
AcDbEntity
  8
waku
  6
Continuous
370
     0
100
AcDbPolyline
 90
        4
 70
     1
 43
0.0
 10
-1049.999999999759
 20
-1479.504930098615
 10
-1049.999999999759
 20
1490.495069901385
 10
1050.000000000241
 20
1490.495069901385
 10
1050.000000000241
 20
-1479.504930098615
  0
ARC
  5
C78
330
A
100
AcDbEntity
  8
0
  6
STYLE_09
100
AcDbCircle
 10
541.8720941285333
 20
-463.3529339556379
 30
0.0000001065971858
 40
31.98157757684141
100
AcDbArc
 50
203.0000000001671
 51
263.157181456629
  0
ARC
  5
C79
330
A
100
AcDbEntity
  8
0
  6
STYLE_09
100
AcDbCircle
 10
541.8720941285906
 20
-463.3529339555619
 30
0.0000001065971858
 40
31.98157757692361
100
AcDbArc
 50
203.0000000000815
 51
263.1571814565435
  0
LINE
  5
C7A
330
A
100
AcDbEntity
  8
0
  6
STYLE_09
100
AcDbLine
 10
512.4328967479844
 20
-475.8491318531024
 30
0.0000001065971858
 11
473.9608863750864
 21
-385.2147551981203
 31
0.0000001065971858
  0
ARC
  5
C7B
330
A
100
AcDbEntity
  8
0
  6
STYLE_09
100
AcDbCircle
 10
460.1533135732773
 20
-391.0757221254947
 30
0.0000001065971858
 40
15.00000000003443
100
AcDbArc
 50
23.00000000009065
 51
89.99999999991951
  0
LINE
  5
C7C
330
A
100
AcDbEntity
  8
0
  6
Continuous
100
AcDbLine
 10
460.1533135732984
 20
-376.0757221254603
 30
0.0000001065971858
 11
411.3274194114806
 21
-376.0757221254594
 31
0.0000001065971858
  0
ARC
  5
C7D
330
A
100
AcDbEntity
  8
0
  6
Continuous
100
AcDbCircle
 10
411.3274194114786
 20
-382.0757221254578
 30
0.0000001065971858
 40
5.999999999998487
100
AcDbArc
 50
89.99999999998023
 51
182.2999999997172
  0
LINE
  5
C7E
330
A
100
AcDbEntity
  8
0
  6
Continuous
100
AcDbLine
 10
405.3322530407922
 20
-382.3165128806236
 30
0.0000001065971858
 11
406.6576699566986
 21
-415.3165128806536
 31
0.0000001065971858
  0
ARC
  5
C7F
330
A
100
AcDbEntity
  8
0
  6
Continuous
100
AcDbCircle
 10
412.6528363273973
 20
-415.0757221254478
 30
0.0000001065971858
 40
6.000000000012446
100
AcDbArc
 50
182.3000000000945
 51
269.9999999998881
  0
LINE
  5
C80
330
A
100
AcDbEntity
  8
0
  6
Continuous
100
AcDbLine
 10
412.6528363273856
 20
-421.0757221254603
 30
0.0000001065971858
 11
415.1399901726863
 21
-421.0757221254603
 31
0.0000001065971858
  0
LINE
  5
C81
330
A
100
AcDbEntity
  8
0
  6
STYLE_09
100
AcDbLine
 10
647.3634698132305
 20
-518.0955971286794
 30
0.0000001065971858
 11
637.0553022084555
 21
-509.4460174933993
 31
0.0000001065971858
  0
ARC
  5
C82
330
A
100
AcDbEntity
  8
0
  6
STYLE_09
100
AcDbCircle
 10
627.4133472099385
 20
-520.9370092989977
 30
0.0000001065971858
 40
15.00033962514706
100
AcDbArc
 50
50.00038619625019
 51
83.15752020462202
  0
LINE
  5
C83
330
A
100
AcDbEntity
  8
0
  6
STYLE_09
100
AcDbLine
 10
629.2004896609085
 20
-506.0435103571877
 30
0.0000001065971858
 11
538.0616232363484
 21
-495.1066970026955
 31
0.0000001065971858
  0
LINE
  5
C84
330
A
100
AcDbEntity
  8
0
  6
STYLE_09
100
AcDbLine
 10
538.0616232363484
 20
-495.1066970026955
 30
0.0000001065971858
 11
629.2004896609085
 21
-506.0435103571877
 31
0.0000001065971858
  0
ENDSEC
  0
SECTION
  2
OBJECTS
  0
DICTIONARY
  5
19
330
0
100
AcDbDictionary
281
     1
  3
ACAD_COLOR
350
231
  3
ACAD_DETAILVIEWSTYLE
350
A58
  3
ACAD_GROUP
350
1A
  3
ACAD_IMAGE_VARS
350
216
  3
ACAD_LAYOUT
350
1E
  3
ACAD_MATERIAL
350
20E
  3
ACAD_MLEADERSTYLE
350
239
  3
ACAD_MLINESTYLE
350
1B
  3
ACAD_PLOTSETTINGS
350
22
  3
ACAD_PLOTSTYLENAME
350
1F
  3
ACAD_SCALELIST
350
1D3
  3
ACAD_SECTIONVIEWSTYLE
350
A59
  3
ACAD_TABLESTYLE
350
212
  3
ACAD_VISUALSTYLE
350
1F5
  3
AcadDim
350
A7D
  3
ACDB_RECOMPOSE_DATA
350
C90
  3
AcDbVariableDictionary
350
A54
  3
APPDATA
350
214
  0
SUN
  5
215
330
15
100
AcDbSun
 90
        1
290
     0
 63
     7
421
 16777215
 40
1.0
291
     1
 91
  2455826
 92
 54000000
292
     0
 70
     2
 71
   256
280
     1
  0
DICTIONARY
  5
C55
330
2
100
AcDbDictionary
280
     1
281
     1
  3
ACAD_LAYERSTATES
360
C56
  3
ACLYDICTIONARY
360
C75
  0
DICTIONARY
  5
219
330
218
100
AcDbDictionary
280
     1
281
     1
  3
ADSK_XREC_LAYER_RECONCILED
360
21A
  0
DICTIONARY
  5
21F
330
21E
100
AcDbDictionary
280
     1
281
     1
  3
ADSK_XREC_LAYER_RECONCILED
360
220
  0
DICTIONARY
  5
6C2
330
6C1
100
AcDbDictionary
280
     1
281
     1
  3
ACAD_DIMASSOC
360
6C3
  0
DICTIONARY
  5
6D5
330
6D4
100
AcDbDictionary
280
     1
281
     1
  3
ACAD_DIMASSOC
360
6D6
  0
DICTIONARY
  5
6E4
330
6E3
100
AcDbDictionary
280
     1
281
     1
  3
ACAD_DIMASSOC
360
6E5
  0
DICTIONARY
  5
6F6
330
6F5
100
AcDbDictionary
280
     1
281
     1
  3
ACAD_DIMASSOC
360
6F7
  0
DICTIONARY
  5
71A
330
719
100
AcDbDictionary
280
     1
281
     1
  3
ACAD_DIMASSOC
360
71B
  0
DICTIONARY
  5
729
330
728
100
AcDbDictionary
280
     1
281
     1
  3
ACAD_DIMASSOC
360
72A
  0
DICTIONARY
  5
75E
330
75D
100
AcDbDictionary
280
     1
281
     1
  3
ACAD_DIMASSOC
360
75F
  0
DICTIONARY
  5
76D
330
76C
100
AcDbDictionary
280
     1
281
     1
  3
ACAD_DIMASSOC
360
76E
  0
DICTIONARY
  5
780
330
77F
100
AcDbDictionary
280
     1
281
     1
  3
ACAD_DIMASSOC
360
781
  0
DICTIONARY
  5
A5C
330
A5B
100
AcDbDictionary
280
     1
281
     1
  3
ACAD_DIMASSOC
360
A5D
  0
DICTIONARY
  5
C38
330
C37
100
AcDbDictionary
280
     1
281
     1
  3
ACAD_DIMASSOC
360
C39
  0
DICTIONARY
  5
231
102
{ACAD_REACTORS
330
19
102
}
330
19
100
AcDbDictionary
281
     1
  0
DICTIONARY
  5
A58
102
{ACAD_REACTORS
330
19
102
}
330
19
100
AcDbDictionary
281
     1
  0
DICTIONARY
  5
1A
102
{ACAD_REACTORS
330
19
102
}
330
19
100
AcDbDictionary
281
     1
  0
RASTERVARIABLES
  5
216
102
{ACAD_REACTORS
330
19
102
}
330
19
100
AcDbRasterVariables
 90
        0
 70
     1
 71
     1
 72
     1
  0
DICTIONARY
  5
1E
102
{ACAD_REACTORS
330
19
102
}
330
19
100
AcDbDictionary
281
     1
  3
Layout1
350
21
  3
Model
350
20
  0
DICTIONARY
  5
20E
102
{ACAD_REACTORS
330
19
102
}
330
19
100
AcDbDictionary
281
     1
  3
ByBlock
350
210
  3
ByLayer
350
20F
  3
Global
350
211
  0
DICTIONARY
  5
239
102
{ACAD_REACTORS
330
19
102
}
330
19
100
AcDbDictionary
281
     1
  0
DICTIONARY
  5
1B
102
{ACAD_REACTORS
330
19
102
}
330
19
100
AcDbDictionary
281
     1
  3
Standard
350
1C
  0
DICTIONARY
  5
22
102
{ACAD_REACTORS
330
19
102
}
330
19
100
AcDbDictionary
281
     1
  0
ACDBDICTIONARYWDFLT
  5
1F
102
{ACAD_REACTORS
330
19
102
}
330
19
100
AcDbDictionary
281
     1
  3
Normal
350
1D
100
AcDbDictionaryWithDefault
340
1D
  0
DICTIONARY
  5
1D3
102
{ACAD_REACTORS
330
19
102
}
330
19
100
AcDbDictionary
281
     1
  3
A0
350
1D4
  3
A1
350
1D5
  3
A2
350
1D6
  3
A3
350
1D7
  3
A4
350
1D8
  3
A5
350
1D9
  3
A6
350
1DA
  3
A7
350
1DB
  3
A8
350
1DC
  3
A9
350
1DD
  3
B0
350
1DE
  3
B1
350
1DF
  3
B2
350
1E0
  3
B3
350
1E1
  3
B4
350
1E2
  3
B5
350
1E3
  3
B6
350
1E4
  3
B7
350
1E5
  3
B8
350
1E6
  3
B9
350
1E7
  3
C0
350
1E8
  3
C1
350
1E9
  3
C2
350
1EA
  3
C3
350
1EB
  3
C4
350
1EC
  3
C5
350
1ED
  3
C6
350
1EE
  3
C7
350
1EF
  3
C8
350
1F0
  3
C9
350
1F1
  3
D0
350
1F2
  3
D1
350
1F3
  3
D2
350
1F4
  0
DICTIONARY
  5
A59
102
{ACAD_REACTORS
330
19
102
}
330
19
100
AcDbDictionary
281
     1
  0
DICTIONARY
  5
212
102
{ACAD_REACTORS
330
19
102
}
330
19
100
AcDbDictionary
281
     1
  3
Standard
350
213
  0
DICTIONARY
  5
1F5
102
{ACAD_REACTORS
330
19
102
}
330
19
100
AcDbDictionary
281
     1
  3
2dWireframe
350
1FA
  3
3dWireframe
350
23C
  3
Basic
350
1FD
  3
Brighten
350
201
  3
ColorChange
350
205
  3
Conceptual
350
1FF
  3
Dim
350
200
  3
EdgeColorOff
350
208
  3
Facepattern
350
204
  3
Flat
350
1F6
  3
FlatWithEdges
350
1F7
  3
Gouraud
350
1F8
  3
GouraudWithEdges
350
1F9
  3
Hidden
350
1FC
  3
JitterOff
350
206
  3
Linepattern
350
203
  3
OverhangOff
350
207
  3
Realistic
350
1FE
  3
Shaded
350
20D
  3
Shaded with edges
350
20C
  3
Shades of Gray
350
209
  3
Sketchy
350
20A
  3
Thicken
350
202
  3
Wireframe
350
1FB
  3
X-Ray
350
20B
  0
XRECORD
  5
A7D
102
{ACAD_REACTORS
330
19
102
}
330
19
100
AcDbXrecord
280
     1
340
0
 72
     0
 71
     0
 70
     0
 69
     0
 68
     1
 67
     3
 66
     0
 65
     0
 64
     0
 63
     3
 62
     1
 61
     0
 60
     0
 40
0.0
  0
XRECORD
  5
C90
102
{ACAD_REACTORS
330
19
102
}
330
19
100
AcDbXrecord
280
     1
 90
        1
330
213
  0
DICTIONARY
  5
A54
102
{ACAD_REACTORS
330
19
102
}
330
19
100
AcDbDictionary
281
     1
  3
CANNOSCALE
350
A55
  3
CTABLESTYLE
350
A56
  3
MSLTSCALE
350
A57
  3
XCLIPFRAME
350
ABA
  0
DICTIONARY
  5
214
102
{ACAD_REACTORS
330
19
102
}
330
19
100
AcDbDictionary
281
     1
  0
DICTIONARY
  5
C56
102
{ACAD_REACTORS
330
C55
102
}
330
C55
100
AcDbDictionary
281
     1
  3
ARGON_LAYERP_28
350
C76
  0
DICTIONARY
  5
C75
102
{ACAD_REACTORS
330
C55
102
}
330
C55
100
AcDbDictionary
281
     1
1001
ACAD
1000
<All
  0
XRECORD
  5
21A
102
{ACAD_REACTORS
330
219
102
}
330
219
100
AcDbXrecord
280
     1
290
     1
  0
XRECORD
  5
220
102
{ACAD_REACTORS
330
21F
102
}
330
21F
100
AcDbXrecord
280
     1
290
     1
  0
DIMASSOC
  5
6C3
102
{ACAD_REACTORS
330
6C2
102
}
330
6C2
100
AcDbDimAssoc
330
6C1
 90
        3
 70
     0
 71
     1
  1
AcDbOsnapPointRef
 72
     1
331
4A4
 73
     0
 91
        0
 40
0.0
 10
0.0
 20
0.0
 30
0.0
 75
     0
  1
AcDbOsnapPointRef
 72
     1
331
4AA
 73
     0
 91
        0
 40
0.0
 10
0.0
 20
0.0
 30
0.0
 75
     0
  0
DIMASSOC
  5
6D6
102
{ACAD_REACTORS
330
6D5
102
}
330
6D5
100
AcDbDimAssoc
330
6D4
 90
        2
 70
     0
 71
     1
  1
AcDbOsnapPointRef
 72
     5
331
6D3
 73
     0
 91
        0
 40
1.570796326794897
 10
0.0
 20
0.0
 30
0.0
 75
     0
  0
DIMASSOC
  5
6E5
102
{ACAD_REACTORS
330
6E4
102
}
330
6E4
100
AcDbDimAssoc
330
6E3
 90
        2
 70
     0
 71
     1
  1
AcDbOsnapPointRef
 72
     5
331
6D2
 73
     0
 91
        0
 40
1.570796326794897
 10
0.0
 20
0.0
 30
0.0
 75
     0
  0
DIMASSOC
  5
6F7
102
{ACAD_REACTORS
330
6F6
102
}
330
6F6
100
AcDbDimAssoc
330
6F5
 90
        3
 70
     0
 71
     1
  1
AcDbOsnapPointRef
 72
    13
331
4AC
 73
     0
 91
        0
 40
0.0
 10
0.0
 20
0.0
 30
0.0
 75
     0
  1
AcDbOsnapPointRef
 72
    13
331
4B1
 73
     0
 91
        0
 40
0.0
 10
0.0
 20
0.0
 30
0.0
 75
     0
  0
DIMASSOC
  5
71B
102
{ACAD_REACTORS
330
71A
102
}
330
71A
100
AcDbDimAssoc
330
719
 90
        2
 70
     0
 71
     1
  1
AcDbOsnapPointRef
 72
     1
331
4B1
 73
     0
 91
        0
 40
0.0
 10
0.0
 20
0.0
 30
0.0
 75
     0
  0
DIMASSOC
  5
72A
102
{ACAD_REACTORS
330
729
102
}
330
729
100
AcDbDimAssoc
330
728
 90
        1
 70
     0
 71
     1
  1
AcDbOsnapPointRef
 72
    13
331
4A3
 73
     0
 91
        0
 40
0.0
 10
0.0
 20
0.0
 30
0.0
 75
     0
  0
DIMASSOC
  5
75F
102
{ACAD_REACTORS
330
75E
102
}
330
75E
100
AcDbDimAssoc
330
75D
 90
        3
 70
     0
 71
     1
  1
AcDbOsnapPointRef
 72
    13
331
73D
 73
     0
 91
        0
 40
0.0
 10
0.0
 20
0.0
 30
0.0
 75
     0
  1
AcDbOsnapPointRef
 72
    13
331
73A
 73
     0
 91
        0
 40
0.0
 10
0.0
 20
0.0
 30
0.0
 75
     0
  0
DIMASSOC
  5
76E
102
{ACAD_REACTORS
330
76D
102
}
330
76D
100
AcDbDimAssoc
330
76C
 90
        3
 70
     0
 71
     1
  1
AcDbOsnapPointRef
 72
     5
331
4B7
 73
     0
 91
        0
 40
1.570796326796716
 10
0.0
 20
0.0
 30
0.0
 75
     0
  1
AcDbOsnapPointRef
 72
     1
331
73E
 73
     0
 91
        0
 40
0.0
 10
0.0
 20
0.0
 30
0.0
 75
     0
  0
DIMASSOC
  5
781
102
{ACAD_REACTORS
330
780
102
}
330
780
100
AcDbDimAssoc
330
77F
 90
        1
 70
     0
 71
     1
  1
AcDbOsnapPointRef
 72
    13
331
4B6
 73
     0
 91
        0
 40
0.0
 10
0.0
 20
0.0
 30
0.0
 75
     0
  0
DIMASSOC
  5
A5D
102
{ACAD_REACTORS
330
A5C
102
}
330
A5C
100
AcDbDimAssoc
330
A5B
 90
        1
 70
     0
 71
     1
  1
AcDbOsnapPointRef
 72
    13
331
8C6
 73
     0
 91
        0
 40
0.0
 10
0.0
 20
0.0
 30
0.0
 75
     0
  0
DIMASSOC
  5
C39
102
{ACAD_REACTORS
330
C38
102
}
330
C38
100
AcDbDimAssoc
330
C37
 90
        2
 70
     0
 71
     1
  1
AcDbOsnapPointRef
 72
     1
331
4A0
 73
     0
 91
        0
 40
0.0
 10
0.0
 20
0.0
 30
0.0
 75
     0
  0
LAYOUT
  5
21
102
{ACAD_REACTORS
330
1E
102
}
330
1E
100
AcDbPlotSettings
  1

  2

  4

  6

 40
0.0
 41
0.0
 42
0.0
 43
0.0
 44
0.0
 45
0.0
 46
0.0
 47
0.0
 48
0.0
 49
0.0
140
0.0
141
0.0
142
1.0
143
1.0
 70
     0
 72
     0
 73
     0
 74
     0
  7

 75
     0
 76
     0
 77
     2
 78
   300
147
1.0
148
0.0
149
0.0
100
AcDbLayout
  1
Layout1
 70
     0
 71
     0
 10
0.0
 20
0.0
 11
0.0
 21
0.0
 12
0.0
 22
0.0
 32
0.0
 14
0.0
 24
0.0
 34
0.0
 15
0.0
 25
0.0
 35
0.0
146
0.0
 13
0.0
 23
0.0
 33
0.0
 16
0.0
 26
0.0
 36
0.0
 17
0.0
 27
0.0
 37
0.0
 76
     0
330
B
  0
LAYOUT
  5
20
102
{ACAD_REACTORS
330
1E
102
}
330
1E
100
AcDbPlotSettings
  1

  2

  4

  6

 40
0.0
 41
0.0
 42
0.0
 43
0.0
 44
0.0
 45
0.0
 46
0.0
 47
0.0
 48
0.0
 49
0.0
140
0.0
141
0.0
142
1.0
143
1.0
 70
  1024
 72
     0
 73
     0
 74
     0
  7

 75
     0
 76
     0
 77
     2
 78
   300
147
1.0
148
0.0
149
0.0
100
AcDbLayout
  1
Model
 70
     0
 71
     1
 10
-1049.999999999759
 20
-1479.504930098615
 11
1050.000000000241
 21
1490.495069901385
 12
0.0
 22
0.0
 32
0.0
 14
-975.0000000002409
 24
-1414.593117625651
 34
0.0
 15
975.0000000002411
 25
1418.761407556206
 35
0.0000001718222377
146
0.0
 13
0.0
 23
0.0
 33
0.0
 16
0.0
 26
0.0
 36
0.0
 17
0.0
 27
0.0
 37
0.0
 76
     0
330
A
331
15
  0
MATERIAL
  5
210
102
{ACAD_REACTORS
330
20E
102
}
330
20E
100
AcDbMaterial
  1
ByBlock
 72
     1
 94
      127
  0
MATERIAL
  5
20F
102
{ACAD_REACTORS
330
20E
102
}
330
20E
100
AcDbMaterial
  1
ByLayer
 72
     1
 94
      127
  0
MATERIAL
  5
211
102
{ACAD_REACTORS
330
20E
102
}
330
20E
100
AcDbMaterial
  1
Global
 72
     1
 94
      127
  0
MLINESTYLE
  5
1C
102
{ACAD_REACTORS
330
1B
102
}
330
1B
100
AcDbMlineStyle
  2
Standard
 70
     0
  3

 62
     0
 51
90.0
 52
90.0
 71
     2
 49
0.5
 62
   256
  6
BYLAYER
 49
-0.5
 62
   256
  6
BYLAYER
  0
ACDBPLACEHOLDER
  5
1D
102
{ACAD_REACTORS
330
1F
102
}
330
1F
  0
SCALE
  5
1D4
102
{ACAD_REACTORS
330
1D3
102
}
330
1D3
100
AcDbScale
 70
     0
300
1:1
140
1.0
141
1.0
290
     1
  0
SCALE
  5
1D5
102
{ACAD_REACTORS
330
1D3
102
}
330
1D3
100
AcDbScale
 70
     0
300
1:2
140
1.0
141
2.0
290
     0
  0
SCALE
  5
1D6
102
{ACAD_REACTORS
330
1D3
102
}
330
1D3
100
AcDbScale
 70
     0
300
1:4
140
1.0
141
4.0
290
     0
  0
SCALE
  5
1D7
102
{ACAD_REACTORS
330
1D3
102
}
330
1D3
100
AcDbScale
 70
     0
300
1:5
140
1.0
141
5.0
290
     0
  0
SCALE
  5
1D8
102
{ACAD_REACTORS
330
1D3
102
}
330
1D3
100
AcDbScale
 70
     0
300
1:8
140
1.0
141
8.0
290
     0
  0
SCALE
  5
1D9
102
{ACAD_REACTORS
330
1D3
102
}
330
1D3
100
AcDbScale
 70
     0
300
1:10
140
1.0
141
10.0
290
     0
  0
SCALE
  5
1DA
102
{ACAD_REACTORS
330
1D3
102
}
330
1D3
100
AcDbScale
 70
     0
300
1:16
140
1.0
141
16.0
290
     0
  0
SCALE
  5
1DB
102
{ACAD_REACTORS
330
1D3
102
}
330
1D3
100
AcDbScale
 70
     0
300
1:20
140
1.0
141
20.0
290
     0
  0
SCALE
  5
1DC
102
{ACAD_REACTORS
330
1D3
102
}
330
1D3
100
AcDbScale
 70
     0
300
1:30
140
1.0
141
30.0
290
     0
  0
SCALE
  5
1DD
102
{ACAD_REACTORS
330
1D3
102
}
330
1D3
100
AcDbScale
 70
     0
300
1:40
140
1.0
141
40.0
290
     0
  0
SCALE
  5
1DE
102
{ACAD_REACTORS
330
1D3
102
}
330
1D3
100
AcDbScale
 70
     0
300
1:50
140
1.0
141
50.0
290
     0
  0
SCALE
  5
1DF
102
{ACAD_REACTORS
330
1D3
102
}
330
1D3
100
AcDbScale
 70
     0
300
1:100
140
1.0
141
100.0
290
     0
  0
SCALE
  5
1E0
102
{ACAD_REACTORS
330
1D3
102
}
330
1D3
100
AcDbScale
 70
     0
300
2:1
140
2.0
141
1.0
290
     0
  0
SCALE
  5
1E1
102
{ACAD_REACTORS
330
1D3
102
}
330
1D3
100
AcDbScale
 70
     0
300
4:1
140
4.0
141
1.0
290
     0
  0
SCALE
  5
1E2
102
{ACAD_REACTORS
330
1D3
102
}
330
1D3
100
AcDbScale
 70
     0
300
8:1
140
8.0
141
1.0
290
     0
  0
SCALE
  5
1E3
102
{ACAD_REACTORS
330
1D3
102
}
330
1D3
100
AcDbScale
 70
     0
300
10:1
140
10.0
141
1.0
290
     0
  0
SCALE
  5
1E4
102
{ACAD_REACTORS
330
1D3
102
}
330
1D3
100
AcDbScale
 70
     0
300
100:1
140
100.0
141
1.0
290
     0
  0
SCALE
  5
1E5
102
{ACAD_REACTORS
330
1D3
102
}
330
1D3
100
AcDbScale
 70
     0
300
1/128" = 1'-0"
140
0.0078125
141
12.0
290
     0
  0
SCALE
  5
1E6
102
{ACAD_REACTORS
330
1D3
102
}
330
1D3
100
AcDbScale
 70
     0
300
1/64" = 1'-0"
140
0.015625
141
12.0
290
     0
  0
SCALE
  5
1E7
102
{ACAD_REACTORS
330
1D3
102
}
330
1D3
100
AcDbScale
 70
     0
300
1/32" = 1'-0"
140
0.03125
141
12.0
290
     0
  0
SCALE
  5
1E8
102
{ACAD_REACTORS
330
1D3
102
}
330
1D3
100
AcDbScale
 70
     0
300
1/16" = 1'-0"
140
0.0625
141
12.0
290
     0
  0
SCALE
  5
1E9
102
{ACAD_REACTORS
330
1D3
102
}
330
1D3
100
AcDbScale
 70
     0
300
3/32" = 1'-0"
140
0.09375
141
12.0
290
     0
  0
SCALE
  5
1EA
102
{ACAD_REACTORS
330
1D3
102
}
330
1D3
100
AcDbScale
 70
     0
300
1/8" = 1'-0"
140
0.125
141
12.0
290
     0
  0
SCALE
  5
1EB
102
{ACAD_REACTORS
330
1D3
102
}
330
1D3
100
AcDbScale
 70
     0
300
3/16" = 1'-0"
140
0.1875
141
12.0
290
     0
  0
SCALE
  5
1EC
102
{ACAD_REACTORS
330
1D3
102
}
330
1D3
100
AcDbScale
 70
     0
300
1/4" = 1'-0"
140
0.25
141
12.0
290
     0
  0
SCALE
  5
1ED
102
{ACAD_REACTORS
330
1D3
102
}
330
1D3
100
AcDbScale
 70
     0
300
3/8" = 1'-0"
140
0.375
141
12.0
290
     0
  0
SCALE
  5
1EE
102
{ACAD_REACTORS
330
1D3
102
}
330
1D3
100
AcDbScale
 70
     0
300
1/2" = 1'-0"
140
0.5
141
12.0
290
     0
  0
SCALE
  5
1EF
102
{ACAD_REACTORS
330
1D3
102
}
330
1D3
100
AcDbScale
 70
     0
300
3/4" = 1'-0"
140
0.75
141
12.0
290
     0
  0
SCALE
  5
1F0
102
{ACAD_REACTORS
330
1D3
102
}
330
1D3
100
AcDbScale
 70
     0
300
1" = 1'-0"
140
1.0
141
12.0
290
     0
  0
SCALE
  5
1F1
102
{ACAD_REACTORS
330
1D3
102
}
330
1D3
100
AcDbScale
 70
     0
300
1-1/2" = 1'-0"
140
1.5
141
12.0
290
     0
  0
SCALE
  5
1F2
102
{ACAD_REACTORS
330
1D3
102
}
330
1D3
100
AcDbScale
 70
     0
300
3" = 1'-0"
140
3.0
141
12.0
290
     0
  0
SCALE
  5
1F3
102
{ACAD_REACTORS
330
1D3
102
}
330
1D3
100
AcDbScale
 70
     0
300
6" = 1'-0"
140
6.0
141
12.0
290
     0
  0
SCALE
  5
1F4
102
{ACAD_REACTORS
330
1D3
102
}
330
1D3
100
AcDbScale
 70
     0
300
1'-0" = 1'-0"
140
12.0
141
12.0
290
     0
  0
TABLESTYLE
  5
213
102
{ACAD_REACTORS
330
212
102
}
102
{ACAD_XDICTIONARY
360
C8E
102
}
330
212
100
AcDbTableStyle
  3
Standard
 70
     0
 71
     0
 40
1.5
 41
1.5
280
     0
281
     0
  7
Standard
140
4.5
170
     2
 62
     0
 63
   257
283
     0
 90
        4
 91
        0
  1

274
    -2
284
     1
 64
     0
275
    -2
285
     1
 65
     0
276
    -2
286
     1
 66
     0
277
    -2
287
     1
 67
     0
278
    -2
288
     1
 68
     0
279
    -2
289
     1
 69
     0
  7
Standard
140
6.0
170
     5
 62
     0
 63
   257
283
     0
 90
        4
 91
        0
  1

274
    -2
284
     1
 64
     0
275
    -2
285
     1
 65
     0
276
    -2
286
     1
 66
     0
277
    -2
287
     1
 67
     0
278
    -2
288
     1
 68
     0
279
    -2
289
     1
 69
     0
  7
Standard
140
4.5
170
     5
 62
     0
 63
   257
283
     0
 90
        4
 91
        0
  1

274
    -2
284
     1
 64
     0
275
    -2
285
     1
 65
     0
276
    -2
286
     1
 66
     0
277
    -2
287
     1
 67
     0
278
    -2
288
     1
 68
     0
279
    -2
289
     1
 69
     0
  0
VISUALSTYLE
  5
1FA
102
{ACAD_REACTORS
330
1F5
102
}
330
1F5
100
AcDbVisualStyle
  2
2dWireframe
 70
     4
 71
     0
 72
     2
 73
     0
 90
        0
 40
0.6
 41
30.0
 62
     5
 63
     7
421
 16777215
 74
     1
 91
        4
 64
     7
 65
   257
 75
     1
175
     1
 42
1.0
 92
        0
 66
   257
 43
1.0
 76
     1
 77
     6
 78
     2
 67
     7
 79
     5
170
     0
171
     0
290
     0
174
     0
 93
        1
 44
0.0
173
     0
291
     0
 45
0.0
  0
VISUALSTYLE
  5
23C
102
{ACAD_REACTORS
330
1F5
330
1F5
102
}
330
1F5
100
AcDbVisualStyle
  2
3dWireframe
 70
     5
 71
     0
 72
     2
 73
     0
 90
        0
 40
0.6
 41
30.0
 62
     5
 63
     7
 74
     1
 91
        4
 64
     7
 65
   257
 75
     1
175
     1
 42
1.0
 92
        0
 66
   257
 43
1.0
 76
     1
 77
     6
 78
     2
 67
     7
 79
     5
170
     0
171
     0
290
     0
174
     0
 93
        1
 44
0.0
173
     0
291
     0
 45
0.0
1001
ACAD
1000
AcRTDxfName
1000
VISUALSTYLE
  0
VISUALSTYLE
  5
1FD
102
{ACAD_REACTORS
330
1F5
102
}
330
1F5
100
AcDbVisualStyle
  2
Basic
 70
     7
 71
     1
 72
     0
 73
     1
 90
        0
 40
0.6
 41
30.0
 62
     5
 63
     7
421
 16777215
 74
     0
 91
        4
 64
     7
 65
   257
 75
     1
175
     1
 42
1.0
 92
        8
 66
     7
 43
1.0
 76
     1
 77
     6
 78
     2
 67
     7
 79
     5
170
     0
171
     0
290
     0
174
     0
 93
        1
 44
0.0
173
     0
291
     1
 45
0.0
  0
VISUALSTYLE
  5
201
102
{ACAD_REACTORS
330
1F5
102
}
330
1F5
100
AcDbVisualStyle
  2
Brighten
 70
    12
 71
     2
 72
     2
 73
     0
 90
        0
 40
0.6
 41
30.0
 62
     5
 63
     7
421
 16777215
 74
     1
 91
        4
 64
     7
 65
   257
 75
     1
175
     1
 42
1.0
 92
        8
 66
     7
 43
1.0
 76
     1
 77
     6
 78
     2
 67
     7
 79
     5
170
     0
171
     0
290
     0
174
     0
 93
        1
 44
50.0
173
     0
291
     1
 45
0.0
  0
VISUALSTYLE
  5
205
102
{ACAD_REACTORS
330
1F5
102
}
330
1F5
100
AcDbVisualStyle
  2
ColorChange
 70
    16
 71
     2
 72
     2
 73
     3
 90
        0
 40
0.6
 41
30.0
 62
     5
 63
     8
421
  8421504
 74
     1
 91
        4
 64
     7
 65
   257
 75
     1
175
     1
 42
1.0
 92
        8
 66
     8
424
  8421504
 43
1.0
 76
     1
 77
     6
 78
     2
 67
     7
 79
     5
170
     0
171
     0
290
     0
174
     0
 93
        1
 44
0.0
173
     0
291
     1
 45
0.0
  0
VISUALSTYLE
  5
1FF
102
{ACAD_REACTORS
330
1F5
102
}
330
1F5
100
AcDbVisualStyle
  2
Conceptual
 70
     9
 71
     3
 72
     2
 73
     0
 90
        0
 40
0.6
 41
30.0
 62
     5
 63
     7
421
 16777215
 74
     2
 91
        2
 64
     7
 65
   257
 75
     1
175
     1
 42
179.0
 92
        8
 66
     7
 43
1.0
 76
     1
 77
     6
 78
     2
 67
     7
 79
     3
170
     0
171
     0
290
     0
174
     0
 93
        1
 44
0.0
173
     0
291
     0
 45
0.0
  0
VISUALSTYLE
  5
200
102
{ACAD_REACTORS
330
1F5
102
}
330
1F5
100
AcDbVisualStyle
  2
Dim
 70
    11
 71
     2
 72
     2
 73
     0
 90
        0
 40
0.6
 41
30.0
 62
     5
 63
     7
421
 16777215
 74
     1
 91
        4
 64
     7
 65
   257
 75
     1
175
     1
 42
1.0
 92
        8
 66
     7
 43
1.0
 76
     1
 77
     6
 78
     2
 67
     7
 79
     5
170
     0
171
     0
290
     0
174
     0
 93
        1
 44
-50.0
173
     0
291
     1
 45
0.0
  0
VISUALSTYLE
  5
208
102
{ACAD_REACTORS
330
1F5
102
}
330
1F5
100
AcDbVisualStyle
  2
EdgeColorOff
 70
    22
 71
     2
 72
     2
 73
     0
 90
        0
 40
0.6
 41
30.0
 62
     5
 63
     7
421
 16777215
 74
     1
 91
        4
 64
     7
 65
   257
 75
     1
175
     1
 42
1.0
 92
        8
 66
     7
 43
1.0
 76
     1
 77
     6
 78
     2
 67
     7
 79
     5
170
     0
171
     0
290
     0
174
     0
 93
        1
 44
0.0
173
     0
291
     1
 45
0.0
  0
VISUALSTYLE
  5
204
102
{ACAD_REACTORS
330
1F5
102
}
330
1F5
100
AcDbVisualStyle
  2
Facepattern
 70
    15
 71
     2
 72
     2
 73
     0
 90
        0
 40
0.6
 41
30.0
 62
     5
 63
     7
421
 16777215
 74
     1
 91
        4
 64
     7
 65
   257
 75
     1
175
     1
 42
1.0
 92
        8
 66
     7
 43
1.0
 76
     1
 77
     6
 78
     2
 67
     7
 79
     5
170
     0
171
     0
290
     0
174
     0
 93
        1
 44
0.0
173
     0
291
     1
 45
0.0
  0
VISUALSTYLE
  5
1F6
102
{ACAD_REACTORS
330
1F5
102
}
330
1F5
100
AcDbVisualStyle
  2
Flat
 70
     0
 71
     2
 72
     1
 73
     1
 90
        2
 40
0.6
 41
30.0
 62
     5
 63
     7
421
 16777215
 74
     0
 91
        0
 64
     7
 65
   257
 75
     1
175
     1
 42
1.0
 92
        8
 66
     7
 43
1.0
 76
     1
 77
     6
 78
     2
 67
     7
 79
     5
170
     0
171
     0
290
     0
174
     0
 93
       13
 44
0.0
173
     0
291
     1
 45
0.0
  0
VISUALSTYLE
  5
1F7
102
{ACAD_REACTORS
330
1F5
102
}
330
1F5
100
AcDbVisualStyle
  2
FlatWithEdges
 70
     1
 71
     2
 72
     1
 73
     1
 90
        2
 40
0.6
 41
30.0
 62
     5
 63
     7
421
 16777215
 74
     1
 91
        0
 64
     7
 65
   257
 75
     1
175
     1
 42
1.0
 92
        0
 66
   257
 43
1.0
 76
     1
 77
     6
 78
     2
 67
     7
 79
     5
170
     0
171
     0
290
     0
174
     0
 93
       13
 44
0.0
173
     0
291
     1
 45
0.0
  0
VISUALSTYLE
  5
1F8
102
{ACAD_REACTORS
330
1F5
102
}
330
1F5
100
AcDbVisualStyle
  2
Gouraud
 70
     2
 71
     2
 72
     2
 73
     1
 90
        2
 40
0.6
 41
30.0
 62
     5
 63
     7
421
 16777215
 74
     0
 91
        0
 64
     7
 65
   257
 75
     1
175
     1
 42
1.0
 92
        0
 66
     7
 43
1.0
 76
     1
 77
     6
 78
     2
 67
     7
 79
     5
170
     0
171
     0
290
     0
174
     0
 93
       13
 44
0.0
173
     0
291
     1
 45
0.0
  0
VISUALSTYLE
  5
1F9
102
{ACAD_REACTORS
330
1F5
102
}
330
1F5
100
AcDbVisualStyle
  2
GouraudWithEdges
 70
     3
 71
     2
 72
     2
 73
     1
 90
        2
 40
0.6
 41
30.0
 62
     5
 63
     7
421
 16777215
 74
     1
 91
        0
 64
     7
 65
   257
 75
     1
175
     1
 42
1.0
 92
        0
 66
   257
 43
1.0
 76
     1
 77
     6
 78
     2
 67
     7
 79
     5
170
     0
171
     0
290
     0
174
     0
 93
       13
 44
0.0
173
     0
291
     1
 45
0.0
  0
VISUALSTYLE
  5
1FC
102
{ACAD_REACTORS
330
1F5
102
}
330
1F5
100
AcDbVisualStyle
  2
Hidden
 70
     6
 71
     1
 72
     2
 73
     2
 90
        0
 40
0.6
 41
30.0
 62
     5
 63
     7
421
 16777215
 74
     2
 91
        2
 64
     7
 65
   257
 75
     2
175
     1
 42
40.0
 92
        0
 66
   257
 43
1.0
 76
     1
 77
     6
 78
     2
 67
     7
 79
     3
170
     0
171
     0
290
     0
174
     0
 93
        1
 44
0.0
173
     0
291
     0
 45
0.0
  0
VISUALSTYLE
  5
206
102
{ACAD_REACTORS
330
1F5
102
}
330
1F5
100
AcDbVisualStyle
  2
JitterOff
 70
    20
 71
     2
 72
     2
 73
     0
 90
        0
 40
0.6
 41
30.0
 62
     5
 63
     7
421
 16777215
 74
     1
 91
        4
 64
     7
 65
   257
 75
     1
175
     1
 42
1.0
 92
       10
 66
     7
 43
1.0
 76
     1
 77
     6
 78
     2
 67
     7
 79
     5
170
     0
171
     0
290
     0
174
     0
 93
        1
 44
0.0
173
     0
291
     1
 45
0.0
  0
VISUALSTYLE
  5
203
102
{ACAD_REACTORS
330
1F5
102
}
330
1F5
100
AcDbVisualStyle
  2
Linepattern
 70
    14
 71
     2
 72
     2
 73
     0
 90
        0
 40
0.6
 41
30.0
 62
     5
 63
     7
421
 16777215
 74
     1
 91
        4
 64
     7
 65
   257
 75
     7
175
     7
 42
1.0
 92
        8
 66
     7
 43
1.0
 76
     1
 77
     6
 78
     2
 67
     7
 79
     5
170
     0
171
     0
290
     0
174
     0
 93
        1
 44
0.0
173
     0
291
     1
 45
0.0
  0
VISUALSTYLE
  5
207
102
{ACAD_REACTORS
330
1F5
102
}
330
1F5
100
AcDbVisualStyle
  2
OverhangOff
 70
    21
 71
     2
 72
     2
 73
     0
 90
        0
 40
0.6
 41
30.0
 62
     5
 63
     7
421
 16777215
 74
     1
 91
        4
 64
     7
 65
   257
 75
     1
175
     1
 42
1.0
 92
        9
 66
     7
 43
1.0
 76
     1
 77
     6
 78
     2
 67
     7
 79
     5
170
     0
171
     0
290
     0
174
     0
 93
        1
 44
0.0
173
     0
291
     1
 45
0.0
  0
VISUALSTYLE
  5
1FE
102
{ACAD_REACTORS
330
1F5
102
}
330
1F5
100
AcDbVisualStyle
  2
Realistic
 70
     8
 71
     2
 72
     3
 73
     0
 90
        2
 40
0.6
 41
30.0
 62
     5
 63
     7
421
 16777215
 74
     0
 91
        0
 64
     7
 65
   257
 75
     1
175
     1
 42
1.0
 92
        8
 66
   257
 43
1.0
 76
     1
 77
     6
 78
     2
 67
     7
 79
     3
170
     0
171
     0
290
     0
174
     0
 93
       13
 44
0.0
173
     0
291
     0
 45
0.0
  0
VISUALSTYLE
  5
20D
102
{ACAD_REACTORS
330
1F5
102
}
330
1F5
100
AcDbVisualStyle
  2
Shaded
 70
    27
 71
     2
 72
     2
 73
     1
 90
        2
 40
0.6
 41
30.0
 62
     5
 63
     7
421
 16777215
 74
     0
 91
        4
 64
     7
 65
   257
 75
     1
175
     1
 42
1.0
 92
        8
 66
   257
 43
1.0
 76
     1
 77
     6
 78
     2
 67
     8
425
  7895160
 79
     3
170
     0
171
     0
290
     0
174
     0
 93
        5
 44
0.0
173
     0
291
     0
 45
0.0
  0
VISUALSTYLE
  5
20C
102
{ACAD_REACTORS
330
1F5
102
}
330
1F5
100
AcDbVisualStyle
  2
Shaded with edges
 70
    26
 71
     2
 72
     2
 73
     1
 90
        2
 40
0.6
 41
30.0
 62
     5
 63
     7
421
 16777215
 74
     1
 91
       10
 64
     7
 65
   257
 75
     2
175
     1
 42
1.0
 92
        8
 66
   257
 43
1.0
 76
     1
 77
     6
 78
     2
 67
     7
 79
     3
170
     0
171
     0
290
     0
174
     0
 93
        5
 44
0.0
173
     0
291
     0
 45
0.0
  0
VISUALSTYLE
  5
209
102
{ACAD_REACTORS
330
1F5
102
}
330
1F5
100
AcDbVisualStyle
  2
Shades of Gray
 70
    23
 71
     2
 72
     2
 73
     3
 90
        0
 40
0.6
 41
30.0
 62
     5
 63
     7
421
 16777215
 74
     2
 91
        2
 64
     7
 65
     7
 75
     1
175
     1
 42
40.0
 92
        8
 66
     7
 43
1.0
 76
     1
 77
     6
 78
     2
 67
     7
 79
     3
170
     0
171
     0
290
     0
174
     0
 93
        1
 44
0.0
173
     0
291
     0
 45
0.0
  0
VISUALSTYLE
  5
20A
102
{ACAD_REACTORS
330
1F5
102
}
330
1F5
100
AcDbVisualStyle
  2
Sketchy
 70
    24
 71
     1
 72
     2
 73
     2
 90
        0
 40
0.6
 41
30.0
 62
     5
 63
     7
421
 16777215
 74
     2
 91
        2
 64
     7
 65
     7
 75
     1
175
     1
 42
40.0
 92
       11
 66
     7
 43
1.0
 76
     1
 77
     6
 78
     2
 67
     7
 79
     6
170
     0
171
     0
290
     0
174
     0
 93
        1
 44
0.0
173
     0
291
     0
 45
0.0
  0
VISUALSTYLE
  5
202
102
{ACAD_REACTORS
330
1F5
102
}
330
1F5
100
AcDbVisualStyle
  2
Thicken
 70
    13
 71
     2
 72
     2
 73
     0
 90
        0
 40
0.6
 41
30.0
 62
     5
 63
     7
421
 16777215
 74
     1
 91
        4
 64
     7
 65
   257
 75
     1
175
     1
 42
1.0
 92
       12
 66
     7
 43
1.0
 76
     1
 77
     6
 78
     2
 67
     7
 79
     5
170
     0
171
     0
290
     0
174
     0
 93
        1
 44
0.0
173
     0
291
     1
 45
0.0
  0
VISUALSTYLE
  5
1FB
102
{ACAD_REACTORS
330
1F5
102
}
330
1F5
100
AcDbVisualStyle
  2
Wireframe
 70
     5
 71
     0
 72
     2
 73
     0
 90
        0
 40
0.6
 41
30.0
 62
     5
 63
     7
421
 16777215
 74
     1
 91
        4
 64
     7
 65
   257
 75
     1
175
     1
 42
1.0
 92
        0
 66
   257
 43
1.0
 76
     1
 77
     6
 78
     2
 67
     7
 79
     3
170
     0
171
     0
290
     0
174
     0
 93
        1
 44
0.0
173
     0
291
     0
 45
0.0
  0
VISUALSTYLE
  5
20B
102
{ACAD_REACTORS
330
1F5
102
}
330
1F5
100
AcDbVisualStyle
  2
X-Ray
 70
    25
 71
     2
 72
     2
 73
     1
 90
        1
 40
0.5
 41
30.0
 62
     5
 63
     7
421
 16777215
 74
     1
 91
        0
 64
     7
 65
   257
 75
     1
175
     1
 42
1.0
 92
        8
 66
     7
 43
1.0
 76
     1
 77
     6
 78
     2
 67
     7
 79
     3
170
     0
171
     0
290
     0
174
     0
 93
       13
 44
0.0
173
     0
291
     0
 45
0.0
  0
DICTIONARYVAR
  5
A55
102
{ACAD_REACTORS
330
A54
102
}
330
A54
100
DictionaryVariables
280
     0
  1
1:1
  0
DICTIONARYVAR
  5
A56
102
{ACAD_REACTORS
330
A54
102
}
330
A54
100
DictionaryVariables
280
     0
  1
Standard
  0
DICTIONARYVAR
  5
A57
102
{ACAD_REACTORS
330
A54
102
}
330
A54
100
DictionaryVariables
280
     0
  1
0
  0
DICTIONARYVAR
  5
ABA
102
{ACAD_REACTORS
330
A54
102
}
330
A54
100
DictionaryVariables
280
     0
  1
0
  0
XRECORD
  5
C76
102
{ACAD_REACTORS
330
C56
102
}
330
C56
100
AcDbXrecord
280
     1
 91
     1023
301

290
     0
302
Retino
330
14
 90
        8
 62
     7
370
    -3
331
13
  1
Color_7
330
41
 90
        0
 62
     7
370
    -3
331
13
  1
Color_7
330
42
 90
        8
 62
     7
370
    -3
331
13
  1
Color_7
330
43
 90
        8
 62
     7
370
    -3
331
13
  1
Color_7
330
44
 90
        8
 62
     7
370
    -3
331
13
  1
Color_7
330
218
 90
        8
 62
     5
370
    20
331
13
  1
Color_5
330
21E
 90
        8
 62
     4
370
    -3
331
13
  1
Color_4
330
221
 90
        8
 62
   254
370
     5
331
13
  1
Color_254
330
223
 90
        8
 62
     4
370
    -3
331
13
  1
Color_4
330
ABE
 90
        8
 62
     7
370
    -3
331
13
  1
Color_7
330
B91
 90
        8
 62
     7
370
     9
331
13
  1
Color_7
330
BDE
 90
        8
 62
     7
370
    -3
331
13
  1
Color_7
330
BE0
 90
        8
 62
     7
370
    -3
331
13
  1
Color_7
330
C74
 90
        8
 62
     7
370
    -3
331
13
  1
Color_7
  0
DICTIONARY
  5
C8E
330
213
100
AcDbDictionary
280
     1
281
     1
  3
ACAD_ROUNDTRIP_2008_TABLESTYLE_CELLSTYLEMAP
360
C8F
  0
CELLSTYLEMAP
  5
C8F
102
{ACAD_REACTORS
330
C8E
102
}
330
C8E
100
AcDbCellStyleMap
 90
        3
300
CELLSTYLE
  1
TABLEFORMAT_BEGIN
 90
        5
170
     1
 91
        0
 92
        0
 62
   257
 93
        1
300
CONTENTFORMAT
  1
CONTENTFORMAT_BEGIN
 90
        0
 91
        0
 92
        4
 93
        0
300

 40
0.0
140
1.0
 94
        5
 62
     0
340
17
144
6.0
309
CONTENTFORMAT_END
171
     1
301
MARGIN
  1
CELLMARGIN_BEGIN
 40
1.5
 40
1.5
 40
1.5
 40
1.5
 40
1.5
 40
1.5
309
CELLMARGIN_END
 94
        6
 95
        1
302
GRIDFORMAT
  1
GRIDFORMAT_BEGIN
 90
        0
 91
        1
 62
     0
 92
       -2
340
11
 93
        0
 40
0.045
309
GRIDFORMAT_END
 95
        2
302
GRIDFORMAT
  1
GRIDFORMAT_BEGIN
 90
        0
 91
        1
 62
     0
 92
       -2
340
11
 93
        0
 40
0.045
309
GRIDFORMAT_END
 95
        4
302
GRIDFORMAT
  1
GRIDFORMAT_BEGIN
 90
        0
 91
        1
 62
     0
 92
       -2
340
11
 93
        0
 40
0.045
309
GRIDFORMAT_END
 95
        8
302
GRIDFORMAT
  1
GRIDFORMAT_BEGIN
 90
        0
 91
        1
 62
     0
 92
       -2
340
11
 93
        0
 40
0.045
309
GRIDFORMAT_END
 95
       16
302
GRIDFORMAT
  1
GRIDFORMAT_BEGIN
 90
        0
 91
        1
 62
     0
 92
       -2
340
11
 93
        0
 40
0.045
309
GRIDFORMAT_END
 95
       32
302
GRIDFORMAT
  1
GRIDFORMAT_BEGIN
 90
        0
 91
        1
 62
     0
 92
       -2
340
11
 93
        0
 40
0.045
309
GRIDFORMAT_END
309
TABLEFORMAT_END
  1
CELLSTYLE_BEGIN
 90
        1
 91
        1
300
_TITLE
309
CELLSTYLE_END
300
CELLSTYLE
  1
TABLEFORMAT_BEGIN
 90
        5
170
     1
 91
        0
 92
        0
 62
   257
 93
        1
300
CONTENTFORMAT
  1
CONTENTFORMAT_BEGIN
 90
        0
 91
        0
 92
        4
 93
        0
300

 40
0.0
140
1.0
 94
        5
 62
     0
340
17
144
4.5
309
CONTENTFORMAT_END
171
     1
301
MARGIN
  1
CELLMARGIN_BEGIN
 40
1.5
 40
1.5
 40
1.5
 40
1.5
 40
1.5
 40
1.5
309
CELLMARGIN_END
 94
        6
 95
        1
302
GRIDFORMAT
  1
GRIDFORMAT_BEGIN
 90
        0
 91
        1
 62
     0
 92
       -2
340
11
 93
        0
 40
0.045
309
GRIDFORMAT_END
 95
        2
302
GRIDFORMAT
  1
GRIDFORMAT_BEGIN
 90
        0
 91
        1
 62
     0
 92
       -2
340
11
 93
        0
 40
0.045
309
GRIDFORMAT_END
 95
        4
302
GRIDFORMAT
  1
GRIDFORMAT_BEGIN
 90
        0
 91
        1
 62
     0
 92
       -2
340
11
 93
        0
 40
0.045
309
GRIDFORMAT_END
 95
        8
302
GRIDFORMAT
  1
GRIDFORMAT_BEGIN
 90
        0
 91
        1
 62
     0
 92
       -2
340
11
 93
        0
 40
0.045
309
GRIDFORMAT_END
 95
       16
302
GRIDFORMAT
  1
GRIDFORMAT_BEGIN
 90
        0
 91
        1
 62
     0
 92
       -2
340
11
 93
        0
 40
0.045
309
GRIDFORMAT_END
 95
       32
302
GRIDFORMAT
  1
GRIDFORMAT_BEGIN
 90
        0
 91
        1
 62
     0
 92
       -2
340
11
 93
        0
 40
0.045
309
GRIDFORMAT_END
309
TABLEFORMAT_END
  1
CELLSTYLE_BEGIN
 90
        2
 91
        1
300
_HEADER
309
CELLSTYLE_END
300
CELLSTYLE
  1
TABLEFORMAT_BEGIN
 90
        5
170
     1
 91
        0
 92
        0
 62
   257
 93
        1
300
CONTENTFORMAT
  1
CONTENTFORMAT_BEGIN
 90
        0
 91
        0
 92
        4
 93
        0
300

 40
0.0
140
1.0
 94
        2
 62
     0
340
17
144
4.5
309
CONTENTFORMAT_END
171
     1
301
MARGIN
  1
CELLMARGIN_BEGIN
 40
1.5
 40
1.5
 40
1.5
 40
1.5
 40
1.5
 40
1.5
309
CELLMARGIN_END
 94
        6
 95
        1
302
GRIDFORMAT
  1
GRIDFORMAT_BEGIN
 90
        0
 91
        1
 62
     0
 92
       -2
340
11
 93
        0
 40
0.045
309
GRIDFORMAT_END
 95
        2
302
GRIDFORMAT
  1
GRIDFORMAT_BEGIN
 90
        0
 91
        1
 62
     0
 92
       -2
340
11
 93
        0
 40
0.045
309
GRIDFORMAT_END
 95
        4
302
GRIDFORMAT
  1
GRIDFORMAT_BEGIN
 90
        0
 91
        1
 62
     0
 92
       -2
340
11
 93
        0
 40
0.045
309
GRIDFORMAT_END
 95
        8
302
GRIDFORMAT
  1
GRIDFORMAT_BEGIN
 90
        0
 91
        1
 62
     0
 92
       -2
340
11
 93
        0
 40
0.045
309
GRIDFORMAT_END
 95
       16
302
GRIDFORMAT
  1
GRIDFORMAT_BEGIN
 90
        0
 91
        1
 62
     0
 92
       -2
340
11
 93
        0
 40
0.045
309
GRIDFORMAT_END
 95
       32
302
GRIDFORMAT
  1
GRIDFORMAT_BEGIN
 90
        0
 91
        1
 62
     0
 92
       -2
340
11
 93
        0
 40
0.045
309
GRIDFORMAT_END
309
TABLEFORMAT_END
  1
CELLSTYLE_BEGIN
 90
        3
 91
        2
300
_DATA
309
CELLSTYLE_END
  0
ENDSEC
  0
EOF
