  0
SECTION
  2
HEADER
  9
$ACADVER
  1
AC1015
  9
$ACADMAINTVER
 70
               6
  9
$DWGCODEPAGE
  3
ANSI_932
  9
$INSBASE
 10
0.0
 20
0.0
 30
0.0
  9
$EXTMIN
 10
5750.0
 20
-1240.3881579346723
 30
-14.834305555555554
  9
$EXTMAX
 10
7700.000000000482
 20
1597.1346571777401
 30
14.834305555555554
  9
$LIMMIN
 10
0.0
 20
0.0
  9
$LIMMAX
 10
0.0
 20
0.0
  9
$ORTHOMODE
 70
               0
  9
$REGENMODE
 70
               1
  9
$FILLMODE
 70
               1
  9
$QTEXTMODE
 70
               0
  9
$MIRRTEXT
 70
               1
  9
$LTSCALE
 40
50.799999999999997
  9
$ATTMODE
 70
               1
  9
$TEXTSIZE
 40
0.2
  9
$TRACEWID
 40
1.0
  9
$TEXTSTYLE
  7
Standard
  9
$CLAYER
  8
notes
  9
$CELTYPE
  6
Continuous
  9
$CECOLOR
 62
             256
  9
$CELTSCALE
 40
1.0
  9
$DISPSILH
 70
               0
  9
$DIMSCALE
 40
1.0
  9
$DIMASZ
 40
31.75
  9
$DIMEXO
 40
0.0
  9
$DIMDLI
 40
6.9999999999999396
  9
$DIMRND
 40
0.0
  9
$DIMDLE
 40
0.0
  9
$DIMEXE
 40
19.999999999996199
  9
$DIMTP
 40
0.0
  9
$DIMTM
 40
0.0
  9
$DIMTXT
 40
24.432617187500004
  9
$DIMCEN
 40
0.0
  9
$DIMTSZ
 40
0.0
  9
$DIMTOL
 70
               0
  9
$DIMLIM
 70
               0
  9
$DIMTIH
 70
               0
  9
$DIMTOH
 70
               0
  9
$DIMSE1
 70
               0
  9
$DIMSE2
 70
               0
  9
$DIMTAD
 70
               1
  9
$DIMZIN
 70
              11
  9
$DIMBLK
  1
VW_FILLEDARROW
  9
$DIMASO
 70
               1
  9
$DIMSHO
 70
               1
  9
$DIMPOST
  1
<>
  9
$DIMAPOST
  1
[]
  9
$DIMALT
 70
               0
  9
$DIMALTD
 70
               1
  9
$DIMALTF
 40
1.0
  9
$DIMLFAC
 40
1.0
  9
$DIMTOFL
 70
               0
  9
$DIMTVP
 40
0.0
  9
$DIMTIX
 70
               1
  9
$DIMSOXD
 70
               0
  9
$DIMSAH
 70
               0
  9
$DIMBLK1
  1

  9
$DIMBLK2
  1

  9
$DIMSTYLE
  2
JIS
  9
$DIMCLRD
 70
               0
  9
$DIMCLRE
 70
               0
  9
$DIMCLRT
 70
               0
  9
$DIMTFAC
 40
1.0
  9
$DIMGAP
 40
1.00000000000108
  9
$DIMJUST
 70
               0
  9
$DIMSD1
 70
               0
  9
$DIMSD2
 70
               0
  9
$DIMTOLJ
 70
               1
  9
$DIMTZIN
 70
              11
  9
$DIMALTZ
 70
              11
  9
$DIMALTTZ
 70
              11
  9
$DIMUPT
 70
               0
  9
$DIMDEC
 70
               1
  9
$DIMTDEC
 70
               1
  9
$DIMALTU
 70
               2
  9
$DIMALTTD
 70
               2
  9
$DIMTXSTY
  7
ＭＳ ゴシック
  9
$DIMAUNIT
 70
               0
  9
$DIMADEC
 70
               2
  9
$DIMALTRND
 40
0.0
  9
$DIMAZIN
 70
               0
  9
$DIMDSEP
 70
              46
  9
$DIMATFIT
 70
               0
  9
$DIMFRAC
 70
               2
  9
$DIMLDRBLK
  1

  9
$DIMLUNIT
 70
               2
  9
$DIMLWD
 70
              -2
  9
$DIMLWE
 70
              -2
  9
$DIMTMOVE
 70
               0
  9
$LUNITS
 70
               2
  9
$LUPREC
 70
               4
  9
$SKETCHINC
 40
0.1
  9
$FILLETRAD
 40
0.0
  9
$AUNITS
 70
               0
  9
$AUPREC
 70
               0
  9
$MENU
  1
acad
  9
$ELEVATION
 40
0.0
  9
$PELEVATION
 40
0.0
  9
$THICKNESS
 40
0.0
  9
$LIMCHECK
 70
               0
  9
$CHAMFERA
 40
0.0
  9
$CHAMFERB
 40
0.0
  9
$CHAMFERC
 40
0.0
  9
$CHAMFERD
 40
0.0
  9
$SKPOLY
 70
               0
  9
$TDCREATE
 40
2456279.486354167
  9
$TDUCREATE
 40
0.000000000
  9
$TDUPDATE
 40
2456279.486354167
  9
$TDUUPDATE
 40
0.000000000
  9
$TDINDWG
 40
0.0000000000
  9
$TDUSRTIMER
 40
0.0000000000
  9
$USRTIMER
 70
               1
  9
$ANGBASE
 50
0.0
  9
$ANGDIR
 70
               0
  9
$PDMODE
 70
               1
  9
$PDSIZE
 40
-2.0
  9
$PLINEWID
 40
0.0
  9
$SPLFRAME
 70
               0
  9
$SPLINETYPE
 70
               6
  9
$SPLINESEGS
 70
               8
  9
$HANDSEED
  5
241
  9
$SURFTAB1
 70
               6
  9
$SURFTAB2
 70
               6
  9
$SURFTYPE
 70
               6
  9
$SURFU
 70
               6
  9
$SURFV
 70
               6
  9
$UCSBASE
  2

  9
$UCSNAME
  2

  9
$UCSORG
 10
0.0
 20
0.0
 30
0.0
  9
$UCSXDIR
 10
1.0
 20
0.0
 30
0.0
  9
$UCSYDIR
 10
0.0
 20
1.0
 30
0.0
  9
$UCSORTHOREF
  2

  9
$UCSORTHOVIEW
 70
               0
  9
$UCSORGTOP
 10
0.0
 20
0.0
 30
0.0
  9
$UCSORGBOTTOM
 10
0.0
 20
0.0
 30
0.0
  9
$UCSORGLEFT
 10
0.0
 20
0.0
 30
0.0
  9
$UCSORGRIGHT
 10
0.0
 20
0.0
 30
0.0
  9
$UCSORGFRONT
 10
0.0
 20
0.0
 30
0.0
  9
$UCSORGBACK
 10
0.0
 20
0.0
 30
0.0
  9
$PUCSBASE
  2

  9
$PUCSNAME
  2

  9
$PUCSORG
 10
0.0
 20
0.0
 30
0.0
  9
$PUCSXDIR
 10
1.0
 20
0.0
 30
0.0
  9
$PUCSYDIR
 10
0.0
 20
1.0
 30
0.0
  9
$PUCSORTHOREF
  2

  9
$PUCSORTHOVIEW
 70
               0
  9
$PUCSORGTOP
 10
0.0
 20
0.0
 30
0.0
  9
$PUCSORGBOTTOM
 10
0.0
 20
0.0
 30
0.0
  9
$PUCSORGLEFT
 10
0.0
 20
0.0
 30
0.0
  9
$PUCSORGRIGHT
 10
0.0
 20
0.0
 30
0.0
  9
$PUCSORGFRONT
 10
0.0
 20
0.0
 30
0.0
  9
$PUCSORGBACK
 10
0.0
 20
0.0
 30
0.0
  9
$USERI1
 70
               0
  9
$USERI2
 70
               0
  9
$USERI3
 70
               0
  9
$USERI4
 70
               0
  9
$USERI5
 70
               0
  9
$USERR1
 40
0.0
  9
$USERR2
 40
0.0
  9
$USERR3
 40
0.0
  9
$USERR4
 40
0.0
  9
$USERR5
 40
0.0
  9
$WORLDVIEW
 70
               1
  9
$SHADEDGE
 70
               3
  9
$SHADEDIF
 70
              70
  9
$TILEMODE
 70
               1
  9
$MAXACTVP
 70
              64
  9
$PINSBASE
 10
0.0
 20
0.0
 30
0.0
  9
$PLIMCHECK
 70
               0
  9
$PEXTMIN
 10
1.0000000000000000E+20
 20
1.0000000000000000E+20
 30
1.0000000000000000E+20
  9
$PEXTMAX
 10
-1.0000000000000000E+20
 20
-1.0000000000000000E+20
 30
-1.0000000000000000E+20
  9
$PLIMMIN
 10
0.0
 20
0.0
  9
$PLIMMAX
 10
12.0
 20
9.0
  9
$UNITMODE
 70
               0
  9
$VISRETAIN
 70
               0
  9
$PLINEGEN
 70
               1
  9
$PSLTSCALE
 70
               0
  9
$TREEDEPTH
 70
            3020
  9
$CMLSTYLE
  2
Standard
  9
$CMLJUST
 70
               0
  9
$CMLSCALE
 40
1.0
  9
$PROXYGRAPHICS
 70
               0
  9
$MEASUREMENT
 70
               1
  9
$CELWEIGHT
370
               0
  9
$ENDCAPS
280
               0
  9
$JOINSTYLE
280
               0
  9
$LWDISPLAY
290
               1
  9
$INSUNITS
 70
               4
  9
$HYPERLINKBASE
  1

  9
$STYLESHEET
  1

  9
$XEDIT
290
               1
  9
$CEPSNTYPE
380
               0
  9
$PSTYLEMODE
290
               1
  9
$FINGERPRINTGUID
  2

  9
$VERSIONGUID
  2

  9
$EXTNAMES
290
               1
  9
$PSVPSCALE
 40
0.0
  0
ENDSEC
  0
SECTION
  2
CLASSES
  0
CLASS
  1
LWPOLYLINE
  2
AcDbPolyline
  3
AutoCAD 2000
 90
        0
280
               0
281
               1
  0
CLASS
  1
IMAGE
  2
AcDbRasterImage
  3
ISM
 90
      127
280
               0
281
               1
  0
CLASS
  1
OLE2FRAME
  2
AcDbOle2Frame
  3
AutoCAD 2000
 90
        0
280
               0
281
               1
  0
CLASS
  1
HATCH
  2
AcDbHatch
  3
AutoCAD 2000
 90
        0
280
               0
281
               1
  0
CLASS
  1
DICTIONARYVAR
  2
AcDbDictionaryVar
  3
AutoCAD 2000
 90
        0
280
               0
281
               0
  0
CLASS
  1
RASTERVARIABLES
  2
AcDbRasterVariables
  3
ISM
 90
        0
280
               0
281
               0
  0
CLASS
  1
IMAGEDEF
  2
AcDbRasterImageDef
  3
ISM
 90
        0
280
               0
281
               0
  0
CLASS
  1
IMAGEDEF_REACTOR
  2
AcDbRasterImageDefReactor
  3
ISM
 90
        1
280
               0
281
               0
  0
CLASS
  1
IDBUFFER
  2
AcDbIdBuffer
  3
AutoCAD 2000
 90
        0
280
               0
281
               0
  0
CLASS
  1
SPATIAL_FILTER
  2
AcDbSpatialFilter
  3
AutoCAD 2000
 90
        0
280
               0
281
               0
  0
CLASS
  1
XRECORD
  2
AcDbXrecord
  3
AutoCAD 2000
 90
        0
280
               0
281
               0
  0
CLASS
  1
SORTENTSTABLE
  2
AcDbSortentsTable
  3
AutoCAD 2000
 90
        0
280
               0
281
               0
  0
CLASS
  1
LAYER_INDEX
  2
AcDbLayerIndex
  3
AutoCAD 2000
 90
        0
280
               0
281
               0
  0
CLASS
  1
SPATIAL_INDEX
  2
AcDbSpatialIndex
  3
AutoCAD 2000
 90
        0
280
               0
281
               0
  0
CLASS
  1
OBJECT_PTR
  2
CAseDLPNTableRecord
  3
"ASE-LPNTableRecord"
 90
        1
280
               0
281
               0
  0
CLASS
  1
LAYOUT
  2
AcDbLayout
  3
AutoCAD 2000
 90
        0
280
               0
281
               0
  0
CLASS
  1
PLOTSETTINGS
  2
AcDbPlotSettings
  3
AutoCAD 2000
 90
        0
280
               0
281
               0
  0
CLASS
  1
ACDBDICTIONARYWDFLT
  2
AcDbDictionaryWithDefault
  3
AutoCAD 2000
 90
        0
280
               0
281
               0
  0
CLASS
  1
ACDBPLACEHOLDER
  2
AcDbPlaceHolder
  3
AutoCAD 2000
 90
        0
280
               0
281
               0
  0
ENDSEC
  0
SECTION
  2
TABLES
  0
TABLE
  2
VPORT
  5
7
100
AcDbSymbolTable
 70
               1
  0
VPORT
  5
15
100
AcDbSymbolTableRecord
100
AcDbViewportTableRecord
  2
*ACTIVE
 70
               0
 10
0.0
 20
0.0
 11
1.0
 21
1.0
 12
6725.000000000241
 22
178.37324962153389
 13
0.0
 23
0.0
 14
1.0
 24
1.0
 15
0.0
 25
0.0
 16
0.0
 26
0.0
 36
1.0
 17
0.0
 27
0.0
 37
0.0
 40
2837.5228151124124
 41
0.688564
 42
50.0
 43
0.0
 44
0.0
 50
0.0
 51
0.0
 71
               0
 72
            2000
 73
               1
 74
               1
 75
               0
 76
               0
 77
               0
 78
               0
281
               0
 65
               0
110
0.0
120
0.0
130
0.0
111
1.0
121
0.0
131
0.0
112
0.0
122
1.0
132
0.0
345
0
346
0
 79
               0
146
0.0
  0
ENDTAB
  0
TABLE
  2
LTYPE
  5
4
100
AcDbSymbolTable
 70
              19
  0
LTYPE
  5
11
100
AcDbSymbolTableRecord
100
AcDbLinetypeTableRecord
  2
ByBlock
 70
              64
  3

 72
              65
 73
               0
 40
0.0
  0
LTYPE
  5
12
100
AcDbSymbolTableRecord
100
AcDbLinetypeTableRecord
  2
ByLayer
 70
              64
  3

 72
              65
 73
               0
 40
0.0
  0
LTYPE
  5
13
100
AcDbSymbolTableRecord
100
AcDbLinetypeTableRecord
  2
Continuous
 70
              64
  3
Solid line
 72
              65
 73
               0
 40
0.0
  0
LTYPE
  5
3A
100
AcDbSymbolTableRecord
100
AcDbLinetypeTableRecord
  2
STYLE_01
 70
               0
  3

 72
              65
 73
               2
 40
0.2460629921259842
 49
0.1230314960629921
 74
               0
 49
-0.1230314960629921
 74
               0
  0
LTYPE
  5
3B
100
AcDbSymbolTableRecord
100
AcDbLinetypeTableRecord
  2
STYLE_02
 70
               0
  3

 72
              65
 73
               2
 40
0.6944250000000001
 49
0.48607
 74
               0
 49
-0.2083550000000001
 74
               0
  0
LTYPE
  5
3C
100
AcDbSymbolTableRecord
100
AcDbLinetypeTableRecord
  2
STYLE_03
 70
               0
  3

 72
              65
 73
               2
 40
1.25
 49
1.0416400000000001
 74
               0
 49
-0.2083599999999999
 74
               0
  0
LTYPE
  5
3D
100
AcDbSymbolTableRecord
100
AcDbLinetypeTableRecord
  2
STYLE_04
 70
               0
  3

 72
              65
 73
               2
 40
1.5277099999999999
 49
1.3194249999999998
 74
               0
 49
-0.208285
 74
               0
  0
LTYPE
  5
3E
100
AcDbSymbolTableRecord
100
AcDbLinetypeTableRecord
  2
STYLE_05
 70
               0
  3

 72
              65
 73
               2
 40
0.20828
 49
0.069425
 74
               0
 49
-0.138855
 74
               0
  0
LTYPE
  5
3F
100
AcDbSymbolTableRecord
100
AcDbLinetypeTableRecord
  2
STYLE_06
 70
               0
  3

 72
              65
 73
               4
 40
1.0416400000000001
 49
0.625
 74
               0
 49
-0.20828
 74
               0
 49
0.06943
 74
               0
 49
-0.13893
 74
               0
  0
LTYPE
  5
40
100
AcDbSymbolTableRecord
100
AcDbLinetypeTableRecord
  2
STYLE_07
 70
               0
  3

 72
              65
 73
               6
 40
1.875
 49
0.625
 74
               0
 49
-0.20828
 74
               0
 49
0.6250000000000001
 74
               0
 49
-0.2083599999999999
 74
               0
 49
0.06943
 74
               0
 49
-0.1389299999999999
 74
               0
  0
LTYPE
  5
41
100
AcDbSymbolTableRecord
100
AcDbLinetypeTableRecord
  2
STYLE_08
 70
               0
  3

 72
              65
 73
               6
 40
1.25
 49
0.625
 74
               0
 49
-0.20828
 74
               0
 49
0.06943
 74
               0
 49
-0.13893
 74
               0
 49
0.0694299999999999
 74
               0
 49
-0.13893
 74
               0
  0
LTYPE
  5
42
100
AcDbSymbolTableRecord
100
AcDbLinetypeTableRecord
  2
STYLE_09
 70
               0
  3

 72
              65
 73
               4
 40
5.0
 49
3.75
 74
               0
 49
-0.2777849999999998
 74
               0
 49
0.6944300000000003
 74
               0
 49
-0.2777849999999998
 74
               0
  0
LTYPE
  5
43
100
AcDbSymbolTableRecord
100
AcDbLinetypeTableRecord
  2
STYLE_10
 70
               0
  3

 72
              65
 73
               6
 40
5.9375
 49
3.75
 74
               0
 49
-0.2777849999999998
 74
               0
 49
0.6944300000000003
 74
               0
 49
-0.2777849999999998
 74
               0
 49
0.625
 74
               0
 49
-0.3125
 74
               0
  0
LTYPE
  5
44
100
AcDbSymbolTableRecord
100
AcDbLinetypeTableRecord
  2
STYLE_11
 70
               0
  3

 72
              65
 73
               2
 40
0.0694444881889764
 49
0.0347222440944882
 74
               0
 49
-0.0347222440944882
 74
               0
  0
LTYPE
  5
45
100
AcDbSymbolTableRecord
100
AcDbLinetypeTableRecord
  2
STYLE_12
 70
               0
  3

 72
              65
 73
               2
 40
0.3937007874015748
 49
0.1968503937007874
 74
               0
 49
-0.1968503937007874
 74
               0
  0
LTYPE
  5
46
100
AcDbSymbolTableRecord
100
AcDbLinetypeTableRecord
  2
STYLE_13
 70
               0
  3

 72
              65
 73
               2
 40
0.5905511811023622
 49
0.2952755905511811
 74
               0
 49
-0.2952755905511811
 74
               0
  0
LTYPE
  5
47
100
AcDbSymbolTableRecord
100
AcDbLinetypeTableRecord
  2
STYLE_14
 70
               0
  3

 72
              65
 73
               2
 40
1.9685039370078738
 49
0.9842519685039369
 74
               0
 49
-0.9842519685039369
 74
               0
  0
LTYPE
  5
48
100
AcDbSymbolTableRecord
100
AcDbLinetypeTableRecord
  2
STYLE_15
 70
               0
  3

 72
              65
 73
               2
 40
0.1875
 49
0.125
 74
               0
 49
-0.0625
 74
               0
  0
LTYPE
  5
49
100
AcDbSymbolTableRecord
100
AcDbLinetypeTableRecord
  2
STYLE_16
 70
               0
  3

 72
              65
 73
               2
 40
0.3690944881889764
 49
0.2460629921259843
 74
               0
 49
-0.1230314960629922
 74
               0
  0
ENDTAB
  0
TABLE
  2
LAYER
  5
2
100
AcDbSymbolTable
 70
               5
  0
LAYER
  5
14
100
AcDbSymbolTableRecord
100
AcDbLayerTableRecord
  2
0
 70
               0
 62
               7
  6
Continuous
290
               1
370
              -3
390
1D
  0
LAYER
  5
4A
100
AcDbSymbolTableRecord
100
AcDbLayerTableRecord
  2
Defpoints
 70
               0
 62
               7
  6
Continuous
290
               0
370
              -3
390
1D
  0
LAYER
  5
4B
100
AcDbSymbolTableRecord
100
AcDbLayerTableRecord
  2
template
 70
               0
 62
               7
  6
Continuous
290
               1
370
              -3
390
1D
  0
LAYER
  5
4C
100
AcDbSymbolTableRecord
100
AcDbLayerTableRecord
  2
notes
 70
               0
 62
               7
  6
Continuous
290
               1
370
              -3
390
1D
  0
LAYER
  5
4D
100
AcDbSymbolTableRecord
100
AcDbLayerTableRecord
  2
ADF70-2501
 70
               0
 62
               7
  6
Continuous
290
               1
370
              -3
390
1D
  0
ENDTAB
  0
TABLE
  2
STYLE
  5
3
100
AcDbSymbolTable
 70
               2
  0
STYLE
  5
17
100
AcDbSymbolTableRecord
100
AcDbTextStyleTableRecord
  2
Standard
 70
               0
 40
0.0
 41
1.0
 50
0.0
 71
               0
 42
0.0
  3
txt
  4
BIGFONT.SHX
  0
STYLE
  5
39
100
AcDbSymbolTableRecord
100
AcDbTextStyleTableRecord
  2
ＭＳ ゴシック
 70
               0
 40
0.0
 41
1.0
 50
0.0
 71
               0
 42
0.0
  3

  4
ＭＳ ゴシック
1001
ACAD
1000
ＭＳ ゴシック
1071
        0
  0
ENDTAB
  0
TABLE
  2
VIEW
  5
5
100
AcDbSymbolTable
 70
               0
  0
ENDTAB
  0
TABLE
  2
UCS
  5
6
100
AcDbSymbolTable
 70
               0
  0
ENDTAB
  0
TABLE
  2
APPID
  5
8
100
AcDbSymbolTable
 70
               1
  0
APPID
  5
16
100
AcDbSymbolTableRecord
100
AcDbRegAppTableRecord
  2
ACAD
 70
               0
  0
ENDTAB
  0
TABLE
  2
DIMSTYLE
  5
9
100
AcDbSymbolTable
 70
               4
100
AcDbDimStyleTable
 71
               0
  0
DIMSTYLE
105
18
100
AcDbSymbolTableRecord
100
AcDbDimStyleTableRecord
  2
Standard
 70
               0
  3

  4

 40
1.0
 41
0.18
 42
0.0625
 43
0.38
 44
0.18
 45
0.0
 46
0.0
 47
0.0
 48
0.0
 71
               0
 72
               0
 73
               1
 74
               1
 75
               0
 76
               0
 77
               0
 78
               0
 79
               0
140
0.18
141
0.09
142
0.0
143
25.399999999999999
144
1.0
145
0.0
146
1.0
147
0.09
148
0.0
170
               0
171
               2
172
               0
173
               0
174
               0
175
               0
176
               0
177
               0
178
               0
179
               0
271
               4
272
               4
273
               2
274
               2
275
               0
276
               0
277
               2
278
              46
279
               0
280
               0
281
               0
282
               0
283
               1
284
               0
285
               0
286
               0
288
               0
289
               3
340
17
341
0
342
0
343
0
344
0
371
              -2
372
              -2
  0
DIMSTYLE
105
56
100
AcDbSymbolTableRecord
100
AcDbDimStyleTableRecord
  2
tform線あり
 70
               0
  3
<>
  4
[]
 40
1.0
 41
9.9993896484374982
 42
24.999999999999996
 43
0.9999999999999999
 44
0.0
 45
0.0
 46
0.0
 47
0.0
 48
0.0
 71
               0
 72
               0
 73
               0
 74
               0
 75
               0
 76
               0
 77
               1
 78
              11
 79
               0
140
24.432617187500004
141
0.0
142
0.0
143
1.0
144
1.0
145
0.0
146
0.8
147
0.4999999999999999
148
0.0
170
               0
171
               1
172
               1
173
               0
174
               1
175
               0
176
               0
177
               0
178
               0
179
               2
271
               1
272
               1
273
               2
274
               2
275
               0
276
               2
277
               2
278
              46
279
               0
280
               0
281
               0
282
               0
283
               1
284
              11
285
              11
286
              11
288
               0
289
               0
340
39
341
4E
342
4E
343
0
344
0
371
              -2
372
              -2
  0
DIMSTYLE
105
57
100
AcDbSymbolTableRecord
100
AcDbDimStyleTableRecord
  2
tfrom線あり
 70
               0
  3
<>
  4
[]
 40
1.0
 41
9.9993896484374982
 42
24.999999999999996
 43
0.9999999999999999
 44
0.0
 45
0.0
 46
0.0
 47
0.0
 48
0.0
 71
               0
 72
               0
 73
               0
 74
               0
 75
               0
 76
               0
 77
               1
 78
              11
 79
               0
140
24.432617187500004
141
0.0
142
0.0
143
1.0
144
1.0
145
0.0
146
1.0
147
0.4999999999999999
148
0.0
170
               0
171
               1
172
               0
173
               0
174
               1
175
               0
176
               0
177
               0
178
               0
179
               2
271
               1
272
               1
273
               2
274
               2
275
               0
276
               2
277
               2
278
              46
279
               0
280
               0
281
               0
282
               0
283
               1
284
              11
285
              11
286
              11
288
               0
289
               0
340
39
341
4E
342
4E
343
0
344
0
371
              -2
372
              -2
  0
DIMSTYLE
105
5C
100
AcDbSymbolTableRecord
100
AcDbDimStyleTableRecord
  2
JIS
 70
               0
  3
<>
  4
[]
 40
1.0
 41
31.75
 42
0.0
 43
6.9999999999999396
 44
19.999999999996199
 45
0.0
 46
0.0
 47
0.0
 48
0.0
 71
               0
 72
               0
 73
               0
 74
               0
 75
               0
 76
               0
 77
               1
 78
              11
 79
               0
140
24.432617187500004
141
0.0
142
0.0
143
1.0
144
1.0
145
0.0
146
1.0
147
1.00000000000108
148
0.0
170
               0
171
               1
172
               0
173
               0
174
               1
175
               0
176
               0
177
               0
178
               0
179
               2
271
               1
272
               1
273
               2
274
               2
275
               0
276
               2
277
               2
278
              46
279
               0
280
               0
281
               0
282
               0
283
               1
284
              11
285
              11
286
              11
288
               0
289
               0
340
39
341
58
342
58
343
0
344
0
371
              -2
372
              -2
  0
ENDTAB
  0
TABLE
  2
BLOCK_RECORD
  5
1
100
AcDbSymbolTable
 70
              24
  0
BLOCK_RECORD
  5
A
100
AcDbSymbolTableRecord
100
AcDbBlockTableRecord
  2
*MODEL_SPACE
340
20
  0
BLOCK_RECORD
  5
B
100
AcDbSymbolTableRecord
100
AcDbBlockTableRecord
  2
*PAPER_SPACE
340
21
  0
BLOCK_RECORD
  5
4E
100
AcDbSymbolTableRecord
100
AcDbBlockTableRecord
  2
_DOT
340
0
  0
BLOCK_RECORD
  5
58
100
AcDbSymbolTableRecord
100
AcDbBlockTableRecord
  2
VW_FILLEDARROW
340
0
  0
BLOCK_RECORD
  5
23
100
AcDbSymbolTableRecord
100
AcDbBlockTableRecord
  2
グループ
340
0
102
{BLKREFS
331
17F
102
}
  0
BLOCK_RECORD
  5
24
100
AcDbSymbolTableRecord
100
AcDbBlockTableRecord
  2
*D3
340
0
  0
BLOCK_RECORD
  5
25
100
AcDbSymbolTableRecord
100
AcDbBlockTableRecord
  2
*D4
340
0
  0
BLOCK_RECORD
  5
26
100
AcDbSymbolTableRecord
100
AcDbBlockTableRecord
  2
*D5
340
0
  0
BLOCK_RECORD
  5
27
100
AcDbSymbolTableRecord
100
AcDbBlockTableRecord
  2
*D6
340
0
  0
BLOCK_RECORD
  5
28
100
AcDbSymbolTableRecord
100
AcDbBlockTableRecord
  2
*D7
340
0
  0
BLOCK_RECORD
  5
29
100
AcDbSymbolTableRecord
100
AcDbBlockTableRecord
  2
*D8
340
0
  0
BLOCK_RECORD
  5
2A
100
AcDbSymbolTableRecord
100
AcDbBlockTableRecord
  2
*D9
340
0
  0
BLOCK_RECORD
  5
2B
100
AcDbSymbolTableRecord
100
AcDbBlockTableRecord
  2
*D10
340
0
  0
BLOCK_RECORD
  5
2C
100
AcDbSymbolTableRecord
100
AcDbBlockTableRecord
  2
*D11
340
0
  0
BLOCK_RECORD
  5
2D
100
AcDbSymbolTableRecord
100
AcDbBlockTableRecord
  2
*D12
340
0
  0
BLOCK_RECORD
  5
2E
100
AcDbSymbolTableRecord
100
AcDbBlockTableRecord
  2
*D13
340
0
  0
BLOCK_RECORD
  5
2F
100
AcDbSymbolTableRecord
100
AcDbBlockTableRecord
  2
*D14
340
0
  0
BLOCK_RECORD
  5
30
100
AcDbSymbolTableRecord
100
AcDbBlockTableRecord
  2
*D15
340
0
  0
BLOCK_RECORD
  5
31
100
AcDbSymbolTableRecord
100
AcDbBlockTableRecord
  2
*D16
340
0
  0
BLOCK_RECORD
  5
32
100
AcDbSymbolTableRecord
100
AcDbBlockTableRecord
  2
*D17
340
0
  0
BLOCK_RECORD
  5
33
100
AcDbSymbolTableRecord
100
AcDbBlockTableRecord
  2
*D18
340
0
  0
BLOCK_RECORD
  5
34
100
AcDbSymbolTableRecord
100
AcDbBlockTableRecord
  2
*D19
340
0
  0
BLOCK_RECORD
  5
35
100
AcDbSymbolTableRecord
100
AcDbBlockTableRecord
  2
*D20
340
0
  0
BLOCK_RECORD
  5
36
100
AcDbSymbolTableRecord
100
AcDbBlockTableRecord
  2
*D21
340
0
  0
BLOCK_RECORD
  5
37
100
AcDbSymbolTableRecord
100
AcDbBlockTableRecord
  2
*D22
340
0
  0
BLOCK_RECORD
  5
38
100
AcDbSymbolTableRecord
100
AcDbBlockTableRecord
  2
*D23
340
0
  0
ENDTAB
  0
ENDSEC
  0
SECTION
  2
BLOCKS
  0
BLOCK
  5
D
100
AcDbEntity
  8
0
390
0
100
AcDbBlockBegin
  2
*MODEL_SPACE
 70
               0
 10
0.0
 20
0.0
 30
0.0
  3
*MODEL_SPACE
  1

  0
ENDBLK
  5
E
100
AcDbEntity
  8
0
390
0
100
AcDbBlockEnd
  0
BLOCK
  5
F
100
AcDbEntity
 67
               1
  8
0
390
0
100
AcDbBlockBegin
  2
*PAPER_SPACE
 70
               0
 10
0.0
 20
0.0
 30
0.0
  3
*PAPER_SPACE
  1

  0
ENDBLK
  5
10
100
AcDbEntity
 67
               1
  8
0
390
0
100
AcDbBlockEnd
  0
BLOCK
  5
4F
100
AcDbEntity
  8
0
390
0
100
AcDbBlockBegin
  2
_DOT
 70
               0
 10
0.0
 20
0.0
 30
0.0
  3
_DOT
  1

  0
POLYLINE
  5
50
100
AcDbEntity
  8
0
370
              -2
390
0
  6
ByBlock
 62
               0
100
AcDb2dPolyline
 66
               1
 10
0.0
 20
0.0
 30
0.0
 70
               1
 40
0.5
 41
0.5
  0
VERTEX
  5
51
100
AcDbEntity
  8
0
370
              -2
390
0
  6
ByBlock
 62
               0
100
AcDbVertex
100
AcDb2dVertex
 10
-0.25
 20
0.0
 30
0.0
 42
1.0
  0
VERTEX
  5
52
100
AcDbEntity
  8
0
370
              -2
390
0
  6
ByBlock
 62
               0
100
AcDbVertex
100
AcDb2dVertex
 10
0.25
 20
0.0
 30
0.0
 42
1.0
  0
SEQEND
  5
53
100
AcDbEntity
  8
0
390
0
  0
LINE
  5
54
100
AcDbEntity
  8
0
370
              -2
390
0
  6
ByBlock
 62
               0
100
AcDbLine
 10
-0.5
 20
0.0
 30
0.0
 11
-1.0
 21
0.0
 31
0.0
  0
ENDBLK
  5
55
100
AcDbEntity
  8
0
390
0
100
AcDbBlockEnd
  0
BLOCK
  5
59
100
AcDbEntity
  8
0
370
              -2
390
0
  6
ByBlock
 62
               0
100
AcDbBlockBegin
  2
VW_FILLEDARROW
 70
               0
 10
0.0
 20
0.0
 30
0.0
  3
VW_FILLEDARROW
  1

  0
SOLID
  5
5A
100
AcDbEntity
  8
0
370
              -2
390
0
 62
               0
100
AcDbTrace
 10
0.0
 20
0.0
 30
0.0
 11
-0.9921874999999999
 21
-0.2658558393652545
 31
0.0
 12
-0.9921874999999999
 22
0.2658558393652548
 32
0.0
 13
-0.9921874999999999
 23
0.2658558393652548
 33
0.0
  0
ENDBLK
  5
5B
100
AcDbEntity
  8
0
390
0
100
AcDbBlockEnd
  0
BLOCK
  5
5D
100
AcDbEntity
  8
template
390
0
100
AcDbBlockBegin
  2
グループ
 70
               0
 10
0.0
 20
0.0
 30
0.0
  3
グループ
  1

  0
LWPOLYLINE
  5
5E
100
AcDbEntity
  8
0
370
              15
390
0
  6
Continuous
 62
               7
100
AcDbPolyline
 90
        8
 70
             129
 10
-1244.108640120857
 20
-1323.4282452500322
 10
-1244.108640120857
 20
-1329.4256339436081
 10
-1253.6098370388604
 20
-1329.4256339436081
 10
-1253.6098370388604
 20
-1353.8765972071169
 10
-1261.9652143006431
 20
-1353.8765972071169
 10
-1261.9652143006431
 20
-1329.4256339436081
 10
-1271.2981712469525
 20
-1329.4256339436081
 10
-1271.2981712469525
 20
-1323.4282452500322
  0
LWPOLYLINE
  5
5F
100
AcDbEntity
  8
0
370
              15
390
0
  6
Continuous
 62
               7
100
AcDbPolyline
 90
      101
 70
             128
 10
-1231.3803482902999
 20
-1324.1564937429687
 10
-1231.364998261517
 20
-1324.1521329862842
 42
-0.0222221607816454
 10
-1231.0749936848438
 20
-1324.083508521039
 10
-1231.0591999208541
 20
-1324.0805050979427
 42
-0.0146883565588116
 10
-1230.796497215626
 20
-1324.0385019109926
 42
-0.0127458844189694
 10
-1230.5318582484804
 20
-1324.0109649429207
 10
-1230.4694031701604
 20
-1324.0060715203319
 42
-0.019809901856783
 10
-1230.0785540606853
 20
-1323.9909863629355
 10
-1230.0267425912398
 20
-1323.9910401386005
 42
-0.0147617382761896
 10
-1229.5321191302596
 20
-1324.0061601638456
 10
-1229.4594276753903
 20
-1324.0105327707331
 42
-0.0162624549004472
 10
-1229.069274045926
 20
-1324.0467656460053
 10
-1228.9477416546767
 20
-1324.0620522050006
 42
-0.0080020874671254
 10
-1228.8021626235752
 20
-1324.0827350522702
 10
-1228.7638431529699
 20
-1324.0888063300829
 42
-0.0053821929667848
 10
-1228.6953590476655
 20
-1324.1004138539029
 10
-1229.421764746864
 20
-1326.2813423096168
 42
0.0108667757409203
 10
-1229.4890818170022
 20
-1326.2681551943956
 10
-1229.5265498401843
 20
-1326.2616574518024
 42
0.0170663203304902
 10
-1229.6697666270979
 20
-1326.2418278545108
 10
-1229.7376419597829
 20
-1326.2347806839232
 42
0.0220162375273616
 10
-1230.0180213676367
 20
-1326.2180983231531
 10
-1230.0958769346882
 20
-1326.2168989558866
 42
0.028260691578143
 10
-1230.4315132582683
 20
-1326.2307022328555
 10
-1230.4754265320423
 20
-1326.2350022228593
 42
0.0169677213687783
 10
-1230.7213510269994
 20
-1326.2675392724113
 42
0.0190576269869568
 10
-1230.9642589895786
 20
-1326.3176861445174
 10
-1230.9705181776903
 20
-1326.3192291186269
 42
0.0213685642844018
 10
-1231.2209026621706
 20
-1326.3924294037324
 10
-1231.2263925570842
 20
-1326.3942923997906
 42
0.0237595297590923
 10
-1231.4798874419823
 20
-1326.493976921686
 10
-1231.4849895160125
 20
-1326.4962686971644
 42
0.0261857468811143
 10
-1231.7371602922422
 20
-1326.6258050345386
 10
-1231.7475864813293
 20
-1326.6318705090073
 42
0.0272553062022395
 10
-1231.9840162565681
 20
-1326.7872427149518
 10
-1232.0187792700781
 20
-1326.8129038630443
 42
0.0325996893177331
 10
-1232.1689346137291
 20
-1326.9396517360153
 10
-1232.1926440428558
 20
-1326.9624697645318
 42
0.0138050960647912
 10
-1232.2845271990623
 20
-1327.05591942608
 42
0.012528010380517
 10
-1232.3713697318944
 20
-1327.1540827526783
 10
-1232.395050176804
 20
-1327.1822412508673
 42
0.0205218024736916
 10
-1232.5201502523175
 20
-1327.3440345650959
 10
-1232.542616592805
 20
-1327.3756942949233
 42
0.0163110129580568
 10
-1232.6983269720563
 20
-1327.611024729993
 10
-1232.7010508681074
 20
-1327.6154484919787
 42
0.0131897341893856
 10
-1232.8478513890104
 20
-1327.8685805843381
 10
-1232.8495514843796
 20
-1327.8716988234787
 42
0.0107895576061557
 10
-1232.98732818659
 20
-1328.1379140331132
 10
-1232.9880610761154
 20
-1328.1394082657605
 42
0.0091371507215152
 10
-1233.116541024764
 20
-1328.4139334635181
 10
-1233.1462866561742
 20
-1328.480639970679
 42
0.0135418326351698
 10
-1233.3180005952461
 20
-1328.8955777559484
 10
-1233.35160540368
 20
-1328.9834438982289
 42
0.009283454241138
 10
-1233.5228344636012
 20
-1329.4573423965344
 10
-1233.5484515913206
 20
-1329.5325834663329
 42
0.0054261043582822
 10
-1233.6560897396116
 20
-1329.8603474393926
 10
-1233.6736157257963
 20
-1329.9157356016453
 42
0.0008225090812459
 10
-1233.7422857776191
 20
-1330.134004359772
 10
-1234.7269749095526
 20
-1333.1588956530286
 10
-1231.4943510694786
 20
-1333.1588956530286
 10
-1231.9985434993321
 20
-1335.063373951381
 10
-1235.2545997813154
 20
-1335.063373951381
 10
-1241.0837488136692
 20
-1353.8765970173858
 10
-1242.9088464239794
 20
-1353.8765970173858
 10
-1237.0741683884785
 20
-1335.063373951381
 10
-1239.4792847575191
 20
-1335.063373951381
 10
-1238.9750923276656
 20
-1333.1588956530286
 10
-1236.5465435167155
 20
-1333.1588956530286
 10
-1235.6863885985267
 20
-1330.5224826523297
 42
-0.0005863560637245
 10
-1235.6496539203092
 20
-1330.4056562319929
 10
-1235.573566086663
 20
-1330.1646639326525
 42
-0.0087522378927391
 10
-1235.3740979432052
 20
-1329.569387845504
 10
-1235.2818336677915
 20
-1329.30924767699
 42
-0.0077400953830365
 10
-1235.0239000086615
 20
-1328.6162429994447
 10
-1235.0081350370842
 20
-1328.5758121160627
 42
-0.0082369946330122
 10
-1234.7610505664707
 20
-1327.9717330498629
 42
-0.0085725238362991
 10
-1234.4938044704666
 20
-1327.3763070105731
 10
-1234.3921748694584
 20
-1327.1598859085868
 42
-0.01681094105959
 10
-1234.1052304407303
 20
-1326.5986783824865
 10
-1233.9793870503051
 20
-1326.3717143495498
 42
-0.0007817726861311
 10
-1233.9251027002147
 20
-1326.2741701044579
 10
-1233.9249743941923
 20
-1326.2739403957123
 42
-0.0036626142150549
 10
-1233.8700865301762
 20
-1326.177342515753
 42
-0.0080221150682612
 10
-1233.8129622747724
 20
-1326.082063281005
 10
-1233.7822623234083
 20
-1326.0326723318781
 42
-0.0202139325576914
 10
-1233.6546065836021
 20
-1325.8446907311975
 10
-1233.600539118414
 20
-1325.7716118669557
 42
-0.0249323791798201
 10
-1233.3413763246956
 20
-1325.455566624802
 10
-1233.3172365105679
 20
-1325.4289523518887
 42
-0.024213212153515
 10
-1232.9775557690259
 20
-1325.0890688656848
 10
-1232.9296441962751
 20
-1325.0455597294988
 42
-0.0251017527860491
 10
-1232.6456624956345
 20
-1324.8125669837341
 10
-1232.6442170188207
 20
-1324.811497726155
 42
-0.0130868069036369
 10
-1232.3459563688634
 20
-1324.6027172576125
 10
-1232.3443945497204
 20
-1324.6016838173373
 42
-0.029032952639024
 10
-1232.0332834083274
 20
-1324.4208583157083
 10
-1232.0034378463374
 20
-1324.4057559328667
 42
-0.0160250190044351
 10
-1231.7375334325766
 20
-1324.2817398226553
 42
-0.0267600374780754
 10
-1231.4622573551087
 20
-1324.180991502107
 10
-1231.4355214355869
 20
-1324.1727989432811
 42
-0.0049981587669581
 10
-1231.3803482902999
 20
-1324.1564937429687
 42
-0.0049981587669581
  0
LWPOLYLINE
  5
60
100
AcDbEntity
  8
0
370
              15
390
0
  6
Continuous
 62
               7
100
AcDbPolyline
 90
      118
 70
             128
 10
-1211.565980725853
 20
-1333.232878980856
 10
-1209.6908588013537
 20
-1333.232878980856
 10
-1210.5288977069536
 20
-1335.914445507256
 42
-0.0010587229244061
 10
-1210.4974418913753
 20
-1335.877540973893
 10
-1210.4392478007499
 20
-1335.8095587177249
 42
-0.0071874740404519
 10
-1210.2888725826526
 20
-1335.638918025697
 10
-1210.1471498093892
 20
-1335.4826818843826
 42
-0.0148118053511008
 10
-1209.6970205166772
 20
-1335.0150680383699
 10
-1209.6097981817786
 20
-1334.9296707175197
 42
-0.0086273358692726
 10
-1209.2742493807664
 20
-1334.6122950834997
 10
-1209.2304156645409
 20
-1334.5722454391671
 42
-0.0103138323116311
 10
-1208.972391962307
 20
-1334.3460823018283
 10
-1208.9266175559806
 20
-1334.3076002545688
 42
-0.0060206748565749
 10
-1208.7537694918676
 20
-1334.1658056038136
 10
-1208.7517383609816
 20
-1334.1641798981823
 42
-0.006706902728874
 10
-1208.5794455463192
 20
-1334.0300292643874
 10
-1208.576896780394
 20
-1334.0280990945128
 42
-0.0076184352046491
 10
-1208.4059915145219
 20
-1333.9027242192683
 42
-0.0089652861668049
 10
-1208.2310305517863
 20
-1333.783090958935
 10
-1208.1946788316443
 20
-1333.759179745454
 42
-0.0156916245936735
 10
-1207.9987193344823
 20
-1333.6389172589784
 42
-0.0023299011065315
 10
-1207.7984572905152
 20
-1333.5257393194447
 10
-1207.7830731581228
 20
-1333.5171393243729
 42
-0.0107669341487528
 10
-1207.5488363330217
 20
-1333.3927391910236
 10
-1207.5265715319465
 20
-1333.3815224410735
 42
-0.0078058045895614
 10
-1207.2429814139903
 20
-1333.2441609854334
 10
-1207.2330743262846
 20
-1333.2395518575665
 42
-0.0181829330471406
 10
-1206.9227649216716
 20
-1333.1086881164717
 10
-1206.8687094791032
 20
-1333.0881729965276
 42
-0.0208411536028144
 10
-1206.519624511652
 20
-1332.9720825340341
 10
-1206.505268411523
 20
-1332.9679640890804
 42
-0.0222799817135557
 10
-1206.1765486176073
 20
-1332.8893225229403
 10
-1206.167659654368
 20
-1332.8876105123547
 42
-0.0215509523880223
 10
-1205.8511886860906
 20
-1332.8406948238212
 10
-1205.8087067250442
 20
-1332.8362572970307
 42
-0.0182545924877534
 10
-1205.5745979457363
 20
-1332.8204134716393
 10
-1205.5351969293877
 20
-1332.8191889265602
 42
-0.0072962856535618
 10
-1205.3792740496992
 20
-1332.816619598038
 10
-1205.3501743791282
 20
-1332.8165647626342
 42
-0.0059227516310098
 10
-1205.2524248799823
 20
-1332.8175384744245
 10
-1205.2231826624891
 20
-1332.8181762410284
 42
-0.0011833111898336
 10
-1205.183931378778
 20
-1332.819125245338
 10
-1205.9793179743851
 20
-1335.357859190437
 42
0.0143932051529253
 10
-1206.0057193567345
 20
-1335.3476602203921
 10
-1206.012991329153
 20
-1335.3450890015342
 42
0.0234388603486522
 10
-1206.0548221950849
 20
-1335.332469765819
 10
-1206.0635038579978
 20
-1335.330288803814
 42
0.01991627429653
 10
-1206.1237926920769
 20
-1335.3176720684789
 10
-1206.144606629884
 20
-1335.3141748690505
 42
0.0293643550671274
 10
-1206.2476814886447
 20
-1335.3030248233972
 10
-1206.2723666693635
 20
-1335.3018132063787
 42
0.0214606686868748
 10
-1206.4255075853123
 20
-1335.3008746459614
 10
-1206.4348794961338
 20
-1335.3012195575056
 42
0.0167564054186671
 10
-1206.6063996872454
 20
-1335.3132965998739
 10
-1206.6148594800015
 20
-1335.3141779403009
 42
0.0137677553248957
 10
-1206.802212793272
 20
-1335.338927248845
 10
-1206.8095645327739
 20
-1335.3401051688122
 42
0.0118497261480479
 10
-1207.0100622968707
 20
-1335.3771225190003
 10
-1207.0162123041225
 20
-1335.3784093817214
 42
0.0106421143890938
 10
-1207.2270931914145
 20
-1335.4272417572979
 10
-1207.2320019997967
 20
-1335.4284890999813
 42
0.0099746379703691
 10
-1207.450460468955
 20
-1335.4886636282949
 10
-1207.5120085091294
 20
-1335.5069455069267
 42
0.0191613675862463
 10
-1207.8479929716457
 20
-1335.6209228872142
 10
-1207.9360527443894
 20
-1335.6546097975374
 42
0.020527408014296
 10
-1208.3213595162911
 20
-1335.8204382053643
 10
-1208.3790087982734
 20
-1335.848106169937
 42
0.018125691219412
 10
-1208.6372857389401
 20
-1335.9837899889144
 10
-1208.6902411222547
 20
-1336.0141076021296
 42
0.0140709242408015
 10
-1208.8351960568823
 20
-1336.1026022755636
 10
-1208.8614449254953
 20
-1336.1196590942754
 42
0.0086667884386897
 10
-1208.9503710870433
 20
-1336.1796617621619
 42
0.0036408192032243
 10
-1209.0378043250844
 20
-1336.2418426199599
 10
-1209.0730311995453
 20
-1336.267283565867
 42
0.0052260781273742
 10
-1209.2292598969386
 20
-1336.3826159525029
 10
-1209.2454667531961
 20
-1336.3948440631193
 42
0.0050024435889951
 10
-1209.4314700962479
 20
-1336.5381266313761
 10
-1209.4467882527701
 20
-1336.5501726538273
 42
0.0136138710278245
 10
-1209.6572295210983
 20
-1336.7251391587433
 10
-1209.6908973968889
 20
-1336.7547181314549
 42
0.0172815186912096
 10
-1209.9553009385536
 20
-1337.0037148040803
 10
-1209.9578632843941
 20
-1337.0063006212254
 42
0.0189403857990776
 10
-1210.2084450829711
 20
-1337.2791058860275
 10
-1210.2410765765082
 20
-1337.3174498175258
 42
0.0185044199504885
 10
-1210.4330330154892
 20
-1337.5606983986499
 42
0.0088565243901522
 10
-1210.6114931221186
 20
-1337.8142148188015
 10
-1210.6206711017662
 20
-1337.8277561985599
 42
0.01571953472295
 10
-1210.8038917081012
 20
-1338.1172784078774
 10
-1210.8499746500333
 20
-1338.1954306049004
 42
0.0095451879786985
 10
-1211.0150602001686
 20
-1338.4880252472531
 10
-1211.0262081190965
 20
-1338.508695919382
 42
0.0100351706259581
 10
-1211.1582518682576
 20
-1338.7657514798757
 42
0.0086935915424486
 10
-1211.2805830200509
 20
-1339.0275846252782
 10
-1211.2839037614663
 20
-1339.0350269482519
 42
0.0072580174867578
 10
-1211.4042502134125
 20
-1339.3156189398383
 10
-1211.4075118467176
 20
-1339.323538965853
 42
0.0060005122612309
 10
-1211.5267125150644
 20
-1339.6231486364691
 10
-1211.5299234934018
 20
-1339.6315101643627
 42
0.0049017786980682
 10
-1211.6488236522591
 20
-1339.9504391449675
 10
-1211.6519894586495
 20
-1339.9591920821977
 42
0.0039415167607336
 10
-1211.7714257367059
 20
-1340.2977341446099
 10
-1211.7745568393584
 20
-1340.3068373454869
 42
0.0031035838762885
 10
-1211.8953616250419
 20
-1340.6652772072307
 10
-1211.898471669582
 20
-1340.6746978286351
 42
0.0025070747151462
 10
-1212.0213730208864
 20
-1341.0533450455448
 10
-1212.0586669173226
 20
-1341.1702367108321
 42
0.002908191028462
 10
-1212.2506852151432
 20
-1341.7844003691548
 10
-1212.2914883836506
 20
-1341.9176236113997
 42
0.0009266453733613
 10
-1212.5599057579695
 20
-1342.7998480713377
 10
-1212.580793230607
 20
-1342.8689599505633
 42
-0.0005809993665352
 10
-1212.858129911197
 20
-1343.7827680571982
 10
-1212.9244117094731
 20
-1344.0002529893679
 42
-0.0012018708166358
 10
-1213.0713960188991
 20
-1344.4784156538785
 10
-1213.1237158704785
 20
-1344.6471747947885
 42
-0.0002691059610519
 10
-1213.1672853516334
 20
-1344.7874424150862
 10
-1216.0002412499225
 20
-1353.8765970173858
 10
-1217.818230141901
 20
-1353.8765970173858
 10
-1211.565980725853
 20
-1333.232878980856
  0
SPLINE
  5
61
100
AcDbEntity
  8
0
370
              15
390
0
  6
Continuous
 62
               7
100
AcDbSpline
210
0.0
220
0.0
230
1.0
 70
              13
 71
               2
 72
             782
 73
             779
 74
               0
 42
0.000001
 43
0.000001
 40
0.0
 40
0.0
 40
0.0
 40
1.0
 40
1.0
 40
2.0
 40
2.0
 40
3.0
 40
3.0
 40
4.0
 40
4.0
 40
5.0
 40
5.0
 40
6.0
 40
6.0
 40
7.0
 40
7.0
 40
8.0
 40
8.0
 40
9.0
 40
9.0
 40
10.0
 40
10.0
 40
11.0
 40
11.0
 40
12.0
 40
12.0
 40
13.0
 40
13.0
 40
14.0
 40
14.0
 40
15.0
 40
15.0
 40
16.0
 40
16.0
 40
17.0
 40
17.0
 40
18.0
 40
18.0
 40
19.0
 40
19.0
 40
20.0
 40
20.0
 40
21.0
 40
21.0
 40
22.0
 40
22.0
 40
23.0
 40
23.0
 40
24.0
 40
24.0
 40
25.0
 40
25.0
 40
26.0
 40
26.0
 40
27.0
 40
27.0
 40
28.0
 40
28.0
 40
29.0
 40
29.0
 40
30.0
 40
30.0
 40
31.0
 40
31.0
 40
32.0
 40
32.0
 40
33.0
 40
33.0
 40
34.0
 40
34.0
 40
35.0
 40
35.0
 40
36.0
 40
36.0
 40
37.0
 40
37.0
 40
38.0
 40
38.0
 40
39.0
 40
39.0
 40
40.0
 40
40.0
 40
41.0
 40
41.0
 40
42.0
 40
42.0
 40
43.0
 40
43.0
 40
44.0
 40
44.0
 40
45.0
 40
45.0
 40
46.0
 40
46.0
 40
47.0
 40
47.0
 40
48.0
 40
48.0
 40
49.0
 40
49.0
 40
50.0
 40
50.0
 40
51.0
 40
51.0
 40
52.0
 40
52.0
 40
53.0
 40
53.0
 40
54.0
 40
54.0
 40
55.0
 40
55.0
 40
56.0
 40
56.0
 40
57.0
 40
57.0
 40
58.0
 40
58.0
 40
59.0
 40
59.0
 40
60.0
 40
60.0
 40
61.0
 40
61.0
 40
62.0
 40
62.0
 40
63.0
 40
63.0
 40
64.0
 40
64.0
 40
65.0
 40
65.0
 40
66.0
 40
66.0
 40
67.0
 40
67.0
 40
68.0
 40
68.0
 40
69.0
 40
69.0
 40
70.0
 40
70.0
 40
71.0
 40
71.0
 40
72.0
 40
72.0
 40
73.0
 40
73.0
 40
74.0
 40
74.0
 40
75.0
 40
75.0
 40
76.0
 40
76.0
 40
77.0
 40
77.0
 40
78.0
 40
78.0
 40
79.0
 40
79.0
 40
80.0
 40
80.0
 40
81.0
 40
81.0
 40
82.0
 40
82.0
 40
83.0
 40
83.0
 40
84.0
 40
84.0
 40
85.0
 40
85.0
 40
86.0
 40
86.0
 40
87.0
 40
87.0
 40
88.0
 40
88.0
 40
89.0
 40
89.0
 40
90.0
 40
90.0
 40
91.0
 40
91.0
 40
92.0
 40
92.0
 40
93.0
 40
93.0
 40
94.0
 40
94.0
 40
95.0
 40
95.0
 40
96.0
 40
96.0
 40
97.0
 40
97.0
 40
98.0
 40
98.0
 40
99.0
 40
99.0
 40
100.0
 40
100.0
 40
101.0
 40
101.0
 40
102.0
 40
102.0
 40
103.0
 40
103.0
 40
104.0
 40
104.0
 40
105.0
 40
105.0
 40
106.0
 40
106.0
 40
107.0
 40
107.0
 40
108.0
 40
108.0
 40
109.0
 40
109.0
 40
110.0
 40
110.0
 40
111.0
 40
111.0
 40
112.0
 40
112.0
 40
113.0
 40
113.0
 40
114.0
 40
114.0
 40
115.0
 40
115.0
 40
116.0
 40
116.0
 40
117.0
 40
117.0
 40
118.0
 40
118.0
 40
119.0
 40
119.0
 40
120.0
 40
120.0
 40
121.0
 40
121.0
 40
122.0
 40
122.0
 40
123.0
 40
123.0
 40
124.0
 40
124.0
 40
125.0
 40
125.0
 40
126.0
 40
126.0
 40
127.0
 40
127.0
 40
128.0
 40
128.0
 40
129.0
 40
129.0
 40
130.0
 40
130.0
 40
131.0
 40
131.0
 40
132.0
 40
132.0
 40
133.0
 40
133.0
 40
134.0
 40
134.0
 40
135.0
 40
135.0
 40
136.0
 40
136.0
 40
137.0
 40
137.0
 40
138.0
 40
138.0
 40
139.0
 40
139.0
 40
140.0
 40
140.0
 40
141.0
 40
141.0
 40
142.0
 40
142.0
 40
143.0
 40
143.0
 40
144.0
 40
144.0
 40
145.0
 40
145.0
 40
146.0
 40
146.0
 40
147.0
 40
147.0
 40
148.0
 40
148.0
 40
149.0
 40
149.0
 40
150.0
 40
150.0
 40
151.0
 40
151.0
 40
152.0
 40
152.0
 40
153.0
 40
153.0
 40
154.0
 40
154.0
 40
155.0
 40
155.0
 40
156.0
 40
156.0
 40
157.0
 40
157.0
 40
158.0
 40
158.0
 40
159.0
 40
159.0
 40
160.0
 40
160.0
 40
161.0
 40
161.0
 40
162.0
 40
162.0
 40
163.0
 40
163.0
 40
164.0
 40
164.0
 40
165.0
 40
165.0
 40
166.0
 40
166.0
 40
167.0
 40
167.0
 40
168.0
 40
168.0
 40
169.0
 40
169.0
 40
170.0
 40
170.0
 40
171.0
 40
171.0
 40
172.0
 40
172.0
 40
173.0
 40
173.0
 40
174.0
 40
174.0
 40
175.0
 40
175.0
 40
176.0
 40
176.0
 40
177.0
 40
177.0
 40
178.0
 40
178.0
 40
179.0
 40
179.0
 40
180.0
 40
180.0
 40
181.0
 40
181.0
 40
182.0
 40
182.0
 40
183.0
 40
183.0
 40
184.0
 40
184.0
 40
185.0
 40
185.0
 40
186.0
 40
186.0
 40
187.0
 40
187.0
 40
188.0
 40
188.0
 40
189.0
 40
189.0
 40
190.0
 40
190.0
 40
191.0
 40
191.0
 40
192.0
 40
192.0
 40
193.0
 40
193.0
 40
194.0
 40
194.0
 40
195.0
 40
195.0
 40
196.0
 40
196.0
 40
197.0
 40
197.0
 40
198.0
 40
198.0
 40
199.0
 40
199.0
 40
200.0
 40
200.0
 40
201.0
 40
201.0
 40
202.0
 40
202.0
 40
203.0
 40
203.0
 40
204.0
 40
204.0
 40
205.0
 40
205.0
 40
206.0
 40
206.0
 40
207.0
 40
207.0
 40
208.0
 40
208.0
 40
209.0
 40
209.0
 40
210.0
 40
210.0
 40
211.0
 40
211.0
 40
212.0
 40
212.0
 40
213.0
 40
213.0
 40
214.0
 40
214.0
 40
215.0
 40
215.0
 40
216.0
 40
216.0
 40
217.0
 40
217.0
 40
218.0
 40
218.0
 40
219.0
 40
219.0
 40
220.0
 40
220.0
 40
221.0
 40
221.0
 40
222.0
 40
222.0
 40
223.0
 40
223.0
 40
224.0
 40
224.0
 40
225.0
 40
225.0
 40
226.0
 40
226.0
 40
227.0
 40
227.0
 40
228.0
 40
228.0
 40
229.0
 40
229.0
 40
230.0
 40
230.0
 40
231.0
 40
231.0
 40
232.0
 40
232.0
 40
233.0
 40
233.0
 40
234.0
 40
234.0
 40
235.0
 40
235.0
 40
236.0
 40
236.0
 40
237.0
 40
237.0
 40
238.0
 40
238.0
 40
239.0
 40
239.0
 40
240.0
 40
240.0
 40
241.0
 40
241.0
 40
242.0
 40
242.0
 40
243.0
 40
243.0
 40
244.0
 40
244.0
 40
245.0
 40
245.0
 40
246.0
 40
246.0
 40
247.0
 40
247.0
 40
248.0
 40
248.0
 40
249.0
 40
249.0
 40
250.0
 40
250.0
 40
251.0
 40
251.0
 40
252.0
 40
252.0
 40
253.0
 40
253.0
 40
254.0
 40
254.0
 40
255.0
 40
255.0
 40
256.0
 40
256.0
 40
257.0
 40
257.0
 40
258.0
 40
258.0
 40
259.0
 40
259.0
 40
260.0
 40
260.0
 40
261.0
 40
261.0
 40
262.0
 40
262.0
 40
263.0
 40
263.0
 40
264.0
 40
264.0
 40
265.0
 40
265.0
 40
266.0
 40
266.0
 40
267.0
 40
267.0
 40
268.0
 40
268.0
 40
269.0
 40
269.0
 40
270.0
 40
270.0
 40
271.0
 40
271.0
 40
272.0
 40
272.0
 40
273.0
 40
273.0
 40
274.0
 40
274.0
 40
275.0
 40
275.0
 40
276.0
 40
276.0
 40
277.0
 40
277.0
 40
278.0
 40
278.0
 40
279.0
 40
279.0
 40
280.0
 40
280.0
 40
281.0
 40
281.0
 40
282.0
 40
282.0
 40
283.0
 40
283.0
 40
284.0
 40
284.0
 40
285.0
 40
285.0
 40
286.0
 40
286.0
 40
287.0
 40
287.0
 40
288.0
 40
288.0
 40
289.0
 40
289.0
 40
290.0
 40
290.0
 40
291.0
 40
291.0
 40
292.0
 40
292.0
 40
293.0
 40
293.0
 40
294.0
 40
294.0
 40
295.0
 40
295.0
 40
296.0
 40
296.0
 40
297.0
 40
297.0
 40
298.0
 40
298.0
 40
299.0
 40
299.0
 40
300.0
 40
300.0
 40
301.0
 40
301.0
 40
302.0
 40
302.0
 40
303.0
 40
303.0
 40
304.0
 40
304.0
 40
305.0
 40
305.0
 40
306.0
 40
306.0
 40
307.0
 40
307.0
 40
308.0
 40
308.0
 40
309.0
 40
309.0
 40
310.0
 40
310.0
 40
311.0
 40
311.0
 40
312.0
 40
312.0
 40
313.0
 40
313.0
 40
314.0
 40
314.0
 40
315.0
 40
315.0
 40
316.0
 40
316.0
 40
317.0
 40
317.0
 40
318.0
 40
318.0
 40
319.0
 40
319.0
 40
320.0
 40
320.0
 40
321.0
 40
321.0
 40
322.0
 40
322.0
 40
323.0
 40
323.0
 40
324.0
 40
324.0
 40
325.0
 40
325.0
 40
326.0
 40
326.0
 40
327.0
 40
327.0
 40
328.0
 40
328.0
 40
329.0
 40
329.0
 40
330.0
 40
330.0
 40
331.0
 40
331.0
 40
332.0
 40
332.0
 40
333.0
 40
333.0
 40
334.0
 40
334.0
 40
335.0
 40
335.0
 40
336.0
 40
336.0
 40
337.0
 40
337.0
 40
338.0
 40
338.0
 40
339.0
 40
339.0
 40
340.0
 40
340.0
 40
341.0
 40
341.0
 40
342.0
 40
342.0
 40
343.0
 40
343.0
 40
344.0
 40
344.0
 40
345.0
 40
345.0
 40
346.0
 40
346.0
 40
347.0
 40
347.0
 40
348.0
 40
348.0
 40
349.0
 40
349.0
 40
350.0
 40
350.0
 40
351.0
 40
351.0
 40
352.0
 40
352.0
 40
353.0
 40
353.0
 40
354.0
 40
354.0
 40
355.0
 40
355.0
 40
356.0
 40
356.0
 40
357.0
 40
357.0
 40
358.0
 40
358.0
 40
359.0
 40
359.0
 40
360.0
 40
360.0
 40
361.0
 40
361.0
 40
362.0
 40
362.0
 40
363.0
 40
363.0
 40
364.0
 40
364.0
 40
365.0
 40
365.0
 40
366.0
 40
366.0
 40
367.0
 40
367.0
 40
368.0
 40
368.0
 40
369.0
 40
369.0
 40
370.0
 40
370.0
 40
371.0
 40
371.0
 40
372.0
 40
372.0
 40
373.0
 40
373.0
 40
374.0
 40
374.0
 40
375.0
 40
375.0
 40
376.0
 40
376.0
 40
377.0
 40
377.0
 40
378.0
 40
378.0
 40
379.0
 40
379.0
 40
380.0
 40
380.0
 40
381.0
 40
381.0
 40
382.0
 40
382.0
 40
383.0
 40
383.0
 40
384.0
 40
384.0
 40
385.0
 40
385.0
 40
386.0
 40
386.0
 40
387.0
 40
387.0
 40
388.0
 40
388.0
 40
389.0
 40
389.0
 40
389.0
 10
-1201.2372762751206
 20
-1333.2219526174936
 30
0.0
 41
1.0
 10
-1200.4188521664
 20
-1333.2219526174936
 30
0.0
 41
1.0
 10
-1199.6004280576794
 20
-1333.2219526174936
 30
0.0
 41
1.0
 10
-1200.0141817931963
 20
-1334.5645788817433
 30
0.0
 41
1.0
 10
-1200.4279355287131
 20
-1335.907205145993
 30
0.0
 41
1.0
 10
-1200.4095960335424
 20
-1335.878504373077
 30
0.0
 41
0.9999957264377287
 10
-1200.3910890367079
 20
-1335.8499113229204
 30
0.0
 41
1.0
 10
-1200.3606597125738
 20
-1335.8028984445498
 30
0.0
 41
1.0
 10
-1200.3302303884398
 20
-1335.7558855661791
 30
0.0
 41
1.0
 10
-1200.2508647433342
 20
-1335.6332667592762
 30
0.0
 41
0.9995394069081313
 10
-1200.1642063517822
 20
-1335.5156886975346
 30
0.0
 41
1.0
 10
-1200.1284494895226
 20
-1335.467173804941
 30
0.0
 41
1.0
 10
-1200.0926926272627
 20
-1335.4186589123476
 30
0.0
 41
1.0
 10
-1199.9589659594444
 20
-1335.2372186372208
 30
0.0
 41
0.999446061714337
 10
-1199.8134654781561
 20
-1335.0650762395708
 30
0.0
 41
1.0
 10
-1199.8090772971814
 20
-1335.0598845591883
 30
0.0
 41
1.0
 10
-1199.8046891162064
 20
-1335.0546928788058
 30
0.0
 41
1.0
 10
-1199.6679649968682
 20
-1334.8929338419211
 30
0.0
 41
0.9994359394934128
 10
-1199.5206907665167
 20
-1334.7407176407564
 30
0.0
 41
1.0
 10
-1199.5183074125632
 20
-1334.7382543103831
 30
0.0
 41
1.0
 10
-1199.5159240586097
 20
-1334.7357909800098
 30
0.0
 41
1.0
 10
-1199.3734165361657
 20
-1334.5885014395922
 30
0.0
 41
0.9995293688567751
 10
-1199.2221448551832
 20
-1334.4502282274275
 30
0.0
 41
1.0
 10
-1199.2028510959208
 20
-1334.4325923417771
 30
0.0
 41
1.0
 10
-1199.1835573366582
 20
-1334.4149564561267
 30
0.0
 41
1.0
 10
-1199.0708731742011
 20
-1334.3119550152635
 30
0.0
 41
0.9997087614803365
 10
-1198.953350285246
 20
-1334.2145107344656
 30
0.0
 41
1.0
 10
-1198.934184212073
 20
-1334.1986191559597
 30
0.0
 41
1.0
 10
-1198.9150181388998
 20
-1334.1827275774538
 30
0.0
 41
1.0
 10
-1198.8358273962936
 20
-1334.1170664536698
 30
0.0
 41
0.9999595338694249
 10
-1198.755468125436
 20
-1334.0528407230127
 30
0.0
 41
1.0
 10
-1198.67510885458
 20
-1333.9886149923573
 30
0.0
 41
0.999974941750993
 10
-1198.593848320234
 20
-1333.925533438409
 30
0.0
 41
1.0
 10
-1198.5728621740677
 20
-1333.9092421511043
 30
0.0
 41
1.0
 10
-1198.5518760279012
 20
-1333.8929508637996
 30
0.0
 41
1.0
 10
-1198.4673081426042
 20
-1333.8273018539624
 30
0.0
 41
0.9999792037122645
 10
-1198.381900542835
 20
-1333.7627490723189
 30
0.0
 41
1.0
 10
-1198.3610757169135
 20
-1333.7470092500539
 30
0.0
 41
1.0
 10
-1198.3402508909924
 20
-1333.7312694277887
 30
0.0
 41
1.0
 10
-1198.2964929430566
 20
-1333.6981962906684
 30
0.0
 41
0.9999993374091605
 10
-1198.2528112569221
 20
-1333.6650224952512
 30
0.0
 41
1.0
 10
-1198.2091295707783
 20
-1333.6318486998266
 30
0.0
 41
0.9999160953816703
 10
-1198.1646031598573
 20
-1333.5998176346277
 30
0.0
 41
1.0
 10
-1198.1317812724387
 20
-1333.5762064790433
 30
0.0
 41
1.0
 10
-1198.0989593850204
 20
-1333.5525953234592
 30
0.0
 41
1.0
 10
-1197.9887891992619
 20
-1333.4733419470913
 30
0.0
 41
0.9980964527231279
 10
-1197.8697002057615
 20
-1333.4082544742355
 30
0.0
 41
1.0
 10
-1197.832667598833
 20
-1333.388014494642
 30
0.0
 41
1.0
 10
-1197.7956349919045
 20
-1333.3677745150487
 30
0.0
 41
1.0
 10
-1197.6163079786318
 20
-1333.2697642643475
 30
0.0
 41
0.9984572810572573
 10
-1197.427219412273
 20
-1333.1922420030014
 30
0.0
 41
1.0
 10
-1197.4235731428776
 20
-1333.1907471106638
 30
0.0
 41
1.0
 10
-1197.4199268734824
 20
-1333.1892522183259
 30
0.0
 41
1.0
 10
-1197.2381308459146
 20
-1333.1147197416551
 30
0.0
 41
0.9987838528033856
 10
-1197.0498781873548
 20
-1333.0584541014891
 30
0.0
 41
1.0
 10
-1197.0456402381562
 20
-1333.0571874477989
 30
0.0
 41
1.0
 10
-1197.0414022889577
 20
-1333.0559207941087
 30
0.0
 41
1.0
 10
-1196.8616255287957
 20
-1333.0021884613234
 30
0.0
 41
0.9990652816207236
 10
-1196.6778795970797
 20
-1332.9641847817813
 30
0.0
 41
1.0
 10
-1196.6726911960477
 20
-1332.9631116786745
 30
0.0
 41
1.0
 10
-1196.6675027950155
 20
-1332.9620385755679
 30
0.0
 41
1.0
 10
-1196.4941336653631
 20
-1332.9261811022393
 30
0.0
 41
0.9992909934270685
 10
-1196.3185578989055
 20
-1332.9034706697728
 30
0.0
 41
1.0
 10
-1196.1429821324491
 20
-1332.8807602373063
 30
0.0
 41
0.9994553539448577
 10
-1195.9662906993578
 20
-1332.8696809331002
 30
0.0
 41
1.0
 10
-1195.9308562915608
 20
-1332.8674590450523
 30
0.0
 41
1.0
 10
-1195.8954218837637
 20
-1332.8652371570045
 30
0.0
 41
1.0
 10
-1195.7291961171943
 20
-1332.8548140945927
 30
0.0
 41
0.9990928098292944
 10
-1195.562686325291
 20
-1332.8585737358271
 30
0.0
 41
1.0
 10
-1195.5241244900226
 20
-1332.8594444273599
 30
0.0
 41
1.0
 10
-1195.4855626547539
 20
-1332.8603151188929
 30
0.0
 41
1.0
 10
-1195.3961765333916
 20
-1332.8623333770615
 30
0.0
 41
0.9998382089205665
 10
-1195.306920850602
 20
-1332.86756550359
 30
0.0
 41
1.0
 10
-1195.3064909443788
 20
-1332.8675907044924
 30
0.0
 41
1.0
 10
-1195.3060610381558
 20
-1332.8676159053948
 30
0.0
 41
1.0
 10
-1195.2176651678126
 20
-1332.8727976301182
 30
0.0
 41
0.9997558016758791
 10
-1195.129584590615
 20
-1332.8818801454845
 30
0.0
 41
1.0
 10
-1195.1291084521833
 20
-1332.8819292429673
 30
0.0
 41
1.0
 10
-1195.1286323137517
 20
-1332.8819783404501
 30
0.0
 41
1.0
 10
-1195.0415040134121
 20
-1332.8909626608513
 30
0.0
 41
0.9996565144182167
 10
-1194.9549661600722
 20
-1332.9044999675398
 30
0.0
 41
1.0
 10
-1194.9545002346952
 20
-1332.904572853271
 30
0.0
 41
1.0
 10
-1194.9540343093181
 20
-1332.9046457390023
 30
0.0
 41
1.0
 10
-1194.8684283067305
 20
-1332.9180372742287
 30
0.0
 41
0.9995321806867316
 10
-1194.7838012264019
 20
-1332.9366377626582
 30
0.0
 41
1.0
 10
-1194.7834120318291
 20
-1332.9367233051244
 30
0.0
 41
1.0
 10
-1194.7830228372563
 20
-1332.9368088475903
 30
0.0
 41
1.0
 10
-1194.6991741460731
 20
-1332.9552382510878
 30
0.0
 41
0.9993819199219027
 10
-1194.6168276118779
 20
-1332.9795136343482
 30
0.0
 41
1.0
 10
-1194.6165891783794
 20
-1332.9795839234575
 30
0.0
 41
1.0
 10
-1194.6163507448812
 20
-1332.9796542125671
 30
0.0
 41
1.0
 10
-1194.5344810776814
 20
-1333.0037890176088
 30
0.0
 41
0.9992088568504972
 10
-1194.4547885586935
 20
-1333.0343542534033
 30
0.0
 41
1.0
 10
-1194.3751075678144
 20
-1333.0649138541364
 30
0.0
 41
0.999022610177269
 10
-1194.2984368979073
 20
-1333.1023912857509
 30
0.0
 41
1.0
 10
-1194.2217777561102
 20
-1333.1398630823037
 30
0.0
 41
0.9988424273972287
 10
-1194.1490741288992
 20
-1333.1845278575558
 30
0.0
 41
1.0
 10
-1194.1488064205187
 20
-1333.184692321629
 30
0.0
 41
1.0
 10
-1194.1485387121381
 20
-1333.1848567857019
 30
0.0
 41
1.0
 10
-1194.0752996681695
 20
-1333.2298504890973
 30
0.0
 41
0.9986928844489436
 10
-1194.0070368014619
 20
-1333.2820862233755
 30
0.0
 41
1.0
 10
-1194.006455509237
 20
-1333.2825310366052
 30
0.0
 41
1.0
 10
-1194.005874217012
 20
-1333.2829758498347
 30
0.0
 41
1.0
 10
-1193.9364487658579
 20
-1333.3361012105688
 30
0.0
 41
0.9986007262277323
 10
-1193.8730225960926
 20
-1333.3962619802612
 30
0.0
 41
1.0
 10
-1193.872128180634
 20
-1333.3971103480976
 30
0.0
 41
1.0
 10
-1193.8712337651755
 20
-1333.3979587159338
 30
0.0
 41
1.0
 10
-1193.8060187644933
 20
-1333.4598162212985
 30
0.0
 41
0.9985581491380992
 10
-1193.7478111527905
 20
-1333.5283087115715
 30
0.0
 41
1.0
 10
-1193.7385526991957
 20
-1333.5392030692719
 30
0.0
 41
1.0
 10
-1193.7292942456011
 20
-1333.5500974269726
 30
0.0
 41
1.0
 10
-1193.652569726708
 20
-1333.6403786326473
 30
0.0
 41
0.997046023351936
 10
-1193.5905778255487
 20
-1333.7413457168288
 30
0.0
 41
1.0
 10
-1193.5761084604687
 20
-1333.7649121759105
 30
0.0
 41
1.0
 10
-1193.561639095389
 20
-1333.7884786349923
 30
0.0
 41
1.0
 10
-1193.5219023953769
 20
-1333.8531983590237
 30
0.0
 41
0.9988468816636421
 10
-1193.4885560246255
 20
-1333.921430811451
 30
0.0
 41
1.0
 10
-1193.4815200021335
 20
-1333.9358277325896
 30
0.0
 41
1.0
 10
-1193.4744839796415
 20
-1333.9502246537279
 30
0.0
 41
1.0
 10
-1193.4552096538737
 20
-1333.9896632638793
 30
0.0
 41
0.9998431189997641
 10
-1193.4373443263789
 20
-1334.0297598183195
 30
0.0
 41
1.0
 10
-1193.4194789988551
 20
-1334.0698563728249
 30
0.0
 41
0.9999989990086504
 10
-1193.4015002754013
 20
-1334.109902210479
 30
0.0
 41
1.0
 10
-1193.3953279638374
 20
-1334.1236504272242
 30
0.0
 41
1.0
 10
-1193.3891556522735
 20
-1334.1373986439694
 30
0.0
 41
1.0
 10
-1193.3588323056613
 20
-1334.2049409151832
 30
0.0
 41
0.9998790356322274
 10
-1193.3306244255209
 20
-1334.2733936671257
 30
0.0
 41
1.0
 10
-1193.3237892442348
 20
-1334.2899807685571
 30
0.0
 41
1.0
 10
-1193.316954062949
 20
-1334.3065678699886
 30
0.0
 41
1.0
 10
-1193.2933964005726
 20
-1334.363735824865
 30
0.0
 41
0.9998227574561234
 10
-1193.2720076521869
 20
-1334.4217501331332
 30
0.0
 41
1.0
 10
-1193.250618903797
 20
-1334.4797644414127
 30
0.0
 41
0.9996797971042547
 10
-1193.232192618837
 20
-1334.5387865605333
 30
0.0
 41
1.0
 10
-1193.2282888161121
 20
-1334.5512910186999
 30
0.0
 41
1.0
 10
-1193.2243850133873
 20
-1334.5637954768667
 30
0.0
 41
1.0
 10
-1193.1981511229769
 20
-1334.6478265123228
 30
0.0
 41
0.9979274938733534
 10
-1193.1829265994979
 20
-1334.7345308709832
 30
0.0
 41
1.0
 10
-1193.1807029122369
 20
-1334.7471948718039
 30
0.0
 41
1.0
 10
-1193.1784792249757
 20
-1334.7598588726244
 30
0.0
 41
1.0
 10
-1193.1675492852771
 20
-1334.822105379915
 30
0.0
 41
0.9994985982137152
 10
-1193.1605811201002
 20
-1334.8849188810577
 30
0.0
 41
1.0
 10
-1193.1536129549231
 20
-1334.9477323822009
 30
0.0
 41
0.9996372611200962
 10
-1193.1500370891554
 20
-1335.0108299608855
 30
0.0
 41
1.0
 10
-1193.1498685116662
 20
-1335.0138045779659
 30
0.0
 41
1.0
 10
-1193.1496999341769
 20
-1335.0167791950462
 30
0.0
 41
1.0
 10
-1193.1457869134306
 20
-1335.0858260078894
 30
0.0
 41
0.9997730630736247
 10
-1193.1448185999425
 20
-1335.1549768319203
 30
0.0
 41
1.0
 10
-1193.1447614935244
 20
-1335.1590550110652
 30
0.0
 41
1.0
 10
-1193.1447043871062
 20
-1335.1631331902101
 30
0.0
 41
1.0
 10
-1193.1436218607819
 20
-1335.2404403725232
 30
0.0
 41
0.9998772614071965
 10
-1193.1449619475136
 20
-1335.3177435190826
 30
0.0
 41
1.0
 10
-1193.1450512107124
 20
-1335.3228926829224
 30
0.0
 41
1.0
 10
-1193.1451404739112
 20
-1335.3280418467623
 30
0.0
 41
1.0
 10
-1193.1466590870405
 20
-1335.4156433209976
 30
0.0
 41
0.9999415567325863
 10
-1193.1500713972864
 20
-1335.5031914826729
 30
0.0
 41
1.0
 10
-1193.1503127179617
 20
-1335.5093829424095
 30
0.0
 41
1.0
 10
-1193.150554038637
 20
-1335.5155744021463
 30
0.0
 41
1.0
 10
-1193.1544489902342
 20
-1335.6155054833071
 30
0.0
 41
0.9999716810422908
 10
-1193.1598475733531
 20
-1335.7153666215452
 30
0.0
 41
1.0
 10
-1193.1630603721414
 20
-1335.7747958711925
 30
0.0
 41
1.0
 10
-1193.1662731709296
 20
-1335.8342251208398
 30
0.0
 41
1.0
 10
-1193.1743470800823
 20
-1335.9835735221202
 30
0.0
 41
0.9999819129910692
 10
-1193.1842168716989
 20
-1336.1328139998318
 30
0.0
 41
1.0
 10
-1193.1940866633154
 20
-1336.2820544775432
 30
0.0
 41
1.0
 10
-1193.1965259838794
 20
-1336.3192475233925
 30
0.0
 41
1.0
 10
-1193.1738277500494
 20
-1336.2805065260645
 30
0.0
 41
0.9999982128233605
 10
-1193.1509831912851
 20
-1336.2418516320915
 30
0.0
 41
1.0
 10
-1193.1240736314044
 20
-1336.1963184180431
 30
0.0
 41
1.0
 10
-1193.0971640715234
 20
-1336.1507852039945
 30
0.0
 41
1.0
 10
-1193.0205003929977
 20
-1336.0210638819253
 30
0.0
 41
0.9998609190056246
 10
-1192.9395530801351
 20
-1335.8939714999944
 30
0.0
 41
1.0
 10
-1192.909904758656
 20
-1335.8474217670416
 30
0.0
 41
1.0
 10
-1192.8802564371772
 20
-1335.8008720340888
 30
0.0
 41
1.0
 10
-1192.7979842169373
 20
-1335.6716994640892
 30
0.0
 41
0.9999067609732654
 10
-1192.7122152074712
 20
-1335.5448217746448
 30
0.0
 41
1.0
 10
-1192.7098105042703
 20
-1335.5412645085898
 30
0.0
 41
1.0
 10
-1192.7074058010694
 20
-1335.5377072425351
 30
0.0
 41
1.0
 10
-1192.6264461980077
 20
-1335.4179440852042
 30
0.0
 41
0.9998784952149245
 10
-1192.5417925883257
 20
-1335.3007628684945
 30
0.0
 41
1.0
 10
-1192.4571389786447
 20
-1335.1835816517864
 30
0.0
 41
0.9998532968284077
 10
-1192.3685213578228
 20
-1335.069368743317
 30
0.0
 41
1.0
 10
-1192.3485595688308
 20
-1335.0436414222957
 30
0.0
 41
1.0
 10
-1192.3285977798387
 20
-1335.0179141012743
 30
0.0
 41
1.0
 10
-1192.2101137300804
 20
-1334.8652084903065
 30
0.0
 41
0.9991551975795272
 10
-1192.079489280457
 20
-1334.7227489282232
 30
0.0
 41
1.0
 10
-1192.075979664477
 20
-1334.7189213265985
 30
0.0
 41
1.0
 10
-1192.0724700484971
 20
-1334.7150937249739
 30
0.0
 41
1.0
 10
-1191.9488648308334
 20
-1334.5802893661396
 30
0.0
 41
0.9997418144180739
 10
-1191.8192626911327
 20
-1334.4512399555272
 30
0.0
 41
1.0
 10
-1191.6896605514326
 20
-1334.322190544915
 30
0.0
 41
0.998923820463293
 10
-1191.548658003182
 20
-1334.2057055828766
 30
0.0
 41
1.0
 10
-1191.5034103250421
 20
-1334.1683255912676
 30
0.0
 41
1.0
 10
-1191.4581626469021
 20
-1334.1309455996584
 30
0.0
 41
1.0
 10
-1191.3179225896808
 20
-1334.0150905463674
 30
0.0
 41
0.9990825084096335
 10
-1191.1682826570768
 20
-1333.9116615485345
 30
0.0
 41
1.0
 10
-1191.1582372930193
 20
-1333.9047183354546
 30
0.0
 41
1.0
 10
-1191.148191928962
 20
-1333.8977751223747
 30
0.0
 41
1.0
 10
-1191.0186427244723
 20
-1333.8082325507012
 30
0.0
 41
0.9998164899824907
 10
-1190.8857585210967
 20
-1333.7237183091852
 30
0.0
 41
1.0
 10
-1190.8739129605694
 20
-1333.7161845426585
 30
0.0
 41
1.0
 10
-1190.8620674000422
 20
-1333.7086507761321
 30
0.0
 41
1.0
 10
-1190.752874317719
 20
-1333.6392040676678
 30
0.0
 41
0.9997473449131744
 10
-1190.6406703604709
 20
-1333.574735109853
 30
0.0
 41
1.0
 10
-1190.5284664032245
 20
-1333.5102661520389
 30
0.0
 41
0.9999327861144179
 10
-1190.4147977924627
 20
-1333.4484161603584
 30
0.0
 41
1.0
 10
-1190.4142457898997
 20
-1333.4481158016779
 30
0.0
 41
1.0
 10
-1190.4136937873366
 20
-1333.4478154429976
 30
0.0
 41
1.0
 10
-1190.2989211714514
 20
-1333.3853647339579
 30
0.0
 41
0.99969564204845
 10
-1190.1812078456112
 20
-1333.3286512669831
 30
0.0
 41
1.0
 10
-1190.1507674407203
 20
-1333.3139852902539
 30
0.0
 41
1.0
 10
-1190.1203270358292
 20
-1333.2993193135246
 30
0.0
 41
1.0
 10
-1190.0173499290838
 20
-1333.2497056550803
 30
0.0
 41
0.9998070570177184
 10
-1189.9125035401414
 20
-1333.2041750681788
 30
0.0
 41
1.0
 10
-1189.8076571512008
 20
-1333.1586444812779
 30
0.0
 41
0.9997827436147541
 10
-1189.7010042145916
 20
-1333.1175233099661
 30
0.0
 41
1.0
 10
-1189.6817813649598
 20
-1333.1101117363337
 30
0.0
 41
1.0
 10
-1189.6625585153279
 20
-1333.102700162701
 30
0.0
 41
1.0
 10
-1189.5174598794547
 20
-1333.0467558441242
 30
0.0
 41
0.9988031841976962
 10
-1189.3675895168492
 20
-1333.0052557799563
 30
0.0
 41
1.0
 10
-1189.3426722684856
 20
-1332.9983560341493
 30
0.0
 41
1.0
 10
-1189.3177550201219
 20
-1332.9914562883423
 30
0.0
 41
1.0
 10
-1189.1504849944756
 20
-1332.9451381459357
 30
0.0
 41
0.9984748040550092
 10
-1188.9791280858276
 20
-1332.9175439136711
 30
0.0
 41
1.0
 10
-1188.974388949578
 20
-1332.9167807531576
 30
0.0
 41
1.0
 10
-1188.9696498133287
 20
-1332.916017592644
 30
0.0
 41
1.0
 10
-1188.807771177178
 20
-1332.8899496814063
 30
0.0
 41
0.9984436495480079
 10
-1188.643996433454
 20
-1332.8820717275876
 30
0.0
 41
1.0
 10
-1188.6222992253233
 20
-1332.8810280403879
 30
0.0
 41
1.0
 10
-1188.6006020171924
 20
-1332.8799843531883
 30
0.0
 41
1.0
 10
-1188.4802216897301
 20
-1332.8741937737689
 30
0.0
 41
0.9987954789335168
 10
-1188.3598534448195
 20
-1332.8802303015111
 30
0.0
 41
1.0
 10
-1188.3398886523278
 20
-1332.8812315458495
 30
0.0
 41
1.0
 10
-1188.3199238598359
 20
-1332.882232790188
 30
0.0
 41
1.0
 10
-1188.2394851999122
 20
-1332.8862668292531
 30
0.0
 41
0.99979415958772
 10
-1188.1592764218151
 20
-1332.8935608951745
 30
0.0
 41
1.0
 10
-1188.0790676437193
 20
-1332.9008549610958
 30
0.0
 41
0.9998589466237469
 10
-1187.9991490968632
 20
-1332.910838815546
 30
0.0
 41
1.0
 10
-1187.9667428950561
 20
-1332.9148871724651
 30
0.0
 41
1.0
 10
-1187.9343366932492
 20
-1332.918935529384
 30
0.0
 41
1.0
 10
-1187.7896057427761
 20
-1332.937016097673
 30
0.0
 41
0.9993495063249608
 10
-1187.6465544990087
 20
-1332.965481807415
 30
0.0
 41
1.0
 10
-1187.6136208018579
 20
-1332.9720352706295
 30
0.0
 41
1.0
 10
-1187.5806871047073
 20
-1332.9785887338439
 30
0.0
 41
1.0
 10
-1187.4713932815032
 20
-1333.0003370679792
 30
0.0
 41
0.9996788715561081
 10
-1187.3633417095471
 20
-1333.0275948673423
 30
0.0
 41
1.0
 10
-1187.3612787070088
 20
-1333.0281152939151
 30
0.0
 41
1.0
 10
-1187.3592157044702
 20
-1333.0286357204877
 30
0.0
 41
1.0
 10
-1187.2552901375911
 20
-1333.0548526667053
 30
0.0
 41
0.999548065449245
 10
-1187.1531279023613
 20
-1333.0872676233298
 30
0.0
 41
1.0
 10
-1187.151438260232
 20
-1333.0878037282437
 30
0.0
 41
1.0
 10
-1187.1497486181026
 20
-1333.0883398331578
 30
0.0
 41
1.0
 10
-1187.0509656671318
 20
-1333.1196825799541
 30
0.0
 41
0.9993867959456428
 10
-1186.9546185086895
 20
-1333.1578619492439
 30
0.0
 41
1.0
 10
-1186.9533755596026
 20
-1333.1583544911409
 30
0.0
 41
1.0
 10
-1186.9521326105157
 20
-1333.158847033038
 30
0.0
 41
1.0
 10
-1186.8582713502453
 20
-1333.1960413185345
 30
0.0
 41
0.9992050256522274
 10
-1186.7676716752135
 20
-1333.2405952177724
 30
0.0
 41
1.0
 10
-1186.7669369925018
 20
-1333.2409565102328
 30
0.0
 41
1.0
 10
-1186.7662023097901
 20
-1333.2413178026932
 30
0.0
 41
1.0
 10
-1186.6770720001809
 20
-1333.2851491170104
 30
0.0
 41
0.9990222350741418
 10
-1186.5921619387864
 20
-1333.3366823847095
 30
0.0
 41
1.0
 10
-1186.5919780535028
 20
-1333.3367939876148
 30
0.0
 41
1.0
 10
-1186.5917941682189
 20
-1333.3369055905202
 30
0.0
 41
1.0
 10
-1186.5072518773918
 20
-1333.3882156524085
 30
0.0
 41
0.9988642743805601
 10
-1186.4279773427738
 20
-1333.447339839933
 30
0.0
 41
1.0
 10
-1186.348702808154
 20
-1333.5064640274588
 30
0.0
 41
0.9987681233311228
 10
-1186.2756790238768
 20
-1333.5731547188607
 30
0.0
 41
1.0
 10
-1186.275350095912
 20
-1333.573455120074
 30
0.0
 41
1.0
 10
-1186.2750211679472
 20
-1333.5737555212872
 30
0.0
 41
1.0
 10
-1186.2013395277406
 20
-1333.641047015115
 30
0.0
 41
0.9987496570898532
 10
-1186.1347457224147
 20
-1333.7153598292
 30
0.0
 41
1.0
 10
-1186.1339735526528
 20
-1333.7162215025596
 30
0.0
 41
1.0
 10
-1186.133201382891
 20
-1333.717083175919
 30
0.0
 41
1.0
 10
-1186.0650632380416
 20
-1333.7931193367233
 30
0.0
 41
0.9988147669827341
 10
-1186.0046409838155
 20
-1333.8754203435674
 30
0.0
 41
1.0
 10
-1186.0035216577389
 20
-1333.8769449749182
 30
0.0
 41
1.0
 10
-1186.0024023316626
 20
-1333.8784696062689
 30
0.0
 41
1.0
 10
-1185.939741425283
 20
-1333.963819875815
 30
0.0
 41
0.9989452636215604
 10
-1185.8851745123222
 20
-1334.0545585649718
 30
0.0
 41
1.0
 10
-1185.8838257862358
 20
-1334.0568013459992
 30
0.0
 41
1.0
 10
-1185.8824770601495
 20
-1334.0590441270265
 30
0.0
 41
1.0
 10
-1185.8252126950169
 20
-1334.1542683782368
 30
0.0
 41
0.9991046436071158
 10
-1185.7762034816953
 20
-1334.2539928112619
 30
0.0
 41
1.0
 10
-1185.7747396201053
 20
-1334.2569714913345
 30
0.0
 41
1.0
 10
-1185.7732757585152
 20
-1334.2599501714071
 30
0.0
 41
1.0
 10
-1185.7213388220143
 20
-1334.3656319645756
 30
0.0
 41
0.9992763831100652
 10
-1185.6775856934601
 20
-1334.4749560265295
 30
0.0
 41
1.0
 10
-1185.6761064237958
 20
-1334.4786522140653
 30
0.0
 41
1.0
 10
-1185.6746271541317
 20
-1334.4823484016008
 30
0.0
 41
1.0
 10
-1185.6279154862502
 20
-1334.5990648386235
 30
0.0
 41
0.9994163472883748
 10
-1185.5892824550606
 20
-1334.7186984270872
 30
0.0
 41
1.0
 10
-1185.5880443028132
 20
-1334.7225325708719
 30
0.0
 41
1.0
 10
-1185.5868061505657
 20
-1334.7263667146565
 30
0.0
 41
1.0
 10
-1185.546922589549
 20
-1334.8498727761337
 30
0.0
 41
0.99972680558907
 10
-1185.5128545336374
 20
-1334.9751078080826
 30
0.0
 41
1.0
 10
-1185.5119243533684
 20
-1334.9785271741894
 30
0.0
 41
1.0
 10
-1185.5109941730993
 20
-1334.9819465402963
 30
0.0
 41
1.0
 10
-1185.4787864777259
 20
-1335.1003428400311
 30
0.0
 41
0.9996701319000556
 10
-1185.452700860955
 20
-1335.2202367932969
 30
0.0
 41
1.0
 10
-1185.4266152441844
 20
-1335.3401307465622
 30
0.0
 41
0.9995785451109425
 10
-1185.4075316668441
 20
-1335.4613365075957
 30
0.0
 41
1.0
 10
-1185.403311884671
 20
-1335.488137662358
 30
0.0
 41
1.0
 10
-1185.3990921024977
 20
-1335.5149388171201
 30
0.0
 41
1.0
 10
-1185.3725171265587
 20
-1335.6837247908243
 30
0.0
 41
0.9979925101216497
 10
-1185.3674915406323
 20
-1335.8545161189165
 30
0.0
 41
1.0
 10
-1185.3666667282077
 20
-1335.8825468423993
 30
0.0
 41
1.0
 10
-1185.365841915783
 20
-1335.9105775658818
 30
0.0
 41
1.0
 10
-1185.3624659547061
 20
-1336.0253074470093
 30
0.0
 41
0.9995314902263369
 10
-1185.3661161468444
 20
-1336.1400289307603
 30
0.0
 41
1.0
 10
-1185.3697663389826
 20
-1336.254750414508
 30
0.0
 41
0.9996245486944154
 10
-1185.3796954341133
 20
-1336.369099685628
 30
0.0
 41
1.0
 10
-1185.3798584821079
 20
-1336.3709774417673
 30
0.0
 41
1.0
 10
-1185.3800215301023
 20
-1336.3728551979066
 30
0.0
 41
1.0
 10
-1185.3902767212214
 20
-1336.4909599812991
 30
0.0
 41
0.9997286095001463
 10
-1185.4060220447925
 20
-1336.6084588901906
 30
0.0
 41
1.0
 10
-1185.4064155374431
 20
-1336.6113953148952
 30
0.0
 41
1.0
 10
-1185.4068090300939
 20
-1336.6143317395995
 30
0.0
 41
1.0
 10
-1185.4233413389661
 20
-1336.7377034978983
 30
0.0
 41
0.9998265533970154
 10
-1185.4444567976986
 20
-1336.8603739726866
 30
0.0
 41
1.0
 10
-1185.4451333398358
 20
-1336.8643043511938
 30
0.0
 41
1.0
 10
-1185.445809881973
 20
-1336.8682347297013
 30
0.0
 41
1.0
 10
-1185.4682784249808
 20
-1336.9987659615099
 30
0.0
 41
0.9999022530852838
 10
-1185.4943878895913
 20
-1337.1286179301514
 30
0.0
 41
1.0
 10
-1185.4953665307557
 20
-1337.1334850725348
 30
0.0
 41
1.0
 10
-1185.4963451719204
 20
-1337.1383522149179
 30
0.0
 41
1.0
 10
-1185.524411918861
 20
-1337.2779384683299
 30
0.0
 41
0.9999524761934164
 10
-1185.5551948876953
 20
-1337.4169509614921
 30
0.0
 41
1.0
 10
-1185.5564709948712
 20
-1337.4227137207963
 30
0.0
 41
1.0
 10
-1185.557747102047
 20
-1337.4284764801005
 30
0.0
 41
1.0
 10
-1185.5910822852352
 20
-1337.5790144918801
 30
0.0
 41
0.9999813588727785
 10
-1185.6262532860337
 20
-1337.7291342045482
 30
0.0
 41
1.0
 10
-1185.6278072114876
 20
-1337.7357667949591
 30
0.0
 41
1.0
 10
-1185.6293611369415
 20
-1337.7423993853702
 30
0.0
 41
1.0
 10
-1185.6676399886524
 20
-1337.9057842788798
 30
0.0
 41
0.9999955237702553
 10
-1185.7068958666355
 20
-1338.0689371824967
 30
0.0
 41
1.0
 10
-1185.7191775022675
 20
-1338.11998137301
 30
0.0
 41
1.0
 10
-1185.7314591378997
 20
-1338.1710255635235
 30
0.0
 41
1.0
 10
-1185.7952782871562
 20
-1338.4362668482054
 30
0.0
 41
0.9999993604344586
 10
-1185.8596972343373
 20
-1338.7013630989438
 30
0.0
 41
1.0
 10
-1185.8644160698741
 20
-1338.7207820069425
 30
0.0
 41
1.0
 10
-1185.8691349054111
 20
-1338.7402009149409
 30
0.0
 41
1.0
 10
-1185.942991523674
 20
-1339.0441349817095
 30
0.0
 41
0.9999659914727782
 10
-1186.0218511195617
 20
-1339.3468095282778
 30
0.0
 41
1.0
 10
-1186.0268038084898
 20
-1339.3658186654509
 30
0.0
 41
1.0
 10
-1186.031756497418
 20
-1339.3848278026239
 30
0.0
 41
1.0
 10
-1186.1205214711626
 20
-1339.7255206235411
 30
0.0
 41
0.9999441976029152
 10
-1186.2164645041264
 20
-1340.0642620488404
 30
0.0
 41
1.0
 10
-1186.2331650225522
 20
-1340.1232257613688
 30
0.0
 41
1.0
 10
-1186.2498655409779
 20
-1340.1821894738973
 30
0.0
 41
1.0
 10
-1186.379209610795
 20
-1340.6388583242592
 30
0.0
 41
0.9999625120739596
 10
-1186.5164423781205
 20
-1341.0932188582626
 30
0.0
 41
1.0
 10
-1186.5522323212031
 20
-1341.2117148848886
 30
0.0
 41
1.0
 10
-1186.5880222642857
 20
-1341.3302109115145
 30
0.0
 41
1.0
 10
-1186.6625424683245
 20
-1341.576937989609
 30
0.0
 41
0.9999793386323246
 10
-1186.7402284914606
 20
-1341.8226866288401
 30
0.0
 41
1.0
 10
-1186.8179145145982
 20
-1342.0684352680762
 30
0.0
 41
1.0
 10
-1186.8286940734688
 20
-1342.1024531724509
 30
0.0
 41
1.0
 10
-1188.6790671267379
 20
-1347.9895250949185
 30
0.0
 41
1.0
 10
-1190.529440180007
 20
-1353.8765970173858
 30
0.0
 41
1.0
 10
-1191.4906968700307
 20
-1353.8765970173858
 30
0.0
 41
1.0
 10
-1192.4519535600543
 20
-1353.8765970173858
 30
0.0
 41
1.0
 10
-1190.8330087813758
 20
-1348.7285685155964
 30
0.0
 41
1.0
 10
-1189.2140640026973
 20
-1343.580540013807
 30
0.0
 41
1.0
 10
-1189.1688981795219
 20
-1343.4365087915332
 30
0.0
 41
1.0
 10
-1189.1237323563462
 20
-1343.2924775692595
 30
0.0
 41
1.0
 10
-1188.9534279389841
 20
-1342.7493865400988
 30
0.0
 41
0.9999911657921238
 10
-1188.7876951273056
 20
-1342.204883008741
 30
0.0
 41
1.0
 10
-1188.757999183809
 20
-1342.1073190687034
 30
0.0
 41
1.0
 10
-1188.7283032403125
 20
-1342.0097551286656
 30
0.0
 41
1.0
 10
-1188.6219623156292
 20
-1341.6603794773896
 30
0.0
 41
0.9999952428184172
 10
-1188.5177787263005
 20
-1341.3103544530277
 30
0.0
 41
1.0
 10
-1188.5127192559708
 20
-1341.2933561787618
 30
0.0
 41
1.0
 10
-1188.5076597856412
 20
-1341.2763579044956
 30
0.0
 41
1.0
 10
-1188.4135951369772
 20
-1340.9603294286831
 30
0.0
 41
0.9999931687514913
 10
-1188.321869299102
 20
-1340.6436142154078
 30
0.0
 41
1.0
 10
-1188.316934034649
 20
-1340.6265735061593
 30
0.0
 41
1.0
 10
-1188.3119987701959
 20
-1340.6095327969108
 30
0.0
 41
1.0
 10
-1188.2301434612345
 20
-1340.3268990021595
 30
0.0
 41
0.9999893840814903
 10
-1188.1508962347714
 20
-1340.0435228728907
 30
0.0
 41
1.0
 10
-1188.0716490083153
 20
-1339.7601467436466
 30
0.0
 41
0.9999833980072597
 10
-1187.9956727675767
 20
-1339.4758761606302
 30
0.0
 41
1.0
 10
-1187.9866688308507
 20
-1339.4421872821372
 30
0.0
 41
1.0
 10
-1187.9776648941245
 20
-1339.4084984036442
 30
0.0
 41
1.0
 10
-1187.9087003452598
 20
-1339.1504625713537
 30
0.0
 41
0.9999233658068406
 10
-1187.846145374041
 20
-1338.8907984126377
 30
0.0
 41
1.0
 10
-1187.7835904028209
 20
-1338.6311342539152
 30
0.0
 41
1.0
 10
-1187.7441069839633
 20
-1338.4673275894891
 30
0.0
 41
1.0
 10
-1187.7391283799861
 20
-1338.4466726276187
 30
0.0
 41
1.0
 10
-1187.7341497760087
 20
-1338.4260176657483
 30
0.0
 41
1.0
 10
-1187.7046235651051
 20
-1338.3035209250597
 30
0.0
 41
0.9999868670841714
 10
-1187.6763544811097
 20
-1338.1807279794175
 30
0.0
 41
1.0
 10
-1187.6724569939502
 20
-1338.1637983919923
 30
0.0
 41
1.0
 10
-1187.6685595067904
 20
-1338.146868804567
 30
0.0
 41
1.0
 10
-1187.648085397112
 20
-1338.0579350337666
 30
0.0
 41
0.9999778173354686
 10
-1187.628797798998
 20
-1337.9687364165416
 30
0.0
 41
1.0
 10
-1187.6095102008817
 20
-1337.8795377993067
 30
0.0
 41
0.9999602692861273
 10
-1187.5918158422489
 20
-1337.7900095108703
 30
0.0
 41
1.0
 10
-1187.5886120101727
 20
-1337.7737990559917
 30
0.0
 41
1.0
 10
-1187.5854081780965
 20
-1337.7575886011134
 30
0.0
 41
1.0
 10
-1187.5613061553106
 20
-1337.6356394029171
 30
0.0
 41
0.9995617985320313
 10
-1187.5444628080922
 20
-1337.5124776552129
 30
0.0
 41
1.0
 10
-1187.5419983181855
 20
-1337.4944568378446
 30
0.0
 41
1.0
 10
-1187.539533828279
 20
-1337.4764360204763
 30
0.0
 41
1.0
 10
-1187.519250567231
 20
-1337.3281209707766
 30
0.0
 41
0.9991121410639513
 10
-1187.5115252136427
 20
-1337.1786248719709
 30
0.0
 41
1.0
 10
-1187.5106064236184
 20
-1337.160845035397
 30
0.0
 41
1.0
 10
-1187.5096876335938
 20
-1337.143065198823
 30
0.0
 41
1.0
 10
-1187.5037998600546
 20
-1337.0291287731673
 30
0.0
 41
0.9989792494905815
 10
-1187.5082189521718
 20
-1336.9151259372666
 30
0.0
 41
1.0
 10
-1187.5088669240404
 20
-1336.8984096913391
 30
0.0
 41
1.0
 10
-1187.509514895909
 20
-1336.8816934454119
 30
0.0
 41
1.0
 10
-1187.5126380442891
 20
-1336.8011231013677
 30
0.0
 41
0.9997820295393264
 10
-1187.5191220416648
 20
-1336.7207533796241
 30
0.0
 41
1.0
 10
-1187.5256060390409
 20
-1336.6403836578754
 30
0.0
 41
0.9998335105972381
 10
-1187.5350182345533
 20
-1336.560304041421
 30
0.0
 41
1.0
 10
-1187.5366131592291
 20
-1336.5467343109426
 30
0.0
 41
1.0
 10
-1187.5382080839049
 20
-1336.533164580464
 30
0.0
 41
1.0
 10
-1187.5508101287689
 20
-1336.4259455030497
 30
0.0
 41
0.9996876457879057
 10
-1187.568754041567
 20
-1336.3194900753354
 30
0.0
 41
1.0
 10
-1187.5709857047125
 20
-1336.3062503400924
 30
0.0
 41
1.0
 10
-1187.573217367858
 20
-1336.2930106048493
 30
0.0
 41
1.0
 10
-1187.5870131892793
 20
-1336.2111644608901
 30
0.0
 41
0.9995547496495219
 10
-1187.6056665111719
 20
-1336.1302869636986
 30
0.0
 41
1.0
 10
-1187.6060404680434
 20
-1336.1286655529925
 30
0.0
 41
1.0
 10
-1187.6064144249149
 20
-1336.1270441422864
 30
0.0
 41
1.0
 10
-1187.6243198330644
 20
-1336.0494094665071
 30
0.0
 41
0.9994899427174224
 10
-1187.6471447417439
 20
-1335.9730761836731
 30
0.0
 41
1.0
 10
-1187.647603268485
 20
-1335.9715427338836
 30
0.0
 41
1.0
 10
-1187.6480617952259
 20
-1335.970009284094
 30
0.0
 41
1.0
 10
-1187.6699696504234
 20
-1335.896742900838
 30
0.0
 41
0.9993784877590687
 10
-1187.6969852855298
 20
-1335.8252021956796
 30
0.0
 41
1.0
 10
-1187.6975169765069
 20
-1335.8237942129588
 30
0.0
 41
1.0
 10
-1187.6980486674838
 20
-1335.822386230238
 30
0.0
 41
1.0
 10
-1187.7240009206366
 20
-1335.7536614905198
 30
0.0
 41
0.9992430832253716
 10
-1187.7552174557959
 20
-1335.6871623384523
 30
0.0
 41
1.0
 10
-1187.7557995718525
 20
-1335.6859222833352
 30
0.0
 41
1.0
 10
-1187.756381687909
 20
-1335.6846822282182
 30
0.0
 41
1.0
 10
-1187.7864339909549
 20
-1335.6206631863843
 30
0.0
 41
0.9990789632798145
 10
-1187.8218646177318
 20
-1335.5594565746344
 30
0.0
 41
1.0
 10
-1187.822460323913
 20
-1335.5584274887765
 30
0.0
 41
1.0
 10
-1187.8230560300942
 20
-1335.5573984029186
 30
0.0
 41
1.0
 10
-1187.8572952445077
 20
-1335.4982499628857
 30
0.0
 41
0.9988874801120896
 10
-1187.8969545205405
 20
-1335.4425902504668
 30
0.0
 41
1.0
 10
-1187.8975100466046
 20
-1335.4418105987925
 30
0.0
 41
1.0
 10
-1187.8980655726684
 20
-1335.441030947118
 30
0.0
 41
1.0
 10
-1187.9366137965724
 20
-1335.3869305380495
 30
0.0
 41
0.998676206069349
 10
-1187.9805162678488
 20
-1335.33707682361
 30
0.0
 41
1.0
 10
-1187.9809602281789
 20
-1335.3365726817956
 30
0.0
 41
1.0
 10
-1187.9814041885093
 20
-1335.3360685399812
 30
0.0
 41
1.0
 10
-1188.0244187391229
 20
-1335.2872231091731
 30
0.0
 41
0.9984621642489698
 10
-1188.0725762959028
 20
-1335.2434398086996
 30
0.0
 41
1.0
 10
-1188.0728229304189
 20
-1335.2432155765364
 30
0.0
 41
1.0
 10
-1188.0730695649349
 20
-1335.2429913443734
 30
0.0
 41
1.0
 10
-1188.1207338526799
 20
-1335.1996565082291
 30
0.0
 41
0.9982724693852151
 10
-1188.173152484522
 20
-1335.1622121577107
 30
0.0
 41
1.0
 10
-1188.2255711163641
 20
-1335.1247678071927
 30
0.0
 41
0.9981399180158859
 10
-1188.2821571797583
 20
-1335.0939812877489
 30
0.0
 41
1.0
 10
-1188.2822028418359
 20
-1335.0939564445921
 30
0.0
 41
1.0
 10
-1188.2822485039137
 20
-1335.0939316014353
 30
0.0
 41
1.0
 10
-1188.338925891464
 20
-1335.0630953956775
 30
0.0
 41
0.9980927086836455
 10
-1188.3989712425305
 20
-1335.039478586825
 30
0.0
 41
1.0
 10
-1188.399411412242
 20
-1335.0393054609499
 30
0.0
 41
1.0
 10
-1188.3998515819537
 20
-1335.039132335075
 30
0.0
 41
1.0
 10
-1188.4607772724423
 20
-1335.015169274473
 30
0.0
 41
0.9981411356562558
 10
-1188.5241657938402
 20
-1334.9987966329677
 30
0.0
 41
1.0
 10
-1188.525047910543
 20
-1334.998568790762
 30
0.0
 41
1.0
 10
-1188.5259300272457
 20
-1334.998340948556
 30
0.0
 41
1.0
 10
-1188.5910827820487
 20
-1334.9815126226392
 30
0.0
 41
0.9983031812934826
 10
-1188.6577502110447
 20
-1334.972373261463
 30
0.0
 41
1.0
 10
-1188.666621236448
 20
-1334.9711571427918
 30
0.0
 41
1.0
 10
-1188.6754922618511
 20
-1334.9699410241205
 30
0.0
 41
1.0
 10
-1188.7298419043548
 20
-1334.9624902941296
 30
0.0
 41
0.9983887708262731
 10
-1188.7846857536474
 20
-1334.9612456204964
 30
0.0
 41
1.0
 10
-1188.7927491588653
 20
-1334.9610626226215
 30
0.0
 41
1.0
 10
-1188.8008125640833
 20
-1334.9608796247467
 30
0.0
 41
1.0
 10
-1188.8395296029405
 20
-1334.9600009468629
 30
0.0
 41
0.9998869563080127
 10
-1188.8782555561429
 20
-1334.9602868162226
 30
0.0
 41
1.0
 10
-1188.9169815093633
 20
-1334.9605726855825
 30
0.0
 41
0.9999972320154444
 10
-1188.955705688594
 20
-1334.9610407851119
 30
0.0
 41
1.0
 10
-1188.9750587051553
 20
-1334.9612747252011
 30
0.0
 41
1.0
 10
-1188.9944117217165
 20
-1334.9615086652902
 30
0.0
 41
1.0
 10
-1189.0718419340899
 20
-1334.962444644998
 30
0.0
 41
0.9997304945086409
 10
-1189.1491452403307
 20
-1334.9669737387842
 30
0.0
 41
1.0
 10
-1189.1581948820319
 20
-1334.9675039447739
 30
0.0
 41
1.0
 10
-1189.1672445237332
 20
-1334.9680341507637
 30
0.0
 41
1.0
 10
-1189.2626471133819
 20
-1334.97362365653
 30
0.0
 41
0.9997888306415617
 10
-1189.357739449227
 20
-1334.9831286210194
 30
0.0
 41
1.0
 10
-1189.3664605107974
 20
-1334.9840003356512
 30
0.0
 41
1.0
 10
-1189.3751815723676
 20
-1334.9848720502832
 30
0.0
 41
1.0
 10
-1189.4877160313567
 20
-1334.9961204440365
 30
0.0
 41
0.9984170238190264
 10
-1189.5982751787087
 20
-1335.0199365259725
 30
0.0
 41
1.0
 10
-1189.6346563096936
 20
-1335.0277735617783
 30
0.0
 41
1.0
 10
-1189.6710374406787
 20
-1335.0356105975843
 30
0.0
 41
1.0
 10
-1189.7862285091005
 20
-1335.060424464094
 30
0.0
 41
0.9976592854198862
 10
-1189.8969566755063
 20
-1335.1007231412414
 30
0.0
 41
1.0
 10
-1190.0076848419121
 20
-1335.1410218183887
 30
0.0
 41
0.9993255074351619
 10
-1190.1151566407034
 20
-1335.1893387168816
 30
0.0
 41
1.0
 10
-1190.119781819626
 20
-1335.191418093081
 30
0.0
 41
1.0
 10
-1190.1244069985487
 20
-1335.1934974692804
 30
0.0
 41
1.0
 10
-1190.2411291551859
 20
-1335.2459731201723
 30
0.0
 41
0.9976475078275152
 10
-1190.3495764994962
 20
-1335.3139211098303
 30
0.0
 41
1.0
 10
-1190.3679188936314
 20
-1335.325413588645
 30
0.0
 41
1.0
 10
-1190.3862612877667
 20
-1335.3369060674599
 30
0.0
 41
1.0
 10
-1190.4704634793177
 20
-1335.3896631882278
 30
0.0
 41
0.9995131336406922
 10
-1190.5512111942758
 20
-1335.4475694001812
 30
0.0
 41
1.0
 10
-1190.6319589092323
 20
-1335.505475612134
 30
0.0
 41
0.999581010760614
 10
-1190.7092205569609
 20
-1335.5679572945996
 30
0.0
 41
1.0
 10
-1190.7121905881713
 20
-1335.5703591660645
 30
0.0
 41
1.0
 10
-1190.715160619382
 20
-1335.5727610375293
 30
0.0
 41
1.0
 10
-1190.7983623295311
 20
-1335.6400464629246
 30
0.0
 41
0.9996617837954996
 10
-1190.8779530166671
 20
-1335.711566918485
 30
0.0
 41
1.0
 10
-1190.8900837675451
 20
-1335.7224676514766
 30
0.0
 41
1.0
 10
-1190.9022145184229
 20
-1335.7333683844679
 30
0.0
 41
1.0
 10
-1190.9704900458196
 20
-1335.7947209999404
 30
0.0
 41
0.9997267750052277
 10
-1191.0358235541016
 20
-1335.8591975364643
 30
0.0
 41
1.0
 10
-1191.1011570623839
 20
-1335.9236740729882
 30
0.0
 41
0.9999667288960932
 10
-1191.1654300055297
 20
-1335.9892078798819
 30
0.0
 41
1.0
 10
-1191.2342574533059
 20
-1336.059385538641
 30
0.0
 41
1.0
 10
-1191.303084901082
 20
-1336.1295631974003
 30
0.0
 41
1.0
 10
-1191.5050127397794
 20
-1336.3354523218118
 30
0.0
 41
0.998820533517506
 10
-1191.6860183567596
 20
-1336.5599565538732
 30
0.0
 41
1.0
 10
-1191.7166583216638
 20
-1336.5979598043025
 30
0.0
 41
1.0
 10
-1191.7472982865679
 20
-1336.6359630547317
 30
0.0
 41
1.0
 10
-1191.9895838333559
 20
-1336.9364737876513
 30
0.0
 41
0.9997077826755533
 10
-1192.2170617844606
 20
-1337.2483435818667
 30
0.0
 41
1.0
 10
-1192.2187851995918
 20
-1337.2507063652472
 30
0.0
 41
1.0
 10
-1192.2205086147228
 20
-1337.2530691486277
 30
0.0
 41
1.0
 10
-1192.4514333960888
 20
-1337.5696645096029
 30
0.0
 41
0.9989147567078902
 10
-1192.6518968989722
 20
-1337.9063739707879
 30
0.0
 41
1.0
 10
-1192.6766380442796
 20
-1337.947930551341
 30
0.0
 41
1.0
 10
-1192.701379189587
 20
-1337.9894871318941
 30
0.0
 41
1.0
 10
-1192.8565904882244
 20
-1338.2501885163467
 30
0.0
 41
0.9997476598182138
 10
-1192.9999354757333
 20
-1338.517598264928
 30
0.0
 41
1.0
 10
-1193.143280463242
 20
-1338.7850080135088
 30
0.0
 41
0.9996258967109922
 10
-1193.2717887151728
 20
-1339.0598559501309
 30
0.0
 41
1.0
 10
-1193.2849886246231
 20
-1339.0880873502279
 30
0.0
 41
1.0
 10
-1193.2981885340732
 20
-1339.1163187503246
 30
0.0
 41
1.0
 10
-1193.4383972550734
 20
-1339.4161911482779
 30
0.0
 41
0.9998735413944883
 10
-1193.5689986017944
 20
-1339.720370747747
 30
0.0
 41
1.0
 10
-1193.5724414298547
 20
-1339.7283893332115
 30
0.0
 41
1.0
 10
-1193.5758842579153
 20
-1339.7364079186762
 30
0.0
 41
1.0
 10
-1193.6995999485143
 20
-1340.0245503472133
 30
0.0
 41
0.9999377418858928
 10
-1193.8168547506893
 20
-1340.3153818148894
 30
0.0
 41
1.0
 10
-1193.9341095528625
 20
-1340.6062132825607
 30
0.0
 41
0.9999508299504455
 10
-1194.0455734962372
 20
-1340.8993129593744
 30
0.0
 41
1.0
 10
-1194.0486542649021
 20
-1340.9074139853446
 30
0.0
 41
1.0
 10
-1194.051735033567
 20
-1340.9155150113147
 30
0.0
 41
1.0
 10
-1194.1693605142723
 20
-1341.2248167400712
 30
0.0
 41
0.9999609228434687
 10
-1194.2814991171499
 20
-1341.5361497560978
 30
0.0
 41
1.0
 10
-1194.2844551274961
 20
-1341.5443565964979
 30
0.0
 41
1.0
 10
-1194.2874111378426
 20
-1341.5525634368983
 30
0.0
 41
1.0
 10
-1194.4054617614161
 20
-1341.8803101337335
 30
0.0
 41
0.9999674607402075
 10
-1194.5182092874859
 20
-1342.2099187537335
 30
0.0
 41
1.0
 10
-1194.5696076780464
 20
-1342.3601779494197
 30
0.0
 41
1.0
 10
-1194.6210060686071
 20
-1342.5104371451059
 30
0.0
 41
1.0
 10
-1194.737016675366
 20
-1342.849585127612
 30
0.0
 41
0.9999287532308727
 10
-1194.8448980793378
 20
-1343.1914058665902
 30
0.0
 41
1.0
 10
-1194.8913753354796
 20
-1343.3386684109696
 30
0.0
 41
1.0
 10
-1194.9378525916211
 20
-1343.485930955349
 30
0.0
 41
1.0
 10
-1194.9527794833152
 20
-1343.5332266055871
 30
0.0
 41
0.9999998223690916
 10
-1194.9676499920388
 20
-1343.580540013807
 30
0.0
 41
1.0
 10
-1196.5883061288341
 20
-1348.7285685155964
 30
0.0
 41
1.0
 10
-1198.2089622656297
 20
-1353.8765970173858
 30
0.0
 41
1.0
 10
-1199.1142707095205
 20
-1353.8765970173858
 30
0.0
 41
1.0
 10
-1200.0195791534115
 20
-1353.8765970173858
 30
0.0
 41
1.0
 10
-1198.1674947420256
 20
-1347.9895250949185
 30
0.0
 41
1.0
 10
-1196.3154103306395
 20
-1342.1024531724509
 30
0.0
 41
1.0
 10
-1196.3052885723368
 20
-1342.0704099590012
 30
0.0
 41
1.0
 10
-1196.2326809034871
 20
-1341.8401104171753
 30
0.0
 41
1.0
 10
-1196.1600732346355
 20
-1341.6098108753436
 30
0.0
 41
0.9999825681967536
 10
-1196.0901901954219
 20
-1341.3786699802715
 30
0.0
 41
1.0
 10
-1196.0418991332617
 20
-1341.2189453967771
 30
0.0
 41
1.0
 10
-1195.9936080711013
 20
-1341.059220813283
 30
0.0
 41
1.0
 10
-1195.8964557177867
 20
-1340.7378855915156
 30
0.0
 41
0.9999672528964388
 10
-1195.8045169121649
 20
-1340.4150200459344
 30
0.0
 41
1.0
 10
-1195.8017280284921
 20
-1340.4052262005343
 30
0.0
 41
1.0
 10
-1195.7989391448195
 20
-1340.3954323551343
 30
0.0
 41
1.0
 10
-1195.7125781065379
 20
-1340.0921545003357
 30
0.0
 41
0.9999899749143906
 10
-1195.6289364970069
 20
-1339.7881154118959
 30
0.0
 41
1.0
 10
-1195.6188305779879
 20
-1339.7513801742116
 30
0.0
 41
1.0
 10
-1195.6087246589686
 20
-1339.7146449365275
 30
0.0
 41
1.0
 10
-1195.5452948874713
 20
-1339.4840763234399
 30
0.0
 41
0.9999214200504988
 10
-1195.4876654590944
 20
-1339.2519899812341
 30
0.0
 41
1.0
 10
-1195.4748996069152
 20
-1339.2005790958438
 30
0.0
 41
1.0
 10
-1195.4621337547362
 20
-1339.1491682104534
 30
0.0
 41
1.0
 10
-1195.4300360307186
 20
-1339.0199036390322
 30
0.0
 41
0.9999828681656163
 10
-1195.3994537787212
 20
-1338.8902721645572
 30
0.0
 41
1.0
 10
-1195.3688715267251
 20
-1338.7606406900868
 30
0.0
 41
0.9999389844479129
 10
-1195.3411605379354
 20
-1338.6303652341835
 30
0.0
 41
1.0
 10
-1195.3340227942158
 20
-1338.5968091303491
 30
0.0
 41
1.0
 10
-1195.3268850504962
 20
-1338.5632530265148
 30
0.0
 41
1.0
 10
-1195.2848985742676
 20
-1338.3658653629445
 30
0.0
 41
0.9998933699440533
 10
-1195.2486943098661
 20
-1338.1673357551906
 30
0.0
 41
1.0
 10
-1195.2473214846489
 20
-1338.1598077344893
 30
0.0
 41
1.0
 10
-1195.2459486594316
 20
-1338.1522797137882
 30
0.0
 41
1.0
 10
-1195.2069987445964
 20
-1337.9386940646345
 30
0.0
 41
0.99968503051937
 10
-1195.1788150683374
 20
-1337.723423059196
 30
0.0
 41
1.0
 10
-1195.1768200349684
 20
-1337.7081847050754
 30
0.0
 41
1.0
 10
-1195.1748250015992
 20
-1337.692946350955
 30
0.0
 41
1.0
 10
-1195.1474171391403
 20
-1337.4836011238006
 30
0.0
 41
0.9994697936706499
 10
-1195.1336925799205
 20
-1337.2729159284704
 30
0.0
 41
1.0
 10
-1195.1332155106711
 20
-1337.2655924562628
 30
0.0
 41
1.0
 10
-1195.1327384414217
 20
-1337.2582689840551
 30
0.0
 41
1.0
 10
-1195.1199680207012
 20
-1337.0622307331435
 30
0.0
 41
0.9991804893137073
 10
-1195.123096336974
 20
-1336.8658018831663
 30
0.0
 41
1.0
 10
-1195.1231802157961
 20
-1336.8605350817543
 30
0.0
 41
1.0
 10
-1195.1232640946182
 20
-1336.855268280342
 30
0.0
 41
1.0
 10
-1195.1262246532467
 20
-1336.6693730331936
 30
0.0
 41
0.9988448329321816
 10
-1195.1470161988705
 20
-1336.4846204433595
 30
0.0
 41
1.0
 10
-1195.1486102725735
 20
-1336.470455587588
 30
0.0
 41
1.0
 10
-1195.1502043462765
 20
-1336.4562907318166
 30
0.0
 41
1.0
 10
-1195.1678077444942
 20
-1336.2998678535259
 30
0.0
 41
0.9985503209458873
 10
-1195.2021240167937
 20
-1336.1462436694369
 30
0.0
 41
1.0
 10
-1195.2097100088654
 20
-1336.112283342035
 30
0.0
 41
1.0
 10
-1195.217296000937
 20
-1336.0783230146333
 30
0.0
 41
1.0
 10
-1195.2364402890939
 20
-1335.992619485346
 30
0.0
 41
0.999103678137021
 10
-1195.2627651507446
 20
-1335.9088423980227
 30
0.0
 41
1.0
 10
-1195.2667473761999
 20
-1335.8961692355147
 30
0.0
 41
1.0
 10
-1195.2707296016549
 20
-1335.8834960730064
 30
0.0
 41
1.0
 10
-1195.289090012395
 20
-1335.8250653106998
 30
0.0
 41
0.9998874504368788
 10
-1195.3091952200741
 20
-1335.7672117084744
 30
0.0
 41
1.0
 10
-1195.3293004277523
 20
-1335.7093581062518
 30
0.0
 41
0.9994041637543877
 10
-1195.3533490406862
 20
-1335.6530294023623
 30
0.0
 41
1.0
 10
-1195.3575458249115
 20
-1335.6431993378774
 30
0.0
 41
1.0
 10
-1195.3617426091371
 20
-1335.6333692733922
 30
0.0
 41
1.0
 10
-1195.3896214401304
 20
-1335.5680691074274
 30
0.0
 41
0.9991846840700961
 10
-1195.4226777968224
 20
-1335.50523107615
 30
0.0
 41
1.0
 10
-1195.4238144032167
 20
-1335.5030704596966
 30
0.0
 41
1.0
 10
-1195.424951009611
 20
-1335.5009098432433
 30
0.0
 41
1.0
 10
-1195.4557341535149
 20
-1335.4423930448709
 30
0.0
 41
0.998925316792411
 10
-1195.4918035775704
 20
-1335.3869781164794
 30
0.0
 41
1.0
 10
-1195.4928577022456
 20
-1335.3853586217158
 30
0.0
 41
1.0
 10
-1195.4939118269206
 20
-1335.3837391269522
 30
0.0
 41
1.0
 10
-1195.5278730016264
 20
-1335.331563188088
 30
0.0
 41
0.9986467172836283
 10
-1195.5670701542631
 20
-1335.2831971544597
 30
0.0
 41
1.0
 10
-1195.5679442829628
 20
-1335.282118552183
 30
0.0
 41
1.0
 10
-1195.5688184116623
 20
-1335.281039949906
 30
0.0
 41
1.0
 10
-1195.6062673068996
 20
-1335.2348311208314
 30
0.0
 41
0.9984001104268668
 10
-1195.6486940374175
 20
-1335.1931460134615
 30
0.0
 41
1.0
 10
-1195.6492811755268
 20
-1335.1925691385804
 30
0.0
 41
1.0
 10
-1195.649868313636
 20
-1335.1919922636991
 30
0.0
 41
1.0
 10
-1195.6911207679343
 20
-1335.1514609060928
 30
0.0
 41
0.9982442159081553
 10
-1195.7368768692702
 20
-1335.1160923448324
 30
0.0
 41
1.0
 10
-1195.7370916647326
 20
-1335.1159263121885
 30
0.0
 41
1.0
 10
-1195.737306460195
 20
-1335.1157602795449
 30
0.0
 41
1.0
 10
-1195.7826329706063
 20
-1335.0807237835718
 30
0.0
 41
0.9982450060836947
 10
-1195.8317839496776
 20
-1335.0512920005385
 30
0.0
 41
1.0
 10
-1195.8809349287496
 20
-1335.0218602175048
 30
0.0
 41
0.9983922639635495
 10
-1195.9331012349148
 20
-1334.9981805828506
 30
0.0
 41
1.0
 10
-1195.933328112239
 20
-1334.9980775973695
 30
0.0
 41
1.0
 10
-1195.9335549895632
 20
-1334.9979746118881
 30
0.0
 41
1.0
 10
-1195.9861750503758
 20
-1334.9740890062717
 30
0.0
 41
0.9986517147150505
 10
-1196.0409880232426
 20
-1334.9557878871503
 30
0.0
 41
1.0
 10
-1196.0416659446714
 20
-1334.9555615407185
 30
0.0
 41
1.0
 10
-1196.0423438661005
 20
-1334.9553351942866
 30
0.0
 41
1.0
 10
-1196.0985126818236
 20
-1334.9365813823022
 30
0.0
 41
0.9989435598956151
 10
-1196.1561660689752
 20
-1334.9230636800676
 30
0.0
 41
1.0
 10
-1196.1572461885571
 20
-1334.9228104298145
 30
0.0
 41
1.0
 10
-1196.1583263081388
 20
-1334.9225571795614
 30
0.0
 41
1.0
 10
-1196.2181399344545
 20
-1334.9085329768207
 30
0.0
 41
0.999224924124001
 10
-1196.2788714433527
 20
-1334.8992576341054
 30
0.0
 41
1.0
 10
-1196.280285131643
 20
-1334.8990417256978
 30
0.0
 41
1.0
 10
-1196.2816988199334
 20
-1334.8988258172899
 30
0.0
 41
1.0
 10
-1196.3452577054136
 20
-1334.8891186577589
 30
0.0
 41
0.9994396597833808
 10
-1196.4093236419512
 20
-1334.8836857354133
 30
0.0
 41
1.0
 10
-1196.4284643094284
 20
-1334.8820625676949
 30
0.0
 41
1.0
 10
-1196.4476049769053
 20
-1334.8804393999762
 30
0.0
 41
1.0
 10
-1196.5499522483963
 20
-1334.8717601421934
 30
0.0
 41
0.9987693403121937
 10
-1196.6526558719818
 20
-1334.8732632056456
 30
0.0
 41
1.0
 10
-1196.6629102062116
 20
-1334.8734132774198
 30
0.0
 41
1.0
 10
-1196.6731645404411
 20
-1334.873563349194
 30
0.0
 41
1.0
 10
-1196.782720306619
 20
-1334.8751666934816
 30
0.0
 41
0.9989753644966194
 10
-1196.8916823066347
 20
-1334.8866697004069
 30
0.0
 41
1.0
 10
-1197.00064430665
 20
-1334.8981727073319
 30
0.0
 41
0.9983190067305857
 10
-1197.1075431176137
 20
-1334.9222076991182
 30
0.0
 41
1.0
 10
-1197.1164440692216
 20
-1334.9242089776812
 30
0.0
 41
1.0
 10
-1197.1253450208296
 20
-1334.9262102562441
 30
0.0
 41
1.0
 10
-1197.2500457350084
 20
-1334.9542478051562
 30
0.0
 41
0.9985539388302595
 10
-1197.3710154886867
 20
-1334.9955114812021
 30
0.0
 41
1.0
 10
-1197.3733609196468
 20
-1334.996311525018
 30
0.0
 41
1.0
 10
-1197.3757063506068
 20
-1334.9971115688336
 30
0.0
 41
1.0
 10
-1197.5013669662048
 20
-1335.0399753325107
 30
0.0
 41
0.9988468746493371
 10
-1197.6223373085047
 20
-1335.0946934175729
 30
0.0
 41
1.0
 10
-1197.6255201304939
 20
-1335.096133092133
 30
0.0
 41
1.0
 10
-1197.6287029524829
 20
-1335.097572766693
 30
0.0
 41
1.0
 10
-1197.7560389387611
 20
-1335.1551702008755
 30
0.0
 41
0.9991322885918693
 10
-1197.8781395228189
 20
-1335.2231655330581
 30
0.0
 41
1.0
 10
-1197.8957415338609
 20
-1335.2329677350469
 30
0.0
 41
1.0
 10
-1197.9133435449032
 20
-1335.2427699370357
 30
0.0
 41
1.0
 10
-1198.0155202259612
 20
-1335.2996700528167
 30
0.0
 41
0.9993860037849636
 10
-1198.1134612300357
 20
-1335.363586068406
 30
0.0
 41
1.0
 10
-1198.1190795428879
 20
-1335.3672525631009
 30
0.0
 41
1.0
 10
-1198.1246978557404
 20
-1335.3709190577958
 30
0.0
 41
1.0
 10
-1198.2114022341093
 20
-1335.4275020839946
 30
0.0
 41
0.99988214949532
 10
-1198.2963286099221
 20
-1335.4867203140711
 30
0.0
 41
1.0
 10
-1198.3812549857341
 20
-1335.5459385441475
 30
0.0
 41
0.9997976482745323
 10
-1198.4637306161374
 20
-1335.6085249521889
 30
0.0
 41
1.0
 10
-1198.4783668809428
 20
-1335.6196316419691
 30
0.0
 41
1.0
 10
-1198.4930031457484
 20
-1335.6307383317494
 30
0.0
 41
1.0
 10
-1198.6047513057629
 20
-1335.7155381193515
 30
0.0
 41
0.9998091630798706
 10
-1198.7131015837915
 20
-1335.8046384700538
 30
0.0
 41
1.0
 10
-1198.7261073362679
 20
-1335.815333570499
 30
0.0
 41
1.0
 10
-1198.739113088744
 20
-1335.8260286709442
 30
0.0
 41
1.0
 10
-1198.8734748717254
 20
-1335.9365192225373
 30
0.0
 41
0.9995035112317231
 10
-1199.0006107494883
 20
-1336.0552530395514
 30
0.0
 41
1.0
 10
-1199.0102580598766
 20
-1336.0642627857103
 30
0.0
 41
1.0
 10
-1199.019905370265
 20
-1336.0732725318692
 30
0.0
 41
1.0
 10
-1199.1433284330296
 20
-1336.1885389036245
 30
0.0
 41
0.9994630424299121
 10
-1199.2589368388135
 20
-1336.3116416468595
 30
0.0
 41
1.0
 10
-1199.2626196775855
 20
-1336.3155632263731
 30
0.0
 41
1.0
 10
-1199.2663025163577
 20
-1336.3194848058868
 30
0.0
 41
1.0
 10
-1199.3745452445978
 20
-1336.4347443900949
 30
0.0
 41
0.9995160693750153
 10
-1199.4754112741293
 20
-1336.5565118079671
 30
0.0
 41
1.0
 10
-1199.4773449942095
 20
-1336.5588462321748
 30
0.0
 41
1.0
 10
-1199.4792787142899
 20
-1336.5611806563825
 30
0.0
 41
1.0
 10
-1199.5762773036613
 20
-1336.6782792258398
 30
0.0
 41
0.9996561470514727
 10
-1199.6670035223274
 20
-1336.800301988289
 30
0.0
 41
1.0
 10
-1199.673161188229
 20
-1336.8085837773308
 30
0.0
 41
1.0
 10
-1199.6793188541305
 20
-1336.8168655663726
 30
0.0
 41
1.0
 10
-1199.757729740993
 20
-1336.922324750738
 30
0.0
 41
0.9998349055173539
 10
-1199.8322570229254
 20
-1337.0305633344014
 30
0.0
 41
1.0
 10
-1199.9067843048595
 20
-1337.1388019180677
 30
0.0
 41
0.9999728109570168
 10
-1199.9797072007696
 20
-1337.248127843623
 30
0.0
 41
1.0
 10
-1199.9810224161804
 20
-1337.2500996131241
 30
0.0
 41
1.0
 10
-1199.9823376315912
 20
-1337.2520713826252
 30
0.0
 41
1.0
 10
-1200.0578909583237
 20
-1337.3653408471839
 30
0.0
 41
0.9999972147305939
 10
-1200.1329087686956
 20
-1337.4789656900166
 30
0.0
 41
1.0
 10
-1200.1378803113196
 20
-1337.4864957784912
 30
0.0
 41
1.0
 10
-1200.1428518539435
 20
-1337.4940258669658
 30
0.0
 41
1.0
 10
-1200.2278127495629
 20
-1337.6227108867474
 30
0.0
 41
0.9999371979005666
 10
-1200.3098680989669
 20
-1337.7532678005241
 30
0.0
 41
1.0
 10
-1200.3133769833289
 20
-1337.7588507285893
 30
0.0
 41
1.0
 10
-1200.3168858676906
 20
-1337.7644336566545
 30
0.0
 41
1.0
 10
-1200.4059589858177
 20
-1337.9061564265608
 30
0.0
 41
0.99982720256091
 10
-1200.4897023766989
 20
-1338.0510923033012
 30
0.0
 41
1.0
 10
-1200.5049175487243
 20
-1338.07742541776
 30
0.0
 41
1.0
 10
-1200.5201327207494
 20
-1338.1037585322188
 30
0.0
 41
1.0
 10
-1200.6343064556797
 20
-1338.3013606378747
 30
0.0
 41
0.9995217214837985
 10
-1200.7360461452354
 20
-1338.5056429657375
 30
0.0
 41
1.0
 10
-1200.7436897078701
 20
-1338.5209904154399
 30
0.0
 41
1.0
 10
-1200.7513332705048
 20
-1338.5363378651421
 30
0.0
 41
1.0
 10
-1200.8382385630944
 20
-1338.7108343232235
 30
0.0
 41
0.9998269762607736
 10
-1200.918593029367
 20
-1338.8884426099476
 30
0.0
 41
1.0
 10
-1200.9989474956401
 20
-1339.0660508966732
 30
0.0
 41
0.9998944747389175
 10
-1201.0741082902055
 20
-1339.2459186223045
 30
0.0
 41
1.0
 10
-1201.0790619597942
 20
-1339.2577732772156
 30
0.0
 41
1.0
 10
-1201.0840156293827
 20
-1339.2696279321269
 30
0.0
 41
1.0
 10
-1201.1646626899374
 20
-1339.4626248721497
 30
0.0
 41
0.99995067344133
 10
-1201.2414602188428
 20
-1339.6571856770106
 30
0.0
 41
1.0
 10
-1201.2560601841096
 20
-1339.6941735988066
 30
0.0
 41
1.0
 10
-1201.2706601493767
 20
-1339.7311615206024
 30
0.0
 41
1.0
 10
-1201.3182577477451
 20
-1339.8517464818628
 30
0.0
 41
0.9999912393955935
 10
-1201.364844191769
 20
-1339.9727256845624
 30
0.0
 41
1.0
 10
-1201.4114306357915
 20
-1340.0937048872584
 30
0.0
 41
0.9999927113993521
 10
-1201.457091930185
 20
-1340.215036294758
 30
0.0
 41
1.0
 10
-1201.4710603615831
 20
-1340.252153276758
 30
0.0
 41
1.0
 10
-1201.4850287929812
 20
-1340.2892702587581
 30
0.0
 41
1.0
 10
-1201.5586269501703
 20
-1340.4848356302568
 30
0.0
 41
0.9999487550945393
 10
-1201.628250575141
 20
-1340.6818509954364
 30
0.0
 41
1.0
 10
-1201.6518441850803
 20
-1340.7486143057363
 30
0.0
 41
1.0
 10
-1201.6754377950199
 20
-1340.8153776160364
 30
0.0
 41
1.0
 10
-1201.7701234293879
 20
-1341.0833114508541
 30
0.0
 41
0.9999808436937621
 10
-1201.8614850180281
 20
-1341.3523968821153
 30
0.0
 41
1.0
 10
-1201.952846606669
 20
-1341.6214823133787
 30
0.0
 41
0.999987393289847
 10
-1202.0415013153863
 20
-1341.8914716683892
 30
0.0
 41
1.0
 10
-1202.0615936722563
 20
-1341.952661001144
 30
0.0
 41
1.0
 10
-1202.0816860291263
 20
-1342.013850333899
 30
0.0
 41
1.0
 10
-1202.2105254515845
 20
-1342.4062183544231
 30
0.0
 41
0.9999794883029051
 10
-1202.3343282365454
 20
-1342.80020456071
 30
0.0
 41
1.0
 10
-1202.3454804959727
 20
-1342.8356951709143
 30
0.0
 41
1.0
 10
-1202.3566327553999
 20
-1342.8711857811188
 30
0.0
 41
1.0
 10
-1202.4991909193013
 20
-1343.3248585332176
 30
0.0
 41
0.9999982761744894
 10
-1202.6400633593289
 20
-1343.7790575553793
 30
0.0
 41
1.0
 10
-1204.2282036919014
 20
-1348.8278272863827
 30
0.0
 41
1.0
 10
-1205.8163440244741
 20
-1353.8765970173858
 30
0.0
 41
1.0
 10
-1206.7650946359504
 20
-1353.8765970173858
 30
0.0
 41
1.0
 10
-1207.7138452474269
 20
-1353.8765970173858
 30
0.0
 41
1.0
 10
-1204.4755607612738
 20
-1343.5492748174397
 30
0.0
 41
1.0
 10
-1201.2372762751206
 20
-1333.2219526174936
 30
0.0
 41
1.0
  0
LWPOLYLINE
  5
62
100
AcDbEntity
  8
0
370
              15
390
0
  6
Continuous
 62
               7
100
AcDbPolyline
 90
      232
 70
             128
 10
-1226.9408220489477
 20
-1334.3062954490088
 42
0.0004370800696404
 10
-1226.9936992230032
 20
-1334.3749620882436
 10
-1227.0329834541471
 20
-1334.4260692011617
 42
0.0030481992178198
 10
-1227.1633221712677
 20
-1334.5977908935079
 10
-1227.2018338430166
 20
-1334.6491776772939
 42
0.004205824575712
 10
-1227.4058188936856
 20
-1334.9261834223666
 10
-1227.4582240161872
 20
-1334.9986162691484
 42
0.0120948898743301
 10
-1227.754267932947
 20
-1335.4293658736949
 10
-1227.8504604320701
 20
-1335.5768466089216
 42
0.0141601263947185
 10
-1228.1541044789924
 20
-1336.0725159456576
 10
-1228.1936417464181
 20
-1336.141359913089
 42
0.0071131081303467
 10
-1228.3989140696567
 20
-1336.5108627119275
 42
0.0068458791006256
 10
-1228.5937935964994
 20
-1336.8859542754026
 10
-1228.6006054589577
 20
-1336.8995159891274
 42
0.0064120880289883
 10
-1228.7987477089991
 20
-1337.3069404640401
 10
-1228.806282394519
 20
-1337.3229523207674
 42
0.0058857236448142
 10
-1229.0090377863942
 20
-1337.7673284318098
 10
-1229.0172127126848
 20
-1337.7858185854363
 42
0.0053189741893495
 10
-1229.2259170253549
 20
-1338.2717820593602
 10
-1229.2346648310336
 20
-1338.2927639375503
 42
0.0047503650418784
 10
-1229.4506385571851
 20
-1338.8249633707621
 10
-1229.4599068055325
 20
-1338.8484397468678
 42
0.004207176217365
 10
-1229.6844541892613
 20
-1339.4315333409406
 10
-1229.6942035916088
 20
-1339.4574995158073
 42
0.0036680086483199
 10
-1229.928658234918
 20
-1340.0961349003312
 10
-1229.9388660147686
 20
-1340.1245834346832
 42
0.0032573142627935
 10
-1230.1844983007372
 20
-1340.8234360944421
 10
-1230.2531488215809
 20
-1341.0228991785036
 42
0.002613336664951
 10
-1230.601594020334
 20
-1342.0527624621614
 10
-1230.6648508078383
 20
-1342.2429932975651
 42
0.0020592950739666
 10
-1230.8787138768018
 20
-1342.8950969501675
 10
-1230.8817656679641
 20
-1342.9045334385751
 42
0.0025609928536122
 10
-1231.0835861694509
 20
-1343.5396786609431
 10
-1231.086177536574
 20
-1343.5479810018726
 42
0.0031362356242354
 10
-1231.2756683222544
 20
-1344.1687438580632
 10
-1231.2777993651803
 20
-1344.1758851642687
 42
0.0037229918027327
 10
-1231.4545997521082
 20
-1344.7848704662483
 10
-1231.456278341313
 20
-1344.7908173564169
 42
0.0043077623707621
 10
-1231.6200191433795
 20
-1345.390636088192
 42
0.0047654161825612
 10
-1231.7728478658971
 20
-1345.9933221770998
 10
-1231.8073124747348
 20
-1346.1348839542438
 42
0.0112969368443457
 10
-1232.0031768328772
 20
-1347.0265761148626
 10
-1232.031183221975
 20
-1347.169404160966
 42
0.0130056762572017
 10
-1232.2320204656216
 20
-1348.3563452326109
 10
-1232.252560215768
 20
-1348.5004233460832
 42
0.013872153214423
 10
-1232.3562632203066
 20
-1349.4072528319136
 10
-1232.3755587082142
 20
-1349.6307505538362
 42
0.0071254697009167
 10
-1232.408905354137
 20
-1350.0939375626858
 10
-1232.413866328299
 20
-1350.1799415572218
 42
0.0028881799193323
 10
-1232.4290046215901
 20
-1350.4716832670888
 42
0.006029729713251
 10
-1232.4389368213658
 20
-1350.7636322032024
 10
-1232.439999103033
 20
-1350.8120245751441
 42
0.0229523164160496
 10
-1232.4322680752471
 20
-1351.1347794214203
 10
-1232.4280423017258
 20
-1351.1951829554494
 42
0.0123673300674282
 10
-1232.4089636552085
 20
-1351.3963036806113
 42
0.0128577674471872
 10
-1232.3797682648028
 20
-1351.5962015305329
 10
-1232.372642391415
 20
-1351.637530345135
 42
0.0285717853773463
 10
-1232.3081483897179
 20
-1351.9156464964535
 10
-1232.2944798660528
 20
-1351.9623012659258
 42
0.0316283099158642
 10
-1232.1786692861388
 20
-1352.2813157677513
 10
-1232.1756205943848
 20
-1352.2883021400733
 42
0.0338984824230617
 10
-1232.0261888834159
 20
-1352.575868104266
 10
-1232.0238801540449
 20
-1352.5796591335438
 42
0.0350228718355619
 10
-1231.8415198633725
 20
-1352.8367111182188
 10
-1231.8406346115969
 20
-1352.8377901959834
 42
0.0347476747530267
 10
-1231.6262099243575
 20
-1353.0649752432028
 42
0.0331337701912905
 10
-1231.3829665986118
 20
-1353.2611039052799
 10
-1231.3818665000949
 20
-1353.2618766084529
 42
0.0305233319084476
 10
-1231.1133218045175
 20
-1353.4270047785462
 10
-1231.1100917600202
 20
-1353.4287287904067
 42
0.0273744481155397
 10
-1230.8175380484467
 20
-1353.564866934297
 10
-1230.8124335133084
 20
-1353.5669105187669
 42
0.0240964406198874
 10
-1230.4969564376636
 20
-1353.6758942450479
 10
-1230.4903731084528
 20
-1353.6778189847232
 42
0.0209636179813986
 10
-1230.1529729558004
 20
-1353.7612871326553
 10
-1230.1453404953515
 20
-1353.7628390456568
 42
0.0181388704693123
 10
-1229.7870181033531
 20
-1353.8222551388708
 10
-1229.7787372549751
 20
-1353.8233213226879
 42
0.0156086547586584
 10
-1229.4005498907877
 20
-1353.8600575092644
 10
-1229.3573546384528
 20
-1353.8628960117439
 42
0.0137148329026392
 10
-1229.0296814931603
 20
-1353.8754162669948
 10
-1228.9837453032201
 20
-1353.8759107001099
 42
0.0051057823886407
 10
-1228.7475997166421
 20
-1353.8760409545193
 42
0.0052256693310344
 10
-1228.5115024328543
 20
-1353.8712921300548
 10
-1228.4412756491138
 20
-1353.8691451640409
 42
0.0161507179049382
 10
-1228.0655385710106
 20
-1353.8454947937141
 10
-1228.0455256106397
 20
-1353.8435845984268
 42
0.0101216737834002
 10
-1227.6314983891491
 20
-1353.7955916680612
 10
-1227.5974450997221
 20
-1353.7909439712516
 42
0.0245291776398521
 10
-1227.1206554441728
 20
-1353.7018688931757
 10
-1227.0358321286506
 20
-1353.6816729728303
 42
0.0143509212559646
 10
-1226.6792010247073
 20
-1353.5858683390506
 42
0.0156557857039088
 10
-1226.3289849599814
 20
-1353.4688571232325
 10
-1226.3214837454855
 20
-1353.4660869614777
 42
0.0170137333633253
 10
-1225.9648877498014
 20
-1353.3204293466054
 10
-1225.9577838273967
 20
-1353.317241511043
 42
0.0183105364408102
 10
-1225.5984341592321
 20
-1353.1399064692198
 10
-1225.5914873945917
 20
-1353.1361560343466
 42
0.0194899958149414
 10
-1225.2330066536058
 20
-1352.9241770524548
 10
-1225.2259927742709
 20
-1352.9196517101609
 42
0.0204869852946645
 10
-1224.8719784721775
 20
-1352.6701316950755
 10
-1224.8647128635901
 20
-1352.6645516297267
 42
0.0212516938554654
 10
-1224.5187229324827
 20
-1352.3746476328326
 10
-1224.4722062384046
 20
-1352.3321803227368
 42
0.0215248918251704
 10
-1224.2121800695186
 20
-1352.0734160437437
 10
-1224.1671503351388
 20
-1352.0245719223947
 42
0.0114578554954176
 10
-1224.0123581814605
 20
-1351.8487489889358
 10
-1224.0011636454735
 20
-1351.8354302253899
 42
0.0061531305129317
 10
-1223.8746889994795
 20
-1351.6811406920847
 42
0.000632558712041
 10
-1223.7503105153314
 20
-1351.5251373164133
 10
-1223.7272703802764
 20
-1351.4961637957495
 42
0.004189776155886
 10
-1223.5588149762964
 20
-1351.2806444196781
 10
-1223.5003528564116
 20
-1351.2045430727026
 42
0.0092993880037297
 10
-1223.2237409291893
 20
-1350.8302643088205
 10
-1223.1413464359875
 20
-1350.7143273052482
 42
0.0159321727085581
 10
-1222.7947399533466
 20
-1350.1921530844938
 10
-1222.7503838179584
 20
-1350.1204735202452
 42
0.0085547317020904
 10
-1222.5158720526317
 20
-1349.7265985710192
 42
0.008460115688891
 10
-1222.2948958751929
 20
-1349.3249717219933
 10
-1222.2867804013592
 20
-1349.309612039714
 42
0.0081429654285819
 10
-1222.063531130924
 20
-1348.8698905271776
 10
-1222.0546709667378
 20
-1348.851711685154
 42
0.0076574581329801
 10
-1221.8282634561692
 20
-1348.368528809897
 10
-1221.8187838154472
 20
-1348.3474643315976
 42
0.0070682724199559
 10
-1221.5883389076405
 20
-1347.8154270268169
 10
-1221.5783486236587
 20
-1347.791437837805
 42
0.0064559514445996
 10
-1221.3430154154757
 20
-1347.2051255712822
 10
-1221.3326060573122
 20
-1347.1781906458436
 42
0.0058311413906387
 10
-1221.0915593205511
 20
-1346.5321585514655
 10
-1221.0808042431618
 20
-1346.5022742102997
 42
0.005231242581854
 10
-1220.8332229651203
 20
-1345.7910717964633
 10
-1220.822179128741
 20
-1345.7582450843952
 42
0.0046680544795964
 10
-1220.5672507010077
 20
-1344.976418768643
 10
-1220.5252585509606
 20
-1344.8434355313407
 42
0.0041666856445773
 10
-1220.3219725385684
 20
-1344.1804667563429
 10
-1220.2843100979042
 20
-1344.0538856486878
 42
0.0015170975155125
 10
-1220.1631235194914
 20
-1343.6420172971955
 42
-0.0004887993109504
 10
-1220.0427837463023
 20
-1343.2298988849291
 10
-1219.9663064888732
 20
-1342.9689414992124
 42
0.0002583378928656
 10
-1219.6930919187084
 20
-1342.0348847956895
 10
-1219.6113190691844
 20
-1341.7547855362868
 42
0.0006636169673302
 10
-1219.417451309221
 20
-1341.0874326128633
 10
-1219.4123546548458
 20
-1341.0698010298863
 42
0.0010589131323852
 10
-1219.2309059539573
 20
-1340.4370696869344
 10
-1219.2259238834959
 20
-1340.4195567799813
 42
0.0015655524459444
 10
-1219.057653676294
 20
-1339.8209401007134
 10
-1219.0528234758774
 20
-1339.8035479417717
 42
0.0021640440478088
 10
-1218.8985335038928
 20
-1339.2385209237596
 10
-1218.893899284461
 20
-1339.2212561937581
 42
0.0028763871851375
 10
-1218.7543835664101
 20
-1338.6892882429186
 10
-1218.7499977022376
 20
-1338.6721642647437
 42
0.0037310511944227
 10
-1218.626041010406
 20
-1338.1727166707401
 10
-1218.6219657901197
 20
-1338.1557563995061
 42
0.0047652197770255
 10
-1218.5143418896087
 20
-1337.6882786311896
 10
-1218.5106512902848
 20
-1337.6715190760376
 42
0.0060276699303358
 10
-1218.4201211911316
 20
-1337.2354432808954
 10
-1218.4169025008416
 20
-1337.218942066582
 42
0.0075824337756432
 10
-1218.3442131914269
 20
-1336.8136749021601
 10
-1218.3415678140466
 20
-1336.79751995471
 42
0.0095130624609982
 10
-1218.2874525784155
 20
-1336.4224306016376
 10
-1218.2804663545337
 20
-1336.3664970435273
 42
0.0121054653229048
 10
-1218.2538750239551
 20
-1336.1016012150474
 10
-1218.2530085341955
 20
-1336.0901977721173
 42
0.006905082738866
 10
-1218.2379197161576
 20
-1335.8472565452739
 10
-1218.2367844164889
 20
-1335.8237302882246
 42
0.0169063976703915
 10
-1218.2339571375087
 20
-1335.6275375609284
 10
-1218.23512778904
 20
-1335.5672017995764
 42
0.005200773288927
 10
-1218.2373812376331
 20
-1335.4916084094273
 42
0.0054038123288878
 10
-1218.2573447494685
 20
-1335.3715901134369
 10
-1218.2624306053424
 20
-1335.3429316268362
 42
0.0112050460458748
 10
-1218.2978149673984
 20
-1335.1666051885081
 10
-1218.3156399294417
 20
-1335.0870636017762
 42
0.0240764468012703
 10
-1218.4065372955879
 20
-1334.7568265662755
 10
-1218.4250960584011
 20
-1334.7002064012818
 42
0.0256812331835673
 10
-1218.5684589785908
 20
-1334.328482195024
 10
-1218.5738684044131
 20
-1334.3163508600321
 42
0.0268360501217056
 10
-1218.7432956452622
 20
-1333.9853577260133
 10
-1218.7488320528946
 20
-1333.9758380557053
 42
0.0274670231723154
 10
-1218.9410330293103
 20
-1333.6835506807838
 10
-1218.9464143292737
 20
-1333.6762715332413
 42
0.0275035967103912
 10
-1219.157987208835
 20
-1333.4207556429383
 10
-1219.1630567097993
 20
-1333.4152765553104
 42
0.0269557673524127
 10
-1219.3904602532411
 20
-1333.1946342693454
 10
-1219.3952033110256
 20
-1333.1905043148829
 42
0.0259124802211418
 10
-1219.6347581424543
 20
-1333.0028137877325
 10
-1219.6392889876395
 20
-1332.9996282853999
 42
0.02451621530037
 10
-1219.887205340731
 20
-1332.8428952762915
 10
-1219.8917318870592
 20
-1332.8403350790884
 42
0.0229282588839212
 10
-1220.1441514438825
 20
-1332.7124668865918
 10
-1220.148931937719
 20
-1332.71031458683
 42
0.021298413569535
 10
-1220.4019698901811
 20
-1332.6091156695875
 10
-1220.4072741751504
 20
-1332.6072521068277
 42
0.0197555462341047
 10
-1220.6570525128736
 20
-1332.5304366888627
 42
0.018351189679088
 10
-1220.9119812383406
 20
-1332.4728537818967
 10
-1220.9983464350585
 20
-1332.4566509915126
 42
0.0338057877148909
 10
-1221.2838537843199
 20
-1332.4228425863721
 10
-1221.3748591893689
 20
-1332.4182629311103
 42
0.0091990524507574
 10
-1221.480706297996
 20
-1332.4148870751885
 42
0.0028333980772192
 10
-1221.5866202139741
 20
-1332.4140589676717
 10
-1221.5875356670381
 20
-1332.4140569978476
 42
-0.0023619827799722
 10
-1221.6952816821565
 20
-1332.4133161567693
 10
-1221.7316868523199
 20
-1332.4128938503063
 42
0.0008824598485062
 10
-1221.9122428422595
 20
-1332.4111180720672
 10
-1221.9561042745759
 20
-1332.4107641105425
 42
0.0038132665772569
 10
-1222.224387170462
 20
-1332.4106451744758
 10
-1222.2409208252482
 20
-1332.4107639406193
 42
0.0060665569332251
 10
-1222.5422013168327
 20
-1332.4165842400398
 10
-1222.5564516488648
 20
-1332.4170325480077
 42
0.0080356953337499
 10
-1222.8859103652021
 20
-1332.4327002700745
 10
-1222.8979803802913
 20
-1332.433468853015
 42
0.0098996399107292
 10
-1223.2507434649406
 20
-1332.4629540822132
 10
-1223.2607891743169
 20
-1332.4639943784114
 42
0.0117740981369184
 10
-1223.6319460326647
 20
-1332.5112866259412
 10
-1223.6401687291482
 20
-1332.512531742512
 42
0.0137435215136182
 10
-1224.0247575486408
 20
-1332.5816287160751
 10
-1224.0314145877564
 20
-1332.5830146123071
 42
0.0158359869383892
 10
-1224.4244116815594
 20
-1332.6779067007881
 10
-1224.4298248684263
 20
-1332.6793966416585
 42
0.0180554124025441
 10
-1224.8261399130388
 20
-1332.8040346578971
 10
-1224.8306967011222
 20
-1332.8056506941634
 42
0.0203657431283921
 10
-1225.2251742189337
 20
-1332.9639110356795
 10
-1225.2293177579409
 20
-1332.9657726571213
 42
0.0226819684654253
 10
-1225.6167538141442
 20
-1333.161415235792
 10
-1225.6209536051624
 20
-1333.1637808277119
 42
0.0248634984604738
 10
-1225.9961355463438
 20
-1333.4004074736592
 10
-1226.0443304751284
 20
-1333.4342645154854
 42
0.0267044190885915
 10
-1226.3186231720442
 20
-1333.6497048913529
 42
0.0139303002197511
 10
-1226.5747903379811
 20
-1333.8869437322633
 10
-1226.5796437237041
 20
-1333.8916963951251
 42
0.0283460963441171
 10
-1226.8237163179308
 20
-1334.1594270555697
 10
-1226.8633848230877
 20
-1334.2082286330433
 42
0.0070695364819521
 10
-1226.9408220489477
 20
-1334.3062954490088
 42
0.0070695364819521
  0
LWPOLYLINE
  5
63
100
AcDbEntity
  8
0
370
              15
390
0
  6
Continuous
 62
               7
100
AcDbPolyline
 90
      226
 70
             128
 10
-1230.4696424861941
 20
-1350.0278842551927
 42
-0.0026277636595227
 10
-1230.4697203699941
 20
-1349.9611123294089
 10
-1230.4695030117621
 20
-1349.9079571120064
 42
-0.0088680296729824
 10
-1230.4657263954691
 20
-1349.7349413296058
 10
-1230.4633800363565
 20
-1349.6756613041498
 42
-0.0077381705612706
 10
-1230.4473339255931
 20
-1349.3844008083472
 10
-1230.4464660144204
 20
-1349.3721125746665
 42
-0.0068872530530433
 10
-1230.4198339346726
 20
-1349.0568908226026
 10
-1230.4186297104861
 20
-1349.044649843579
 42
-0.0062130021484058
 10
-1230.3810359936588
 20
-1348.7057801523438
 10
-1230.3795320901231
 20
-1348.6936062804239
 42
-0.0056726929671932
 10
-1230.3306102306221
 20
-1348.3314110583194
 10
-1230.3288367849764
 20
-1348.319317258065
 42
-0.0052341884492488
 10
-1230.2682261987143
 20
-1347.934124002536
 10
-1230.2662082099396
 20
-1347.9221190725548
 42
-0.0049768450171868
 10
-1230.1934695285145
 20
-1347.514274505128
 10
-1230.1692205137915
 20
-1347.3857265221163
 42
-0.008902980562557
 10
-1230.0321396619968
 20
-1346.7239510746931
 10
-1229.9993942866784
 20
-1346.5789196441704
 42
-0.0080318257099981
 10
-1229.7698456723392
 20
-1345.6332100123227
 10
-1229.7578607458895
 20
-1345.5870793771264
 42
-0.007426572131831
 10
-1229.4738492070426
 20
-1344.5570147987564
 10
-1229.4539696639208
 20
-1344.4888807381492
 42
-0.0069711922702763
 10
-1229.1266650854161
 20
-1343.4226129978288
 10
-1229.0667131383134
 20
-1343.2365916394667
 42
-0.0052070422894344
 10
-1228.8372879130511
 20
-1342.5493195624267
 10
-1228.8200067208772
 20
-1342.4992922818049
 42
-0.0009167004448847
 10
-1228.6169148335898
 20
-1341.9148364336556
 42
-0.0025162726943628
 10
-1228.4098172033309
 20
-1341.331795169503
 10
-1228.3725925915251
 20
-1341.2286456235968
 42
-0.0028212681458074
 10
-1228.1244166725587
 20
-1340.5529149914164
 10
-1228.1145859098099
 20
-1340.5266075467448
 42
-0.0031964916820481
 10
-1227.8782936521457
 20
-1339.9064027846127
 10
-1227.8686591981468
 20
-1339.88159279447
 42
-0.0036281836451104
 10
-1227.6435532370454
 20
-1339.3141521135763
 10
-1227.6341148268866
 20
-1339.2908546820702
 42
-0.0041269166832564
 10
-1227.4194971302286
 20
-1338.7734137860953
 10
-1227.3868641738111
 20
-1338.6965353397416
 42
-0.0047472213057383
 10
-1227.2298193682543
 20
-1338.3361138718508
 10
-1227.222925287045
 20
-1338.3206932745161
 42
-0.0025651659994909
 10
-1227.0745672531959
 20
-1337.9933652187704
 42
-0.0057144634991866
 10
-1226.9208175594199
 20
-1337.668555545398
 10
-1226.8927868540297
 20
-1337.6110471630266
 42
-0.006538806837455
 10
-1226.7093198262835
 20
-1337.2468146663487
 10
-1226.7008613705004
 20
-1337.2305550869703
 42
-0.0074510843021304
 10
-1226.5246791246273
 20
-1336.9038668058565
 10
-1226.5164994540939
 20
-1336.8892260285836
 42
-0.0084648979860027
 10
-1226.3468656009964
 20
-1336.5973170176264
 10
-1226.3390094745089
 20
-1336.5843100259765
 42
-0.0095638542803751
 10
-1226.1751740269137
 20
-1336.324421153997
 10
-1226.1676990832409
 20
-1336.3130517925399
 42
-0.0107191626805173
 10
-1226.0088975028546
 20
-1336.0824405579974
 10
-1226.001880769122
 20
-1336.0727044656305
 42
-0.0118458573899051
 10
-1225.847332670611
 20
-1335.8686322703222
 42
-0.0129184518192344
 10
-1225.6828800470112
 20
-1335.6724717541538
 10
-1225.6527352746455
 20
-1335.6383456752515
 42
-0.0217742579632475
 10
-1225.476122952311
 20
-1335.4551389050021
 10
-1225.4653774078506
 20
-1335.4449220717991
 42
-0.0097266568643761
 10
-1225.299319788995
 20
-1335.2930744973619
 42
-0.0187720905719211
 10
-1225.124972213104
 20
-1335.1510056439718
 10
-1225.0942662224325
 20
-1335.1278465615774
 42
-0.0179428207517715
 10
-1224.861845502435
 20
-1334.9652943844649
 10
-1224.8581931755168
 20
-1334.9629304495757
 42
-0.0170047877699416
 10
-1224.6224295379889
 20
-1334.8214699354257
 10
-1224.618646549244
 20
-1334.8193716303904
 42
-0.0160190788369074
 10
-1224.3817380016071
 20
-1334.6977203284014
 42
-0.0151102861492733
 10
-1224.1377062191577
 20
-1334.5910375523456
 10
-1224.0853197169486
 20
-1334.569997419452
 42
-0.0271945441888825
 10
-1223.7266571578923
 20
-1334.4481326087466
 10
-1223.6575923574039
 20
-1334.4287830674803
 42
-0.0237596594022914
 10
-1223.2417955103797
 20
-1334.333332355498
 10
-1223.1737326566495
 20
-1334.3210776673714
 42
-0.0213715440554541
 10
-1222.887857725204
 20
-1334.2821306358614
 10
-1222.8277105589784
 20
-1334.2765409211599
 42
-0.01014656558141
 10
-1222.660218026992
 20
-1334.2643973778963
 10
-1222.6508776408004
 20
-1334.2639104628995
 42
-0.0100375910883375
 10
-1222.5017235402311
 20
-1334.259134644974
 10
-1222.4914642705455
 20
-1334.2590122059594
 42
-0.0103625633372806
 10
-1222.3627562758959
 20
-1334.2601436394862
 10
-1222.3404906246265
 20
-1334.260800997951
 42
-0.0115689250217743
 10
-1222.2564398871011
 20
-1334.2652305041961
 42
-0.0072438037417915
 10
-1222.172601607657
 20
-1334.272819703946
 10
-1222.1558010981892
 20
-1334.2745862466697
 42
-0.0217917313130329
 10
-1222.0392313348739
 20
-1334.2920061393911
 10
-1221.9736312443051
 20
-1334.3047527478061
 42
-0.0332943556753203
 10
-1221.7692390792804
 20
-1334.3587930391122
 10
-1221.7390665107309
 20
-1334.3689611162306
 42
-0.0184824084801073
 10
-1221.6005614542648
 20
-1334.4214121316172
 42
-0.019800205068856
 10
-1221.4664871137636
 20
-1334.4842961918177
 10
-1221.4646004763886
 20
-1334.4852739786966
 42
-0.021224234299253
 10
-1221.332461533992
 20
-1334.5610367174863
 10
-1221.330646238443
 20
-1334.5621825196981
 42
-0.0226090605809124
 10
-1221.2021423372266
 20
-1334.6516621632588
 10
-1221.2002978954843
 20
-1334.6530744162501
 42
-0.0238457052235378
 10
-1221.0771158141904
 20
-1334.757070312113
 10
-1221.0751630856321
 20
-1334.7588851898786
 42
-0.0248160564158472
 10
-1220.95896157833
 20
-1334.8781597910888
 10
-1220.9568579449292
 20
-1334.8805451247918
 42
-0.0254109591448392
 10
-1220.8492527270635
 20
-1335.0158335107558
 10
-1220.8470047051492
 20
-1335.0189750591567
 42
-0.0255528488293722
 10
-1220.7495580263537
 20
-1335.1710021133881
 10
-1220.747226926436
 20
-1335.1750837249983
 42
-0.0252146793219273
 10
-1220.6614459004268
 20
-1335.3445859709959
 10
-1220.6591436612694
 20
-1335.3497680529083
 42
-0.0244265635956303
 10
-1220.5864889675095
 20
-1335.5375146249501
 10
-1220.5772425660402
 20
-1335.5653800432901
 42
-0.0231319612899328
 10
-1220.5313197870473
 20
-1335.7286810900944
 42
-0.0112130424356636
 10
-1220.4966837645097
 20
-1335.8948846902797
 10
-1220.4954812393967
 20
-1335.9013812771705
 42
-0.0210527881234441
 10
-1220.4697947640263
 20
-1336.0824369226075
 10
-1220.4662841692041
 20
-1336.1178424711588
 42
-0.0190029892419591
 10
-1220.4508426956593
 20
-1336.3713783174342
 10
-1220.4500327192154
 20
-1336.4068539318
 42
-0.01379745536634
 10
-1220.4515815720511
 20
-1336.7318853385327
 10
-1220.4524270270065
 20
-1336.7580040831242
 42
-0.0081336634216403
 10
-1220.4672863622291
 20
-1337.0633515507257
 42
-0.0073526923570252
 10
-1220.4915948956045
 20
-1337.3680997950194
 10
-1220.4928563193864
 20
-1337.3814364696768
 42
-0.0066886138697058
 10
-1220.5285919054315
 20
-1337.7120225131616
 10
-1220.5302489949029
 20
-1337.7256441321656
 42
-0.0061359187355585
 10
-1220.5780995969521
 20
-1338.0824081122539
 10
-1220.5801370980266
 20
-1338.0963029150948
 42
-0.0056698610066509
 10
-1220.6407874287913
 20
-1338.4795814839197
 10
-1220.6431928621166
 20
-1338.4937406031636
 42
-0.0052721077274259
 10
-1220.717325062918
 20
-1338.9038679428504
 10
-1220.7200882117579
 20
-1338.9182845782275
 42
-0.004928927217884
 10
-1220.8083823298562
 20
-1339.3555930893413
 10
-1220.8114948245407
 20
-1339.3702619421656
 42
-0.0047415956711527
 10
-1220.9147328160718
 20
-1339.8350586995716
 10
-1220.9495010264327
 20
-1339.9848657949594
 42
-0.0084404470904711
 10
-1221.1395174700012
 20
-1340.7450898194779
 10
-1221.1456441579903
 20
-1340.767953943644
 42
-0.0039635940258833
 10
-1221.3670978422736
 20
-1341.5689428078892
 10
-1221.3804746374537
 20
-1341.6158744244831
 42
-0.0072475040836667
 10
-1221.6479215253166
 20
-1342.5050941408731
 10
-1221.7181338521432
 20
-1342.7268344908427
 42
-0.0051345458826694
 10
-1222.004893224203
 20
-1343.6011596786566
 10
-1222.0264194909741
 20
-1343.6645859457969
 42
-0.0019150016601743
 10
-1222.2819528978373
 20
-1344.4081350660126
 10
-1222.2884205022322
 20
-1344.4267225309302
 42
-0.0021524362751591
 10
-1222.5368985532973
 20
-1345.1310483526422
 10
-1222.5461089739931
 20
-1345.156801930942
 42
-0.0024331286821497
 10
-1222.7823642330297
 20
-1345.8074012390616
 10
-1222.7914121855722
 20
-1345.831944545394
 42
-0.0027449721788652
 10
-1223.0160267564156
 20
-1346.4310744243405
 10
-1223.0249167638053
 20
-1346.4543970141863
 42
-0.0031083229767552
 10
-1223.2384592504179
 20
-1347.0043210517724
 10
-1223.2471953820884
 20
-1347.0264107676176
 42
-0.0035311343282502
 10
-1223.4502365676854
 20
-1347.5293938933603
 10
-1223.458821906836
 20
-1347.550236616878
 42
-0.0040245640948498
 10
-1223.6519337106274
 20
-1348.0085459394631
 10
-1223.6603698242329
 20
-1348.0281253075409
 42
-0.0046015135849592
 10
-1223.8441261173944
 20
-1348.4440303371773
 10
-1223.852412295221
 20
-1348.4623274766261
 42
-0.0052768638268527
 10
-1224.0273898141782
 20
-1348.8381003608997
 10
-1224.0355220248089
 20
-1348.8550936994511
 42
-0.0060672675640418
 10
-1224.2023016375711
 20
-1349.1930093225571
 10
-1224.210271118046
 20
-1349.2086745815416
 42
-0.0069904648872487
 10
-1224.3694395120542
 20
-1349.511010388218
 10
-1224.377230911665
 20
-1349.5253209374453
 42
-0.0080637022770082
 10
-1224.5293827720106
 20
-1349.7943562405985
 10
-1224.5369718046411
 20
-1349.8072841061978
 42
-0.0093006455666125
 10
-1224.6827124811734
 20
-1350.0452985047023
 10
-1224.6900631479161
 20
-1350.0568164738741
 42
-0.0107060778057093
 10
-1224.8300116913556
 20
-1350.2660867912546
 10
-1224.8370734596331
 20
-1350.2761723338176
 42
-0.0122723111413847
 10
-1224.9718671778332
 20
-1350.4589656633093
 10
-1224.9721934013864
 20
-1350.4593860511179
 42
-0.0141836319624691
 10
-1225.1157750043615
 20
-1350.6339558089485
 10
-1225.1227227600116
 20
-1350.6419308092111
 42
-0.01759574772122
 10
-1225.2626289280481
 20
-1350.7915516976182
 42
-0.0080466359673799
 10
-1225.410092693078
 20
-1350.9338742257689
 10
-1225.4561272375959
 20
-1350.9768946638605
 42
-0.0269600260395148
 10
-1225.7094074835773
 20
-1351.1892179223687
 10
-1225.7759746198738
 20
-1351.2391693369921
 42
-0.0178362839757
 10
-1226.0159191095315
 20
-1351.406187263246
 10
-1226.023164080533
 20
-1351.4108557754516
 42
-0.0174650732648299
 10
-1226.2595002779733
 20
-1351.55171674041
 42
-0.0169240130165889
 10
-1226.5049665238309
 20
-1351.6760090001874
 10
-1226.550952679389
 20
-1351.6973709557546
 42
-0.0318883036841505
 10
-1226.9013035350079
 20
-1351.8337092652646
 10
-1226.9696690701737
 20
-1351.8554098857403
 42
-0.0284435909902385
 10
-1227.3457191964644
 20
-1351.9516273212148
 10
-1227.380877356961
 20
-1351.958520917043
 42
-0.0243909341015631
 10
-1227.694320817882
 20
-1352.0042419480735
 10
-1227.7446015446567
 20
-1352.0090874949753
 42
-0.01966392929304
 10
-1227.9601971221805
 20
-1352.0213357804887
 10
-1228.0120211933383
 20
-1352.0222390412252
 42
-0.0100501510692704
 10
-1228.1244444750082
 20
-1352.0219386428723
 10
-1228.1561043363383
 20
-1352.0212175709873
 42
-0.0019752031116205
 10
-1228.2051966730337
 20
-1352.0199054107775
 10
-1228.2079569762723
 20
-1352.0198207189505
 42
0.0065378752016477
 10
-1228.2515335510107
 20
-1352.0190538277361
 42
-0.0167974694673139
 10
-1228.2950643739416
 20
-1352.0173939292099
 10
-1228.2991437132046
 20
-1352.017100918315
 42
-0.0081283276268423
 10
-1228.350703510951
 20
-1352.0125539246765
 10
-1228.3624430848213
 20
-1352.0113260070989
 42
-0.0126703440172616
 10
-1228.4371613806152
 20
-1352.0015912160275
 10
-1228.4599492482917
 20
-1351.9980329601121
 42
-0.0117852088446885
 10
-1228.5794882341181
 20
-1351.9764699649561
 10
-1228.6348686858871
 20
-1351.9651264247204
 42
-0.025177459228774
 10
-1228.861712724897
 20
-1351.9066284152871
 10
-1228.9064319147456
 20
-1351.8926615959524
 42
-0.0146525199883794
 10
-1229.0928249022845
 20
-1351.8283950687542
 42
-0.0166929435857014
 10
-1229.274802558411
 20
-1351.7525879356995
 10
-1229.2794591896843
 20
-1351.7504630350854
 42
-0.0191684358436274
 10
-1229.4646428209323
 20
-1351.657226951296
 10
-1229.4679754066906
 20
-1351.655385703742
 42
-0.0221181781811755
 10
-1229.6512857105947
 20
-1351.54325220537
 10
-1229.6536355146013
 20
-1351.5416679073803
 42
-0.025498468538216
 10
-1229.829925664988
 20
-1351.4092567574094
 10
-1229.8524078126889
 20
-1351.3905044484741
 42
-0.0292492648806112
 10
-1229.9771767515315
 20
-1351.2734116488314
 42
-0.015904895749532
 10
-1230.0910167489828
 20
-1351.1453916572309
 10
-1230.092335539561
 20
-1351.1438100442124
 42
-0.0343813379558729
 10
-1230.1949728011882
 20
-1351.0019387184414
 10
-1230.2264643325473
 20
-1350.9514353263501
 42
-0.0369117275705216
 10
-1230.3123568344454
 20
-1350.7879580854003
 42
-0.0191751379912329
 10
-1230.3795502200023
 20
-1350.6155534793941
 10
-1230.3813135437617
 20
-1350.6104601347195
 42
-0.037817804223378
 10
-1230.4311082625456
 20
-1350.4215193586399
 10
-1230.437103558276
 20
-1350.3889587404426
 42
-0.0184846046473341
 10
-1230.4578207575705
 20
-1350.2472059198963
 42
-0.017986635131631
 10
-1230.4681537626445
 20
-1350.1043151068086
 10
-1230.4682102050901
 20
-1350.1027574202026
 42
-0.0085497186109513
 10
-1230.4696424861941
 20
-1350.0278842551927
 42
-0.0085497186109513
  0
ENDBLK
  5
64
100
AcDbEntity
  8
template
390
0
100
AcDbBlockEnd
  0
BLOCK
  5
65
100
AcDbEntity
  8
notes
390
0
100
AcDbBlockBegin
  2
*D3
 70
               1
 10
0.0
 20
0.0
 30
0.0
  3
*D3
  1

  0
LINE
  5
66
100
AcDbEntity
  8
0
370
              -2
390
0
  6
Continuous
 62
               0
100
AcDbLine
 10
5963.4345932722545
 20
-729.36297153393275
 30
0.0
 11
5860.0
 21
-729.36297153393275
 31
0.0
  0
LINE
  5
67
100
AcDbEntity
  8
0
370
              -2
390
0
  6
Continuous
 62
               0
100
AcDbLine
 10
5963.4345932722545
 20
270.63702846607805
 30
0.0
 11
5860.0
 21
270.63702846607805
 31
0.0
  0
LINE
  5
68
100
AcDbEntity
  8
0
370
              -2
390
0
  6
Continuous
 62
               0
100
AcDbLine
 10
5860.0
 20
-729.36297153393275
 30
0.0
 11
5860.0
 21
270.63702846607805
 31
0.0
  0
CIRCLE
  5
69
102
{ACAD_REACTORS
330
6A
102
}
100
AcDbEntity
  8
0
370
              -2
390
0
  6
Continuous
 62
               0
100
AcDbCircle
 10
5860.0
 20
-729.36297153393275
 30
0.0
 40
4.99969482421875
  0
HATCH
  5
6A
100
AcDbEntity
  8
0
370
              -2
390
0
  6
Continuous
 62
               0
100
AcDbHatch
 10
0.0
 20
0.0
 30
0.0
210
0.0
220
0.0
230
1.0
  2
SOLID
 70
               1
 71
               1
 91
        1
 92
        1
 93
        1
 72
               2
 10
5860.0
 20
-729.36297153393275
 40
4.99969482421875
 50
0.0
 51
360.0
 73
               0
 97
        1
330
69
 75
               0
 76
               1
 98
        1
 10
0.0
 20
0.0
  0
CIRCLE
  5
6B
102
{ACAD_REACTORS
330
6C
102
}
100
AcDbEntity
  8
0
370
              -2
390
0
  6
Continuous
 62
               0
100
AcDbCircle
 10
5860.0
 20
270.63702846607805
 30
0.0
 40
4.99969482421875
  0
HATCH
  5
6C
100
AcDbEntity
  8
0
370
              -2
390
0
  6
Continuous
 62
               0
100
AcDbHatch
 10
0.0
 20
0.0
 30
0.0
210
0.0
220
0.0
230
1.0
  2
SOLID
 70
               1
 71
               1
 91
        1
 92
        1
 93
        1
 72
               2
 10
5860.0
 20
270.63702846607805
 40
4.99969482421875
 50
0.0
 51
360.0
 73
               0
 97
        1
330
6B
 75
               0
 76
               1
 98
        1
 10
0.0
 20
0.0
  0
MTEXT
  5
6D
100
AcDbEntity
  8
0
390
0
 62
               0
100
AcDbMText
 10
5826.1223828125003
 20
-261.11297153392735
 30
0.0
 40
24.432617187500004
 41
0.0
 71
               1
 72
               1
  1
1000
  7
ＭＳ ゴシック
 11
0.0
 21
1.0
 31
0.0
 73
               1
 44
0.7828267384257843
  0
POINT
  5
6E
100
AcDbEntity
  8
Defpoints
370
               0
390
0
 62
               0
100
AcDbPoint
 10
5988.4345932722545
 20
270.63702846607805
 30
0.0
  0
POINT
  5
6F
100
AcDbEntity
  8
Defpoints
370
               0
390
0
 62
               0
100
AcDbPoint
 10
5988.4345932722545
 20
-729.36297153393275
 30
0.0
  0
POINT
  5
70
100
AcDbEntity
  8
Defpoints
370
               0
390
0
 62
               0
100
AcDbPoint
 10
5860.0
 20
-729.36297153393275
 30
0.0
  0
ENDBLK
  5
71
100
AcDbEntity
  8
notes
390
0
100
AcDbBlockEnd
  0
BLOCK
  5
72
100
AcDbEntity
  8
notes
390
0
100
AcDbBlockBegin
  2
*D4
 70
               1
 10
0.0
 20
0.0
 30
0.0
  3
*D4
  1

  0
LINE
  5
73
100
AcDbEntity
  8
0
370
              -2
390
0
  6
Continuous
 62
               0
100
AcDbLine
 10
5986.4345932722545
 20
-750.40566143124556
 30
0.0
 11
5986.4345932722545
 21
-829.36297153393275
 31
0.0
  0
LINE
  5
74
100
AcDbEntity
  8
0
370
              -2
390
0
  6
Continuous
 62
               0
100
AcDbLine
 10
6116.4345932722536
 20
-739.16297153393202
 30
0.0
 11
6116.4345932722536
 21
-829.36297153393275
 31
0.0
  0
LINE
  5
75
100
AcDbEntity
  8
0
370
              -2
390
0
  6
Continuous
 62
               0
100
AcDbLine
 10
5986.4345932722545
 20
-829.36297153393275
 30
0.0
 11
6116.4345932722536
 21
-829.36297153393275
 31
0.0
  0
CIRCLE
  5
76
102
{ACAD_REACTORS
330
77
102
}
100
AcDbEntity
  8
0
370
              -2
390
0
  6
Continuous
 62
               0
100
AcDbCircle
 10
5986.4345932722545
 20
-829.36297153393275
 30
0.0
 40
4.99969482421875
  0
HATCH
  5
77
100
AcDbEntity
  8
0
370
              -2
390
0
  6
Continuous
 62
               0
100
AcDbHatch
 10
0.0
 20
0.0
 30
0.0
210
0.0
220
0.0
230
1.0
  2
SOLID
 70
               1
 71
               1
 91
        1
 92
        1
 93
        1
 72
               2
 10
5986.4345932722545
 20
-829.36297153393275
 40
4.99969482421875
 50
0.0
 51
360.0
 73
               0
 97
        1
330
76
 75
               0
 76
               1
 98
        1
 10
0.0
 20
0.0
  0
CIRCLE
  5
78
102
{ACAD_REACTORS
330
79
102
}
100
AcDbEntity
  8
0
370
              -2
390
0
  6
Continuous
 62
               0
100
AcDbCircle
 10
6116.4345932722536
 20
-829.36297153393275
 30
0.0
 40
4.99969482421875
  0
HATCH
  5
79
100
AcDbEntity
  8
0
370
              -2
390
0
  6
Continuous
 62
               0
100
AcDbHatch
 10
0.0
 20
0.0
 30
0.0
210
0.0
220
0.0
230
1.0
  2
SOLID
 70
               1
 71
               1
 91
        1
 92
        1
 93
        1
 72
               2
 10
6116.4345932722536
 20
-829.36297153393275
 40
4.99969482421875
 50
0.0
 51
360.0
 73
               0
 97
        1
330
78
 75
               0
 76
               1
 98
        1
 10
0.0
 20
0.0
  0
MTEXT
  5
7A
100
AcDbEntity
  8
0
390
0
 62
               0
100
AcDbMText
 10
6027.6220915900794
 20
-795.4853543464327
 30
0.0
 40
24.432617187500004
 41
0.0
 71
               1
 72
               1
  1
130
  7
ＭＳ ゴシック
 73
               1
 44
0.7828267384257843
  0
POINT
  5
7B
100
AcDbEntity
  8
Defpoints
370
               0
390
0
 62
               0
100
AcDbPoint
 10
6116.4345932722536
 20
-714.16297153393202
 30
0.0
  0
POINT
  5
7C
100
AcDbEntity
  8
Defpoints
370
               0
390
0
 62
               0
100
AcDbPoint
 10
5986.4345932722545
 20
-725.40566143124556
 30
0.0
  0
POINT
  5
7D
100
AcDbEntity
  8
Defpoints
370
               0
390
0
 62
               0
100
AcDbPoint
 10
5986.4345932722545
 20
-829.36297153393275
 30
0.0
  0
ENDBLK
  5
7E
100
AcDbEntity
  8
notes
390
0
100
AcDbBlockEnd
  0
BLOCK
  5
7F
100
AcDbEntity
  8
notes
390
0
100
AcDbBlockBegin
  2
*D5
 70
               1
 10
0.0
 20
0.0
 30
0.0
  3
*D5
  1

  0
LINE
  5
80
100
AcDbEntity
  8
0
370
              -2
390
0
  6
Continuous
 62
               0
100
AcDbLine
 10
6116.4345932722536
 20
-739.16297153393202
 30
0.0
 11
6116.4345932722536
 21
-829.36297153393275
 31
0.0
  0
LINE
  5
81
100
AcDbEntity
  8
0
370
              -2
390
0
  6
Continuous
 62
               0
100
AcDbLine
 10
6446.4345932722545
 20
-737.16297153393202
 30
0.0
 11
6446.4345932722545
 21
-829.36297153393275
 31
0.0
  0
LINE
  5
82
100
AcDbEntity
  8
0
370
              -2
390
0
  6
Continuous
 62
               0
100
AcDbLine
 10
6116.4345932722536
 20
-829.36297153393275
 30
0.0
 11
6446.4345932722545
 21
-829.36297153393275
 31
0.0
  0
CIRCLE
  5
83
102
{ACAD_REACTORS
330
84
102
}
100
AcDbEntity
  8
0
370
              -2
390
0
  6
Continuous
 62
               0
100
AcDbCircle
 10
6116.4345932722536
 20
-829.36297153393275
 30
0.0
 40
4.99969482421875
  0
HATCH
  5
84
100
AcDbEntity
  8
0
370
              -2
390
0
  6
Continuous
 62
               0
100
AcDbHatch
 10
0.0
 20
0.0
 30
0.0
210
0.0
220
0.0
230
1.0
  2
SOLID
 70
               1
 71
               1
 91
        1
 92
        1
 93
        1
 72
               2
 10
6116.4345932722536
 20
-829.36297153393275
 40
4.99969482421875
 50
0.0
 51
360.0
 73
               0
 97
        1
330
83
 75
               0
 76
               1
 98
        1
 10
0.0
 20
0.0
  0
CIRCLE
  5
85
102
{ACAD_REACTORS
330
86
102
}
100
AcDbEntity
  8
0
370
              -2
390
0
  6
Continuous
 62
               0
100
AcDbCircle
 10
6446.4345932722545
 20
-829.36297153393275
 30
0.0
 40
4.99969482421875
  0
HATCH
  5
86
100
AcDbEntity
  8
0
370
              -2
390
0
  6
Continuous
 62
               0
100
AcDbHatch
 10
0.0
 20
0.0
 30
0.0
210
0.0
220
0.0
230
1.0
  2
SOLID
 70
               1
 71
               1
 91
        1
 92
        1
 93
        1
 72
               2
 10
6446.4345932722545
 20
-829.36297153393275
 40
4.99969482421875
 50
0.0
 51
360.0
 73
               0
 97
        1
330
85
 75
               0
 76
               1
 98
        1
 10
0.0
 20
0.0
  0
MTEXT
  5
87
100
AcDbEntity
  8
0
390
0
 62
               0
100
AcDbMText
 10
6251.4220915900787
 20
-795.4853543464327
 30
0.0
 40
24.432617187500004
 41
0.0
 71
               1
 72
               1
  1
330
  7
ＭＳ ゴシック
 73
               1
 44
0.7828267384257843
  0
POINT
  5
88
100
AcDbEntity
  8
Defpoints
370
               0
390
0
 62
               0
100
AcDbPoint
 10
6446.4345932722545
 20
-712.16297153393202
 30
0.0
  0
POINT
  5
89
100
AcDbEntity
  8
Defpoints
370
               0
390
0
 62
               0
100
AcDbPoint
 10
6116.4345932722536
 20
-714.16297153393202
 30
0.0
  0
POINT
  5
8A
100
AcDbEntity
  8
Defpoints
370
               0
390
0
 62
               0
100
AcDbPoint
 10
6116.4345932722536
 20
-829.36297153393275
 30
0.0
  0
ENDBLK
  5
8B
100
AcDbEntity
  8
notes
390
0
100
AcDbBlockEnd
  0
BLOCK
  5
8C
100
AcDbEntity
  8
notes
390
0
100
AcDbBlockBegin
  2
*D6
 70
               1
 10
0.0
 20
0.0
 30
0.0
  3
*D6
  1

  0
LINE
  5
8D
100
AcDbEntity
  8
0
370
              -2
390
0
  6
Continuous
 62
               0
100
AcDbLine
 10
5986.4345932722545
 20
293.63702846607805
 30
0.0
 11
5986.4345932722545
 21
370.63702846607805
 31
0.0
  0
LINE
  5
8E
100
AcDbEntity
  8
0
370
              -2
390
0
  6
Continuous
 62
               0
100
AcDbLine
 10
6456.4345932722554
 20
288.63702846607805
 30
0.0
 11
6456.4345932722554
 21
370.63702846607805
 31
0.0
  0
LINE
  5
8F
100
AcDbEntity
  8
0
370
              -2
390
0
  6
Continuous
 62
               0
100
AcDbLine
 10
5986.4345932722545
 20
370.63702846607805
 30
0.0
 11
6456.4345932722554
 21
370.63702846607805
 31
0.0
  0
CIRCLE
  5
90
102
{ACAD_REACTORS
330
91
102
}
100
AcDbEntity
  8
0
370
              -2
390
0
  6
Continuous
 62
               0
100
AcDbCircle
 10
5986.4345932722545
 20
370.63702846607805
 30
0.0
 40
4.99969482421875
  0
HATCH
  5
91
100
AcDbEntity
  8
0
370
              -2
390
0
  6
Continuous
 62
               0
100
AcDbHatch
 10
0.0
 20
0.0
 30
0.0
210
0.0
220
0.0
230
1.0
  2
SOLID
 70
               1
 71
               1
 91
        1
 92
        1
 93
        1
 72
               2
 10
5986.4345932722545
 20
370.63702846607805
 40
4.99969482421875
 50
0.0
 51
360.0
 73
               0
 97
        1
330
90
 75
               0
 76
               1
 98
        1
 10
0.0
 20
0.0
  0
CIRCLE
  5
92
102
{ACAD_REACTORS
330
93
102
}
100
AcDbEntity
  8
0
370
              -2
390
0
  6
Continuous
 62
               0
100
AcDbCircle
 10
6456.4345932722554
 20
370.63702846607805
 30
0.0
 40
4.99969482421875
  0
HATCH
  5
93
100
AcDbEntity
  8
0
370
              -2
390
0
  6
Continuous
 62
               0
100
AcDbHatch
 10
0.0
 20
0.0
 30
0.0
210
0.0
220
0.0
230
1.0
  2
SOLID
 70
               1
 71
               1
 91
        1
 92
        1
 93
        1
 72
               2
 10
6456.4345932722554
 20
370.63702846607805
 40
4.99969482421875
 50
0.0
 51
360.0
 73
               0
 97
        1
330
92
 75
               0
 76
               1
 98
        1
 10
0.0
 20
0.0
  0
MTEXT
  5
94
100
AcDbEntity
  8
0
390
0
 62
               0
100
AcDbMText
 10
6197.6220915900794
 20
404.5146456535781
 30
0.0
 40
24.432617187500004
 41
0.0
 71
               1
 72
               1
  1
470
  7
ＭＳ ゴシック
 73
               1
 44
0.7828267384257843
  0
POINT
  5
95
100
AcDbEntity
  8
Defpoints
370
               0
390
0
 62
               0
100
AcDbPoint
 10
6456.4345932722554
 20
263.63702846607805
 30
0.0
  0
POINT
  5
96
100
AcDbEntity
  8
Defpoints
370
               0
390
0
 62
               0
100
AcDbPoint
 10
5986.4345932722545
 20
268.63702846607805
 30
0.0
  0
POINT
  5
97
100
AcDbEntity
  8
Defpoints
370
               0
390
0
 62
               0
100
AcDbPoint
 10
5986.4345932722545
 20
370.63702846607805
 30
0.0
  0
ENDBLK
  5
98
100
AcDbEntity
  8
notes
390
0
100
AcDbBlockEnd
  0
BLOCK
  5
99
100
AcDbEntity
  8
notes
390
0
100
AcDbBlockBegin
  2
*D7
 70
               1
 10
0.0
 20
0.0
 30
0.0
  3
*D7
  1

  0
LINE
  5
9A
100
AcDbEntity
  8
0
370
              -2
390
0
  6
Continuous
 62
               0
100
AcDbLine
 10
6474.4345932722536
 20
-719.36297153393275
 30
0.0
 11
6556.4345932722554
 21
-719.36297153393275
 31
0.0
  0
LINE
  5
9B
100
AcDbEntity
  8
0
370
              -2
390
0
  6
Continuous
 62
               0
100
AcDbLine
 10
6474.4345932722554
 20
260.63702846606725
 30
0.0
 11
6556.4345932722554
 21
260.63702846606725
 31
0.0
  0
LINE
  5
9C
100
AcDbEntity
  8
0
370
              -2
390
0
  6
Continuous
 62
               0
100
AcDbLine
 10
6556.4345932722554
 20
-719.36297153393275
 30
0.0
 11
6556.4345932722554
 21
260.63702846606725
 31
0.0
  0
CIRCLE
  5
9D
102
{ACAD_REACTORS
330
9E
102
}
100
AcDbEntity
  8
0
370
              -2
390
0
  6
Continuous
 62
               0
100
AcDbCircle
 10
6556.4345932722554
 20
-719.36297153393275
 30
0.0
 40
4.99969482421875
  0
HATCH
  5
9E
100
AcDbEntity
  8
0
370
              -2
390
0
  6
Continuous
 62
               0
100
AcDbHatch
 10
0.0
 20
0.0
 30
0.0
210
0.0
220
0.0
230
1.0
  2
SOLID
 70
               1
 71
               1
 91
        1
 92
        1
 93
        1
 72
               2
 10
6556.4345932722554
 20
-719.36297153393275
 40
4.99969482421875
 50
0.0
 51
360.0
 73
               0
 97
        1
330
9D
 75
               0
 76
               1
 98
        1
 10
0.0
 20
0.0
  0
CIRCLE
  5
9F
102
{ACAD_REACTORS
330
A0
102
}
100
AcDbEntity
  8
0
370
              -2
390
0
  6
Continuous
 62
               0
100
AcDbCircle
 10
6556.4345932722554
 20
260.63702846606725
 30
0.0
 40
4.99969482421875
  0
HATCH
  5
A0
100
AcDbEntity
  8
0
370
              -2
390
0
  6
Continuous
 62
               0
100
AcDbHatch
 10
0.0
 20
0.0
 30
0.0
210
0.0
220
0.0
230
1.0
  2
SOLID
 70
               1
 71
               1
 91
        1
 92
        1
 93
        1
 72
               2
 10
6556.4345932722554
 20
260.63702846606725
 40
4.99969482421875
 50
0.0
 51
360.0
 73
               0
 97
        1
330
9F
 75
               0
 76
               1
 98
        1
 10
0.0
 20
0.0
  0
MTEXT
  5
A1
100
AcDbEntity
  8
0
390
0
 62
               0
100
AcDbMText
 10
6522.5569760847548
 20
-253.17547321610829
 30
0.0
 40
24.432617187500004
 41
0.0
 71
               1
 72
               1
  1
980
  7
ＭＳ ゴシック
 11
0.0
 21
1.0
 31
0.0
 73
               1
 44
0.7828267384257843
  0
POINT
  5
A2
100
AcDbEntity
  8
Defpoints
370
               0
390
0
 62
               0
100
AcDbPoint
 10
6449.4345932722554
 20
260.63702846606725
 30
0.0
  0
POINT
  5
A3
100
AcDbEntity
  8
Defpoints
370
               0
390
0
 62
               0
100
AcDbPoint
 10
6449.4345932722536
 20
-719.36297153393275
 30
0.0
  0
POINT
  5
A4
100
AcDbEntity
  8
Defpoints
370
               0
390
0
 62
               0
100
AcDbPoint
 10
6556.4345932722554
 20
-719.36297153393275
 30
0.0
  0
ENDBLK
  5
A5
100
AcDbEntity
  8
notes
390
0
100
AcDbBlockEnd
  0
BLOCK
  5
A6
100
AcDbEntity
  8
notes
390
0
100
AcDbBlockBegin
  2
*D8
 70
               1
 10
0.0
 20
0.0
 30
0.0
  3
*D8
  1

  0
LINE
  5
A7
100
AcDbEntity
  8
0
370
              -2
390
0
  6
Continuous
 62
               0
100
AcDbLine
 10
7327.3567911558084
 20
-369.36297153378496
 30
0.0
 11
7232.3567911558084
 21
-369.36297153378496
 31
0.0
  0
LINE
  5
A8
100
AcDbEntity
  8
0
370
              -2
390
0
  6
Continuous
 62
               0
100
AcDbLine
 10
7327.3567911558084
 20
-89.362971533785071
 30
0.0
 11
7232.3567911558084
 21
-89.362971533785071
 31
0.0
  0
LINE
  5
A9
100
AcDbEntity
  8
0
370
              -2
390
0
  6
Continuous
 62
               0
100
AcDbLine
 10
7232.3567911558084
 20
-369.36297153378496
 30
0.0
 11
7232.3567911558084
 21
-89.362971533785071
 31
0.0
  0
CIRCLE
  5
AA
102
{ACAD_REACTORS
330
AB
102
}
100
AcDbEntity
  8
0
370
              -2
390
0
  6
Continuous
 62
               0
100
AcDbCircle
 10
7232.3567911558084
 20
-369.36297153378496
 30
0.0
 40
4.99969482421875
  0
HATCH
  5
AB
100
AcDbEntity
  8
0
370
              -2
390
0
  6
Continuous
 62
               0
100
AcDbHatch
 10
0.0
 20
0.0
 30
0.0
210
0.0
220
0.0
230
1.0
  2
SOLID
 70
               1
 71
               1
 91
        1
 92
        1
 93
        1
 72
               2
 10
7232.3567911558084
 20
-369.36297153378496
 40
4.99969482421875
 50
0.0
 51
360.0
 73
               0
 97
        1
330
AA
 75
               0
 76
               1
 98
        1
 10
0.0
 20
0.0
  0
CIRCLE
  5
AC
102
{ACAD_REACTORS
330
AD
102
}
100
AcDbEntity
  8
0
370
              -2
390
0
  6
Continuous
 62
               0
100
AcDbCircle
 10
7232.3567911558084
 20
-89.362971533785071
 30
0.0
 40
4.99969482421875
  0
HATCH
  5
AD
100
AcDbEntity
  8
0
370
              -2
390
0
  6
Continuous
 62
               0
100
AcDbHatch
 10
0.0
 20
0.0
 30
0.0
210
0.0
220
0.0
230
1.0
  2
SOLID
 70
               1
 71
               1
 91
        1
 92
        1
 93
        1
 72
               2
 10
7232.3567911558084
 20
-89.362971533785071
 40
4.99969482421875
 50
0.0
 51
360.0
 73
               0
 97
        1
330
AC
 75
               0
 76
               1
 98
        1
 10
0.0
 20
0.0
  0
MTEXT
  5
AE
100
AcDbEntity
  8
0
390
0
 62
               0
100
AcDbMText
 10
7198.4791739683087
 20
-253.17547321596055
 30
0.0
 40
24.432617187500004
 41
0.0
 71
               1
 72
               1
  1
280
  7
ＭＳ ゴシック
 11
0.0
 21
1.0
 31
0.0
 73
               1
 44
0.7828267384257843
  0
POINT
  5
AF
100
AcDbEntity
  8
Defpoints
370
               0
390
0
 62
               0
100
AcDbPoint
 10
7352.3567911558084
 20
-89.362971533785071
 30
0.0
  0
POINT
  5
B0
100
AcDbEntity
  8
Defpoints
370
               0
390
0
 62
               0
100
AcDbPoint
 10
7352.3567911558084
 20
-369.36297153378496
 30
0.0
  0
POINT
  5
B1
100
AcDbEntity
  8
Defpoints
370
               0
390
0
 62
               0
100
AcDbPoint
 10
7232.3567911558084
 20
-369.36297153378496
 30
0.0
  0
ENDBLK
  5
B2
100
AcDbEntity
  8
notes
390
0
100
AcDbBlockEnd
  0
BLOCK
  5
B3
100
AcDbEntity
  8
notes
390
0
100
AcDbBlockBegin
  2
*D9
 70
               1
 10
0.0
 20
0.0
 30
0.0
  3
*D9
  1

  0
LINE
  5
B4
100
AcDbEntity
  8
0
370
              -2
390
0
  6
Continuous
 62
               0
100
AcDbLine
 10
7372.3567911558084
 20
-574.36297153378496
 30
0.0
 11
7372.3567911558084
 21
-803.0
 31
0.0
  0
LINE
  5
B5
100
AcDbEntity
  8
0
370
              -2
390
0
  6
Continuous
 62
               0
100
AcDbLine
 10
7332.3567911558084
 20
-750.18148576689248
 30
0.0
 11
7332.3567911558084
 21
-803.0
 31
0.0
  0
LINE
  5
B6
100
AcDbEntity
  8
0
370
              -2
390
0
  6
Continuous
 62
               0
100
AcDbLine
 10
7372.3567911558084
 20
-803.0
 30
0.0
 11
7332.3567911558084
 21
-803.0
 31
0.0
  0
CIRCLE
  5
B7
102
{ACAD_REACTORS
330
B8
102
}
100
AcDbEntity
  8
0
370
              -2
390
0
  6
Continuous
 62
               0
100
AcDbCircle
 10
7372.3567911558084
 20
-803.0
 30
0.0
 40
4.99969482421875
  0
HATCH
  5
B8
100
AcDbEntity
  8
0
370
              -2
390
0
  6
Continuous
 62
               0
100
AcDbHatch
 10
0.0
 20
0.0
 30
0.0
210
0.0
220
0.0
230
1.0
  2
SOLID
 70
               1
 71
               1
 91
        1
 92
        1
 93
        1
 72
               2
 10
7372.3567911558084
 20
-803.0
 40
4.99969482421875
 50
0.0
 51
360.0
 73
               0
 97
        1
330
B7
 75
               0
 76
               1
 98
        1
 10
0.0
 20
0.0
  0
CIRCLE
  5
B9
102
{ACAD_REACTORS
330
BA
102
}
100
AcDbEntity
  8
0
370
              -2
390
0
  6
Continuous
 62
               0
100
AcDbCircle
 10
7332.3567911558084
 20
-803.0
 30
0.0
 40
4.99969482421875
  0
HATCH
  5
BA
100
AcDbEntity
  8
0
370
              -2
390
0
  6
Continuous
 62
               0
100
AcDbHatch
 10
0.0
 20
0.0
 30
0.0
210
0.0
220
0.0
230
1.0
  2
SOLID
 70
               1
 71
               1
 91
        1
 92
        1
 93
        1
 72
               2
 10
7332.3567911558084
 20
-803.0
 40
4.99969482421875
 50
0.0
 51
360.0
 73
               0
 97
        1
330
B9
 75
               0
 76
               1
 98
        1
 10
0.0
 20
0.0
  0
MTEXT
  5
BB
100
AcDbEntity
  8
0
390
0
 62
               0
100
AcDbMText
 10
7337.125
 20
-769.12238281249995
 30
0.0
 40
24.432617187500004
 41
0.0
 71
               1
 72
               1
  1
40
  7
ＭＳ ゴシック
 73
               1
 44
0.7828267384257843
  0
POINT
  5
BC
100
AcDbEntity
  8
Defpoints
370
               0
390
0
 62
               0
100
AcDbPoint
 10
7332.3567911558084
 20
-725.18148576689248
 30
0.0
  0
POINT
  5
BD
100
AcDbEntity
  8
Defpoints
370
               0
390
0
 62
               0
100
AcDbPoint
 10
7372.3567911558084
 20
-549.36297153378496
 30
0.0
  0
POINT
  5
BE
100
AcDbEntity
  8
Defpoints
370
               0
390
0
 62
               0
100
AcDbPoint
 10
7372.3567911558084
 20
-803.0
 30
0.0
  0
ENDBLK
  5
BF
100
AcDbEntity
  8
notes
390
0
100
AcDbBlockEnd
  0
BLOCK
  5
C0
100
AcDbEntity
  8
notes
390
0
100
AcDbBlockBegin
  2
*D10
 70
               1
 10
0.0
 20
0.0
 30
0.0
  3
*D10
  1

  0
LINE
  5
C1
100
AcDbEntity
  8
0
370
              -2
390
0
  6
Continuous
 62
               0
100
AcDbLine
 10
7332.3567941442079
 20
288.6305602690835
 30
0.0
 11
7332.3567941442079
 21
370.29254283611942
 31
0.0
  0
LINE
  5
C2
100
AcDbEntity
  8
0
370
              -2
390
0
  6
Continuous
 62
               0
100
AcDbLine
 10
7492.3567911558084
 20
-171.35154043715045
 30
0.0
 11
7492.3567911558084
 21
370.29254283611942
 31
0.0
  0
LINE
  5
C3
100
AcDbEntity
  8
0
370
              -2
390
0
  6
Continuous
 62
               0
100
AcDbLine
 10
7332.3567941442079
 20
370.29254283611942
 30
0.0
 11
7492.3567911558084
 21
370.29254283611942
 31
0.0
  0
CIRCLE
  5
C4
102
{ACAD_REACTORS
330
C5
102
}
100
AcDbEntity
  8
0
370
              -2
390
0
  6
Continuous
 62
               0
100
AcDbCircle
 10
7332.3567941442079
 20
370.29254283611942
 30
0.0
 40
4.99969482421875
  0
HATCH
  5
C5
100
AcDbEntity
  8
0
370
              -2
390
0
  6
Continuous
 62
               0
100
AcDbHatch
 10
0.0
 20
0.0
 30
0.0
210
0.0
220
0.0
230
1.0
  2
SOLID
 70
               1
 71
               1
 91
        1
 92
        1
 93
        1
 72
               2
 10
7332.3567941442079
 20
370.29254283611942
 40
4.99969482421875
 50
0.0
 51
360.0
 73
               0
 97
        1
330
C4
 75
               0
 76
               1
 98
        1
 10
0.0
 20
0.0
  0
CIRCLE
  5
C6
102
{ACAD_REACTORS
330
C7
102
}
100
AcDbEntity
  8
0
370
              -2
390
0
  6
Continuous
 62
               0
100
AcDbCircle
 10
7492.3567911558084
 20
370.29254283611942
 30
0.0
 40
4.99969482421875
  0
HATCH
  5
C7
100
AcDbEntity
  8
0
370
              -2
390
0
  6
Continuous
 62
               0
100
AcDbHatch
 10
0.0
 20
0.0
 30
0.0
210
0.0
220
0.0
230
1.0
  2
SOLID
 70
               1
 71
               1
 91
        1
 92
        1
 93
        1
 72
               2
 10
7492.3567911558084
 20
370.29254283611942
 40
4.99969482421875
 50
0.0
 51
360.0
 73
               0
 97
        1
330
C6
 75
               0
 76
               1
 98
        1
 10
0.0
 20
0.0
  0
MTEXT
  5
C8
100
AcDbEntity
  8
0
390
0
 62
               0
100
AcDbMText
 10
7388.5442909678331
 20
404.17016002361947
 30
0.0
 40
24.432617187500004
 41
0.0
 71
               1
 72
               1
  1
160
  7
ＭＳ ゴシック
 73
               1
 44
0.7828267384257843
  0
POINT
  5
C9
100
AcDbEntity
  8
Defpoints
370
               0
390
0
 62
               0
100
AcDbPoint
 10
7492.3567911558084
 20
-196.35154043715045
 30
0.0
  0
POINT
  5
CA
100
AcDbEntity
  8
Defpoints
370
               0
390
0
 62
               0
100
AcDbPoint
 10
7332.3567941442079
 20
263.6305602690835
 30
0.0
  0
POINT
  5
CB
100
AcDbEntity
  8
Defpoints
370
               0
390
0
 62
               0
100
AcDbPoint
 10
7332.3567941442079
 20
370.29254283611942
 30
0.0
  0
ENDBLK
  5
CC
100
AcDbEntity
  8
notes
390
0
100
AcDbBlockEnd
  0
BLOCK
  5
CD
100
AcDbEntity
  8
notes
390
0
100
AcDbBlockBegin
  2
*D11
 70
               1
 10
0.0
 20
0.0
 30
0.0
  3
*D11
  1

  0
LINE
  5
CE
100
AcDbEntity
  8
0
370
              -2
390
0
  6
Continuous
 62
               0
100
AcDbLine
 10
7332.3586845030986
 20
691.77037619383873
 30
0.0
 11
7332.3586845030986
 21
609.62298191636251
 31
0.0
  0
LINE
  5
CF
100
AcDbEntity
  8
0
370
              -2
390
0
  6
Continuous
 62
               0
100
AcDbLine
 10
7462.3568627266623
 20
694.75868456683611
 30
0.0
 11
7462.3568627266623
 21
609.62298191636251
 31
0.0
  0
LINE
  5
D0
100
AcDbEntity
  8
0
370
              -2
390
0
  6
Continuous
 62
               0
100
AcDbLine
 10
7332.3586845030986
 20
609.62298191636251
 30
0.0
 11
7462.3568627266623
 21
609.62298191636251
 31
0.0
  0
CIRCLE
  5
D1
102
{ACAD_REACTORS
330
D2
102
}
100
AcDbEntity
  8
0
370
              -2
390
0
  6
Continuous
 62
               0
100
AcDbCircle
 10
7332.3586845030986
 20
609.62298191636251
 30
0.0
 40
4.99969482421875
  0
HATCH
  5
D2
100
AcDbEntity
  8
0
370
              -2
390
0
  6
Continuous
 62
               0
100
AcDbHatch
 10
0.0
 20
0.0
 30
0.0
210
0.0
220
0.0
230
1.0
  2
SOLID
 70
               1
 71
               1
 91
        1
 92
        1
 93
        1
 72
               2
 10
7332.3586845030986
 20
609.62298191636251
 40
4.99969482421875
 50
0.0
 51
360.0
 73
               0
 97
        1
330
D1
 75
               0
 76
               1
 98
        1
 10
0.0
 20
0.0
  0
CIRCLE
  5
D3
102
{ACAD_REACTORS
330
D4
102
}
100
AcDbEntity
  8
0
370
              -2
390
0
  6
Continuous
 62
               0
100
AcDbCircle
 10
7462.3568627266623
 20
609.62298191636251
 30
0.0
 40
4.99969482421875
  0
HATCH
  5
D4
100
AcDbEntity
  8
0
370
              -2
390
0
  6
Continuous
 62
               0
100
AcDbHatch
 10
0.0
 20
0.0
 30
0.0
210
0.0
220
0.0
230
1.0
  2
SOLID
 70
               1
 71
               1
 91
        1
 92
        1
 93
        1
 72
               2
 10
7462.3568627266623
 20
609.62298191636251
 40
4.99969482421875
 50
0.0
 51
360.0
 73
               0
 97
        1
330
D3
 75
               0
 76
               1
 98
        1
 10
0.0
 20
0.0
  0
MTEXT
  5
D5
100
AcDbEntity
  8
0
390
0
 62
               0
100
AcDbMText
 10
7373.545271932705
 20
643.50059910386244
 30
0.0
 40
24.432617187500004
 41
0.0
 71
               1
 72
               1
  1
130
  7
ＭＳ ゴシック
 73
               1
 44
0.7828267384257843
  0
POINT
  5
D6
100
AcDbEntity
  8
Defpoints
370
               0
390
0
 62
               0
100
AcDbPoint
 10
7462.3568627266623
 20
719.75868456683611
 30
0.0
  0
POINT
  5
D7
100
AcDbEntity
  8
Defpoints
370
               0
390
0
 62
               0
100
AcDbPoint
 10
7332.3586845030986
 20
716.77037619383873
 30
0.0
  0
POINT
  5
D8
100
AcDbEntity
  8
Defpoints
370
               0
390
0
 62
               0
100
AcDbPoint
 10
7332.3586845030986
 20
609.62298191636251
 30
0.0
  0
ENDBLK
  5
D9
100
AcDbEntity
  8
notes
390
0
100
AcDbBlockEnd
  0
BLOCK
  5
DA
100
AcDbEntity
  8
notes
390
0
100
AcDbBlockBegin
  2
*D12
 70
               1
 10
0.0
 20
0.0
 30
0.0
  3
*D12
  1

  0
LINE
  5
DB
100
AcDbEntity
  8
0
370
              -2
390
0
  6
Continuous
 62
               0
100
AcDbLine
 10
7485.3568828191737
 20
1179.4218150670263
 30
0.0
 11
7592.3568566678532
 21
1179.4218150670263
 31
0.0
  0
LINE
  5
DC
100
AcDbEntity
  8
0
370
              -2
390
0
  6
Continuous
 62
               0
100
AcDbLine
 10
7517.356856405584
 20
964.42181506702627
 30
0.0
 11
7592.3568566678532
 21
964.42181506702627
 31
0.0
  0
LINE
  5
DD
100
AcDbEntity
  8
0
370
              -2
390
0
  6
Continuous
 62
               0
100
AcDbLine
 10
7592.3568566678532
 20
1179.4218150670263
 30
0.0
 11
7592.3568566678532
 21
964.42181506702627
 31
0.0
  0
CIRCLE
  5
DE
102
{ACAD_REACTORS
330
DF
102
}
100
AcDbEntity
  8
0
370
              -2
390
0
  6
Continuous
 62
               0
100
AcDbCircle
 10
7592.3568566678532
 20
1179.4218150670263
 30
0.0
 40
4.99969482421875
  0
HATCH
  5
DF
100
AcDbEntity
  8
0
370
              -2
390
0
  6
Continuous
 62
               0
100
AcDbHatch
 10
0.0
 20
0.0
 30
0.0
210
0.0
220
0.0
230
1.0
  2
SOLID
 70
               1
 71
               1
 91
        1
 92
        1
 93
        1
 72
               2
 10
7592.3568566678532
 20
1179.4218150670263
 40
4.99969482421875
 50
0.0
 51
360.0
 73
               0
 97
        1
330
DE
 75
               0
 76
               1
 98
        1
 10
0.0
 20
0.0
  0
CIRCLE
  5
E0
102
{ACAD_REACTORS
330
E1
102
}
100
AcDbEntity
  8
0
370
              -2
390
0
  6
Continuous
 62
               0
100
AcDbCircle
 10
7592.3568566678532
 20
964.42181506702627
 30
0.0
 40
4.99969482421875
  0
HATCH
  5
E1
100
AcDbEntity
  8
0
370
              -2
390
0
  6
Continuous
 62
               0
100
AcDbHatch
 10
0.0
 20
0.0
 30
0.0
210
0.0
220
0.0
230
1.0
  2
SOLID
 70
               1
 71
               1
 91
        1
 92
        1
 93
        1
 72
               2
 10
7592.3568566678532
 20
964.42181506702627
 40
4.99969482421875
 50
0.0
 51
360.0
 73
               0
 97
        1
330
E0
 75
               0
 76
               1
 98
        1
 10
0.0
 20
0.0
  0
MTEXT
  5
E2
100
AcDbEntity
  8
0
390
0
 62
               0
100
AcDbMText
 10
7558.4792394803535
 20
1048.1093133848508
 30
0.0
 40
24.432617187500004
 41
0.0
 71
               1
 72
               1
  1
215
  7
ＭＳ ゴシック
 11
0.0
 21
1.0
 31
0.0
 73
               1
 44
0.7828267384257843
  0
POINT
  5
E3
100
AcDbEntity
  8
Defpoints
370
               0
390
0
 62
               0
100
AcDbPoint
 10
7492.356856405584
 20
964.42181506702627
 30
0.0
  0
POINT
  5
E4
100
AcDbEntity
  8
Defpoints
370
               0
390
0
 62
               0
100
AcDbPoint
 10
7460.3568828191737
 20
1179.4218150670263
 30
0.0
  0
POINT
  5
E5
100
AcDbEntity
  8
Defpoints
370
               0
390
0
 62
               0
100
AcDbPoint
 10
7592.3568566678532
 20
1179.4218150670263
 30
0.0
  0
ENDBLK
  5
E6
100
AcDbEntity
  8
notes
390
0
100
AcDbBlockEnd
  0
BLOCK
  5
E7
100
AcDbEntity
  8
notes
390
0
100
AcDbBlockBegin
  2
*D13
 70
               1
 10
0.0
 20
0.0
 30
0.0
  3
*D13
  1

  0
LINE
  5
E8
100
AcDbEntity
  8
0
370
              -2
390
0
  6
Continuous
 62
               0
100
AcDbLine
 10
7307.356862858509
 20
1114.4475170033809
 30
0.0
 11
7232.3568601948728
 21
1114.4475170033809
 31
0.0
  0
LINE
  5
E9
100
AcDbEntity
  8
0
370
              -2
390
0
  6
Continuous
 62
               0
100
AcDbLine
 10
7310.3568658035374
 20
1179.4475170033809
 30
0.0
 11
7232.3568601948728
 21
1179.4475170033809
 31
0.0
  0
LINE
  5
EA
100
AcDbEntity
  8
0
370
              -2
390
0
  6
Continuous
 62
               0
100
AcDbLine
 10
7232.3568601948728
 20
1114.4475170033809
 30
0.0
 11
7232.3568601948728
 21
1179.4475170033809
 31
0.0
  0
CIRCLE
  5
EB
102
{ACAD_REACTORS
330
EC
102
}
100
AcDbEntity
  8
0
370
              -2
390
0
  6
Continuous
 62
               0
100
AcDbCircle
 10
7232.3568601948728
 20
1114.4475170033809
 30
0.0
 40
4.99969482421875
  0
HATCH
  5
EC
100
AcDbEntity
  8
0
370
              -2
390
0
  6
Continuous
 62
               0
100
AcDbHatch
 10
0.0
 20
0.0
 30
0.0
210
0.0
220
0.0
230
1.0
  2
SOLID
 70
               1
 71
               1
 91
        1
 92
        1
 93
        1
 72
               2
 10
7232.3568601948728
 20
1114.4475170033809
 40
4.99969482421875
 50
0.0
 51
360.0
 73
               0
 97
        1
330
EB
 75
               0
 76
               1
 98
        1
 10
0.0
 20
0.0
  0
CIRCLE
  5
ED
102
{ACAD_REACTORS
330
EE
102
}
100
AcDbEntity
  8
0
370
              -2
390
0
  6
Continuous
 62
               0
100
AcDbCircle
 10
7232.3568601948728
 20
1179.4475170033809
 30
0.0
 40
4.99969482421875
  0
HATCH
  5
EE
100
AcDbEntity
  8
0
370
              -2
390
0
  6
Continuous
 62
               0
100
AcDbHatch
 10
0.0
 20
0.0
 30
0.0
210
0.0
220
0.0
230
1.0
  2
SOLID
 70
               1
 71
               1
 91
        1
 92
        1
 93
        1
 72
               2
 10
7232.3568601948728
 20
1179.4475170033809
 40
4.99969482421875
 50
0.0
 51
360.0
 73
               0
 97
        1
330
ED
 75
               0
 76
               1
 98
        1
 10
0.0
 20
0.0
  0
MTEXT
  5
EF
100
AcDbEntity
  8
0
390
0
 62
               0
100
AcDbMText
 10
7198.479243007373
 20
1131.0725170033809
 30
0.0
 40
24.432617187500004
 41
0.0
 71
               1
 72
               1
  1
65
  7
ＭＳ ゴシック
 11
0.0
 21
1.0
 31
0.0
 73
               1
 44
0.7828267384257843
  0
POINT
  5
F0
100
AcDbEntity
  8
Defpoints
370
               0
390
0
 62
               0
100
AcDbPoint
 10
7335.3568658035374
 20
1179.4475170033809
 30
0.0
  0
POINT
  5
F1
100
AcDbEntity
  8
Defpoints
370
               0
390
0
 62
               0
100
AcDbPoint
 10
7332.356862858509
 20
1114.4475170033809
 30
0.0
  0
POINT
  5
F2
100
AcDbEntity
  8
Defpoints
370
               0
390
0
 62
               0
100
AcDbPoint
 10
7232.3568601948728
 20
1114.4475170033809
 30
0.0
  0
ENDBLK
  5
F3
100
AcDbEntity
  8
notes
390
0
100
AcDbBlockEnd
  0
BLOCK
  5
F4
100
AcDbEntity
  8
notes
390
0
100
AcDbBlockBegin
  2
*D14
 70
               1
 10
0.0
 20
0.0
 30
0.0
  3
*D14
  1

  0
LINE
  5
F5
100
AcDbEntity
  8
0
370
              -2
390
0
  6
Continuous
 62
               0
100
AcDbLine
 10
7332.3568565523146
 20
992.77860852858157
 30
0.0
 11
7332.3568565523146
 21
973.00120631128971
 31
0.0
  0
LINE
  5
F6
100
AcDbEntity
  8
0
370
              -2
390
0
  6
Continuous
 62
               0
100
AcDbLine
 10
7442.3568565523146
 20
992.77860852858157
 30
0.0
 11
7442.3568565523146
 21
973.00120631128971
 31
0.0
  0
LINE
  5
F7
100
AcDbEntity
  8
0
370
              -2
390
0
  6
Continuous
 62
               0
100
AcDbLine
 10
7332.3568565523146
 20
973.00120631128971
 30
0.0
 11
7178.6407183274787
 21
973.00120631128971
 31
0.0
  0
LINE
  5
F8
100
AcDbEntity
  8
0
370
              -2
390
0
  6
Continuous
 62
               0
100
AcDbLine
 10
7332.3568565523146
 20
973.00120631128971
 30
0.0
 11
7442.3568565523146
 21
973.00120631128971
 31
0.0
  0
CIRCLE
  5
F9
102
{ACAD_REACTORS
330
FA
102
}
100
AcDbEntity
  8
0
370
              -2
390
0
  6
Continuous
 62
               0
100
AcDbCircle
 10
7332.3568565523146
 20
973.00120631128971
 30
0.0
 40
4.99969482421875
  0
HATCH
  5
FA
100
AcDbEntity
  8
0
370
              -2
390
0
  6
Continuous
 62
               0
100
AcDbHatch
 10
0.0
 20
0.0
 30
0.0
210
0.0
220
0.0
230
1.0
  2
SOLID
 70
               1
 71
               1
 91
        1
 92
        1
 93
        1
 72
               2
 10
7332.3568565523146
 20
973.00120631128971
 40
4.99969482421875
 50
0.0
 51
360.0
 73
               0
 97
        1
330
F9
 75
               0
 76
               1
 98
        1
 10
0.0
 20
0.0
  0
CIRCLE
  5
FB
102
{ACAD_REACTORS
330
FC
102
}
100
AcDbEntity
  8
0
370
              -2
390
0
  6
Continuous
 62
               0
100
AcDbCircle
 10
7442.3568565523146
 20
973.00120631128971
 30
0.0
 40
4.99969482421875
  0
HATCH
  5
FC
100
AcDbEntity
  8
0
370
              -2
390
0
  6
Continuous
 62
               0
100
AcDbHatch
 10
0.0
 20
0.0
 30
0.0
210
0.0
220
0.0
230
1.0
  2
SOLID
 70
               1
 71
               1
 91
        1
 92
        1
 93
        1
 72
               2
 10
7442.3568565523146
 20
973.00120631128971
 40
4.99969482421875
 50
0.0
 51
360.0
 73
               0
 97
        1
330
FB
 75
               0
 76
               1
 98
        1
 10
0.0
 20
0.0
  0
MTEXT
  5
FD
100
AcDbEntity
  8
0
390
0
 62
               0
100
AcDbMText
 10
7178.6407183274787
 20
1006.8788234987898
 30
0.0
 40
24.432617187500004
 41
0.0
 71
               1
 72
               1
  1
110(深さ)
  7
ＭＳ ゴシック
 73
               1
 44
0.7828267384257843
  0
POINT
  5
FE
100
AcDbEntity
  8
Defpoints
370
               0
390
0
 62
               0
100
AcDbPoint
 10
7442.3568565523146
 20
967.77860852858157
 30
0.0
  0
POINT
  5
FF
100
AcDbEntity
  8
Defpoints
370
               0
390
0
 62
               0
100
AcDbPoint
 10
7332.3568565523146
 20
967.77860852858157
 30
0.0
  0
POINT
  5
100
100
AcDbEntity
  8
Defpoints
370
               0
390
0
 62
               0
100
AcDbPoint
 10
7332.3568565523146
 20
973.00120631128971
 30
0.0
  0
ENDBLK
  5
101
100
AcDbEntity
  8
notes
390
0
100
AcDbBlockEnd
  0
BLOCK
  5
102
100
AcDbEntity
  8
notes
390
0
100
AcDbBlockBegin
  2
*D15
 70
               1
 10
0.0
 20
0.0
 30
0.0
  3
*D15
  1

  0
LINE
  5
103
100
AcDbEntity
  8
0
370
              -2
390
0
  6
Continuous
 62
               0
100
AcDbLine
 10
6291.4345932722545
 20
599.99289262924344
 30
0.0
 11
6360.2629129322577
 21
599.99289262924344
 31
0.0
  0
LINE
  5
104
100
AcDbEntity
  8
0
370
              -2
390
0
  6
Continuous
 62
               0
100
AcDbLine
 10
6291.4345932722545
 20
1199.9928926292434
 30
0.0
 11
6360.2629129322577
 21
1199.9928926292434
 31
0.0
  0
LINE
  5
105
100
AcDbEntity
  8
0
370
              -2
390
0
  6
Continuous
 62
               0
100
AcDbLine
 10
6360.2629129322577
 20
599.99289262924344
 30
0.0
 11
6360.2629129322577
 21
1199.9928926292434
 31
0.0
  0
CIRCLE
  5
106
102
{ACAD_REACTORS
330
107
102
}
100
AcDbEntity
  8
0
370
              -2
390
0
  6
Continuous
 62
               0
100
AcDbCircle
 10
6360.2629129322577
 20
599.99289262924344
 30
0.0
 40
4.99969482421875
  0
HATCH
  5
107
100
AcDbEntity
  8
0
370
              -2
390
0
  6
Continuous
 62
               0
100
AcDbHatch
 10
0.0
 20
0.0
 30
0.0
210
0.0
220
0.0
230
1.0
  2
SOLID
 70
               1
 71
               1
 91
        1
 92
        1
 93
        1
 72
               2
 10
6360.2629129322577
 20
599.99289262924344
 40
4.99969482421875
 50
0.0
 51
360.0
 73
               0
 97
        1
330
106
 75
               0
 76
               1
 98
        1
 10
0.0
 20
0.0
  0
CIRCLE
  5
108
102
{ACAD_REACTORS
330
109
102
}
100
AcDbEntity
  8
0
370
              -2
390
0
  6
Continuous
 62
               0
100
AcDbCircle
 10
6360.2629129322577
 20
1199.9928926292434
 30
0.0
 40
4.99969482421875
  0
HATCH
  5
109
100
AcDbEntity
  8
0
370
              -2
390
0
  6
Continuous
 62
               0
100
AcDbHatch
 10
0.0
 20
0.0
 30
0.0
210
0.0
220
0.0
230
1.0
  2
SOLID
 70
               1
 71
               1
 91
        1
 92
        1
 93
        1
 72
               2
 10
6360.2629129322577
 20
1199.9928926292434
 40
4.99969482421875
 50
0.0
 51
360.0
 73
               0
 97
        1
330
108
 75
               0
 76
               1
 98
        1
 10
0.0
 20
0.0
  0
MTEXT
  5
10A
100
AcDbEntity
  8
0
390
0
 62
               0
100
AcDbMText
 10
6326.385295744758
 20
876.18039094706796
 30
0.0
 40
24.432617187500004
 41
0.0
 71
               1
 72
               1
  1
600
  7
ＭＳ ゴシック
 11
0.0
 21
1.0
 31
0.0
 73
               1
 44
0.7828267384257843
  0
POINT
  5
10B
100
AcDbEntity
  8
Defpoints
370
               0
390
0
 62
               0
100
AcDbPoint
 10
6266.4345932722545
 20
1199.9928926292434
 30
0.0
  0
POINT
  5
10C
100
AcDbEntity
  8
Defpoints
370
               0
390
0
 62
               0
100
AcDbPoint
 10
6266.4345932722545
 20
599.99289262924344
 30
0.0
  0
POINT
  5
10D
100
AcDbEntity
  8
Defpoints
370
               0
390
0
 62
               0
100
AcDbPoint
 10
6360.2629129322577
 20
599.99289262924344
 30
0.0
  0
ENDBLK
  5
10E
100
AcDbEntity
  8
notes
390
0
100
AcDbBlockEnd
  0
BLOCK
  5
10F
100
AcDbEntity
  8
notes
390
0
100
AcDbBlockBegin
  2
*D16
 70
               1
 10
0.0
 20
0.0
 30
0.0
  3
*D16
  1

  0
LINE
  5
110
100
AcDbEntity
  8
0
370
              -2
390
0
  6
Continuous
 62
               0
100
AcDbLine
 10
6266.4345932722545
 20
1224.9928926292434
 30
0.0
 11
6266.4345932722545
 21
1254.0
 31
0.0
  0
LINE
  5
111
100
AcDbEntity
  8
0
370
              -2
390
0
  6
Continuous
 62
               0
100
AcDbLine
 10
6016.4345932722545
 20
1224.9928926292434
 30
0.0
 11
6016.4345932722545
 21
1254.0
 31
0.0
  0
LINE
  5
112
100
AcDbEntity
  8
0
370
              -2
390
0
  6
Continuous
 62
               0
100
AcDbLine
 10
6266.4345932722545
 20
1254.0
 30
0.0
 11
6016.4345932722545
 21
1254.0
 31
0.0
  0
CIRCLE
  5
113
102
{ACAD_REACTORS
330
114
102
}
100
AcDbEntity
  8
0
370
              -2
390
0
  6
Continuous
 62
               0
100
AcDbCircle
 10
6266.4345932722545
 20
1254.0
 30
0.0
 40
4.99969482421875
  0
HATCH
  5
114
100
AcDbEntity
  8
0
370
              -2
390
0
  6
Continuous
 62
               0
100
AcDbHatch
 10
0.0
 20
0.0
 30
0.0
210
0.0
220
0.0
230
1.0
  2
SOLID
 70
               1
 71
               1
 91
        1
 92
        1
 93
        1
 72
               2
 10
6266.4345932722545
 20
1254.0
 40
4.99969482421875
 50
0.0
 51
360.0
 73
               0
 97
        1
330
113
 75
               0
 76
               1
 98
        1
 10
0.0
 20
0.0
  0
CIRCLE
  5
115
102
{ACAD_REACTORS
330
116
102
}
100
AcDbEntity
  8
0
370
              -2
390
0
  6
Continuous
 62
               0
100
AcDbCircle
 10
6016.4345932722545
 20
1254.0
 30
0.0
 40
4.99969482421875
  0
HATCH
  5
116
100
AcDbEntity
  8
0
370
              -2
390
0
  6
Continuous
 62
               0
100
AcDbHatch
 10
0.0
 20
0.0
 30
0.0
210
0.0
220
0.0
230
1.0
  2
SOLID
 70
               1
 71
               1
 91
        1
 92
        1
 93
        1
 72
               2
 10
6016.4345932722545
 20
1254.0
 40
4.99969482421875
 50
0.0
 51
360.0
 73
               0
 97
        1
330
115
 75
               0
 76
               1
 98
        1
 10
0.0
 20
0.0
  0
MTEXT
  5
117
100
AcDbEntity
  8
0
390
0
 62
               0
100
AcDbMText
 10
6117.6220915900794
 20
1287.8776171874999
 30
0.0
 40
24.432617187500004
 41
0.0
 71
               1
 72
               1
  1
250
  7
ＭＳ ゴシック
 73
               1
 44
0.7828267384257843
  0
POINT
  5
118
100
AcDbEntity
  8
Defpoints
370
               0
390
0
 62
               0
100
AcDbPoint
 10
6016.4345932722545
 20
1199.9928926292434
 30
0.0
  0
POINT
  5
119
100
AcDbEntity
  8
Defpoints
370
               0
390
0
 62
               0
100
AcDbPoint
 10
6266.4345932722545
 20
1199.9928926292434
 30
0.0
  0
POINT
  5
11A
100
AcDbEntity
  8
Defpoints
370
               0
390
0
 62
               0
100
AcDbPoint
 10
6266.4345932722545
 20
1254.0
 30
0.0
  0
ENDBLK
  5
11B
100
AcDbEntity
  8
notes
390
0
100
AcDbBlockEnd
  0
BLOCK
  5
11C
100
AcDbEntity
  8
notes
390
0
100
AcDbBlockBegin
  2
*D17
 70
               1
 10
0.0
 20
0.0
 30
0.0
  3
*D17
  1

  0
LINE
  5
11D
100
AcDbEntity
  8
0
370
              -2
390
0
  6
Continuous
 62
               0
100
AcDbLine
 10
6016.4345932722545
 20
1074.9928926292434
 30
0.0
 11
6016.4345932722545
 21
1254.0
 31
0.0
  0
LINE
  5
11E
100
AcDbEntity
  8
0
370
              -2
390
0
  6
Continuous
 62
               0
100
AcDbLine
 10
5986.4345932722545
 20
1078.992892629238
 30
0.0
 11
5986.4345932722545
 21
1254.0
 31
0.0
  0
LINE
  5
11F
100
AcDbEntity
  8
0
370
              -2
390
0
  6
Continuous
 62
               0
100
AcDbLine
 10
6016.4345932722545
 20
1254.0
 30
0.0
 11
5986.4345932722545
 21
1254.0
 31
0.0
  0
CIRCLE
  5
120
102
{ACAD_REACTORS
330
121
102
}
100
AcDbEntity
  8
0
370
              -2
390
0
  6
Continuous
 62
               0
100
AcDbCircle
 10
6016.4345932722545
 20
1254.0
 30
0.0
 40
4.99969482421875
  0
HATCH
  5
121
100
AcDbEntity
  8
0
370
              -2
390
0
  6
Continuous
 62
               0
100
AcDbHatch
 10
0.0
 20
0.0
 30
0.0
210
0.0
220
0.0
230
1.0
  2
SOLID
 70
               1
 71
               1
 91
        1
 92
        1
 93
        1
 72
               2
 10
6016.4345932722545
 20
1254.0
 40
4.99969482421875
 50
0.0
 51
360.0
 73
               0
 97
        1
330
120
 75
               0
 76
               1
 98
        1
 10
0.0
 20
0.0
  0
CIRCLE
  5
122
102
{ACAD_REACTORS
330
123
102
}
100
AcDbEntity
  8
0
370
              -2
390
0
  6
Continuous
 62
               0
100
AcDbCircle
 10
5986.4345932722545
 20
1254.0
 30
0.0
 40
4.99969482421875
  0
HATCH
  5
123
100
AcDbEntity
  8
0
370
              -2
390
0
  6
Continuous
 62
               0
100
AcDbHatch
 10
0.0
 20
0.0
 30
0.0
210
0.0
220
0.0
230
1.0
  2
SOLID
 70
               1
 71
               1
 91
        1
 92
        1
 93
        1
 72
               2
 10
5986.4345932722545
 20
1254.0
 40
4.99969482421875
 50
0.0
 51
360.0
 73
               0
 97
        1
330
122
 75
               0
 76
               1
 98
        1
 10
0.0
 20
0.0
  0
MTEXT
  5
124
100
AcDbEntity
  8
0
390
0
 62
               0
100
AcDbMText
 10
5985.5595932722545
 20
1287.8776171874999
 30
0.0
 40
24.432617187500004
 41
0.0
 71
               1
 72
               1
  1
30
  7
ＭＳ ゴシック
 73
               1
 44
0.7828267384257843
  0
POINT
  5
125
100
AcDbEntity
  8
Defpoints
370
               0
390
0
 62
               0
100
AcDbPoint
 10
5986.4345932722545
 20
1053.992892629238
 30
0.0
  0
POINT
  5
126
100
AcDbEntity
  8
Defpoints
370
               0
390
0
 62
               0
100
AcDbPoint
 10
6016.4345932722545
 20
1049.9928926292434
 30
0.0
  0
POINT
  5
127
100
AcDbEntity
  8
Defpoints
370
               0
390
0
 62
               0
100
AcDbPoint
 10
6016.4345932722545
 20
1254.0
 30
0.0
  0
ENDBLK
  5
128
100
AcDbEntity
  8
notes
390
0
100
AcDbBlockEnd
  0
BLOCK
  5
129
100
AcDbEntity
  8
notes
390
0
100
AcDbBlockBegin
  2
*D18
 70
               1
 10
0.0
 20
0.0
 30
0.0
  3
*D18
  1

  0
LINE
  5
12A
100
AcDbEntity
  8
0
370
              -2
390
0
  6
Continuous
 62
               0
100
AcDbLine
 10
7327.3567911558084
 20
-369.36297153378496
 30
0.0
 11
7232.3567911558084
 21
-369.36297153378496
 31
0.0
  0
LINE
  5
12B
100
AcDbEntity
  8
0
370
              -2
390
0
  6
Continuous
 62
               0
100
AcDbLine
 10
7327.3567911558084
 20
-529.36297153378496
 30
0.0
 11
7232.3567911558084
 21
-529.36297153378496
 31
0.0
  0
LINE
  5
12C
100
AcDbEntity
  8
0
370
              -2
390
0
  6
Continuous
 62
               0
100
AcDbLine
 10
7232.3567911558084
 20
-369.36297153378496
 30
0.0
 11
7232.3567911558084
 21
-529.36297153378496
 31
0.0
  0
CIRCLE
  5
12D
102
{ACAD_REACTORS
330
12E
102
}
100
AcDbEntity
  8
0
370
              -2
390
0
  6
Continuous
 62
               0
100
AcDbCircle
 10
7232.3567911558084
 20
-369.36297153378496
 30
0.0
 40
4.99969482421875
  0
HATCH
  5
12E
100
AcDbEntity
  8
0
370
              -2
390
0
  6
Continuous
 62
               0
100
AcDbHatch
 10
0.0
 20
0.0
 30
0.0
210
0.0
220
0.0
230
1.0
  2
SOLID
 70
               1
 71
               1
 91
        1
 92
        1
 93
        1
 72
               2
 10
7232.3567911558084
 20
-369.36297153378496
 40
4.99969482421875
 50
0.0
 51
360.0
 73
               0
 97
        1
330
12D
 75
               0
 76
               1
 98
        1
 10
0.0
 20
0.0
  0
CIRCLE
  5
12F
102
{ACAD_REACTORS
330
130
102
}
100
AcDbEntity
  8
0
370
              -2
390
0
  6
Continuous
 62
               0
100
AcDbCircle
 10
7232.3567911558084
 20
-529.36297153378496
 30
0.0
 40
4.99969482421875
  0
HATCH
  5
130
100
AcDbEntity
  8
0
370
              -2
390
0
  6
Continuous
 62
               0
100
AcDbHatch
 10
0.0
 20
0.0
 30
0.0
210
0.0
220
0.0
230
1.0
  2
SOLID
 70
               1
 71
               1
 91
        1
 92
        1
 93
        1
 72
               2
 10
7232.3567911558084
 20
-529.36297153378496
 40
4.99969482421875
 50
0.0
 51
360.0
 73
               0
 97
        1
330
12F
 75
               0
 76
               1
 98
        1
 10
0.0
 20
0.0
  0
MTEXT
  5
131
100
AcDbEntity
  8
0
390
0
 62
               0
100
AcDbMText
 10
7198.4791739683087
 20
-473.17547321596044
 30
0.0
 40
24.432617187500004
 41
0.0
 71
               1
 72
               1
  1
160
  7
ＭＳ ゴシック
 11
0.0
 21
1.0
 31
0.0
 73
               1
 44
0.7828267384257843
  0
POINT
  5
132
100
AcDbEntity
  8
Defpoints
370
               0
390
0
 62
               0
100
AcDbPoint
 10
7352.3567911558084
 20
-529.36297153378496
 30
0.0
  0
POINT
  5
133
100
AcDbEntity
  8
Defpoints
370
               0
390
0
 62
               0
100
AcDbPoint
 10
7352.3567911558084
 20
-369.36297153378496
 30
0.0
  0
POINT
  5
134
100
AcDbEntity
  8
Defpoints
370
               0
390
0
 62
               0
100
AcDbPoint
 10
7232.3567911558084
 20
-369.36297153378496
 30
0.0
  0
ENDBLK
  5
135
100
AcDbEntity
  8
notes
390
0
100
AcDbBlockEnd
  0
BLOCK
  5
136
100
AcDbEntity
  8
notes
390
0
100
AcDbBlockBegin
  2
*D19
 70
               1
 10
0.0
 20
0.0
 30
0.0
  3
*D19
  1

  0
LINE
  5
137
100
AcDbEntity
  8
0
370
              -2
390
0
  6
Continuous
 62
               0
100
AcDbLine
 10
7327.3567911558084
 20
-89.362971533785071
 30
0.0
 11
7232.3567911558084
 21
-89.362971533785071
 31
0.0
  0
LINE
  5
138
100
AcDbEntity
  8
0
370
              -2
390
0
  6
Continuous
 62
               0
100
AcDbLine
 10
7327.3567911558084
 20
70.637028466214929
 30
0.0
 11
7232.3567911558084
 21
70.637028466214929
 31
0.0
  0
LINE
  5
139
100
AcDbEntity
  8
0
370
              -2
390
0
  6
Continuous
 62
               0
100
AcDbLine
 10
7232.3567911558084
 20
-89.362971533785071
 30
0.0
 11
7232.3567911558084
 21
70.637028466214929
 31
0.0
  0
CIRCLE
  5
13A
102
{ACAD_REACTORS
330
13B
102
}
100
AcDbEntity
  8
0
370
              -2
390
0
  6
Continuous
 62
               0
100
AcDbCircle
 10
7232.3567911558084
 20
-89.362971533785071
 30
0.0
 40
4.99969482421875
  0
HATCH
  5
13B
100
AcDbEntity
  8
0
370
              -2
390
0
  6
Continuous
 62
               0
100
AcDbHatch
 10
0.0
 20
0.0
 30
0.0
210
0.0
220
0.0
230
1.0
  2
SOLID
 70
               1
 71
               1
 91
        1
 92
        1
 93
        1
 72
               2
 10
7232.3567911558084
 20
-89.362971533785071
 40
4.99969482421875
 50
0.0
 51
360.0
 73
               0
 97
        1
330
13A
 75
               0
 76
               1
 98
        1
 10
0.0
 20
0.0
  0
CIRCLE
  5
13C
102
{ACAD_REACTORS
330
13D
102
}
100
AcDbEntity
  8
0
370
              -2
390
0
  6
Continuous
 62
               0
100
AcDbCircle
 10
7232.3567911558084
 20
70.637028466214929
 30
0.0
 40
4.99969482421875
  0
HATCH
  5
13D
100
AcDbEntity
  8
0
370
              -2
390
0
  6
Continuous
 62
               0
100
AcDbHatch
 10
0.0
 20
0.0
 30
0.0
210
0.0
220
0.0
230
1.0
  2
SOLID
 70
               1
 71
               1
 91
        1
 92
        1
 93
        1
 72
               2
 10
7232.3567911558084
 20
70.637028466214929
 40
4.99969482421875
 50
0.0
 51
360.0
 73
               0
 97
        1
330
13C
 75
               0
 76
               1
 98
        1
 10
0.0
 20
0.0
  0
MTEXT
  5
13E
100
AcDbEntity
  8
0
390
0
 62
               0
100
AcDbMText
 10
7198.4791739683087
 20
-33.175473215960608
 30
0.0
 40
24.432617187500004
 41
0.0
 71
               1
 72
               1
  1
160
  7
ＭＳ ゴシック
 11
0.0
 21
1.0
 31
0.0
 73
               1
 44
0.7828267384257843
  0
POINT
  5
13F
100
AcDbEntity
  8
Defpoints
370
               0
390
0
 62
               0
100
AcDbPoint
 10
7352.3567911558084
 20
70.637028466214929
 30
0.0
  0
POINT
  5
140
100
AcDbEntity
  8
Defpoints
370
               0
390
0
 62
               0
100
AcDbPoint
 10
7352.3567911558084
 20
-89.362971533785071
 30
0.0
  0
POINT
  5
141
100
AcDbEntity
  8
Defpoints
370
               0
390
0
 62
               0
100
AcDbPoint
 10
7232.3567911558084
 20
-89.362971533785071
 30
0.0
  0
ENDBLK
  5
142
100
AcDbEntity
  8
notes
390
0
100
AcDbBlockEnd
  0
BLOCK
  5
143
100
AcDbEntity
  8
notes
390
0
100
AcDbBlockBegin
  2
*D20
 70
               1
 10
0.0
 20
0.0
 30
0.0
  3
*D20
  1

  0
LINE
  5
144
100
AcDbEntity
  8
0
370
              -2
390
0
  6
Continuous
 62
               0
100
AcDbLine
 10
6012.8089077395798
 20
-129.36297153393286
 30
0.0
 11
5940.0
 21
-129.36297153393286
 31
0.0
  0
LINE
  5
145
100
AcDbEntity
  8
0
370
              -2
390
0
  6
Continuous
 62
               0
100
AcDbLine
 10
6011.3089077395707
 20
-229.36297153392923
 30
0.0
 11
5940.0
 21
-229.36297153392923
 31
0.0
  0
LINE
  5
146
100
AcDbEntity
  8
0
370
              -2
390
0
  6
Continuous
 62
               0
100
AcDbLine
 10
5940.0
 20
-129.36297153393286
 30
0.0
 11
5940.0
 21
-229.36297153392923
 31
0.0
  0
CIRCLE
  5
147
102
{ACAD_REACTORS
330
148
102
}
100
AcDbEntity
  8
0
370
              -2
390
0
  6
Continuous
 62
               0
100
AcDbCircle
 10
5940.0
 20
-129.36297153393286
 30
0.0
 40
4.99969482421875
  0
HATCH
  5
148
100
AcDbEntity
  8
0
370
              -2
390
0
  6
Continuous
 62
               0
100
AcDbHatch
 10
0.0
 20
0.0
 30
0.0
210
0.0
220
0.0
230
1.0
  2
SOLID
 70
               1
 71
               1
 91
        1
 92
        1
 93
        1
 72
               2
 10
5940.0
 20
-129.36297153393286
 40
4.99969482421875
 50
0.0
 51
360.0
 73
               0
 97
        1
330
147
 75
               0
 76
               1
 98
        1
 10
0.0
 20
0.0
  0
CIRCLE
  5
149
102
{ACAD_REACTORS
330
14A
102
}
100
AcDbEntity
  8
0
370
              -2
390
0
  6
Continuous
 62
               0
100
AcDbCircle
 10
5940.0
 20
-229.36297153392923
 30
0.0
 40
4.99969482421875
  0
HATCH
  5
14A
100
AcDbEntity
  8
0
370
              -2
390
0
  6
Continuous
 62
               0
100
AcDbHatch
 10
0.0
 20
0.0
 30
0.0
210
0.0
220
0.0
230
1.0
  2
SOLID
 70
               1
 71
               1
 91
        1
 92
        1
 93
        1
 72
               2
 10
5940.0
 20
-229.36297153392923
 40
4.99969482421875
 50
0.0
 51
360.0
 73
               0
 97
        1
330
149
 75
               0
 76
               1
 98
        1
 10
0.0
 20
0.0
  0
MTEXT
  5
14B
100
AcDbEntity
  8
0
390
0
 62
               0
100
AcDbMText
 10
5906.1223828125003
 20
-203.17547321610658
 30
0.0
 40
24.432617187500004
 41
0.0
 71
               1
 72
               1
  1
100
  7
ＭＳ ゴシック
 11
0.0
 21
1.0
 31
0.0
 73
               1
 44
0.7828267384257843
  0
POINT
  5
14C
100
AcDbEntity
  8
Defpoints
370
               0
390
0
 62
               0
100
AcDbPoint
 10
6036.3089077395707
 20
-229.36297153392923
 30
0.0
  0
POINT
  5
14D
100
AcDbEntity
  8
Defpoints
370
               0
390
0
 62
               0
100
AcDbPoint
 10
6037.8089077395798
 20
-129.36297153393286
 30
0.0
  0
POINT
  5
14E
100
AcDbEntity
  8
Defpoints
370
               0
390
0
 62
               0
100
AcDbPoint
 10
5940.0
 20
-129.36297153393286
 30
0.0
  0
ENDBLK
  5
14F
100
AcDbEntity
  8
notes
390
0
100
AcDbBlockEnd
  0
BLOCK
  5
150
100
AcDbEntity
  8
notes
390
0
100
AcDbBlockBegin
  2
*D21
 70
               1
 10
0.0
 20
0.0
 30
0.0
  3
*D21
  1

  0
LINE
  5
151
100
AcDbEntity
  8
0
370
              -2
390
0
  6
Continuous
 62
               0
100
AcDbLine
 10
6011.3089077395707
 20
-229.36297153392923
 30
0.0
 11
5940.0
 21
-229.36297153392923
 31
0.0
  0
LINE
  5
152
100
AcDbEntity
  8
0
370
              -2
390
0
  6
Continuous
 62
               0
100
AcDbLine
 10
6012.8089077395707
 20
-329.36297153392923
 30
0.0
 11
5940.0
 21
-329.36297153392923
 31
0.0
  0
LINE
  5
153
100
AcDbEntity
  8
0
370
              -2
390
0
  6
Continuous
 62
               0
100
AcDbLine
 10
5940.0
 20
-229.36297153392923
 30
0.0
 11
5940.0
 21
-329.36297153392923
 31
0.0
  0
CIRCLE
  5
154
102
{ACAD_REACTORS
330
155
102
}
100
AcDbEntity
  8
0
370
              -2
390
0
  6
Continuous
 62
               0
100
AcDbCircle
 10
5940.0
 20
-229.36297153392923
 30
0.0
 40
4.99969482421875
  0
HATCH
  5
155
100
AcDbEntity
  8
0
370
              -2
390
0
  6
Continuous
 62
               0
100
AcDbHatch
 10
0.0
 20
0.0
 30
0.0
210
0.0
220
0.0
230
1.0
  2
SOLID
 70
               1
 71
               1
 91
        1
 92
        1
 93
        1
 72
               2
 10
5940.0
 20
-229.36297153392923
 40
4.99969482421875
 50
0.0
 51
360.0
 73
               0
 97
        1
330
154
 75
               0
 76
               1
 98
        1
 10
0.0
 20
0.0
  0
CIRCLE
  5
156
102
{ACAD_REACTORS
330
157
102
}
100
AcDbEntity
  8
0
370
              -2
390
0
  6
Continuous
 62
               0
100
AcDbCircle
 10
5940.0
 20
-329.36297153392923
 30
0.0
 40
4.99969482421875
  0
HATCH
  5
157
100
AcDbEntity
  8
0
370
              -2
390
0
  6
Continuous
 62
               0
100
AcDbHatch
 10
0.0
 20
0.0
 30
0.0
210
0.0
220
0.0
230
1.0
  2
SOLID
 70
               1
 71
               1
 91
        1
 92
        1
 93
        1
 72
               2
 10
5940.0
 20
-329.36297153392923
 40
4.99969482421875
 50
0.0
 51
360.0
 73
               0
 97
        1
330
156
 75
               0
 76
               1
 98
        1
 10
0.0
 20
0.0
  0
MTEXT
  5
158
100
AcDbEntity
  8
0
390
0
 62
               0
100
AcDbMText
 10
5906.1223828125003
 20
-303.17547321610476
 30
0.0
 40
24.432617187500004
 41
0.0
 71
               1
 72
               1
  1
100
  7
ＭＳ ゴシック
 11
0.0
 21
1.0
 31
0.0
 73
               1
 44
0.7828267384257843
  0
POINT
  5
159
100
AcDbEntity
  8
Defpoints
370
               0
390
0
 62
               0
100
AcDbPoint
 10
6037.8089077395707
 20
-329.36297153392923
 30
0.0
  0
POINT
  5
15A
100
AcDbEntity
  8
Defpoints
370
               0
390
0
 62
               0
100
AcDbPoint
 10
6036.3089077395707
 20
-229.36297153392923
 30
0.0
  0
POINT
  5
15B
100
AcDbEntity
  8
Defpoints
370
               0
390
0
 62
               0
100
AcDbPoint
 10
5940.0
 20
-229.36297153392923
 30
0.0
  0
ENDBLK
  5
15C
100
AcDbEntity
  8
notes
390
0
100
AcDbBlockEnd
  0
BLOCK
  5
15D
100
AcDbEntity
  8
notes
390
0
100
AcDbBlockBegin
  2
*D22
 70
               1
 10
0.0
 20
0.0
 30
0.0
  3
*D22
  1

  0
LINE
  5
15E
100
AcDbEntity
  8
0
370
              -2
390
0
  6
Continuous
 62
               0
100
AcDbLine
 10
6012.8089077395798
 20
-129.36297153393286
 30
0.0
 11
5940.0
 21
-129.36297153393286
 31
0.0
  0
LINE
  5
15F
100
AcDbEntity
  8
0
370
              -2
390
0
  6
Continuous
 62
               0
100
AcDbLine
 10
6012.8089077395798
 20
25.637028466067136
 30
0.0
 11
5940.0
 21
25.637028466067136
 31
0.0
  0
LINE
  5
160
100
AcDbEntity
  8
0
370
              -2
390
0
  6
Continuous
 62
               0
100
AcDbLine
 10
5940.0
 20
-129.36297153393286
 30
0.0
 11
5940.0
 21
25.637028466067136
 31
0.0
  0
CIRCLE
  5
161
102
{ACAD_REACTORS
330
162
102
}
100
AcDbEntity
  8
0
370
              -2
390
0
  6
Continuous
 62
               0
100
AcDbCircle
 10
5940.0
 20
-129.36297153393286
 30
0.0
 40
4.99969482421875
  0
HATCH
  5
162
100
AcDbEntity
  8
0
370
              -2
390
0
  6
Continuous
 62
               0
100
AcDbHatch
 10
0.0
 20
0.0
 30
0.0
210
0.0
220
0.0
230
1.0
  2
SOLID
 70
               1
 71
               1
 91
        1
 92
        1
 93
        1
 72
               2
 10
5940.0
 20
-129.36297153393286
 40
4.99969482421875
 50
0.0
 51
360.0
 73
               0
 97
        1
330
161
 75
               0
 76
               1
 98
        1
 10
0.0
 20
0.0
  0
CIRCLE
  5
163
102
{ACAD_REACTORS
330
164
102
}
100
AcDbEntity
  8
0
370
              -2
390
0
  6
Continuous
 62
               0
100
AcDbCircle
 10
5940.0
 20
25.637028466067136
 30
0.0
 40
4.99969482421875
  0
HATCH
  5
164
100
AcDbEntity
  8
0
370
              -2
390
0
  6
Continuous
 62
               0
100
AcDbHatch
 10
0.0
 20
0.0
 30
0.0
210
0.0
220
0.0
230
1.0
  2
SOLID
 70
               1
 71
               1
 91
        1
 92
        1
 93
        1
 72
               2
 10
5940.0
 20
25.637028466067136
 40
4.99969482421875
 50
0.0
 51
360.0
 73
               0
 97
        1
330
163
 75
               0
 76
               1
 98
        1
 10
0.0
 20
0.0
  0
MTEXT
  5
165
100
AcDbEntity
  8
0
390
0
 62
               0
100
AcDbMText
 10
5906.1223828125003
 20
-75.675473216108401
 30
0.0
 40
24.432617187500004
 41
0.0
 71
               1
 72
               1
  1
155
  7
ＭＳ ゴシック
 11
0.0
 21
1.0
 31
0.0
 73
               1
 44
0.7828267384257843
  0
POINT
  5
166
100
AcDbEntity
  8
Defpoints
370
               0
390
0
 62
               0
100
AcDbPoint
 10
6037.8089077395798
 20
25.637028466067136
 30
0.0
  0
POINT
  5
167
100
AcDbEntity
  8
Defpoints
370
               0
390
0
 62
               0
100
AcDbPoint
 10
6037.8089077395798
 20
-129.36297153393286
 30
0.0
  0
POINT
  5
168
100
AcDbEntity
  8
Defpoints
370
               0
390
0
 62
               0
100
AcDbPoint
 10
5940.0
 20
-129.36297153393286
 30
0.0
  0
ENDBLK
  5
169
100
AcDbEntity
  8
notes
390
0
100
AcDbBlockEnd
  0
BLOCK
  5
16A
100
AcDbEntity
  8
notes
390
0
100
AcDbBlockBegin
  2
*D23
 70
               1
 10
0.0
 20
0.0
 30
0.0
  3
*D23
  1

  0
LINE
  5
16B
100
AcDbEntity
  8
0
370
              -2
390
0
  6
Continuous
 62
               0
100
AcDbLine
 10
6012.8089077395707
 20
-329.36297153392923
 30
0.0
 11
5940.0
 21
-329.36297153392923
 31
0.0
  0
LINE
  5
16C
100
AcDbEntity
  8
0
370
              -2
390
0
  6
Continuous
 62
               0
100
AcDbLine
 10
6012.8089077395707
 20
-484.36297153392923
 30
0.0
 11
5940.0
 21
-484.36297153392923
 31
0.0
  0
LINE
  5
16D
100
AcDbEntity
  8
0
370
              -2
390
0
  6
Continuous
 62
               0
100
AcDbLine
 10
5940.0
 20
-329.36297153392923
 30
0.0
 11
5940.0
 21
-484.36297153392923
 31
0.0
  0
CIRCLE
  5
16E
102
{ACAD_REACTORS
330
16F
102
}
100
AcDbEntity
  8
0
370
              -2
390
0
  6
Continuous
 62
               0
100
AcDbCircle
 10
5940.0
 20
-329.36297153392923
 30
0.0
 40
4.99969482421875
  0
HATCH
  5
16F
100
AcDbEntity
  8
0
370
              -2
390
0
  6
Continuous
 62
               0
100
AcDbHatch
 10
0.0
 20
0.0
 30
0.0
210
0.0
220
0.0
230
1.0
  2
SOLID
 70
               1
 71
               1
 91
        1
 92
        1
 93
        1
 72
               2
 10
5940.0
 20
-329.36297153392923
 40
4.99969482421875
 50
0.0
 51
360.0
 73
               0
 97
        1
330
16E
 75
               0
 76
               1
 98
        1
 10
0.0
 20
0.0
  0
CIRCLE
  5
170
102
{ACAD_REACTORS
330
171
102
}
100
AcDbEntity
  8
0
370
              -2
390
0
  6
Continuous
 62
               0
100
AcDbCircle
 10
5940.0
 20
-484.36297153392923
 30
0.0
 40
4.99969482421875
  0
HATCH
  5
171
100
AcDbEntity
  8
0
370
              -2
390
0
  6
Continuous
 62
               0
100
AcDbHatch
 10
0.0
 20
0.0
 30
0.0
210
0.0
220
0.0
230
1.0
  2
SOLID
 70
               1
 71
               1
 91
        1
 92
        1
 93
        1
 72
               2
 10
5940.0
 20
-484.36297153392923
 40
4.99969482421875
 50
0.0
 51
360.0
 73
               0
 97
        1
330
170
 75
               0
 76
               1
 98
        1
 10
0.0
 20
0.0
  0
MTEXT
  5
172
100
AcDbEntity
  8
0
390
0
 62
               0
100
AcDbMText
 10
5906.1223828125003
 20
-430.67547321610471
 30
0.0
 40
24.432617187500004
 41
0.0
 71
               1
 72
               1
  1
155
  7
ＭＳ ゴシック
 11
0.0
 21
1.0
 31
0.0
 73
               1
 44
0.7828267384257843
  0
POINT
  5
173
100
AcDbEntity
  8
Defpoints
370
               0
390
0
 62
               0
100
AcDbPoint
 10
6037.8089077395707
 20
-484.36297153392923
 30
0.0
  0
POINT
  5
174
100
AcDbEntity
  8
Defpoints
370
               0
390
0
 62
               0
100
AcDbPoint
 10
6037.8089077395707
 20
-329.36297153392923
 30
0.0
  0
POINT
  5
175
100
AcDbEntity
  8
Defpoints
370
               0
390
0
 62
               0
100
AcDbPoint
 10
5940.0
 20
-329.36297153392923
 30
0.0
  0
ENDBLK
  5
176
100
AcDbEntity
  8
notes
390
0
100
AcDbBlockEnd
  0
ENDSEC
  0
SECTION
  2
ENTITIES
  0
MTEXT
  5
177
100
AcDbEntity
  8
template
390
0
 62
               7
100
AcDbMText
 10
5757.000000000482
 20
-956.28026469725978
 30
0.0
 40
16.288411458333332
 41
0.0
 71
               1
 72
               1
  1
品名
  7
ＭＳ ゴシック
 73
               1
 44
0.7828267384257843
  0
MTEXT
  5
178
100
AcDbEntity
  8
template
390
0
 62
               7
100
AcDbMText
 10
5757.000000000482
 20
-1041.2802646972598
 30
0.0
 40
16.288411458333332
 41
0.0
 71
               1
 72
               1
  1
仕様
  7
ＭＳ ゴシック
 73
               1
 44
0.7828267384257843
  0
LINE
  5
179
100
AcDbEntity
  8
template
370
               5
390
0
  6
Continuous
 62
               7
100
AcDbLine
 10
7700.0
 20
-1032.8653428222599
 30
0.0
 11
5750.0
 21
-1032.8653428222599
 31
0.0
  0
LWPOLYLINE
  5
17A
100
AcDbEntity
  8
template
370
               5
390
0
  6
Continuous
 62
               7
100
AcDbPolyline
 90
        5
 70
             128
 10
7700.0
 20
1597.1346571777401
 10
5750.0
 20
1597.1346571777401
 10
5750.0
 20
-1202.8653428222599
 10
7700.0
 20
-1202.8653428222599
 10
7700.0
 20
1597.1346571777401
  0
LINE
  5
17B
100
AcDbEntity
  8
template
370
               5
390
0
  6
Continuous
 62
               7
100
AcDbLine
 10
7700.0
 20
-947.86534282225989
 30
0.0
 11
5750.0
 21
-947.86534282225989
 31
0.0
  0
LINE
  5
17C
100
AcDbEntity
  8
template
370
               5
390
0
  6
Continuous
 62
               7
100
AcDbLine
 10
7700.000000000482
 20
-1117.8653428222599
 30
0.0
 11
6947.000000000482
 21
-1117.8653428222599
 31
0.0
  0
MTEXT
  5
17D
100
AcDbEntity
  8
template
390
0
 62
               7
100
AcDbMText
 10
5750.0000000006858
 20
-1214.7191648791168
 30
0.0
 40
21.717881944444446
 41
0.0
 71
               1
 72
               1
  1
121206SH
  7
ＭＳ ゴシック
 73
               1
 44
0.7828267384257843
  0
MTEXT
  5
17E
100
AcDbEntity
  8
template
390
0
 62
               7
100
AcDbMText
 10
6976.8714062527424
 20
-1147.7757372955675
 30
0.0
 40
24.432617187500004
 41
0.0
 71
               1
 72
               1
  1
大洋金物株式会社 ティーフォルム事業部
  7
ＭＳ ゴシック
 73
               1
 44
0.7828267384257843
  0
INSERT
  5
17F
100
AcDbEntity
  8
template
390
0
 62
               7
100
AcDbBlockReference
  2
グループ
 10
8856.537147924173
 20
180.07588876278692
 30
0.0
  0
MTEXT
  5
180
100
AcDbEntity
  8
template
390
0
 62
               7
100
AcDbMText
 10
7509.0000000007412
 20
-1069.86272563476
 30
0.0
 40
24.432617187500004
 41
0.0
 71
               1
 72
               1
  1
1:10
  7
ＭＳ ゴシック
 73
               1
 44
0.7828267384257843
  0
MTEXT
  5
181
100
AcDbEntity
  8
template
390
0
 62
               7
100
AcDbMText
 10
7456.0000000007412
 20
-1041.2802646972598
 30
0.0
 40
16.288411458333332
 41
0.0
 71
               1
 72
               1
  1
縮尺
  7
ＭＳ ゴシック
 73
               1
 44
0.7828267384257843
  0
LINE
  5
182
100
AcDbEntity
  8
template
370
               5
390
0
  6
Continuous
 62
               7
100
AcDbLine
 10
7449.0000000007412
 20
-1117.8653428222599
 30
0.0
 11
7449.0000000007412
 21
-1032.8653428222599
 31
0.0
  0
MTEXT
  5
183
100
AcDbEntity
  8
template
390
0
 62
               7
100
AcDbMText
 10
7205.0000000007412
 20
-1041.2802646972598
 30
0.0
 40
16.288411458333332
 41
0.0
 71
               1
 72
               1
  1
容量
  7
ＭＳ ゴシック
 73
               1
 44
0.7828267384257843
  0
LINE
  5
184
100
AcDbEntity
  8
template
370
               5
390
0
  6
Continuous
 62
               7
100
AcDbLine
 10
7198.0000000007412
 20
-1117.8653428222599
 30
0.0
 11
7198.0000000007412
 21
-1032.8653428222599
 31
0.0
  0
MTEXT
  5
185
100
AcDbEntity
  8
template
390
0
 62
               7
100
AcDbMText
 10
6954.0000000007412
 20
-956.28026469725978
 30
0.0
 40
16.288411458333332
 41
0.0
 71
               1
 72
               1
  1
品番
  7
ＭＳ ゴシック
 73
               1
 44
0.7828267384257843
  0
MTEXT
  5
186
100
AcDbEntity
  8
template
390
0
 62
               7
100
AcDbMText
 10
6954.0000000007412
 20
-1041.2802646972598
 30
0.0
 40
16.288411458333332
 41
0.0
 71
               1
 72
               1
  1
重量
  7
ＭＳ ゴシック
 73
               1
 44
0.7828267384257843
  0
MTEXT
  5
187
100
AcDbEntity
  8
template
390
0
 62
               7
100
AcDbMText
 10
7007.0000000007412
 20
-984.86272563475995
 30
0.0
 40
24.432617187500004
 41
0.0
 71
               1
 72
               1
  1
ADF70-2501
  7
ＭＳ ゴシック
 73
               1
 44
0.7828267384257843
  0
LINE
  5
188
100
AcDbEntity
  8
template
370
               5
390
0
  6
Continuous
 62
               7
100
AcDbLine
 10
6947.0000000007412
 20
-1202.8653428222599
 30
0.0
 11
6947.0000000007412
 21
-947.86534282225989
 31
0.0
  0
MTEXT
  5
189
100
AcDbEntity
  8
template
390
0
 62
               7
100
AcDbMText
 10
5810.000000000482
 20
-984.86272563475995
 30
0.0
 40
24.432617187500004
 41
0.0
 71
               1
 72
               1
  1
洗面器 -CATALANO,Premium-
  7
ＭＳ ゴシック
 73
               1
 44
0.7828267384257843
  0
MTEXT
  5
18A
100
AcDbEntity
  8
template
390
0
 62
               7
100
AcDbMText
 10
5810.000000000482
 20
-1069.86272563476
 30
0.0
 40
24.432617187500004
 41
0.0
 71
               1
 72
               1
  1
壁掛け,カウンタ ー置き/オーバーフロー付き/壁取付ボルト付属/\P陶器/ホワイト
  7
ＭＳ ゴシック
 73
               1
 44
1.3047112307096407
  0
MTEXT
  5
18B
100
AcDbEntity
  8
notes
390
0
 62
               7
100
AcDbMText
 10
6666.2658986950537
 20
-599.85411126615259
 30
0.0
 40
24.432617187500004
 41
833.92979864183906
 71
               1
 72
               1
  1
＝φ30もしくはφ35の水栓取付用穴あけ加工を承ります。\P  必要な場合、ご注文の際にご指示ください。
  7
ＭＳ ゴシック
 11
0.0
 21
1.0
 31
0.0
 73
               1
 44
1.0437689845677123
  0
CIRCLE
  5
18C
100
AcDbEntity
  8
notes
370
               5
390
0
  6
STYLE_12
 62
               7
100
AcDbCircle
 10
6678.4605129021948
 20
-622.5055354149747
 30
0.0
 40
17.5
  0
DIMENSION
  5
18D
100
AcDbEntity
  8
notes
370
               5
390
0
  6
Continuous
 62
               7
100
AcDbDimension
  2
*D3
 10
5860.0
 20
-729.36297153393275
 30
0.0
 11
5860.0
 21
-229.36297153392735
 31
0.0
 71
               5
 72
               1
 41
1.0
 42
0.0
  3
tform線あり
100
AcDbAlignedDimension
 13
5988.4345932722545
 23
270.63702846607805
 33
0.0
 14
5988.4345932722545
 24
-729.36297153393275
 34
0.0
 50
90.0
100
AcDbRotatedDimension
1001
ACAD
1000
DSTYLE
1002
{
1070
             279
1070
               2
1070
             340
1005
39
1070
             147
1040
5.0
1002
}
  0
DIMENSION
  5
18E
100
AcDbEntity
  8
notes
370
               5
390
0
  6
Continuous
 62
               7
100
AcDbDimension
  2
*D4
 10
5986.4345932722545
 20
-829.36297153393275
 30
0.0
 11
6051.4345932722545
 21
-824.36297153393275
 31
0.0
 70
             128
 71
               5
 72
               1
 41
1.0
 42
0.0
  3
tform線あり
100
AcDbAlignedDimension
 13
6116.4345932722536
 23
-714.16297153393202
 33
0.0
 14
5986.4345932722545
 24
-725.40566143124556
 34
0.0
100
AcDbRotatedDimension
1001
ACAD
1000
DSTYLE
1002
{
1070
             279
1070
               2
1070
             340
1005
39
1070
             147
1040
5.0
1002
}
  0
DIMENSION
  5
18F
100
AcDbEntity
  8
notes
370
               5
390
0
  6
Continuous
 62
               7
100
AcDbDimension
  2
*D5
 10
6116.4345932722536
 20
-829.36297153393275
 30
0.0
 11
6275.2345932722546
 21
-824.36297153393275
 31
0.0
 70
             128
 71
               5
 72
               1
 41
1.0
 42
0.0
  3
tform線あり
100
AcDbAlignedDimension
 13
6446.4345932722545
 23
-712.16297153393202
 33
0.0
 14
6116.4345932722536
 24
-714.16297153393202
 34
0.0
100
AcDbRotatedDimension
1001
ACAD
1000
DSTYLE
1002
{
1070
             279
1070
               2
1070
             340
1005
39
1070
             147
1040
5.0
1002
}
  0
DIMENSION
  5
190
100
AcDbEntity
  8
notes
370
               5
390
0
  6
Continuous
 62
               7
100
AcDbDimension
  2
*D6
 10
5986.4345932722545
 20
370.63702846607805
 30
0.0
 11
6221.4345932722545
 21
370.63702846607805
 31
0.0
 71
               5
 72
               1
 41
1.0
 42
0.0
  3
tform線あり
100
AcDbAlignedDimension
 13
6456.4345932722554
 23
263.63702846607805
 33
0.0
 14
5986.4345932722545
 24
268.63702846607805
 34
0.0
100
AcDbRotatedDimension
1001
ACAD
1000
DSTYLE
1002
{
1070
             279
1070
               2
1070
             340
1005
39
1070
             147
1040
5.0
1002
}
  0
DIMENSION
  5
191
100
AcDbEntity
  8
notes
370
               5
390
0
  6
Continuous
 62
               7
100
AcDbDimension
  2
*D7
 10
6556.4345932722554
 20
-719.36297153393275
 30
0.0
 11
6556.4345932722554
 21
-229.36297153393275
 31
0.0
 71
               5
 72
               1
 41
1.0
 42
0.0
  3
tform線あり
100
AcDbAlignedDimension
 13
6449.4345932722554
 23
260.63702846606725
 33
0.0
 14
6449.4345932722536
 24
-719.36297153393275
 34
0.0
 50
90.0
100
AcDbRotatedDimension
1001
ACAD
1000
DSTYLE
1002
{
1070
             279
1070
               2
1070
             340
1005
39
1070
             147
1040
5.0
1002
}
  0
DIMENSION
  5
192
100
AcDbEntity
  8
notes
370
               5
390
0
  6
Continuous
 62
               7
100
AcDbDimension
  2
*D8
 10
7232.3567911558084
 20
-369.36297153378496
 30
0.0
 11
7232.3567911558084
 21
-229.36297153378501
 31
0.0
 71
               5
 72
               1
 41
1.0
 42
0.0
  3
tform線あり
100
AcDbAlignedDimension
 13
7352.3567911558084
 23
-89.362971533785071
 33
0.0
 14
7352.3567911558084
 24
-369.36297153378496
 34
0.0
 50
90.0
100
AcDbRotatedDimension
1001
ACAD
1000
DSTYLE
1002
{
1070
             279
1070
               2
1070
             340
1005
39
1070
             147
1040
5.0
1002
}
  0
DIMENSION
  5
193
100
AcDbEntity
  8
notes
370
               5
390
0
  6
Continuous
 62
               7
100
AcDbDimension
  2
*D9
 10
7372.3567911558084
 20
-803.0
 30
0.0
 11
7353.0
 21
-798.0
 31
0.0
 70
             128
 71
               5
 72
               1
 41
1.0
 42
0.0
  3
tform線あり
100
AcDbAlignedDimension
 13
7332.3567911558084
 23
-725.18148576689248
 33
0.0
 14
7372.3567911558084
 24
-549.36297153378496
 34
0.0
100
AcDbRotatedDimension
1001
ACAD
1000
DSTYLE
1002
{
1070
             279
1070
               2
1070
             340
1005
39
1070
             147
1040
5.0
1002
}
  0
MTEXT
  5
194
100
AcDbEntity
  8
notes
390
0
 62
               7
100
AcDbMText
 10
7239.4084112170358
 20
153.60598563118313
 30
0.0
 40
24.432617187500004
 41
0.0
 71
               1
 72
               1
  1
壁取付ボルト穴(4ヶ所)
  7
ＭＳ ゴシック
 11
0.0
 21
1.0
 31
0.0
 73
               1
 44
0.7828267384257843
  0
LINE
  5
195
100
AcDbEntity
  8
notes
370
               5
390
0
  6
Continuous
 62
               7
100
AcDbLine
 10
7372.3567911558084
 20
70.637028466214815
 30
0.0
 11
7269.4182702231992
 21
165.66947978975989
 31
0.0
  0
DIMENSION
  5
196
100
AcDbEntity
  8
notes
370
               5
390
0
  6
Continuous
 62
               7
100
AcDbDimension
  2
*D10
 10
7332.3567941442079
 20
370.29254283611942
 30
0.0
 11
7412.3567926500082
 21
375.29254283611942
 31
0.0
 70
             128
 71
               5
 72
               1
 41
1.0
 42
0.0
  3
tform線あり
100
AcDbAlignedDimension
 13
7492.3567911558084
 23
-196.35154043715045
 33
0.0
 14
7332.3567941442079
 24
263.6305602690835
 34
0.0
100
AcDbRotatedDimension
1001
ACAD
1000
DSTYLE
1002
{
1070
             279
1070
               2
1070
             340
1005
39
1070
             147
1040
5.0
1002
}
  0
DIMENSION
  5
197
100
AcDbEntity
  8
notes
370
               5
390
0
  6
Continuous
 62
               7
100
AcDbDimension
  2
*D11
 10
7332.3586845030986
 20
609.62298191636251
 30
0.0
 11
7397.35777361488
 21
609.62298191636251
 31
0.0
 71
               5
 72
               1
 41
1.0
 42
0.0
  3
tform線あり
100
AcDbAlignedDimension
 13
7462.3568627266623
 23
719.75868456683611
 33
0.0
 14
7332.3586845030986
 24
716.77037619383873
 34
0.0
100
AcDbRotatedDimension
1001
ACAD
1000
DSTYLE
1002
{
1070
             279
1070
               2
1070
             340
1005
39
1070
             147
1040
5.0
1002
}
  0
DIMENSION
  5
198
100
AcDbEntity
  8
notes
370
               5
390
0
  6
Continuous
 62
               7
100
AcDbDimension
  2
*D12
 10
7592.3568566678532
 20
1179.4218150670263
 30
0.0
 11
7592.3568566678532
 21
1071.9218150670263
 31
0.0
 71
               5
 72
               1
 41
1.0
 42
0.0
  3
tform線あり
100
AcDbAlignedDimension
 13
7492.356856405584
 23
964.42181506702627
 33
0.0
 14
7460.3568828191737
 24
1179.4218150670263
 34
0.0
 50
90.0
100
AcDbRotatedDimension
1001
ACAD
1000
DSTYLE
1002
{
1070
             279
1070
               2
1070
             340
1005
39
1070
             147
1040
5.0
1002
}
  0
DIMENSION
  5
199
100
AcDbEntity
  8
notes
370
               5
390
0
  6
Continuous
 62
               7
100
AcDbDimension
  2
*D13
 10
7232.3568601948728
 20
1114.4475170033809
 30
0.0
 11
7232.3568601948728
 21
1146.9475170033809
 31
0.0
 71
               5
 72
               1
 41
1.0
 42
0.0
  3
tform線あり
100
AcDbAlignedDimension
 13
7335.3568658035374
 23
1179.4475170033809
 33
0.0
 14
7332.356862858509
 24
1114.4475170033809
 34
0.0
 50
90.0
100
AcDbRotatedDimension
1001
ACAD
1000
DSTYLE
1002
{
1070
             279
1070
               2
1070
             340
1005
39
1070
             147
1040
5.0
1002
}
  0
DIMENSION
  5
19A
100
AcDbEntity
  8
notes
370
               5
390
0
  6
Continuous
 62
               7
100
AcDbDimension
  2
*D14
 10
7332.3568565523146
 20
973.00120631128971
 30
0.0
 11
7321.5157183274787
 21
978.00120631128971
 31
0.0
 70
             128
 71
               5
 72
               1
 41
1.0
 42
0.0
  3
tfrom線あり
100
AcDbAlignedDimension
 13
7442.3568565523146
 23
967.77860852858157
 33
0.0
 14
7332.3568565523146
 24
967.77860852858157
 34
0.0
100
AcDbRotatedDimension
1001
ACAD
1000
DSTYLE
1002
{
1070
             279
1070
               2
1070
             340
1005
39
1070
               3
1000
<>(深さ)
1070
             174
1070
               0
1070
             147
1040
5.0
1002
}
  0
MTEXT
  5
19B
100
AcDbEntity
  8
notes
390
0
 62
               7
100
AcDbMText
 10
5827.260295744758
 20
761.11789262923799
 30
0.0
 40
24.432617187500004
 41
0.0
 71
               1
 72
               1
  1
カウンター切込寸法
  7
ＭＳ ゴシック
 11
0.0
 21
1.0
 31
0.0
 73
               1
 44
0.7828267384257843
  0
MTEXT
  5
19C
100
AcDbEntity
  8
notes
390
0
 62
               7
100
AcDbMText
 10
6658.135295744758
 20
508.99289262923793
 30
0.0
 40
24.432617187500004
 41
801.00710737076201
 71
               1
 72
               1
  1
※陶器製品には寸法公差があります。\P  洗面器の収め方をご確認の上、必ず現物を合わせて\P  カウンターに切込を行ってください。\P※カウンター切込寸法は、水栓穴の数や位置にあわせて\P　変更してください。
  7
ＭＳ ゴシック
 11
0.0
 21
1.0
 31
0.0
 73
               1
 44
1.0437689845677123
  0
MTEXT
  5
19D
100
AcDbEntity
  8
notes
390
0
 62
               7
100
AcDbMText
 10
5925.9387728722322
 20
766.83286571694748
 30
0.0
 40
24.432617187500004
 41
0.0
 71
               1
 72
               1
  1
カウンター置き
  7
ＭＳ ゴシック
 11
0.0
 21
1.0
 31
0.0
 73
               1
 44
0.7828267384257843
  0
LINE
  5
19E
100
AcDbEntity
  8
notes
370
               5
390
0
  6
Continuous
 62
               7
100
AcDbLine
 10
6016.8100874401644
 20
778.99289262923799
 30
0.0
 11
5956.0590991043446
 21
778.99289262923799
 31
0.0
  0
DIMENSION
  5
19F
100
AcDbEntity
  8
notes
370
               5
390
0
  6
Continuous
 62
               7
100
AcDbDimension
  2
*D15
 10
6360.2629129322577
 20
599.99289262924344
 30
0.0
 11
6360.2629129322577
 21
899.99289262924344
 31
0.0
 71
               5
 72
               1
 41
1.0
 42
0.0
  3
tform線あり
100
AcDbAlignedDimension
 13
6266.4345932722545
 23
1199.9928926292434
 33
0.0
 14
6266.4345932722545
 24
599.99289262924344
 34
0.0
 50
90.0
100
AcDbRotatedDimension
1001
ACAD
1000
DSTYLE
1002
{
1070
             279
1070
               2
1070
             340
1005
39
1070
             147
1040
5.0
1002
}
  0
DIMENSION
  5
1A0
100
AcDbEntity
  8
notes
370
               5
390
0
  6
Continuous
 62
               7
100
AcDbDimension
  2
*D16
 10
6266.4345932722545
 20
1254.0
 30
0.0
 11
6141.4345932722545
 21
1254.0
 31
0.0
 71
               5
 72
               1
 41
1.0
 42
0.0
  3
tform線あり
100
AcDbAlignedDimension
 13
6016.4345932722545
 23
1199.9928926292434
 33
0.0
 14
6266.4345932722545
 24
1199.9928926292434
 34
0.0
100
AcDbRotatedDimension
1001
ACAD
1000
DSTYLE
1002
{
1070
             279
1070
               2
1070
             340
1005
39
1070
             147
1040
5.0
1002
}
  0
DIMENSION
  5
1A1
100
AcDbEntity
  8
notes
370
               5
390
0
  6
Continuous
 62
               7
100
AcDbDimension
  2
*D17
 10
6016.4345932722545
 20
1254.0
 30
0.0
 11
6001.4345932722545
 21
1254.0
 31
0.0
 71
               5
 72
               1
 41
1.0
 42
0.0
  3
tform線あり
100
AcDbAlignedDimension
 13
5986.4345932722545
 23
1053.992892629238
 33
0.0
 14
6016.4345932722545
 24
1049.9928926292434
 34
0.0
100
AcDbRotatedDimension
1001
ACAD
1000
DSTYLE
1002
{
1070
             279
1070
               2
1070
             340
1005
39
1070
             147
1040
5.0
1002
}
  0
DIMENSION
  5
1A2
100
AcDbEntity
  8
notes
370
               5
390
0
  6
Continuous
 62
               7
100
AcDbDimension
  2
*D18
 10
7232.3567911558084
 20
-369.36297153378496
 30
0.0
 11
7232.3567911558084
 21
-449.36297153378496
 31
0.0
 71
               5
 72
               1
 41
1.0
 42
0.0
  3
tform線あり
100
AcDbAlignedDimension
 13
7352.3567911558084
 23
-529.36297153378496
 33
0.0
 14
7352.3567911558084
 24
-369.36297153378496
 34
0.0
 50
90.0
100
AcDbRotatedDimension
1001
ACAD
1000
DSTYLE
1002
{
1070
             279
1070
               2
1070
             340
1005
39
1070
             147
1040
5.0
1002
}
  0
DIMENSION
  5
1A3
100
AcDbEntity
  8
notes
370
               5
390
0
  6
Continuous
 62
               7
100
AcDbDimension
  2
*D19
 10
7232.3567911558084
 20
-89.362971533785071
 30
0.0
 11
7232.3567911558084
 21
-9.3629715337850712
 31
0.0
 71
               5
 72
               1
 41
1.0
 42
0.0
  3
tform線あり
100
AcDbAlignedDimension
 13
7352.3567911558084
 23
70.637028466214929
 33
0.0
 14
7352.3567911558084
 24
-89.362971533785071
 34
0.0
 50
90.0
100
AcDbRotatedDimension
1001
ACAD
1000
DSTYLE
1002
{
1070
             279
1070
               2
1070
             340
1005
39
1070
             147
1040
5.0
1002
}
  0
DIMENSION
  5
1A4
100
AcDbEntity
  8
notes
370
               5
390
0
  6
Continuous
 62
               7
100
AcDbDimension
  2
*D20
 10
5940.0
 20
-129.36297153393286
 30
0.0
 11
5940.0
 21
-179.36297153393105
 31
0.0
 71
               5
 72
               1
 41
1.0
 42
0.0
  3
tform線あり
100
AcDbAlignedDimension
 13
6036.3089077395707
 23
-229.36297153392923
 33
0.0
 14
6037.8089077395798
 24
-129.36297153393286
 34
0.0
 50
90.0
100
AcDbRotatedDimension
1001
ACAD
1000
DSTYLE
1002
{
1070
             279
1070
               2
1070
             340
1005
39
1070
             147
1040
5.0
1002
}
  0
DIMENSION
  5
1A5
100
AcDbEntity
  8
notes
370
               5
390
0
  6
Continuous
 62
               7
100
AcDbDimension
  2
*D21
 10
5940.0
 20
-229.36297153392923
 30
0.0
 11
5940.0
 21
-279.36297153392923
 31
0.0
 71
               5
 72
               1
 41
1.0
 42
0.0
  3
tform線あり
100
AcDbAlignedDimension
 13
6037.8089077395707
 23
-329.36297153392923
 33
0.0
 14
6036.3089077395707
 24
-229.36297153392923
 34
0.0
 50
90.0
100
AcDbRotatedDimension
1001
ACAD
1000
DSTYLE
1002
{
1070
             279
1070
               2
1070
             340
1005
39
1070
             147
1040
5.0
1002
}
  0
MTEXT
  5
1A6
100
AcDbEntity
  8
notes
390
0
 62
               7
100
AcDbMText
 10
7007.0000000007412
 20
-1069.86272563476
 30
0.0
 40
24.432617187500004
 41
0.0
 71
               1
 72
               1
  1
28kg
  7
ＭＳ ゴシック
 73
               1
 44
0.7828267384257843
  0
CIRCLE
  5
1A7
100
AcDbEntity
  8
notes
370
              15
390
0
  6
STYLE_01
 62
               7
100
AcDbCircle
 10
6053.8089077395798
 20
25.637028466067136
 30
0.0
 40
16.0
  0
DIMENSION
  5
1A8
100
AcDbEntity
  8
notes
370
               5
390
0
  6
Continuous
 62
               7
100
AcDbDimension
  2
*D22
 10
5940.0
 20
-129.36297153393286
 30
0.0
 11
5940.0
 21
-51.862971533932864
 31
0.0
 71
               5
 72
               1
 41
1.0
 42
0.0
  3
tform線あり
100
AcDbAlignedDimension
 13
6037.8089077395798
 23
25.637028466067136
 33
0.0
 14
6037.8089077395798
 24
-129.36297153393286
 34
0.0
 50
90.0
100
AcDbRotatedDimension
1001
ACAD
1000
DSTYLE
1002
{
1070
             279
1070
               2
1070
             340
1005
39
1070
             147
1040
5.0
1002
}
  0
CIRCLE
  5
1A9
100
AcDbEntity
  8
notes
370
              15
390
0
  6
STYLE_01
 62
               7
100
AcDbCircle
 10
6053.8089077395707
 20
-484.36297153392923
 30
0.0
 40
16.0
  0
DIMENSION
  5
1AA
100
AcDbEntity
  8
notes
370
               5
390
0
  6
Continuous
 62
               7
100
AcDbDimension
  2
*D23
 10
5940.0
 20
-329.36297153392923
 30
0.0
 11
5940.0
 21
-406.86297153392923
 31
0.0
 71
               5
 72
               1
 41
1.0
 42
0.0
  3
tform線あり
100
AcDbAlignedDimension
 13
6037.8089077395707
 23
-484.36297153392923
 33
0.0
 14
6037.8089077395707
 24
-329.36297153392923
 34
0.0
 50
90.0
100
AcDbRotatedDimension
1001
ACAD
1000
DSTYLE
1002
{
1070
             279
1070
               2
1070
             340
1005
39
1070
             147
1040
5.0
1002
}
  0
CIRCLE
  5
1AB
100
AcDbEntity
  8
notes
370
              15
390
0
  6
STYLE_01
 62
               7
100
AcDbCircle
 10
6053.8089077395798
 20
1149.992892629238
 30
0.0
 40
16.0
  0
CIRCLE
  5
1AC
100
AcDbEntity
  8
notes
370
              15
390
0
  6
STYLE_01
 62
               7
100
AcDbCircle
 10
6053.8089077395707
 20
649.99289262924162
 30
0.0
 40
16.0
  0
LINE
  5
1AD
100
AcDbEntity
  8
ADF70-2501
370
              15
390
0
  6
STYLE_01
 62
               7
100
AcDbLine
 10
5986.4345932722545
 20
1297.9928926292507
 30
0.0
 11
5986.4345932722545
 21
501.99289262923969
 31
0.0
  0
ARC
  5
1AE
100
AcDbEntity
  8
ADF70-2501
370
              15
390
0
  6
STYLE_01
 62
               7
100
AcDbCircle
 10
5988.4345932722545
 20
501.99289262923969
 30
0.0
 40
2.0
100
AcDbArc
 50
180.0
 51
270.0
  0
LINE
  5
1AF
100
AcDbEntity
  8
ADF70-2501
370
              15
390
0
  6
STYLE_01
 62
               7
100
AcDbLine
 10
6456.4345932722545
 20
506.99289262923969
 30
0.0
 11
6456.4345932722554
 21
1292.9928926292507
 31
0.0
  0
LINE
  5
1B0
100
AcDbEntity
  8
ADF70-2501
370
              15
390
0
  6
STYLE_01
 62
               7
100
AcDbLine
 10
5988.4345932722545
 20
1299.9928926292507
 30
0.0
 11
6449.4345932722554
 21
1299.9928926292507
 31
0.0
  0
ARC
  5
1B1
100
AcDbEntity
  8
ADF70-2501
370
              15
390
0
  6
STYLE_01
 62
               7
100
AcDbCircle
 10
5988.4345932722545
 20
1297.9928926292507
 30
0.0
 40
2.0
100
AcDbArc
 50
90.0
 51
180.0
  0
ARC
  5
1B2
100
AcDbEntity
  8
ADF70-2501
370
              15
390
0
  6
STYLE_01
 62
               7
100
AcDbCircle
 10
6449.4345932722554
 20
1292.9928926292507
 30
0.0
 40
7.0
100
AcDbArc
 50
0.0
 51
90.0
  0
LINE
  5
1B3
100
AcDbEntity
  8
ADF70-2501
370
              15
390
0
  6
STYLE_01
 62
               7
100
AcDbLine
 10
5988.4345932722545
 20
499.99289262923969
 30
0.0
 11
6449.4345932722545
 21
499.99289262923969
 31
0.0
  0
ARC
  5
1B4
100
AcDbEntity
  8
ADF70-2501
370
              15
390
0
  6
STYLE_01
 62
               7
100
AcDbCircle
 10
6449.4345932722545
 20
506.99289262923969
 30
0.0
 40
7.0
100
AcDbArc
 50
270.0
 51
0.0
  0
LINE
  5
1B5
100
AcDbEntity
  8
ADF70-2501
370
              15
390
0
  6
Continuous
 62
               7
100
AcDbLine
 10
7332.3567931791667
 20
-722.36829386186787
 30
0.0
 11
7332.3567931791667
 21
263.64235079429784
 31
0.0
  0
LINE
  5
1B6
100
AcDbEntity
  8
ADF70-2501
370
              15
390
0
  6
Continuous
 62
               7
100
AcDbLine
 10
5986.4345932722545
 20
268.63702846607805
 30
0.0
 11
5986.4345932722545
 21
-727.36297153393275
 31
0.0
  0
ARC
  5
1B7
100
AcDbEntity
  8
ADF70-2501
370
              15
390
0
  6
Continuous
 62
               7
100
AcDbCircle
 10
5988.4345932722545
 20
-727.36297153393275
 30
0.0
 40
2.0
100
AcDbArc
 50
180.0
 51
270.0
  0
ARC
  5
1B8
100
AcDbEntity
  8
ADF70-2501
370
              15
390
0
  6
Continuous
 62
               7
100
AcDbCircle
 10
6200.9937940574473
 20
-229.36297153392559
 30
0.0
 40
22.5
100
AcDbArc
 50
179.99999999979156
 51
359.99999999926814
  0
ARC
  5
1B9
100
AcDbEntity
  8
ADF70-2501
370
              15
390
0
  6
Continuous
 62
               7
100
AcDbCircle
 10
6200.9937940574473
 20
-229.36297153392559
 30
0.0
 40
37.5
100
AcDbArc
 50
179.99999999979156
 51
359.99999999926916
  0
LINE
  5
1BA
100
AcDbEntity
  8
ADF70-2501
370
              15
390
0
  6
Continuous
 62
               7
100
AcDbLine
 10
6116.4345932722545
 20
-229.36297153392195
 30
0.0
 11
6116.4345932722536
 21
-714.16297153393202
 31
0.0
  0
ARC
  5
1BB
100
AcDbEntity
  8
ADF70-2501
370
              15
390
0
  6
Continuous
 62
               7
100
AcDbCircle
 10
6124.4345932722536
 20
-714.16297153393202
 30
0.0
 40
8.0
100
AcDbArc
 50
180.0
 51
270.0
  0
LINE
  5
1BC
100
AcDbEntity
  8
ADF70-2501
370
              15
390
0
  6
Continuous
 62
               7
100
AcDbLine
 10
6456.4345932722536
 20
-722.36297153393275
 30
0.0
 11
6456.4345932722554
 21
263.63702846607805
 31
0.0
  0
LINE
  5
1BD
100
AcDbEntity
  8
ADF70-2501
370
              15
390
0
  6
Continuous
 62
               7
100
AcDbLine
 10
5988.4345932722545
 20
270.63702846607805
 30
0.0
 11
6449.4345932722554
 21
270.63702846607805
 31
0.0
  0
ARC
  5
1BE
100
AcDbEntity
  8
ADF70-2501
370
              15
390
0
  6
Continuous
 62
               7
100
AcDbCircle
 10
5988.4345932722545
 20
268.63702846607805
 30
0.0
 40
2.0
100
AcDbArc
 50
90.0
 51
180.0
  0
ARC
  5
1BF
100
AcDbEntity
  8
ADF70-2501
370
              15
390
0
  6
Continuous
 62
               7
100
AcDbCircle
 10
6449.4345932722554
 20
263.63702846607805
 30
0.0
 40
7.0
100
AcDbArc
 50
0.0
 51
90.0
  0
ARC
  5
1C0
100
AcDbEntity
  8
ADF70-2501
370
              15
390
0
  6
Continuous
 62
               7
100
AcDbCircle
 10
6200.9937940574473
 20
-229.36297153392559
 30
0.0
 40
22.5
100
AcDbArc
 50
0.0000000002084408
 51
179.99999999979156
  0
ARC
  5
1C1
100
AcDbEntity
  8
ADF70-2501
370
              15
390
0
  6
Continuous
 62
               7
100
AcDbCircle
 10
6200.9937940574473
 20
-229.36297153392559
 30
0.0
 40
37.5
100
AcDbArc
 50
0.0000000002084408
 51
179.99999999979156
  0
LINE
  5
1C2
100
AcDbEntity
  8
ADF70-2501
370
              15
390
0
  6
Continuous
 62
               7
100
AcDbLine
 10
6131.5250093872564
 20
191.62626057245248
 30
0.0
 11
6123.1125586612006
 21
256.75906307713115
 31
0.0
  0
LINE
  5
1C3
100
AcDbEntity
  8
ADF70-2501
370
              15
390
0
  6
Continuous
 62
               7
100
AcDbLine
 10
6377.4860319247873
 20
191.62626057245248
 30
0.0
 11
6442.5566278833085
 21
256.75906307713115
 31
0.0
  0
LINE
  5
1C4
100
AcDbEntity
  8
ADF70-2501
370
              15
390
0
  6
Continuous
 62
               7
100
AcDbLine
 10
6116.4345932722545
 20
-229.36297153392195
 30
0.0
 11
6116.4345932722536
 21
255.43702846607735
 31
0.0
  0
ARC
  5
1C5
100
AcDbEntity
  8
ADF70-2501
370
              15
390
0
  6
Continuous
 62
               7
100
AcDbCircle
 10
6124.4345932722536
 20
255.43702846607735
 30
0.0
 40
8.0
100
AcDbArc
 50
90.0
 51
180.0
  0
LINE
  5
1C6
100
AcDbEntity
  8
ADF70-2501
370
              15
390
0
  6
Continuous
 62
               7
100
AcDbLine
 10
6131.5250093872564
 20
-650.35220364029442
 30
0.0
 11
6123.1125586612006
 21
-715.48500614498585
 31
0.0
  0
LINE
  5
1C7
100
AcDbEntity
  8
ADF70-2501
370
              15
390
0
  6
Continuous
 62
               7
100
AcDbLine
 10
6377.4860319247873
 20
-650.35220364029442
 30
0.0
 11
6442.5566278833085
 21
-715.48500614498585
 31
0.0
  0
LINE
  5
1C8
100
AcDbEntity
  8
ADF70-2501
370
              15
390
0
  6
Continuous
 62
               7
100
AcDbLine
 10
7462.3567911558093
 20
-721.27371837360283
 30
0.0
 11
7462.3567911558093
 21
262.54777530602541
 31
0.0
  0
LINE
  5
1C9
100
AcDbEntity
  8
ADF70-2501
370
              15
390
0
  6
Continuous
 62
               7
100
AcDbLine
 10
7489.6182583840518
 20
-265.3629563428625
 30
0.0
 11
7462.3567911558084
 21
-267.74804281775721
 31
0.0
  0
ARC
  5
1CA
100
AcDbEntity
  8
ADF70-2501
370
              15
390
0
  6
Continuous
 62
               7
100
AcDbCircle
 10
7489.3567911558084
 20
-262.37434186674409
 30
0.0
 40
3.000000000000183
100
AcDbArc
 50
275.00000000044412
 51
0.0000000002084448
  0
LINE
  5
1CB
100
AcDbEntity
  8
ADF70-2501
370
              15
390
0
  6
Continuous
 62
               7
100
AcDbLine
 10
7492.3567911558084
 20
-196.35154043713953
 30
0.0
 11
7492.3567911558084
 21
-262.37440263043061
 31
0.0
  0
ARC
  5
1CC
100
AcDbEntity
  8
ADF70-2501
370
              15
390
0
  6
Continuous
 62
               7
100
AcDbCircle
 10
7489.3567911558084
 20
-262.37434186674409
 30
0.0
 40
3.000000000000183
100
AcDbArc
 50
275.00000000044412
 51
0.0000000002084448
  0
LINE
  5
1CD
100
AcDbEntity
  8
ADF70-2501
370
              15
390
0
  6
Continuous
 62
               7
100
AcDbLine
 10
7489.6182583840518
 20
-193.36292596102101
 30
0.0
 11
7462.3567911558084
 21
-190.97785662746753
 31
0.0
  0
ARC
  5
1CE
100
AcDbEntity
  8
ADF70-2501
370
              15
390
0
  6
Continuous
 62
               7
100
AcDbCircle
 10
7489.3567911558084
 20
-196.35154043713965
 30
0.0
 40
3.0
100
AcDbArc
 50
359.99999999979156
 51
84.999999999555882
  0
ARC
  5
1CF
100
AcDbEntity
  8
ADF70-2501
370
              15
390
0
  6
Continuous
 62
               7
100
AcDbCircle
 10
7489.3567911558084
 20
-196.35154043713965
 30
0.0
 40
3.0
100
AcDbArc
 50
359.99999999979156
 51
84.999999999555882
  0
LINE
  5
1D0
100
AcDbEntity
  8
ADF70-2501
370
              15
390
0
  6
Continuous
 62
               7
100
AcDbLine
 10
6131.5250093872564
 20
185.62626057247431
 30
0.0
 11
6131.5250093872564
 21
-644.35220364031625
 31
0.0
  0
LINE
  5
1D1
100
AcDbEntity
  8
ADF70-2501
370
              15
390
0
  6
Continuous
 62
               7
100
AcDbLine
 10
6137.5250093872564
 20
-650.35220364029442
 30
0.0
 11
6371.4860319247873
 21
-650.35220364029442
 31
0.0
  0
LINE
  5
1D2
100
AcDbEntity
  8
ADF70-2501
370
              15
390
0
  6
Continuous
 62
               7
100
AcDbLine
 10
6137.5250093872564
 20
191.62626057245248
 30
0.0
 11
6371.4860319247873
 21
191.62626057245248
 31
0.0
  0
LINE
  5
1D3
100
AcDbEntity
  8
ADF70-2501
370
              15
390
0
  6
Continuous
 62
               7
100
AcDbLine
 10
6377.4860319247873
 20
185.62626057245248
 30
0.0
 11
6377.4860319247873
 21
-644.35220364031625
 31
0.0
  0
ARC
  5
1D4
100
AcDbEntity
  8
ADF70-2501
370
              15
390
0
  6
Continuous
 62
               7
100
AcDbCircle
 10
6137.5250093872564
 20
-644.35220364029442
 30
0.0
 40
6.0
100
AcDbArc
 50
180.00000000020844
 51
270.0
  0
ARC
  5
1D5
100
AcDbEntity
  8
ADF70-2501
370
              15
390
0
  6
Continuous
 62
               7
100
AcDbCircle
 10
6371.4860319247873
 20
-644.35220364029442
 30
0.0
 40
6.0
100
AcDbArc
 50
270.0
 51
359.99999999979156
  0
ARC
  5
1D6
100
AcDbEntity
  8
ADF70-2501
370
              15
390
0
  6
Continuous
 62
               7
100
AcDbCircle
 10
6371.4860319247873
 20
185.62626057245248
 30
0.0
 40
6.0
100
AcDbArc
 50
0.0
 51
89.999999999765521
  0
ARC
  5
1D7
100
AcDbEntity
  8
ADF70-2501
370
              15
390
0
  6
Continuous
 62
               7
100
AcDbCircle
 10
6137.5250093872564
 20
185.62626057245248
 30
0.0
 40
6.0
100
AcDbArc
 50
90.0
 51
179.99999999979156
  0
CIRCLE
  5
1D8
100
AcDbEntity
  8
ADF70-2501
370
              15
390
0
  6
STYLE_01
 62
               7
100
AcDbCircle
 10
6053.8089077395707
 20
-229.36297153392923
 30
0.0
 40
17.5
  0
CIRCLE
  5
1D9
100
AcDbEntity
  8
ADF70-2501
370
              15
390
0
  6
STYLE_01
 62
               7
100
AcDbCircle
 10
6053.8089077395707
 20
-329.36297153392923
 30
0.0
 40
16.0
  0
CIRCLE
  5
1DA
100
AcDbEntity
  8
ADF70-2501
370
              15
390
0
  6
STYLE_01
 62
               7
100
AcDbCircle
 10
6053.8089077395798
 20
-129.36297153393286
 30
0.0
 40
16.0
  0
SPLINE
  5
1DB
100
AcDbEntity
  8
ADF70-2501
370
              15
390
0
  6
Continuous
 62
               7
100
AcDbSpline
210
0.0
220
0.0
230
1.0
 70
               9
 71
               2
 72
              26
 73
              23
 74
               0
 42
0.000001
 43
0.000001
 40
0.0
 40
0.0
 40
0.0
 40
1.0
 40
2.0
 40
3.0
 40
4.0
 40
4.0
 40
5.0
 40
6.0
 40
7.0
 40
8.0
 40
9.0
 40
9.0
 40
10.0
 40
11.0
 40
12.0
 40
13.0
 40
13.0
 40
14.0
 40
15.0
 40
16.0
 40
17.0
 40
18.0
 40
18.0
 40
18.0
 10
6119.496696495662
 20
-241.3629867248427
 30
0.0
 10
6119.7152543035245
 20
-241.21837663766462
 30
0.0
 10
6119.9928995657829
 20
-240.09135135068107
 30
0.0
 10
6120.1820137294735
 20
-238.51329226117821
 30
0.0
 10
6120.5689247514119
 20
-233.5951278188503
 30
0.0
 10
6120.5465604579731
 20
-229.3629867248427
 30
0.0
 10
6120.5487605181897
 20
-226.91403633090056
 30
0.0
 10
6120.3917648277329
 20
-222.68707468886794
 30
0.0
 10
6120.1820137294735
 20
-220.21268118850537
 30
0.0
 10
6119.9951591448462
 20
-218.64204121720002
 30
0.0
 10
6119.7152543035254
 20
-217.50759681202078
 30
0.0
 10
6119.496696495662
 20
-217.3629867248427
 30
0.0
 10
6119.2781386877996
 20
-217.50759681202078
 30
0.0
 10
6119.0004934255412
 20
-218.63462209900251
 30
0.0
 10
6118.8113792618515
 20
-220.21268118850537
 30
0.0
 10
6118.4244682399112
 20
-225.1308456308351
 30
0.0
 10
6118.446832533351
 20
-229.3629867248427
 30
0.0
 10
6118.4446324731343
 20
-231.81193711878302
 30
0.0
 10
6118.6016281635912
 20
-236.03889876082292
 30
0.0
 10
6118.8113792618515
 20
-238.51329226118003
 30
0.0
 10
6118.9982338464779
 20
-240.08393223248174
 30
0.0
 10
6119.2781386877996
 20
-241.21837663766462
 30
0.0
 10
6119.496696495662
 20
-241.3629867248427
 30
0.0
  0
ARC
  5
1DC
100
AcDbEntity
  8
ADF70-2501
370
              15
390
0
  6
Continuous
 62
               7
100
AcDbCircle
 10
7466.3302765767667
 20
-277.43863469559835
 30
0.0
 40
10.000000000000785
100
AcDbArc
 50
95.000000000216502
 51
99.701452068578178
  0
LINE
  5
1DD
100
AcDbEntity
  8
ADF70-2501
370
              15
390
0
  6
Continuous
 62
               7
100
AcDbLine
 10
6449.2345932722546
 20
253.43702846607917
 30
0.0
 11
6449.2345932722546
 21
-712.16297153393202
 31
0.0
  0
LINE
  5
1DE
100
AcDbEntity
  8
ADF70-2501
370
              15
390
0
  6
Continuous
 62
               7
100
AcDbLine
 10
6124.4345932722536
 20
263.43702846607732
 30
0.0
 11
6439.2345932722546
 21
263.43702846607914
 31
0.0
  0
ARC
  5
1DF
100
AcDbEntity
  8
ADF70-2501
370
              15
390
0
  6
Continuous
 62
               7
100
AcDbCircle
 10
6439.2345932722546
 20
253.43702846607917
 30
0.0
 40
10.0
100
AcDbArc
 50
0.0
 51
90.0
  0
LINE
  5
1E0
100
AcDbEntity
  8
ADF70-2501
370
              15
390
0
  6
Continuous
 62
               7
100
AcDbLine
 10
5988.4345932722545
 20
-729.36297153393275
 30
0.0
 11
6449.4345932722536
 21
-729.36297153393275
 31
0.0
  0
ARC
  5
1E1
100
AcDbEntity
  8
ADF70-2501
370
              15
390
0
  6
Continuous
 62
               7
100
AcDbCircle
 10
6449.4345932722536
 20
-722.36297153393275
 30
0.0
 40
7.0
100
AcDbArc
 50
270.0
 51
0.0
  0
LINE
  5
1E2
100
AcDbEntity
  8
ADF70-2501
370
              15
390
0
  6
Continuous
 62
               7
100
AcDbLine
 10
6124.4345932722536
 20
-722.16297153393202
 30
0.0
 11
6439.2345932722546
 21
-722.16297153393202
 31
0.0
  0
ARC
  5
1E3
100
AcDbEntity
  8
ADF70-2501
370
              15
390
0
  6
Continuous
 62
               7
100
AcDbCircle
 10
6439.2345932722546
 20
-712.16297153393202
 30
0.0
 40
10.0
100
AcDbArc
 50
270.0
 51
0.0
  0
ARC
  5
1E4
100
AcDbEntity
  8
ADF70-2501
370
              15
390
0
  6
Continuous
 62
               7
100
AcDbCircle
 10
7339.3567911558084
 20
-722.36297153378496
 30
0.0
 40
6.9999999999995159
100
AcDbArc
 50
175.21252669094042
 51
271.49999999998983
  0
ARC
  5
1E5
100
AcDbEntity
  8
ADF70-2501
370
              15
390
0
  6
Continuous
 62
               7
100
AcDbCircle
 10
7457.3567911558093
 20
-721.27371837360283
 30
0.0
 40
4.999999999999627
100
AcDbArc
 50
271.49999999998983
 51
0.0
  0
LINE
  5
1E6
100
AcDbEntity
  8
ADF70-2501
370
              15
390
0
  6
Continuous
 62
               7
100
AcDbLine
 10
7339.5400297939632
 20
-729.36057280861337
 30
0.0
 11
7457.4876758973487
 21
-726.27200499848027
 31
0.0
  0
ARC
  5
1E7
100
AcDbEntity
  8
ADF70-2501
370
              15
390
0
  6
Continuous
 62
               7
100
AcDbCircle
 10
7339.3567911558084
 20
263.63702846620754
 30
0.0
 40
6.9999999999994786
100
AcDbArc
 50
88.500000000010218
 51
184.78747328180611
  0
ARC
  5
1E8
100
AcDbEntity
  8
ADF70-2501
370
              15
390
0
  6
Continuous
 62
               7
100
AcDbCircle
 10
7457.3567911558093
 20
262.54777530602541
 30
0.0
 40
5.0
100
AcDbArc
 50
0.0
 51
88.500000000010232
  0
LINE
  5
1E9
100
AcDbEntity
  8
ADF70-2501
370
              15
390
0
  6
Continuous
 62
               7
100
AcDbLine
 10
7339.5400297939632
 20
270.63462974103606
 30
0.0
 11
7457.4876758973487
 21
267.54606193089933
 31
0.0
  0
LINE
  5
1EA
100
AcDbEntity
  8
ADF70-2501
370
              15
390
0
  6
Continuous
 62
               7
100
AcDbLine
 10
7332.356845573383
 20
716.60993419699162
 30
0.0
 11
7332.3568603613776
 21
1054.9198247218342
 31
0.0
  0
LINE
  5
1EB
100
AcDbEntity
  8
ADF70-2501
370
              15
390
0
  6
Continuous
 62
               7
100
AcDbLine
 10
7460.3568828191737
 20
1179.4218150670263
 30
0.0
 11
7335.3568658035374
 21
1179.4218375465921
 31
0.0
  0
LINE
  5
1EC
100
AcDbEntity
  8
ADF70-2501
370
              15
390
0
  6
Continuous
 62
               7
100
AcDbLine
 10
7462.3568827317513
 20
1177.4218149796056
 30
0.0
 11
7462.3568627266623
 21
719.75868456683611
 31
0.0
  0
ARC
  5
1ED
100
AcDbEntity
  8
ADF70-2501
370
              15
390
0
  6
Continuous
 62
               7
100
AcDbCircle
 10
7460.3568827317513
 20
1177.4218150670263
 30
0.0
 40
2.0000000000000018
100
AcDbArc
 50
359.99999749558344
 51
89.999997495374927
  0
LINE
  5
1EE
100
AcDbEntity
  8
ADF70-2501
370
              15
390
0
  6
STYLE_01
 62
               7
100
AcDbLine
 10
7453.9263290900044
 20
964.86263054388155
 30
0.0
 11
7453.9263280553196
 21
941.19182422871063
 31
0.0
  0
LINE
  5
1EF
100
AcDbEntity
  8
ADF70-2501
370
              15
390
0
  6
STYLE_01
 62
               7
100
AcDbLine
 10
7453.9263301246874
 20
988.53343892842213
 30
0.0
 11
7453.9263290900044
 21
964.86263054388155
 31
0.0
  0
LINE
  5
1F0
100
AcDbEntity
  8
ADF70-2501
370
              15
390
0
  6
STYLE_01
 62
               7
100
AcDbLine
 10
7355.3569089548937
 20
1047.4095931311663
 30
0.0
 11
7379.3568599413129
 21
1045.309868437575
 31
0.0
  0
LINE
  5
1F1
100
AcDbEntity
  8
ADF70-2501
370
              15
390
0
  6
Continuous
 62
               7
100
AcDbLine
 10
7332.356865672401
 20
1176.4218376777267
 30
0.0
 11
7332.3568603613776
 21
1054.9198247218342
 31
0.0
  0
ARC
  5
1F2
100
AcDbEntity
  8
ADF70-2501
370
              15
390
0
  6
Continuous
 62
               7
100
AcDbCircle
 10
7335.356865672401
 20
1176.4218375465921
 30
0.0
 40
3.0000000000000031
100
AcDbArc
 50
89.999997495479207
 51
179.99999749547919
  0
LINE
  5
1F3
100
AcDbEntity
  8
ADF70-2501
370
              15
390
0
  6
STYLE_01
 62
               7
100
AcDbLine
 10
7332.3568455739032
 20
716.62183767772922
 30
0.0
 11
7332.356845573383
 21
716.6099345029711
 31
0.0
  0
ARC
  5
1F4
100
AcDbEntity
  8
ADF70-2501
370
              15
390
0
  6
Continuous
 62
               7
100
AcDbCircle
 10
7489.3568793761979
 20
997.06713902107231
 30
0.0
 40
2.9999784564927641
100
AcDbArc
 50
0.0005414609093503
 51
83.117730417293373
  0
ARC
  5
1F5
100
AcDbEntity
  8
ADF70-2501
370
              15
390
0
  6
Continuous
 62
               7
100
AcDbCircle
 10
7489.3569087568567
 20
932.66611112602777
 30
0.0
 40
2.9999462610614422
100
AcDbArc
 50
273.87860633973884
 51
0.0009566146009661
  0
ARC
  5
1F6
100
AcDbEntity
  8
ADF70-2501
370
              15
390
0
  6
Continuous
 62
               7
100
AcDbCircle
 10
7490.0758434970421
 20
1003.0238671323227
 30
0.0
 40
2.999981476581429
100
AcDbArc
 50
188.21964747447703
 51
263.11789968926035
  0
LINE
  5
1F7
100
AcDbEntity
  8
ADF70-2501
370
              15
390
0
  6
Continuous
 62
               7
100
AcDbLine
 10
7492.3568578325567
 20
997.0671673716829
 30
0.0
 11
7492.3568574302144
 21
987.86262989871329
 31
0.0
  0
LINE
  5
1F8
100
AcDbEntity
  8
ADF70-2501
370
              15
390
0
  6
Continuous
 62
               7
100
AcDbLine
 10
7492.3568554194908
 20
941.86262989871329
 30
0.0
 11
7492.3568550174996
 21
932.66616121335437
 31
0.0
  0
LINE
  5
1F9
100
AcDbEntity
  8
ADF70-2501
370
              15
390
0
  6
Continuous
 62
               7
100
AcDbLine
 10
7489.5598334041633
 20
929.67303592537291
 30
0.0
 11
7463.2005354605853
 21
927.88548377804773
 31
0.0
  0
ARC
  5
1FA
100
AcDbEntity
  8
ADF70-2501
370
              15
390
0
  6
Continuous
 62
               7
100
AcDbCircle
 10
7463.8772784096827
 20
917.90822818042261
 30
0.0
 40
10.000182704379457
100
AcDbArc
 50
93.880347109075373
 51
98.745043266391647
  0
LINE
  5
1FB
100
AcDbEntity
  8
ADF70-2501
370
              15
390
0
  6
STYLE_01
 62
               7
100
AcDbLine
 10
7492.3568554194908
 20
941.86262989871329
 30
0.0
 11
7453.9263280553196
 21
941.19182422871063
 31
0.0
  0
LINE
  5
1FC
100
AcDbEntity
  8
ADF70-2501
370
              15
390
0
  6
STYLE_01
 62
               7
100
AcDbLine
 10
7356.2284178960226
 20
1057.37154435409
 30
0.0
 11
7355.3568600330955
 21
1047.4095974112702
 31
0.0
  0
ARC
  5
1FD
100
AcDbEntity
  8
ADF70-2501
370
              15
390
0
  6
Continuous
 62
               7
100
AcDbCircle
 10
7339.356845573383
 20
716.60993419699162
 30
0.0
 40
7.0000000000000062
100
AcDbArc
 50
179.99999749579189
 51
273.49883446568174
  0
LINE
  5
1FE
100
AcDbEntity
  8
ADF70-2501
370
              15
390
0
  6
Continuous
 62
               7
100
AcDbLine
 10
7339.6619925410241
 20
709.6176555562256
 30
0.0
 11
7457.5748580481477
 21
714.76343924189723
 31
0.0
  0
ARC
  5
1FF
100
AcDbEntity
  8
ADF70-2501
370
              15
390
0
  6
Continuous
 62
               7
100
AcDbCircle
 10
7457.3568627266623
 20
719.75868478539314
 30
0.0
 40
5.000000000000087
100
AcDbArc
 50
272.49883446521119
 51
359.99999749547919
  0
LINE
  5
200
100
AcDbEntity
  8
ADF70-2501
370
              15
390
0
  6
STYLE_01
 62
               7
100
AcDbLine
 10
7453.9263280553196
 20
941.19182422871063
 30
0.0
 11
7444.5724489919003
 21
930.04439785808108
 31
0.0
  0
ARC
  5
201
100
AcDbEntity
  8
ADF70-2501
370
              15
390
0
  6
STYLE_01
 62
               7
100
AcDbCircle
 10
7456.0630947369382
 20
920.40252191981062
 30
0.0
 40
15.000023708213465
100
AcDbArc
 50
139.99976787019844
 51
175.05835676593668
  0
LINE
  5
202
100
AcDbEntity
  8
ADF70-2501
370
              15
390
0
  6
STYLE_01
 62
               7
100
AcDbLine
 10
7337.833925643622
 20
1048.9426562938738
 30
0.0
 11
7355.3568600330955
 21
1047.4095974112702
 31
0.0
  0
ARC
  5
203
100
AcDbEntity
  8
ADF70-2501
370
              15
390
0
  6
STYLE_01
 62
               7
100
AcDbCircle
 10
7338.3568603613776
 20
1054.919824459565
 30
0.0
 40
6.0000000000000062
100
AcDbArc
 50
179.99999749558341
 51
264.99999749535431
  0
ARC
  5
204
100
AcDbEntity
  8
ADF70-2501
370
              15
390
0
  6
STYLE_01
 62
               7
100
AcDbCircle
 10
7338.3568455739032
 20
716.62183741546187
 30
0.0
 40
6.0000000000000844
100
AcDbArc
 50
121.51192008679396
 51
179.99999749558341
  0
LINE
  5
205
100
AcDbEntity
  8
ADF70-2501
370
              15
390
0
  6
STYLE_01
 62
               7
100
AcDbLine
 10
7335.2207899295563
 20
721.73702607234964
 30
0.0
 11
7424.0276452387707
 21
776.18335416117816
 31
0.0
  0
ARC
  5
206
100
AcDbEntity
  8
ADF70-2501
370
              15
390
0
  6
STYLE_01
 62
               7
100
AcDbCircle
 10
7418.802421496056
 20
784.70952452781285
 30
0.0
 40
9.9999272138496398
100
AcDbArc
 50
301.50185554693337
 51
354.87894899132925
  0
LINE
  5
207
100
AcDbEntity
  8
ADF70-2501
370
              15
390
0
  6
Continuous
 62
               7
100
AcDbLine
 10
7492.3568574302144
 20
987.86262989871329
 30
0.0
 11
7492.3568554194908
 21
941.86262989871329
 31
0.0
  0
LINE
  5
208
100
AcDbEntity
  8
ADF70-2501
370
              15
390
0
  6
STYLE_01
 62
               7
100
AcDbLine
 10
7441.1188268514261
 20
921.69463979871989
 30
0.0
 11
7428.7624323762693
 21
783.81692856751442
 31
0.0
  0
LINE
  5
209
100
AcDbEntity
  8
ADF70-2501
370
              15
390
0
  6
STYLE_01
 62
               7
100
AcDbLine
 10
7441.5277260805842
 20
924.1070825240954
 30
0.0
 11
7441.5277260805842
 21
1003.8624171197575
 31
0.0
  0
LINE
  5
20A
100
AcDbEntity
  8
ADF70-2501
370
              15
390
0
  6
STYLE_01
 62
               7
100
AcDbLine
 10
7380.2284178042401
 20
1055.2718153803949
 30
0.0
 11
7379.3568599413129
 21
1045.3098684375732
 31
0.0
  0
ARC
  5
20B
100
AcDbEntity
  8
ADF70-2501
370
              15
390
0
  6
STYLE_01
 62
               7
100
AcDbCircle
 10
169045.17719924462
 20
55683.633970842617
 30
0.0
 40
170603.86081405901
100
AcDbArc
 50
198.68263566115485
 51
198.69285130164681
  0
LINE
  5
20C
100
AcDbEntity
  8
ADF70-2501
370
              15
390
0
  6
STYLE_01
 62
               7
100
AcDbLine
 10
7453.9263301246874
 20
988.53343892842213
 30
0.0
 11
7492.3568574595365
 21
988.53343724857405
 31
0.0
  0
ARC
  5
20D
100
AcDbEntity
  8
ADF70-2501
370
              15
390
0
  6
STYLE_01
 62
               7
100
AcDbCircle
 10
7421.4046092265517
 20
1031.5931824191416
 30
0.0
 40
9.9997851851962967
100
AcDbArc
 50
18.686784143171423
 51
85.000919677573052
  0
LINE
  5
20E
100
AcDbEntity
  8
ADF70-2501
370
              15
390
0
  6
STYLE_01
 62
               7
100
AcDbLine
 10
7443.3418872048305
 20
1001.1474830831871
 30
0.0
 11
7453.9263301246874
 21
988.53343892842213
 31
0.0
  0
ARC
  5
20F
100
AcDbEntity
  8
ADF70-2501
370
              15
390
0
  6
STYLE_01
 62
               7
100
AcDbCircle
 10
7454.8329222603597
 20
1010.789563673849
 30
0.0
 40
15.000453485284712
100
AcDbArc
 50
198.69020105971296
 51
219.99987510045028
  0
LINE
  5
210
100
AcDbEntity
  8
ADF70-2501
370
              15
390
0
  6
STYLE_01
 62
               7
100
AcDbLine
 10
7379.3568599413129
 20
1045.309868437575
 30
0.0
 11
7422.2759880317744
 21
1041.5549293908266
 31
0.0
  0
LINE
  5
211
100
AcDbEntity
  8
ADF70-2501
370
              15
390
0
  6
Continuous
 62
               7
100
AcDbLine
 10
7332.3568620935603
 20
1096.94751634771
 30
0.0
 11
7347.3568620935603
 21
1096.94751634771
 31
0.0
  0
LINE
  5
212
100
AcDbEntity
  8
ADF70-2501
370
              15
390
0
  6
Continuous
 62
               7
100
AcDbLine
 10
7347.3568636234586
 20
1131.94751634771
 30
0.0
 11
7332.3568636234586
 21
1131.94751634771
 31
0.0
  0
ARC
  5
213
100
AcDbEntity
  8
ADF70-2501
370
              15
390
0
  6
Continuous
 62
               7
100
AcDbCircle
 10
7438.0834748618845
 20
1027.2130227822258
 30
0.0
 40
45.000000000000455
100
AcDbArc
 50
8.2196474744747778
 51
57.356587110076489
  0
LINE
  5
214
100
AcDbEntity
  8
ADF70-2501
370
              15
390
0
  6
Continuous
 62
               7
100
AcDbLine
 10
7487.1066800400267
 20
1002.5949647828825
 30
0.0
 11
7482.6212017141033
 21
1033.6465977477533
 31
0.0
  0
LINE
  5
215
100
AcDbEntity
  8
ADF70-2501
370
              15
390
0
  6
STYLE_12
 62
               7
100
AcDbLine
 10
7352.3567911558084
 20
-89.362971533785071
 30
0.0
 11
7392.3567911558084
 21
-89.362971533785071
 31
0.0
  0
LINE
  5
216
100
AcDbEntity
  8
ADF70-2501
370
              15
390
0
  6
STYLE_12
 62
               7
100
AcDbLine
 10
7372.3567911558084
 20
-109.36297153378507
 30
0.0
 11
7372.3567911558084
 21
-69.362971533785014
 31
0.0
  0
CIRCLE
  5
217
100
AcDbEntity
  8
ADF70-2501
370
              15
390
0
  6
STYLE_12
 62
               7
100
AcDbCircle
 10
7372.3567911558084
 20
-89.362971533785185
 30
0.0
 40
10.000000000000057
  0
LINE
  5
218
100
AcDbEntity
  8
ADF70-2501
370
              15
390
0
  6
STYLE_12
 62
               7
100
AcDbLine
 10
7352.3567911558084
 20
-369.36297153378496
 30
0.0
 11
7392.3567911558084
 21
-369.36297153378496
 31
0.0
  0
LINE
  5
219
100
AcDbEntity
  8
ADF70-2501
370
              15
390
0
  6
STYLE_12
 62
               7
100
AcDbLine
 10
7372.3567911558084
 20
-389.36297153378496
 30
0.0
 11
7372.3567911558084
 21
-349.36297153378496
 31
0.0
  0
CIRCLE
  5
21A
100
AcDbEntity
  8
ADF70-2501
370
              15
390
0
  6
STYLE_12
 62
               7
100
AcDbCircle
 10
7372.3567911558084
 20
-369.36297153378496
 30
0.0
 40
10.0
  0
LINE
  5
21B
100
AcDbEntity
  8
ADF70-2501
370
              15
390
0
  6
STYLE_12
 62
               7
100
AcDbLine
 10
7451.6379220056579
 20
-205.90038055084221
 30
0.0
 11
7451.6379220056579
 21
-253.24199525055371
 31
0.0
  0
LINE
  5
21C
100
AcDbEntity
  8
ADF70-2501
370
              15
390
0
  6
STYLE_12
 62
               7
100
AcDbLine
 10
7441.3173803001364
 20
-192.40908430316847
 30
0.0
 11
7441.3173803001364
 21
-266.7332611163805
 31
0.0
  0
LINE
  5
21D
100
AcDbEntity
  8
ADF70-2501
370
              15
390
0
  6
STYLE_12
 62
               7
100
AcDbLine
 10
7492.3567911558011
 20
-252.50956580952641
 30
0.0
 11
7453.926263820952
 21
-253.18037315938216
 31
0.0
  0
LINE
  5
21E
100
AcDbEntity
  8
ADF70-2501
370
              15
390
0
  6
STYLE_12
 62
               7
100
AcDbLine
 10
7444.0959357730744
 20
-264.89570192682038
 30
0.0
 11
7453.926263820952
 21
-253.18037315938216
 31
0.0
  0
LINE
  5
21F
100
AcDbEntity
  8
ADF70-2501
370
              15
390
0
  6
STYLE_12
 62
               7
100
AcDbLine
 10
7492.3567911558011
 20
-206.2477398356026
 30
0.0
 11
7453.926263820952
 21
-205.83875845967066
 31
0.0
  0
LINE
  5
220
100
AcDbEntity
  8
ADF70-2501
370
              15
390
0
  6
STYLE_12
 62
               7
100
AcDbLine
 10
7444.0937651343384
 20
-194.12084282571993
 30
0.0
 11
7453.926263820952
 21
-205.83875845967066
 31
0.0
  0
ARC
  5
221
100
AcDbEntity
  8
ADF70-2501
370
              15
390
0
  6
STYLE_12
 62
               7
100
AcDbCircle
 10
7455.5844317811234
 20
-184.47902868042229
 30
0.0
 40
14.999999999999911
100
AcDbArc
 50
190.19230285099198
 51
220.00000000002751
  0
ARC
  5
222
100
AcDbEntity
  8
ADF70-2501
370
              15
390
0
  6
STYLE_12
 62
               7
100
AcDbCircle
 10
7455.5866024198594
 20
-274.53751607211814
 30
0.0
 40
14.999999999999316
100
AcDbArc
 50
139.99999999997283
 51
169.83178698986569
  0
LINE
  5
223
100
AcDbEntity
  8
ADF70-2501
370
              15
390
0
  6
STYLE_01
 62
               7
100
AcDbLine
 10
7332.2348828268423
 20
-722.35639068710975
 30
0.0
 11
7332.2348828263221
 21
-722.36829386186787
 31
0.0
  0
LINE
  5
224
100
AcDbEntity
  8
ADF70-2501
370
              15
390
0
  6
STYLE_01
 62
               7
100
AcDbLine
 10
7335.2242243811042
 20
-717.16432290076807
 30
0.0
 11
7423.9056824917097
 21
-662.79487420366081
 31
0.0
  0
LINE
  5
225
100
AcDbEntity
  8
ADF70-2501
370
              15
390
0
  6
STYLE_01
 62
               7
100
AcDbLine
 10
7335.0988271824954
 20
-717.24120229248933
 30
0.0
 11
7335.2242243811042
 21
-717.16432290076807
 31
0.0
  0
ARC
  5
226
100
AcDbEntity
  8
ADF70-2501
370
              15
390
0
  6
STYLE_01
 62
               7
100
AcDbCircle
 10
7418.6804587489951
 20
-654.26870383702612
 30
0.0
 40
9.9999272138494462
100
AcDbArc
 50
301.50185554693411
 51
354.87894899133062
  0
LINE
  5
227
100
AcDbEntity
  8
ADF70-2501
370
              15
390
0
  6
STYLE_12
 62
               7
100
AcDbLine
 10
7428.6404696292084
 20
-655.16129979732273
 30
0.0
 11
7440.822196905975
 21
-271.8894356689583
 31
0.0
  0
LINE
  5
228
100
AcDbEntity
  8
ADF70-2501
370
              15
390
0
  6
STYLE_01
 62
               7
100
AcDbLine
 10
7332.2348828268423
 20
263.63044761953972
 30
0.0
 11
7332.2348828263221
 21
263.64235079429784
 31
0.0
  0
LINE
  5
229
100
AcDbEntity
  8
ADF70-2501
370
              15
390
0
  6
STYLE_01
 62
               7
100
AcDbLine
 10
7335.2242243804294
 20
258.43837983361152
 30
0.0
 11
7423.9056824917097
 21
204.06893113609081
 31
0.0
  0
LINE
  5
22A
100
AcDbEntity
  8
ADF70-2501
370
              15
390
0
  6
STYLE_01
 62
               7
100
AcDbLine
 10
7335.0988271824954
 20
258.5152592249193
 30
0.0
 11
7335.2242243804294
 21
258.43837983361152
 31
0.0
  0
ARC
  5
22B
100
AcDbEntity
  8
ADF70-2501
370
              15
390
0
  6
STYLE_01
 62
               7
100
AcDbCircle
 10
7418.6804587489951
 20
195.54276076945601
 30
0.0
 40
9.9999272138503699
100
AcDbArc
 50
5.121051008669494
 51
58.498144453065905
  0
LINE
  5
22C
100
AcDbEntity
  8
ADF70-2501
370
              15
390
0
  6
STYLE_12
 62
               7
100
AcDbLine
 10
7428.6404696292084
 20
196.43535672975261
 30
0.0
 11
7440.822196905975
 21
-186.83650739861184
 31
0.0
  0
ARC
  5
22D
100
AcDbEntity
  8
ADF70-2501
370
              15
390
0
  6
STYLE_01
 62
               7
100
AcDbCircle
 10
6200.9937940574473
 20
899.99289262924526
 30
0.0
 40
22.5
100
AcDbArc
 50
179.99999999979156
 51
359.99999999926814
  0
ARC
  5
22E
100
AcDbEntity
  8
ADF70-2501
370
              15
390
0
  6
STYLE_01
 62
               7
100
AcDbCircle
 10
6200.9937940574473
 20
899.99289262924526
 30
0.0
 40
22.5
100
AcDbArc
 50
0.0000000002084408
 51
179.99999999979156
  0
CIRCLE
  5
22F
100
AcDbEntity
  8
ADF70-2501
370
              15
390
0
  6
STYLE_01
 62
               7
100
AcDbCircle
 10
6053.8089077395707
 20
899.99289262924162
 30
0.0
 40
17.5
  0
CIRCLE
  5
230
100
AcDbEntity
  8
ADF70-2501
370
              15
390
0
  6
STYLE_01
 62
               7
100
AcDbCircle
 10
6053.8089077395707
 20
799.99289262924162
 30
0.0
 40
16.0
  0
CIRCLE
  5
231
100
AcDbEntity
  8
ADF70-2501
370
              15
390
0
  6
STYLE_01
 62
               7
100
AcDbCircle
 10
6053.8089077395798
 20
999.99289262923799
 30
0.0
 40
16.0
  0
LINE
  5
232
100
AcDbEntity
  8
ADF70-2501
370
              15
390
0
  6
Continuous
 62
               7
100
AcDbLine
 10
5986.4345932722545
 20
452.0
 30
0.0
 11
5986.4345932722545
 21
1323.992892629238
 31
0.0
  0
POLYLINE
  5
233
100
AcDbEntity
  8
ADF70-2501
370
              15
390
0
  6
Continuous
 62
               7
100
AcDb2dPolyline
 66
               1
 10
0.0
 20
0.0
 30
0.0
 70
               1
 75
               5
  0
VERTEX
  5
234
100
AcDbEntity
  8
ADF70-2501
370
              15
390
0
  6
Continuous
 62
               7
100
AcDbVertex
100
AcDb2dVertex
 10
6016.4345932722545
 20
1199.9928926292434
 30
0.0
  0
VERTEX
  5
235
100
AcDbEntity
  8
ADF70-2501
370
              15
390
0
  6
Continuous
 62
               7
100
AcDbVertex
100
AcDb2dVertex
 10
6266.4345932722545
 20
1199.9928926292434
 30
0.0
  0
VERTEX
  5
236
100
AcDbEntity
  8
ADF70-2501
370
              15
390
0
  6
Continuous
 62
               7
100
AcDbVertex
100
AcDb2dVertex
 10
6266.4345932722545
 20
599.99289262924344
 30
0.0
  0
VERTEX
  5
237
100
AcDbEntity
  8
ADF70-2501
370
              15
390
0
  6
Continuous
 62
               7
100
AcDbVertex
100
AcDb2dVertex
 10
6016.4345932722545
 20
599.99289262924344
 30
0.0
  0
SEQEND
  5
238
100
AcDbEntity
  8
ADF70-2501
370
              15
390
0
  6
Continuous
 62
               7
  0
ARC
  5
239
100
AcDbEntity
  8
ADF70-2501
370
              15
390
0
  6
STYLE_12
 62
               7
100
AcDbCircle
 10
7338.360280023614
 20
263.5535684886022
 30
0.0
 40
5.9999999977743679
100
AcDbArc
 50
184.78747326467601
 51
238.48807991336295
  0
ARC
  5
23A
100
AcDbEntity
  8
ADF70-2501
370
              15
390
0
  6
STYLE_12
 62
               7
100
AcDbCircle
 10
7338.3602800251047
 20
-722.27951155709025
 30
0.0
 40
5.9999999993360369
100
AcDbArc
 50
121.51192008663475
 51
175.2125266960507
  0
LINE
  5
23B
100
AcDbEntity
  8
ADF70-2501
370
              15
390
0
  6
STYLE_12
 62
               7
100
AcDbLine
 10
7352.3567911558084
 20
70.637028466214929
 30
0.0
 11
7392.3567911558084
 21
70.637028466214929
 31
0.0
  0
LINE
  5
23C
100
AcDbEntity
  8
ADF70-2501
370
              15
390
0
  6
STYLE_12
 62
               7
100
AcDbLine
 10
7372.3567911558084
 20
50.637028466214929
 30
0.0
 11
7372.3567911558084
 21
90.637028466214986
 31
0.0
  0
CIRCLE
  5
23D
100
AcDbEntity
  8
ADF70-2501
370
              15
390
0
  6
STYLE_12
 62
               7
100
AcDbCircle
 10
7372.3567911558084
 20
70.637028466214815
 30
0.0
 40
10.000000000000057
  0
LINE
  5
23E
100
AcDbEntity
  8
ADF70-2501
370
              15
390
0
  6
STYLE_12
 62
               7
100
AcDbLine
 10
7352.3567911558084
 20
-529.36297153378496
 30
0.0
 11
7392.3567911558084
 21
-529.36297153378496
 31
0.0
  0
LINE
  5
23F
100
AcDbEntity
  8
ADF70-2501
370
              15
390
0
  6
STYLE_12
 62
               7
100
AcDbLine
 10
7372.3567911558084
 20
-549.36297153378496
 30
0.0
 11
7372.3567911558084
 21
-509.36297153378496
 31
0.0
  0
CIRCLE
  5
240
100
AcDbEntity
  8
ADF70-2501
370
              15
390
0
  6
STYLE_12
 62
               7
100
AcDbCircle
 10
7372.3567911558084
 20
-529.36297153378496
 30
0.0
 40
10.0
  0
ENDSEC
  0
SECTION
  2
OBJECTS
  0
DICTIONARY
  5
19
100
AcDbDictionary
280
               0
281
               1
  3
ACAD_GROUP
350
1A
  3
ACAD_MLINESTYLE
350
1B
  3
ACAD_LAYOUT
350
1E
  3
ACAD_PLOTSETTINGS
350
22
  3
ACAD_PLOTSTYLENAME
350
1F
  0
DICTIONARY
  5
1A
102
{ACAD_REACTORS
330
19
102
}
100
AcDbDictionary
280
               0
281
               1
  0
DICTIONARY
  5
1B
102
{ACAD_REACTORS
330
19
102
}
100
AcDbDictionary
280
               0
281
               1
  3
Standard
350
1C
  0
MLINESTYLE
  5
1C
102
{ACAD_REACTORS
330
1B
102
}
100
AcDbMlineStyle
  2
Standard
 70
               0
  3

 62
               0
 51
90.0
 52
90.0
 71
               2
 49
0.5
 62
             256
  6
ByLayer
 49
-0.5
 62
             256
  6
ByLayer
  0
ACDBDICTIONARYWDFLT
  5
1F
102
{ACAD_REACTORS
330
19
102
}
100
AcDbDictionary
281
               1
  3
Normal
350
1D
100
AcDbDictionaryWithDefault
340
1D
  0
ACDBPLACEHOLDER
  5
1D
102
{ACAD_REACTORS
330
1F
102
}
  0
LAYOUT
  5
20
102
{ACAD_REACTORS
330
1E
102
}
100
AcDbPlotSettings
  1

  2

  4

  6

 40
0.0
 41
0.0
 42
0.0
 43
0.0
 44
0.0
 45
0.0
 46
0.0
 47
0.0
 48
0.0
 49
0.0
140
0.0
141
0.0
142
1.0
143
1.0
 70
            1024
 72
               0
 73
               0
 74
               0
  7

 75
               0
147
1.0
148
0.0
149
0.0
100
AcDbLayout
  1
Model
 70
               0
 71
               0
 10
0.0
 20
0.0
 11
0.0
 21
0.0
 12
0.0
 22
0.0
 32
0.0
 14
0.0
 24
0.0
 34
0.0
 15
0.0
 25
0.0
 35
0.0
146
0.0
 13
0.0
 23
0.0
 33
0.0
 16
0.0
 26
0.0
 36
0.0
 17
0.0
 27
0.0
 37
0.0
 76
               0
330
A
331
0
345
0
346
0
  0
LAYOUT
  5
21
102
{ACAD_REACTORS
330
1E
102
}
100
AcDbPlotSettings
  1

  2

  4

  6

 40
0.0
 41
0.0
 42
0.0
 43
0.0
 44
0.0
 45
0.0
 46
0.0
 47
0.0
 48
0.0
 49
0.0
140
0.0
141
0.0
142
1.0
143
1.0
 70
               0
 72
               0
 73
               0
 74
               0
  7

 75
               0
147
1.0
148
0.0
149
0.0
100
AcDbLayout
  1
Layout1
 70
               0
 71
               0
 10
0.0
 20
0.0
 11
0.0
 21
0.0
 12
0.0
 22
0.0
 32
0.0
 14
0.0
 24
0.0
 34
0.0
 15
0.0
 25
0.0
 35
0.0
146
0.0
 13
0.0
 23
0.0
 33
0.0
 16
0.0
 26
0.0
 36
0.0
 17
0.0
 27
0.0
 37
0.0
 76
               0
330
B
331
0
345
0
346
0
  0
DICTIONARY
  5
1E
102
{ACAD_REACTORS
330
19
102
}
100
AcDbDictionary
280
               0
281
               1
  3
Layout1
350
21
  3
Model
350
20
  0
DICTIONARY
  5
22
102
{ACAD_REACTORS
330
19
102
}
100
AcDbDictionary
280
               0
281
               1
  0
ENDSEC
  0
EOF
