  0
SECTION
  2
HEADER
  9
$ACADVER
  1
AC1021
  9
$ACADMAINTVER
 70
    25
  9
$DWGCODEPAGE
  3
ANSI_932
  9
$LASTSAVEDBY
  1
Shimosaki
  9
$INSBASE
 10
0.0
 20
0.0
 30
0.0
  9
$EXTMIN
 10
5973.51712563471
 20
-1708.481589757586
 30
-14.83430555555555
  9
$EXTMAX
 10
7923.517125635193
 20
1129.041225354826
 30
14.83430555555555
  9
$LIMMIN
 10
0.0
 20
0.0
  9
$LIMMAX
 10
0.0
 20
0.0
  9
$ORTHOMODE
 70
     1
  9
$REGENMODE
 70
     1
  9
$FILLMODE
 70
     1
  9
$QTEXTMODE
 70
     0
  9
$MIRRTEXT
 70
     1
  9
$LTSCALE
 40
50.8
  9
$ATTMODE
 70
     1
  9
$TEXTSIZE
 40
0.0
  9
$TRACEWID
 40
1.0
  9
$TEXTSTYLE
  7
Standard
  9
$CLAYER
  8
template
  9
$CELTYPE
  6
Continuous
  9
$CECOLOR
 62
   256
  9
$CELTSCALE
 40
1.0
  9
$DISPSILH
 70
     0
  9
$DIMSCALE
 40
1.0
  9
$DIMASZ
 40
31.75
  9
$DIMEXO
 40
0.0
  9
$DIMDLI
 40
6.99999999999994
  9
$DIMRND
 40
0.0
  9
$DIMDLE
 40
0.0
  9
$DIMEXE
 40
19.9999999999962
  9
$DIMTP
 40
0.0
  9
$DIMTM
 40
0.0
  9
$DIMTXT
 40
24.4326171875
  9
$DIMCEN
 40
0.0
  9
$DIMTSZ
 40
0.0
  9
$DIMTOL
 70
     0
  9
$DIMLIM
 70
     0
  9
$DIMTIH
 70
     0
  9
$DIMTOH
 70
     0
  9
$DIMSE1
 70
     0
  9
$DIMSE2
 70
     0
  9
$DIMTAD
 70
     1
  9
$DIMZIN
 70
    11
  9
$DIMBLK
  1
VW_FILLEDARROW
  9
$DIMASO
 70
     1
  9
$DIMSHO
 70
     1
  9
$DIMPOST
  1
<>
  9
$DIMAPOST
  1
[]
  9
$DIMALT
 70
     0
  9
$DIMALTD
 70
     1
  9
$DIMALTF
 40
1.0
  9
$DIMLFAC
 40
1.0
  9
$DIMTOFL
 70
     0
  9
$DIMTVP
 40
0.0
  9
$DIMTIX
 70
     1
  9
$DIMSOXD
 70
     0
  9
$DIMSAH
 70
     0
  9
$DIMBLK1
  1

  9
$DIMBLK2
  1

  9
$DIMSTYLE
  2
JIS
  9
$DIMCLRD
 70
     0
  9
$DIMCLRE
 70
     0
  9
$DIMCLRT
 70
     0
  9
$DIMTFAC
 40
1.0
  9
$DIMGAP
 40
1.00000000000108
  9
$DIMJUST
 70
     0
  9
$DIMSD1
 70
     0
  9
$DIMSD2
 70
     0
  9
$DIMTOLJ
 70
     1
  9
$DIMTZIN
 70
    11
  9
$DIMALTZ
 70
    11
  9
$DIMALTTZ
 70
    11
  9
$DIMUPT
 70
     0
  9
$DIMDEC
 70
     1
  9
$DIMTDEC
 70
     1
  9
$DIMALTU
 70
     2
  9
$DIMALTTD
 70
     2
  9
$DIMTXSTY
  7
ＭＳ ゴシック
  9
$DIMAUNIT
 70
     0
  9
$DIMADEC
 70
     2
  9
$DIMALTRND
 40
0.0
  9
$DIMAZIN
 70
     0
  9
$DIMDSEP
 70
    46
  9
$DIMATFIT
 70
     0
  9
$DIMFRAC
 70
     2
  9
$DIMLDRBLK
  1

  9
$DIMLUNIT
 70
     2
  9
$DIMLWD
 70
    -2
  9
$DIMLWE
 70
    -2
  9
$DIMTMOVE
 70
     0
  9
$DIMFXL
 40
1.0
  9
$DIMFXLON
 70
     0
  9
$DIMJOGANG
 40
0.7853981633974483
  9
$DIMTFILL
 70
     0
  9
$DIMTFILLCLR
 70
     0
  9
$DIMARCSYM
 70
     0
  9
$DIMLTYPE
  6

  9
$DIMLTEX1
  6

  9
$DIMLTEX2
  6

  9
$LUNITS
 70
     2
  9
$LUPREC
 70
     4
  9
$SKETCHINC
 40
0.1
  9
$FILLETRAD
 40
0.0
  9
$AUNITS
 70
     0
  9
$AUPREC
 70
     0
  9
$MENU
  1
acad
  9
$ELEVATION
 40
0.0
  9
$PELEVATION
 40
0.0
  9
$THICKNESS
 40
0.0
  9
$LIMCHECK
 70
     0
  9
$CHAMFERA
 40
0.0
  9
$CHAMFERB
 40
0.0
  9
$CHAMFERC
 40
0.0
  9
$CHAMFERD
 40
0.0
  9
$SKPOLY
 70
     0
  9
$TDCREATE
 40
2447893.375
  9
$TDUCREATE
 40
0.0
  9
$TDUPDATE
 40
2456762.397133588
  9
$TDUUPDATE
 40
2456762.022133588
  9
$TDINDWG
 40
0.0027305671
  9
$TDUSRTIMER
 40
2456762.019403241
  9
$USRTIMER
 70
     1
  9
$ANGBASE
 50
0.0
  9
$ANGDIR
 70
     0
  9
$PDMODE
 70
     1
  9
$PDSIZE
 40
-2.0
  9
$PLINEWID
 40
0.0
  9
$SPLFRAME
 70
     0
  9
$SPLINETYPE
 70
     6
  9
$SPLINESEGS
 70
     8
  9
$HANDSEED
  5
25D
  9
$SURFTAB1
 70
     6
  9
$SURFTAB2
 70
     6
  9
$SURFTYPE
 70
     6
  9
$SURFU
 70
     6
  9
$SURFV
 70
     6
  9
$UCSBASE
  2

  9
$UCSNAME
  2

  9
$UCSORG
 10
0.0
 20
0.0
 30
0.0
  9
$UCSXDIR
 10
1.0
 20
0.0
 30
0.0
  9
$UCSYDIR
 10
0.0
 20
1.0
 30
0.0
  9
$UCSORTHOREF
  2

  9
$UCSORTHOVIEW
 70
     0
  9
$UCSORGTOP
 10
0.0
 20
0.0
 30
0.0
  9
$UCSORGBOTTOM
 10
0.0
 20
0.0
 30
0.0
  9
$UCSORGLEFT
 10
0.0
 20
0.0
 30
0.0
  9
$UCSORGRIGHT
 10
0.0
 20
0.0
 30
0.0
  9
$UCSORGFRONT
 10
0.0
 20
0.0
 30
0.0
  9
$UCSORGBACK
 10
0.0
 20
0.0
 30
0.0
  9
$PUCSBASE
  2

  9
$PUCSNAME
  2

  9
$PUCSORG
 10
0.0
 20
0.0
 30
0.0
  9
$PUCSXDIR
 10
1.0
 20
0.0
 30
0.0
  9
$PUCSYDIR
 10
0.0
 20
1.0
 30
0.0
  9
$PUCSORTHOREF
  2

  9
$PUCSORTHOVIEW
 70
     0
  9
$PUCSORGTOP
 10
0.0
 20
0.0
 30
0.0
  9
$PUCSORGBOTTOM
 10
0.0
 20
0.0
 30
0.0
  9
$PUCSORGLEFT
 10
0.0
 20
0.0
 30
0.0
  9
$PUCSORGRIGHT
 10
0.0
 20
0.0
 30
0.0
  9
$PUCSORGFRONT
 10
0.0
 20
0.0
 30
0.0
  9
$PUCSORGBACK
 10
0.0
 20
0.0
 30
0.0
  9
$USERI1
 70
     0
  9
$USERI2
 70
     0
  9
$USERI3
 70
     0
  9
$USERI4
 70
     0
  9
$USERI5
 70
     0
  9
$USERR1
 40
0.0
  9
$USERR2
 40
0.0
  9
$USERR3
 40
0.0
  9
$USERR4
 40
0.0
  9
$USERR5
 40
0.0
  9
$WORLDVIEW
 70
     1
  9
$SHADEDGE
 70
     3
  9
$SHADEDIF
 70
    70
  9
$TILEMODE
 70
     1
  9
$MAXACTVP
 70
    64
  9
$PINSBASE
 10
0.0
 20
0.0
 30
0.0
  9
$PLIMCHECK
 70
     0
  9
$PEXTMIN
 10
1.000000000000000E+20
 20
1.000000000000000E+20
 30
1.000000000000000E+20
  9
$PEXTMAX
 10
-1.000000000000000E+20
 20
-1.000000000000000E+20
 30
-1.000000000000000E+20
  9
$PLIMMIN
 10
0.0
 20
0.0
  9
$PLIMMAX
 10
0.0
 20
0.0
  9
$UNITMODE
 70
     0
  9
$VISRETAIN
 70
     0
  9
$PLINEGEN
 70
     1
  9
$PSLTSCALE
 70
     0
  9
$TREEDEPTH
 70
  3020
  9
$CMLSTYLE
  2
Standard
  9
$CMLJUST
 70
     0
  9
$CMLSCALE
 40
1.0
  9
$PROXYGRAPHICS
 70
     0
  9
$MEASUREMENT
 70
     1
  9
$CELWEIGHT
370
     0
  9
$ENDCAPS
280
     0
  9
$JOINSTYLE
280
     0
  9
$LWDISPLAY
290
     1
  9
$INSUNITS
 70
     4
  9
$HYPERLINKBASE
  1

  9
$STYLESHEET
  1

  9
$XEDIT
290
     1
  9
$CEPSNTYPE
380
     0
  9
$PSTYLEMODE
290
     1
  9
$FINGERPRINTGUID
  2

  9
$VERSIONGUID
  2

  9
$EXTNAMES
290
     1
  9
$PSVPSCALE
 40
0.0
  9
$OLESTARTUP
290
     0
  9
$SORTENTS
280
   127
  9
$INDEXCTL
280
     0
  9
$HIDETEXT
280
     1
  9
$XCLIPFRAME
290
     0
  9
$HALOGAP
280
     0
  9
$OBSCOLOR
 70
   257
  9
$OBSLTYPE
280
     0
  9
$INTERSECTIONDISPLAY
280
     0
  9
$INTERSECTIONCOLOR
 70
   257
  9
$DIMASSOC
280
     2
  9
$PROJECTNAME
  1

  9
$CAMERADISPLAY
290
     0
  9
$LENSLENGTH
 40
50.0
  9
$CAMERAHEIGHT
 40
0.0
  9
$STEPSPERSEC
 40
2.0
  9
$STEPSIZE
 40
6.0
  9
$3DDWFPREC
 40
2.0
  9
$PSOLWIDTH
 40
0.25
  9
$PSOLHEIGHT
 40
4.0
  9
$LOFTANG1
 40
1.570796326794897
  9
$LOFTANG2
 40
1.570796326794897
  9
$LOFTMAG1
 40
0.0
  9
$LOFTMAG2
 40
0.0
  9
$LOFTPARAM
 70
     7
  9
$LOFTNORMALS
280
     1
  9
$LATITUDE
 40
37.795
  9
$LONGITUDE
 40
-122.394
  9
$NORTHDIRECTION
 40
0.0
  9
$TIMEZONE
 70
 -8000
  9
$LIGHTGLYPHDISPLAY
280
     1
  9
$TILEMODELIGHTSYNCH
280
     1
  9
$SOLIDHIST
280
     1
  9
$SHOWHIST
280
     1
  9
$DWFFRAME
280
     2
  9
$DGNFRAME
280
     2
  9
$REALWORLDSCALE
290
     1
  9
$INTERFERECOLOR
 62
   256
  9
$CSHADOW
280
     0
  9
$SHADOWPLANELOCATION
 40
0.0
  0
ENDSEC
  0
SECTION
  2
CLASSES
  0
CLASS
  1
LWPOLYLINE
  2
AcDbPolyline
  3
ObjectDBX Classes
 90
        0
 91
        1
280
     0
281
     1
  0
CLASS
  1
IMAGE
  2
AcDbRasterImage
  3
ISM
 90
      127
 91
        5
280
     0
281
     1
  0
CLASS
  1
OLE2FRAME
  2
AcDbOle2Frame
  3
ObjectDBX Classes
 90
        0
 91
        1
280
     0
281
     1
  0
CLASS
  1
HATCH
  2
AcDbHatch
  3
ObjectDBX Classes
 90
        0
 91
        1
280
     0
281
     1
  0
CLASS
  1
DICTIONARYVAR
  2
AcDbDictionaryVar
  3
ObjectDBX Classes
 90
        0
 91
        4
280
     0
281
     0
  0
CLASS
  1
RASTERVARIABLES
  2
AcDbRasterVariables
  3
ISM
 90
        0
 91
        5
280
     0
281
     0
  0
CLASS
  1
IMAGEDEF
  2
AcDbRasterImageDef
  3
ISM
 90
        0
 91
        4
280
     0
281
     0
  0
CLASS
  1
IMAGEDEF_REACTOR
  2
AcDbRasterImageDefReactor
  3
ISM
 90
        1
 91
        4
280
     0
281
     0
  0
CLASS
  1
IDBUFFER
  2
AcDbIdBuffer
  3
ObjectDBX Classes
 90
        0
 91
        4
280
     0
281
     0
  0
CLASS
  1
SPATIAL_FILTER
  2
AcDbSpatialFilter
  3
ObjectDBX Classes
 90
        0
 91
        4
280
     0
281
     0
  0
CLASS
  1
XRECORD
  2
AcDbXrecord
  3
ObjectDBX Classes
 90
        0
 91
        1
280
     0
281
     0
  0
CLASS
  1
SORTENTSTABLE
  2
AcDbSortentsTable
  3
ObjectDBX Classes
 90
        0
 91
        4
280
     0
281
     0
  0
CLASS
  1
LAYER_INDEX
  2
AcDbLayerIndex
  3
ObjectDBX Classes
 90
        0
 91
        4
280
     0
281
     0
  0
CLASS
  1
SPATIAL_INDEX
  2
AcDbSpatialIndex
  3
AutoCAD 2000
 90
        0
 91
        4
280
     0
281
     0
  0
CLASS
  1
OBJECT_PTR
  2
CAseDLPNTableRecord
  3
ASE-LPNTableRecord
 90
        1
 91
        4
280
     0
281
     0
  0
CLASS
  1
LAYOUT
  2
AcDbLayout
  3
ObjectDBX Classes
 90
        0
 91
        1
280
     0
281
     0
  0
CLASS
  1
PLOTSETTINGS
  2
AcDbPlotSettings
  3
ObjectDBX Classes
 90
        0
 91
        4
280
     0
281
     0
  0
CLASS
  1
ACDBDICTIONARYWDFLT
  2
AcDbDictionaryWithDefault
  3
ObjectDBX Classes
 90
        0
 91
        5
280
     0
281
     0
  0
CLASS
  1
ACDBPLACEHOLDER
  2
AcDbPlaceHolder
  3
ObjectDBX Classes
 90
        0
 91
        1
280
     0
281
     0
  0
CLASS
  1
SCALE
  2
AcDbScale
  3
ObjectDBX Classes
 90
     1153
 91
        5
280
     0
281
     0
  0
CLASS
  1
VISUALSTYLE
  2
AcDbVisualStyle
  3
ObjectDBX Classes
 90
     4095
 91
        5
280
     0
281
     0
  0
CLASS
  1
MATERIAL
  2
AcDbMaterial
  3
ObjectDBX Classes
 90
     1153
 91
        5
280
     0
281
     0
  0
CLASS
  1
TABLESTYLE
  2
AcDbTableStyle
  3
ObjectDBX Classes
 90
     4095
 91
        5
280
     0
281
     0
  0
CLASS
  1
SUN
  2
AcDbSun
  3
SCENEOE
 90
     1153
 91
        5
280
     0
281
     0
  0
CLASS
  1
DIMASSOC
  2
AcDbDimAssoc
  3
"AcDbDimAssoc|Product Desc:     AcDim ARX App For Dimension|Company:          Autodesk, Inc.|WEB Address:      www.autodesk.com"
 90
        0
 91
        4
280
     0
281
     0
  0
CLASS
  1
CELLSTYLEMAP
  2
AcDbCellStyleMap
  3
ObjectDBX Classes
 90
     1152
 91
        4
280
     0
281
     0
  0
ENDSEC
  0
SECTION
  2
TABLES
  0
TABLE
  2
VPORT
  5
7
330
0
100
AcDbSymbolTable
 70
     1
  0
VPORT
  5
15
330
7
100
AcDbSymbolTableRecord
100
AcDbViewportTableRecord
  2
*ACTIVE
 70
     0
 10
0.0
 20
0.0
 11
1.0
 21
1.0
 12
7136.2751999906
 22
-120.5086900691912
 13
0.0
 23
0.0
 14
1.0
 24
1.0
 15
0.0
 25
0.0
 16
0.0
 26
0.0
 36
1.0
 17
0.0
 27
0.0
 37
0.0
 40
2837.522815112412
 41
2.213422818791946
 42
50.0
 43
0.0
 44
0.0
 50
0.0
 51
0.0
 71
    16
 72
  2000
 73
     1
 74
     1
 75
     0
 76
     0
 77
     0
 78
     0
281
     0
 65
     0
110
0.0
120
0.0
130
0.0
111
1.0
121
0.0
131
0.0
112
0.0
122
1.0
132
0.0
 79
     0
146
0.0
348
204
 60
     3
 61
     5
292
     1
282
     1
141
0.0
142
0.0
 63
   250
361
21F
  0
ENDTAB
  0
TABLE
  2
LTYPE
  5
4
330
0
100
AcDbSymbolTable
 70
    17
  0
LTYPE
  5
11
330
4
100
AcDbSymbolTableRecord
100
AcDbLinetypeTableRecord
  2
ByBlock
 70
     0
  3

 72
    65
 73
     0
 40
0.0
  0
LTYPE
  5
12
330
4
100
AcDbSymbolTableRecord
100
AcDbLinetypeTableRecord
  2
ByLayer
 70
     0
  3

 72
    65
 73
     0
 40
0.0
  0
LTYPE
  5
13
330
4
100
AcDbSymbolTableRecord
100
AcDbLinetypeTableRecord
  2
Continuous
 70
     0
  3
Solid line
 72
    65
 73
     0
 40
0.0
  0
LTYPE
  5
34
330
4
100
AcDbSymbolTableRecord
100
AcDbLinetypeTableRecord
  2
STYLE_01
 70
     0
  3

 72
    65
 73
     2
 40
0.2460629921259842
 49
0.1230314960629921
 74
     0
 49
-0.1230314960629921
 74
     0
  0
LTYPE
  5
35
330
4
100
AcDbSymbolTableRecord
100
AcDbLinetypeTableRecord
  2
STYLE_02
 70
     0
  3

 72
    65
 73
     2
 40
0.6944250000000001
 49
0.48607
 74
     0
 49
-0.2083550000000001
 74
     0
  0
LTYPE
  5
36
330
4
100
AcDbSymbolTableRecord
100
AcDbLinetypeTableRecord
  2
STYLE_03
 70
     0
  3

 72
    65
 73
     2
 40
1.25
 49
1.04164
 74
     0
 49
-0.2083599999999999
 74
     0
  0
LTYPE
  5
37
330
4
100
AcDbSymbolTableRecord
100
AcDbLinetypeTableRecord
  2
STYLE_04
 70
     0
  3

 72
    65
 73
     2
 40
1.52771
 49
1.319425
 74
     0
 49
-0.208285
 74
     0
  0
LTYPE
  5
38
330
4
100
AcDbSymbolTableRecord
100
AcDbLinetypeTableRecord
  2
STYLE_05
 70
     0
  3

 72
    65
 73
     2
 40
0.20828
 49
0.069425
 74
     0
 49
-0.138855
 74
     0
  0
LTYPE
  5
39
330
4
100
AcDbSymbolTableRecord
100
AcDbLinetypeTableRecord
  2
STYLE_06
 70
     0
  3

 72
    65
 73
     4
 40
1.04164
 49
0.625
 74
     0
 49
-0.20828
 74
     0
 49
0.06943
 74
     0
 49
-0.13893
 74
     0
  0
LTYPE
  5
3A
330
4
100
AcDbSymbolTableRecord
100
AcDbLinetypeTableRecord
  2
STYLE_07
 70
     0
  3

 72
    65
 73
     6
 40
1.875
 49
0.625
 74
     0
 49
-0.20828
 74
     0
 49
0.6250000000000001
 74
     0
 49
-0.2083599999999999
 74
     0
 49
0.06943
 74
     0
 49
-0.1389299999999999
 74
     0
  0
LTYPE
  5
3B
330
4
100
AcDbSymbolTableRecord
100
AcDbLinetypeTableRecord
  2
STYLE_08
 70
     0
  3

 72
    65
 73
     6
 40
1.25
 49
0.625
 74
     0
 49
-0.20828
 74
     0
 49
0.06943
 74
     0
 49
-0.13893
 74
     0
 49
0.0694299999999999
 74
     0
 49
-0.13893
 74
     0
  0
LTYPE
  5
3C
330
4
100
AcDbSymbolTableRecord
100
AcDbLinetypeTableRecord
  2
STYLE_09
 70
     0
  3

 72
    65
 73
     4
 40
5.0
 49
3.75
 74
     0
 49
-0.2777849999999998
 74
     0
 49
0.6944300000000003
 74
     0
 49
-0.2777849999999998
 74
     0
  0
LTYPE
  5
3D
330
4
100
AcDbSymbolTableRecord
100
AcDbLinetypeTableRecord
  2
STYLE_10
 70
     0
  3

 72
    65
 73
     6
 40
5.9375
 49
3.75
 74
     0
 49
-0.2777849999999998
 74
     0
 49
0.6944300000000003
 74
     0
 49
-0.2777849999999998
 74
     0
 49
0.625
 74
     0
 49
-0.3125
 74
     0
  0
LTYPE
  5
3E
330
4
100
AcDbSymbolTableRecord
100
AcDbLinetypeTableRecord
  2
STYLE_11
 70
     0
  3

 72
    65
 73
     2
 40
0.0694444881889764
 49
0.0347222440944882
 74
     0
 49
-0.0347222440944882
 74
     0
  0
LTYPE
  5
3F
330
4
100
AcDbSymbolTableRecord
100
AcDbLinetypeTableRecord
  2
STYLE_12
 70
     0
  3

 72
    65
 73
     2
 40
0.3937007874015748
 49
0.1968503937007874
 74
     0
 49
-0.1968503937007874
 74
     0
  0
LTYPE
  5
40
330
4
100
AcDbSymbolTableRecord
100
AcDbLinetypeTableRecord
  2
STYLE_13
 70
     0
  3

 72
    65
 73
     2
 40
0.5905511811023622
 49
0.2952755905511811
 74
     0
 49
-0.2952755905511811
 74
     0
  0
LTYPE
  5
41
330
4
100
AcDbSymbolTableRecord
100
AcDbLinetypeTableRecord
  2
STYLE_14
 70
     0
  3

 72
    65
 73
     2
 40
1.968503937007874
 49
0.9842519685039369
 74
     0
 49
-0.9842519685039369
 74
     0
  0
LTYPE
  5
42
330
4
100
AcDbSymbolTableRecord
100
AcDbLinetypeTableRecord
  2
STYLE_15
 70
     0
  3

 72
    65
 73
     2
 40
0.1875
 49
0.125
 74
     0
 49
-0.0625
 74
     0
  0
LTYPE
  5
43
330
4
100
AcDbSymbolTableRecord
100
AcDbLinetypeTableRecord
  2
STYLE_16
 70
     0
  3

 72
    65
 73
     2
 40
0.3690944881889764
 49
0.2460629921259843
 74
     0
 49
-0.1230314960629922
 74
     0
  0
ENDTAB
  0
TABLE
  2
LAYER
  5
2
330
0
100
AcDbSymbolTable
 70
     5
  0
LAYER
  5
14
330
2
100
AcDbSymbolTableRecord
100
AcDbLayerTableRecord
  2
0
 70
     0
 62
     7
  6
Continuous
370
    -3
390
1D
347
21B
  0
LAYER
  5
44
330
2
100
AcDbSymbolTableRecord
100
AcDbLayerTableRecord
  2
Defpoints
 70
     0
 62
     7
  6
Continuous
290
     0
370
    -3
390
1D
347
21B
  0
LAYER
  5
45
330
2
100
AcDbSymbolTableRecord
100
AcDbLayerTableRecord
  2
template
 70
     0
 62
     7
  6
Continuous
370
    -3
390
1D
347
21B
  0
LAYER
  5
46
330
2
100
AcDbSymbolTableRecord
100
AcDbLayerTableRecord
  2
notes
 70
     0
 62
     7
  6
Continuous
370
    -3
390
1D
347
21B
  0
LAYER
  5
47
330
2
100
AcDbSymbolTableRecord
100
AcDbLayerTableRecord
  2
ADF70-2504
 70
     0
 62
     7
  6
Continuous
370
    -3
390
1D
347
21B
  0
ENDTAB
  0
TABLE
  2
STYLE
  5
3
330
0
100
AcDbSymbolTable
 70
     2
  0
STYLE
  5
17
330
3
100
AcDbSymbolTableRecord
100
AcDbTextStyleTableRecord
  2
Standard
 70
     0
 40
0.0
 41
1.0
 50
0.0
 71
     0
 42
0.0
  3
txt
  4
BIGFONT.SHX
  0
STYLE
  5
33
330
3
100
AcDbSymbolTableRecord
100
AcDbTextStyleTableRecord
  2
ＭＳ ゴシック
 70
     0
 40
0.0
 41
1.0
 50
0.0
 71
     0
 42
0.0
  3
msgothic.ttc
  4
ＭＳ ゴシック
1001
ACAD
1000
ＭＳ ゴシック
1071
        0
  0
ENDTAB
  0
TABLE
  2
VIEW
  5
5
330
0
100
AcDbSymbolTable
 70
     0
  0
ENDTAB
  0
TABLE
  2
UCS
  5
6
330
0
100
AcDbSymbolTable
 70
     0
  0
ENDTAB
  0
TABLE
  2
APPID
  5
8
330
0
100
AcDbSymbolTable
 70
     1
  0
APPID
  5
16
330
8
100
AcDbSymbolTableRecord
100
AcDbRegAppTableRecord
  2
ACAD
 70
     0
  0
ENDTAB
  0
TABLE
  2
DIMSTYLE
  5
9
330
0
100
AcDbSymbolTable
 70
     4
100
AcDbDimStyleTable
  0
DIMSTYLE
105
18
330
9
100
AcDbSymbolTableRecord
100
AcDbDimStyleTableRecord
  2
Standard
 70
     0
178
     0
340
17
  0
DIMSTYLE
105
50
102
{ACAD_REACTORS
330
234
330
243
102
}
330
9
100
AcDbSymbolTableRecord
100
AcDbDimStyleTableRecord
  2
tform線あり
 70
     0
  3
<>
  4
[]
 41
9.999389648437498
 42
25.0
 43
0.9999999999999999
 44
0.0
 73
     0
 74
     0
 77
     1
 78
    11
140
24.4326171875
141
0.0
143
1.0
146
0.8
147
0.4999999999999999
171
     1
172
     1
174
     1
178
     0
179
     2
271
     1
272
     1
276
     2
284
    11
285
    11
286
    11
289
     0
340
33
341
48
342
48
  0
DIMSTYLE
105
51
330
9
100
AcDbSymbolTableRecord
100
AcDbDimStyleTableRecord
  2
tfrom線あり
 70
     0
  3
<>
  4
[]
 41
9.999389648437498
 42
25.0
 43
0.9999999999999999
 44
0.0
 73
     0
 74
     0
 77
     1
 78
    11
140
24.4326171875
141
0.0
143
1.0
147
0.4999999999999999
171
     1
174
     1
178
     0
179
     2
271
     1
272
     1
276
     2
284
    11
285
    11
286
    11
289
     0
340
33
341
48
342
48
  0
DIMSTYLE
105
56
330
9
100
AcDbSymbolTableRecord
100
AcDbDimStyleTableRecord
  2
JIS
 70
     0
  3
<>
  4
[]
 41
31.75
 42
0.0
 43
6.99999999999994
 44
19.9999999999962
 73
     0
 74
     0
 77
     1
 78
    11
140
24.4326171875
141
0.0
143
1.0
147
1.00000000000108
171
     1
174
     1
178
     0
179
     2
271
     1
272
     1
276
     2
284
    11
285
    11
286
    11
289
     0
340
33
341
52
342
52
  0
ENDTAB
  0
TABLE
  2
BLOCK_RECORD
  5
1
330
0
100
AcDbSymbolTable
 70
    21
  0
BLOCK_RECORD
  5
A
330
1
100
AcDbSymbolTableRecord
100
AcDbBlockTableRecord
  2
*MODEL_SPACE
340
20
 70
     0
280
     1
281
     0
  0
BLOCK_RECORD
  5
B
330
1
100
AcDbSymbolTableRecord
100
AcDbBlockTableRecord
  2
*PAPER_SPACE
340
21
 70
     0
280
     1
281
     0
  0
BLOCK_RECORD
  5
48
330
1
100
AcDbSymbolTableRecord
100
AcDbBlockTableRecord
  2
_DOT
340
0
 70
     0
280
     1
281
     0
  0
BLOCK_RECORD
  5
52
330
1
100
AcDbSymbolTableRecord
100
AcDbBlockTableRecord
  2
VW_FILLEDARROW
340
0
102
{BLKREFS
331
22B
331
22A
331
23E
331
23D
331
24D
331
24C
102
}
 70
     0
280
     1
281
     0
  0
BLOCK_RECORD
  5
23
330
1
100
AcDbSymbolTableRecord
100
AcDbBlockTableRecord
  2
グループ
340
0
102
{BLKREFS
331
12C
102
}
 70
     0
280
     1
281
     0
  0
BLOCK_RECORD
  5
24
330
1
100
AcDbSymbolTableRecord
100
AcDbBlockTableRecord
  2
*D3
340
0
 70
     0
280
     1
281
     0
  0
BLOCK_RECORD
  5
25
330
1
100
AcDbSymbolTableRecord
100
AcDbBlockTableRecord
  2
*D4
340
0
 70
     0
280
     1
281
     0
  0
BLOCK_RECORD
  5
26
330
1
100
AcDbSymbolTableRecord
100
AcDbBlockTableRecord
  2
*D5
340
0
 70
     0
280
     1
281
     0
  0
BLOCK_RECORD
  5
27
330
1
100
AcDbSymbolTableRecord
100
AcDbBlockTableRecord
  2
*D6
340
0
 70
     0
280
     1
281
     0
  0
BLOCK_RECORD
  5
28
330
1
100
AcDbSymbolTableRecord
100
AcDbBlockTableRecord
  2
*D7
340
0
 70
     0
280
     1
281
     0
  0
BLOCK_RECORD
  5
29
330
1
100
AcDbSymbolTableRecord
100
AcDbBlockTableRecord
  2
*D8
340
0
 70
     0
280
     1
281
     0
  0
BLOCK_RECORD
  5
2A
330
1
100
AcDbSymbolTableRecord
100
AcDbBlockTableRecord
  2
*D9
340
0
 70
     0
280
     1
281
     0
  0
BLOCK_RECORD
  5
2B
330
1
100
AcDbSymbolTableRecord
100
AcDbBlockTableRecord
  2
*D10
340
0
 70
     0
280
     1
281
     0
  0
BLOCK_RECORD
  5
2C
330
1
100
AcDbSymbolTableRecord
100
AcDbBlockTableRecord
  2
*D11
340
0
 70
     0
280
     1
281
     0
  0
BLOCK_RECORD
  5
2D
330
1
100
AcDbSymbolTableRecord
100
AcDbBlockTableRecord
  2
*D12
340
0
 70
     0
280
     1
281
     0
  0
BLOCK_RECORD
  5
2E
330
1
100
AcDbSymbolTableRecord
100
AcDbBlockTableRecord
  2
*D13
340
0
 70
     0
280
     1
281
     0
  0
BLOCK_RECORD
  5
2F
330
1
100
AcDbSymbolTableRecord
100
AcDbBlockTableRecord
  2
*D14
340
0
 70
     0
280
     1
281
     0
  0
BLOCK_RECORD
  5
30
330
1
100
AcDbSymbolTableRecord
100
AcDbBlockTableRecord
  2
*D15
340
0
 70
     0
280
     1
281
     0
  0
BLOCK_RECORD
  5
31
330
1
100
AcDbSymbolTableRecord
100
AcDbBlockTableRecord
  2
*D16
340
0
 70
     0
280
     1
281
     0
  0
BLOCK_RECORD
  5
32
330
1
100
AcDbSymbolTableRecord
100
AcDbBlockTableRecord
  2
*D17
340
0
 70
     0
280
     1
281
     0
  0
BLOCK_RECORD
  5
224
330
1
100
AcDbSymbolTableRecord
100
AcDbBlockTableRecord
  2
*D18
340
0
 70
     0
280
     1
281
     0
  0
BLOCK_RECORD
  5
237
330
1
100
AcDbSymbolTableRecord
100
AcDbBlockTableRecord
  2
*D19
340
0
 70
     0
280
     1
281
     0
  0
BLOCK_RECORD
  5
246
330
1
100
AcDbSymbolTableRecord
100
AcDbBlockTableRecord
  2
*D20
340
0
 70
     0
280
     1
281
     0
  0
ENDTAB
  0
ENDSEC
  0
SECTION
  2
BLOCKS
  0
BLOCK
  5
D
330
A
100
AcDbEntity
  8
0
390
1D
100
AcDbBlockBegin
  2
*MODEL_SPACE
 70
     0
 10
0.0
 20
0.0
 30
0.0
  3
*MODEL_SPACE
  1
*MODEL_SPACE
  0
ENDBLK
  5
E
330
A
100
AcDbEntity
  8
0
390
1D
100
AcDbBlockEnd
  0
BLOCK
  5
F
330
B
100
AcDbEntity
 67
     1
  8
0
390
1D
100
AcDbBlockBegin
  2
*PAPER_SPACE
 70
     0
 10
0.0
 20
0.0
 30
0.0
  3
*PAPER_SPACE
  1
*PAPER_SPACE
  0
ENDBLK
  5
10
330
B
100
AcDbEntity
 67
     1
  8
0
390
1D
100
AcDbBlockEnd
  0
BLOCK
  5
49
330
48
100
AcDbEntity
  8
0
390
1D
100
AcDbBlockBegin
  2
_DOT
 70
     0
 10
0.0
 20
0.0
 30
0.0
  3
_DOT
  1
_DOT
  0
POLYLINE
  5
4A
330
48
100
AcDbEntity
  8
0
  6
ByBlock
 62
     0
370
    -2
390
1D
100
AcDb2dPolyline
 66
     1
 10
0.0
 20
0.0
 30
0.0
 70
     1
 40
0.5
 41
0.5
  0
VERTEX
  5
4B
330
4A
100
AcDbEntity
  8
0
  6
ByBlock
 62
     0
370
    -2
390
1D
100
AcDbVertex
100
AcDb2dVertex
 10
-0.25
 20
0.0
 30
0.0
 42
1.0
  0
VERTEX
  5
4C
330
4A
100
AcDbEntity
  8
0
  6
ByBlock
 62
     0
370
    -2
390
1D
100
AcDbVertex
100
AcDb2dVertex
 10
0.25
 20
0.0
 30
0.0
 42
1.0
  0
SEQEND
  5
4D
330
4A
100
AcDbEntity
  8
0
390
1D
  0
LINE
  5
4E
330
48
100
AcDbEntity
  8
0
  6
ByBlock
 62
     0
370
    -2
390
1D
100
AcDbLine
 10
-0.5
 20
0.0
 30
0.0
 11
-1.0
 21
0.0
 31
0.0
  0
ENDBLK
  5
4F
330
48
100
AcDbEntity
  8
0
390
1D
100
AcDbBlockEnd
  0
BLOCK
  5
53
330
52
100
AcDbEntity
  8
0
  6
ByBlock
 62
     0
370
    -2
390
1D
100
AcDbBlockBegin
  2
VW_FILLEDARROW
 70
     0
 10
0.0
 20
0.0
 30
0.0
  3
VW_FILLEDARROW
  1
VW_FILLEDARROW
  0
SOLID
  5
54
330
52
100
AcDbEntity
  8
0
 62
     0
370
    -2
390
1D
100
AcDbTrace
 10
0.0
 20
0.0
 30
0.0
 11
-0.9921874999999999
 21
-0.2658558393652545
 31
0.0
 12
-0.9921874999999999
 22
0.2658558393652548
 32
0.0
 13
-0.9921874999999999
 23
0.2658558393652548
 33
0.0
  0
ENDBLK
  5
55
330
52
100
AcDbEntity
  8
0
390
1D
100
AcDbBlockEnd
  0
BLOCK
  5
57
330
23
100
AcDbEntity
  8
template
390
1D
100
AcDbBlockBegin
  2
グループ
 70
     0
 10
0.0
 20
0.0
 30
0.0
  3
グループ
  1
グループ
  0
LWPOLYLINE
  5
58
330
23
100
AcDbEntity
  8
0
  6
Continuous
 62
     7
370
    15
390
1D
100
AcDbPolyline
 90
        8
 70
   129
 43
0.0
 10
-1129.680400612906
 20
-1831.336473430455
 10
-1129.680400612906
 20
-1837.333862124031
 10
-1139.18159753091
 20
-1837.333862124031
 10
-1139.18159753091
 20
-1861.78482538754
 10
-1147.536974792692
 20
-1861.78482538754
 10
-1147.536974792692
 20
-1837.333862124031
 10
-1156.869931739002
 20
-1837.333862124031
 10
-1156.869931739002
 20
-1831.336473430455
  0
LWPOLYLINE
  5
59
330
23
100
AcDbEntity
  8
0
  6
Continuous
 62
     7
370
    15
390
1D
100
AcDbPolyline
 90
      101
 70
   128
 43
0.0
 10
-1116.952108782349
 20
-1832.064721923391
 10
-1116.936758753566
 20
-1832.060361166707
 42
-0.0222221607814276
 10
-1116.646754176893
 20
-1831.991736701462
 10
-1116.630960412901
 20
-1831.988733278365
 42
-0.0146883565589265
 10
-1116.368257707675
 20
-1831.946730091415
 42
-0.0127458844185848
 10
-1116.103618740525
 20
-1831.919193123343
 10
-1116.04116366221
 20
-1831.914299700755
 42
-0.0198099018570718
 10
-1115.650314552739
 20
-1831.899214543358
 10
-1115.598503083289
 20
-1831.899268319023
 42
-0.0147617382761934
 10
-1115.103879622312
 20
-1831.914388344268
 10
-1115.031188167439
 20
-1831.918760951156
 42
-0.0162624549004524
 10
-1114.641034537975
 20
-1831.954993826428
 10
-1114.519502146721
 20
-1831.970280385424
 42
-0.0080020874670361
 10
-1114.373923115624
 20
-1831.990963232693
 10
-1114.335603645028
 20
-1831.997034510504
 42
-0.0053821929680187
 10
-1114.267119539715
 20
-1832.008642034325
 10
-1114.993525238913
 20
-1834.189570490039
 42
0.0108667757399473
 10
-1115.060842309044
 20
-1834.17638337482
 10
-1115.098310332233
 20
-1834.169885632225
 42
0.0170663203304341
 10
-1115.241527119145
 20
-1834.150056034934
 10
-1115.309402451832
 20
-1834.143008864346
 42
0.0220162375272432
 10
-1115.589781859685
 20
-1834.126326503576
 10
-1115.667637426742
 20
-1834.125127136309
 42
0.0282606915786607
 10
-1116.003273750317
 20
-1834.138930413278
 10
-1116.047187024088
 20
-1834.143230403282
 42
0.0169677213687422
 10
-1116.293111519049
 20
-1834.175767452834
 42
0.0190576269873411
 10
-1116.536019481632
 20
-1834.225914324941
 10
-1116.54227866974
 20
-1834.22745729905
 42
0.0213685642839587
 10
-1116.792663154215
 20
-1834.300657584153
 10
-1116.798153049133
 20
-1834.302520580213
 42
0.0237595297586489
 10
-1117.051647934029
 20
-1834.402205102107
 10
-1117.056750008062
 20
-1834.404496877587
 42
0.0261857468808156
 10
-1117.30892078429
 20
-1834.53403321496
 10
-1117.319346973379
 20
-1834.54009868943
 42
0.027255306202249
 10
-1117.555776748617
 20
-1834.695470895374
 10
-1117.590539762127
 20
-1834.721132043467
 42
0.0325996893177675
 10
-1117.740695105778
 20
-1834.847879916438
 10
-1117.764404534905
 20
-1834.870697944954
 42
0.0138050960647761
 10
-1117.856287691111
 20
-1834.964147606503
 42
0.0125280103809111
 10
-1117.943130223944
 20
-1835.062310933102
 10
-1117.966810668853
 20
-1835.09046943129
 42
0.0205218024736455
 10
-1118.091910744368
 20
-1835.25226274552
 10
-1118.114377084854
 20
-1835.283922475346
 42
0.0163110129580495
 10
-1118.270087464105
 20
-1835.519252910414
 10
-1118.272811360157
 20
-1835.523676672401
 42
0.0131897341894414
 10
-1118.41961188106
 20
-1835.776808764761
 10
-1118.421311976429
 20
-1835.779927003901
 42
0.0107895576062046
 10
-1118.55908867864
 20
-1836.046142213538
 10
-1118.559821568165
 20
-1836.047636446183
 42
0.0091371507216436
 10
-1118.688301516815
 20
-1836.322161643945
 10
-1118.718047148223
 20
-1836.388868151102
 42
0.0135418326353262
 10
-1118.889761087295
 20
-1836.803805936372
 10
-1118.92336589573
 20
-1836.891672078653
 42
0.0092834542411395
 10
-1119.09459495565
 20
-1837.365570576957
 10
-1119.120212083368
 20
-1837.440811646752
 42
0.0054261043583896
 10
-1119.227850231661
 20
-1837.768575619815
 10
-1119.245376217854
 20
-1837.823963782094
 42
0.0008225090816846
 10
-1119.314046269668
 20
-1838.042232540195
 10
-1120.298735401602
 20
-1841.067123833451
 10
-1117.066111561528
 20
-1841.067123833451
 10
-1117.570303991381
 20
-1842.971602131804
 10
-1120.826360273365
 20
-1842.971602131804
 10
-1126.655509305718
 20
-1861.784825197808
 10
-1128.480606916029
 20
-1861.784825197808
 10
-1122.645928880528
 20
-1842.971602131804
 10
-1125.051045249568
 20
-1842.971602131804
 10
-1124.546852819715
 20
-1841.067123833451
 10
-1122.118304008765
 20
-1841.067123833451
 10
-1121.258149090576
 20
-1838.430710832752
 42
-0.0005863560654167
 10
-1121.2214144124
 20
-1838.313884412547
 10
-1121.145326578712
 20
-1838.072892113075
 42
-0.0087522378928477
 10
-1120.945858435256
 20
-1837.47761602593
 10
-1120.853594159842
 20
-1837.217475857415
 42
-0.0077400953831065
 10
-1120.595660500711
 20
-1836.524471179867
 10
-1120.579895529133
 20
-1836.484040296485
 42
-0.008236994633008
 10
-1120.33281105852
 20
-1835.879961230286
 42
-0.0085725238363047
 10
-1120.065564962516
 20
-1835.284535190996
 10
-1119.96393536151
 20
-1835.068114089015
 42
-0.0168109410596338
 10
-1119.67699093278
 20
-1834.506906562909
 10
-1119.551147542337
 20
-1834.279942529942
 42
-0.000781772686424
 10
-1119.496863192264
 20
-1834.18239828488
 10
-1119.49673488625
 20
-1834.182168576149
 42
-0.0036626142154035
 10
-1119.441847022225
 20
-1834.085570696176
 42
-0.0080221150682171
 10
-1119.384722766822
 20
-1833.990291461428
 10
-1119.354022815457
 20
-1833.940900512301
 42
-0.0202139325576948
 10
-1119.226367075651
 20
-1833.75291891162
 10
-1119.172299610463
 20
-1833.679840047378
 42
-0.024932379179862
 10
-1118.913136816745
 20
-1833.363794805225
 10
-1118.888997002617
 20
-1833.337180532311
 42
-0.0242132121535707
 10
-1118.549316261075
 20
-1832.997297046107
 10
-1118.501404688324
 20
-1832.953787909921
 42
-0.0251017527860037
 10
-1118.217422987684
 20
-1832.720795164157
 10
-1118.215977510866
 20
-1832.719725906574
 42
-0.0130868069034501
 10
-1117.917716860913
 20
-1832.510945438035
 10
-1117.916155041769
 20
-1832.509911997759
 42
-0.029032952638947
 10
-1117.605043900377
 20
-1832.329086496131
 10
-1117.575198338388
 20
-1832.31398411329
 42
-0.0160250190046588
 10
-1117.309293924626
 20
-1832.189968003078
 42
-0.0267600374782478
 10
-1117.034017847157
 20
-1832.08921968253
 10
-1117.007281927636
 20
-1832.081027123704
 42
-0.0049981587669928
 10
-1116.952108782349
 20
-1832.064721923391
 42
-0.0049981587669928
  0
LWPOLYLINE
  5
5A
330
23
100
AcDbEntity
  8
0
  6
Continuous
 62
     7
370
    15
390
1D
100
AcDbPolyline
 90
      118
 70
   128
 43
0.0
 10
-1097.137741217902
 20
-1841.141107161279
 10
-1095.262619293403
 20
-1841.141107161279
 10
-1096.100658199003
 20
-1843.822673687679
 42
-0.001058722924262
 10
-1096.069202383429
 20
-1843.785769154321
 10
-1096.011008292799
 20
-1843.717786898148
 42
-0.0071874740408314
 10
-1095.860633074705
 20
-1843.547146206123
 10
-1095.718910301438
 20
-1843.390910064805
 42
-0.0148118053511753
 10
-1095.268781008728
 20
-1842.923296218794
 10
-1095.181558673825
 20
-1842.83789889794
 42
-0.0086273358691471
 10
-1094.846009872816
 20
-1842.520523263922
 10
-1094.80217615659
 20
-1842.48047361959
 42
-0.0103138323116109
 10
-1094.544152454356
 20
-1842.254310482251
 10
-1094.498378048029
 20
-1842.21582843499
 42
-0.0060206748562049
 10
-1094.325529983917
 20
-1842.074033784236
 10
-1094.32349885303
 20
-1842.072408078604
 42
-0.0067069027289268
 10
-1094.151206038368
 20
-1841.93825744481
 10
-1094.148657272447
 20
-1841.936327274938
 42
-0.0076184352046509
 10
-1093.977752006571
 20
-1841.810952399691
 42
-0.0089652861668815
 10
-1093.802791043834
 20
-1841.691319139357
 10
-1093.766439323695
 20
-1841.667407925878
 42
-0.0156916245938576
 10
-1093.570479826531
 20
-1841.547145439401
 42
-0.0023299011061801
 10
-1093.370217782551
 20
-1841.43396749986
 10
-1093.354833650172
 20
-1841.425367504796
 42
-0.0107669341485156
 10
-1093.120596825065
 20
-1841.300967371443
 10
-1093.098332023996
 20
-1841.289750621496
 42
-0.0078058045896975
 10
-1092.814741906047
 20
-1841.15238916586
 10
-1092.804834818334
 20
-1841.147780037989
 42
-0.0181829330474051
 10
-1092.49452541372
 20
-1841.016916296894
 10
-1092.440469971153
 20
-1840.996401176951
 42
-0.0208411536030498
 10
-1092.091385003701
 20
-1840.880310714457
 10
-1092.077028903574
 20
-1840.876192269503
 42
-0.0222799817135569
 10
-1091.748309109656
 20
-1840.797550703363
 10
-1091.739420146419
 20
-1840.795838692778
 42
-0.0215509523882023
 10
-1091.42294917814
 20
-1840.748923004244
 10
-1091.38046721709
 20
-1840.744485477453
 42
-0.0182545924873259
 10
-1091.146358437785
 20
-1840.728641652062
 10
-1091.106957421446
 20
-1840.727417106983
 42
-0.0072962856538034
 10
-1090.951034541748
 20
-1840.724847778461
 10
-1090.92193487117
 20
-1840.724792943057
 42
-0.0059227516306103
 10
-1090.824185372031
 20
-1840.725766654847
 10
-1090.794943154476
 20
-1840.726404421452
 42
-0.0011833111881741
 10
-1090.755691870827
 20
-1840.727353425761
 10
-1091.551078466434
 20
-1843.26608737086
 42
0.0143932051571293
 10
-1091.577479848788
 20
-1843.255888400813
 10
-1091.584751821202
 20
-1843.253317181957
 42
0.0234388603487646
 10
-1091.626582687131
 20
-1843.240697946243
 10
-1091.635264350047
 20
-1843.238516984237
 42
0.0199162742979666
 10
-1091.695553184127
 20
-1843.225900248902
 10
-1091.716367121933
 20
-1843.222403049473
 42
0.0293643550671364
 10
-1091.819441980693
 20
-1843.21125300382
 10
-1091.844127161413
 20
-1843.210041386801
 42
0.0214606686870396
 10
-1091.997268077365
 20
-1843.209102826384
 10
-1092.006639988183
 20
-1843.209447737928
 42
0.0167564054188686
 10
-1092.178160179297
 20
-1843.221524780297
 10
-1092.186619972051
 20
-1843.222406120723
 42
0.0137677553249128
 10
-1092.373973285321
 20
-1843.247155429268
 10
-1092.381325024823
 20
-1843.248333349235
 42
0.0118497261485353
 10
-1092.581822788925
 20
-1843.285350699424
 10
-1092.587972796172
 20
-1843.286637562144
 42
0.010642114389249
 10
-1092.79885368346
 20
-1843.33546993772
 10
-1092.803762491846
 20
-1843.336717280404
 42
0.0099746379700816
 10
-1093.022220961005
 20
-1843.396891808718
 10
-1093.083769001179
 20
-1843.415173687349
 42
0.0191613675861615
 10
-1093.419753463696
 20
-1843.529151067637
 10
-1093.507813236441
 20
-1843.562837977961
 42
0.0205274080144683
 10
-1093.89312000834
 20
-1843.728666385787
 10
-1093.950769290319
 20
-1843.756334350358
 42
0.0181256912188493
 10
-1094.209046230989
 20
-1843.892018169337
 10
-1094.262001614303
 20
-1843.922335782552
 42
0.0140709242408795
 10
-1094.406956548931
 20
-1844.010830455986
 10
-1094.43320541755
 20
-1844.027887274702
 42
0.0086667884395258
 10
-1094.522131579093
 20
-1844.087889942585
 42
0.0036408192027326
 10
-1094.609564817133
 20
-1844.150070800382
 10
-1094.644791691594
 20
-1844.17551174629
 42
0.0052260781271724
 10
-1094.80102038898
 20
-1844.290844132919
 10
-1094.817227245245
 20
-1844.303072243542
 42
0.0050024435890034
 10
-1095.003230588297
 20
-1844.446354811799
 10
-1095.018548744819
 20
-1844.45840083425
 42
0.0136138710276235
 10
-1095.228990013145
 20
-1844.633367339164
 10
-1095.262657888938
 20
-1844.662946311877
 42
0.0172815186909548
 10
-1095.527061430599
 20
-1844.911942984499
 10
-1095.529623776443
 20
-1844.914528801648
 42
0.0189403857991495
 10
-1095.780205575022
 20
-1845.187334066452
 10
-1095.812837068557
 20
-1845.225677997948
 42
0.0185044199505118
 10
-1096.004793507538
 20
-1845.468926579073
 42
0.0088565243899029
 10
-1096.183253614166
 20
-1845.722442999221
 10
-1096.192431593815
 20
-1845.735984378982
 42
0.0157195347228041
 10
-1096.37565220015
 20
-1846.025506588299
 10
-1096.421735142078
 20
-1846.103658785315
 42
0.0095451879781531
 10
-1096.586820692218
 20
-1846.396253427676
 10
-1096.597968611148
 20
-1846.416924099809
 42
0.0100351706258903
 10
-1096.730012360307
 20
-1846.673979660298
 42
0.008693591542578
 10
-1096.852343512099
 20
-1846.935812805698
 10
-1096.855664253515
 20
-1846.943255128675
 42
0.0072580174864594
 10
-1096.976010705458
 20
-1847.223847120251
 10
-1096.979272338767
 20
-1847.231767146276
 42
0.0060005122609996
 10
-1097.098473007109
 20
-1847.53137681688
 10
-1097.101683985451
 20
-1847.539738344785
 42
0.004901778697904
 10
-1097.220584144309
 20
-1847.858667325393
 10
-1097.223749950699
 20
-1847.86742026262
 42
0.0039415167605522
 10
-1097.343186228755
 20
-1848.205962325033
 10
-1097.346317331408
 20
-1848.215065525909
 42
0.0031035838765747
 10
-1097.467122117098
 20
-1848.573505387676
 10
-1097.470232161631
 20
-1848.582926009058
 42
0.0025070747153068
 10
-1097.593133512942
 20
-1848.961573225987
 10
-1097.630427409372
 20
-1849.078464891255
 42
0.0029081910284859
 10
-1097.822445707187
 20
-1849.692628549562
 10
-1097.8632488757
 20
-1849.825851791822
 42
0.0009266453732565
 10
-1098.131666250013
 20
-1850.708076251742
 10
-1098.15255372265
 20
-1850.777188130966
 42
-0.0005809993666188
 10
-1098.429890403246
 20
-1851.690996237621
 10
-1098.496172201524
 20
-1851.908481169795
 42
-0.0012018708166704
 10
-1098.643156510948
 20
-1852.386643834301
 10
-1098.695476362507
 20
-1852.555402975146
 42
-0.0002691059606393
 10
-1098.739045843683
 20
-1852.695670595509
 10
-1101.572001741972
 20
-1861.784825197808
 10
-1103.38999063395
 20
-1861.784825197808
 10
-1097.137741217902
 20
-1841.141107161279
  0
SPLINE
  5
5B
330
23
100
AcDbEntity
  8
0
  6
Continuous
 62
     7
370
    15
390
1D
100
AcDbSpline
210
0.0
220
0.0
230
1.0
 70
    15
 71
     2
 72
   782
 73
   779
 74
     0
 42
0.000000001
 43
0.000001
 40
0.0
 40
0.0
 40
0.0
 40
1.0
 40
1.0
 40
2.0
 40
2.0
 40
3.0
 40
3.0
 40
4.0
 40
4.0
 40
5.0
 40
5.0
 40
6.0
 40
6.0
 40
7.0
 40
7.0
 40
8.0
 40
8.0
 40
9.0
 40
9.0
 40
10.0
 40
10.0
 40
11.0
 40
11.0
 40
12.0
 40
12.0
 40
13.0
 40
13.0
 40
14.0
 40
14.0
 40
15.0
 40
15.0
 40
16.0
 40
16.0
 40
17.0
 40
17.0
 40
18.0
 40
18.0
 40
19.0
 40
19.0
 40
20.0
 40
20.0
 40
21.0
 40
21.0
 40
22.0
 40
22.0
 40
23.0
 40
23.0
 40
24.0
 40
24.0
 40
25.0
 40
25.0
 40
26.0
 40
26.0
 40
27.0
 40
27.0
 40
28.0
 40
28.0
 40
29.0
 40
29.0
 40
30.0
 40
30.0
 40
31.0
 40
31.0
 40
32.0
 40
32.0
 40
33.0
 40
33.0
 40
34.0
 40
34.0
 40
35.0
 40
35.0
 40
36.0
 40
36.0
 40
37.0
 40
37.0
 40
38.0
 40
38.0
 40
39.0
 40
39.0
 40
40.0
 40
40.0
 40
41.0
 40
41.0
 40
42.0
 40
42.0
 40
43.0
 40
43.0
 40
44.0
 40
44.0
 40
45.0
 40
45.0
 40
46.0
 40
46.0
 40
47.0
 40
47.0
 40
48.0
 40
48.0
 40
49.0
 40
49.0
 40
50.0
 40
50.0
 40
51.0
 40
51.0
 40
52.0
 40
52.0
 40
53.0
 40
53.0
 40
54.0
 40
54.0
 40
55.0
 40
55.0
 40
56.0
 40
56.0
 40
57.0
 40
57.0
 40
58.0
 40
58.0
 40
59.0
 40
59.0
 40
60.0
 40
60.0
 40
61.0
 40
61.0
 40
62.0
 40
62.0
 40
63.0
 40
63.0
 40
64.0
 40
64.0
 40
65.0
 40
65.0
 40
66.0
 40
66.0
 40
67.0
 40
67.0
 40
68.0
 40
68.0
 40
69.0
 40
69.0
 40
70.0
 40
70.0
 40
71.0
 40
71.0
 40
72.0
 40
72.0
 40
73.0
 40
73.0
 40
74.0
 40
74.0
 40
75.0
 40
75.0
 40
76.0
 40
76.0
 40
77.0
 40
77.0
 40
78.0
 40
78.0
 40
79.0
 40
79.0
 40
80.0
 40
80.0
 40
81.0
 40
81.0
 40
82.0
 40
82.0
 40
83.0
 40
83.0
 40
84.0
 40
84.0
 40
85.0
 40
85.0
 40
86.0
 40
86.0
 40
87.0
 40
87.0
 40
88.0
 40
88.0
 40
89.0
 40
89.0
 40
90.0
 40
90.0
 40
91.0
 40
91.0
 40
92.0
 40
92.0
 40
93.0
 40
93.0
 40
94.0
 40
94.0
 40
95.0
 40
95.0
 40
96.0
 40
96.0
 40
97.0
 40
97.0
 40
98.0
 40
98.0
 40
99.0
 40
99.0
 40
100.0
 40
100.0
 40
101.0
 40
101.0
 40
102.0
 40
102.0
 40
103.0
 40
103.0
 40
104.0
 40
104.0
 40
105.0
 40
105.0
 40
106.0
 40
106.0
 40
107.0
 40
107.0
 40
108.0
 40
108.0
 40
109.0
 40
109.0
 40
110.0
 40
110.0
 40
111.0
 40
111.0
 40
112.0
 40
112.0
 40
113.0
 40
113.0
 40
114.0
 40
114.0
 40
115.0
 40
115.0
 40
116.0
 40
116.0
 40
117.0
 40
117.0
 40
118.0
 40
118.0
 40
119.0
 40
119.0
 40
120.0
 40
120.0
 40
121.0
 40
121.0
 40
122.0
 40
122.0
 40
123.0
 40
123.0
 40
124.0
 40
124.0
 40
125.0
 40
125.0
 40
126.0
 40
126.0
 40
127.0
 40
127.0
 40
128.0
 40
128.0
 40
129.0
 40
129.0
 40
130.0
 40
130.0
 40
131.0
 40
131.0
 40
132.0
 40
132.0
 40
133.0
 40
133.0
 40
134.0
 40
134.0
 40
135.0
 40
135.0
 40
136.0
 40
136.0
 40
137.0
 40
137.0
 40
138.0
 40
138.0
 40
139.0
 40
139.0
 40
140.0
 40
140.0
 40
141.0
 40
141.0
 40
142.0
 40
142.0
 40
143.0
 40
143.0
 40
144.0
 40
144.0
 40
145.0
 40
145.0
 40
146.0
 40
146.0
 40
147.0
 40
147.0
 40
148.0
 40
148.0
 40
149.0
 40
149.0
 40
150.0
 40
150.0
 40
151.0
 40
151.0
 40
152.0
 40
152.0
 40
153.0
 40
153.0
 40
154.0
 40
154.0
 40
155.0
 40
155.0
 40
156.0
 40
156.0
 40
157.0
 40
157.0
 40
158.0
 40
158.0
 40
159.0
 40
159.0
 40
160.0
 40
160.0
 40
161.0
 40
161.0
 40
162.0
 40
162.0
 40
163.0
 40
163.0
 40
164.0
 40
164.0
 40
165.0
 40
165.0
 40
166.0
 40
166.0
 40
167.0
 40
167.0
 40
168.0
 40
168.0
 40
169.0
 40
169.0
 40
170.0
 40
170.0
 40
171.0
 40
171.0
 40
172.0
 40
172.0
 40
173.0
 40
173.0
 40
174.0
 40
174.0
 40
175.0
 40
175.0
 40
176.0
 40
176.0
 40
177.0
 40
177.0
 40
178.0
 40
178.0
 40
179.0
 40
179.0
 40
180.0
 40
180.0
 40
181.0
 40
181.0
 40
182.0
 40
182.0
 40
183.0
 40
183.0
 40
184.0
 40
184.0
 40
185.0
 40
185.0
 40
186.0
 40
186.0
 40
187.0
 40
187.0
 40
188.0
 40
188.0
 40
189.0
 40
189.0
 40
190.0
 40
190.0
 40
191.0
 40
191.0
 40
192.0
 40
192.0
 40
193.0
 40
193.0
 40
194.0
 40
194.0
 40
195.0
 40
195.0
 40
196.0
 40
196.0
 40
197.0
 40
197.0
 40
198.0
 40
198.0
 40
199.0
 40
199.0
 40
200.0
 40
200.0
 40
201.0
 40
201.0
 40
202.0
 40
202.0
 40
203.0
 40
203.0
 40
204.0
 40
204.0
 40
205.0
 40
205.0
 40
206.0
 40
206.0
 40
207.0
 40
207.0
 40
208.0
 40
208.0
 40
209.0
 40
209.0
 40
210.0
 40
210.0
 40
211.0
 40
211.0
 40
212.0
 40
212.0
 40
213.0
 40
213.0
 40
214.0
 40
214.0
 40
215.0
 40
215.0
 40
216.0
 40
216.0
 40
217.0
 40
217.0
 40
218.0
 40
218.0
 40
219.0
 40
219.0
 40
220.0
 40
220.0
 40
221.0
 40
221.0
 40
222.0
 40
222.0
 40
223.0
 40
223.0
 40
224.0
 40
224.0
 40
225.0
 40
225.0
 40
226.0
 40
226.0
 40
227.0
 40
227.0
 40
228.0
 40
228.0
 40
229.0
 40
229.0
 40
230.0
 40
230.0
 40
231.0
 40
231.0
 40
232.0
 40
232.0
 40
233.0
 40
233.0
 40
234.0
 40
234.0
 40
235.0
 40
235.0
 40
236.0
 40
236.0
 40
237.0
 40
237.0
 40
238.0
 40
238.0
 40
239.0
 40
239.0
 40
240.0
 40
240.0
 40
241.0
 40
241.0
 40
242.0
 40
242.0
 40
243.0
 40
243.0
 40
244.0
 40
244.0
 40
245.0
 40
245.0
 40
246.0
 40
246.0
 40
247.0
 40
247.0
 40
248.0
 40
248.0
 40
249.0
 40
249.0
 40
250.0
 40
250.0
 40
251.0
 40
251.0
 40
252.0
 40
252.0
 40
253.0
 40
253.0
 40
254.0
 40
254.0
 40
255.0
 40
255.0
 40
256.0
 40
256.0
 40
257.0
 40
257.0
 40
258.0
 40
258.0
 40
259.0
 40
259.0
 40
260.0
 40
260.0
 40
261.0
 40
261.0
 40
262.0
 40
262.0
 40
263.0
 40
263.0
 40
264.0
 40
264.0
 40
265.0
 40
265.0
 40
266.0
 40
266.0
 40
267.0
 40
267.0
 40
268.0
 40
268.0
 40
269.0
 40
269.0
 40
270.0
 40
270.0
 40
271.0
 40
271.0
 40
272.0
 40
272.0
 40
273.0
 40
273.0
 40
274.0
 40
274.0
 40
275.0
 40
275.0
 40
276.0
 40
276.0
 40
277.0
 40
277.0
 40
278.0
 40
278.0
 40
279.0
 40
279.0
 40
280.0
 40
280.0
 40
281.0
 40
281.0
 40
282.0
 40
282.0
 40
283.0
 40
283.0
 40
284.0
 40
284.0
 40
285.0
 40
285.0
 40
286.0
 40
286.0
 40
287.0
 40
287.0
 40
288.0
 40
288.0
 40
289.0
 40
289.0
 40
290.0
 40
290.0
 40
291.0
 40
291.0
 40
292.0
 40
292.0
 40
293.0
 40
293.0
 40
294.0
 40
294.0
 40
295.0
 40
295.0
 40
296.0
 40
296.0
 40
297.0
 40
297.0
 40
298.0
 40
298.0
 40
299.0
 40
299.0
 40
300.0
 40
300.0
 40
301.0
 40
301.0
 40
302.0
 40
302.0
 40
303.0
 40
303.0
 40
304.0
 40
304.0
 40
305.0
 40
305.0
 40
306.0
 40
306.0
 40
307.0
 40
307.0
 40
308.0
 40
308.0
 40
309.0
 40
309.0
 40
310.0
 40
310.0
 40
311.0
 40
311.0
 40
312.0
 40
312.0
 40
313.0
 40
313.0
 40
314.0
 40
314.0
 40
315.0
 40
315.0
 40
316.0
 40
316.0
 40
317.0
 40
317.0
 40
318.0
 40
318.0
 40
319.0
 40
319.0
 40
320.0
 40
320.0
 40
321.0
 40
321.0
 40
322.0
 40
322.0
 40
323.0
 40
323.0
 40
324.0
 40
324.0
 40
325.0
 40
325.0
 40
326.0
 40
326.0
 40
327.0
 40
327.0
 40
328.0
 40
328.0
 40
329.0
 40
329.0
 40
330.0
 40
330.0
 40
331.0
 40
331.0
 40
332.0
 40
332.0
 40
333.0
 40
333.0
 40
334.0
 40
334.0
 40
335.0
 40
335.0
 40
336.0
 40
336.0
 40
337.0
 40
337.0
 40
338.0
 40
338.0
 40
339.0
 40
339.0
 40
340.0
 40
340.0
 40
341.0
 40
341.0
 40
342.0
 40
342.0
 40
343.0
 40
343.0
 40
344.0
 40
344.0
 40
345.0
 40
345.0
 40
346.0
 40
346.0
 40
347.0
 40
347.0
 40
348.0
 40
348.0
 40
349.0
 40
349.0
 40
350.0
 40
350.0
 40
351.0
 40
351.0
 40
352.0
 40
352.0
 40
353.0
 40
353.0
 40
354.0
 40
354.0
 40
355.0
 40
355.0
 40
356.0
 40
356.0
 40
357.0
 40
357.0
 40
358.0
 40
358.0
 40
359.0
 40
359.0
 40
360.0
 40
360.0
 40
361.0
 40
361.0
 40
362.0
 40
362.0
 40
363.0
 40
363.0
 40
364.0
 40
364.0
 40
365.0
 40
365.0
 40
366.0
 40
366.0
 40
367.0
 40
367.0
 40
368.0
 40
368.0
 40
369.0
 40
369.0
 40
370.0
 40
370.0
 40
371.0
 40
371.0
 40
372.0
 40
372.0
 40
373.0
 40
373.0
 40
374.0
 40
374.0
 40
375.0
 40
375.0
 40
376.0
 40
376.0
 40
377.0
 40
377.0
 40
378.0
 40
378.0
 40
379.0
 40
379.0
 40
380.0
 40
380.0
 40
381.0
 40
381.0
 40
382.0
 40
382.0
 40
383.0
 40
383.0
 40
384.0
 40
384.0
 40
385.0
 40
385.0
 40
386.0
 40
386.0
 40
387.0
 40
387.0
 40
388.0
 40
388.0
 40
389.0
 40
389.0
 40
389.0
 10
-1086.80903676717
 20
-1841.130180797916
 30
0.0
 41
1.0
 10
-1085.990612658449
 20
-1841.130180797916
 30
0.0
 41
1.0
 10
-1085.172188549729
 20
-1841.130180797916
 30
0.0
 41
1.0
 10
-1085.585942285245
 20
-1842.472807062166
 30
0.0
 41
1.0
 10
-1085.999696020762
 20
-1843.815433326416
 30
0.0
 41
1.0
 10
-1085.981356525603
 20
-1843.786732553518
 30
0.0
 41
0.9999957264359381
 10
-1085.96284952878
 20
-1843.758139503379
 30
0.0
 41
1.0
 10
-1085.932420204635
 20
-1843.711126624991
 30
0.0
 41
1.0
 10
-1085.901990880489
 20
-1843.664113746602
 30
0.0
 41
1.0
 10
-1085.822625235383
 20
-1843.541494939698
 30
0.0
 41
0.9995394069081226
 10
-1085.735966843831
 20
-1843.423916877956
 30
0.0
 41
1.0
 10
-1085.70020998157
 20
-1843.375401985362
 30
0.0
 41
1.0
 10
-1085.664453119311
 20
-1843.326887092768
 30
0.0
 41
1.0
 10
-1085.530726451493
 20
-1843.145446817643
 30
0.0
 41
0.9994460617143288
 10
-1085.385225970205
 20
-1842.973304419993
 30
0.0
 41
1.0
 10
-1085.380837789231
 20
-1842.968112739612
 30
0.0
 41
1.0
 10
-1085.376449608256
 20
-1842.96292105923
 30
0.0
 41
1.0
 10
-1085.239725488918
 20
-1842.801162022344
 30
0.0
 41
0.9994359394933989
 10
-1085.092451258566
 20
-1842.648945821179
 30
0.0
 41
1.0
 10
-1085.090067904612
 20
-1842.646482490805
 30
0.0
 41
1.0
 10
-1085.087684550657
 20
-1842.644019160431
 30
0.0
 41
1.0
 10
-1084.945177028214
 20
-1842.496729620014
 30
0.0
 41
0.9995293688567733
 10
-1084.793905347232
 20
-1842.35845640785
 30
0.0
 41
1.0
 10
-1084.77461158797
 20
-1842.3408205222
 30
0.0
 41
1.0
 10
-1084.755317828707
 20
-1842.323184636549
 30
0.0
 41
1.0
 10
-1084.64263366625
 20
-1842.220183195686
 30
0.0
 41
0.9997087614803541
 10
-1084.525110777295
 20
-1842.122738914888
 30
0.0
 41
1.0
 10
-1084.505944704118
 20
-1842.106847336379
 30
0.0
 41
1.0
 10
-1084.486778630941
 20
-1842.09095575787
 30
0.0
 41
1.0
 10
-1084.407587888338
 20
-1842.025294634089
 30
0.0
 41
0.9999595338699493
 10
-1084.327228617485
 20
-1841.961068903435
 30
0.0
 41
1.0
 10
-1084.246869346629
 20
-1841.896843172779
 30
0.0
 41
0.9999749417499931
 10
-1084.165608812282
 20
-1841.833761618831
 30
0.0
 41
1.0
 10
-1084.144622666117
 20
-1841.817470331527
 30
0.0
 41
1.0
 10
-1084.123636519952
 20
-1841.801179044223
 30
0.0
 41
1.0
 10
-1084.039068634654
 20
-1841.735530034386
 30
0.0
 41
0.9999792037115601
 10
-1083.953661034884
 20
-1841.670977252742
 30
0.0
 41
1.0
 10
-1083.932836208985
 20
-1841.655237430493
 30
0.0
 41
1.0
 10
-1083.912011383085
 20
-1841.639497608244
 30
0.0
 41
1.0
 10
-1083.868253435131
 20
-1841.606424471111
 30
0.0
 41
0.9999993374159521
 10
-1083.824571748971
 20
-1841.573250675674
 30
0.0
 41
1.0
 10
-1083.780890062829
 20
-1841.540076880251
 30
0.0
 41
0.9999160953814811
 10
-1083.73636365191
 20
-1841.508045815053
 30
0.0
 41
1.0
 10
-1083.70354176449
 20
-1841.484434659467
 30
0.0
 41
1.0
 10
-1083.67071987707
 20
-1841.460823503882
 30
0.0
 41
1.0
 10
-1083.560549691309
 20
-1841.381570127513
 30
0.0
 41
0.9980964527232012
 10
-1083.441460697808
 20
-1841.316482654656
 30
0.0
 41
1.0
 10
-1083.404428090881
 20
-1841.296242675064
 30
0.0
 41
1.0
 10
-1083.367395483955
 20
-1841.276002695472
 30
0.0
 41
1.0
 10
-1083.188068470681
 20
-1841.17799244477
 30
0.0
 41
0.9984572810572252
 10
-1082.998979904322
 20
-1841.100470183424
 30
0.0
 41
1.0
 10
-1082.995333634926
 20
-1841.098975291086
 30
0.0
 41
1.0
 10
-1082.991687365529
 20
-1841.097480398748
 30
0.0
 41
1.0
 10
-1082.809891337963
 20
-1841.022947922077
 30
0.0
 41
0.9987838528033918
 10
-1082.621638679404
 20
-1840.966682281912
 30
0.0
 41
1.0
 10
-1082.617400730206
 20
-1840.965415628222
 30
0.0
 41
1.0
 10
-1082.613162781008
 20
-1840.964148974532
 30
0.0
 41
1.0
 10
-1082.433386020846
 20
-1840.910416641746
 30
0.0
 41
0.9990652816207273
 10
-1082.249640089129
 20
-1840.872412962204
 30
0.0
 41
1.0
 10
-1082.244451688097
 20
-1840.871339859097
 30
0.0
 41
1.0
 10
-1082.239263287066
 20
-1840.870266755991
 30
0.0
 41
1.0
 10
-1082.065894157413
 20
-1840.834409282662
 30
0.0
 41
0.9992909934270354
 10
-1081.890318390955
 20
-1840.811698850195
 30
0.0
 41
1.0
 10
-1081.714742624499
 20
-1840.788988417729
 30
0.0
 41
0.9994553539448255
 10
-1081.538051191408
 20
-1840.777909113523
 30
0.0
 41
1.0
 10
-1081.50261678361
 20
-1840.775687225475
 30
0.0
 41
1.0
 10
-1081.467182375811
 20
-1840.773465337427
 30
0.0
 41
1.0
 10
-1081.300956609242
 20
-1840.763042275015
 30
0.0
 41
0.9990928098293033
 10
-1081.13444681734
 20
-1840.76680191625
 30
0.0
 41
1.0
 10
-1081.095884982069
 20
-1840.767672607783
 30
0.0
 41
1.0
 10
-1081.057323146797
 20
-1840.768543299316
 30
0.0
 41
1.0
 10
-1080.967937025438
 20
-1840.770561557484
 30
0.0
 41
0.9998382089204733
 10
-1080.878681342651
 20
-1840.775793684013
 30
0.0
 41
1.0
 10
-1080.878251436433
 20
-1840.775818884915
 30
0.0
 41
1.0
 10
-1080.877821530215
 20
-1840.775844085817
 30
0.0
 41
1.0
 10
-1080.789425659867
 20
-1840.78102581054
 30
0.0
 41
0.9997558016758906
 10
-1080.701345082664
 20
-1840.790108325907
 30
0.0
 41
1.0
 10
-1080.700868944234
 20
-1840.79015742339
 30
0.0
 41
1.0
 10
-1080.700392805805
 20
-1840.790206520872
 30
0.0
 41
1.0
 10
-1080.613264505463
 20
-1840.799190841273
 30
0.0
 41
0.9996565144181316
 10
-1080.526726652121
 20
-1840.812728147962
 30
0.0
 41
1.0
 10
-1080.526260726741
 20
-1840.812801033694
 30
0.0
 41
1.0
 10
-1080.52579480136
 20
-1840.812873919426
 30
0.0
 41
1.0
 10
-1080.440188798776
 20
-1840.826265454652
 30
0.0
 41
0.9995321806868035
 10
-1080.355561718451
 20
-1840.844865943081
 30
0.0
 41
1.0
 10
-1080.355172523883
 20
-1840.844951485546
 30
0.0
 41
1.0
 10
-1080.354783329314
 20
-1840.845037028011
 30
0.0
 41
1.0
 10
-1080.270934638126
 20
-1840.863466431509
 30
0.0
 41
0.9993819199218772
 10
-1080.188588103927
 20
-1840.887741814771
 30
0.0
 41
1.0
 10
-1080.188349670431
 20
-1840.88781210388
 30
0.0
 41
1.0
 10
-1080.188111236934
 20
-1840.887882392989
 30
0.0
 41
1.0
 10
-1080.106241569732
 20
-1840.912017198031
 30
0.0
 41
0.9992088568504839
 10
-1080.026549050743
 20
-1840.942582433826
 30
0.0
 41
1.0
 10
-1079.946868059864
 20
-1840.973142034559
 30
0.0
 41
0.9990226101772984
 10
-1079.870197389957
 20
-1841.010619466173
 30
0.0
 41
1.0
 10
-1079.793538248161
 20
-1841.048091262725
 30
0.0
 41
0.9988424273971138
 10
-1079.720834620952
 20
-1841.092756037977
 30
0.0
 41
1.0
 10
-1079.720566912569
 20
-1841.092920502051
 30
0.0
 41
1.0
 10
-1079.720299204187
 20
-1841.093084966124
 30
0.0
 41
1.0
 10
-1079.647060160216
 20
-1841.138078669522
 30
0.0
 41
0.9986928844490777
 10
-1079.578797293505
 20
-1841.190314403802
 30
0.0
 41
1.0
 10
-1079.578216001283
 20
-1841.19075921703
 30
0.0
 41
1.0
 10
-1079.577634709061
 20
-1841.191204030257
 30
0.0
 41
1.0
 10
-1079.508209257908
 20
-1841.244329390991
 30
0.0
 41
0.9986007262276966
 10
-1079.444783088143
 20
-1841.304490160683
 30
0.0
 41
1.0
 10
-1079.443888672684
 20
-1841.30533852852
 30
0.0
 41
1.0
 10
-1079.442994257225
 20
-1841.306186896356
 30
0.0
 41
1.0
 10
-1079.377779256544
 20
-1841.36804440172
 30
0.0
 41
0.9985581491380079
 10
-1079.319571644842
 20
-1841.436536891992
 30
0.0
 41
1.0
 10
-1079.310313191246
 20
-1841.447431249694
 30
0.0
 41
1.0
 10
-1079.30105473765
 20
-1841.458325607395
 30
0.0
 41
1.0
 10
-1079.224330218757
 20
-1841.54860681307
 30
0.0
 41
0.9970460233519919
 10
-1079.162338317597
 20
-1841.649573897252
 30
0.0
 41
1.0
 10
-1079.147868952517
 20
-1841.673140356335
 30
0.0
 41
1.0
 10
-1079.133399587437
 20
-1841.696706815417
 30
0.0
 41
1.0
 10
-1079.093662887425
 20
-1841.761426539447
 30
0.0
 41
0.998846881663675
 10
-1079.060316516675
 20
-1841.829658991874
 30
0.0
 41
1.0
 10
-1079.053280494183
 20
-1841.844055913012
 30
0.0
 41
1.0
 10
-1079.046244471691
 20
-1841.858452834151
 30
0.0
 41
1.0
 10
-1079.026970145923
 20
-1841.897891444302
 30
0.0
 41
0.9998431189997519
 10
-1079.009104818428
 20
-1841.937987998742
 30
0.0
 41
1.0
 10
-1078.991239490909
 20
-1841.978084553238
 30
0.0
 41
0.9999989989939965
 10
-1078.973260767461
 20
-1842.018130390879
 30
0.0
 41
1.0
 10
-1078.967088455892
 20
-1842.031878607635
 30
0.0
 41
1.0
 10
-1078.960916144323
 20
-1842.045626824392
 30
0.0
 41
1.0
 10
-1078.930592797712
 20
-1842.113169095601
 30
0.0
 41
0.9998790356322345
 10
-1078.902384917574
 20
-1842.181621847539
 30
0.0
 41
1.0
 10
-1078.89554973629
 20
-1842.198208948966
 30
0.0
 41
1.0
 10
-1078.888714555006
 20
-1842.214796050392
 30
0.0
 41
1.0
 10
-1078.865156892625
 20
-1842.271964005278
 30
0.0
 41
0.999822757456121
 10
-1078.843768144236
 20
-1842.329978313556
 30
0.0
 41
1.0
 10
-1078.822379395847
 20
-1842.387992621832
 30
0.0
 41
0.9996797971042287
 10
-1078.803953110888
 20
-1842.447014740949
 30
0.0
 41
1.0
 10
-1078.800049308162
 20
-1842.459519199119
 30
0.0
 41
1.0
 10
-1078.796145505436
 20
-1842.472023657289
 30
0.0
 41
1.0
 10
-1078.769911615026
 20
-1842.556054692745
 30
0.0
 41
0.9979274938733547
 10
-1078.754687091547
 20
-1842.642759051406
 30
0.0
 41
1.0
 10
-1078.752463404286
 20
-1842.655423052227
 30
0.0
 41
1.0
 10
-1078.750239717025
 20
-1842.668087053048
 30
0.0
 41
1.0
 10
-1078.739309777326
 20
-1842.730333560338
 30
0.0
 41
0.9994985982136991
 10
-1078.732341612149
 20
-1842.79314706148
 30
0.0
 41
1.0
 10
-1078.725373446972
 20
-1842.855960562623
 30
0.0
 41
0.999637261120057
 10
-1078.721797581205
 20
-1842.919058141307
 30
0.0
 41
1.0
 10
-1078.721629003715
 20
-1842.922032758388
 30
0.0
 41
1.0
 10
-1078.721460426226
 20
-1842.925007375469
 30
0.0
 41
1.0
 10
-1078.71754740548
 20
-1842.994054188315
 30
0.0
 41
0.9997730630735959
 10
-1078.716579091992
 20
-1843.063205012349
 30
0.0
 41
1.0
 10
-1078.716521985574
 20
-1843.067283191491
 30
0.0
 41
1.0
 10
-1078.716464879155
 20
-1843.071361370633
 30
0.0
 41
1.0
 10
-1078.715382352831
 20
-1843.148668552953
 30
0.0
 41
0.9998772614072181
 10
-1078.716722439563
 20
-1843.225971699519
 30
0.0
 41
1.0
 10
-1078.716811702762
 20
-1843.231120863352
 30
0.0
 41
1.0
 10
-1078.71690096596
 20
-1843.236270027185
 30
0.0
 41
1.0
 10
-1078.71841957909
 20
-1843.323871501419
 30
0.0
 41
0.9999415567324476
 10
-1078.721831889336
 20
-1843.411419663095
 30
0.0
 41
1.0
 10
-1078.722073210011
 20
-1843.417611122832
 30
0.0
 41
1.0
 10
-1078.722314530686
 20
-1843.423802582569
 30
0.0
 41
1.0
 10
-1078.726209482283
 20
-1843.523733663718
 30
0.0
 41
0.9999716810434094
 10
-1078.731608065401
 20
-1843.623594801945
 30
0.0
 41
1.0
 10
-1078.734820864189
 20
-1843.683024051585
 30
0.0
 41
1.0
 10
-1078.738033662977
 20
-1843.742453301225
 30
0.0
 41
1.0
 10
-1078.74610757213
 20
-1843.891801702524
 30
0.0
 41
0.9999819129908837
 10
-1078.755977363748
 20
-1844.041042180254
 30
0.0
 41
1.0
 10
-1078.765847155365
 20
-1844.190282657966
 30
0.0
 41
1.0
 10
-1078.768286475929
 20
-1844.227475703815
 30
0.0
 41
1.0
 10
-1078.745588242102
 20
-1844.188734706494
 30
0.0
 41
0.9999982128118727
 10
-1078.722743683341
 20
-1844.150079812526
 30
0.0
 41
1.0
 10
-1078.695834123457
 20
-1844.104546598471
 30
0.0
 41
1.0
 10
-1078.668924563573
 20
-1844.059013384417
 30
0.0
 41
1.0
 10
-1078.592260885048
 20
-1843.929292062349
 30
0.0
 41
0.9998609190059152
 10
-1078.511313572186
 20
-1843.80219968042
 30
0.0
 41
1.0
 10
-1078.481665250705
 20
-1843.755649947464
 30
0.0
 41
1.0
 10
-1078.452016929224
 20
-1843.709100214507
 30
0.0
 41
1.0
 10
-1078.369744708985
 20
-1843.57992764451
 30
0.0
 41
0.9999067609732107
 10
-1078.28397569952
 20
-1843.453049955067
 30
0.0
 41
1.0
 10
-1078.28157099632
 20
-1843.449492689013
 30
0.0
 41
1.0
 10
-1078.279166293119
 20
-1843.445935422959
 30
0.0
 41
1.0
 10
-1078.198206690057
 20
-1843.326172265628
 30
0.0
 41
0.999878495215041
 10
-1078.113553080375
 20
-1843.208991048917
 30
0.0
 41
1.0
 10
-1078.028899470694
 20
-1843.091809832209
 30
0.0
 41
0.9998532968283184
 10
-1077.940281849873
 20
-1842.977596923741
 30
0.0
 41
1.0
 10
-1077.92032006088
 20
-1842.951869602718
 30
0.0
 41
1.0
 10
-1077.900358271887
 20
-1842.926142281696
 30
0.0
 41
1.0
 10
-1077.781874222129
 20
-1842.773436670729
 30
0.0
 41
0.9991551975795472
 10
-1077.651249772506
 20
-1842.630977108646
 30
0.0
 41
1.0
 10
-1077.647740156527
 20
-1842.627149507022
 30
0.0
 41
1.0
 10
-1077.644230540548
 20
-1842.623321905399
 30
0.0
 41
1.0
 10
-1077.520625322884
 20
-1842.488517546564
 30
0.0
 41
0.9997418144180179
 10
-1077.391023183182
 20
-1842.35946813595
 30
0.0
 41
1.0
 10
-1077.261421043482
 20
-1842.230418725338
 30
0.0
 41
0.9989238204632878
 10
-1077.120418495231
 20
-1842.113933763299
 30
0.0
 41
1.0
 10
-1077.075170817091
 20
-1842.07655377169
 30
0.0
 41
1.0
 10
-1077.02992313895
 20
-1842.03917378008
 30
0.0
 41
1.0
 10
-1076.889683081729
 20
-1841.92331872679
 30
0.0
 41
0.9990825084096453
 10
-1076.740043149126
 20
-1841.819889728957
 30
0.0
 41
1.0
 10
-1076.729997785069
 20
-1841.812946515878
 30
0.0
 41
1.0
 10
-1076.719952421013
 20
-1841.806003302798
 30
0.0
 41
1.0
 10
-1076.590403216522
 20
-1841.716460731124
 30
0.0
 41
0.9998164899825533
 10
-1076.457519013146
 20
-1841.631946489608
 30
0.0
 41
1.0
 10
-1076.445673452623
 20
-1841.624412723084
 30
0.0
 41
1.0
 10
-1076.433827892101
 20
-1841.616878956561
 30
0.0
 41
1.0
 10
-1076.324634809773
 20
-1841.547432248093
 30
0.0
 41
0.9997473449131875
 10
-1076.21243085252
 20
-1841.482963290276
 30
0.0
 41
1.0
 10
-1076.100226895269
 20
-1841.418494332459
 30
0.0
 41
0.9999327861142927
 10
-1075.986558284501
 20
-1841.356644340775
 30
0.0
 41
1.0
 10
-1075.986006281943
 20
-1841.356343982098
 30
0.0
 41
1.0
 10
-1075.985454279386
 20
-1841.35604362342
 30
0.0
 41
1.0
 10
-1075.870681663497
 20
-1841.293592914379
 30
0.0
 41
0.9996956420483525
 10
-1075.752968337654
 20
-1841.236879447403
 30
0.0
 41
1.0
 10
-1075.722527932762
 20
-1841.222213470673
 30
0.0
 41
1.0
 10
-1075.69208752787
 20
-1841.207547493943
 30
0.0
 41
1.0
 10
-1075.589110421129
 20
-1841.157933835501
 30
0.0
 41
0.999807057017752
 10
-1075.484264032191
 20
-1841.112403248601
 30
0.0
 41
1.0
 10
-1075.37941764325
 20
-1841.0668726617
 30
0.0
 41
0.9997827436146574
 10
-1075.27276470664
 20
-1841.025751490389
 30
0.0
 41
1.0
 10
-1075.253541857009
 20
-1841.018339916756
 30
0.0
 41
1.0
 10
-1075.234319007377
 20
-1841.010928343124
 30
0.0
 41
1.0
 10
-1075.089220371504
 20
-1840.954984024547
 30
0.0
 41
0.9988031841976609
 10
-1074.939350008898
 20
-1840.913483960379
 30
0.0
 41
1.0
 10
-1074.914432760536
 20
-1840.906584214572
 30
0.0
 41
1.0
 10
-1074.889515512174
 20
-1840.899684468766
 30
0.0
 41
1.0
 10
-1074.722245486526
 20
-1840.853366326359
 30
0.0
 41
0.9984748040549895
 10
-1074.550888577877
 20
-1840.825772094094
 30
0.0
 41
1.0
 10
-1074.546149441628
 20
-1840.82500893358
 30
0.0
 41
1.0
 10
-1074.541410305378
 20
-1840.824245773067
 30
0.0
 41
1.0
 10
-1074.379531669228
 20
-1840.798177861829
 30
0.0
 41
0.9984436495480188
 10
-1074.215756925503
 20
-1840.79029990801
 30
0.0
 41
1.0
 10
-1074.194059717372
 20
-1840.789256220811
 30
0.0
 41
1.0
 10
-1074.172362509241
 20
-1840.788212533611
 30
0.0
 41
1.0
 10
-1074.051982181779
 20
-1840.782421954191
 30
0.0
 41
0.998795478933529
 10
-1073.931613936869
 20
-1840.788458481934
 30
0.0
 41
1.0
 10
-1073.911649144372
 20
-1840.789459726273
 30
0.0
 41
1.0
 10
-1073.891684351875
 20
-1840.790460970611
 30
0.0
 41
1.0
 10
-1073.811245691957
 20
-1840.794495009676
 30
0.0
 41
0.9997941595877213
 10
-1073.731036913864
 20
-1840.801789075597
 30
0.0
 41
1.0
 10
-1073.650828135775
 20
-1840.809083141517
 30
0.0
 41
0.9998589466235798
 10
-1073.570909588925
 20
-1840.819066995967
 30
0.0
 41
1.0
 10
-1073.538503387112
 20
-1840.823115352887
 30
0.0
 41
1.0
 10
-1073.506097185298
 20
-1840.827163709807
 30
0.0
 41
1.0
 10
-1073.361366234828
 20
-1840.845244278095
 30
0.0
 41
0.9993495063248715
 10
-1073.218314991064
 20
-1840.873709987836
 30
0.0
 41
1.0
 10
-1073.185381293908
 20
-1840.880263451052
 30
0.0
 41
1.0
 10
-1073.152447596753
 20
-1840.886816914267
 30
0.0
 41
1.0
 10
-1073.043153773551
 20
-1840.908565248402
 30
0.0
 41
0.9996788715561434
 10
-1072.935102201596
 20
-1840.935823047765
 30
0.0
 41
1.0
 10
-1072.933039199056
 20
-1840.936343474338
 30
0.0
 41
1.0
 10
-1072.930976196516
 20
-1840.936863900911
 30
0.0
 41
1.0
 10
-1072.827050629639
 20
-1840.963080847128
 30
0.0
 41
0.9995480654492092
 10
-1072.724888394411
 20
-1840.995495803752
 30
0.0
 41
1.0
 10
-1072.723198752283
 20
-1840.996031908666
 30
0.0
 41
1.0
 10
-1072.721509110156
 20
-1840.996568013579
 30
0.0
 41
1.0
 10
-1072.622726159183
 20
-1841.027910760376
 30
0.0
 41
0.9993867959455649
 10
-1072.526379000739
 20
-1841.066090129666
 30
0.0
 41
1.0
 10
-1072.525136051655
 20
-1841.066582671562
 30
0.0
 41
1.0
 10
-1072.523893102572
 20
-1841.067075213458
 30
0.0
 41
1.0
 10
-1072.430031842298
 20
-1841.104269498956
 30
0.0
 41
0.9992050256521608
 10
-1072.339432167263
 20
-1841.148823398195
 30
0.0
 41
1.0
 10
-1072.338697484551
 20
-1841.149184690656
 30
0.0
 41
1.0
 10
-1072.337962801839
 20
-1841.149545983116
 30
0.0
 41
1.0
 10
-1072.24883249223
 20
-1841.193377297433
 30
0.0
 41
0.9990222350741383
 10
-1072.163922430836
 20
-1841.244910565132
 30
0.0
 41
1.0
 10
-1072.163738545553
 20
-1841.245022168037
 30
0.0
 41
1.0
 10
-1072.16355466027
 20
-1841.245133770942
 30
0.0
 41
1.0
 10
-1072.079012369442
 20
-1841.29644383283
 30
0.0
 41
0.9988642743804879
 10
-1071.999737834823
 20
-1841.355568020356
 30
0.0
 41
1.0
 10
-1071.920463300203
 20
-1841.414692207882
 30
0.0
 41
0.9987681233311646
 10
-1071.847439515924
 20
-1841.481382899285
 30
0.0
 41
1.0
 10
-1071.84711058796
 20
-1841.481683300497
 30
0.0
 41
1.0
 10
-1071.846781659996
 20
-1841.48198370171
 30
0.0
 41
1.0
 10
-1071.77310001979
 20
-1841.549275195538
 30
0.0
 41
0.9987496570898718
 10
-1071.706506214463
 20
-1841.623588009623
 30
0.0
 41
1.0
 10
-1071.705734044702
 20
-1841.624449682982
 30
0.0
 41
1.0
 10
-1071.70496187494
 20
-1841.625311356342
 30
0.0
 41
1.0
 10
-1071.636823730091
 20
-1841.701347517145
 30
0.0
 41
0.9988147669827345
 10
-1071.576401475866
 20
-1841.783648523989
 30
0.0
 41
1.0
 10
-1071.575282149789
 20
-1841.78517315534
 30
0.0
 41
1.0
 10
-1071.574162823712
 20
-1841.786697786692
 30
0.0
 41
1.0
 10
-1071.511501917332
 20
-1841.872048056238
 30
0.0
 41
0.998945263621544
 10
-1071.456935004372
 20
-1841.962786745394
 30
0.0
 41
1.0
 10
-1071.455586278285
 20
-1841.965029526421
 30
0.0
 41
1.0
 10
-1071.454237552199
 20
-1841.967272307449
 30
0.0
 41
1.0
 10
-1071.396973187066
 20
-1842.062496558659
 30
0.0
 41
0.9991046436071226
 10
-1071.347963973745
 20
-1842.162220991683
 30
0.0
 41
1.0
 10
-1071.346500112155
 20
-1842.165199671756
 30
0.0
 41
1.0
 10
-1071.345036250564
 20
-1842.16817835183
 30
0.0
 41
1.0
 10
-1071.293099314064
 20
-1842.273860144998
 30
0.0
 41
0.9992763831100675
 10
-1071.249346185509
 20
-1842.383184206951
 30
0.0
 41
1.0
 10
-1071.247866915845
 20
-1842.386880394487
 30
0.0
 41
1.0
 10
-1071.246387646181
 20
-1842.390576582023
 30
0.0
 41
1.0
 10
-1071.199675978299
 20
-1842.507293019047
 30
0.0
 41
0.9994163472883147
 10
-1071.161042947109
 20
-1842.626926607511
 30
0.0
 41
1.0
 10
-1071.159804794863
 20
-1842.630760751293
 30
0.0
 41
1.0
 10
-1071.158566642616
 20
-1842.634594895075
 30
0.0
 41
1.0
 10
-1071.118683081599
 20
-1842.758100956554
 30
0.0
 41
0.9997268055889922
 10
-1071.084615025687
 20
-1842.883335988505
 30
0.0
 41
1.0
 10
-1071.083684845417
 20
-1842.886755354613
 30
0.0
 41
1.0
 10
-1071.082754665148
 20
-1842.890174720722
 30
0.0
 41
1.0
 10
-1071.050546969775
 20
-1843.008571020455
 30
0.0
 41
0.9996701319000139
 10
-1071.024461353004
 20
-1843.128464973719
 30
0.0
 41
1.0
 10
-1070.998375736234
 20
-1843.24835892698
 30
0.0
 41
0.9995785451109569
 10
-1070.979292158895
 20
-1843.36956468801
 30
0.0
 41
1.0
 10
-1070.975072376721
 20
-1843.396365842777
 30
0.0
 41
1.0
 10
-1070.970852594547
 20
-1843.423166997544
 30
0.0
 41
1.0
 10
-1070.944277618608
 20
-1843.591952971248
 30
0.0
 41
0.99799251012168
 10
-1070.939252032681
 20
-1843.762744299339
 30
0.0
 41
1.0
 10
-1070.938427220257
 20
-1843.790775022829
 30
0.0
 41
1.0
 10
-1070.937602407832
 20
-1843.818805746318
 30
0.0
 41
1.0
 10
-1070.934226446755
 20
-1843.933535627439
 30
0.0
 41
0.9995314902263815
 10
-1070.937876638894
 20
-1844.048257111183
 30
0.0
 41
1.0
 10
-1070.941526831033
 20
-1844.162978594939
 30
0.0
 41
0.999624548694457
 10
-1070.951455926164
 20
-1844.277327866068
 30
0.0
 41
1.0
 10
-1070.951618974158
 20
-1844.279205622199
 30
0.0
 41
1.0
 10
-1070.951782022152
 20
-1844.281083378329
 30
0.0
 41
1.0
 10
-1070.962037213271
 20
-1844.399188161722
 30
0.0
 41
0.9997286095001479
 10
-1070.977782536842
 20
-1844.516687070614
 30
0.0
 41
1.0
 10
-1070.978176029492
 20
-1844.519623495318
 30
0.0
 41
1.0
 10
-1070.978569522143
 20
-1844.522559920022
 30
0.0
 41
1.0
 10
-1070.995101831015
 20
-1844.64593167832
 30
0.0
 41
0.9998265533969602
 10
-1071.016217289747
 20
-1844.768602153106
 30
0.0
 41
1.0
 10
-1071.016893831885
 20
-1844.772532531615
 30
0.0
 41
1.0
 10
-1071.017570374022
 20
-1844.776462910124
 30
0.0
 41
1.0
 10
-1071.04003891703
 20
-1844.906994141929
 30
0.0
 41
0.9999022530850397
 10
-1071.066148381639
 20
-1845.036846110568
 30
0.0
 41
1.0
 10
-1071.067127022804
 20
-1845.041713252954
 30
0.0
 41
1.0
 10
-1071.06810566397
 20
-1845.04658039534
 30
0.0
 41
1.0
 10
-1071.096172410909
 20
-1845.186166648748
 30
0.0
 41
0.9999524761935903
 10
-1071.126955379742
 20
-1845.325179141906
 30
0.0
 41
1.0
 10
-1071.128231486919
 20
-1845.330941901214
 30
0.0
 41
1.0
 10
-1071.129507594096
 20
-1845.336704660523
 30
0.0
 41
1.0
 10
-1071.162842777279
 20
-1845.48724267228
 30
0.0
 41
0.9999813588727108
 10
-1071.198013778072
 20
-1845.637362384924
 30
0.0
 41
1.0
 10
-1071.199567703532
 20
-1845.643994975359
 30
0.0
 41
1.0
 10
-1071.201121628991
 20
-1845.650627565793
 30
0.0
 41
1.0
 10
-1071.239400480697
 20
-1845.814012459284
 30
0.0
 41
0.9999955237656851
 10
-1071.278656358675
 20
-1845.97716536288
 30
0.0
 41
1.0
 10
-1071.290937994312
 20
-1846.028209553413
 30
0.0
 41
1.0
 10
-1071.303219629949
 20
-1846.079253743946
 30
0.0
 41
1.0
 10
-1071.367038779193
 20
-1846.344495028577
 30
0.0
 41
0.9999993604525527
 10
-1071.431457726357
 20
-1846.609591279244
 30
0.0
 41
1.0
 10
-1071.436176561908
 20
-1846.629010187304
 30
0.0
 41
1.0
 10
-1071.44089539746
 20
-1846.648429095364
 30
0.0
 41
1.0
 10
-1071.514752015721
 20
-1846.952363162123
 30
0.0
 41
0.9999659914724385
 10
-1071.593611611606
 20
-1847.255037708682
 30
0.0
 41
1.0
 10
-1071.598564300537
 20
-1847.274046845864
 30
0.0
 41
1.0
 10
-1071.603516989467
 20
-1847.293055983047
 30
0.0
 41
1.0
 10
-1071.692281963213
 20
-1847.633748803968
 30
0.0
 41
0.9999441976024778
 10
-1071.788224996178
 20
-1847.972490229271
 30
0.0
 41
1.0
 10
-1071.804925514602
 20
-1848.031453941795
 30
0.0
 41
1.0
 10
-1071.821626033027
 20
-1848.09041765432
 30
0.0
 41
1.0
 10
-1071.950970102841
 20
-1848.547086504672
 30
0.0
 41
0.9999625120733142
 10
-1072.088202870164
 20
-1849.001447038667
 30
0.0
 41
1.0
 10
-1072.123992813249
 20
-1849.1199430653
 30
0.0
 41
1.0
 10
-1072.159782756333
 20
-1849.238439091932
 30
0.0
 41
1.0
 10
-1072.234302960373
 20
-1849.485166170028
 30
0.0
 41
0.9999793386321638
 10
-1072.31198898351
 20
-1849.730914809263
 30
0.0
 41
1.0
 10
-1072.389675006647
 20
-1849.976663448499
 30
0.0
 41
1.0
 10
-1072.400454565518
 20
-1850.010681352873
 30
0.0
 41
1.0
 10
-1074.250827618787
 20
-1855.897753275341
 30
0.0
 41
1.0
 10
-1076.101200672056
 20
-1861.784825197808
 30
0.0
 41
1.0
 10
-1077.06245736208
 20
-1861.784825197808
 30
0.0
 41
1.0
 10
-1078.023714052104
 20
-1861.784825197808
 30
0.0
 41
1.0
 10
-1076.404769273425
 20
-1856.636796696019
 30
0.0
 41
1.0
 10
-1074.785824494747
 20
-1851.48876819423
 30
0.0
 41
1.0
 10
-1074.740658671567
 20
-1851.344736971944
 30
0.0
 41
1.0
 10
-1074.695492848388
 20
-1851.200705749658
 30
0.0
 41
1.0
 10
-1074.52518843103
 20
-1850.65761472051
 30
0.0
 41
0.9999911657881275
 10
-1074.359455619355
 20
-1850.113111189164
 30
0.0
 41
1.0
 10
-1074.329759675854
 20
-1850.015547249113
 30
0.0
 41
1.0
 10
-1074.300063732354
 20
-1849.917983309063
 30
0.0
 41
1.0
 10
-1074.193722807675
 20
-1849.568607657801
 30
0.0
 41
0.9999952428132686
 10
-1074.08953921835
 20
-1849.21858263345
 30
0.0
 41
1.0
 10
-1074.08447974802
 20
-1849.201584359186
 30
0.0
 41
1.0
 10
-1074.079420277691
 20
-1849.184586084921
 30
0.0
 41
1.0
 10
-1073.985355629026
 20
-1848.868557609104
 30
0.0
 41
0.9999931687498076
 10
-1073.893629791151
 20
-1848.55184239583
 30
0.0
 41
1.0
 10
-1073.888694526694
 20
-1848.534801686566
 30
0.0
 41
1.0
 10
-1073.883759262236
 20
-1848.517760977301
 30
0.0
 41
1.0
 10
-1073.801903953279
 20
-1848.235127182565
 30
0.0
 41
0.9999893840799805
 10
-1073.722656726821
 20
-1847.951751053313
 30
0.0
 41
1.0
 10
-1073.643409500364
 20
-1847.668374924067
 30
0.0
 41
0.9999833980081054
 10
-1073.567433259624
 20
-1847.384104341045
 30
0.0
 41
1.0
 10
-1073.558429322899
 20
-1847.350415462558
 30
0.0
 41
1.0
 10
-1073.549425386175
 20
-1847.316726584072
 30
0.0
 41
1.0
 10
-1073.48046083731
 20
-1847.058690751779
 30
0.0
 41
0.9999233658068285
 10
-1073.41790586609
 20
-1846.79902659306
 30
0.0
 41
1.0
 10
-1073.35535089487
 20
-1846.539362434338
 30
0.0
 41
1.0
 10
-1073.315867476012
 20
-1846.375555769912
 30
0.0
 41
1.0
 10
-1073.310888872035
 20
-1846.354900808041
 30
0.0
 41
1.0
 10
-1073.305910268058
 20
-1846.33424584617
 30
0.0
 41
1.0
 10
-1073.276384057154
 20
-1846.211749105482
 30
0.0
 41
0.999986867084611
 10
-1073.248114973159
 20
-1846.08895615984
 30
0.0
 41
1.0
 10
-1073.244217485999
 20
-1846.072026572414
 30
0.0
 41
1.0
 10
-1073.240319998839
 20
-1846.055096984988
 30
0.0
 41
1.0
 10
-1073.219845889161
 20
-1845.966163214188
 30
0.0
 41
0.9999778173353236
 10
-1073.200558291047
 20
-1845.876964596964
 30
0.0
 41
1.0
 10
-1073.181270692932
 20
-1845.787765979736
 30
0.0
 41
0.9999602692863407
 10
-1073.163576334301
 20
-1845.698237691307
 30
0.0
 41
1.0
 10
-1073.160372502223
 20
-1845.682027236421
 30
0.0
 41
1.0
 10
-1073.157168670146
 20
-1845.665816781536
 30
0.0
 41
1.0
 10
-1073.13306664736
 20
-1845.543867583339
 30
0.0
 41
0.9995617985320502
 10
-1073.116223300141
 20
-1845.420705835635
 30
0.0
 41
1.0
 10
-1073.113758810235
 20
-1845.402685018266
 30
0.0
 41
1.0
 10
-1073.111294320328
 20
-1845.384664200898
 30
0.0
 41
1.0
 10
-1073.09101105928
 20
-1845.236349151199
 30
0.0
 41
0.9991121410639063
 10
-1073.083285705692
 20
-1845.086853052394
 30
0.0
 41
1.0
 10
-1073.082366915667
 20
-1845.069073215815
 30
0.0
 41
1.0
 10
-1073.081448125643
 20
-1845.051293379237
 30
0.0
 41
1.0
 10
-1073.075560352104
 20
-1844.937356953586
 30
0.0
 41
0.9989792494905144
 10
-1073.079979444221
 20
-1844.823354117689
 30
0.0
 41
1.0
 10
-1073.08062741609
 20
-1844.806637871761
 30
0.0
 41
1.0
 10
-1073.081275387958
 20
-1844.789921625834
 30
0.0
 41
1.0
 10
-1073.084398536338
 20
-1844.70935128179
 30
0.0
 41
0.9997820295395026
 10
-1073.090882533714
 20
-1844.628981560047
 30
0.0
 41
1.0
 10
-1073.097366531089
 20
-1844.548611838305
 30
0.0
 41
0.9998335105972176
 10
-1073.106778726601
 20
-1844.468532221857
 30
0.0
 41
1.0
 10
-1073.108373651277
 20
-1844.454962491372
 30
0.0
 41
1.0
 10
-1073.109968575954
 20
-1844.441392760887
 30
0.0
 41
1.0
 10
-1073.122570620819
 20
-1844.334173683469
 30
0.0
 41
0.9996876457878459
 10
-1073.140514533617
 20
-1844.227718255752
 30
0.0
 41
1.0
 10
-1073.142746196762
 20
-1844.214478520511
 30
0.0
 41
1.0
 10
-1073.144977859907
 20
-1844.201238785271
 30
0.0
 41
1.0
 10
-1073.158773681329
 20
-1844.119392641313
 30
0.0
 41
0.9995547496495237
 10
-1073.177427003221
 20
-1844.038515144121
 30
0.0
 41
1.0
 10
-1073.177800960093
 20
-1844.036893733414
 30
0.0
 41
1.0
 10
-1073.178174916965
 20
-1844.035272322707
 30
0.0
 41
1.0
 10
-1073.196080325114
 20
-1843.957637646929
 30
0.0
 41
0.9994899427174371
 10
-1073.218905233793
 20
-1843.881304364096
 30
0.0
 41
1.0
 10
-1073.219363760533
 20
-1843.879770914308
 30
0.0
 41
1.0
 10
-1073.219822287274
 20
-1843.87823746452
 30
0.0
 41
1.0
 10
-1073.241730142472
 20
-1843.804971081263
 30
0.0
 41
0.9993784877590799
 10
-1073.268745777579
 20
-1843.733430376102
 30
0.0
 41
1.0
 10
-1073.269277468556
 20
-1843.732022393381
 30
0.0
 41
1.0
 10
-1073.269809159533
 20
-1843.730614410661
 30
0.0
 41
1.0
 10
-1073.295761412686
 20
-1843.661889670942
 30
0.0
 41
0.999243083225394
 10
-1073.326977947845
 20
-1843.595390518875
 30
0.0
 41
1.0
 10
-1073.327560063901
 20
-1843.59415046376
 30
0.0
 41
1.0
 10
-1073.328142179956
 20
-1843.592910408645
 30
0.0
 41
1.0
 10
-1073.358194483003
 20
-1843.528891366809
 30
0.0
 41
0.9990789632799258
 10
-1073.393625109781
 20
-1843.467684755057
 30
0.0
 41
1.0
 10
-1073.394220815962
 20
-1843.466655669199
 30
0.0
 41
1.0
 10
-1073.394816522144
 20
-1843.465626583341
 30
0.0
 41
1.0
 10
-1073.429055736557
 20
-1843.406478143308
 30
0.0
 41
0.9988874801120854
 10
-1073.46871501259
 20
-1843.350818430889
 30
0.0
 41
1.0
 10
-1073.469270538654
 20
-1843.350038779214
 30
0.0
 41
1.0
 10
-1073.469826064719
 20
-1843.349259127539
 30
0.0
 41
1.0
 10
-1073.508374288622
 20
-1843.295158718471
 30
0.0
 41
0.9986762060692882
 10
-1073.552276759898
 20
-1843.245305004033
 30
0.0
 41
1.0
 10
-1073.552720720229
 20
-1843.244800862217
 30
0.0
 41
1.0
 10
-1073.55316468056
 20
-1843.244296720402
 30
0.0
 41
1.0
 10
-1073.596179231173
 20
-1843.195451289595
 30
0.0
 41
0.9984621642489063
 10
-1073.644336787952
 20
-1843.151667989122
 30
0.0
 41
1.0
 10
-1073.644583422469
 20
-1843.151443756959
 30
0.0
 41
1.0
 10
-1073.644830056985
 20
-1843.151219524795
 30
0.0
 41
1.0
 10
-1073.69249434473
 20
-1843.107884688651
 30
0.0
 41
0.9982724693851868
 10
-1073.744912976571
 20
-1843.070440338133
 30
0.0
 41
1.0
 10
-1073.797331608413
 20
-1843.032995987616
 30
0.0
 41
0.9981399180159332
 10
-1073.853917671807
 20
-1843.002209468172
 30
0.0
 41
1.0
 10
-1073.853963333885
 20
-1843.002184625015
 30
0.0
 41
1.0
 10
-1073.854008995963
 20
-1843.002159781858
 30
0.0
 41
1.0
 10
-1073.910686383514
 20
-1842.9713235761
 30
0.0
 41
0.9980927086836763
 10
-1073.970731734581
 20
-1842.947706767247
 30
0.0
 41
1.0
 10
-1073.971171904292
 20
-1842.947533641372
 30
0.0
 41
1.0
 10
-1073.971612074003
 20
-1842.947360515498
 30
0.0
 41
1.0
 10
-1074.032537764492
 20
-1842.923397454896
 30
0.0
 41
0.9981411356562483
 10
-1074.09592628589
 20
-1842.90702481339
 30
0.0
 41
1.0
 10
-1074.096808402593
 20
-1842.906796971184
 30
0.0
 41
1.0
 10
-1074.097690519295
 20
-1842.906569128979
 30
0.0
 41
1.0
 10
-1074.162843274097
 20
-1842.889740803062
 30
0.0
 41
0.9983031812935309
 10
-1074.229510703092
 20
-1842.880601441886
 30
0.0
 41
1.0
 10
-1074.238381728496
 20
-1842.879385323215
 30
0.0
 41
1.0
 10
-1074.2472527539
 20
-1842.878169204543
 30
0.0
 41
1.0
 10
-1074.301602396404
 20
-1842.870718474552
 30
0.0
 41
0.998388770826312
 10
-1074.356446245697
 20
-1842.869473800919
 30
0.0
 41
1.0
 10
-1074.364509650915
 20
-1842.869290803044
 30
0.0
 41
1.0
 10
-1074.372573056134
 20
-1842.869107805169
 30
0.0
 41
1.0
 10
-1074.41129009499
 20
-1842.868229127286
 30
0.0
 41
0.9998869563080355
 10
-1074.450016048192
 20
-1842.868514996645
 30
0.0
 41
1.0
 10
-1074.488742001424
 20
-1842.868800866005
 30
0.0
 41
0.9999972320084058
 10
-1074.527466180665
 20
-1842.869268965535
 30
0.0
 41
1.0
 10
-1074.546819197215
 20
-1842.869502905624
 30
0.0
 41
1.0
 10
-1074.566172213766
 20
-1842.869736845713
 30
0.0
 41
1.0
 10
-1074.643602426133
 20
-1842.870672825421
 30
0.0
 41
0.9997304945087098
 10
-1074.720905732368
 20
-1842.875201919206
 30
0.0
 41
1.0
 10
-1074.729955374075
 20
-1842.875732125196
 30
0.0
 41
1.0
 10
-1074.739005015782
 20
-1842.876262331186
 30
0.0
 41
1.0
 10
-1074.834407605426
 20
-1842.881851836952
 30
0.0
 41
0.9997888306414959
 10
-1074.929499941267
 20
-1842.891356801441
 30
0.0
 41
1.0
 10
-1074.938221002842
 20
-1842.892228516073
 30
0.0
 41
1.0
 10
-1074.946942064417
 20
-1842.893100230706
 30
0.0
 41
1.0
 10
-1075.059476523405
 20
-1842.904348624459
 30
0.0
 41
0.9984170238190858
 10
-1075.170035670756
 20
-1842.928164706395
 30
0.0
 41
1.0
 10
-1075.206416801743
 20
-1842.936001742201
 30
0.0
 41
1.0
 10
-1075.24279793273
 20
-1842.943838778007
 30
0.0
 41
1.0
 10
-1075.357989001151
 20
-1842.968652644517
 30
0.0
 41
0.9976592854198892
 10
-1075.468717167555
 20
-1843.008951321664
 30
0.0
 41
1.0
 10
-1075.57944533396
 20
-1843.049249998811
 30
0.0
 41
0.9993255074351887
 10
-1075.686917132751
 20
-1843.097566897304
 30
0.0
 41
1.0
 10
-1075.691542311675
 20
-1843.099646273503
 30
0.0
 41
1.0
 10
-1075.696167490598
 20
-1843.101725649703
 30
0.0
 41
1.0
 10
-1075.812889647235
 20
-1843.154201300595
 30
0.0
 41
0.997647507827524
 10
-1075.921336991545
 20
-1843.222149290252
 30
0.0
 41
1.0
 10
-1075.939679385679
 20
-1843.233641769067
 30
0.0
 41
1.0
 10
-1075.958021779813
 20
-1843.245134247881
 30
0.0
 41
1.0
 10
-1076.042223971366
 20
-1843.29789136865
 30
0.0
 41
0.9995131336407086
 10
-1076.122971686325
 20
-1843.355797580604
 30
0.0
 41
1.0
 10
-1076.203719401281
 20
-1843.413703792556
 30
0.0
 41
0.9995810107606823
 10
-1076.280981049009
 20
-1843.476185475021
 30
0.0
 41
1.0
 10
-1076.28395108022
 20
-1843.478587346487
 30
0.0
 41
1.0
 10
-1076.286921111431
 20
-1843.480989217952
 30
0.0
 41
1.0
 10
-1076.370122821579
 20
-1843.548274643346
 30
0.0
 41
0.9996617837955477
 10
-1076.449713508714
 20
-1843.619795098906
 30
0.0
 41
1.0
 10
-1076.46184425959
 20
-1843.630695831896
 30
0.0
 41
1.0
 10
-1076.473975010467
 20
-1843.641596564886
 30
0.0
 41
1.0
 10
-1076.542250537866
 20
-1843.702949180361
 30
0.0
 41
0.9997267750053256
 10
-1076.607584046151
 20
-1843.767425716887
 30
0.0
 41
1.0
 10
-1076.672917554434
 20
-1843.831902253412
 30
0.0
 41
0.9999667288964317
 10
-1076.737190497582
 20
-1843.897436060307
 30
0.0
 41
1.0
 10
-1076.806017945356
 20
-1843.967613719065
 30
0.0
 41
1.0
 10
-1076.874845393131
 20
-1844.037791377823
 30
0.0
 41
1.0
 10
-1077.076773231828
 20
-1844.243680502234
 30
0.0
 41
0.9988205335175206
 10
-1077.257778848808
 20
-1844.468184734295
 30
0.0
 41
1.0
 10
-1077.288418813713
 20
-1844.506187984725
 30
0.0
 41
1.0
 10
-1077.319058778617
 20
-1844.544191235154
 30
0.0
 41
1.0
 10
-1077.561344325404
 20
-1844.844701968073
 30
0.0
 41
0.9997077826755085
 10
-1077.788822276508
 20
-1845.156571762286
 30
0.0
 41
1.0
 10
-1077.79054569164
 20
-1845.158934545668
 30
0.0
 41
1.0
 10
-1077.792269106772
 20
-1845.16129732905
 30
0.0
 41
1.0
 10
-1078.023193888138
 20
-1845.477892690026
 30
0.0
 41
0.9989147567078996
 10
-1078.223657391022
 20
-1845.814602151211
 30
0.0
 41
1.0
 10
-1078.248398536328
 20
-1845.856158731762
 30
0.0
 41
1.0
 10
-1078.273139681634
 20
-1845.897715312313
 30
0.0
 41
1.0
 10
-1078.428350980272
 20
-1846.158416696767
 30
0.0
 41
0.9997476598181998
 10
-1078.571695967782
 20
-1846.425826445351
 30
0.0
 41
1.0
 10
-1078.715040955292
 20
-1846.693236193933
 30
0.0
 41
0.9996258967109577
 10
-1078.843549207224
 20
-1846.968084130558
 30
0.0
 41
1.0
 10
-1078.856749116675
 20
-1846.996315530657
 30
0.0
 41
1.0
 10
-1078.869949026126
 20
-1847.024546930755
 30
0.0
 41
1.0
 10
-1079.010157747125
 20
-1847.324419328705
 30
0.0
 41
0.9998735413945423
 10
-1079.140759093844
 20
-1847.62859892817
 30
0.0
 41
1.0
 10
-1079.144201921904
 20
-1847.636617513635
 30
0.0
 41
1.0
 10
-1079.147644749965
 20
-1847.6446360991
 30
0.0
 41
1.0
 10
-1079.271360440564
 20
-1847.932778527637
 30
0.0
 41
0.9999377418859098
 10
-1079.388615242739
 20
-1848.223609995312
 30
0.0
 41
1.0
 10
-1079.505870044914
 20
-1848.514441462989
 30
0.0
 41
0.9999508299505339
 10
-1079.617333988291
 20
-1848.807541139808
 30
0.0
 41
1.0
 10
-1079.620414756953
 20
-1848.815642165773
 30
0.0
 41
1.0
 10
-1079.623495525616
 20
-1848.823743191737
 30
0.0
 41
1.0
 10
-1079.741121006319
 20
-1849.133044920486
 30
0.0
 41
0.9999609228434694
 10
-1079.853259609194
 20
-1849.444377936505
 30
0.0
 41
1.0
 10
-1079.856215619543
 20
-1849.452584776913
 30
0.0
 41
1.0
 10
-1079.859171629892
 20
-1849.460791617321
 30
0.0
 41
1.0
 10
-1079.977222253464
 20
-1849.788538314152
 30
0.0
 41
0.9999674607402617
 10
-1080.089969779532
 20
-1850.118146934146
 30
0.0
 41
1.0
 10
-1080.141368170095
 20
-1850.268406129841
 30
0.0
 41
1.0
 10
-1080.192766560659
 20
-1850.418665325537
 30
0.0
 41
1.0
 10
-1080.308777167417
 20
-1850.757813308039
 30
0.0
 41
0.9999287532306245
 10
-1080.416658571387
 20
-1851.099634047013
 30
0.0
 41
1.0
 10
-1080.463135827505
 20
-1851.246896591318
 30
0.0
 41
1.0
 10
-1080.509613083624
 20
-1851.394159135623
 30
0.0
 41
1.0
 10
-1080.524539975344
 20
-1851.441454785945
 30
0.0
 41
0.9999998224708982
 10
-1080.539410484088
 20
-1851.48876819423
 30
0.0
 41
1.0
 10
-1082.160066620883
 20
-1856.636796696019
 30
0.0
 41
1.0
 10
-1083.780722757679
 20
-1861.784825197808
 30
0.0
 41
1.0
 10
-1084.68603120157
 20
-1861.784825197808
 30
0.0
 41
1.0
 10
-1085.591339645461
 20
-1861.784825197808
 30
0.0
 41
1.0
 10
-1083.739255234075
 20
-1855.897753275341
 30
0.0
 41
1.0
 10
-1081.887170822689
 20
-1850.010681352873
 30
0.0
 41
1.0
 10
-1081.877049064386
 20
-1849.978638139424
 30
0.0
 41
1.0
 10
-1081.804441395536
 20
-1849.748338597598
 30
0.0
 41
1.0
 10
-1081.731833726689
 20
-1849.51803905578
 30
0.0
 41
0.9999825681969594
 10
-1081.661950687479
 20
-1849.286898160721
 30
0.0
 41
1.0
 10
-1081.613659625317
 20
-1849.127173577221
 30
0.0
 41
1.0
 10
-1081.565368563155
 20
-1848.967448993721
 30
0.0
 41
1.0
 10
-1081.468216209838
 20
-1848.646113771946
 30
0.0
 41
0.9999672528962453
 10
-1081.376277404214
 20
-1848.323248226357
 30
0.0
 41
1.0
 10
-1081.373488520546
 20
-1848.313454380973
 30
0.0
 41
1.0
 10
-1081.370699636878
 20
-1848.303660535589
 30
0.0
 41
1.0
 10
-1081.284338598591
 20
-1848.000382680772
 30
0.0
 41
0.9999899749139805
 10
-1081.200696989056
 20
-1847.696343592318
 30
0.0
 41
1.0
 10
-1081.190591070039
 20
-1847.659608354642
 30
0.0
 41
1.0
 10
-1081.180485151022
 20
-1847.622873116965
 30
0.0
 41
1.0
 10
-1081.117055379523
 20
-1847.39230450387
 30
0.0
 41
0.999921420050539
 10
-1081.059425951144
 20
-1847.160218161657
 30
0.0
 41
1.0
 10
-1081.046660098963
 20
-1847.108807276258
 30
0.0
 41
1.0
 10
-1081.033894246781
 20
-1847.05739639086
 30
0.0
 41
1.0
 10
-1081.001796522766
 20
-1846.928131819446
 30
0.0
 41
0.9999828681673484
 10
-1080.97121427077
 20
-1846.79850034498
 30
0.0
 41
1.0
 10
-1080.940632018774
 20
-1846.668868870509
 30
0.0
 41
0.9999389844477765
 10
-1080.912921029984
 20
-1846.538593414604
 30
0.0
 41
1.0
 10
-1080.905783286265
 20
-1846.505037310771
 30
0.0
 41
1.0
 10
-1080.898645542545
 20
-1846.471481206937
 30
0.0
 41
1.0
 10
-1080.856659066316
 20
-1846.274093543363
 30
0.0
 41
0.9998933699441296
 10
-1080.820454801913
 20
-1846.075563935604
 30
0.0
 41
1.0
 10
-1080.819081976697
 20
-1846.068035914907
 30
0.0
 41
1.0
 10
-1080.817709151481
 20
-1846.060507894211
 30
0.0
 41
1.0
 10
-1080.778759236646
 20
-1845.846922245058
 30
0.0
 41
0.9996850305193613
 10
-1080.750575560387
 20
-1845.631651239619
 30
0.0
 41
1.0
 10
-1080.748580527018
 20
-1845.616412885501
 30
0.0
 41
1.0
 10
-1080.746585493649
 20
-1845.601174531382
 30
0.0
 41
1.0
 10
-1080.71917763119
 20
-1845.391829304225
 30
0.0
 41
0.999469793670694
 10
-1080.70545307197
 20
-1845.181144108893
 30
0.0
 41
1.0
 10
-1080.70497600272
 20
-1845.173820636681
 30
0.0
 41
1.0
 10
-1080.70449893347
 20
-1845.16649716447
 30
0.0
 41
1.0
 10
-1080.69172851275
 20
-1844.970458913562
 30
0.0
 41
0.9991804893136926
 10
-1080.694856829023
 20
-1844.774030063589
 30
0.0
 41
1.0
 10
-1080.694940707845
 20
-1844.768763262176
 30
0.0
 41
1.0
 10
-1080.695024586667
 20
-1844.763496460764
 30
0.0
 41
1.0
 10
-1080.697985145296
 20
-1844.577601213615
 30
0.0
 41
0.9988448329321722
 10
-1080.71877669092
 20
-1844.392848623782
 30
0.0
 41
1.0
 10
-1080.720370764623
 20
-1844.378683768012
 30
0.0
 41
1.0
 10
-1080.721964838325
 20
-1844.364518912242
 30
0.0
 41
1.0
 10
-1080.739568236543
 20
-1844.20809603395
 30
0.0
 41
0.9985503209458922
 10
-1080.773884508843
 20
-1844.05447184986
 30
0.0
 41
1.0
 10
-1080.781470500914
 20
-1844.020511522458
 30
0.0
 41
1.0
 10
-1080.789056492986
 20
-1843.986551195058
 30
0.0
 41
1.0
 10
-1080.808200781143
 20
-1843.90084766577
 30
0.0
 41
0.9991036781370436
 10
-1080.834525642794
 20
-1843.817070578445
 30
0.0
 41
1.0
 10
-1080.838507868249
 20
-1843.804397415939
 30
0.0
 41
1.0
 10
-1080.842490093703
 20
-1843.791724253432
 30
0.0
 41
1.0
 10
-1080.860850504444
 20
-1843.733293491124
 30
0.0
 41
0.9998874504370213
 10
-1080.880955712123
 20
-1843.675439888897
 30
0.0
 41
1.0
 10
-1080.901060919802
 20
-1843.617586286673
 30
0.0
 41
0.999404163754349
 10
-1080.925109532736
 20
-1843.561257582783
 30
0.0
 41
1.0
 10
-1080.92930631696
 20
-1843.551427518302
 30
0.0
 41
1.0
 10
-1080.933503101184
 20
-1843.54159745382
 30
0.0
 41
1.0
 10
-1080.961381932178
 20
-1843.476297287853
 30
0.0
 41
0.9991846840702284
 10
-1080.994438288872
 20
-1843.413459256573
 30
0.0
 41
1.0
 10
-1080.995574895268
 20
-1843.411298640116
 30
0.0
 41
1.0
 10
-1080.996711501664
 20
-1843.40913802366
 30
0.0
 41
1.0
 10
-1081.027494645566
 20
-1843.350621225291
 30
0.0
 41
0.9989253167922523
 10
-1081.06356406962
 20
-1843.295206296902
 30
0.0
 41
1.0
 10
-1081.064618194293
 20
-1843.293586802141
 30
0.0
 41
1.0
 10
-1081.065672318966
 20
-1843.29196730738
 30
0.0
 41
1.0
 10
-1081.099633493674
 20
-1843.239791368513
 30
0.0
 41
0.9986467172837482
 10
-1081.138830646312
 20
-1843.191425334882
 30
0.0
 41
1.0
 10
-1081.139704775013
 20
-1843.190346732604
 30
0.0
 41
1.0
 10
-1081.140578903714
 20
-1843.189268130325
 30
0.0
 41
1.0
 10
-1081.17802779895
 20
-1843.143059301253
 30
0.0
 41
0.998400110426804
 10
-1081.220454529467
 20
-1843.101374193884
 30
0.0
 41
1.0
 10
-1081.221041667574
 20
-1843.100797319004
 30
0.0
 41
1.0
 10
-1081.221628805682
 20
-1843.100220444125
 30
0.0
 41
1.0
 10
-1081.262881259982
 20
-1843.059689086517
 30
0.0
 41
0.9982442159082725
 10
-1081.308637361319
 20
-1843.024320525255
 30
0.0
 41
1.0
 10
-1081.308852156783
 20
-1843.02415449261
 30
0.0
 41
1.0
 10
-1081.309066952247
 20
-1843.023988459965
 30
0.0
 41
1.0
 10
-1081.354393462657
 20
-1842.988951963993
 30
0.0
 41
0.9982450060835563
 10
-1081.403544441727
 20
-1842.959520180961
 30
0.0
 41
1.0
 10
-1081.452695420797
 20
-1842.930088397929
 30
0.0
 41
0.9983922639636479
 10
-1081.504861726959
 20
-1842.906408763276
 30
0.0
 41
1.0
 10
-1081.505088604286
 20
-1842.906305777793
 30
0.0
 41
1.0
 10
-1081.505315481612
 20
-1842.906202792311
 30
0.0
 41
1.0
 10
-1081.557935542428
 20
-1842.882317186693
 30
0.0
 41
0.9986517147148999
 10
-1081.612748515298
 20
-1842.864016067571
 30
0.0
 41
1.0
 10
-1081.613426436724
 20
-1842.86378972114
 30
0.0
 41
1.0
 10
-1081.61410435815
 20
-1842.863563374709
 30
0.0
 41
1.0
 10
-1081.670273173872
 20
-1842.844809562725
 30
0.0
 41
0.9989435598956469
 10
-1081.727926561022
 20
-1842.831291860491
 30
0.0
 41
1.0
 10
-1081.729006680605
 20
-1842.831038610238
 30
0.0
 41
1.0
 10
-1081.730086800188
 20
-1842.830785359984
 30
0.0
 41
1.0
 10
-1081.789900426505
 20
-1842.816761157243
 30
0.0
 41
0.9992249241239557
 10
-1081.850631935404
 20
-1842.807485814528
 30
0.0
 41
1.0
 10
-1081.852045623693
 20
-1842.80726990612
 30
0.0
 41
1.0
 10
-1081.853459311983
 20
-1842.807053997713
 30
0.0
 41
1.0
 10
-1081.91701819746
 20
-1842.797346838182
 30
0.0
 41
0.9994396597834225
 10
-1081.981084133994
 20
-1842.791913915837
 30
0.0
 41
1.0
 10
-1082.000224801474
 20
-1842.790290748118
 30
0.0
 41
1.0
 10
-1082.019365468954
 20
-1842.788667580399
 30
0.0
 41
1.0
 10
-1082.121712740448
 20
-1842.779988322616
 30
0.0
 41
0.9987693403120927
 10
-1082.224416364036
 20
-1842.781491386068
 30
0.0
 41
1.0
 10
-1082.234670698261
 20
-1842.781641457842
 30
0.0
 41
1.0
 10
-1082.244925032485
 20
-1842.781791529617
 30
0.0
 41
1.0
 10
-1082.354480798666
 20
-1842.783394873904
 30
0.0
 41
0.998975364496648
 10
-1082.463442798684
 20
-1842.794897880829
 30
0.0
 41
1.0
 10
-1082.572404798699
 20
-1842.806400887755
 30
0.0
 41
0.9983190067306102
 10
-1082.679303609663
 20
-1842.830435879541
 30
0.0
 41
1.0
 10
-1082.688204561271
 20
-1842.832437158104
 30
0.0
 41
1.0
 10
-1082.697105512879
 20
-1842.834438436667
 30
0.0
 41
1.0
 10
-1082.82180622706
 20
-1842.862475985579
 30
0.0
 41
0.9985539388302298
 10
-1082.942775980739
 20
-1842.903739661626
 30
0.0
 41
1.0
 10
-1082.945121411698
 20
-1842.904539705441
 30
0.0
 41
1.0
 10
-1082.947466842656
 20
-1842.905339749256
 30
0.0
 41
1.0
 10
-1083.073127458254
 20
-1842.948203512933
 30
0.0
 41
0.9988468746493597
 10
-1083.194097800553
 20
-1843.002921597995
 30
0.0
 41
1.0
 10
-1083.197280622543
 20
-1843.004361272555
 30
0.0
 41
1.0
 10
-1083.200463444532
 20
-1843.005800947116
 30
0.0
 41
1.0
 10
-1083.32779943081
 20
-1843.063398381298
 30
0.0
 41
0.9991322885919172
 10
-1083.449900014868
 20
-1843.131393713481
 30
0.0
 41
1.0
 10
-1083.467502025913
 20
-1843.141195915471
 30
0.0
 41
1.0
 10
-1083.485104036958
 20
-1843.150998117461
 30
0.0
 41
1.0
 10
-1083.587280718013
 20
-1843.207898233241
 30
0.0
 41
0.9993860037848972
 10
-1083.685221722085
 20
-1843.271814248829
 30
0.0
 41
1.0
 10
-1083.690840034938
 20
-1843.275480743524
 30
0.0
 41
1.0
 10
-1083.696458347792
 20
-1843.27914723822
 30
0.0
 41
1.0
 10
-1083.78316272616
 20
-1843.335730264418
 30
0.0
 41
0.9998821494953218
 10
-1083.868089101971
 20
-1843.394948494494
 30
0.0
 41
1.0
 10
-1083.953015477782
 20
-1843.454166724569
 30
0.0
 41
0.9997976482744341
 10
-1084.035491108185
 20
-1843.51675313261
 30
0.0
 41
1.0
 10
-1084.050127372991
 20
-1843.527859822391
 30
0.0
 41
1.0
 10
-1084.064763637798
 20
-1843.538966512172
 30
0.0
 41
1.0
 10
-1084.176511797811
 20
-1843.623766299773
 30
0.0
 41
0.9998091630799221
 10
-1084.284862075838
 20
-1843.712866650475
 30
0.0
 41
1.0
 10
-1084.297867828316
 20
-1843.723561750921
 30
0.0
 41
1.0
 10
-1084.310873580793
 20
-1843.734256851367
 30
0.0
 41
1.0
 10
-1084.445235363776
 20
-1843.844747402961
 30
0.0
 41
0.9995035112317162
 10
-1084.57237124154
 20
-1843.963481219976
 30
0.0
 41
1.0
 10
-1084.582018551926
 20
-1843.972490966133
 30
0.0
 41
1.0
 10
-1084.591665862312
 20
-1843.98150071229
 30
0.0
 41
1.0
 10
-1084.715088925078
 20
-1844.096767084046
 30
0.0
 41
0.999463042429937
 10
-1084.830697330863
 20
-1844.219869827282
 30
0.0
 41
1.0
 10
-1084.834380169636
 20
-1844.223791406797
 30
0.0
 41
1.0
 10
-1084.838063008408
 20
-1844.227712986311
 30
0.0
 41
1.0
 10
-1084.946305736648
 20
-1844.342972570518
 30
0.0
 41
0.9995160693749512
 10
-1085.047171766179
 20
-1844.46473998839
 30
0.0
 41
1.0
 10
-1085.04910548626
 20
-1844.467074412599
 30
0.0
 41
1.0
 10
-1085.051039206342
 20
-1844.469408836808
 30
0.0
 41
1.0
 10
-1085.148037795712
 20
-1844.586507406264
 30
0.0
 41
0.9996561470514732
 10
-1085.238764014377
 20
-1844.708530168712
 30
0.0
 41
1.0
 10
-1085.24492168028
 20
-1844.716811957755
 30
0.0
 41
1.0
 10
-1085.251079346183
 20
-1844.725093746799
 30
0.0
 41
1.0
 10
-1085.329490233044
 20
-1844.830552931163
 30
0.0
 41
0.9998349055174147
 10
-1085.404017514975
 20
-1844.938791514824
 30
0.0
 41
1.0
 10
-1085.478544796905
 20
-1845.047030098485
 30
0.0
 41
0.9999728109565457
 10
-1085.551467692812
 20
-1845.156356024036
 30
0.0
 41
1.0
 10
-1085.552782908226
 20
-1845.158327793542
 30
0.0
 41
1.0
 10
-1085.55409812364
 20
-1845.160299563048
 30
0.0
 41
1.0
 10
-1085.629651450364
 20
-1845.273569027594
 30
0.0
 41
0.9999972147283939
 10
-1085.704669260731
 20
-1845.387193870418
 30
0.0
 41
1.0
 10
-1085.709640803362
 20
-1845.394723958903
 30
0.0
 41
1.0
 10
-1085.714612345993
 20
-1845.402254047388
 30
0.0
 41
1.0
 10
-1085.79957324161
 20
-1845.530939067167
 30
0.0
 41
0.9999371979010541
 10
-1085.881628591012
 20
-1845.661495980941
 30
0.0
 41
1.0
 10
-1085.885137475376
 20
-1845.667078909009
 30
0.0
 41
1.0
 10
-1085.88864635974
 20
-1845.672661837077
 30
0.0
 41
1.0
 10
-1085.977719477869
 20
-1845.814384606986
 30
0.0
 41
0.9998272025609387
 10
-1086.061462868751
 20
-1845.959320483729
 30
0.0
 41
1.0
 10
-1086.076678040775
 20
-1845.985653598185
 30
0.0
 41
1.0
 10
-1086.091893212799
 20
-1846.011986712641
 30
0.0
 41
1.0
 10
-1086.20606694773
 20
-1846.209588818298
 30
0.0
 41
0.9995217214837794
 10
-1086.307806637285
 20
-1846.413871146162
 30
0.0
 41
1.0
 10
-1086.315450199921
 20
-1846.429218595866
 30
0.0
 41
1.0
 10
-1086.323093762557
 20
-1846.44456604557
 30
0.0
 41
1.0
 10
-1086.409999055145
 20
-1846.619062503649
 30
0.0
 41
0.9998269762607708
 10
-1086.490353521416
 20
-1846.79667079037
 30
0.0
 41
1.0
 10
-1086.570707987688
 20
-1846.974279077092
 30
0.0
 41
0.999894474738956
 10
-1086.645868782252
 20
-1847.154146802721
 30
0.0
 41
1.0
 10
-1086.650822451846
 20
-1847.166001457644
 30
0.0
 41
1.0
 10
-1086.655776121439
 20
-1847.177856112567
 30
0.0
 41
1.0
 10
-1086.73642318199
 20
-1847.370853052581
 30
0.0
 41
0.9999506734411936
 10
-1086.813220710892
 20
-1847.565413857433
 30
0.0
 41
1.0
 10
-1086.827820676161
 20
-1847.602401779234
 30
0.0
 41
1.0
 10
-1086.84242064143
 20
-1847.639389701035
 30
0.0
 41
1.0
 10
-1086.890018239796
 20
-1847.759974662291
 30
0.0
 41
0.999991239393053
 10
-1086.936604683818
 20
-1847.880953864985
 30
0.0
 41
1.0
 10
-1086.983191127838
 20
-1848.001933067675
 30
0.0
 41
0.9999927113946335
 10
-1087.02885242223
 20
-1848.12326447517
 30
0.0
 41
1.0
 10
-1087.04282085363
 20
-1848.160381457175
 30
0.0
 41
1.0
 10
-1087.05678928503
 20
-1848.197498439181
 30
0.0
 41
1.0
 10
-1087.130387442219
 20
-1848.393063810677
 30
0.0
 41
0.9999487550949187
 10
-1087.200011067189
 20
-1848.590079175854
 30
0.0
 41
1.0
 10
-1087.223604677129
 20
-1848.656842486156
 30
0.0
 41
1.0
 10
-1087.247198287069
 20
-1848.723605796458
 30
0.0
 41
1.0
 10
-1087.341883921437
 20
-1848.991539631276
 30
0.0
 41
0.9999808436927523
 10
-1087.433245510077
 20
-1849.260625062538
 30
0.0
 41
1.0
 10
-1087.524607098719
 20
-1849.529710493802
 30
0.0
 41
0.9999873932908983
 10
-1087.613261807435
 20
-1849.799699848812
 30
0.0
 41
1.0
 10
-1087.633354164306
 20
-1849.860889181567
 30
0.0
 41
1.0
 10
-1087.653446521176
 20
-1849.922078514322
 30
0.0
 41
1.0
 10
-1087.782285943632
 20
-1850.314446534839
 30
0.0
 41
0.9999794883032693
 10
-1087.906088728591
 20
-1850.708432741121
 30
0.0
 41
1.0
 10
-1087.917240988026
 20
-1850.743923351351
 30
0.0
 41
1.0
 10
-1087.928393247461
 20
-1850.77941396158
 30
0.0
 41
1.0
 10
-1088.070951411357
 20
-1851.233086713659
 30
0.0
 41
0.9999982761815065
 10
-1088.211823851378
 20
-1851.687285735802
 30
0.0
 41
1.0
 10
-1089.799964183951
 20
-1856.736055466805
 30
0.0
 41
1.0
 10
-1091.388104516523
 20
-1861.784825197808
 30
0.0
 41
1.0
 10
-1092.336855128
 20
-1861.784825197808
 30
0.0
 41
1.0
 10
-1093.285605739476
 20
-1861.784825197808
 30
0.0
 41
1.0
 10
-1090.047321253323
 20
-1851.457502997862
 30
0.0
 41
1.0
 10
-1086.80903676717
 20
-1841.130180797916
 30
0.0
 41
1.0
  0
LWPOLYLINE
  5
5C
330
23
100
AcDbEntity
  8
0
  6
Continuous
 62
     7
370
    15
390
1D
100
AcDbPolyline
 90
      232
 70
   128
 43
0.0
 10
-1112.512582540997
 20
-1842.214523629431
 42
0.0004370800698468
 10
-1112.565459715065
 20
-1842.283190268683
 10
-1112.604743946196
 20
-1842.334297381584
 42
0.0030481992175876
 10
-1112.735082663316
 20
-1842.506019073929
 10
-1112.773594335066
 20
-1842.557405857717
 42
0.0042058245757087
 10
-1112.977579385738
 20
-1842.834411602794
 10
-1113.029984508236
 20
-1842.906844449571
 42
0.0120948898743663
 10
-1113.326028424998
 20
-1843.33759405412
 10
-1113.422220924119
 20
-1843.485074789344
 42
0.0141601263947038
 10
-1113.725864971042
 20
-1843.98074412608
 10
-1113.765402238468
 20
-1844.049588093513
 42
0.0071131081303711
 10
-1113.970674561706
 20
-1844.41909089235
 42
0.0068458791003843
 10
-1114.165554088546
 20
-1844.79418245582
 10
-1114.172365951007
 20
-1844.80774416955
 42
0.0064120880291734
 10
-1114.370508201054
 20
-1845.215168644475
 10
-1114.378042886568
 20
-1845.23118050119
 42
0.0058857236446939
 10
-1114.580798278437
 20
-1845.675556612217
 10
-1114.588973204734
 20
-1845.694046765859
 42
0.0053189741893339
 10
-1114.797677517398
 20
-1846.180010239769
 10
-1114.806425323083
 20
-1846.200992117973
 42
0.0047503650416914
 10
-1115.022399049235
 20
-1846.733191551185
 10
-1115.031667297582
 20
-1846.75666792729
 42
0.004207176217365
 10
-1115.25621468131
 20
-1847.339761521363
 10
-1115.265964083658
 20
-1847.36572769623
 42
0.0036680086483275
 10
-1115.500418726966
 20
-1848.004363080752
 10
-1115.510626506818
 20
-1848.032811615106
 42
0.0032573142627764
 10
-1115.756258792782
 20
-1848.731664274851
 10
-1115.824909313625
 20
-1848.931127358913
 42
0.0026133366649828
 10
-1116.173354512383
 20
-1849.960990642584
 10
-1116.236611299889
 20
-1850.151221477993
 42
0.0020592950739834
 10
-1116.450474368851
 20
-1850.80332513059
 10
-1116.453526160014
 20
-1850.812761618999
 42
0.0025609928535066
 10
-1116.6553466615
 20
-1851.447906841366
 10
-1116.657938028629
 20
-1851.456209182312
 42
0.0031362356242752
 10
-1116.847428814304
 20
-1852.076972038486
 10
-1116.849559857227
 20
-1852.084113344683
 42
0.0037229918027942
 10
-1117.026360244157
 20
-1852.693098646671
 10
-1117.028038833359
 20
-1852.699045536828
 42
0.0043077623707331
 10
-1117.191779635429
 20
-1853.298864268615
 42
0.0047654161824884
 10
-1117.34460835794
 20
-1853.901550357497
 10
-1117.379072966784
 20
-1854.043112134666
 42
0.0112969368443506
 10
-1117.574937324926
 20
-1854.934804295285
 10
-1117.602943714024
 20
-1855.077632341389
 42
0.0130056762571969
 10
-1117.803780957671
 20
-1856.264573413034
 10
-1117.824320707818
 20
-1856.408651526508
 42
0.013872153214432
 10
-1117.928023712356
 20
-1857.315481012336
 10
-1117.947319200263
 20
-1857.538978734258
 42
0.0071254697008184
 10
-1117.980665846186
 20
-1858.002165743108
 10
-1117.98562682035
 20
-1858.08816973768
 42
0.0028881799200723
 10
-1118.000765113639
 20
-1858.379911447511
 42
0.0060297297131958
 10
-1118.010697313415
 20
-1858.671860383624
 10
-1118.011759595082
 20
-1858.720252755558
 42
0.0229523164152065
 10
-1118.004028567296
 20
-1859.043007601843
 10
-1117.999802793776
 20
-1859.10341113586
 42
0.0123673300664811
 10
-1117.980724147258
 20
-1859.304531861034
 42
0.0128577674473281
 10
-1117.951528756852
 20
-1859.504429710958
 10
-1117.944402883464
 20
-1859.545758525558
 42
0.02857178537731
 10
-1117.879908881767
 20
-1859.823874676875
 10
-1117.866240358102
 20
-1859.870529446347
 42
0.0316283099158415
 10
-1117.750429778188
 20
-1860.189543948174
 10
-1117.747381086432
 20
-1860.1965303205
 42
0.033898482423482
 10
-1117.597949375465
 20
-1860.484096284689
 10
-1117.595640646095
 20
-1860.487887313966
 42
0.0350228718356072
 10
-1117.413280355422
 20
-1860.744939298641
 10
-1117.412395103648
 20
-1860.746018376404
 42
0.0347476747526906
 10
-1117.197970416407
 20
-1860.973203423625
 42
0.0331337701918924
 10
-1116.954727090656
 20
-1861.169332085706
 10
-1116.953626992144
 20
-1861.170104788876
 42
0.0305233319087243
 10
-1116.685082296566
 20
-1861.335232958969
 10
-1116.681852252069
 20
-1861.336956970829
 42
0.0273744481157141
 10
-1116.389298540496
 20
-1861.473095114719
 10
-1116.384194005358
 20
-1861.47513869919
 42
0.0240964406195913
 10
-1116.068716929717
 20
-1861.584122425469
 10
-1116.062133600502
 20
-1861.586047165146
 42
0.0209636179812703
 10
-1115.72473344785
 20
-1861.669515313078
 10
-1115.717100987401
 20
-1861.671067226079
 42
0.0181388704692012
 10
-1115.358778595403
 20
-1861.730483319293
 10
-1115.350497747024
 20
-1861.731549503111
 42
0.0156086547587648
 10
-1114.972310382834
 20
-1861.768285689687
 10
-1114.929115130506
 20
-1861.771124192166
 42
0.0137148329024129
 10
-1114.601441985209
 20
-1861.783644447417
 10
-1114.555505795277
 20
-1861.784138880533
 42
0.0051057823882968
 10
-1114.319360208691
 20
-1861.784269134942
 42
0.005225669331199
 10
-1114.083262924907
 20
-1861.779520310477
 10
-1114.013036141163
 20
-1861.777373344464
 42
0.0161507179046904
 10
-1113.637299063064
 20
-1861.753722974137
 10
-1113.617286102689
 20
-1861.751812778849
 42
0.0101216737833974
 10
-1113.203258881189
 20
-1861.703819848483
 10
-1113.169205591771
 20
-1861.699172151674
 42
0.024529177639822
 10
-1112.692415936222
 20
-1861.610097073598
 10
-1112.607592620693
 20
-1861.589901153251
 42
0.0143509212561127
 10
-1112.250961516756
 20
-1861.494096519473
 42
0.0156557857041058
 10
-1111.90074545203
 20
-1861.377085303655
 10
-1111.893244237535
 20
-1861.3743151419
 42
0.0170137333632914
 10
-1111.536648241851
 20
-1861.228657527028
 10
-1111.529544319446
 20
-1861.225469691466
 42
0.0183105364411881
 10
-1111.170194651278
 20
-1861.04813464964
 10
-1111.163247886641
 20
-1861.044384214769
 42
0.0194899958148911
 10
-1110.804767145658
 20
-1860.832405232879
 10
-1110.79775326632
 20
-1860.827879890584
 42
0.0204869852947368
 10
-1110.443738964228
 20
-1860.578359875499
 10
-1110.436473355639
 20
-1860.572779810149
 42
0.0212516938554804
 10
-1110.090483424532
 20
-1860.282875813255
 10
-1110.043966730456
 20
-1860.240408503161
 42
0.021524891825264
 10
-1109.783940561568
 20
-1859.981644224166
 10
-1109.738910827185
 20
-1859.932800102814
 42
0.0114578554952316
 10
-1109.58411867351
 20
-1859.756977169358
 10
-1109.572924137525
 20
-1859.743658405815
 42
0.0061531305126813
 10
-1109.446449491529
 20
-1859.589368872507
 42
0.0006325587121177
 10
-1109.322071007395
 20
-1859.433365496854
 10
-1109.299030872326
 20
-1859.404391976172
 42
0.0041897761558993
 10
-1109.130575468346
 20
-1859.188872600101
 10
-1109.072113348461
 20
-1859.112771253125
 42
0.0092993880036185
 10
-1108.795501421237
 20
-1858.738492489241
 10
-1108.713106928041
 20
-1858.622555485676
 42
0.0159321727083802
 10
-1108.366500445396
 20
-1858.100381264916
 10
-1108.322144310004
 20
-1858.028701700662
 42
0.0085547317022365
 10
-1108.087632544681
 20
-1857.634826751442
 42
0.008460115689028
 10
-1107.866656367237
 20
-1857.233199902407
 10
-1107.858540893408
 20
-1857.217840220137
 42
0.0081429654285086
 10
-1107.635291622971
 20
-1856.778118707596
 10
-1107.626431458787
 20
-1856.759939865577
 42
0.0076574581329964
 10
-1107.400023948219
 20
-1856.276756990321
 10
-1107.390544307496
 20
-1856.25569251202
 42
0.0070682724200728
 10
-1107.160099399688
 20
-1855.723655207235
 10
-1107.150109115708
 20
-1855.699666018228
 42
0.0064559514446684
 10
-1106.914775907527
 20
-1855.11335375171
 10
-1106.904366549361
 20
-1855.086418826266
 42
0.0058311413907815
 10
-1106.663319812598
 20
-1854.440386731881
 10
-1106.652564735211
 20
-1854.410502390722
 42
0.005231242581854
 10
-1106.404983457169
 20
-1853.699299976886
 10
-1106.39393962079
 20
-1853.666473264818
 42
0.004668054479595
 10
-1106.13901119306
 20
-1852.884646949075
 10
-1106.097019043011
 20
-1852.751663711766
 42
0.0041666856445923
 10
-1105.893733030618
 20
-1852.088694936765
 10
-1105.856070589951
 20
-1851.962113829102
 42
0.0015170975154759
 10
-1105.734884011541
 20
-1851.550245477618
 42
-0.0004887993112769
 10
-1105.614544238429
 20
-1851.138127065615
 10
-1105.538066980922
 20
-1850.877169679635
 42
0.0002583378927582
 10
-1105.264852410861
 20
-1849.943112976466
 10
-1105.183079561297
 20
-1849.663013716928
 42
0.0006636169670793
 10
-1104.98921180127
 20
-1848.995660793286
 10
-1104.984115146921
 20
-1848.9780292104
 42
0.0010589131322934
 10
-1104.802666446006
 20
-1848.345297867357
 10
-1104.797684375512
 20
-1848.327784960288
 42
0.0015655524462547
 10
-1104.629414168343
 20
-1847.729168281136
 10
-1104.624583967942
 20
-1847.71177612225
 42
0.0021640440476388
 10
-1104.470293995942
 20
-1847.146749104182
 10
-1104.465659776515
 20
-1847.129484374199
 42
0.0028763871849493
 10
-1104.326144058459
 20
-1846.597516423341
 10
-1104.321758194293
 20
-1846.580392445189
 42
0.0037310511943817
 10
-1104.197801502455
 20
-1846.080944851163
 10
-1104.193726282164
 20
-1846.063984579909
 42
0.0047652197772119
 10
-1104.086102381658
 20
-1845.596506811612
 10
-1104.082411782334
 20
-1845.579747256458
 42
0.0060276699304786
 10
-1103.991881683181
 20
-1845.143671461318
 10
-1103.988662992892
 20
-1845.127170247009
 42
0.0075824337755727
 10
-1103.915973683476
 20
-1844.721903082583
 10
-1103.913328306095
 20
-1844.70574813513
 42
0.0095130624610704
 10
-1103.859213070465
 20
-1844.33065878206
 10
-1103.852226846582
 20
-1844.274725223945
 42
0.0121054653228939
 10
-1103.825635516004
 20
-1844.00982939547
 10
-1103.824769026244
 20
-1843.998425952535
 42
0.0069050827387766
 10
-1103.809680208207
 20
-1843.755484725697
 10
-1103.808544908538
 20
-1843.731958468654
 42
0.0169063976696284
 10
-1103.805717629558
 20
-1843.535765741351
 10
-1103.806888281089
 20
-1843.475429979998
 42
0.0052007732903748
 10
-1103.809141729682
 20
-1843.39983658985
 42
0.0054038123306459
 10
-1103.829105241523
 20
-1843.279818293828
 10
-1103.834191097392
 20
-1843.251159807259
 42
0.0112050460472224
 10
-1103.869575459451
 20
-1843.074833368917
 10
-1103.887400421491
 20
-1842.995291782199
 42
0.0240764468012003
 10
-1103.978297787638
 20
-1842.665054746696
 10
-1103.996856550452
 20
-1842.608434581701
 42
0.0256812331840203
 10
-1104.14021947064
 20
-1842.236710375447
 10
-1104.145628896462
 20
-1842.224579040456
 42
0.0268360501214616
 10
-1104.315056137311
 20
-1841.893585906436
 10
-1104.320592544947
 20
-1841.884066236122
 42
0.0274670231728212
 10
-1104.51279352136
 20
-1841.591778861206
 10
-1104.518174821319
 20
-1841.584499713669
 42
0.0275035967099397
 10
-1104.729747700884
 20
-1841.328983823361
 10
-1104.73481720185
 20
-1841.323504735732
 42
0.0269557673526797
 10
-1104.96222074529
 20
-1841.102862449768
 10
-1104.966963803074
 20
-1841.098732495306
 42
0.0259124802211764
 10
-1105.206518634503
 20
-1840.911041968155
 10
-1105.211049479683
 20
-1840.907856465827
 42
0.0245162152997487
 10
-1105.45896583278
 20
-1840.751123456714
 10
-1105.46349237911
 20
-1840.74856325951
 42
0.0229282588842078
 10
-1105.715911935932
 20
-1840.620695067014
 10
-1105.720692429767
 20
-1840.618542767253
 42
0.0212984135693477
 10
-1105.97373038223
 20
-1840.51734385001
 10
-1105.9790346672
 20
-1840.51548028725
 42
0.0197555462339032
 10
-1106.228813004923
 20
-1840.438664869285
 42
0.0183511896788623
 10
-1106.483741730389
 20
-1840.381081962319
 10
-1106.57010692711
 20
-1840.364879171935
 42
0.0338057877151422
 10
-1106.855614276369
 20
-1840.331070766795
 10
-1106.946619681414
 20
-1840.326491111533
 42
0.009199052449532
 10
-1107.052466790045
 20
-1840.323115255611
 42
0.0028333980773172
 10
-1107.158380706026
 20
-1840.322287148094
 10
-1107.159296159087
 20
-1840.32228517827
 42
-0.0023619827803306
 10
-1107.267042174201
 20
-1840.321544337192
 10
-1107.303447344369
 20
-1840.321122030729
 42
0.0008824598487814
 10
-1107.484003334226
 20
-1840.319346252491
 10
-1107.527864766625
 20
-1840.318992290965
 42
0.0038132665768219
 10
-1107.796147662488
 20
-1840.318873354898
 10
-1107.812681317297
 20
-1840.318992121042
 42
0.0060665569336861
 10
-1108.113961808891
 20
-1840.324812420463
 10
-1108.128212140914
 20
-1840.32526072843
 42
0.0080356953336921
 10
-1108.457670857252
 20
-1840.340928450497
 10
-1108.46974087234
 20
-1840.341697033438
 42
0.0098996399108231
 10
-1108.822503956994
 20
-1840.371182262636
 10
-1108.832549666366
 20
-1840.372222558834
 42
0.0117740981368158
 10
-1109.203706524714
 20
-1840.419514806364
 10
-1109.211929221197
 20
-1840.420759922935
 42
0.0137435215135171
 10
-1109.59651804068
 20
-1840.489856896496
 10
-1109.603175079806
 20
-1840.49124279273
 42
0.0158359869382427
 10
-1109.996172173604
 20
-1840.58613488121
 10
-1110.001585360475
 20
-1840.587624822081
 42
0.018055412402277
 10
-1110.397900405084
 20
-1840.712262838318
 10
-1110.402457193171
 20
-1840.713878874586
 42
0.0203657431281798
 10
-1110.796934710982
 20
-1840.872139216102
 10
-1110.80107824999
 20
-1840.874000837544
 42
0.0226819684655185
 10
-1111.188514306193
 20
-1841.069643416215
 10
-1111.192714097212
 20
-1841.072009008135
 42
0.0248634984602209
 10
-1111.56789603839
 20
-1841.30863565408
 10
-1111.616090967178
 20
-1841.342492695908
 42
0.0267044190885386
 10
-1111.890383664093
 20
-1841.557933071776
 42
0.0139303002196982
 10
-1112.146550830033
 20
-1841.795171912688
 10
-1112.151404215753
 20
-1841.799924575548
 42
0.0283460963441603
 10
-1112.39547680998
 20
-1842.067655235992
 10
-1112.435145315137
 20
-1842.116456813466
 42
0.0070695364819099
 10
-1112.512582540997
 20
-1842.214523629431
 42
0.0070695364819099
  0
LWPOLYLINE
  5
5D
330
23
100
AcDbEntity
  8
0
  6
Continuous
 62
     7
370
    15
390
1D
100
AcDbPolyline
 90
      226
 70
   128
 43
0.0
 10
-1116.041402978243
 20
-1857.936112435615
 42
-0.0026277636645479
 10
-1116.041480862043
 20
-1857.869340509903
 10
-1116.041263503811
 20
-1857.816185292429
 42
-0.0088680296728305
 10
-1116.037486887518
 20
-1857.643169510028
 10
-1116.035140528406
 20
-1857.583889484572
 42
-0.007738170561441
 10
-1116.019094417643
 20
-1857.292628988776
 10
-1116.01822650647
 20
-1857.280340755089
 42
-0.0068872530529577
 10
-1115.991594426721
 20
-1856.965119003021
 10
-1115.990390202535
 20
-1856.952878024002
 42
-0.0062130021485019
 10
-1115.952796485707
 20
-1856.614008332762
 10
-1115.951292582172
 20
-1856.601834460846
 42
-0.005672692966902
 10
-1115.90237072267
 20
-1856.239639238732
 10
-1115.900597277026
 20
-1856.227545438488
 42
-0.0052341884492461
 10
-1115.839986690765
 20
-1855.842352182965
 10
-1115.837968701989
 20
-1855.830347252977
 42
-0.0049768450169957
 10
-1115.76523002056
 20
-1855.422502685532
 10
-1115.740981005841
 20
-1855.293954702539
 42
-0.0089029805625508
 10
-1115.603900154046
 20
-1854.632179255116
 10
-1115.571154778728
 20
-1854.487147824593
 42
-0.0080318257099756
 10
-1115.341606164388
 20
-1853.541438192743
 10
-1115.329621237939
 20
-1853.495307557549
 42
-0.0074265721316684
 10
-1115.045609699088
 20
-1852.465242979166
 10
-1115.025730155971
 20
-1852.397108918576
 42
-0.0069711922703609
 10
-1114.698425577465
 20
-1851.330841178251
 10
-1114.638473630362
 20
-1851.144819819888
 42
-0.0052070422894824
 10
-1114.4090484051
 20
-1850.457547742849
 10
-1114.391767212934
 20
-1850.40752046225
 42
-0.0009167004448393
 10
-1114.188675325639
 20
-1849.823064614078
 42
-0.002516272694269
 10
-1113.981577695368
 20
-1849.240023349892
 10
-1113.944353083567
 20
-1849.136873804
 42
-0.0028212681456844
 10
-1113.696177164608
 20
-1848.461143171839
 10
-1113.686346401856
 20
-1848.434835727158
 42
-0.003196491682009
 10
-1113.450054144195
 20
-1847.814630965035
 10
-1113.440419690195
 20
-1847.789820974891
 42
-0.0036281836450837
 10
-1113.215313729095
 20
-1847.222380293999
 10
-1113.205875318933
 20
-1847.199082862486
 42
-0.0041269166832127
 10
-1112.991257622278
 20
-1846.681641966518
 10
-1112.958624665858
 20
-1846.60476352016
 42
-0.0047472213058128
 10
-1112.801579860303
 20
-1846.244342052273
 10
-1112.794685779095
 20
-1846.228921454941
 42
-0.0025651659994936
 10
-1112.646327745245
 20
-1845.901593399193
 42
-0.0057144634992036
 10
-1112.492578051472
 20
-1845.576783725827
 10
-1112.464547346076
 20
-1845.519275343444
 42
-0.0065388068374359
 10
-1112.281080318333
 20
-1845.155042846771
 10
-1112.272621862553
 20
-1845.138783267401
 42
-0.007451084302489
 10
-1112.096439616676
 20
-1844.812094986279
 10
-1112.088259946144
 20
-1844.797454209008
 42
-0.0084648979861552
 10
-1111.918626093046
 20
-1844.505545198049
 10
-1111.910769966556
 20
-1844.492538206396
 42
-0.0095638542802967
 10
-1111.746934518963
 20
-1844.23264933442
 10
-1111.739459575291
 20
-1844.221279972964
 42
-0.0107191626805276
 10
-1111.580657994904
 20
-1843.99066873842
 10
-1111.573641261174
 20
-1843.980932646057
 42
-0.0118458573902873
 10
-1111.41909316266
 20
-1843.776860450745
 42
-0.0129184518194601
 10
-1111.254640539058
 20
-1843.580699934574
 10
-1111.224495766694
 20
-1843.546573855674
 42
-0.021774257963268
 10
-1111.04788344436
 20
-1843.363367085425
 10
-1111.037137899902
 20
-1843.353150252224
 42
-0.0097266568647258
 10
-1110.871080281044
 20
-1843.201302677784
 42
-0.0187720905721306
 10
-1110.696732705156
 20
-1843.059233824396
 10
-1110.666026714481
 20
-1843.036074742
 42
-0.0179428207519667
 10
-1110.433605994484
 20
-1842.873522564887
 10
-1110.429953667568
 20
-1842.871158629999
 42
-0.0170047877700115
 10
-1110.194190030038
 20
-1842.729698115848
 10
-1110.190407041288
 20
-1842.72759981081
 42
-0.0160190788366087
 10
-1109.953498493656
 20
-1842.605948508824
 42
-0.0151102861488026
 10
-1109.709466711205
 20
-1842.499265732767
 10
-1109.657080208998
 20
-1842.478225599875
 42
-0.0271945441888827
 10
-1109.298417649941
 20
-1842.356360789169
 10
-1109.22935284945
 20
-1842.337011247902
 42
-0.0237596594018989
 10
-1108.813556002429
 20
-1842.241560535921
 10
-1108.745493148699
 20
-1842.229305847794
 42
-0.0213715440553051
 10
-1108.459618217253
 20
-1842.190358816284
 10
-1108.399471051033
 20
-1842.184769101583
 42
-0.0101465655815468
 10
-1108.231978519041
 20
-1842.172625558319
 10
-1108.222638132848
 20
-1842.172138643322
 42
-0.0100375910877158
 10
-1108.07348403228
 20
-1842.167362825397
 10
-1108.063224762596
 20
-1842.167240386382
 42
-0.010362563337294
 10
-1107.934516767945
 20
-1842.168371819909
 10
-1107.912251116679
 20
-1842.169029178374
 42
-0.0115689250229379
 10
-1107.82820037915
 20
-1842.173458684619
 42
-0.0072438037430686
 10
-1107.744362099719
 20
-1842.181047884367
 10
-1107.727561590238
 20
-1842.182814427092
 42
-0.0217917313132001
 10
-1107.610991826921
 20
-1842.200234319814
 10
-1107.545391736352
 20
-1842.212980928229
 42
-0.0332943556747246
 10
-1107.34099957133
 20
-1842.267021219535
 10
-1107.310827002776
 20
-1842.277189296655
 42
-0.018482408478919
 10
-1107.172321946314
 20
-1842.32964031204
 42
-0.0198002050701726
 10
-1107.038247605821
 20
-1842.392524372236
 10
-1107.036360968438
 20
-1842.393502159119
 42
-0.0212242342983559
 10
-1106.904222026037
 20
-1842.469264897911
 10
-1106.902406730492
 20
-1842.470410700121
 42
-0.0226090605801866
 10
-1106.773902829272
 20
-1842.559890343684
 10
-1106.772058387533
 20
-1842.561302596673
 42
-0.0238457052235419
 10
-1106.64887630624
 20
-1842.665298492536
 10
-1106.646923577681
 20
-1842.667113370301
 42
-0.0248160564159231
 10
-1106.530722070379
 20
-1842.786387971511
 10
-1106.528618436978
 20
-1842.788773305214
 42
-0.0254109591440428
 10
-1106.42101321911
 20
-1842.924061691182
 10
-1106.418765197198
 20
-1842.927203239579
 42
-0.0255528488287697
 10
-1106.321318518402
 20
-1843.079230293812
 10
-1106.318987418485
 20
-1843.083311905421
 42
-0.0252146793214665
 10
-1106.233206392474
 20
-1843.252814151422
 10
-1106.230904153319
 20
-1843.257996233331
 42
-0.0244265635949657
 10
-1106.158249459558
 20
-1843.445742805376
 10
-1106.149003058088
 20
-1843.473608223716
 42
-0.0231319612896547
 10
-1106.103080279097
 20
-1843.636909270517
 42
-0.011213042435099
 10
-1106.068444256557
 20
-1843.803112870712
 10
-1106.067241731446
 20
-1843.809609457593
 42
-0.0210527881226259
 10
-1106.041555256075
 20
-1843.990665103036
 10
-1106.038044661253
 20
-1844.026070651581
 42
-0.0190029892424385
 10
-1106.022603187709
 20
-1844.279606497856
 10
-1106.021793211265
 20
-1844.315082112223
 42
-0.0137974553657597
 10
-1106.023342064101
 20
-1844.640113518969
 10
-1106.024187519055
 20
-1844.666232263542
 42
-0.0081336634216275
 10
-1106.039046854278
 20
-1844.971579731148
 42
-0.0073526923572479
 10
-1106.063355387653
 20
-1845.27632797543
 10
-1106.064616811436
 20
-1845.289664650099
 42
-0.0066886138693312
 10
-1106.100352397482
 20
-1845.620250693598
 10
-1106.102009486952
 20
-1845.633872312588
 42
-0.0061359187350778
 10
-1106.149860089003
 20
-1845.99063629269
 10
-1106.151897590076
 20
-1846.004531095517
 42
-0.0056698610064196
 10
-1106.212547920843
 20
-1846.38780966436
 10
-1106.214953354166
 20
-1846.401968783586
 42
-0.0052721077275036
 10
-1106.289085554966
 20
-1846.812096123265
 10
-1106.291848703807
 20
-1846.82651275865
 42
-0.0049289272179713
 10
-1106.380142821908
 20
-1847.263821269775
 10
-1106.38325531659
 20
-1847.278490122588
 42
-0.0047415956710181
 10
-1106.486493308124
 20
-1847.743286880007
 10
-1106.521261518482
 20
-1847.893093975382
 42
-0.0084404470903511
 10
-1106.711277962055
 20
-1848.653317999919
 10
-1106.717404650039
 20
-1848.676182124067
 42
-0.0039635940259148
 10
-1106.938858334327
 20
-1849.477170988326
 10
-1106.952235129503
 20
-1849.524102604906
 42
-0.0072475040836619
 10
-1107.219682017365
 20
-1850.413322321294
 10
-1107.289894344191
 20
-1850.635062671262
 42
-0.0051345458826991
 10
-1107.576653716252
 20
-1851.509387859079
 10
-1107.598179983013
 20
-1851.57281412619
 42
-0.0019150016602178
 10
-1107.853713389886
 20
-1852.316363246435
 10
-1107.860180994285
 20
-1852.334950711363
 42
-0.0021524362752172
 10
-1108.108659045346
 20
-1853.039276533065
 10
-1108.117869466043
 20
-1853.065030111366
 42
-0.0024331286821754
 10
-1108.354124725079
 20
-1853.715629419484
 10
-1108.363172677633
 20
-1853.74017272585
 42
-0.0027449721786326
 10
-1108.587787248465
 20
-1854.339302604763
 10
-1108.59667725586
 20
-1854.362625194624
 42
-0.0031083229766793
 10
-1108.810219742467
 20
-1854.912549232195
 10
-1108.818955874143
 20
-1854.934638948054
 42
-0.0035311343282895
 10
-1109.021997059735
 20
-1855.437622073783
 10
-1109.030582398881
 20
-1855.458464797291
 42
-0.0040245640949601
 10
-1109.223694202677
 20
-1855.916774119886
 10
-1109.23213031628
 20
-1855.936353487959
 42
-0.0046015135850256
 10
-1109.415886609444
 20
-1856.3522585176
 10
-1109.424172787267
 20
-1856.370555657041
 42
-0.0052768638270854
 10
-1109.599150306227
 20
-1856.746328541322
 10
-1109.607282516854
 20
-1856.763321879864
 42
-0.0060672675643724
 10
-1109.77406212962
 20
-1857.10123750298
 10
-1109.782031610099
 20
-1857.116902761972
 42
-0.0069904648872467
 10
-1109.941200004103
 20
-1857.419238568641
 10
-1109.948991403714
 20
-1857.433549117868
 42
-0.0080637022770064
 10
-1110.10114326406
 20
-1857.702584421021
 10
-1110.108732296692
 20
-1857.715512286623
 42
-0.0093006455663438
 10
-1110.254472973223
 20
-1857.953526685125
 10
-1110.261823639968
 20
-1857.9650446543
 42
-0.0107060778059622
 10
-1110.401772183405
 20
-1858.174314971677
 10
-1110.408833951685
 20
-1858.184400514245
 42
-0.012272311141069
 10
-1110.543627669882
 20
-1858.367193843732
 10
-1110.543953893439
 20
-1858.367614231544
 42
-0.014183631962142
 10
-1110.687535496411
 20
-1858.542183989371
 10
-1110.694483252062
 20
-1858.550158989635
 42
-0.0175957477209902
 10
-1110.834389420097
 20
-1858.699779878041
 42
-0.0080466359675887
 10
-1110.981853185124
 20
-1858.842102406188
 10
-1111.027887729645
 20
-1858.885122844283
 42
-0.0269600260397193
 10
-1111.281167975626
 20
-1859.097446102791
 10
-1111.347735111927
 20
-1859.147397517418
 42
-0.017836283975118
 10
-1111.587679601581
 20
-1859.314415443669
 10
-1111.594924572581
 20
-1859.319083955873
 42
-0.0174650732650113
 10
-1111.831260770022
 20
-1859.459944920833
 42
-0.0169240130162774
 10
-1112.076727015881
 20
-1859.584237180611
 10
-1112.122713171438
 20
-1859.605599136177
 42
-0.0318883036842224
 10
-1112.473064027056
 20
-1859.741937445687
 10
-1112.541429562224
 20
-1859.763638066163
 42
-0.028443590990029
 10
-1112.917479688514
 20
-1859.859855501637
 10
-1112.952637849012
 20
-1859.866749097466
 42
-0.0243909341016108
 10
-1113.266081309931
 20
-1859.912470128496
 10
-1113.316362036701
 20
-1859.917315675398
 42
-0.0196639292929972
 10
-1113.53195761423
 20
-1859.929563960911
 10
-1113.583781685395
 20
-1859.930467221648
 42
-0.0100501510681487
 10
-1113.696204967057
 20
-1859.930166823295
 10
-1113.727864828388
 20
-1859.92944575141
 42
-0.0019752031116135
 10
-1113.776957165083
 20
-1859.9281335912
 10
-1113.779717468313
 20
-1859.928048899374
 42
0.0065378752028228
 10
-1113.82329404306
 20
-1859.927282008159
 42
-0.016797469464785
 10
-1113.866824865993
 20
-1859.925622109633
 10
-1113.870904205254
 20
-1859.925329098738
 42
-0.008128327630567
 10
-1113.922464002984
 20
-1859.920782105101
 10
-1113.93420357687
 20
-1859.919554187521
 42
-0.0126703440176781
 10
-1114.008921872665
 20
-1859.90981939645
 10
-1114.031709740341
 20
-1859.906261140535
 42
-0.0117852088427038
 10
-1114.151248726176
 20
-1859.884698145377
 10
-1114.206629177936
 20
-1859.873354605143
 42
-0.0251774592299188
 10
-1114.433473216938
 20
-1859.814856595712
 10
-1114.478192406792
 20
-1859.800889776376
 42
-0.0146525199882514
 10
-1114.664585394334
 20
-1859.736623249177
 42
-0.0166929435850181
 10
-1114.846563050468
 20
-1859.660816116119
 10
-1114.851219681733
 20
-1859.658691215508
 42
-0.0191684358439447
 10
-1115.036403312979
 20
-1859.56545513172
 10
-1115.03973589874
 20
-1859.563613884165
 42
-0.0221181781820557
 10
-1115.223046202638
 20
-1859.451480385797
 10
-1115.22539600665
 20
-1859.449896087803
 42
-0.0254984685385183
 10
-1115.401686157034
 20
-1859.317484937834
 10
-1115.424168304738
 20
-1859.298732628897
 42
-0.0292492648805796
 10
-1115.548937243581
 20
-1859.181639829254
 42
-0.015904895750225
 10
-1115.662777241029
 20
-1859.053619837657
 10
-1115.66409603161
 20
-1859.052038224635
 42
-0.0343813379552084
 10
-1115.766733293239
 20
-1858.910166898861
 10
-1115.798224824598
 20
-1858.85966350677
 42
-0.0369117275699296
 10
-1115.884117326495
 20
-1858.696186265823
 42
-0.0191751379917279
 10
-1115.95131071205
 20
-1858.523781659821
 10
-1115.953074035811
 20
-1858.518688315142
 42
-0.0378178042224787
 10
-1116.002868754596
 20
-1858.32974753906
 10
-1116.008864050325
 20
-1858.297186920864
 42
-0.0184846046470168
 10
-1116.02958124962
 20
-1858.155434100319
 42
-0.017986635131619
 10
-1116.039914254694
 20
-1858.012543287234
 10
-1116.039970697139
 20
-1858.010985600625
 42
-0.0085497186109026
 10
-1116.041402978243
 20
-1857.936112435615
 42
-0.0085497186109026
  0
ENDBLK
  5
5E
330
23
100
AcDbEntity
  8
template
390
1D
100
AcDbBlockEnd
  0
BLOCK
  5
5F
330
24
100
AcDbEntity
  8
notes
390
1D
100
AcDbBlockBegin
  2
*D3
 70
     1
 10
0.0
 20
0.0
 30
0.0
  3
*D3
  1
*D3
  0
LINE
  5
60
330
24
100
AcDbEntity
  8
0
  6
Continuous
 62
     0
370
    -2
390
1D
100
AcDbLine
 10
6297.542578945717
 20
671.8283196600037
 30
0.0
 11
6297.542578945717
 21
748.8283196600038
 31
0.0
  0
LINE
  5
61
330
24
100
AcDbEntity
  8
0
  6
Continuous
 62
     0
370
    -2
390
1D
100
AcDbLine
 10
6797.542578945728
 20
671.8283196600037
 30
0.0
 11
6797.542578945728
 21
748.8283196600038
 31
0.0
  0
LINE
  5
62
330
24
100
AcDbEntity
  8
0
  6
Continuous
 62
     0
370
    -2
390
1D
100
AcDbLine
 10
6297.542578945717
 20
748.8283196600038
 30
0.0
 11
6797.542578945728
 21
748.8283196600038
 31
0.0
  0
CIRCLE
  5
63
102
{ACAD_REACTORS
330
64
102
}
330
24
100
AcDbEntity
  8
0
  6
Continuous
 62
     0
370
    -2
390
1D
100
AcDbCircle
 10
6297.542578945717
 20
748.8283196600038
 30
0.0
 40
4.99969482421875
  0
HATCH
  5
64
330
24
100
AcDbEntity
  8
0
  6
Continuous
 62
     0
370
    -2
390
1D
100
AcDbHatch
 10
0.0
 20
0.0
 30
0.0
210
0.0
220
0.0
230
1.0
  2
SOLID
 70
     1
 71
     1
 91
        1
 92
        1
 93
        1
 72
     2
 10
6297.542578945717
 20
748.8283196600038
 40
4.99969482421875
 50
0.0
 51
360.0
 73
     0
 97
        1
330
63
 75
     0
 76
     1
 98
        1
 10
0.0
 20
0.0
  0
CIRCLE
  5
65
102
{ACAD_REACTORS
330
66
102
}
330
24
100
AcDbEntity
  8
0
  6
Continuous
 62
     0
370
    -2
390
1D
100
AcDbCircle
 10
6797.542578945728
 20
748.8283196600038
 30
0.0
 40
4.99969482421875
  0
HATCH
  5
66
330
24
100
AcDbEntity
  8
0
  6
Continuous
 62
     0
370
    -2
390
1D
100
AcDbHatch
 10
0.0
 20
0.0
 30
0.0
210
0.0
220
0.0
230
1.0
  2
SOLID
 70
     1
 71
     1
 91
        1
 92
        1
 93
        1
 72
     2
 10
6797.542578945728
 20
748.8283196600038
 40
4.99969482421875
 50
0.0
 51
360.0
 73
     0
 97
        1
330
65
 75
     0
 76
     1
 98
        1
 10
0.0
 20
0.0
  0
MTEXT
  5
67
330
24
100
AcDbEntity
  8
0
 62
     0
390
1D
100
AcDbMText
 10
6523.730077263546
 20
782.7059368475038
 30
0.0
 40
24.4326171875
 41
0.0
 46
0.0
 71
     1
 72
     1
  1
500
  7
ＭＳ ゴシック
 73
     1
 44
0.7828267384257843
  0
POINT
  5
68
330
24
100
AcDbEntity
  8
Defpoints
 62
     0
370
     0
390
1D
100
AcDbPoint
 10
6797.542578945728
 20
646.8283196600037
 30
0.0
  0
POINT
  5
69
330
24
100
AcDbEntity
  8
Defpoints
 62
     0
370
     0
390
1D
100
AcDbPoint
 10
6297.542578945717
 20
646.8283196600037
 30
0.0
  0
POINT
  5
6A
330
24
100
AcDbEntity
  8
Defpoints
 62
     0
370
     0
390
1D
100
AcDbPoint
 10
6297.542578945717
 20
748.8283196600038
 30
0.0
  0
ENDBLK
  5
6B
330
24
100
AcDbEntity
  8
notes
390
1D
100
AcDbBlockEnd
  0
BLOCK
  5
6C
330
25
100
AcDbEntity
  8
notes
390
1D
100
AcDbBlockBegin
  2
*D4
 70
     1
 10
0.0
 20
0.0
 30
0.0
  3
*D4
  1
*D4
  0
LINE
  5
6D
330
25
100
AcDbEntity
  8
0
  6
Continuous
 62
     0
370
    -2
390
1D
100
AcDbLine
 10
6276.499889048404
 20
648.8283196600037
 30
0.0
 11
6197.542578945717
 21
648.8283196600037
 31
0.0
  0
LINE
  5
6E
330
25
100
AcDbEntity
  8
0
  6
Continuous
 62
     0
370
    -2
390
1D
100
AcDbLine
 10
6287.742578945717
 20
518.8283196600039
 30
0.0
 11
6197.542578945717
 21
518.8283196600039
 31
0.0
  0
LINE
  5
6F
330
25
100
AcDbEntity
  8
0
  6
Continuous
 62
     0
370
    -2
390
1D
100
AcDbLine
 10
6197.542578945717
 20
648.8283196600037
 30
0.0
 11
6197.542578945717
 21
518.8283196600039
 31
0.0
  0
CIRCLE
  5
70
102
{ACAD_REACTORS
330
71
102
}
330
25
100
AcDbEntity
  8
0
  6
Continuous
 62
     0
370
    -2
390
1D
100
AcDbCircle
 10
6197.542578945717
 20
648.8283196600037
 30
0.0
 40
4.99969482421875
  0
HATCH
  5
71
330
25
100
AcDbEntity
  8
0
  6
Continuous
 62
     0
370
    -2
390
1D
100
AcDbHatch
 10
0.0
 20
0.0
 30
0.0
210
0.0
220
0.0
230
1.0
  2
SOLID
 70
     1
 71
     1
 91
        1
 92
        1
 93
        1
 72
     2
 10
6197.542578945717
 20
648.8283196600037
 40
4.99969482421875
 50
0.0
 51
360.0
 73
     0
 97
        1
330
70
 75
     0
 76
     1
 98
        1
 10
0.0
 20
0.0
  0
CIRCLE
  5
72
102
{ACAD_REACTORS
330
73
102
}
330
25
100
AcDbEntity
  8
0
  6
Continuous
 62
     0
370
    -2
390
1D
100
AcDbCircle
 10
6197.542578945717
 20
518.8283196600039
 30
0.0
 40
4.99969482421875
  0
HATCH
  5
73
330
25
100
AcDbEntity
  8
0
  6
Continuous
 62
     0
370
    -2
390
1D
100
AcDbHatch
 10
0.0
 20
0.0
 30
0.0
210
0.0
220
0.0
230
1.0
  2
SOLID
 70
     1
 71
     1
 91
        1
 92
        1
 93
        1
 72
     2
 10
6197.542578945717
 20
518.8283196600039
 40
4.99969482421875
 50
0.0
 51
360.0
 73
     0
 97
        1
330
72
 75
     0
 76
     1
 98
        1
 10
0.0
 20
0.0
  0
MTEXT
  5
74
330
25
100
AcDbEntity
  8
0
 62
     0
390
1D
100
AcDbMText
 10
6163.664961758216
 20
560.0158179778282
 30
0.0
 40
24.4326171875
 41
0.0
 46
0.0
 71
     1
 72
     1
  1
130
  7
ＭＳ ゴシック
 11
0.0
 21
1.0
 31
0.0
 73
     1
 44
0.7828267384257843
  0
POINT
  5
75
330
25
100
AcDbEntity
  8
Defpoints
 62
     0
370
     0
390
1D
100
AcDbPoint
 10
6312.742578945717
 20
518.8283196600039
 30
0.0
  0
POINT
  5
76
330
25
100
AcDbEntity
  8
Defpoints
 62
     0
370
     0
390
1D
100
AcDbPoint
 10
6301.499889048404
 20
648.8283196600037
 30
0.0
  0
POINT
  5
77
330
25
100
AcDbEntity
  8
Defpoints
 62
     0
370
     0
390
1D
100
AcDbPoint
 10
6197.542578945717
 20
648.8283196600037
 30
0.0
  0
ENDBLK
  5
78
330
25
100
AcDbEntity
  8
notes
390
1D
100
AcDbBlockEnd
  0
BLOCK
  5
79
330
26
100
AcDbEntity
  8
notes
390
1D
100
AcDbBlockBegin
  2
*D5
 70
     1
 10
0.0
 20
0.0
 30
0.0
  3
*D5
  1
*D5
  0
LINE
  5
7A
330
26
100
AcDbEntity
  8
0
  6
Continuous
 62
     0
370
    -2
390
1D
100
AcDbLine
 10
6287.742578945717
 20
518.8283196600039
 30
0.0
 11
6197.542578945717
 21
518.8283196600039
 31
0.0
  0
LINE
  5
7B
330
26
100
AcDbEntity
  8
0
  6
Continuous
 62
     0
370
    -2
390
1D
100
AcDbLine
 10
6289.742578945717
 20
188.8283196600037
 30
0.0
 11
6197.542578945717
 21
188.8283196600037
 31
0.0
  0
LINE
  5
7C
330
26
100
AcDbEntity
  8
0
  6
Continuous
 62
     0
370
    -2
390
1D
100
AcDbLine
 10
6197.542578945717
 20
518.8283196600039
 30
0.0
 11
6197.542578945717
 21
188.8283196600037
 31
0.0
  0
CIRCLE
  5
7D
102
{ACAD_REACTORS
330
7E
102
}
330
26
100
AcDbEntity
  8
0
  6
Continuous
 62
     0
370
    -2
390
1D
100
AcDbCircle
 10
6197.542578945717
 20
518.8283196600039
 30
0.0
 40
4.99969482421875
  0
HATCH
  5
7E
330
26
100
AcDbEntity
  8
0
  6
Continuous
 62
     0
370
    -2
390
1D
100
AcDbHatch
 10
0.0
 20
0.0
 30
0.0
210
0.0
220
0.0
230
1.0
  2
SOLID
 70
     1
 71
     1
 91
        1
 92
        1
 93
        1
 72
     2
 10
6197.542578945717
 20
518.8283196600039
 40
4.99969482421875
 50
0.0
 51
360.0
 73
     0
 97
        1
330
7D
 75
     0
 76
     1
 98
        1
 10
0.0
 20
0.0
  0
CIRCLE
  5
7F
102
{ACAD_REACTORS
330
80
102
}
330
26
100
AcDbEntity
  8
0
  6
Continuous
 62
     0
370
    -2
390
1D
100
AcDbCircle
 10
6197.542578945717
 20
188.8283196600037
 30
0.0
 40
4.99969482421875
  0
HATCH
  5
80
330
26
100
AcDbEntity
  8
0
  6
Continuous
 62
     0
370
    -2
390
1D
100
AcDbHatch
 10
0.0
 20
0.0
 30
0.0
210
0.0
220
0.0
230
1.0
  2
SOLID
 70
     1
 71
     1
 91
        1
 92
        1
 93
        1
 72
     2
 10
6197.542578945717
 20
188.8283196600037
 40
4.99969482421875
 50
0.0
 51
360.0
 73
     0
 97
        1
330
7F
 75
     0
 76
     1
 98
        1
 10
0.0
 20
0.0
  0
MTEXT
  5
81
330
26
100
AcDbEntity
  8
0
 62
     0
390
1D
100
AcDbMText
 10
6163.664961758216
 20
336.2158179778276
 30
0.0
 40
24.4326171875
 41
0.0
 46
0.0
 71
     1
 72
     1
  1
330
  7
ＭＳ ゴシック
 11
0.0
 21
1.0
 31
0.0
 73
     1
 44
0.7828267384257843
  0
POINT
  5
82
330
26
100
AcDbEntity
  8
Defpoints
 62
     0
370
     0
390
1D
100
AcDbPoint
 10
6314.742578945717
 20
188.8283196600037
 30
0.0
  0
POINT
  5
83
330
26
100
AcDbEntity
  8
Defpoints
 62
     0
370
     0
390
1D
100
AcDbPoint
 10
6312.742578945717
 20
518.8283196600039
 30
0.0
  0
POINT
  5
84
330
26
100
AcDbEntity
  8
Defpoints
 62
     0
370
     0
390
1D
100
AcDbPoint
 10
6197.542578945717
 20
518.8283196600039
 30
0.0
  0
ENDBLK
  5
85
330
26
100
AcDbEntity
  8
notes
390
1D
100
AcDbBlockEnd
  0
BLOCK
  5
86
330
27
100
AcDbEntity
  8
notes
390
1D
100
AcDbBlockBegin
  2
*D6
 70
     1
 10
0.0
 20
0.0
 30
0.0
  3
*D6
  1
*D6
  0
LINE
  5
87
330
27
100
AcDbEntity
  8
0
  6
Continuous
 62
     0
370
    -2
390
1D
100
AcDbLine
 10
6820.542578945728
 20
648.8283196600037
 30
0.0
 11
6897.542578945728
 21
648.8283196600037
 31
0.0
  0
LINE
  5
88
330
27
100
AcDbEntity
  8
0
  6
Continuous
 62
     0
370
    -2
390
1D
100
AcDbLine
 10
6815.542578945728
 20
178.8283196600032
 30
0.0
 11
6897.542578945728
 21
178.8283196600032
 31
0.0
  0
LINE
  5
89
330
27
100
AcDbEntity
  8
0
  6
Continuous
 62
     0
370
    -2
390
1D
100
AcDbLine
 10
6897.542578945728
 20
648.8283196600037
 30
0.0
 11
6897.542578945728
 21
178.8283196600032
 31
0.0
  0
CIRCLE
  5
8A
102
{ACAD_REACTORS
330
8B
102
}
330
27
100
AcDbEntity
  8
0
  6
Continuous
 62
     0
370
    -2
390
1D
100
AcDbCircle
 10
6897.542578945728
 20
648.8283196600037
 30
0.0
 40
4.99969482421875
  0
HATCH
  5
8B
330
27
100
AcDbEntity
  8
0
  6
Continuous
 62
     0
370
    -2
390
1D
100
AcDbHatch
 10
0.0
 20
0.0
 30
0.0
210
0.0
220
0.0
230
1.0
  2
SOLID
 70
     1
 71
     1
 91
        1
 92
        1
 93
        1
 72
     2
 10
6897.542578945728
 20
648.8283196600037
 40
4.99969482421875
 50
0.0
 51
360.0
 73
     0
 97
        1
330
8A
 75
     0
 76
     1
 98
        1
 10
0.0
 20
0.0
  0
CIRCLE
  5
8C
102
{ACAD_REACTORS
330
8D
102
}
330
27
100
AcDbEntity
  8
0
  6
Continuous
 62
     0
370
    -2
390
1D
100
AcDbCircle
 10
6897.542578945728
 20
178.8283196600032
 30
0.0
 40
4.99969482421875
  0
HATCH
  5
8D
330
27
100
AcDbEntity
  8
0
  6
Continuous
 62
     0
370
    -2
390
1D
100
AcDbHatch
 10
0.0
 20
0.0
 30
0.0
210
0.0
220
0.0
230
1.0
  2
SOLID
 70
     1
 71
     1
 91
        1
 92
        1
 93
        1
 72
     2
 10
6897.542578945728
 20
178.8283196600032
 40
4.99969482421875
 50
0.0
 51
360.0
 73
     0
 97
        1
330
8C
 75
     0
 76
     1
 98
        1
 10
0.0
 20
0.0
  0
MTEXT
  5
8E
330
27
100
AcDbEntity
  8
0
 62
     0
390
1D
100
AcDbMText
 10
6863.664961758227
 20
390.0158179778279
 30
0.0
 40
24.4326171875
 41
0.0
 46
0.0
 71
     1
 72
     1
  1
470
  7
ＭＳ ゴシック
 11
0.0
 21
1.0
 31
0.0
 73
     1
 44
0.7828267384257843
  0
POINT
  5
8F
330
27
100
AcDbEntity
  8
Defpoints
 62
     0
370
     0
390
1D
100
AcDbPoint
 10
6790.542578945728
 20
178.8283196600032
 30
0.0
  0
POINT
  5
90
330
27
100
AcDbEntity
  8
Defpoints
 62
     0
370
     0
390
1D
100
AcDbPoint
 10
6795.542578945728
 20
648.8283196600037
 30
0.0
  0
POINT
  5
91
330
27
100
AcDbEntity
  8
Defpoints
 62
     0
370
     0
390
1D
100
AcDbPoint
 10
6897.542578945728
 20
648.8283196600037
 30
0.0
  0
ENDBLK
  5
92
330
27
100
AcDbEntity
  8
notes
390
1D
100
AcDbBlockEnd
  0
BLOCK
  5
93
330
28
100
AcDbEntity
  8
notes
390
1D
100
AcDbBlockBegin
  2
*D7
 70
     1
 10
0.0
 20
0.0
 30
0.0
  3
*D7
  1
*D7
  0
LINE
  5
94
330
28
100
AcDbEntity
  8
0
  6
Continuous
 62
     0
370
    -2
390
1D
100
AcDbLine
 10
6307.542578945717
 20
160.8283196600041
 30
0.0
 11
6307.542578945717
 21
78.82831966000316
 31
0.0
  0
LINE
  5
95
330
28
100
AcDbEntity
  8
0
  6
Continuous
 62
     0
370
    -2
390
1D
100
AcDbLine
 10
6787.542578945717
 20
160.8283196600032
 30
0.0
 11
6787.542578945717
 21
78.82831966000316
 31
0.0
  0
LINE
  5
96
330
28
100
AcDbEntity
  8
0
  6
Continuous
 62
     0
370
    -2
390
1D
100
AcDbLine
 10
6307.542578945717
 20
78.82831966000316
 30
0.0
 11
6787.542578945717
 21
78.82831966000316
 31
0.0
  0
CIRCLE
  5
97
102
{ACAD_REACTORS
330
98
102
}
330
28
100
AcDbEntity
  8
0
  6
Continuous
 62
     0
370
    -2
390
1D
100
AcDbCircle
 10
6307.542578945717
 20
78.82831966000316
 30
0.0
 40
4.99969482421875
  0
HATCH
  5
98
330
28
100
AcDbEntity
  8
0
  6
Continuous
 62
     0
370
    -2
390
1D
100
AcDbHatch
 10
0.0
 20
0.0
 30
0.0
210
0.0
220
0.0
230
1.0
  2
SOLID
 70
     1
 71
     1
 91
        1
 92
        1
 93
        1
 72
     2
 10
6307.542578945717
 20
78.82831966000316
 40
4.99969482421875
 50
0.0
 51
360.0
 73
     0
 97
        1
330
97
 75
     0
 76
     1
 98
        1
 10
0.0
 20
0.0
  0
CIRCLE
  5
99
102
{ACAD_REACTORS
330
9A
102
}
330
28
100
AcDbEntity
  8
0
  6
Continuous
 62
     0
370
    -2
390
1D
100
AcDbCircle
 10
6787.542578945717
 20
78.82831966000316
 30
0.0
 40
4.99969482421875
  0
HATCH
  5
9A
330
28
100
AcDbEntity
  8
0
  6
Continuous
 62
     0
370
    -2
390
1D
100
AcDbHatch
 10
0.0
 20
0.0
 30
0.0
210
0.0
220
0.0
230
1.0
  2
SOLID
 70
     1
 71
     1
 91
        1
 92
        1
 93
        1
 72
     2
 10
6787.542578945717
 20
78.82831966000316
 40
4.99969482421875
 50
0.0
 51
360.0
 73
     0
 97
        1
330
99
 75
     0
 76
     1
 98
        1
 10
0.0
 20
0.0
  0
MTEXT
  5
9B
330
28
100
AcDbEntity
  8
0
 62
     0
390
1D
100
AcDbMText
 10
6523.730077263541
 20
112.7059368475032
 30
0.0
 40
24.4326171875
 41
0.0
 46
0.0
 71
     1
 72
     1
  1
480
  7
ＭＳ ゴシック
 73
     1
 44
0.7828267384257843
  0
POINT
  5
9C
330
28
100
AcDbEntity
  8
Defpoints
 62
     0
370
     0
390
1D
100
AcDbPoint
 10
6787.542578945717
 20
185.8283196600032
 30
0.0
  0
POINT
  5
9D
330
28
100
AcDbEntity
  8
Defpoints
 62
     0
370
     0
390
1D
100
AcDbPoint
 10
6307.542578945717
 20
185.8283196600041
 30
0.0
  0
POINT
  5
9E
330
28
100
AcDbEntity
  8
Defpoints
 62
     0
370
     0
390
1D
100
AcDbPoint
 10
6307.542578945717
 20
78.82831966000316
 30
0.0
  0
ENDBLK
  5
9F
330
28
100
AcDbEntity
  8
notes
390
1D
100
AcDbBlockEnd
  0
BLOCK
  5
A0
330
29
100
AcDbEntity
  8
notes
390
1D
100
AcDbBlockBegin
  2
*D8
 70
     1
 10
0.0
 20
0.0
 30
0.0
  3
*D8
  1
*D8
  0
LINE
  5
A1
330
29
100
AcDbEntity
  8
0
  6
Continuous
 62
     0
370
    -2
390
1D
100
AcDbLine
 10
6407.542578945864
 20
-692.0938782235506
 30
0.0
 11
6407.542578945864
 21
-597.0938782235506
 31
0.0
  0
LINE
  5
A2
330
29
100
AcDbEntity
  8
0
  6
Continuous
 62
     0
370
    -2
390
1D
100
AcDbLine
 10
6687.542578945864
 20
-692.0938782235506
 30
0.0
 11
6687.542578945864
 21
-597.0938782235506
 31
0.0
  0
LINE
  5
A3
330
29
100
AcDbEntity
  8
0
  6
Continuous
 62
     0
370
    -2
390
1D
100
AcDbLine
 10
6407.542578945864
 20
-597.0938782235506
 30
0.0
 11
6687.542578945864
 21
-597.0938782235506
 31
0.0
  0
CIRCLE
  5
A4
102
{ACAD_REACTORS
330
A5
102
}
330
29
100
AcDbEntity
  8
0
  6
Continuous
 62
     0
370
    -2
390
1D
100
AcDbCircle
 10
6407.542578945864
 20
-597.0938782235506
 30
0.0
 40
4.99969482421875
  0
HATCH
  5
A5
330
29
100
AcDbEntity
  8
0
  6
Continuous
 62
     0
370
    -2
390
1D
100
AcDbHatch
 10
0.0
 20
0.0
 30
0.0
210
0.0
220
0.0
230
1.0
  2
SOLID
 70
     1
 71
     1
 91
        1
 92
        1
 93
        1
 72
     2
 10
6407.542578945864
 20
-597.0938782235506
 40
4.99969482421875
 50
0.0
 51
360.0
 73
     0
 97
        1
330
A4
 75
     0
 76
     1
 98
        1
 10
0.0
 20
0.0
  0
CIRCLE
  5
A6
102
{ACAD_REACTORS
330
A7
102
}
330
29
100
AcDbEntity
  8
0
  6
Continuous
 62
     0
370
    -2
390
1D
100
AcDbCircle
 10
6687.542578945864
 20
-597.0938782235506
 30
0.0
 40
4.99969482421875
  0
HATCH
  5
A7
330
29
100
AcDbEntity
  8
0
  6
Continuous
 62
     0
370
    -2
390
1D
100
AcDbHatch
 10
0.0
 20
0.0
 30
0.0
210
0.0
220
0.0
230
1.0
  2
SOLID
 70
     1
 71
     1
 91
        1
 92
        1
 93
        1
 72
     2
 10
6687.542578945864
 20
-597.0938782235506
 40
4.99969482421875
 50
0.0
 51
360.0
 73
     0
 97
        1
330
A6
 75
     0
 76
     1
 98
        1
 10
0.0
 20
0.0
  0
MTEXT
  5
A8
330
29
100
AcDbEntity
  8
0
 62
     0
390
1D
100
AcDbMText
 10
6523.730077263688
 20
-563.2162610360506
 30
0.0
 40
24.4326171875
 41
0.0
 46
0.0
 71
     1
 72
     1
  1
280
  7
ＭＳ ゴシック
 73
     1
 44
0.7828267384257843
  0
POINT
  5
A9
330
29
100
AcDbEntity
  8
Defpoints
 62
     0
370
     0
390
1D
100
AcDbPoint
 10
6687.542578945864
 20
-717.0938782235506
 30
0.0
  0
POINT
  5
AA
330
29
100
AcDbEntity
  8
Defpoints
 62
     0
370
     0
390
1D
100
AcDbPoint
 10
6407.542578945864
 20
-717.0938782235506
 30
0.0
  0
POINT
  5
AB
330
29
100
AcDbEntity
  8
Defpoints
 62
     0
370
     0
390
1D
100
AcDbPoint
 10
6407.542578945864
 20
-597.0938782235506
 30
0.0
  0
ENDBLK
  5
AC
330
29
100
AcDbEntity
  8
notes
390
1D
100
AcDbBlockEnd
  0
BLOCK
  5
AD
330
2A
100
AcDbEntity
  8
notes
390
1D
100
AcDbBlockBegin
  2
*D9
 70
     1
 10
0.0
 20
0.0
 30
0.0
  3
*D9
  1
*D9
  0
LINE
  5
AE
330
2A
100
AcDbEntity
  8
0
  6
Continuous
 62
     0
370
    -2
390
1D
100
AcDbLine
 10
6362.542578945864
 20
-737.0938782235506
 30
0.0
 11
6197.542578945853
 21
-737.0938782235506
 31
0.0
  0
LINE
  5
AF
330
2A
100
AcDbEntity
  8
0
  6
Continuous
 62
     0
370
    -2
390
1D
100
AcDbLine
 10
6279.542578945864
 20
-697.0938782235506
 30
0.0
 11
6197.542578945853
 21
-697.0938782235506
 31
0.0
  0
LINE
  5
B0
330
2A
100
AcDbEntity
  8
0
  6
Continuous
 62
     0
370
    -2
390
1D
100
AcDbLine
 10
6197.542578945853
 20
-737.0938782235506
 30
0.0
 11
6197.542578945853
 21
-697.0938782235506
 31
0.0
  0
CIRCLE
  5
B1
102
{ACAD_REACTORS
330
B2
102
}
330
2A
100
AcDbEntity
  8
0
  6
Continuous
 62
     0
370
    -2
390
1D
100
AcDbCircle
 10
6197.542578945853
 20
-737.0938782235506
 30
0.0
 40
4.99969482421875
  0
HATCH
  5
B2
330
2A
100
AcDbEntity
  8
0
  6
Continuous
 62
     0
370
    -2
390
1D
100
AcDbHatch
 10
0.0
 20
0.0
 30
0.0
210
0.0
220
0.0
230
1.0
  2
SOLID
 70
     1
 71
     1
 91
        1
 92
        1
 93
        1
 72
     2
 10
6197.542578945853
 20
-737.0938782235506
 40
4.99969482421875
 50
0.0
 51
360.0
 73
     0
 97
        1
330
B1
 75
     0
 76
     1
 98
        1
 10
0.0
 20
0.0
  0
CIRCLE
  5
B3
102
{ACAD_REACTORS
330
B4
102
}
330
2A
100
AcDbEntity
  8
0
  6
Continuous
 62
     0
370
    -2
390
1D
100
AcDbCircle
 10
6197.542578945853
 20
-697.0938782235506
 30
0.0
 40
4.99969482421875
  0
HATCH
  5
B4
330
2A
100
AcDbEntity
  8
0
  6
Continuous
 62
     0
370
    -2
390
1D
100
AcDbHatch
 10
0.0
 20
0.0
 30
0.0
210
0.0
220
0.0
230
1.0
  2
SOLID
 70
     1
 71
     1
 91
        1
 92
        1
 93
        1
 72
     2
 10
6197.542578945853
 20
-697.0938782235506
 40
4.99969482421875
 50
0.0
 51
360.0
 73
     0
 97
        1
330
B3
 75
     0
 76
     1
 98
        1
 10
0.0
 20
0.0
  0
MTEXT
  5
B5
330
2A
100
AcDbEntity
  8
0
 62
     0
390
1D
100
AcDbMText
 10
6163.664961758353
 20
-732.9688782235506
 30
0.0
 40
24.4326171875
 41
0.0
 46
0.0
 71
     1
 72
     1
  1
40
  7
ＭＳ ゴシック
 11
0.0
 21
1.0
 31
0.0
 73
     1
 44
0.7828267384257843
  0
POINT
  5
B6
330
2A
100
AcDbEntity
  8
Defpoints
 62
     0
370
     0
390
1D
100
AcDbPoint
 10
6304.542578945864
 20
-697.0938782235506
 30
0.0
  0
POINT
  5
B7
330
2A
100
AcDbEntity
  8
Defpoints
 62
     0
370
     0
390
1D
100
AcDbPoint
 10
6387.542578945864
 20
-737.0938782235506
 30
0.0
  0
POINT
  5
B8
330
2A
100
AcDbEntity
  8
Defpoints
 62
     0
370
     0
390
1D
100
AcDbPoint
 10
6197.542578945853
 20
-737.0938782235506
 30
0.0
  0
ENDBLK
  5
B9
330
2A
100
AcDbEntity
  8
notes
390
1D
100
AcDbBlockEnd
  0
BLOCK
  5
BA
330
2B
100
AcDbEntity
  8
notes
390
1D
100
AcDbBlockBegin
  2
*D10
 70
     1
 10
0.0
 20
0.0
 30
0.0
  3
*D10
  1
*D10
  0
LINE
  5
BB
330
2B
100
AcDbEntity
  8
0
  6
Continuous
 62
     0
370
    -2
390
1D
100
AcDbLine
 10
6815.542578945857
 20
-697.0938782235506
 30
0.0
 11
6897.204561512893
 21
-697.0938782235506
 31
0.0
  0
LINE
  5
BC
330
2B
100
AcDbEntity
  8
0
  6
Continuous
 62
     0
370
    -2
390
1D
100
AcDbLine
 10
6605.554010042499
 20
-857.0938782235506
 30
0.0
 11
6897.204561512893
 21
-857.0938782235506
 31
0.0
  0
LINE
  5
BD
330
2B
100
AcDbEntity
  8
0
  6
Continuous
 62
     0
370
    -2
390
1D
100
AcDbLine
 10
6897.204561512893
 20
-697.0938782235506
 30
0.0
 11
6897.204561512893
 21
-857.0938782235506
 31
0.0
  0
CIRCLE
  5
BE
102
{ACAD_REACTORS
330
BF
102
}
330
2B
100
AcDbEntity
  8
0
  6
Continuous
 62
     0
370
    -2
390
1D
100
AcDbCircle
 10
6897.204561512893
 20
-697.0938782235506
 30
0.0
 40
4.99969482421875
  0
HATCH
  5
BF
330
2B
100
AcDbEntity
  8
0
  6
Continuous
 62
     0
370
    -2
390
1D
100
AcDbHatch
 10
0.0
 20
0.0
 30
0.0
210
0.0
220
0.0
230
1.0
  2
SOLID
 70
     1
 71
     1
 91
        1
 92
        1
 93
        1
 72
     2
 10
6897.204561512893
 20
-697.0938782235506
 40
4.99969482421875
 50
0.0
 51
360.0
 73
     0
 97
        1
330
BE
 75
     0
 76
     1
 98
        1
 10
0.0
 20
0.0
  0
CIRCLE
  5
C0
102
{ACAD_REACTORS
330
C1
102
}
330
2B
100
AcDbEntity
  8
0
  6
Continuous
 62
     0
370
    -2
390
1D
100
AcDbCircle
 10
6897.204561512893
 20
-857.0938782235506
 30
0.0
 40
4.99969482421875
  0
HATCH
  5
C1
330
2B
100
AcDbEntity
  8
0
  6
Continuous
 62
     0
370
    -2
390
1D
100
AcDbHatch
 10
0.0
 20
0.0
 30
0.0
210
0.0
220
0.0
230
1.0
  2
SOLID
 70
     1
 71
     1
 91
        1
 92
        1
 93
        1
 72
     2
 10
6897.204561512893
 20
-857.0938782235506
 40
4.99969482421875
 50
0.0
 51
360.0
 73
     0
 97
        1
330
C0
 75
     0
 76
     1
 98
        1
 10
0.0
 20
0.0
  0
MTEXT
  5
C2
330
2B
100
AcDbEntity
  8
0
 62
     0
390
1D
100
AcDbMText
 10
6863.326944325392
 20
-800.906379905726
 30
0.0
 40
24.4326171875
 41
0.0
 46
0.0
 71
     1
 72
     1
  1
160
  7
ＭＳ ゴシック
 11
0.0
 21
1.0
 31
0.0
 73
     1
 44
0.7828267384257843
  0
POINT
  5
C3
330
2B
100
AcDbEntity
  8
Defpoints
 62
     0
370
     0
390
1D
100
AcDbPoint
 10
6580.554010042499
 20
-857.0938782235506
 30
0.0
  0
POINT
  5
C4
330
2B
100
AcDbEntity
  8
Defpoints
 62
     0
370
     0
390
1D
100
AcDbPoint
 10
6790.542578945857
 20
-697.0938782235506
 30
0.0
  0
POINT
  5
C5
330
2B
100
AcDbEntity
  8
Defpoints
 62
     0
370
     0
390
1D
100
AcDbPoint
 10
6897.204561512893
 20
-697.0938782235506
 30
0.0
  0
ENDBLK
  5
C6
330
2B
100
AcDbEntity
  8
notes
390
1D
100
AcDbBlockEnd
  0
BLOCK
  5
C7
330
2C
100
AcDbEntity
  8
notes
390
1D
100
AcDbBlockBegin
  2
*D11
 70
     1
 10
0.0
 20
0.0
 30
0.0
  3
*D11
  1
*D11
  0
LINE
  5
C8
330
2C
100
AcDbEntity
  8
0
  6
Continuous
 62
     0
370
    -2
390
1D
100
AcDbLine
 10
7231.867210027405
 20
-697.0957715708404
 30
0.0
 11
7149.719815749929
 21
-697.0957715708404
 31
0.0
  0
LINE
  5
C9
330
2C
100
AcDbEntity
  8
0
  6
Continuous
 62
     0
370
    -2
390
1D
100
AcDbLine
 10
7234.855518400402
 20
-827.0939497944045
 30
0.0
 11
7149.719815749929
 21
-827.0939497944045
 31
0.0
  0
LINE
  5
CA
330
2C
100
AcDbEntity
  8
0
  6
Continuous
 62
     0
370
    -2
390
1D
100
AcDbLine
 10
7149.719815749929
 20
-697.0957715708404
 30
0.0
 11
7149.719815749929
 21
-827.0939497944045
 31
0.0
  0
CIRCLE
  5
CB
102
{ACAD_REACTORS
330
CC
102
}
330
2C
100
AcDbEntity
  8
0
  6
Continuous
 62
     0
370
    -2
390
1D
100
AcDbCircle
 10
7149.719815749929
 20
-697.0957715708404
 30
0.0
 40
4.99969482421875
  0
HATCH
  5
CC
330
2C
100
AcDbEntity
  8
0
  6
Continuous
 62
     0
370
    -2
390
1D
100
AcDbHatch
 10
0.0
 20
0.0
 30
0.0
210
0.0
220
0.0
230
1.0
  2
SOLID
 70
     1
 71
     1
 91
        1
 92
        1
 93
        1
 72
     2
 10
7149.719815749929
 20
-697.0957715708404
 40
4.99969482421875
 50
0.0
 51
360.0
 73
     0
 97
        1
330
CB
 75
     0
 76
     1
 98
        1
 10
0.0
 20
0.0
  0
CIRCLE
  5
CD
102
{ACAD_REACTORS
330
CE
102
}
330
2C
100
AcDbEntity
  8
0
  6
Continuous
 62
     0
370
    -2
390
1D
100
AcDbCircle
 10
7149.719815749929
 20
-827.0939497944045
 30
0.0
 40
4.99969482421875
  0
HATCH
  5
CE
330
2C
100
AcDbEntity
  8
0
  6
Continuous
 62
     0
370
    -2
390
1D
100
AcDbHatch
 10
0.0
 20
0.0
 30
0.0
210
0.0
220
0.0
230
1.0
  2
SOLID
 70
     1
 71
     1
 91
        1
 92
        1
 93
        1
 72
     2
 10
7149.719815749929
 20
-827.0939497944045
 40
4.99969482421875
 50
0.0
 51
360.0
 73
     0
 97
        1
330
CD
 75
     0
 76
     1
 98
        1
 10
0.0
 20
0.0
  0
MTEXT
  5
CF
330
2C
100
AcDbEntity
  8
0
 62
     0
390
1D
100
AcDbMText
 10
7115.842198562428
 20
-785.9073623647979
 30
0.0
 40
24.4326171875
 41
0.0
 46
0.0
 71
     1
 72
     1
  1
130
  7
ＭＳ ゴシック
 11
0.0
 21
1.0
 31
0.0
 73
     1
 44
0.7828267384257843
  0
POINT
  5
D0
330
2C
100
AcDbEntity
  8
Defpoints
 62
     0
370
     0
390
1D
100
AcDbPoint
 10
7259.855518400402
 20
-827.0939497944045
 30
0.0
  0
POINT
  5
D1
330
2C
100
AcDbEntity
  8
Defpoints
 62
     0
370
     0
390
1D
100
AcDbPoint
 10
7256.867210027405
 20
-697.0957715708404
 30
0.0
  0
POINT
  5
D2
330
2C
100
AcDbEntity
  8
Defpoints
 62
     0
370
     0
390
1D
100
AcDbPoint
 10
7149.719815749929
 20
-697.0957715708404
 30
0.0
  0
ENDBLK
  5
D3
330
2C
100
AcDbEntity
  8
notes
390
1D
100
AcDbBlockEnd
  0
BLOCK
  5
D4
330
2D
100
AcDbEntity
  8
notes
390
1D
100
AcDbBlockBegin
  2
*D12
 70
     1
 10
0.0
 20
0.0
 30
0.0
  3
*D12
  1
*D12
  0
LINE
  5
D5
330
2D
100
AcDbEntity
  8
0
  6
Continuous
 62
     0
370
    -2
390
1D
100
AcDbLine
 10
7719.518648900592
 20
-850.0939698869159
 30
0.0
 11
7719.518648900592
 21
-957.093943735595
 31
0.0
  0
LINE
  5
D6
330
2D
100
AcDbEntity
  8
0
  6
Continuous
 62
     0
370
    -2
390
1D
100
AcDbLine
 10
7504.518648900592
 20
-882.0939434733262
 30
0.0
 11
7504.518648900592
 21
-957.093943735595
 31
0.0
  0
LINE
  5
D7
330
2D
100
AcDbEntity
  8
0
  6
Continuous
 62
     0
370
    -2
390
1D
100
AcDbLine
 10
7719.518648900592
 20
-957.093943735595
 30
0.0
 11
7504.518648900592
 21
-957.093943735595
 31
0.0
  0
CIRCLE
  5
D8
102
{ACAD_REACTORS
330
D9
102
}
330
2D
100
AcDbEntity
  8
0
  6
Continuous
 62
     0
370
    -2
390
1D
100
AcDbCircle
 10
7719.518648900592
 20
-957.093943735595
 30
0.0
 40
4.99969482421875
  0
HATCH
  5
D9
330
2D
100
AcDbEntity
  8
0
  6
Continuous
 62
     0
370
    -2
390
1D
100
AcDbHatch
 10
0.0
 20
0.0
 30
0.0
210
0.0
220
0.0
230
1.0
  2
SOLID
 70
     1
 71
     1
 91
        1
 92
        1
 93
        1
 72
     2
 10
7719.518648900592
 20
-957.093943735595
 40
4.99969482421875
 50
0.0
 51
360.0
 73
     0
 97
        1
330
D8
 75
     0
 76
     1
 98
        1
 10
0.0
 20
0.0
  0
CIRCLE
  5
DA
102
{ACAD_REACTORS
330
DB
102
}
330
2D
100
AcDbEntity
  8
0
  6
Continuous
 62
     0
370
    -2
390
1D
100
AcDbCircle
 10
7504.518648900592
 20
-957.093943735595
 30
0.0
 40
4.99969482421875
  0
HATCH
  5
DB
330
2D
100
AcDbEntity
  8
0
  6
Continuous
 62
     0
370
    -2
390
1D
100
AcDbHatch
 10
0.0
 20
0.0
 30
0.0
210
0.0
220
0.0
230
1.0
  2
SOLID
 70
     1
 71
     1
 91
        1
 92
        1
 93
        1
 72
     2
 10
7504.518648900592
 20
-957.093943735595
 40
4.99969482421875
 50
0.0
 51
360.0
 73
     0
 97
        1
330
DA
 75
     0
 76
     1
 98
        1
 10
0.0
 20
0.0
  0
MTEXT
  5
DC
330
2D
100
AcDbEntity
  8
0
 62
     0
390
1D
100
AcDbMText
 10
7588.206147218417
 20
-923.216326548095
 30
0.0
 40
24.4326171875
 41
0.0
 46
0.0
 71
     1
 72
     1
  1
215
  7
ＭＳ ゴシック
 73
     1
 44
0.7828267384257843
  0
POINT
  5
DD
330
2D
100
AcDbEntity
  8
Defpoints
 62
     0
370
     0
390
1D
100
AcDbPoint
 10
7504.518648900592
 20
-857.0939434733262
 30
0.0
  0
POINT
  5
DE
330
2D
100
AcDbEntity
  8
Defpoints
 62
     0
370
     0
390
1D
100
AcDbPoint
 10
7719.518648900592
 20
-825.0939698869159
 30
0.0
  0
POINT
  5
DF
330
2D
100
AcDbEntity
  8
Defpoints
 62
     0
370
     0
390
1D
100
AcDbPoint
 10
7719.518648900592
 20
-957.093943735595
 30
0.0
  0
ENDBLK
  5
E0
330
2D
100
AcDbEntity
  8
notes
390
1D
100
AcDbBlockEnd
  0
BLOCK
  5
E1
330
2E
100
AcDbEntity
  8
notes
390
1D
100
AcDbBlockBegin
  2
*D13
 70
     1
 10
0.0
 20
0.0
 30
0.0
  3
*D13
  1
*D13
  0
LINE
  5
E2
330
2E
100
AcDbEntity
  8
0
  6
Continuous
 62
     0
370
    -2
390
1D
100
AcDbLine
 10
7654.544350836947
 20
-672.0939499262514
 30
0.0
 11
7654.544350836947
 21
-597.093947262615
 31
0.0
  0
LINE
  5
E3
330
2E
100
AcDbEntity
  8
0
  6
Continuous
 62
     0
370
    -2
390
1D
100
AcDbLine
 10
7719.544350836947
 20
-675.0939528712796
 30
0.0
 11
7719.544350836947
 21
-597.093947262615
 31
0.0
  0
LINE
  5
E4
330
2E
100
AcDbEntity
  8
0
  6
Continuous
 62
     0
370
    -2
390
1D
100
AcDbLine
 10
7654.544350836947
 20
-597.093947262615
 30
0.0
 11
7719.544350836947
 21
-597.093947262615
 31
0.0
  0
CIRCLE
  5
E5
102
{ACAD_REACTORS
330
E6
102
}
330
2E
100
AcDbEntity
  8
0
  6
Continuous
 62
     0
370
    -2
390
1D
100
AcDbCircle
 10
7654.544350836947
 20
-597.093947262615
 30
0.0
 40
4.99969482421875
  0
HATCH
  5
E6
330
2E
100
AcDbEntity
  8
0
  6
Continuous
 62
     0
370
    -2
390
1D
100
AcDbHatch
 10
0.0
 20
0.0
 30
0.0
210
0.0
220
0.0
230
1.0
  2
SOLID
 70
     1
 71
     1
 91
        1
 92
        1
 93
        1
 72
     2
 10
7654.544350836947
 20
-597.093947262615
 40
4.99969482421875
 50
0.0
 51
360.0
 73
     0
 97
        1
330
E5
 75
     0
 76
     1
 98
        1
 10
0.0
 20
0.0
  0
CIRCLE
  5
E7
102
{ACAD_REACTORS
330
E8
102
}
330
2E
100
AcDbEntity
  8
0
  6
Continuous
 62
     0
370
    -2
390
1D
100
AcDbCircle
 10
7719.544350836947
 20
-597.093947262615
 30
0.0
 40
4.99969482421875
  0
HATCH
  5
E8
330
2E
100
AcDbEntity
  8
0
  6
Continuous
 62
     0
370
    -2
390
1D
100
AcDbHatch
 10
0.0
 20
0.0
 30
0.0
210
0.0
220
0.0
230
1.0
  2
SOLID
 70
     1
 71
     1
 91
        1
 92
        1
 93
        1
 72
     2
 10
7719.544350836947
 20
-597.093947262615
 40
4.99969482421875
 50
0.0
 51
360.0
 73
     0
 97
        1
330
E7
 75
     0
 76
     1
 98
        1
 10
0.0
 20
0.0
  0
MTEXT
  5
E9
330
2E
100
AcDbEntity
  8
0
 62
     0
390
1D
100
AcDbMText
 10
7671.169350836947
 20
-563.2163300751149
 30
0.0
 40
24.4326171875
 41
0.0
 46
0.0
 71
     1
 72
     1
  1
65
  7
ＭＳ ゴシック
 73
     1
 44
0.7828267384257843
  0
POINT
  5
EA
330
2E
100
AcDbEntity
  8
Defpoints
 62
     0
370
     0
390
1D
100
AcDbPoint
 10
7719.544350836947
 20
-700.0939528712796
 30
0.0
  0
POINT
  5
EB
330
2E
100
AcDbEntity
  8
Defpoints
 62
     0
370
     0
390
1D
100
AcDbPoint
 10
7654.544350836947
 20
-697.0939499262514
 30
0.0
  0
POINT
  5
EC
330
2E
100
AcDbEntity
  8
Defpoints
 62
     0
370
     0
390
1D
100
AcDbPoint
 10
7654.544350836947
 20
-597.093947262615
 30
0.0
  0
ENDBLK
  5
ED
330
2E
100
AcDbEntity
  8
notes
390
1D
100
AcDbBlockEnd
  0
BLOCK
  5
EE
330
2F
100
AcDbEntity
  8
notes
390
1D
100
AcDbBlockBegin
  2
*D14
 70
     1
 10
0.0
 20
0.0
 30
0.0
  3
*D14
  1
*D14
  0
LINE
  5
EF
330
2F
100
AcDbEntity
  8
0
  6
Continuous
 62
     0
370
    -2
390
1D
100
AcDbLine
 10
7532.875442362148
 20
-697.0939436200564
 30
0.0
 11
7513.098040144856
 21
-697.0939436200564
 31
0.0
  0
LINE
  5
F0
330
2F
100
AcDbEntity
  8
0
  6
Continuous
 62
     0
370
    -2
390
1D
100
AcDbLine
 10
7532.875442362148
 20
-807.0939436200564
 30
0.0
 11
7513.098040144856
 21
-807.0939436200564
 31
0.0
  0
LINE
  5
F1
330
2F
100
AcDbEntity
  8
0
  6
Continuous
 62
     0
370
    -2
390
1D
100
AcDbLine
 10
7513.098040144856
 20
-697.0939436200564
 30
0.0
 11
7513.098040144856
 21
-527.5028053952211
 31
0.0
  0
LINE
  5
F2
330
2F
100
AcDbEntity
  8
0
  6
Continuous
 62
     0
370
    -2
390
1D
100
AcDbLine
 10
7513.098040144856
 20
-697.0939436200564
 30
0.0
 11
7513.098040144856
 21
-807.0939436200564
 31
0.0
  0
CIRCLE
  5
F3
102
{ACAD_REACTORS
330
F4
102
}
330
2F
100
AcDbEntity
  8
0
  6
Continuous
 62
     0
370
    -2
390
1D
100
AcDbCircle
 10
7513.098040144856
 20
-697.0939436200564
 30
0.0
 40
4.99969482421875
  0
HATCH
  5
F4
330
2F
100
AcDbEntity
  8
0
  6
Continuous
 62
     0
370
    -2
390
1D
100
AcDbHatch
 10
0.0
 20
0.0
 30
0.0
210
0.0
220
0.0
230
1.0
  2
SOLID
 70
     1
 71
     1
 91
        1
 92
        1
 93
        1
 72
     2
 10
7513.098040144856
 20
-697.0939436200564
 40
4.99969482421875
 50
0.0
 51
360.0
 73
     0
 97
        1
330
F3
 75
     0
 76
     1
 98
        1
 10
0.0
 20
0.0
  0
CIRCLE
  5
F5
102
{ACAD_REACTORS
330
F6
102
}
330
2F
100
AcDbEntity
  8
0
  6
Continuous
 62
     0
370
    -2
390
1D
100
AcDbCircle
 10
7513.098040144856
 20
-807.0939436200564
 30
0.0
 40
4.99969482421875
  0
HATCH
  5
F6
330
2F
100
AcDbEntity
  8
0
  6
Continuous
 62
     0
370
    -2
390
1D
100
AcDbHatch
 10
0.0
 20
0.0
 30
0.0
210
0.0
220
0.0
230
1.0
  2
SOLID
 70
     1
 71
     1
 91
        1
 92
        1
 93
        1
 72
     2
 10
7513.098040144856
 20
-807.0939436200564
 40
4.99969482421875
 50
0.0
 51
360.0
 73
     0
 97
        1
330
F5
 75
     0
 76
     1
 98
        1
 10
0.0
 20
0.0
  0
MTEXT
  5
F7
330
2F
100
AcDbEntity
  8
0
 62
     0
390
1D
100
AcDbMText
 10
7479.220422957356
 20
-686.2528053952211
 30
0.0
 40
24.4326171875
 41
0.0
 46
0.0
 71
     1
 72
     1
  1
110(深さ )
  7
ＭＳ ゴシック
 11
0.0
 21
1.0
 31
0.0
 73
     1
 44
0.7828267384257843
  0
POINT
  5
F8
330
2F
100
AcDbEntity
  8
Defpoints
 62
     0
370
     0
390
1D
100
AcDbPoint
 10
7507.875442362148
 20
-807.0939436200564
 30
0.0
  0
POINT
  5
F9
330
2F
100
AcDbEntity
  8
Defpoints
 62
     0
370
     0
390
1D
100
AcDbPoint
 10
7507.875442362148
 20
-697.0939436200564
 30
0.0
  0
POINT
  5
FA
330
2F
100
AcDbEntity
  8
Defpoints
 62
     0
370
     0
390
1D
100
AcDbPoint
 10
7513.098040144856
 20
-697.0939436200564
 30
0.0
  0
ENDBLK
  5
FB
330
2F
100
AcDbEntity
  8
notes
390
1D
100
AcDbBlockEnd
  0
BLOCK
  5
FC
330
30
100
AcDbEntity
  8
notes
390
1D
100
AcDbBlockBegin
  2
*D15
 70
     1
 10
0.0
 20
0.0
 30
0.0
  3
*D15
  1
*D15
  0
LINE
  5
FD
330
30
100
AcDbEntity
  8
0
  6
Continuous
 62
     0
370
    -2
390
1D
100
AcDbLine
 10
7290.089726462809
 20
343.8283196600037
 30
0.0
 11
7290.089726462809
 21
275.0
 31
0.0
  0
LINE
  5
FE
330
30
100
AcDbEntity
  8
0
  6
Continuous
 62
     0
370
    -2
390
1D
100
AcDbLine
 10
7590.089726462809
 20
343.8283196600037
 30
0.0
 11
7590.089726462809
 21
275.0
 31
0.0
  0
LINE
  5
FF
330
30
100
AcDbEntity
  8
0
  6
Continuous
 62
     0
370
    -2
390
1D
100
AcDbLine
 10
7290.089726462809
 20
275.0
 30
0.0
 11
7590.089726462809
 21
275.0
 31
0.0
  0
CIRCLE
  5
100
102
{ACAD_REACTORS
330
101
102
}
330
30
100
AcDbEntity
  8
0
  6
Continuous
 62
     0
370
    -2
390
1D
100
AcDbCircle
 10
7290.089726462809
 20
275.0
 30
0.0
 40
4.99969482421875
  0
HATCH
  5
101
330
30
100
AcDbEntity
  8
0
  6
Continuous
 62
     0
370
    -2
390
1D
100
AcDbHatch
 10
0.0
 20
0.0
 30
0.0
210
0.0
220
0.0
230
1.0
  2
SOLID
 70
     1
 71
     1
 91
        1
 92
        1
 93
        1
 72
     2
 10
7290.089726462809
 20
275.0
 40
4.99969482421875
 50
0.0
 51
360.0
 73
     0
 97
        1
330
100
 75
     0
 76
     1
 98
        1
 10
0.0
 20
0.0
  0
CIRCLE
  5
102
102
{ACAD_REACTORS
330
103
102
}
330
30
100
AcDbEntity
  8
0
  6
Continuous
 62
     0
370
    -2
390
1D
100
AcDbCircle
 10
7590.089726462809
 20
275.0
 30
0.0
 40
4.99969482421875
  0
HATCH
  5
103
330
30
100
AcDbEntity
  8
0
  6
Continuous
 62
     0
370
    -2
390
1D
100
AcDbHatch
 10
0.0
 20
0.0
 30
0.0
210
0.0
220
0.0
230
1.0
  2
SOLID
 70
     1
 71
     1
 91
        1
 92
        1
 93
        1
 72
     2
 10
7590.089726462809
 20
275.0
 40
4.99969482421875
 50
0.0
 51
360.0
 73
     0
 97
        1
330
102
 75
     0
 76
     1
 98
        1
 10
0.0
 20
0.0
  0
MTEXT
  5
104
330
30
100
AcDbEntity
  8
0
 62
     0
390
1D
100
AcDbMText
 10
7416.277224780634
 20
308.8776171875
 30
0.0
 40
24.4326171875
 41
0.0
 46
0.0
 71
     1
 72
     1
  1
300
  7
ＭＳ ゴシック
 73
     1
 44
0.7828267384257843
  0
POINT
  5
105
330
30
100
AcDbEntity
  8
Defpoints
 62
     0
370
     0
390
1D
100
AcDbPoint
 10
7590.089726462809
 20
368.8283196600037
 30
0.0
  0
POINT
  5
106
330
30
100
AcDbEntity
  8
Defpoints
 62
     0
370
     0
390
1D
100
AcDbPoint
 10
7290.089726462809
 20
368.8283196600037
 30
0.0
  0
POINT
  5
107
330
30
100
AcDbEntity
  8
Defpoints
 62
     0
370
     0
390
1D
100
AcDbPoint
 10
7290.089726462809
 20
275.0
 30
0.0
  0
ENDBLK
  5
108
330
30
100
AcDbEntity
  8
notes
390
1D
100
AcDbBlockEnd
  0
BLOCK
  5
109
330
31
100
AcDbEntity
  8
notes
390
1D
100
AcDbBlockBegin
  2
*D16
 70
     1
 10
0.0
 20
0.0
 30
0.0
  3
*D16
  1
*D16
  0
LINE
  5
10A
330
31
100
AcDbEntity
  8
0
  6
Continuous
 62
     0
370
    -2
390
1D
100
AcDbLine
 10
7615.089726462809
 20
368.8283196600037
 30
0.0
 11
7759.089726462804
 21
368.8283196600037
 31
0.0
  0
LINE
  5
10B
330
31
100
AcDbEntity
  8
0
  6
Continuous
 62
     0
370
    -2
390
1D
100
AcDbLine
 10
7615.089726462809
 20
618.8283196600037
 30
0.0
 11
7759.089726462804
 21
618.8283196600037
 31
0.0
  0
LINE
  5
10C
330
31
100
AcDbEntity
  8
0
  6
Continuous
 62
     0
370
    -2
390
1D
100
AcDbLine
 10
7759.089726462804
 20
368.8283196600037
 30
0.0
 11
7759.089726462804
 21
618.8283196600037
 31
0.0
  0
CIRCLE
  5
10D
102
{ACAD_REACTORS
330
10E
102
}
330
31
100
AcDbEntity
  8
0
  6
Continuous
 62
     0
370
    -2
390
1D
100
AcDbCircle
 10
7759.089726462804
 20
368.8283196600037
 30
0.0
 40
4.99969482421875
  0
HATCH
  5
10E
330
31
100
AcDbEntity
  8
0
  6
Continuous
 62
     0
370
    -2
390
1D
100
AcDbHatch
 10
0.0
 20
0.0
 30
0.0
210
0.0
220
0.0
230
1.0
  2
SOLID
 70
     1
 71
     1
 91
        1
 92
        1
 93
        1
 72
     2
 10
7759.089726462804
 20
368.8283196600037
 40
4.99969482421875
 50
0.0
 51
360.0
 73
     0
 97
        1
330
10D
 75
     0
 76
     1
 98
        1
 10
0.0
 20
0.0
  0
CIRCLE
  5
10F
102
{ACAD_REACTORS
330
110
102
}
330
31
100
AcDbEntity
  8
0
  6
Continuous
 62
     0
370
    -2
390
1D
100
AcDbCircle
 10
7759.089726462804
 20
618.8283196600037
 30
0.0
 40
4.99969482421875
  0
HATCH
  5
110
330
31
100
AcDbEntity
  8
0
  6
Continuous
 62
     0
370
    -2
390
1D
100
AcDbHatch
 10
0.0
 20
0.0
 30
0.0
210
0.0
220
0.0
230
1.0
  2
SOLID
 70
     1
 71
     1
 91
        1
 92
        1
 93
        1
 72
     2
 10
7759.089726462804
 20
618.8283196600037
 40
4.99969482421875
 50
0.0
 51
360.0
 73
     0
 97
        1
330
10F
 75
     0
 76
     1
 98
        1
 10
0.0
 20
0.0
  0
MTEXT
  5
111
330
31
100
AcDbEntity
  8
0
 62
     0
390
1D
100
AcDbMText
 10
7725.212109275304
 20
470.0158179778282
 30
0.0
 40
24.4326171875
 41
0.0
 46
0.0
 71
     1
 72
     1
  1
250
  7
ＭＳ ゴシック
 11
0.0
 21
1.0
 31
0.0
 73
     1
 44
0.7828267384257843
  0
POINT
  5
112
330
31
100
AcDbEntity
  8
Defpoints
 62
     0
370
     0
390
1D
100
AcDbPoint
 10
7590.089726462809
 20
618.8283196600037
 30
0.0
  0
POINT
  5
113
330
31
100
AcDbEntity
  8
Defpoints
 62
     0
370
     0
390
1D
100
AcDbPoint
 10
7590.089726462809
 20
368.8283196600037
 30
0.0
  0
POINT
  5
114
330
31
100
AcDbEntity
  8
Defpoints
 62
     0
370
     0
390
1D
100
AcDbPoint
 10
7759.089726462804
 20
368.8283196600037
 30
0.0
  0
ENDBLK
  5
115
330
31
100
AcDbEntity
  8
notes
390
1D
100
AcDbBlockEnd
  0
BLOCK
  5
116
330
32
100
AcDbEntity
  8
notes
390
1D
100
AcDbBlockBegin
  2
*D17
 70
     1
 10
0.0
 20
0.0
 30
0.0
  3
*D17
  1
*D17
  0
LINE
  5
117
330
32
100
AcDbEntity
  8
0
  6
Continuous
 62
     0
370
    -2
390
1D
100
AcDbLine
 10
7615.089726462809
 20
618.8283196600037
 30
0.0
 11
7759.089726462804
 21
618.8283196600037
 31
0.0
  0
LINE
  5
118
330
32
100
AcDbEntity
  8
0
  6
Continuous
 62
     0
370
    -2
390
1D
100
AcDbLine
 10
7619.089726462804
 20
648.8283196600037
 30
0.0
 11
7759.089726462804
 21
648.8283196600037
 31
0.0
  0
LINE
  5
119
330
32
100
AcDbEntity
  8
0
  6
Continuous
 62
     0
370
    -2
390
1D
100
AcDbLine
 10
7759.089726462804
 20
648.8283196600037
 30
0.0
 11
7759.089726462804
 21
701.75
 31
0.0
  0
LINE
  5
11A
330
32
100
AcDbEntity
  8
0
  6
Continuous
 62
     0
370
    -2
390
1D
100
AcDbLine
 10
7759.089726462804
 20
618.8283196600037
 30
0.0
 11
7759.089726462804
 21
648.8283196600037
 31
0.0
  0
CIRCLE
  5
11B
102
{ACAD_REACTORS
330
11C
102
}
330
32
100
AcDbEntity
  8
0
  6
Continuous
 62
     0
370
    -2
390
1D
100
AcDbCircle
 10
7759.089726462804
 20
618.8283196600037
 30
0.0
 40
4.99969482421875
  0
HATCH
  5
11C
330
32
100
AcDbEntity
  8
0
  6
Continuous
 62
     0
370
    -2
390
1D
100
AcDbHatch
 10
0.0
 20
0.0
 30
0.0
210
0.0
220
0.0
230
1.0
  2
SOLID
 70
     1
 71
     1
 91
        1
 92
        1
 93
        1
 72
     2
 10
7759.089726462804
 20
618.8283196600037
 40
4.99969482421875
 50
0.0
 51
360.0
 73
     0
 97
        1
330
11B
 75
     0
 76
     1
 98
        1
 10
0.0
 20
0.0
  0
CIRCLE
  5
11D
102
{ACAD_REACTORS
330
11E
102
}
330
32
100
AcDbEntity
  8
0
  6
Continuous
 62
     0
370
    -2
390
1D
100
AcDbCircle
 10
7759.089726462804
 20
648.8283196600037
 30
0.0
 40
4.99969482421875
  0
HATCH
  5
11E
330
32
100
AcDbEntity
  8
0
  6
Continuous
 62
     0
370
    -2
390
1D
100
AcDbHatch
 10
0.0
 20
0.0
 30
0.0
210
0.0
220
0.0
230
1.0
  2
SOLID
 70
     1
 71
     1
 91
        1
 92
        1
 93
        1
 72
     2
 10
7759.089726462804
 20
648.8283196600037
 40
4.99969482421875
 50
0.0
 51
360.0
 73
     0
 97
        1
330
11D
 75
     0
 76
     1
 98
        1
 10
0.0
 20
0.0
  0
MTEXT
  5
11F
330
32
100
AcDbEntity
  8
0
 62
     0
390
1D
100
AcDbMText
 10
7725.212109275304
 20
670.0
 30
0.0
 40
24.4326171875
 41
0.0
 46
0.0
 71
     1
 72
     1
  1
30
  7
ＭＳ ゴシック
 11
0.0
 21
1.0
 31
0.0
 73
     1
 44
0.7828267384257843
  0
POINT
  5
120
330
32
100
AcDbEntity
  8
Defpoints
 62
     0
370
     0
390
1D
100
AcDbPoint
 10
7594.089726462804
 20
648.8283196600037
 30
0.0
  0
POINT
  5
121
330
32
100
AcDbEntity
  8
Defpoints
 62
     0
370
     0
390
1D
100
AcDbPoint
 10
7590.089726462809
 20
618.8283196600037
 30
0.0
  0
POINT
  5
122
330
32
100
AcDbEntity
  8
Defpoints
 62
     0
370
     0
390
1D
100
AcDbPoint
 10
7759.089726462804
 20
618.8283196600037
 30
0.0
  0
ENDBLK
  5
123
330
32
100
AcDbEntity
  8
notes
390
1D
100
AcDbBlockEnd
  0
BLOCK
  5
225
330
224
100
AcDbEntity
  8
0
100
AcDbBlockBegin
  2
*D18
 70
     1
 10
0.0
 20
0.0
 30
0.0
  3
*D18
  1
*D18
  0
LINE
  5
227
330
224
100
AcDbEntity
  8
template
  6
Continuous
 62
     0
370
    -2
100
AcDbLine
 10
6447.54257894572
 20
622.4540051926874
 30
0.0
 11
6447.54257894572
 21
695.8905415313677
 31
0.0
  0
LINE
  5
228
330
224
100
AcDbEntity
  8
template
  6
Continuous
 62
     0
370
    -2
100
AcDbLine
 10
6547.279763169596
 20
623.9520315919077
 30
0.0
 11
6547.279763169596
 21
695.8905415313677
 31
0.0
  0
LINE
  5
229
330
224
100
AcDbEntity
  8
template
  6
Continuous
 62
     0
370
    -2
100
AcDbLine
 10
6457.541968594158
 20
695.8905415313677
 30
0.0
 11
6537.280373521158
 21
695.8905415313677
 31
0.0
  0
INSERT
  5
22A
330
224
100
AcDbEntity
  8
template
 62
     0
370
    -2
100
AcDbBlockReference
  2
_DOT
 10
6447.54257894572
 20
695.8905415313677
 30
0.0
 41
9.999389648437498
 42
9.999389648437498
 43
9.999389648437498
 50
180.0
  0
INSERT
  5
22B
330
224
100
AcDbEntity
  8
template
 62
     0
370
    -2
100
AcDbBlockReference
  2
_DOT
 10
6547.279763169596
 20
695.8905415313677
 30
0.0
 41
9.999389648437498
 42
9.999389648437498
 43
9.999389648437498
  0
MTEXT
  5
22C
330
224
100
AcDbEntity
  8
template
  6
Continuous
 62
     0
370
     0
100
AcDbMText
 10
6497.411171057658
 20
708.6068501251177
 30
0.0
 40
24.4326171875
 41
0.0
 46
0.0
 71
     5
 72
     1
  1
\A1;99.7
  7
ＭＳ ゴシック
 73
     1
 44
1.0
  0
POINT
  5
22D
330
224
100
AcDbEntity
  8
Defpoints
 62
     0
100
AcDbPoint
 10
6447.54257894572
 20
597.4540051926874
 30
0.0
  0
POINT
  5
22E
330
224
100
AcDbEntity
  8
Defpoints
 62
     0
100
AcDbPoint
 10
6547.279763169596
 20
598.9520315919077
 30
0.0
  0
POINT
  5
22F
330
224
100
AcDbEntity
  8
Defpoints
 62
     0
100
AcDbPoint
 10
6547.279763169596
 20
695.8905415313677
 30
0.0
  0
ENDBLK
  5
226
330
224
100
AcDbEntity
  8
0
100
AcDbBlockEnd
  0
BLOCK
  5
238
330
237
100
AcDbEntity
  8
0
100
AcDbBlockBegin
  2
*D19
 70
     1
 10
0.0
 20
0.0
 30
0.0
  3
*D19
  1
*D19
  0
LINE
  5
23A
330
237
100
AcDbEntity
  8
template
  6
Continuous
 62
     0
370
    -2
100
AcDbLine
 10
6547.54257894572
 20
623.9540051926872
 30
0.0
 11
6547.54257894572
 21
694.9719745322036
 31
0.0
  0
LINE
  5
23B
330
237
100
AcDbEntity
  8
template
  6
Continuous
 62
     0
370
    -2
100
AcDbLine
 10
6447.54257894572
 20
623.9540051926872
 30
0.0
 11
6447.54257894572
 21
694.9719745322036
 31
0.0
  0
LINE
  5
23C
330
237
100
AcDbEntity
  8
template
  6
Continuous
 62
     0
370
    -2
100
AcDbLine
 10
6537.543189297283
 20
694.9719745322036
 30
0.0
 11
6457.541968594158
 21
694.9719745322036
 31
0.0
  0
INSERT
  5
23D
330
237
100
AcDbEntity
  8
template
 62
     0
370
    -2
100
AcDbBlockReference
  2
_DOT
 10
6547.54257894572
 20
694.9719745322036
 30
0.0
 41
9.999389648437498
 42
9.999389648437498
 43
9.999389648437498
  0
INSERT
  5
23E
330
237
100
AcDbEntity
  8
template
 62
     0
370
    -2
100
AcDbBlockReference
  2
_DOT
 10
6447.54257894572
 20
694.9719745322036
 30
0.0
 41
9.999389648437498
 42
9.999389648437498
 43
9.999389648437498
 50
180.0
  0
MTEXT
  5
23F
330
237
100
AcDbEntity
  8
template
  6
Continuous
 62
     0
370
     0
100
AcDbMText
 10
6497.54257894572
 20
717.1882831259536
 30
0.0
 40
24.4326171875
 41
0.0
 46
0.0
 71
     5
 72
     1
  1
\A1;100
  7
ＭＳ ゴシック
 73
     1
 44
1.0
  0
POINT
  5
240
330
237
100
AcDbEntity
  8
Defpoints
 62
     0
100
AcDbPoint
 10
6547.54257894572
 20
598.9540051926872
 30
0.0
  0
POINT
  5
241
330
237
100
AcDbEntity
  8
Defpoints
 62
     0
100
AcDbPoint
 10
6447.54257894572
 20
598.9540051926872
 30
0.0
  0
POINT
  5
242
330
237
100
AcDbEntity
  8
Defpoints
 62
     0
100
AcDbPoint
 10
6447.54257894572
 20
694.9719745322036
 30
0.0
  0
ENDBLK
  5
239
330
237
100
AcDbEntity
  8
0
100
AcDbBlockEnd
  0
BLOCK
  5
247
330
246
100
AcDbEntity
  8
0
100
AcDbBlockBegin
  2
*D20
 70
     1
 10
0.0
 20
0.0
 30
0.0
  3
*D20
  1
*D20
  0
LINE
  5
249
330
246
100
AcDbEntity
  8
template
  6
Continuous
 62
     0
370
    -2
100
AcDbLine
 10
6647.54257894572
 20
623.9540051926872
 30
0.0
 11
6647.54257894572
 21
694.9719745322036
 31
0.0
  0
LINE
  5
24A
330
246
100
AcDbEntity
  8
template
  6
Continuous
 62
     0
370
    -2
100
AcDbLine
 10
6547.54257894572
 20
623.9540051926872
 30
0.0
 11
6547.54257894572
 21
694.9719745322036
 31
0.0
  0
LINE
  5
24B
330
246
100
AcDbEntity
  8
template
  6
Continuous
 62
     0
370
    -2
100
AcDbLine
 10
6637.543189297283
 20
694.9719745322036
 30
0.0
 11
6557.541968594158
 21
694.9719745322036
 31
0.0
  0
INSERT
  5
24C
330
246
100
AcDbEntity
  8
template
 62
     0
370
    -2
100
AcDbBlockReference
  2
_DOT
 10
6647.54257894572
 20
694.9719745322036
 30
0.0
 41
9.999389648437498
 42
9.999389648437498
 43
9.999389648437498
  0
INSERT
  5
24D
330
246
100
AcDbEntity
  8
template
 62
     0
370
    -2
100
AcDbBlockReference
  2
_DOT
 10
6547.54257894572
 20
694.9719745322036
 30
0.0
 41
9.999389648437498
 42
9.999389648437498
 43
9.999389648437498
 50
180.0
  0
MTEXT
  5
24E
330
246
100
AcDbEntity
  8
template
  6
Continuous
 62
     0
370
     0
100
AcDbMText
 10
6597.54257894572
 20
717.1882831259536
 30
0.0
 40
24.4326171875
 41
0.0
 46
0.0
 71
     5
 72
     1
  1
\A1;100
  7
ＭＳ ゴシック
 73
     1
 44
1.0
  0
POINT
  5
24F
330
246
100
AcDbEntity
  8
Defpoints
 62
     0
100
AcDbPoint
 10
6647.54257894572
 20
598.9540051926872
 30
0.0
  0
POINT
  5
250
330
246
100
AcDbEntity
  8
Defpoints
 62
     0
100
AcDbPoint
 10
6547.54257894572
 20
598.9540051926872
 30
0.0
  0
POINT
  5
251
330
246
100
AcDbEntity
  8
Defpoints
 62
     0
100
AcDbPoint
 10
6547.54257894572
 20
694.9719745322036
 30
0.0
  0
ENDBLK
  5
248
330
246
100
AcDbEntity
  8
0
100
AcDbBlockEnd
  0
ENDSEC
  0
SECTION
  2
ENTITIES
  0
MTEXT
  5
124
330
A
100
AcDbEntity
  8
template
 62
     7
390
1D
100
AcDbMText
 10
5980.517125635192
 20
-1424.373696520174
 30
0.0
 40
16.28841145833333
 41
0.0
 46
0.0
 71
     1
 72
     1
  1
品名
  7
ＭＳ ゴシック
 73
     1
 44
0.7828267384257843
  0
MTEXT
  5
125
330
A
100
AcDbEntity
  8
template
 62
     7
390
1D
100
AcDbMText
 10
5980.517125635192
 20
-1509.373696520174
 30
0.0
 40
16.28841145833333
 41
0.0
 46
0.0
 71
     1
 72
     1
  1
仕様
  7
ＭＳ ゴシック
 73
     1
 44
0.7828267384257843
  0
LINE
  5
126
330
A
100
AcDbEntity
  8
template
  6
Continuous
 62
     7
370
     5
390
1D
100
AcDbLine
 10
7923.51712563471
 20
-1500.958774645174
 30
0.0
 11
5973.51712563471
 21
-1500.958774645174
 31
0.0
  0
LWPOLYLINE
  5
127
330
A
100
AcDbEntity
  8
template
  6
Continuous
 62
     7
370
     5
390
1D
100
AcDbPolyline
 90
        5
 70
   128
 43
0.0
 10
7923.51712563471
 20
1129.041225354826
 10
5973.51712563471
 20
1129.041225354826
 10
5973.51712563471
 20
-1670.958774645174
 10
7923.51712563471
 20
-1670.958774645174
 10
7923.51712563471
 20
1129.041225354826
  0
LINE
  5
128
330
A
100
AcDbEntity
  8
template
  6
Continuous
 62
     7
370
     5
390
1D
100
AcDbLine
 10
7923.51712563471
 20
-1415.958774645174
 30
0.0
 11
5973.51712563471
 21
-1415.958774645174
 31
0.0
  0
LINE
  5
129
330
A
100
AcDbEntity
  8
template
  6
Continuous
 62
     7
370
     5
390
1D
100
AcDbLine
 10
7923.517125635193
 20
-1585.958774645174
 30
0.0
 11
7170.517125635193
 21
-1585.958774645174
 31
0.0
  0
MTEXT
  5
12A
330
A
100
AcDbEntity
  8
template
 62
     7
390
1D
100
AcDbMText
 10
5973.517125635395
 20
-1682.812596702031
 30
0.0
 40
21.71788194444445
 41
0.0
 46
0.0
 71
     1
 72
     1
  1
121206SH
  7
ＭＳ ゴシック
 73
     1
 44
0.7828267384257843
  0
MTEXT
  5
12B
330
A
100
AcDbEntity
  8
template
 62
     7
390
1D
100
AcDbMText
 10
7200.388531887453
 20
-1615.869169118482
 30
0.0
 40
24.4326171875
 41
0.0
 46
0.0
 71
     1
 72
     1
  1
大洋金物株式会社 ティーフォルム事業部
  7
ＭＳ ゴシック
 73
     1
 44
0.7828267384257843
  0
INSERT
  5
12C
330
A
100
AcDbEntity
  8
template
 62
     7
390
1D
100
AcDbBlockReference
  2
グループ
 10
8965.626034050933
 20
219.8906851202954
 30
0.0
  0
MTEXT
  5
12D
330
A
100
AcDbEntity
  8
template
 62
     7
390
1D
100
AcDbMText
 10
7732.517125635452
 20
-1537.956157457674
 30
0.0
 40
24.4326171875
 41
0.0
 46
0.0
 71
     1
 72
     1
  1
1:10
  7
ＭＳ ゴシック
 73
     1
 44
0.7828267384257843
  0
MTEXT
  5
12E
330
A
100
AcDbEntity
  8
template
 62
     7
390
1D
100
AcDbMText
 10
7679.517125635452
 20
-1509.373696520174
 30
0.0
 40
16.28841145833333
 41
0.0
 46
0.0
 71
     1
 72
     1
  1
縮尺
  7
ＭＳ ゴシック
 73
     1
 44
0.7828267384257843
  0
LINE
  5
12F
330
A
100
AcDbEntity
  8
template
  6
Continuous
 62
     7
370
     5
390
1D
100
AcDbLine
 10
7672.517125635452
 20
-1585.958774645174
 30
0.0
 11
7672.517125635452
 21
-1500.958774645174
 31
0.0
  0
MTEXT
  5
130
330
A
100
AcDbEntity
  8
template
 62
     7
390
1D
100
AcDbMText
 10
7428.517125635452
 20
-1509.373696520174
 30
0.0
 40
16.28841145833333
 41
0.0
 46
0.0
 71
     1
 72
     1
  1
容量
  7
ＭＳ ゴシック
 73
     1
 44
0.7828267384257843
  0
LINE
  5
131
330
A
100
AcDbEntity
  8
template
  6
Continuous
 62
     7
370
     5
390
1D
100
AcDbLine
 10
7421.517125635452
 20
-1585.958774645174
 30
0.0
 11
7421.517125635452
 21
-1500.958774645174
 31
0.0
  0
MTEXT
  5
132
330
A
100
AcDbEntity
  8
template
 62
     7
390
1D
100
AcDbMText
 10
7177.517125635452
 20
-1424.373696520174
 30
0.0
 40
16.28841145833333
 41
0.0
 46
0.0
 71
     1
 72
     1
  1
品番
  7
ＭＳ ゴシック
 73
     1
 44
0.7828267384257843
  0
MTEXT
  5
133
330
A
100
AcDbEntity
  8
template
 62
     7
390
1D
100
AcDbMText
 10
7177.517125635452
 20
-1509.373696520174
 30
0.0
 40
16.28841145833333
 41
0.0
 46
0.0
 71
     1
 72
     1
  1
重量
  7
ＭＳ ゴシック
 73
     1
 44
0.7828267384257843
  0
MTEXT
  5
134
330
A
100
AcDbEntity
  8
template
 62
     7
390
1D
100
AcDbMText
 10
7230.517125635452
 20
-1452.956157457674
 30
0.0
 40
24.4326171875
 41
0.0
 46
0.0
 71
     1
 72
     1
  1
ADF70-2504
  7
ＭＳ ゴシック
 73
     1
 44
0.7828267384257843
  0
LINE
  5
135
330
A
100
AcDbEntity
  8
template
  6
Continuous
 62
     7
370
     5
390
1D
100
AcDbLine
 10
7170.517125635452
 20
-1670.958774645174
 30
0.0
 11
7170.517125635452
 21
-1415.958774645174
 31
0.0
  0
MTEXT
  5
136
330
A
100
AcDbEntity
  8
template
 62
     7
390
1D
100
AcDbMText
 10
6033.517125635192
 20
-1452.956157457674
 30
0.0
 40
24.4326171875
 41
0.0
 46
0.0
 71
     1
 72
     1
  1
洗面器 -CATALANO,Premium-
  7
ＭＳ ゴシック
 73
     1
 44
0.7828267384257843
  0
MTEXT
  5
137
330
A
100
AcDbEntity
  8
template
 62
     7
390
1D
100
AcDbMText
 10
6033.517125635192
 20
-1537.956157457674
 30
0.0
 40
24.4326171875
 41
0.0
 46
0.0
 71
     1
 72
     1
  1
壁掛け,カウンタ ー置き/オーバーフロー付き/壁取付ボルト付属/\P陶器/ホワイト
  7
ＭＳ ゴシック
 73
     1
 44
1.304711230709641
  0
MTEXT
  5
138
330
A
100
AcDbEntity
  8
template
 62
     7
390
1D
100
AcDbMText
 10
7230.517125635452
 20
-1537.956157457674
 30
0.0
 40
24.4326171875
 41
0.0
 46
0.0
 71
     1
 72
     1
  1
16kg
  7
ＭＳ ゴシック
 73
     1
 44
0.7828267384257843
  0
MTEXT
  5
139
330
A
100
AcDbEntity
  8
template
 62
     7
390
1D
100
AcDbMText
 10
7486.054669768142
 20
-1538.606722348785
 30
0.0
 40
24.4326171875
 41
0.0
 46
0.0
 71
     1
 72
     1
  1
5.8L
  7
ＭＳ ゴシック
 73
     1
 44
0.7828267384257843
  0
MTEXT
  5
13A
330
A
100
AcDbEntity
  8
notes
 62
     7
390
1D
100
AcDbMText
 10
6177.051439213496
 20
-31.0029857627959
 30
0.0
 40
24.4326171875
 41
833.929798641839
 46
0.0
 71
     1
 72
     1
  1
＝φ30もしくはφ35の水栓取付用穴あけ加工を承ります。\P  必要な場合、ご注文の際にご指示ください。
  7
ＭＳ ゴシック
 73
     1
 44
1.043768984567712
  0
CIRCLE
  5
13B
330
A
100
AcDbEntity
  8
notes
  6
STYLE_12
 62
     7
370
    15
390
1D
100
AcDbCircle
 10
6154.400015064674
 20
-43.19759996993622
 30
0.0
 40
17.5
  0
DIMENSION
  5
13C
330
A
100
AcDbEntity
  8
notes
  6
Continuous
 62
     7
370
     5
390
1D
100
AcDbDimension
  2
*D3
 10
6297.542578945717
 20
748.8283196600038
 30
0.0
 11
6547.542578945722
 21
748.8283196600038
 31
0.0
 70
    32
 71
     5
 42
0.0
 73
     0
 74
     0
 75
     0
  3
tform線あり
100
AcDbAlignedDimension
 13
6797.542578945728
 23
646.8283196600037
 33
0.0
 14
6297.542578945717
 24
646.8283196600037
 34
0.0
100
AcDbRotatedDimension
1001
ACAD
1000
DSTYLE
1002
{
1070
   279
1070
     2
1070
   340
1005
33
1070
   147
1040
5.0
1002
}
  0
DIMENSION
  5
13D
330
A
100
AcDbEntity
  8
notes
  6
Continuous
 62
     7
370
     5
390
1D
100
AcDbDimension
  2
*D4
 10
6197.542578945717
 20
648.8283196600037
 30
0.0
 11
6192.542578945717
 21
583.8283196600038
 31
0.0
 70
   128
 71
     5
 42
0.0
 73
     0
 74
     0
 75
     0
  3
tform線あり
100
AcDbAlignedDimension
 13
6312.742578945717
 23
518.8283196600039
 33
0.0
 14
6301.499889048404
 24
648.8283196600037
 34
0.0
 50
90.0
100
AcDbRotatedDimension
1001
ACAD
1000
DSTYLE
1002
{
1070
   279
1070
     2
1070
   340
1005
33
1070
   147
1040
5.0
1002
}
  0
DIMENSION
  5
13E
330
A
100
AcDbEntity
  8
notes
  6
Continuous
 62
     7
370
     5
390
1D
100
AcDbDimension
  2
*D5
 10
6197.542578945717
 20
518.8283196600039
 30
0.0
 11
6192.542578945717
 21
360.0283196600031
 31
0.0
 70
   128
 71
     5
 42
0.0
 73
     0
 74
     0
 75
     0
  3
tform線あり
100
AcDbAlignedDimension
 13
6314.742578945717
 23
188.8283196600037
 33
0.0
 14
6312.742578945717
 24
518.8283196600039
 34
0.0
 50
90.0
100
AcDbRotatedDimension
1001
ACAD
1000
DSTYLE
1002
{
1070
   279
1070
     2
1070
   340
1005
33
1070
   147
1040
5.0
1002
}
  0
DIMENSION
  5
13F
330
A
100
AcDbEntity
  8
notes
  6
Continuous
 62
     7
370
     5
390
1D
100
AcDbDimension
  2
*D6
 10
6897.542578945728
 20
648.8283196600037
 30
0.0
 11
6897.542578945728
 21
413.8283196600034
 31
0.0
 70
    32
 71
     5
 42
0.0
 73
     0
 74
     0
 75
     0
  3
tform線あり
100
AcDbAlignedDimension
 13
6790.542578945728
 23
178.8283196600032
 33
0.0
 14
6795.542578945728
 24
648.8283196600037
 34
0.0
 50
90.0
100
AcDbRotatedDimension
1001
ACAD
1000
DSTYLE
1002
{
1070
   279
1070
     2
1070
   340
1005
33
1070
   147
1040
5.0
1002
}
  0
DIMENSION
  5
140
330
A
100
AcDbEntity
  8
notes
  6
Continuous
 62
     7
370
     5
390
1D
100
AcDbDimension
  2
*D7
 10
6307.542578945717
 20
78.82831966000316
 30
0.0
 11
6547.542578945717
 21
78.82831966000316
 31
0.0
 70
    32
 71
     5
 42
0.0
 73
     0
 74
     0
 75
     0
  3
tform線あり
100
AcDbAlignedDimension
 13
6787.542578945717
 23
185.8283196600032
 33
0.0
 14
6307.542578945717
 24
185.8283196600041
 34
0.0
100
AcDbRotatedDimension
1001
ACAD
1000
DSTYLE
1002
{
1070
   279
1070
     2
1070
   340
1005
33
1070
   147
1040
5.0
1002
}
  0
DIMENSION
  5
141
330
A
100
AcDbEntity
  8
notes
  6
Continuous
 62
     7
370
     5
390
1D
100
AcDbDimension
  2
*D8
 10
6407.542578945864
 20
-597.0938782235506
 30
0.0
 11
6547.542578945864
 21
-597.0938782235506
 31
0.0
 70
    32
 71
     5
 42
0.0
 73
     0
 74
     0
 75
     0
  3
tform線あり
100
AcDbAlignedDimension
 13
6687.542578945864
 23
-717.0938782235506
 33
0.0
 14
6407.542578945864
 24
-717.0938782235506
 34
0.0
100
AcDbRotatedDimension
1001
ACAD
1000
DSTYLE
1002
{
1070
   279
1070
     2
1070
   340
1005
33
1070
   147
1040
5.0
1002
}
  0
DIMENSION
  5
142
330
A
100
AcDbEntity
  8
notes
  6
Continuous
 62
     7
370
     5
390
1D
100
AcDbDimension
  2
*D9
 10
6197.542578945853
 20
-737.0938782235506
 30
0.0
 11
6197.542578945853
 21
-717.0938782235506
 31
0.0
 70
    32
 71
     5
 42
0.0
 73
     0
 74
     0
 75
     0
  3
tform線あり
100
AcDbAlignedDimension
 13
6304.542578945864
 23
-697.0938782235506
 33
0.0
 14
6387.542578945864
 24
-737.0938782235506
 34
0.0
 50
90.0
100
AcDbRotatedDimension
1001
ACAD
1000
DSTYLE
1002
{
1070
   279
1070
     2
1070
   340
1005
33
1070
   147
1040
5.0
1002
}
  0
DIMENSION
  5
143
330
A
100
AcDbEntity
  8
notes
  6
Continuous
 62
     7
370
     5
390
1D
100
AcDbDimension
  2
*D10
 10
6897.204561512893
 20
-697.0938782235506
 30
0.0
 11
6902.204561512893
 21
-777.0938782235505
 31
0.0
 70
   128
 71
     5
 42
0.0
 73
     0
 74
     0
 75
     0
  3
tform線あり
100
AcDbAlignedDimension
 13
6580.554010042499
 23
-857.0938782235506
 33
0.0
 14
6790.542578945857
 24
-697.0938782235506
 34
0.0
 50
90.0
100
AcDbRotatedDimension
1001
ACAD
1000
DSTYLE
1002
{
1070
   279
1070
     2
1070
   340
1005
33
1070
   147
1040
5.0
1002
}
  0
DIMENSION
  5
144
330
A
100
AcDbEntity
  8
notes
  6
Continuous
 62
     7
370
     5
390
1D
100
AcDbDimension
  2
*D11
 10
7149.719815749929
 20
-697.0957715708404
 30
0.0
 11
7149.719815749929
 21
-762.0948606826224
 31
0.0
 70
    32
 71
     5
 42
0.0
 73
     0
 74
     0
 75
     0
  3
tform線あり
100
AcDbAlignedDimension
 13
7259.855518400402
 23
-827.0939497944045
 33
0.0
 14
7256.867210027405
 24
-697.0957715708404
 34
0.0
 50
90.0
100
AcDbRotatedDimension
1001
ACAD
1000
DSTYLE
1002
{
1070
   279
1070
     2
1070
   340
1005
33
1070
   147
1040
5.0
1002
}
  0
DIMENSION
  5
145
330
A
100
AcDbEntity
  8
notes
  6
Continuous
 62
     7
370
     5
390
1D
100
AcDbDimension
  2
*D12
 10
7719.518648900592
 20
-957.093943735595
 30
0.0
 11
7612.018648900592
 21
-957.093943735595
 31
0.0
 70
    32
 71
     5
 42
0.0
 73
     0
 74
     0
 75
     0
  3
tform線あり
100
AcDbAlignedDimension
 13
7504.518648900592
 23
-857.0939434733262
 33
0.0
 14
7719.518648900592
 24
-825.0939698869159
 34
0.0
100
AcDbRotatedDimension
1001
ACAD
1000
DSTYLE
1002
{
1070
   279
1070
     2
1070
   340
1005
33
1070
   147
1040
5.0
1002
}
  0
DIMENSION
  5
146
330
A
100
AcDbEntity
  8
notes
  6
Continuous
 62
     7
370
     5
390
1D
100
AcDbDimension
  2
*D13
 10
7654.544350836947
 20
-597.093947262615
 30
0.0
 11
7687.044350836947
 21
-597.093947262615
 31
0.0
 70
    32
 71
     5
 42
0.0
 73
     0
 74
     0
 75
     0
  3
tform線あり
100
AcDbAlignedDimension
 13
7719.544350836947
 23
-700.0939528712796
 33
0.0
 14
7654.544350836947
 24
-697.0939499262514
 34
0.0
100
AcDbRotatedDimension
1001
ACAD
1000
DSTYLE
1002
{
1070
   279
1070
     2
1070
   340
1005
33
1070
   147
1040
5.0
1002
}
  0
DIMENSION
  5
147
330
A
100
AcDbEntity
  8
notes
  6
Continuous
 62
     7
370
     5
390
1D
100
AcDbDimension
  2
*D14
 10
7513.098040144856
 20
-697.0939436200564
 30
0.0
 11
7518.098040144856
 21
-686.2528053952211
 31
0.0
 70
   128
 71
     5
 42
0.0
 73
     0
 74
     0
 75
     0
  3
tfrom線あり
100
AcDbAlignedDimension
 13
7507.875442362148
 23
-807.0939436200564
 33
0.0
 14
7507.875442362148
 24
-697.0939436200564
 34
0.0
 50
90.0
100
AcDbRotatedDimension
1001
ACAD
1000
DSTYLE
1002
{
1070
   279
1070
     2
1070
   340
1005
33
1070
     3
1000
<>(深さ )
1070
   174
1070
     0
1070
   147
1040
5.0
1002
}
  0
DIMENSION
  5
148
330
A
100
AcDbEntity
  8
notes
  6
Continuous
 62
     7
370
     5
390
1D
100
AcDbDimension
  2
*D15
 10
7290.089726462809
 20
275.0
 30
0.0
 11
7440.089726462809
 21
275.0
 31
0.0
 70
    32
 71
     5
 42
0.0
 73
     0
 74
     0
 75
     0
  3
tform線あり
100
AcDbAlignedDimension
 13
7590.089726462809
 23
368.8283196600037
 33
0.0
 14
7290.089726462809
 24
368.8283196600037
 34
0.0
100
AcDbRotatedDimension
1001
ACAD
1000
DSTYLE
1002
{
1070
   279
1070
     2
1070
   340
1005
33
1070
   147
1040
5.0
1002
}
  0
DIMENSION
  5
149
330
A
100
AcDbEntity
  8
notes
  6
Continuous
 62
     7
370
     5
390
1D
100
AcDbDimension
  2
*D16
 10
7759.089726462804
 20
368.8283196600037
 30
0.0
 11
7759.089726462804
 21
493.8283196600037
 31
0.0
 70
    32
 71
     5
 42
0.0
 73
     0
 74
     0
 75
     0
  3
tform線あり
100
AcDbAlignedDimension
 13
7590.089726462809
 23
618.8283196600037
 33
0.0
 14
7590.089726462809
 24
368.8283196600037
 34
0.0
 50
90.0
100
AcDbRotatedDimension
1001
ACAD
1000
DSTYLE
1002
{
1070
   279
1070
     2
1070
   340
1005
33
1070
   147
1040
5.0
1002
}
  0
DIMENSION
  5
14A
330
A
100
AcDbEntity
  8
notes
  6
Continuous
 62
     7
370
     5
390
1D
100
AcDbDimension
  2
*D17
 10
7759.089726462804
 20
618.8283196600037
 30
0.0
 11
7764.089726462804
 21
670.0
 31
0.0
 70
   128
 71
     5
 42
0.0
 73
     0
 74
     0
 75
     0
  3
tform線あり
100
AcDbAlignedDimension
 13
7594.089726462804
 23
648.8283196600037
 33
0.0
 14
7590.089726462809
 24
618.8283196600037
 34
0.0
 50
90.0
100
AcDbRotatedDimension
1001
ACAD
1000
DSTYLE
1002
{
1070
   279
1070
     2
1070
   340
1005
33
1070
   174
1070
     0
1070
   147
1040
5.0
1002
}
  0
MTEXT
  5
14B
330
A
100
AcDbEntity
  8
notes
 62
     7
390
1D
100
AcDbMText
 10
6774.49988904854
 20
-604.1454982847778
 30
0.0
 40
24.4326171875
 41
0.0
 46
0.0
 71
     1
 72
     1
  1
壁取付ボルト穴(2ヶ所)
  7
ＭＳ ゴシック
 73
     1
 44
0.7828267384257843
  0
LINE
  5
14C
330
A
100
AcDbEntity
  8
notes
  6
Continuous
 62
     7
370
     5
390
1D
100
AcDbLine
 10
6691.224423627597
 20
-729.4943168704611
 30
0.0
 11
6786.563383207117
 21
-634.1553572909414
 31
0.0
  0
MTEXT
  5
14D
330
A
100
AcDbEntity
  8
notes
 62
     7
390
1D
100
AcDbMText
 10
7301.214726462804
 20
808.0026171875
 30
0.0
 40
24.4326171875
 41
0.0
 46
0.0
 71
     1
 72
     1
  1
カウンター切込寸法
  7
ＭＳ ゴシック
 73
     1
 44
0.7828267384257843
  0
MTEXT
  5
14E
330
A
100
AcDbEntity
  8
notes
 62
     7
390
1D
100
AcDbMText
 10
7306.929699550514
 20
709.324140060026
 30
0.0
 40
24.4326171875
 41
0.0
 46
0.0
 71
     1
 72
     1
  1
カウンター置き
  7
ＭＳ ゴシック
 73
     1
 44
0.7828267384257843
  0
LINE
  5
14F
330
A
100
AcDbEntity
  8
notes
  6
Continuous
 62
     7
370
     5
390
1D
100
AcDbLine
 10
7319.089726462804
 20
618.4528254920936
 30
0.0
 11
7319.089726462804
 21
679.2038138279138
 31
0.0
  0
MTEXT
  5
150
330
A
100
AcDbEntity
  8
notes
 62
     7
390
1D
100
AcDbMText
 10
7104.089726462804
 20
-22.87238281250001
 30
0.0
 40
24.4326171875
 41
764.7717154610109
 46
0.0
 71
     1
 72
     1
  1
※陶器製品には寸法公差があります。\P  洗面器の収め方をご確認の上、必ず現物を合わせて\P  カウンターに切込を行ってください。
  7
ＭＳ ゴシック
 73
     1
 44
1.043768984567712
  0
LINE
  5
151
330
A
100
AcDbEntity
  8
ADF70-2504
  6
Continuous
 62
     7
370
    15
390
1D
100
AcDbLine
 10
6304.542578945864
 20
-697.0938782235506
 30
0.0
 11
6790.542578945864
 21
-697.0938782235506
 31
0.0
  0
LINE
  5
152
330
A
100
AcDbEntity
  8
ADF70-2504
  6
Continuous
 62
     7
370
    15
390
1D
100
AcDbLine
 10
6795.542578945728
 20
648.8283196600037
 30
0.0
 11
6299.542578945717
 21
648.8283196600037
 31
0.0
  0
ARC
  5
153
330
A
100
AcDbEntity
  8
ADF70-2504
  6
Continuous
 62
     7
370
    15
390
1D
100
AcDbCircle
 10
6299.542578945717
 20
646.8283196600037
 30
0.0
 40
2.0
100
AcDbArc
 50
90.0
 51
180.0
  0
ARC
  5
154
330
A
100
AcDbEntity
  8
ADF70-2504
  6
Continuous
 62
     7
370
    15
390
1D
100
AcDbCircle
 10
6547.542578945724
 20
434.2691188748109
 30
0.0
 40
22.5
100
AcDbArc
 50
89.99999999979156
 51
269.9999999992681
  0
ARC
  5
155
330
A
100
AcDbEntity
  8
ADF70-2504
  6
Continuous
 62
     7
370
    15
390
1D
100
AcDbCircle
 10
6547.542578945724
 20
434.2691188748109
 30
0.0
 40
37.5
100
AcDbArc
 50
89.99999999979156
 51
269.999999999269
  0
LINE
  5
156
330
A
100
AcDbEntity
  8
ADF70-2504
  6
Continuous
 62
     7
370
    15
390
1D
100
AcDbLine
 10
6547.542578945728
 20
518.8283196600032
 30
0.0
 11
6312.742578945717
 21
518.8283196600039
 31
0.0
  0
ARC
  5
157
330
A
100
AcDbEntity
  8
ADF70-2504
  6
Continuous
 62
     7
370
    15
390
1D
100
AcDbCircle
 10
6312.742578945717
 20
510.8283196600038
 30
0.0
 40
8.0
100
AcDbArc
 50
90.0
 51
180.0
  0
LINE
  5
158
330
A
100
AcDbEntity
  8
ADF70-2504
  6
Continuous
 62
     7
370
    15
390
1D
100
AcDbLine
 10
6304.542578945717
 20
178.8283196600041
 30
0.0
 11
6790.542578945728
 21
178.8283196600032
 31
0.0
  0
LINE
  5
159
330
A
100
AcDbEntity
  8
ADF70-2504
  6
Continuous
 62
     7
370
    15
390
1D
100
AcDbLine
 10
6797.542578945728
 20
646.8283196600037
 30
0.0
 11
6797.542578945728
 21
185.8283196600032
 31
0.0
  0
ARC
  5
15A
330
A
100
AcDbEntity
  8
ADF70-2504
  6
Continuous
 62
     7
370
    15
390
1D
100
AcDbCircle
 10
6795.542578945728
 20
646.8283196600037
 30
0.0
 40
2.0
100
AcDbArc
 50
0.0
 51
90.0
  0
ARC
  5
15B
330
A
100
AcDbEntity
  8
ADF70-2504
  6
Continuous
 62
     7
370
    15
390
1D
100
AcDbCircle
 10
6790.542578945728
 20
185.8283196600032
 30
0.0
 40
6.999999999999986
100
AcDbArc
 50
270.0
 51
0.0
  0
ARC
  5
15C
330
A
100
AcDbEntity
  8
ADF70-2504
  6
Continuous
 62
     7
370
    15
390
1D
100
AcDbCircle
 10
6547.542578945724
 20
434.2691188748109
 30
0.0
 40
22.49999999999997
100
AcDbArc
 50
270.0000000002084
 51
89.99999999979156
  0
ARC
  5
15D
330
A
100
AcDbEntity
  8
ADF70-2504
  6
Continuous
 62
     7
370
    15
390
1D
100
AcDbCircle
 10
6547.542578945724
 20
434.2691188748109
 30
0.0
 40
37.49999999999997
100
AcDbArc
 50
270.0000000002084
 51
89.99999999979156
  0
LINE
  5
15E
330
A
100
AcDbEntity
  8
ADF70-2504
  6
Continuous
 62
     7
370
    15
390
1D
100
AcDbLine
 10
6718.531811052102
 20
503.7379035450018
 30
0.0
 11
6783.664613556781
 21
512.150354271057
 31
0.0
  0
LINE
  5
15F
330
A
100
AcDbEntity
  8
ADF70-2504
  6
Continuous
 62
     7
370
    15
390
1D
100
AcDbLine
 10
6718.531811052102
 20
257.7768810074712
 30
0.0
 11
6783.664613556781
 21
192.7062850489498
 31
0.0
  0
LINE
  5
160
330
A
100
AcDbEntity
  8
ADF70-2504
  6
Continuous
 62
     7
370
    15
390
1D
100
AcDbLine
 10
6547.542578945728
 20
518.8283196600032
 30
0.0
 11
6782.342578945727
 21
518.8283196600039
 31
0.0
  0
ARC
  5
161
330
A
100
AcDbEntity
  8
ADF70-2504
  6
Continuous
 62
     7
370
    15
390
1D
100
AcDbCircle
 10
6782.342578945727
 20
510.8283196600038
 30
0.0
 40
8.0
100
AcDbArc
 50
0.0
 51
90.0
  0
LINE
  5
162
330
A
100
AcDbEntity
  8
ADF70-2504
  6
Continuous
 62
     7
370
    15
390
1D
100
AcDbLine
 10
6376.553346839355
 20
503.7379035450018
 30
0.0
 11
6311.420544334664
 21
512.150354271057
 31
0.0
  0
LINE
  5
163
330
A
100
AcDbEntity
  8
ADF70-2504
  6
Continuous
 62
     7
370
    15
390
1D
100
AcDbLine
 10
6376.553346839355
 20
257.7768810074712
 30
0.0
 11
6311.420544334664
 21
192.7062850489498
 31
0.0
  0
LINE
  5
164
330
A
100
AcDbEntity
  8
ADF70-2504
  6
Continuous
 62
     7
370
    15
390
1D
100
AcDbLine
 10
6305.631832106046
 20
-827.0938782235502
 30
0.0
 11
6789.453325785675
 21
-827.0938782235502
 31
0.0
  0
LINE
  5
165
330
A
100
AcDbEntity
  8
ADF70-2504
  6
Continuous
 62
     7
370
    15
390
1D
100
AcDbLine
 10
6511.542594136787
 20
-854.355345451794
 30
0.0
 11
6509.157507661892
 21
-827.0938782235502
 31
0.0
  0
ARC
  5
166
330
A
100
AcDbEntity
  8
ADF70-2504
  6
Continuous
 62
     7
370
    15
390
1D
100
AcDbCircle
 10
6514.531208612905
 20
-854.0938782235506
 30
0.0
 40
3.000000000000183
100
AcDbArc
 50
185.0000000004441
 51
270.0000000002084
  0
LINE
  5
167
330
A
100
AcDbEntity
  8
ADF70-2504
  6
Continuous
 62
     7
370
    15
390
1D
100
AcDbLine
 10
6580.55401004251
 20
-857.0938782235506
 30
0.0
 11
6514.531147849219
 21
-857.0938782235506
 31
0.0
  0
ARC
  5
168
330
A
100
AcDbEntity
  8
ADF70-2504
  6
Continuous
 62
     7
370
    15
390
1D
100
AcDbCircle
 10
6514.531208612905
 20
-854.0938782235506
 30
0.0
 40
3.000000000000183
100
AcDbArc
 50
185.0000000004441
 51
270.0000000002084
  0
LINE
  5
169
330
A
100
AcDbEntity
  8
ADF70-2504
  6
Continuous
 62
     7
370
    15
390
1D
100
AcDbLine
 10
6583.542624518628
 20
-854.355345451794
 30
0.0
 11
6585.927693852182
 21
-827.0938782235502
 31
0.0
  0
ARC
  5
16A
330
A
100
AcDbEntity
  8
ADF70-2504
  6
Continuous
 62
     7
370
    15
390
1D
100
AcDbCircle
 10
6580.55401004251
 20
-854.0938782235506
 30
0.0
 40
3.0
100
AcDbArc
 50
269.9999999997916
 51
354.9999999995559
  0
ARC
  5
16B
330
A
100
AcDbEntity
  8
ADF70-2504
  6
Continuous
 62
     7
370
    15
390
1D
100
AcDbCircle
 10
6580.55401004251
 20
-854.0938782235506
 30
0.0
 40
3.0
100
AcDbArc
 50
269.9999999997916
 51
354.9999999995559
  0
LINE
  5
16C
330
A
100
AcDbEntity
  8
ADF70-2504
  6
Continuous
 62
     7
370
    15
390
1D
100
AcDbLine
 10
6712.531811052102
 20
503.7379035450018
 30
0.0
 11
6382.553346839355
 21
503.7379035450018
 31
0.0
  0
LINE
  5
16D
330
A
100
AcDbEntity
  8
ADF70-2504
  6
Continuous
 62
     7
370
    15
390
1D
100
AcDbLine
 10
6376.553346839355
 20
497.7379035450018
 30
0.0
 11
6376.553346839355
 21
263.7768810074712
 31
0.0
  0
LINE
  5
16E
330
A
100
AcDbEntity
  8
ADF70-2504
  6
Continuous
 62
     7
370
    15
390
1D
100
AcDbLine
 10
6718.531811052102
 20
497.7379035450018
 30
0.0
 11
6718.531811052102
 21
263.7768810074712
 31
0.0
  0
LINE
  5
16F
330
A
100
AcDbEntity
  8
ADF70-2504
  6
Continuous
 62
     7
370
    15
390
1D
100
AcDbLine
 10
6712.531811052102
 20
257.7768810074712
 30
0.0
 11
6382.553346839355
 21
257.7768810074712
 31
0.0
  0
ARC
  5
170
330
A
100
AcDbEntity
  8
ADF70-2504
  6
Continuous
 62
     7
370
    15
390
1D
100
AcDbCircle
 10
6382.553346839355
 20
497.7379035450018
 30
0.0
 40
6.0
100
AcDbArc
 50
90.00000000020843
 51
180.0
  0
ARC
  5
171
330
A
100
AcDbEntity
  8
ADF70-2504
  6
Continuous
 62
     7
370
    15
390
1D
100
AcDbCircle
 10
6382.553346839355
 20
263.7768810074712
 30
0.0
 40
6.0
100
AcDbArc
 50
180.0
 51
269.9999999997916
  0
ARC
  5
172
330
A
100
AcDbEntity
  8
ADF70-2504
  6
Continuous
 62
     7
370
    15
390
1D
100
AcDbCircle
 10
6712.531811052102
 20
263.7768810074712
 30
0.0
 40
6.0
100
AcDbArc
 50
270.0
 51
359.9999999997655
  0
ARC
  5
173
330
A
100
AcDbEntity
  8
ADF70-2504
  6
Continuous
 62
     7
370
    15
390
1D
100
AcDbCircle
 10
6712.531811052102
 20
497.7379035450018
 30
0.0
 40
6.0
100
AcDbArc
 50
0.0
 51
89.99999999979156
  0
CIRCLE
  5
174
102
{ACAD_REACTORS
330
236
330
245
102
}
330
A
100
AcDbEntity
  8
ADF70-2504
  6
STYLE_01
 62
     7
370
    15
390
1D
100
AcDbCircle
 10
6547.54257894572
 20
581.4540051926872
 30
0.0
 40
17.5
  0
SPLINE
  5
177
330
A
100
AcDbEntity
  8
ADF70-2504
  6
Continuous
 62
     7
370
    15
390
1D
100
AcDbSpline
210
0.0
220
0.0
230
1.0
 70
    11
 71
     2
 72
    26
 73
    23
 74
     0
 42
0.000000001
 43
0.000001
 40
0.0
 40
0.0
 40
0.0
 40
1.0
 40
2.0
 40
3.0
 40
4.0
 40
4.0
 40
5.0
 40
6.0
 40
7.0
 40
8.0
 40
9.0
 40
9.0
 40
10.0
 40
11.0
 40
12.0
 40
13.0
 40
13.0
 40
14.0
 40
15.0
 40
16.0
 40
17.0
 40
18.0
 40
18.0
 40
18.0
 10
6535.542563754807
 20
515.7662164365959
 30
0.0
 10
6535.687173841985
 20
515.5476586287334
 30
0.0
 10
6536.814199128969
 20
515.2700133664753
 30
0.0
 10
6538.392258218471
 20
515.0808992027846
 30
0.0
 10
6543.310422660799
 20
514.693988180846
 30
0.0
 10
6547.542563754807
 20
514.7163524742848
 30
0.0
 10
6549.991514148749
 20
514.7141524140682
 30
0.0
 10
6554.218475790782
 20
514.871148104525
 30
0.0
 10
6556.692869291144
 20
515.0808992027844
 30
0.0
 10
6558.26350926245
 20
515.2677537874122
 30
0.0
 10
6559.397953667629
 20
515.5476586287323
 30
0.0
 10
6559.542563754807
 20
515.7662164365959
 30
0.0
 10
6559.397953667629
 20
515.9847742444583
 30
0.0
 10
6558.270928380647
 20
516.2624195067169
 30
0.0
 10
6556.692869291144
 20
516.4515336704069
 30
0.0
 10
6551.774704848815
 20
516.8384446923462
 30
0.0
 10
6547.542563754807
 20
516.8160803989069
 30
0.0
 10
6545.093613360867
 20
516.818280459124
 30
0.0
 10
6540.866651718827
 20
516.6612847686672
 30
0.0
 10
6538.39225821847
 20
516.4515336704067
 30
0.0
 10
6536.821618247168
 20
516.2646790857805
 30
0.0
 10
6535.687173841985
 20
515.984774244459
 30
0.0
 10
6535.542563754807
 20
515.7662164365959
 30
0.0
  0
ARC
  5
178
330
A
100
AcDbEntity
  8
ADF70-2504
  6
Continuous
 62
     7
370
    15
390
1D
100
AcDbCircle
 10
6499.466915784051
 20
-831.0673636445089
 30
0.0
 40
10.00000000000079
100
AcDbArc
 50
5.000000000216484
 51
9.701452068578178
  0
LINE
  5
179
330
A
100
AcDbEntity
  8
ADF70-2504
  6
Continuous
 62
     7
370
    15
390
1D
100
AcDbLine
 10
6780.342578945729
 20
186.0283196600031
 30
0.0
 11
6314.742578945717
 21
186.0283196600031
 31
0.0
  0
LINE
  5
17A
330
A
100
AcDbEntity
  8
ADF70-2504
  6
Continuous
 62
     7
370
    15
390
1D
100
AcDbLine
 10
6790.342578945727
 20
510.8283196600038
 30
0.0
 11
6790.342578945729
 21
196.0283196600032
 31
0.0
  0
ARC
  5
17B
330
A
100
AcDbEntity
  8
ADF70-2504
  6
Continuous
 62
     7
370
    15
390
1D
100
AcDbCircle
 10
6780.342578945729
 20
196.0283196600031
 30
0.0
 40
9.999999999999986
100
AcDbArc
 50
270.0
 51
0.0
  0
LINE
  5
17C
330
A
100
AcDbEntity
  8
ADF70-2504
  6
Continuous
 62
     7
370
    15
390
1D
100
AcDbLine
 10
6297.542578945717
 20
646.8283196600037
 30
0.0
 11
6297.542578945717
 21
185.8283196600041
 31
0.0
  0
ARC
  5
17D
330
A
100
AcDbEntity
  8
ADF70-2504
  6
Continuous
 62
     7
370
    15
390
1D
100
AcDbCircle
 10
6304.542578945717
 20
185.8283196600041
 30
0.0
 40
7.0
100
AcDbArc
 50
180.0
 51
270.0
  0
LINE
  5
17E
330
A
100
AcDbEntity
  8
ADF70-2504
  6
Continuous
 62
     7
370
    15
390
1D
100
AcDbLine
 10
6304.742578945717
 20
510.8283196600038
 30
0.0
 11
6304.742578945717
 21
196.028319660003
 31
0.0
  0
ARC
  5
17F
330
A
100
AcDbEntity
  8
ADF70-2504
  6
Continuous
 62
     7
370
    15
390
1D
100
AcDbCircle
 10
6314.742578945717
 20
196.0283196600031
 30
0.0
 40
10.0
100
AcDbArc
 50
180.0
 51
270.0
  0
ARC
  5
180
330
A
100
AcDbEntity
  8
ADF70-2504
  6
Continuous
 62
     7
370
    15
390
1D
100
AcDbCircle
 10
6304.542578945864
 20
-704.0938782235506
 30
0.0
 40
7.0
100
AcDbArc
 50
90.0
 51
181.4999999999899
  0
ARC
  5
181
330
A
100
AcDbEntity
  8
ADF70-2504
  6
Continuous
 62
     7
370
    15
390
1D
100
AcDbCircle
 10
6305.631832106046
 20
-822.0938782235515
 30
0.0
 40
4.999999999999627
100
AcDbArc
 50
181.4999999999898
 51
270.0
  0
LINE
  5
182
330
A
100
AcDbEntity
  8
ADF70-2504
  6
Continuous
 62
     7
370
    15
390
1D
100
AcDbLine
 10
6297.544977671036
 20
-704.2771168617054
 30
0.0
 11
6300.633545481169
 21
-822.2247629650909
 31
0.0
  0
ARC
  5
183
330
A
100
AcDbEntity
  8
ADF70-2504
  6
Continuous
 62
     7
370
    15
390
1D
100
AcDbCircle
 10
6790.542578945857
 20
-704.0938782235506
 30
0.0
 40
6.999999999999479
100
AcDbArc
 50
358.5000000000102
 51
90.0
  0
ARC
  5
184
330
A
100
AcDbEntity
  8
ADF70-2504
  6
Continuous
 62
     7
370
    15
390
1D
100
AcDbCircle
 10
6789.453325785675
 20
-822.0938782235515
 30
0.0
 40
5.0
100
AcDbArc
 50
270.0
 51
358.5000000000102
  0
LINE
  5
185
330
A
100
AcDbEntity
  8
ADF70-2504
  6
Continuous
 62
     7
370
    15
390
1D
100
AcDbLine
 10
6797.540180220685
 20
-704.2771168617054
 30
0.0
 11
6794.451612410548
 21
-822.2247629650909
 31
0.0
  0
LINE
  5
186
330
A
100
AcDbEntity
  8
ADF70-2504
  6
Continuous
 62
     7
370
    15
390
1D
100
AcDbLine
 10
7256.706768030557
 20
-697.0939326411252
 30
0.0
 11
7595.0166585554
 21
-697.0939474291198
 31
0.0
  0
LINE
  5
187
330
A
100
AcDbEntity
  8
ADF70-2504
  6
Continuous
 62
     7
370
    15
390
1D
100
AcDbLine
 10
7719.518648900592
 20
-825.0939698869159
 30
0.0
 11
7719.518671380158
 21
-700.0939528712796
 31
0.0
  0
LINE
  5
188
330
A
100
AcDbEntity
  8
ADF70-2504
  6
Continuous
 62
     7
370
    15
390
1D
100
AcDbLine
 10
7717.518648813171
 20
-827.0939697994935
 30
0.0
 11
7259.855518400402
 21
-827.0939497944045
 31
0.0
  0
ARC
  5
189
330
A
100
AcDbEntity
  8
ADF70-2504
  6
Continuous
 62
     7
370
    15
390
1D
100
AcDbCircle
 10
7717.518648900592
 20
-825.0939697994935
 30
0.0
 40
2.000000000000002
100
AcDbArc
 50
269.9999974955834
 51
359.999997495375
  0
LINE
  5
18A
330
A
100
AcDbEntity
  8
ADF70-2504
  6
STYLE_01
 62
     7
370
    15
390
1D
100
AcDbLine
 10
7504.959464377447
 20
-818.6634161577466
 30
0.0
 11
7481.288658062276
 21
-818.6634151230618
 31
0.0
  0
LINE
  5
18B
330
A
100
AcDbEntity
  8
ADF70-2504
  6
STYLE_01
 62
     7
370
    15
390
1D
100
AcDbLine
 10
7528.630272761988
 20
-818.6634171924296
 30
0.0
 11
7504.959464377447
 21
-818.6634161577466
 31
0.0
  0
LINE
  5
18C
330
A
100
AcDbEntity
  8
ADF70-2504
  6
STYLE_01
 62
     7
370
    15
390
1D
100
AcDbLine
 10
7587.506426964732
 20
-720.0939960226359
 30
0.0
 11
7585.406702271141
 21
-744.0939470090551
 31
0.0
  0
LINE
  5
18D
330
A
100
AcDbEntity
  8
ADF70-2504
  6
Continuous
 62
     7
370
    15
390
1D
100
AcDbLine
 10
7716.518671511292
 20
-697.0939527401432
 30
0.0
 11
7595.0166585554
 21
-697.0939474291198
 31
0.0
  0
ARC
  5
18E
330
A
100
AcDbEntity
  8
ADF70-2504
  6
Continuous
 62
     7
370
    15
390
1D
100
AcDbCircle
 10
7716.518671380158
 20
-700.0939527401432
 30
0.0
 40
3.000000000000003
100
AcDbArc
 50
359.9999974954792
 51
89.9999974954792
  0
LINE
  5
18F
330
A
100
AcDbEntity
  8
ADF70-2504
  6
STYLE_01
 62
     7
370
    15
390
1D
100
AcDbLine
 10
7256.718671511295
 20
-697.0939326416454
 30
0.0
 11
7256.706768336537
 21
-697.0939326411252
 31
0.0
  0
ARC
  5
190
330
A
100
AcDbEntity
  8
ADF70-2504
  6
Continuous
 62
     7
370
    15
390
1D
100
AcDbCircle
 10
7537.163972854638
 20
-854.0939664439401
 30
0.0
 40
2.999978456492764
100
AcDbArc
 50
270.0005414609093
 51
353.1177304172934
  0
ARC
  5
191
330
A
100
AcDbEntity
  8
ADF70-2504
  6
Continuous
 62
     7
370
    15
390
1D
100
AcDbCircle
 10
7472.762944959593
 20
-854.0939958245989
 30
0.0
 40
2.999946261061442
100
AcDbArc
 50
183.8786063397387
 51
270.000956614601
  0
ARC
  5
192
330
A
100
AcDbEntity
  8
ADF70-2504
  6
Continuous
 62
     7
370
    15
390
1D
100
AcDbCircle
 10
7543.120700965888
 20
-854.8129305647843
 30
0.0
 40
2.999981476581429
100
AcDbArc
 50
98.219647474477
 51
173.1178996892604
  0
LINE
  5
193
330
A
100
AcDbEntity
  8
ADF70-2504
  6
Continuous
 62
     7
370
    15
390
1D
100
AcDbLine
 10
7537.164001205248
 20
-857.0939449002989
 30
0.0
 11
7527.959463732279
 21
-857.0939444979566
 31
0.0
  0
LINE
  5
194
330
A
100
AcDbEntity
  8
ADF70-2504
  6
Continuous
 62
     7
370
    15
390
1D
100
AcDbLine
 10
7481.959463732279
 20
-857.093942487233
 30
0.0
 11
7472.76299504692
 21
-857.0939420852418
 31
0.0
  0
LINE
  5
195
330
A
100
AcDbEntity
  8
ADF70-2504
  6
Continuous
 62
     7
370
    15
390
1D
100
AcDbLine
 10
7469.769869758939
 20
-854.2969204719055
 30
0.0
 11
7467.982317611613
 21
-827.9376225283276
 31
0.0
  0
ARC
  5
196
330
A
100
AcDbEntity
  8
ADF70-2504
  6
Continuous
 62
     7
370
    15
390
1D
100
AcDbCircle
 10
7458.005062013988
 20
-828.6143654774249
 30
0.0
 40
10.00018270437946
100
AcDbArc
 50
3.880347109075361
 51
8.745043266391638
  0
LINE
  5
197
330
A
100
AcDbEntity
  8
ADF70-2504
  6
STYLE_01
 62
     7
370
    15
390
1D
100
AcDbLine
 10
7481.959463732279
 20
-857.093942487233
 30
0.0
 11
7481.288658062276
 21
-818.6634151230618
 31
0.0
  0
LINE
  5
198
330
A
100
AcDbEntity
  8
ADF70-2504
  6
STYLE_01
 62
     7
370
    15
390
1D
100
AcDbLine
 10
7597.468378187656
 20
-720.9655049637648
 30
0.0
 11
7587.506431244836
 21
-720.0939471008377
 31
0.0
  0
ARC
  5
199
330
A
100
AcDbEntity
  8
ADF70-2504
  6
Continuous
 62
     7
370
    15
390
1D
100
AcDbCircle
 10
7256.706768030557
 20
-704.0939326411252
 30
0.0
 40
7.000000000000006
100
AcDbArc
 50
89.99999749579185
 51
183.4988344656817
  0
LINE
  5
19A
330
A
100
AcDbEntity
  8
ADF70-2504
  6
Continuous
 62
     7
370
    15
390
1D
100
AcDbLine
 10
7249.714489389791
 20
-704.3990796087663
 30
0.0
 11
7254.860273075463
 21
-822.3119451158899
 31
0.0
  0
ARC
  5
19B
330
A
100
AcDbEntity
  8
ADF70-2504
  6
Continuous
 62
     7
370
    15
390
1D
100
AcDbCircle
 10
7259.855518618959
 20
-822.0939497944045
 30
0.0
 40
5.000000000000087
100
AcDbArc
 50
182.4988344652112
 51
269.9999974954792
  0
LINE
  5
19C
330
A
100
AcDbEntity
  8
ADF70-2504
  6
STYLE_01
 62
     7
370
    15
390
1D
100
AcDbLine
 10
7481.288658062276
 20
-818.6634151230618
 30
0.0
 11
7470.141231691647
 21
-809.3095360596425
 31
0.0
  0
ARC
  5
19D
330
A
100
AcDbEntity
  8
ADF70-2504
  6
STYLE_01
 62
     7
370
    15
390
1D
100
AcDbCircle
 10
7460.499355753376
 20
-820.8001818046804
 30
0.0
 40
15.00002370821347
100
AcDbArc
 50
49.99976787019841
 51
85.05835676593665
  0
LINE
  5
19E
330
A
100
AcDbEntity
  8
ADF70-2504
  6
STYLE_01
 62
     7
370
    15
390
1D
100
AcDbLine
 10
7589.039490127439
 20
-702.5710127113642
 30
0.0
 11
7587.506431244836
 21
-720.0939471008377
 31
0.0
  0
ARC
  5
19F
330
A
100
AcDbEntity
  8
ADF70-2504
  6
STYLE_01
 62
     7
370
    15
390
1D
100
AcDbCircle
 10
7595.016658293131
 20
-703.0939474291198
 30
0.0
 40
6.000000000000006
100
AcDbArc
 50
89.99999749558343
 51
174.9999974953544
  0
ARC
  5
1A0
330
A
100
AcDbEntity
  8
ADF70-2504
  6
STYLE_01
 62
     7
370
    15
390
1D
100
AcDbCircle
 10
7256.718671249027
 20
-703.0939326416454
 30
0.0
 40
6.000000000000084
100
AcDbArc
 50
31.51192008679397
 51
89.99999749558343
  0
LINE
  5
1A1
330
A
100
AcDbEntity
  8
ADF70-2504
  6
STYLE_01
 62
     7
370
    15
390
1D
100
AcDbLine
 10
7261.833859905915
 20
-699.9578769972985
 30
0.0
 11
7316.280187994744
 21
-788.7647323065129
 31
0.0
  0
ARC
  5
1A2
330
A
100
AcDbEntity
  8
ADF70-2504
  6
STYLE_01
 62
     7
370
    15
390
1D
100
AcDbCircle
 10
7324.806358361378
 20
-783.5395085637982
 30
0.0
 40
9.99992721384964
100
AcDbArc
 50
211.5018555469334
 51
264.8789489913292
  0
LINE
  5
1A3
330
A
100
AcDbEntity
  8
ADF70-2504
  6
Continuous
 62
     7
370
    15
390
1D
100
AcDbLine
 10
7527.959463732279
 20
-857.0939444979566
 30
0.0
 11
7481.959463732279
 21
-857.093942487233
 31
0.0
  0
LINE
  5
1A4
330
A
100
AcDbEntity
  8
ADF70-2504
  6
STYLE_01
 62
     7
370
    15
390
1D
100
AcDbLine
 10
7461.791473632285
 20
-805.8559139191683
 30
0.0
 11
7323.91376240108
 21
-793.4995194440115
 31
0.0
  0
LINE
  5
1A5
330
A
100
AcDbEntity
  8
ADF70-2504
  6
STYLE_01
 62
     7
370
    15
390
1D
100
AcDbLine
 10
7464.203916357661
 20
-806.2648131483264
 30
0.0
 11
7543.959250953323
 21
-806.2648131483264
 31
0.0
  0
LINE
  5
1A6
330
A
100
AcDbEntity
  8
ADF70-2504
  6
STYLE_01
 62
     7
370
    15
390
1D
100
AcDbLine
 10
7595.36864921396
 20
-744.9655048719823
 30
0.0
 11
7585.406702271139
 21
-744.0939470090551
 31
0.0
  0
ARC
  5
1A7
330
A
100
AcDbEntity
  8
ADF70-2504
  6
STYLE_01
 62
     7
370
    15
390
1D
100
AcDbCircle
 10
62223.73080467618
 20
-162409.9142863124
 30
0.0
 40
170603.860814059
100
AcDbArc
 50
108.6826356611549
 51
108.6928513016469
  0
LINE
  5
1A8
330
A
100
AcDbEntity
  8
ADF70-2504
  6
STYLE_01
 62
     7
370
    15
390
1D
100
AcDbLine
 10
7528.630272761988
 20
-818.6634171924296
 30
0.0
 11
7528.63027108214
 21
-857.0939445272785
 31
0.0
  0
ARC
  5
1A9
330
A
100
AcDbEntity
  8
ADF70-2504
  6
STYLE_01
 62
     7
370
    15
390
1D
100
AcDbCircle
 10
7571.690016252707
 20
-786.1416962942939
 30
0.0
 40
9.999785185196297
100
AcDbArc
 50
288.6867841431715
 51
355.000919677573
  0
LINE
  5
1AA
330
A
100
AcDbEntity
  8
ADF70-2504
  6
STYLE_01
 62
     7
370
    15
390
1D
100
AcDbLine
 10
7541.244316916753
 20
-808.0789742725727
 30
0.0
 11
7528.630272761988
 21
-818.6634171924296
 31
0.0
  0
ARC
  5
1AB
330
A
100
AcDbEntity
  8
ADF70-2504
  6
STYLE_01
 62
     7
370
    15
390
1D
100
AcDbCircle
 10
7550.886397507415
 20
-819.570009328102
 30
0.0
 40
15.00045348528471
100
AcDbArc
 50
108.690201059713
 51
129.9998751004503
  0
LINE
  5
1AC
330
A
100
AcDbEntity
  8
ADF70-2504
  6
STYLE_01
 62
     7
370
    15
390
1D
100
AcDbLine
 10
7585.406702271141
 20
-744.0939470090551
 30
0.0
 11
7581.651763224392
 21
-787.0130750995166
 31
0.0
  0
LINE
  5
1AD
330
A
100
AcDbEntity
  8
ADF70-2504
  6
Continuous
 62
     7
370
    15
390
1D
100
AcDbLine
 10
7637.044350181276
 20
-697.0939491613018
 30
0.0
 11
7637.044350181276
 21
-712.0939491613018
 31
0.0
  0
LINE
  5
1AE
330
A
100
AcDbEntity
  8
ADF70-2504
  6
Continuous
 62
     7
370
    15
390
1D
100
AcDbLine
 10
7672.044350181276
 20
-712.0939506912008
 30
0.0
 11
7672.044350181276
 21
-697.0939506912008
 31
0.0
  0
ARC
  5
1AF
330
A
100
AcDbEntity
  8
ADF70-2504
  6
Continuous
 62
     7
370
    15
390
1D
100
AcDbCircle
 10
7567.309856615791
 20
-802.8205619296267
 30
0.0
 40
45.00000000000045
100
AcDbArc
 50
278.2196474744748
 51
327.3565871100765
  0
LINE
  5
1B0
330
A
100
AcDbEntity
  8
ADF70-2504
  6
Continuous
 62
     7
370
    15
390
1D
100
AcDbLine
 10
7542.691798616448
 20
-851.8437671077689
 30
0.0
 11
7573.743431581319
 21
-847.3582887818455
 31
0.0
  0
LINE
  5
1B1
330
A
100
AcDbEntity
  8
ADF70-2504
  6
STYLE_12
 62
     7
370
     9
390
1D
100
AcDbLine
 10
6687.542578945864
 20
-717.0938782235506
 30
0.0
 11
6687.542578945864
 21
-757.0938782235506
 31
0.0
  0
LINE
  5
1B2
330
A
100
AcDbEntity
  8
ADF70-2504
  6
STYLE_12
 62
     7
370
     9
390
1D
100
AcDbLine
 10
6667.542578945864
 20
-737.0938782235506
 30
0.0
 11
6707.542578945864
 21
-737.0938782235506
 31
0.0
  0
CIRCLE
  5
1B3
330
A
100
AcDbEntity
  8
ADF70-2504
  6
STYLE_12
 62
     7
370
     9
390
1D
100
AcDbCircle
 10
6687.542578945864
 20
-737.0938782235506
 30
0.0
 40
10.0
  0
LINE
  5
1B4
330
A
100
AcDbEntity
  8
ADF70-2504
  6
STYLE_12
 62
     7
370
     9
390
1D
100
AcDbLine
 10
6407.542578945864
 20
-717.0938782235506
 30
0.0
 11
6407.542578945864
 21
-757.0938782235506
 31
0.0
  0
LINE
  5
1B5
330
A
100
AcDbEntity
  8
ADF70-2504
  6
STYLE_12
 62
     7
370
     9
390
1D
100
AcDbLine
 10
6387.542578945864
 20
-737.0938782235506
 30
0.0
 11
6427.542578945864
 21
-737.0938782235506
 31
0.0
  0
CIRCLE
  5
1B6
330
A
100
AcDbEntity
  8
ADF70-2504
  6
STYLE_12
 62
     7
370
     9
390
1D
100
AcDbCircle
 10
6407.542578945864
 20
-737.0938782235506
 30
0.0
 40
10.0
  0
LINE
  5
1B7
330
A
100
AcDbEntity
  8
ADF70-2504
  6
STYLE_12
 62
     7
370
     9
390
1D
100
AcDbLine
 10
6571.005169928807
 20
-816.3750090734001
 30
0.0
 11
6523.663555229095
 21
-816.3750090734001
 31
0.0
  0
LINE
  5
1B8
330
A
100
AcDbEntity
  8
ADF70-2504
  6
STYLE_12
 62
     7
370
     9
390
1D
100
AcDbLine
 10
6584.496466176481
 20
-806.0544673678786
 30
0.0
 11
6510.172289363269
 21
-806.0544673678786
 31
0.0
  0
LINE
  5
1B9
330
A
100
AcDbEntity
  8
ADF70-2504
  6
STYLE_12
 62
     7
370
     9
390
1D
100
AcDbLine
 10
6524.395984670123
 20
-857.0938782235434
 30
0.0
 11
6523.725177320267
 21
-818.6633508886943
 31
0.0
  0
LINE
  5
1BA
330
A
100
AcDbEntity
  8
ADF70-2504
  6
STYLE_12
 62
     7
370
     9
390
1D
100
AcDbLine
 10
6512.009848552829
 20
-808.8330228408166
 30
0.0
 11
6523.725177320267
 21
-818.6633508886943
 31
0.0
  0
LINE
  5
1BB
330
A
100
AcDbEntity
  8
ADF70-2504
  6
STYLE_12
 62
     7
370
     9
390
1D
100
AcDbLine
 10
6570.657810644047
 20
-857.0938782235434
 30
0.0
 11
6571.066792019978
 21
-818.6633508886943
 31
0.0
  0
LINE
  5
1BC
330
A
100
AcDbEntity
  8
ADF70-2504
  6
STYLE_12
 62
     7
370
     9
390
1D
100
AcDbLine
 10
6582.784707653929
 20
-808.8308522020806
 30
0.0
 11
6571.066792019978
 21
-818.6633508886943
 31
0.0
  0
ARC
  5
1BD
330
A
100
AcDbEntity
  8
ADF70-2504
  6
STYLE_12
 62
     7
370
     9
390
1D
100
AcDbCircle
 10
6592.426521799227
 20
-820.3215188488656
 30
0.0
 40
14.99999999999991
100
AcDbArc
 50
100.192302850992
 51
130.0000000000275
  0
ARC
  5
1BE
330
A
100
AcDbEntity
  8
ADF70-2504
  6
STYLE_12
 62
     7
370
     9
390
1D
100
AcDbCircle
 10
6502.368034407531
 20
-820.3236894876017
 30
0.0
 40
14.99999999999939
100
AcDbArc
 50
49.99999999997249
 51
79.83178698986566
  0
LINE
  5
1BF
330
A
100
AcDbEntity
  8
ADF70-2504
  6
STYLE_01
 62
     7
370
    15
390
1D
100
AcDbLine
 10
6304.549159792539
 20
-696.9719698945845
 30
0.0
 11
6304.537256617781
 21
-696.9719698940643
 31
0.0
  0
ARC
  5
1C0
330
A
100
AcDbEntity
  8
ADF70-2504
  6
STYLE_01
 62
     7
370
    15
390
1D
100
AcDbCircle
 10
6304.549159530272
 20
-702.9719698945843
 30
0.0
 40
6.000000000000084
100
AcDbArc
 50
31.51192008679397
 51
89.99999749558343
  0
LINE
  5
1C1
330
A
100
AcDbEntity
  8
ADF70-2504
  6
STYLE_01
 62
     7
370
    15
390
1D
100
AcDbLine
 10
6309.66434818716
 20
-699.8359142502376
 30
0.0
 11
6364.110676275988
 21
-788.642769559452
 31
0.0
  0
ARC
  5
1C2
330
A
100
AcDbEntity
  8
ADF70-2504
  6
STYLE_01
 62
     7
370
    15
390
1D
100
AcDbCircle
 10
6372.636846642623
 20
-783.4175458167371
 30
0.0
 40
9.999927213849446
100
AcDbArc
 50
211.5018555469341
 51
264.8789489913304
  0
LINE
  5
1C3
330
A
100
AcDbEntity
  8
ADF70-2504
  6
STYLE_12
 62
     7
370
     5
390
1D
100
AcDbLine
 10
6371.744250682326
 20
-793.3775566969504
 30
0.0
 11
6505.016114810691
 21
-805.5592839737172
 31
0.0
  0
LINE
  5
1C4
330
A
100
AcDbEntity
  8
ADF70-2504
  6
STYLE_01
 62
     7
370
    15
390
1D
100
AcDbLine
 10
6790.535998099189
 20
-696.9719698945845
 30
0.0
 11
6790.547901273947
 21
-696.9719698940643
 31
0.0
  0
ARC
  5
1C5
330
A
100
AcDbEntity
  8
ADF70-2504
  6
STYLE_01
 62
     7
370
    15
390
1D
100
AcDbCircle
 10
6790.535998361456
 20
-702.9719698945843
 30
0.0
 40
6.000000000000006
100
AcDbArc
 50
90.0000025044166
 51
148.488079913206
  0
LINE
  5
1C6
330
A
100
AcDbEntity
  8
ADF70-2504
  6
STYLE_01
 62
     7
370
    15
390
1D
100
AcDbLine
 10
6785.420809704568
 20
-699.8359142502376
 30
0.0
 11
6730.97448161574
 21
-788.642769559452
 31
0.0
  0
ARC
  5
1C7
330
A
100
AcDbEntity
  8
ADF70-2504
  6
STYLE_01
 62
     7
370
    15
390
1D
100
AcDbCircle
 10
6722.448311249105
 20
-783.4175458167371
 30
0.0
 40
9.99992721385037
100
AcDbArc
 50
275.1210510086696
 51
328.4981444530659
  0
LINE
  5
1C8
330
A
100
AcDbEntity
  8
ADF70-2504
  6
STYLE_12
 62
     7
370
     5
390
1D
100
AcDbLine
 10
6723.340907209402
 20
-793.3775566969504
 30
0.0
 11
6590.069043081037
 21
-805.5592839737172
 31
0.0
  0
LINE
  5
1C9
330
A
100
AcDbEntity
  8
ADF70-2504
  6
Continuous
 62
     7
370
    15
390
1D
100
AcDbLine
 10
7688.089726462815
 20
648.8283196600037
 30
0.0
 11
7192.089726462804
 21
648.8283196600037
 31
0.0
  0
ARC
  5
1CA
330
A
100
AcDbEntity
  8
ADF70-2504
  6
STYLE_01
 62
     7
370
    15
390
1D
100
AcDbCircle
 10
7192.089726462804
 20
646.8283196600037
 30
0.0
 40
2.0
100
AcDbArc
 50
90.0
 51
180.0
  0
ARC
  5
1CB
330
A
100
AcDbEntity
  8
ADF70-2504
  6
STYLE_01
 62
     7
370
    15
390
1D
100
AcDbCircle
 10
7440.089726462811
 20
434.2691188748109
 30
0.0
 40
22.5
100
AcDbArc
 50
89.99999999979156
 51
269.9999999992681
  0
LINE
  5
1CC
330
A
100
AcDbEntity
  8
ADF70-2504
  6
STYLE_01
 62
     7
370
    15
390
1D
100
AcDbLine
 10
7197.089726462804
 20
178.8283196600041
 30
0.0
 11
7683.089726462815
 21
178.8283196600032
 31
0.0
  0
LINE
  5
1CD
330
A
100
AcDbEntity
  8
ADF70-2504
  6
STYLE_01
 62
     7
370
    15
390
1D
100
AcDbLine
 10
7690.089726462815
 20
646.8283196600037
 30
0.0
 11
7690.089726462815
 21
185.8283196600032
 31
0.0
  0
ARC
  5
1CE
330
A
100
AcDbEntity
  8
ADF70-2504
  6
STYLE_01
 62
     7
370
    15
390
1D
100
AcDbCircle
 10
7688.089726462815
 20
646.8283196600037
 30
0.0
 40
2.0
100
AcDbArc
 50
0.0
 51
90.0
  0
ARC
  5
1CF
330
A
100
AcDbEntity
  8
ADF70-2504
  6
STYLE_01
 62
     7
370
    15
390
1D
100
AcDbCircle
 10
7683.089726462815
 20
185.8283196600032
 30
0.0
 40
6.999999999999986
100
AcDbArc
 50
270.0
 51
0.0
  0
ARC
  5
1D0
330
A
100
AcDbEntity
  8
ADF70-2504
  6
STYLE_01
 62
     7
370
    15
390
1D
100
AcDbCircle
 10
7440.089726462811
 20
434.2691188748109
 30
0.0
 40
22.49999999999997
100
AcDbArc
 50
270.0000000002084
 51
89.99999999979156
  0
CIRCLE
  5
1D1
330
A
100
AcDbEntity
  8
ADF70-2504
  6
STYLE_01
 62
     7
370
    15
390
1D
100
AcDbCircle
 10
7440.089726462807
 20
581.4540051926872
 30
0.0
 40
17.5
  0
CIRCLE
  5
1D2
330
A
100
AcDbEntity
  8
ADF70-2504
  6
STYLE_01
 62
     7
370
    15
390
1D
100
AcDbCircle
 10
7340.089726462807
 20
581.4540051926874
 30
0.0
 40
16.0
  0
CIRCLE
  5
1D3
330
A
100
AcDbEntity
  8
ADF70-2504
  6
STYLE_01
 62
     7
370
    15
390
1D
100
AcDbCircle
 10
7540.089726462804
 20
581.4540051926783
 30
0.0
 40
16.0
  0
LINE
  5
1D4
330
A
100
AcDbEntity
  8
ADF70-2504
  6
STYLE_01
 62
     7
370
    15
390
1D
100
AcDbLine
 10
7190.089726462804
 20
646.8283196600037
 30
0.0
 11
7190.089726462804
 21
185.8283196600041
 31
0.0
  0
ARC
  5
1D5
330
A
100
AcDbEntity
  8
ADF70-2504
  6
STYLE_01
 62
     7
370
    15
390
1D
100
AcDbCircle
 10
7197.089726462804
 20
185.8283196600041
 30
0.0
 40
7.0
100
AcDbArc
 50
180.0
 51
270.0
  0
LINE
  5
1D6
330
A
100
AcDbEntity
  8
ADF70-2504
  6
Continuous
 62
     7
370
    15
390
1D
100
AcDbLine
 10
7064.089726462804
 20
648.8283196600037
 30
0.0
 11
7864.089726462804
 21
648.8283196600037
 31
0.0
  0
POLYLINE
  5
1D7
330
A
100
AcDbEntity
  8
ADF70-2504
  6
Continuous
 62
     7
370
     5
390
1D
100
AcDb2dPolyline
 66
     1
 10
0.0
 20
0.0
 30
0.0
 70
     1
 75
     5
  0
VERTEX
  5
1D8
330
1D7
100
AcDbEntity
  8
ADF70-2504
  6
Continuous
 62
     7
370
     5
390
1D
100
AcDbVertex
100
AcDb2dVertex
 10
7290.089726462809
 20
618.8283196600037
 30
0.0
  0
VERTEX
  5
1D9
330
1D7
100
AcDbEntity
  8
ADF70-2504
  6
Continuous
 62
     7
370
     5
390
1D
100
AcDbVertex
100
AcDb2dVertex
 10
7590.089726462809
 20
618.8283196600037
 30
0.0
  0
VERTEX
  5
1DA
330
1D7
100
AcDbEntity
  8
ADF70-2504
  6
Continuous
 62
     7
370
     5
390
1D
100
AcDbVertex
100
AcDb2dVertex
 10
7590.089726462809
 20
368.8283196600037
 30
0.0
  0
VERTEX
  5
1DB
330
1D7
100
AcDbEntity
  8
ADF70-2504
  6
Continuous
 62
     7
370
     5
390
1D
100
AcDbVertex
100
AcDb2dVertex
 10
7290.089726462809
 20
368.8283196600037
 30
0.0
  0
SEQEND
  5
1DC
330
1D7
100
AcDbEntity
  8
ADF70-2504
  6
Continuous
 62
     7
370
     5
390
1D
  0
CIRCLE
  5
230
102
{ACAD_REACTORS
330
236
102
}
330
A
100
AcDbEntity
  8
ADF70-2504
  6
STYLE_01
 62
     7
370
    15
390
1D
100
AcDbCircle
 10
6447.54257894572
 20
581.4540051926872
 30
0.0
 40
17.5
  0
CIRCLE
  5
233
102
{ACAD_REACTORS
330
245
102
}
330
A
100
AcDbEntity
  8
ADF70-2504
  6
STYLE_01
 62
     7
370
    15
390
1D
100
AcDbCircle
 10
6647.54257894572
 20
581.4540051926872
 30
0.0
 40
17.5
  0
DIMENSION
  5
234
102
{ACAD_REACTORS
330
236
102
}
102
{ACAD_XDICTIONARY
360
235
102
}
330
A
100
AcDbEntity
  8
template
  6
Continuous
370
     0
100
AcDbDimension
  2
*D19
 10
6447.54257894572
 20
694.9719745322036
 30
0.0
 11
6497.54257894572
 21
717.1882831259536
 31
0.0
 70
    32
 71
     5
 42
100.0
 73
     0
 74
     0
 75
     0
  3
tform線あり
100
AcDbAlignedDimension
 13
6547.54257894572
 23
598.9540051926872
 33
0.0
 14
6447.54257894572
 24
598.9540051926872
 34
0.0
100
AcDbRotatedDimension
1001
ACAD
1000
DSTYLE
1002
{
1070
   147
1040
10.0
1070
   341
1005
0
1002
}
  0
DIMENSION
  5
243
102
{ACAD_REACTORS
330
245
102
}
102
{ACAD_XDICTIONARY
360
244
102
}
330
A
100
AcDbEntity
  8
template
  6
Continuous
370
     0
100
AcDbDimension
  2
*D20
 10
6547.54257894572
 20
694.9719745322036
 30
0.0
 11
6597.54257894572
 21
717.1882831259536
 31
0.0
 70
    32
 71
     5
 42
100.0
 73
     0
 74
     0
 75
     0
  3
tform線あり
100
AcDbAlignedDimension
 13
6647.54257894572
 23
598.9540051926872
 33
0.0
 14
6547.54257894572
 24
598.9540051926872
 34
0.0
100
AcDbRotatedDimension
1001
ACAD
1000
DSTYLE
1002
{
1070
   147
1040
10.0
1070
   341
1005
0
1002
}
  0
ENDSEC
  0
SECTION
  2
OBJECTS
  0
DICTIONARY
  5
19
330
0
100
AcDbDictionary
281
     1
  3
ACAD_DETAILVIEWSTYLE
350
25B
  3
ACAD_GROUP
350
1A
  3
ACAD_IMAGE_VARS
350
220
  3
ACAD_LAYOUT
350
1E
  3
ACAD_MATERIAL
350
218
  3
ACAD_MLEADERSTYLE
350
259
  3
ACAD_MLINESTYLE
350
1B
  3
ACAD_PLOTSETTINGS
350
22
  3
ACAD_PLOTSTYLENAME
350
1F
  3
ACAD_SCALELIST
350
1DD
  3
ACAD_SECTIONVIEWSTYLE
350
25C
  3
ACAD_TABLESTYLE
350
21C
  3
ACAD_VISUALSTYLE
350
1FF
  3
ACDB_RECOMPOSE_DATA
350
257
  3
AcDbVariableDictionary
350
252
  3
APPDATA
350
21E
  0
SUN
  5
21F
330
15
100
AcDbSun
 90
        1
290
     0
 63
     7
421
 16777215
 40
1.0
291
     1
 91
  2455826
 92
 54000000
292
     0
 70
     2
 71
   256
280
     1
  0
DICTIONARY
  5
235
330
234
100
AcDbDictionary
280
     1
281
     1
  3
ACAD_DIMASSOC
360
236
  0
DICTIONARY
  5
244
330
243
100
AcDbDictionary
280
     1
281
     1
  3
ACAD_DIMASSOC
360
245
  0
DICTIONARY
  5
25B
102
{ACAD_REACTORS
330
19
102
}
330
19
100
AcDbDictionary
281
     1
  0
DICTIONARY
  5
1A
102
{ACAD_REACTORS
330
19
102
}
330
19
100
AcDbDictionary
281
     1
  0
RASTERVARIABLES
  5
220
102
{ACAD_REACTORS
330
19
102
}
330
19
100
AcDbRasterVariables
 90
        0
 70
     1
 71
     1
 72
     1
  0
DICTIONARY
  5
1E
102
{ACAD_REACTORS
330
19
102
}
330
19
100
AcDbDictionary
281
     1
  3
Layout1
350
21
  3
Model
350
20
  0
DICTIONARY
  5
218
102
{ACAD_REACTORS
330
19
102
}
330
19
100
AcDbDictionary
281
     1
  3
ByBlock
350
21A
  3
ByLayer
350
219
  3
Global
350
21B
  0
DICTIONARY
  5
259
102
{ACAD_REACTORS
330
19
102
}
330
19
100
AcDbDictionary
281
     1
  0
DICTIONARY
  5
1B
102
{ACAD_REACTORS
330
19
102
}
330
19
100
AcDbDictionary
281
     1
  3
Standard
350
1C
  0
DICTIONARY
  5
22
102
{ACAD_REACTORS
330
19
102
}
330
19
100
AcDbDictionary
281
     1
  0
ACDBDICTIONARYWDFLT
  5
1F
102
{ACAD_REACTORS
330
19
102
}
330
19
100
AcDbDictionary
281
     1
  3
Normal
350
1D
100
AcDbDictionaryWithDefault
340
1D
  0
DICTIONARY
  5
1DD
102
{ACAD_REACTORS
330
19
102
}
330
19
100
AcDbDictionary
281
     1
  3
A0
350
1DE
  3
A1
350
1DF
  3
A2
350
1E0
  3
A3
350
1E1
  3
A4
350
1E2
  3
A5
350
1E3
  3
A6
350
1E4
  3
A7
350
1E5
  3
A8
350
1E6
  3
A9
350
1E7
  3
B0
350
1E8
  3
B1
350
1E9
  3
B2
350
1EA
  3
B3
350
1EB
  3
B4
350
1EC
  3
B5
350
1ED
  3
B6
350
1EE
  3
B7
350
1EF
  3
B8
350
1F0
  3
B9
350
1F1
  3
C0
350
1F2
  3
C1
350
1F3
  3
C2
350
1F4
  3
C3
350
1F5
  3
C4
350
1F6
  3
C5
350
1F7
  3
C6
350
1F8
  3
C7
350
1F9
  3
C8
350
1FA
  3
C9
350
1FB
  3
D0
350
1FC
  3
D1
350
1FD
  3
D2
350
1FE
  0
DICTIONARY
  5
25C
102
{ACAD_REACTORS
330
19
102
}
330
19
100
AcDbDictionary
281
     1
  0
DICTIONARY
  5
21C
102
{ACAD_REACTORS
330
19
102
}
330
19
100
AcDbDictionary
281
     1
  3
Standard
350
21D
  0
DICTIONARY
  5
1FF
102
{ACAD_REACTORS
330
19
102
}
330
19
100
AcDbDictionary
281
     1
  3
2dWireframe
350
204
  3
Basic
350
207
  3
Brighten
350
20B
  3
ColorChange
350
20F
  3
Conceptual
350
209
  3
Dim
350
20A
  3
EdgeColorOff
350
212
  3
Facepattern
350
20E
  3
Flat
350
200
  3
FlatWithEdges
350
201
  3
Gouraud
350
202
  3
GouraudWithEdges
350
203
  3
Hidden
350
206
  3
JitterOff
350
210
  3
Linepattern
350
20D
  3
OverhangOff
350
211
  3
Realistic
350
208
  3
Shaded
350
217
  3
Shaded with edges
350
216
  3
Shades of Gray
350
213
  3
Sketchy
350
214
  3
Thicken
350
20C
  3
Wireframe
350
205
  3
X-Ray
350
215
  0
XRECORD
  5
257
102
{ACAD_REACTORS
330
19
102
}
330
19
100
AcDbXrecord
280
     1
 90
        1
330
21D
  0
DICTIONARY
  5
252
102
{ACAD_REACTORS
330
19
102
}
330
19
100
AcDbDictionary
281
     1
  3
CANNOSCALE
350
253
  3
CTABLESTYLE
350
258
  3
LIGHTINGUNITS
350
254
  3
MSLTSCALE
350
25A
  0
DICTIONARY
  5
21E
102
{ACAD_REACTORS
330
19
102
}
330
19
100
AcDbDictionary
281
     1
  0
DIMASSOC
  5
236
102
{ACAD_REACTORS
330
235
102
}
330
235
100
AcDbDimAssoc
330
234
 90
        3
 70
     0
 71
     1
  1
AcDbOsnapPointRef
 72
     5
331
174
 73
     0
 91
        0
 40
1.570796326794897
 10
0.0
 20
0.0
 30
0.0
 75
     0
  1
AcDbOsnapPointRef
 72
     5
331
230
 73
     0
 91
        0
 40
1.570796326794897
 10
0.0
 20
0.0
 30
0.0
 75
     0
  0
DIMASSOC
  5
245
102
{ACAD_REACTORS
330
244
102
}
330
244
100
AcDbDimAssoc
330
243
 90
        3
 70
     0
 71
     1
  1
AcDbOsnapPointRef
 72
     5
331
233
 73
     0
 91
        0
 40
1.570796326794897
 10
0.0
 20
0.0
 30
0.0
 75
     0
  1
AcDbOsnapPointRef
 72
     5
331
174
 73
     0
 91
        0
 40
1.570796326794897
 10
0.0
 20
0.0
 30
0.0
 75
     0
  0
LAYOUT
  5
21
102
{ACAD_REACTORS
330
1E
102
}
330
1E
100
AcDbPlotSettings
  1

  2

  4

  6

 40
0.0
 41
0.0
 42
0.0
 43
0.0
 44
0.0
 45
0.0
 46
0.0
 47
0.0
 48
0.0
 49
0.0
140
0.0
141
0.0
142
1.0
143
1.0
 70
     0
 72
     0
 73
     0
 74
     0
  7

 75
     0
 76
     0
 77
     2
 78
   300
147
1.0
148
0.0
149
0.0
100
AcDbLayout
  1
Layout1
 70
     0
 71
     0
 10
0.0
 20
0.0
 11
0.0
 21
0.0
 12
0.0
 22
0.0
 32
0.0
 14
0.0
 24
0.0
 34
0.0
 15
0.0
 25
0.0
 35
0.0
146
0.0
 13
0.0
 23
0.0
 33
0.0
 16
0.0
 26
0.0
 36
0.0
 17
0.0
 27
0.0
 37
0.0
 76
     0
330
B
  0
LAYOUT
  5
20
102
{ACAD_REACTORS
330
1E
102
}
330
1E
100
AcDbPlotSettings
  1

  2

  4

  6

 40
0.0
 41
0.0
 42
0.0
 43
0.0
 44
0.0
 45
0.0
 46
0.0
 47
0.0
 48
0.0
 49
0.0
140
0.0
141
0.0
142
1.0
143
1.0
 70
  1024
 72
     0
 73
     0
 74
     0
  7

 75
     0
 76
     0
 77
     2
 78
   300
147
1.0
148
0.0
149
0.0
100
AcDbLayout
  1
Model
 70
     0
 71
     1
 10
0.0
 20
0.0
 11
0.0
 21
0.0
 12
0.0
 22
0.0
 32
0.0
 14
0.0
 24
0.0
 34
0.0
 15
0.0
 25
0.0
 35
0.0
146
0.0
 13
0.0
 23
0.0
 33
0.0
 16
0.0
 26
0.0
 36
0.0
 17
0.0
 27
0.0
 37
0.0
 76
     0
330
A
331
15
  0
MATERIAL
  5
21A
102
{ACAD_REACTORS
330
218
102
}
330
218
100
AcDbMaterial
  1
ByBlock
 72
     1
 94
      127
  0
MATERIAL
  5
219
102
{ACAD_REACTORS
330
218
102
}
330
218
100
AcDbMaterial
  1
ByLayer
 72
     1
 94
      127
  0
MATERIAL
  5
21B
102
{ACAD_REACTORS
330
218
102
}
330
218
100
AcDbMaterial
  1
Global
 72
     1
 94
      127
  0
MLINESTYLE
  5
1C
102
{ACAD_REACTORS
330
1B
102
}
330
1B
100
AcDbMlineStyle
  2
Standard
 70
     0
  3

 62
     0
 51
90.0
 52
90.0
 71
     2
 49
0.5
 62
   256
  6
BYLAYER
 49
-0.5
 62
   256
  6
BYLAYER
  0
ACDBPLACEHOLDER
  5
1D
102
{ACAD_REACTORS
330
1F
102
}
330
1F
  0
SCALE
  5
1DE
102
{ACAD_REACTORS
330
1DD
102
}
330
1DD
100
AcDbScale
 70
     0
300
1:1
140
1.0
141
1.0
290
     1
  0
SCALE
  5
1DF
102
{ACAD_REACTORS
330
1DD
102
}
330
1DD
100
AcDbScale
 70
     0
300
1:2
140
1.0
141
2.0
290
     0
  0
SCALE
  5
1E0
102
{ACAD_REACTORS
330
1DD
102
}
330
1DD
100
AcDbScale
 70
     0
300
1:4
140
1.0
141
4.0
290
     0
  0
SCALE
  5
1E1
102
{ACAD_REACTORS
330
1DD
102
}
330
1DD
100
AcDbScale
 70
     0
300
1:5
140
1.0
141
5.0
290
     0
  0
SCALE
  5
1E2
102
{ACAD_REACTORS
330
1DD
102
}
330
1DD
100
AcDbScale
 70
     0
300
1:8
140
1.0
141
8.0
290
     0
  0
SCALE
  5
1E3
102
{ACAD_REACTORS
330
1DD
102
}
330
1DD
100
AcDbScale
 70
     0
300
1:10
140
1.0
141
10.0
290
     0
  0
SCALE
  5
1E4
102
{ACAD_REACTORS
330
1DD
102
}
330
1DD
100
AcDbScale
 70
     0
300
1:16
140
1.0
141
16.0
290
     0
  0
SCALE
  5
1E5
102
{ACAD_REACTORS
330
1DD
102
}
330
1DD
100
AcDbScale
 70
     0
300
1:20
140
1.0
141
20.0
290
     0
  0
SCALE
  5
1E6
102
{ACAD_REACTORS
330
1DD
102
}
330
1DD
100
AcDbScale
 70
     0
300
1:30
140
1.0
141
30.0
290
     0
  0
SCALE
  5
1E7
102
{ACAD_REACTORS
330
1DD
102
}
330
1DD
100
AcDbScale
 70
     0
300
1:40
140
1.0
141
40.0
290
     0
  0
SCALE
  5
1E8
102
{ACAD_REACTORS
330
1DD
102
}
330
1DD
100
AcDbScale
 70
     0
300
1:50
140
1.0
141
50.0
290
     0
  0
SCALE
  5
1E9
102
{ACAD_REACTORS
330
1DD
102
}
330
1DD
100
AcDbScale
 70
     0
300
1:100
140
1.0
141
100.0
290
     0
  0
SCALE
  5
1EA
102
{ACAD_REACTORS
330
1DD
102
}
330
1DD
100
AcDbScale
 70
     0
300
2:1
140
2.0
141
1.0
290
     0
  0
SCALE
  5
1EB
102
{ACAD_REACTORS
330
1DD
102
}
330
1DD
100
AcDbScale
 70
     0
300
4:1
140
4.0
141
1.0
290
     0
  0
SCALE
  5
1EC
102
{ACAD_REACTORS
330
1DD
102
}
330
1DD
100
AcDbScale
 70
     0
300
8:1
140
8.0
141
1.0
290
     0
  0
SCALE
  5
1ED
102
{ACAD_REACTORS
330
1DD
102
}
330
1DD
100
AcDbScale
 70
     0
300
10:1
140
10.0
141
1.0
290
     0
  0
SCALE
  5
1EE
102
{ACAD_REACTORS
330
1DD
102
}
330
1DD
100
AcDbScale
 70
     0
300
100:1
140
100.0
141
1.0
290
     0
  0
SCALE
  5
1EF
102
{ACAD_REACTORS
330
1DD
102
}
330
1DD
100
AcDbScale
 70
     0
300
1/128" = 1'-0"
140
0.0078125
141
12.0
290
     0
  0
SCALE
  5
1F0
102
{ACAD_REACTORS
330
1DD
102
}
330
1DD
100
AcDbScale
 70
     0
300
1/64" = 1'-0"
140
0.015625
141
12.0
290
     0
  0
SCALE
  5
1F1
102
{ACAD_REACTORS
330
1DD
102
}
330
1DD
100
AcDbScale
 70
     0
300
1/32" = 1'-0"
140
0.03125
141
12.0
290
     0
  0
SCALE
  5
1F2
102
{ACAD_REACTORS
330
1DD
102
}
330
1DD
100
AcDbScale
 70
     0
300
1/16" = 1'-0"
140
0.0625
141
12.0
290
     0
  0
SCALE
  5
1F3
102
{ACAD_REACTORS
330
1DD
102
}
330
1DD
100
AcDbScale
 70
     0
300
3/32" = 1'-0"
140
0.09375
141
12.0
290
     0
  0
SCALE
  5
1F4
102
{ACAD_REACTORS
330
1DD
102
}
330
1DD
100
AcDbScale
 70
     0
300
1/8" = 1'-0"
140
0.125
141
12.0
290
     0
  0
SCALE
  5
1F5
102
{ACAD_REACTORS
330
1DD
102
}
330
1DD
100
AcDbScale
 70
     0
300
3/16" = 1'-0"
140
0.1875
141
12.0
290
     0
  0
SCALE
  5
1F6
102
{ACAD_REACTORS
330
1DD
102
}
330
1DD
100
AcDbScale
 70
     0
300
1/4" = 1'-0"
140
0.25
141
12.0
290
     0
  0
SCALE
  5
1F7
102
{ACAD_REACTORS
330
1DD
102
}
330
1DD
100
AcDbScale
 70
     0
300
3/8" = 1'-0"
140
0.375
141
12.0
290
     0
  0
SCALE
  5
1F8
102
{ACAD_REACTORS
330
1DD
102
}
330
1DD
100
AcDbScale
 70
     0
300
1/2" = 1'-0"
140
0.5
141
12.0
290
     0
  0
SCALE
  5
1F9
102
{ACAD_REACTORS
330
1DD
102
}
330
1DD
100
AcDbScale
 70
     0
300
3/4" = 1'-0"
140
0.75
141
12.0
290
     0
  0
SCALE
  5
1FA
102
{ACAD_REACTORS
330
1DD
102
}
330
1DD
100
AcDbScale
 70
     0
300
1" = 1'-0"
140
1.0
141
12.0
290
     0
  0
SCALE
  5
1FB
102
{ACAD_REACTORS
330
1DD
102
}
330
1DD
100
AcDbScale
 70
     0
300
1-1/2" = 1'-0"
140
1.5
141
12.0
290
     0
  0
SCALE
  5
1FC
102
{ACAD_REACTORS
330
1DD
102
}
330
1DD
100
AcDbScale
 70
     0
300
3" = 1'-0"
140
3.0
141
12.0
290
     0
  0
SCALE
  5
1FD
102
{ACAD_REACTORS
330
1DD
102
}
330
1DD
100
AcDbScale
 70
     0
300
6" = 1'-0"
140
6.0
141
12.0
290
     0
  0
SCALE
  5
1FE
102
{ACAD_REACTORS
330
1DD
102
}
330
1DD
100
AcDbScale
 70
     0
300
1'-0" = 1'-0"
140
12.0
141
12.0
290
     0
  0
TABLESTYLE
  5
21D
102
{ACAD_REACTORS
330
21C
102
}
102
{ACAD_XDICTIONARY
360
255
102
}
330
21C
100
AcDbTableStyle
  3
Standard
 70
     0
 71
     0
 40
0.06
 41
0.06
280
     0
281
     0
  7
Standard
140
4.5
170
     2
 62
     0
 63
   257
283
     0
 90
        4
 91
        0
  1

274
    -2
284
     1
 64
     0
275
    -2
285
     1
 65
     0
276
    -2
286
     1
 66
     0
277
    -2
287
     1
 67
     0
278
    -2
288
     1
 68
     0
279
    -2
289
     1
 69
     0
  7
Standard
140
6.0
170
     5
 62
     0
 63
   257
283
     0
 90
        4
 91
        0
  1

274
    -2
284
     1
 64
     0
275
    -2
285
     1
 65
     0
276
    -2
286
     1
 66
     0
277
    -2
287
     1
 67
     0
278
    -2
288
     1
 68
     0
279
    -2
289
     1
 69
     0
  7
Standard
140
4.5
170
     5
 62
     0
 63
   257
283
     0
 90
        4
 91
        0
  1

274
    -2
284
     1
 64
     0
275
    -2
285
     1
 65
     0
276
    -2
286
     1
 66
     0
277
    -2
287
     1
 67
     0
278
    -2
288
     1
 68
     0
279
    -2
289
     1
 69
     0
  0
VISUALSTYLE
  5
204
102
{ACAD_REACTORS
330
1FF
102
}
330
1FF
100
AcDbVisualStyle
  2
2dWireframe
 70
     4
 71
     0
 72
     2
 73
     0
 90
        0
 40
0.6
 41
30.0
 62
     5
 63
     7
421
 16777215
 74
     1
 91
        4
 64
     7
 65
   257
 75
     1
175
     1
 42
1.0
 92
        0
 66
   257
 43
1.0
 76
     1
 77
     6
 78
     2
 67
     7
 79
     5
170
     0
171
     0
290
     0
174
     0
 93
        1
 44
0.0
173
     0
291
     0
 45
0.0
  0
VISUALSTYLE
  5
207
102
{ACAD_REACTORS
330
1FF
102
}
330
1FF
100
AcDbVisualStyle
  2
Basic
 70
     7
 71
     1
 72
     0
 73
     1
 90
        0
 40
0.6
 41
30.0
 62
     5
 63
     7
421
 16777215
 74
     0
 91
        4
 64
     7
 65
   257
 75
     1
175
     1
 42
1.0
 92
        8
 66
     7
 43
1.0
 76
     1
 77
     6
 78
     2
 67
     7
 79
     5
170
     0
171
     0
290
     0
174
     0
 93
        1
 44
0.0
173
     0
291
     1
 45
0.0
  0
VISUALSTYLE
  5
20B
102
{ACAD_REACTORS
330
1FF
102
}
330
1FF
100
AcDbVisualStyle
  2
Brighten
 70
    12
 71
     2
 72
     2
 73
     0
 90
        0
 40
0.6
 41
30.0
 62
     5
 63
     7
421
 16777215
 74
     1
 91
        4
 64
     7
 65
   257
 75
     1
175
     1
 42
1.0
 92
        8
 66
     7
 43
1.0
 76
     1
 77
     6
 78
     2
 67
     7
 79
     5
170
     0
171
     0
290
     0
174
     0
 93
        1
 44
50.0
173
     0
291
     1
 45
0.0
  0
VISUALSTYLE
  5
20F
102
{ACAD_REACTORS
330
1FF
102
}
330
1FF
100
AcDbVisualStyle
  2
ColorChange
 70
    16
 71
     2
 72
     2
 73
     3
 90
        0
 40
0.6
 41
30.0
 62
     5
 63
     8
421
  8421504
 74
     1
 91
        4
 64
     7
 65
   257
 75
     1
175
     1
 42
1.0
 92
        8
 66
     8
424
  8421504
 43
1.0
 76
     1
 77
     6
 78
     2
 67
     7
 79
     5
170
     0
171
     0
290
     0
174
     0
 93
        1
 44
0.0
173
     0
291
     1
 45
0.0
  0
VISUALSTYLE
  5
209
102
{ACAD_REACTORS
330
1FF
102
}
330
1FF
100
AcDbVisualStyle
  2
Conceptual
 70
     9
 71
     3
 72
     2
 73
     0
 90
        0
 40
0.6
 41
30.0
 62
     5
 63
     7
421
 16777215
 74
     2
 91
        2
 64
     7
 65
   257
 75
     1
175
     1
 42
179.0
 92
        8
 66
     7
 43
1.0
 76
     1
 77
     6
 78
     2
 67
     7
 79
     3
170
     0
171
     0
290
     0
174
     0
 93
        1
 44
0.0
173
     0
291
     0
 45
0.0
  0
VISUALSTYLE
  5
20A
102
{ACAD_REACTORS
330
1FF
102
}
330
1FF
100
AcDbVisualStyle
  2
Dim
 70
    11
 71
     2
 72
     2
 73
     0
 90
        0
 40
0.6
 41
30.0
 62
     5
 63
     7
421
 16777215
 74
     1
 91
        4
 64
     7
 65
   257
 75
     1
175
     1
 42
1.0
 92
        8
 66
     7
 43
1.0
 76
     1
 77
     6
 78
     2
 67
     7
 79
     5
170
     0
171
     0
290
     0
174
     0
 93
        1
 44
-50.0
173
     0
291
     1
 45
0.0
  0
VISUALSTYLE
  5
212
102
{ACAD_REACTORS
330
1FF
102
}
330
1FF
100
AcDbVisualStyle
  2
EdgeColorOff
 70
    22
 71
     2
 72
     2
 73
     0
 90
        0
 40
0.6
 41
30.0
 62
     5
 63
     7
421
 16777215
 74
     1
 91
        4
 64
     7
 65
   257
 75
     1
175
     1
 42
1.0
 92
        8
 66
     7
 43
1.0
 76
     1
 77
     6
 78
     2
 67
     7
 79
     5
170
     0
171
     0
290
     0
174
     0
 93
        1
 44
0.0
173
     0
291
     1
 45
0.0
  0
VISUALSTYLE
  5
20E
102
{ACAD_REACTORS
330
1FF
102
}
330
1FF
100
AcDbVisualStyle
  2
Facepattern
 70
    15
 71
     2
 72
     2
 73
     0
 90
        0
 40
0.6
 41
30.0
 62
     5
 63
     7
421
 16777215
 74
     1
 91
        4
 64
     7
 65
   257
 75
     1
175
     1
 42
1.0
 92
        8
 66
     7
 43
1.0
 76
     1
 77
     6
 78
     2
 67
     7
 79
     5
170
     0
171
     0
290
     0
174
     0
 93
        1
 44
0.0
173
     0
291
     1
 45
0.0
  0
VISUALSTYLE
  5
200
102
{ACAD_REACTORS
330
1FF
102
}
330
1FF
100
AcDbVisualStyle
  2
Flat
 70
     0
 71
     2
 72
     1
 73
     1
 90
        2
 40
0.6
 41
30.0
 62
     5
 63
     7
421
 16777215
 74
     0
 91
        0
 64
     7
 65
   257
 75
     1
175
     1
 42
1.0
 92
        8
 66
     7
 43
1.0
 76
     1
 77
     6
 78
     2
 67
     7
 79
     5
170
     0
171
     0
290
     0
174
     0
 93
       13
 44
0.0
173
     0
291
     1
 45
0.0
  0
VISUALSTYLE
  5
201
102
{ACAD_REACTORS
330
1FF
102
}
330
1FF
100
AcDbVisualStyle
  2
FlatWithEdges
 70
     1
 71
     2
 72
     1
 73
     1
 90
        2
 40
0.6
 41
30.0
 62
     5
 63
     7
421
 16777215
 74
     1
 91
        0
 64
     7
 65
   257
 75
     1
175
     1
 42
1.0
 92
        0
 66
   257
 43
1.0
 76
     1
 77
     6
 78
     2
 67
     7
 79
     5
170
     0
171
     0
290
     0
174
     0
 93
       13
 44
0.0
173
     0
291
     1
 45
0.0
  0
VISUALSTYLE
  5
202
102
{ACAD_REACTORS
330
1FF
102
}
330
1FF
100
AcDbVisualStyle
  2
Gouraud
 70
     2
 71
     2
 72
     2
 73
     1
 90
        2
 40
0.6
 41
30.0
 62
     5
 63
     7
421
 16777215
 74
     0
 91
        0
 64
     7
 65
   257
 75
     1
175
     1
 42
1.0
 92
        0
 66
     7
 43
1.0
 76
     1
 77
     6
 78
     2
 67
     7
 79
     5
170
     0
171
     0
290
     0
174
     0
 93
       13
 44
0.0
173
     0
291
     1
 45
0.0
  0
VISUALSTYLE
  5
203
102
{ACAD_REACTORS
330
1FF
102
}
330
1FF
100
AcDbVisualStyle
  2
GouraudWithEdges
 70
     3
 71
     2
 72
     2
 73
     1
 90
        2
 40
0.6
 41
30.0
 62
     5
 63
     7
421
 16777215
 74
     1
 91
        0
 64
     7
 65
   257
 75
     1
175
     1
 42
1.0
 92
        0
 66
   257
 43
1.0
 76
     1
 77
     6
 78
     2
 67
     7
 79
     5
170
     0
171
     0
290
     0
174
     0
 93
       13
 44
0.0
173
     0
291
     1
 45
0.0
  0
VISUALSTYLE
  5
206
102
{ACAD_REACTORS
330
1FF
102
}
330
1FF
100
AcDbVisualStyle
  2
Hidden
 70
     6
 71
     1
 72
     2
 73
     2
 90
        0
 40
0.6
 41
30.0
 62
     5
 63
     7
421
 16777215
 74
     2
 91
        2
 64
     7
 65
   257
 75
     2
175
     1
 42
40.0
 92
        0
 66
   257
 43
1.0
 76
     1
 77
     6
 78
     2
 67
     7
 79
     3
170
     0
171
     0
290
     0
174
     0
 93
        1
 44
0.0
173
     0
291
     0
 45
0.0
  0
VISUALSTYLE
  5
210
102
{ACAD_REACTORS
330
1FF
102
}
330
1FF
100
AcDbVisualStyle
  2
JitterOff
 70
    20
 71
     2
 72
     2
 73
     0
 90
        0
 40
0.6
 41
30.0
 62
     5
 63
     7
421
 16777215
 74
     1
 91
        4
 64
     7
 65
   257
 75
     1
175
     1
 42
1.0
 92
       10
 66
     7
 43
1.0
 76
     1
 77
     6
 78
     2
 67
     7
 79
     5
170
     0
171
     0
290
     0
174
     0
 93
        1
 44
0.0
173
     0
291
     1
 45
0.0
  0
VISUALSTYLE
  5
20D
102
{ACAD_REACTORS
330
1FF
102
}
330
1FF
100
AcDbVisualStyle
  2
Linepattern
 70
    14
 71
     2
 72
     2
 73
     0
 90
        0
 40
0.6
 41
30.0
 62
     5
 63
     7
421
 16777215
 74
     1
 91
        4
 64
     7
 65
   257
 75
     7
175
     7
 42
1.0
 92
        8
 66
     7
 43
1.0
 76
     1
 77
     6
 78
     2
 67
     7
 79
     5
170
     0
171
     0
290
     0
174
     0
 93
        1
 44
0.0
173
     0
291
     1
 45
0.0
  0
VISUALSTYLE
  5
211
102
{ACAD_REACTORS
330
1FF
102
}
330
1FF
100
AcDbVisualStyle
  2
OverhangOff
 70
    21
 71
     2
 72
     2
 73
     0
 90
        0
 40
0.6
 41
30.0
 62
     5
 63
     7
421
 16777215
 74
     1
 91
        4
 64
     7
 65
   257
 75
     1
175
     1
 42
1.0
 92
        9
 66
     7
 43
1.0
 76
     1
 77
     6
 78
     2
 67
     7
 79
     5
170
     0
171
     0
290
     0
174
     0
 93
        1
 44
0.0
173
     0
291
     1
 45
0.0
  0
VISUALSTYLE
  5
208
102
{ACAD_REACTORS
330
1FF
102
}
330
1FF
100
AcDbVisualStyle
  2
Realistic
 70
     8
 71
     2
 72
     3
 73
     0
 90
        2
 40
0.6
 41
30.0
 62
     5
 63
     7
421
 16777215
 74
     0
 91
        0
 64
     7
 65
   257
 75
     1
175
     1
 42
1.0
 92
        8
 66
   257
 43
1.0
 76
     1
 77
     6
 78
     2
 67
     7
 79
     3
170
     0
171
     0
290
     0
174
     0
 93
       13
 44
0.0
173
     0
291
     0
 45
0.0
  0
VISUALSTYLE
  5
217
102
{ACAD_REACTORS
330
1FF
102
}
330
1FF
100
AcDbVisualStyle
  2
Shaded
 70
    27
 71
     2
 72
     2
 73
     1
 90
        2
 40
0.6
 41
30.0
 62
     5
 63
     7
421
 16777215
 74
     0
 91
        4
 64
     7
 65
   257
 75
     1
175
     1
 42
1.0
 92
        8
 66
   257
 43
1.0
 76
     1
 77
     6
 78
     2
 67
     8
425
  7895160
 79
     3
170
     0
171
     0
290
     0
174
     0
 93
        5
 44
0.0
173
     0
291
     0
 45
0.0
  0
VISUALSTYLE
  5
216
102
{ACAD_REACTORS
330
1FF
102
}
330
1FF
100
AcDbVisualStyle
  2
Shaded with edges
 70
    26
 71
     2
 72
     2
 73
     1
 90
        2
 40
0.6
 41
30.0
 62
     5
 63
     7
421
 16777215
 74
     1
 91
       10
 64
     7
 65
   257
 75
     2
175
     1
 42
1.0
 92
        8
 66
   257
 43
1.0
 76
     1
 77
     6
 78
     2
 67
     7
 79
     3
170
     0
171
     0
290
     0
174
     0
 93
        5
 44
0.0
173
     0
291
     0
 45
0.0
  0
VISUALSTYLE
  5
213
102
{ACAD_REACTORS
330
1FF
102
}
330
1FF
100
AcDbVisualStyle
  2
Shades of Gray
 70
    23
 71
     2
 72
     2
 73
     3
 90
        0
 40
0.6
 41
30.0
 62
     5
 63
     7
421
 16777215
 74
     2
 91
        2
 64
     7
 65
     7
 75
     1
175
     1
 42
40.0
 92
        8
 66
     7
 43
1.0
 76
     1
 77
     6
 78
     2
 67
     7
 79
     3
170
     0
171
     0
290
     0
174
     0
 93
        1
 44
0.0
173
     0
291
     0
 45
0.0
  0
VISUALSTYLE
  5
214
102
{ACAD_REACTORS
330
1FF
102
}
330
1FF
100
AcDbVisualStyle
  2
Sketchy
 70
    24
 71
     1
 72
     2
 73
     2
 90
        0
 40
0.6
 41
30.0
 62
     5
 63
     7
421
 16777215
 74
     2
 91
        2
 64
     7
 65
     7
 75
     1
175
     1
 42
40.0
 92
       11
 66
     7
 43
1.0
 76
     1
 77
     6
 78
     2
 67
     7
 79
     6
170
     0
171
     0
290
     0
174
     0
 93
        1
 44
0.0
173
     0
291
     0
 45
0.0
  0
VISUALSTYLE
  5
20C
102
{ACAD_REACTORS
330
1FF
102
}
330
1FF
100
AcDbVisualStyle
  2
Thicken
 70
    13
 71
     2
 72
     2
 73
     0
 90
        0
 40
0.6
 41
30.0
 62
     5
 63
     7
421
 16777215
 74
     1
 91
        4
 64
     7
 65
   257
 75
     1
175
     1
 42
1.0
 92
       12
 66
     7
 43
1.0
 76
     1
 77
     6
 78
     2
 67
     7
 79
     5
170
     0
171
     0
290
     0
174
     0
 93
        1
 44
0.0
173
     0
291
     1
 45
0.0
  0
VISUALSTYLE
  5
205
102
{ACAD_REACTORS
330
1FF
102
}
330
1FF
100
AcDbVisualStyle
  2
Wireframe
 70
     5
 71
     0
 72
     2
 73
     0
 90
        0
 40
0.6
 41
30.0
 62
     5
 63
     7
421
 16777215
 74
     1
 91
        4
 64
     7
 65
   257
 75
     1
175
     1
 42
1.0
 92
        0
 66
   257
 43
1.0
 76
     1
 77
     6
 78
     2
 67
     7
 79
     3
170
     0
171
     0
290
     0
174
     0
 93
        1
 44
0.0
173
     0
291
     0
 45
0.0
  0
VISUALSTYLE
  5
215
102
{ACAD_REACTORS
330
1FF
102
}
330
1FF
100
AcDbVisualStyle
  2
X-Ray
 70
    25
 71
     2
 72
     2
 73
     1
 90
        1
 40
0.5
 41
30.0
 62
     5
 63
     7
421
 16777215
 74
     1
 91
        0
 64
     7
 65
   257
 75
     1
175
     1
 42
1.0
 92
        8
 66
     7
 43
1.0
 76
     1
 77
     6
 78
     2
 67
     7
 79
     3
170
     0
171
     0
290
     0
174
     0
 93
       13
 44
0.0
173
     0
291
     0
 45
0.0
  0
DICTIONARYVAR
  5
253
102
{ACAD_REACTORS
330
252
102
}
330
252
100
DictionaryVariables
280
     0
  1
1:1
  0
DICTIONARYVAR
  5
258
102
{ACAD_REACTORS
330
252
102
}
330
252
100
DictionaryVariables
280
     0
  1
Standard
  0
DICTIONARYVAR
  5
254
102
{ACAD_REACTORS
330
252
102
}
330
252
100
DictionaryVariables
280
     0
  1
0
  0
DICTIONARYVAR
  5
25A
102
{ACAD_REACTORS
330
252
102
}
330
252
100
DictionaryVariables
280
     0
  1
0
  0
DICTIONARY
  5
255
330
21D
100
AcDbDictionary
280
     1
281
     1
  3
ACAD_ROUNDTRIP_2008_TABLESTYLE_CELLSTYLEMAP
360
256
  0
CELLSTYLEMAP
  5
256
102
{ACAD_REACTORS
330
255
102
}
330
255
100
AcDbCellStyleMap
 90
        3
300
CELLSTYLE
  1
TABLEFORMAT_BEGIN
 90
        5
170
     1
 91
        0
 92
        0
 62
   257
 93
        1
300
CONTENTFORMAT
  1
CONTENTFORMAT_BEGIN
 90
        0
 91
        0
 92
        4
 93
        0
300

 40
0.0
140
1.0
 94
        5
 62
     0
340
17
144
6.0
309
CONTENTFORMAT_END
171
     1
301
MARGIN
  1
CELLMARGIN_BEGIN
 40
1.5
 40
1.5
 40
1.5
 40
1.5
 40
1.5
 40
1.5
309
CELLMARGIN_END
 94
        6
 95
        1
302
GRIDFORMAT
  1
GRIDFORMAT_BEGIN
 90
        0
 91
        1
 62
     0
 92
       -2
340
11
 93
        0
 40
0.045
309
GRIDFORMAT_END
 95
        2
302
GRIDFORMAT
  1
GRIDFORMAT_BEGIN
 90
        0
 91
        1
 62
     0
 92
       -2
340
11
 93
        0
 40
0.045
309
GRIDFORMAT_END
 95
        4
302
GRIDFORMAT
  1
GRIDFORMAT_BEGIN
 90
        0
 91
        1
 62
     0
 92
       -2
340
11
 93
        0
 40
0.045
309
GRIDFORMAT_END
 95
        8
302
GRIDFORMAT
  1
GRIDFORMAT_BEGIN
 90
        0
 91
        1
 62
     0
 92
       -2
340
11
 93
        0
 40
0.045
309
GRIDFORMAT_END
 95
       16
302
GRIDFORMAT
  1
GRIDFORMAT_BEGIN
 90
        0
 91
        1
 62
     0
 92
       -2
340
11
 93
        0
 40
0.045
309
GRIDFORMAT_END
 95
       32
302
GRIDFORMAT
  1
GRIDFORMAT_BEGIN
 90
        0
 91
        1
 62
     0
 92
       -2
340
11
 93
        0
 40
0.045
309
GRIDFORMAT_END
309
TABLEFORMAT_END
  1
CELLSTYLE_BEGIN
 90
        1
 91
        1
300
_TITLE
309
CELLSTYLE_END
300
CELLSTYLE
  1
TABLEFORMAT_BEGIN
 90
        5
170
     1
 91
        0
 92
        0
 62
   257
 93
        1
300
CONTENTFORMAT
  1
CONTENTFORMAT_BEGIN
 90
        0
 91
        0
 92
        4
 93
        0
300

 40
0.0
140
1.0
 94
        5
 62
     0
340
17
144
4.5
309
CONTENTFORMAT_END
171
     1
301
MARGIN
  1
CELLMARGIN_BEGIN
 40
1.5
 40
1.5
 40
1.5
 40
1.5
 40
1.5
 40
1.5
309
CELLMARGIN_END
 94
        6
 95
        1
302
GRIDFORMAT
  1
GRIDFORMAT_BEGIN
 90
        0
 91
        1
 62
     0
 92
       -2
340
11
 93
        0
 40
0.045
309
GRIDFORMAT_END
 95
        2
302
GRIDFORMAT
  1
GRIDFORMAT_BEGIN
 90
        0
 91
        1
 62
     0
 92
       -2
340
11
 93
        0
 40
0.045
309
GRIDFORMAT_END
 95
        4
302
GRIDFORMAT
  1
GRIDFORMAT_BEGIN
 90
        0
 91
        1
 62
     0
 92
       -2
340
11
 93
        0
 40
0.045
309
GRIDFORMAT_END
 95
        8
302
GRIDFORMAT
  1
GRIDFORMAT_BEGIN
 90
        0
 91
        1
 62
     0
 92
       -2
340
11
 93
        0
 40
0.045
309
GRIDFORMAT_END
 95
       16
302
GRIDFORMAT
  1
GRIDFORMAT_BEGIN
 90
        0
 91
        1
 62
     0
 92
       -2
340
11
 93
        0
 40
0.045
309
GRIDFORMAT_END
 95
       32
302
GRIDFORMAT
  1
GRIDFORMAT_BEGIN
 90
        0
 91
        1
 62
     0
 92
       -2
340
11
 93
        0
 40
0.045
309
GRIDFORMAT_END
309
TABLEFORMAT_END
  1
CELLSTYLE_BEGIN
 90
        2
 91
        1
300
_HEADER
309
CELLSTYLE_END
300
CELLSTYLE
  1
TABLEFORMAT_BEGIN
 90
        5
170
     1
 91
        0
 92
        0
 62
   257
 93
        1
300
CONTENTFORMAT
  1
CONTENTFORMAT_BEGIN
 90
        0
 91
        0
 92
        4
 93
        0
300

 40
0.0
140
1.0
 94
        2
 62
     0
340
17
144
4.5
309
CONTENTFORMAT_END
171
     1
301
MARGIN
  1
CELLMARGIN_BEGIN
 40
1.5
 40
1.5
 40
1.5
 40
1.5
 40
1.5
 40
1.5
309
CELLMARGIN_END
 94
        6
 95
        1
302
GRIDFORMAT
  1
GRIDFORMAT_BEGIN
 90
        0
 91
        1
 62
     0
 92
       -2
340
11
 93
        0
 40
0.045
309
GRIDFORMAT_END
 95
        2
302
GRIDFORMAT
  1
GRIDFORMAT_BEGIN
 90
        0
 91
        1
 62
     0
 92
       -2
340
11
 93
        0
 40
0.045
309
GRIDFORMAT_END
 95
        4
302
GRIDFORMAT
  1
GRIDFORMAT_BEGIN
 90
        0
 91
        1
 62
     0
 92
       -2
340
11
 93
        0
 40
0.045
309
GRIDFORMAT_END
 95
        8
302
GRIDFORMAT
  1
GRIDFORMAT_BEGIN
 90
        0
 91
        1
 62
     0
 92
       -2
340
11
 93
        0
 40
0.045
309
GRIDFORMAT_END
 95
       16
302
GRIDFORMAT
  1
GRIDFORMAT_BEGIN
 90
        0
 91
        1
 62
     0
 92
       -2
340
11
 93
        0
 40
0.045
309
GRIDFORMAT_END
 95
       32
302
GRIDFORMAT
  1
GRIDFORMAT_BEGIN
 90
        0
 91
        1
 62
     0
 92
       -2
340
11
 93
        0
 40
0.045
309
GRIDFORMAT_END
309
TABLEFORMAT_END
  1
CELLSTYLE_BEGIN
 90
        3
 91
        2
300
_DATA
309
CELLSTYLE_END
  0
ENDSEC
  0
EOF
