  0
SECTION
  2
HEADER
  9
$ACADVER
  1
AC1021
  9
$ACADMAINTVER
 70
    25
  9
$DWGCODEPAGE
  3
ANSI_932
  9
$LASTSAVEDBY
  1
howeNelson
  9
$INSBASE
 10
0.0
 20
0.0
 30
0.0
  9
$EXTMIN
 10
0.0
 20
0.0
 30
0.0
  9
$EXTMAX
 10
2100.0
 20
2970.0
 30
34.99521132346015
  9
$LIMMIN
 10
0.0
 20
0.0
  9
$LIMMAX
 10
2100.0
 20
2970.0
  9
$ORTHOMODE
 70
     0
  9
$REGENMODE
 70
     1
  9
$FILLMODE
 70
     1
  9
$QTEXTMODE
 70
     0
  9
$MIRRTEXT
 70
     1
  9
$LTSCALE
 40
5.0
  9
$ATTMODE
 70
     1
  9
$TEXTSIZE
 40
533.0403732820173
  9
$TRACEWID
 40
1.0
  9
$TEXTSTYLE
  7
Standard
  9
$CLAYER
  8
Dim
  9
$CELTYPE
  6
Continuous
  9
$CECOLOR
 62
   256
  9
$CELTSCALE
 40
1.0
  9
$DISPSILH
 70
     0
  9
$DIMSCALE
 40
1.0
  9
$DIMASZ
 40
9.999389648437498
  9
$DIMEXO
 40
25.0
  9
$DIMDLI
 40
0.9999999999999999
  9
$DIMRND
 40
0.0
  9
$DIMDLE
 40
0.0
  9
$DIMEXE
 40
0.0
  9
$DIMTP
 40
0.0
  9
$DIMTM
 40
0.0
  9
$DIMTXT
 40
24.4326171875
  9
$DIMCEN
 40
0.0
  9
$DIMTSZ
 40
0.0
  9
$DIMTOL
 70
     0
  9
$DIMLIM
 70
     0
  9
$DIMTIH
 70
     0
  9
$DIMTOH
 70
     0
  9
$DIMSE1
 70
     0
  9
$DIMSE2
 70
     0
  9
$DIMTAD
 70
     1
  9
$DIMZIN
 70
    11
  9
$DIMBLK
  1
DOT
  9
$DIMASO
 70
     1
  9
$DIMSHO
 70
     1
  9
$DIMPOST
  1
<>
  9
$DIMAPOST
  1
[]
  9
$DIMALT
 70
     0
  9
$DIMALTD
 70
     1
  9
$DIMALTF
 40
1.0
  9
$DIMLFAC
 40
1.0
  9
$DIMTOFL
 70
     1
  9
$DIMTVP
 40
0.0
  9
$DIMTIX
 70
     1
  9
$DIMSOXD
 70
     0
  9
$DIMSAH
 70
     0
  9
$DIMBLK1
  1

  9
$DIMBLK2
  1

  9
$DIMSTYLE
  2
tform線あり
  9
$DIMCLRD
 70
     0
  9
$DIMCLRE
 70
     0
  9
$DIMCLRT
 70
     0
  9
$DIMTFAC
 40
0.8
  9
$DIMGAP
 40
10.0
  9
$DIMJUST
 70
     0
  9
$DIMSD1
 70
     0
  9
$DIMSD2
 70
     0
  9
$DIMTOLJ
 70
     1
  9
$DIMTZIN
 70
    11
  9
$DIMALTZ
 70
    11
  9
$DIMALTTZ
 70
    11
  9
$DIMUPT
 70
     0
  9
$DIMDEC
 70
     1
  9
$DIMTDEC
 70
     1
  9
$DIMALTU
 70
     2
  9
$DIMALTTD
 70
     2
  9
$DIMTXSTY
  7
ＭＳ ゴシック
  9
$DIMAUNIT
 70
     0
  9
$DIMADEC
 70
     2
  9
$DIMALTRND
 40
0.0
  9
$DIMAZIN
 70
     0
  9
$DIMDSEP
 70
    46
  9
$DIMATFIT
 70
     0
  9
$DIMFRAC
 70
     2
  9
$DIMLDRBLK
  1
DOT
  9
$DIMLUNIT
 70
     2
  9
$DIMLWD
 70
    -2
  9
$DIMLWE
 70
    -2
  9
$DIMTMOVE
 70
     0
  9
$DIMFXL
 40
1.0
  9
$DIMFXLON
 70
     0
  9
$DIMJOGANG
 40
0.7853981633974483
  9
$DIMTFILL
 70
     0
  9
$DIMTFILLCLR
 70
     0
  9
$DIMARCSYM
 70
     0
  9
$DIMLTYPE
  6

  9
$DIMLTEX1
  6

  9
$DIMLTEX2
  6

  9
$LUNITS
 70
     2
  9
$LUPREC
 70
     0
  9
$SKETCHINC
 40
0.1
  9
$FILLETRAD
 40
0.0
  9
$AUNITS
 70
     0
  9
$AUPREC
 70
     0
  9
$MENU
  1
acad
  9
$ELEVATION
 40
0.0
  9
$PELEVATION
 40
0.0
  9
$THICKNESS
 40
0.0
  9
$LIMCHECK
 70
     0
  9
$CHAMFERA
 40
0.0
  9
$CHAMFERB
 40
0.0
  9
$CHAMFERC
 40
0.0
  9
$CHAMFERD
 40
0.0
  9
$SKPOLY
 70
     0
  9
$TDCREATE
 40
2447893.375
  9
$TDUCREATE
 40
0.0
  9
$TDUPDATE
 40
2457680.594077396
  9
$TDUUPDATE
 40
2457680.219077396
  9
$TDINDWG
 40
0.3723711227
  9
$TDUSRTIMER
 40
2457680.21654625
  9
$USRTIMER
 70
     1
  9
$ANGBASE
 50
0.0
  9
$ANGDIR
 70
     0
  9
$PDMODE
 70
     1
  9
$PDSIZE
 40
-2.0
  9
$PLINEWID
 40
0.0
  9
$SPLFRAME
 70
     0
  9
$SPLINETYPE
 70
     6
  9
$SPLINESEGS
 70
     8
  9
$HANDSEED
  5
436E
  9
$SURFTAB1
 70
     6
  9
$SURFTAB2
 70
     6
  9
$SURFTYPE
 70
     6
  9
$SURFU
 70
     6
  9
$SURFV
 70
     6
  9
$UCSBASE
  2

  9
$UCSNAME
  2

  9
$UCSORG
 10
0.0
 20
0.0
 30
0.0
  9
$UCSXDIR
 10
1.0
 20
0.0
 30
0.0
  9
$UCSYDIR
 10
0.0
 20
1.0
 30
0.0
  9
$UCSORTHOREF
  2

  9
$UCSORTHOVIEW
 70
     0
  9
$UCSORGTOP
 10
0.0
 20
0.0
 30
0.0
  9
$UCSORGBOTTOM
 10
0.0
 20
0.0
 30
0.0
  9
$UCSORGLEFT
 10
0.0
 20
0.0
 30
0.0
  9
$UCSORGRIGHT
 10
0.0
 20
0.0
 30
0.0
  9
$UCSORGFRONT
 10
0.0
 20
0.0
 30
0.0
  9
$UCSORGBACK
 10
0.0
 20
0.0
 30
0.0
  9
$PUCSBASE
  2

  9
$PUCSNAME
  2

  9
$PUCSORG
 10
0.0
 20
0.0
 30
0.0
  9
$PUCSXDIR
 10
1.0
 20
0.0
 30
0.0
  9
$PUCSYDIR
 10
0.0
 20
1.0
 30
0.0
  9
$PUCSORTHOREF
  2

  9
$PUCSORTHOVIEW
 70
     0
  9
$PUCSORGTOP
 10
0.0
 20
0.0
 30
0.0
  9
$PUCSORGBOTTOM
 10
0.0
 20
0.0
 30
0.0
  9
$PUCSORGLEFT
 10
0.0
 20
0.0
 30
0.0
  9
$PUCSORGRIGHT
 10
0.0
 20
0.0
 30
0.0
  9
$PUCSORGFRONT
 10
0.0
 20
0.0
 30
0.0
  9
$PUCSORGBACK
 10
0.0
 20
0.0
 30
0.0
  9
$USERI1
 70
     0
  9
$USERI2
 70
     0
  9
$USERI3
 70
     0
  9
$USERI4
 70
     0
  9
$USERI5
 70
     0
  9
$USERR1
 40
0.0
  9
$USERR2
 40
0.0
  9
$USERR3
 40
0.0
  9
$USERR4
 40
0.0
  9
$USERR5
 40
0.0
  9
$WORLDVIEW
 70
     1
  9
$SHADEDGE
 70
     3
  9
$SHADEDIF
 70
    70
  9
$TILEMODE
 70
     1
  9
$MAXACTVP
 70
    64
  9
$PINSBASE
 10
0.0
 20
0.0
 30
0.0
  9
$PLIMCHECK
 70
     0
  9
$PEXTMIN
 10
0.0
 20
0.0
 30
0.0
  9
$PEXTMAX
 10
0.0
 20
0.0
 30
0.0
  9
$PLIMMIN
 10
-95.87226993865028
 20
-25.69999999999999
  9
$PLIMMAX
 10
201.1277300613497
 20
184.3
  9
$UNITMODE
 70
     0
  9
$VISRETAIN
 70
     0
  9
$PLINEGEN
 70
     1
  9
$PSLTSCALE
 70
     0
  9
$TREEDEPTH
 70
  3020
  9
$CMLSTYLE
  2
Standard
  9
$CMLJUST
 70
     0
  9
$CMLSCALE
 40
1.0
  9
$PROXYGRAPHICS
 70
     0
  9
$MEASUREMENT
 70
     1
  9
$CELWEIGHT
370
    -1
  9
$ENDCAPS
280
     0
  9
$JOINSTYLE
280
     0
  9
$LWDISPLAY
290
     1
  9
$INSUNITS
 70
     4
  9
$HYPERLINKBASE
  1

  9
$STYLESHEET
  1

  9
$XEDIT
290
     1
  9
$CEPSNTYPE
380
     0
  9
$PSTYLEMODE
290
     1
  9
$FINGERPRINTGUID
  2

  9
$VERSIONGUID
  2

  9
$EXTNAMES
290
     1
  9
$PSVPSCALE
 40
0.0
  9
$OLESTARTUP
290
     0
  9
$SORTENTS
280
   127
  9
$INDEXCTL
280
     0
  9
$HIDETEXT
280
     1
  9
$XCLIPFRAME
290
     0
  9
$HALOGAP
280
     0
  9
$OBSCOLOR
 70
   257
  9
$OBSLTYPE
280
     0
  9
$INTERSECTIONDISPLAY
280
     0
  9
$INTERSECTIONCOLOR
 70
   257
  9
$DIMASSOC
280
     2
  9
$PROJECTNAME
  1

  9
$CAMERADISPLAY
290
     0
  9
$LENSLENGTH
 40
50.0
  9
$CAMERAHEIGHT
 40
0.0
  9
$STEPSPERSEC
 40
2.0
  9
$STEPSIZE
 40
6.0
  9
$3DDWFPREC
 40
2.0
  9
$PSOLWIDTH
 40
0.25
  9
$PSOLHEIGHT
 40
4.0
  9
$LOFTANG1
 40
1.570796326794897
  9
$LOFTANG2
 40
1.570796326794897
  9
$LOFTMAG1
 40
0.0
  9
$LOFTMAG2
 40
0.0
  9
$LOFTPARAM
 70
     7
  9
$LOFTNORMALS
280
     1
  9
$LATITUDE
 40
37.795
  9
$LONGITUDE
 40
-122.394
  9
$NORTHDIRECTION
 40
0.0
  9
$TIMEZONE
 70
 -8000
  9
$LIGHTGLYPHDISPLAY
280
     1
  9
$TILEMODELIGHTSYNCH
280
     1
  9
$SOLIDHIST
280
     1
  9
$SHOWHIST
280
     1
  9
$DWFFRAME
280
     2
  9
$DGNFRAME
280
     2
  9
$REALWORLDSCALE
290
     1
  9
$INTERFERECOLOR
 62
   256
  9
$CSHADOW
280
     0
  9
$SHADOWPLANELOCATION
 40
0.0
  0
ENDSEC
  0
SECTION
  2
CLASSES
  0
CLASS
  1
LWPOLYLINE
  2
AcDbPolyline
  3
ObjectDBX Classes
 90
        0
 91
        1
280
     0
281
     1
  0
CLASS
  1
IMAGE
  2
AcDbRasterImage
  3
ISM
 90
      127
 91
        5
280
     0
281
     1
  0
CLASS
  1
OLE2FRAME
  2
AcDbOle2Frame
  3
ObjectDBX Classes
 90
        0
 91
        1
280
     0
281
     1
  0
CLASS
  1
HATCH
  2
AcDbHatch
  3
ObjectDBX Classes
 90
        0
 91
        1
280
     0
281
     1
  0
CLASS
  1
DICTIONARYVAR
  2
AcDbDictionaryVar
  3
ObjectDBX Classes
 90
        0
 91
        4
280
     0
281
     0
  0
CLASS
  1
RASTERVARIABLES
  2
AcDbRasterVariables
  3
ISM
 90
        0
 91
        4
280
     0
281
     0
  0
CLASS
  1
IMAGEDEF
  2
AcDbRasterImageDef
  3
ISM
 90
        0
 91
        4
280
     0
281
     0
  0
CLASS
  1
IMAGEDEF_REACTOR
  2
AcDbRasterImageDefReactor
  3
ISM
 90
        1
 91
        4
280
     0
281
     0
  0
CLASS
  1
IDBUFFER
  2
AcDbIdBuffer
  3
ObjectDBX Classes
 90
        0
 91
        4
280
     0
281
     0
  0
CLASS
  1
SPATIAL_FILTER
  2
AcDbSpatialFilter
  3
ObjectDBX Classes
 90
        0
 91
        4
280
     0
281
     0
  0
CLASS
  1
XRECORD
  2
AcDbXrecord
  3
ObjectDBX Classes
 90
        0
 91
        1
280
     0
281
     0
  0
CLASS
  1
SORTENTSTABLE
  2
AcDbSortentsTable
  3
ObjectDBX Classes
 90
        0
 91
        4
280
     0
281
     0
  0
CLASS
  1
LAYER_INDEX
  2
AcDbLayerIndex
  3
ObjectDBX Classes
 90
        0
 91
        4
280
     0
281
     0
  0
CLASS
  1
SPATIAL_INDEX
  2
AcDbSpatialIndex
  3
AutoCAD 2000
 90
        0
 91
        4
280
     0
281
     0
  0
CLASS
  1
OBJECT_PTR
  2
CAseDLPNTableRecord
  3
ASE-LPNTableRecord
 90
        1
 91
        4
280
     0
281
     0
  0
CLASS
  1
LAYOUT
  2
AcDbLayout
  3
ObjectDBX Classes
 90
        0
 91
        1
280
     0
281
     0
  0
CLASS
  1
PLOTSETTINGS
  2
AcDbPlotSettings
  3
ObjectDBX Classes
 90
        0
 91
        4
280
     0
281
     0
  0
CLASS
  1
ACDBDICTIONARYWDFLT
  2
AcDbDictionaryWithDefault
  3
ObjectDBX Classes
 90
        0
 91
        4
280
     0
281
     0
  0
CLASS
  1
ACDBPLACEHOLDER
  2
AcDbPlaceHolder
  3
ObjectDBX Classes
 90
        0
 91
        1
280
     0
281
     0
  0
CLASS
  1
SCALE
  2
AcDbScale
  3
ObjectDBX Classes
 90
     1153
 91
        4
280
     0
281
     0
  0
CLASS
  1
MATERIAL
  2
AcDbMaterial
  3
ObjectDBX Classes
 90
     1153
 91
        4
280
     0
281
     0
  0
CLASS
  1
VISUALSTYLE
  2
AcDbVisualStyle
  3
ObjectDBX Classes
 90
     4095
 91
        4
280
     0
281
     0
  0
CLASS
  1
TABLESTYLE
  2
AcDbTableStyle
  3
ObjectDBX Classes
 90
     4095
 91
        4
280
     0
281
     0
  0
CLASS
  1
DIMASSOC
  2
AcDbDimAssoc
  3
"AcDbDimAssoc|Product Desc:     AcDim ARX App For Dimension|Company:          Autodesk, Inc.|WEB Address:      www.autodesk.com"
 90
        0
 91
        4
280
     0
281
     0
  0
CLASS
  1
CELLSTYLEMAP
  2
AcDbCellStyleMap
  3
ObjectDBX Classes
 90
     1152
 91
        4
280
     0
281
     0
  0
CLASS
  1
SUN
  2
AcDbSun
  3
SCENEOE
 90
     1153
 91
        4
280
     0
281
     0
  0
CLASS
  1
MLEADERSTYLE
  2
AcDbMLeaderStyle
  3
ACDB_MLEADERSTYLE_CLASS
 90
     4095
 91
        4
280
     0
281
     0
  0
CLASS
  1
FIELD
  2
AcDbField
  3
ObjectDBX Classes
 90
     1152
 91
        4
280
     0
281
     0
  0
CLASS
  1
FIELDLIST
  2
AcDbFieldList
  3
ObjectDBX Classes
 90
     1152
 91
        4
280
     0
281
     0
  0
CLASS
  1
ACDB_ALDIMOBJECTCONTEXTDATA_CLASS
  2
AcDbAlignedDimensionObjectContextData
  3
ObjectDBX Classes
 90
     1153
 91
        4
280
     0
281
     0
  0
ENDSEC
  0
SECTION
  2
TABLES
  0
TABLE
  2
VPORT
  5
7
330
0
100
AcDbSymbolTable
 70
     1
  0
VPORT
  5
15
330
7
100
AcDbSymbolTableRecord
100
AcDbViewportTableRecord
  2
*ACTIVE
 70
     0
 10
0.0
 20
0.0
 11
1.0
 21
1.0
 12
672.9525617540357
 22
1782.612370234525
 13
0.0
 23
0.0
 14
1.0
 24
1.0
 15
0.0
 25
0.0
 16
0.0
 26
0.0
 36
1.0
 17
377.0474382459643
 27
-297.6123702345251
 37
0.0
 40
3029.4
 41
2.255405405405405
 42
50.0
 43
0.0
 44
0.0
 50
0.0
 51
0.0
 71
    16
 72
  2000
 73
     1
 74
     1
 75
     0
 76
     0
 77
     0
 78
     0
281
     0
 65
     1
110
0.0
120
0.0
130
0.0
111
1.0
121
0.0
131
0.0
112
0.0
122
1.0
132
0.0
 79
     0
146
0.0
348
26C
 60
     3
 61
     5
292
     1
282
     1
141
0.0
142
0.0
 63
   256
361
8C2
  0
ENDTAB
  0
TABLE
  2
LTYPE
  5
4
330
0
100
AcDbSymbolTable
 70
     5
  0
LTYPE
  5
11
330
4
100
AcDbSymbolTableRecord
100
AcDbLinetypeTableRecord
  2
ByBlock
 70
     0
  3

 72
    65
 73
     0
 40
0.0
  0
LTYPE
  5
12
330
4
100
AcDbSymbolTableRecord
100
AcDbLinetypeTableRecord
  2
ByLayer
 70
     0
  3

 72
    65
 73
     0
 40
0.0
  0
LTYPE
  5
13
330
4
100
AcDbSymbolTableRecord
100
AcDbLinetypeTableRecord
  2
Continuous
 70
     0
  3
Solid line
 72
    65
 73
     0
 40
0.0
  0
LTYPE
  5
8D4
330
4
100
AcDbSymbolTableRecord
100
AcDbLinetypeTableRecord
  2
HIDDEN
 70
     0
  3
Hidden _ _ _ _ _ _ _ _ _ _ _ _ _ _ _ _ _ _ _ _ 
 72
    65
 73
     2
 40
9.524999999999999
 49
6.35
 74
     0
 49
-3.175
 74
     0
  0
LTYPE
  5
BF2
330
4
100
AcDbSymbolTableRecord
100
AcDbLinetypeTableRecord
  2
BORDER
 70
     0
  3
Border __  __  . __  __  . __  __  . __  __  . 
 72
    65
 73
     6
 40
44.45
 49
12.7
 74
     0
 49
-6.35
 74
     0
 49
12.7
 74
     0
 49
-6.35
 74
     0
 49
0.0
 74
     0
 49
-6.35
 74
     0
  0
LTYPE
  5
4115
330
4
100
AcDbSymbolTableRecord
100
AcDbLinetypeTableRecord
  2
CENTER
 70
     0
  3
 Center _____  _  _____  _  _____  _  _____  _ 
 72
    65
 73
     4
 40
50.8
 49
31.75
 74
     0
 49
-6.35
 74
     0
 49
6.35
 74
     0
 49
-6.35
 74
     0
  0
LTYPE
  5
425F
330
4
100
AcDbSymbolTableRecord
100
AcDbLinetypeTableRecord
  2
STYLE_12
 70
     0
  3

 72
    65
 73
     2
 40
0.3937007874015748
 49
0.1968503937007874
 74
     0
 49
-0.1968503937007874
 74
     0
  0
ENDTAB
  0
TABLE
  2
LAYER
  5
2
102
{ACAD_XDICTIONARY
360
2E1
102
}
330
0
100
AcDbSymbolTable
 70
    10
  0
LAYER
  5
14
330
2
100
AcDbSymbolTableRecord
100
AcDbLayerTableRecord
  2
0
 70
     0
 62
     7
  6
Continuous
370
    -3
390
1D
347
266
  0
LAYER
  5
4A
330
2
100
AcDbSymbolTableRecord
100
AcDbLayerTableRecord
  2
Defpoints
 70
     0
 62
     7
  6
Continuous
290
     0
370
    20
390
1D
347
266
  0
LAYER
  5
4B
330
2
100
AcDbSymbolTableRecord
100
AcDbLayerTableRecord
  2
template
 70
     0
 62
     7
  6
Continuous
370
    20
390
1D
347
266
  0
LAYER
  5
4D
330
2
100
AcDbSymbolTableRecord
100
AcDbLayerTableRecord
  2
MODEL
 70
     0
 62
     7
  6
Continuous
370
    20
390
1D
347
266
  0
LAYER
  5
382
330
2
100
AcDbSymbolTableRecord
100
AcDbLayerTableRecord
  2
レイヤー 1
 70
     0
 62
     7
  6
Continuous
370
    -3
390
1D
347
266
  0
LAYER
  5
5C4
330
2
100
AcDbSymbolTableRecord
100
AcDbLayerTableRecord
  2
HIDDEN
 70
     0
 62
   253
  6
HIDDEN
370
    20
390
1D
347
266
1001
AcAecLayerStandard
1000

1000

  0
LAYER
  5
5EB
330
2
100
AcDbSymbolTableRecord
100
AcDbLayerTableRecord
  2
Dim
 70
     0
 62
     3
  6
Continuous
370
    13
390
1D
347
266
1001
AcAecLayerStandard
1000

1000

  0
LAYER
  5
BF1
330
2
100
AcDbSymbolTableRecord
100
AcDbLayerTableRecord
  2
PRINT BORDER
 70
     0
 62
     4
  6
BORDER
290
     0
370
    20
390
1D
347
266
1001
AcAecLayerStandard
1000

1000

  0
LAYER
  5
1BD2
330
2
100
AcDbSymbolTableRecord
100
AcDbLayerTableRecord
  2
retino
 70
     0
 62
   253
  6
Continuous
370
     0
390
1D
347
266
  0
LAYER
  5
425D
330
2
100
AcDbSymbolTableRecord
100
AcDbLayerTableRecord
  2
notes
 70
     0
 62
     7
  6
Continuous
370
    -3
390
1D
347
266
  0
ENDTAB
  0
TABLE
  2
STYLE
  5
3
330
0
100
AcDbSymbolTable
 70
     2
  0
STYLE
  5
17
330
3
100
AcDbSymbolTableRecord
100
AcDbTextStyleTableRecord
  2
Standard
 70
     0
 40
0.0
 41
1.0
 50
0.0
 71
     0
 42
533.0403732820173
  3
txt
  4
BIGFONT.SHX
  0
STYLE
  5
39
330
3
100
AcDbSymbolTableRecord
100
AcDbTextStyleTableRecord
  2
ＭＳ ゴシック
 70
     0
 40
0.0
 41
1.0
 50
0.0
 71
     0
 42
533.0403732820173
  3
msgothic.ttc
  4
ＭＳ ゴシック
1001
ACAD
1000
ＭＳ ゴシック
1071
        0
  0
ENDTAB
  0
TABLE
  2
VIEW
  5
5
330
0
100
AcDbSymbolTable
 70
     0
  0
ENDTAB
  0
TABLE
  2
UCS
  5
6
330
0
100
AcDbSymbolTable
 70
     0
  0
ENDTAB
  0
TABLE
  2
APPID
  5
8
330
0
100
AcDbSymbolTable
 70
    13
  0
APPID
  5
16
330
8
100
AcDbSymbolTableRecord
100
AcDbRegAppTableRecord
  2
ACAD
 70
     0
  0
APPID
  5
5C5
330
8
100
AcDbSymbolTableRecord
100
AcDbRegAppTableRecord
  2
AcAecLayerStandard
 70
     0
  0
APPID
  5
913
330
8
100
AcDbSymbolTableRecord
100
AcDbRegAppTableRecord
  2
ACAD_DSTYLE_DIMBREAK
 70
     0
  0
APPID
  5
914
330
8
100
AcDbSymbolTableRecord
100
AcDbRegAppTableRecord
  2
ACAD_DSTYLE_DIMJAG
 70
     0
  0
APPID
  5
915
330
8
100
AcDbSymbolTableRecord
100
AcDbRegAppTableRecord
  2
ACAD_DSTYLE_DIMTALN
 70
     0
  0
APPID
  5
E4F
330
8
100
AcDbSymbolTableRecord
100
AcDbRegAppTableRecord
  2
ACAD_MLEADERVER
 70
     0
  0
APPID
  5
E79
330
8
100
AcDbSymbolTableRecord
100
AcDbRegAppTableRecord
  2
ACAD_PSEXT
 70
     0
  0
APPID
  5
E7A
330
8
100
AcDbSymbolTableRecord
100
AcDbRegAppTableRecord
  2
ACAD_NAV_VCDISPLAY
 70
     0
  0
APPID
  5
166E
330
8
100
AcDbSymbolTableRecord
100
AcDbRegAppTableRecord
  2
AcadAnnotative
 70
     0
  0
APPID
  5
166F
330
8
100
AcDbSymbolTableRecord
100
AcDbRegAppTableRecord
  2
GradientColor1ACI
 70
     0
  0
APPID
  5
1670
330
8
100
AcDbSymbolTableRecord
100
AcDbRegAppTableRecord
  2
GradientColor2ACI
 70
     0
  0
APPID
  5
20FE
330
8
100
AcDbSymbolTableRecord
100
AcDbRegAppTableRecord
  2
AcLayerTools
 70
     0
  0
APPID
  5
27AB
330
8
100
AcDbSymbolTableRecord
100
AcDbRegAppTableRecord
  2
ACAD_DSTYLE_DIMRADIAL_EXTENSION
 70
     0
  0
ENDTAB
  0
TABLE
  2
DIMSTYLE
  5
9
330
0
100
AcDbSymbolTable
 70
     3
100
AcDbDimStyleTable
  0
DIMSTYLE
105
18
330
9
100
AcDbSymbolTableRecord
100
AcDbDimStyleTableRecord
  2
Standard
 70
     0
178
     0
340
17
  0
DIMSTYLE
105
56
102
{ACAD_REACTORS
330
3F2C
330
3F39
330
3F46
330
3F53
330
3F85
330
3F94
330
3FB9
330
3FC6
330
3FD3
330
3FE3
330
4002
330
403C
330
404A
330
405D
330
4070
330
41B5
330
41E2
330
41F1
330
4221
330
4238
330
4351
102
}
330
9
100
AcDbSymbolTableRecord
100
AcDbDimStyleTableRecord
  2
tform線あり
 70
     0
  3
<>
  4
[]
 41
9.999389648437498
 42
25.0
 43
0.9999999999999999
 44
0.0
 73
     0
 74
     0
 77
     1
 78
    11
140
24.4326171875
141
0.0
143
1.0
146
0.8
147
10.0
171
     1
172
     1
174
     1
178
     0
179
     2
271
     1
272
     1
276
     2
284
    11
285
    11
286
    11
289
     0
340
39
341
4E
342
4E
  0
DIMSTYLE
105
4260
330
9
100
AcDbSymbolTableRecord
100
AcDbDimStyleTableRecord
  2
JIS
 70
     0
  3
<>
  4
[]
 41
31.75
 42
0.0
 43
6.99999999999994
 44
19.9999999999962
 73
     0
 74
     0
 77
     1
 78
    11
140
24.4326171875
141
0.0
143
1.0
147
1.00000000000108
171
     1
174
     1
178
     0
179
     2
271
     1
272
     1
276
     2
284
    11
285
    11
286
    11
289
     0
340
39
341
4262
342
4262
  0
ENDTAB
  0
TABLE
  2
BLOCK_RECORD
  5
1
330
0
100
AcDbSymbolTable
 70
    53
  0
BLOCK_RECORD
  5
A
330
1
100
AcDbSymbolTableRecord
100
AcDbBlockTableRecord
  2
*MODEL_SPACE
340
20
 70
     0
280
     1
281
     0
  0
BLOCK_RECORD
  5
B
330
1
100
AcDbSymbolTableRecord
100
AcDbBlockTableRecord
  2
*PAPER_SPACE
340
21
 70
     0
280
     1
281
     0
  0
BLOCK_RECORD
  5
4E
330
1
100
AcDbSymbolTableRecord
100
AcDbBlockTableRecord
  2
_DOT
340
0
102
{BLKREFS
331
37C3
331
37C4
331
37CF
331
37D0
331
37DB
331
37DC
331
37F3
331
37F4
331
380D
331
380E
331
381A
331
381B
331
382D
331
382E
331
383A
331
383B
331
3855
331
3856
331
3F33
331
3F34
331
3F40
331
3F41
331
3F4D
331
3F4E
331
3F5A
331
3F5B
331
3F8E
331
3F8F
331
3F9D
331
3F9E
331
3FC0
331
3FC1
331
3FCD
331
3FCE
331
3FDA
331
3FDB
331
3FEA
331
3FEB
331
4009
331
400A
331
4018
331
4019
331
4027
331
4028
331
4036
331
4037
331
4043
331
4044
331
4051
331
4052
331
4064
331
4065
331
4079
331
407A
331
408E
331
408F
331
409D
331
409E
331
40AC
331
40AD
331
40BB
331
40BC
331
40CA
331
40CB
331
40DC
331
40DD
331
4106
331
4107
331
41AB
331
41AC
331
41BB
331
41BC
331
41DC
331
41DD
331
41EB
331
41EC
331
41FA
331
41FB
331
4209
331
420A
331
421B
331
421C
331
4228
331
4229
331
4241
331
4242
331
4359
331
4358
102
}
 70
     0
280
     1
281
     0
  0
BLOCK_RECORD
  5
3A5
330
1
100
AcDbSymbolTableRecord
100
AcDbBlockTableRecord
  2
名称未設定-1
340
0
102
{BLKREFS
331
3D0
102
}
 70
     1
280
     1
281
     0
  0
BLOCK_RECORD
  5
3A8
330
1
100
AcDbSymbolTableRecord
100
AcDbBlockTableRecord
  2
block 2
340
0
102
{BLKREFS
331
3A7
102
}
 70
     0
280
     1
281
     0
  0
BLOCK_RECORD
  5
3AB
330
1
100
AcDbSymbolTableRecord
100
AcDbBlockTableRecord
  2
block 3
340
0
102
{BLKREFS
331
3AA
102
}
 70
     0
280
     1
281
     0
  0
BLOCK_RECORD
  5
3AE
330
1
100
AcDbSymbolTableRecord
100
AcDbBlockTableRecord
  2
block 4
340
0
102
{BLKREFS
331
3AD
102
}
 70
     0
280
     1
281
     0
  0
BLOCK_RECORD
  5
3BD
330
1
100
AcDbSymbolTableRecord
100
AcDbBlockTableRecord
  2
block 5
340
0
102
{BLKREFS
331
3BC
102
}
 70
     0
280
     1
281
     0
  0
BLOCK_RECORD
  5
11F0
330
1
100
AcDbSymbolTableRecord
100
AcDbBlockTableRecord
  2
BLOCK_2
340
0
102
{BLKREFS
331
1273
331
127B
331
127C
102
}
 70
     0
280
     1
281
     0
  0
BLOCK_RECORD
  5
37BD
330
1
100
AcDbSymbolTableRecord
100
AcDbBlockTableRecord
  2
*D7
340
0
 70
     0
280
     1
281
     0
  0
BLOCK_RECORD
  5
37C9
330
1
100
AcDbSymbolTableRecord
100
AcDbBlockTableRecord
  2
*D8
340
0
 70
     0
280
     1
281
     0
  0
BLOCK_RECORD
  5
37D5
330
1
100
AcDbSymbolTableRecord
100
AcDbBlockTableRecord
  2
*D9
340
0
 70
     0
280
     1
281
     0
  0
BLOCK_RECORD
  5
37ED
330
1
100
AcDbSymbolTableRecord
100
AcDbBlockTableRecord
  2
*D10
340
0
 70
     0
280
     1
281
     0
  0
BLOCK_RECORD
  5
3807
330
1
100
AcDbSymbolTableRecord
100
AcDbBlockTableRecord
  2
*D11
340
0
 70
     0
280
     1
281
     0
  0
BLOCK_RECORD
  5
3814
330
1
100
AcDbSymbolTableRecord
100
AcDbBlockTableRecord
  2
*D12
340
0
 70
     0
280
     1
281
     0
  0
BLOCK_RECORD
  5
3827
330
1
100
AcDbSymbolTableRecord
100
AcDbBlockTableRecord
  2
*D13
340
0
 70
     0
280
     1
281
     0
  0
BLOCK_RECORD
  5
3834
330
1
100
AcDbSymbolTableRecord
100
AcDbBlockTableRecord
  2
*D14
340
0
 70
     0
280
     1
281
     0
  0
BLOCK_RECORD
  5
3850
330
1
100
AcDbSymbolTableRecord
100
AcDbBlockTableRecord
  2
*D15
340
0
 70
     0
280
     1
281
     0
  0
BLOCK_RECORD
  5
38B6
330
1
100
AcDbSymbolTableRecord
100
AcDbBlockTableRecord
  2
mobile_latù
340
0
310
2800000020000000200000000100080000000000000400000000000000000000000000000000000000000000000080000080000000808000800000008000800080800000C0C0C000C0DCC000F0CAA6000020400000206000002080000020A0000020C0000020E00000400000004020000040400000406000004080000040A0
310
000040C0000040E00000600000006020000060400000606000006080000060A0000060C0000060E00000800000008020000080400000806000008080000080A0000080C0000080E00000A0000000A0200000A0400000A0600000A0800000A0A00000A0C00000A0E00000C0000000C0200000C0400000C0600000C0800000C0
310
A00000C0C00000C0E00000E0000000E0200000E0400000E0600000E0800000E0A00000E0C00000E0E00040000000400020004000400040006000400080004000A0004000C0004000E00040200000402020004020400040206000402080004020A0004020C0004020E000404000004040200040404000404060004040800040
310
40A0004040C0004040E00040600000406020004060400040606000406080004060A0004060C0004060E00040800000408020004080400040806000408080004080A0004080C0004080E00040A0000040A0200040A0400040A0600040A0800040A0A00040A0C00040A0E00040C0000040C0200040C0400040C0600040C08000
310
40C0A00040C0C00040C0E00040E0000040E0200040E0400040E0600040E0800040E0A00040E0C00040E0E00080000000800020008000400080006000800080008000A0008000C0008000E00080200000802020008020400080206000802080008020A0008020C0008020E00080400000804020008040400080406000804080
310
008040A0008040C0008040E00080600000806020008060400080606000806080008060A0008060C0008060E00080800000808020008080400080806000808080008080A0008080C0008080E00080A0000080A0200080A0400080A0600080A0800080A0A00080A0C00080A0E00080C0000080C0200080C0400080C0600080C0
310
800080C0A00080C0C00080C0E00080E0000080E0200080E0400080E0600080E0800080E0A00080E0C00080E0E000C0000000C0002000C0004000C0006000C0008000C000A000C000C000C000E000C0200000C0202000C0204000C0206000C0208000C020A000C020C000C020E000C0400000C0402000C0404000C0406000C0
310
408000C040A000C040C000C040E000C0600000C0602000C0604000C0606000C0608000C060A000C060C000C060E000C0800000C0802000C0804000C0806000C0808000C080A000C080C000C080E000C0A00000C0A02000C0A04000C0A06000C0A08000C0A0A000C0A0C000C0A0E000C0C00000C0C02000C0C04000C0C06000
310
C0C08000C0C0A000F0FBFF00A4A0A000808080000000FF0000FF000000FFFF00FF000000FF00FF00FFFF0000FFFFFF0049494949494949494949494949494949494949494949494949494949494949494949494949494949494949494949494949494949494949494949494949494949494949494949494949494949494949
310
49494949494949494949494949494949494949494949494949494949494949494949494949494949494949494949494949494949494949494949494949494949494949494949494949494949494949494949FAFAFAFAFAFAFAFAFAFAFAFAFAFAFAFAFAFAFAFAFAFAFAFAFAFAFAFAFAFA4949FAFA4949494949494949494949
310
494949494949494949494949494949FAFA4949FAFA4949494949494949494949494949494949494949494949494949FAFA4949FAFA4949494949494949494949494949494949494949494949494949FAFA4949FAFA4949494949494949494949494949494949494949494949494949FAFA4949FAFA49494949494949494949
310
49494949494949494949494949494949FAFA4949FAFA4949494949494949494949494949494949494949494949494949FAFA4949FAFA4949494949494949494949494949494949494949494949494949FAFA4949FAFA4949494949494949494949494949494949494949494949494949FAFA4949FAFA494949494949494949
310
4949494949494949494949494949494949FAFA4949FAFA4949494949494949494949494949494949494949494949494949FAFA4949FAFA4949494949494949494949494949494949494949494949494949FAFA4949FAFA4949494949494949494949494949494949494949494949494949FAFA4949FAFA4949494949494949
310
494949494949494949494949494949494949FAFA4949FAFA4949494949494949494949494949494949494949494949494949FAFA4949FAFA4949494949494949494949494949494949494949494949494949FAFA4949FAFA4949494949494949494949494949494949494949494949494949FAFA4949FAFA49494949494949
310
49494949494949494949494949494949494949FAFA4949FAFAFAFAFAFAFAFAFAFAFAFAFAFAFAFAFAFAFAFAFAFAFAFAFAFAFAFAFAFA4949FAFAFAFAFAFAFAFAFAFAFAFAFAFAFAFAFAFAFAFAFAFAFAFAFAFAFAFAFAFA4949FAFA4949494949494949494949494949494949494949494949494949FAFA4949FAFAFAFAFAFAFAFA
310
FAFAFAFAFAFAFAFAFAFAFAFAFAFAFAFAFAFAFAFAFAFA494949494949494949494949494949494949494949494949494949494949494949494949494949494949494949494949494949494949494949494949494949494949494949494949494949494949494949494949494949494949494949494949494949494949494949
310
4949494949494949494949494949494949494949494949494949494949494949494949494949494949494949494949494949494949494949
102
{BLKREFS
331
3B99
102
}
 70
     4
280
     1
281
     0
  0
BLOCK_RECORD
  5
3F2D
330
1
100
AcDbSymbolTableRecord
100
AcDbBlockTableRecord
  2
*D17
340
0
 70
     0
280
     1
281
     0
  0
BLOCK_RECORD
  5
3F3A
330
1
100
AcDbSymbolTableRecord
100
AcDbBlockTableRecord
  2
*D18
340
0
 70
     0
280
     1
281
     0
  0
BLOCK_RECORD
  5
3F47
330
1
100
AcDbSymbolTableRecord
100
AcDbBlockTableRecord
  2
*D19
340
0
 70
     0
280
     1
281
     0
  0
BLOCK_RECORD
  5
3F54
330
1
100
AcDbSymbolTableRecord
100
AcDbBlockTableRecord
  2
*D20
340
0
 70
     0
280
     1
281
     0
  0
BLOCK_RECORD
  5
3F88
330
1
100
AcDbSymbolTableRecord
100
AcDbBlockTableRecord
  2
*D21
340
0
 70
     0
280
     1
281
     0
  0
BLOCK_RECORD
  5
3F97
330
1
100
AcDbSymbolTableRecord
100
AcDbBlockTableRecord
  2
*D22
340
0
 70
     0
280
     1
281
     0
  0
BLOCK_RECORD
  5
3FBA
330
1
100
AcDbSymbolTableRecord
100
AcDbBlockTableRecord
  2
*D23
340
0
 70
     0
280
     1
281
     0
  0
BLOCK_RECORD
  5
3FC7
330
1
100
AcDbSymbolTableRecord
100
AcDbBlockTableRecord
  2
*D24
340
0
 70
     0
280
     1
281
     0
  0
BLOCK_RECORD
  5
3FD4
330
1
100
AcDbSymbolTableRecord
100
AcDbBlockTableRecord
  2
*D25
340
0
 70
     0
280
     1
281
     0
  0
BLOCK_RECORD
  5
3FE4
330
1
100
AcDbSymbolTableRecord
100
AcDbBlockTableRecord
  2
*D26
340
0
 70
     0
280
     1
281
     0
  0
BLOCK_RECORD
  5
4003
330
1
100
AcDbSymbolTableRecord
100
AcDbBlockTableRecord
  2
*D27
340
0
 70
     0
280
     1
281
     0
  0
BLOCK_RECORD
  5
4012
330
1
100
AcDbSymbolTableRecord
100
AcDbBlockTableRecord
  2
*D28
340
0
 70
     0
280
     1
281
     0
  0
BLOCK_RECORD
  5
4021
330
1
100
AcDbSymbolTableRecord
100
AcDbBlockTableRecord
  2
*D29
340
0
 70
     0
280
     1
281
     0
  0
BLOCK_RECORD
  5
4030
330
1
100
AcDbSymbolTableRecord
100
AcDbBlockTableRecord
  2
*D30
340
0
 70
     0
280
     1
281
     0
  0
BLOCK_RECORD
  5
403D
330
1
100
AcDbSymbolTableRecord
100
AcDbBlockTableRecord
  2
*D31
340
0
 70
     0
280
     1
281
     0
  0
BLOCK_RECORD
  5
404B
330
1
100
AcDbSymbolTableRecord
100
AcDbBlockTableRecord
  2
*D32
340
0
 70
     0
280
     1
281
     0
  0
BLOCK_RECORD
  5
405E
330
1
100
AcDbSymbolTableRecord
100
AcDbBlockTableRecord
  2
*D33
340
0
 70
     0
280
     1
281
     0
  0
BLOCK_RECORD
  5
4073
330
1
100
AcDbSymbolTableRecord
100
AcDbBlockTableRecord
  2
*D34
340
0
 70
     0
280
     1
281
     0
  0
BLOCK_RECORD
  5
4088
330
1
100
AcDbSymbolTableRecord
100
AcDbBlockTableRecord
  2
*D35
340
0
 70
     0
280
     1
281
     0
  0
BLOCK_RECORD
  5
4097
330
1
100
AcDbSymbolTableRecord
100
AcDbBlockTableRecord
  2
*D36
340
0
 70
     0
280
     1
281
     0
  0
BLOCK_RECORD
  5
40A6
330
1
100
AcDbSymbolTableRecord
100
AcDbBlockTableRecord
  2
*D37
340
0
 70
     0
280
     1
281
     0
  0
BLOCK_RECORD
  5
40B3
330
1
100
AcDbSymbolTableRecord
100
AcDbBlockTableRecord
  2
*D38
340
0
 70
     0
280
     1
281
     0
  0
BLOCK_RECORD
  5
40C2
330
1
100
AcDbSymbolTableRecord
100
AcDbBlockTableRecord
  2
*D39
340
0
 70
     0
280
     1
281
     0
  0
BLOCK_RECORD
  5
40D6
330
1
100
AcDbSymbolTableRecord
100
AcDbBlockTableRecord
  2
*D40
340
0
 70
     0
280
     1
281
     0
  0
BLOCK_RECORD
  5
4100
330
1
100
AcDbSymbolTableRecord
100
AcDbBlockTableRecord
  2
*D41
340
0
 70
     0
280
     1
281
     0
  0
BLOCK_RECORD
  5
41A7
330
1
100
AcDbSymbolTableRecord
100
AcDbBlockTableRecord
  2
*D42
340
0
 70
     0
280
     1
281
     0
  0
BLOCK_RECORD
  5
41B6
330
1
100
AcDbSymbolTableRecord
100
AcDbBlockTableRecord
  2
*D43
340
0
 70
     0
280
     1
281
     0
  0
BLOCK_RECORD
  5
41D6
330
1
100
AcDbSymbolTableRecord
100
AcDbBlockTableRecord
  2
*D44
340
0
 70
     0
280
     1
281
     0
  0
BLOCK_RECORD
  5
41E5
330
1
100
AcDbSymbolTableRecord
100
AcDbBlockTableRecord
  2
*D45
340
0
 70
     0
280
     1
281
     0
  0
BLOCK_RECORD
  5
41F4
330
1
100
AcDbSymbolTableRecord
100
AcDbBlockTableRecord
  2
*D46
340
0
 70
     0
280
     1
281
     0
  0
BLOCK_RECORD
  5
4203
330
1
100
AcDbSymbolTableRecord
100
AcDbBlockTableRecord
  2
*D47
340
0
 70
     0
280
     1
281
     0
  0
BLOCK_RECORD
  5
4215
330
1
100
AcDbSymbolTableRecord
100
AcDbBlockTableRecord
  2
*D48
340
0
 70
     0
280
     1
281
     0
  0
BLOCK_RECORD
  5
4222
330
1
100
AcDbSymbolTableRecord
100
AcDbBlockTableRecord
  2
*D49
340
0
 70
     0
280
     1
281
     0
  0
BLOCK_RECORD
  5
423B
330
1
100
AcDbSymbolTableRecord
100
AcDbBlockTableRecord
  2
*D50
340
0
 70
     0
280
     1
281
     0
  0
BLOCK_RECORD
  5
4262
330
1
100
AcDbSymbolTableRecord
100
AcDbBlockTableRecord
  2
VW_FILLEDARROW
340
0
 70
     0
280
     1
281
     0
  0
BLOCK_RECORD
  5
4352
330
1
100
AcDbSymbolTableRecord
100
AcDbBlockTableRecord
  2
*D52
340
0
 70
     0
280
     1
281
     0
  0
ENDTAB
  0
ENDSEC
  0
SECTION
  2
BLOCKS
  0
BLOCK
  5
D
330
A
100
AcDbEntity
  8
0
390
1D
100
AcDbBlockBegin
  2
*MODEL_SPACE
 70
     0
 10
0.0
 20
0.0
 30
0.0
  3
*MODEL_SPACE
  1
*MODEL_SPACE
  0
ENDBLK
  5
E
330
A
100
AcDbEntity
  8
0
390
1D
100
AcDbBlockEnd
  0
BLOCK
  5
F
330
B
100
AcDbEntity
 67
     1
  8
0
390
1D
100
AcDbBlockBegin
  2
*PAPER_SPACE
 70
     0
 10
0.0
 20
0.0
 30
0.0
  3
*PAPER_SPACE
  1
*PAPER_SPACE
  0
ENDBLK
  5
10
330
B
100
AcDbEntity
 67
     1
  8
0
390
1D
100
AcDbBlockEnd
  0
BLOCK
  5
2C14
330
4E
100
AcDbEntity
  8
0
390
1D
100
AcDbBlockBegin
  2
_DOT
 70
     0
 10
0.0
 20
0.0
 30
0.0
  3
_DOT
  1
_DOT
  0
POLYLINE
  5
2C16
330
4E
100
AcDbEntity
  8
0
  6
ByBlock
 62
     0
370
    -2
390
1D
100
AcDb2dPolyline
 66
     1
 10
0.0
 20
0.0
 30
0.0
 70
     1
 40
0.5
 41
0.5
  0
VERTEX
  5
2C17
330
2C16
100
AcDbEntity
  8
0
  6
ByBlock
 62
     0
370
    -2
390
1D
100
AcDbVertex
100
AcDb2dVertex
 10
-0.25
 20
0.0
 30
0.0
 42
1.0
  0
VERTEX
  5
2C18
330
2C16
100
AcDbEntity
  8
0
  6
ByBlock
 62
     0
370
    -2
390
1D
100
AcDbVertex
100
AcDb2dVertex
 10
0.25
 20
0.0
 30
0.0
 42
1.0
  0
SEQEND
  5
2C19
330
2C16
100
AcDbEntity
  8
0
390
1D
  0
LINE
  5
2C1A
330
4E
100
AcDbEntity
  8
0
  6
ByBlock
 62
     0
370
    -2
390
1D
100
AcDbLine
 10
-0.5
 20
0.0
 30
0.0
 11
-1.0
 21
0.0
 31
0.0
  0
ENDBLK
  5
2C1B
330
4E
100
AcDbEntity
  8
0
390
1D
100
AcDbBlockEnd
  0
BLOCK
  5
3A6
330
3A5
100
AcDbEntity
  8
0
100
AcDbBlockBegin
  2
名称未設定-1
 70
     0
 10
0.0
 20
0.0
 30
0.0
  3
名称未設定-1
  1
名称未設定-1
  0
INSERT
  5
3A7
330
3A5
100
AcDbEntity
  8
レイヤー 1
100
AcDbBlockReference
  2
block 2
 10
0.0
 20
0.0
 30
0.0
  0
ENDBLK
  5
3CC
330
3A5
100
AcDbEntity
  8
0
100
AcDbBlockEnd
  0
BLOCK
  5
3A9
330
3A8
100
AcDbEntity
  8
0
100
AcDbBlockBegin
  2
block 2
 70
     0
 10
0.0
 20
0.0
 30
0.0
  3
block 2
  1
block 2
  0
INSERT
  5
3AA
330
3A8
100
AcDbEntity
  8
レイヤー 1
100
AcDbBlockReference
  2
block 3
 10
0.0
 20
0.0
 30
0.0
  0
ENDBLK
  5
3CB
330
3A8
100
AcDbEntity
  8
0
100
AcDbBlockEnd
  0
BLOCK
  5
3AC
330
3AB
100
AcDbEntity
  8
0
100
AcDbBlockBegin
  2
block 3
 70
     0
 10
0.0
 20
0.0
 30
0.0
  3
block 3
  1
block 3
  0
INSERT
  5
3AD
330
3AB
100
AcDbEntity
  8
レイヤー 1
100
AcDbBlockReference
  2
block 4
 10
0.0
 20
0.0
 30
0.0
  0
ENDBLK
  5
3CA
330
3AB
100
AcDbEntity
  8
0
100
AcDbBlockEnd
  0
BLOCK
  5
3AF
330
3AE
100
AcDbEntity
  8
0
100
AcDbBlockBegin
  2
block 4
 70
     0
 10
0.0
 20
0.0
 30
0.0
  3
block 4
  1
block 4
  0
POLYLINE
  5
3B0
330
3AE
100
AcDbEntity
  8
レイヤー 1
370
     0
100
AcDb2dPolyline
 66
     1
 10
0.0
 20
0.0
 30
0.0
  0
VERTEX
  5
3B1
330
3B0
100
AcDbEntity
  8
レイヤー 1
370
     0
100
AcDbVertex
100
AcDb2dVertex
 10
83.79545727667795
 20
167.6444858234922
 30
0.0
  0
VERTEX
  5
3B2
330
3B0
100
AcDbEntity
  8
レイヤー 1
370
     0
100
AcDbVertex
100
AcDb2dVertex
 10
83.79545727667795
 20
159.7968976406313
 30
0.0
  0
VERTEX
  5
3B3
330
3B0
100
AcDbEntity
  8
レイヤー 1
370
     0
100
AcDbVertex
100
AcDb2dVertex
 10
71.3631329975216
 20
159.7968976406313
 30
0.0
  0
VERTEX
  5
3B4
330
3B0
100
AcDbEntity
  8
レイヤー 1
370
     0
100
AcDbVertex
100
AcDb2dVertex
 10
71.3631329975216
 20
127.8027915271048
 30
0.0
  0
VERTEX
  5
3B5
330
3B0
100
AcDbEntity
  8
レイヤー 1
370
     0
100
AcDbVertex
100
AcDb2dVertex
 10
60.43011526263018
 20
127.8027915271048
 30
0.0
  0
VERTEX
  5
3B6
330
3B0
100
AcDbEntity
  8
レイヤー 1
370
     0
100
AcDbVertex
100
AcDb2dVertex
 10
60.43011526263018
 20
159.7968976406313
 30
0.0
  0
VERTEX
  5
3B7
330
3B0
100
AcDbEntity
  8
レイヤー 1
370
     0
100
AcDbVertex
100
AcDb2dVertex
 10
48.21793273020759
 20
159.7968976406313
 30
0.0
  0
VERTEX
  5
3B8
330
3B0
100
AcDbEntity
  8
レイヤー 1
370
     0
100
AcDbVertex
100
AcDb2dVertex
 10
48.21793273020759
 20
167.6444858234922
 30
0.0
  0
VERTEX
  5
3B9
330
3B0
100
AcDbEntity
  8
レイヤー 1
370
     0
100
AcDbVertex
100
AcDb2dVertex
 10
83.79545727667795
 20
167.6444858234922
 30
0.0
  0
SEQEND
  5
3BA
330
3B0
100
AcDbEntity
  8
レイヤー 1
370
     0
  0
HATCH
  5
3BB
330
3AE
100
AcDbEntity
  8
レイヤー 1
 62
   250
420
  2234388
100
AcDbHatch
 10
0.0
 20
0.0
 30
0.0
210
0.0
220
0.0
230
1.0
  2
SOLID
 70
     1
 71
     0
 91
        1
 92
        1
 93
        8
 72
     1
 10
83.79545727667795
 20
167.6444858234922
 11
83.79545727667795
 21
159.7968976406313
 72
     1
 10
83.79545727667795
 20
159.7968976406313
 11
71.3631329975216
 21
159.7968976406313
 72
     1
 10
71.3631329975216
 20
159.7968976406313
 11
71.3631329975216
 21
127.8027915271048
 72
     1
 10
71.3631329975216
 20
127.8027915271048
 11
60.43011526263018
 21
127.8027915271048
 72
     1
 10
60.43011526263018
 20
127.8027915271048
 11
60.43011526263018
 21
159.7968976406313
 72
     1
 10
60.43011526263018
 20
159.7968976406313
 11
48.21793273020759
 21
159.7968976406313
 72
     1
 10
48.21793273020759
 20
159.7968976406313
 11
48.21793273020759
 21
167.6444858234922
 72
     1
 10
48.21793273020759
 20
167.6444858234922
 11
83.79545727667795
 21
167.6444858234922
 97
        0
 75
     2
 76
     1
 98
        0
  0
INSERT
  5
3BC
330
3AE
100
AcDbEntity
  8
レイヤー 1
100
AcDbBlockReference
  2
block 5
 10
0.0
 20
0.0
 30
0.0
  0
ENDBLK
  5
3C9
330
3AE
100
AcDbEntity
  8
0
100
AcDbBlockEnd
  0
BLOCK
  5
3BE
330
3BD
100
AcDbEntity
  8
0
100
AcDbBlockBegin
  2
block 5
 70
     0
 10
0.0
 20
0.0
 30
0.0
  3
block 5
  1
block 5
  0
SPLINE
  5
3BF
330
3BD
100
AcDbEntity
  8
レイヤー 1
370
     0
100
AcDbSpline
210
0.0
220
0.0
230
1.0
 70
    11
 71
     3
 72
    56
 73
    52
 74
     0
 42
0.000000001
 43
0.0000000001
 40
0.0
 40
0.0
 40
0.0
 40
0.0
 40
1.0
 40
1.0
 40
1.0
 40
2.0
 40
2.0
 40
2.0
 40
3.0
 40
3.0
 40
3.0
 40
4.0
 40
4.0
 40
4.0
 40
5.0
 40
5.0
 40
5.0
 40
6.0
 40
6.0
 40
6.0
 40
7.0
 40
7.0
 40
7.0
 40
8.0
 40
8.0
 40
8.0
 40
9.0
 40
9.0
 40
9.0
 40
10.0
 40
10.0
 40
10.0
 40
11.0
 40
11.0
 40
11.0
 40
12.0
 40
12.0
 40
12.0
 40
13.0
 40
13.0
 40
13.0
 40
14.0
 40
14.0
 40
14.0
 40
15.0
 40
15.0
 40
15.0
 40
16.0
 40
16.0
 40
16.0
 40
17.0
 40
17.0
 40
17.0
 40
17.0
 10
100.4504378777679
 20
166.69157178364
 30
0.0
 10
101.9848844191641
 20
167.1313385124438
 30
0.0
 10
103.9637485713373
 20
166.7649523658846
 30
0.0
 10
103.9637485713373
 20
166.7649523658846
 30
0.0
 10
103.9637485713373
 20
166.7649523658846
 30
0.0
 10
103.0132460999156
 20
163.911205638077
 30
0.0
 10
103.0132460999156
 20
163.911205638077
 30
0.0
 10
103.0132460999156
 20
163.911205638077
 30
0.0
 10
101.0674548862189
 20
164.3601018759394
 30
0.0
 10
99.57090442016032
 20
163.1805004036133
 30
0.0
 10
98.40508333886608
 20
162.258247733807
 30
0.0
 10
97.65301849830304
 20
159.804132345923
 30
0.0
 10
97.3598406791005
 20
158.8699940888517
 30
0.0
 10
97.3598406791005
 20
158.8699940888517
 30
0.0
 10
96.07137411762282
 20
154.9119212747295
 30
0.0
 10
96.07137411762282
 20
154.9119212747295
 30
0.0
 10
96.07137411762282
 20
154.9119212747295
 30
0.0
 10
100.3012651448482
 20
154.9119212747295
 30
0.0
 10
100.3012651448482
 20
154.9119212747295
 30
0.0
 10
100.3012651448482
 20
154.9119212747295
 30
0.0
 10
99.64152892419852
 20
152.4199098115079
 30
0.0
 10
99.64152892419852
 20
152.4199098115079
 30
0.0
 10
99.64152892419852
 20
152.4199098115079
 30
0.0
 10
95.38097652692731
 20
152.4199098115079
 30
0.0
 10
95.38097652692731
 20
152.4199098115079
 30
0.0
 10
95.38097652692731
 20
152.4199098115079
 30
0.0
 10
87.75353009080013
 20
127.8027915271048
 30
0.0
 10
87.75353009080013
 20
127.8027915271048
 30
0.0
 10
87.75353009080013
 20
127.8027915271048
 30
0.0
 10
85.36538832498108
 20
127.8027915271048
 30
0.0
 10
85.36538832498108
 20
127.8027915271048
 30
0.0
 10
85.36538832498108
 20
127.8027915271048
 30
0.0
 10
93.00006946639998
 20
152.4199098115079
 30
0.0
 10
93.00006946639998
 20
152.4199098115079
 30
0.0
 10
93.00006946639998
 20
152.4199098115079
 30
0.0
 10
89.85297266450198
 20
152.4199098115079
 30
0.0
 10
89.85297266450198
 20
152.4199098115079
 30
0.0
 10
89.85297266450198
 20
152.4199098115079
 30
0.0
 10
90.51270888515164
 20
154.9119212747295
 30
0.0
 10
90.51270888515164
 20
154.9119212747295
 30
0.0
 10
90.51270888515164
 20
154.9119212747295
 30
0.0
 10
93.6904670570955
 20
154.9119212747295
 30
0.0
 10
93.6904670570955
 20
154.9119212747295
 30
0.0
 10
93.6904670570955
 20
154.9119212747295
 30
0.0
 10
94.81598049462158
 20
158.3616699146644
 30
0.0
 10
94.81598049462158
 20
158.3616699146644
 30
0.0
 10
95.7237637538445
 20
161.2605474231013
 30
0.0
 10
96.4968436907311
 20
162.8139420021662
 30
0.0
 10
97.15657991138076
 20
163.9844139654337
 30
0.0
 10
97.81183750494507
 20
165.1523021053827
 30
0.0
 10
99.1047826935081
 20
166.3084769129547
 30
0.0
 10
100.4504378777679
 20
166.69157178364
 30
0.0
  0
HATCH
  5
3C0
330
3BD
100
AcDbEntity
  8
レイヤー 1
 62
   250
420
  2234388
100
AcDbHatch
 10
0.0
 20
0.0
 30
0.0
210
0.0
220
0.0
230
1.0
  2
SOLID
 70
     1
 71
     0
 91
        1
 92
        1
 93
        1
 72
     4
 94
        3
 73
     0
 74
     1
 95
       56
 96
       52
 40
0.0
 40
0.0
 40
0.0
 40
0.0
 40
1.0
 40
1.0
 40
1.0
 40
2.0
 40
2.0
 40
2.0
 40
3.0
 40
3.0
 40
3.0
 40
4.0
 40
4.0
 40
4.0
 40
5.0
 40
5.0
 40
5.0
 40
6.0
 40
6.0
 40
6.0
 40
7.0
 40
7.0
 40
7.0
 40
8.0
 40
8.0
 40
8.0
 40
9.0
 40
9.0
 40
9.0
 40
10.0
 40
10.0
 40
10.0
 40
11.0
 40
11.0
 40
11.0
 40
12.0
 40
12.0
 40
12.0
 40
13.0
 40
13.0
 40
13.0
 40
14.0
 40
14.0
 40
14.0
 40
15.0
 40
15.0
 40
15.0
 40
16.0
 40
16.0
 40
16.0
 40
17.0
 40
17.0
 40
17.0
 40
17.0
 10
100.4504378777679
 20
166.69157178364
 10
101.9848844191641
 20
167.1313385124438
 10
103.9637485713373
 20
166.7649523658846
 10
103.9637485713373
 20
166.7649523658846
 10
103.9637485713373
 20
166.7649523658846
 10
103.0132460999156
 20
163.911205638077
 10
103.0132460999156
 20
163.911205638077
 10
103.0132460999156
 20
163.911205638077
 10
101.0674548862189
 20
164.3601018759394
 10
99.57090442016032
 20
163.1805004036133
 10
98.40508333886608
 20
162.258247733807
 10
97.65301849830304
 20
159.804132345923
 10
97.3598406791005
 20
158.8699940888517
 10
97.3598406791005
 20
158.8699940888517
 10
96.07137411762282
 20
154.9119212747295
 10
96.07137411762282
 20
154.9119212747295
 10
96.07137411762282
 20
154.9119212747295
 10
100.3012651448482
 20
154.9119212747295
 10
100.3012651448482
 20
154.9119212747295
 10
100.3012651448482
 20
154.9119212747295
 10
99.64152892419852
 20
152.4199098115079
 10
99.64152892419852
 20
152.4199098115079
 10
99.64152892419852
 20
152.4199098115079
 10
95.38097652692731
 20
152.4199098115079
 10
95.38097652692731
 20
152.4199098115079
 10
95.38097652692731
 20
152.4199098115079
 10
87.75353009080013
 20
127.8027915271048
 10
87.75353009080013
 20
127.8027915271048
 10
87.75353009080013
 20
127.8027915271048
 10
85.36538832498108
 20
127.8027915271048
 10
85.36538832498108
 20
127.8027915271048
 10
85.36538832498108
 20
127.8027915271048
 10
93.00006946639998
 20
152.4199098115079
 10
93.00006946639998
 20
152.4199098115079
 10
93.00006946639998
 20
152.4199098115079
 10
89.85297266450198
 20
152.4199098115079
 10
89.85297266450198
 20
152.4199098115079
 10
89.85297266450198
 20
152.4199098115079
 10
90.51270888515164
 20
154.9119212747295
 10
90.51270888515164
 20
154.9119212747295
 10
90.51270888515164
 20
154.9119212747295
 10
93.6904670570955
 20
154.9119212747295
 10
93.6904670570955
 20
154.9119212747295
 10
93.6904670570955
 20
154.9119212747295
 10
94.81598049462158
 20
158.3616699146644
 10
94.81598049462158
 20
158.3616699146644
 10
95.7237637538445
 20
161.2605474231013
 10
96.4968436907311
 20
162.8139420021662
 10
97.15657991138076
 20
163.9844139654337
 10
97.81183750494507
 20
165.1523021053827
 10
99.1047826935081
 20
166.3084769129547
 10
100.4504378777679
 20
166.69157178364
 97
        0
 75
     2
 76
     1
 98
        0
  0
SPLINE
  5
3C1
330
3BD
100
AcDbEntity
  8
レイヤー 1
370
     0
100
AcDbSpline
210
0.0
220
0.0
230
1.0
 70
    11
 71
     3
 72
    38
 73
    34
 74
     0
 42
0.000000001
 43
0.0000000001
 40
0.0
 40
0.0
 40
0.0
 40
0.0
 40
1.0
 40
1.0
 40
1.0
 40
2.0
 40
2.0
 40
2.0
 40
3.0
 40
3.0
 40
3.0
 40
4.0
 40
4.0
 40
4.0
 40
5.0
 40
5.0
 40
5.0
 40
6.0
 40
6.0
 40
6.0
 40
7.0
 40
7.0
 40
7.0
 40
8.0
 40
8.0
 40
8.0
 40
9.0
 40
9.0
 40
9.0
 40
10.0
 40
10.0
 40
10.0
 40
11.0
 40
11.0
 40
11.0
 40
11.0
 10
126.377554584636
 20
154.8151140277308
 30
0.0
 10
126.377554584636
 20
154.8151140277308
 30
0.0
 10
128.8311532078563
 20
154.8151140277308
 30
0.0
 10
128.8311532078563
 20
154.8151140277308
 30
0.0
 10
128.8311532078563
 20
154.8151140277308
 30
0.0
 10
127.7345785914971
 20
151.3062819612468
 30
0.0
 10
127.7345785914971
 20
151.3062819612468
 30
0.0
 10
128.571392836906
 20
152.2922689395754
 30
0.0
 10
129.8860421413442
 20
153.604506675583
 30
0.0
 10
131.0163787157314
 20
154.2664822097754
 30
0.0
 10
132.7044766171327
 20
155.2500576196734
 30
0.0
 10
133.6642808525008
 20
155.3847609420097
 30
0.0
 10
134.7284715499351
 20
155.3565111403944
 30
0.0
 10
134.7284715499351
 20
155.3565111403944
 30
0.0
 10
133.6877075172549
 20
152.0345756272799
 30
0.0
 10
133.6877075172549
 20
152.0345756272799
 30
0.0
 10
133.011434827367
 20
152.3184516825359
 30
0.0
 10
130.930940291334
 20
151.7768823149844
 30
0.0
 10
129.739280976855
 20
150.9162968950455
 30
0.0
 10
128.66613302525
 20
150.1454562717016
 30
0.0
 10
127.9192358313239
 20
149.4857200510519
 30
0.0
 10
127.0393578639405
 20
147.8282835196966
 30
0.0
 10
126.164647543194
 20
146.1699857139017
 30
0.0
 10
125.4742499524985
 20
143.5262176944419
 30
0.0
 10
124.2822461282437
 20
139.6959580071401
 30
0.0
 10
124.2822461282437
 20
139.6959580071401
 30
0.0
 10
120.5753209406769
 20
127.8027915271048
 30
0.0
 10
120.5753209406769
 20
127.8027915271048
 30
0.0
 10
120.5753209406769
 20
127.8027915271048
 30
0.0
 10
118.1964809388044
 20
127.8027915271048
 30
0.0
 10
118.1964809388044
 20
127.8027915271048
 30
0.0
 10
118.1964809388044
 20
127.8027915271048
 30
0.0
 10
126.377554584636
 20
154.8151140277308
 30
0.0
 10
126.377554584636
 20
154.8151140277308
 30
0.0
  0
HATCH
  5
3C2
330
3BD
100
AcDbEntity
  8
レイヤー 1
 62
   250
420
  2234388
100
AcDbHatch
 10
0.0
 20
0.0
 30
0.0
210
0.0
220
0.0
230
1.0
  2
SOLID
 70
     1
 71
     0
 91
        1
 92
        1
 93
        1
 72
     4
 94
        3
 73
     0
 74
     1
 95
       38
 96
       34
 40
0.0
 40
0.0
 40
0.0
 40
0.0
 40
1.0
 40
1.0
 40
1.0
 40
2.0
 40
2.0
 40
2.0
 40
3.0
 40
3.0
 40
3.0
 40
4.0
 40
4.0
 40
4.0
 40
5.0
 40
5.0
 40
5.0
 40
6.0
 40
6.0
 40
6.0
 40
7.0
 40
7.0
 40
7.0
 40
8.0
 40
8.0
 40
8.0
 40
9.0
 40
9.0
 40
9.0
 40
10.0
 40
10.0
 40
10.0
 40
11.0
 40
11.0
 40
11.0
 40
11.0
 10
126.377554584636
 20
154.8151140277308
 10
126.377554584636
 20
154.8151140277308
 10
128.8311532078563
 20
154.8151140277308
 10
128.8311532078563
 20
154.8151140277308
 10
128.8311532078563
 20
154.8151140277308
 10
127.7345785914971
 20
151.3062819612468
 10
127.7345785914971
 20
151.3062819612468
 10
128.571392836906
 20
152.2922689395754
 10
129.8860421413442
 20
153.604506675583
 10
131.0163787157314
 20
154.2664822097754
 10
132.7044766171327
 20
155.2500576196734
 10
133.6642808525008
 20
155.3847609420097
 10
134.7284715499351
 20
155.3565111403944
 10
134.7284715499351
 20
155.3565111403944
 10
133.6877075172549
 20
152.0345756272799
 10
133.6877075172549
 20
152.0345756272799
 10
133.011434827367
 20
152.3184516825359
 10
130.930940291334
 20
151.7768823149844
 10
129.739280976855
 20
150.9162968950455
 10
128.66613302525
 20
150.1454562717016
 10
127.9192358313239
 20
149.4857200510519
 10
127.0393578639405
 20
147.8282835196966
 10
126.164647543194
 20
146.1699857139017
 10
125.4742499524985
 20
143.5262176944419
 10
124.2822461282437
 20
139.6959580071401
 10
124.2822461282437
 20
139.6959580071401
 10
120.5753209406769
 20
127.8027915271048
 10
120.5753209406769
 20
127.8027915271048
 10
120.5753209406769
 20
127.8027915271048
 10
118.1964809388044
 20
127.8027915271048
 10
118.1964809388044
 20
127.8027915271048
 10
118.1964809388044
 20
127.8027915271048
 10
126.377554584636
 20
154.8151140277308
 10
126.377554584636
 20
154.8151140277308
 97
        0
 75
     2
 76
     1
 98
        0
  0
SPLINE
  5
3C3
330
3BD
100
AcDbEntity
  8
レイヤー 1
370
     0
100
AcDbSpline
210
0.0
220
0.0
230
1.0
 70
    11
 71
     3
 72
   104
 73
   100
 74
     0
 42
0.000000001
 43
0.0000000001
 40
0.0
 40
0.0
 40
0.0
 40
0.0
 40
1.0
 40
1.0
 40
1.0
 40
2.0
 40
2.0
 40
2.0
 40
3.0
 40
3.0
 40
3.0
 40
4.0
 40
4.0
 40
4.0
 40
5.0
 40
5.0
 40
5.0
 40
6.0
 40
6.0
 40
6.0
 40
7.0
 40
7.0
 40
7.0
 40
8.0
 40
8.0
 40
8.0
 40
9.0
 40
9.0
 40
9.0
 40
10.0
 40
10.0
 40
10.0
 40
11.0
 40
11.0
 40
11.0
 40
12.0
 40
12.0
 40
12.0
 40
13.0
 40
13.0
 40
13.0
 40
14.0
 40
14.0
 40
14.0
 40
15.0
 40
15.0
 40
15.0
 40
16.0
 40
16.0
 40
16.0
 40
17.0
 40
17.0
 40
17.0
 40
18.0
 40
18.0
 40
18.0
 40
19.0
 40
19.0
 40
19.0
 40
20.0
 40
20.0
 40
20.0
 40
21.0
 40
21.0
 40
21.0
 40
22.0
 40
22.0
 40
22.0
 40
23.0
 40
23.0
 40
23.0
 40
24.0
 40
24.0
 40
24.0
 40
25.0
 40
25.0
 40
25.0
 40
26.0
 40
26.0
 40
26.0
 40
27.0
 40
27.0
 40
27.0
 40
28.0
 40
28.0
 40
28.0
 40
29.0
 40
29.0
 40
29.0
 40
30.0
 40
30.0
 40
30.0
 40
31.0
 40
31.0
 40
31.0
 40
32.0
 40
32.0
 40
32.0
 40
33.0
 40
33.0
 40
33.0
 40
33.0
 10
139.8926730891197
 20
154.8294111834263
 30
0.0
 10
139.8926730891197
 20
154.8294111834263
 30
0.0
 10
142.0344903652445
 20
154.8294111834263
 30
0.0
 10
142.0344903652445
 20
154.8294111834263
 30
0.0
 10
142.0344903652445
 20
154.8294111834263
 30
0.0
 10
140.9516961399171
 20
151.3157559800812
 30
0.0
 10
140.9516961399171
 20
151.3157559800812
 30
0.0
 10
141.8928968473923
 20
152.7887075264977
 30
0.0
 10
142.7341897198865
 20
153.4484437471474
 30
0.0
 10
143.8552245303272
 20
154.2926649527359
 30
0.0
 10
144.9803934580775
 20
155.1296514530327
 30
0.0
 10
146.3139908001845
 20
155.3044901642492
 30
0.0
 10
147.241066606852
 20
155.3044901642492
 30
0.0
 10
148.3855280820469
 20
155.3044901642492
 30
0.0
 10
149.4969166187653
 20
155.0752189084569
 30
0.0
 10
150.0784491203092
 20
153.8172414621372
 30
0.0
 10
150.5228667310863
 20
152.833838307127
 30
0.0
 10
150.5414702589793
 20
152.7201500811143
 30
0.0
 10
150.4140016419347
 20
150.7765981809602
 30
0.0
 10
151.5818897818837
 20
152.7699317437168
 30
0.0
 10
152.4424752018226
 20
153.6256940267945
 30
0.0
 10
153.9038856707499
 20
154.4507949398263
 30
0.0
 10
155.4455669174378
 20
155.3044901642492
 30
0.0
 10
156.339225275853
 20
155.3659851592288
 30
0.0
 10
157.3748216618963
 20
155.2147453676543
 30
0.0
 10
158.911679771723
 20
154.9877134254046
 30
0.0
 10
159.8859534176746
 20
154.4390816074493
 30
0.0
 10
160.3965169054045
 20
152.7816450760939
 30
0.0
 10
160.9070803931344
 20
151.1219692311958
 30
0.0
 10
160.6328506116007
 20
150.2303779314354
 30
0.0
 10
159.9992971339115
 20
147.597634224801
 30
0.0
 10
159.7105979417943
 20
146.4014962832367
 30
0.0
 10
159.2947746424084
 20
144.9400858143094
 30
0.0
 10
158.7463150793409
 20
143.2092687007094
 30
0.0
 10
158.7463150793409
 20
143.2092687007094
 30
0.0
 10
153.9038856707499
 20
127.8027915271048
 30
0.0
 10
153.9038856707499
 20
127.8027915271048
 30
0.0
 10
153.9038856707499
 20
127.8027915271048
 30
0.0
 10
151.3882752878863
 20
127.8027915271048
 30
0.0
 10
151.3882752878863
 20
127.8027915271048
 30
0.0
 10
151.3882752878863
 20
127.8027915271048
 30
0.0
 10
155.6250565106276
 20
141.2751908193897
 30
0.0
 10
155.6250565106276
 20
141.2751908193897
 30
0.0
 10
156.5094131050963
 20
144.0936252951782
 30
0.0
 10
157.109893644309
 20
146.1506931664571
 30
0.0
 10
157.4220195011804
 20
147.4415712963654
 30
0.0
 10
157.8095929989511
 20
149.0530157726519
 30
0.0
 10
157.9656559273867
 20
149.5826995529385
 30
0.0
 10
157.7816877071116
 20
150.7529992613181
 30
0.0
 10
157.6111553680925
 20
151.8430281919372
 30
0.0
 10
157.0582171779396
 20
152.5547853887321
 30
0.0
 10
156.1170164704645
 20
152.5547853887321
 30
0.0
 10
155.1096698860365
 20
152.5547853887321
 30
0.0
 10
154.2962823053817
 20
152.4412694176073
 30
0.0
 10
153.156643967048
 20
151.2945686288697
 30
0.0
 10
152.0170056287143
 20
150.1476955852443
 30
0.0
 10
151.076149431015
 20
148.7930831468137
 30
0.0
 10
150.3337308641742
 20
147.2290087646991
 30
0.0
 10
149.5957909244188
 20
145.6683794803425
 30
0.0
 10
148.8530278478023
 20
143.6822806228776
 30
0.0
 10
148.0964843801539
 20
141.2751908193897
 30
0.0
 10
148.0964843801539
 20
141.2751908193897
 30
0.0
 10
143.8552245303272
 20
127.8027915271048
 30
0.0
 10
143.8552245303272
 20
127.8027915271048
 30
0.0
 10
143.8552245303272
 20
127.8027915271048
 30
0.0
 10
141.486030802177
 20
127.8027915271048
 30
0.0
 10
141.486030802177
 20
127.8027915271048
 30
0.0
 10
141.486030802177
 20
127.8027915271048
 30
0.0
 10
146.3329388378533
 20
143.2092687007094
 30
0.0
 10
146.3329388378533
 20
143.2092687007094
 30
0.0
 10
146.8483254624444
 20
144.8408669988801
 30
0.0
 10
147.2314203331297
 20
146.1837661049335
 30
0.0
 10
147.4867020769946
 20
147.224185627838
 30
0.0
 10
147.9169947869641
 20
149.0197705792876
 30
0.0
 10
148.0306830129768
 20
150.2400242051577
 30
0.0
 10
147.709255392159
 20
151.3157559800812
 30
0.0
 10
147.3874832615654
 20
152.3916600098926
 30
0.0
 10
146.8245542879144
 20
152.6683013598569
 30
0.0
 10
145.8840425999909
 20
152.6683013598569
 30
0.0
 10
145.0989048209514
 20
152.6683013598569
 30
0.0
 10
144.3282364524954
 20
152.3275811915945
 30
0.0
 10
143.4531816219731
 20
151.6538923250251
 30
0.0
 10
142.34627171234
 20
150.8074318058939
 30
0.0
 10
141.901854101563
 20
150.1097995099067
 30
0.0
 10
141.3578731655808
 20
149.289521733736
 30
0.0
 10
140.6299240093235
 20
148.192602607601
 30
0.0
 10
140.2850697237515
 20
147.455696197173
 30
0.0
 10
139.6652966370942
 20
145.8385673095858
 30
0.0
 10
139.0506911970739
 20
144.2214384219986
 30
0.0
 10
138.463991048893
 20
142.3252566160164
 30
0.0
 10
138.0571250036777
 20
141.0154304484394
 30
0.0
 10
138.0571250036777
 20
141.0154304484394
 30
0.0
 10
133.9009590684727
 20
127.8027915271048
 30
0.0
 10
133.9009590684727
 20
127.8027915271048
 30
0.0
 10
133.9009590684727
 20
127.8027915271048
 30
0.0
 10
131.4180771143097
 20
127.8027915271048
 30
0.0
 10
131.4180771143097
 20
127.8027915271048
 30
0.0
 10
131.4180771143097
 20
127.8027915271048
 30
0.0
 10
139.8926730891197
 20
154.8294111834263
 30
0.0
 10
139.8926730891197
 20
154.8294111834263
 30
0.0
  0
HATCH
  5
3C4
330
3BD
100
AcDbEntity
  8
レイヤー 1
 62
   250
420
  2234388
100
AcDbHatch
 10
0.0
 20
0.0
 30
0.0
210
0.0
220
0.0
230
1.0
  2
SOLID
 70
     1
 71
     0
 91
        1
 92
        1
 93
        1
 72
     4
 94
        3
 73
     0
 74
     1
 95
      104
 96
      100
 40
0.0
 40
0.0
 40
0.0
 40
0.0
 40
1.0
 40
1.0
 40
1.0
 40
2.0
 40
2.0
 40
2.0
 40
3.0
 40
3.0
 40
3.0
 40
4.0
 40
4.0
 40
4.0
 40
5.0
 40
5.0
 40
5.0
 40
6.0
 40
6.0
 40
6.0
 40
7.0
 40
7.0
 40
7.0
 40
8.0
 40
8.0
 40
8.0
 40
9.0
 40
9.0
 40
9.0
 40
10.0
 40
10.0
 40
10.0
 40
11.0
 40
11.0
 40
11.0
 40
12.0
 40
12.0
 40
12.0
 40
13.0
 40
13.0
 40
13.0
 40
14.0
 40
14.0
 40
14.0
 40
15.0
 40
15.0
 40
15.0
 40
16.0
 40
16.0
 40
16.0
 40
17.0
 40
17.0
 40
17.0
 40
18.0
 40
18.0
 40
18.0
 40
19.0
 40
19.0
 40
19.0
 40
20.0
 40
20.0
 40
20.0
 40
21.0
 40
21.0
 40
21.0
 40
22.0
 40
22.0
 40
22.0
 40
23.0
 40
23.0
 40
23.0
 40
24.0
 40
24.0
 40
24.0
 40
25.0
 40
25.0
 40
25.0
 40
26.0
 40
26.0
 40
26.0
 40
27.0
 40
27.0
 40
27.0
 40
28.0
 40
28.0
 40
28.0
 40
29.0
 40
29.0
 40
29.0
 40
30.0
 40
30.0
 40
30.0
 40
31.0
 40
31.0
 40
31.0
 40
32.0
 40
32.0
 40
32.0
 40
33.0
 40
33.0
 40
33.0
 40
33.0
 10
139.8926730891197
 20
154.8294111834263
 10
139.8926730891197
 20
154.8294111834263
 10
142.0344903652445
 20
154.8294111834263
 10
142.0344903652445
 20
154.8294111834263
 10
142.0344903652445
 20
154.8294111834263
 10
140.9516961399171
 20
151.3157559800812
 10
140.9516961399171
 20
151.3157559800812
 10
141.8928968473923
 20
152.7887075264977
 10
142.7341897198865
 20
153.4484437471474
 10
143.8552245303272
 20
154.2926649527359
 10
144.9803934580775
 20
155.1296514530327
 10
146.3139908001845
 20
155.3044901642492
 10
147.241066606852
 20
155.3044901642492
 10
148.3855280820469
 20
155.3044901642492
 10
149.4969166187653
 20
155.0752189084569
 10
150.0784491203092
 20
153.8172414621372
 10
150.5228667310863
 20
152.833838307127
 10
150.5414702589793
 20
152.7201500811143
 10
150.4140016419347
 20
150.7765981809602
 10
151.5818897818837
 20
152.7699317437168
 10
152.4424752018226
 20
153.6256940267945
 10
153.9038856707499
 20
154.4507949398263
 10
155.4455669174378
 20
155.3044901642492
 10
156.339225275853
 20
155.3659851592288
 10
157.3748216618963
 20
155.2147453676543
 10
158.911679771723
 20
154.9877134254046
 10
159.8859534176746
 20
154.4390816074493
 10
160.3965169054045
 20
152.7816450760939
 10
160.9070803931344
 20
151.1219692311958
 10
160.6328506116007
 20
150.2303779314354
 10
159.9992971339115
 20
147.597634224801
 10
159.7105979417943
 20
146.4014962832367
 10
159.2947746424084
 20
144.9400858143094
 10
158.7463150793409
 20
143.2092687007094
 10
158.7463150793409
 20
143.2092687007094
 10
153.9038856707499
 20
127.8027915271048
 10
153.9038856707499
 20
127.8027915271048
 10
153.9038856707499
 20
127.8027915271048
 10
151.3882752878863
 20
127.8027915271048
 10
151.3882752878863
 20
127.8027915271048
 10
151.3882752878863
 20
127.8027915271048
 10
155.6250565106276
 20
141.2751908193897
 10
155.6250565106276
 20
141.2751908193897
 10
156.5094131050963
 20
144.0936252951782
 10
157.109893644309
 20
146.1506931664571
 10
157.4220195011804
 20
147.4415712963654
 10
157.8095929989511
 20
149.0530157726519
 10
157.9656559273867
 20
149.5826995529385
 10
157.7816877071116
 20
150.7529992613181
 10
157.6111553680925
 20
151.8430281919372
 10
157.0582171779396
 20
152.5547853887321
 10
156.1170164704645
 20
152.5547853887321
 10
155.1096698860365
 20
152.5547853887321
 10
154.2962823053817
 20
152.4412694176073
 10
153.156643967048
 20
151.2945686288697
 10
152.0170056287143
 20
150.1476955852443
 10
151.076149431015
 20
148.7930831468137
 10
150.3337308641742
 20
147.2290087646991
 10
149.5957909244188
 20
145.6683794803425
 10
148.8530278478023
 20
143.6822806228776
 10
148.0964843801539
 20
141.2751908193897
 10
148.0964843801539
 20
141.2751908193897
 10
143.8552245303272
 20
127.8027915271048
 10
143.8552245303272
 20
127.8027915271048
 10
143.8552245303272
 20
127.8027915271048
 10
141.486030802177
 20
127.8027915271048
 10
141.486030802177
 20
127.8027915271048
 10
141.486030802177
 20
127.8027915271048
 10
146.3329388378533
 20
143.2092687007094
 10
146.3329388378533
 20
143.2092687007094
 10
146.8483254624444
 20
144.8408669988801
 10
147.2314203331297
 20
146.1837661049335
 10
147.4867020769946
 20
147.224185627838
 10
147.9169947869641
 20
149.0197705792876
 10
148.0306830129768
 20
150.2400242051577
 10
147.709255392159
 20
151.3157559800812
 10
147.3874832615654
 20
152.3916600098926
 10
146.8245542879144
 20
152.6683013598569
 10
145.8840425999909
 20
152.6683013598569
 10
145.0989048209514
 20
152.6683013598569
 10
144.3282364524954
 20
152.3275811915945
 10
143.4531816219731
 20
151.6538923250251
 10
142.34627171234
 20
150.8074318058939
 10
141.901854101563
 20
150.1097995099067
 10
141.3578731655808
 20
149.289521733736
 10
140.6299240093235
 20
148.192602607601
 10
140.2850697237515
 20
147.455696197173
 10
139.6652966370942
 20
145.8385673095858
 10
139.0506911970739
 20
144.2214384219986
 10
138.463991048893
 20
142.3252566160164
 10
138.0571250036777
 20
141.0154304484394
 10
138.0571250036777
 20
141.0154304484394
 10
133.9009590684727
 20
127.8027915271048
 10
133.9009590684727
 20
127.8027915271048
 10
133.9009590684727
 20
127.8027915271048
 10
131.4180771143097
 20
127.8027915271048
 10
131.4180771143097
 20
127.8027915271048
 10
131.4180771143097
 20
127.8027915271048
 10
139.8926730891197
 20
154.8294111834263
 10
139.8926730891197
 20
154.8294111834263
 97
        0
 75
     2
 76
     1
 98
        0
  0
SPLINE
  5
3C5
330
3BD
100
AcDbEntity
  8
レイヤー 1
370
     0
100
AcDbSpline
210
0.0
220
0.0
230
1.0
 70
    11
 71
     3
 72
    29
 73
    25
 74
     0
 42
0.000000001
 43
0.0000000001
 40
0.0
 40
0.0
 40
0.0
 40
0.0
 40
1.0
 40
1.0
 40
1.0
 40
2.0
 40
2.0
 40
2.0
 40
3.0
 40
3.0
 40
3.0
 40
4.0
 40
4.0
 40
4.0
 40
5.0
 40
5.0
 40
5.0
 40
6.0
 40
6.0
 40
6.0
 40
7.0
 40
7.0
 40
7.0
 40
8.0
 40
8.0
 40
8.0
 40
8.0
 10
101.6420971922469
 20
132.8388354296931
 30
0.0
 10
101.630039350094
 20
134.7164137077823
 30
0.0
 10
102.2236296937908
 20
138.0598810818841
 30
0.0
 10
103.7487744712405
 20
142.5378191476827
 30
0.0
 10
105.819967243327
 20
148.5896501242061
 30
0.0
 10
107.0602024361932
 20
150.8074318058939
 30
0.0
 10
108.1522984254671
 20
151.8833358357054
 30
0.0
 10
109.741177511439
 20
153.4532668840085
 30
0.0
 10
111.8740375333931
 20
153.5290590346837
 30
0.0
 10
112.5075910110823
 20
153.4532668840085
 30
0.0
 10
113.4012493694975
 20
153.3490526768302
 30
0.0
 10
114.6683563248758
 20
152.7580461564518
 30
0.0
 10
114.7493161221879
 20
150.7838328862519
 30
0.0
 10
114.8106388622796
 20
149.0909118479895
 30
0.0
 10
114.3186789024427
 20
145.9191825971221
 30
0.0
 10
112.6164561002338
 20
140.9489400617108
 30
0.0
 10
110.6444821435766
 20
135.1746117095912
 30
0.0
 10
109.4669477299053
 20
132.8960240524753
 30
0.0
 10
108.5212683953448
 20
131.9072809959403
 30
0.0
 10
106.7346406980658
 20
130.0538184021569
 30
0.0
 10
104.8222669326213
 20
130.2336525051225
 30
0.0
 10
104.5408024457958
 20
130.2336525051225
 30
0.0
 10
104.1721769856939
 20
130.2336525051225
 30
0.0
 10
101.6465758193322
 20
130.6305277668397
 30
0.0
 10
101.6420971922469
 20
132.8388354296931
 30
0.0
  0
SPLINE
  5
3C6
330
3BD
100
AcDbEntity
  8
レイヤー 1
370
     0
100
AcDbSpline
210
0.0
220
0.0
230
1.0
 70
    11
 71
     3
 72
    32
 73
    28
 74
     0
 42
0.000000001
 43
0.0000000001
 40
0.0
 40
0.0
 40
0.0
 40
0.0
 40
1.0
 40
1.0
 40
1.0
 40
2.0
 40
2.0
 40
2.0
 40
3.0
 40
3.0
 40
3.0
 40
4.0
 40
4.0
 40
4.0
 40
5.0
 40
5.0
 40
5.0
 40
6.0
 40
6.0
 40
6.0
 40
7.0
 40
7.0
 40
7.0
 40
8.0
 40
8.0
 40
8.0
 40
9.0
 40
9.0
 40
9.0
 40
9.0
 10
106.2595617172429
 20
153.4105476718098
 30
0.0
 10
104.8222669326213
 20
151.5474388043041
 30
0.0
 10
103.7177685914188
 20
149.8758773721411
 30
0.0
 10
101.9232171692965
 20
144.6141795664062
 30
0.0
 10
100.2754269116635
 20
139.7999999594306
 30
0.0
 10
99.22777268346732
 20
136.3052927937542
 30
0.0
 10
99.06964269637689
 20
132.039572749846
 30
0.0
 10
98.94665270641765
 20
128.8673267343149
 30
0.0
 10
100.8807305877373
 20
127.8027915271048
 30
0.0
 10
103.7129454545577
 20
127.8027915271048
 30
0.0
 10
104.9352661390825
 20
127.8027915271048
 30
0.0
 10
108.0151835347002
 20
127.8827177950895
 30
0.0
 10
110.2045431598849
 20
130.5926316915021
 30
0.0
 10
111.7417457794874
 20
132.4984597712065
 30
0.0
 10
113.155269389579
 20
134.475256864725
 30
0.0
 10
115.0562743324223
 20
140.9489400617108
 30
0.0
 10
116.6361961642235
 20
146.3680788349845
 30
0.0
 10
117.7282921534974
 20
149.8639917848761
 30
0.0
 10
117.6480213757369
 20
151.8595646611754
 30
0.0
 10
117.6480213757369
 20
151.8595646611754
 30
0.0
 10
117.6480213757369
 20
151.8595646611754
 30
0.0
 10
117.6480213757369
 20
151.8595646611754
 30
0.0
 10
117.13229024137
 20
155.18150017429
 30
0.0
 10
114.7162431837115
 20
155.886194920681
 30
0.0
 10
113.3351034925446
 20
155.886194920681
 30
0.0
 10
111.9829026225447
 20
155.886194920681
 30
0.0
 10
108.3414342923792
 20
156.1251124501957
 30
0.0
 10
106.2595617172429
 20
153.4105476718098
 30
0.0
  0
HATCH
  5
3C7
330
3BD
100
AcDbEntity
  8
レイヤー 1
 62
   250
420
  2234388
100
AcDbHatch
 10
0.0
 20
0.0
 30
0.0
210
0.0
220
0.0
230
1.0
  2
SOLID
 70
     1
 71
     0
 91
        2
 92
        1
 93
        1
 72
     4
 94
        3
 73
     0
 74
     1
 95
       29
 96
       25
 40
0.0
 40
0.0
 40
0.0
 40
0.0
 40
1.0
 40
1.0
 40
1.0
 40
2.0
 40
2.0
 40
2.0
 40
3.0
 40
3.0
 40
3.0
 40
4.0
 40
4.0
 40
4.0
 40
5.0
 40
5.0
 40
5.0
 40
6.0
 40
6.0
 40
6.0
 40
7.0
 40
7.0
 40
7.0
 40
8.0
 40
8.0
 40
8.0
 40
8.0
 10
101.6420971922469
 20
132.8388354296931
 10
101.630039350094
 20
134.7164137077823
 10
102.2236296937908
 20
138.0598810818841
 10
103.7487744712405
 20
142.5378191476827
 10
105.819967243327
 20
148.5896501242061
 10
107.0602024361932
 20
150.8074318058939
 10
108.1522984254671
 20
151.8833358357054
 10
109.741177511439
 20
153.4532668840085
 10
111.8740375333931
 20
153.5290590346837
 10
112.5075910110823
 20
153.4532668840085
 10
113.4012493694975
 20
153.3490526768302
 10
114.6683563248758
 20
152.7580461564518
 10
114.7493161221879
 20
150.7838328862519
 10
114.8106388622796
 20
149.0909118479895
 10
114.3186789024427
 20
145.9191825971221
 10
112.6164561002338
 20
140.9489400617108
 10
110.6444821435766
 20
135.1746117095912
 10
109.4669477299053
 20
132.8960240524753
 10
108.5212683953448
 20
131.9072809959403
 10
106.7346406980658
 20
130.0538184021569
 10
104.8222669326213
 20
130.2336525051225
 10
104.5408024457958
 20
130.2336525051225
 10
104.1721769856939
 20
130.2336525051225
 10
101.6465758193322
 20
130.6305277668397
 10
101.6420971922469
 20
132.8388354296931
 97
        0
 92
        1
 93
        1
 72
     4
 94
        3
 73
     0
 74
     1
 95
       32
 96
       28
 40
0.0
 40
0.0
 40
0.0
 40
0.0
 40
1.0
 40
1.0
 40
1.0
 40
2.0
 40
2.0
 40
2.0
 40
3.0
 40
3.0
 40
3.0
 40
4.0
 40
4.0
 40
4.0
 40
5.0
 40
5.0
 40
5.0
 40
6.0
 40
6.0
 40
6.0
 40
7.0
 40
7.0
 40
7.0
 40
8.0
 40
8.0
 40
8.0
 40
9.0
 40
9.0
 40
9.0
 40
9.0
 10
106.2595617172429
 20
153.4105476718098
 10
104.8222669326213
 20
151.5474388043041
 10
103.7177685914188
 20
149.8758773721411
 10
101.9232171692965
 20
144.6141795664062
 10
100.2754269116635
 20
139.7999999594306
 10
99.22777268346732
 20
136.3052927937542
 10
99.06964269637689
 20
132.039572749846
 10
98.94665270641765
 20
128.8673267343149
 10
100.8807305877373
 20
127.8027915271048
 10
103.7129454545577
 20
127.8027915271048
 10
104.9352661390825
 20
127.8027915271048
 10
108.0151835347002
 20
127.8827177950895
 10
110.2045431598849
 20
130.5926316915021
 10
111.7417457794874
 20
132.4984597712065
 10
113.155269389579
 20
134.475256864725
 10
115.0562743324223
 20
140.9489400617108
 10
116.6361961642235
 20
146.3680788349845
 10
117.7282921534974
 20
149.8639917848761
 10
117.6480213757369
 20
151.8595646611754
 10
117.6480213757369
 20
151.8595646611754
 10
117.6480213757369
 20
151.8595646611754
 10
117.6480213757369
 20
151.8595646611754
 10
117.13229024137
 20
155.18150017429
 10
114.7162431837115
 20
155.886194920681
 10
113.3351034925446
 20
155.886194920681
 10
111.9829026225447
 20
155.886194920681
 10
108.3414342923792
 20
156.1251124501957
 10
106.2595617172429
 20
153.4105476718098
 97
        0
 75
     2
 76
     1
 98
        0
  0
ENDBLK
  5
3C8
330
3BD
100
AcDbEntity
  8
0
100
AcDbBlockEnd
  0
BLOCK
  5
11F1
330
11F0
100
AcDbEntity
  8
0
100
AcDbBlockBegin
  2
BLOCK_2
 70
     0
 10
0.0
 20
0.0
 30
0.0
  3
BLOCK_2
  1
BLOCK_2
  0
ENDBLK
  5
11F2
330
11F0
100
AcDbEntity
  8
0
100
AcDbBlockEnd
  0
BLOCK
  5
37BE
330
37BD
100
AcDbEntity
  8
0
100
AcDbBlockBegin
  2
*D7
 70
     1
 10
0.0
 20
0.0
 30
0.0
  3
*D7
  1
*D412
  0
LINE
  5
37C0
330
37BD
100
AcDbEntity
  8
Dim
  6
Continuous
 62
     0
370
    -2
100
AcDbLine
 10
-1172.300440979829
 20
1862.78857583828
 30
0.0
 11
-1105.196850274871
 21
1862.78857583828
 31
0.0
  0
LINE
  5
37C1
330
37BD
100
AcDbEntity
  8
Dim
  6
Continuous
 62
     0
370
    -2
100
AcDbLine
 10
-1172.300440979829
 20
2012.78857583828
 30
0.0
 11
-1105.196850274871
 21
2012.78857583828
 31
0.0
  0
LINE
  5
37C2
330
37BD
100
AcDbEntity
  8
Dim
  6
Continuous
 62
     0
370
    -2
100
AcDbLine
 10
-1105.196850274871
 20
1872.787965486717
 30
0.0
 11
-1105.196850274871
 21
2002.789186189842
 31
0.0
  0
INSERT
  5
37C3
330
37BD
100
AcDbEntity
  8
Dim
 62
     0
370
    -2
100
AcDbBlockReference
  2
_DOT
 10
-1105.196850274871
 20
1862.78857583828
 30
0.0
 41
9.999389648437498
 42
9.999389648437498
 43
9.999389648437498
 50
270.0
  0
INSERT
  5
37C4
330
37BD
100
AcDbEntity
  8
Dim
 62
     0
370
    -2
100
AcDbBlockReference
  2
_DOT
 10
-1105.196850274871
 20
2012.78857583828
 30
0.0
 41
9.999389648437498
 42
9.999389648437498
 43
9.999389648437498
 50
90.0
  0
MTEXT
  5
37C5
330
37BD
100
AcDbEntity
  8
Dim
  6
Continuous
 62
     0
100
AcDbMText
 10
-1127.413158868621
 20
1937.78857583828
 30
0.0
 40
24.4326171875
 41
0.0
 46
0.0
 71
     5
 72
     1
  1
\A1;150
  7
ＭＳ ゴシック
 11
0.0
 21
1.0
 31
0.0
 73
     1
 44
1.0
  0
POINT
  5
37C6
330
37BD
100
AcDbEntity
  8
Defpoints
 62
     0
100
AcDbPoint
 10
-1197.300440979829
 20
1862.78857583828
 30
0.0
  0
POINT
  5
37C7
330
37BD
100
AcDbEntity
  8
Defpoints
 62
     0
100
AcDbPoint
 10
-1197.300440979829
 20
2012.78857583828
 30
0.0
  0
POINT
  5
37C8
330
37BD
100
AcDbEntity
  8
Defpoints
 62
     0
100
AcDbPoint
 10
-1105.196850274871
 20
2012.78857583828
 30
0.0
  0
ENDBLK
  5
37BF
330
37BD
100
AcDbEntity
  8
0
100
AcDbBlockEnd
  0
BLOCK
  5
37CA
330
37C9
100
AcDbEntity
  8
0
100
AcDbBlockBegin
  2
*D8
 70
     1
 10
0.0
 20
0.0
 30
0.0
  3
*D8
  1
*D413
  0
LINE
  5
37CC
330
37C9
100
AcDbEntity
  8
Dim
  6
Continuous
 62
     0
370
    -2
100
AcDbLine
 10
-1297.300440979829
 20
1837.78857583828
 30
0.0
 11
-1297.300440979829
 21
1775.039293585909
 31
0.0
  0
LINE
  5
37CD
330
37C9
100
AcDbEntity
  8
Dim
  6
Continuous
 62
     0
370
    -2
100
AcDbLine
 10
-1197.300440979829
 20
1837.78857583828
 30
0.0
 11
-1197.300440979829
 21
1775.039293585909
 31
0.0
  0
LINE
  5
37CE
330
37C9
100
AcDbEntity
  8
Dim
  6
Continuous
 62
     0
370
    -2
100
AcDbLine
 10
-1287.301051331391
 20
1775.039293585909
 30
0.0
 11
-1207.299830628266
 21
1775.039293585909
 31
0.0
  0
INSERT
  5
37CF
330
37C9
100
AcDbEntity
  8
Dim
 62
     0
370
    -2
100
AcDbBlockReference
  2
_DOT
 10
-1297.300440979829
 20
1775.039293585909
 30
0.0
 41
9.999389648437498
 42
9.999389648437498
 43
9.999389648437498
 50
180.0
  0
INSERT
  5
37D0
330
37C9
100
AcDbEntity
  8
Dim
 62
     0
370
    -2
100
AcDbBlockReference
  2
_DOT
 10
-1197.300440979829
 20
1775.039293585909
 30
0.0
 41
9.999389648437498
 42
9.999389648437498
 43
9.999389648437498
  0
MTEXT
  5
37D1
330
37C9
100
AcDbEntity
  8
Dim
  6
Continuous
 62
     0
100
AcDbMText
 10
-1247.300440979829
 20
1797.255602179659
 30
0.0
 40
24.4326171875
 41
0.0
 46
0.0
 71
     5
 72
     1
  1
\A1;100
  7
ＭＳ ゴシック
 73
     1
 44
1.0
  0
POINT
  5
37D2
330
37C9
100
AcDbEntity
  8
Defpoints
 62
     0
100
AcDbPoint
 10
-1297.300440979829
 20
1862.78857583828
 30
0.0
  0
POINT
  5
37D3
330
37C9
100
AcDbEntity
  8
Defpoints
 62
     0
100
AcDbPoint
 10
-1197.300440979829
 20
1862.78857583828
 30
0.0
  0
POINT
  5
37D4
330
37C9
100
AcDbEntity
  8
Defpoints
 62
     0
100
AcDbPoint
 10
-1197.300440979829
 20
1775.039293585909
 30
0.0
  0
ENDBLK
  5
37CB
330
37C9
100
AcDbEntity
  8
0
100
AcDbBlockEnd
  0
BLOCK
  5
37D6
330
37D5
100
AcDbEntity
  8
0
100
AcDbBlockBegin
  2
*D9
 70
     1
 10
0.0
 20
0.0
 30
0.0
  3
*D9
  1
*D414
  0
LINE
  5
37D8
330
37D5
100
AcDbEntity
  8
Dim
  6
Continuous
 62
     0
370
    -2
100
AcDbLine
 10
-1294.20044097983
 20
1902.78857583828
 30
0.0
 11
-1353.807141208996
 21
1902.78857583828
 31
0.0
  0
LINE
  5
37D9
330
37D5
100
AcDbEntity
  8
Dim
  6
Continuous
 62
     0
370
    -2
100
AcDbLine
 10
-1322.300440979829
 20
1862.78857583828
 30
0.0
 11
-1353.807141208996
 21
1862.78857583828
 31
0.0
  0
LINE
  5
37DA
330
37D5
100
AcDbEntity
  8
Dim
  6
Continuous
 62
     0
370
    -2
100
AcDbLine
 10
-1353.807141208996
 20
1892.789186189842
 30
0.0
 11
-1353.807141208996
 21
1872.787965486717
 31
0.0
  0
INSERT
  5
37DB
330
37D5
100
AcDbEntity
  8
Dim
 62
     0
370
    -2
100
AcDbBlockReference
  2
_DOT
 10
-1353.807141208996
 20
1902.78857583828
 30
0.0
 41
9.999389648437498
 42
9.999389648437498
 43
9.999389648437498
 50
90.0
  0
INSERT
  5
37DC
330
37D5
100
AcDbEntity
  8
Dim
 62
     0
370
    -2
100
AcDbBlockReference
  2
_DOT
 10
-1353.807141208996
 20
1862.78857583828
 30
0.0
 41
9.999389648437498
 42
9.999389648437498
 43
9.999389648437498
 50
270.0
  0
MTEXT
  5
37DD
330
37D5
100
AcDbEntity
  8
Dim
  6
Continuous
 62
     0
100
AcDbMText
 10
-1376.023449802746
 20
1882.78857583828
 30
0.0
 40
24.4326171875
 41
0.0
 46
0.0
 71
     5
 72
     1
  1
\A1;40
  7
ＭＳ ゴシック
 11
0.0
 21
1.0
 31
0.0
 73
     1
 44
1.0
  0
POINT
  5
37DE
330
37D5
100
AcDbEntity
  8
Defpoints
 62
     0
100
AcDbPoint
 10
-1269.20044097983
 20
1902.78857583828
 30
0.0
  0
POINT
  5
37DF
330
37D5
100
AcDbEntity
  8
Defpoints
 62
     0
100
AcDbPoint
 10
-1297.300440979829
 20
1862.78857583828
 30
0.0
  0
POINT
  5
37E0
330
37D5
100
AcDbEntity
  8
Defpoints
 62
     0
100
AcDbPoint
 10
-1353.807141208996
 20
1862.78857583828
 30
0.0
  0
ENDBLK
  5
37D7
330
37D5
100
AcDbEntity
  8
0
100
AcDbBlockEnd
  0
BLOCK
  5
37EE
330
37ED
100
AcDbEntity
  8
0
100
AcDbBlockBegin
  2
*D10
 70
     1
 10
0.0
 20
0.0
 30
0.0
  3
*D10
  1
*D415
  0
LINE
  5
37F0
330
37ED
100
AcDbEntity
  8
Dim
  6
Continuous
 62
     0
370
    -2
100
AcDbLine
 10
-2330.463399061261
 20
1927.788575880268
 30
0.0
 11
-2330.463399061261
 21
2207.794927375198
 31
0.0
  0
LINE
  5
37F1
330
37ED
100
AcDbEntity
  8
Dim
  6
Continuous
 62
     0
370
    -2
100
AcDbLine
 10
-1910.463417184214
 20
1927.788575880268
 30
0.0
 11
-1910.463417184214
 21
2207.794927375198
 31
0.0
  0
LINE
  5
37F2
330
37ED
100
AcDbEntity
  8
Dim
  6
Continuous
 62
     0
370
    -2
100
AcDbLine
 10
-2320.464009412824
 20
2207.794927375198
 30
0.0
 11
-1920.462806832651
 21
2207.794927375198
 31
0.0
  0
INSERT
  5
37F3
330
37ED
100
AcDbEntity
  8
Dim
 62
     0
370
    -2
100
AcDbBlockReference
  2
_DOT
 10
-2330.463399061261
 20
2207.794927375198
 30
0.0
 41
9.999389648437498
 42
9.999389648437498
 43
9.999389648437498
 50
180.0
  0
INSERT
  5
37F4
330
37ED
100
AcDbEntity
  8
Dim
 62
     0
370
    -2
100
AcDbBlockReference
  2
_DOT
 10
-1910.463417184214
 20
2207.794927375198
 30
0.0
 41
9.999389648437498
 42
9.999389648437498
 43
9.999389648437498
  0
MTEXT
  5
37F5
330
37ED
100
AcDbEntity
  8
Dim
  6
Continuous
 62
     0
100
AcDbMText
 10
-2120.463408122738
 20
2230.927459113479
 30
0.0
 40
24.4326171875
 41
0.0
 46
0.0
 71
     5
 72
     1
  1
\A1;%%c420
  7
ＭＳ ゴシック
 73
     1
 44
1.0
  0
POINT
  5
37F6
330
37ED
100
AcDbEntity
  8
Defpoints
 62
     0
100
AcDbPoint
 10
-2330.463399061261
 20
1902.788575880268
 30
0.0
  0
POINT
  5
37F7
330
37ED
100
AcDbEntity
  8
Defpoints
 62
     0
100
AcDbPoint
 10
-1910.463417184214
 20
1902.788575880268
 30
0.0
  0
POINT
  5
37F8
330
37ED
100
AcDbEntity
  8
Defpoints
 62
     0
100
AcDbPoint
 10
-1910.463417184214
 20
2207.794927375198
 30
0.0
  0
ENDBLK
  5
37EF
330
37ED
100
AcDbEntity
  8
0
100
AcDbBlockEnd
  0
BLOCK
  5
3808
330
3807
100
AcDbEntity
  8
0
100
AcDbBlockBegin
  2
*D11
 70
     1
 10
0.0
 20
0.0
 30
0.0
  3
*D11
  1
*D416
  0
LINE
  5
380A
330
3807
100
AcDbEntity
  8
Dim
  6
Continuous
 62
     0
370
    -2
100
AcDbLine
 10
-2270.463408083906
 20
972.8647554514483
 30
0.0
 11
-2270.463408083906
 21
894.5559862139885
 31
0.0
  0
LINE
  5
380B
330
3807
100
AcDbEntity
  8
Dim
  6
Continuous
 62
     0
370
    -2
100
AcDbLine
 10
-1970.463408083906
 20
972.8647554514483
 30
0.0
 11
-1970.463408083906
 21
894.5559862139885
 31
0.0
  0
LINE
  5
380C
330
3807
100
AcDbEntity
  8
Dim
  6
Continuous
 62
     0
370
    -2
100
AcDbLine
 10
-2260.464018435468
 20
894.5559862139885
 30
0.0
 11
-1980.462797732343
 21
894.5559862139885
 31
0.0
  0
INSERT
  5
380D
330
3807
100
AcDbEntity
  8
Dim
 62
     0
370
    -2
100
AcDbBlockReference
  2
_DOT
 10
-2270.463408083906
 20
894.5559862139885
 30
0.0
 41
9.999389648437498
 42
9.999389648437498
 43
9.999389648437498
 50
180.0
  0
INSERT
  5
380E
330
3807
100
AcDbEntity
  8
Dim
 62
     0
370
    -2
100
AcDbBlockReference
  2
_DOT
 10
-1970.463408083906
 20
894.5559862139885
 30
0.0
 41
9.999389648437498
 42
9.999389648437498
 43
9.999389648437498
  0
MTEXT
  5
380F
330
3807
100
AcDbEntity
  8
Dim
  6
Continuous
 62
     0
100
AcDbMText
 10
-2120.463408083906
 20
916.7722948077385
 30
0.0
 40
24.4326171875
 41
0.0
 46
0.0
 71
     5
 72
     1
  1
\A1;300
  7
ＭＳ ゴシック
 73
     1
 44
1.0
  0
POINT
  5
3810
330
3807
100
AcDbEntity
  8
Defpoints
 62
     0
100
AcDbPoint
 10
-2270.463408083906
 20
997.8647554514483
 30
0.0
  0
POINT
  5
3811
330
3807
100
AcDbEntity
  8
Defpoints
 62
     0
100
AcDbPoint
 10
-1970.463408083906
 20
997.8647554514483
 30
0.0
  0
POINT
  5
3812
330
3807
100
AcDbEntity
  8
Defpoints
 62
     0
100
AcDbPoint
 10
-1970.463408083906
 20
894.5559862139885
 30
0.0
  0
ENDBLK
  5
3809
330
3807
100
AcDbEntity
  8
0
100
AcDbBlockEnd
  0
BLOCK
  5
3815
330
3814
100
AcDbEntity
  8
0
100
AcDbBlockBegin
  2
*D12
 70
     1
 10
0.0
 20
0.0
 30
0.0
  3
*D12
  1
*D417
  0
LINE
  5
3817
330
3814
100
AcDbEntity
  8
Dim
  6
Continuous
 62
     0
370
    -2
100
AcDbLine
 10
-1247.300441018661
 20
940.2968278289777
 30
0.0
 11
-1247.300441018661
 21
888.5233573534069
 31
0.0
  0
LINE
  5
3818
330
3814
100
AcDbEntity
  8
Dim
  6
Continuous
 62
     0
370
    -2
100
AcDbLine
 10
-1037.300441018661
 20
1107.773247651633
 30
0.0
 11
-1037.300441018661
 21
888.5233573534069
 31
0.0
  0
LINE
  5
3819
330
3814
100
AcDbEntity
  8
Dim
  6
Continuous
 62
     0
370
    -2
100
AcDbLine
 10
-1237.301051370223
 20
888.5233573534069
 30
0.0
 11
-1047.299830667098
 21
888.5233573534069
 31
0.0
  0
INSERT
  5
381A
330
3814
100
AcDbEntity
  8
Dim
 62
     0
370
    -2
100
AcDbBlockReference
  2
_DOT
 10
-1247.300441018661
 20
888.5233573534069
 30
0.0
 41
9.999389648437498
 42
9.999389648437498
 43
9.999389648437498
 50
180.0
  0
INSERT
  5
381B
330
3814
100
AcDbEntity
  8
Dim
 62
     0
370
    -2
100
AcDbBlockReference
  2
_DOT
 10
-1037.300441018661
 20
888.5233573534069
 30
0.0
 41
9.999389648437498
 42
9.999389648437498
 43
9.999389648437498
  0
MTEXT
  5
381C
330
3814
100
AcDbEntity
  8
Dim
  6
Continuous
 62
     0
100
AcDbMText
 10
-1142.300441018661
 20
910.7396659471569
 30
0.0
 40
24.4326171875
 41
0.0
 46
0.0
 71
     5
 72
     1
  1
\A1;210
  7
ＭＳ ゴシック
 73
     1
 44
1.0
  0
POINT
  5
381D
330
3814
100
AcDbEntity
  8
Defpoints
 62
     0
100
AcDbPoint
 10
-1247.300441018661
 20
965.2968278289777
 30
0.0
  0
POINT
  5
381E
330
3814
100
AcDbEntity
  8
Defpoints
 62
     0
100
AcDbPoint
 10
-1037.300441018661
 20
1132.773247651633
 30
0.0
  0
POINT
  5
381F
330
3814
100
AcDbEntity
  8
Defpoints
 62
     0
100
AcDbPoint
 10
-1037.300441018661
 20
888.5233573534069
 30
0.0
  0
ENDBLK
  5
3816
330
3814
100
AcDbEntity
  8
0
100
AcDbBlockEnd
  0
BLOCK
  5
3828
330
3827
100
AcDbEntity
  8
0
100
AcDbBlockBegin
  2
*D13
 70
     1
 10
0.0
 20
0.0
 30
0.0
  3
*D13
  1
*D418
  0
LINE
  5
382A
330
3827
100
AcDbEntity
  8
Dim
  6
Continuous
 62
     0
370
    -2
100
AcDbLine
 10
-1889.357920701699
 20
1141.125955450934
 30
0.0
 11
-1795.775610126873
 21
1141.125955450934
 31
0.0
  0
LINE
  5
382B
330
3827
100
AcDbEntity
  8
Dim
  6
Continuous
 62
     0
370
    -2
100
AcDbLine
 10
-2051.851341612651
 20
966.1259554509336
 30
0.0
 11
-1795.775610126873
 21
966.1259554509336
 31
0.0
  0
LINE
  5
382C
330
3827
100
AcDbEntity
  8
Dim
  6
Continuous
 62
     0
370
    -2
100
AcDbLine
 10
-1795.775610126873
 20
1131.126565802497
 30
0.0
 11
-1795.775610126873
 21
976.1253450993711
 31
0.0
  0
INSERT
  5
382D
330
3827
100
AcDbEntity
  8
Dim
 62
     0
370
    -2
100
AcDbBlockReference
  2
_DOT
 10
-1795.775610126873
 20
1141.125955450934
 30
0.0
 41
9.999389648437498
 42
9.999389648437498
 43
9.999389648437498
 50
90.0
  0
INSERT
  5
382E
330
3827
100
AcDbEntity
  8
Dim
 62
     0
370
    -2
100
AcDbBlockReference
  2
_DOT
 10
-1795.775610126873
 20
966.1259554509336
 30
0.0
 41
9.999389648437498
 42
9.999389648437498
 43
9.999389648437498
 50
270.0
  0
MTEXT
  5
382F
330
3827
100
AcDbEntity
  8
Dim
  6
Continuous
 62
     0
100
AcDbMText
 10
-1817.991918720623
 20
1053.625955450934
 30
0.0
 40
24.4326171875
 41
0.0
 46
0.0
 71
     5
 72
     1
  1
\A1;175
  7
ＭＳ ゴシック
 11
0.0
 21
1.0
 31
0.0
 73
     1
 44
1.0
  0
POINT
  5
3830
330
3827
100
AcDbEntity
  8
Defpoints
 62
     0
100
AcDbPoint
 10
-1914.357920701699
 20
1141.125955450934
 30
0.0
  0
POINT
  5
3831
330
3827
100
AcDbEntity
  8
Defpoints
 62
     0
100
AcDbPoint
 10
-2076.851341612651
 20
966.1259554509336
 30
0.0
  0
POINT
  5
3832
330
3827
100
AcDbEntity
  8
Defpoints
 62
     0
100
AcDbPoint
 10
-1795.775610126873
 20
966.1259554509336
 30
0.0
  0
ENDBLK
  5
3829
330
3827
100
AcDbEntity
  8
0
100
AcDbBlockEnd
  0
BLOCK
  5
3835
330
3834
100
AcDbEntity
  8
0
100
AcDbBlockBegin
  2
*D14
 70
     1
 10
0.0
 20
0.0
 30
0.0
  3
*D14
  1
*D419
  0
LINE
  5
3837
330
3834
100
AcDbEntity
  8
Dim
  6
Continuous
 62
     0
370
    -2
100
AcDbLine
 10
-1473.677792771479
 20
1141.125948134719
 30
0.0
 11
-1556.661849375889
 21
1141.125948134719
 31
0.0
  0
LINE
  5
3838
330
3834
100
AcDbEntity
  8
Dim
  6
Continuous
 62
     0
370
    -2
100
AcDbLine
 10
-1423.606973228652
 20
991.1259481347192
 30
0.0
 11
-1556.661849375889
 21
991.1259481347192
 31
0.0
  0
LINE
  5
3839
330
3834
100
AcDbEntity
  8
Dim
  6
Continuous
 62
     0
370
    -2
100
AcDbLine
 10
-1556.661849375889
 20
1131.126558486282
 30
0.0
 11
-1556.661849375889
 21
1001.125337783157
 31
0.0
  0
INSERT
  5
383A
330
3834
100
AcDbEntity
  8
Dim
 62
     0
370
    -2
100
AcDbBlockReference
  2
_DOT
 10
-1556.661849375889
 20
1141.125948134719
 30
0.0
 41
9.999389648437498
 42
9.999389648437498
 43
9.999389648437498
 50
90.0
  0
INSERT
  5
383B
330
3834
100
AcDbEntity
  8
Dim
 62
     0
370
    -2
100
AcDbBlockReference
  2
_DOT
 10
-1556.661849375889
 20
991.1259481347192
 30
0.0
 41
9.999389648437498
 42
9.999389648437498
 43
9.999389648437498
 50
270.0
  0
MTEXT
  5
383C
330
3834
100
AcDbEntity
  8
Dim
  6
Continuous
 62
     0
100
AcDbMText
 10
-1578.878157969639
 20
1066.125948134719
 30
0.0
 40
24.4326171875
 41
0.0
 46
0.0
 71
     5
 72
     1
  1
\A1;150
  7
ＭＳ ゴシック
 11
0.0
 21
1.0
 31
0.0
 73
     1
 44
1.0
  0
POINT
  5
383D
330
3834
100
AcDbEntity
  8
Defpoints
 62
     0
100
AcDbPoint
 10
-1448.677792771479
 20
1141.125948134719
 30
0.0
  0
POINT
  5
383E
330
3834
100
AcDbEntity
  8
Defpoints
 62
     0
100
AcDbPoint
 10
-1398.606973228652
 20
991.1259481347192
 30
0.0
  0
POINT
  5
383F
330
3834
100
AcDbEntity
  8
Defpoints
 62
     0
100
AcDbPoint
 10
-1556.661849375889
 20
991.1259481347192
 30
0.0
  0
ENDBLK
  5
3836
330
3834
100
AcDbEntity
  8
0
100
AcDbBlockEnd
  0
BLOCK
  5
3851
330
3850
100
AcDbEntity
  8
0
100
AcDbBlockBegin
  2
*D15
 70
     1
 10
0.0
 20
0.0
 30
0.0
  3
*D15
  1
*D420
  0
LINE
  5
3853
330
3850
100
AcDbEntity
  8
Dim
  6
Continuous
 62
     0
370
    -2
100
AcDbLine
 10
-1247.300434850096
 20
1141.125948134719
 30
0.0
 11
-1247.300434850096
 21
1313.50064735347
 31
0.0
  0
LINE
  5
3854
330
3850
100
AcDbEntity
  8
Dim
  6
Continuous
 62
     0
370
    -2
100
AcDbLine
 10
-1247.300434850096
 20
1026.405717870372
 30
0.0
 11
-1247.300434850096
 21
1131.126558486282
 31
0.0
  0
INSERT
  5
3855
330
3850
100
AcDbEntity
  8
Dim
 62
     0
370
    -2
100
AcDbBlockReference
  2
_DOT
 10
-1247.300434850096
 20
1016.406328221934
 30
0.0
 41
9.999389648437498
 42
9.999389648437498
 43
9.999389648437498
 50
270.0
  0
INSERT
  5
3856
330
3850
100
AcDbEntity
  8
Dim
 62
     0
370
    -2
100
AcDbBlockReference
  2
_DOT
 10
-1247.300434850096
 20
1141.125948134719
 30
0.0
 41
9.999389648437498
 42
9.999389648437498
 43
9.999389648437498
 50
90.0
  0
MTEXT
  5
3857
330
3850
100
AcDbEntity
  8
Dim
  6
Continuous
 62
     0
100
AcDbMText
 10
-1271.67903006494
 20
1237.312687392532
 30
0.0
 40
24.4326171875
 41
0.0
 46
0.0
 71
     5
 72
     1
  1
\A1;125(深さ)
  7
ＭＳ ゴシック
 11
0.0
 21
1.0
 31
0.0
 73
     1
 44
1.0
  0
POINT
  5
3858
330
3850
100
AcDbEntity
  8
Defpoints
 62
     0
100
AcDbPoint
 10
-1247.300434850096
 20
1016.406328221934
 30
0.0
  0
POINT
  5
3859
330
3850
100
AcDbEntity
  8
Defpoints
 62
     0
100
AcDbPoint
 10
-1247.300434850096
 20
1141.125948134719
 30
0.0
  0
POINT
  5
385A
330
3850
100
AcDbEntity
  8
Defpoints
 62
     0
100
AcDbPoint
 10
-1247.300434850096
 20
1141.125948134719
 30
0.0
  0
ENDBLK
  5
3852
330
3850
100
AcDbEntity
  8
0
100
AcDbBlockEnd
  0
BLOCK
  5
38B7
330
38B6
100
AcDbEntity
  8
0
100
AcDbBlockBegin
  2
mobile_latù
 70
     0
 10
0.0
 20
0.0
 30
0.0
  3
mobile_latù
  1
mobile_latù
  0
ENDBLK
  5
38B8
330
38B6
100
AcDbEntity
  8
0
100
AcDbBlockEnd
  0
BLOCK
  5
3F2E
330
3F2D
100
AcDbEntity
  8
0
100
AcDbBlockBegin
  2
*D17
 70
     1
 10
0.0
 20
0.0
 30
0.0
  3
*D17
  1
*D464
  0
LINE
  5
3F30
330
3F2D
100
AcDbEntity
  8
Dim
  6
Continuous
 62
     0
370
    -2
100
AcDbLine
 10
502.6570396872366
 20
1570.626273844589
 30
0.0
 11
502.6570396872366
 21
1629.195782485623
 31
0.0
  0
LINE
  5
3F31
330
3F2D
100
AcDbEntity
  8
Dim
  6
Continuous
 62
     0
370
    -2
100
AcDbLine
 10
1002.657039687237
 20
1523.104403149505
 30
0.0
 11
1002.657039687237
 21
1629.195782485623
 31
0.0
  0
LINE
  5
3F32
330
3F2D
100
AcDbEntity
  8
Dim
  6
Continuous
 62
     0
370
    -2
100
AcDbLine
 10
512.656429335674
 20
1629.195782485623
 30
0.0
 11
992.6576500387995
 21
1629.195782485623
 31
0.0
  0
INSERT
  5
3F33
330
3F2D
100
AcDbEntity
  8
Dim
 62
     0
370
    -2
100
AcDbBlockReference
  2
_DOT
 10
502.6570396872366
 20
1629.195782485623
 30
0.0
 41
9.999389648437498
 42
9.999389648437498
 43
9.999389648437498
 50
180.0
  0
INSERT
  5
3F34
330
3F2D
100
AcDbEntity
  8
Dim
 62
     0
370
    -2
100
AcDbBlockReference
  2
_DOT
 10
1002.657039687237
 20
1629.195782485623
 30
0.0
 41
9.999389648437498
 42
9.999389648437498
 43
9.999389648437498
  0
MTEXT
  5
3F35
330
3F2D
100
AcDbEntity
  8
Dim
  6
Continuous
 62
     0
100
AcDbMText
 10
752.6570396872366
 20
1651.412091079373
 30
0.0
 40
24.4326171875
 41
0.0
 46
0.0
 71
     5
 72
     1
  1
\A1;500
  7
ＭＳ ゴシック
 73
     1
 44
1.0
  0
POINT
  5
3F36
330
3F2D
100
AcDbEntity
  8
Defpoints
 62
     0
100
AcDbPoint
 10
502.6570396872366
 20
1545.626273844589
 30
0.0
  0
POINT
  5
3F37
330
3F2D
100
AcDbEntity
  8
Defpoints
 62
     0
100
AcDbPoint
 10
1002.657039687237
 20
1498.104403149505
 30
0.0
  0
POINT
  5
3F38
330
3F2D
100
AcDbEntity
  8
Defpoints
 62
     0
100
AcDbPoint
 10
1002.657039687237
 20
1629.195782485623
 30
0.0
  0
ENDBLK
  5
3F2F
330
3F2D
100
AcDbEntity
  8
0
100
AcDbBlockEnd
  0
BLOCK
  5
3F3B
330
3F3A
100
AcDbEntity
  8
0
100
AcDbBlockBegin
  2
*D18
 70
     1
 10
0.0
 20
0.0
 30
0.0
  3
*D18
  1
*D465
  0
LINE
  5
3F3D
330
3F3A
100
AcDbEntity
  8
Dim
  6
Continuous
 62
     0
370
    -2
100
AcDbLine
 10
482.4185268485944
 20
548.2299680480567
 30
0.0
 11
366.9897980967991
 21
548.2299680480567
 31
0.0
  0
LINE
  5
3F3E
330
3F3A
100
AcDbEntity
  8
Dim
  6
Continuous
 62
     0
370
    -2
100
AcDbLine
 10
482.4185268485953
 20
1548.229968048057
 30
0.0
 11
366.9897980967994
 21
1548.229968048057
 31
0.0
  0
LINE
  5
3F3F
330
3F3A
100
AcDbEntity
  8
Dim
  6
Continuous
 62
     0
370
    -2
100
AcDbLine
 10
366.9897980967991
 20
558.2293576964942
 30
0.0
 11
366.9897980967994
 21
1538.230578399619
 31
0.0
  0
INSERT
  5
3F40
330
3F3A
100
AcDbEntity
  8
Dim
 62
     0
370
    -2
100
AcDbBlockReference
  2
_DOT
 10
366.9897980967991
 20
548.2299680480567
 30
0.0
 41
9.999389648437498
 42
9.999389648437498
 43
9.999389648437498
 50
270.0
  0
INSERT
  5
3F41
330
3F3A
100
AcDbEntity
  8
Dim
 62
     0
370
    -2
100
AcDbBlockReference
  2
_DOT
 10
366.9897980967994
 20
1548.229968048057
 30
0.0
 41
9.999389648437498
 42
9.999389648437498
 43
9.999389648437498
 50
89.99999999999999
  0
MTEXT
  5
3F42
330
3F3A
100
AcDbEntity
  8
Dim
  6
Continuous
 62
     0
100
AcDbMText
 10
344.7734895030493
 20
1048.229968048057
 30
0.0
 40
24.4326171875
 41
0.0
 46
0.0
 71
     5
 72
     1
  1
\A1;1000
  7
ＭＳ ゴシック
 11
2.842170943040400E-16
 21
1.0
 31
0.0
 73
     1
 44
1.0
  0
POINT
  5
3F43
330
3F3A
100
AcDbEntity
  8
Defpoints
 62
     0
100
AcDbPoint
 10
507.4185268485944
 20
548.2299680480567
 30
0.0
  0
POINT
  5
3F44
330
3F3A
100
AcDbEntity
  8
Defpoints
 62
     0
100
AcDbPoint
 10
507.4185268485953
 20
1548.229968048057
 30
0.0
  0
POINT
  5
3F45
330
3F3A
100
AcDbEntity
  8
Defpoints
 62
     0
100
AcDbPoint
 10
366.9897980967994
 20
1548.229968048057
 30
0.0
  0
ENDBLK
  5
3F3C
330
3F3A
100
AcDbEntity
  8
0
100
AcDbBlockEnd
  0
BLOCK
  5
3F48
330
3F47
100
AcDbEntity
  8
0
100
AcDbBlockBegin
  2
*D19
 70
     1
 10
0.0
 20
0.0
 30
0.0
  3
*D19
  1
*D466
  0
LINE
  5
3F4A
330
3F47
100
AcDbEntity
  8
Dim
  6
Continuous
 62
     0
370
    -2
100
AcDbLine
 10
502.6570482959573
 20
531.6561525345217
 30
0.0
 11
502.6570482959573
 21
469.3315104835908
 31
0.0
  0
LINE
  5
3F4B
330
3F47
100
AcDbEntity
  8
Dim
  6
Continuous
 62
     0
370
    -2
100
AcDbLine
 10
632.6570482959573
 20
531.6561525345217
 30
0.0
 11
632.6570482959573
 21
469.3315104835908
 31
0.0
  0
LINE
  5
3F4C
330
3F47
100
AcDbEntity
  8
Dim
  6
Continuous
 62
     0
370
    -2
100
AcDbLine
 10
512.6564379443947
 20
469.3315104835908
 30
0.0
 11
622.6576586475198
 21
469.3315104835908
 31
0.0
  0
INSERT
  5
3F4D
330
3F47
100
AcDbEntity
  8
Dim
 62
     0
370
    -2
100
AcDbBlockReference
  2
_DOT
 10
502.6570482959573
 20
469.3315104835908
 30
0.0
 41
9.999389648437498
 42
9.999389648437498
 43
9.999389648437498
 50
180.0
  0
INSERT
  5
3F4E
330
3F47
100
AcDbEntity
  8
Dim
 62
     0
370
    -2
100
AcDbBlockReference
  2
_DOT
 10
632.6570482959573
 20
469.3315104835908
 30
0.0
 41
9.999389648437498
 42
9.999389648437498
 43
9.999389648437498
  0
MTEXT
  5
3F4F
330
3F47
100
AcDbEntity
  8
Dim
  6
Continuous
 62
     0
100
AcDbMText
 10
567.6570482959573
 20
491.5478190773408
 30
0.0
 40
24.4326171875
 41
0.0
 46
0.0
 71
     5
 72
     1
  1
\A1;130
  7
ＭＳ ゴシック
 73
     1
 44
1.0
  0
POINT
  5
3F50
330
3F47
100
AcDbEntity
  8
Defpoints
 62
     0
100
AcDbPoint
 10
502.6570482959573
 20
556.6561525345217
 30
0.0
  0
POINT
  5
3F51
330
3F47
100
AcDbEntity
  8
Defpoints
 62
     0
100
AcDbPoint
 10
632.6570482959573
 20
556.6561525345217
 30
0.0
  0
POINT
  5
3F52
330
3F47
100
AcDbEntity
  8
Defpoints
 62
     0
100
AcDbPoint
 10
632.6570482959573
 20
469.3315104835908
 30
0.0
  0
ENDBLK
  5
3F49
330
3F47
100
AcDbEntity
  8
0
100
AcDbBlockEnd
  0
BLOCK
  5
3F55
330
3F54
100
AcDbEntity
  8
0
100
AcDbBlockBegin
  2
*D20
 70
     1
 10
0.0
 20
0.0
 30
0.0
  3
*D20
  1
*D467
  0
LINE
  5
3F57
330
3F54
100
AcDbEntity
  8
Dim
  6
Continuous
 62
     0
370
    -2
100
AcDbLine
 10
632.6570482959573
 20
577.5045207980982
 30
0.0
 11
632.6570482959573
 21
469.3315104835909
 31
0.0
  0
LINE
  5
3F58
330
3F54
100
AcDbEntity
  8
Dim
  6
Continuous
 62
     0
370
    -2
100
AcDbLine
 10
992.657048295958
 20
580.5413171567272
 30
0.0
 11
992.657048295958
 21
469.3315104835908
 31
0.0
  0
LINE
  5
3F59
330
3F54
100
AcDbEntity
  8
Dim
  6
Continuous
 62
     0
370
    -2
100
AcDbLine
 10
642.6564379443948
 20
469.3315104835909
 30
0.0
 11
982.6576586475205
 21
469.3315104835908
 31
0.0
  0
INSERT
  5
3F5A
330
3F54
100
AcDbEntity
  8
Dim
 62
     0
370
    -2
100
AcDbBlockReference
  2
_DOT
 10
632.6570482959573
 20
469.3315104835909
 30
0.0
 41
9.999389648437498
 42
9.999389648437498
 43
9.999389648437498
 50
180.0
  0
INSERT
  5
3F5B
330
3F54
100
AcDbEntity
  8
Dim
 62
     0
370
    -2
100
AcDbBlockReference
  2
_DOT
 10
992.657048295958
 20
469.3315104835908
 30
0.0
 41
9.999389648437498
 42
9.999389648437498
 43
9.999389648437498
 50
360.0
  0
MTEXT
  5
3F5C
330
3F54
100
AcDbEntity
  8
Dim
  6
Continuous
 62
     0
100
AcDbMText
 10
812.6570482959577
 20
491.5478190773408
 30
0.0
 40
24.4326171875
 41
0.0
 46
0.0
 71
     5
 72
     1
  1
\A1;360
  7
ＭＳ ゴシック
 73
     1
 44
1.0
  0
POINT
  5
3F5D
330
3F54
100
AcDbEntity
  8
Defpoints
 62
     0
100
AcDbPoint
 10
632.6570482959573
 20
602.5045207980982
 30
0.0
  0
POINT
  5
3F5E
330
3F54
100
AcDbEntity
  8
Defpoints
 62
     0
100
AcDbPoint
 10
992.657048295958
 20
605.5413171567272
 30
0.0
  0
POINT
  5
3F5F
330
3F54
100
AcDbEntity
  8
Defpoints
 62
     0
100
AcDbPoint
 10
992.657048295958
 20
469.3315104835908
 30
0.0
  0
ENDBLK
  5
3F56
330
3F54
100
AcDbEntity
  8
0
100
AcDbBlockEnd
  0
BLOCK
  5
3F89
330
3F88
100
AcDbEntity
  8
0
100
AcDbBlockBegin
  2
*D21
 70
     1
 10
0.0
 20
0.0
 30
0.0
  3
*D21
  1
*D468
  0
LINE
  5
3F8B
330
3F88
100
AcDbEntity
  8
Dim
  6
Continuous
 62
     0
370
    -2
100
AcDbLine
 10
942.6570399692237
 20
2753.712529547661
 30
0.0
 11
942.6570399692237
 21
2820.802010965926
 31
0.0
  0
LINE
  5
3F8C
330
3F88
100
AcDbEntity
  8
Dim
  6
Continuous
 62
     0
370
    -2
100
AcDbLine
 10
502.6570488180212
 20
2818.980966345787
 30
0.0
 11
502.6570488180212
 21
2820.802010965926
 31
0.0
  0
LINE
  5
3F8D
330
3F88
100
AcDbEntity
  8
Dim
  6
Continuous
 62
     0
370
    -2
100
AcDbLine
 10
932.6576503207862
 20
2820.802010965926
 30
0.0
 11
512.6564384664587
 21
2820.802010965926
 31
0.0
  0
INSERT
  5
3F8E
330
3F88
100
AcDbEntity
  8
Dim
 62
     0
370
    -2
100
AcDbBlockReference
  2
_DOT
 10
942.6570399692237
 20
2820.802010965926
 30
0.0
 41
9.999389648437498
 42
9.999389648437498
 43
9.999389648437498
  0
INSERT
  5
3F8F
330
3F88
100
AcDbEntity
  8
Dim
 62
     0
370
    -2
100
AcDbBlockReference
  2
_DOT
 10
502.6570488180212
 20
2820.802010965926
 30
0.0
 41
9.999389648437498
 42
9.999389648437498
 43
9.999389648437498
 50
180.0
  0
MTEXT
  5
3F90
330
3F88
100
AcDbEntity
  8
Dim
  6
Continuous
 62
     0
100
AcDbMText
 10
722.6570398317222
 20
2843.018319559676
 30
0.0
 40
24.4326171875
 41
0.0
 46
0.0
 71
     5
 72
     1
  1
\A1;440
  7
ＭＳ ゴシック
 73
     1
 44
1.0
  0
POINT
  5
3F91
330
3F88
100
AcDbEntity
  8
Defpoints
 62
     0
100
AcDbPoint
 10
942.6570399692237
 20
2728.712529547661
 30
0.0
  0
POINT
  5
3F92
330
3F88
100
AcDbEntity
  8
Defpoints
 62
     0
100
AcDbPoint
 10
502.6570488180212
 20
2793.980966345787
 30
0.0
  0
POINT
  5
3F93
330
3F88
100
AcDbEntity
  8
Defpoints
 62
     0
100
AcDbPoint
 10
502.6570488180212
 20
2820.802010965926
 30
0.0
  0
ENDBLK
  5
3F8A
330
3F88
100
AcDbEntity
  8
0
100
AcDbBlockEnd
  0
BLOCK
  5
3F98
330
3F97
100
AcDbEntity
  8
0
100
AcDbBlockBegin
  2
*D22
 70
     1
 10
0.0
 20
0.0
 30
0.0
  3
*D22
  1
*D469
  0
LINE
  5
3F9A
330
3F97
100
AcDbEntity
  8
Dim
  6
Continuous
 62
     0
370
    -2
100
AcDbLine
 10
477.6570399692241
 20
2728.712529547661
 30
0.0
 11
386.3049314491389
 21
2728.712529547661
 31
0.0
  0
LINE
  5
3F9B
330
3F97
100
AcDbEntity
  8
Dim
  6
Continuous
 62
     0
370
    -2
100
AcDbLine
 10
477.6570399692241
 20
1798.712529547661
 30
0.0
 11
386.3049314491386
 21
1798.712529547661
 31
0.0
  0
LINE
  5
3F9C
330
3F97
100
AcDbEntity
  8
Dim
  6
Continuous
 62
     0
370
    -2
100
AcDbLine
 10
386.3049314491389
 20
2718.713139899223
 30
0.0
 11
386.3049314491386
 21
1808.711919196099
 31
0.0
  0
INSERT
  5
3F9D
330
3F97
100
AcDbEntity
  8
Dim
 62
     0
370
    -2
100
AcDbBlockReference
  2
_DOT
 10
386.3049314491389
 20
2728.712529547661
 30
0.0
 41
9.999389648437498
 42
9.999389648437498
 43
9.999389648437498
 50
89.99999999999999
  0
INSERT
  5
3F9E
330
3F97
100
AcDbEntity
  8
Dim
 62
     0
370
    -2
100
AcDbBlockReference
  2
_DOT
 10
386.3049314491386
 20
1798.712529547661
 30
0.0
 41
9.999389648437498
 42
9.999389648437498
 43
9.999389648437498
 50
270.0
  0
MTEXT
  5
3F9F
330
3F97
100
AcDbEntity
  8
Dim
  6
Continuous
 62
     0
100
AcDbMText
 10
364.0886228553887
 20
2263.712529547661
 30
0.0
 40
24.4326171875
 41
0.0
 46
0.0
 71
     5
 72
     1
  1
\A1;930
  7
ＭＳ ゴシック
 11
3.056097788215485E-16
 21
1.0
 31
0.0
 73
     1
 44
1.0
  0
POINT
  5
3FA0
330
3F97
100
AcDbEntity
  8
Defpoints
 62
     0
100
AcDbPoint
 10
502.6570399692241
 20
2728.712529547661
 30
0.0
  0
POINT
  5
3FA1
330
3F97
100
AcDbEntity
  8
Defpoints
 62
     0
100
AcDbPoint
 10
502.6570399692241
 20
1798.712529547661
 30
0.0
  0
POINT
  5
3FA2
330
3F97
100
AcDbEntity
  8
Defpoints
 62
     0
100
AcDbPoint
 10
386.3049314491386
 20
1798.712529547661
 30
0.0
  0
ENDBLK
  5
3F99
330
3F97
100
AcDbEntity
  8
0
100
AcDbBlockEnd
  0
BLOCK
  5
3FBB
330
3FBA
100
AcDbEntity
  8
0
100
AcDbBlockBegin
  2
*D23
 70
     1
 10
0.0
 20
0.0
 30
0.0
  3
*D23
  1
*D470
  0
LINE
  5
3FBD
330
3FBA
100
AcDbEntity
  8
Dim
  6
Continuous
 62
     0
370
    -2
100
AcDbLine
 10
1783.311757547591
 20
2323.700520928342
 30
0.0
 11
1873.042225876746
 21
2323.700520928342
 31
0.0
  0
LINE
  5
3FBE
330
3FBA
100
AcDbEntity
  8
Dim
  6
Continuous
 62
     0
370
    -2
100
AcDbLine
 10
1743.026066449157
 20
2548.700520928342
 30
0.0
 11
1873.042225876746
 21
2548.700520928342
 31
0.0
  0
LINE
  5
3FBF
330
3FBA
100
AcDbEntity
  8
Dim
  6
Continuous
 62
     0
370
    -2
100
AcDbLine
 10
1873.042225876746
 20
2333.69991057678
 30
0.0
 11
1873.042225876746
 21
2538.701131279905
 31
0.0
  0
INSERT
  5
3FC0
330
3FBA
100
AcDbEntity
  8
Dim
 62
     0
370
    -2
100
AcDbBlockReference
  2
_DOT
 10
1873.042225876746
 20
2323.700520928342
 30
0.0
 41
9.999389648437498
 42
9.999389648437498
 43
9.999389648437498
 50
270.0
  0
INSERT
  5
3FC1
330
3FBA
100
AcDbEntity
  8
Dim
 62
     0
370
    -2
100
AcDbBlockReference
  2
_DOT
 10
1873.042225876746
 20
2548.700520928342
 30
0.0
 41
9.999389648437498
 42
9.999389648437498
 43
9.999389648437498
 50
90.0
  0
MTEXT
  5
3FC2
330
3FBA
100
AcDbEntity
  8
Dim
  6
Continuous
 62
     0
100
AcDbMText
 10
1850.825917282996
 20
2436.200520928342
 30
0.0
 40
24.4326171875
 41
0.0
 46
0.0
 71
     5
 72
     1
  1
\A1;225
  7
ＭＳ ゴシック
 11
0.0
 21
1.0
 31
0.0
 73
     1
 44
1.0
  0
POINT
  5
3FC3
330
3FBA
100
AcDbEntity
  8
Defpoints
 62
     0
100
AcDbPoint
 10
1758.311757547591
 20
2323.700520928342
 30
0.0
  0
POINT
  5
3FC4
330
3FBA
100
AcDbEntity
  8
Defpoints
 62
     0
100
AcDbPoint
 10
1718.026066449157
 20
2548.700520928342
 30
0.0
  0
POINT
  5
3FC5
330
3FBA
100
AcDbEntity
  8
Defpoints
 62
     0
100
AcDbPoint
 10
1873.042225876746
 20
2548.700520928342
 30
0.0
  0
ENDBLK
  5
3FBC
330
3FBA
100
AcDbEntity
  8
0
100
AcDbBlockEnd
  0
BLOCK
  5
3FC8
330
3FC7
100
AcDbEntity
  8
0
100
AcDbBlockBegin
  2
*D24
 70
     1
 10
0.0
 20
0.0
 30
0.0
  3
*D24
  1
*D471
  0
LINE
  5
3FCA
330
3FC7
100
AcDbEntity
  8
Dim
  6
Continuous
 62
     0
370
    -2
100
AcDbLine
 10
1577.482634450484
 20
2028.502789954136
 30
0.0
 11
1577.482634450484
 21
1946.123319149668
 31
0.0
  0
LINE
  5
3FCB
330
3FC7
100
AcDbEntity
  8
Dim
  6
Continuous
 62
     0
370
    -2
100
AcDbLine
 10
1687.482634450484
 20
2028.502789954136
 30
0.0
 11
1687.482634450484
 21
1946.123319149668
 31
0.0
  0
LINE
  5
3FCC
330
3FC7
100
AcDbEntity
  8
Dim
  6
Continuous
 62
     0
370
    -2
100
AcDbLine
 10
1587.482024098922
 20
1946.123319149668
 30
0.0
 11
1677.483244802047
 21
1946.123319149668
 31
0.0
  0
INSERT
  5
3FCD
330
3FC7
100
AcDbEntity
  8
Dim
 62
     0
370
    -2
100
AcDbBlockReference
  2
_DOT
 10
1577.482634450484
 20
1946.123319149668
 30
0.0
 41
9.999389648437498
 42
9.999389648437498
 43
9.999389648437498
 50
180.0
  0
INSERT
  5
3FCE
330
3FC7
100
AcDbEntity
  8
Dim
 62
     0
370
    -2
100
AcDbBlockReference
  2
_DOT
 10
1687.482634450484
 20
1946.123319149668
 30
0.0
 41
9.999389648437498
 42
9.999389648437498
 43
9.999389648437498
  0
MTEXT
  5
3FCF
330
3FC7
100
AcDbEntity
  8
Dim
  6
Continuous
 62
     0
100
AcDbMText
 10
1632.482634450484
 20
1968.339627743418
 30
0.0
 40
24.4326171875
 41
0.0
 46
0.0
 71
     5
 72
     1
  1
\A1;110
  7
ＭＳ ゴシック
 73
     1
 44
1.0
  0
POINT
  5
3FD0
330
3FC7
100
AcDbEntity
  8
Defpoints
 62
     0
100
AcDbPoint
 10
1577.482634450484
 20
2053.502789954136
 30
0.0
  0
POINT
  5
3FD1
330
3FC7
100
AcDbEntity
  8
Defpoints
 62
     0
100
AcDbPoint
 10
1687.482634450484
 20
2053.502789954136
 30
0.0
  0
POINT
  5
3FD2
330
3FC7
100
AcDbEntity
  8
Defpoints
 62
     0
100
AcDbPoint
 10
1687.482634450484
 20
1946.123319149668
 30
0.0
  0
ENDBLK
  5
3FC9
330
3FC7
100
AcDbEntity
  8
0
100
AcDbBlockEnd
  0
BLOCK
  5
3FD5
330
3FD4
100
AcDbEntity
  8
0
100
AcDbBlockBegin
  2
*D25
 70
     1
 10
0.0
 20
0.0
 30
0.0
  3
*D25
  1
*D472
  0
LINE
  5
3FD7
330
3FD4
100
AcDbEntity
  8
Dim
  6
Continuous
 62
     0
370
    -2
100
AcDbLine
 10
1687.482634450484
 20
2003.502789954136
 30
0.0
 11
1687.482634450484
 21
1946.123319149668
 31
0.0
  0
LINE
  5
3FD8
330
3FD4
100
AcDbEntity
  8
Dim
  6
Continuous
 62
     0
370
    -2
100
AcDbLine
 10
1757.482634450484
 20
2255.745701260053
 30
0.0
 11
1757.482634450484
 21
1946.123319149668
 31
0.0
  0
LINE
  5
3FD9
330
3FD4
100
AcDbEntity
  8
Dim
  6
Continuous
 62
     0
370
    -2
100
AcDbLine
 10
1697.482024098922
 20
1946.123319149668
 30
0.0
 11
1747.483244802047
 21
1946.123319149668
 31
0.0
  0
INSERT
  5
3FDA
330
3FD4
100
AcDbEntity
  8
Dim
 62
     0
370
    -2
100
AcDbBlockReference
  2
_DOT
 10
1687.482634450484
 20
1946.123319149668
 30
0.0
 41
9.999389648437498
 42
9.999389648437498
 43
9.999389648437498
 50
180.0
  0
INSERT
  5
3FDB
330
3FD4
100
AcDbEntity
  8
Dim
 62
     0
370
    -2
100
AcDbBlockReference
  2
_DOT
 10
1757.482634450484
 20
1946.123319149668
 30
0.0
 41
9.999389648437498
 42
9.999389648437498
 43
9.999389648437498
  0
MTEXT
  5
3FDC
330
3FD4
100
AcDbEntity
  8
Dim
  6
Continuous
 62
     0
100
AcDbMText
 10
1722.482634450484
 20
1968.339627743418
 30
0.0
 40
24.4326171875
 41
0.0
 46
0.0
 71
     5
 72
     1
  1
\A1;70
  7
ＭＳ ゴシック
 73
     1
 44
1.0
  0
POINT
  5
3FDD
330
3FD4
100
AcDbEntity
  8
Defpoints
 62
     0
100
AcDbPoint
 10
1687.482634450484
 20
2028.502789954136
 30
0.0
  0
POINT
  5
3FDE
330
3FD4
100
AcDbEntity
  8
Defpoints
 62
     0
100
AcDbPoint
 10
1757.482634450484
 20
2280.745701260053
 30
0.0
  0
POINT
  5
3FDF
330
3FD4
100
AcDbEntity
  8
Defpoints
 62
     0
100
AcDbPoint
 10
1757.482634450484
 20
1946.123319149668
 30
0.0
  0
ENDBLK
  5
3FD6
330
3FD4
100
AcDbEntity
  8
0
100
AcDbBlockEnd
  0
BLOCK
  5
3FE5
330
3FE4
100
AcDbEntity
  8
0
100
AcDbBlockBegin
  2
*D26
 70
     1
 10
0.0
 20
0.0
 30
0.0
  3
*D26
  1
*D473
  0
LINE
  5
3FE7
330
3FE4
100
AcDbEntity
  8
Dim
  6
Continuous
 62
     0
370
    -2
100
AcDbLine
 10
1577.482648219432
 20
1567.231382892222
 30
0.0
 11
1577.482648219432
 21
1665.391803111978
 31
0.0
  0
LINE
  5
3FE8
330
3FE4
100
AcDbEntity
  8
Dim
  6
Continuous
 62
     0
370
    -2
100
AcDbLine
 10
1757.482648219432
 20
1112.40111414877
 30
0.0
 11
1757.482648219432
 21
1665.391803111978
 31
0.0
  0
LINE
  5
3FE9
330
3FE4
100
AcDbEntity
  8
Dim
  6
Continuous
 62
     0
370
    -2
100
AcDbLine
 10
1587.482037867869
 20
1665.391803111978
 30
0.0
 11
1747.483258570994
 21
1665.391803111978
 31
0.0
  0
INSERT
  5
3FEA
330
3FE4
100
AcDbEntity
  8
Dim
 62
     0
370
    -2
100
AcDbBlockReference
  2
_DOT
 10
1577.482648219432
 20
1665.391803111978
 30
0.0
 41
9.999389648437498
 42
9.999389648437498
 43
9.999389648437498
 50
180.0
  0
INSERT
  5
3FEB
330
3FE4
100
AcDbEntity
  8
Dim
 62
     0
370
    -2
100
AcDbBlockReference
  2
_DOT
 10
1757.482648219432
 20
1665.391803111978
 30
0.0
 41
9.999389648437498
 42
9.999389648437498
 43
9.999389648437498
  0
MTEXT
  5
3FEC
330
3FE4
100
AcDbEntity
  8
Dim
  6
Continuous
 62
     0
100
AcDbMText
 10
1667.482648219432
 20
1687.608111705728
 30
0.0
 40
24.4326171875
 41
0.0
 46
0.0
 71
     5
 72
     1
  1
\A1;180
  7
ＭＳ ゴシック
 73
     1
 44
1.0
  0
POINT
  5
3FED
330
3FE4
100
AcDbEntity
  8
Defpoints
 62
     0
100
AcDbPoint
 10
1577.482648219432
 20
1542.231382892222
 30
0.0
  0
POINT
  5
3FEE
330
3FE4
100
AcDbEntity
  8
Defpoints
 62
     0
100
AcDbPoint
 10
1757.482648219432
 20
1087.40111414877
 30
0.0
  0
POINT
  5
3FEF
330
3FE4
100
AcDbEntity
  8
Defpoints
 62
     0
100
AcDbPoint
 10
1757.482648219432
 20
1665.391803111978
 30
0.0
  0
ENDBLK
  5
3FE6
330
3FE4
100
AcDbEntity
  8
0
100
AcDbBlockEnd
  0
BLOCK
  5
4004
330
4003
100
AcDbEntity
  8
0
100
AcDbBlockBegin
  2
*D27
 70
     1
 10
0.0
 20
0.0
 30
0.0
  3
*D27
  1
*D474
  0
LINE
  5
4006
330
4003
100
AcDbEntity
  8
Dim
  6
Continuous
 62
     0
370
    -2
100
AcDbLine
 10
1555.482637038308
 20
2548.700528701495
 30
0.0
 11
1497.817706985224
 21
2548.700528701495
 31
0.0
  0
LINE
  5
4007
330
4003
100
AcDbEntity
  8
Dim
  6
Continuous
 62
     0
370
    -2
100
AcDbLine
 10
1555.482637038307
 20
2483.700528701495
 30
0.0
 11
1497.817706985224
 21
2483.700528701495
 31
0.0
  0
LINE
  5
4008
330
4003
100
AcDbEntity
  8
Dim
  6
Continuous
 62
     0
370
    -2
100
AcDbLine
 10
1497.817706985224
 20
2538.701139053057
 30
0.0
 11
1497.817706985224
 21
2493.699918349932
 31
0.0
  0
INSERT
  5
4009
330
4003
100
AcDbEntity
  8
Dim
 62
     0
370
    -2
100
AcDbBlockReference
  2
_DOT
 10
1497.817706985224
 20
2548.700528701495
 30
0.0
 41
9.999389648437498
 42
9.999389648437498
 43
9.999389648437498
 50
90.0
  0
INSERT
  5
400A
330
4003
100
AcDbEntity
  8
Dim
 62
     0
370
    -2
100
AcDbBlockReference
  2
_DOT
 10
1497.817706985224
 20
2483.700528701495
 30
0.0
 41
9.999389648437498
 42
9.999389648437498
 43
9.999389648437498
 50
270.0
  0
MTEXT
  5
400B
330
4003
100
AcDbEntity
  8
Dim
  6
Continuous
 62
     0
100
AcDbMText
 10
1475.601398391474
 20
2516.200528701495
 30
0.0
 40
24.4326171875
 41
0.0
 46
0.0
 71
     5
 72
     1
  1
\A1;65
  7
ＭＳ ゴシック
 11
0.0
 21
1.0
 31
0.0
 73
     1
 44
1.0
  0
POINT
  5
400C
330
4003
100
AcDbEntity
  8
Defpoints
 62
     0
100
AcDbPoint
 10
1580.482637038308
 20
2548.700528701495
 30
0.0
  0
POINT
  5
400D
330
4003
100
AcDbEntity
  8
Defpoints
 62
     0
100
AcDbPoint
 10
1580.482637038307
 20
2483.700528701495
 30
0.0
  0
POINT
  5
400E
330
4003
100
AcDbEntity
  8
Defpoints
 62
     0
100
AcDbPoint
 10
1497.817706985224
 20
2483.700528701495
 30
0.0
  0
ENDBLK
  5
4005
330
4003
100
AcDbEntity
  8
0
100
AcDbBlockEnd
  0
BLOCK
  5
4013
330
4012
100
AcDbEntity
  8
0
100
AcDbBlockBegin
  2
*D28
 70
     1
 10
0.0
 20
0.0
 30
0.0
  3
*D28
  1
*D475
  0
LINE
  5
4015
330
4012
100
AcDbEntity
  8
Dim
  6
Continuous
 62
     0
370
    -2
100
AcDbLine
 10
2747.58148693247
 20
1307.468114074704
 30
0.0
 11
2747.58148693247
 21
1374.319732614629
 31
0.0
  0
LINE
  5
4016
330
4012
100
AcDbEntity
  8
Dim
  6
Continuous
 62
     0
370
    -2
100
AcDbLine
 10
2908.189714518581
 20
1307.468114074704
 30
0.0
 11
2908.189714518581
 21
1374.319732614629
 31
0.0
  0
LINE
  5
4017
330
4012
100
AcDbEntity
  8
Dim
  6
Continuous
 62
     0
370
    -2
100
AcDbLine
 10
2757.580876580907
 20
1374.319732614629
 30
0.0
 11
2898.190324870143
 21
1374.319732614629
 31
0.0
  0
INSERT
  5
4018
330
4012
100
AcDbEntity
  8
Dim
 62
     0
370
    -2
100
AcDbBlockReference
  2
_DOT
 10
2747.58148693247
 20
1374.319732614629
 30
0.0
 41
9.999389648437498
 42
9.999389648437498
 43
9.999389648437498
 50
180.0
  0
INSERT
  5
4019
330
4012
100
AcDbEntity
  8
Dim
 62
     0
370
    -2
100
AcDbBlockReference
  2
_DOT
 10
2908.189714518581
 20
1374.319732614629
 30
0.0
 41
9.999389648437498
 42
9.999389648437498
 43
9.999389648437498
  0
MTEXT
  5
401A
330
4012
100
AcDbEntity
  8
Dim
  6
Continuous
 62
     0
100
AcDbMText
 10
2827.885600725525
 20
1396.536041208379
 30
0.0
 40
24.4326171875
 41
0.0
 46
0.0
 71
     5
 72
     1
  1
\A1;160.6
  7
ＭＳ ゴシック
 73
     1
 44
1.0
  0
POINT
  5
401B
330
4012
100
AcDbEntity
  8
Defpoints
 62
     0
100
AcDbPoint
 10
2747.58148693247
 20
1282.468114074704
 30
0.0
  0
POINT
  5
401C
330
4012
100
AcDbEntity
  8
Defpoints
 62
     0
100
AcDbPoint
 10
2908.189714518581
 20
1282.468114074704
 30
0.0
  0
POINT
  5
401D
330
4012
100
AcDbEntity
  8
Defpoints
 62
     0
100
AcDbPoint
 10
2908.189714518581
 20
1374.319732614629
 30
0.0
  0
ENDBLK
  5
4014
330
4012
100
AcDbEntity
  8
0
100
AcDbBlockEnd
  0
BLOCK
  5
4022
330
4021
100
AcDbEntity
  8
0
100
AcDbBlockBegin
  2
*D29
 70
     1
 10
0.0
 20
0.0
 30
0.0
  3
*D29
  1
*D476
  0
LINE
  5
4024
330
4021
100
AcDbEntity
  8
Dim
  6
Continuous
 62
     0
370
    -2
100
AcDbLine
 10
2747.58148693247
 20
1307.468114074704
 30
0.0
 11
2747.58148693247
 21
1394.114296063412
 31
0.0
  0
LINE
  5
4025
330
4021
100
AcDbEntity
  8
Dim
  6
Continuous
 62
     0
370
    -2
100
AcDbLine
 10
2907.58148693247
 20
1307.468114074704
 30
0.0
 11
2907.58148693247
 21
1394.114296063412
 31
0.0
  0
LINE
  5
4026
330
4021
100
AcDbEntity
  8
Dim
  6
Continuous
 62
     0
370
    -2
100
AcDbLine
 10
2757.580876580907
 20
1394.114296063412
 30
0.0
 11
2897.582097284032
 21
1394.114296063412
 31
0.0
  0
INSERT
  5
4027
330
4021
100
AcDbEntity
  8
Dim
 62
     0
370
    -2
100
AcDbBlockReference
  2
_DOT
 10
2747.58148693247
 20
1394.114296063412
 30
0.0
 41
9.999389648437498
 42
9.999389648437498
 43
9.999389648437498
 50
180.0
  0
INSERT
  5
4028
330
4021
100
AcDbEntity
  8
Dim
 62
     0
370
    -2
100
AcDbBlockReference
  2
_DOT
 10
2907.58148693247
 20
1394.114296063412
 30
0.0
 41
9.999389648437498
 42
9.999389648437498
 43
9.999389648437498
  0
MTEXT
  5
4029
330
4021
100
AcDbEntity
  8
Dim
  6
Continuous
 62
     0
100
AcDbMText
 10
2827.58148693247
 20
1416.330604657162
 30
0.0
 40
24.4326171875
 41
0.0
 46
0.0
 71
     5
 72
     1
  1
\A1;160
  7
ＭＳ ゴシック
 73
     1
 44
1.0
  0
POINT
  5
402A
330
4021
100
AcDbEntity
  8
Defpoints
 62
     0
100
AcDbPoint
 10
2747.58148693247
 20
1282.468114074704
 30
0.0
  0
POINT
  5
402B
330
4021
100
AcDbEntity
  8
Defpoints
 62
     0
100
AcDbPoint
 10
2907.58148693247
 20
1282.468114074704
 30
0.0
  0
POINT
  5
402C
330
4021
100
AcDbEntity
  8
Defpoints
 62
     0
100
AcDbPoint
 10
2907.58148693247
 20
1394.114296063412
 30
0.0
  0
ENDBLK
  5
4023
330
4021
100
AcDbEntity
  8
0
100
AcDbBlockEnd
  0
BLOCK
  5
4031
330
4030
100
AcDbEntity
  8
0
100
AcDbBlockBegin
  2
*D30
 70
     1
 10
0.0
 20
0.0
 30
0.0
  3
*D30
  1
*D477
  0
LINE
  5
4033
330
4030
100
AcDbEntity
  8
Dim
  6
Continuous
 62
     0
370
    -2
100
AcDbLine
 10
3187.564714457958
 20
1307.468114074704
 30
0.0
 11
3187.564714457958
 21
1394.114296063412
 31
0.0
  0
LINE
  5
4034
330
4030
100
AcDbEntity
  8
Dim
  6
Continuous
 62
     0
370
    -2
100
AcDbLine
 10
3347.564714457958
 20
1307.468114074704
 30
0.0
 11
3347.564714457958
 21
1394.114296063412
 31
0.0
  0
LINE
  5
4035
330
4030
100
AcDbEntity
  8
Dim
  6
Continuous
 62
     0
370
    -2
100
AcDbLine
 10
3197.564104106395
 20
1394.114296063412
 30
0.0
 11
3337.56532480952
 21
1394.114296063412
 31
0.0
  0
INSERT
  5
4036
330
4030
100
AcDbEntity
  8
Dim
 62
     0
370
    -2
100
AcDbBlockReference
  2
_DOT
 10
3187.564714457958
 20
1394.114296063412
 30
0.0
 41
9.999389648437498
 42
9.999389648437498
 43
9.999389648437498
 50
180.0
  0
INSERT
  5
4037
330
4030
100
AcDbEntity
  8
Dim
 62
     0
370
    -2
100
AcDbBlockReference
  2
_DOT
 10
3347.564714457958
 20
1394.114296063412
 30
0.0
 41
9.999389648437498
 42
9.999389648437498
 43
9.999389648437498
  0
MTEXT
  5
4038
330
4030
100
AcDbEntity
  8
Dim
  6
Continuous
 62
     0
100
AcDbMText
 10
3267.564714457958
 20
1416.330604657162
 30
0.0
 40
24.4326171875
 41
0.0
 46
0.0
 71
     5
 72
     1
  1
\A1;160
  7
ＭＳ ゴシック
 73
     1
 44
1.0
  0
POINT
  5
4039
330
4030
100
AcDbEntity
  8
Defpoints
 62
     0
100
AcDbPoint
 10
3187.564714457958
 20
1282.468114074704
 30
0.0
  0
POINT
  5
403A
330
4030
100
AcDbEntity
  8
Defpoints
 62
     0
100
AcDbPoint
 10
3347.564714457958
 20
1282.468114074704
 30
0.0
  0
POINT
  5
403B
330
4030
100
AcDbEntity
  8
Defpoints
 62
     0
100
AcDbPoint
 10
3347.564714457958
 20
1394.114296063412
 30
0.0
  0
ENDBLK
  5
4032
330
4030
100
AcDbEntity
  8
0
100
AcDbBlockEnd
  0
BLOCK
  5
403E
330
403D
100
AcDbEntity
  8
0
100
AcDbBlockBegin
  2
*D31
 70
     1
 10
0.0
 20
0.0
 30
0.0
  3
*D31
  1
*D478
  0
LINE
  5
4040
330
403D
100
AcDbEntity
  8
Dim
  6
Continuous
 62
     0
370
    -2
100
AcDbLine
 10
1567.983147531084
 20
908.2316114367297
 30
0.0
 11
1481.336965542376
 21
908.2316114367297
 31
0.0
  0
LINE
  5
4041
330
403D
100
AcDbEntity
  8
Dim
  6
Continuous
 62
     0
370
    -2
100
AcDbLine
 10
1567.983147531084
 20
1188.23161143673
 30
0.0
 11
1481.336965542376
 21
1188.23161143673
 31
0.0
  0
LINE
  5
4042
330
403D
100
AcDbEntity
  8
Dim
  6
Continuous
 62
     0
370
    -2
100
AcDbLine
 10
1481.336965542376
 20
918.2310010851672
 30
0.0
 11
1481.336965542376
 21
1178.232221788292
 31
0.0
  0
INSERT
  5
4043
330
403D
100
AcDbEntity
  8
Dim
 62
     0
370
    -2
100
AcDbBlockReference
  2
_DOT
 10
1481.336965542376
 20
908.2316114367297
 30
0.0
 41
9.999389648437498
 42
9.999389648437498
 43
9.999389648437498
 50
270.0
  0
INSERT
  5
4044
330
403D
100
AcDbEntity
  8
Dim
 62
     0
370
    -2
100
AcDbBlockReference
  2
_DOT
 10
1481.336965542376
 20
1188.23161143673
 30
0.0
 41
9.999389648437498
 42
9.999389648437498
 43
9.999389648437498
 50
90.0
  0
MTEXT
  5
4045
330
403D
100
AcDbEntity
  8
Dim
  6
Continuous
 62
     0
100
AcDbMText
 10
1459.120656948626
 20
1048.23161143673
 30
0.0
 40
24.4326171875
 41
0.0
 46
0.0
 71
     5
 72
     1
  1
\A1;280
  7
ＭＳ ゴシック
 11
0.0
 21
1.0
 31
0.0
 73
     1
 44
1.0
  0
POINT
  5
4046
330
403D
100
AcDbEntity
  8
Defpoints
 62
     0
100
AcDbPoint
 10
1592.983147531084
 20
908.2316114367297
 30
0.0
  0
POINT
  5
4047
330
403D
100
AcDbEntity
  8
Defpoints
 62
     0
100
AcDbPoint
 10
1592.983147531084
 20
1188.23161143673
 30
0.0
  0
POINT
  5
4048
330
403D
100
AcDbEntity
  8
Defpoints
 62
     0
100
AcDbPoint
 10
1481.336965542376
 20
1188.23161143673
 30
0.0
  0
ENDBLK
  5
403F
330
403D
100
AcDbEntity
  8
0
100
AcDbBlockEnd
  0
BLOCK
  5
404C
330
404B
100
AcDbEntity
  8
0
100
AcDbBlockBegin
  2
*D32
 70
     1
 10
0.0
 20
0.0
 30
0.0
  3
*D32
  1
*D479
  0
LINE
  5
404E
330
404B
100
AcDbEntity
  8
Dim
  6
Continuous
 62
     0
370
    -2
100
AcDbLine
 10
1567.983147531084
 20
908.2316114367297
 30
0.0
 11
1481.336965542376
 21
908.2316114367297
 31
0.0
  0
LINE
  5
404F
330
404B
100
AcDbEntity
  8
Dim
  6
Continuous
 62
     0
370
    -2
100
AcDbLine
 10
1567.983147531084
 20
748.2316114367297
 30
0.0
 11
1481.336965542376
 21
748.2316114367297
 31
0.0
  0
LINE
  5
4050
330
404B
100
AcDbEntity
  8
Dim
  6
Continuous
 62
     0
370
    -2
100
AcDbLine
 10
1481.336965542376
 20
898.2322217882922
 30
0.0
 11
1481.336965542376
 21
758.2310010851672
 31
0.0
  0
INSERT
  5
4051
330
404B
100
AcDbEntity
  8
Dim
 62
     0
370
    -2
100
AcDbBlockReference
  2
_DOT
 10
1481.336965542376
 20
908.2316114367297
 30
0.0
 41
9.999389648437498
 42
9.999389648437498
 43
9.999389648437498
 50
90.0
  0
INSERT
  5
4052
330
404B
100
AcDbEntity
  8
Dim
 62
     0
370
    -2
100
AcDbBlockReference
  2
_DOT
 10
1481.336965542376
 20
748.2316114367297
 30
0.0
 41
9.999389648437498
 42
9.999389648437498
 43
9.999389648437498
 50
270.0
  0
MTEXT
  5
4053
330
404B
100
AcDbEntity
  8
Dim
  6
Continuous
 62
     0
100
AcDbMText
 10
1459.120656948626
 20
828.2316114367297
 30
0.0
 40
24.4326171875
 41
0.0
 46
0.0
 71
     5
 72
     1
  1
\A1;160
  7
ＭＳ ゴシック
 11
0.0
 21
1.0
 31
0.0
 73
     1
 44
1.0
  0
POINT
  5
4054
330
404B
100
AcDbEntity
  8
Defpoints
 62
     0
100
AcDbPoint
 10
1592.983147531084
 20
908.2316114367297
 30
0.0
  0
POINT
  5
4055
330
404B
100
AcDbEntity
  8
Defpoints
 62
     0
100
AcDbPoint
 10
1592.983147531084
 20
748.2316114367297
 30
0.0
  0
POINT
  5
4056
330
404B
100
AcDbEntity
  8
Defpoints
 62
     0
100
AcDbPoint
 10
1481.336965542376
 20
748.2316114367297
 30
0.0
  0
ENDBLK
  5
404D
330
404B
100
AcDbEntity
  8
0
100
AcDbBlockEnd
  0
BLOCK
  5
405F
330
405E
100
AcDbEntity
  8
0
100
AcDbBlockBegin
  2
*D33
 70
     1
 10
0.0
 20
0.0
 30
0.0
  3
*D33
  1
*D480
  0
LINE
  5
4061
330
405E
100
AcDbEntity
  8
Dim
  6
Continuous
 62
     0
370
    -2
100
AcDbLine
 10
1567.983147531084
 20
1188.23161143673
 30
0.0
 11
1481.336965542376
 21
1188.23161143673
 31
0.0
  0
LINE
  5
4062
330
405E
100
AcDbEntity
  8
Dim
  6
Continuous
 62
     0
370
    -2
100
AcDbLine
 10
1567.983147531084
 20
1348.23161143673
 30
0.0
 11
1481.336965542376
 21
1348.23161143673
 31
0.0
  0
LINE
  5
4063
330
405E
100
AcDbEntity
  8
Dim
  6
Continuous
 62
     0
370
    -2
100
AcDbLine
 10
1481.336965542376
 20
1198.231001085167
 30
0.0
 11
1481.336965542376
 21
1338.232221788292
 31
0.0
  0
INSERT
  5
4064
330
405E
100
AcDbEntity
  8
Dim
 62
     0
370
    -2
100
AcDbBlockReference
  2
_DOT
 10
1481.336965542376
 20
1188.23161143673
 30
0.0
 41
9.999389648437498
 42
9.999389648437498
 43
9.999389648437498
 50
270.0
  0
INSERT
  5
4065
330
405E
100
AcDbEntity
  8
Dim
 62
     0
370
    -2
100
AcDbBlockReference
  2
_DOT
 10
1481.336965542376
 20
1348.23161143673
 30
0.0
 41
9.999389648437498
 42
9.999389648437498
 43
9.999389648437498
 50
90.0
  0
MTEXT
  5
4066
330
405E
100
AcDbEntity
  8
Dim
  6
Continuous
 62
     0
100
AcDbMText
 10
1459.120656948626
 20
1268.23161143673
 30
0.0
 40
24.4326171875
 41
0.0
 46
0.0
 71
     5
 72
     1
  1
\A1;160
  7
ＭＳ ゴシック
 11
0.0
 21
1.0
 31
0.0
 73
     1
 44
1.0
  0
POINT
  5
4067
330
405E
100
AcDbEntity
  8
Defpoints
 62
     0
100
AcDbPoint
 10
1592.983147531084
 20
1188.23161143673
 30
0.0
  0
POINT
  5
4068
330
405E
100
AcDbEntity
  8
Defpoints
 62
     0
100
AcDbPoint
 10
1592.983147531084
 20
1348.23161143673
 30
0.0
  0
POINT
  5
4069
330
405E
100
AcDbEntity
  8
Defpoints
 62
     0
100
AcDbPoint
 10
1481.336965542376
 20
1348.23161143673
 30
0.0
  0
ENDBLK
  5
4060
330
405E
100
AcDbEntity
  8
0
100
AcDbBlockEnd
  0
BLOCK
  5
4074
330
4073
100
AcDbEntity
  8
0
100
AcDbBlockBegin
  2
*D34
 70
     1
 10
0.0
 20
0.0
 30
0.0
  3
*D34
  1
*D481
  0
LINE
  5
4076
330
4073
100
AcDbEntity
  8
Dim
  6
Continuous
 62
     0
370
    -2
100
AcDbLine
 10
1617.48263690724
 20
698.7321220605747
 30
0.0
 11
1617.48263690724
 21
463.6923692546663
 31
0.0
  0
LINE
  5
4077
330
4073
100
AcDbEntity
  8
Dim
  6
Continuous
 62
     0
370
    -2
100
AcDbLine
 10
1577.482645421914
 20
529.2442492980783
 30
0.0
 11
1577.482645421914
 21
463.6923692546663
 31
0.0
  0
LINE
  5
4078
330
4073
100
AcDbEntity
  8
Dim
  6
Continuous
 62
     0
370
    -2
100
AcDbLine
 10
1607.483247258803
 20
463.6923692546663
 30
0.0
 11
1587.482035070351
 21
463.6923692546663
 31
0.0
  0
INSERT
  5
4079
330
4073
100
AcDbEntity
  8
Dim
 62
     0
370
    -2
100
AcDbBlockReference
  2
_DOT
 10
1617.48263690724
 20
463.6923692546663
 30
0.0
 41
9.999389648437498
 42
9.999389648437498
 43
9.999389648437498
  0
INSERT
  5
407A
330
4073
100
AcDbEntity
  8
Dim
 62
     0
370
    -2
100
AcDbBlockReference
  2
_DOT
 10
1577.482645421914
 20
463.6923692546663
 30
0.0
 41
9.999389648437498
 42
9.999389648437498
 43
9.999389648437498
 50
180.0
  0
MTEXT
  5
407B
330
4073
100
AcDbEntity
  8
Dim
  6
Continuous
 62
     0
100
AcDbMText
 10
1597.482641164577
 20
485.9086778484163
 30
0.0
 40
24.4326171875
 41
0.0
 46
0.0
 71
     5
 72
     1
  1
\A1;40
  7
ＭＳ ゴシック
 73
     1
 44
1.0
  0
POINT
  5
407C
330
4073
100
AcDbEntity
  8
Defpoints
 62
     0
100
AcDbPoint
 10
1617.48263690724
 20
723.7321220605747
 30
0.0
  0
POINT
  5
407D
330
4073
100
AcDbEntity
  8
Defpoints
 62
     0
100
AcDbPoint
 10
1577.482645421914
 20
554.2442492980783
 30
0.0
  0
POINT
  5
407E
330
4073
100
AcDbEntity
  8
Defpoints
 62
     0
100
AcDbPoint
 10
1577.482645421914
 20
463.6923692546663
 30
0.0
  0
ENDBLK
  5
4075
330
4073
100
AcDbEntity
  8
0
100
AcDbBlockEnd
  0
BLOCK
  5
4089
330
4088
100
AcDbEntity
  8
0
100
AcDbBlockBegin
  2
*D35
 70
     1
 10
0.0
 20
0.0
 30
0.0
  3
*D35
  1
*D482
  0
LINE
  5
408B
330
4088
100
AcDbEntity
  8
Dim
  6
Continuous
 62
     0
370
    -2
100
AcDbLine
 10
4683.964406559935
 20
1297.968624931008
 30
0.0
 11
4772.076197669311
 21
1297.968624931008
 31
0.0
  0
LINE
  5
408C
330
4088
100
AcDbEntity
  8
Dim
  6
Continuous
 62
     0
370
    -2
100
AcDbLine
 10
4683.964406559935
 20
1187.968624931008
 30
0.0
 11
4772.076197669311
 21
1187.968624931008
 31
0.0
  0
LINE
  5
408D
330
4088
100
AcDbEntity
  8
Dim
  6
Continuous
 62
     0
370
    -2
100
AcDbLine
 10
4772.076197669311
 20
1287.96923528257
 30
0.0
 11
4772.076197669311
 21
1197.968014579445
 31
0.0
  0
INSERT
  5
408E
330
4088
100
AcDbEntity
  8
Dim
 62
     0
370
    -2
100
AcDbBlockReference
  2
_DOT
 10
4772.076197669311
 20
1297.968624931008
 30
0.0
 41
9.999389648437498
 42
9.999389648437498
 43
9.999389648437498
 50
90.0
  0
INSERT
  5
408F
330
4088
100
AcDbEntity
  8
Dim
 62
     0
370
    -2
100
AcDbBlockReference
  2
_DOT
 10
4772.076197669311
 20
1187.968624931008
 30
0.0
 41
9.999389648437498
 42
9.999389648437498
 43
9.999389648437498
 50
270.0
  0
MTEXT
  5
4090
330
4088
100
AcDbEntity
  8
Dim
  6
Continuous
 62
     0
100
AcDbMText
 10
4749.859889075561
 20
1242.968624931008
 30
0.0
 40
24.4326171875
 41
0.0
 46
0.0
 71
     5
 72
     1
  1
\A1;110
  7
ＭＳ ゴシック
 11
0.0
 21
1.0
 31
0.0
 73
     1
 44
1.0
  0
POINT
  5
4091
330
4088
100
AcDbEntity
  8
Defpoints
 62
     0
100
AcDbPoint
 10
4658.964406559935
 20
1297.968624931008
 30
0.0
  0
POINT
  5
4092
330
4088
100
AcDbEntity
  8
Defpoints
 62
     0
100
AcDbPoint
 10
4658.964406559935
 20
1187.968624931008
 30
0.0
  0
POINT
  5
4093
330
4088
100
AcDbEntity
  8
Defpoints
 62
     0
100
AcDbPoint
 10
4772.076197669311
 20
1187.968624931008
 30
0.0
  0
ENDBLK
  5
408A
330
4088
100
AcDbEntity
  8
0
100
AcDbBlockEnd
  0
BLOCK
  5
4098
330
4097
100
AcDbEntity
  8
0
100
AcDbBlockBegin
  2
*D36
 70
     1
 10
0.0
 20
0.0
 30
0.0
  3
*D36
  1
*D483
  0
LINE
  5
409A
330
4097
100
AcDbEntity
  8
Dim
  6
Continuous
 62
     0
370
    -2
100
AcDbLine
 10
4689.282477091095
 20
1297.968624698548
 30
0.0
 11
4743.421210581549
 21
1297.968624698548
 31
0.0
  0
LINE
  5
409B
330
4097
100
AcDbEntity
  8
Dim
  6
Continuous
 62
     0
370
    -2
100
AcDbLine
 10
4689.282477091095
 20
1147.968624698548
 30
0.0
 11
4743.421210581549
 21
1147.968624698548
 31
0.0
  0
LINE
  5
409C
330
4097
100
AcDbEntity
  8
Dim
  6
Continuous
 62
     0
370
    -2
100
AcDbLine
 10
4743.421210581549
 20
1287.96923505011
 30
0.0
 11
4743.421210581549
 21
1157.968014346985
 31
0.0
  0
INSERT
  5
409D
330
4097
100
AcDbEntity
  8
Dim
 62
     0
370
    -2
100
AcDbBlockReference
  2
_DOT
 10
4743.421210581549
 20
1297.968624698548
 30
0.0
 41
9.999389648437498
 42
9.999389648437498
 43
9.999389648437498
 50
90.0
  0
INSERT
  5
409E
330
4097
100
AcDbEntity
  8
Dim
 62
     0
370
    -2
100
AcDbBlockReference
  2
_DOT
 10
4743.421210581549
 20
1147.968624698548
 30
0.0
 41
9.999389648437498
 42
9.999389648437498
 43
9.999389648437498
 50
270.0
  0
MTEXT
  5
409F
330
4097
100
AcDbEntity
  8
Dim
  6
Continuous
 62
     0
100
AcDbMText
 10
4721.204901987799
 20
1222.968624698548
 30
0.0
 40
24.4326171875
 41
0.0
 46
0.0
 71
     5
 72
     1
  1
\A1;150
  7
ＭＳ ゴシック
 11
0.0
 21
1.0
 31
0.0
 73
     1
 44
1.0
  0
POINT
  5
40A0
330
4097
100
AcDbEntity
  8
Defpoints
 62
     0
100
AcDbPoint
 10
4664.282477091095
 20
1297.968624698548
 30
0.0
  0
POINT
  5
40A1
330
4097
100
AcDbEntity
  8
Defpoints
 62
     0
100
AcDbPoint
 10
4664.282477091095
 20
1147.968624698548
 30
0.0
  0
POINT
  5
40A2
330
4097
100
AcDbEntity
  8
Defpoints
 62
     0
100
AcDbPoint
 10
4743.421210581549
 20
1147.968624698548
 30
0.0
  0
ENDBLK
  5
4099
330
4097
100
AcDbEntity
  8
0
100
AcDbBlockEnd
  0
BLOCK
  5
40A7
330
40A6
100
AcDbEntity
  8
0
100
AcDbBlockBegin
  2
*D37
 70
     1
 10
0.0
 20
0.0
 30
0.0
  3
*D37
  1
*D484
  0
LINE
  5
40A9
330
40A6
100
AcDbEntity
  8
Dim
  6
Continuous
 62
     0
370
    -2
100
AcDbLine
 10
4689.282477091095
 20
1297.968624698548
 30
0.0
 11
4744.929367796694
 21
1297.968624698548
 31
0.0
  0
LINE
  5
40AA
330
40A6
100
AcDbEntity
  8
Dim
  6
Continuous
 62
     0
370
    -2
100
AcDbLine
 10
4684.843485731934
 20
1157.95053841316
 30
0.0
 11
4744.929367796694
 21
1157.95053841316
 31
0.0
  0
LINE
  5
40AB
330
40A6
100
AcDbEntity
  8
Dim
  6
Continuous
 62
     0
370
    -2
100
AcDbLine
 10
4744.929367796694
 20
1287.96923505011
 30
0.0
 11
4744.929367796694
 21
1167.949928061598
 31
0.0
  0
INSERT
  5
40AC
330
40A6
100
AcDbEntity
  8
Dim
 62
     0
370
    -2
100
AcDbBlockReference
  2
_DOT
 10
4744.929367796694
 20
1297.968624698548
 30
0.0
 41
9.999389648437498
 42
9.999389648437498
 43
9.999389648437498
 50
90.0
  0
INSERT
  5
40AD
330
40A6
100
AcDbEntity
  8
Dim
 62
     0
370
    -2
100
AcDbBlockReference
  2
_DOT
 10
4744.929367796694
 20
1157.95053841316
 30
0.0
 41
9.999389648437498
 42
9.999389648437498
 43
9.999389648437498
 50
270.0
  0
MTEXT
  5
40AE
330
40A6
100
AcDbEntity
  8
Dim
  6
Continuous
 62
     0
100
AcDbMText
 10
4722.713059202944
 20
1227.959581555854
 30
0.0
 40
24.4326171875
 41
0.0
 46
0.0
 71
     5
 72
     1
  1
\A1;140
  7
ＭＳ ゴシック
 11
0.0
 21
1.0
 31
0.0
 73
     1
 44
1.0
  0
POINT
  5
40AF
330
40A6
100
AcDbEntity
  8
Defpoints
 62
     0
100
AcDbPoint
 10
4664.282477091095
 20
1297.968624698548
 30
0.0
  0
POINT
  5
40B0
330
40A6
100
AcDbEntity
  8
Defpoints
 62
     0
100
AcDbPoint
 10
4659.843485731934
 20
1157.95053841316
 30
0.0
  0
POINT
  5
40B1
330
40A6
100
AcDbEntity
  8
Defpoints
 62
     0
100
AcDbPoint
 10
4744.929367796694
 20
1157.95053841316
 30
0.0
  0
ENDBLK
  5
40A8
330
40A6
100
AcDbEntity
  8
0
100
AcDbBlockEnd
  0
BLOCK
  5
40B4
330
40B3
100
AcDbEntity
  8
0
100
AcDbBlockBegin
  2
*D38
 70
     1
 10
0.0
 20
0.0
 30
0.0
  3
*D38
  1
*D485
  0
LINE
  5
40B6
330
40B3
100
AcDbEntity
  8
Dim
  6
Continuous
 62
     0
370
    -2
100
AcDbLine
 10
4689.282463830777
 20
1157.924215580945
 30
0.0
 11
4744.929367796694
 21
1157.924215580945
 31
0.0
  0
LINE
  5
40B7
330
40B3
100
AcDbEntity
  8
Dim
  6
Continuous
 62
     0
370
    -2
100
AcDbLine
 10
4689.282463830777
 20
1112.924215580945
 30
0.0
 11
4744.929367796694
 21
1112.924215580945
 31
0.0
  0
LINE
  5
40B8
330
40B3
100
AcDbEntity
  8
Dim
  6
Continuous
 62
     0
370
    -2
100
AcDbLine
 10
4744.929367796694
 20
1157.924215580945
 30
0.0
 11
4744.929367796694
 21
1112.924215580945
 31
0.0
  0
LINE
  5
40B9
330
40B3
100
AcDbEntity
  8
Dim
  6
Continuous
 62
     0
370
    -2
100
AcDbLine
 10
4744.929367796694
 20
1167.923605229383
 30
0.0
 11
4744.929367796694
 21
1177.92299487782
 31
0.0
  0
LINE
  5
40BA
330
40B3
100
AcDbEntity
  8
Dim
  6
Continuous
 62
     0
370
    -2
100
AcDbLine
 10
4744.929367796694
 20
1102.924825932508
 30
0.0
 11
4744.929367796694
 21
1092.92543628407
 31
0.0
  0
INSERT
  5
40BB
330
40B3
100
AcDbEntity
  8
Dim
 62
     0
370
    -2
100
AcDbBlockReference
  2
_DOT
 10
4744.929367796694
 20
1157.924215580945
 30
0.0
 41
9.999389648437498
 42
9.999389648437498
 43
9.999389648437498
 50
270.0
  0
INSERT
  5
40BC
330
40B3
100
AcDbEntity
  8
Dim
 62
     0
370
    -2
100
AcDbBlockReference
  2
_DOT
 10
4744.929367796694
 20
1112.924215580945
 30
0.0
 41
9.999389648437498
 42
9.999389648437498
 43
9.999389648437498
 50
90.0
  0
MTEXT
  5
40BD
330
40B3
100
AcDbEntity
  8
Dim
  6
Continuous
 62
     0
100
AcDbMText
 10
4722.713059202944
 20
1135.424215580945
 30
0.0
 40
24.4326171875
 41
0.0
 46
0.0
 71
     5
 72
     1
  1
\A1;45
  7
ＭＳ ゴシック
 11
0.0
 21
1.0
 31
0.0
 73
     1
 44
1.0
  0
POINT
  5
40BE
330
40B3
100
AcDbEntity
  8
Defpoints
 62
     0
100
AcDbPoint
 10
4664.282463830777
 20
1157.924215580945
 30
0.0
  0
POINT
  5
40BF
330
40B3
100
AcDbEntity
  8
Defpoints
 62
     0
100
AcDbPoint
 10
4664.282463830777
 20
1112.924215580945
 30
0.0
  0
POINT
  5
40C0
330
40B3
100
AcDbEntity
  8
Defpoints
 62
     0
100
AcDbPoint
 10
4744.929367796694
 20
1112.924215580945
 30
0.0
  0
ENDBLK
  5
40B5
330
40B3
100
AcDbEntity
  8
0
100
AcDbBlockEnd
  0
BLOCK
  5
40C3
330
40C2
100
AcDbEntity
  8
0
100
AcDbBlockBegin
  2
*D39
 70
     1
 10
0.0
 20
0.0
 30
0.0
  3
*D39
  1
*D486
  0
LINE
  5
40C5
330
40C2
100
AcDbEntity
  8
Dim
  6
Continuous
 62
     0
370
    -2
100
AcDbLine
 10
4498.533390012219
 20
1117.139502692179
 30
0.0
 11
4793.94447728892
 21
1117.139502692179
 31
0.0
  0
LINE
  5
40C6
330
40C2
100
AcDbEntity
  8
Dim
  6
Continuous
 62
     0
370
    -2
100
AcDbLine
 10
4498.533390012219
 20
1162.139502692179
 30
0.0
 11
4793.94447728892
 21
1162.139502692179
 31
0.0
  0
LINE
  5
40C7
330
40C2
100
AcDbEntity
  8
Dim
  6
Continuous
 62
     0
370
    -2
100
AcDbLine
 10
4793.94447728892
 20
1117.139502692179
 30
0.0
 11
4793.94447728892
 21
1162.139502692179
 31
0.0
  0
LINE
  5
40C8
330
40C2
100
AcDbEntity
  8
Dim
  6
Continuous
 62
     0
370
    -2
100
AcDbLine
 10
4793.94447728892
 20
1107.140113043742
 30
0.0
 11
4793.94447728892
 21
1097.140723395304
 31
0.0
  0
LINE
  5
40C9
330
40C2
100
AcDbEntity
  8
Dim
  6
Continuous
 62
     0
370
    -2
100
AcDbLine
 10
4793.94447728892
 20
1172.138892340617
 30
0.0
 11
4793.94447728892
 21
1182.138281989054
 31
0.0
  0
INSERT
  5
40CA
330
40C2
100
AcDbEntity
  8
Dim
 62
     0
370
    -2
100
AcDbBlockReference
  2
_DOT
 10
4793.94447728892
 20
1117.139502692179
 30
0.0
 41
9.999389648437498
 42
9.999389648437498
 43
9.999389648437498
 50
90.0
  0
INSERT
  5
40CB
330
40C2
100
AcDbEntity
  8
Dim
 62
     0
370
    -2
100
AcDbBlockReference
  2
_DOT
 10
4793.94447728892
 20
1162.139502692179
 30
0.0
 41
9.999389648437498
 42
9.999389648437498
 43
9.999389648437498
 50
270.0
  0
MTEXT
  5
40CC
330
40C2
100
AcDbEntity
  8
Dim
  6
Continuous
 62
     0
100
AcDbMText
 10
4771.72816869517
 20
1139.639502692179
 30
0.0
 40
24.4326171875
 41
0.0
 46
0.0
 71
     5
 72
     1
  1
\A1;45
  7
ＭＳ ゴシック
 11
0.0
 21
1.0
 31
0.0
 73
     1
 44
1.0
  0
POINT
  5
40CD
330
40C2
100
AcDbEntity
  8
Defpoints
 62
     0
100
AcDbPoint
 10
4473.533390012219
 20
1117.139502692179
 30
0.0
  0
POINT
  5
40CE
330
40C2
100
AcDbEntity
  8
Defpoints
 62
     0
100
AcDbPoint
 10
4473.533390012219
 20
1162.139502692179
 30
0.0
  0
POINT
  5
40CF
330
40C2
100
AcDbEntity
  8
Defpoints
 62
     0
100
AcDbPoint
 10
4793.94447728892
 20
1162.139502692179
 30
0.0
  0
ENDBLK
  5
40C4
330
40C2
100
AcDbEntity
  8
0
100
AcDbBlockEnd
  0
BLOCK
  5
40D7
330
40D6
100
AcDbEntity
  8
0
100
AcDbBlockBegin
  2
*D40
 70
     1
 10
0.0
 20
0.0
 30
0.0
  3
*D40
  1
*D487
  0
LINE
  5
40D9
330
40D6
100
AcDbEntity
  8
Dim
  6
Continuous
 62
     0
370
    -2
100
AcDbLine
 10
4689.282477091095
 20
1297.968624698548
 30
0.0
 11
4722.259879656542
 21
1297.968624698548
 31
0.0
  0
LINE
  5
40DA
330
40D6
100
AcDbEntity
  8
Dim
  6
Continuous
 62
     0
370
    -2
100
AcDbLine
 10
4687.846290197353
 20
1157.924215643722
 30
0.0
 11
4722.259879656542
 21
1157.924215643722
 31
0.0
  0
LINE
  5
40DB
330
40D6
100
AcDbEntity
  8
Dim
  6
Continuous
 62
     0
370
    -2
100
AcDbLine
 10
4722.259879656542
 20
1287.96923505011
 30
0.0
 11
4722.259879656542
 21
1167.92360529216
 31
0.0
  0
INSERT
  5
40DC
330
40D6
100
AcDbEntity
  8
Dim
 62
     0
370
    -2
100
AcDbBlockReference
  2
_DOT
 10
4722.259879656542
 20
1297.968624698548
 30
0.0
 41
9.999389648437498
 42
9.999389648437498
 43
9.999389648437498
 50
90.0
  0
INSERT
  5
40DD
330
40D6
100
AcDbEntity
  8
Dim
 62
     0
370
    -2
100
AcDbBlockReference
  2
_DOT
 10
4722.259879656542
 20
1157.924215643722
 30
0.0
 41
9.999389648437498
 42
9.999389648437498
 43
9.999389648437498
 50
270.0
  0
MTEXT
  5
40DE
330
40D6
100
AcDbEntity
  8
Dim
  6
Continuous
 62
     0
100
AcDbMText
 10
4700.043571062792
 20
1227.946420171135
 30
0.0
 40
24.4326171875
 41
0.0
 46
0.0
 71
     5
 72
     1
  1
\A1;140
  7
ＭＳ ゴシック
 11
0.0
 21
1.0
 31
0.0
 73
     1
 44
1.0
  0
POINT
  5
40DF
330
40D6
100
AcDbEntity
  8
Defpoints
 62
     0
100
AcDbPoint
 10
4664.282477091095
 20
1297.968624698548
 30
0.0
  0
POINT
  5
40E0
330
40D6
100
AcDbEntity
  8
Defpoints
 62
     0
100
AcDbPoint
 10
4662.846290197353
 20
1157.924215643722
 30
0.0
  0
POINT
  5
40E1
330
40D6
100
AcDbEntity
  8
Defpoints
 62
     0
100
AcDbPoint
 10
4722.259879656542
 20
1157.924215643722
 30
0.0
  0
ENDBLK
  5
40D8
330
40D6
100
AcDbEntity
  8
0
100
AcDbBlockEnd
  0
BLOCK
  5
4101
330
4100
100
AcDbEntity
  8
0
100
AcDbBlockBegin
  2
*D41
 70
     1
 10
0.0
 20
0.0
 30
0.0
  3
*D41
  1
*D488
  0
LINE
  5
4103
330
4100
100
AcDbEntity
  8
Dim
  6
Continuous
 62
     0
370
    -2
100
AcDbLine
 10
2797.56471448827
 20
2312.104855384638
 30
0.0
 11
2797.56471448827
 21
2522.204379169635
 31
0.0
  0
LINE
  5
4104
330
4100
100
AcDbEntity
  8
Dim
  6
Continuous
 62
     0
370
    -2
100
AcDbLine
 10
2947.56471448827
 20
2310.604855384638
 30
0.0
 11
2947.56471448827
 21
2522.204379169635
 31
0.0
  0
LINE
  5
4105
330
4100
100
AcDbEntity
  8
Dim
  6
Continuous
 62
     0
370
    -2
100
AcDbLine
 10
2807.564104136708
 20
2522.204379169635
 30
0.0
 11
2937.565324839833
 21
2522.204379169635
 31
0.0
  0
INSERT
  5
4106
330
4100
100
AcDbEntity
  8
Dim
 62
     0
370
    -2
100
AcDbBlockReference
  2
_DOT
 10
2797.56471448827
 20
2522.204379169635
 30
0.0
 41
9.999389648437498
 42
9.999389648437498
 43
9.999389648437498
 50
180.0
  0
INSERT
  5
4107
330
4100
100
AcDbEntity
  8
Dim
 62
     0
370
    -2
100
AcDbBlockReference
  2
_DOT
 10
2947.56471448827
 20
2522.204379169635
 30
0.0
 41
9.999389648437498
 42
9.999389648437498
 43
9.999389648437498
  0
MTEXT
  5
4108
330
4100
100
AcDbEntity
  8
Dim
  6
Continuous
 62
     0
100
AcDbMText
 10
2872.56471448827
 20
2544.420687763385
 30
0.0
 40
24.4326171875
 41
0.0
 46
0.0
 71
     5
 72
     1
  1
\A1;150
  7
ＭＳ ゴシック
 73
     1
 44
1.0
  0
POINT
  5
4109
330
4100
100
AcDbEntity
  8
Defpoints
 62
     0
100
AcDbPoint
 10
2797.56471448827
 20
2287.104855384638
 30
0.0
  0
POINT
  5
410A
330
4100
100
AcDbEntity
  8
Defpoints
 62
     0
100
AcDbPoint
 10
2947.56471448827
 20
2285.604855384638
 30
0.0
  0
POINT
  5
410B
330
4100
100
AcDbEntity
  8
Defpoints
 62
     0
100
AcDbPoint
 10
2947.56471448827
 20
2522.204379169635
 30
0.0
  0
ENDBLK
  5
4102
330
4100
100
AcDbEntity
  8
0
100
AcDbBlockEnd
  0
BLOCK
  5
41A8
330
41A7
100
AcDbEntity
  8
0
100
AcDbBlockBegin
  2
*D42
 70
     1
 10
0.0
 20
0.0
 30
0.0
  3
*D42
  1
*D420
  0
LINE
  5
41A9
330
41A7
100
AcDbEntity
  8
Dim
  6
Continuous
 62
     0
370
    -2
100
AcDbLine
 10
39.36800585937498
 20
129.7193147370037
 30
0.0
 11
39.368005859375
 21
302.0940139557543
 31
0.0
  0
LINE
  5
41AA
330
41A7
100
AcDbEntity
  8
Dim
  6
Continuous
 62
     0
370
    -2
100
AcDbLine
 10
39.36800585937497
 20
14.99908447265625
 30
0.0
 11
39.36800585937498
 21
119.7199250885662
 31
0.0
  0
INSERT
  5
41AB
330
41A7
100
AcDbEntity
  8
Dim
 62
     0
370
    -2
100
AcDbBlockReference
  2
_DOT
 10
39.36800585937497
 20
4.99969482421875
 30
0.0
 41
9.999389648437498
 42
9.999389648437498
 43
9.999389648437498
 50
270.0
  0
INSERT
  5
41AC
330
41A7
100
AcDbEntity
  8
Dim
 62
     0
370
    -2
100
AcDbBlockReference
  2
_DOT
 10
39.36800585937498
 20
129.7193147370037
 30
0.0
 41
9.999389648437498
 42
9.999389648437498
 43
9.999389648437498
 50
90.0
  0
MTEXT
  5
41AD
330
41A7
100
AcDbEntity
  8
Dim
  6
Continuous
 62
     0
100
AcDbMText
 10
14.98941064453123
 20
225.9060539948168
 30
0.0
 40
24.4326171875
 41
0.0
 46
0.0
 71
     5
 72
     1
  1
\A1;125(深さ)
  7
ＭＳ ゴシック
 11
5.697120759804870E-17
 21
1.0
 31
0.0
 73
     1
 44
1.0
  0
POINT
  5
41AE
330
41A7
100
AcDbEntity
  8
Defpoints
 62
     0
100
AcDbPoint
 10
39.36800585937499
 20
4.99969482421875
 30
0.0
  0
POINT
  5
41AF
330
41A7
100
AcDbEntity
  8
Defpoints
 62
     0
100
AcDbPoint
 10
39.36800585937499
 20
129.7193147370037
 30
0.0
  0
POINT
  5
41B0
330
41A7
100
AcDbEntity
  8
Defpoints
 62
     0
100
AcDbPoint
 10
39.36800585937499
 20
129.7193147370037
 30
0.0
  0
ENDBLK
  5
41B1
330
41A7
100
AcDbEntity
  8
0
100
AcDbBlockEnd
  0
BLOCK
  5
41B7
330
41B6
100
AcDbEntity
  8
0
100
AcDbBlockBegin
  2
*D43
 70
     1
 10
0.0
 20
0.0
 30
0.0
  3
*D43
  1
*D492
  0
LINE
  5
41B9
330
41B6
100
AcDbEntity
  8
Dim
  6
Continuous
 62
     0
370
    -2
100
AcDbLine
 10
1577.482648810678
 20
2326.522540411555
 30
0.0
 11
1405.107949591928
 21
2326.522540411555
 31
0.0
  0
LINE
  5
41BA
330
41B6
100
AcDbEntity
  8
Dim
  6
Continuous
 62
     0
370
    -2
100
AcDbLine
 10
1697.261362215957
 20
2326.522540411555
 30
0.0
 11
1587.482038459116
 21
2326.522540411555
 31
0.0
  0
INSERT
  5
41BB
330
41B6
100
AcDbEntity
  8
Dim
 62
     0
370
    -2
100
AcDbBlockReference
  2
_DOT
 10
1707.260751864394
 20
2326.522540411555
 30
0.0
 41
9.999389648437498
 42
9.999389648437498
 43
9.999389648437498
  0
INSERT
  5
41BC
330
41B6
100
AcDbEntity
  8
Dim
 62
     0
370
    -2
100
AcDbBlockReference
  2
_DOT
 10
1577.482648810678
 20
2326.522540411555
 30
0.0
 41
9.999389648437498
 42
9.999389648437498
 43
9.999389648437498
 50
180.0
  0
MTEXT
  5
41BD
330
41B6
100
AcDbEntity
  8
Dim
  6
Continuous
 62
     0
100
AcDbMText
 10
1481.295909552866
 20
2350.901135626399
 30
0.0
 40
24.4326171875
 41
0.0
 46
0.0
 71
     5
 72
     1
  1
\A1;130(深さ)
  7
ＭＳ ゴシック
 73
     1
 44
1.0
  0
POINT
  5
41BE
330
41B6
100
AcDbEntity
  8
Defpoints
 62
     0
100
AcDbPoint
 10
1707.260751864394
 20
2326.522540411555
 30
0.0
  0
POINT
  5
41BF
330
41B6
100
AcDbEntity
  8
Defpoints
 62
     0
100
AcDbPoint
 10
1577.482648810678
 20
2326.522540411555
 30
0.0
  0
POINT
  5
41C0
330
41B6
100
AcDbEntity
  8
Defpoints
 62
     0
100
AcDbPoint
 10
1577.482648810678
 20
2326.522540411555
 30
0.0
  0
ENDBLK
  5
41B8
330
41B6
100
AcDbEntity
  8
0
100
AcDbBlockEnd
  0
BLOCK
  5
41D7
330
41D6
100
AcDbEntity
  8
0
100
AcDbBlockBegin
  2
*D44
 70
     1
 10
0.0
 20
0.0
 30
0.0
  3
*D44
  1
*D493
  0
LINE
  5
41D9
330
41D6
100
AcDbEntity
  8
Dim
  6
Continuous
 62
     0
370
    -2
100
AcDbLine
 10
2797.56471448827
 20
2312.104855384638
 30
0.0
 11
2797.56471448827
 21
2384.500348819748
 31
0.0
  0
LINE
  5
41DA
330
41D6
100
AcDbEntity
  8
Dim
  6
Continuous
 62
     0
370
    -2
100
AcDbLine
 10
2947.56471448827
 20
2310.604855384638
 30
0.0
 11
2947.56471448827
 21
2384.500348819748
 31
0.0
  0
LINE
  5
41DB
330
41D6
100
AcDbEntity
  8
Dim
  6
Continuous
 62
     0
370
    -2
100
AcDbLine
 10
2807.564104136708
 20
2384.500348819748
 30
0.0
 11
2937.565324839833
 21
2384.500348819748
 31
0.0
  0
INSERT
  5
41DC
330
41D6
100
AcDbEntity
  8
Dim
 62
     0
370
    -2
100
AcDbBlockReference
  2
_DOT
 10
2797.56471448827
 20
2384.500348819748
 30
0.0
 41
9.999389648437498
 42
9.999389648437498
 43
9.999389648437498
 50
180.0
  0
INSERT
  5
41DD
330
41D6
100
AcDbEntity
  8
Dim
 62
     0
370
    -2
100
AcDbBlockReference
  2
_DOT
 10
2947.56471448827
 20
2384.500348819748
 30
0.0
 41
9.999389648437498
 42
9.999389648437498
 43
9.999389648437498
  0
MTEXT
  5
41DE
330
41D6
100
AcDbEntity
  8
Dim
  6
Continuous
 62
     0
100
AcDbMText
 10
2872.56471448827
 20
2406.716657413498
 30
0.0
 40
24.4326171875
 41
0.0
 46
0.0
 71
     5
 72
     1
  1
\A1;150
  7
ＭＳ ゴシック
 73
     1
 44
1.0
  0
POINT
  5
41DF
330
41D6
100
AcDbEntity
  8
Defpoints
 62
     0
100
AcDbPoint
 10
2797.56471448827
 20
2287.104855384638
 30
0.0
  0
POINT
  5
41E0
330
41D6
100
AcDbEntity
  8
Defpoints
 62
     0
100
AcDbPoint
 10
2947.56471448827
 20
2285.604855384638
 30
0.0
  0
POINT
  5
41E1
330
41D6
100
AcDbEntity
  8
Defpoints
 62
     0
100
AcDbPoint
 10
2947.56471448827
 20
2384.500348819748
 30
0.0
  0
ENDBLK
  5
41D8
330
41D6
100
AcDbEntity
  8
0
100
AcDbBlockEnd
  0
BLOCK
  5
41E6
330
41E5
100
AcDbEntity
  8
0
100
AcDbBlockBegin
  2
*D45
 70
     1
 10
0.0
 20
0.0
 30
0.0
  3
*D45
  1
*D494
  0
LINE
  5
41E8
330
41E5
100
AcDbEntity
  8
Dim
  6
Continuous
 62
     0
370
    -2
100
AcDbLine
 10
528.6449725788912
 20
948.2357116203668
 30
0.0
 11
448.8385774533181
 21
948.2357116203668
 31
0.0
  0
LINE
  5
41E9
330
41E5
100
AcDbEntity
  8
Dim
  6
Continuous
 62
     0
370
    -2
100
AcDbLine
 10
527.1449725788912
 20
1048.235711620367
 30
0.0
 11
448.8385774533181
 21
1048.235711620367
 31
0.0
  0
LINE
  5
41EA
330
41E5
100
AcDbEntity
  8
Dim
  6
Continuous
 62
     0
370
    -2
100
AcDbLine
 10
448.8385774533181
 20
958.2351012688043
 30
0.0
 11
448.8385774533181
 21
1038.23632197193
 31
0.0
  0
INSERT
  5
41EB
330
41E5
100
AcDbEntity
  8
Dim
 62
     0
370
    -2
100
AcDbBlockReference
  2
_DOT
 10
448.8385774533181
 20
948.2357116203668
 30
0.0
 41
9.999389648437498
 42
9.999389648437498
 43
9.999389648437498
 50
270.0
  0
INSERT
  5
41EC
330
41E5
100
AcDbEntity
  8
Dim
 62
     0
370
    -2
100
AcDbBlockReference
  2
_DOT
 10
448.8385774533181
 20
1048.235711620367
 30
0.0
 41
9.999389648437498
 42
9.999389648437498
 43
9.999389648437498
 50
90.0
  0
MTEXT
  5
41ED
330
41E5
100
AcDbEntity
  8
Dim
  6
Continuous
 62
     0
100
AcDbMText
 10
426.6222688595681
 20
998.2357116203669
 30
0.0
 40
24.4326171875
 41
0.0
 46
0.0
 71
     5
 72
     1
  1
\A1;100
  7
ＭＳ ゴシック
 11
0.0
 21
1.0
 31
0.0
 73
     1
 44
1.0
  0
POINT
  5
41EE
330
41E5
100
AcDbEntity
  8
Defpoints
 62
     0
100
AcDbPoint
 10
553.6449725788912
 20
948.2357116203668
 30
0.0
  0
POINT
  5
41EF
330
41E5
100
AcDbEntity
  8
Defpoints
 62
     0
100
AcDbPoint
 10
552.1449725788912
 20
1048.235711620367
 30
0.0
  0
POINT
  5
41F0
330
41E5
100
AcDbEntity
  8
Defpoints
 62
     0
100
AcDbPoint
 10
448.8385774533181
 20
1048.235711620367
 30
0.0
  0
ENDBLK
  5
41E7
330
41E5
100
AcDbEntity
  8
0
100
AcDbBlockEnd
  0
BLOCK
  5
41F5
330
41F4
100
AcDbEntity
  8
0
100
AcDbBlockBegin
  2
*D46
 70
     1
 10
0.0
 20
0.0
 30
0.0
  3
*D46
  1
*D495
  0
LINE
  5
41F7
330
41F4
100
AcDbEntity
  8
Dim
  6
Continuous
 62
     0
370
    -2
100
AcDbLine
 10
527.1449725788912
 20
1048.235711620367
 30
0.0
 11
448.8385774533181
 21
1048.235711620367
 31
0.0
  0
LINE
  5
41F8
330
41F4
100
AcDbEntity
  8
Dim
  6
Continuous
 62
     0
370
    -2
100
AcDbLine
 10
528.6449725788912
 20
1148.235711620367
 30
0.0
 11
448.8385774533181
 21
1148.235711620367
 31
0.0
  0
LINE
  5
41F9
330
41F4
100
AcDbEntity
  8
Dim
  6
Continuous
 62
     0
370
    -2
100
AcDbLine
 10
448.8385774533181
 20
1058.235101268805
 30
0.0
 11
448.8385774533181
 21
1138.23632197193
 31
0.0
  0
INSERT
  5
41FA
330
41F4
100
AcDbEntity
  8
Dim
 62
     0
370
    -2
100
AcDbBlockReference
  2
_DOT
 10
448.8385774533181
 20
1048.235711620367
 30
0.0
 41
9.999389648437498
 42
9.999389648437498
 43
9.999389648437498
 50
270.0
  0
INSERT
  5
41FB
330
41F4
100
AcDbEntity
  8
Dim
 62
     0
370
    -2
100
AcDbBlockReference
  2
_DOT
 10
448.8385774533181
 20
1148.235711620367
 30
0.0
 41
9.999389648437498
 42
9.999389648437498
 43
9.999389648437498
 50
90.0
  0
MTEXT
  5
41FC
330
41F4
100
AcDbEntity
  8
Dim
  6
Continuous
 62
     0
100
AcDbMText
 10
426.6222688595681
 20
1098.235711620367
 30
0.0
 40
24.4326171875
 41
0.0
 46
0.0
 71
     5
 72
     1
  1
\A1;100
  7
ＭＳ ゴシック
 11
0.0
 21
1.0
 31
0.0
 73
     1
 44
1.0
  0
POINT
  5
41FD
330
41F4
100
AcDbEntity
  8
Defpoints
 62
     0
100
AcDbPoint
 10
552.1449725788912
 20
1048.235711620367
 30
0.0
  0
POINT
  5
41FE
330
41F4
100
AcDbEntity
  8
Defpoints
 62
     0
100
AcDbPoint
 10
553.6449725788912
 20
1148.235711620367
 30
0.0
  0
POINT
  5
41FF
330
41F4
100
AcDbEntity
  8
Defpoints
 62
     0
100
AcDbPoint
 10
448.8385774533181
 20
1148.235711620367
 30
0.0
  0
ENDBLK
  5
41F6
330
41F4
100
AcDbEntity
  8
0
100
AcDbBlockEnd
  0
BLOCK
  5
4204
330
4203
100
AcDbEntity
  8
0
100
AcDbBlockBegin
  2
*D47
 70
     1
 10
0.0
 20
0.0
 30
0.0
  3
*D47
  1
*D496
  0
LINE
  5
4206
330
4203
100
AcDbEntity
  8
Dim
  6
Continuous
 62
     0
370
    -2
100
AcDbLine
 10
3147.56471448827
 20
2310.604855384638
 30
0.0
 11
3147.56471448827
 21
2384.500348819748
 31
0.0
  0
LINE
  5
4207
330
4203
100
AcDbEntity
  8
Dim
  6
Continuous
 62
     0
370
    -2
100
AcDbLine
 10
3297.56471448827
 20
2312.104855384638
 30
0.0
 11
3297.56471448827
 21
2384.500348819748
 31
0.0
  0
LINE
  5
4208
330
4203
100
AcDbEntity
  8
Dim
  6
Continuous
 62
     0
370
    -2
100
AcDbLine
 10
3157.564104136708
 20
2384.500348819748
 30
0.0
 11
3287.565324839833
 21
2384.500348819748
 31
0.0
  0
INSERT
  5
4209
330
4203
100
AcDbEntity
  8
Dim
 62
     0
370
    -2
100
AcDbBlockReference
  2
_DOT
 10
3147.56471448827
 20
2384.500348819748
 30
0.0
 41
9.999389648437498
 42
9.999389648437498
 43
9.999389648437498
 50
180.0
  0
INSERT
  5
420A
330
4203
100
AcDbEntity
  8
Dim
 62
     0
370
    -2
100
AcDbBlockReference
  2
_DOT
 10
3297.56471448827
 20
2384.500348819748
 30
0.0
 41
9.999389648437498
 42
9.999389648437498
 43
9.999389648437498
  0
MTEXT
  5
420B
330
4203
100
AcDbEntity
  8
Dim
  6
Continuous
 62
     0
100
AcDbMText
 10
3222.56471448827
 20
2406.716657413498
 30
0.0
 40
24.4326171875
 41
0.0
 46
0.0
 71
     5
 72
     1
  1
\A1;150
  7
ＭＳ ゴシック
 73
     1
 44
1.0
  0
POINT
  5
420C
330
4203
100
AcDbEntity
  8
Defpoints
 62
     0
100
AcDbPoint
 10
3147.56471448827
 20
2285.604855384638
 30
0.0
  0
POINT
  5
420D
330
4203
100
AcDbEntity
  8
Defpoints
 62
     0
100
AcDbPoint
 10
3297.56471448827
 20
2287.104855384638
 30
0.0
  0
POINT
  5
420E
330
4203
100
AcDbEntity
  8
Defpoints
 62
     0
100
AcDbPoint
 10
3297.56471448827
 20
2384.500348819748
 30
0.0
  0
ENDBLK
  5
4205
330
4203
100
AcDbEntity
  8
0
100
AcDbBlockEnd
  0
BLOCK
  5
4216
330
4215
100
AcDbEntity
  8
0
100
AcDbBlockBegin
  2
*D48
 70
     1
 10
0.0
 20
0.0
 30
0.0
  3
*D48
  1
*D497
  0
LINE
  5
4218
330
4215
100
AcDbEntity
  8
Dim
  6
Continuous
 62
     0
370
    -2
100
AcDbLine
 10
3163.56471448827
 20
2294.604855384638
 30
0.0
 11
3163.56471448827
 21
2391.359163954834
 31
0.0
  0
LINE
  5
4219
330
4215
100
AcDbEntity
  8
Dim
  6
Continuous
 62
     0
370
    -2
100
AcDbLine
 10
3280.06471448827
 20
2294.604855384638
 30
0.0
 11
3280.06471448827
 21
2391.359163954834
 31
0.0
  0
LINE
  5
421A
330
4215
100
AcDbEntity
  8
Dim
  6
Continuous
 62
     0
370
    -2
100
AcDbLine
 10
3173.564104136708
 20
2391.359163954834
 30
0.0
 11
3270.065324839833
 21
2391.359163954834
 31
0.0
  0
INSERT
  5
421B
330
4215
100
AcDbEntity
  8
Dim
 62
     0
370
    -2
100
AcDbBlockReference
  2
_DOT
 10
3163.56471448827
 20
2391.359163954834
 30
0.0
 41
9.999389648437498
 42
9.999389648437498
 43
9.999389648437498
 50
180.0
  0
INSERT
  5
421C
330
4215
100
AcDbEntity
  8
Dim
 62
     0
370
    -2
100
AcDbBlockReference
  2
_DOT
 10
3280.06471448827
 20
2391.359163954834
 30
0.0
 41
9.999389648437498
 42
9.999389648437498
 43
9.999389648437498
  0
MTEXT
  5
421D
330
4215
100
AcDbEntity
  8
Dim
  6
Continuous
 62
     0
100
AcDbMText
 10
3221.81471448827
 20
2413.575472548584
 30
0.0
 40
24.4326171875
 41
0.0
 46
0.0
 71
     5
 72
     1
  1
\A1;116.5
  7
ＭＳ ゴシック
 73
     1
 44
1.0
  0
POINT
  5
421E
330
4215
100
AcDbEntity
  8
Defpoints
 62
     0
100
AcDbPoint
 10
3163.56471448827
 20
2269.604855384638
 30
0.0
  0
POINT
  5
421F
330
4215
100
AcDbEntity
  8
Defpoints
 62
     0
100
AcDbPoint
 10
3280.06471448827
 20
2269.604855384638
 30
0.0
  0
POINT
  5
4220
330
4215
100
AcDbEntity
  8
Defpoints
 62
     0
100
AcDbPoint
 10
3280.06471448827
 20
2391.359163954834
 30
0.0
  0
ENDBLK
  5
4217
330
4215
100
AcDbEntity
  8
0
100
AcDbBlockEnd
  0
BLOCK
  5
4223
330
4222
100
AcDbEntity
  8
0
100
AcDbBlockBegin
  2
*D49
 70
     1
 10
0.0
 20
0.0
 30
0.0
  3
*D49
  1
*D498
  0
LINE
  5
4225
330
4222
100
AcDbEntity
  8
Dim
  6
Continuous
 62
     0
370
    -2
100
AcDbLine
 10
528.6449725788912
 20
1148.235711620367
 30
0.0
 11
448.8385774533181
 21
1148.235711620367
 31
0.0
  0
LINE
  5
4226
330
4222
100
AcDbEntity
  8
Dim
  6
Continuous
 62
     0
370
    -2
100
AcDbLine
 10
528.6449725788912
 20
1303.235711620367
 30
0.0
 11
448.8385774533181
 21
1303.235711620367
 31
0.0
  0
LINE
  5
4227
330
4222
100
AcDbEntity
  8
Dim
  6
Continuous
 62
     0
370
    -2
100
AcDbLine
 10
448.8385774533181
 20
1158.235101268805
 30
0.0
 11
448.8385774533181
 21
1293.23632197193
 31
0.0
  0
INSERT
  5
4228
330
4222
100
AcDbEntity
  8
Dim
 62
     0
370
    -2
100
AcDbBlockReference
  2
_DOT
 10
448.8385774533181
 20
1148.235711620367
 30
0.0
 41
9.999389648437498
 42
9.999389648437498
 43
9.999389648437498
 50
270.0
  0
INSERT
  5
4229
330
4222
100
AcDbEntity
  8
Dim
 62
     0
370
    -2
100
AcDbBlockReference
  2
_DOT
 10
448.8385774533181
 20
1303.235711620367
 30
0.0
 41
9.999389648437498
 42
9.999389648437498
 43
9.999389648437498
 50
89.99999999999999
  0
MTEXT
  5
422A
330
4222
100
AcDbEntity
  8
Dim
  6
Continuous
 62
     0
100
AcDbMText
 10
426.6222688595681
 20
1225.735711620367
 30
0.0
 40
24.4326171875
 41
0.0
 46
0.0
 71
     5
 72
     1
  1
\A1;155
  7
ＭＳ ゴシック
 11
3.667317345858582E-16
 21
1.0
 31
0.0
 73
     1
 44
1.0
  0
POINT
  5
422B
330
4222
100
AcDbEntity
  8
Defpoints
 62
     0
100
AcDbPoint
 10
553.6449725788912
 20
1148.235711620367
 30
0.0
  0
POINT
  5
422C
330
4222
100
AcDbEntity
  8
Defpoints
 62
     0
100
AcDbPoint
 10
553.6449725788912
 20
1303.235711620367
 30
0.0
  0
POINT
  5
422D
330
4222
100
AcDbEntity
  8
Defpoints
 62
     0
100
AcDbPoint
 10
448.8385774533181
 20
1303.235711620367
 30
0.0
  0
ENDBLK
  5
4224
330
4222
100
AcDbEntity
  8
0
100
AcDbBlockEnd
  0
BLOCK
  5
423C
330
423B
100
AcDbEntity
  8
0
100
AcDbBlockBegin
  2
*D50
 70
     1
 10
0.0
 20
0.0
 30
0.0
  3
*D50
  1
*D499
  0
LINE
  5
423E
330
423B
100
AcDbEntity
  8
Dim
  6
Continuous
 62
     0
370
    -2
100
AcDbLine
 10
544.6449725788912
 20
948.2357116203668
 30
0.0
 11
448.8385774533182
 21
948.2357116203668
 31
0.0
  0
LINE
  5
423F
330
423B
100
AcDbEntity
  8
Dim
  6
Continuous
 62
     0
370
    -2
100
AcDbLine
 10
544.6449725788912
 20
793.2357116203668
 30
0.0
 11
448.8385774533181
 21
793.2357116203668
 31
0.0
  0
LINE
  5
4240
330
423B
100
AcDbEntity
  8
Dim
  6
Continuous
 62
     0
370
    -2
100
AcDbLine
 10
448.8385774533182
 20
938.2363219719293
 30
0.0
 11
448.8385774533181
 21
803.2351012688043
 31
0.0
  0
INSERT
  5
4241
330
423B
100
AcDbEntity
  8
Dim
 62
     0
370
    -2
100
AcDbBlockReference
  2
_DOT
 10
448.8385774533182
 20
948.2357116203668
 30
0.0
 41
9.999389648437498
 42
9.999389648437498
 43
9.999389648437498
 50
89.99999999999999
  0
INSERT
  5
4242
330
423B
100
AcDbEntity
  8
Dim
 62
     0
370
    -2
100
AcDbBlockReference
  2
_DOT
 10
448.8385774533181
 20
793.2357116203668
 30
0.0
 41
9.999389648437498
 42
9.999389648437498
 43
9.999389648437498
 50
270.0
  0
MTEXT
  5
4243
330
423B
100
AcDbEntity
  8
Dim
  6
Continuous
 62
     0
100
AcDbMText
 10
426.6222688595682
 20
870.7357116203668
 30
0.0
 40
24.4326171875
 41
0.0
 46
0.0
 71
     5
 72
     1
  1
\A1;155
  7
ＭＳ ゴシック
 11
3.667317345858582E-16
 21
1.0
 31
0.0
 73
     1
 44
1.0
  0
POINT
  5
4244
330
423B
100
AcDbEntity
  8
Defpoints
 62
     0
100
AcDbPoint
 10
569.6449725788912
 20
948.2357116203668
 30
0.0
  0
POINT
  5
4245
330
423B
100
AcDbEntity
  8
Defpoints
 62
     0
100
AcDbPoint
 10
569.6449725788912
 20
793.2357116203668
 30
0.0
  0
POINT
  5
4246
330
423B
100
AcDbEntity
  8
Defpoints
 62
     0
100
AcDbPoint
 10
448.8385774533181
 20
793.2357116203668
 30
0.0
  0
ENDBLK
  5
423D
330
423B
100
AcDbEntity
  8
0
100
AcDbBlockEnd
  0
BLOCK
  5
4263
330
4262
100
AcDbEntity
  8
0
  6
ByBlock
 62
     0
370
    -2
390
1D
100
AcDbBlockBegin
  2
VW_FILLEDARROW
 70
     0
 10
0.0
 20
0.0
 30
0.0
  3
VW_FILLEDARROW
  1
VW_FILLEDARROW
  0
SOLID
  5
4264
330
4262
100
AcDbEntity
  8
0
 62
     0
370
    -2
390
1D
100
AcDbTrace
 10
0.0
 20
0.0
 30
0.0
 11
-0.9921874999999999
 21
-0.2658558393652545
 31
0.0
 12
-0.9921874999999999
 22
0.2658558393652548
 32
0.0
 13
-0.9921874999999999
 23
0.2658558393652548
 33
0.0
  0
ENDBLK
  5
4265
330
4262
100
AcDbEntity
  8
0
390
1D
100
AcDbBlockEnd
  0
BLOCK
  5
4353
330
4352
100
AcDbEntity
  8
0
100
AcDbBlockBegin
  2
*D52
 70
     1
 10
0.0
 20
0.0
 30
0.0
  3
*D52
  1
*D52
  0
LINE
  5
4355
330
4352
100
AcDbEntity
  8
Dim
  6
Continuous
 62
     0
370
    -2
100
AcDbLine
 10
962.2669220663493
 20
558.230928951732
 30
0.0
 11
1102.788868130564
 21
558.230928951732
 31
0.0
  0
LINE
  5
4356
330
4352
100
AcDbEntity
  8
Dim
  6
Continuous
 62
     0
370
    -2
100
AcDbLine
 10
962.2669220663493
 20
1538.230928951732
 30
0.0
 11
1102.788868130564
 21
1538.230928951732
 31
0.0
  0
LINE
  5
4357
330
4352
100
AcDbEntity
  8
Dim
  6
Continuous
 62
     0
370
    -2
100
AcDbLine
 10
1102.788868130564
 20
568.2303186001695
 30
0.0
 11
1102.788868130564
 21
1528.231539303295
 31
0.0
  0
INSERT
  5
4358
330
4352
100
AcDbEntity
  8
Dim
 62
     0
370
    -2
100
AcDbBlockReference
  2
_DOT
 10
1102.788868130564
 20
558.230928951732
 30
0.0
 41
9.999389648437498
 42
9.999389648437498
 43
9.999389648437498
 50
270.0
  0
INSERT
  5
4359
330
4352
100
AcDbEntity
  8
Dim
 62
     0
370
    -2
100
AcDbBlockReference
  2
_DOT
 10
1102.788868130564
 20
1538.230928951732
 30
0.0
 41
9.999389648437498
 42
9.999389648437498
 43
9.999389648437498
 50
90.0
  0
MTEXT
  5
435A
330
4352
100
AcDbEntity
  8
Dim
  6
Continuous
 62
     0
100
AcDbMText
 10
1080.572559536814
 20
1048.230928951732
 30
0.0
 40
24.4326171875
 41
0.0
 46
0.0
 71
     5
 72
     1
  1
\A1;980
  7
ＭＳ ゴシック
 11
0.0
 21
1.0
 31
0.0
 73
     1
 44
1.0
  0
POINT
  5
435B
330
4352
100
AcDbEntity
  8
Defpoints
 62
     0
100
AcDbPoint
 10
937.2669220663493
 20
558.230928951732
 30
0.0
  0
POINT
  5
435C
330
4352
100
AcDbEntity
  8
Defpoints
 62
     0
100
AcDbPoint
 10
937.2669220663493
 20
1538.230928951732
 30
0.0
  0
POINT
  5
435D
330
4352
100
AcDbEntity
  8
Defpoints
 62
     0
100
AcDbPoint
 10
1102.788868130564
 20
1538.230928951732
 30
0.0
  0
ENDBLK
  5
4354
330
4352
100
AcDbEntity
  8
0
100
AcDbBlockEnd
  0
ENDSEC
  0
SECTION
  2
ENTITIES
  0
MTEXT
  5
177
330
A
100
AcDbEntity
  8
template
390
1D
100
AcDbMText
 10
82.00000000048226
 20
348.023957835319
 30
0.0
 40
16.28841145833333
 41
0.0
 46
0.0
 71
     1
 72
     1
  1
品名
  7
ＭＳ ゴシック
 73
     1
 44
0.7828267384257843
  0
MTEXT
  5
178
330
A
100
AcDbEntity
  8
template
390
1D
100
AcDbMText
 10
82.00000000048226
 20
263.0239578353188
 30
0.0
 40
16.28841145833333
 41
0.0
 46
0.0
 71
     1
 72
     1
  1
仕様
  7
ＭＳ ゴシック
 73
     1
 44
0.7828267384257843
  0
LINE
  5
179
330
A
100
AcDbEntity
  8
template
390
1D
100
AcDbLine
 10
2025.0
 20
271.4388797103189
 30
0.0
 11
75.00000000000023
 21
271.4388797103189
 31
0.0
  0
LWPOLYLINE
  5
17A
330
A
100
AcDbEntity
  8
template
390
1D
100
AcDbPolyline
 90
        5
 70
   128
 43
0.0
 10
2025.0
 20
2901.438879710319
 10
75.00000000000023
 20
2901.438879710319
 10
75.00000000000023
 20
101.4388797103188
 10
2025.0
 20
101.4388797103188
 10
2025.0
 20
2901.438879710319
  0
LINE
  5
17B
330
A
100
AcDbEntity
  8
template
390
1D
100
AcDbLine
 10
2025.0
 20
356.4388797103188
 30
0.0
 11
75.00000000000023
 21
356.4388797103188
 31
0.0
  0
LINE
  5
17C
330
A
100
AcDbEntity
  8
template
390
1D
100
AcDbLine
 10
2025.000000000482
 20
186.4388797103189
 30
0.0
 11
1272.000000000482
 21
186.4388797103189
 31
0.0
  0
MTEXT
  5
17E
330
A
100
AcDbEntity
  8
template
390
1D
100
AcDbMText
 10
1301.871406252743
 20
156.5284852370108
 30
0.0
 40
24.4326171875
 41
0.0
 46
0.0
 71
     1
 72
     1
  1
大洋金物株式会社 ティーフォルム事業部
  7
ＭＳ ゴシック
 73
     1
 44
0.7828267384257843
  0
MTEXT
  5
180
330
A
100
AcDbEntity
  8
template
390
1D
100
AcDbMText
 10
1834.000000000742
 20
234.4414968978188
 30
0.0
 40
24.4326171875
 41
0.0
 46
0.0
 71
     1
 72
     1
  1
1:10
  7
ＭＳ ゴシック
 73
     1
 44
0.7828267384257843
  0
MTEXT
  5
181
330
A
100
AcDbEntity
  8
template
390
1D
100
AcDbMText
 10
1781.000000000742
 20
263.0239578353188
 30
0.0
 40
16.28841145833333
 41
0.0
 46
0.0
 71
     1
 72
     1
  1
縮尺
  7
ＭＳ ゴシック
 73
     1
 44
0.7828267384257843
  0
LINE
  5
182
330
A
100
AcDbEntity
  8
template
390
1D
100
AcDbLine
 10
1774.000000000742
 20
186.4388797103189
 30
0.0
 11
1774.000000000742
 21
271.4388797103189
 31
0.0
  0
MTEXT
  5
183
330
A
100
AcDbEntity
  8
template
390
1D
100
AcDbMText
 10
1530.000000000742
 20
263.0239578353188
 30
0.0
 40
16.28841145833333
 41
0.0
 46
0.0
 71
     1
 72
     1
  1
容量
  7
ＭＳ ゴシック
 73
     1
 44
0.7828267384257843
  0
LINE
  5
184
330
A
100
AcDbEntity
  8
template
390
1D
100
AcDbLine
 10
1523.000000000742
 20
186.4388797103189
 30
0.0
 11
1523.000000000742
 21
271.4388797103189
 31
0.0
  0
MTEXT
  5
185
330
A
100
AcDbEntity
  8
template
390
1D
100
AcDbMText
 10
1279.000000000742
 20
348.023957835319
 30
0.0
 40
16.28841145833333
 41
0.0
 46
0.0
 71
     1
 72
     1
  1
品番
  7
ＭＳ ゴシック
 73
     1
 44
0.7828267384257843
  0
MTEXT
  5
186
330
A
100
AcDbEntity
  8
template
390
1D
100
AcDbMText
 10
1279.000000000742
 20
263.0239578353188
 30
0.0
 40
16.28841145833333
 41
0.0
 46
0.0
 71
     1
 72
     1
  1
重量
  7
ＭＳ ゴシック
 73
     1
 44
0.7828267384257843
  0
MTEXT
  5
187
330
A
100
AcDbEntity
  8
template
390
1D
100
AcDbMText
 10
1332.000000000742
 20
319.4414968978188
 30
0.0
 40
24.4326171875
 41
0.0
 46
24.4326171875
 71
     1
 72
     1
  1
{ADF70-2601}
  7
ＭＳ ゴシック
 73
     1
 44
0.7828267384257843
1001
ACAD
1000
ACAD_MTEXT_DEFINED_HEIGHT_BEGIN
1070
    46
1040
24.4326171875
1000
ACAD_MTEXT_DEFINED_HEIGHT_END
  0
LINE
  5
188
330
A
100
AcDbEntity
  8
template
390
1D
100
AcDbLine
 10
1272.000000000742
 20
101.4388797103188
 30
0.0
 11
1272.000000000742
 21
356.4388797103188
 31
0.0
  0
MTEXT
  5
189
330
A
100
AcDbEntity
  8
template
390
1D
100
AcDbMText
 10
135.0000000004822
 20
319.4414968978188
 30
0.0
 40
24.4326171875
 41
0.0
 46
27.5355595703125
 71
     1
 72
     1
  1
{洗面器 -CATALANO, Green-}
  7
ＭＳ ゴシック
 73
     1
 44
0.7828267384257843
1001
ACAD
1000
ACAD_MTEXT_DEFINED_HEIGHT_BEGIN
1070
    46
1040
27.5355595703125
1000
ACAD_MTEXT_DEFINED_HEIGHT_END
  0
MTEXT
  5
18A
330
A
100
AcDbEntity
  8
template
390
1D
100
AcDbMText
 10
135.0000000004822
 20
234.4414968978188
 30
0.0
 40
24.4326171875
 41
0.0
 46
65.556517578125
 71
     1
 72
     1
  1
{壁掛け,カウンター置き/オーバーフロー付き/壁取付ボルト付属\P陶器/ホワイト}
  7
ＭＳ ゴシック
 73
     1
 44
0.9822934569727008
1001
ACAD
1000
ACAD_MTEXT_DEFINED_HEIGHT_BEGIN
1070
    46
1040
65.556517578125
1000
ACAD_MTEXT_DEFINED_HEIGHT_END
  0
MTEXT
  5
1A6
330
A
100
AcDbEntity
  8
template
390
1D
100
AcDbMText
 10
1332.000000000742
 20
234.4414968978188
 30
0.0
 40
24.4326171875
 41
0.0
 46
28.390701171875
 71
     1
 72
     1
  1
{31kg}
  7
ＭＳ ゴシック
 73
     1
 44
0.7828267384257843
1001
ACAD
1000
ACAD_MTEXT_DEFINED_HEIGHT_BEGIN
1070
    46
1040
28.390701171875
1000
ACAD_MTEXT_DEFINED_HEIGHT_END
  0
MTEXT
  5
374
330
A
100
AcDbEntity
  8
template
390
1D
100
AcDbMText
 10
1581.992122669024
 20
234.4414968978188
 30
0.0
 40
24.4326171875
 41
0.0
 46
24.4326171875
 71
     1
 72
     1
  1
{16.9L}
  7
ＭＳ ゴシック
 73
     1
 44
0.7828267384257843
1001
ACAD
1000
ACAD_MTEXT_DEFINED_HEIGHT_BEGIN
1070
    46
1040
24.4326171875
1000
ACAD_MTEXT_DEFINED_HEIGHT_END
  0
INSERT
  5
3D0
330
A
100
AcDbEntity
  8
template
100
AcDbBlockReference
  2
名称未設定-1
 10
1873.559250554905
 20
30.23897196054438
 30
0.0
 41
0.7619999999999999
 42
0.7619999999999999
 43
0.7619999999999999
  0
MTEXT
  5
BDB
102
{ACAD_XDICTIONARY
360
BDC
102
}
330
A
100
AcDbEntity
  8
template
  6
Continuous
100
AcDbMText
 10
78.95663872901252
 20
86.10730750352229
 30
0.0
 40
23.0
 41
0.0
 46
23.0
 71
     1
 72
     1
  1
{20161018N}
  7
ＭＳ ゴシック
 73
     1
 44
1.0
1001
ACAD
1000
ACAD_MTEXT_DEFINED_HEIGHT_BEGIN
1070
    46
1040
23.0
1000
ACAD_MTEXT_DEFINED_HEIGHT_END
  0
LWPOLYLINE
  5
BEE
330
A
100
AcDbEntity
  8
PRINT BORDER
100
AcDbPolyline
 90
        4
 70
     1
 43
0.0
 10
0.0
 20
0.0
 10
0.0
 20
2970.0
 10
2100.0
 20
2970.0
 10
2100.0
 20
0.0
  0
INSERT
  5
1273
330
A
100
AcDbEntity
  8
0
 62
     7
100
AcDbBlockReference
  2
BLOCK_2
 10
591.2037060744204
 20
943.564364962162
 30
0.0
  0
INSERT
  5
127B
330
A
100
AcDbEntity
  8
0
 62
     7
100
AcDbBlockReference
  2
BLOCK_2
 10
1291.863324028138
 20
1038.76992320659
 30
0.0
  0
INSERT
  5
127C
330
A
100
AcDbEntity
  8
0
 62
     7
100
AcDbBlockReference
  2
BLOCK_2
 10
652.1648429406905
 20
1595.641631888467
 30
0.0
  0
CIRCLE
  5
142C
330
A
100
AcDbEntity
  8
Dim
  6
Continuous
100
AcDbCircle
 10
1366.841726484681
 20
1758.85027442579
 30
0.0
 40
0.0
  0
INSERT
  5
3B99
330
A
100
AcDbEntity
  8
retino
100
AcDbBlockReference
  2
mobile_latù
 10
-92101.31485198285
 20
1730.415535296608
 30
0.0
  0
LINE
  5
3B9D
330
A
100
AcDbEntity
  8
MODEL
100
AcDbLine
 10
1717.527045412498
 20
2541.295754074182
 30
0.0
 11
1717.527045962066
 21
2544.264341938896
 31
0.0
  0
LINE
  5
3B9E
330
A
100
AcDbEntity
  8
MODEL
100
AcDbLine
 10
1717.527045412498
 20
2541.295754074182
 30
0.0
 11
1717.527051221477
 21
2478.119754366552
 31
0.0
  0
ARC
  5
3B9F
330
A
100
AcDbEntity
  8
MODEL
100
AcDbCircle
 10
1717.499446851856
 20
2541.289752246773
 30
0.0
 40
0.0282436272076721
100
AcDbArc
 50
272.5901011985229
 51
12.26901652248287
  0
LINE
  5
3BA0
330
A
100
AcDbEntity
  8
HIDDEN
  6
HIDDEN
 48
0.25
100
AcDbLine
 10
1586.687282534036
 20
2497.700528504797
 30
0.0
 11
1568.345034351195
 21
2497.700528679638
 31
0.0
  0
LINE
  5
3BA2
330
A
100
AcDbEntity
  8
MODEL
100
AcDbLine
 10
1687.482634530227
 20
2064.042057702263
 30
0.0
 11
1687.482637301347
 21
2127.437950764831
 31
0.0
  0
LINE
  5
3BA3
330
A
100
AcDbEntity
  8
MODEL
100
AcDbLine
 10
1577.482650277336
 20
2424.325097398808
 30
0.0
 11
1577.482648768359
 21
2323.700507267587
 31
0.0
  0
LINE
  5
3BA4
330
A
100
AcDbEntity
  8
MODEL
100
AcDbLine
 10
1577.482648768359
 20
2323.700507267587
 30
0.0
 11
1577.482634450484
 21
2053.502789455281
 31
0.0
  0
ARC
  5
3BA8
330
A
100
AcDbEntity
  8
HIDDEN
100
AcDbCircle
 10
1722.249770598281
 20
2367.884473045434
 30
0.0
 40
15.0
100
AcDbArc
 50
183.2423429090835
 51
219.9999974949996
  0
LINE
  5
3BA9
330
A
100
AcDbEntity
  8
MODEL
100
AcDbLine
 10
1645.065022779425
 20
2548.700521213444
 30
0.0
 11
1657.895672383283
 21
2548.700519833107
 31
0.0
  0
LINE
  5
3BAA
330
A
100
AcDbEntity
  8
MODEL
100
AcDbLine
 10
1704.813860763868
 20
2548.700516810296
 30
0.0
 11
1657.895672383283
 21
2548.700519833107
 31
0.0
  0
LINE
  5
3BAB
330
A
100
AcDbEntity
  8
MODEL
100
AcDbLine
 10
1714.52704615597
 20
2548.700515703463
 30
0.0
 11
1713.189255317906
 21
2548.700515761932
 31
0.0
  0
LINE
  5
3BAC
330
A
100
AcDbEntity
  8
MODEL
100
AcDbLine
 10
1717.527045962066
 20
2544.264341938896
 30
0.0
 11
1717.527046024843
 21
2545.700515572321
 31
0.0
  0
ARC
  5
3BAD
330
A
100
AcDbEntity
  8
MODEL
100
AcDbCircle
 10
1714.527046024843
 20
2545.700515703463
 30
0.0
 40
3.0
100
AcDbArc
 50
359.999997495375
 51
89.99999749537496
  0
LINE
  5
3BAE
330
A
100
AcDbEntity
  8
MODEL
100
AcDbLine
 10
1713.189255317906
 20
2548.700516050874
 30
0.0
 11
1712.824015539532
 21
2548.700516102796
 31
0.0
  0
LINE
  5
3BAF
330
A
100
AcDbEntity
  8
MODEL
100
AcDbLine
 10
1704.813860763868
 20
2548.700516810296
 30
0.0
 11
1709.214523911069
 21
2548.70051648752
 31
0.0
  0
LINE
  5
3BB0
330
A
100
AcDbEntity
  8
MODEL
100
AcDbLine
 10
1712.824015539532
 20
2548.700516102796
 30
0.0
 11
1712.540498136907
 21
2548.700516141053
 31
0.0
  0
LINE
  5
3BB1
330
A
100
AcDbEntity
  8
MODEL
100
AcDbLine
 10
1709.214523911069
 20
2548.70051648752
 30
0.0
 11
1710.386645066785
 21
2548.70051638212
 31
0.0
  0
LINE
  5
3BB2
330
A
100
AcDbEntity
  8
MODEL
100
AcDbLine
 10
1712.540498136907
 20
2548.700516141053
 30
0.0
 11
1710.386645066799
 21
2548.70051638212
 31
0.0
  0
LINE
  5
3BB9
330
A
100
AcDbEntity
  8
MODEL
100
AcDbLine
 10
1758.311756585942
 20
2301.700520928342
 30
0.0
 11
1758.31175850924
 21
2345.700520928342
 31
0.0
  0
LINE
  5
3BBB
330
A
100
AcDbEntity
  8
HIDDEN
100
AcDbLine
 10
1719.853997893907
 20
2347.40378540781
 30
0.0
 11
1719.853995821714
 21
2299.99725981095
 31
0.0
  0
LINE
  5
3BBF
330
A
100
AcDbEntity
  8
MODEL
100
AcDbLine
 10
1754.831695875239
 20
2358.004901503825
 30
0.0
 11
1755.572873986995
 21
2357.940056788757
 31
0.0
  0
LINE
  5
3BC0
330
A
100
AcDbEntity
  8
MODEL
100
AcDbLine
 10
1758.311758913608
 20
2354.951441753762
 30
0.0
 11
1758.31175850924
 21
2345.700520928342
 31
0.0
  0
LINE
  5
3BC1
330
A
100
AcDbEntity
  8
MODEL
100
AcDbLine
 10
1758.311756585942
 20
2301.700520928342
 30
0.0
 11
1758.311756181573
 21
2292.449600945741
 31
0.0
  0
ARC
  5
3BC2
330
A
100
AcDbEntity
  8
MODEL
100
AcDbCircle
 10
1755.092040546616
 20
2360.993612315103
 30
0.0
 40
3.000028603226332
100
AcDbArc
 50
185.0258439572066
 51
265.021568395665
  0
ARC
  5
3BC3
330
A
100
AcDbEntity
  8
MODEL
100
AcDbCircle
 10
1755.311740812801
 20
2354.951425298557
 30
0.0
 40
3.000018100859503
100
AcDbArc
 50
0.0003142695740192
 51
85.00643453882292
  0
ARC
  5
3BC4
330
A
100
AcDbEntity
  8
MODEL
100
AcDbCircle
 10
1755.311738120886
 20
2292.44961770703
 30
0.0
 40
3.000018060724333
100
AcDbArc
 50
275.0003135668128
 51
359.9996798840217
  0
SPLINE
  5
3BD2
330
A
100
AcDbEntity
  8
MODEL
100
AcDbSpline
210
0.0
220
0.0
230
1.0
 70
     8
 71
     3
 72
    13
 73
     9
 74
     0
 42
0.000000001
 43
0.0000000001
 40
163.1372645039573
 40
163.1372645039573
 40
163.1372645039573
 40
163.1372645039573
 40
164.5083510190804
 40
173.6479542722163
 40
183.1428145034185
 40
192.0830917075389
 40
200.4034007844776
 40
206.1414835341833
 40
206.1414835341833
 40
206.1414835341833
 40
206.1414835341833
 10
1742.297689367693
 20
2402.381189696087
 30
0.0
 10
1742.491716171038
 20
2401.967390148156
 30
0.0
 10
1743.949986391379
 20
2398.781606438693
 30
0.0
 10
1746.309407184656
 20
2392.534118939516
 30
0.0
 10
1748.718782951705
 20
2383.655280856493
 30
0.0
 10
1750.415941926402
 20
2374.895241541967
 30
0.0
 10
1751.461240452408
 20
2367.298631082526
 30
0.0
 10
1751.936002178204
 20
2362.636076366024
 30
0.0
 10
1752.103546201076
 20
2360.730794570544
 30
0.0
  0
LINE
  5
3BD6
330
A
100
AcDbEntity
  8
HIDDEN
  6
HIDDEN
 48
0.25
100
AcDbLine
 10
1568.34503295242
 20
2465.700528679638
 30
0.0
 11
1586.687281135261
 21
2465.700528504797
 31
0.0
  0
ARC
  5
3BDA
330
A
100
AcDbEntity
  8
MODEL
100
AcDbCircle
 10
1683.4826155865
 20
2057.93855743553
 30
0.0
 40
3.999999999999987
100
AcDbArc
 50
272.9999974948657
 51
359.9999974944891
  0
SPLINE
  5
3BDE
330
A
100
AcDbEntity
  8
MODEL
100
AcDbSpline
210
0.0
220
0.0
230
1.0
 70
     8
 71
     3
 72
     8
 73
     4
 74
     0
 42
0.000000001
 43
0.0000000001
 40
0.044490485860868
 40
0.044490485860868
 40
0.044490485860868
 40
0.044490485860868
 40
1.0
 40
1.0
 40
1.0
 40
1.0
 10
1687.482637301352
 20
2127.437950764826
 30
0.0
 10
1717.994179271993
 20
2148.622031017493
 30
0.0
 10
1740.948170235567
 20
2183.06566814647
 30
0.0
 10
1743.848729583317
 20
2228.358882693113
 30
0.0
  0
LINE
  5
3BE0
330
A
100
AcDbEntity
  8
MODEL
100
AcDbLine
 10
1683.691959236864
 20
2053.94403928737
 30
0.0
 11
1583.331415002393
 21
2048.68437043535
 31
0.0
  0
LINE
  5
3BE1
330
A
100
AcDbEntity
  8
HIDDEN
100
AcDbLine
 10
1710.709100893276
 20
2289.098799393579
 30
0.0
 11
1719.853995821714
 21
2299.99725981095
 31
0.0
  0
LINE
  5
3BE2
330
A
100
AcDbEntity
  8
HIDDEN
100
AcDbLine
 10
1719.853997893907
 20
2347.40378540781
 30
0.0
 11
1710.759103530042
 21
2358.242659402405
 31
0.0
  0
LINE
  5
3BE3
330
A
100
AcDbEntity
  8
HIDDEN
100
AcDbLine
 10
1758.311756585942
 20
2301.700520928342
 30
0.0
 11
1722.09977197858
 21
2301.068439969201
 31
0.0
  0
LINE
  5
3BE5
330
A
100
AcDbEntity
  8
HIDDEN
100
AcDbLine
 10
1722.099773957117
 20
2346.332605053242
 30
0.0
 11
1758.31175850924
 21
2345.700520928342
 31
0.0
  0
ARC
  5
3BE7
330
A
100
AcDbEntity
  8
HIDDEN
100
AcDbCircle
 10
1722.15212966279
 20
2298.068895631882
 30
0.0
 40
3.000001259777931
100
AcDbArc
 50
91.00000846055332
 51
139.9999865311173
  0
ARC
  5
3BE8
330
A
100
AcDbEntity
  8
HIDDEN
100
AcDbCircle
 10
1722.152131903581
 20
2349.332149385988
 30
0.0
 40
3.000001259777233
100
AcDbArc
 50
220.0000084594437
 51
268.9999865302693
  0
LINE
  5
3BE9
330
A
100
AcDbEntity
  8
MODEL
100
AcDbLine
 10
1580.482637038383
 20
2548.700528701495
 30
0.0
 11
1644.994005342624
 21
2548.700525881611
 31
0.0
  0
LINE
  5
3BED
330
A
100
AcDbEntity
  8
MODEL
100
AcDbLine
 10
1687.4826155865
 20
2057.938557260689
 30
0.0
 11
1687.482615853295
 21
2064.042076379196
 31
0.0
  0
LINE
  5
3BEE
330
A
100
AcDbEntity
  8
MODEL
100
AcDbLine
 10
1577.482636907241
 20
2545.700528832638
 30
0.0
 11
1577.482631603489
 21
2424.364784177658
 31
0.0
  0
ARC
  5
3BF4
330
A
100
AcDbEntity
  8
MODEL
100
AcDbCircle
 10
1580.482636907253
 20
2545.700528701495
 30
0.0
 40
3.0
100
AcDbArc
 50
89.9999974970425
 51
179.9999974949233
  0
SPLINE
  5
3BF9
330
A
100
AcDbEntity
  8
MODEL
100
AcDbSpline
210
0.0
220
0.0
230
1.0
 70
     8
 71
     3
 72
    21
 73
    17
 74
     0
 42
0.000000001
 43
0.0000000001
 40
0.0
 40
0.0
 40
0.0
 40
0.0
 40
2.907230263029487
 40
7.56487130579294
 40
11.64680520791363
 40
15.15786535590357
 40
19.27568564638218
 40
22.82190671408708
 40
27.25304864701792
 40
30.484364179932
 40
31.94677965150609
 40
33.6970716216953
 40
34.86169087260764
 40
36.31556487371762
 40
36.89671863301866
 40
38.24516868385764
 40
38.24516868385764
 40
38.24516868385764
 40
38.24516868385764
 10
1744.13999236634
 20
2253.135936321113
 30
0.0
 10
1744.139992323994
 20
2252.167435588494
 30
0.0
 10
1744.139775798903
 20
2249.644784747148
 30
0.0
 10
1744.137070947559
 20
2245.835814023992
 30
0.0
 10
1744.129665452986
 20
2242.054405885986
 30
0.0
 10
1744.11548203336
 20
2238.716745923817
 30
0.0
 10
1744.090294064866
 20
2235.858203402478
 30
0.0
 10
1744.043759478721
 20
2233.179714735238
 30
0.0
 10
1743.982031824663
 20
2231.151760298152
 30
0.0
 10
1743.929816489471
 20
2229.928776202699
 30
0.0
 10
1743.897973176993
 20
2229.267756415114
 30
0.0
 10
1743.879960060177
 20
2228.919357107928
 30
0.0
 10
1743.865903874553
 20
2228.659240601327
 30
0.0
 10
1743.858985776255
 20
2228.535212257373
 30
0.0
 10
1743.85407799766
 20
2228.448123243875
 30
0.0
 10
1743.852803268818
 20
2228.425718561081
 30
0.0
 10
1743.852633754678
 20
2228.423023470449
 30
0.0
  0
SPLINE
  5
3BFA
330
A
100
AcDbEntity
  8
MODEL
100
AcDbSpline
210
0.0
220
0.0
230
1.0
 70
     8
 71
     3
 72
    19
 73
    15
 74
     0
 42
0.000000001
 43
0.0000000001
 40
0.0
 40
0.0
 40
0.0
 40
0.0
 40
4.185405231676705
 40
10.27695147952535
 40
14.08580618397824
 40
20.55692539368072
 40
26.99999308694515
 40
31.13533824322603
 40
34.0998425056289
 40
37.0286780426317
 40
40.92877696062915
 40
43.58991318287176
 40
45.51229254042491
 40
46.67251111699233
 40
46.67251111699233
 40
46.67251111699233
 40
46.67251111699233
 10
1717.527051221477
 20
2478.119754366552
 30
0.0
 10
1717.527051160519
 20
2476.725497901284
 30
0.0
 10
1717.582459348195
 20
2473.29828606251
 30
0.0
 10
1717.841275503683
 20
2468.691902920827
 30
0.0
 10
1718.326797835164
 20
2463.57080660985
 30
0.0
 10
1718.99906513869
 20
2458.672586099235
 30
0.0
 10
1719.85419400547
 20
2454.275954505434
 30
0.0
 10
1720.597220371884
 20
2451.282909378414
 30
0.0
 10
1721.158018618821
 20
2449.35661172748
 30
0.0
 10
1721.69752524844
 20
2447.740197792567
 30
0.0
 10
1722.186959702986
 20
2446.50886228115
 30
0.0
 10
1722.544093302523
 20
2445.760345312349
 30
0.0
 10
1722.716224582517
 20
2445.448485679056
 30
0.0
 10
1722.771067464972
 20
2445.3597585196
 30
0.0
 10
1722.784797351967
 20
2445.338095251766
 30
0.0
  0
SPLINE
  5
3BFB
330
A
100
AcDbEntity
  8
MODEL
100
AcDbSpline
210
0.0
220
0.0
230
1.0
 70
     8
 71
     3
 72
    17
 73
    13
 74
     0
 42
0.000000001
 43
0.0000000001
 40
0.0
 40
0.0
 40
0.0
 40
0.0
 40
9.118566723921491
 40
19.74754814274575
 40
32.03724503652673
 40
39.77036367474923
 40
60.04825734157373
 40
78.96944987775333
 40
91.71977577757069
 40
115.8070025719533
 40
148.2665630344013
 40
157.8049759988669
 40
157.8049759988669
 40
157.8049759988669
 40
157.8049759988669
 10
1722.719248449371
 20
2445.417745128846
 30
0.0
 10
1723.409804979789
 20
2444.579647651165
 30
0.0
 10
1724.849408398483
 20
2442.763237273762
 30
0.0
 10
1727.000629373898
 20
2439.818277904215
 30
0.0
 10
1728.873662149518
 20
2437.003224740043
 30
0.0
 10
1731.144609484297
 20
2433.304869749501
 30
0.0
 10
1733.491901395987
 20
2429.009202040591
 30
0.0
 10
1735.694255231282
 20
2424.270600341876
 30
0.0
 10
1737.75037995621
 20
2419.20294226171
 30
0.0
 10
1739.892959826683
 20
2412.930495681275
 30
0.0
 10
1741.401373440297
 20
2406.990283977958
 30
0.0
 10
1742.140030389112
 20
2403.234887741918
 30
0.0
 10
1742.297689367694
 20
2402.381189696086
 30
0.0
  0
LINE
  5
3BFC
330
A
100
AcDbEntity
  8
MODEL
100
AcDbLine
 10
1744.139992657655
 20
2253.135936321113
 30
0.0
 11
1744.139994201744
 21
2288.46073394486
 31
0.0
  0
SPLINE
  5
3C01
330
A
100
AcDbEntity
  8
MODEL
100
AcDbSpline
210
0.0
220
0.0
230
1.0
 70
     8
 71
     5
 72
    12
 73
     6
 74
     0
 42
0.000000001
 43
0.0000000001
 40
0.0
 40
0.0
 40
0.0
 40
0.0
 40
0.0
 40
0.0
 40
0.9833692217946065
 40
0.9833692217946065
 40
0.9833692217946065
 40
0.9833692217946065
 40
0.9833692217946065
 40
0.9833692217946065
 10
1577.482634450484
 20
2053.502789954136
 30
0.0
 10
1577.482634611325
 20
2049.823371368567
 30
0.0
 10
1578.717673685677
 20
2049.207939846883
 30
0.0
 10
1580.418070470711
 20
2048.531688645865
 30
0.0
 10
1581.757143437528
 20
2048.601866427653
 30
0.0
 10
1583.331415002393
 20
2048.684370435357
 30
0.0
  0
CIRCLE
  5
3C1D
330
A
100
AcDbEntity
  8
MODEL
100
AcDbCircle
 10
727.6570468426353
 20
1048.230928951732
 30
0.0
 40
22.0
  0
SPLINE
  5
3C1E
330
A
100
AcDbEntity
  8
MODEL
100
AcDbSpline
210
0.0
220
0.0
230
1.0
 70
     8
 71
     3
 72
    52
 73
    48
 74
     0
 42
0.000000001
 43
0.0000000001
 40
-6.241475156385669
 40
-6.241475156385669
 40
-6.241475156385669
 40
-6.241475156385669
 40
-0.000003343003662
 40
-0.000003343003662
 40
-0.000003343003662
 40
0.0
 40
0.0
 40
0.0
 40
171.9172728910394
 40
233.002000834342
 40
278.8198205553787
 40
330.9131734388685
 40
367.7398267814128
 40
386.1564436183329
 40
404.5754139025996
 40
413.7857387110503
 40
418.3911205705135
 40
420.698636247052
 40
424.2018151774772
 40
428.9836312080807
 40
432.9516065446245
 40
434.1883141262221
 40
435.7461255741823
 40
439.8453270197696
 40
442.3903594769549
 40
447.4607997628488
 40
455.2227308619893
 40
465.7029073867985
 40
476.6334961523756
 40
487.5664801755913
 40
494.5209638912037
 40
500.0682470781844
 40
508.2668713232957
 40
514.2893118062702
 40
518.5393313211217
 40
524.606677678355
 40
526.9282726253094
 40
528.3196376823832
 40
532.4902097926889
 40
534.8063082521664
 40
537.5854824776338
 40
540.3646567031013
 40
544.070213440936
 40
547.7757699904406
 40
551.4813265024036
 40
558.8924394347152
 40
566.3035523033628
 40
566.3035523033628
 40
566.3035523033628
 40
566.3035523033628
 10
632.9844996187444
 20
1049.724029770517
 30
0.0
 10
632.9844996187444
 20
1047.643579578525
 30
0.0
 10
632.9844996187444
 20
1045.563129386533
 30
0.0
 10
632.9844996187444
 20
1043.482679194541
 30
0.0
 10
632.9844996187444
 20
1043.482678080228
 30
0.0
 10
632.9844996187444
 20
1043.482676965915
 30
0.0
 10
632.9844996187444
 20
1043.482675851602
 30
0.0
 10
632.9844996187444
 20
986.1781057296059
 30
0.0
 10
633.0067924119003
 20
908.5113109249098
 30
0.0
 10
633.0221804239472
 20
815.5703445806887
 30
0.0
 10
633.0238511340663
 20
762.5706981372957
 30
0.0
 10
633.0174002402932
 20
717.6569623148127
 30
0.0
 10
633.0047852713392
 20
681.8768935494329
 30
0.0
 10
632.9923706818122
 20
657.3220832566028
 30
0.0
 10
632.9829486444291
 20
641.9724964546206
 30
0.0
 10
632.9751945132093
 20
631.2277086561246
 30
0.0
 10
632.9711182298583
 20
625.8521263192117
 30
0.0
 10
632.9681485289993
 20
622.3816093645607
 30
0.0
 10
632.9717234082173
 20
618.8938502436388
 30
0.0
 10
633.0380009695564
 20
614.9607004284219
 30
0.0
 10
633.2003837781895
 20
611.8196011738648
 30
0.0
 10
633.3670810441854
 20
609.7248970726239
 30
0.0
 10
633.5706609499352
 20
607.6092607961207
 30
0.0
 10
633.9022000406162
 20
605.1324090301089
 30
0.0
 10
634.5458133339134
 20
601.6439656084287
 30
0.0
 10
635.6541604470822
 20
597.1356631834376
 30
0.0
 10
638.0190535957172
 20
590.5001511196335
 30
0.0
 10
642.1509382870613
 20
582.6638655706217
 30
0.0
 10
648.1047893045393
 20
574.8043356904257
 30
0.0
 10
654.4831172963322
 20
568.7810264905158
 30
0.0
 10
660.2687795227953
 20
564.6796477092596
 30
0.0
 10
665.7006158610243
 20
561.6021603317665
 30
0.0
 10
671.1836354506263
 20
559.2758079302755
 30
0.0
 10
676.5379593748944
 20
557.7259356759048
 30
0.0
 10
681.4041875764942
 20
556.7452631923827
 30
0.0
 10
685.2646367476723
 20
556.2739139133948
 30
0.0
 10
688.3165039372284
 20
556.0574101116388
 30
0.0
 10
690.8009631020982
 20
555.9282837827216
 30
0.0
 10
693.3213479982223
 20
555.8607176814137
 30
0.0
 10
696.3396359517692
 20
555.8316332241259
 30
0.0
 10
698.9393127175103
 20
555.8262580313046
 30
0.0
 10
702.0228851972374
 20
555.8276165120649
 30
0.0
 10
705.4226663852633
 20
555.8286908189646
 30
0.0
 10
709.1277890816523
 20
555.8292285774539
 30
0.0
 10
714.0691205511052
 20
555.8299994754659
 30
0.0
 10
720.2453790266072
 20
555.8305867796028
 30
0.0
 10
725.1865010457564
 20
555.8307556507227
 30
0.0
 10
727.6570468426353
 20
555.8307556507227
 30
0.0
  0
SPLINE
  5
3C1F
330
A
100
AcDbEntity
  8
MODEL
100
AcDbSpline
210
0.0
220
0.0
230
1.0
 70
     8
 71
     3
 72
    52
 73
    48
 74
     0
 42
0.000000001
 43
0.0000000001
 40
-3.254768680438263
 40
-3.254768680438263
 40
-3.254768680438263
 40
-3.254768680438263
 40
-0.000003343003662
 40
-0.000003343003662
 40
-0.000003343003662
 40
0.0
 40
0.0
 40
0.0
 40
171.9172728910396
 40
233.0020008343422
 40
278.8198205553791
 40
330.9131734388691
 40
367.7398267814139
 40
386.156443618334
 40
404.5754139026009
 40
413.7857387110518
 40
418.391120570515
 40
420.6986362470535
 40
424.2018151774789
 40
428.9836312080824
 40
432.9516065446263
 40
434.188314126224
 40
435.7461255741842
 40
439.8453270197714
 40
442.3903594769567
 40
447.4607997628505
 40
455.2227308619911
 40
465.7029073868006
 40
476.6334961523779
 40
487.5664801755937
 40
494.5209638912062
 40
500.068247078187
 40
508.2668713232985
 40
514.2893118062731
 40
518.5393313211247
 40
524.6066776783581
 40
526.9282726253125
 40
528.3196376823863
 40
532.490209792692
 40
534.8063082521697
 40
537.5854824776372
 40
540.3646567031047
 40
544.0702134409395
 40
547.7757699904442
 40
551.4813265024073
 40
558.8924394347191
 40
566.3035523033668
 40
566.3035523033668
 40
566.3035523033668
 40
566.3035523033668
 10
632.9703911568972
 20
1049.724029770517
 30
0.0
 10
632.9703911568972
 20
1050.808930475617
 30
0.0
 10
632.9703911568972
 20
1051.893831180717
 30
0.0
 10
632.9703911568972
 20
1052.978731885817
 30
0.0
 10
632.9703911568972
 20
1052.97873300013
 30
0.0
 10
632.9703911568972
 20
1052.978734114443
 30
0.0
 10
632.9703911568972
 20
1052.978735228756
 30
0.0
 10
632.9703911568972
 20
1110.283305350752
 30
0.0
 10
632.992683950054
 20
1187.950100155447
 30
0.0
 10
633.0080719621014
 20
1280.891066499668
 30
0.0
 10
633.0097426722177
 20
1333.890712943061
 30
0.0
 10
633.0032917784447
 20
1378.804448765545
 30
0.0
 10
632.9906768094938
 20
1414.584517530924
 30
0.0
 10
632.9782622199668
 20
1439.139327823755
 30
0.0
 10
632.9688401825829
 20
1454.488914625737
 30
0.0
 10
632.9610860513617
 20
1465.233702424232
 30
0.0
 10
632.9570097680107
 20
1470.609284761146
 30
0.0
 10
632.9540400671517
 20
1474.079801715796
 30
0.0
 10
632.9576149463687
 20
1477.567560836718
 30
0.0
 10
633.0238925077092
 20
1481.500710651935
 30
0.0
 10
633.1862753163432
 20
1484.641809906492
 30
0.0
 10
633.3529725823382
 20
1486.736514007734
 30
0.0
 10
633.5565524880881
 20
1488.852150284236
 30
0.0
 10
633.8880915787681
 20
1491.329002050248
 30
0.0
 10
634.5317048720663
 20
1494.817445471929
 30
0.0
 10
635.6400519852364
 20
1499.325747896919
 30
0.0
 10
638.0049451338723
 20
1505.961259960724
 30
0.0
 10
642.1368298252141
 20
1513.797545509735
 30
0.0
 10
648.0906808426921
 20
1521.657075389931
 30
0.0
 10
654.4690088344842
 20
1527.680384589841
 30
0.0
 10
660.2546710609481
 20
1531.781763371097
 30
0.0
 10
665.6865073991771
 20
1534.85925074859
 30
0.0
 10
671.1695269887791
 20
1537.185603150081
 30
0.0
 10
676.5238509130481
 20
1538.735475404453
 30
0.0
 10
681.390079114647
 20
1539.716147887974
 30
0.0
 10
685.2505282858251
 20
1540.187497166962
 30
0.0
 10
688.3023954753812
 20
1540.404000968718
 30
0.0
 10
690.7868546402533
 20
1540.533127297636
 30
0.0
 10
693.3072395363752
 20
1540.600693398943
 30
0.0
 10
696.3255274899243
 20
1540.629777856247
 30
0.0
 10
698.9252042556632
 20
1540.635153049052
 30
0.0
 10
702.0087767353903
 20
1540.633794568306
 30
0.0
 10
705.4085579234152
 20
1540.632720261392
 30
0.0
 10
709.1136806198069
 20
1540.632182502904
 30
0.0
 10
714.0550120892572
 20
1540.631411604892
 30
0.0
 10
720.2312705647591
 20
1540.630824300768
 30
0.0
 10
725.1723925839092
 20
1540.630655429634
 30
0.0
 10
727.6429383807881
 20
1540.630655429634
 30
0.0
  0
LINE
  5
3C20
330
A
100
AcDbEntity
  8
MODEL
100
AcDbLine
 10
502.6570483518772
 20
550.2320399835619
 30
0.0
 11
502.6570396819711
 21
1546.231182889898
 31
0.0
  0
ELLIPSE
  5
3C21
330
A
100
AcDbEntity
  8
MODEL
100
AcDbEllipse
 10
504.6570392158492
 20
1546.229817899193
 30
0.0
 11
-1.999999999999482
 21
-1.488022727436410E-6
 31
0.0
210
0.0
220
0.0
230
1.0
 40
0.9996573249526304
 41
6.282501833556134
 42
6.28318457208906
  0
ELLIPSE
  5
3C22
330
A
100
AcDbEntity
  8
MODEL
100
AcDbEllipse
 10
504.6570483518772
 20
550.2320400018968
 30
0.0
 11
-1.999999999999469
 21
1.451331786398384E-6
 31
0.0
210
0.0
220
0.0
230
-1.0
 40
0.9996573249526262
 41
6.282501835297441
 42
6.283184572089056
  0
SPLINE
  5
3C23
330
A
100
AcDbEntity
  8
MODEL
100
AcDbSpline
210
0.0
220
0.0
230
1.0
 70
     8
 71
     3
 72
    14
 73
    10
 74
     0
 42
0.000000001
 43
0.0000000001
 40
0.0
 40
0.0
 40
0.0
 40
0.0
 40
4.438322597235217
 40
8.092714546563483
 40
11.35517684444653
 40
14.61771175636378
 40
17.88023239456277
 40
20.15798402112809
 40
22.77652552341405
 40
22.77652552341405
 40
22.77652552341405
 40
22.77652552341405
 10
634.6390686145864
 20
1033.730876109289
 30
0.0
 10
634.5454492406784
 20
1033.73088141531
 30
0.0
 10
634.3793618735572
 20
1034.147198064692
 30
0.0
 10
634.1742497125151
 20
1035.745325889689
 30
0.0
 10
634.0198679374612
 20
1037.867473595749
 30
0.0
 10
633.9035310608701
 20
1040.430314006883
 30
0.0
 10
633.8315619800883
 20
1043.089028788399
 30
0.0
 10
633.7926113221133
 20
1045.725997029414
 30
0.0
 10
633.7843981655265
 20
1047.358086554322
 30
0.0
 10
633.7843981655265
 20
1048.230928951732
 30
0.0
  0
SPLINE
  5
3C24
330
A
100
AcDbEntity
  8
MODEL
100
AcDbSpline
210
0.0
220
0.0
230
1.0
 70
     8
 71
     3
 72
    14
 73
    10
 74
     0
 42
0.000000001
 43
0.0000000001
 40
0.0
 40
0.0
 40
0.0
 40
0.0
 40
4.438128878537299
 40
8.092388347714763
 40
11.35480513939084
 40
14.61740255184043
 40
17.87996910623768
 40
20.15786137053943
 40
22.77668434450221
 40
22.77668434450221
 40
22.77668434450221
 40
22.77668434450221
 10
635.6546303846112
 20
1048.230928951732
 30
0.0
 10
635.6546303846112
 20
1046.751547821014
 30
0.0
 10
635.6218413456313
 20
1044.054374394636
 30
0.0
 10
635.4989291637971
 20
1040.590013564669
 30
0.0
 10
635.3408753012532
 20
1037.914898082384
 30
0.0
 10
635.1569964699443
 20
1035.862646837882
 30
0.0
 10
634.9740865119275
 20
1034.577786378798
 30
0.0
 10
634.7992172806812
 20
1033.878719363524
 30
0.0
 10
634.6943085305293
 20
1033.730872978474
 30
0.0
 10
634.6390686145864
 20
1033.730876109289
 30
0.0
  0
SPLINE
  5
3C25
330
A
100
AcDbEntity
  8
MODEL
100
AcDbSpline
210
0.0
220
0.0
230
1.0
 70
     8
 71
     3
 72
    22
 73
    18
 74
     0
 42
0.000000001
 43
0.0000000001
 40
0.0
 40
0.0
 40
0.0
 40
0.0
 40
4.069473850278098
 40
7.414472237524577
 40
10.40494401302383
 40
13.25972222328811
 40
16.25042251694527
 40
19.24108070309729
 40
22.09564476685089
 40
25.08609996438303
 40
27.9406168058825
 40
30.93115315273706
 40
33.92176208706265
 40
36.7764709439093
 40
39.76712574338473
 40
42.62179932150488
 40
45.55328631557978
 40
45.55328631557978
 40
45.55328631557978
 40
45.55328631557978
 10
635.6546303846112
 20
1048.230928951732
 30
0.0
 10
635.6546303846112
 20
1049.587424671163
 30
0.0
 10
635.6271459152345
 20
1052.058737242059
 30
0.0
 10
635.5232443001591
 20
1055.279934785986
 30
0.0
 10
635.3899792381612
 20
1057.796265082349
 30
0.0
 10
635.2332236504453
 20
1059.823964883736
 30
0.0
 10
635.0565131950502
 20
1061.379805710126
 30
0.0
 10
634.8687249894492
 20
1062.386648156523
 30
0.0
 10
634.6786240751262
 20
1062.815466064963
 30
0.0
 10
634.4963109426812
 20
1062.651847363685
 30
0.0
 10
634.3226750484723
 20
1061.897574303456
 30
0.0
 10
634.1659473610384
 20
1060.585072927223
 30
0.0
 10
634.0314321667133
 20
1058.756775760473
 30
0.0
 10
633.9226110156574
 20
1056.500266332793
 30
0.0
 10
633.8438015177412
 20
1053.944759773457
 30
0.0
 10
633.7952673242762
 20
1051.136770455242
 30
0.0
 10
633.7843981655265
 20
1049.208085943002
 30
0.0
 10
633.7843981655265
 20
1048.230928951732
 30
0.0
  0
LINE
  5
3C26
330
A
100
AcDbEntity
  8
MODEL
100
AcDbLine
 10
633.7882682237992
 20
1048.230928951732
 30
0.0
 11
633.7843981655265
 21
1048.230928951732
 31
0.0
  0
SPLINE
  5
3C27
330
A
100
AcDbEntity
  8
MODEL
100
AcDbSpline
210
0.0
220
0.0
230
1.0
 70
     8
 71
     3
 72
    19
 73
    15
 74
     0
 42
0.000000001
 43
0.0000000001
 40
0.0
 40
0.0
 40
0.0
 40
0.0
 40
3.144439767592431
 40
7.860806300547801
 40
20.43373053238893
 40
28.2886110404843
 40
41.63680871895074
 40
51.84170024480187
 40
62.0461865828679
 40
75.39178783638827
 40
83.24334819959239
 40
95.02209893742217
 40
99.734346298459
 40
102.6163013907452
 40
102.6163013907452
 40
102.6163013907452
 40
102.6163013907452
 10
937.8472756615956
 20
1548.049386035887
 30
0.0
 10
938.8925756786793
 20
1547.973348247167
 30
0.0
 10
941.5017679011771
 20
1547.72371718439
 30
0.0
 10
948.2382445301919
 20
1546.691152466594
 30
0.0
 10
956.3333160032817
 20
1544.389665659184
 30
0.0
 10
966.6115281405237
 20
1539.750255908353
 30
0.0
 10
975.4302765954972
 20
1534.01933694583
 30
0.0
 10
983.7248102616732
 20
1526.370974622465
 30
0.0
 10
990.8206622376028
 20
1517.600351783755
 30
0.0
 10
995.9743868766409
 20
1508.435391042427
 30
0.0
 10
999.8648133847091
 20
1498.136382292507
 30
0.0
 10
1001.651379901814
 20
1490.191849978673
 30
0.0
 10
1002.31753839803
 20
1483.764994468266
 30
0.0
 10
1002.441589999505
 20
1481.235973184159
 30
0.0
 10
1002.468816318473
 20
1480.275772559037
 30
0.0
  0
SPLINE
  5
3C28
330
A
100
AcDbEntity
  8
MODEL
100
AcDbSpline
210
0.0
220
0.0
230
1.0
 70
     8
 71
     3
 72
    20
 73
    16
 74
     0
 42
0.000000001
 43
0.0000000001
 40
0.0
 40
0.0
 40
0.0
 40
0.0
 40
16.68377663051549
 40
16.68377663051549
 40
33.36755326103098
 40
33.36755326103098
 40
50.05132989154647
 40
50.05132989154647
 40
66.73510652206195
 40
66.73510652206195
 40
83.41888315257745
 40
83.41888315257745
 40
96.78260128720046
 40
96.78260128720046
 40
102.6163013907452
 40
102.6163013907452
 40
102.6163013907452
 40
102.6163013907452
 10
937.2668688409631
 20
1540.07046831964
 30
0.0
 10
942.1702199241736
 20
1539.713786058479
 30
0.0
 10
947.0335467768791
 20
1538.761933346194
 30
0.0
 10
956.396340038691
 20
1535.72753930293
 30
0.0
 10
960.8918853119649
 20
1533.645811178724
 30
0.0
 10
969.2705785762291
 20
1528.46984116876
 30
0.0
 10
973.1485546875992
 20
1525.379345907178
 30
0.0
 10
980.0673798143816
 20
1518.366632130858
 30
0.0
 10
983.1065364311999
 20
1514.446723947654
 30
0.0
 10
988.1780810335622
 20
1505.996009633894
 30
0.0
 10
990.2095041449757
 20
1501.468895419445
 30
0.0
 10
992.8535048768836
 20
1493.000775767871
 30
0.0
 10
993.6701012426447
 20
1489.120832313145
 30
0.0
 10
994.3024337733268
 20
1483.489568277904
 30
0.0
 10
994.4232432484569
 20
1481.769618310081
 30
0.0
 10
994.4720303645381
 20
1480.049025107091
 30
0.0
  0
SPLINE
  5
3C29
330
A
100
AcDbEntity
  8
MODEL
100
AcDbSpline
210
0.0
220
0.0
230
1.0
 70
     8
 71
     3
 72
    42
 73
    38
 74
     0
 42
0.000000001
 43
0.0000000001
 40
0.0
 40
0.0
 40
0.0
 40
0.0
 40
3.373936222946235
 40
6.703032797348595
 40
10.02169505897085
 40
13.33597184194275
 40
19.958430929692
 40
26.57694409375724
 40
33.19346978709208
 40
39.80883007921799
 40
66.26466752305967
 40
79.49091428393963
 40
92.71659121006367
 40
105.9418787950338
 40
145.6163245796146
 40
185.2895761861481
 40
238.1863078933138
 40
291.0824615353995
 40
423.3217913169539
 40
555.5610213119963
 40
608.4570492413527
 40
661.3535477768236
 40
687.8020933788147
 40
714.2509537634895
 40
740.7002920094466
 40
767.1504143431698
 40
793.60198883422
 40
806.8287941707395
 40
826.671729316935
 40
833.2874478980355
 40
839.9045611699013
 40
846.5241630531953
 40
850.8947832479556
 40
855.2696720611615
 40
857.4603025361669
 40
860.7556722291328
 40
864.0955348354066
 40
864.0955348354066
 40
864.0955348354066
 40
864.0955348354066
 10
1002.468817919082
 20
1480.275717288767
 30
0.0
 10
1002.50069351572
 20
1479.151527615834
 30
0.0
 10
1002.542914837274
 20
1476.917529416914
 30
0.0
 10
1002.59168864621
 20
1473.577333422279
 30
0.0
 10
1002.630786431784
 20
1470.256877488531
 30
0.0
 10
1002.675790475697
 20
1465.838641219716
 30
0.0
 10
1002.722517032467
 20
1460.320418434423
 30
0.0
 10
1002.769835625599
 20
1453.701420957487
 30
0.0
 10
1002.811064410856
 20
1447.084748880372
 30
0.0
 10
1002.884472476572
 20
1433.855710548002
 30
0.0
 10
1002.95074146269
 20
1418.423366550141
 30
0.0
 10
1003.013633196218
 20
1400.787558214901
 30
0.0
 10
1003.055397609647
 20
1387.561886686063
 30
0.0
 10
1003.117858296413
 20
1365.52017143024
 30
0.0
 10
1003.188852491735
 20
1334.662589673362
 30
0.0
 10
1003.267238421003
 20
1290.581181865231
 30
0.0
 10
1003.331356752032
 20
1242.092510568984
 30
0.0
 10
1003.405072635743
 20
1162.748471704242
 30
0.0
 10
1003.444141746548
 20
1056.956901112239
 30
0.0
 10
1003.414439778962
 20
951.1653697895692
 30
0.0
 10
1003.349672071901
 20
871.8214761430011
 30
0.0
 10
1003.297526603765
 20
827.7411486067306
 30
0.0
 10
1003.243400685478
 20
792.4765548932949
 30
0.0
 10
1003.195414481722
 20
766.0276833029377
 30
0.0
 10
1003.138404875331
 20
739.5783036735977
 30
0.0
 10
1003.069771121726
 20
713.1280469932556
 30
0.0
 10
1002.999413290938
 20
691.0853232925758
 30
0.0
 10
1002.922099758303
 20
671.2450349503808
 30
0.0
 10
1002.860428613588
 20
658.0166892076397
 30
0.0
 10
1002.796785950564
 20
646.9916163455221
 30
0.0
 10
1002.753582434019
 20
640.3742787303947
 30
0.0
 10
1002.709213647406
 20
634.5053329775712
 30
0.0
 10
1002.663724541237
 20
629.3838298262292
 30
0.0
 10
1002.625777063914
 20
625.7386462165325
 30
0.0
 10
1002.585451166159
 20
622.451926186741
 30
0.0
 10
1002.542313793622
 20
619.5102989612662
 30
0.0
 10
1002.500370092895
 20
617.2989032778444
 30
0.0
 10
1002.468815852008
 20
616.1860677157113
 30
0.0
  0
SPLINE
  5
3C2A
330
A
100
AcDbEntity
  8
MODEL
100
AcDbSpline
210
0.0
220
0.0
230
1.0
 70
     8
 71
     3
 72
    54
 73
    50
 74
     0
 42
0.000000001
 43
0.0000000001
 40
0.0
 40
0.0
 40
0.0
 40
0.0
 40
2.853021567541177
 40
2.853021567541177
 40
5.168120923550754
 40
5.168120923550754
 40
7.483220279560332
 40
7.483220279560332
 40
12.11341899157949
 40
12.11341899157949
 40
22.62893247024993
 40
22.62893247024993
 40
48.53280235883437
 40
48.53280235883437
 40
74.43667224741883
 40
74.43667224741883
 40
128.6808053825775
 40
128.6808053825775
 40
182.9249385177362
 40
182.9249385177362
 40
312.5320800459107
 40
312.5320800459107
 40
442.1392215740851
 40
442.1392215740851
 40
577.9789754160415
 40
577.9789754160415
 40
636.982125097015
 40
636.982125097015
 40
754.9884244589618
 40
754.9884244589618
 40
780.8071270191843
 40
780.8071270191843
 40
804.2553985655425
 40
804.2553985655425
 40
819.563242527121
 40
819.563242527121
 40
831.5344390640211
 40
831.5344390640211
 40
840.5403230149155
 40
840.5403230149155
 40
851.4402526210982
 40
851.4402526210982
 40
856.245043944249
 40
856.245043944249
 40
859.9091100547503
 40
859.9091100547503
 40
862.214913256016
 40
862.214913256016
 40
864.0955348354066
 40
864.0955348354066
 40
864.0955348354066
 40
864.0955348354066
 10
994.4720318436657
 20
1480.04897412124
 30
0.0
 10
994.4977781634716
 20
1479.140952001038
 30
0.0
 10
994.5166260719961
 20
1478.218846121558
 30
0.0
 10
994.5464314430747
 20
1476.523241345976
 30
0.0
 10
994.5585037020337
 20
1475.756586534993
 30
0.0
 10
994.5809138366303
 20
1474.226310232365
 30
0.0
 10
994.59120613304
 20
1473.460191934677
 30
0.0
 10
994.6200962809316
 20
1471.159408682115
 30
0.0
 10
994.6368230002126
 20
1469.621721878127
 30
0.0
 10
994.6874773203654
 20
1464.589358254804
 30
0.0
 10
994.7158737516411
 20
1461.090375418791
 30
0.0
 10
994.8044738519111
 20
1448.967878335027
 30
0.0
 10
994.8503087773042
 20
1440.337875939588
 30
0.0
 10
994.9313000955299
 20
1423.077518143911
 30
0.0
 10
994.9649705177135
 20
1414.445671887154
 30
0.0
 10
995.0590824228257
 20
1387.736910266338
 30
0.0
 10
995.1074892481956
 20
1369.658357068521
 30
0.0
 10
995.1902090076219
 20
1333.50036849543
 30
0.0
 10
995.2240136920227
 20
1315.420682613202
 30
0.0
 10
995.3224492145164
 20
1254.141929144187
 30
0.0
 10
995.3650948116792
 20
1210.941784712546
 30
0.0
 10
995.4205116561798
 20
1124.541094946051
 30
0.0
 10
995.4319038207532
 20
1081.340471066785
 30
0.0
 10
995.4275333813157
 20
992.8617393795305
 30
0.0
 10
995.4099422692207
 20
947.5837169882027
 30
0.0
 10
995.3580892044174
 20
882.6393615299623
 30
0.0
 10
995.338810134167
 20
862.9727228159484
 30
0.0
 10
995.2672872674311
 20
803.9733817143017
 30
0.0
 10
995.2044061784272
 20
764.6406214697947
 30
0.0
 10
995.0780771739073
 20
716.7067268329286
 30
0.0
 10
995.0532965972197
 20
708.1020420238222
 30
0.0
 10
994.9999812092383
 20
691.6836482476813
 30
0.0
 10
994.9720041697447
 20
683.8697277174817
 30
0.0
 10
994.9192314869033
 20
670.9556969352582
 30
0.0
 10
994.8967391844917
 20
665.8553284773109
 30
0.0
 10
994.8517899251474
 20
656.7675508484701
 30
0.0
 10
994.8304586991208
 20
652.7796569271761
 30
0.0
 10
994.7888391228507
 20
645.7933644675961
 30
0.0
 10
994.7695679415783
 20
642.7944842288291
 30
0.0
 10
994.7222162291127
 20
636.1680833362791
 30
0.0
 10
994.6933536773622
 20
632.5407572057904
 30
0.0
 10
994.6419800784142
 20
627.3218705317297
 30
0.0
 10
994.6248778349554
 20
625.7259257517892
 30
0.0
 10
994.5904430316186
 20
622.9190555342232
 30
0.0
 10
994.5739971584544
 20
621.7071892904808
 30
0.0
 10
994.5429580095752
 20
619.7363825482482
 30
0.0
 10
994.5302630815822
 20
618.9755586688282
 30
0.0
 10
994.5029720826997
 20
617.6159066738649
 30
0.0
 10
994.4889989416288
 20
617.0112689599212
 30
0.0
 10
994.4720298950742
 20
616.4128150618519
 30
0.0
  0
SPLINE
  5
3C2B
330
A
100
AcDbEntity
  8
MODEL
100
AcDbSpline
210
0.0
220
0.0
230
1.0
 70
     8
 71
     3
 72
    19
 73
    15
 74
     0
 42
0.000000001
 43
0.0000000001
 40
0.0
 40
0.0
 40
0.0
 40
0.0
 40
3.141525463478546
 40
7.853385485669023
 40
20.41684933378417
 40
28.2683522183415
 40
41.61550394537826
 40
51.82214446933109
 40
62.02893162432177
 40
75.37777175645721
 40
83.23189163122711
 40
95.01699329558528
 40
99.73213739200854
 40
102.6163017802656
 40
102.6163017802656
 40
102.6163017802656
 40
102.6163017802656
 10
1002.468816318473
 20
616.1860853444252
 30
0.0
 10
1002.439138127196
 20
615.1394136350884
 30
0.0
 10
1002.305973310439
 20
612.5241863932918
 30
0.0
 10
1001.578840913034
 20
605.7536883917512
 30
0.0
 10
999.6575221306939
 20
597.5667546634679
 30
0.0
 10
995.5178011010012
 20
587.0826642688792
 30
0.0
 10
990.2275700157852
 20
577.9943886527783
 30
0.0
 10
983.0003243038382
 20
569.3292491121567
 30
0.0
 10
974.5908723171951
 20
561.8050359416541
 30
0.0
 10
965.6863324994547
 20
556.2071655356724
 30
0.0
 10
955.5806105872452
 20
551.8280956237743
 30
0.0
 10
947.7229704794872
 20
549.6742610584645
 30
0.0
 10
941.3287755029687
 20
548.7187659266076
 30
0.0
 10
938.8060638574843
 20
548.4822165658281
 30
0.0
 10
937.8472756615947
 20
548.4124718675769
 30
0.0
  0
SPLINE
  5
3C2C
330
A
100
AcDbEntity
  8
MODEL
100
AcDbSpline
210
0.0
220
0.0
230
1.0
 70
     8
 71
     3
 72
    20
 73
    16
 74
     0
 42
0.000000001
 43
0.0000000001
 40
0.0
 40
0.0
 40
0.0
 40
0.0
 40
16.68931616867624
 40
16.68931616867624
 40
33.37863233735249
 40
33.37863233735249
 40
50.06794850602873
 40
50.06794850602873
 40
66.75726467470497
 40
66.75726467470497
 40
83.44658084338121
 40
83.44658084338121
 40
96.52255892869776
 40
96.52255892869776
 40
102.6163017802656
 40
102.6163017802656
 40
102.6163017802656
 40
102.6163017802656
 10
994.4720303645372
 20
616.4128327963729
 30
0.0
 10
994.3324621665624
 20
611.4906297215805
 30
0.0
 10
993.6012488217984
 20
606.581477049129
 30
0.0
 10
991.0018796614313
 20
597.0727084679695
 30
0.0
 10
989.1342382318826
 20
592.4766699838531
 30
0.0
 10
984.3647425414538
 20
583.8475262344457
 30
0.0
 10
981.4660672479667
 20
579.8194859974776
 30
0.0
 10
974.7993582716299
 20
572.5615154977443
 30
0.0
 10
971.0334113477584
 20
569.3334779816962
 30
0.0
 10
962.8412580558843
 20
563.8602081813317
 30
0.0
 10
958.4190077905996
 20
561.6163781145617
 30
0.0
 10
950.1715739248757
 20
558.6130718629304
 30
0.0
 10
946.4228037571193
 20
557.6351121608197
 30
0.0
 10
940.8446676665926
 20
556.7310872848632
 30
0.0
 10
939.0578985201773
 20
556.5216736497553
 30
0.0
 10
937.2668688408967
 20
556.391389583807
 30
0.0
  0
SPLINE
  5
3C2D
330
A
100
AcDbEntity
  8
MODEL
100
AcDbSpline
210
0.0
220
0.0
230
1.0
 70
     8
 71
     3
 72
    24
 73
    20
 74
     0
 42
0.000000001
 43
0.0000000001
 40
0.0
 40
0.0
 40
0.0
 40
0.0
 40
2.626706393847282
 40
6.040844004641544
 40
8.576336314468804
 40
11.94102552338204
 40
16.96968387837141
 40
23.65723448065328
 40
30.33363495210184
 40
37.00465783175093
 40
53.66792255621746
 40
73.6510386141216
 40
93.62757844903562
 40
120.2577996558503
 40
160.1975475226255
 40
240.0686588208864
 40
319.9354167534661
 40
399.8007953747803
 40
433.2048653738269
 40
433.2048653738269
 40
433.2048653738269
 40
433.2048653738269
 10
937.8473757744914
 20
548.4124778927237
 30
0.0
 10
936.9741296465872
 20
548.3489505839127
 30
0.0
 10
934.9637307905996
 20
548.2325604743403
 30
0.0
 10
932.1073811248007
 20
548.1138005199639
 30
0.0
 10
929.0042424554949
 20
548.0124589358913
 30
0.0
 10
925.3625351131786
 20
547.9167566651615
 30
0.0
 10
920.3365571106124
 20
547.8158875162937
 30
0.0
 10
914.2063105069992
 20
547.7270529694235
 30
0.0
 10
907.5283389711803
 20
547.6574429529012
 30
0.0
 10
897.5250532805521
 20
547.5818120214265
 30
0.0
 10
883.0860027706867
 20
547.5244181664477
 30
0.0
 10
864.2116947875293
 20
547.5051737187775
 30
0.0
 10
842.0150695472194
 20
547.5222655863497
 30
0.0
 10
813.1662862328358
 20
547.5795535741229
 30
0.0
 10
764.3527865715382
 20
547.7177498018307
 30
0.0
 10
697.7939083261595
 20
547.9267329289898
 30
0.0
 10
617.9263843606982
 20
548.1203690127315
 30
0.0
 10
553.5476982402151
 20
548.2079316340999
 30
0.0
 10
515.7912189615195
 20
548.2281222746117
 30
0.0
 10
504.6565293570243
 20
548.2306693488379
 30
0.0
  0
SPLINE
  5
3C2E
330
A
100
AcDbEntity
  8
MODEL
100
AcDbSpline
210
0.0
220
0.0
230
1.0
 70
     8
 71
     3
 72
    30
 73
    26
 74
     0
 42
0.000000001
 43
0.0000000001
 40
0.0
 40
0.0
 40
0.0
 40
0.0
 40
1.796611457170725
 40
1.796611457170725
 40
4.205545244540438
 40
4.205545244540438
 40
6.614479031910152
 40
6.614479031910152
 40
9.023412819279866
 40
9.023412819279866
 40
14.32009314728775
 40
14.32009314728775
 40
24.59345941804875
 40
24.59345941804875
 40
34.86682568880975
 40
34.86682568880975
 40
59.01279524298562
 40
59.01279524298562
 40
83.15876479716148
 40
83.15876479716148
 40
130.2386770734072
 40
130.2386770734072
 40
177.3185893496529
 40
177.3185893496529
 40
210.2275895866515
 40
210.2275895866515
 40
210.2275895866515
 40
210.2275895866515
 10
937.2669220663493
 20
556.3913921981177
 30
0.0
 10
936.7234570451346
 20
556.3518559561228
 30
0.0
 10
936.1699943602052
 20
556.3171373463431
 30
0.0
 10
934.8514353422443
 20
556.2432262769319
 30
0.0
 10
934.0783005431613
 20
556.2060666128848
 30
0.0
 10
932.5287972400274
 20
556.1392125364248
 30
0.0
 10
931.7475732324683
 20
556.109485403884
 30
0.0
 10
930.1786119260332
 20
556.0548970265247
 30
0.0
 10
929.3912327789503
 20
556.0301507710994
 30
0.0
 10
926.8662811478907
 20
555.9570024468878
 30
0.0
 10
925.1217809116588
 20
555.9157400514543
 30
0.0
 10
919.9839053278183
 20
555.8100726153955
 30
0.0
 10
916.5794407619287
 20
555.7601217099311
 30
0.0
 10
909.7629780142552
 20
555.6790216821857
 30
0.0
 10
906.3504827481192
 20
555.6484712038384
 30
0.0
 10
894.9094558046736
 20
555.5657045787832
 30
0.0
 10
886.8726691461507
 20
555.5390514338235
 30
0.0
 10
870.7936829087057
 20
555.5097825475116
 30
0.0
 10
862.7509498862846
 20
555.5085592863495
 30
0.0
 10
839.0226256651854
 20
555.5238013442597
 30
0.0
 10
823.3330638751422
 20
555.5580496009527
 30
0.0
 10
791.9516648399667
 20
555.6381406302419
 30
0.0
 10
776.2591631447222
 20
555.6852198350846
 30
0.0
 10
749.5967658512013
 20
555.7651099441598
 30
0.0
 10
738.6270231361382
 20
555.7982495325589
 30
0.0
 10
727.6570468426353
 20
555.8307556507227
 30
0.0
  0
SPLINE
  5
3C2F
330
A
100
AcDbEntity
  8
MODEL
100
AcDbSpline
210
0.0
220
0.0
230
1.0
 70
     8
 71
     3
 72
    24
 73
    20
 74
     0
 42
0.000000001
 43
0.0000000001
 40
0.0
 40
0.0
 40
0.0
 40
0.0
 40
106.4868477385339
 40
186.3534972641132
 40
239.5997683716309
 40
279.5365726367292
 40
319.4771517096768
 40
346.1085307151704
 40
366.0867432782056
 40
386.0733429073298
 40
399.4077486219605
 40
406.0810798129797
 40
409.4203475489438
 40
417.7817720365797
 40
421.135624004071
 40
424.4997855947021
 40
427.050771322493
 40
430.5288370358534
 40
433.204875055717
 40
433.204875055717
 40
433.204875055717
 40
433.204875055717
 10
504.6565202096672
 20
1548.23118855627
 30
0.0
 10
540.1521314988263
 20
1548.240399731674
 30
0.0
 10
602.2699512130962
 20
1548.307837663511
 30
0.0
 10
682.1363276735192
 20
1548.49545362151
 30
0.0
 10
739.8193176751952
 20
1548.666110999972
 30
0.0
 10
784.1936620102983
 20
1548.801610695258
 30
0.0
 10
819.6964523782472
 20
1548.898520258359
 30
0.0
 10
848.5464723411842
 20
1548.94854465977
 30
0.0
 10
870.7452077998041
 20
1548.954909556897
 30
0.0
 10
888.5116042117133
 20
1548.922068844653
 30
0.0
 10
901.8428894075332
 20
1548.852135559008
 30
0.0
 10
909.6249334083041
 20
1548.783615491544
 30
0.0
 10
915.7492130564751
 20
1548.713962111727
 30
0.0
 10
920.7668751748952
 20
1548.6395445751
 30
0.0
 10
925.7922481896776
 20
1548.533463233516
 30
0.0
 10
928.8808799429571
 20
1548.452965064471
 30
0.0
 10
932.0103334324986
 20
1548.351712241829
 30
0.0
 10
934.9096043986801
 20
1548.232158393456
 30
0.0
 10
936.9577298306003
 20
1548.114100380862
 30
0.0
 10
937.8473757744923
 20
1548.049380010724
 30
0.0
  0
SPLINE
  5
3C30
330
A
100
AcDbEntity
  8
MODEL
100
AcDbSpline
210
0.0
220
0.0
230
1.0
 70
     8
 71
     3
 72
    26
 73
    22
 74
     0
 42
0.000000001
 43
0.0000000001
 40
222.977253889725
 40
222.977253889725
 40
222.977253889725
 40
222.977253889725
 40
279.2826797309884
 40
279.2826797309884
 40
333.1468399218414
 40
333.1468399218414
 40
369.746870744813
 40
369.746870744813
 40
393.1268428219535
 40
393.1268428219535
 40
408.9834185267629
 40
408.9834185267629
 40
418.4063316975705
 40
418.4063316975705
 40
424.5878356772744
 40
424.5878356772744
 40
428.5871816706913
 40
428.5871816706913
 40
432.5865276641082
 40
432.5865276641082
 40
433.204875055717
 40
433.204875055717
 40
433.204875055717
 40
433.204875055717
 10
727.6570468426362
 20
1540.63069735443
 30
0.0
 10
746.426090994606
 20
1540.686472076881
 30
0.0
 10
765.1944788635374
 20
1540.744444199243
 30
0.0
 10
801.9151570202866
 20
1540.850701152757
 30
0.0
 10
819.8673755387836
 20
1540.899621051738
 30
0.0
 10
850.0108656301582
 20
1540.948165248005
 30
0.0
 10
862.2050614045065
 20
1540.958871320548
 30
0.0
 10
882.1784516290181
 20
1540.934817820833
 30
0.0
 10
889.9620344493142
 20
1540.914973765673
 30
0.0
 10
903.0109390257676
 20
1540.841797467425
 30
0.0
 10
908.2809474991964
 20
1540.801506910737
 30
0.0
 10
916.6676849315472
 20
1540.699992964847
 30
0.0
 10
919.7885528190563
 20
1540.653881294451
 30
0.0
 10
924.9412921015137
 20
1540.550803005625
 30
0.0
 10
926.9771134084103
 20
1540.50321286134
 30
0.0
 10
930.3107767353458
 20
1540.403771200264
 30
0.0
 10
931.6158931499331
 20
1540.359492565187
 30
0.0
 10
934.1947536707266
 20
1540.252607516423
 30
0.0
 10
935.4770593768817
 20
1540.19074190251
 30
0.0
 10
936.8915914052077
 20
1540.097116467066
 30
0.0
 10
937.0798428653452
 20
1540.084075428636
 30
0.0
 10
937.2669220662683
 20
1540.070465705346
 30
0.0
  0
ARC
  5
3C31
330
A
100
AcDbEntity
  8
MODEL
100
AcDbCircle
 10
504.6571158292472
 20
1546.231102699212
 30
0.0
 40
2.000076617018694
100
AcDbArc
 50
90.01706251976975
 51
179.9977027853078
  0
ARC
  5
3C32
330
A
100
AcDbEntity
  8
MODEL
100
AcDbCircle
 10
504.6571249650183
 20
550.2307552056466
 30
0.0
 40
2.000076616749012
100
AcDbArc
 50
180.0022982743651
 51
269.9829378116492
  0
CIRCLE
  5
3C33
330
A
100
AcDbEntity
  8
MODEL
  6
HIDDEN
 48
0.5
100
AcDbCircle
 10
569.6449725788912
 20
1048.235711620367
 30
0.0
 40
17.5
  0
CIRCLE
  5
3C34
102
{ACAD_REACTORS
330
423A
102
}
330
A
100
AcDbEntity
  8
MODEL
  6
HIDDEN
 48
0.5
100
AcDbCircle
 10
569.6449725788912
 20
948.2357116203668
 30
0.0
 40
16.0
  0
CIRCLE
  5
3C35
330
A
100
AcDbEntity
  8
MODEL
  6
HIDDEN
 48
0.5
100
AcDbCircle
 10
569.6449725788912
 20
1148.235711620367
 30
0.0
 40
16.0
  0
CIRCLE
  5
3C38
330
A
100
AcDbEntity
  8
MODEL
100
AcDbCircle
 10
727.6570468426353
 20
1048.230928951732
 30
0.0
 40
38.44689109742895
  0
ARC
  5
3C39
330
A
100
AcDbEntity
  8
MODEL
100
AcDbCircle
 10
1734.140017970556
 20
948.195059993641
 30
0.0
 40
10.0
100
AcDbArc
 50
359.7594320948409
 51
0.1084234097371982
  0
ARC
  5
3C3A
330
A
100
AcDbEntity
  8
MODEL
100
AcDbCircle
 10
1734.140017970556
 20
1148.268162879818
 30
0.0
 40
10.0
100
AcDbArc
 50
359.8915765885953
 51
0.24056790349158
  0
SPLINE
  5
3C3B
330
A
100
AcDbEntity
  8
MODEL
100
AcDbSpline
210
0.0
220
0.0
230
1.0
 70
     8
 71
     3
 72
    27
 73
    23
 74
     0
 42
0.000000001
 43
0.0000000001
 40
0.0
 40
0.0
 40
0.0
 40
0.0
 40
2.691593512750719
 40
5.643389560461522
 40
8.595704513209833
 40
10.63869043510447
 40
12.90721053145975
 40
15.29157965742826
 40
17.77054225087637
 40
20.09706293447982
 40
22.58958656723072
 40
25.46623049142998
 40
27.02577889477482
 40
27.91753293626026
 40
29.1488047830821
 40
30.04876756298111
 40
30.72425293537923
 40
31.26221723151807
 40
32.02276871103066
 40
33.34667058925508
 40
35.14703364892477
 40
37.94164248732104
 40
37.94164248732104
 40
37.94164248732104
 40
37.94164248732104
 10
1743.84875955976
 20
972.3567449484851
 30
0.0
 10
1743.848759508629
 20
971.4569699630972
 30
0.0
 10
1743.855318875894
 20
969.5700960406273
 30
0.0
 10
1743.884574792826
 20
966.7318623802582
 30
0.0
 10
1743.925396613611
 20
964.1809635835541
 30
0.0
 10
1743.967537029212
 20
961.9354957068442
 30
0.0
 10
1744.006545998923
 20
959.9505146662584
 30
0.0
 10
1744.044074180883
 20
957.9550641660333
 30
0.0
 10
1744.074648692296
 20
956.0904912177373
 30
0.0
 10
1744.097647336064
 20
954.3650778118042
 30
0.0
 10
1744.11448026128
 20
952.7385522112183
 30
0.0
 10
1744.124089020925
 20
951.4824322147344
 30
0.0
 10
1744.129191882432
 20
950.6583119841541
 30
0.0
 10
1744.132025415644
 20
950.1445543370085
 30
0.0
 10
1744.133924071479
 20
949.7631806349252
 30
0.0
 10
1744.135346067883
 20
949.4474846838004
 30
0.0
 10
1744.13629943211
 20
949.231767513849
 30
0.0
 10
1744.137113144715
 20
949.0458457844522
 30
0.0
 10
1744.138026911654
 20
948.8211994362521
 30
0.0
 10
1744.138986663411
 20
948.5421595199753
 30
0.0
 10
1744.139759589987
 20
948.2417162248623
 30
0.0
 10
1744.13992978437
 20
948.153073096955
 30
0.0
 10
1744.139929825193
 20
948.153073096955
 30
0.0
  0
LINE
  5
3C3C
330
A
100
AcDbEntity
  8
MODEL
100
AcDbLine
 10
1743.848759560278
 20
1124.106503049408
 30
0.0
 11
1743.848759560278
 21
972.3567248014754
 31
0.0
  0
SPLINE
  5
3C3D
330
A
100
AcDbEntity
  8
MODEL
100
AcDbSpline
210
0.0
220
0.0
230
1.0
 70
     8
 71
     3
 72
    27
 73
    23
 74
     0
 42
0.000000001
 43
0.0000000001
 40
0.0
 40
0.0
 40
0.0
 40
0.0
 40
2.691593512750719
 40
5.643389560461522
 40
8.595704513209833
 40
10.63869043510447
 40
12.90721053145975
 40
15.29157965742826
 40
17.77054225087637
 40
20.09706293447982
 40
22.58958656723072
 40
25.46623049142998
 40
27.02577889477482
 40
27.91753293626026
 40
29.1488047830821
 40
30.04876756298111
 40
30.72425293537923
 40
31.26221723151807
 40
32.02276871103066
 40
33.34667058925508
 40
35.14703364892477
 40
37.94164248732104
 40
37.94164248732104
 40
37.94164248732104
 40
37.94164248732104
 10
1743.84875955976
 20
1124.106477924974
 30
0.0
 10
1743.848759508629
 20
1125.006252910362
 30
0.0
 10
1743.855318875894
 20
1126.893126832832
 30
0.0
 10
1743.884574792826
 20
1129.731360493201
 30
0.0
 10
1743.925396613611
 20
1132.282259289905
 30
0.0
 10
1743.967537029212
 20
1134.527727166615
 30
0.0
 10
1744.006545998923
 20
1136.512708207201
 30
0.0
 10
1744.044074180883
 20
1138.508158707426
 30
0.0
 10
1744.074648692296
 20
1140.372731655721
 30
0.0
 10
1744.097647336064
 20
1142.098145061655
 30
0.0
 10
1744.11448026128
 20
1143.724670662241
 30
0.0
 10
1744.124089020925
 20
1144.980790658725
 30
0.0
 10
1744.129191882432
 20
1145.804910889305
 30
0.0
 10
1744.132025415644
 20
1146.318668536451
 30
0.0
 10
1744.133924071479
 20
1146.700042238534
 30
0.0
 10
1744.135346067883
 20
1147.015738189659
 30
0.0
 10
1744.13629943211
 20
1147.23145535961
 30
0.0
 10
1744.137113144715
 20
1147.417377089007
 30
0.0
 10
1744.138026911654
 20
1147.642023437207
 30
0.0
 10
1744.138986663411
 20
1147.921063353484
 30
0.0
 10
1744.139759589987
 20
1148.221506648597
 30
0.0
 10
1744.13992978437
 20
1148.310149776504
 30
0.0
 10
1744.139929825193
 20
1148.310149776504
 30
0.0
  0
LINE
  5
3C3E
330
A
100
AcDbEntity
  8
MODEL
100
AcDbLine
 10
1743.84875955976
 20
1124.10647845542
 30
0.0
 11
1743.869202056239
 21
1124.106478456511
 31
0.0
  0
LINE
  5
3C3F
330
A
100
AcDbEntity
  8
MODEL
100
AcDbLine
 10
1743.84875955976
 20
972.3567444180392
 30
0.0
 11
1743.869202056239
 21
972.3567444169482
 31
0.0
  0
SPLINE
  5
3C40
330
A
100
AcDbEntity
  8
MODEL
100
AcDbSpline
210
0.0
220
0.0
230
1.0
 70
     8
 71
     3
 72
    63
 73
    59
 74
     0
 42
0.000000001
 43
0.0000000001
 40
33.66692642853192
 40
33.66692642853192
 40
33.66692642853192
 40
33.66692642853192
 40
33.84856628889873
 40
35.63006977778813
 40
37.41157326667753
 40
39.19307675556694
 40
40.97458024445636
 40
42.75608373334575
 40
44.53758722223515
 40
46.31909071112455
 40
48.10059420001397
 40
49.88209768890338
 40
51.66360117779278
 40
53.44510466668218
 40
55.22660815557158
 40
57.008111644461
 40
58.78961513335042
 40
60.57111862223981
 40
62.35262211112921
 40
64.13412560001863
 40
65.91562908890803
 40
67.69713257779743
 40
69.47863606668685
 40
71.26013955557625
 40
73.04164304446566
 40
74.82314653335506
 40
76.60465002224446
 40
78.38615351113387
 40
80.16765700002327
 40
81.94916048891268
 40
83.73066397780208
 40
85.5121674666915
 40
87.2936709555809
 40
89.07517444447029
 40
90.8566779333597
 40
92.6381814222491
 40
94.41968491113852
 40
96.20118840002792
 40
97.98269188891732
 40
99.76419537780673
 40
101.5456988666961
 40
103.3272023555855
 40
105.1087058444749
 40
106.8902093333643
 40
108.6717128222538
 40
110.4532163111432
 40
112.2347198000326
 40
114.016223288922
 40
115.7977267778114
 40
117.5792302667008
 40
119.3607337555902
 40
121.1422372444796
 40
122.923740733369
 40
124.7052442222584
 40
126.4867477111478
 40
128.2682512000372
 40
130.0497546889266
 40
131.831258177816
 40
131.831258177816
 40
131.831258177816
 40
131.831258177816
 10
1758.311787524546
 20
1079.482532146709
 30
0.0
 10
1758.311787521899
 20
1079.482532147713
 30
0.0
 10
1758.311787493292
 20
1079.48062968004
 30
0.0
 10
1758.311787438733
 20
1079.437774523803
 30
0.0
 10
1758.311787361143
 20
1079.275198215897
 30
0.0
 10
1758.311787284085
 20
1079.011738531075
 30
0.0
 10
1758.311787207807
 20
1078.648251643042
 30
0.0
 10
1758.311787132559
 20
1078.185918787234
 30
0.0
 10
1758.311787058587
 20
1077.626242422108
 30
0.0
 10
1758.311786986127
 20
1076.971041346596
 30
0.0
 10
1758.311786915417
 20
1076.222444789399
 30
0.0
 10
1758.311786846687
 20
1075.382885489673
 30
0.0
 10
1758.311786780159
 20
1074.455091791229
 30
0.0
 10
1758.311786716051
 20
1073.442078776092
 30
0.0
 10
1758.31178665457
 20
1072.347138466373
 30
0.0
 10
1758.311786595916
 20
1071.173829126043
 30
0.0
 10
1758.31178654028
 20
1069.925963697506
 30
0.0
 10
1758.311786487842
 20
1068.60759741055
 30
0.0
 10
1758.311786438775
 20
1067.223014603967
 30
0.0
 10
1758.311786393235
 20
1065.77671480259
 30
0.0
 10
1758.311786351371
 20
1064.273398095002
 30
0.0
 10
1758.311786313319
 20
1062.717949859523
 30
0.0
 10
1758.311786279206
 20
1061.11542488805
 30
0.0
 10
1758.311786249138
 20
1059.471030959308
 30
0.0
 10
1758.311786223215
 20
1057.790111914948
 30
0.0
 10
1758.311786201521
 20
1056.078130293537
 30
0.0
 10
1758.311786184126
 20
1054.340649578708
 30
0.0
 10
1758.311786171088
 20
1052.583316119346
 30
0.0
 10
1758.311786162448
 20
1050.811840780489
 30
0.0
 10
1758.311786158234
 20
1049.031980384463
 30
0.0
 10
1758.311786158461
 20
1047.249519002844
 30
0.0
 10
1758.311786163125
 20
1045.470249159685
 30
0.0
 10
1758.311786172217
 20
1043.699953007397
 30
0.0
 10
1758.311786185701
 20
1041.944383536293
 30
0.0
 10
1758.311786203538
 20
1040.209245878914
 30
0.0
 10
1758.311786225666
 20
1038.500178769815
 30
0.0
 10
1758.311786252016
 20
1036.82273622128
 30
0.0
 10
1758.3117862825
 20
1035.182369474134
 30
0.0
 10
1758.311786317022
 20
1033.584409282821
 30
0.0
 10
1758.311786355468
 20
1032.034048591713
 30
0.0
 10
1758.311786397713
 20
1030.536325659546
 30
0.0
 10
1758.31178644362
 20
1029.096107686377
 30
0.0
 10
1758.311786493039
 20
1027.718074996463
 30
0.0
 10
1758.31178654581
 20
1026.406705828502
 30
0.0
 10
1758.311786601763
 20
1025.166261782508
 30
0.0
 10
1758.311786660714
 20
1024.000773970782
 30
0.0
 10
1758.311786722472
 20
1022.914029917827
 30
0.0
 10
1758.311786786837
 20
1021.909561251961
 30
0.0
 10
1758.311786853599
 20
1020.990632228439
 30
0.0
 10
1758.311786922541
 20
1020.160229121468
 30
0.0
 10
1758.311786993439
 20
1019.421050519684
 30
0.0
 10
1758.311787066064
 20
1018.775498556353
 30
0.0
 10
1758.311787140179
 20
1018.225671103197
 30
0.0
 10
1758.311787215544
 20
1017.773354952764
 30
0.0
 10
1758.311787291912
 20
1017.420020011925
 30
0.0
 10
1758.311787369035
 20
1017.166814524973
 30
0.0
 10
1758.311787446664
 20
1017.014561342194
 30
0.0
 10
1758.311787498589
 20
1016.98069061131
 30
0.0
 10
1758.311787524548
 20
1016.98069061131
 30
0.0
  0
ARC
  5
3C41
330
A
100
AcDbEntity
  8
MODEL
100
AcDbCircle
 10
1755.311787524548
 20
1016.98069061131
 30
0.0
 40
3.0
100
AcDbArc
 50
274.9999999997643
 51
359.9999999991662
  0
LINE
  5
3C42
330
A
100
AcDbEntity
  8
MODEL
100
AcDbLine
 10
1743.869206196133
 20
1012.968134950965
 30
0.0
 11
1755.573254752791
 21
1013.992106517036
 31
0.0
  0
LINE
  5
3C43
330
A
100
AcDbEntity
  8
MODEL
100
AcDbLine
 10
1687.482648448406
 20
554.8497465531711
 30
0.0
 11
1687.482645563454
 21
620.8538572441923
 31
0.0
  0
LINE
  5
3C44
330
A
100
AcDbEntity
  8
MODEL
100
AcDbLine
 10
1687.482645563454
 20
620.8538572441923
 30
0.0
 11
1687.482645563454
 21
1475.609365629267
 31
0.0
  0
LINE
  5
3C45
330
A
100
AcDbEntity
  8
MODEL
100
AcDbLine
 10
1687.482648448406
 20
1541.613476320288
 30
0.0
 11
1687.482645563454
 21
1475.609365629267
 31
0.0
  0
ARC
  5
3C46
330
A
100
AcDbEntity
  8
MODEL
100
AcDbCircle
 10
1683.482648448406
 20
554.8497465531711
 30
0.0
 40
4.000000000000004
100
AcDbArc
 50
271.4999999995205
 51
359.9999999991662
  0
ARC
  5
3C47
330
A
100
AcDbEntity
  8
MODEL
100
AcDbCircle
 10
1683.482648448406
 20
1541.613476320288
 30
0.0
 40
4.000000000000004
100
AcDbArc
 50
359.9999999991662
 51
88.49999999915018
  0
SPLINE
  5
3C48
330
A
100
AcDbEntity
  8
MODEL
100
AcDbSpline
210
0.0
220
0.0
230
1.0
 70
     8
 71
     7
 72
    36
 73
    28
 74
     0
 42
0.000000001
 43
0.0000000001
 40
0.6283366498245123
 40
0.6283366498245123
 40
0.6283366498245123
 40
0.6283366498245123
 40
0.6283366498245123
 40
0.6283366498245123
 40
0.6283366498245123
 40
0.6283366498245123
 40
0.7215999999999998
 40
0.7215999999999998
 40
0.7215999999999998
 40
0.7215999999999998
 40
0.7215999999999998
 40
0.8374323375805404
 40
0.8374323375805404
 40
0.8374323375805404
 40
0.8374323375805404
 40
0.8374323375805404
 40
0.8799999999999999
 40
0.8799999999999999
 40
0.8799999999999999
 40
0.8799999999999999
 40
0.8799999999999999
 40
0.91371582381669
 40
0.91371582381669
 40
0.91371582381669
 40
0.91371582381669
 40
0.91371582381669
 40
0.9167728295365734
 40
0.9167728295365734
 40
0.9167728295365734
 40
0.9167728295365734
 40
0.9167728295365734
 40
0.9167728295365734
 40
0.9167728295365734
 40
0.9167728295365734
 10
1723.095195244977
 20
1377.784702932362
 30
0.0
 10
1722.096516876223
 20
1382.10736686233
 30
0.0
 10
1721.061774459737
 20
1386.380051392191
 30
0.0
 10
1719.988936092324
 20
1390.603585775434
 30
0.0
 10
1718.875568237988
 20
1394.778867337738
 30
0.0
 10
1717.718873102551
 20
1398.906202990796
 30
0.0
 10
1715.021858148451
 20
1408.048763468092
 30
0.0
 10
1712.078498544008
 20
1416.92414626229
 30
0.0
 10
1710.365858740963
 20
1421.753265280162
 30
0.0
 10
1708.571168643995
 20
1426.475897852581
 30
0.0
 10
1706.685065711103
 20
1431.080326650264
 30
0.0
 10
1703.986604811211
 20
1437.166273887111
 30
0.0
 10
1701.14800281409
 20
1442.889352383327
 30
0.0
 10
1700.375657408131
 20
1444.39915151545
 30
0.0
 10
1699.594553053843
 20
1445.878691193693
 30
0.0
 10
1698.805552757474
 20
1447.325960620221
 30
0.0
 10
1697.37902157707
 20
1449.85867170118
 30
0.0
 10
1695.931919037697
 20
1452.279386708748
 30
0.0
 10
1695.288572370916
 20
1453.326987487615
 30
0.0
 10
1694.641716473599
 20
1454.351983371236
 30
0.0
 10
1693.99134770055
 20
1455.35453426582
 30
0.0
 10
1693.277788524766
 20
1456.424189951957
 30
0.0
 10
1692.558777767326
 20
1457.469036252662
 30
0.0
 10
1692.498966624482
 20
1457.555725870568
 30
0.0
 10
1692.439116720299
 20
1457.642245488738
 30
0.0
 10
1692.379227476016
 20
1457.728595868803
 30
0.0
 10
1692.319298288967
 20
1457.814777793365
 30
0.0
 10
1692.259328532708
 20
1457.900792064991
 30
0.0
  0
SPLINE
  5
3C49
330
A
100
AcDbEntity
  8
MODEL
100
AcDbSpline
210
0.0
220
0.0
230
1.0
 70
     8
 71
     7
 72
    26
 73
    18
 74
     0
 42
0.000000001
 43
0.0000000001
 40
0.0229793753793454
 40
0.0229793753793454
 40
0.0229793753793454
 40
0.0229793753793454
 40
0.0229793753793454
 40
0.0229793753793454
 40
0.0229793753793454
 40
0.0229793753793454
 40
0.1212287999999999
 40
0.1212287999999999
 40
0.1212287999999999
 40
0.1212287999999999
 40
0.1212287999999999
 40
0.2609325832730716
 40
0.2609325832730716
 40
0.2609325832730716
 40
0.2609325832730716
 40
0.2609325832730716
 40
0.2610449890025091
 40
0.2610449890025091
 40
0.2610449890025091
 40
0.2610449890025091
 40
0.2610449890025091
 40
0.2610449890025091
 40
0.2610449890025091
 40
0.2610449890025091
 10
1744.139929826913
 20
1148.310149366998
 30
0.0
 10
1744.116323001032
 20
1153.93252700793
 30
0.0
 10
1744.074868732696
 20
1159.556614860079
 30
0.0
 10
1744.01397627361
 20
1165.183471731567
 30
0.0
 10
1743.932523996199
 20
1170.813313281325
 30
0.0
 10
1743.829578771836
 20
1176.445603102942
 30
0.0
 10
1743.526306058149
 20
1190.08977576245
 30
0.0
 10
1743.088322671277
 20
1203.731938803745
 30
0.0
 10
1742.782760327751
 20
1211.735922202048
 30
0.0
 10
1742.427172285402
 20
1219.727579103246
 30
0.0
 10
1742.020169332827
 20
1227.698542361091
 30
0.0
 10
1741.560160752355
 20
1235.645979611583
 30
0.0
 10
1741.046332586729
 20
1243.553872131788
 30
0.0
 10
1741.045919457936
 20
1243.560229684941
 30
0.0
 10
1741.045506294355
 20
1243.566587212526
 30
0.0
 10
1741.045093095988
 20
1243.572944714529
 30
0.0
 10
1741.044679862832
 20
1243.57930219095
 30
0.0
 10
1741.044266594887
 20
1243.585659641789
 30
0.0
  0
SPLINE
  5
3C4A
330
A
100
AcDbEntity
  8
MODEL
100
AcDbSpline
210
0.0
220
0.0
230
1.0
 70
     8
 71
     7
 72
    36
 73
    28
 74
     0
 42
0.000000001
 43
0.0000000001
 40
0.6283366499083675
 40
0.6283366499083675
 40
0.6283366499083675
 40
0.6283366499083675
 40
0.6283366499083675
 40
0.6283366499083675
 40
0.6283366499083675
 40
0.6283366499083675
 40
0.7215999999999998
 40
0.7215999999999998
 40
0.7215999999999998
 40
0.7215999999999998
 40
0.7215999999999998
 40
0.8374323375805404
 40
0.8374323375805404
 40
0.8374323375805404
 40
0.8374323375805404
 40
0.8374323375805404
 40
0.8799999999999999
 40
0.8799999999999999
 40
0.8799999999999999
 40
0.8799999999999999
 40
0.8799999999999999
 40
0.91371582381669
 40
0.91371582381669
 40
0.91371582381669
 40
0.91371582381669
 40
0.91371582381669
 40
0.9167728295365686
 40
0.9167728295365686
 40
0.9167728295365686
 40
0.9167728295365686
 40
0.9167728295365686
 40
0.9167728295365686
 40
0.9167728295365686
 40
0.9167728295365686
 10
1723.095195238691
 20
718.6785199138992
 30
0.0
 10
1722.09651687064
 20
714.3558559880782
 30
0.0
 10
1721.061774454914
 20
710.0831714622784
 30
0.0
 10
1719.98893608832
 20
705.8596370830071
 30
0.0
 10
1718.875568234867
 20
701.6843555245894
 30
0.0
 10
1717.718873100386
 20
697.5570198753283
 30
0.0
 10
1715.021858147272
 20
688.4144594018164
 30
0.0
 10
1712.078498544008
 20
679.5390766111693
 30
0.0
 10
1710.365858740963
 20
674.7099575932973
 30
0.0
 10
1708.571168643995
 20
669.9873250208782
 30
0.0
 10
1706.685065711103
 20
665.3828962231953
 30
0.0
 10
1703.986604811211
 20
659.2969489863483
 30
0.0
 10
1701.14800281409
 20
653.5738704901321
 30
0.0
 10
1700.375657408131
 20
652.0640713580094
 30
0.0
 10
1699.594553053843
 20
650.5845316797661
 30
0.0
 10
1698.805552757474
 20
649.1372622532383
 30
0.0
 10
1697.37902157707
 20
646.6045511722793
 30
0.0
 10
1695.931919037697
 20
644.1838361647112
 30
0.0
 10
1695.288572370916
 20
643.1362353858442
 30
0.0
 10
1694.641716473599
 20
642.111239502223
 30
0.0
 10
1693.99134770055
 20
641.1086886076394
 30
0.0
 10
1693.277788524766
 20
640.0390329215022
 30
0.0
 10
1692.558777767326
 20
638.9941866207971
 30
0.0
 10
1692.498966624483
 20
638.9074970028903
 30
0.0
 10
1692.439116720301
 20
638.8209773847213
 30
0.0
 10
1692.379227476016
 20
638.7346270046562
 30
0.0
 10
1692.319298288967
 20
638.6484450800942
 30
0.0
 10
1692.259328532708
 20
638.5624308084682
 30
0.0
  0
SPLINE
  5
3C4B
330
A
100
AcDbEntity
  8
MODEL
100
AcDbSpline
210
0.0
220
0.0
230
1.0
 70
     8
 71
     7
 72
    26
 73
    18
 74
     0
 42
0.000000001
 43
0.0000000001
 40
0.0229793764016129
 40
0.0229793764016129
 40
0.0229793764016129
 40
0.0229793764016129
 40
0.0229793764016129
 40
0.0229793764016129
 40
0.0229793764016129
 40
0.0229793764016129
 40
0.1212287999999999
 40
0.1212287999999999
 40
0.1212287999999999
 40
0.1212287999999999
 40
0.1212287999999999
 40
0.2609325832730716
 40
0.2609325832730716
 40
0.2609325832730716
 40
0.2609325832730716
 40
0.2609325832730716
 40
0.2610349016382111
 40
0.2610349016382111
 40
0.2610349016382111
 40
0.2610349016382111
 40
0.2610349016382111
 40
0.2610349016382111
 40
0.2610349016382111
 40
0.2610349016382111
 10
1744.139929825193
 20
948.153073096955
 30
0.0
 10
1744.116322998444
 20
942.5306955144213
 30
0.0
 10
1744.074868729527
 20
936.9066077206533
 30
0.0
 10
1744.013976270218
 20
931.2797509075924
 30
0.0
 10
1743.932523992986
 20
925.6499094163171
 30
0.0
 10
1743.82957876923
 20
920.0176196532873
 30
0.0
 10
1743.526306056268
 20
906.3734470523943
 30
0.0
 10
1743.088322671277
 20
892.7312840697143
 30
0.0
 10
1742.782760327751
 20
884.7273006714111
 30
0.0
 10
1742.427172285402
 20
876.7356437702131
 30
0.0
 10
1742.020169332827
 20
868.7646805123684
 30
0.0
 10
1741.560193940744
 20
860.8178166482273
 30
0.0
 10
1741.046406729107
 20
852.9104918084943
 30
0.0
 10
1741.046030680447
 20
852.9047047821684
 30
0.0
 10
1741.045654602963
 20
852.8989177770443
 30
0.0
 10
1741.045278496656
 20
852.8931307931073
 30
0.0
 10
1741.044902361525
 20
852.8873438303583
 30
0.0
 10
1741.044526197569
 20
852.8815568888115
 30
0.0
  0
LINE
  5
3C4C
330
A
100
AcDbEntity
  8
MODEL
100
AcDbLine
 10
1577.482648219432
 20
1542.231382892222
 30
0.0
 11
1577.482645421904
 21
1478.225216855691
 31
0.0
  0
LINE
  5
3C4D
330
A
100
AcDbEntity
  8
MODEL
100
AcDbLine
 10
1577.482645421904
 20
1478.225216855691
 30
0.0
 11
1577.482645421915
 21
618.2380060177691
 31
0.0
  0
LINE
  5
3C4E
330
A
100
AcDbEntity
  8
MODEL
100
AcDbLine
 10
1577.482645421915
 20
618.2380060177691
 30
0.0
 11
1577.482648219445
 21
554.2318399812373
 31
0.0
  0
LINE
  5
3C4F
330
A
100
AcDbEntity
  8
MODEL
100
AcDbLine
 10
1583.639709909279
 20
1548.229326842078
 30
0.0
 11
1683.587356241637
 21
1545.612105620183
 31
0.0
  0
ARC
  5
3C50
330
A
100
AcDbEntity
  8
MODEL
100
AcDbCircle
 10
1583.482648219432
 20
1542.231382892222
 30
0.0
 40
6.0
100
AcDbArc
 50
88.50000000024491
 51
180.0
  0
LINE
  5
3C51
330
A
100
AcDbEntity
  8
MODEL
100
AcDbLine
 10
1683.587356241637
 20
550.8511172532765
 30
0.0
 11
1583.639709909292
 21
548.2338960313812
 31
0.0
  0
ARC
  5
3C52
330
A
100
AcDbEntity
  8
MODEL
100
AcDbCircle
 10
1583.482648219445
 20
554.2318399812373
 30
0.0
 40
6.000000000000028
100
AcDbArc
 50
180.0
 51
271.499999999312
  0
SPLINE
  5
3C53
330
A
100
AcDbEntity
  8
MODEL
100
AcDbSpline
210
0.0
220
0.0
230
1.0
 70
     8
 71
     3
 72
    17
 73
    13
 74
     0
 42
0.000000001
 43
0.0000000001
 40
147.1201368293388
 40
147.1201368293388
 40
147.1201368293388
 40
147.1201368293388
 40
147.7972315933577
 40
151.3547960204193
 40
154.9208134821428
 40
158.486231318686
 40
160.268258226451
 40
162.0504408767075
 40
163.5674194946185
 40
165.0875317605562
 40
166.6108131860027
 40
168.13729923353
 40
168.13729923353
 40
168.13729923353
 40
168.13729923353
 10
1724.208496441435
 20
1372.853582762926
 30
0.0
 10
1724.208439239651
 20
1372.853817973826
 30
0.0
 10
1724.207421041061
 20
1372.858278158457
 30
0.0
 10
1724.166423634637
 20
1373.044036477602
 30
0.0
 10
1724.180135622675
 20
1372.981820405492
 30
0.0
 10
1724.203072015844
 20
1372.878265677022
 30
0.0
 10
1724.158821717963
 20
1373.078008112456
 30
0.0
 10
1724.273813152351
 20
1372.559115002894
 30
0.0
 10
1723.894442557257
 20
1374.271127319504
 30
0.0
 10
1723.651331021201
 20
1375.351730052966
 30
0.0
 10
1723.358670463072
 20
1376.64009572947
 30
0.0
 10
1723.209734403211
 20
1377.288933420017
 30
0.0
 10
1723.095195244976
 20
1377.784702932362
 30
0.0
  0
SPLINE
  5
3C54
330
A
100
AcDbEntity
  8
MODEL
100
AcDbSpline
210
0.0
220
0.0
230
1.0
 70
     8
 71
     3
 72
    94
 73
    90
 74
     0
 42
0.000000001
 43
0.0000000001
 40
0.0
 40
0.0
 40
0.0
 40
0.0
 40
3.005953435194511
 40
6.012925515476188
 40
6.572412191882833
 40
7.133931272378502
 40
7.963206055061751
 40
8.795518407823844
 40
9.743324445323179
 40
10.69295719549
 40
11.60850215664661
 40
12.52496205865724
 40
13.41758020857393
 40
14.31049412385257
 40
15.20369588392136
 40
16.0971771393729
 40
17.23003966571746
 40
18.36290836523711
 40
19.49072376412584
 40
20.61837115866662
 40
21.73979979538415
 40
22.86086527230561
 40
23.98155234474946
 40
25.10184580480064
 40
26.31320737024031
 40
27.5238976211035
 40
28.73389767077667
 40
29.94318876063323
 40
32.35229463201456
 40
34.75797270442207
 40
37.15418602233892
 40
39.54640105965444
 40
41.93074439781396
 40
44.3106407230303
 40
46.12913248042012
 40
47.9447731662591
 40
49.75750325723666
 40
51.56726419959174
 40
53.37146666915254
 40
55.17250597356206
 40
56.9703261720765
 40
58.76487240511344
 40
60.55407301647602
 40
62.33983320795023
 40
64.12210115571516
 40
65.90082624806594
 40
67.67452651482196
 40
69.44454603002976
 40
71.21083774634381
 40
72.97335597492395
 40
75.69964984479984
 40
78.41649207490589
 40
81.12373145094323
 40
83.82122575774227
 40
86.50678306304178
 40
89.18225946832902
 40
91.84754084697093
 40
94.50252336166544
 40
97.14435220432884
 40
99.77560701464739
 40
102.3962156868799
 40
105.0061175460428
 40
107.6052635932469
 40
110.1936167300095
 40
112.7711519601599
 40
115.3378565679726
 40
116.6917753777793
 40
118.0425732413523
 40
119.3902527201088
 40
120.7348174243302
 40
122.0723206324911
 40
123.4066641340865
 40
124.7378554070399
 40
126.0659030491771
 40
127.3826258624127
 40
128.6961589830696
 40
130.0065185978289
 40
131.3137222010386
 40
132.6231441162858
 40
133.9299838559236
 40
135.3226293675423
 40
136.7153911653227
 40
137.7792054859747
 40
138.8464496318462
 40
139.7677465542173
 40
140.6914569939713
 40
142.4652852099599
 40
144.24370304439
 40
147.1201368293388
 40
147.1201368293388
 40
147.1201368293388
 40
147.1201368293388
 10
1741.048968150879
 20
1243.513302666312
 30
0.0
 10
1741.048821708789
 20
1243.515556705724
 30
0.0
 10
1741.032081801075
 20
1243.773162971427
 30
0.0
 10
1741.081857521967
 20
1243.007111961722
 30
0.0
 10
1741.025092425562
 20
1243.880796229672
 30
0.0
 10
1741.005589650216
 20
1244.179989370461
 30
0.0
 10
1740.960504569652
 20
1244.867812650164
 30
0.0
 10
1740.918549089592
 20
1245.502585156662
 30
0.0
 10
1740.860241739798
 20
1246.377617729262
 30
0.0
 10
1740.804899355969
 20
1247.199431195289
 30
0.0
 10
1740.744627973557
 20
1248.086018386139
 30
0.0
 10
1740.687122735625
 20
1248.923509341463
 30
0.0
 10
1740.626490229673
 20
1249.798125764342
 30
0.0
 10
1740.566677991357
 20
1250.652429958414
 30
0.0
 10
1740.506014007176
 20
1251.510643020536
 30
0.0
 10
1740.439764567953
 20
1252.438977272921
 30
0.0
 10
1740.365693361764
 20
1253.465693245032
 30
0.0
 10
1740.285916835109
 20
1254.558075748284
 30
0.0
 10
1740.20453839282
 20
1255.659056940758
 30
0.0
 10
1740.122919446646
 20
1256.750125945111
 30
0.0
 10
1740.039715065999
 20
1257.849247715656
 30
0.0
 10
1739.955968081196
 20
1258.942492869626
 30
0.0
 10
1739.871193980111
 20
1260.03623079791
 30
0.0
 10
1739.783386938812
 20
1261.155992715257
 30
0.0
 10
1739.691435706922
 20
1262.31451614306
 30
0.0
 10
1739.596244639632
 20
1263.498909734599
 30
0.0
 10
1739.499874535351
 20
1264.683182038572
 30
0.0
 10
1739.37030953867
 20
1266.255891634808
 30
0.0
 10
1739.204860610849
 20
1268.227719751334
 30
0.0
 10
1739.002743977846
 20
1270.579020050705
 30
0.0
 10
1738.795365362646
 20
1272.934686353316
 30
0.0
 10
1738.584242529528
 20
1275.277016510068
 30
0.0
 10
1738.368081141194
 20
1277.620112615843
 30
0.0
 10
1738.165087851277
 20
1279.770455545995
 30
0.0
 10
1737.975402447942
 20
1281.739855385373
 30
0.0
 10
1737.80081395968
 20
1283.521448286485
 30
0.0
 10
1737.623509985081
 20
1285.300037236493
 30
0.0
 10
1737.44376012868
 20
1287.072820861025
 30
0.0
 10
1737.260980192728
 20
1288.845377131483
 30
0.0
 10
1737.075731974641
 20
1290.612073172962
 30
0.0
 10
1736.887742423057
 20
1292.375425491557
 30
0.0
 10
1736.697246402364
 20
1294.133130478558
 30
0.0
 10
1736.503742685452
 20
1295.88964708365
 30
0.0
 10
1736.307709030965
 20
1297.640470109722
 30
0.0
 10
1736.108914178261
 20
1299.387574322873
 30
0.0
 10
1735.907537602423
 20
1301.129275693909
 30
0.0
 10
1735.703196071923
 20
1302.868738984327
 30
0.0
 10
1735.496250230071
 20
1304.602742786725
 30
0.0
 10
1735.286520032321
 20
1306.332695945968
 30
0.0
 10
1735.035235136003
 20
1308.373321508365
 30
0.0
 10
1734.739721704253
 20
1310.726183932902
 30
0.0
 10
1734.397767300916
 20
1313.384528371798
 30
0.0
 10
1734.04900646236
 20
1316.03232596467
 30
0.0
 10
1733.693711834059
 20
1318.667105247792
 30
0.0
 10
1733.33121737946
 20
1321.293304205074
 30
0.0
 10
1732.962102959496
 20
1323.90622325591
 30
0.0
 10
1732.586012500693
 20
1326.507972893787
 30
0.0
 10
1732.203319779531
 20
1329.095593800115
 30
0.0
 10
1731.813073068543
 20
1331.675001333819
 30
0.0
 10
1731.4161035393
 20
1334.240169084022
 30
0.0
 10
1731.011992929579
 20
1336.793431283238
 30
0.0
 10
1730.600750238045
 20
1339.334243303167
 30
0.0
 10
1730.182274972359
 20
1341.862752389252
 30
0.0
 10
1729.756585882467
 20
1344.378405091791
 30
0.0
 10
1729.323310449752
 20
1346.882812845566
 30
0.0
 10
1728.952140856685
 20
1348.98153950069
 30
0.0
 10
1728.644404096876
 20
1350.692427790784
 30
0.0
 10
1728.405416286299
 20
1352.005674451591
 30
0.0
 10
1728.164132105359
 20
1353.316185316306
 30
0.0
 10
1727.921292494245
 20
1354.619912354656
 30
0.0
 10
1727.675252288009
 20
1355.9255553805
 30
0.0
 10
1727.427651852313
 20
1357.22429048682
 30
0.0
 10
1727.177565792833
 20
1358.520914736264
 30
0.0
 10
1726.92654519528
 20
1359.807427348425
 30
0.0
 10
1726.67110031505
 20
1361.101536218195
 30
0.0
 10
1726.414565800731
 20
1362.386115609015
 30
0.0
 10
1726.15590778883
 20
1363.666512235201
 30
0.0
 10
1725.893428025776
 20
1364.950665305516
 30
0.0
 10
1725.632836822115
 20
1366.211344626108
 30
0.0
 10
1725.35248166885
 20
1367.550989539961
 30
0.0
 10
1725.105618004043
 20
1368.718245546932
 30
0.0
 10
1724.822444266303
 20
1370.039716249566
 30
0.0
 10
1724.686661648593
 20
1370.667906190692
 30
0.0
 10
1724.516825673052
 20
1371.449151570692
 30
0.0
 10
1724.457034124987
 20
1371.72261366193
 30
0.0
 10
1724.334965551117
 20
1372.279837277632
 30
0.0
 10
1724.316714003358
 20
1372.362438885555
 30
0.0
 10
1724.206048569047
 20
1372.864925009841
 30
0.0
 10
1724.208739446035
 20
1372.852583540009
 30
0.0
 10
1724.208496441435
 20
1372.853582762926
 30
0.0
  0
SPLINE
  5
3C55
330
A
100
AcDbEntity
  8
MODEL
100
AcDbSpline
210
0.0
220
0.0
230
1.0
 70
     8
 71
     3
 72
    18
 73
    14
 74
     0
 42
0.000000001
 43
0.0000000001
 40
0.0
 40
0.0
 40
0.0
 40
0.0
 40
0.5142802468243777
 40
1.026287696016098
 40
1.536119143364799
 40
2.043876971286494
 40
2.5496686934474
 40
3.05360645855703
 40
3.555806516579967
 40
4.056388650583559
 40
5.053192320276636
 40
6.045022943387684
 40
7.879583820115752
 40
7.879583820115752
 40
7.879583820115752
 40
7.879583820115752
 10
1692.259328530874
 20
1457.900792077913
 30
0.0
 10
1692.179042934849
 20
1458.015945259076
 30
0.0
 10
1691.9568255926
 20
1458.333122773025
 30
0.0
 10
1691.671174227423
 20
1458.735820937991
 30
0.0
 10
1691.371452309661
 20
1459.154005352831
 30
0.0
 10
1691.074226651794
 20
1459.563899036921
 30
0.0
 10
1690.77500895867
 20
1459.971920388098
 30
0.0
 10
1690.474911915564
 20
1460.376450178681
 30
0.0
 10
1690.173551168376
 20
1460.778011974124
 30
0.0
 10
1689.770649240691
 20
1461.30863888185
 30
0.0
 10
1689.263471359835
 20
1461.964916905739
 30
0.0
 10
1688.472799759984
 20
1462.96372507651
 30
0.0
 10
1687.875714968631
 20
1463.692046600221
 30
0.0
 10
1687.482654085218
 20
1464.160162487404
 30
0.0
  0
SPLINE
  5
3C56
330
A
100
AcDbEntity
  8
MODEL
100
AcDbSpline
210
0.0
220
0.0
230
1.0
 70
     8
 71
     3
 72
    17
 73
    13
 74
     0
 42
0.000000001
 43
0.0000000001
 40
147.1201368464303
 40
147.1201368464303
 40
147.1201368464303
 40
147.1201368464303
 40
147.797231561726
 40
151.3547959947238
 40
154.9208134625158
 40
158.4862313051055
 40
160.2682582158742
 40
162.0504408691351
 40
163.5674194938275
 40
165.0875317665428
 40
166.6108131987639
 40
168.1372992530632
 40
168.1372992530632
 40
168.1372992530632
 40
168.1372992530632
 10
1724.208496441852
 20
723.6096401124403
 30
0.0
 10
1724.208439240053
 20
723.6094049014521
 30
0.0
 10
1724.207421041183
 20
723.6049447155553
 30
0.0
 10
1724.166423634382
 20
723.4191863946933
 30
0.0
 10
1724.180135622822
 20
723.4814024686373
 30
0.0
 10
1724.203072016155
 20
723.5849571978345
 30
0.0
 10
1724.158821718172
 20
723.3852147619493
 30
0.0
 10
1724.273813152869
 20
723.9041078729081
 30
0.0
 10
1723.894442555783
 20
722.1920955473204
 30
0.0
 10
1723.651331018279
 20
721.1114928075283
 30
0.0
 10
1723.35867045847
 20
719.8231271238203
 30
0.0
 10
1723.209734397462
 20
719.1742894284423
 30
0.0
 10
1723.095195238691
 20
718.6785199138992
 30
0.0
  0
SPLINE
  5
3C57
330
A
100
AcDbEntity
  8
MODEL
100
AcDbSpline
210
0.0
220
0.0
230
1.0
 70
     8
 71
     3
 72
    94
 73
    90
 74
     0
 42
0.000000001
 43
0.0000000001
 40
0.0
 40
0.0
 40
0.0
 40
0.0
 40
3.00595343488879
 40
6.012925514857525
 40
6.572412191183466
 40
7.13393127159785
 40
7.96320605405477
 40
8.79551840659032
 40
9.743324443867039
 40
10.69295719381143
 40
11.60850215473268
 40
12.52496205650809
 40
13.41758020618411
 40
14.31049412122223
 40
15.20369588105073
 40
16.09717713626216
 40
17.2300396622566
 40
18.36290836142641
 40
19.49072375996719
 40
20.61837115416046
 40
21.73979979053077
 40
22.86086526710545
 40
23.98155233920309
 40
25.10184579890852
 40
26.31320736356479
 40
27.5238976136458
 40
28.73389766253804
 40
29.94318875161483
 40
32.35229462144476
 40
34.75797269230671
 40
37.15418600868727
 40
39.54640104447316
 40
41.93074438111142
 40
44.31064070481383
 40
46.12913246102818
 40
47.94477314569643
 40
49.75750323550812
 40
51.56726417670225
 40
53.37146664510796
 40
55.17250594836766
 40
56.97032614573754
 40
58.76487237763534
 40
60.55407298786492
 40
62.33983317821171
 40
64.12210112485491
 40
65.90082621608978
 40
67.67452648173608
 40
69.44454599584017
 40
71.2108377110566
 40
72.97335593854514
 40
75.69964980666143
 40
78.41649203502364
 40
81.12373140933292
 40
83.82122571441997
 40
86.50678301802414
 40
89.1822594216324
 40
91.84754079861166
 40
94.50252331165996
 40
97.14435215270366
 40
99.77560696141927
 40
102.3962156320656
 40
105.0061174896588
 40
107.6052635353098
 40
110.1936166705354
 40
112.7711518991649
 40
115.3378565054725
 40
116.691775315451
 40
118.0425731791961
 40
119.3902526581254
 40
120.7348173625198
 40
122.0723205708927
 40
123.4066640727006
 40
124.7378553458672
 40
126.0659029882181
 40
127.3826258016845
 40
128.6961589225716
 40
130.0065185375607
 40
131.313722140999
 40
132.623144055675
 40
133.9299837947125
 40
135.3226293011589
 40
136.7153910936279
 40
137.7792054250732
 40
138.8464495817649
 40
139.7677465071997
 40
140.6914569500538
 40
142.465285169217
 40
144.2437030068899
 40
147.1201368464303
 40
147.1201368464303
 40
147.1201368464303
 40
147.1201368464303
 10
1741.048968150879
 20
852.9499202071472
 30
0.0
 10
1741.04882170879
 20
852.9476661677493
 30
0.0
 10
1741.03208180109
 20
852.6900599022654
 30
0.0
 10
1741.08185752197
 20
853.4561109117801
 30
0.0
 10
1741.025092425589
 20
852.5824266442094
 30
0.0
 10
1741.005589650256
 20
852.2832335036094
 30
0.0
 10
1740.960504569706
 20
851.5954102241392
 30
0.0
 10
1740.918549089667
 20
850.9606377179323
 30
0.0
 10
1740.860241739889
 20
850.0856051455501
 30
0.0
 10
1740.804899356078
 20
849.2637916797851
 30
0.0
 10
1740.744627973683
 20
848.3772044891682
 30
0.0
 10
1740.687122735769
 20
847.5397135340925
 30
0.0
 10
1740.626490229835
 20
846.6650971114452
 30
0.0
 10
1740.566677991539
 20
845.8107929176065
 30
0.0
 10
1740.506014007378
 20
844.9525798557463
 30
0.0
 10
1740.439764568175
 20
844.0242456036383
 30
0.0
 10
1740.365693362011
 20
842.9975296318323
 30
0.0
 10
1740.285916835384
 20
841.9051471289292
 30
0.0
 10
1740.204538393124
 20
840.8041659367902
 30
0.0
 10
1740.122919446979
 20
839.7130969327861
 30
0.0
 10
1740.039715066364
 20
838.6139751625913
 30
0.0
 10
1739.955968081589
 20
837.5207300089703
 30
0.0
 10
1739.871193980536
 20
836.4269920810204
 30
0.0
 10
1739.783386939283
 20
835.3072301641535
 30
0.0
 10
1739.691435707447
 20
834.1487067369765
 30
0.0
 10
1739.596244640226
 20
832.9643131462092
 30
0.0
 10
1739.499874536015
 20
831.7800408429923
 30
0.0
 10
1739.37030953943
 20
830.2073312477753
 30
0.0
 10
1739.204860611731
 20
828.2355031325303
 30
0.0
 10
1739.002743978883
 20
825.8842028346864
 30
0.0
 10
1738.795365363843
 20
823.5285365335892
 30
0.0
 10
1738.584242530889
 20
821.1862063783362
 30
0.0
 10
1738.368081142727
 20
818.8431102740603
 30
0.0
 10
1738.165087852974
 20
816.6927673452903
 30
0.0
 10
1737.975402449794
 20
814.7233675071641
 30
0.0
 10
1737.800813961678
 20
812.9417746072011
 30
0.0
 10
1737.623509987228
 20
811.1631856583433
 30
0.0
 10
1737.443760130981
 20
809.3904020349453
 30
0.0
 10
1737.260980195187
 20
807.6178457656222
 30
0.0
 10
1737.075731977258
 20
805.8511497252641
 30
0.0
 10
1736.887742425839
 20
804.08779740779
 30
0.0
 10
1736.697246405312
 20
802.3300924218954
 30
0.0
 10
1736.503742688574
 20
800.5735758179092
 30
0.0
 10
1736.307709034261
 20
798.8227527929432
 30
0.0
 10
1736.108914181736
 20
797.0756485808981
 30
0.0
 10
1735.90753760608
 20
795.333947210938
 30
0.0
 10
1735.703196075767
 20
793.5944839215974
 30
0.0
 10
1735.496250234104
 20
791.8604801202621
 30
0.0
 10
1735.286520036548
 20
790.1305269620955
 30
0.0
 10
1735.03523514047
 20
788.0899014009794
 30
0.0
 10
1734.739721709002
 20
785.7370389779414
 30
0.0
 10
1734.397767305999
 20
783.0786945407183
 30
0.0
 10
1734.049006467787
 20
780.4308969495203
 30
0.0
 10
1733.693711839841
 20
777.7961176680562
 30
0.0
 10
1733.331217385606
 20
775.1699187124052
 30
0.0
 10
1732.962102966016
 20
772.5569996631841
 30
0.0
 10
1732.586012507598
 20
769.9552500269072
 30
0.0
 10
1732.203319786831
 20
767.3676291221511
 30
0.0
 10
1731.81307307625
 20
764.7882215900192
 30
0.0
 10
1731.416103547424
 20
762.2230538413594
 30
0.0
 10
1731.01199293813
 20
759.6697916436553
 30
0.0
 10
1730.600750247036
 20
757.1289796252261
 30
0.0
 10
1730.1822749818
 20
754.6004705406392
 30
0.0
 10
1729.756585892371
 20
752.0848178395702
 30
0.0
 10
1729.323310460131
 20
749.5804100872504
 30
0.0
 10
1728.952140867415
 20
747.4816834329852
 30
0.0
 10
1728.644404107843
 20
745.7707951432983
 30
0.0
 10
1728.405416297366
 20
744.457548482331
 30
0.0
 10
1728.164132116526
 20
743.1470376174573
 30
0.0
 10
1727.921292505507
 20
741.8433105789175
 30
0.0
 10
1727.675252299379
 20
740.5376675529421
 30
0.0
 10
1727.427651863783
 20
739.2389324464773
 30
0.0
 10
1727.177565804409
 20
737.9423081968732
 30
0.0
 10
1726.926545206957
 20
736.6557955845362
 30
0.0
 10
1726.671100326832
 20
735.3616867146072
 30
0.0
 10
1726.414565812625
 20
734.0771073236563
 30
0.0
 10
1726.155907800808
 20
732.7967106972085
 30
0.0
 10
1725.893428037998
 20
731.5125576273883
 30
0.0
 10
1725.632836834246
 20
730.2518783056892
 30
0.0
 10
1725.352481681766
 20
728.9122333948633
 30
0.0
 10
1725.10561801619
 20
727.7449773836295
 30
0.0
 10
1724.822444278501
 20
726.4235066805143
 30
0.0
 10
1724.686661657664
 20
725.7953167246035
 30
0.0
 10
1724.516825678365
 20
725.0140713271123
 30
0.0
 10
1724.457034129087
 20
724.740609230286
 30
0.0
 10
1724.334965553251
 20
724.1833856055184
 30
0.0
 10
1724.31671400531
 20
724.1007839967813
 30
0.0
 10
1724.206048568621
 20
723.5982978616682
 30
0.0
 10
1724.208739446543
 20
723.6106393357493
 30
0.0
 10
1724.208496441852
 20
723.6096401124403
 30
0.0
  0
SPLINE
  5
3C58
330
A
100
AcDbEntity
  8
MODEL
100
AcDbSpline
210
0.0
220
0.0
230
1.0
 70
     8
 71
     3
 72
    18
 73
    14
 74
     0
 42
0.000000001
 43
0.0000000001
 40
0.0
 40
0.0
 40
0.0
 40
0.0
 40
0.5142802468239747
 40
1.026287696015333
 40
1.536119143363626
 40
2.043876971284949
 40
2.549668693445483
 40
3.053606458554739
 40
3.555806516577257
 40
4.056388650580532
 40
5.053192320272847
 40
6.045022943383131
 40
7.879583820116911
 40
7.879583820116911
 40
7.879583820116911
 40
7.879583820116911
 10
1692.259328530874
 20
638.5624307955461
 30
0.0
 10
1692.179042934851
 20
638.4472776143832
 30
0.0
 10
1691.956825592601
 20
638.1301001004342
 30
0.0
 10
1691.671174227423
 20
637.7274019354684
 30
0.0
 10
1691.371452309662
 20
637.3092175206273
 30
0.0
 10
1691.074226651795
 20
636.8993238365381
 30
0.0
 10
1690.775008958672
 20
636.4913024853611
 30
0.0
 10
1690.474911915566
 20
636.0867726947783
 30
0.0
 10
1690.173551168378
 20
635.6852108993501
 30
0.0
 10
1689.770649240694
 20
635.1545839916091
 30
0.0
 10
1689.263471359838
 20
634.4983059677204
 30
0.0
 10
1688.472799759985
 20
633.4994977969493
 30
0.0
 10
1687.875714968632
 20
632.7711762732381
 30
0.0
 10
1687.482654085219
 20
632.3030603860554
 30
0.0
  0
LINE
  5
3C59
330
A
100
AcDbEntity
  8
MODEL
100
AcDbLine
 10
1755.573254752791
 20
1082.471116356422
 30
0.0
 11
1743.869206196133
 21
1083.495087922494
 31
0.0
  0
ARC
  5
3C5A
330
A
100
AcDbEntity
  8
MODEL
100
AcDbCircle
 10
1755.311677975444
 20
1079.48243173746
 30
0.0
 40
3.000109565675085
100
AcDbArc
 50
0.0104172942039428
 51
84.99808291479374
  0
SPLINE
  5
3C5B
330
A
100
AcDbEntity
  8
MODEL
100
AcDbSpline
210
0.0
220
0.0
230
1.0
 70
     8
 71
     3
 72
    22
 73
    18
 74
     0
 42
0.000000001
 43
0.0000000001
 40
0.0
 40
0.0
 40
0.0
 40
0.0
 40
3.122250409143973
 40
7.402417842815124
 40
10.8584445457217
 40
14.92746957059622
 40
18.72243898909164
 40
22.51509892740109
 40
24.84590264369735
 40
27.17374358554893
 40
29.20947412244364
 40
30.08128844493143
 40
31.2432812013245
 40
32.40618361928512
 40
34.73114805101513
 40
36.18339859055052
 40
37.85874845284295
 40
37.85874845284295
 40
37.85874845284295
 40
37.85874845284295
 10
1743.869202056239
 20
972.3567444169482
 30
0.0
 10
1743.869202000963
 20
971.3167757697254
 30
0.0
 10
1743.878616420566
 20
968.8479565180044
 30
0.0
 10
1743.921622759155
 20
965.3073631550963
 30
0.0
 10
1743.985141394461
 20
961.6550469309461
 30
0.0
 10
1744.044669500447
 20
958.4055231117693
 30
0.0
 10
1744.089208395049
 20
955.4118138464712
 30
0.0
 10
1744.111929636481
 20
953.2226642050393
 30
0.0
 10
1744.12401892969
 20
951.6458604012171
 30
0.0
 10
1744.130432579463
 20
950.5841145265892
 30
0.0
 10
1744.133827903284
 20
949.8960164718612
 30
0.0
 10
1744.135817426542
 20
949.4410450059534
 30
0.0
 10
1744.137184228786
 20
949.1276870773743
 30
0.0
 10
1744.138694377849
 20
948.7354698732254
 30
0.0
 10
1744.139509042637
 20
948.4363340294683
 30
0.0
 10
1744.139920216458
 20
948.2536493644604
 30
0.0
 10
1744.140005307936
 20
948.2151529483983
 30
0.0
 10
1744.140000065704
 20
948.2139834373831
 30
0.0
  0
LINE
  5
3C5C
330
A
100
AcDbEntity
  8
MODEL
100
AcDbLine
 10
1743.869202056552
 20
1124.106503049408
 30
0.0
 11
1743.869202056552
 21
972.3567248014754
 31
0.0
  0
SPLINE
  5
3C5D
330
A
100
AcDbEntity
  8
MODEL
100
AcDbSpline
210
0.0
220
0.0
230
1.0
 70
     8
 71
     3
 72
    22
 73
    18
 74
     0
 42
0.000000001
 43
0.0000000001
 40
0.0
 40
0.0
 40
0.0
 40
0.0
 40
3.122250409143973
 40
7.402417842815124
 40
10.8584445457217
 40
14.92746957059622
 40
18.72243898909164
 40
22.51509892740109
 40
24.84590264369735
 40
27.17374358554893
 40
29.20947412244364
 40
30.08128844493143
 40
31.2432812013245
 40
32.40618361928512
 40
34.73114805101513
 40
36.18339859055052
 40
37.85874845284295
 40
37.85874845284295
 40
37.85874845284295
 40
37.85874845284295
 10
1743.869202056239
 20
1124.106478456511
 30
0.0
 10
1743.869202000963
 20
1125.146447103734
 30
0.0
 10
1743.878616420566
 20
1127.615266355455
 30
0.0
 10
1743.921622759155
 20
1131.155859718363
 30
0.0
 10
1743.985141394461
 20
1134.808175942513
 30
0.0
 10
1744.044669500447
 20
1138.05769976169
 30
0.0
 10
1744.089208395049
 20
1141.051409026988
 30
0.0
 10
1744.111929636481
 20
1143.24055866842
 30
0.0
 10
1744.12401892969
 20
1144.817362472242
 30
0.0
 10
1744.130432579463
 20
1145.87910834687
 30
0.0
 10
1744.133827903284
 20
1146.567206401598
 30
0.0
 10
1744.135817426542
 20
1147.022177867506
 30
0.0
 10
1744.137184228786
 20
1147.335535796084
 30
0.0
 10
1744.138694377849
 20
1147.727753000234
 30
0.0
 10
1744.139509042637
 20
1148.026888843991
 30
0.0
 10
1744.139920216458
 20
1148.209573508999
 30
0.0
 10
1744.140005307936
 20
1148.248069925061
 30
0.0
 10
1744.140000065704
 20
1148.249239436076
 30
0.0
  0
ARC
  5
3C5E
330
A
100
AcDbEntity
  8
HIDDEN
100
AcDbCircle
 10
1722.199767118595
 20
2279.456984745992
 30
0.0
 40
15.0
100
AcDbArc
 50
139.9999974956384
 51
176.9846196788729
  0
LINE
  5
3E85
330
A
100
AcDbEntity
  8
HIDDEN
  6
CENTER
 48
0.15
100
AcDbLine
 10
1592.983147531084
 20
748.2316114367297
 30
0.0
 11
1641.982126283395
 21
748.2316114367297
 31
0.0
  0
LINE
  5
3E8B
102
{ACAD_REACTORS
330
4072
102
}
330
A
100
AcDbEntity
  8
HIDDEN
  6
CENTER
 48
0.15
100
AcDbLine
 10
1617.48263690724
 20
772.7311008128847
 30
0.0
 11
1617.48263690724
 21
723.7321220605747
 31
0.0
  0
LINE
  5
3EA5
330
A
100
AcDbEntity
  8
MODEL
  6
Continuous
100
AcDbLine
 10
1755.573223279162
 20
2289.461017051761
 30
0.0
 11
1744.139994201744
 21
2288.46073394486
 31
0.0
  0
SPLINE
  5
3EB1
330
A
100
AcDbEntity
  8
HIDDEN
100
AcDbSpline
210
0.0
220
0.0
230
1.0
 70
  1064
 71
     3
 72
    46
 73
    42
 74
    40
 42
0.000000001
 43
0.0000000001
 44
0.0
 40
0.0
 40
0.0
 40
0.0
 40
0.0
 40
1.597733430744578
 40
3.517230752497808
 40
5.844970964962561
 40
10.24919852285666
 40
19.34969834790644
 40
27.44405498503314
 40
36.54712814957782
 40
44.67126092150289
 40
53.99483160564668
 40
71.14010211420319
 40
88.7957205870608
 40
104.8966460777112
 40
123.9944740606618
 40
139.9001142138903
 40
164.8152340275474
 40
190.8819968104707
 40
224.7755773676688
 40
252.8669582050962
 40
272.6761197054713
 40
280.924799547704
 40
305.1281856558193
 40
327.6634262633384
 40
349.4079971857656
 40
365.0242009252505
 40
374.0010731708721
 40
384.7254547088405
 40
396.4582223826578
 40
404.8640855718652
 40
419.0043924739051
 40
437.8298863699758
 40
458.4328989578847
 40
479.0044183380963
 40
498.4469897574888
 40
513.10038389872
 40
517.115195688649
 40
520.4001674702769
 40
522.3549090676316
 40
526.0714820761591
 40
529.045486308261
 40
529.045486308261
 40
529.045486308261
 40
529.045486308261
 10
1577.482634450484
 20
2053.502789954136
 30
0.0
 10
1577.499844738907
 20
2054.040641753376
 30
0.0
 10
1577.537731256479
 20
2055.224662098805
 30
0.0
 10
1578.570717052392
 20
2056.990013533662
 30
0.0
 10
1581.032842445618
 20
2058.601165307656
 30
0.0
 10
1586.127035592339
 20
2060.070818819318
 30
0.0
 10
1592.891582884874
 20
2062.514321987105
 30
0.0
 10
1601.043342821756
 20
2065.751617471941
 30
0.0
 10
1608.69983730193
 20
2069.316017840405
 30
0.0
 10
1616.504047865211
 20
2073.499214003185
 30
0.0
 10
1626.327480440463
 20
2079.551322502217
 30
0.0
 10
1638.115485884543
 20
2088.410232127694
 30
0.0
 10
1650.38494831171
 20
2100.188964598005
 30
0.0
 10
1661.681390379056
 20
2113.747300353933
 30
0.0
 10
1671.132775927957
 20
2127.964871368621
 30
0.0
 10
1680.550871596899
 20
2145.60061849153
 30
0.0
 10
1689.040834190372
 20
2166.272857663525
 30
0.0
 10
1697.004414234782
 20
2193.464795950942
 30
0.0
 10
1702.390107242294
 20
2222.367998989342
 30
0.0
 10
1705.350941220824
 20
2249.487268634845
 30
0.0
 10
1706.533206598791
 20
2268.165890054933
 30
0.0
 10
1707.608957922805
 20
2285.557486089939
 30
0.0
 10
1707.135154994652
 20
2303.90066734165
 30
0.0
 10
1707.312001630788
 20
2326.723787646759
 30
0.0
 10
1707.190419126019
 20
2346.690520198654
 30
0.0
 10
1707.452927957193
 20
2362.13544780645
 30
0.0
 10
1706.906881564595
 20
2373.90962000072
 30
0.0
 10
1704.801581714329
 20
2384.247627130722
 30
0.0
 10
1699.949387098765
 20
2393.577645216724
 30
0.0
 10
1691.550231176238
 20
2401.518074654809
 30
0.0
 10
1678.997528809613
 20
2407.701147719687
 30
0.0
 10
1661.573768783139
 20
2411.896737286674
 30
0.0
 10
1641.732590236247
 20
2414.504307353758
 30
0.0
 10
1621.590979539906
 20
2416.211158656175
 30
0.0
 10
1603.404614944368
 20
2417.170502739853
 30
0.0
 10
1590.714492713656
 20
2418.20107280548
 30
0.0
 10
1583.413087938915
 20
2418.170522186082
 30
0.0
 10
1580.322341659029
 20
2419.010833819392
 30
0.0
 10
1578.11987200115
 20
2421.152699086413
 30
0.0
 10
1577.328840131144
 20
2424.087978798961
 30
0.0
 10
1577.435306674546
 20
2426.31096852661
 30
0.0
 10
1577.482631731752
 20
2427.299101630852
 30
0.0
 11
1577.482634450484
 21
2053.502789954136
 31
0.0
 11
1577.654715817519
 21
2055.091229477328
 31
0.0
 11
1578.592136223793
 21
2056.766255730889
 31
0.0
 11
1580.471807236945
 21
2058.139285730212
 31
0.0
 11
1584.60367292218
 21
2059.664050086069
 31
0.0
 11
1593.191234971087
 21
2062.676171451802
 31
0.0
 11
1600.701683657044
 21
2065.694742289898
 31
0.0
 11
1608.955265047799
 21
2069.534577607361
 31
0.0
 11
1616.113800957139
 21
2073.376048280236
 31
0.0
 11
1624.051102599022
 21
2078.267695543478
 31
0.0
 11
1637.758580466143
 21
2088.566498936784
 31
0.0
 11
1650.507465600876
 21
2100.780703433209
 31
0.0
 11
1660.828867371107
 21
2113.138230174145
 31
0.0
 11
1671.433883509551
 21
2129.020946137409
 31
0.0
 11
1678.947255285802
 21
2143.040169840447
 31
0.0
 11
1688.491598732571
 21
2166.054702281907
 31
0.0
 11
1695.899926594233
 21
2191.046556960488
 31
0.0
 11
1702.282292407598
 21
2224.333794899549
 31
0.0
 11
1705.401279100457
 21
2252.251488202599
 31
0.0
 11
1706.770025155725
 21
2272.013305264401
 31
0.0
 11
1707.2193206043
 21
2280.24973973203
 31
0.0
 11
1707.261144255381
 21
2304.453089704311
 31
0.0
 11
1707.261146591773
 21
2326.98833031183
 31
0.0
 11
1707.275365028906
 21
2348.732896585649
 31
0.0
 11
1707.2810522781
 21
2364.349099289517
 31
0.0
 11
1706.723191287511
 21
2373.308620840883
 31
0.0
 11
1704.406952221632
 21
2383.779886092113
 31
0.0
 11
1698.82613722307
 21
2394.100367730079
 31
0.0
 11
1692.772317578214
 21
2399.93216022152
 31
0.0
 11
1680.286570391121
 21
2406.569508823475
 31
0.0
 11
1662.103145478318
 21
2411.444165618723
 31
0.0
 11
1641.705785313334
 21
2414.347926283353
 31
0.0
 11
1621.211665008584
 21
2416.130744991146
 31
0.0
 11
1601.807978978753
 21
2417.359790089553
 31
0.0
 11
1587.17654461033
 21
2418.161717879817
 31
0.0
 11
1583.167300101108
 21
2418.373075808046
 31
0.0
 11
1580.059435986424
 21
2419.437134194955
 31
0.0
 11
1578.657165902796
 21
2420.798990767796
 31
0.0
 11
1577.482650277336
 21
2424.325097398808
 31
0.0
 11
1577.482631731752
 21
2427.299101630852
 31
0.0
  0
CIRCLE
  5
3EBB
330
A
100
AcDbEntity
  8
HIDDEN
 48
0.5
100
AcDbCircle
 10
727.6570468426366
 20
2263.711847062662
 30
0.0
 40
22.0
  0
SPLINE
  5
3EBC
330
A
100
AcDbEntity
  8
HIDDEN
100
AcDbSpline
210
0.0
220
0.0
230
1.0
 70
     8
 71
     3
 72
    52
 73
    48
 74
     0
 42
0.000000001
 43
0.0000000001
 40
-6.241475156385669
 40
-6.241475156385669
 40
-6.241475156385669
 40
-6.241475156385669
 40
-0.000003343003662
 40
-0.000003343003662
 40
-0.000003343003662
 40
0.0
 40
0.0
 40
0.0
 40
171.9172728910394
 40
233.002000834342
 40
278.8198205553787
 40
330.9131734388685
 40
367.7398267814128
 40
386.1564436183329
 40
404.5754139025996
 40
413.7857387110503
 40
418.3911205705135
 40
420.698636247052
 40
424.2018151774772
 40
428.9836312080807
 40
432.9516065446245
 40
434.1883141262221
 40
435.7461255741823
 40
439.8453270197696
 40
442.3903594769549
 40
447.4607997628488
 40
455.2227308619893
 40
465.7029073867985
 40
476.6334961523756
 40
487.5664801755913
 40
494.5209638912037
 40
500.0682470781844
 40
508.2668713232957
 40
514.2893118062702
 40
518.5393313211217
 40
524.606677678355
 40
526.9282726253094
 40
528.3196376823832
 40
532.4902097926889
 40
534.8063082521664
 40
537.5854824776338
 40
540.3646567031013
 40
544.070213440936
 40
547.7757699904406
 40
551.4813265024036
 40
558.8924394347152
 40
566.3035523033628
 40
566.3035523033628
 40
566.3035523033628
 40
566.3035523033628
 10
632.9844996187458
 20
2265.204947881447
 30
0.0
 10
632.9844996187458
 20
2263.124497689455
 30
0.0
 10
632.9844996187458
 20
2261.044047497463
 30
0.0
 10
632.9844996187458
 20
2258.963597305471
 30
0.0
 10
632.9844996187458
 20
2258.963596191158
 30
0.0
 10
632.9844996187458
 20
2258.963595076845
 30
0.0
 10
632.9844996187458
 20
2258.963593962532
 30
0.0
 10
632.9844996187458
 20
2201.659023840536
 30
0.0
 10
633.0067924119016
 20
2123.99222903584
 30
0.0
 10
633.0221804239486
 20
2031.05126269162
 30
0.0
 10
633.0238511340676
 20
1978.051616248226
 30
0.0
 10
633.0174002402946
 20
1933.137880425743
 30
0.0
 10
633.0047852713406
 20
1897.357811660363
 30
0.0
 10
632.9923706818136
 20
1872.803001367533
 30
0.0
 10
632.9829486444305
 20
1857.453414565552
 30
0.0
 10
632.9751945132107
 20
1846.708626767056
 30
0.0
 10
632.9711182298597
 20
1841.333044430142
 30
0.0
 10
632.9681485290007
 20
1837.862527475491
 30
0.0
 10
632.9717234082186
 20
1834.374768354569
 30
0.0
 10
633.0380009695577
 20
1830.441618539353
 30
0.0
 10
633.2003837781908
 20
1827.300519284796
 30
0.0
 10
633.3670810441868
 20
1825.205815183554
 30
0.0
 10
633.5706609499366
 20
1823.090178907051
 30
0.0
 10
633.9022000406176
 20
1820.61332714104
 30
0.0
 10
634.5458133339148
 20
1817.12488371936
 30
0.0
 10
635.6541604470835
 20
1812.616581294368
 30
0.0
 10
638.0190535957186
 20
1805.981069230565
 30
0.0
 10
642.1509382870627
 20
1798.144783681552
 30
0.0
 10
648.1047893045406
 20
1790.285253801357
 30
0.0
 10
654.4831172963336
 20
1784.261944601447
 30
0.0
 10
660.2687795227966
 20
1780.160565820191
 30
0.0
 10
665.7006158610257
 20
1777.083078442697
 30
0.0
 10
671.1836354506277
 20
1774.756726041206
 30
0.0
 10
676.5379593748958
 20
1773.206853786835
 30
0.0
 10
681.4041875764956
 20
1772.226181303314
 30
0.0
 10
685.2646367476736
 20
1771.754832024326
 30
0.0
 10
688.3165039372298
 20
1771.538328222569
 30
0.0
 10
690.8009631020996
 20
1771.409201893653
 30
0.0
 10
693.3213479982237
 20
1771.341635792344
 30
0.0
 10
696.3396359517706
 20
1771.312551335057
 30
0.0
 10
698.9393127175117
 20
1771.307176142235
 30
0.0
 10
702.0228851972388
 20
1771.308534622995
 30
0.0
 10
705.4226663852646
 20
1771.309608929895
 30
0.0
 10
709.1277890816536
 20
1771.310146688385
 30
0.0
 10
714.0691205511066
 20
1771.310917586396
 30
0.0
 10
720.2453790266086
 20
1771.311504890534
 30
0.0
 10
725.1865010457577
 20
1771.311673761654
 30
0.0
 10
727.6570468426366
 20
1771.311673761654
 30
0.0
  0
SPLINE
  5
3EBD
330
A
100
AcDbEntity
  8
HIDDEN
100
AcDbSpline
210
0.0
220
0.0
230
1.0
 70
     8
 71
     3
 72
    52
 73
    48
 74
     0
 42
0.000000001
 43
0.0000000001
 40
-3.254768680438263
 40
-3.254768680438263
 40
-3.254768680438263
 40
-3.254768680438263
 40
-0.000003343003662
 40
-0.000003343003662
 40
-0.000003343003662
 40
0.0
 40
0.0
 40
0.0
 40
171.9172728910396
 40
233.0020008343422
 40
278.8198205553791
 40
330.9131734388691
 40
367.7398267814139
 40
386.156443618334
 40
404.5754139026009
 40
413.7857387110518
 40
418.391120570515
 40
420.6986362470535
 40
424.2018151774789
 40
428.9836312080824
 40
432.9516065446263
 40
434.188314126224
 40
435.7461255741842
 40
439.8453270197714
 40
442.3903594769567
 40
447.4607997628505
 40
455.2227308619911
 40
465.7029073868006
 40
476.6334961523779
 40
487.5664801755937
 40
494.5209638912062
 40
500.068247078187
 40
508.2668713232985
 40
514.2893118062731
 40
518.5393313211247
 40
524.6066776783581
 40
526.9282726253125
 40
528.3196376823863
 40
532.490209792692
 40
534.8063082521697
 40
537.5854824776372
 40
540.3646567031047
 40
544.0702134409395
 40
547.7757699904442
 40
551.4813265024073
 40
558.8924394347191
 40
566.3035523033668
 40
566.3035523033668
 40
566.3035523033668
 40
566.3035523033668
 10
632.9703911568986
 20
2265.204947881447
 30
0.0
 10
632.9703911568986
 20
2266.289848586547
 30
0.0
 10
632.9703911568986
 20
2267.374749291647
 30
0.0
 10
632.9703911568986
 20
2268.459649996747
 30
0.0
 10
632.9703911568986
 20
2268.45965111106
 30
0.0
 10
632.9703911568986
 20
2268.459652225373
 30
0.0
 10
632.9703911568986
 20
2268.459653339686
 30
0.0
 10
632.9703911568986
 20
2325.764223461682
 30
0.0
 10
632.9926839500554
 20
2403.431018266378
 30
0.0
 10
633.0080719621028
 20
2496.371984610599
 30
0.0
 10
633.0097426722186
 20
2549.371631053992
 30
0.0
 10
633.0032917784456
 20
2594.285366876476
 30
0.0
 10
632.9906768094947
 20
2630.065435641855
 30
0.0
 10
632.9782622199677
 20
2654.620245934685
 30
0.0
 10
632.9688401825838
 20
2669.969832736667
 30
0.0
 10
632.9610860513626
 20
2680.714620535163
 30
0.0
 10
632.9570097680116
 20
2686.090202872077
 30
0.0
 10
632.9540400671526
 20
2689.560719826727
 30
0.0
 10
632.9576149463696
 20
2693.04847894765
 30
0.0
 10
633.0238925077097
 20
2696.981628762866
 30
0.0
 10
633.1862753163437
 20
2700.122728017423
 30
0.0
 10
633.3529725823387
 20
2702.217432118664
 30
0.0
 10
633.5565524880885
 20
2704.333068395167
 30
0.0
 10
633.8880915787686
 20
2706.809920161179
 30
0.0
 10
634.5317048720667
 20
2710.29836358286
 30
0.0
 10
635.6400519852368
 20
2714.80666600785
 30
0.0
 10
638.0049451338728
 20
2721.442178071654
 30
0.0
 10
642.1368298252146
 20
2729.278463620666
 30
0.0
 10
648.0906808426926
 20
2737.137993500862
 30
0.0
 10
654.4690088344846
 20
2743.161302700772
 30
0.0
 10
660.2546710609486
 20
2747.262681482028
 30
0.0
 10
665.6865073991776
 20
2750.340168859521
 30
0.0
 10
671.1695269887796
 20
2752.666521261012
 30
0.0
 10
676.5238509130486
 20
2754.216393515383
 30
0.0
 10
681.3900791146475
 20
2755.197065998905
 30
0.0
 10
685.2505282858256
 20
2755.668415277893
 30
0.0
 10
688.3023954753817
 20
2755.884919079649
 30
0.0
 10
690.7868546402538
 20
2756.014045408566
 30
0.0
 10
693.3072395363756
 20
2756.081611509874
 30
0.0
 10
696.3255274899248
 20
2756.110695967177
 30
0.0
 10
698.9252042556636
 20
2756.116071159983
 30
0.0
 10
702.0087767353907
 20
2756.114712679238
 30
0.0
 10
705.4085579234156
 20
2756.113638372323
 30
0.0
 10
709.1136806198074
 20
2756.113100613834
 30
0.0
 10
714.0550120892576
 20
2756.112329715822
 30
0.0
 10
720.2312705647596
 20
2756.111742411699
 30
0.0
 10
725.1723925839096
 20
2756.111573540565
 30
0.0
 10
727.6429383807886
 20
2756.111573540565
 30
0.0
  0
LINE
  5
3EBE
330
A
100
AcDbEntity
  8
HIDDEN
100
AcDbLine
 10
502.6570483518785
 20
1765.712958094493
 30
0.0
 11
502.6570396819716
 21
2761.71210100083
 31
0.0
  0
ELLIPSE
  5
3EBF
330
A
100
AcDbEntity
  8
HIDDEN
100
AcDbEllipse
 10
504.6570392158496
 20
2761.710736010124
 30
0.0
 11
-1.999999999999482
 21
-1.488022727436410E-6
 31
0.0
210
0.0
220
0.0
230
1.0
 40
0.9996573249526304
 41
6.282501833556134
 42
6.28318457208906
  0
ELLIPSE
  5
3EC0
330
A
100
AcDbEntity
  8
HIDDEN
100
AcDbEllipse
 10
504.6570483518785
 20
1765.712958112827
 30
0.0
 11
-1.999999999999469
 21
1.451331786398384E-6
 31
0.0
210
0.0
220
0.0
230
-1.0
 40
0.9996573249526262
 41
6.282501835297441
 42
6.283184572089056
  0
SPLINE
  5
3EC5
330
A
100
AcDbEntity
  8
HIDDEN
100
AcDbSpline
210
0.0
220
0.0
230
1.0
 70
     8
 71
     3
 72
    19
 73
    15
 74
     0
 42
0.000000001
 43
0.0000000001
 40
0.0
 40
0.0
 40
0.0
 40
0.0
 40
3.144439767592431
 40
7.860806300547801
 40
20.43373053238893
 40
28.2886110404843
 40
41.63680871895074
 40
51.84170024480187
 40
62.0461865828679
 40
75.39178783638827
 40
83.24334819959239
 40
95.02209893742217
 40
99.734346298459
 40
102.6163013907452
 40
102.6163013907452
 40
102.6163013907452
 40
102.6163013907452
 10
937.8472756615956
 20
2763.530304146817
 30
0.0
 10
938.8925756786793
 20
2763.454266358097
 30
0.0
 10
941.5017679011771
 20
2763.204635295321
 30
0.0
 10
948.2382445301919
 20
2762.172070577525
 30
0.0
 10
956.3333160032817
 20
2759.870583770115
 30
0.0
 10
966.6115281405237
 20
2755.231174019284
 30
0.0
 10
975.4302765954972
 20
2749.500255056761
 30
0.0
 10
983.7248102616732
 20
2741.851892733396
 30
0.0
 10
990.8206622376028
 20
2733.081269894686
 30
0.0
 10
995.9743868766409
 20
2723.916309153358
 30
0.0
 10
999.8648133847091
 20
2713.617300403438
 30
0.0
 10
1001.651379901814
 20
2705.672768089603
 30
0.0
 10
1002.31753839803
 20
2699.245912579197
 30
0.0
 10
1002.441589999505
 20
2696.71689129509
 30
0.0
 10
1002.468816318473
 20
2695.756690669968
 30
0.0
  0
SPLINE
  5
3EC6
330
A
100
AcDbEntity
  8
HIDDEN
100
AcDbSpline
210
0.0
220
0.0
230
1.0
 70
     8
 71
     3
 72
    20
 73
    16
 74
     0
 42
0.000000001
 43
0.0000000001
 40
0.0
 40
0.0
 40
0.0
 40
0.0
 40
16.68377663051549
 40
16.68377663051549
 40
33.36755326103098
 40
33.36755326103098
 40
50.05132989154647
 40
50.05132989154647
 40
66.73510652206195
 40
66.73510652206195
 40
83.41888315257745
 40
83.41888315257745
 40
96.78260128720046
 40
96.78260128720046
 40
102.6163013907452
 40
102.6163013907452
 40
102.6163013907452
 40
102.6163013907452
 10
937.2668688409631
 20
2755.551386430571
 30
0.0
 10
942.1702199241736
 20
2755.19470416941
 30
0.0
 10
947.0335467768791
 20
2754.242851457125
 30
0.0
 10
956.396340038691
 20
2751.20845741386
 30
0.0
 10
960.8918853119649
 20
2749.126729289655
 30
0.0
 10
969.2705785762291
 20
2743.95075927969
 30
0.0
 10
973.1485546875992
 20
2740.860264018108
 30
0.0
 10
980.0673798143816
 20
2733.847550241789
 30
0.0
 10
983.1065364311999
 20
2729.927642058584
 30
0.0
 10
988.1780810335622
 20
2721.476927744824
 30
0.0
 10
990.2095041449757
 20
2716.949813530376
 30
0.0
 10
992.8535048768836
 20
2708.481693878802
 30
0.0
 10
993.6701012426447
 20
2704.601750424076
 30
0.0
 10
994.3024337733268
 20
2698.970486388836
 30
0.0
 10
994.4232432484569
 20
2697.250536421011
 30
0.0
 10
994.4720303645381
 20
2695.529943218021
 30
0.0
  0
SPLINE
  5
3EC7
330
A
100
AcDbEntity
  8
HIDDEN
100
AcDbSpline
210
0.0
220
0.0
230
1.0
 70
     8
 71
     3
 72
    42
 73
    38
 74
     0
 42
0.000000001
 43
0.0000000001
 40
0.0
 40
0.0
 40
0.0
 40
0.0
 40
3.373936222946235
 40
6.703032797348595
 40
10.02169505897085
 40
13.33597184194275
 40
19.958430929692
 40
26.57694409375724
 40
33.19346978709208
 40
39.80883007921799
 40
66.26466752305967
 40
79.49091428393963
 40
92.71659121006367
 40
105.9418787950338
 40
145.6163245796146
 40
185.2895761861481
 40
238.1863078933138
 40
291.0824615353995
 40
423.3217913169539
 40
555.5610213119963
 40
608.4570492413527
 40
661.3535477768236
 40
687.8020933788147
 40
714.2509537634895
 40
740.7002920094466
 40
767.1504143431698
 40
793.60198883422
 40
806.8287941707395
 40
826.671729316935
 40
833.2874478980355
 40
839.9045611699013
 40
846.5241630531953
 40
850.8947832479556
 40
855.2696720611615
 40
857.4603025361669
 40
860.7556722291328
 40
864.0955348354066
 40
864.0955348354066
 40
864.0955348354066
 40
864.0955348354066
 10
1002.468817919082
 20
2695.756635399698
 30
0.0
 10
1002.50069351572
 20
2694.632445726765
 30
0.0
 10
1002.542914837274
 20
2692.398447527844
 30
0.0
 10
1002.59168864621
 20
2689.058251533209
 30
0.0
 10
1002.630786431784
 20
2685.737795599463
 30
0.0
 10
1002.675790475697
 20
2681.319559330647
 30
0.0
 10
1002.722517032467
 20
2675.801336545354
 30
0.0
 10
1002.769835625599
 20
2669.182339068418
 30
0.0
 10
1002.811064410856
 20
2662.565666991303
 30
0.0
 10
1002.884472476572
 20
2649.336628658933
 30
0.0
 10
1002.95074146269
 20
2633.904284661071
 30
0.0
 10
1003.013633196218
 20
2616.268476325832
 30
0.0
 10
1003.055397609647
 20
2603.042804796994
 30
0.0
 10
1003.117858296413
 20
2581.001089541171
 30
0.0
 10
1003.188852491735
 20
2550.143507784293
 30
0.0
 10
1003.267238421004
 20
2506.062099976162
 30
0.0
 10
1003.331356752033
 20
2457.573428679915
 30
0.0
 10
1003.405072635744
 20
2378.229389815172
 30
0.0
 10
1003.444141746549
 20
2272.43781922317
 30
0.0
 10
1003.414439778963
 20
2166.6462879005
 30
0.0
 10
1003.349672071902
 20
2087.302394253932
 30
0.0
 10
1003.297526603766
 20
2043.222066717662
 30
0.0
 10
1003.243400685479
 20
2007.957473004225
 30
0.0
 10
1003.195414481722
 20
1981.508601413868
 30
0.0
 10
1003.138404875332
 20
1955.059221784529
 30
0.0
 10
1003.069771121727
 20
1928.608965104187
 30
0.0
 10
1002.999413290939
 20
1906.566241403506
 30
0.0
 10
1002.922099758304
 20
1886.725953061311
 30
0.0
 10
1002.860428613588
 20
1873.497607318571
 30
0.0
 10
1002.796785950565
 20
1862.472534456453
 30
0.0
 10
1002.75358243402
 20
1855.855196841326
 30
0.0
 10
1002.709213647407
 20
1849.986251088502
 30
0.0
 10
1002.663724541238
 20
1844.86474793716
 30
0.0
 10
1002.625777063914
 20
1841.219564327464
 30
0.0
 10
1002.58545116616
 20
1837.932844297672
 30
0.0
 10
1002.542313793623
 20
1834.991217072197
 30
0.0
 10
1002.500370092896
 20
1832.779821388775
 30
0.0
 10
1002.468815852009
 20
1831.666985826642
 30
0.0
  0
SPLINE
  5
3EC8
330
A
100
AcDbEntity
  8
HIDDEN
100
AcDbSpline
210
0.0
220
0.0
230
1.0
 70
     8
 71
     3
 72
    54
 73
    50
 74
     0
 42
0.000000001
 43
0.0000000001
 40
0.0
 40
0.0
 40
0.0
 40
0.0
 40
2.853021567541177
 40
2.853021567541177
 40
5.168120923550754
 40
5.168120923550754
 40
7.483220279560332
 40
7.483220279560332
 40
12.11341899157949
 40
12.11341899157949
 40
22.62893247024993
 40
22.62893247024993
 40
48.53280235883437
 40
48.53280235883437
 40
74.43667224741883
 40
74.43667224741883
 40
128.6808053825775
 40
128.6808053825775
 40
182.9249385177362
 40
182.9249385177362
 40
312.5320800459107
 40
312.5320800459107
 40
442.1392215740851
 40
442.1392215740851
 40
577.9789754160415
 40
577.9789754160415
 40
636.982125097015
 40
636.982125097015
 40
754.9884244589618
 40
754.9884244589618
 40
780.8071270191843
 40
780.8071270191843
 40
804.2553985655425
 40
804.2553985655425
 40
819.563242527121
 40
819.563242527121
 40
831.5344390640211
 40
831.5344390640211
 40
840.5403230149155
 40
840.5403230149155
 40
851.4402526210982
 40
851.4402526210982
 40
856.245043944249
 40
856.245043944249
 40
859.9091100547503
 40
859.9091100547503
 40
862.214913256016
 40
862.214913256016
 40
864.0955348354066
 40
864.0955348354066
 40
864.0955348354066
 40
864.0955348354066
 10
994.4720318436657
 20
2695.52989223217
 30
0.0
 10
994.4977781634716
 20
2694.621870111968
 30
0.0
 10
994.5166260719961
 20
2693.699764232489
 30
0.0
 10
994.5464314430747
 20
2692.004159456907
 30
0.0
 10
994.5585037020337
 20
2691.237504645923
 30
0.0
 10
994.5809138366303
 20
2689.707228343296
 30
0.0
 10
994.59120613304
 20
2688.941110045608
 30
0.0
 10
994.6200962809316
 20
2686.640326793046
 30
0.0
 10
994.6368230002126
 20
2685.102639989057
 30
0.0
 10
994.6874773203654
 20
2680.070276365735
 30
0.0
 10
994.7158737516411
 20
2676.571293529722
 30
0.0
 10
994.8044738519111
 20
2664.448796445958
 30
0.0
 10
994.8503087773042
 20
2655.818794050519
 30
0.0
 10
994.9313000955299
 20
2638.558436254842
 30
0.0
 10
994.9649705177135
 20
2629.926589998085
 30
0.0
 10
995.0590824228257
 20
2603.217828377269
 30
0.0
 10
995.1074892481956
 20
2585.139275179451
 30
0.0
 10
995.1902090076219
 20
2548.981286606361
 30
0.0
 10
995.2240136920236
 20
2530.901600724133
 30
0.0
 10
995.3224492145173
 20
2469.622847255118
 30
0.0
 10
995.3650948116801
 20
2426.422702823477
 30
0.0
 10
995.4205116561807
 20
2340.022013056982
 30
0.0
 10
995.4319038207541
 20
2296.821389177715
 30
0.0
 10
995.4275333813166
 20
2208.342657490462
 30
0.0
 10
995.4099422692216
 20
2163.064635099133
 30
0.0
 10
995.3580892044183
 20
2098.120279640893
 30
0.0
 10
995.338810134167
 20
2078.453640926879
 30
0.0
 10
995.267287267432
 20
2019.454299825232
 30
0.0
 10
995.2044061784281
 20
1980.121539580726
 30
0.0
 10
995.0780771739082
 20
1932.18764494386
 30
0.0
 10
995.0532965972207
 20
1923.582960134753
 30
0.0
 10
994.9999812092392
 20
1907.164566358612
 30
0.0
 10
994.9720041697456
 20
1899.350645828413
 30
0.0
 10
994.9192314869042
 20
1886.436615046189
 30
0.0
 10
994.8967391844926
 20
1881.336246588241
 30
0.0
 10
994.8517899251483
 20
1872.248468959401
 30
0.0
 10
994.8304586991217
 20
1868.260575038107
 30
0.0
 10
994.7888391228516
 20
1861.274282578527
 30
0.0
 10
994.7695679415792
 20
1858.27540233976
 30
0.0
 10
994.7222162291137
 20
1851.64900144721
 30
0.0
 10
994.6933536773631
 20
1848.021675316721
 30
0.0
 10
994.6419800784151
 20
1842.80278864266
 30
0.0
 10
994.6248778349564
 20
1841.20684386272
 30
0.0
 10
994.5904430316195
 20
1838.399973645154
 30
0.0
 10
994.5739971584553
 20
1837.188107401412
 30
0.0
 10
994.5429580095761
 20
1835.217300659179
 30
0.0
 10
994.5302630815831
 20
1834.456476779759
 30
0.0
 10
994.5029720827006
 20
1833.096824784795
 30
0.0
 10
994.4889989416297
 20
1832.492187070852
 30
0.0
 10
994.4720298950751
 20
1831.893733172783
 30
0.0
  0
SPLINE
  5
3EC9
330
A
100
AcDbEntity
  8
HIDDEN
100
AcDbSpline
210
0.0
220
0.0
230
1.0
 70
     8
 71
     3
 72
    19
 73
    15
 74
     0
 42
0.000000001
 43
0.0000000001
 40
0.0
 40
0.0
 40
0.0
 40
0.0
 40
3.141525463478546
 40
7.853385485669023
 40
20.41684933378417
 40
28.2683522183415
 40
41.61550394537826
 40
51.82214446933109
 40
62.02893162432177
 40
75.37777175645721
 40
83.23189163122711
 40
95.01699329558528
 40
99.73213739200854
 40
102.6163017802656
 40
102.6163017802656
 40
102.6163017802656
 40
102.6163017802656
 10
1002.468816318473
 20
1831.667003455356
 30
0.0
 10
1002.439138127197
 20
1830.620331746019
 30
0.0
 10
1002.30597331044
 20
1828.005104504223
 30
0.0
 10
1001.578840913035
 20
1821.234606502682
 30
0.0
 10
999.6575221306939
 20
1813.047672774399
 30
0.0
 10
995.5178011010021
 20
1802.56358237981
 30
0.0
 10
990.2275700157861
 20
1793.475306763709
 30
0.0
 10
983.0003243038391
 20
1784.810167223088
 30
0.0
 10
974.590872317196
 20
1777.285954052585
 30
0.0
 10
965.6863324994556
 20
1771.688083646603
 30
0.0
 10
955.5806105872462
 20
1767.309013734705
 30
0.0
 10
947.7229704794881
 20
1765.155179169396
 30
0.0
 10
941.3287755029696
 20
1764.199684037539
 30
0.0
 10
938.8060638574852
 20
1763.963134676759
 30
0.0
 10
937.8472756615956
 20
1763.893389978508
 30
0.0
  0
SPLINE
  5
3ECA
330
A
100
AcDbEntity
  8
HIDDEN
100
AcDbSpline
210
0.0
220
0.0
230
1.0
 70
     8
 71
     3
 72
    20
 73
    16
 74
     0
 42
0.000000001
 43
0.0000000001
 40
0.0
 40
0.0
 40
0.0
 40
0.0
 40
16.68931616867624
 40
16.68931616867624
 40
33.37863233735249
 40
33.37863233735249
 40
50.06794850602873
 40
50.06794850602873
 40
66.75726467470497
 40
66.75726467470497
 40
83.44658084338121
 40
83.44658084338121
 40
96.52255892869776
 40
96.52255892869776
 40
102.6163017802656
 40
102.6163017802656
 40
102.6163017802656
 40
102.6163017802656
 10
994.4720303645381
 20
1831.893750907304
 30
0.0
 10
994.3324621665633
 20
1826.971547832512
 30
0.0
 10
993.6012488217993
 20
1822.06239516006
 30
0.0
 10
991.0018796614322
 20
1812.553626578901
 30
0.0
 10
989.1342382318835
 20
1807.957588094784
 30
0.0
 10
984.3647425414547
 20
1799.328444345377
 30
0.0
 10
981.4660672479677
 20
1795.300404108409
 30
0.0
 10
974.7993582716299
 20
1788.042433608675
 30
0.0
 10
971.0334113477593
 20
1784.814396092627
 30
0.0
 10
962.8412580558852
 20
1779.341126292263
 30
0.0
 10
958.4190077906005
 20
1777.097296225493
 30
0.0
 10
950.1715739248766
 20
1774.093989973861
 30
0.0
 10
946.4228037571202
 20
1773.116030271751
 30
0.0
 10
940.8446676665935
 20
1772.212005395794
 30
0.0
 10
939.0578985201782
 20
1772.002591760686
 30
0.0
 10
937.2668688408976
 20
1771.872307694738
 30
0.0
  0
SPLINE
  5
3ECB
330
A
100
AcDbEntity
  8
HIDDEN
100
AcDbSpline
210
0.0
220
0.0
230
1.0
 70
     8
 71
     3
 72
    24
 73
    20
 74
     0
 42
0.000000001
 43
0.0000000001
 40
0.0
 40
0.0
 40
0.0
 40
0.0
 40
2.626706393847282
 40
6.040844004641544
 40
8.576336314468804
 40
11.94102552338204
 40
16.96968387837141
 40
23.65723448065328
 40
30.33363495210184
 40
37.00465783175093
 40
53.66792255621746
 40
73.6510386141216
 40
93.62757844903562
 40
120.2577996558503
 40
160.1975475226255
 40
240.0686588208864
 40
319.9354167534661
 40
399.8007953747803
 40
433.2048653738269
 40
433.2048653738269
 40
433.2048653738269
 40
433.2048653738269
 10
937.8473757744923
 20
1763.893396003655
 30
0.0
 10
936.9741296465882
 20
1763.829868694844
 30
0.0
 10
934.9637307906005
 20
1763.713478585271
 30
0.0
 10
932.1073811248016
 20
1763.594718630895
 30
0.0
 10
929.0042424554949
 20
1763.493377046822
 30
0.0
 10
925.3625351131795
 20
1763.397674776093
 30
0.0
 10
920.3365571106133
 20
1763.296805627225
 30
0.0
 10
914.2063105070001
 20
1763.207971080355
 30
0.0
 10
907.5283389711813
 20
1763.138361063832
 30
0.0
 10
897.525053280553
 20
1763.062730132358
 30
0.0
 10
883.0860027706876
 20
1763.005336277379
 30
0.0
 10
864.2116947875302
 20
1762.986091829708
 30
0.0
 10
842.0150695472203
 20
1763.00318369728
 30
0.0
 10
813.1662862328367
 20
1763.060471685054
 30
0.0
 10
764.3527865715396
 20
1763.198667912761
 30
0.0
 10
697.7939083261608
 20
1763.407651039921
 30
0.0
 10
617.9263843606996
 20
1763.601287123663
 30
0.0
 10
553.5476982402165
 20
1763.688849745031
 30
0.0
 10
515.7912189615208
 20
1763.709040385543
 30
0.0
 10
504.6565293570256
 20
1763.711587459768
 30
0.0
  0
SPLINE
  5
3ECC
330
A
100
AcDbEntity
  8
HIDDEN
100
AcDbSpline
210
0.0
220
0.0
230
1.0
 70
     8
 71
     3
 72
    30
 73
    26
 74
     0
 42
0.000000001
 43
0.0000000001
 40
0.0
 40
0.0
 40
0.0
 40
0.0
 40
1.796611457170725
 40
1.796611457170725
 40
4.205545244540438
 40
4.205545244540438
 40
6.614479031910152
 40
6.614479031910152
 40
9.023412819279866
 40
9.023412819279866
 40
14.32009314728775
 40
14.32009314728775
 40
24.59345941804875
 40
24.59345941804875
 40
34.86682568880975
 40
34.86682568880975
 40
59.01279524298562
 40
59.01279524298562
 40
83.15876479716148
 40
83.15876479716148
 40
130.2386770734072
 40
130.2386770734072
 40
177.3185893496529
 40
177.3185893496529
 40
210.2275895866515
 40
210.2275895866515
 40
210.2275895866515
 40
210.2275895866515
 10
937.2669220663502
 20
1771.872310309049
 30
0.0
 10
936.7234570451355
 20
1771.832774067054
 30
0.0
 10
936.1699943602061
 20
1771.798055457274
 30
0.0
 10
934.8514353422452
 20
1771.724144387863
 30
0.0
 10
934.0783005431622
 20
1771.686984723816
 30
0.0
 10
932.5287972400283
 20
1771.620130647356
 30
0.0
 10
931.7475732324692
 20
1771.590403514815
 30
0.0
 10
930.1786119260341
 20
1771.535815137456
 30
0.0
 10
929.3912327789512
 20
1771.51106888203
 30
0.0
 10
926.8662811478916
 20
1771.437920557819
 30
0.0
 10
925.1217809116597
 20
1771.396658162385
 30
0.0
 10
919.9839053278192
 20
1771.290990726327
 30
0.0
 10
916.5794407619296
 20
1771.241039820862
 30
0.0
 10
909.7629780142561
 20
1771.159939793117
 30
0.0
 10
906.3504827481202
 20
1771.129389314769
 30
0.0
 10
894.9094558046745
 20
1771.046622689714
 30
0.0
 10
886.8726691461516
 20
1771.019969544755
 30
0.0
 10
870.7936829087066
 20
1770.990700658443
 30
0.0
 10
862.7509498862855
 20
1770.98947739728
 30
0.0
 10
839.0226256651863
 20
1771.004719455191
 30
0.0
 10
823.3330638751431
 20
1771.038967711884
 30
0.0
 10
791.9516648399676
 20
1771.119058741173
 30
0.0
 10
776.2591631447235
 20
1771.166137946016
 30
0.0
 10
749.5967658512027
 20
1771.24602805509
 30
0.0
 10
738.6270231361395
 20
1771.27916764349
 30
0.0
 10
727.6570468426366
 20
1771.311673761654
 30
0.0
  0
SPLINE
  5
3ECD
330
A
100
AcDbEntity
  8
HIDDEN
100
AcDbSpline
210
0.0
220
0.0
230
1.0
 70
     8
 71
     3
 72
    24
 73
    20
 74
     0
 42
0.000000001
 43
0.0000000001
 40
0.0
 40
0.0
 40
0.0
 40
0.0
 40
106.4868477385339
 40
186.3534972641132
 40
239.5997683716309
 40
279.5365726367292
 40
319.4771517096768
 40
346.1085307151704
 40
366.0867432782056
 40
386.0733429073298
 40
399.4077486219605
 40
406.0810798129797
 40
409.4203475489438
 40
417.7817720365797
 40
421.135624004071
 40
424.4997855947021
 40
427.050771322493
 40
430.5288370358534
 40
433.204875055717
 40
433.204875055717
 40
433.204875055717
 40
433.204875055717
 10
504.6565202096676
 20
2763.7121066672
 30
0.0
 10
540.1521314988267
 20
2763.721317842605
 30
0.0
 10
602.2699512130966
 20
2763.788755774443
 30
0.0
 10
682.1363276735196
 20
2763.976371732441
 30
0.0
 10
739.8193176751956
 20
2764.147029110903
 30
0.0
 10
784.1936620102988
 20
2764.282528806189
 30
0.0
 10
819.6964523782472
 20
2764.37943836929
 30
0.0
 10
848.5464723411842
 20
2764.429462770701
 30
0.0
 10
870.7452077998041
 20
2764.435827667828
 30
0.0
 10
888.5116042117133
 20
2764.402986955584
 30
0.0
 10
901.8428894075332
 20
2764.333053669939
 30
0.0
 10
909.6249334083041
 20
2764.264533602475
 30
0.0
 10
915.7492130564751
 20
2764.194880222657
 30
0.0
 10
920.7668751748952
 20
2764.12046268603
 30
0.0
 10
925.7922481896776
 20
2764.014381344447
 30
0.0
 10
928.8808799429571
 20
2763.933883175402
 30
0.0
 10
932.0103334324986
 20
2763.83263035276
 30
0.0
 10
934.9096043986801
 20
2763.713076504387
 30
0.0
 10
936.9577298306003
 20
2763.595018491792
 30
0.0
 10
937.8473757744923
 20
2763.530298121655
 30
0.0
  0
SPLINE
  5
3ECE
330
A
100
AcDbEntity
  8
HIDDEN
100
AcDbSpline
210
0.0
220
0.0
230
1.0
 70
     8
 71
     3
 72
    26
 73
    22
 74
     0
 42
0.000000001
 43
0.0000000001
 40
222.977253889725
 40
222.977253889725
 40
222.977253889725
 40
222.977253889725
 40
279.2826797309884
 40
279.2826797309884
 40
333.1468399218414
 40
333.1468399218414
 40
369.746870744813
 40
369.746870744813
 40
393.1268428219535
 40
393.1268428219535
 40
408.9834185267629
 40
408.9834185267629
 40
418.4063316975705
 40
418.4063316975705
 40
424.5878356772744
 40
424.5878356772744
 40
428.5871816706913
 40
428.5871816706913
 40
432.5865276641082
 40
432.5865276641082
 40
433.204875055717
 40
433.204875055717
 40
433.204875055717
 40
433.204875055717
 10
727.6570468426366
 20
2756.11161546536
 30
0.0
 10
746.4260909946065
 20
2756.167390187812
 30
0.0
 10
765.1944788635378
 20
2756.225362310174
 30
0.0
 10
801.9151570202866
 20
2756.331619263688
 30
0.0
 10
819.8673755387836
 20
2756.380539162669
 30
0.0
 10
850.0108656301582
 20
2756.429083358936
 30
0.0
 10
862.2050614045065
 20
2756.439789431478
 30
0.0
 10
882.1784516290181
 20
2756.415735931764
 30
0.0
 10
889.9620344493142
 20
2756.395891876603
 30
0.0
 10
903.0109390257676
 20
2756.322715578356
 30
0.0
 10
908.2809474991964
 20
2756.282425021668
 30
0.0
 10
916.6676849315472
 20
2756.180911075778
 30
0.0
 10
919.7885528190563
 20
2756.134799405382
 30
0.0
 10
924.9412921015137
 20
2756.031721116556
 30
0.0
 10
926.9771134084103
 20
2755.984130972271
 30
0.0
 10
930.3107767353458
 20
2755.884689311194
 30
0.0
 10
931.6158931499331
 20
2755.840410676118
 30
0.0
 10
934.1947536707266
 20
2755.733525627354
 30
0.0
 10
935.4770593768817
 20
2755.671660013441
 30
0.0
 10
936.8915914052077
 20
2755.578034577996
 30
0.0
 10
937.0798428653452
 20
2755.564993539566
 30
0.0
 10
937.2669220662683
 20
2755.551383816276
 30
0.0
  0
ARC
  5
3ECF
330
A
100
AcDbEntity
  8
HIDDEN
100
AcDbCircle
 10
504.6571158292477
 20
2761.712020810143
 30
0.0
 40
2.000076617018694
100
AcDbArc
 50
90.01706251976975
 51
179.9977027853078
  0
ARC
  5
3ED0
330
A
100
AcDbEntity
  8
HIDDEN
100
AcDbCircle
 10
504.6571249650196
 20
1765.711673316578
 30
0.0
 40
2.000076616749012
100
AcDbArc
 50
180.0022982743651
 51
269.9829378116492
  0
CIRCLE
  5
3ED1
330
A
100
AcDbEntity
  8
HIDDEN
 48
0.5
100
AcDbCircle
 10
569.6449725788925
 20
2263.716629731297
 30
0.0
 40
17.5
  0
CIRCLE
  5
3ED2
330
A
100
AcDbEntity
  8
HIDDEN
 48
0.5
100
AcDbCircle
 10
569.6449725788925
 20
2163.716629731297
 30
0.0
 40
16.0
  0
CIRCLE
  5
3ED3
330
A
100
AcDbEntity
  8
HIDDEN
 48
0.5
100
AcDbCircle
 10
569.6449725788925
 20
2363.716629731297
 30
0.0
 40
16.0
  0
CIRCLE
  5
3ED4
330
A
100
AcDbEntity
  8
HIDDEN
 48
0.5
100
AcDbCircle
 10
569.6449725788925
 20
2013.716629731297
 30
0.0
 40
17.5
  0
CIRCLE
  5
3ED5
330
A
100
AcDbEntity
  8
HIDDEN
 48
0.5
100
AcDbCircle
 10
569.6449725788925
 20
2513.716629731297
 30
0.0
 40
17.5
  0
DIMENSION
  5
3F2C
330
A
100
AcDbEntity
  8
Dim
  6
Continuous
100
AcDbDimension
  2
*D17
 10
1002.657039687237
 20
1629.195782485623
 30
0.0
 11
752.6570396872366
 21
1629.195782485623
 31
0.0
 70
   160
 71
     5
 42
500.0000000000004
 73
     0
 74
     0
 75
     0
 52
-270.0
  3
tform線あり
100
AcDbAlignedDimension
 13
502.6570396872366
 23
1545.626273844589
 33
0.0
 14
1002.657039687237
 24
1498.104403149505
 34
0.0
 50
180.0
100
AcDbRotatedDimension
  0
DIMENSION
  5
3F39
330
A
100
AcDbEntity
  8
Dim
  6
Continuous
100
AcDbDimension
  2
*D18
 10
366.9897980967994
 20
1548.229968048057
 30
0.0
 11
344.7734895030493
 21
1048.229968048057
 31
0.0
 70
    32
 71
     5
 42
1000.0
 73
     0
 74
     0
 75
     0
  3
tform線あり
100
AcDbAlignedDimension
 13
507.4185268485944
 23
548.2299680480567
 33
0.0
 14
507.4185268485953
 24
1548.229968048057
 34
0.0
 50
89.99999999999999
100
AcDbRotatedDimension
  0
DIMENSION
  5
3F46
330
A
100
AcDbEntity
  8
Dim
  6
Continuous
100
AcDbDimension
  2
*D19
 10
632.6570482959573
 20
469.3315104835908
 30
0.0
 11
567.6570482959573
 21
491.5478190773408
 31
0.0
 70
    32
 71
     5
 42
130.0000000000001
 73
     0
 74
     0
 75
     0
 52
-270.0
  3
tform線あり
100
AcDbAlignedDimension
 13
502.6570482959573
 23
556.6561525345217
 33
0.0
 14
632.6570482959573
 24
556.6561525345217
 34
0.0
 50
180.0
100
AcDbRotatedDimension
  0
DIMENSION
  5
3F53
330
A
100
AcDbEntity
  8
Dim
  6
Continuous
100
AcDbDimension
  2
*D20
 10
992.657048295958
 20
469.3315104835908
 30
0.0
 11
812.6570482959577
 21
491.5478190773408
 31
0.0
 70
    32
 71
     5
 42
360.0000000000007
 73
     0
 74
     0
 75
     0
 52
-270.0
  3
tform線あり
100
AcDbAlignedDimension
 13
632.6570482959573
 23
602.5045207980982
 33
0.0
 14
992.657048295958
 24
605.5413171567272
 34
0.0
 50
180.0
100
AcDbRotatedDimension
  0
LWPOLYLINE
  5
3F6F
102
{ACAD_REACTORS
330
3F73
330
3F87
330
3F96
102
}
330
A
100
AcDbEntity
  8
MODEL
  6
Continuous
100
AcDbPolyline
 90
        4
 70
     1
 43
0.0
 10
502.6570399692241
 20
1798.712529547661
 10
942.6570399692237
 20
1798.712529547661
 10
942.6570399692237
 20
2728.712529547661
 10
502.6570399692241
 20
2728.712529547661
  0
HATCH
  5
3F73
330
A
100
AcDbEntity
  8
Dim
  6
Continuous
100
AcDbHatch
 10
0.0
 20
0.0
 30
0.0
210
0.0
220
0.0
230
1.0
  2
ANSI31
 70
     0
 71
     1
 91
        1
 92
        1
 93
        4
 72
     1
 10
502.6570399692241
 20
1798.712529547661
 11
942.6570399692237
 21
1798.712529547661
 72
     1
 10
942.6570399692237
 20
1798.712529547661
 11
942.6570399692237
 21
2728.712529547661
 72
     1
 10
942.6570399692237
 20
2728.712529547661
 11
502.6570399692241
 21
2728.712529547661
 72
     1
 10
502.6570399692241
 20
2728.712529547661
 11
502.6570399692241
 21
1798.712529547661
 97
        1
330
3F6F
 75
     0
 76
     1
 52
89.99999999999999
 41
5.0
 77
     0
 78
     1
 53
135.0
 43
2839.249827963529
 44
-2118.581948258457
 45
-11.22532015133644
 46
-11.22532015133644
 79
     0
 98
        1
 10
2839.249827963529
 20
-2118.581948258457
1001
ACAD
1010
0.0
1020
0.0
1030
0.0
  0
MTEXT
  5
3F7D
330
A
100
AcDbEntity
  8
Dim
390
1D
100
AcDbMText
 10
265.3417664065751
 20
2126.883305937518
 30
34.99521132346015
 40
24.0
 41
0.0
 46
27.413396484375
 71
     1
 72
     1
  1
{カウンター切込寸法}
  7
ＭＳ ゴシック
 11
3.061616997868383E-16
 21
1.0
 31
0.0
 73
     1
 44
0.7828267384257843
1001
ACAD
1000
ACAD_MTEXT_DEFINED_HEIGHT_BEGIN
1070
    46
1040
27.413396484375
1000
ACAD_MTEXT_DEFINED_HEIGHT_END
  0
MTEXT
  5
3F7E
330
A
100
AcDbEntity
  8
Dim
390
1D
100
AcDbMText
 10
1218.875645232986
 20
1930.813833836683
 30
34.99521132346015
 40
24.0
 41
1169.771715461011
 46
120.6272086110942
 71
     1
 72
     1
  1
{※陶器製品には寸法公差があります。\P  必ず現物を合わせてカウンターに切込を\P  行ってください。}
  7
ＭＳ ゴシック
 11
3.061616997868383E-16
 21
1.0
 31
0.0
 73
     1
 44
1.174240107638677
1001
ACAD
1000
ACAD_MTEXT_DEFINED_HEIGHT_BEGIN
1070
    46
1040
120.6272086110942
1000
ACAD_MTEXT_DEFINED_HEIGHT_END
  0
DIMENSION
  5
3F85
102
{ACAD_REACTORS
330
3F87
102
}
102
{ACAD_XDICTIONARY
360
3F86
102
}
330
A
100
AcDbEntity
  8
Dim
  6
Continuous
100
AcDbDimension
  2
*D21
 10
502.6570488180212
 20
2820.802010965926
 30
0.0
 11
722.6570398317222
 21
2820.802010965926
 31
0.0
 70
   160
 71
     5
 42
439.9999911512024
 73
     0
 74
     0
 75
     0
 52
-270.0
  3
tform線あり
100
AcDbAlignedDimension
 13
942.6570399692237
 23
2728.712529547661
 33
0.0
 14
502.6570488180212
 24
2793.980966345787
 34
0.0
 50
180.0
100
AcDbRotatedDimension
  0
DIMENSION
  5
3F94
102
{ACAD_REACTORS
330
3F96
102
}
102
{ACAD_XDICTIONARY
360
3F95
102
}
330
A
100
AcDbEntity
  8
Dim
  6
Continuous
100
AcDbDimension
  2
*D22
 10
386.3049314491386
 20
1798.712529547661
 30
0.0
 11
364.0886228553887
 21
2263.712529547661
 31
0.0
 70
    32
 71
     5
 42
929.9999999999998
 73
     0
 74
     0
 75
     0
  3
tform線あり
100
AcDbAlignedDimension
 13
502.6570399692241
 23
2728.712529547661
 33
0.0
 14
502.6570399692241
 24
1798.712529547661
 34
0.0
 50
89.99999999999999
100
AcDbRotatedDimension
  0
DIMENSION
  5
3FB9
330
A
100
AcDbEntity
  8
Dim
  6
Continuous
100
AcDbDimension
  2
*D23
 10
1873.042225876746
 20
2548.700520928342
 30
0.0
 11
1850.825917282996
 21
2436.200520928342
 31
0.0
 70
    32
 71
     5
 42
225.0
 73
     0
 74
     0
 75
     0
  3
tform線あり
100
AcDbAlignedDimension
 13
1758.311757547591
 23
2323.700520928342
 33
0.0
 14
1718.026066449157
 24
2548.700520928342
 34
0.0
 50
89.99999999999999
100
AcDbRotatedDimension
  0
DIMENSION
  5
3FC6
330
A
100
AcDbEntity
  8
Dim
  6
Continuous
100
AcDbDimension
  2
*D24
 10
1687.482634450484
 20
1946.123319149668
 30
0.0
 11
1632.482634450484
 21
1968.339627743418
 31
0.0
 70
    32
 71
     5
 42
110.0
 73
     0
 74
     0
 75
     0
 52
-270.0
  3
tform線あり
100
AcDbAlignedDimension
 13
1577.482634450484
 23
2053.502789954136
 33
0.0
 14
1687.482634450484
 24
2053.502789954136
 34
0.0
 50
180.0
100
AcDbRotatedDimension
  0
DIMENSION
  5
3FD3
330
A
100
AcDbEntity
  8
Dim
  6
Continuous
100
AcDbDimension
  2
*D25
 10
1757.482634450484
 20
1946.123319149668
 30
0.0
 11
1722.482634450484
 21
1968.339627743418
 31
0.0
 70
    32
 71
     5
 42
69.99999999999997
 73
     0
 74
     0
 75
     0
 52
-270.0
  3
tform線あり
100
AcDbAlignedDimension
 13
1687.482634450484
 23
2028.502789954136
 33
0.0
 14
1757.482634450484
 24
2280.745701260053
 34
0.0
 50
180.0
100
AcDbRotatedDimension
  0
DIMENSION
  5
3FE3
330
A
100
AcDbEntity
  8
Dim
  6
Continuous
100
AcDbDimension
  2
*D26
 10
1757.482648219432
 20
1665.391803111978
 30
0.0
 11
1667.482648219432
 21
1687.608111705728
 31
0.0
 70
    32
 71
     5
 42
180.0000000000001
 73
     0
 74
     0
 75
     0
 52
-270.0
  3
tform線あり
100
AcDbAlignedDimension
 13
1577.482648219432
 23
1542.231382892222
 33
0.0
 14
1757.482648219432
 24
1087.40111414877
 34
0.0
 50
180.0
100
AcDbRotatedDimension
  0
DIMENSION
  5
4002
330
A
100
AcDbEntity
  8
Dim
  6
Continuous
100
AcDbDimension
  2
*D27
 10
1497.817706985224
 20
2483.700528701495
 30
0.0
 11
1475.601398391474
 21
2516.200528701495
 31
0.0
 70
    32
 71
     5
 42
65.0
 73
     0
 74
     0
 75
     0
  3
tform線あり
100
AcDbAlignedDimension
 13
1580.482637038308
 23
2548.700528701495
 33
0.0
 14
1580.482637038307
 24
2483.700528701495
 34
0.0
 50
89.99999999999999
100
AcDbRotatedDimension
  0
DIMENSION
  5
403C
330
A
100
AcDbEntity
  8
Dim
  6
Continuous
100
AcDbDimension
  2
*D31
 10
1481.336965542376
 20
1188.23161143673
 30
0.0
 11
1459.120656948626
 21
1048.23161143673
 31
0.0
 70
    32
 71
     5
 42
280.0000000000002
 73
     0
 74
     0
 75
     0
  3
tform線あり
100
AcDbAlignedDimension
 13
1592.983147531084
 23
908.2316114367297
 33
0.0
 14
1592.983147531084
 24
1188.23161143673
 34
0.0
 50
89.99999999999999
100
AcDbRotatedDimension
  0
DIMENSION
  5
404A
330
A
100
AcDbEntity
  8
Dim
  6
Continuous
100
AcDbDimension
  2
*D32
 10
1481.336965542376
 20
748.2316114367297
 30
0.0
 11
1459.120656948626
 21
828.2316114367297
 31
0.0
 70
    32
 71
     5
 42
160.0
 73
     0
 74
     0
 75
     0
  3
tform線あり
100
AcDbAlignedDimension
 13
1592.983147531084
 23
908.2316114367297
 33
0.0
 14
1592.983147531084
 24
748.2316114367297
 34
0.0
 50
89.99999999999999
100
AcDbRotatedDimension
  0
DIMENSION
  5
405D
330
A
100
AcDbEntity
  8
Dim
  6
Continuous
100
AcDbDimension
  2
*D33
 10
1481.336965542376
 20
1348.23161143673
 30
0.0
 11
1459.120656948626
 21
1268.23161143673
 31
0.0
 70
    32
 71
     5
 42
160.0
 73
     0
 74
     0
 75
     0
 52
270.0
  3
tform線あり
100
AcDbAlignedDimension
 13
1592.983147531084
 23
1188.23161143673
 33
0.0
 14
1592.983147531084
 24
1348.23161143673
 34
0.0
 50
-90.00000000000001
100
AcDbRotatedDimension
  0
DIMENSION
  5
4070
102
{ACAD_REACTORS
330
4072
102
}
102
{ACAD_XDICTIONARY
360
4071
102
}
330
A
100
AcDbEntity
  8
Dim
  6
Continuous
100
AcDbDimension
  2
*D34
 10
1577.482645421914
 20
463.6923692546663
 30
0.0
 11
1597.482641164577
 21
485.9086778484163
 31
0.0
 70
    32
 71
     5
 42
39.99999148532604
 73
     0
 74
     1
 75
     1
 52
-270.0
  3
tform線あり
100
AcDbAlignedDimension
 13
1617.48263690724
 23
723.7321220605747
 33
0.0
 14
1577.482645421914
 24
554.2442492980783
 34
0.0
 50
180.0
100
AcDbRotatedDimension
  0
CIRCLE
  5
4114
330
A
100
AcDbEntity
  8
HIDDEN
  6
CENTER
 48
0.15
100
AcDbCircle
 10
1617.48263690724
 20
748.2316114367297
 30
0.0
 40
10.48259753163544
  0
LINE
  5
4122
330
A
100
AcDbEntity
  8
HIDDEN
  6
CENTER
 48
0.15
100
AcDbLine
 10
1592.983147531084
 20
908.2316114367297
 30
0.0
 11
1641.982126283395
 21
908.2316114367297
 31
0.0
  0
LINE
  5
4123
102
{ACAD_REACTORS
330
4072
102
}
330
A
100
AcDbEntity
  8
HIDDEN
  6
CENTER
 48
0.15
100
AcDbLine
 10
1617.48263690724
 20
932.7311008128847
 30
0.0
 11
1617.48263690724
 21
883.7321220605747
 31
0.0
  0
CIRCLE
  5
4124
330
A
100
AcDbEntity
  8
HIDDEN
  6
CENTER
 48
0.15
100
AcDbCircle
 10
1617.48263690724
 20
908.2316114367297
 30
0.0
 40
10.48259753163544
  0
LINE
  5
4125
330
A
100
AcDbEntity
  8
HIDDEN
  6
CENTER
 48
0.15
100
AcDbLine
 10
1592.983147531084
 20
1348.23161143673
 30
0.0
 11
1641.982126283395
 21
1348.23161143673
 31
0.0
  0
LINE
  5
4126
102
{ACAD_REACTORS
330
4072
102
}
330
A
100
AcDbEntity
  8
HIDDEN
  6
CENTER
 48
0.15
100
AcDbLine
 10
1617.48263690724
 20
1323.732122060575
 30
0.0
 11
1617.48263690724
 21
1372.731100812885
 31
0.0
  0
CIRCLE
  5
4127
330
A
100
AcDbEntity
  8
HIDDEN
  6
CENTER
 48
0.15
100
AcDbCircle
 10
1617.48263690724
 20
1348.23161143673
 30
0.0
 40
10.48259753163544
  0
LINE
  5
4128
330
A
100
AcDbEntity
  8
HIDDEN
  6
CENTER
 48
0.15
100
AcDbLine
 10
1592.983147531084
 20
1188.23161143673
 30
0.0
 11
1641.982126283395
 21
1188.23161143673
 31
0.0
  0
LINE
  5
4129
102
{ACAD_REACTORS
330
4072
102
}
330
A
100
AcDbEntity
  8
HIDDEN
  6
CENTER
 48
0.15
100
AcDbLine
 10
1617.48263690724
 20
1163.732122060575
 30
0.0
 11
1617.48263690724
 21
1212.731100812885
 31
0.0
  0
CIRCLE
  5
412A
330
A
100
AcDbEntity
  8
HIDDEN
  6
CENTER
 48
0.15
100
AcDbCircle
 10
1617.48263690724
 20
1188.23161143673
 30
0.0
 40
10.48259753163544
  0
LINE
  5
4131
330
A
100
AcDbEntity
  8
Dim
  6
Continuous
100
AcDbLine
 10
1611.653853528269
 20
1356.944253707091
 30
0.0
 11
1482.131270004957
 21
1450.749302335175
 31
0.0
  0
MTEXT
  5
4166
330
A
100
AcDbEntity
  8
Dim
390
1D
100
AcDbMText
 10
1435.537984649669
 20
1451.793069113298
 30
34.99521132346015
 40
24.0
 41
1169.771715461011
 46
26.808
 71
     1
 72
     1
  1
{壁取付ボルト穴(4ヶ所)}
  7
ＭＳ ゴシック
 11
3.061616997868383E-16
 21
1.0
 31
0.0
 73
     1
 44
1.174240107638677
1001
ACAD
1000
ACAD_MTEXT_DEFINED_HEIGHT_BEGIN
1070
    46
1040
26.808
1000
ACAD_MTEXT_DEFINED_HEIGHT_END
  0
DIMENSION
  5
41B5
330
A
100
AcDbEntity
  8
Dim
  6
Continuous
100
AcDbDimension
  2
*D43
 10
1577.482648810678
 20
2326.522540411555
 30
0.0
 11
1481.295909552866
 21
2326.522540411555
 31
0.0
 70
   160
  1
130(深さ)
 71
     5
 42
129.778103053716
 73
     0
 74
     1
 75
     1
 52
-270.0
  3
tform線あり
100
AcDbAlignedDimension
 13
1707.260751864394
 23
2326.522540411555
 33
0.0
 14
1577.482648810678
 24
2326.522540411555
 34
0.0
 50
180.0
100
AcDbRotatedDimension
1001
ACAD
1000
DSTYLE
1002
{
1070
   271
1070
     0
1070
    76
1070
     1
1070
    75
1070
     1
1002
}
  0
DIMENSION
  5
41E2
330
A
100
AcDbEntity
  8
Dim
  6
Continuous
100
AcDbDimension
  2
*D45
 10
448.8385774533181
 20
1048.235711620367
 30
0.0
 11
426.6222688595681
 21
998.2357116203669
 31
0.0
 70
    32
 71
     5
 42
100.0000000000002
 73
     0
 74
     0
 75
     0
  3
tform線あり
100
AcDbAlignedDimension
 13
553.6449725788912
 23
948.2357116203668
 33
0.0
 14
552.1449725788912
 24
1048.235711620367
 34
0.0
 50
89.99999999999999
100
AcDbRotatedDimension
  0
DIMENSION
  5
41F1
330
A
100
AcDbEntity
  8
Dim
  6
Continuous
100
AcDbDimension
  2
*D46
 10
448.8385774533181
 20
1148.235711620367
 30
0.0
 11
426.6222688595681
 21
1098.235711620367
 31
0.0
 70
    32
 71
     5
 42
100.0
 73
     0
 74
     0
 75
     0
  3
tform線あり
100
AcDbAlignedDimension
 13
552.1449725788912
 23
1048.235711620367
 33
0.0
 14
553.6449725788912
 24
1148.235711620367
 34
0.0
 50
89.99999999999999
100
AcDbRotatedDimension
  0
DIMENSION
  5
4221
330
A
100
AcDbEntity
  8
Dim
  6
Continuous
100
AcDbDimension
  2
*D49
 10
448.8385774533181
 20
1303.235711620367
 30
0.0
 11
426.6222688595681
 21
1225.735711620367
 31
0.0
 70
    32
 71
     5
 42
155.0
 73
     0
 74
     0
 75
     0
  3
tform線あり
100
AcDbAlignedDimension
 13
553.6449725788912
 23
1148.235711620367
 33
0.0
 14
553.6449725788912
 24
1303.235711620367
 34
0.0
 50
89.99999999999999
100
AcDbRotatedDimension
  0
CIRCLE
  5
4230
330
A
100
AcDbEntity
  8
MODEL
  6
HIDDEN
 48
0.5
100
AcDbCircle
 10
569.6449725788912
 20
1303.235711620367
 30
0.0
 40
16.0
  0
CIRCLE
  5
4231
102
{ACAD_REACTORS
330
423A
102
}
330
A
100
AcDbEntity
  8
MODEL
  6
HIDDEN
 48
0.5
100
AcDbCircle
 10
569.6449725788912
 20
793.2357116203668
 30
0.0
 40
16.0
  0
DIMENSION
  5
4238
102
{ACAD_REACTORS
330
423A
102
}
102
{ACAD_XDICTIONARY
360
4239
102
}
330
A
100
AcDbEntity
  8
Dim
  6
Continuous
100
AcDbDimension
  2
*D50
 10
448.8385774533181
 20
793.2357116203668
 30
0.0
 11
426.6222688595682
 21
870.7357116203668
 31
0.0
 70
    32
 71
     5
 42
155.0
 73
     0
 74
     0
 75
     0
  3
tform線あり
100
AcDbAlignedDimension
 13
569.6449725788912
 23
948.2357116203668
 33
0.0
 14
569.6449725788912
 24
793.2357116203668
 34
0.0
 50
89.99999999999999
100
AcDbRotatedDimension
  0
MTEXT
  5
428A
330
A
100
AcDbEntity
  8
Dim
390
1D
100
AcDbMText
 10
1218.875645232985
 20
647.5154214569768
 30
34.99521132346015
 40
24.4326171875
 41
833.929798641839
 46
0.0
 71
     1
 72
     1
  1
＝φ30もしくはφ35の水栓取付用穴あけ加工を承ります。\P  必要な場合、ご注文の際にご指示ください。
  7
ＭＳ ゴシック
 11
4.898587196589413E-16
 21
1.0
 31
0.0
 73
     1
 44
1.043768984567712
  0
CIRCLE
  5
428B
330
A
100
AcDbEntity
  8
HIDDEN
 48
0.58
390
1D
100
AcDbCircle
 10
1233.464469689269
 20
616.1483917588887
 30
34.99521132346015
 40
17.5
  0
LINE
  5
42BE
330
A
100
AcDbEntity
  8
HIDDEN
100
AcDbLine
 10
1719.854026504843
 20
1071.934858582642
 30
0.0
 11
1719.85402443265
 21
1024.528332985782
 31
0.0
  0
LINE
  5
42BF
330
A
100
AcDbEntity
  8
HIDDEN
100
AcDbLine
 10
1710.709129504212
 20
1013.629872568411
 30
0.0
 11
1719.85402443265
 21
1024.528332985782
 31
0.0
  0
LINE
  5
42C0
330
A
100
AcDbEntity
  8
HIDDEN
100
AcDbLine
 10
1719.854026504843
 20
1071.934858582642
 30
0.0
 11
1710.759132140978
 21
1082.773732577237
 31
0.0
  0
LINE
  5
42C1
330
A
100
AcDbEntity
  8
HIDDEN
100
AcDbLine
 10
1758.311785196878
 20
1026.231594103175
 30
0.0
 11
1722.099800589516
 21
1025.599513144033
 31
0.0
  0
LINE
  5
42C2
330
A
100
AcDbEntity
  8
HIDDEN
100
AcDbLine
 10
1722.099802568053
 20
1070.863678228075
 30
0.0
 11
1758.311787120176
 21
1070.231594103175
 31
0.0
  0
ARC
  5
42C3
330
A
100
AcDbEntity
  8
HIDDEN
100
AcDbCircle
 10
1722.152158273726
 20
1022.599968806714
 30
0.0
 40
3.000001259777931
100
AcDbArc
 50
91.00000846055339
 51
139.9999865311173
  0
ARC
  5
42C4
330
A
100
AcDbEntity
  8
HIDDEN
100
AcDbCircle
 10
1722.152160514517
 20
1073.863222560821
 30
0.0
 40
3.000001259777233
100
AcDbArc
 50
220.0000084594471
 51
268.9999865302693
  0
ARC
  5
42C5
330
A
100
AcDbEntity
  8
HIDDEN
100
AcDbCircle
 10
1722.199795729532
 20
1003.988057920825
 30
0.0
 40
15.0
100
AcDbArc
 50
139.9999974956427
 51
176.9846196788729
  0
ARC
  5
42C6
330
A
100
AcDbEntity
  8
HIDDEN
100
AcDbCircle
 10
1722.249799209218
 20
1092.415546220266
 30
0.0
 40
15.0
100
AcDbArc
 50
183.2423429090834
 51
219.9999974950002
  0
SPLINE
  5
42CA
330
A
100
AcDbEntity
  8
HIDDEN
100
AcDbSpline
210
0.0
220
0.0
230
1.0
 70
  1064
 71
     3
 72
    12
 73
     8
 74
     6
 42
0.000000001
 43
0.0000000001
 44
0.0
 40
0.0
 40
0.0
 40
0.0
 40
0.0
 40
57.31740130194485
 40
107.2856960728719
 40
202.9501828589494
 40
240.8543715671485
 40
501.8122523761567
 40
501.8122523761567
 40
501.8122523761567
 40
501.8122523761567
 10
1577.482648219445
 20
554.2318399812373
 30
0.0
 10
1597.013319981662
 20
558.9514697279153
 30
0.0
 10
1633.570485295943
 20
567.7855890542813
 30
0.0
 10
1667.459105551849
 20
630.8571496792981
 30
0.0
 10
1689.47990836795
 20
687.1741109176678
 30
0.0
 10
1708.482879773288
 20
817.8931560781094
 30
0.0
 10
1707.808987551983
 20
917.6618900606163
 30
0.0
 10
1707.220563981707
 20
1004.777118276533
 30
0.0
 11
1577.482648219445
 21
554.2318399812373
 31
0.0
 11
1630.753632015428
 21
575.3857232516045
 31
0.0
 11
1659.022958329951
 21
616.5885832498773
 31
0.0
 11
1691.48955918801
 21
706.5753259443825
 31
0.0
 11
1697.496767536869
 21
744.0004641469352
 31
0.0
 11
1707.220563981707
 21
1004.777118276533
 31
0.0
  0
LINE
  5
42CF
330
A
100
AcDbEntity
  8
HIDDEN
100
AcDbLine
 10
1707.220563981707
 20
1004.777118276533
 30
0.0
 11
1707.220563981707
 21
1091.686069929817
 31
0.0
  0
SPLINE
  5
42E5
330
A
100
AcDbEntity
  8
HIDDEN
100
AcDbSpline
210
0.0
220
0.0
230
1.0
 70
  1064
 71
     3
 72
    12
 73
     8
 74
     6
 42
0.000000001
 43
0.0000000001
 44
0.0
 40
0.0
 40
0.0
 40
0.0
 40
0.0
 40
57.3174013019451
 40
107.2856960728716
 40
202.9501828589497
 40
240.8543715671482
 40
501.8122523761566
 40
501.8122523761566
 40
501.8122523761566
 40
501.8122523761566
 10
1577.482648219445
 20
1542.231348225113
 30
0.0
 10
1597.013319981661
 20
1537.511718478434
 30
0.0
 10
1633.570485295942
 20
1528.677599152068
 30
0.0
 10
1667.459105551849
 20
1465.606038527052
 30
0.0
 10
1689.47990836795
 20
1409.289077288682
 30
0.0
 10
1708.482879773289
 20
1278.570032128242
 30
0.0
 10
1707.808987551984
 20
1178.801298145734
 30
0.0
 10
1707.220563981707
 20
1091.686069929817
 30
0.0
 11
1577.482648219445
 21
1542.231348225113
 31
0.0
 11
1630.753632015428
 21
1521.077464954745
 31
0.0
 11
1659.022958329951
 21
1479.874604956473
 31
0.0
 11
1691.48955918801
 21
1389.887862261967
 31
0.0
 11
1697.496767536869
 21
1352.462724059415
 31
0.0
 11
1707.220563981707
 21
1091.686069929817
 31
0.0
  0
LINE
  5
4344
330
A
100
AcDbEntity
  8
Dim
  6
Continuous
100
AcDbLine
 10
502.6570488180212
 20
2793.980966345787
 30
0.0
 11
502.6570488180212
 21
1726.746179212256
 31
0.0
  0
LINE
  5
4348
330
A
100
AcDbEntity
  8
Dim
  6
Continuous
100
AcDbLine
 10
502.6570488180212
 20
2781.635828741038
 30
0.0
 11
455.1183725262719
 21
2820.518006944005
 31
0.0
  0
LINE
  5
4349
330
A
100
AcDbEntity
  8
Dim
  6
Continuous
100
AcDbLine
 10
502.6570488180212
 20
2756.892624430059
 30
0.0
 11
455.1183725262719
 21
2795.774802633026
 31
0.0
  0
LINE
  5
434A
330
A
100
AcDbEntity
  8
Dim
  6
Continuous
100
AcDbLine
 10
502.6570488180212
 20
2732.149420119079
 30
0.0
 11
455.1183725262719
 21
2771.031598322047
 31
0.0
  0
DIMENSION
  5
4351
330
A
100
AcDbEntity
  8
Dim
  6
Continuous
100
AcDbDimension
  2
*D52
 10
1102.788868130564
 20
1538.230928951732
 30
0.0
 11
1080.572559536814
 21
1048.230928951732
 31
0.0
 70
    32
 71
     5
 42
980.0
 73
     0
 74
     0
 75
     0
  3
tform線あり
100
AcDbAlignedDimension
 13
937.2669220663493
 23
558.230928951732
 33
0.0
 14
937.2669220663493
 24
1538.230928951732
 34
0.0
 50
90.0
100
AcDbRotatedDimension
  0
VIEWPORT
  5
349
330
B
100
AcDbEntity
 67
     1
  8
0
100
AcDbViewport
 10
202.5
 20
128.5
 30
0.0
 40
486.0
 41
308.4
 68
     1
 69
     1
 12
202.5
 22
128.5
 13
0.0
 23
0.0
 14
0.5
 24
0.5
 15
0.0
 25
0.0
 16
0.0
 26
0.0
 36
1.0
 17
0.0
 27
0.0
 37
0.0
 42
50.0
 43
0.0
 44
0.0
 45
308.4
 50
0.0
 51
0.0
 72
   100
 90
   557152
  1

281
     0
 71
     1
 74
     0
110
0.0
120
0.0
130
0.0
111
1.0
121
0.0
131
0.0
112
0.0
122
1.0
132
0.0
 79
     0
146
0.0
170
     0
 61
     5
348
26C
292
     1
282
     1
141
0.0
142
0.0
 63
   256
  0
VIEWPORT
  5
34A
330
B
100
AcDbEntity
 67
     1
  8
0
100
AcDbViewport
 10
202.5
 20
128.5
 30
0.0
 40
324.0
 41
205.6
 68
     2
 69
     2
 12
986.6781359294573
 22
1427.077061889956
 13
0.0
 23
0.0
 14
0.5
 24
0.5
 15
0.0
 25
0.0
 16
0.0
 26
0.0
 36
1.0
 17
0.0
 27
0.0
 37
0.0
 42
50.0
 43
0.0
 44
0.0
 45
2890.021615685494
 50
0.0
 51
0.0
 72
   100
 90
   557152
  1

281
     0
 71
     1
 74
     0
110
0.0
120
0.0
130
0.0
111
1.0
121
0.0
131
0.0
112
0.0
122
1.0
132
0.0
 79
     0
146
0.0
170
     0
 61
     5
348
26C
292
     1
282
     1
141
0.0
142
0.0
 63
   256
  0
ENDSEC
  0
SECTION
  2
OBJECTS
  0
DICTIONARY
  5
19
330
0
100
AcDbDictionary
281
     1
  3
ACAD_COLOR
350
38F
  3
ACAD_DETAILVIEWSTYLE
350
8CF
  3
ACAD_FIELDLIST
350
BA6
  3
ACAD_GROUP
350
1A
  3
ACAD_IMAGE_VARS
350
27B
  3
ACAD_LAYOUT
350
1E
  3
ACAD_MATERIAL
350
263
  3
ACAD_MLEADERSTYLE
350
336
  3
ACAD_MLINESTYLE
350
1B
  3
ACAD_PLOTSETTINGS
350
22
  3
ACAD_PLOTSTYLENAME
350
1F
  3
ACAD_SCALELIST
350
241
  3
ACAD_SECTIONVIEWSTYLE
350
8D0
  3
ACAD_TABLESTYLE
350
278
  3
ACAD_VISUALSTYLE
350
267
  3
ACDB_RECOMPOSE_DATA
350
436D
  3
AcDbVariableDictionary
350
330
  3
APPDATA
350
27A
  3
DimOffsetDictionary
350
C08
  0
SUN
  5
8C2
330
15
100
AcDbSun
 90
        1
290
     0
 63
     7
421
 16777215
 40
1.0
291
     1
 91
  2455826
 92
 54000000
292
     0
 70
     2
 71
   256
280
     1
  0
DICTIONARY
  5
2E1
330
2
100
AcDbDictionary
280
     1
281
     1
  3
ACAD_LAYERSTATES
360
2E2
  3
ACLYDICTIONARY
360
BFE
  0
DICTIONARY
  5
BDC
330
BDB
100
AcDbDictionary
280
     1
281
     1
  3
ACAD_FIELD
360
BE4
  0
DICTIONARY
  5
3F86
330
3F85
100
AcDbDictionary
280
     1
281
     1
  3
ACAD_DIMASSOC
360
3F87
  0
DICTIONARY
  5
3F95
330
3F94
100
AcDbDictionary
280
     1
281
     1
  3
ACAD_DIMASSOC
360
3F96
  0
DICTIONARY
  5
4071
330
4070
100
AcDbDictionary
280
     1
281
     1
  3
ACAD_DIMASSOC
360
4072
  0
DICTIONARY
  5
4239
330
4238
100
AcDbDictionary
280
     1
281
     1
  3
ACAD_DIMASSOC
360
423A
  0
DICTIONARY
  5
38F
102
{ACAD_REACTORS
330
19
102
}
330
19
100
AcDbDictionary
281
     1
  0
DICTIONARY
  5
8CF
102
{ACAD_REACTORS
330
19
102
}
330
19
100
AcDbDictionary
281
     1
  0
FIELDLIST
  5
BA6
102
{ACAD_REACTORS
330
19
102
}
330
19
100
AcDbIdSet
 90
        2
330
BDF
330
BDE
100
AcDbFieldList
  0
DICTIONARY
  5
1A
102
{ACAD_REACTORS
330
19
102
}
330
19
100
AcDbDictionary
281
     1
  0
RASTERVARIABLES
  5
27B
102
{ACAD_REACTORS
330
19
102
}
330
19
100
AcDbRasterVariables
 90
        0
 70
     1
 71
     1
 72
     1
  0
DICTIONARY
  5
1E
102
{ACAD_REACTORS
330
19
102
}
330
19
100
AcDbDictionary
281
     1
  3
Layout1
350
21
  3
Model
350
20
  0
DICTIONARY
  5
263
102
{ACAD_REACTORS
330
19
102
}
330
19
100
AcDbDictionary
281
     1
  3
ByBlock
350
3F68
  3
ByLayer
350
264
  3
Global
350
266
  0
DICTIONARY
  5
336
102
{ACAD_REACTORS
330
19
102
}
330
19
100
AcDbDictionary
281
     1
  3
Standard
350
8D1
  0
DICTIONARY
  5
1B
102
{ACAD_REACTORS
330
19
102
}
330
19
100
AcDbDictionary
281
     1
  3
Standard
350
1C
  0
DICTIONARY
  5
22
102
{ACAD_REACTORS
330
19
102
}
330
19
100
AcDbDictionary
281
     1
  0
ACDBDICTIONARYWDFLT
  5
1F
102
{ACAD_REACTORS
330
19
102
}
330
19
100
AcDbDictionary
281
     1
  3
Normal
350
1D
100
AcDbDictionaryWithDefault
340
1D
  0
DICTIONARY
  5
241
102
{ACAD_REACTORS
330
19
102
}
330
19
100
AcDbDictionary
281
     1
  3
A0
350
242
  3
A1
350
243
  3
A2
350
244
  3
A3
350
245
  3
A4
350
246
  3
A5
350
247
  3
A6
350
248
  3
A7
350
249
  3
A8
350
24A
  3
A9
350
24B
  3
B0
350
24C
  3
B1
350
24D
  3
B2
350
24E
  3
B3
350
24F
  3
B4
350
250
  3
B5
350
251
  3
B6
350
252
  3
B7
350
253
  3
B8
350
254
  3
B9
350
255
  3
C0
350
256
  3
C1
350
257
  3
C2
350
258
  3
C3
350
259
  3
C4
350
25A
  3
C5
350
25B
  3
C6
350
25C
  3
C7
350
25D
  3
C8
350
25E
  3
C9
350
25F
  3
D0
350
260
  3
D1
350
261
  3
D2
350
262
  0
DICTIONARY
  5
8D0
102
{ACAD_REACTORS
330
19
102
}
330
19
100
AcDbDictionary
281
     1
  0
DICTIONARY
  5
278
102
{ACAD_REACTORS
330
19
102
}
330
19
100
AcDbDictionary
281
     1
  3
Standard
350
279
  0
DICTIONARY
  5
267
102
{ACAD_REACTORS
330
19
102
}
330
19
100
AcDbDictionary
281
     1
  3
2dWireframe
350
26C
  3
3D Hidden
350
26E
  3
3dWireframe
350
26D
  3
Basic
350
26F
  3
Brighten
350
273
  3
ColorChange
350
277
  3
Conceptual
350
271
  3
Dim
350
272
  3
EdgeColorOff
350
8BC
  3
Facepattern
350
276
  3
Flat
350
268
  3
FlatWithEdges
350
269
  3
Gouraud
350
26A
  3
GouraudWithEdges
350
26B
  3
Hidden
350
8B9
  3
JitterOff
350
8BA
  3
Linepattern
350
275
  3
OverhangOff
350
8BB
  3
Realistic
350
270
  3
Shaded
350
8C1
  3
Shaded with edges
350
8C0
  3
Shades of Gray
350
8BD
  3
Sketchy
350
8BE
  3
Thicken
350
274
  3
Wireframe
350
8B8
  3
X-Ray
350
8BF
  0
XRECORD
  5
436D
102
{ACAD_REACTORS
330
19
102
}
330
19
100
AcDbXrecord
280
     1
 90
        1
330
279
  0
DICTIONARY
  5
330
102
{ACAD_REACTORS
330
19
102
}
330
19
100
AcDbDictionary
281
     1
  3
CANNOSCALE
350
331
  3
CMLEADERSTYLE
350
8DA
  3
CTABLESTYLE
350
335
  3
HPTRANSPARENCY
350
C07
  3
XCLIPFRAME
350
64A
  0
DICTIONARY
  5
27A
102
{ACAD_REACTORS
330
19
102
}
330
19
100
AcDbDictionary
281
     1
  0
DICTIONARY
  5
C08
102
{ACAD_REACTORS
330
19
102
}
330
19
100
AcDbDictionary
281
     1
  3
DIMRAILANGLE
350
4342
  3
DIMRAILFIRSTOFFSET
350
4340
  3
DIMRAILOFFSET
350
4341
  3
DIMRAILSENABLED
350
4343
  0
DICTIONARY
  5
2E2
102
{ACAD_REACTORS
330
2E1
102
}
330
2E1
100
AcDbDictionary
281
     1
  3
ARGON_LAYERP_15
350
870
  0
DICTIONARY
  5
BFE
102
{ACAD_REACTORS
330
2E1
102
}
330
2E1
100
AcDbDictionary
281
     1
1001
ACAD
1000
<All
  0
DICTIONARY
  5
BE4
102
{ACAD_REACTORS
330
BDC
102
}
330
BDC
100
AcDbDictionary
280
     1
281
     1
  3
TEXT
360
BDE
  0
DIMASSOC
  5
3F87
102
{ACAD_REACTORS
330
3F86
102
}
330
3F86
100
AcDbDimAssoc
330
3F85
 90
        1
 70
     0
 71
     1
  1
AcDbOsnapPointRef
 72
     1
331
3F6F
 73
     2
 91
        2
 40
1.0
 10
0.0
 20
0.0
 30
0.0
 75
     0
  0
DIMASSOC
  5
3F96
102
{ACAD_REACTORS
330
3F95
102
}
330
3F95
100
AcDbDimAssoc
330
3F94
 90
        3
 70
     0
 71
     1
  1
AcDbOsnapPointRef
 72
     1
331
3F6F
 73
     2
 91
        3
 40
1.0
 10
0.0
 20
0.0
 30
0.0
 75
     0
  1
AcDbOsnapPointRef
 72
    13
331
3F6F
 73
     2
 91
        1
 40
0.0
 10
0.0
 20
0.0
 30
0.0
 75
     0
  0
DIMASSOC
  5
4072
102
{ACAD_REACTORS
330
4071
102
}
330
4071
100
AcDbDimAssoc
330
4070
 90
        1
 70
     0
 71
     1
  1
AcDbOsnapPointRef
 72
     1
331
3E8B
 73
     0
 91
        0
 40
0.0
 10
0.0
 20
0.0
 30
0.0
 75
     0
  0
DIMASSOC
  5
423A
102
{ACAD_REACTORS
330
4239
102
}
330
4239
100
AcDbDimAssoc
330
4238
 90
        3
 70
     0
 71
     1
  1
AcDbOsnapPointRef
 72
     3
331
3C34
 73
     0
 91
        0
 40
0.0
 10
0.0
 20
0.0
 30
0.0
 75
     0
  1
AcDbOsnapPointRef
 72
     3
331
4231
 73
     0
 91
        0
 40
0.0
 10
0.0
 20
0.0
 30
0.0
 75
     0
  0
LAYOUT
  5
21
102
{ACAD_REACTORS
330
1E
102
}
330
1E
100
AcDbPlotSettings
  1

  2
none_device
  4
ISO_A3_(420.00_x_297.00_MM)
  6

 40
7.5
 41
20.0
 42
7.5
 43
20.0
 44
420.0
 45
297.0
 46
0.0
 47
0.0
 48
0.0
 49
0.0
140
0.0
141
0.0
142
1.0
143
1.0
 70
     0
 72
     1
 73
     0
 74
     0
  7

 75
     0
 76
     0
 77
     2
 78
   300
147
1.0
148
0.0
149
0.0
100
AcDbLayout
  1
Layout1
 70
     0
 71
     0
 10
0.0
 20
0.0
 11
0.0
 21
0.0
 12
0.0
 22
0.0
 32
0.0
 14
0.0
 24
0.0
 34
0.0
 15
0.0
 25
0.0
 35
0.0
146
0.0
 13
0.0
 23
0.0
 33
0.0
 16
0.0
 26
0.0
 36
0.0
 17
0.0
 27
0.0
 37
0.0
 76
     0
330
B
331
349
  0
LAYOUT
  5
20
102
{ACAD_REACTORS
330
1E
102
}
330
1E
100
AcDbPlotSettings
  1

  2
none_device
  4
ISO_A3_(420.00_x_297.00_MM)
  6

 40
7.5
 41
20.0
 42
7.5
 43
20.0
 44
420.0
 45
297.0
 46
0.0
 47
0.0
 48
0.0
 49
0.0
140
0.0
141
0.0
142
1.0
143
1.0
 70
  1024
 72
     1
 73
     0
 74
     0
  7

 75
     0
 76
     0
 77
     2
 78
   300
147
1.0
148
0.0
149
0.0
100
AcDbLayout
  1
Model
 70
     0
 71
     1
 10
0.0
 20
0.0
 11
2100.0
 21
2970.0
 12
0.0
 22
0.0
 32
0.0
 14
0.0
 24
0.0
 34
0.0
 15
2100.0
 25
2970.0
 35
34.99521132346015
146
0.0
 13
0.0
 23
0.0
 33
0.0
 16
0.0
 26
0.0
 36
0.0
 17
0.0
 27
0.0
 37
0.0
 76
     0
330
A
331
15
  0
MATERIAL
  5
3F68
102
{ACAD_REACTORS
330
263
102
}
330
263
100
AcDbMaterial
  1
ByBlock
 72
     1
 94
      127
  0
MATERIAL
  5
264
102
{ACAD_REACTORS
330
263
102
}
330
263
100
AcDbMaterial
  1
ByLayer
 72
     1
 94
      127
  0
MATERIAL
  5
266
102
{ACAD_REACTORS
330
263
102
}
330
263
100
AcDbMaterial
  1
Global
 72
     1
 94
      127
  0
MLEADERSTYLE
  5
8D1
102
{ACAD_REACTORS
330
336
102
}
330
336
100
AcDbMLeaderStyle
170
     2
171
     1
172
     0
 90
        2
 40
0.0
 41
0.0
173
     1
 91
-1056964608
340
11
 92
       -2
290
     1
 42
2.0
291
     1
 43
8.0
  3
Standard
341
0
 44
4.0
300

342
17
174
     1
178
     6
175
     1
176
     0
 93
-1056964608
 45
4.0
292
     0
297
     0
 46
4.0
343
0
 94
-1056964608
 47
1.0
 49
1.0
140
1.0
293
     1
141
0.0
294
     1
177
     0
142
1.0
295
     0
296
     0
143
3.75
1001
ACAD_MLEADERVER
1070
     2
  0
MLINESTYLE
  5
1C
102
{ACAD_REACTORS
330
1B
102
}
330
1B
100
AcDbMlineStyle
  2
Standard
 70
     0
  3

 62
     0
 51
90.0
 52
90.0
 71
     2
 49
0.5
 62
   256
  6
BYLAYER
 49
-0.5
 62
   256
  6
BYLAYER
  0
ACDBPLACEHOLDER
  5
1D
102
{ACAD_REACTORS
330
1F
102
}
330
1F
  0
SCALE
  5
242
102
{ACAD_REACTORS
330
241
102
}
330
241
100
AcDbScale
 70
     0
300
1:1
140
1.0
141
1.0
290
     1
  0
SCALE
  5
243
102
{ACAD_REACTORS
330
241
102
}
330
241
100
AcDbScale
 70
     0
300
1:2
140
1.0
141
2.0
290
     0
  0
SCALE
  5
244
102
{ACAD_REACTORS
330
241
102
}
330
241
100
AcDbScale
 70
     0
300
1:4
140
1.0
141
4.0
290
     0
  0
SCALE
  5
245
102
{ACAD_REACTORS
330
241
102
}
330
241
100
AcDbScale
 70
     0
300
1:5
140
1.0
141
5.0
290
     0
  0
SCALE
  5
246
102
{ACAD_REACTORS
330
241
102
}
330
241
100
AcDbScale
 70
     0
300
1:8
140
1.0
141
8.0
290
     0
  0
SCALE
  5
247
102
{ACAD_REACTORS
330
241
102
}
330
241
100
AcDbScale
 70
     0
300
1:10
140
1.0
141
10.0
290
     0
  0
SCALE
  5
248
102
{ACAD_REACTORS
330
241
102
}
330
241
100
AcDbScale
 70
     0
300
1:16
140
1.0
141
16.0
290
     0
  0
SCALE
  5
249
102
{ACAD_REACTORS
330
241
102
}
330
241
100
AcDbScale
 70
     0
300
1:20
140
1.0
141
20.0
290
     0
  0
SCALE
  5
24A
102
{ACAD_REACTORS
330
241
102
}
330
241
100
AcDbScale
 70
     0
300
1:30
140
1.0
141
30.0
290
     0
  0
SCALE
  5
24B
102
{ACAD_REACTORS
330
241
102
}
330
241
100
AcDbScale
 70
     0
300
1:40
140
1.0
141
40.0
290
     0
  0
SCALE
  5
24C
102
{ACAD_REACTORS
330
241
102
}
330
241
100
AcDbScale
 70
     0
300
1:50
140
1.0
141
50.0
290
     0
  0
SCALE
  5
24D
102
{ACAD_REACTORS
330
241
102
}
330
241
100
AcDbScale
 70
     0
300
1:100
140
1.0
141
100.0
290
     0
  0
SCALE
  5
24E
102
{ACAD_REACTORS
330
241
102
}
330
241
100
AcDbScale
 70
     0
300
2:1
140
2.0
141
1.0
290
     0
  0
SCALE
  5
24F
102
{ACAD_REACTORS
330
241
102
}
330
241
100
AcDbScale
 70
     0
300
4:1
140
4.0
141
1.0
290
     0
  0
SCALE
  5
250
102
{ACAD_REACTORS
330
241
102
}
330
241
100
AcDbScale
 70
     0
300
8:1
140
8.0
141
1.0
290
     0
  0
SCALE
  5
251
102
{ACAD_REACTORS
330
241
102
}
330
241
100
AcDbScale
 70
     0
300
10:1
140
10.0
141
1.0
290
     0
  0
SCALE
  5
252
102
{ACAD_REACTORS
330
241
102
}
330
241
100
AcDbScale
 70
     0
300
100:1
140
100.0
141
1.0
290
     0
  0
SCALE
  5
253
102
{ACAD_REACTORS
330
241
102
}
330
241
100
AcDbScale
 70
     0
300
1/128" = 1'-0"
140
0.0078125
141
12.0
290
     0
  0
SCALE
  5
254
102
{ACAD_REACTORS
330
241
102
}
330
241
100
AcDbScale
 70
     0
300
1/64" = 1'-0"
140
0.015625
141
12.0
290
     0
  0
SCALE
  5
255
102
{ACAD_REACTORS
330
241
102
}
330
241
100
AcDbScale
 70
     0
300
1/32" = 1'-0"
140
0.03125
141
12.0
290
     0
  0
SCALE
  5
256
102
{ACAD_REACTORS
330
241
102
}
330
241
100
AcDbScale
 70
     0
300
1/16" = 1'-0"
140
0.0625
141
12.0
290
     0
  0
SCALE
  5
257
102
{ACAD_REACTORS
330
241
102
}
330
241
100
AcDbScale
 70
     0
300
3/32" = 1'-0"
140
0.09375
141
12.0
290
     0
  0
SCALE
  5
258
102
{ACAD_REACTORS
330
241
102
}
330
241
100
AcDbScale
 70
     0
300
1/8" = 1'-0"
140
0.125
141
12.0
290
     0
  0
SCALE
  5
259
102
{ACAD_REACTORS
330
241
102
}
330
241
100
AcDbScale
 70
     0
300
3/16" = 1'-0"
140
0.1875
141
12.0
290
     0
  0
SCALE
  5
25A
102
{ACAD_REACTORS
330
241
102
}
330
241
100
AcDbScale
 70
     0
300
1/4" = 1'-0"
140
0.25
141
12.0
290
     0
  0
SCALE
  5
25B
102
{ACAD_REACTORS
330
241
102
}
330
241
100
AcDbScale
 70
     0
300
3/8" = 1'-0"
140
0.375
141
12.0
290
     0
  0
SCALE
  5
25C
102
{ACAD_REACTORS
330
241
102
}
330
241
100
AcDbScale
 70
     0
300
1/2" = 1'-0"
140
0.5
141
12.0
290
     0
  0
SCALE
  5
25D
102
{ACAD_REACTORS
330
241
102
}
330
241
100
AcDbScale
 70
     0
300
3/4" = 1'-0"
140
0.75
141
12.0
290
     0
  0
SCALE
  5
25E
102
{ACAD_REACTORS
330
241
102
}
330
241
100
AcDbScale
 70
     0
300
1" = 1'-0"
140
1.0
141
12.0
290
     0
  0
SCALE
  5
25F
102
{ACAD_REACTORS
330
241
102
}
330
241
100
AcDbScale
 70
     0
300
1-1/2" = 1'-0"
140
1.5
141
12.0
290
     0
  0
SCALE
  5
260
102
{ACAD_REACTORS
330
241
102
}
330
241
100
AcDbScale
 70
     0
300
3" = 1'-0"
140
3.0
141
12.0
290
     0
  0
SCALE
  5
261
102
{ACAD_REACTORS
330
241
102
}
330
241
100
AcDbScale
 70
     0
300
6" = 1'-0"
140
6.0
141
12.0
290
     0
  0
SCALE
  5
262
102
{ACAD_REACTORS
330
241
102
}
330
241
100
AcDbScale
 70
     0
300
1'-0" = 1'-0"
140
12.0
141
12.0
290
     0
  0
TABLESTYLE
  5
279
102
{ACAD_REACTORS
330
278
102
}
102
{ACAD_XDICTIONARY
360
436B
102
}
330
278
100
AcDbTableStyle
  3
Standard
 70
     0
 71
     0
 40
0.06
 41
0.06
280
     0
281
     0
  7
Standard
140
4.5
170
     2
 62
     0
 63
   257
283
     0
 90
        4
 91
        0
  1

274
    -2
284
     1
 64
     0
275
    -2
285
     1
 65
     0
276
    -2
286
     1
 66
     0
277
    -2
287
     1
 67
     0
278
    -2
288
     1
 68
     0
279
    -2
289
     1
 69
     0
  7
Standard
140
6.0
170
     5
 62
     0
 63
   257
283
     0
 90
        4
 91
        0
  1

274
    -2
284
     1
 64
     0
275
    -2
285
     1
 65
     0
276
    -2
286
     1
 66
     0
277
    -2
287
     1
 67
     0
278
    -2
288
     1
 68
     0
279
    -2
289
     1
 69
     0
  7
Standard
140
4.5
170
     5
 62
     0
 63
   257
283
     0
 90
        4
 91
        0
  1

274
    -2
284
     1
 64
     0
275
    -2
285
     1
 65
     0
276
    -2
286
     1
 66
     0
277
    -2
287
     1
 67
     0
278
    -2
288
     1
 68
     0
279
    -2
289
     1
 69
     0
  0
VISUALSTYLE
  5
26C
102
{ACAD_REACTORS
330
267
102
}
330
267
100
AcDbVisualStyle
  2
2dWireframe
 70
     4
 71
     0
 72
     2
 73
     0
 90
        0
 40
-0.6
 41
-30.0
 62
     5
 63
     7
421
 16777215
 74
     1
 91
        4
 64
     7
 65
   257
 75
     1
175
     1
 42
1.0
 92
        0
 66
   257
 43
1.0
 76
     1
 77
     6
 78
     2
 67
     7
 79
     5
170
     0
171
     0
290
     0
174
     0
 93
        1
 44
0.0
173
     0
291
     0
 45
0.0
  0
VISUALSTYLE
  5
26E
102
{ACAD_REACTORS
330
267
102
}
330
267
100
AcDbVisualStyle
  2
3D Hidden
 70
     6
 71
     1
 72
     2
 73
     2
 90
        0
 40
-0.6
 41
-30.0
 62
     5
 63
     7
421
 16777215
 74
     2
 91
        2
 64
     7
 65
   257
 75
     2
175
     1
 42
40.0
 92
        0
 66
   257
 43
1.0
 76
     1
 77
     6
 78
     2
 67
     7
 79
     3
170
     0
171
     0
290
     0
174
     0
 93
        1
 44
0.0
173
     0
291
     0
 45
0.0
  0
VISUALSTYLE
  5
26D
102
{ACAD_REACTORS
330
267
102
}
330
267
100
AcDbVisualStyle
  2
3dWireframe
 70
     5
 71
     0
 72
     2
 73
     0
 90
        0
 40
-0.6
 41
-30.0
 62
     5
 63
     7
421
 16777215
 74
     1
 91
        4
 64
     7
 65
   257
 75
     1
175
     1
 42
1.0
 92
        0
 66
   257
 43
1.0
 76
     1
 77
     6
 78
     2
 67
     7
 79
     5
170
     0
171
     0
290
     0
174
     0
 93
        1
 44
0.0
173
     0
291
     0
 45
0.0
  0
VISUALSTYLE
  5
26F
102
{ACAD_REACTORS
330
267
102
}
330
267
100
AcDbVisualStyle
  2
Basic
 70
     7
 71
     1
 72
     0
 73
     1
 90
        0
 40
-0.6
 41
-30.0
 62
     5
 63
     7
421
 16777215
 74
     0
 91
        4
 64
     7
 65
   257
 75
     1
175
     1
 42
1.0
 92
        8
 66
     7
 43
1.0
 76
     1
 77
     6
 78
     2
 67
     7
 79
     5
170
     0
171
     0
290
     0
174
     0
 93
        1
 44
0.0
173
     0
291
     1
 45
0.0
  0
VISUALSTYLE
  5
273
102
{ACAD_REACTORS
330
267
102
}
330
267
100
AcDbVisualStyle
  2
Brighten
 70
    12
 71
     2
 72
     2
 73
     0
 90
        0
 40
-0.6
 41
-30.0
 62
     5
 63
     7
421
 16777215
 74
     1
 91
        4
 64
     7
 65
   257
 75
     1
175
     1
 42
1.0
 92
        8
 66
     7
 43
1.0
 76
     1
 77
     6
 78
     2
 67
     7
 79
     5
170
     0
171
     0
290
     0
174
     0
 93
        1
 44
50.0
173
     0
291
     1
 45
0.0
  0
VISUALSTYLE
  5
277
102
{ACAD_REACTORS
330
267
102
}
330
267
100
AcDbVisualStyle
  2
ColorChange
 70
    16
 71
     2
 72
     2
 73
     3
 90
        0
 40
-0.6
 41
-30.0
 62
     5
 63
     8
421
  8421504
 74
     1
 91
        4
 64
     7
 65
   257
 75
     1
175
     1
 42
1.0
 92
        8
 66
     8
424
  8421504
 43
1.0
 76
     1
 77
     6
 78
     2
 67
     7
 79
     5
170
     0
171
     0
290
     0
174
     0
 93
        1
 44
0.0
173
     0
291
     1
 45
0.0
  0
VISUALSTYLE
  5
271
102
{ACAD_REACTORS
330
267
102
}
330
267
100
AcDbVisualStyle
  2
Conceptual
 70
     9
 71
     3
 72
     2
 73
     0
 90
        0
 40
-0.6
 41
-30.0
 62
     5
 63
     7
421
 16777215
 74
     2
 91
        2
 64
     7
 65
   257
 75
     1
175
     1
 42
40.0
 92
        8
 66
     7
 43
1.0
 76
     1
 77
     6
 78
     2
 67
     7
 79
     3
170
     0
171
     0
290
     0
174
     0
 93
        1
 44
0.0
173
     0
291
     0
 45
0.0
  0
VISUALSTYLE
  5
272
102
{ACAD_REACTORS
330
267
102
}
330
267
100
AcDbVisualStyle
  2
Dim
 70
    11
 71
     2
 72
     2
 73
     0
 90
        0
 40
-0.6
 41
-30.0
 62
     5
 63
     7
421
 16777215
 74
     1
 91
        4
 64
     7
 65
   257
 75
     1
175
     1
 42
1.0
 92
        8
 66
     7
 43
1.0
 76
     1
 77
     6
 78
     2
 67
     7
 79
     5
170
     0
171
     0
290
     0
174
     0
 93
        1
 44
-50.0
173
     0
291
     1
 45
0.0
  0
VISUALSTYLE
  5
8BC
102
{ACAD_REACTORS
330
267
102
}
330
267
100
AcDbVisualStyle
  2
EdgeColorOff
 70
    22
 71
     2
 72
     2
 73
     0
 90
        0
 40
0.6
 41
30.0
 62
     5
 63
     7
421
 16777215
 74
     1
 91
        4
 64
     7
 65
   257
 75
     1
175
     1
 42
1.0
 92
        8
 66
     7
 43
1.0
 76
     1
 77
     6
 78
     2
 67
     7
 79
     5
170
     0
171
     0
290
     0
174
     0
 93
        1
 44
0.0
173
     0
291
     1
 45
0.0
  0
VISUALSTYLE
  5
276
102
{ACAD_REACTORS
330
267
102
}
330
267
100
AcDbVisualStyle
  2
Facepattern
 70
    15
 71
     2
 72
     2
 73
     0
 90
        0
 40
-0.6
 41
-30.0
 62
     5
 63
     7
421
 16777215
 74
     1
 91
        4
 64
     7
 65
   257
 75
     1
175
     1
 42
1.0
 92
        8
 66
     7
 43
1.0
 76
     1
 77
     6
 78
     2
 67
     7
 79
     5
170
     0
171
     0
290
     0
174
     0
 93
        1
 44
0.0
173
     0
291
     1
 45
0.0
  0
VISUALSTYLE
  5
268
102
{ACAD_REACTORS
330
267
102
}
330
267
100
AcDbVisualStyle
  2
Flat
 70
     0
 71
     2
 72
     1
 73
     1
 90
        2
 40
-0.6
 41
30.0
 62
     5
 63
     7
421
 16777215
 74
     0
 91
        4
 64
     7
 65
   257
 75
     1
175
     1
 42
1.0
 92
        8
 66
     7
 43
1.0
 76
     1
 77
     6
 78
     2
 67
     7
 79
     5
170
     0
171
     0
290
     0
174
     0
 93
       13
 44
0.0
173
     0
291
     1
 45
0.0
  0
VISUALSTYLE
  5
269
102
{ACAD_REACTORS
330
267
102
}
330
267
100
AcDbVisualStyle
  2
FlatWithEdges
 70
     1
 71
     2
 72
     1
 73
     1
 90
        2
 40
-0.6
 41
30.0
 62
     5
 63
     7
421
 16777215
 74
     1
 91
        4
 64
     7
 65
   257
 75
     1
175
     1
 42
1.0
 92
        0
 66
   257
 43
1.0
 76
     1
 77
     6
 78
     2
 67
     7
 79
     5
170
     0
171
     0
290
     0
174
     0
 93
       13
 44
0.0
173
     0
291
     1
 45
0.0
  0
VISUALSTYLE
  5
26A
102
{ACAD_REACTORS
330
267
102
}
330
267
100
AcDbVisualStyle
  2
Gouraud
 70
     2
 71
     2
 72
     2
 73
     1
 90
        2
 40
-0.6
 41
30.0
 62
     5
 63
     7
421
 16777215
 74
     0
 91
        4
 64
     7
 65
   257
 75
     1
175
     1
 42
1.0
 92
        0
 66
     7
 43
1.0
 76
     1
 77
     6
 78
     2
 67
     7
 79
     5
170
     0
171
     0
290
     0
174
     0
 93
       13
 44
0.0
173
     0
291
     1
 45
0.0
  0
VISUALSTYLE
  5
26B
102
{ACAD_REACTORS
330
267
102
}
330
267
100
AcDbVisualStyle
  2
GouraudWithEdges
 70
     3
 71
     2
 72
     2
 73
     1
 90
        2
 40
-0.6
 41
30.0
 62
     5
 63
     7
421
 16777215
 74
     1
 91
        4
 64
     7
 65
   257
 75
     1
175
     1
 42
1.0
 92
        0
 66
   257
 43
1.0
 76
     1
 77
     6
 78
     2
 67
     7
 79
     5
170
     0
171
     0
290
     0
174
     0
 93
       13
 44
0.0
173
     0
291
     1
 45
0.0
  0
VISUALSTYLE
  5
8B9
102
{ACAD_REACTORS
330
267
102
}
330
267
100
AcDbVisualStyle
  2
Hidden
 70
     6
 71
     1
 72
     2
 73
     2
 90
        0
 40
0.6
 41
30.0
 62
     5
 63
     7
421
 16777215
 74
     2
 91
        2
 64
     7
 65
   257
 75
     2
175
     1
 42
40.0
 92
        0
 66
   257
 43
1.0
 76
     1
 77
     6
 78
     2
 67
     7
 79
     3
170
     0
171
     0
290
     0
174
     0
 93
        1
 44
0.0
173
     0
291
     0
 45
0.0
  0
VISUALSTYLE
  5
8BA
102
{ACAD_REACTORS
330
267
102
}
330
267
100
AcDbVisualStyle
  2
JitterOff
 70
    20
 71
     2
 72
     2
 73
     0
 90
        0
 40
0.6
 41
30.0
 62
     5
 63
     7
421
 16777215
 74
     1
 91
        4
 64
     7
 65
   257
 75
     1
175
     1
 42
1.0
 92
       10
 66
     7
 43
1.0
 76
     1
 77
     6
 78
     2
 67
     7
 79
     5
170
     0
171
     0
290
     0
174
     0
 93
        1
 44
0.0
173
     0
291
     1
 45
0.0
  0
VISUALSTYLE
  5
275
102
{ACAD_REACTORS
330
267
102
}
330
267
100
AcDbVisualStyle
  2
Linepattern
 70
    14
 71
     2
 72
     2
 73
     0
 90
        0
 40
-0.6
 41
-30.0
 62
     5
 63
     7
421
 16777215
 74
     1
 91
        4
 64
     7
 65
   257
 75
     7
175
     7
 42
1.0
 92
        8
 66
     7
 43
1.0
 76
     1
 77
     6
 78
     2
 67
     7
 79
     5
170
     0
171
     0
290
     0
174
     0
 93
        1
 44
0.0
173
     0
291
     1
 45
0.0
  0
VISUALSTYLE
  5
8BB
102
{ACAD_REACTORS
330
267
102
}
330
267
100
AcDbVisualStyle
  2
OverhangOff
 70
    21
 71
     2
 72
     2
 73
     0
 90
        0
 40
0.6
 41
30.0
 62
     5
 63
     7
421
 16777215
 74
     1
 91
        4
 64
     7
 65
   257
 75
     1
175
     1
 42
1.0
 92
        9
 66
     7
 43
1.0
 76
     1
 77
     6
 78
     2
 67
     7
 79
     5
170
     0
171
     0
290
     0
174
     0
 93
        1
 44
0.0
173
     0
291
     1
 45
0.0
  0
VISUALSTYLE
  5
270
102
{ACAD_REACTORS
330
267
102
}
330
267
100
AcDbVisualStyle
  2
Realistic
 70
     8
 71
     2
 72
     2
 73
     0
 90
        0
 40
-0.6
 41
-30.0
 62
     5
 63
     7
421
 16777215
 74
     1
 91
        0
 64
     7
 65
   257
 75
     1
175
     1
 42
1.0
 92
        8
 66
     8
424
  7895160
 43
1.0
 76
     1
 77
     6
 78
     2
 67
     7
 79
     5
170
     0
171
     0
290
     0
174
     0
 93
       13
 44
0.0
173
     0
291
     0
 45
0.0
  0
VISUALSTYLE
  5
8C1
102
{ACAD_REACTORS
330
267
102
}
330
267
100
AcDbVisualStyle
  2
Shaded
 70
    27
 71
     2
 72
     2
 73
     1
 90
        2
 40
0.6
 41
30.0
 62
     5
 63
     7
421
 16777215
 74
     0
 91
        4
 64
     7
 65
   257
 75
     1
175
     1
 42
1.0
 92
        8
 66
   257
 43
1.0
 76
     1
 77
     6
 78
     2
 67
     8
425
  7895160
 79
     3
170
     0
171
     0
290
     0
174
     0
 93
        5
 44
0.0
173
     0
291
     0
 45
0.0
  0
VISUALSTYLE
  5
8C0
102
{ACAD_REACTORS
330
267
102
}
330
267
100
AcDbVisualStyle
  2
Shaded with edges
 70
    26
 71
     2
 72
     2
 73
     1
 90
        2
 40
0.6
 41
30.0
 62
     5
 63
     7
421
 16777215
 74
     1
 91
       10
 64
     7
 65
   257
 75
     2
175
     1
 42
1.0
 92
        8
 66
   257
 43
1.0
 76
     1
 77
     6
 78
     2
 67
     7
 79
     3
170
     0
171
     0
290
     0
174
     0
 93
        5
 44
0.0
173
     0
291
     0
 45
0.0
  0
VISUALSTYLE
  5
8BD
102
{ACAD_REACTORS
330
267
102
}
330
267
100
AcDbVisualStyle
  2
Shades of Gray
 70
    23
 71
     2
 72
     2
 73
     3
 90
        0
 40
0.6
 41
30.0
 62
     5
 63
     7
421
 16777215
 74
     2
 91
        2
 64
     7
 65
     7
 75
     1
175
     1
 42
40.0
 92
        8
 66
     7
 43
1.0
 76
     1
 77
     6
 78
     2
 67
     7
 79
     3
170
     0
171
     0
290
     0
174
     0
 93
        1
 44
0.0
173
     0
291
     0
 45
0.0
  0
VISUALSTYLE
  5
8BE
102
{ACAD_REACTORS
330
267
102
}
330
267
100
AcDbVisualStyle
  2
Sketchy
 70
    24
 71
     1
 72
     2
 73
     2
 90
        0
 40
0.6
 41
30.0
 62
     5
 63
     7
421
 16777215
 74
     2
 91
        2
 64
     7
 65
     7
 75
     1
175
     1
 42
40.0
 92
       11
 66
     7
 43
1.0
 76
     1
 77
     6
 78
     2
 67
     7
 79
     6
170
     0
171
     0
290
     0
174
     0
 93
        1
 44
0.0
173
     0
291
     0
 45
0.0
  0
VISUALSTYLE
  5
274
102
{ACAD_REACTORS
330
267
102
}
330
267
100
AcDbVisualStyle
  2
Thicken
 70
    13
 71
     2
 72
     2
 73
     0
 90
        0
 40
-0.6
 41
-30.0
 62
     5
 63
     7
421
 16777215
 74
     1
 91
        4
 64
     7
 65
   257
 75
     1
175
     1
 42
1.0
 92
       12
 66
     7
 43
1.0
 76
     1
 77
     6
 78
     2
 67
     7
 79
     5
170
     0
171
     0
290
     0
174
     0
 93
        1
 44
0.0
173
     0
291
     1
 45
0.0
  0
VISUALSTYLE
  5
8B8
102
{ACAD_REACTORS
330
267
102
}
330
267
100
AcDbVisualStyle
  2
Wireframe
 70
     5
 71
     0
 72
     2
 73
     0
 90
        0
 40
0.6
 41
30.0
 62
     5
 63
     7
421
 16777215
 74
     1
 91
        4
 64
     7
 65
   257
 75
     1
175
     1
 42
1.0
 92
        0
 66
   257
 43
1.0
 76
     1
 77
     6
 78
     2
 67
     7
 79
     3
170
     0
171
     0
290
     0
174
     0
 93
        1
 44
0.0
173
     0
291
     0
 45
0.0
  0
VISUALSTYLE
  5
8BF
102
{ACAD_REACTORS
330
267
102
}
330
267
100
AcDbVisualStyle
  2
X-Ray
 70
    25
 71
     2
 72
     2
 73
     1
 90
        1
 40
0.5
 41
30.0
 62
     5
 63
     7
421
 16777215
 74
     1
 91
        0
 64
     7
 65
   257
 75
     1
175
     1
 42
1.0
 92
        8
 66
     7
 43
1.0
 76
     1
 77
     6
 78
     2
 67
     7
 79
     3
170
     0
171
     0
290
     0
174
     0
 93
       13
 44
0.0
173
     0
291
     0
 45
0.0
  0
DICTIONARYVAR
  5
331
102
{ACAD_REACTORS
330
330
102
}
330
330
100
DictionaryVariables
280
     0
  1
1:1
  0
DICTIONARYVAR
  5
8DA
102
{ACAD_REACTORS
330
330
102
}
330
330
100
DictionaryVariables
280
     0
  1
Standard
  0
DICTIONARYVAR
  5
335
102
{ACAD_REACTORS
330
330
102
}
330
330
100
DictionaryVariables
280
     0
  1
Standard
  0
DICTIONARYVAR
  5
C07
102
{ACAD_REACTORS
330
330
102
}
330
330
100
DictionaryVariables
280
     0
  1
ByLayer
  0
DICTIONARYVAR
  5
64A
102
{ACAD_REACTORS
330
330
102
}
330
330
100
DictionaryVariables
280
     0
  1
0
  0
DICTIONARYVAR
  5
4342
102
{ACAD_REACTORS
330
C08
102
}
330
C08
100
DictionaryVariables
280
     0
  1
0.261799
  0
DICTIONARYVAR
  5
4340
102
{ACAD_REACTORS
330
C08
102
}
330
C08
100
DictionaryVariables
280
     0
  1
0.400000
  0
DICTIONARYVAR
  5
4341
102
{ACAD_REACTORS
330
C08
102
}
330
C08
100
DictionaryVariables
280
     0
  1
0.250000
  0
DICTIONARYVAR
  5
4343
102
{ACAD_REACTORS
330
C08
102
}
330
C08
100
DictionaryVariables
280
     0
  1
1
  0
XRECORD
  5
870
102
{ACAD_REACTORS
330
2E2
102
}
330
2E2
100
AcDbXrecord
280
     1
 91
     1023
301

290
     0
302
MODEL
330
14
 90
        8
 62
     7
370
    -3
331
13
  1
Color_7
330
4A
 90
        0
 62
     7
370
     9
331
13
  1
Color_7
330
4B
 90
        8
 62
     7
370
    -3
331
13
  1
Color_7
330
0
 90
        8
 62
     7
370
    -3
331
13
  1
Color_7
330
4D
 90
        9
 62
     7
370
    -3
331
13
  1
Color_7
330
382
 90
        8
 62
     7
370
    -3
331
13
  1
Color_7
330
5C4
 90
        8
 62
     7
370
     9
331
0
  1
Color_7
330
5EB
 90
        8
 62
     7
370
     9
331
13
  1
Color_7
330
0
 90
        8
 62
     7
370
    -3
331
13
  1
Color_7
  0
FIELD
  5
BDE
102
{ACAD_REACTORS
330
BE4
102
}
330
BE4
100
AcDbField
  1
_text
  2
{%<\_FldIdx 0>%N}
 90
        1
360
BDF
 97
        0
 91
       63
 92
        0
 94
        8
 95
        2
 96
        0
300

 93
        1
  6
ACFD_FIELDTEXT_CHECKSUM
 93
        2
 90
        2
140
4514.0
 94
        0
300

302

304
ACVALUE_END
  7
ACFD_FIELD_VALUE
 93
        6
 90
        4
  1
{20161018N}
 94
        0
300

302

304
ACVALUE_END
301
{20161018N}
 98
       11
  0
DICTIONARY
  5
436B
330
279
100
AcDbDictionary
280
     1
281
     1
  3
ACAD_ROUNDTRIP_2008_TABLESTYLE_CELLSTYLEMAP
360
436C
  0
FIELD
  5
BDF
330
BDE
100
AcDbField
  1
AcVar
  2
\AcVar Date \f "yyyyMMdd"
 90
        0
 97
        0
 91
       63
 92
        0
 94
        8
 95
        2
 96
        0
300

 93
        1
  6
Variable
 93
        2
 90
        4
  1
Date
 94
        0
300

302

304
ACVALUE_END
  7
ACFD_FIELD_VALUE
 93
        6
 90
        8
 92
       16
310
E0070A000000120005000F001C000000
 94
        0
300
yyyyMMdd
302

304
ACVALUE_END
301
20161018
 98
        8
  0
CELLSTYLEMAP
  5
436C
102
{ACAD_REACTORS
330
436B
102
}
330
436B
100
AcDbCellStyleMap
 90
        3
300
CELLSTYLE
  1
TABLEFORMAT_BEGIN
 90
        5
170
     1
 91
        0
 92
    32768
 62
   257
 93
        1
300
CONTENTFORMAT
  1
CONTENTFORMAT_BEGIN
 90
        0
 91
        0
 92
        4
 93
        0
300

 40
0.0
140
1.0
 94
        5
 62
     0
340
17
144
6.0
309
CONTENTFORMAT_END
171
     1
301
MARGIN
  1
CELLMARGIN_BEGIN
 40
0.06
 40
0.06
 40
0.06
 40
0.06
 40
0.18
 40
0.18
309
CELLMARGIN_END
 94
        6
 95
        1
302
GRIDFORMAT
  1
GRIDFORMAT_BEGIN
 90
        0
 91
        1
 62
     0
 92
       -2
340
0
 93
        0
 40
0.045
309
GRIDFORMAT_END
 95
        2
302
GRIDFORMAT
  1
GRIDFORMAT_BEGIN
 90
        0
 91
        1
 62
     0
 92
       -2
340
0
 93
        0
 40
0.045
309
GRIDFORMAT_END
 95
        4
302
GRIDFORMAT
  1
GRIDFORMAT_BEGIN
 90
        0
 91
        1
 62
     0
 92
       -2
340
0
 93
        0
 40
0.045
309
GRIDFORMAT_END
 95
        8
302
GRIDFORMAT
  1
GRIDFORMAT_BEGIN
 90
        0
 91
        1
 62
     0
 92
       -2
340
0
 93
        0
 40
0.045
309
GRIDFORMAT_END
 95
       16
302
GRIDFORMAT
  1
GRIDFORMAT_BEGIN
 90
        0
 91
        1
 62
     0
 92
       -2
340
0
 93
        0
 40
0.045
309
GRIDFORMAT_END
 95
       32
302
GRIDFORMAT
  1
GRIDFORMAT_BEGIN
 90
        0
 91
        1
 62
     0
 92
       -2
340
0
 93
        0
 40
0.045
309
GRIDFORMAT_END
309
TABLEFORMAT_END
  1
CELLSTYLE_BEGIN
 90
        1
 91
        1
300
_TITLE
309
CELLSTYLE_END
300
CELLSTYLE
  1
TABLEFORMAT_BEGIN
 90
        5
170
     1
 91
        0
 92
        0
 62
   257
 93
        1
300
CONTENTFORMAT
  1
CONTENTFORMAT_BEGIN
 90
        0
 91
        0
 92
        4
 93
        0
300

 40
0.0
140
1.0
 94
        5
 62
     0
340
17
144
4.5
309
CONTENTFORMAT_END
171
     1
301
MARGIN
  1
CELLMARGIN_BEGIN
 40
0.06
 40
0.06
 40
0.06
 40
0.06
 40
0.18
 40
0.18
309
CELLMARGIN_END
 94
        6
 95
        1
302
GRIDFORMAT
  1
GRIDFORMAT_BEGIN
 90
        0
 91
        1
 62
     0
 92
       -2
340
0
 93
        0
 40
0.045
309
GRIDFORMAT_END
 95
        2
302
GRIDFORMAT
  1
GRIDFORMAT_BEGIN
 90
        0
 91
        1
 62
     0
 92
       -2
340
0
 93
        0
 40
0.045
309
GRIDFORMAT_END
 95
        4
302
GRIDFORMAT
  1
GRIDFORMAT_BEGIN
 90
        0
 91
        1
 62
     0
 92
       -2
340
0
 93
        0
 40
0.045
309
GRIDFORMAT_END
 95
        8
302
GRIDFORMAT
  1
GRIDFORMAT_BEGIN
 90
        0
 91
        1
 62
     0
 92
       -2
340
0
 93
        0
 40
0.045
309
GRIDFORMAT_END
 95
       16
302
GRIDFORMAT
  1
GRIDFORMAT_BEGIN
 90
        0
 91
        1
 62
     0
 92
       -2
340
0
 93
        0
 40
0.045
309
GRIDFORMAT_END
 95
       32
302
GRIDFORMAT
  1
GRIDFORMAT_BEGIN
 90
        0
 91
        1
 62
     0
 92
       -2
340
0
 93
        0
 40
0.045
309
GRIDFORMAT_END
309
TABLEFORMAT_END
  1
CELLSTYLE_BEGIN
 90
        2
 91
        1
300
_HEADER
309
CELLSTYLE_END
300
CELLSTYLE
  1
TABLEFORMAT_BEGIN
 90
        5
170
     1
 91
        0
 92
        0
 62
   257
 93
        1
300
CONTENTFORMAT
  1
CONTENTFORMAT_BEGIN
 90
        0
 91
        0
 92
        4
 93
        0
300

 40
0.0
140
1.0
 94
        2
 62
     0
340
17
144
4.5
309
CONTENTFORMAT_END
171
     1
301
MARGIN
  1
CELLMARGIN_BEGIN
 40
0.06
 40
0.06
 40
0.06
 40
0.06
 40
0.18
 40
0.18
309
CELLMARGIN_END
 94
        6
 95
        1
302
GRIDFORMAT
  1
GRIDFORMAT_BEGIN
 90
        0
 91
        1
 62
     0
 92
       -2
340
0
 93
        0
 40
0.045
309
GRIDFORMAT_END
 95
        2
302
GRIDFORMAT
  1
GRIDFORMAT_BEGIN
 90
        0
 91
        1
 62
     0
 92
       -2
340
0
 93
        0
 40
0.045
309
GRIDFORMAT_END
 95
        4
302
GRIDFORMAT
  1
GRIDFORMAT_BEGIN
 90
        0
 91
        1
 62
     0
 92
       -2
340
0
 93
        0
 40
0.045
309
GRIDFORMAT_END
 95
        8
302
GRIDFORMAT
  1
GRIDFORMAT_BEGIN
 90
        0
 91
        1
 62
     0
 92
       -2
340
0
 93
        0
 40
0.045
309
GRIDFORMAT_END
 95
       16
302
GRIDFORMAT
  1
GRIDFORMAT_BEGIN
 90
        0
 91
        1
 62
     0
 92
       -2
340
0
 93
        0
 40
0.045
309
GRIDFORMAT_END
 95
       32
302
GRIDFORMAT
  1
GRIDFORMAT_BEGIN
 90
        0
 91
        1
 62
     0
 92
       -2
340
0
 93
        0
 40
0.045
309
GRIDFORMAT_END
309
TABLEFORMAT_END
  1
CELLSTYLE_BEGIN
 90
        3
 91
        2
300
_DATA
309
CELLSTYLE_END
  0
ENDSEC
  0
EOF
