  0
SECTION
  2
HEADER
  9
$ACADVER
  1
AC1021
  9
$ACADMAINTVER
 70
    25
  9
$DWGCODEPAGE
  3
ANSI_932
  9
$LASTSAVEDBY
  1
howeNelson
  9
$INSBASE
 10
0.0
 20
0.0
 30
0.0
  9
$EXTMIN
 10
0.0
 20
0.0
 30
0.0
  9
$EXTMAX
 10
2100.0
 20
2970.0
 30
34.99521132346015
  9
$LIMMIN
 10
0.0
 20
0.0
  9
$LIMMAX
 10
2100.0
 20
2970.0
  9
$ORTHOMODE
 70
     0
  9
$REGENMODE
 70
     1
  9
$FILLMODE
 70
     1
  9
$QTEXTMODE
 70
     0
  9
$MIRRTEXT
 70
     1
  9
$LTSCALE
 40
5.0
  9
$ATTMODE
 70
     1
  9
$TEXTSIZE
 40
533.0403732820173
  9
$TRACEWID
 40
1.0
  9
$TEXTSTYLE
  7
Standard
  9
$CLAYER
  8
Dim
  9
$CELTYPE
  6
ByLayer
  9
$CECOLOR
 62
   256
  9
$CELTSCALE
 40
1.0
  9
$DISPSILH
 70
     0
  9
$DIMSCALE
 40
1.0
  9
$DIMASZ
 40
9.999389648437498
  9
$DIMEXO
 40
25.0
  9
$DIMDLI
 40
0.9999999999999999
  9
$DIMRND
 40
0.0
  9
$DIMDLE
 40
0.0
  9
$DIMEXE
 40
0.0
  9
$DIMTP
 40
0.0
  9
$DIMTM
 40
0.0
  9
$DIMTXT
 40
24.4326171875
  9
$DIMCEN
 40
0.0
  9
$DIMTSZ
 40
0.0
  9
$DIMTOL
 70
     0
  9
$DIMLIM
 70
     0
  9
$DIMTIH
 70
     0
  9
$DIMTOH
 70
     0
  9
$DIMSE1
 70
     0
  9
$DIMSE2
 70
     0
  9
$DIMTAD
 70
     1
  9
$DIMZIN
 70
    11
  9
$DIMBLK
  1
DOT
  9
$DIMASO
 70
     1
  9
$DIMSHO
 70
     1
  9
$DIMPOST
  1
<>
  9
$DIMAPOST
  1
[]
  9
$DIMALT
 70
     0
  9
$DIMALTD
 70
     1
  9
$DIMALTF
 40
1.0
  9
$DIMLFAC
 40
1.0
  9
$DIMTOFL
 70
     1
  9
$DIMTVP
 40
0.0
  9
$DIMTIX
 70
     1
  9
$DIMSOXD
 70
     0
  9
$DIMSAH
 70
     0
  9
$DIMBLK1
  1

  9
$DIMBLK2
  1

  9
$DIMSTYLE
  2
tform線あり
  9
$DIMCLRD
 70
     0
  9
$DIMCLRE
 70
     0
  9
$DIMCLRT
 70
     0
  9
$DIMTFAC
 40
0.8
  9
$DIMGAP
 40
10.0
  9
$DIMJUST
 70
     0
  9
$DIMSD1
 70
     0
  9
$DIMSD2
 70
     0
  9
$DIMTOLJ
 70
     1
  9
$DIMTZIN
 70
    11
  9
$DIMALTZ
 70
    11
  9
$DIMALTTZ
 70
    11
  9
$DIMUPT
 70
     0
  9
$DIMDEC
 70
     1
  9
$DIMTDEC
 70
     1
  9
$DIMALTU
 70
     2
  9
$DIMALTTD
 70
     2
  9
$DIMTXSTY
  7
ＭＳ ゴシック
  9
$DIMAUNIT
 70
     0
  9
$DIMADEC
 70
     2
  9
$DIMALTRND
 40
0.0
  9
$DIMAZIN
 70
     0
  9
$DIMDSEP
 70
    46
  9
$DIMATFIT
 70
     0
  9
$DIMFRAC
 70
     2
  9
$DIMLDRBLK
  1
DOT
  9
$DIMLUNIT
 70
     2
  9
$DIMLWD
 70
    -2
  9
$DIMLWE
 70
    -2
  9
$DIMTMOVE
 70
     0
  9
$DIMFXL
 40
1.0
  9
$DIMFXLON
 70
     0
  9
$DIMJOGANG
 40
0.7853981633974483
  9
$DIMTFILL
 70
     0
  9
$DIMTFILLCLR
 70
     0
  9
$DIMARCSYM
 70
     0
  9
$DIMLTYPE
  6

  9
$DIMLTEX1
  6

  9
$DIMLTEX2
  6

  9
$LUNITS
 70
     2
  9
$LUPREC
 70
     0
  9
$SKETCHINC
 40
0.1
  9
$FILLETRAD
 40
0.0
  9
$AUNITS
 70
     0
  9
$AUPREC
 70
     0
  9
$MENU
  1
acad
  9
$ELEVATION
 40
0.0
  9
$PELEVATION
 40
0.0
  9
$THICKNESS
 40
0.0
  9
$LIMCHECK
 70
     0
  9
$CHAMFERA
 40
0.0
  9
$CHAMFERB
 40
0.0
  9
$CHAMFERC
 40
0.0
  9
$CHAMFERD
 40
0.0
  9
$SKPOLY
 70
     0
  9
$TDCREATE
 40
2447893.375
  9
$TDUCREATE
 40
0.0
  9
$TDUPDATE
 40
2457855.614331493
  9
$TDUUPDATE
 40
2457855.239331493
  9
$TDINDWG
 40
0.0063598148
  9
$TDUSRTIMER
 40
2457855.237628461
  9
$USRTIMER
 70
     1
  9
$ANGBASE
 50
0.0
  9
$ANGDIR
 70
     0
  9
$PDMODE
 70
     1
  9
$PDSIZE
 40
-2.0
  9
$PLINEWID
 40
0.0
  9
$SPLFRAME
 70
     0
  9
$SPLINETYPE
 70
     6
  9
$SPLINESEGS
 70
     8
  9
$HANDSEED
  5
4FEC
  9
$SURFTAB1
 70
     6
  9
$SURFTAB2
 70
     6
  9
$SURFTYPE
 70
     6
  9
$SURFU
 70
     6
  9
$SURFV
 70
     6
  9
$UCSBASE
  2

  9
$UCSNAME
  2

  9
$UCSORG
 10
0.0
 20
0.0
 30
0.0
  9
$UCSXDIR
 10
1.0
 20
0.0
 30
0.0
  9
$UCSYDIR
 10
0.0
 20
1.0
 30
0.0
  9
$UCSORTHOREF
  2

  9
$UCSORTHOVIEW
 70
     0
  9
$UCSORGTOP
 10
0.0
 20
0.0
 30
0.0
  9
$UCSORGBOTTOM
 10
0.0
 20
0.0
 30
0.0
  9
$UCSORGLEFT
 10
0.0
 20
0.0
 30
0.0
  9
$UCSORGRIGHT
 10
0.0
 20
0.0
 30
0.0
  9
$UCSORGFRONT
 10
0.0
 20
0.0
 30
0.0
  9
$UCSORGBACK
 10
0.0
 20
0.0
 30
0.0
  9
$PUCSBASE
  2

  9
$PUCSNAME
  2

  9
$PUCSORG
 10
0.0
 20
0.0
 30
0.0
  9
$PUCSXDIR
 10
1.0
 20
0.0
 30
0.0
  9
$PUCSYDIR
 10
0.0
 20
1.0
 30
0.0
  9
$PUCSORTHOREF
  2

  9
$PUCSORTHOVIEW
 70
     0
  9
$PUCSORGTOP
 10
0.0
 20
0.0
 30
0.0
  9
$PUCSORGBOTTOM
 10
0.0
 20
0.0
 30
0.0
  9
$PUCSORGLEFT
 10
0.0
 20
0.0
 30
0.0
  9
$PUCSORGRIGHT
 10
0.0
 20
0.0
 30
0.0
  9
$PUCSORGFRONT
 10
0.0
 20
0.0
 30
0.0
  9
$PUCSORGBACK
 10
0.0
 20
0.0
 30
0.0
  9
$USERI1
 70
     0
  9
$USERI2
 70
     0
  9
$USERI3
 70
     0
  9
$USERI4
 70
     0
  9
$USERI5
 70
     0
  9
$USERR1
 40
0.0
  9
$USERR2
 40
0.0
  9
$USERR3
 40
0.0
  9
$USERR4
 40
0.0
  9
$USERR5
 40
0.0
  9
$WORLDVIEW
 70
     1
  9
$SHADEDGE
 70
     3
  9
$SHADEDIF
 70
    70
  9
$TILEMODE
 70
     1
  9
$MAXACTVP
 70
    64
  9
$PINSBASE
 10
0.0
 20
0.0
 30
0.0
  9
$PLIMCHECK
 70
     0
  9
$PEXTMIN
 10
0.0
 20
0.0
 30
0.0
  9
$PEXTMAX
 10
0.0
 20
0.0
 30
0.0
  9
$PLIMMIN
 10
-95.87226993865028
 20
-25.69999999999999
  9
$PLIMMAX
 10
201.1277300613497
 20
184.3
  9
$UNITMODE
 70
     0
  9
$VISRETAIN
 70
     0
  9
$PLINEGEN
 70
     1
  9
$PSLTSCALE
 70
     0
  9
$TREEDEPTH
 70
  3020
  9
$CMLSTYLE
  2
Standard
  9
$CMLJUST
 70
     0
  9
$CMLSCALE
 40
1.0
  9
$PROXYGRAPHICS
 70
     0
  9
$MEASUREMENT
 70
     1
  9
$CELWEIGHT
370
    -1
  9
$ENDCAPS
280
     0
  9
$JOINSTYLE
280
     0
  9
$LWDISPLAY
290
     1
  9
$INSUNITS
 70
     4
  9
$HYPERLINKBASE
  1

  9
$STYLESHEET
  1

  9
$XEDIT
290
     1
  9
$CEPSNTYPE
380
     0
  9
$PSTYLEMODE
290
     1
  9
$FINGERPRINTGUID
  2

  9
$VERSIONGUID
  2

  9
$EXTNAMES
290
     1
  9
$PSVPSCALE
 40
0.0
  9
$OLESTARTUP
290
     0
  9
$SORTENTS
280
   127
  9
$INDEXCTL
280
     0
  9
$HIDETEXT
280
     1
  9
$XCLIPFRAME
290
     0
  9
$HALOGAP
280
     0
  9
$OBSCOLOR
 70
   257
  9
$OBSLTYPE
280
     0
  9
$INTERSECTIONDISPLAY
280
     0
  9
$INTERSECTIONCOLOR
 70
   257
  9
$DIMASSOC
280
     2
  9
$PROJECTNAME
  1

  9
$CAMERADISPLAY
290
     0
  9
$LENSLENGTH
 40
50.0
  9
$CAMERAHEIGHT
 40
0.0
  9
$STEPSPERSEC
 40
2.0
  9
$STEPSIZE
 40
6.0
  9
$3DDWFPREC
 40
2.0
  9
$PSOLWIDTH
 40
0.25
  9
$PSOLHEIGHT
 40
4.0
  9
$LOFTANG1
 40
1.570796326794897
  9
$LOFTANG2
 40
1.570796326794897
  9
$LOFTMAG1
 40
0.0
  9
$LOFTMAG2
 40
0.0
  9
$LOFTPARAM
 70
     7
  9
$LOFTNORMALS
280
     1
  9
$LATITUDE
 40
37.795
  9
$LONGITUDE
 40
-122.394
  9
$NORTHDIRECTION
 40
0.0
  9
$TIMEZONE
 70
 -8000
  9
$LIGHTGLYPHDISPLAY
280
     1
  9
$TILEMODELIGHTSYNCH
280
     1
  9
$SOLIDHIST
280
     1
  9
$SHOWHIST
280
     1
  9
$DWFFRAME
280
     2
  9
$DGNFRAME
280
     2
  9
$REALWORLDSCALE
290
     1
  9
$INTERFERECOLOR
 62
   256
  9
$CSHADOW
280
     0
  9
$SHADOWPLANELOCATION
 40
0.0
  0
ENDSEC
  0
SECTION
  2
CLASSES
  0
CLASS
  1
LWPOLYLINE
  2
AcDbPolyline
  3
ObjectDBX Classes
 90
        0
 91
        1
280
     0
281
     1
  0
CLASS
  1
IMAGE
  2
AcDbRasterImage
  3
ISM
 90
      127
 91
        5
280
     0
281
     1
  0
CLASS
  1
OLE2FRAME
  2
AcDbOle2Frame
  3
ObjectDBX Classes
 90
        0
 91
        1
280
     0
281
     1
  0
CLASS
  1
HATCH
  2
AcDbHatch
  3
ObjectDBX Classes
 90
        0
 91
        1
280
     0
281
     1
  0
CLASS
  1
DICTIONARYVAR
  2
AcDbDictionaryVar
  3
ObjectDBX Classes
 90
        0
 91
        4
280
     0
281
     0
  0
CLASS
  1
RASTERVARIABLES
  2
AcDbRasterVariables
  3
ISM
 90
        0
 91
        4
280
     0
281
     0
  0
CLASS
  1
IMAGEDEF
  2
AcDbRasterImageDef
  3
ISM
 90
        0
 91
        4
280
     0
281
     0
  0
CLASS
  1
IMAGEDEF_REACTOR
  2
AcDbRasterImageDefReactor
  3
ISM
 90
        1
 91
        4
280
     0
281
     0
  0
CLASS
  1
IDBUFFER
  2
AcDbIdBuffer
  3
ObjectDBX Classes
 90
        0
 91
        4
280
     0
281
     0
  0
CLASS
  1
SPATIAL_FILTER
  2
AcDbSpatialFilter
  3
ObjectDBX Classes
 90
        0
 91
        4
280
     0
281
     0
  0
CLASS
  1
XRECORD
  2
AcDbXrecord
  3
ObjectDBX Classes
 90
        0
 91
        1
280
     0
281
     0
  0
CLASS
  1
SORTENTSTABLE
  2
AcDbSortentsTable
  3
ObjectDBX Classes
 90
        0
 91
        4
280
     0
281
     0
  0
CLASS
  1
LAYER_INDEX
  2
AcDbLayerIndex
  3
ObjectDBX Classes
 90
        0
 91
        4
280
     0
281
     0
  0
CLASS
  1
SPATIAL_INDEX
  2
AcDbSpatialIndex
  3
AutoCAD 2000
 90
        0
 91
        4
280
     0
281
     0
  0
CLASS
  1
OBJECT_PTR
  2
CAseDLPNTableRecord
  3
ASE-LPNTableRecord
 90
        1
 91
        4
280
     0
281
     0
  0
CLASS
  1
LAYOUT
  2
AcDbLayout
  3
ObjectDBX Classes
 90
        0
 91
        1
280
     0
281
     0
  0
CLASS
  1
PLOTSETTINGS
  2
AcDbPlotSettings
  3
ObjectDBX Classes
 90
        0
 91
        4
280
     0
281
     0
  0
CLASS
  1
ACDBDICTIONARYWDFLT
  2
AcDbDictionaryWithDefault
  3
ObjectDBX Classes
 90
        0
 91
        4
280
     0
281
     0
  0
CLASS
  1
ACDBPLACEHOLDER
  2
AcDbPlaceHolder
  3
ObjectDBX Classes
 90
        0
 91
        1
280
     0
281
     0
  0
CLASS
  1
SCALE
  2
AcDbScale
  3
ObjectDBX Classes
 90
     1153
 91
        4
280
     0
281
     0
  0
CLASS
  1
MATERIAL
  2
AcDbMaterial
  3
ObjectDBX Classes
 90
     1153
 91
        4
280
     0
281
     0
  0
CLASS
  1
VISUALSTYLE
  2
AcDbVisualStyle
  3
ObjectDBX Classes
 90
     4095
 91
        4
280
     0
281
     0
  0
CLASS
  1
TABLESTYLE
  2
AcDbTableStyle
  3
ObjectDBX Classes
 90
     4095
 91
        4
280
     0
281
     0
  0
CLASS
  1
DIMASSOC
  2
AcDbDimAssoc
  3
"AcDbDimAssoc|Product Desc:     AcDim ARX App For Dimension|Company:          Autodesk, Inc.|WEB Address:      www.autodesk.com"
 90
        0
 91
        4
280
     0
281
     0
  0
CLASS
  1
CELLSTYLEMAP
  2
AcDbCellStyleMap
  3
ObjectDBX Classes
 90
     1152
 91
        4
280
     0
281
     0
  0
CLASS
  1
SUN
  2
AcDbSun
  3
SCENEOE
 90
     1153
 91
        4
280
     0
281
     0
  0
CLASS
  1
MLEADERSTYLE
  2
AcDbMLeaderStyle
  3
ACDB_MLEADERSTYLE_CLASS
 90
     4095
 91
        4
280
     0
281
     0
  0
CLASS
  1
FIELD
  2
AcDbField
  3
ObjectDBX Classes
 90
     1152
 91
        4
280
     0
281
     0
  0
CLASS
  1
FIELDLIST
  2
AcDbFieldList
  3
ObjectDBX Classes
 90
     1152
 91
        4
280
     0
281
     0
  0
CLASS
  1
ACDB_ALDIMOBJECTCONTEXTDATA_CLASS
  2
AcDbAlignedDimensionObjectContextData
  3
ObjectDBX Classes
 90
     1153
 91
        4
280
     0
281
     0
  0
ENDSEC
  0
SECTION
  2
TABLES
  0
TABLE
  2
VPORT
  5
7
330
0
100
AcDbSymbolTable
 70
     1
  0
VPORT
  5
15
330
7
100
AcDbSymbolTableRecord
100
AcDbViewportTableRecord
  2
*ACTIVE
 70
     0
 10
0.0
 20
0.0
 11
1.0
 21
1.0
 12
672.9525617540362
 22
1782.612370234517
 13
0.0
 23
0.0
 14
1.0
 24
1.0
 15
0.0
 25
0.0
 16
0.0
 26
0.0
 36
1.0
 17
377.0474382459638
 27
-297.6123702345167
 37
0.0
 40
3029.4
 41
2.295518207282913
 42
50.0
 43
0.0
 44
0.0
 50
0.0
 51
0.0
 71
    16
 72
  2000
 73
     1
 74
     1
 75
     0
 76
     0
 77
     0
 78
     0
281
     0
 65
     1
110
0.0
120
0.0
130
0.0
111
1.0
121
0.0
131
0.0
112
0.0
122
1.0
132
0.0
 79
     0
146
0.0
348
26C
 60
     3
 61
     5
292
     1
282
     1
141
0.0
142
0.0
 63
   256
361
8C2
  0
ENDTAB
  0
TABLE
  2
LTYPE
  5
4
330
0
100
AcDbSymbolTable
 70
     5
  0
LTYPE
  5
11
330
4
100
AcDbSymbolTableRecord
100
AcDbLinetypeTableRecord
  2
ByBlock
 70
     0
  3

 72
    65
 73
     0
 40
0.0
  0
LTYPE
  5
12
330
4
100
AcDbSymbolTableRecord
100
AcDbLinetypeTableRecord
  2
ByLayer
 70
     0
  3

 72
    65
 73
     0
 40
0.0
  0
LTYPE
  5
13
330
4
100
AcDbSymbolTableRecord
100
AcDbLinetypeTableRecord
  2
Continuous
 70
     0
  3
Solid line
 72
    65
 73
     0
 40
0.0
  0
LTYPE
  5
8D4
330
4
100
AcDbSymbolTableRecord
100
AcDbLinetypeTableRecord
  2
HIDDEN
 70
     0
  3
Hidden _ _ _ _ _ _ _ _ _ _ _ _ _ _ _ _ _ _ _ _ 
 72
    65
 73
     2
 40
9.524999999999999
 49
6.35
 74
     0
 49
-3.175
 74
     0
  0
LTYPE
  5
BF2
330
4
100
AcDbSymbolTableRecord
100
AcDbLinetypeTableRecord
  2
BORDER
 70
     0
  3
Border __  __  . __  __  . __  __  . __  __  . 
 72
    65
 73
     6
 40
44.45
 49
12.7
 74
     0
 49
-6.35
 74
     0
 49
12.7
 74
     0
 49
-6.35
 74
     0
 49
0.0
 74
     0
 49
-6.35
 74
     0
  0
LTYPE
  5
4115
330
4
100
AcDbSymbolTableRecord
100
AcDbLinetypeTableRecord
  2
CENTER
 70
     0
  3
 Center _____  _  _____  _  _____  _  _____  _ 
 72
    65
 73
     4
 40
50.8
 49
31.75
 74
     0
 49
-6.35
 74
     0
 49
6.35
 74
     0
 49
-6.35
 74
     0
  0
ENDTAB
  0
TABLE
  2
LAYER
  5
2
102
{ACAD_XDICTIONARY
360
2E1
102
}
330
0
100
AcDbSymbolTable
 70
    13
  0
LAYER
  5
14
330
2
100
AcDbSymbolTableRecord
100
AcDbLayerTableRecord
  2
0
 70
     0
 62
     7
  6
Continuous
370
    -3
390
1D
347
266
  0
LAYER
  5
4A
330
2
100
AcDbSymbolTableRecord
100
AcDbLayerTableRecord
  2
Defpoints
 70
     0
 62
     7
  6
Continuous
290
     0
370
    20
390
1D
347
266
  0
LAYER
  5
4B
330
2
100
AcDbSymbolTableRecord
100
AcDbLayerTableRecord
  2
template
 70
     0
 62
     7
  6
Continuous
370
    20
390
1D
347
266
  0
LAYER
  5
4D
330
2
100
AcDbSymbolTableRecord
100
AcDbLayerTableRecord
  2
MODEL
 70
     0
 62
     7
  6
Continuous
370
    20
390
1D
347
266
  0
LAYER
  5
382
330
2
100
AcDbSymbolTableRecord
100
AcDbLayerTableRecord
  2
レイヤー 1
 70
     0
 62
     7
  6
Continuous
370
    -3
390
1D
347
266
  0
LAYER
  5
5C4
330
2
100
AcDbSymbolTableRecord
100
AcDbLayerTableRecord
  2
HIDDEN
 70
     0
 62
   253
  6
HIDDEN
370
    20
390
1D
347
266
1001
AcAecLayerStandard
1000

1000

  0
LAYER
  5
5EB
330
2
100
AcDbSymbolTableRecord
100
AcDbLayerTableRecord
  2
Dim
 70
     0
 62
     3
  6
Continuous
370
    13
390
1D
347
266
1001
AcAecLayerStandard
1000

1000

  0
LAYER
  5
BF1
330
2
100
AcDbSymbolTableRecord
100
AcDbLayerTableRecord
  2
PRINT BORDER
 70
     0
 62
     4
  6
BORDER
290
     0
370
    20
390
1D
347
266
1001
AcAecLayerStandard
1000

1000

  0
LAYER
  5
1BD2
330
2
100
AcDbSymbolTableRecord
100
AcDbLayerTableRecord
  2
retino
 70
     0
 62
   253
  6
Continuous
370
     0
390
1D
347
266
  0
ENDTAB
  0
TABLE
  2
STYLE
  5
3
330
0
100
AcDbSymbolTable
 70
     3
  0
STYLE
  5
17
330
3
100
AcDbSymbolTableRecord
100
AcDbTextStyleTableRecord
  2
Standard
 70
     0
 40
0.0
 41
1.0
 50
0.0
 71
     0
 42
533.0403732820173
  3
txt
  4
BIGFONT.SHX
  0
STYLE
  5
39
330
3
100
AcDbSymbolTableRecord
100
AcDbTextStyleTableRecord
  2
ＭＳ ゴシック
 70
     0
 40
0.0
 41
1.0
 50
0.0
 71
     0
 42
533.0403732820173
  3
msgothic.ttc
  4
ＭＳ ゴシック
1001
ACAD
1000
ＭＳ ゴシック
1071
        0
  0
ENDTAB
  0
TABLE
  2
VIEW
  5
5
330
0
100
AcDbSymbolTable
 70
     0
  0
ENDTAB
  0
TABLE
  2
UCS
  5
6
330
0
100
AcDbSymbolTable
 70
     0
  0
ENDTAB
  0
TABLE
  2
APPID
  5
8
330
0
100
AcDbSymbolTable
 70
    14
  0
APPID
  5
16
330
8
100
AcDbSymbolTableRecord
100
AcDbRegAppTableRecord
  2
ACAD
 70
     0
  0
APPID
  5
5C5
330
8
100
AcDbSymbolTableRecord
100
AcDbRegAppTableRecord
  2
AcAecLayerStandard
 70
     0
  0
APPID
  5
913
330
8
100
AcDbSymbolTableRecord
100
AcDbRegAppTableRecord
  2
ACAD_DSTYLE_DIMBREAK
 70
     0
  0
APPID
  5
914
330
8
100
AcDbSymbolTableRecord
100
AcDbRegAppTableRecord
  2
ACAD_DSTYLE_DIMJAG
 70
     0
  0
APPID
  5
915
330
8
100
AcDbSymbolTableRecord
100
AcDbRegAppTableRecord
  2
ACAD_DSTYLE_DIMTALN
 70
     0
  0
APPID
  5
E4F
330
8
100
AcDbSymbolTableRecord
100
AcDbRegAppTableRecord
  2
ACAD_MLEADERVER
 70
     0
  0
APPID
  5
E79
330
8
100
AcDbSymbolTableRecord
100
AcDbRegAppTableRecord
  2
ACAD_PSEXT
 70
     0
  0
APPID
  5
E7A
330
8
100
AcDbSymbolTableRecord
100
AcDbRegAppTableRecord
  2
ACAD_NAV_VCDISPLAY
 70
     0
  0
APPID
  5
166E
330
8
100
AcDbSymbolTableRecord
100
AcDbRegAppTableRecord
  2
AcadAnnotative
 70
     0
  0
APPID
  5
166F
330
8
100
AcDbSymbolTableRecord
100
AcDbRegAppTableRecord
  2
GradientColor1ACI
 70
     0
  0
APPID
  5
1670
330
8
100
AcDbSymbolTableRecord
100
AcDbRegAppTableRecord
  2
GradientColor2ACI
 70
     0
  0
APPID
  5
20FE
330
8
100
AcDbSymbolTableRecord
100
AcDbRegAppTableRecord
  2
AcLayerTools
 70
     0
  0
APPID
  5
27AB
330
8
100
AcDbSymbolTableRecord
100
AcDbRegAppTableRecord
  2
ACAD_DSTYLE_DIMRADIAL_EXTENSION
 70
     0
  0
APPID
  5
4377
330
8
100
AcDbSymbolTableRecord
100
AcDbRegAppTableRecord
  2
RAK
 70
     0
  0
ENDTAB
  0
TABLE
  2
DIMSTYLE
  5
9
330
0
100
AcDbSymbolTable
 70
     3
100
AcDbDimStyleTable
  0
DIMSTYLE
105
18
330
9
100
AcDbSymbolTableRecord
100
AcDbDimStyleTableRecord
  2
Standard
 70
     0
178
     0
340
17
  0
DIMSTYLE
105
56
102
{ACAD_REACTORS
330
4800
330
4948
330
4957
330
4964
330
498D
330
4A50
330
4A60
330
4A6F
330
4AB5
330
4AC4
330
4AD3
330
4B36
330
4B55
330
4B63
330
4B73
330
4B80
330
4BB4
330
4C1A
102
}
330
9
100
AcDbSymbolTableRecord
100
AcDbDimStyleTableRecord
  2
tform線あり
 70
     0
  3
<>
  4
[]
 41
9.999389648437498
 42
25.0
 43
0.9999999999999999
 44
0.0
 73
     0
 74
     0
 77
     1
 78
    11
140
24.4326171875
141
0.0
143
1.0
146
0.8
147
10.0
171
     1
172
     1
174
     1
178
     0
179
     2
271
     1
272
     1
276
     2
284
    11
285
    11
286
    11
289
     0
340
39
341
4E
342
4E
  0
ENDTAB
  0
TABLE
  2
BLOCK_RECORD
  5
1
330
0
100
AcDbSymbolTable
 70
    47
  0
BLOCK_RECORD
  5
A
330
1
100
AcDbSymbolTableRecord
100
AcDbBlockTableRecord
  2
*MODEL_SPACE
340
20
 70
     0
280
     1
281
     0
  0
BLOCK_RECORD
  5
B
330
1
100
AcDbSymbolTableRecord
100
AcDbBlockTableRecord
  2
*PAPER_SPACE
340
21
 70
     0
280
     1
281
     0
  0
BLOCK_RECORD
  5
4E
330
1
100
AcDbSymbolTableRecord
100
AcDbBlockTableRecord
  2
_DOT
340
0
102
{BLKREFS
331
48C9
331
48CA
331
4951
331
4952
331
495E
331
495F
331
496B
331
496C
331
4978
331
4979
331
4994
331
4995
331
4A57
331
4A58
331
4A69
331
4A6A
331
4A78
331
4A79
331
4ABE
331
4ABF
331
4ACD
331
4ACE
331
4ADC
331
4ADD
331
4B3D
331
4B3E
331
4B5C
331
4B5D
331
4B6B
331
4B6C
331
4B7A
331
4B7B
331
4B87
331
4B88
331
4BBD
331
4BBE
331
4C20
331
4C21
102
}
 70
     0
280
     1
281
     0
  0
BLOCK_RECORD
  5
3A5
330
1
100
AcDbSymbolTableRecord
100
AcDbBlockTableRecord
  2
名称未設定-1
340
0
102
{BLKREFS
331
3D0
102
}
 70
     1
280
     1
281
     0
  0
BLOCK_RECORD
  5
3A8
330
1
100
AcDbSymbolTableRecord
100
AcDbBlockTableRecord
  2
block 2
340
0
102
{BLKREFS
331
3A7
102
}
 70
     0
280
     1
281
     0
  0
BLOCK_RECORD
  5
3AB
330
1
100
AcDbSymbolTableRecord
100
AcDbBlockTableRecord
  2
block 3
340
0
102
{BLKREFS
331
3AA
102
}
 70
     0
280
     1
281
     0
  0
BLOCK_RECORD
  5
3AE
330
1
100
AcDbSymbolTableRecord
100
AcDbBlockTableRecord
  2
block 4
340
0
102
{BLKREFS
331
3AD
102
}
 70
     0
280
     1
281
     0
  0
BLOCK_RECORD
  5
3BD
330
1
100
AcDbSymbolTableRecord
100
AcDbBlockTableRecord
  2
block 5
340
0
102
{BLKREFS
331
3BC
102
}
 70
     0
280
     1
281
     0
  0
BLOCK_RECORD
  5
11F0
330
1
100
AcDbSymbolTableRecord
100
AcDbBlockTableRecord
  2
BLOCK_2
340
0
102
{BLKREFS
331
1273
331
127B
331
127C
102
}
 70
     0
280
     1
281
     0
  0
BLOCK_RECORD
  5
38B6
330
1
100
AcDbSymbolTableRecord
100
AcDbBlockTableRecord
  2
mobile_latù
340
0
310
2800000020000000200000000100080000000000000400000000000000000000000000000000000000000000000080000080000000808000800000008000800080800000C0C0C000C0DCC000F0CAA6000020400000206000002080000020A0000020C0000020E00000400000004020000040400000406000004080000040A0
310
000040C0000040E00000600000006020000060400000606000006080000060A0000060C0000060E00000800000008020000080400000806000008080000080A0000080C0000080E00000A0000000A0200000A0400000A0600000A0800000A0A00000A0C00000A0E00000C0000000C0200000C0400000C0600000C0800000C0
310
A00000C0C00000C0E00000E0000000E0200000E0400000E0600000E0800000E0A00000E0C00000E0E00040000000400020004000400040006000400080004000A0004000C0004000E00040200000402020004020400040206000402080004020A0004020C0004020E000404000004040200040404000404060004040800040
310
40A0004040C0004040E00040600000406020004060400040606000406080004060A0004060C0004060E00040800000408020004080400040806000408080004080A0004080C0004080E00040A0000040A0200040A0400040A0600040A0800040A0A00040A0C00040A0E00040C0000040C0200040C0400040C0600040C08000
310
40C0A00040C0C00040C0E00040E0000040E0200040E0400040E0600040E0800040E0A00040E0C00040E0E00080000000800020008000400080006000800080008000A0008000C0008000E00080200000802020008020400080206000802080008020A0008020C0008020E00080400000804020008040400080406000804080
310
008040A0008040C0008040E00080600000806020008060400080606000806080008060A0008060C0008060E00080800000808020008080400080806000808080008080A0008080C0008080E00080A0000080A0200080A0400080A0600080A0800080A0A00080A0C00080A0E00080C0000080C0200080C0400080C0600080C0
310
800080C0A00080C0C00080C0E00080E0000080E0200080E0400080E0600080E0800080E0A00080E0C00080E0E000C0000000C0002000C0004000C0006000C0008000C000A000C000C000C000E000C0200000C0202000C0204000C0206000C0208000C020A000C020C000C020E000C0400000C0402000C0404000C0406000C0
310
408000C040A000C040C000C040E000C0600000C0602000C0604000C0606000C0608000C060A000C060C000C060E000C0800000C0802000C0804000C0806000C0808000C080A000C080C000C080E000C0A00000C0A02000C0A04000C0A06000C0A08000C0A0A000C0A0C000C0A0E000C0C00000C0C02000C0C04000C0C06000
310
C0C08000C0C0A000F0FBFF00A4A0A000808080000000FF0000FF000000FFFF00FF000000FF00FF00FFFF0000FFFFFF0049494949494949494949494949494949494949494949494949494949494949494949494949494949494949494949494949494949494949494949494949494949494949494949494949494949494949
310
49494949494949494949494949494949494949494949494949494949494949494949494949494949494949494949494949494949494949494949494949494949494949494949494949494949494949494949FAFAFAFAFAFAFAFAFAFAFAFAFAFAFAFAFAFAFAFAFAFAFAFAFAFAFAFAFAFA4949FAFA4949494949494949494949
310
494949494949494949494949494949FAFA4949FAFA4949494949494949494949494949494949494949494949494949FAFA4949FAFA4949494949494949494949494949494949494949494949494949FAFA4949FAFA4949494949494949494949494949494949494949494949494949FAFA4949FAFA49494949494949494949
310
49494949494949494949494949494949FAFA4949FAFA4949494949494949494949494949494949494949494949494949FAFA4949FAFA4949494949494949494949494949494949494949494949494949FAFA4949FAFA4949494949494949494949494949494949494949494949494949FAFA4949FAFA494949494949494949
310
4949494949494949494949494949494949FAFA4949FAFA4949494949494949494949494949494949494949494949494949FAFA4949FAFA4949494949494949494949494949494949494949494949494949FAFA4949FAFA4949494949494949494949494949494949494949494949494949FAFA4949FAFA4949494949494949
310
494949494949494949494949494949494949FAFA4949FAFA4949494949494949494949494949494949494949494949494949FAFA4949FAFA4949494949494949494949494949494949494949494949494949FAFA4949FAFA4949494949494949494949494949494949494949494949494949FAFA4949FAFA49494949494949
310
49494949494949494949494949494949494949FAFA4949FAFAFAFAFAFAFAFAFAFAFAFAFAFAFAFAFAFAFAFAFAFAFAFAFAFAFAFAFAFA4949FAFAFAFAFAFAFAFAFAFAFAFAFAFAFAFAFAFAFAFAFAFAFAFAFAFAFAFAFAFA4949FAFA4949494949494949494949494949494949494949494949494949FAFA4949FAFAFAFAFAFAFAFA
310
FAFAFAFAFAFAFAFAFAFAFAFAFAFAFAFAFAFAFAFAFAFA494949494949494949494949494949494949494949494949494949494949494949494949494949494949494949494949494949494949494949494949494949494949494949494949494949494949494949494949494949494949494949494949494949494949494949
310
4949494949494949494949494949494949494949494949494949494949494949494949494949494949494949494949494949494949494949
102
{BLKREFS
331
3B99
331
467E
102
}
 70
     4
280
     1
281
     0
  0
BLOCK_RECORD
  5
48C3
330
1
100
AcDbSymbolTableRecord
100
AcDbBlockTableRecord
  2
*D8
340
0
 70
     0
280
     1
281
     0
  0
BLOCK_RECORD
  5
494B
330
1
100
AcDbSymbolTableRecord
100
AcDbBlockTableRecord
  2
*D9
340
0
 70
     0
280
     1
281
     0
  0
BLOCK_RECORD
  5
4958
330
1
100
AcDbSymbolTableRecord
100
AcDbBlockTableRecord
  2
*D10
340
0
 70
     0
280
     1
281
     0
  0
BLOCK_RECORD
  5
4965
330
1
100
AcDbSymbolTableRecord
100
AcDbBlockTableRecord
  2
*D11
340
0
 70
     0
280
     1
281
     0
  0
BLOCK_RECORD
  5
498E
330
1
100
AcDbSymbolTableRecord
100
AcDbBlockTableRecord
  2
*D13
340
0
 70
     0
280
     1
281
     0
  0
BLOCK_RECORD
  5
4A51
330
1
100
AcDbSymbolTableRecord
100
AcDbBlockTableRecord
  2
*D14
340
0
 70
     0
280
     1
281
     0
  0
BLOCK_RECORD
  5
4A63
330
1
100
AcDbSymbolTableRecord
100
AcDbBlockTableRecord
  2
*D15
340
0
 70
     0
280
     1
281
     0
  0
BLOCK_RECORD
  5
4A72
330
1
100
AcDbSymbolTableRecord
100
AcDbBlockTableRecord
  2
*D16
340
0
 70
     0
280
     1
281
     0
  0
BLOCK_RECORD
  5
4AB8
330
1
100
AcDbSymbolTableRecord
100
AcDbBlockTableRecord
  2
*D17
340
0
 70
     0
280
     1
281
     0
  0
BLOCK_RECORD
  5
4AC7
330
1
100
AcDbSymbolTableRecord
100
AcDbBlockTableRecord
  2
*D18
340
0
 70
     0
280
     1
281
     0
  0
BLOCK_RECORD
  5
4AD6
330
1
100
AcDbSymbolTableRecord
100
AcDbBlockTableRecord
  2
*D19
340
0
 70
     0
280
     1
281
     0
  0
BLOCK_RECORD
  5
4B37
330
1
100
AcDbSymbolTableRecord
100
AcDbBlockTableRecord
  2
*D20
340
0
 70
     0
280
     1
281
     0
  0
BLOCK_RECORD
  5
4B56
330
1
100
AcDbSymbolTableRecord
100
AcDbBlockTableRecord
  2
*D21
340
0
 70
     0
280
     1
281
     0
  0
BLOCK_RECORD
  5
4B64
330
1
100
AcDbSymbolTableRecord
100
AcDbBlockTableRecord
  2
*D22
340
0
 70
     0
280
     1
281
     0
  0
BLOCK_RECORD
  5
4B74
330
1
100
AcDbSymbolTableRecord
100
AcDbBlockTableRecord
  2
*D23
340
0
 70
     0
280
     1
281
     0
  0
BLOCK_RECORD
  5
4B81
330
1
100
AcDbSymbolTableRecord
100
AcDbBlockTableRecord
  2
*D24
340
0
 70
     0
280
     1
281
     0
  0
BLOCK_RECORD
  5
4BB7
330
1
100
AcDbSymbolTableRecord
100
AcDbBlockTableRecord
  2
*D25
340
0
 70
     0
280
     1
281
     0
  0
BLOCK_RECORD
  5
4C1B
330
1
100
AcDbSymbolTableRecord
100
AcDbBlockTableRecord
  2
*D26
340
0
 70
     0
280
     1
281
     0
  0
ENDTAB
  0
ENDSEC
  0
SECTION
  2
BLOCKS
  0
BLOCK
  5
D
330
A
100
AcDbEntity
  8
0
390
1D
100
AcDbBlockBegin
  2
*MODEL_SPACE
 70
     0
 10
0.0
 20
0.0
 30
0.0
  3
*MODEL_SPACE
  1
*MODEL_SPACE
  0
ENDBLK
  5
E
330
A
100
AcDbEntity
  8
0
390
1D
100
AcDbBlockEnd
  0
BLOCK
  5
F
330
B
100
AcDbEntity
 67
     1
  8
0
390
1D
100
AcDbBlockBegin
  2
*PAPER_SPACE
 70
     0
 10
0.0
 20
0.0
 30
0.0
  3
*PAPER_SPACE
  1
*PAPER_SPACE
  0
ENDBLK
  5
10
330
B
100
AcDbEntity
 67
     1
  8
0
390
1D
100
AcDbBlockEnd
  0
BLOCK
  5
2C14
330
4E
100
AcDbEntity
  8
0
390
1D
100
AcDbBlockBegin
  2
_DOT
 70
     0
 10
0.0
 20
0.0
 30
0.0
  3
_DOT
  1
_DOT
  0
POLYLINE
  5
2C16
330
4E
100
AcDbEntity
  8
0
  6
ByBlock
 62
     0
370
    -2
390
1D
100
AcDb2dPolyline
 66
     1
 10
0.0
 20
0.0
 30
0.0
 70
     1
 40
0.5
 41
0.5
  0
VERTEX
  5
2C17
330
2C16
100
AcDbEntity
  8
0
  6
ByBlock
 62
     0
370
    -2
390
1D
100
AcDbVertex
100
AcDb2dVertex
 10
-0.25
 20
0.0
 30
0.0
 42
1.0
  0
VERTEX
  5
2C18
330
2C16
100
AcDbEntity
  8
0
  6
ByBlock
 62
     0
370
    -2
390
1D
100
AcDbVertex
100
AcDb2dVertex
 10
0.25
 20
0.0
 30
0.0
 42
1.0
  0
SEQEND
  5
2C19
330
2C16
100
AcDbEntity
  8
0
390
1D
  0
LINE
  5
2C1A
330
4E
100
AcDbEntity
  8
0
  6
ByBlock
 62
     0
370
    -2
390
1D
100
AcDbLine
 10
-0.5
 20
0.0
 30
0.0
 11
-1.0
 21
0.0
 31
0.0
  0
ENDBLK
  5
2C1B
330
4E
100
AcDbEntity
  8
0
390
1D
100
AcDbBlockEnd
  0
BLOCK
  5
3A6
330
3A5
100
AcDbEntity
  8
0
100
AcDbBlockBegin
  2
名称未設定-1
 70
     0
 10
0.0
 20
0.0
 30
0.0
  3
名称未設定-1
  1
名称未設定-1
  0
INSERT
  5
3A7
330
3A5
100
AcDbEntity
  8
レイヤー 1
100
AcDbBlockReference
  2
block 2
 10
0.0
 20
0.0
 30
0.0
  0
ENDBLK
  5
3CC
330
3A5
100
AcDbEntity
  8
0
100
AcDbBlockEnd
  0
BLOCK
  5
3A9
330
3A8
100
AcDbEntity
  8
0
100
AcDbBlockBegin
  2
block 2
 70
     0
 10
0.0
 20
0.0
 30
0.0
  3
block 2
  1
block 2
  0
INSERT
  5
3AA
330
3A8
100
AcDbEntity
  8
レイヤー 1
100
AcDbBlockReference
  2
block 3
 10
0.0
 20
0.0
 30
0.0
  0
ENDBLK
  5
3CB
330
3A8
100
AcDbEntity
  8
0
100
AcDbBlockEnd
  0
BLOCK
  5
3AC
330
3AB
100
AcDbEntity
  8
0
100
AcDbBlockBegin
  2
block 3
 70
     0
 10
0.0
 20
0.0
 30
0.0
  3
block 3
  1
block 3
  0
INSERT
  5
3AD
330
3AB
100
AcDbEntity
  8
レイヤー 1
100
AcDbBlockReference
  2
block 4
 10
0.0
 20
0.0
 30
0.0
  0
ENDBLK
  5
3CA
330
3AB
100
AcDbEntity
  8
0
100
AcDbBlockEnd
  0
BLOCK
  5
3AF
330
3AE
100
AcDbEntity
  8
0
100
AcDbBlockBegin
  2
block 4
 70
     0
 10
0.0
 20
0.0
 30
0.0
  3
block 4
  1
block 4
  0
POLYLINE
  5
3B0
330
3AE
100
AcDbEntity
  8
レイヤー 1
370
     0
100
AcDb2dPolyline
 66
     1
 10
0.0
 20
0.0
 30
0.0
  0
VERTEX
  5
3B1
330
3B0
100
AcDbEntity
  8
レイヤー 1
370
     0
100
AcDbVertex
100
AcDb2dVertex
 10
83.79545727667795
 20
167.6444858234922
 30
0.0
  0
VERTEX
  5
3B2
330
3B0
100
AcDbEntity
  8
レイヤー 1
370
     0
100
AcDbVertex
100
AcDb2dVertex
 10
83.79545727667795
 20
159.7968976406313
 30
0.0
  0
VERTEX
  5
3B3
330
3B0
100
AcDbEntity
  8
レイヤー 1
370
     0
100
AcDbVertex
100
AcDb2dVertex
 10
71.3631329975216
 20
159.7968976406313
 30
0.0
  0
VERTEX
  5
3B4
330
3B0
100
AcDbEntity
  8
レイヤー 1
370
     0
100
AcDbVertex
100
AcDb2dVertex
 10
71.3631329975216
 20
127.8027915271048
 30
0.0
  0
VERTEX
  5
3B5
330
3B0
100
AcDbEntity
  8
レイヤー 1
370
     0
100
AcDbVertex
100
AcDb2dVertex
 10
60.43011526263018
 20
127.8027915271048
 30
0.0
  0
VERTEX
  5
3B6
330
3B0
100
AcDbEntity
  8
レイヤー 1
370
     0
100
AcDbVertex
100
AcDb2dVertex
 10
60.43011526263018
 20
159.7968976406313
 30
0.0
  0
VERTEX
  5
3B7
330
3B0
100
AcDbEntity
  8
レイヤー 1
370
     0
100
AcDbVertex
100
AcDb2dVertex
 10
48.21793273020759
 20
159.7968976406313
 30
0.0
  0
VERTEX
  5
3B8
330
3B0
100
AcDbEntity
  8
レイヤー 1
370
     0
100
AcDbVertex
100
AcDb2dVertex
 10
48.21793273020759
 20
167.6444858234922
 30
0.0
  0
VERTEX
  5
3B9
330
3B0
100
AcDbEntity
  8
レイヤー 1
370
     0
100
AcDbVertex
100
AcDb2dVertex
 10
83.79545727667795
 20
167.6444858234922
 30
0.0
  0
SEQEND
  5
3BA
330
3B0
100
AcDbEntity
  8
レイヤー 1
370
     0
  0
HATCH
  5
3BB
330
3AE
100
AcDbEntity
  8
レイヤー 1
 62
   250
420
  2234388
100
AcDbHatch
 10
0.0
 20
0.0
 30
0.0
210
0.0
220
0.0
230
1.0
  2
SOLID
 70
     1
 71
     0
 91
        1
 92
        1
 93
        8
 72
     1
 10
83.79545727667795
 20
167.6444858234922
 11
83.79545727667795
 21
159.7968976406313
 72
     1
 10
83.79545727667795
 20
159.7968976406313
 11
71.3631329975216
 21
159.7968976406313
 72
     1
 10
71.3631329975216
 20
159.7968976406313
 11
71.3631329975216
 21
127.8027915271048
 72
     1
 10
71.3631329975216
 20
127.8027915271048
 11
60.43011526263018
 21
127.8027915271048
 72
     1
 10
60.43011526263018
 20
127.8027915271048
 11
60.43011526263018
 21
159.7968976406313
 72
     1
 10
60.43011526263018
 20
159.7968976406313
 11
48.21793273020759
 21
159.7968976406313
 72
     1
 10
48.21793273020759
 20
159.7968976406313
 11
48.21793273020759
 21
167.6444858234922
 72
     1
 10
48.21793273020759
 20
167.6444858234922
 11
83.79545727667795
 21
167.6444858234922
 97
        0
 75
     2
 76
     1
 98
        0
  0
INSERT
  5
3BC
330
3AE
100
AcDbEntity
  8
レイヤー 1
100
AcDbBlockReference
  2
block 5
 10
0.0
 20
0.0
 30
0.0
  0
ENDBLK
  5
3C9
330
3AE
100
AcDbEntity
  8
0
100
AcDbBlockEnd
  0
BLOCK
  5
3BE
330
3BD
100
AcDbEntity
  8
0
100
AcDbBlockBegin
  2
block 5
 70
     0
 10
0.0
 20
0.0
 30
0.0
  3
block 5
  1
block 5
  0
SPLINE
  5
3BF
330
3BD
100
AcDbEntity
  8
レイヤー 1
370
     0
100
AcDbSpline
210
0.0
220
0.0
230
1.0
 70
    11
 71
     3
 72
    56
 73
    52
 74
     0
 42
0.000000001
 43
0.0000000001
 40
0.0
 40
0.0
 40
0.0
 40
0.0
 40
1.0
 40
1.0
 40
1.0
 40
2.0
 40
2.0
 40
2.0
 40
3.0
 40
3.0
 40
3.0
 40
4.0
 40
4.0
 40
4.0
 40
5.0
 40
5.0
 40
5.0
 40
6.0
 40
6.0
 40
6.0
 40
7.0
 40
7.0
 40
7.0
 40
8.0
 40
8.0
 40
8.0
 40
9.0
 40
9.0
 40
9.0
 40
10.0
 40
10.0
 40
10.0
 40
11.0
 40
11.0
 40
11.0
 40
12.0
 40
12.0
 40
12.0
 40
13.0
 40
13.0
 40
13.0
 40
14.0
 40
14.0
 40
14.0
 40
15.0
 40
15.0
 40
15.0
 40
16.0
 40
16.0
 40
16.0
 40
17.0
 40
17.0
 40
17.0
 40
17.0
 10
100.4504378777679
 20
166.69157178364
 30
0.0
 10
101.9848844191641
 20
167.1313385124438
 30
0.0
 10
103.9637485713373
 20
166.7649523658846
 30
0.0
 10
103.9637485713373
 20
166.7649523658846
 30
0.0
 10
103.9637485713373
 20
166.7649523658846
 30
0.0
 10
103.0132460999156
 20
163.911205638077
 30
0.0
 10
103.0132460999156
 20
163.911205638077
 30
0.0
 10
103.0132460999156
 20
163.911205638077
 30
0.0
 10
101.0674548862189
 20
164.3601018759394
 30
0.0
 10
99.57090442016032
 20
163.1805004036133
 30
0.0
 10
98.40508333886608
 20
162.258247733807
 30
0.0
 10
97.65301849830304
 20
159.804132345923
 30
0.0
 10
97.3598406791005
 20
158.8699940888517
 30
0.0
 10
97.3598406791005
 20
158.8699940888517
 30
0.0
 10
96.07137411762282
 20
154.9119212747295
 30
0.0
 10
96.07137411762282
 20
154.9119212747295
 30
0.0
 10
96.07137411762282
 20
154.9119212747295
 30
0.0
 10
100.3012651448482
 20
154.9119212747295
 30
0.0
 10
100.3012651448482
 20
154.9119212747295
 30
0.0
 10
100.3012651448482
 20
154.9119212747295
 30
0.0
 10
99.64152892419852
 20
152.4199098115079
 30
0.0
 10
99.64152892419852
 20
152.4199098115079
 30
0.0
 10
99.64152892419852
 20
152.4199098115079
 30
0.0
 10
95.38097652692731
 20
152.4199098115079
 30
0.0
 10
95.38097652692731
 20
152.4199098115079
 30
0.0
 10
95.38097652692731
 20
152.4199098115079
 30
0.0
 10
87.75353009080013
 20
127.8027915271048
 30
0.0
 10
87.75353009080013
 20
127.8027915271048
 30
0.0
 10
87.75353009080013
 20
127.8027915271048
 30
0.0
 10
85.36538832498108
 20
127.8027915271048
 30
0.0
 10
85.36538832498108
 20
127.8027915271048
 30
0.0
 10
85.36538832498108
 20
127.8027915271048
 30
0.0
 10
93.00006946639998
 20
152.4199098115079
 30
0.0
 10
93.00006946639998
 20
152.4199098115079
 30
0.0
 10
93.00006946639998
 20
152.4199098115079
 30
0.0
 10
89.85297266450198
 20
152.4199098115079
 30
0.0
 10
89.85297266450198
 20
152.4199098115079
 30
0.0
 10
89.85297266450198
 20
152.4199098115079
 30
0.0
 10
90.51270888515164
 20
154.9119212747295
 30
0.0
 10
90.51270888515164
 20
154.9119212747295
 30
0.0
 10
90.51270888515164
 20
154.9119212747295
 30
0.0
 10
93.6904670570955
 20
154.9119212747295
 30
0.0
 10
93.6904670570955
 20
154.9119212747295
 30
0.0
 10
93.6904670570955
 20
154.9119212747295
 30
0.0
 10
94.81598049462158
 20
158.3616699146644
 30
0.0
 10
94.81598049462158
 20
158.3616699146644
 30
0.0
 10
95.7237637538445
 20
161.2605474231013
 30
0.0
 10
96.4968436907311
 20
162.8139420021662
 30
0.0
 10
97.15657991138076
 20
163.9844139654337
 30
0.0
 10
97.81183750494507
 20
165.1523021053827
 30
0.0
 10
99.1047826935081
 20
166.3084769129547
 30
0.0
 10
100.4504378777679
 20
166.69157178364
 30
0.0
  0
HATCH
  5
3C0
330
3BD
100
AcDbEntity
  8
レイヤー 1
 62
   250
420
  2234388
100
AcDbHatch
 10
0.0
 20
0.0
 30
0.0
210
0.0
220
0.0
230
1.0
  2
SOLID
 70
     1
 71
     0
 91
        1
 92
        1
 93
        1
 72
     4
 94
        3
 73
     0
 74
     1
 95
       56
 96
       52
 40
0.0
 40
0.0
 40
0.0
 40
0.0
 40
1.0
 40
1.0
 40
1.0
 40
2.0
 40
2.0
 40
2.0
 40
3.0
 40
3.0
 40
3.0
 40
4.0
 40
4.0
 40
4.0
 40
5.0
 40
5.0
 40
5.0
 40
6.0
 40
6.0
 40
6.0
 40
7.0
 40
7.0
 40
7.0
 40
8.0
 40
8.0
 40
8.0
 40
9.0
 40
9.0
 40
9.0
 40
10.0
 40
10.0
 40
10.0
 40
11.0
 40
11.0
 40
11.0
 40
12.0
 40
12.0
 40
12.0
 40
13.0
 40
13.0
 40
13.0
 40
14.0
 40
14.0
 40
14.0
 40
15.0
 40
15.0
 40
15.0
 40
16.0
 40
16.0
 40
16.0
 40
17.0
 40
17.0
 40
17.0
 40
17.0
 10
100.4504378777679
 20
166.69157178364
 10
101.9848844191641
 20
167.1313385124438
 10
103.9637485713373
 20
166.7649523658846
 10
103.9637485713373
 20
166.7649523658846
 10
103.9637485713373
 20
166.7649523658846
 10
103.0132460999156
 20
163.911205638077
 10
103.0132460999156
 20
163.911205638077
 10
103.0132460999156
 20
163.911205638077
 10
101.0674548862189
 20
164.3601018759394
 10
99.57090442016032
 20
163.1805004036133
 10
98.40508333886608
 20
162.258247733807
 10
97.65301849830304
 20
159.804132345923
 10
97.3598406791005
 20
158.8699940888517
 10
97.3598406791005
 20
158.8699940888517
 10
96.07137411762282
 20
154.9119212747295
 10
96.07137411762282
 20
154.9119212747295
 10
96.07137411762282
 20
154.9119212747295
 10
100.3012651448482
 20
154.9119212747295
 10
100.3012651448482
 20
154.9119212747295
 10
100.3012651448482
 20
154.9119212747295
 10
99.64152892419852
 20
152.4199098115079
 10
99.64152892419852
 20
152.4199098115079
 10
99.64152892419852
 20
152.4199098115079
 10
95.38097652692731
 20
152.4199098115079
 10
95.38097652692731
 20
152.4199098115079
 10
95.38097652692731
 20
152.4199098115079
 10
87.75353009080013
 20
127.8027915271048
 10
87.75353009080013
 20
127.8027915271048
 10
87.75353009080013
 20
127.8027915271048
 10
85.36538832498108
 20
127.8027915271048
 10
85.36538832498108
 20
127.8027915271048
 10
85.36538832498108
 20
127.8027915271048
 10
93.00006946639998
 20
152.4199098115079
 10
93.00006946639998
 20
152.4199098115079
 10
93.00006946639998
 20
152.4199098115079
 10
89.85297266450198
 20
152.4199098115079
 10
89.85297266450198
 20
152.4199098115079
 10
89.85297266450198
 20
152.4199098115079
 10
90.51270888515164
 20
154.9119212747295
 10
90.51270888515164
 20
154.9119212747295
 10
90.51270888515164
 20
154.9119212747295
 10
93.6904670570955
 20
154.9119212747295
 10
93.6904670570955
 20
154.9119212747295
 10
93.6904670570955
 20
154.9119212747295
 10
94.81598049462158
 20
158.3616699146644
 10
94.81598049462158
 20
158.3616699146644
 10
95.7237637538445
 20
161.2605474231013
 10
96.4968436907311
 20
162.8139420021662
 10
97.15657991138076
 20
163.9844139654337
 10
97.81183750494507
 20
165.1523021053827
 10
99.1047826935081
 20
166.3084769129547
 10
100.4504378777679
 20
166.69157178364
 97
        0
 75
     2
 76
     1
 98
        0
  0
SPLINE
  5
3C1
330
3BD
100
AcDbEntity
  8
レイヤー 1
370
     0
100
AcDbSpline
210
0.0
220
0.0
230
1.0
 70
    11
 71
     3
 72
    38
 73
    34
 74
     0
 42
0.000000001
 43
0.0000000001
 40
0.0
 40
0.0
 40
0.0
 40
0.0
 40
1.0
 40
1.0
 40
1.0
 40
2.0
 40
2.0
 40
2.0
 40
3.0
 40
3.0
 40
3.0
 40
4.0
 40
4.0
 40
4.0
 40
5.0
 40
5.0
 40
5.0
 40
6.0
 40
6.0
 40
6.0
 40
7.0
 40
7.0
 40
7.0
 40
8.0
 40
8.0
 40
8.0
 40
9.0
 40
9.0
 40
9.0
 40
10.0
 40
10.0
 40
10.0
 40
11.0
 40
11.0
 40
11.0
 40
11.0
 10
126.377554584636
 20
154.8151140277308
 30
0.0
 10
126.377554584636
 20
154.8151140277308
 30
0.0
 10
128.8311532078563
 20
154.8151140277308
 30
0.0
 10
128.8311532078563
 20
154.8151140277308
 30
0.0
 10
128.8311532078563
 20
154.8151140277308
 30
0.0
 10
127.7345785914971
 20
151.3062819612468
 30
0.0
 10
127.7345785914971
 20
151.3062819612468
 30
0.0
 10
128.571392836906
 20
152.2922689395754
 30
0.0
 10
129.8860421413442
 20
153.604506675583
 30
0.0
 10
131.0163787157314
 20
154.2664822097754
 30
0.0
 10
132.7044766171327
 20
155.2500576196734
 30
0.0
 10
133.6642808525008
 20
155.3847609420097
 30
0.0
 10
134.7284715499351
 20
155.3565111403944
 30
0.0
 10
134.7284715499351
 20
155.3565111403944
 30
0.0
 10
133.6877075172549
 20
152.0345756272799
 30
0.0
 10
133.6877075172549
 20
152.0345756272799
 30
0.0
 10
133.011434827367
 20
152.3184516825359
 30
0.0
 10
130.930940291334
 20
151.7768823149844
 30
0.0
 10
129.739280976855
 20
150.9162968950455
 30
0.0
 10
128.66613302525
 20
150.1454562717016
 30
0.0
 10
127.9192358313239
 20
149.4857200510519
 30
0.0
 10
127.0393578639405
 20
147.8282835196966
 30
0.0
 10
126.164647543194
 20
146.1699857139017
 30
0.0
 10
125.4742499524985
 20
143.5262176944419
 30
0.0
 10
124.2822461282437
 20
139.6959580071401
 30
0.0
 10
124.2822461282437
 20
139.6959580071401
 30
0.0
 10
120.5753209406769
 20
127.8027915271048
 30
0.0
 10
120.5753209406769
 20
127.8027915271048
 30
0.0
 10
120.5753209406769
 20
127.8027915271048
 30
0.0
 10
118.1964809388044
 20
127.8027915271048
 30
0.0
 10
118.1964809388044
 20
127.8027915271048
 30
0.0
 10
118.1964809388044
 20
127.8027915271048
 30
0.0
 10
126.377554584636
 20
154.8151140277308
 30
0.0
 10
126.377554584636
 20
154.8151140277308
 30
0.0
  0
HATCH
  5
3C2
330
3BD
100
AcDbEntity
  8
レイヤー 1
 62
   250
420
  2234388
100
AcDbHatch
 10
0.0
 20
0.0
 30
0.0
210
0.0
220
0.0
230
1.0
  2
SOLID
 70
     1
 71
     0
 91
        1
 92
        1
 93
        1
 72
     4
 94
        3
 73
     0
 74
     1
 95
       38
 96
       34
 40
0.0
 40
0.0
 40
0.0
 40
0.0
 40
1.0
 40
1.0
 40
1.0
 40
2.0
 40
2.0
 40
2.0
 40
3.0
 40
3.0
 40
3.0
 40
4.0
 40
4.0
 40
4.0
 40
5.0
 40
5.0
 40
5.0
 40
6.0
 40
6.0
 40
6.0
 40
7.0
 40
7.0
 40
7.0
 40
8.0
 40
8.0
 40
8.0
 40
9.0
 40
9.0
 40
9.0
 40
10.0
 40
10.0
 40
10.0
 40
11.0
 40
11.0
 40
11.0
 40
11.0
 10
126.377554584636
 20
154.8151140277308
 10
126.377554584636
 20
154.8151140277308
 10
128.8311532078563
 20
154.8151140277308
 10
128.8311532078563
 20
154.8151140277308
 10
128.8311532078563
 20
154.8151140277308
 10
127.7345785914971
 20
151.3062819612468
 10
127.7345785914971
 20
151.3062819612468
 10
128.571392836906
 20
152.2922689395754
 10
129.8860421413442
 20
153.604506675583
 10
131.0163787157314
 20
154.2664822097754
 10
132.7044766171327
 20
155.2500576196734
 10
133.6642808525008
 20
155.3847609420097
 10
134.7284715499351
 20
155.3565111403944
 10
134.7284715499351
 20
155.3565111403944
 10
133.6877075172549
 20
152.0345756272799
 10
133.6877075172549
 20
152.0345756272799
 10
133.011434827367
 20
152.3184516825359
 10
130.930940291334
 20
151.7768823149844
 10
129.739280976855
 20
150.9162968950455
 10
128.66613302525
 20
150.1454562717016
 10
127.9192358313239
 20
149.4857200510519
 10
127.0393578639405
 20
147.8282835196966
 10
126.164647543194
 20
146.1699857139017
 10
125.4742499524985
 20
143.5262176944419
 10
124.2822461282437
 20
139.6959580071401
 10
124.2822461282437
 20
139.6959580071401
 10
120.5753209406769
 20
127.8027915271048
 10
120.5753209406769
 20
127.8027915271048
 10
120.5753209406769
 20
127.8027915271048
 10
118.1964809388044
 20
127.8027915271048
 10
118.1964809388044
 20
127.8027915271048
 10
118.1964809388044
 20
127.8027915271048
 10
126.377554584636
 20
154.8151140277308
 10
126.377554584636
 20
154.8151140277308
 97
        0
 75
     2
 76
     1
 98
        0
  0
SPLINE
  5
3C3
330
3BD
100
AcDbEntity
  8
レイヤー 1
370
     0
100
AcDbSpline
210
0.0
220
0.0
230
1.0
 70
    11
 71
     3
 72
   104
 73
   100
 74
     0
 42
0.000000001
 43
0.0000000001
 40
0.0
 40
0.0
 40
0.0
 40
0.0
 40
1.0
 40
1.0
 40
1.0
 40
2.0
 40
2.0
 40
2.0
 40
3.0
 40
3.0
 40
3.0
 40
4.0
 40
4.0
 40
4.0
 40
5.0
 40
5.0
 40
5.0
 40
6.0
 40
6.0
 40
6.0
 40
7.0
 40
7.0
 40
7.0
 40
8.0
 40
8.0
 40
8.0
 40
9.0
 40
9.0
 40
9.0
 40
10.0
 40
10.0
 40
10.0
 40
11.0
 40
11.0
 40
11.0
 40
12.0
 40
12.0
 40
12.0
 40
13.0
 40
13.0
 40
13.0
 40
14.0
 40
14.0
 40
14.0
 40
15.0
 40
15.0
 40
15.0
 40
16.0
 40
16.0
 40
16.0
 40
17.0
 40
17.0
 40
17.0
 40
18.0
 40
18.0
 40
18.0
 40
19.0
 40
19.0
 40
19.0
 40
20.0
 40
20.0
 40
20.0
 40
21.0
 40
21.0
 40
21.0
 40
22.0
 40
22.0
 40
22.0
 40
23.0
 40
23.0
 40
23.0
 40
24.0
 40
24.0
 40
24.0
 40
25.0
 40
25.0
 40
25.0
 40
26.0
 40
26.0
 40
26.0
 40
27.0
 40
27.0
 40
27.0
 40
28.0
 40
28.0
 40
28.0
 40
29.0
 40
29.0
 40
29.0
 40
30.0
 40
30.0
 40
30.0
 40
31.0
 40
31.0
 40
31.0
 40
32.0
 40
32.0
 40
32.0
 40
33.0
 40
33.0
 40
33.0
 40
33.0
 10
139.8926730891197
 20
154.8294111834263
 30
0.0
 10
139.8926730891197
 20
154.8294111834263
 30
0.0
 10
142.0344903652445
 20
154.8294111834263
 30
0.0
 10
142.0344903652445
 20
154.8294111834263
 30
0.0
 10
142.0344903652445
 20
154.8294111834263
 30
0.0
 10
140.9516961399171
 20
151.3157559800812
 30
0.0
 10
140.9516961399171
 20
151.3157559800812
 30
0.0
 10
141.8928968473923
 20
152.7887075264977
 30
0.0
 10
142.7341897198865
 20
153.4484437471474
 30
0.0
 10
143.8552245303272
 20
154.2926649527359
 30
0.0
 10
144.9803934580775
 20
155.1296514530327
 30
0.0
 10
146.3139908001845
 20
155.3044901642492
 30
0.0
 10
147.241066606852
 20
155.3044901642492
 30
0.0
 10
148.3855280820469
 20
155.3044901642492
 30
0.0
 10
149.4969166187653
 20
155.0752189084569
 30
0.0
 10
150.0784491203092
 20
153.8172414621372
 30
0.0
 10
150.5228667310863
 20
152.833838307127
 30
0.0
 10
150.5414702589793
 20
152.7201500811143
 30
0.0
 10
150.4140016419347
 20
150.7765981809602
 30
0.0
 10
151.5818897818837
 20
152.7699317437168
 30
0.0
 10
152.4424752018226
 20
153.6256940267945
 30
0.0
 10
153.9038856707499
 20
154.4507949398263
 30
0.0
 10
155.4455669174378
 20
155.3044901642492
 30
0.0
 10
156.339225275853
 20
155.3659851592288
 30
0.0
 10
157.3748216618963
 20
155.2147453676543
 30
0.0
 10
158.911679771723
 20
154.9877134254046
 30
0.0
 10
159.8859534176746
 20
154.4390816074493
 30
0.0
 10
160.3965169054045
 20
152.7816450760939
 30
0.0
 10
160.9070803931344
 20
151.1219692311958
 30
0.0
 10
160.6328506116007
 20
150.2303779314354
 30
0.0
 10
159.9992971339115
 20
147.597634224801
 30
0.0
 10
159.7105979417943
 20
146.4014962832367
 30
0.0
 10
159.2947746424084
 20
144.9400858143094
 30
0.0
 10
158.7463150793409
 20
143.2092687007094
 30
0.0
 10
158.7463150793409
 20
143.2092687007094
 30
0.0
 10
153.9038856707499
 20
127.8027915271048
 30
0.0
 10
153.9038856707499
 20
127.8027915271048
 30
0.0
 10
153.9038856707499
 20
127.8027915271048
 30
0.0
 10
151.3882752878863
 20
127.8027915271048
 30
0.0
 10
151.3882752878863
 20
127.8027915271048
 30
0.0
 10
151.3882752878863
 20
127.8027915271048
 30
0.0
 10
155.6250565106276
 20
141.2751908193897
 30
0.0
 10
155.6250565106276
 20
141.2751908193897
 30
0.0
 10
156.5094131050963
 20
144.0936252951782
 30
0.0
 10
157.109893644309
 20
146.1506931664571
 30
0.0
 10
157.4220195011804
 20
147.4415712963654
 30
0.0
 10
157.8095929989511
 20
149.0530157726519
 30
0.0
 10
157.9656559273867
 20
149.5826995529385
 30
0.0
 10
157.7816877071116
 20
150.7529992613181
 30
0.0
 10
157.6111553680925
 20
151.8430281919372
 30
0.0
 10
157.0582171779396
 20
152.5547853887321
 30
0.0
 10
156.1170164704645
 20
152.5547853887321
 30
0.0
 10
155.1096698860365
 20
152.5547853887321
 30
0.0
 10
154.2962823053817
 20
152.4412694176073
 30
0.0
 10
153.156643967048
 20
151.2945686288697
 30
0.0
 10
152.0170056287143
 20
150.1476955852443
 30
0.0
 10
151.076149431015
 20
148.7930831468137
 30
0.0
 10
150.3337308641742
 20
147.2290087646991
 30
0.0
 10
149.5957909244188
 20
145.6683794803425
 30
0.0
 10
148.8530278478023
 20
143.6822806228776
 30
0.0
 10
148.0964843801539
 20
141.2751908193897
 30
0.0
 10
148.0964843801539
 20
141.2751908193897
 30
0.0
 10
143.8552245303272
 20
127.8027915271048
 30
0.0
 10
143.8552245303272
 20
127.8027915271048
 30
0.0
 10
143.8552245303272
 20
127.8027915271048
 30
0.0
 10
141.486030802177
 20
127.8027915271048
 30
0.0
 10
141.486030802177
 20
127.8027915271048
 30
0.0
 10
141.486030802177
 20
127.8027915271048
 30
0.0
 10
146.3329388378533
 20
143.2092687007094
 30
0.0
 10
146.3329388378533
 20
143.2092687007094
 30
0.0
 10
146.8483254624444
 20
144.8408669988801
 30
0.0
 10
147.2314203331297
 20
146.1837661049335
 30
0.0
 10
147.4867020769946
 20
147.224185627838
 30
0.0
 10
147.9169947869641
 20
149.0197705792876
 30
0.0
 10
148.0306830129768
 20
150.2400242051577
 30
0.0
 10
147.709255392159
 20
151.3157559800812
 30
0.0
 10
147.3874832615654
 20
152.3916600098926
 30
0.0
 10
146.8245542879144
 20
152.6683013598569
 30
0.0
 10
145.8840425999909
 20
152.6683013598569
 30
0.0
 10
145.0989048209514
 20
152.6683013598569
 30
0.0
 10
144.3282364524954
 20
152.3275811915945
 30
0.0
 10
143.4531816219731
 20
151.6538923250251
 30
0.0
 10
142.34627171234
 20
150.8074318058939
 30
0.0
 10
141.901854101563
 20
150.1097995099067
 30
0.0
 10
141.3578731655808
 20
149.289521733736
 30
0.0
 10
140.6299240093235
 20
148.192602607601
 30
0.0
 10
140.2850697237515
 20
147.455696197173
 30
0.0
 10
139.6652966370942
 20
145.8385673095858
 30
0.0
 10
139.0506911970739
 20
144.2214384219986
 30
0.0
 10
138.463991048893
 20
142.3252566160164
 30
0.0
 10
138.0571250036777
 20
141.0154304484394
 30
0.0
 10
138.0571250036777
 20
141.0154304484394
 30
0.0
 10
133.9009590684727
 20
127.8027915271048
 30
0.0
 10
133.9009590684727
 20
127.8027915271048
 30
0.0
 10
133.9009590684727
 20
127.8027915271048
 30
0.0
 10
131.4180771143097
 20
127.8027915271048
 30
0.0
 10
131.4180771143097
 20
127.8027915271048
 30
0.0
 10
131.4180771143097
 20
127.8027915271048
 30
0.0
 10
139.8926730891197
 20
154.8294111834263
 30
0.0
 10
139.8926730891197
 20
154.8294111834263
 30
0.0
  0
HATCH
  5
3C4
330
3BD
100
AcDbEntity
  8
レイヤー 1
 62
   250
420
  2234388
100
AcDbHatch
 10
0.0
 20
0.0
 30
0.0
210
0.0
220
0.0
230
1.0
  2
SOLID
 70
     1
 71
     0
 91
        1
 92
        1
 93
        1
 72
     4
 94
        3
 73
     0
 74
     1
 95
      104
 96
      100
 40
0.0
 40
0.0
 40
0.0
 40
0.0
 40
1.0
 40
1.0
 40
1.0
 40
2.0
 40
2.0
 40
2.0
 40
3.0
 40
3.0
 40
3.0
 40
4.0
 40
4.0
 40
4.0
 40
5.0
 40
5.0
 40
5.0
 40
6.0
 40
6.0
 40
6.0
 40
7.0
 40
7.0
 40
7.0
 40
8.0
 40
8.0
 40
8.0
 40
9.0
 40
9.0
 40
9.0
 40
10.0
 40
10.0
 40
10.0
 40
11.0
 40
11.0
 40
11.0
 40
12.0
 40
12.0
 40
12.0
 40
13.0
 40
13.0
 40
13.0
 40
14.0
 40
14.0
 40
14.0
 40
15.0
 40
15.0
 40
15.0
 40
16.0
 40
16.0
 40
16.0
 40
17.0
 40
17.0
 40
17.0
 40
18.0
 40
18.0
 40
18.0
 40
19.0
 40
19.0
 40
19.0
 40
20.0
 40
20.0
 40
20.0
 40
21.0
 40
21.0
 40
21.0
 40
22.0
 40
22.0
 40
22.0
 40
23.0
 40
23.0
 40
23.0
 40
24.0
 40
24.0
 40
24.0
 40
25.0
 40
25.0
 40
25.0
 40
26.0
 40
26.0
 40
26.0
 40
27.0
 40
27.0
 40
27.0
 40
28.0
 40
28.0
 40
28.0
 40
29.0
 40
29.0
 40
29.0
 40
30.0
 40
30.0
 40
30.0
 40
31.0
 40
31.0
 40
31.0
 40
32.0
 40
32.0
 40
32.0
 40
33.0
 40
33.0
 40
33.0
 40
33.0
 10
139.8926730891197
 20
154.8294111834263
 10
139.8926730891197
 20
154.8294111834263
 10
142.0344903652445
 20
154.8294111834263
 10
142.0344903652445
 20
154.8294111834263
 10
142.0344903652445
 20
154.8294111834263
 10
140.9516961399171
 20
151.3157559800812
 10
140.9516961399171
 20
151.3157559800812
 10
141.8928968473923
 20
152.7887075264977
 10
142.7341897198865
 20
153.4484437471474
 10
143.8552245303272
 20
154.2926649527359
 10
144.9803934580775
 20
155.1296514530327
 10
146.3139908001845
 20
155.3044901642492
 10
147.241066606852
 20
155.3044901642492
 10
148.3855280820469
 20
155.3044901642492
 10
149.4969166187653
 20
155.0752189084569
 10
150.0784491203092
 20
153.8172414621372
 10
150.5228667310863
 20
152.833838307127
 10
150.5414702589793
 20
152.7201500811143
 10
150.4140016419347
 20
150.7765981809602
 10
151.5818897818837
 20
152.7699317437168
 10
152.4424752018226
 20
153.6256940267945
 10
153.9038856707499
 20
154.4507949398263
 10
155.4455669174378
 20
155.3044901642492
 10
156.339225275853
 20
155.3659851592288
 10
157.3748216618963
 20
155.2147453676543
 10
158.911679771723
 20
154.9877134254046
 10
159.8859534176746
 20
154.4390816074493
 10
160.3965169054045
 20
152.7816450760939
 10
160.9070803931344
 20
151.1219692311958
 10
160.6328506116007
 20
150.2303779314354
 10
159.9992971339115
 20
147.597634224801
 10
159.7105979417943
 20
146.4014962832367
 10
159.2947746424084
 20
144.9400858143094
 10
158.7463150793409
 20
143.2092687007094
 10
158.7463150793409
 20
143.2092687007094
 10
153.9038856707499
 20
127.8027915271048
 10
153.9038856707499
 20
127.8027915271048
 10
153.9038856707499
 20
127.8027915271048
 10
151.3882752878863
 20
127.8027915271048
 10
151.3882752878863
 20
127.8027915271048
 10
151.3882752878863
 20
127.8027915271048
 10
155.6250565106276
 20
141.2751908193897
 10
155.6250565106276
 20
141.2751908193897
 10
156.5094131050963
 20
144.0936252951782
 10
157.109893644309
 20
146.1506931664571
 10
157.4220195011804
 20
147.4415712963654
 10
157.8095929989511
 20
149.0530157726519
 10
157.9656559273867
 20
149.5826995529385
 10
157.7816877071116
 20
150.7529992613181
 10
157.6111553680925
 20
151.8430281919372
 10
157.0582171779396
 20
152.5547853887321
 10
156.1170164704645
 20
152.5547853887321
 10
155.1096698860365
 20
152.5547853887321
 10
154.2962823053817
 20
152.4412694176073
 10
153.156643967048
 20
151.2945686288697
 10
152.0170056287143
 20
150.1476955852443
 10
151.076149431015
 20
148.7930831468137
 10
150.3337308641742
 20
147.2290087646991
 10
149.5957909244188
 20
145.6683794803425
 10
148.8530278478023
 20
143.6822806228776
 10
148.0964843801539
 20
141.2751908193897
 10
148.0964843801539
 20
141.2751908193897
 10
143.8552245303272
 20
127.8027915271048
 10
143.8552245303272
 20
127.8027915271048
 10
143.8552245303272
 20
127.8027915271048
 10
141.486030802177
 20
127.8027915271048
 10
141.486030802177
 20
127.8027915271048
 10
141.486030802177
 20
127.8027915271048
 10
146.3329388378533
 20
143.2092687007094
 10
146.3329388378533
 20
143.2092687007094
 10
146.8483254624444
 20
144.8408669988801
 10
147.2314203331297
 20
146.1837661049335
 10
147.4867020769946
 20
147.224185627838
 10
147.9169947869641
 20
149.0197705792876
 10
148.0306830129768
 20
150.2400242051577
 10
147.709255392159
 20
151.3157559800812
 10
147.3874832615654
 20
152.3916600098926
 10
146.8245542879144
 20
152.6683013598569
 10
145.8840425999909
 20
152.6683013598569
 10
145.0989048209514
 20
152.6683013598569
 10
144.3282364524954
 20
152.3275811915945
 10
143.4531816219731
 20
151.6538923250251
 10
142.34627171234
 20
150.8074318058939
 10
141.901854101563
 20
150.1097995099067
 10
141.3578731655808
 20
149.289521733736
 10
140.6299240093235
 20
148.192602607601
 10
140.2850697237515
 20
147.455696197173
 10
139.6652966370942
 20
145.8385673095858
 10
139.0506911970739
 20
144.2214384219986
 10
138.463991048893
 20
142.3252566160164
 10
138.0571250036777
 20
141.0154304484394
 10
138.0571250036777
 20
141.0154304484394
 10
133.9009590684727
 20
127.8027915271048
 10
133.9009590684727
 20
127.8027915271048
 10
133.9009590684727
 20
127.8027915271048
 10
131.4180771143097
 20
127.8027915271048
 10
131.4180771143097
 20
127.8027915271048
 10
131.4180771143097
 20
127.8027915271048
 10
139.8926730891197
 20
154.8294111834263
 10
139.8926730891197
 20
154.8294111834263
 97
        0
 75
     2
 76
     1
 98
        0
  0
SPLINE
  5
3C5
330
3BD
100
AcDbEntity
  8
レイヤー 1
370
     0
100
AcDbSpline
210
0.0
220
0.0
230
1.0
 70
    11
 71
     3
 72
    29
 73
    25
 74
     0
 42
0.000000001
 43
0.0000000001
 40
0.0
 40
0.0
 40
0.0
 40
0.0
 40
1.0
 40
1.0
 40
1.0
 40
2.0
 40
2.0
 40
2.0
 40
3.0
 40
3.0
 40
3.0
 40
4.0
 40
4.0
 40
4.0
 40
5.0
 40
5.0
 40
5.0
 40
6.0
 40
6.0
 40
6.0
 40
7.0
 40
7.0
 40
7.0
 40
8.0
 40
8.0
 40
8.0
 40
8.0
 10
101.6420971922469
 20
132.8388354296931
 30
0.0
 10
101.630039350094
 20
134.7164137077823
 30
0.0
 10
102.2236296937908
 20
138.0598810818841
 30
0.0
 10
103.7487744712405
 20
142.5378191476827
 30
0.0
 10
105.819967243327
 20
148.5896501242061
 30
0.0
 10
107.0602024361932
 20
150.8074318058939
 30
0.0
 10
108.1522984254671
 20
151.8833358357054
 30
0.0
 10
109.741177511439
 20
153.4532668840085
 30
0.0
 10
111.8740375333931
 20
153.5290590346837
 30
0.0
 10
112.5075910110823
 20
153.4532668840085
 30
0.0
 10
113.4012493694975
 20
153.3490526768302
 30
0.0
 10
114.6683563248758
 20
152.7580461564518
 30
0.0
 10
114.7493161221879
 20
150.7838328862519
 30
0.0
 10
114.8106388622796
 20
149.0909118479895
 30
0.0
 10
114.3186789024427
 20
145.9191825971221
 30
0.0
 10
112.6164561002338
 20
140.9489400617108
 30
0.0
 10
110.6444821435766
 20
135.1746117095912
 30
0.0
 10
109.4669477299053
 20
132.8960240524753
 30
0.0
 10
108.5212683953448
 20
131.9072809959403
 30
0.0
 10
106.7346406980658
 20
130.0538184021569
 30
0.0
 10
104.8222669326213
 20
130.2336525051225
 30
0.0
 10
104.5408024457958
 20
130.2336525051225
 30
0.0
 10
104.1721769856939
 20
130.2336525051225
 30
0.0
 10
101.6465758193322
 20
130.6305277668397
 30
0.0
 10
101.6420971922469
 20
132.8388354296931
 30
0.0
  0
SPLINE
  5
3C6
330
3BD
100
AcDbEntity
  8
レイヤー 1
370
     0
100
AcDbSpline
210
0.0
220
0.0
230
1.0
 70
    11
 71
     3
 72
    32
 73
    28
 74
     0
 42
0.000000001
 43
0.0000000001
 40
0.0
 40
0.0
 40
0.0
 40
0.0
 40
1.0
 40
1.0
 40
1.0
 40
2.0
 40
2.0
 40
2.0
 40
3.0
 40
3.0
 40
3.0
 40
4.0
 40
4.0
 40
4.0
 40
5.0
 40
5.0
 40
5.0
 40
6.0
 40
6.0
 40
6.0
 40
7.0
 40
7.0
 40
7.0
 40
8.0
 40
8.0
 40
8.0
 40
9.0
 40
9.0
 40
9.0
 40
9.0
 10
106.2595617172429
 20
153.4105476718098
 30
0.0
 10
104.8222669326213
 20
151.5474388043041
 30
0.0
 10
103.7177685914188
 20
149.8758773721411
 30
0.0
 10
101.9232171692965
 20
144.6141795664062
 30
0.0
 10
100.2754269116635
 20
139.7999999594306
 30
0.0
 10
99.22777268346732
 20
136.3052927937542
 30
0.0
 10
99.06964269637689
 20
132.039572749846
 30
0.0
 10
98.94665270641765
 20
128.8673267343149
 30
0.0
 10
100.8807305877373
 20
127.8027915271048
 30
0.0
 10
103.7129454545577
 20
127.8027915271048
 30
0.0
 10
104.9352661390825
 20
127.8027915271048
 30
0.0
 10
108.0151835347002
 20
127.8827177950895
 30
0.0
 10
110.2045431598849
 20
130.5926316915021
 30
0.0
 10
111.7417457794874
 20
132.4984597712065
 30
0.0
 10
113.155269389579
 20
134.475256864725
 30
0.0
 10
115.0562743324223
 20
140.9489400617108
 30
0.0
 10
116.6361961642235
 20
146.3680788349845
 30
0.0
 10
117.7282921534974
 20
149.8639917848761
 30
0.0
 10
117.6480213757369
 20
151.8595646611754
 30
0.0
 10
117.6480213757369
 20
151.8595646611754
 30
0.0
 10
117.6480213757369
 20
151.8595646611754
 30
0.0
 10
117.6480213757369
 20
151.8595646611754
 30
0.0
 10
117.13229024137
 20
155.18150017429
 30
0.0
 10
114.7162431837115
 20
155.886194920681
 30
0.0
 10
113.3351034925446
 20
155.886194920681
 30
0.0
 10
111.9829026225447
 20
155.886194920681
 30
0.0
 10
108.3414342923792
 20
156.1251124501957
 30
0.0
 10
106.2595617172429
 20
153.4105476718098
 30
0.0
  0
HATCH
  5
3C7
330
3BD
100
AcDbEntity
  8
レイヤー 1
 62
   250
420
  2234388
100
AcDbHatch
 10
0.0
 20
0.0
 30
0.0
210
0.0
220
0.0
230
1.0
  2
SOLID
 70
     1
 71
     0
 91
        2
 92
        1
 93
        1
 72
     4
 94
        3
 73
     0
 74
     1
 95
       29
 96
       25
 40
0.0
 40
0.0
 40
0.0
 40
0.0
 40
1.0
 40
1.0
 40
1.0
 40
2.0
 40
2.0
 40
2.0
 40
3.0
 40
3.0
 40
3.0
 40
4.0
 40
4.0
 40
4.0
 40
5.0
 40
5.0
 40
5.0
 40
6.0
 40
6.0
 40
6.0
 40
7.0
 40
7.0
 40
7.0
 40
8.0
 40
8.0
 40
8.0
 40
8.0
 10
101.6420971922469
 20
132.8388354296931
 10
101.630039350094
 20
134.7164137077823
 10
102.2236296937908
 20
138.0598810818841
 10
103.7487744712405
 20
142.5378191476827
 10
105.819967243327
 20
148.5896501242061
 10
107.0602024361932
 20
150.8074318058939
 10
108.1522984254671
 20
151.8833358357054
 10
109.741177511439
 20
153.4532668840085
 10
111.8740375333931
 20
153.5290590346837
 10
112.5075910110823
 20
153.4532668840085
 10
113.4012493694975
 20
153.3490526768302
 10
114.6683563248758
 20
152.7580461564518
 10
114.7493161221879
 20
150.7838328862519
 10
114.8106388622796
 20
149.0909118479895
 10
114.3186789024427
 20
145.9191825971221
 10
112.6164561002338
 20
140.9489400617108
 10
110.6444821435766
 20
135.1746117095912
 10
109.4669477299053
 20
132.8960240524753
 10
108.5212683953448
 20
131.9072809959403
 10
106.7346406980658
 20
130.0538184021569
 10
104.8222669326213
 20
130.2336525051225
 10
104.5408024457958
 20
130.2336525051225
 10
104.1721769856939
 20
130.2336525051225
 10
101.6465758193322
 20
130.6305277668397
 10
101.6420971922469
 20
132.8388354296931
 97
        0
 92
        1
 93
        1
 72
     4
 94
        3
 73
     0
 74
     1
 95
       32
 96
       28
 40
0.0
 40
0.0
 40
0.0
 40
0.0
 40
1.0
 40
1.0
 40
1.0
 40
2.0
 40
2.0
 40
2.0
 40
3.0
 40
3.0
 40
3.0
 40
4.0
 40
4.0
 40
4.0
 40
5.0
 40
5.0
 40
5.0
 40
6.0
 40
6.0
 40
6.0
 40
7.0
 40
7.0
 40
7.0
 40
8.0
 40
8.0
 40
8.0
 40
9.0
 40
9.0
 40
9.0
 40
9.0
 10
106.2595617172429
 20
153.4105476718098
 10
104.8222669326213
 20
151.5474388043041
 10
103.7177685914188
 20
149.8758773721411
 10
101.9232171692965
 20
144.6141795664062
 10
100.2754269116635
 20
139.7999999594306
 10
99.22777268346732
 20
136.3052927937542
 10
99.06964269637689
 20
132.039572749846
 10
98.94665270641765
 20
128.8673267343149
 10
100.8807305877373
 20
127.8027915271048
 10
103.7129454545577
 20
127.8027915271048
 10
104.9352661390825
 20
127.8027915271048
 10
108.0151835347002
 20
127.8827177950895
 10
110.2045431598849
 20
130.5926316915021
 10
111.7417457794874
 20
132.4984597712065
 10
113.155269389579
 20
134.475256864725
 10
115.0562743324223
 20
140.9489400617108
 10
116.6361961642235
 20
146.3680788349845
 10
117.7282921534974
 20
149.8639917848761
 10
117.6480213757369
 20
151.8595646611754
 10
117.6480213757369
 20
151.8595646611754
 10
117.6480213757369
 20
151.8595646611754
 10
117.6480213757369
 20
151.8595646611754
 10
117.13229024137
 20
155.18150017429
 10
114.7162431837115
 20
155.886194920681
 10
113.3351034925446
 20
155.886194920681
 10
111.9829026225447
 20
155.886194920681
 10
108.3414342923792
 20
156.1251124501957
 10
106.2595617172429
 20
153.4105476718098
 97
        0
 75
     2
 76
     1
 98
        0
  0
ENDBLK
  5
3C8
330
3BD
100
AcDbEntity
  8
0
100
AcDbBlockEnd
  0
BLOCK
  5
11F1
330
11F0
100
AcDbEntity
  8
0
100
AcDbBlockBegin
  2
BLOCK_2
 70
     0
 10
0.0
 20
0.0
 30
0.0
  3
BLOCK_2
  1
BLOCK_2
  0
ENDBLK
  5
11F2
330
11F0
100
AcDbEntity
  8
0
100
AcDbBlockEnd
  0
BLOCK
  5
38B7
330
38B6
100
AcDbEntity
  8
0
100
AcDbBlockBegin
  2
mobile_latù
 70
     0
 10
0.0
 20
0.0
 30
0.0
  3
mobile_latù
  1
mobile_latù
  0
ENDBLK
  5
38B8
330
38B6
100
AcDbEntity
  8
0
100
AcDbBlockEnd
  0
BLOCK
  5
48C4
330
48C3
100
AcDbEntity
  8
0
100
AcDbBlockBegin
  2
*D8
 70
     1
 10
0.0
 20
0.0
 30
0.0
  3
*D8
  1
*D93
  0
LINE
  5
48C6
330
48C3
100
AcDbEntity
  8
Dim
 62
     0
370
    -2
100
AcDbLine
 10
1797.042431198775
 20
2675.862987367485
 30
0.0
 11
1887.826567610203
 21
2675.862987367485
 31
0.0
  0
LINE
  5
48C7
330
48C3
100
AcDbEntity
  8
Dim
 62
     0
370
    -2
100
AcDbLine
 10
1833.259628787185
 20
2449.488663395419
 30
0.0
 11
1887.826567610203
 21
2449.488663395419
 31
0.0
  0
LINE
  5
48C8
330
48C3
100
AcDbEntity
  8
Dim
 62
     0
370
    -2
100
AcDbLine
 10
1887.826567610203
 20
2665.863597719048
 30
0.0
 11
1887.826567610203
 21
2459.488053043857
 31
0.0
  0
INSERT
  5
48C9
330
48C3
100
AcDbEntity
  8
Dim
 62
     0
370
    -2
100
AcDbBlockReference
  2
_DOT
 10
1887.826567610203
 20
2675.862987367485
 30
0.0
 41
9.999389648437498
 42
9.999389648437498
 43
9.999389648437498
 50
90.0
  0
INSERT
  5
48CA
330
48C3
100
AcDbEntity
  8
Dim
 62
     0
370
    -2
100
AcDbBlockReference
  2
_DOT
 10
1887.826567610203
 20
2449.488663395419
 30
0.0
 41
9.999389648437498
 42
9.999389648437498
 43
9.999389648437498
 50
270.0
  0
MTEXT
  5
48CB
330
48C3
100
AcDbEntity
  8
Dim
  6
Continuous
 62
     0
100
AcDbMText
 10
1865.610259016453
 20
2562.675825381452
 30
0.0
 40
24.4326171875
 41
0.0
 46
0.0
 71
     5
 72
     1
  1
\A1;225
  7
ＭＳ ゴシック
 11
0.0
 21
1.0
 31
0.0
 73
     1
 44
1.0
  0
POINT
  5
48CC
330
48C3
100
AcDbEntity
  8
Defpoints
 62
     0
100
AcDbPoint
 10
1772.042431198775
 20
2675.862987367485
 30
0.0
  0
POINT
  5
48CD
330
48C3
100
AcDbEntity
  8
Defpoints
 62
     0
100
AcDbPoint
 10
1808.259628787185
 20
2449.488663395419
 30
0.0
  0
POINT
  5
48CE
330
48C3
100
AcDbEntity
  8
Defpoints
 62
     0
100
AcDbPoint
 10
1887.826567610203
 20
2449.488663395419
 30
0.0
  0
ENDBLK
  5
48C5
330
48C3
100
AcDbEntity
  8
0
100
AcDbBlockEnd
  0
BLOCK
  5
494C
330
494B
100
AcDbEntity
  8
0
100
AcDbBlockBegin
  2
*D9
 70
     1
 10
0.0
 20
0.0
 30
0.0
  3
*D9
  1
*D103
  0
LINE
  5
494E
330
494B
100
AcDbEntity
  8
Dim
  6
Continuous
 62
     0
370
    -2
100
AcDbLine
 10
474.9993774540344
 20
1102.376290416007
 30
0.0
 11
380.7208055605711
 21
1102.376290416007
 31
0.0
  0
LINE
  5
494F
330
494B
100
AcDbEntity
  8
Dim
  6
Continuous
 62
     0
370
    -2
100
AcDbLine
 10
473.4993774540344
 20
1202.376290416007
 30
0.0
 11
380.7208055605711
 21
1202.376290416007
 31
0.0
  0
LINE
  5
4950
330
494B
100
AcDbEntity
  8
Dim
  6
Continuous
 62
     0
370
    -2
100
AcDbLine
 10
380.7208055605711
 20
1112.375680064444
 30
0.0
 11
380.7208055605711
 21
1192.376900767569
 31
0.0
  0
INSERT
  5
4951
330
494B
100
AcDbEntity
  8
Dim
 62
     0
370
    -2
100
AcDbBlockReference
  2
_DOT
 10
380.7208055605711
 20
1102.376290416007
 30
0.0
 41
9.999389648437498
 42
9.999389648437498
 43
9.999389648437498
 50
270.0
  0
INSERT
  5
4952
330
494B
100
AcDbEntity
  8
Dim
 62
     0
370
    -2
100
AcDbBlockReference
  2
_DOT
 10
380.7208055605711
 20
1202.376290416007
 30
0.0
 41
9.999389648437498
 42
9.999389648437498
 43
9.999389648437498
 50
90.0
  0
MTEXT
  5
4953
330
494B
100
AcDbEntity
  8
Dim
  6
Continuous
 62
     0
100
AcDbMText
 10
358.5044969668211
 20
1152.376290416007
 30
0.0
 40
24.4326171875
 41
0.0
 46
0.0
 71
     5
 72
     1
  1
\A1;100
  7
ＭＳ ゴシック
 11
0.0
 21
1.0
 31
0.0
 73
     1
 44
1.0
  0
POINT
  5
4954
330
494B
100
AcDbEntity
  8
Defpoints
 62
     0
100
AcDbPoint
 10
499.9993774540344
 20
1102.376290416007
 30
0.0
  0
POINT
  5
4955
330
494B
100
AcDbEntity
  8
Defpoints
 62
     0
100
AcDbPoint
 10
498.4993774540344
 20
1202.376290416007
 30
0.0
  0
POINT
  5
4956
330
494B
100
AcDbEntity
  8
Defpoints
 62
     0
100
AcDbPoint
 10
380.7208055605711
 20
1202.376290416007
 30
0.0
  0
ENDBLK
  5
494D
330
494B
100
AcDbEntity
  8
0
100
AcDbBlockEnd
  0
BLOCK
  5
4959
330
4958
100
AcDbEntity
  8
0
100
AcDbBlockBegin
  2
*D10
 70
     1
 10
0.0
 20
0.0
 30
0.0
  3
*D10
  1
*D104
  0
LINE
  5
495B
330
4958
100
AcDbEntity
  8
Dim
  6
Continuous
 62
     0
370
    -2
100
AcDbLine
 10
473.4993774540344
 20
1202.376290416007
 30
0.0
 11
380.7208055605711
 21
1202.376290416007
 31
0.0
  0
LINE
  5
495C
330
4958
100
AcDbEntity
  8
Dim
  6
Continuous
 62
     0
370
    -2
100
AcDbLine
 10
473.4993774540344
 20
1302.376290416007
 30
0.0
 11
380.7208055605711
 21
1302.376290416007
 31
0.0
  0
LINE
  5
495D
330
4958
100
AcDbEntity
  8
Dim
  6
Continuous
 62
     0
370
    -2
100
AcDbLine
 10
380.7208055605711
 20
1212.375680064444
 30
0.0
 11
380.7208055605711
 21
1292.376900767569
 31
0.0
  0
INSERT
  5
495E
330
4958
100
AcDbEntity
  8
Dim
 62
     0
370
    -2
100
AcDbBlockReference
  2
_DOT
 10
380.7208055605711
 20
1202.376290416007
 30
0.0
 41
9.999389648437498
 42
9.999389648437498
 43
9.999389648437498
 50
270.0
  0
INSERT
  5
495F
330
4958
100
AcDbEntity
  8
Dim
 62
     0
370
    -2
100
AcDbBlockReference
  2
_DOT
 10
380.7208055605711
 20
1302.376290416007
 30
0.0
 41
9.999389648437498
 42
9.999389648437498
 43
9.999389648437498
 50
90.0
  0
MTEXT
  5
4960
330
4958
100
AcDbEntity
  8
Dim
  6
Continuous
 62
     0
100
AcDbMText
 10
358.5044969668211
 20
1252.376290416007
 30
0.0
 40
24.4326171875
 41
0.0
 46
0.0
 71
     5
 72
     1
  1
\A1;100
  7
ＭＳ ゴシック
 11
0.0
 21
1.0
 31
0.0
 73
     1
 44
1.0
  0
POINT
  5
4961
330
4958
100
AcDbEntity
  8
Defpoints
 62
     0
100
AcDbPoint
 10
498.4993774540344
 20
1202.376290416007
 30
0.0
  0
POINT
  5
4962
330
4958
100
AcDbEntity
  8
Defpoints
 62
     0
100
AcDbPoint
 10
498.4993774540344
 20
1302.376290416007
 30
0.0
  0
POINT
  5
4963
330
4958
100
AcDbEntity
  8
Defpoints
 62
     0
100
AcDbPoint
 10
380.7208055605711
 20
1302.376290416007
 30
0.0
  0
ENDBLK
  5
495A
330
4958
100
AcDbEntity
  8
0
100
AcDbBlockEnd
  0
BLOCK
  5
4966
330
4965
100
AcDbEntity
  8
0
100
AcDbBlockBegin
  2
*D11
 70
     1
 10
0.0
 20
0.0
 30
0.0
  3
*D11
  1
*D105
  0
LINE
  5
4968
330
4965
100
AcDbEntity
  8
Dim
  6
Continuous
 62
     0
370
    -2
100
AcDbLine
 10
449.9993774540344
 20
580.3762806151753
 30
0.0
 11
449.9993774540344
 21
468.5429265465266
 31
0.0
  0
LINE
  5
4969
330
4965
100
AcDbEntity
  8
Dim
  6
Continuous
 62
     0
370
    -2
100
AcDbLine
 10
579.9993774540344
 20
882.30434595478
 30
0.0
 11
579.9993774540344
 21
468.5429265465266
 31
0.0
  0
LINE
  5
496A
330
4965
100
AcDbEntity
  8
Dim
  6
Continuous
 62
     0
370
    -2
100
AcDbLine
 10
459.9987671024719
 20
468.5429265465266
 30
0.0
 11
569.9999878055969
 21
468.5429265465266
 31
0.0
  0
INSERT
  5
496B
330
4965
100
AcDbEntity
  8
Dim
 62
     0
370
    -2
100
AcDbBlockReference
  2
_DOT
 10
449.9993774540344
 20
468.5429265465266
 30
0.0
 41
9.999389648437498
 42
9.999389648437498
 43
9.999389648437498
 50
180.0
  0
INSERT
  5
496C
330
4965
100
AcDbEntity
  8
Dim
 62
     0
370
    -2
100
AcDbBlockReference
  2
_DOT
 10
579.9993774540344
 20
468.5429265465266
 30
0.0
 41
9.999389648437498
 42
9.999389648437498
 43
9.999389648437498
  0
MTEXT
  5
496D
330
4965
100
AcDbEntity
  8
Dim
  6
Continuous
 62
     0
100
AcDbMText
 10
514.9993774540344
 20
490.7592351402766
 30
0.0
 40
24.4326171875
 41
0.0
 46
0.0
 71
     5
 72
     1
  1
\A1;130
  7
ＭＳ ゴシック
 73
     1
 44
1.0
  0
POINT
  5
496E
330
4965
100
AcDbEntity
  8
Defpoints
 62
     0
100
AcDbPoint
 10
449.9993774540344
 20
605.3762806151753
 30
0.0
  0
POINT
  5
496F
330
4965
100
AcDbEntity
  8
Defpoints
 62
     0
100
AcDbPoint
 10
579.9993774540344
 20
907.30434595478
 30
0.0
  0
POINT
  5
4970
330
4965
100
AcDbEntity
  8
Defpoints
 62
     0
100
AcDbPoint
 10
579.9993774540344
 20
468.5429265465266
 30
0.0
  0
ENDBLK
  5
4967
330
4965
100
AcDbEntity
  8
0
100
AcDbBlockEnd
  0
BLOCK
  5
498F
330
498E
100
AcDbEntity
  8
0
100
AcDbBlockBegin
  2
*D13
 70
     1
 10
0.0
 20
0.0
 30
0.0
  3
*D13
  1
*D108
  0
LINE
  5
4991
330
498E
100
AcDbEntity
  8
Dim
  6
Continuous
 62
     0
370
    -2
100
AcDbLine
 10
449.9993774540344
 20
1829.661251134208
 30
0.0
 11
449.9993774540344
 21
1888.079216848494
 31
0.0
  0
LINE
  5
4992
330
498E
100
AcDbEntity
  8
Dim
  6
Continuous
 62
     0
370
    -2
100
AcDbLine
 10
969.9993774540344
 20
1767.097776848494
 30
0.0
 11
969.9993774540344
 21
1888.079216848494
 31
0.0
  0
LINE
  5
4993
330
498E
100
AcDbEntity
  8
Dim
  6
Continuous
 62
     0
370
    -2
100
AcDbLine
 10
459.9987671024719
 20
1888.079216848494
 30
0.0
 11
959.9999878055969
 21
1888.079216848494
 31
0.0
  0
INSERT
  5
4994
330
498E
100
AcDbEntity
  8
Dim
 62
     0
370
    -2
100
AcDbBlockReference
  2
_DOT
 10
449.9993774540344
 20
1888.079216848494
 30
0.0
 41
9.999389648437498
 42
9.999389648437498
 43
9.999389648437498
 50
180.0
  0
INSERT
  5
4995
330
498E
100
AcDbEntity
  8
Dim
 62
     0
370
    -2
100
AcDbBlockReference
  2
_DOT
 10
969.9993774540344
 20
1888.079216848494
 30
0.0
 41
9.999389648437498
 42
9.999389648437498
 43
9.999389648437498
  0
MTEXT
  5
4996
330
498E
100
AcDbEntity
  8
Dim
  6
Continuous
 62
     0
100
AcDbMText
 10
709.9993774540344
 20
1910.295525442244
 30
0.0
 40
24.4326171875
 41
0.0
 46
0.0
 71
     5
 72
     1
  1
\A1;520
  7
ＭＳ ゴシック
 73
     1
 44
1.0
  0
POINT
  5
4997
330
498E
100
AcDbEntity
  8
Defpoints
 62
     0
100
AcDbPoint
 10
449.9993774540344
 20
1804.661251134208
 30
0.0
  0
POINT
  5
4998
330
498E
100
AcDbEntity
  8
Defpoints
 62
     0
100
AcDbPoint
 10
969.9993774540344
 20
1742.097776848494
 30
0.0
  0
POINT
  5
4999
330
498E
100
AcDbEntity
  8
Defpoints
 62
     0
100
AcDbPoint
 10
969.9993774540344
 20
1888.079216848494
 30
0.0
  0
ENDBLK
  5
4990
330
498E
100
AcDbEntity
  8
0
100
AcDbBlockEnd
  0
BLOCK
  5
4A52
330
4A51
100
AcDbEntity
  8
0
100
AcDbBlockBegin
  2
*D14
 70
     1
 10
0.0
 20
0.0
 30
0.0
  3
*D14
  1
*D120
  0
LINE
  5
4A54
330
4A51
100
AcDbEntity
  8
Dim
  6
Continuous
 62
     0
370
    -2
100
AcDbLine
 10
427.9993774540349
 20
1802.376300216838
 30
0.0
 11
301.6131544358129
 21
1802.376300216838
 31
0.0
  0
LINE
  5
4A55
330
4A51
100
AcDbEntity
  8
Dim
  6
Continuous
 62
     0
370
    -2
100
AcDbLine
 10
427.9993774540349
 20
602.376300216838
 30
0.0
 11
301.6131544358128
 21
602.376300216838
 31
0.0
  0
LINE
  5
4A56
330
4A51
100
AcDbEntity
  8
Dim
  6
Continuous
 62
     0
370
    -2
100
AcDbLine
 10
301.6131544358129
 20
1792.3769105684
 30
0.0
 11
301.6131544358128
 21
612.3756898652755
 31
0.0
  0
INSERT
  5
4A57
330
4A51
100
AcDbEntity
  8
Dim
 62
     0
370
    -2
100
AcDbBlockReference
  2
_DOT
 10
301.6131544358129
 20
1802.376300216838
 30
0.0
 41
9.999389648437498
 42
9.999389648437498
 43
9.999389648437498
 50
90.0
  0
INSERT
  5
4A58
330
4A51
100
AcDbEntity
  8
Dim
 62
     0
370
    -2
100
AcDbBlockReference
  2
_DOT
 10
301.6131544358128
 20
602.376300216838
 30
0.0
 41
9.999389648437498
 42
9.999389648437498
 43
9.999389648437498
 50
270.0
  0
MTEXT
  5
4A59
330
4A51
100
AcDbEntity
  8
Dim
  6
Continuous
 62
     0
100
AcDbMText
 10
279.3968458420628
 20
1202.376300216838
 30
0.0
 40
24.4326171875
 41
0.0
 46
0.0
 71
     5
 72
     1
  1
\A1;1200
  7
ＭＳ ゴシック
 11
4.736951571734002E-17
 21
1.0
 31
0.0
 73
     1
 44
1.0
  0
POINT
  5
4A5A
330
4A51
100
AcDbEntity
  8
Defpoints
 62
     0
100
AcDbPoint
 10
452.9993774540349
 20
1802.376300216838
 30
0.0
  0
POINT
  5
4A5B
330
4A51
100
AcDbEntity
  8
Defpoints
 62
     0
100
AcDbPoint
 10
452.9993774540349
 20
602.376300216838
 30
0.0
  0
POINT
  5
4A5C
330
4A51
100
AcDbEntity
  8
Defpoints
 62
     0
100
AcDbPoint
 10
301.6131544358128
 20
602.376300216838
 30
0.0
  0
ENDBLK
  5
4A53
330
4A51
100
AcDbEntity
  8
0
100
AcDbBlockEnd
  0
BLOCK
  5
4A64
330
4A63
100
AcDbEntity
  8
0
100
AcDbBlockBegin
  2
*D15
 70
     1
 10
0.0
 20
0.0
 30
0.0
  3
*D15
  1
*D121
  0
LINE
  5
4A66
330
4A63
100
AcDbEntity
  8
Dim
  6
Continuous
 62
     0
370
    -2
100
AcDbLine
 10
869.9993774540349
 20
1532.376290416007
 30
0.0
 11
1041.215870218669
 21
1532.376290416007
 31
0.0
  0
LINE
  5
4A67
330
4A63
100
AcDbEntity
  8
Dim
  6
Continuous
 62
     0
370
    -2
100
AcDbLine
 10
869.9993774540344
 20
872.3762904160067
 30
0.0
 11
1041.215870218669
 21
872.3762904160067
 31
0.0
  0
LINE
  5
4A68
330
4A63
100
AcDbEntity
  8
Dim
  6
Continuous
 62
     0
370
    -2
100
AcDbLine
 10
1041.215870218669
 20
1522.376900767569
 30
0.0
 11
1041.215870218669
 21
882.3756800644442
 31
0.0
  0
INSERT
  5
4A69
330
4A63
100
AcDbEntity
  8
Dim
 62
     0
370
    -2
100
AcDbBlockReference
  2
_DOT
 10
1041.215870218669
 20
1532.376290416007
 30
0.0
 41
9.999389648437498
 42
9.999389648437498
 43
9.999389648437498
 50
90.0
  0
INSERT
  5
4A6A
330
4A63
100
AcDbEntity
  8
Dim
 62
     0
370
    -2
100
AcDbBlockReference
  2
_DOT
 10
1041.215870218669
 20
872.3762904160067
 30
0.0
 41
9.999389648437498
 42
9.999389648437498
 43
9.999389648437498
 50
270.0
  0
MTEXT
  5
4A6B
330
4A63
100
AcDbEntity
  8
Dim
 62
     0
100
AcDbMText
 10
1018.999561624919
 20
1202.376290416007
 30
0.0
 40
24.4326171875
 41
0.0
 46
0.0
 71
     5
 72
     1
  1
\A1;660
  7
ＭＳ ゴシック
 11
0.0
 21
1.0
 31
0.0
 73
     1
 44
1.0
  0
POINT
  5
4A6C
330
4A63
100
AcDbEntity
  8
Defpoints
 62
     0
100
AcDbPoint
 10
844.9993774540349
 20
1532.376290416007
 30
0.0
  0
POINT
  5
4A6D
330
4A63
100
AcDbEntity
  8
Defpoints
 62
     0
100
AcDbPoint
 10
844.9993774540344
 20
872.3762904160067
 30
0.0
  0
POINT
  5
4A6E
330
4A63
100
AcDbEntity
  8
Defpoints
 62
     0
100
AcDbPoint
 10
1041.215870218669
 20
872.3762904160067
 30
0.0
  0
ENDBLK
  5
4A65
330
4A63
100
AcDbEntity
  8
0
100
AcDbBlockEnd
  0
BLOCK
  5
4A73
330
4A72
100
AcDbEntity
  8
0
100
AcDbBlockBegin
  2
*D16
 70
     1
 10
0.0
 20
0.0
 30
0.0
  3
*D16
  1
*D122
  0
LINE
  5
4A75
330
4A72
100
AcDbEntity
  8
Dim
  6
Continuous
 62
     0
370
    -2
100
AcDbLine
 10
579.9993774540344
 20
857.30434595478
 30
0.0
 11
579.9993774540344
 21
468.5429265465266
 31
0.0
  0
LINE
  5
4A76
330
4A72
100
AcDbEntity
  8
Dim
  6
Continuous
 62
     0
370
    -2
100
AcDbLine
 10
894.9993774540344
 20
897.3762904160067
 30
0.0
 11
894.9993774540344
 21
468.5429265465266
 31
0.0
  0
LINE
  5
4A77
330
4A72
100
AcDbEntity
  8
Dim
  6
Continuous
 62
     0
370
    -2
100
AcDbLine
 10
589.9987671024719
 20
468.5429265465266
 30
0.0
 11
884.9999878055969
 21
468.5429265465266
 31
0.0
  0
INSERT
  5
4A78
330
4A72
100
AcDbEntity
  8
Dim
 62
     0
370
    -2
100
AcDbBlockReference
  2
_DOT
 10
579.9993774540344
 20
468.5429265465266
 30
0.0
 41
9.999389648437498
 42
9.999389648437498
 43
9.999389648437498
 50
180.0
  0
INSERT
  5
4A79
330
4A72
100
AcDbEntity
  8
Dim
 62
     0
370
    -2
100
AcDbBlockReference
  2
_DOT
 10
894.9993774540344
 20
468.5429265465266
 30
0.0
 41
9.999389648437498
 42
9.999389648437498
 43
9.999389648437498
  0
MTEXT
  5
4A7A
330
4A72
100
AcDbEntity
  8
Dim
 62
     0
100
AcDbMText
 10
737.4993774540344
 20
490.7592351402766
 30
0.0
 40
24.4326171875
 41
0.0
 46
0.0
 71
     5
 72
     1
  1
\A1;315
  7
ＭＳ ゴシック
 73
     1
 44
1.0
  0
POINT
  5
4A7B
330
4A72
100
AcDbEntity
  8
Defpoints
 62
     0
100
AcDbPoint
 10
579.9993774540344
 20
882.30434595478
 30
0.0
  0
POINT
  5
4A7C
330
4A72
100
AcDbEntity
  8
Defpoints
 62
     0
100
AcDbPoint
 10
894.9993774540344
 20
922.3762904160067
 30
0.0
  0
POINT
  5
4A7D
330
4A72
100
AcDbEntity
  8
Defpoints
 62
     0
100
AcDbPoint
 10
894.9993774540344
 20
468.5429265465266
 30
0.0
  0
ENDBLK
  5
4A74
330
4A72
100
AcDbEntity
  8
0
100
AcDbBlockEnd
  0
BLOCK
  5
4AB9
330
4AB8
100
AcDbEntity
  8
0
100
AcDbBlockBegin
  2
*D17
 70
     1
 10
0.0
 20
0.0
 30
0.0
  3
*D17
  1
*D123
  0
LINE
  5
4ABB
330
4AB8
100
AcDbEntity
  8
Dim
  6
Continuous
 62
     0
370
    -2
100
AcDbLine
 10
1597.805104923595
 20
1622.376290416007
 30
0.0
 11
1459.356780398441
 21
1622.376290416007
 31
0.0
  0
LINE
  5
4ABC
330
4AB8
100
AcDbEntity
  8
Dim
  6
Continuous
 62
     0
370
    -2
100
AcDbLine
 10
1597.805104923595
 20
1342.376290416007
 30
0.0
 11
1459.356780398441
 21
1342.376290416007
 31
0.0
  0
LINE
  5
4ABD
330
4AB8
100
AcDbEntity
  8
Dim
  6
Continuous
 62
     0
370
    -2
100
AcDbLine
 10
1459.356780398441
 20
1612.376900767569
 30
0.0
 11
1459.356780398441
 21
1352.375680064444
 31
0.0
  0
INSERT
  5
4ABE
330
4AB8
100
AcDbEntity
  8
Dim
 62
     0
370
    -2
100
AcDbBlockReference
  2
_DOT
 10
1459.356780398441
 20
1622.376290416007
 30
0.0
 41
9.999389648437498
 42
9.999389648437498
 43
9.999389648437498
 50
90.0
  0
INSERT
  5
4ABF
330
4AB8
100
AcDbEntity
  8
Dim
 62
     0
370
    -2
100
AcDbBlockReference
  2
_DOT
 10
1459.356780398441
 20
1342.376290416007
 30
0.0
 41
9.999389648437498
 42
9.999389648437498
 43
9.999389648437498
 50
270.0
  0
MTEXT
  5
4AC0
330
4AB8
100
AcDbEntity
  8
Dim
  6
Continuous
 62
     0
100
AcDbMText
 10
1437.140471804691
 20
1482.376290416007
 30
0.0
 40
24.4326171875
 41
0.0
 46
0.0
 71
     5
 72
     1
  1
\A1;280
  7
ＭＳ ゴシック
 11
0.0
 21
1.0
 31
0.0
 73
     1
 44
1.0
  0
POINT
  5
4AC1
330
4AB8
100
AcDbEntity
  8
Defpoints
 62
     0
100
AcDbPoint
 10
1622.805104923595
 20
1622.376290416007
 30
0.0
  0
POINT
  5
4AC2
330
4AB8
100
AcDbEntity
  8
Defpoints
 62
     0
100
AcDbPoint
 10
1622.805104923595
 20
1342.376290416007
 30
0.0
  0
POINT
  5
4AC3
330
4AB8
100
AcDbEntity
  8
Defpoints
 62
     0
100
AcDbPoint
 10
1459.356780398441
 20
1342.376290416007
 30
0.0
  0
ENDBLK
  5
4ABA
330
4AB8
100
AcDbEntity
  8
0
100
AcDbBlockEnd
  0
BLOCK
  5
4AC8
330
4AC7
100
AcDbEntity
  8
0
100
AcDbBlockBegin
  2
*D18
 70
     1
 10
0.0
 20
0.0
 30
0.0
  3
*D18
  1
*D124
  0
LINE
  5
4ACA
330
4AC7
100
AcDbEntity
  8
Dim
  6
Continuous
 62
     0
370
    -2
100
AcDbLine
 10
1597.805104923595
 20
1342.376290416007
 30
0.0
 11
1459.356780398441
 21
1342.376290416007
 31
0.0
  0
LINE
  5
4ACB
330
4AC7
100
AcDbEntity
  8
Dim
  6
Continuous
 62
     0
370
    -2
100
AcDbLine
 10
1597.805104923595
 20
1062.376290416007
 30
0.0
 11
1459.356780398441
 21
1062.376290416007
 31
0.0
  0
LINE
  5
4ACC
330
4AC7
100
AcDbEntity
  8
Dim
  6
Continuous
 62
     0
370
    -2
100
AcDbLine
 10
1459.356780398441
 20
1332.376900767569
 30
0.0
 11
1459.356780398441
 21
1072.375680064444
 31
0.0
  0
INSERT
  5
4ACD
330
4AC7
100
AcDbEntity
  8
Dim
 62
     0
370
    -2
100
AcDbBlockReference
  2
_DOT
 10
1459.356780398441
 20
1342.376290416007
 30
0.0
 41
9.999389648437498
 42
9.999389648437498
 43
9.999389648437498
 50
90.0
  0
INSERT
  5
4ACE
330
4AC7
100
AcDbEntity
  8
Dim
 62
     0
370
    -2
100
AcDbBlockReference
  2
_DOT
 10
1459.356780398441
 20
1062.376290416007
 30
0.0
 41
9.999389648437498
 42
9.999389648437498
 43
9.999389648437498
 50
270.0
  0
MTEXT
  5
4ACF
330
4AC7
100
AcDbEntity
  8
Dim
  6
Continuous
 62
     0
100
AcDbMText
 10
1437.140471804691
 20
1202.376290416007
 30
0.0
 40
24.4326171875
 41
0.0
 46
0.0
 71
     5
 72
     1
  1
\A1;280
  7
ＭＳ ゴシック
 11
0.0
 21
1.0
 31
0.0
 73
     1
 44
1.0
  0
POINT
  5
4AD0
330
4AC7
100
AcDbEntity
  8
Defpoints
 62
     0
100
AcDbPoint
 10
1622.805104923595
 20
1342.376290416007
 30
0.0
  0
POINT
  5
4AD1
330
4AC7
100
AcDbEntity
  8
Defpoints
 62
     0
100
AcDbPoint
 10
1622.805104923595
 20
1062.376290416007
 30
0.0
  0
POINT
  5
4AD2
330
4AC7
100
AcDbEntity
  8
Defpoints
 62
     0
100
AcDbPoint
 10
1459.356780398441
 20
1062.376290416007
 30
0.0
  0
ENDBLK
  5
4AC9
330
4AC7
100
AcDbEntity
  8
0
100
AcDbBlockEnd
  0
BLOCK
  5
4AD7
330
4AD6
100
AcDbEntity
  8
0
100
AcDbBlockBegin
  2
*D19
 70
     1
 10
0.0
 20
0.0
 30
0.0
  3
*D19
  1
*D125
  0
LINE
  5
4AD9
330
4AD6
100
AcDbEntity
  8
Dim
  6
Continuous
 62
     0
370
    -2
100
AcDbLine
 10
1597.805104923595
 20
1062.376290416007
 30
0.0
 11
1459.356780398441
 21
1062.376290416007
 31
0.0
  0
LINE
  5
4ADA
330
4AD6
100
AcDbEntity
  8
Dim
  6
Continuous
 62
     0
370
    -2
100
AcDbLine
 10
1597.805104923595
 20
782.3762904160067
 30
0.0
 11
1459.356780398441
 21
782.3762904160067
 31
0.0
  0
LINE
  5
4ADB
330
4AD6
100
AcDbEntity
  8
Dim
  6
Continuous
 62
     0
370
    -2
100
AcDbLine
 10
1459.356780398441
 20
1052.376900767569
 30
0.0
 11
1459.356780398441
 21
792.3756800644442
 31
0.0
  0
INSERT
  5
4ADC
330
4AD6
100
AcDbEntity
  8
Dim
 62
     0
370
    -2
100
AcDbBlockReference
  2
_DOT
 10
1459.356780398441
 20
1062.376290416007
 30
0.0
 41
9.999389648437498
 42
9.999389648437498
 43
9.999389648437498
 50
90.0
  0
INSERT
  5
4ADD
330
4AD6
100
AcDbEntity
  8
Dim
 62
     0
370
    -2
100
AcDbBlockReference
  2
_DOT
 10
1459.356780398441
 20
782.3762904160067
 30
0.0
 41
9.999389648437498
 42
9.999389648437498
 43
9.999389648437498
 50
270.0
  0
MTEXT
  5
4ADE
330
4AD6
100
AcDbEntity
  8
Dim
  6
Continuous
 62
     0
100
AcDbMText
 10
1437.140471804691
 20
922.3762904160067
 30
0.0
 40
24.4326171875
 41
0.0
 46
0.0
 71
     5
 72
     1
  1
\A1;280
  7
ＭＳ ゴシック
 11
0.0
 21
1.0
 31
0.0
 73
     1
 44
1.0
  0
POINT
  5
4ADF
330
4AD6
100
AcDbEntity
  8
Defpoints
 62
     0
100
AcDbPoint
 10
1622.805104923595
 20
1062.376290416007
 30
0.0
  0
POINT
  5
4AE0
330
4AD6
100
AcDbEntity
  8
Defpoints
 62
     0
100
AcDbPoint
 10
1622.805104923595
 20
782.3762904160067
 30
0.0
  0
POINT
  5
4AE1
330
4AD6
100
AcDbEntity
  8
Defpoints
 62
     0
100
AcDbPoint
 10
1459.356780398441
 20
782.3762904160067
 30
0.0
  0
ENDBLK
  5
4AD8
330
4AD6
100
AcDbEntity
  8
0
100
AcDbBlockEnd
  0
BLOCK
  5
4B38
330
4B37
100
AcDbEntity
  8
0
100
AcDbBlockBegin
  2
*D20
 70
     1
 10
0.0
 20
0.0
 30
0.0
  3
*D20
  1
*D126
  0
LINE
  5
4B3A
330
4B37
100
AcDbEntity
  8
Dim
  6
Continuous
 62
     0
370
    -2
100
AcDbLine
 10
1627.404400243254
 20
588.4574273253013
 30
0.0
 11
1627.404400243254
 21
468.5429265465266
 31
0.0
  0
LINE
  5
4B3B
330
4B37
100
AcDbEntity
  8
Dim
  6
Continuous
 62
     0
370
    -2
100
AcDbLine
 10
1667.404400243254
 20
727.7693281486352
 30
0.0
 11
1667.404400243254
 21
468.5429265465266
 31
0.0
  0
LINE
  5
4B3C
330
4B37
100
AcDbEntity
  8
Dim
  6
Continuous
 62
     0
370
    -2
100
AcDbLine
 10
1637.403789891692
 20
468.5429265465266
 30
0.0
 11
1657.405010594817
 21
468.5429265465266
 31
0.0
  0
INSERT
  5
4B3D
330
4B37
100
AcDbEntity
  8
Dim
 62
     0
370
    -2
100
AcDbBlockReference
  2
_DOT
 10
1627.404400243254
 20
468.5429265465266
 30
0.0
 41
9.999389648437498
 42
9.999389648437498
 43
9.999389648437498
 50
180.0
  0
INSERT
  5
4B3E
330
4B37
100
AcDbEntity
  8
Dim
 62
     0
370
    -2
100
AcDbBlockReference
  2
_DOT
 10
1667.404400243254
 20
468.5429265465266
 30
0.0
 41
9.999389648437498
 42
9.999389648437498
 43
9.999389648437498
  0
MTEXT
  5
4B3F
330
4B37
100
AcDbEntity
  8
Dim
  6
Continuous
 62
     0
100
AcDbMText
 10
1647.404400243254
 20
490.7592351402766
 30
0.0
 40
24.4326171875
 41
0.0
 46
0.0
 71
     5
 72
     1
  1
\A1;40
  7
ＭＳ ゴシック
 73
     1
 44
1.0
  0
POINT
  5
4B40
330
4B37
100
AcDbEntity
  8
Defpoints
 62
     0
100
AcDbPoint
 10
1627.404400243254
 20
613.4574273253013
 30
0.0
  0
POINT
  5
4B41
330
4B37
100
AcDbEntity
  8
Defpoints
 62
     0
100
AcDbPoint
 10
1667.404400243254
 20
752.7693281486352
 30
0.0
  0
POINT
  5
4B42
330
4B37
100
AcDbEntity
  8
Defpoints
 62
     0
100
AcDbPoint
 10
1667.404400243254
 20
468.5429265465266
 30
0.0
  0
ENDBLK
  5
4B39
330
4B37
100
AcDbEntity
  8
0
100
AcDbBlockEnd
  0
BLOCK
  5
4B57
330
4B56
100
AcDbEntity
  8
0
100
AcDbBlockBegin
  2
*D21
 70
     1
 10
0.0
 20
0.0
 30
0.0
  3
*D21
  1
*D127
  0
LINE
  5
4B59
330
4B56
100
AcDbEntity
  8
Dim
  6
Continuous
 62
     0
370
    -2
100
AcDbLine
 10
1627.404400243254
 20
1819.543848612269
 30
0.0
 11
1627.404400243254
 21
1888.079216848494
 31
0.0
  0
LINE
  5
4B5A
330
4B56
100
AcDbEntity
  8
Dim
  6
Continuous
 62
     0
370
    -2
100
AcDbLine
 10
1807.404400243254
 20
1281.679942898899
 30
0.0
 11
1807.404400243254
 21
1888.079216848494
 31
0.0
  0
LINE
  5
4B5B
330
4B56
100
AcDbEntity
  8
Dim
  6
Continuous
 62
     0
370
    -2
100
AcDbLine
 10
1637.403789891692
 20
1888.079216848494
 30
0.0
 11
1797.405010594817
 21
1888.079216848494
 31
0.0
  0
INSERT
  5
4B5C
330
4B56
100
AcDbEntity
  8
Dim
 62
     0
370
    -2
100
AcDbBlockReference
  2
_DOT
 10
1627.404400243254
 20
1888.079216848494
 30
0.0
 41
9.999389648437498
 42
9.999389648437498
 43
9.999389648437498
 50
180.0
  0
INSERT
  5
4B5D
330
4B56
100
AcDbEntity
  8
Dim
 62
     0
370
    -2
100
AcDbBlockReference
  2
_DOT
 10
1807.404400243254
 20
1888.079216848494
 30
0.0
 41
9.999389648437498
 42
9.999389648437498
 43
9.999389648437498
  0
MTEXT
  5
4B5E
330
4B56
100
AcDbEntity
  8
Dim
  6
Continuous
 62
     0
100
AcDbMText
 10
1717.404400243254
 20
1910.295525442244
 30
0.0
 40
24.4326171875
 41
0.0
 46
0.0
 71
     5
 72
     1
  1
\A1;180
  7
ＭＳ ゴシック
 73
     1
 44
1.0
  0
POINT
  5
4B5F
330
4B56
100
AcDbEntity
  8
Defpoints
 62
     0
100
AcDbPoint
 10
1627.404400243254
 20
1794.543848612269
 30
0.0
  0
POINT
  5
4B60
330
4B56
100
AcDbEntity
  8
Defpoints
 62
     0
100
AcDbPoint
 10
1807.404400243254
 20
1256.679942898899
 30
0.0
  0
POINT
  5
4B61
330
4B56
100
AcDbEntity
  8
Defpoints
 62
     0
100
AcDbPoint
 10
1807.404400243254
 20
1888.079216848494
 30
0.0
  0
ENDBLK
  5
4B58
330
4B56
100
AcDbEntity
  8
0
100
AcDbBlockEnd
  0
BLOCK
  5
4B65
330
4B64
100
AcDbEntity
  8
0
100
AcDbBlockBegin
  2
*D22
 70
     1
 10
0.0
 20
0.0
 30
0.0
  3
*D22
  1
*D128
  0
LINE
  5
4B67
330
4B64
100
AcDbEntity
  8
Dim
  6
Continuous
 62
     0
370
    -2
100
AcDbLine
 10
1627.404386495334
 20
2131.466879214867
 30
0.0
 11
1627.404386495334
 21
2100.048289926181
 31
0.0
  0
LINE
  5
4B68
330
4B64
100
AcDbEntity
  8
Dim
  6
Continuous
 62
     0
370
    -2
100
AcDbLine
 10
1642.404386495334
 20
2131.466879214867
 30
0.0
 11
1642.404386495334
 21
2100.048289926181
 31
0.0
  0
LINE
  5
4B69
330
4B64
100
AcDbEntity
  8
Dim
  6
Continuous
 62
     0
370
    -2
100
AcDbLine
 10
1627.404386495334
 20
2100.048289926181
 30
0.0
 11
1560.627458760959
 21
2100.048289926181
 31
0.0
  0
LINE
  5
4B6A
330
4B64
100
AcDbEntity
  8
Dim
  6
Continuous
 62
     0
370
    -2
100
AcDbLine
 10
1637.403776143771
 20
2100.048289926181
 30
0.0
 11
1632.404996846896
 21
2100.048289926181
 31
0.0
  0
INSERT
  5
4B6B
330
4B64
100
AcDbEntity
  8
Dim
 62
     0
370
    -2
100
AcDbBlockReference
  2
_DOT
 10
1627.404386495334
 20
2100.048289926181
 30
0.0
 41
9.999389648437498
 42
9.999389648437498
 43
9.999389648437498
 50
180.0
  0
INSERT
  5
4B6C
330
4B64
100
AcDbEntity
  8
Dim
 62
     0
370
    -2
100
AcDbBlockReference
  2
_DOT
 10
1642.404386495334
 20
2100.048289926181
 30
0.0
 41
9.999389648437498
 42
9.999389648437498
 43
9.999389648437498
  0
MTEXT
  5
4B6D
330
4B64
100
AcDbEntity
  8
Dim
  6
Continuous
 62
     0
100
AcDbMText
 10
1584.016532979709
 20
2122.264598519931
 30
0.0
 40
24.4326171875
 41
0.0
 46
0.0
 71
     5
 72
     1
  1
\A1;15
  7
ＭＳ ゴシック
 73
     1
 44
1.0
  0
POINT
  5
4B6E
330
4B64
100
AcDbEntity
  8
Defpoints
 62
     0
100
AcDbPoint
 10
1627.404386495334
 20
2156.466879214867
 30
0.0
  0
POINT
  5
4B6F
330
4B64
100
AcDbEntity
  8
Defpoints
 62
     0
100
AcDbPoint
 10
1642.404386495334
 20
2156.466879214867
 30
0.0
  0
POINT
  5
4B70
330
4B64
100
AcDbEntity
  8
Defpoints
 62
     0
100
AcDbPoint
 10
1642.404386495334
 20
2100.048289926181
 30
0.0
  0
ENDBLK
  5
4B66
330
4B64
100
AcDbEntity
  8
0
100
AcDbBlockEnd
  0
BLOCK
  5
4B75
330
4B74
100
AcDbEntity
  8
0
100
AcDbBlockBegin
  2
*D23
 70
     1
 10
0.0
 20
0.0
 30
0.0
  3
*D23
  1
*D129
  0
LINE
  5
4B77
330
4B74
100
AcDbEntity
  8
Dim
  6
Continuous
 62
     0
370
    -2
100
AcDbLine
 10
1642.404386495334
 20
2106.466879214867
 30
0.0
 11
1642.404386495334
 21
2100.048289926181
 31
0.0
  0
LINE
  5
4B78
330
4B74
100
AcDbEntity
  8
Dim
  6
Continuous
 62
     0
370
    -2
100
AcDbLine
 10
1717.404386495334
 20
2200.493723152403
 30
0.0
 11
1717.404386495334
 21
2100.048289926181
 31
0.0
  0
LINE
  5
4B79
330
4B74
100
AcDbEntity
  8
Dim
  6
Continuous
 62
     0
370
    -2
100
AcDbLine
 10
1652.403776143771
 20
2100.048289926181
 30
0.0
 11
1707.404996846896
 21
2100.048289926181
 31
0.0
  0
INSERT
  5
4B7A
330
4B74
100
AcDbEntity
  8
Dim
 62
     0
370
    -2
100
AcDbBlockReference
  2
_DOT
 10
1642.404386495334
 20
2100.048289926181
 30
0.0
 41
9.999389648437498
 42
9.999389648437498
 43
9.999389648437498
 50
180.0
  0
INSERT
  5
4B7B
330
4B74
100
AcDbEntity
  8
Dim
 62
     0
370
    -2
100
AcDbBlockReference
  2
_DOT
 10
1717.404386495334
 20
2100.048289926181
 30
0.0
 41
9.999389648437498
 42
9.999389648437498
 43
9.999389648437498
  0
MTEXT
  5
4B7C
330
4B74
100
AcDbEntity
  8
Dim
  6
Continuous
 62
     0
100
AcDbMText
 10
1679.904386495334
 20
2122.264598519931
 30
0.0
 40
24.4326171875
 41
0.0
 46
0.0
 71
     5
 72
     1
  1
\A1;75
  7
ＭＳ ゴシック
 73
     1
 44
1.0
  0
POINT
  5
4B7D
330
4B74
100
AcDbEntity
  8
Defpoints
 62
     0
100
AcDbPoint
 10
1642.404386495334
 20
2131.466879214867
 30
0.0
  0
POINT
  5
4B7E
330
4B74
100
AcDbEntity
  8
Defpoints
 62
     0
100
AcDbPoint
 10
1717.404386495334
 20
2225.493723152403
 30
0.0
  0
POINT
  5
4B7F
330
4B74
100
AcDbEntity
  8
Defpoints
 62
     0
100
AcDbPoint
 10
1717.404386495334
 20
2100.048289926181
 30
0.0
  0
ENDBLK
  5
4B76
330
4B74
100
AcDbEntity
  8
0
100
AcDbBlockEnd
  0
BLOCK
  5
4B82
330
4B81
100
AcDbEntity
  8
0
100
AcDbBlockBegin
  2
*D24
 70
     1
 10
0.0
 20
0.0
 30
0.0
  3
*D24
  1
*D130
  0
LINE
  5
4B84
330
4B81
100
AcDbEntity
  8
Dim
  6
Continuous
 62
     0
370
    -2
100
AcDbLine
 10
1717.404386495334
 20
2175.493723152403
 30
0.0
 11
1717.404386495334
 21
2100.048289926181
 31
0.0
  0
LINE
  5
4B85
330
4B81
100
AcDbEntity
  8
Dim
  6
Continuous
 62
     0
370
    -2
100
AcDbLine
 10
1807.404386495334
 20
2390.16798856993
 30
0.0
 11
1807.404386495334
 21
2100.048289926181
 31
0.0
  0
LINE
  5
4B86
330
4B81
100
AcDbEntity
  8
Dim
  6
Continuous
 62
     0
370
    -2
100
AcDbLine
 10
1727.403776143771
 20
2100.048289926181
 30
0.0
 11
1797.404996846896
 21
2100.048289926181
 31
0.0
  0
INSERT
  5
4B87
330
4B81
100
AcDbEntity
  8
Dim
 62
     0
370
    -2
100
AcDbBlockReference
  2
_DOT
 10
1717.404386495334
 20
2100.048289926181
 30
0.0
 41
9.999389648437498
 42
9.999389648437498
 43
9.999389648437498
 50
180.0
  0
INSERT
  5
4B88
330
4B81
100
AcDbEntity
  8
Dim
 62
     0
370
    -2
100
AcDbBlockReference
  2
_DOT
 10
1807.404386495334
 20
2100.048289926181
 30
0.0
 41
9.999389648437498
 42
9.999389648437498
 43
9.999389648437498
  0
MTEXT
  5
4B89
330
4B81
100
AcDbEntity
  8
Dim
  6
Continuous
 62
     0
100
AcDbMText
 10
1762.404386495334
 20
2122.264598519931
 30
0.0
 40
24.4326171875
 41
0.0
 46
0.0
 71
     5
 72
     1
  1
\A1;90
  7
ＭＳ ゴシック
 73
     1
 44
1.0
  0
POINT
  5
4B8A
330
4B81
100
AcDbEntity
  8
Defpoints
 62
     0
100
AcDbPoint
 10
1717.404386495334
 20
2200.493723152403
 30
0.0
  0
POINT
  5
4B8B
330
4B81
100
AcDbEntity
  8
Defpoints
 62
     0
100
AcDbPoint
 10
1807.404386495334
 20
2415.16798856993
 30
0.0
  0
POINT
  5
4B8C
330
4B81
100
AcDbEntity
  8
Defpoints
 62
     0
100
AcDbPoint
 10
1807.404386495334
 20
2100.048289926181
 30
0.0
  0
ENDBLK
  5
4B83
330
4B81
100
AcDbEntity
  8
0
100
AcDbBlockEnd
  0
BLOCK
  5
4BB8
330
4BB7
100
AcDbEntity
  8
0
100
AcDbBlockBegin
  2
*D25
 70
     1
 10
0.0
 20
0.0
 30
0.0
  3
*D25
  1
*D132
  0
LINE
  5
4BBA
330
4BB7
100
AcDbEntity
  8
Dim
  6
Continuous
 62
     0
370
    -2
100
AcDbLine
 10
1606.363374200656
 20
2674.48958603615
 30
0.0
 11
1546.63279840104
 21
2674.48958603615
 31
0.0
  0
LINE
  5
4BBB
330
4BB7
100
AcDbEntity
  8
Dim
  6
Continuous
 62
     0
370
    -2
100
AcDbLine
 10
1606.363374200656
 20
2609.48958603615
 30
0.0
 11
1546.63279840104
 21
2609.48958603615
 31
0.0
  0
LINE
  5
4BBC
330
4BB7
100
AcDbEntity
  8
Dim
  6
Continuous
 62
     0
370
    -2
100
AcDbLine
 10
1546.63279840104
 20
2664.490196387712
 30
0.0
 11
1546.63279840104
 21
2619.488975684587
 31
0.0
  0
INSERT
  5
4BBD
330
4BB7
100
AcDbEntity
  8
Dim
 62
     0
370
    -2
100
AcDbBlockReference
  2
_DOT
 10
1546.63279840104
 20
2674.48958603615
 30
0.0
 41
9.999389648437498
 42
9.999389648437498
 43
9.999389648437498
 50
90.0
  0
INSERT
  5
4BBE
330
4BB7
100
AcDbEntity
  8
Dim
 62
     0
370
    -2
100
AcDbBlockReference
  2
_DOT
 10
1546.63279840104
 20
2609.48958603615
 30
0.0
 41
9.999389648437498
 42
9.999389648437498
 43
9.999389648437498
 50
270.0
  0
MTEXT
  5
4BBF
330
4BB7
100
AcDbEntity
  8
Dim
 62
     0
100
AcDbMText
 10
1524.41648980729
 20
2641.98958603615
 30
0.0
 40
24.4326171875
 41
0.0
 46
0.0
 71
     5
 72
     1
  1
\A1;65
  7
ＭＳ ゴシック
 11
0.0
 21
1.0
 31
0.0
 73
     1
 44
1.0
  0
POINT
  5
4BC0
330
4BB7
100
AcDbEntity
  8
Defpoints
 62
     0
100
AcDbPoint
 10
1631.363374200656
 20
2674.48958603615
 30
0.0
  0
POINT
  5
4BC1
330
4BB7
100
AcDbEntity
  8
Defpoints
 62
     0
100
AcDbPoint
 10
1631.363374200656
 20
2609.48958603615
 30
0.0
  0
POINT
  5
4BC2
330
4BB7
100
AcDbEntity
  8
Defpoints
 62
     0
100
AcDbPoint
 10
1546.63279840104
 20
2609.48958603615
 30
0.0
  0
ENDBLK
  5
4BB9
330
4BB7
100
AcDbEntity
  8
0
100
AcDbBlockEnd
  0
BLOCK
  5
4C1C
330
4C1B
100
AcDbEntity
  8
0
100
AcDbBlockBegin
  2
*D26
 70
     1
 10
0.0
 20
0.0
 30
0.0
  3
*D26
  1
*D136
  0
LINE
  5
4C1E
330
4C1B
100
AcDbEntity
  8
Dim
  6
Continuous
 62
     0
370
    -2
100
AcDbLine
 10
1626.567469528606
 20
2448.667782285094
 30
0.0
 11
1454.192770309856
 21
2448.667782285094
 31
0.0
  0
LINE
  5
4C1F
330
4C1B
100
AcDbEntity
  8
Dim
  6
Continuous
 62
     0
370
    -2
100
AcDbLine
 10
1746.346182933884
 20
2448.667782285094
 30
0.0
 11
1636.566859177043
 21
2448.667782285094
 31
0.0
  0
INSERT
  5
4C20
330
4C1B
100
AcDbEntity
  8
Dim
 62
     0
370
    -2
100
AcDbBlockReference
  2
_DOT
 10
1756.345572582322
 20
2448.667782285094
 30
0.0
 41
9.999389648437498
 42
9.999389648437498
 43
9.999389648437498
  0
INSERT
  5
4C21
330
4C1B
100
AcDbEntity
  8
Dim
 62
     0
370
    -2
100
AcDbBlockReference
  2
_DOT
 10
1626.567469528606
 20
2448.667782285094
 30
0.0
 41
9.999389648437498
 42
9.999389648437498
 43
9.999389648437498
 50
180.0
  0
MTEXT
  5
4C22
330
4C1B
100
AcDbEntity
  8
Dim
 62
     0
100
AcDbMText
 10
1530.380730270793
 20
2473.046377499938
 30
0.0
 40
24.4326171875
 41
0.0
 46
0.0
 71
     5
 72
     1
  1
\A1;135(深さ)
  7
ＭＳ ゴシック
 73
     1
 44
1.0
  0
POINT
  5
4C23
330
4C1B
100
AcDbEntity
  8
Defpoints
 62
     0
100
AcDbPoint
 10
1756.345572582322
 20
2448.667782285094
 30
0.0
  0
POINT
  5
4C24
330
4C1B
100
AcDbEntity
  8
Defpoints
 62
     0
100
AcDbPoint
 10
1626.567469528606
 20
2448.667782285094
 30
0.0
  0
POINT
  5
4C25
330
4C1B
100
AcDbEntity
  8
Defpoints
 62
     0
100
AcDbPoint
 10
1626.567469528606
 20
2448.667782285094
 30
0.0
  0
ENDBLK
  5
4C1D
330
4C1B
100
AcDbEntity
  8
0
100
AcDbBlockEnd
  0
ENDSEC
  0
SECTION
  2
ENTITIES
  0
MTEXT
  5
177
330
A
100
AcDbEntity
  8
template
390
1D
100
AcDbMText
 10
82.00000000048226
 20
348.023957835319
 30
0.0
 40
16.28841145833333
 41
0.0
 46
0.0
 71
     1
 72
     1
  1
品名
  7
ＭＳ ゴシック
 73
     1
 44
0.7828267384257843
  0
MTEXT
  5
178
330
A
100
AcDbEntity
  8
template
390
1D
100
AcDbMText
 10
82.00000000048226
 20
263.0239578353188
 30
0.0
 40
16.28841145833333
 41
0.0
 46
0.0
 71
     1
 72
     1
  1
仕様
  7
ＭＳ ゴシック
 73
     1
 44
0.7828267384257843
  0
LINE
  5
179
330
A
100
AcDbEntity
  8
template
390
1D
100
AcDbLine
 10
2025.0
 20
271.4388797103189
 30
0.0
 11
75.00000000000023
 21
271.4388797103189
 31
0.0
  0
LWPOLYLINE
  5
17A
330
A
100
AcDbEntity
  8
template
390
1D
100
AcDbPolyline
 90
        5
 70
   128
 43
0.0
 10
2025.0
 20
2901.438879710319
 10
75.00000000000023
 20
2901.438879710319
 10
75.00000000000023
 20
101.4388797103188
 10
2025.0
 20
101.4388797103188
 10
2025.0
 20
2901.438879710319
  0
LINE
  5
17B
330
A
100
AcDbEntity
  8
template
390
1D
100
AcDbLine
 10
2025.0
 20
356.4388797103188
 30
0.0
 11
75.00000000000023
 21
356.4388797103188
 31
0.0
  0
LINE
  5
17C
330
A
100
AcDbEntity
  8
template
390
1D
100
AcDbLine
 10
2025.000000000482
 20
186.4388797103189
 30
0.0
 11
1272.000000000482
 21
186.4388797103189
 31
0.0
  0
MTEXT
  5
17E
330
A
100
AcDbEntity
  8
template
390
1D
100
AcDbMText
 10
1301.871406252743
 20
156.5284852370108
 30
0.0
 40
24.4326171875
 41
0.0
 46
0.0
 71
     1
 72
     1
  1
大洋金物株式会社 ティーフォルム事業部
  7
ＭＳ ゴシック
 73
     1
 44
0.7828267384257843
  0
MTEXT
  5
180
330
A
100
AcDbEntity
  8
template
390
1D
100
AcDbMText
 10
1834.000000000742
 20
234.4414968978188
 30
0.0
 40
24.4326171875
 41
0.0
 46
0.0
 71
     1
 72
     1
  1
1:10
  7
ＭＳ ゴシック
 73
     1
 44
0.7828267384257843
  0
MTEXT
  5
181
330
A
100
AcDbEntity
  8
template
390
1D
100
AcDbMText
 10
1781.000000000742
 20
263.0239578353188
 30
0.0
 40
16.28841145833333
 41
0.0
 46
0.0
 71
     1
 72
     1
  1
縮尺
  7
ＭＳ ゴシック
 73
     1
 44
0.7828267384257843
  0
LINE
  5
182
330
A
100
AcDbEntity
  8
template
390
1D
100
AcDbLine
 10
1774.000000000742
 20
186.4388797103189
 30
0.0
 11
1774.000000000742
 21
271.4388797103189
 31
0.0
  0
MTEXT
  5
183
330
A
100
AcDbEntity
  8
template
390
1D
100
AcDbMText
 10
1530.000000000742
 20
263.0239578353188
 30
0.0
 40
16.28841145833333
 41
0.0
 46
0.0
 71
     1
 72
     1
  1
容量
  7
ＭＳ ゴシック
 73
     1
 44
0.7828267384257843
  0
LINE
  5
184
330
A
100
AcDbEntity
  8
template
390
1D
100
AcDbLine
 10
1523.000000000742
 20
186.4388797103189
 30
0.0
 11
1523.000000000742
 21
271.4388797103189
 31
0.0
  0
MTEXT
  5
185
330
A
100
AcDbEntity
  8
template
390
1D
100
AcDbMText
 10
1279.000000000742
 20
348.023957835319
 30
0.0
 40
16.28841145833333
 41
0.0
 46
0.0
 71
     1
 72
     1
  1
品番
  7
ＭＳ ゴシック
 73
     1
 44
0.7828267384257843
  0
MTEXT
  5
186
330
A
100
AcDbEntity
  8
template
390
1D
100
AcDbMText
 10
1279.000000000742
 20
263.0239578353188
 30
0.0
 40
16.28841145833333
 41
0.0
 46
0.0
 71
     1
 72
     1
  1
重量
  7
ＭＳ ゴシック
 73
     1
 44
0.7828267384257843
  0
MTEXT
  5
187
330
A
100
AcDbEntity
  8
template
390
1D
100
AcDbMText
 10
1332.000000000742
 20
319.4414968978188
 30
0.0
 40
24.4326171875
 41
0.0
 46
24.4326171875
 71
     1
 72
     1
  1
{ADF70-2617}
  7
ＭＳ ゴシック
 73
     1
 44
0.7828267384257843
1001
ACAD
1000
ACAD_MTEXT_DEFINED_HEIGHT_BEGIN
1070
    46
1040
24.4326171875
1000
ACAD_MTEXT_DEFINED_HEIGHT_END
  0
LINE
  5
188
330
A
100
AcDbEntity
  8
template
390
1D
100
AcDbLine
 10
1272.000000000742
 20
101.4388797103188
 30
0.0
 11
1272.000000000742
 21
356.4388797103188
 31
0.0
  0
MTEXT
  5
189
330
A
100
AcDbEntity
  8
template
390
1D
100
AcDbMText
 10
135.0000000004822
 20
319.4414968978188
 30
0.0
 40
24.4326171875
 41
0.0
 46
27.5355595703125
 71
     1
 72
     1
  1
{洗面器 -CATALANO, Green-}
  7
ＭＳ ゴシック
 73
     1
 44
0.7828267384257843
1001
ACAD
1000
ACAD_MTEXT_DEFINED_HEIGHT_BEGIN
1070
    46
1040
27.5355595703125
1000
ACAD_MTEXT_DEFINED_HEIGHT_END
  0
MTEXT
  5
18A
330
A
100
AcDbEntity
  8
template
 62
     1
390
1D
100
AcDbMText
 10
135.0000000004822
 20
234.4414968978188
 30
0.0
 40
24.4326171875
 41
0.0
 46
65.556517578125
 71
     1
 72
     1
  1
{\C256;壁掛け/オーバーフロー付き/壁取付ボルト付属\P陶器/ホワイト}
  7
ＭＳ ゴシック
 73
     1
 44
0.9822934569727008
1001
ACAD
1000
ACAD_MTEXT_DEFINED_HEIGHT_BEGIN
1070
    46
1040
65.556517578125
1000
ACAD_MTEXT_DEFINED_HEIGHT_END
  0
MTEXT
  5
1A6
330
A
100
AcDbEntity
  8
template
390
1D
100
AcDbMText
 10
1332.000000000742
 20
234.4414968978188
 30
0.0
 40
24.4326171875
 41
0.0
 46
28.390701171875
 71
     1
 72
     1
  1
{30kg}
  7
ＭＳ ゴシック
 73
     1
 44
0.7828267384257843
1001
ACAD
1000
ACAD_MTEXT_DEFINED_HEIGHT_BEGIN
1070
    46
1040
28.390701171875
1000
ACAD_MTEXT_DEFINED_HEIGHT_END
  0
MTEXT
  5
374
330
A
100
AcDbEntity
  8
template
390
1D
100
AcDbMText
 10
1581.992122669024
 20
234.4414968978188
 30
0.0
 40
24.4326171875
 41
0.0
 46
24.4326171875
 71
     1
 72
     1
  1
{10L}
  7
ＭＳ ゴシック
 73
     1
 44
0.7828267384257843
1001
ACAD
1000
ACAD_MTEXT_DEFINED_HEIGHT_BEGIN
1070
    46
1040
24.4326171875
1000
ACAD_MTEXT_DEFINED_HEIGHT_END
  0
INSERT
  5
3D0
330
A
100
AcDbEntity
  8
template
100
AcDbBlockReference
  2
名称未設定-1
 10
1873.559250554905
 20
30.23897196054438
 30
0.0
 41
0.7619999999999999
 42
0.7619999999999999
 43
0.7619999999999999
  0
MTEXT
  5
BDB
102
{ACAD_XDICTIONARY
360
BDC
102
}
330
A
100
AcDbEntity
  8
template
  6
Continuous
100
AcDbMText
 10
78.95663872901252
 20
86.10730750352229
 30
0.0
 40
23.0
 41
0.0
 46
23.0
 71
     1
 72
     1
  1
{20170411N}
  7
ＭＳ ゴシック
 73
     1
 44
1.0
1001
ACAD
1000
ACAD_MTEXT_DEFINED_HEIGHT_BEGIN
1070
    46
1040
23.0
1000
ACAD_MTEXT_DEFINED_HEIGHT_END
  0
LWPOLYLINE
  5
BEE
330
A
100
AcDbEntity
  8
PRINT BORDER
100
AcDbPolyline
 90
        4
 70
     1
 43
0.0
 10
0.0
 20
0.0
 10
0.0
 20
2970.0
 10
2100.0
 20
2970.0
 10
2100.0
 20
0.0
  0
INSERT
  5
1273
330
A
100
AcDbEntity
  8
0
 62
     7
100
AcDbBlockReference
  2
BLOCK_2
 10
591.2037060744204
 20
943.564364962162
 30
0.0
  0
INSERT
  5
127B
330
A
100
AcDbEntity
  8
0
 62
     7
100
AcDbBlockReference
  2
BLOCK_2
 10
1291.863324028138
 20
1038.76992320659
 30
0.0
  0
INSERT
  5
127C
330
A
100
AcDbEntity
  8
0
 62
     7
100
AcDbBlockReference
  2
BLOCK_2
 10
652.1648429406905
 20
1595.641631888467
 30
0.0
  0
CIRCLE
  5
142C
330
A
100
AcDbEntity
  8
Dim
  6
Continuous
100
AcDbCircle
 10
1366.841726484681
 20
1758.85027442579
 30
0.0
 40
0.0
  0
INSERT
  5
3B99
330
A
100
AcDbEntity
  8
retino
100
AcDbBlockReference
  2
mobile_latù
 10
-92101.31485198285
 20
1730.415535296608
 30
0.0
  0
INSERT
  5
467E
330
A
100
AcDbEntity
  8
retino
100
AcDbBlockReference
  2
mobile_latù
 10
-100894.893236163
 20
1696.039721945452
 30
0.0
  0
LINE
  5
467F
330
A
100
AcDbEntity
  8
MODEL
100
AcDbLine
 10
1638.404398968664
 20
615.9466602748398
 30
0.0
 11
1638.404398968664
 21
670.6028930085267
 31
0.0
  0
LINE
  5
4680
330
A
100
AcDbEntity
  8
MODEL
100
AcDbLine
 10
1638.404398968664
 20
1734.149687823487
 30
0.0
 11
1638.404398968664
 21
670.6028930085267
 31
0.0
  0
LINE
  5
4681
330
A
100
AcDbEntity
  8
MODEL
100
AcDbLine
 10
1638.404398968664
 20
1788.805920557174
 30
0.0
 11
1638.404398968664
 21
1734.149687823487
 31
0.0
  0
SPLINE
  5
4682
330
A
100
AcDbEntity
  8
MODEL
100
AcDbSpline
210
0.0
220
0.0
230
1.0
 70
     8
 71
     7
 72
    31
 73
    23
 74
     0
 42
0.000000001
 43
0.0000000001
 40
0.0
 40
0.0
 40
0.0
 40
0.0
 40
0.0
 40
0.0
 40
0.0
 40
0.0
 40
0.3811359999999999
 40
0.3811359999999999
 40
0.3811359999999999
 40
0.3811359999999999
 40
0.3811359999999999
 40
0.4591999999999999
 40
0.4591999999999999
 40
0.4591999999999999
 40
0.4591999999999999
 40
0.4591999999999999
 40
0.82
 40
0.82
 40
0.82
 40
0.82
 40
0.82
 40
1.0
 40
1.0
 40
1.0
 40
1.0
 40
1.0
 40
1.0
 40
1.0
 40
1.0
 10
1638.404400243254
 20
615.9466602748398
 30
0.0
 10
1638.404400243253
 20
615.0578865225652
 30
0.0
 10
1638.373169649473
 20
614.1691127703052
 30
0.0
 10
1638.316306827932
 20
613.2816337125951
 30
0.0
 10
1638.22721553428
 20
612.39608040034
 30
0.0
 10
1638.103791376089
 20
611.5147347187703
 30
0.0
 10
1637.911882187183
 20
610.4604144215082
 30
0.0
 10
1637.670324453208
 20
609.4171683119312
 30
0.0
 10
1637.628407557927
 20
609.2400224649427
 30
0.0
 10
1637.58382116054
 20
609.0634703678916
 30
0.0
 10
1637.535921622
 20
608.8878127496973
 30
0.0
 10
1637.253365455645
 20
607.9040905309193
 30
0.0
 10
1636.890985904733
 20
606.9445540599227
 30
0.0
 10
1636.546446807161
 20
606.1751181334075
 30
0.0
 10
1636.151016875848
 20
605.4260844794444
 30
0.0
 10
1635.702937993993
 20
604.7128770318923
 30
0.0
 10
1634.92604547137
 20
603.6977510566903
 30
0.0
 10
1633.934883742327
 20
602.9110961885126
 30
0.0
 10
1633.57812713974
 20
602.6806713128863
 30
0.0
 10
1633.193501511705
 20
602.5057068830465
 30
0.0
 10
1632.769907773403
 20
602.3773117206401
 30
0.0
 10
1632.350164491721
 20
602.3762806151899
 30
0.0
 10
1631.930421210038
 20
602.3762806151899
 30
0.0
  0
SPLINE
  5
4683
330
A
100
AcDbEntity
  8
MODEL
100
AcDbSpline
210
0.0
220
0.0
230
1.0
 70
     8
 71
     7
 72
    21
 73
    13
 74
     0
 42
0.000000001
 43
0.0000000001
 40
0.0
 40
0.0
 40
0.0
 40
0.0
 40
0.0
 40
0.0
 40
0.0
 40
0.0
 40
0.8399999999999999
 40
0.8399999999999999
 40
0.8399999999999999
 40
0.8399999999999999
 40
0.8399999999999999
 40
1.0
 40
1.0
 40
1.0
 40
1.0
 40
1.0
 40
1.0
 40
1.0
 40
1.0
 10
1631.930421210038
 20
602.3762806151899
 30
0.0
 10
1631.444303935531
 20
602.3762806151899
 30
0.0
 10
1630.958186661025
 20
602.3785409672528
 30
0.0
 10
1630.474085473789
 20
602.3894606032227
 30
0.0
 10
1629.981532066538
 20
602.3903035701624
 30
0.0
 10
1629.504347399518
 20
602.4406815752409
 30
0.0
 10
1628.920084308112
 20
602.5114874987012
 30
0.0
 10
1628.373934148841
 20
602.7039511344301
 30
0.0
 10
1628.285653684442
 20
602.7369245960108
 30
0.0
 10
1628.208888635928
 20
602.7815596707769
 30
0.0
 10
1628.117365955544
 20
602.8189629982189
 30
0.0
 10
1628.048650671343
 20
602.8812271775496
 30
0.0
 10
1627.983488568562
 20
602.9470109595095
 30
0.0
  0
SPLINE
  5
4684
330
A
100
AcDbEntity
  8
MODEL
100
AcDbSpline
210
0.0
220
0.0
230
1.0
 70
     8
 71
     7
 72
    31
 73
    23
 74
     0
 42
0.000000001
 43
0.0000000001
 40
0.0
 40
0.0
 40
0.0
 40
0.0
 40
0.0
 40
0.0
 40
0.0
 40
0.0
 40
0.3811359999999999
 40
0.3811359999999999
 40
0.3811359999999999
 40
0.3811359999999999
 40
0.3811359999999999
 40
0.4591999999999999
 40
0.4591999999999999
 40
0.4591999999999999
 40
0.4591999999999999
 40
0.4591999999999999
 40
0.82
 40
0.82
 40
0.82
 40
0.82
 40
0.82
 40
1.0
 40
1.0
 40
1.0
 40
1.0
 40
1.0
 40
1.0
 40
1.0
 40
1.0
 10
1638.404400243254
 20
1788.805920557188
 30
0.0
 10
1638.404400243252
 20
1789.694694309448
 30
0.0
 10
1638.373169649473
 20
1790.583468061708
 30
0.0
 10
1638.316306827931
 20
1791.470947119433
 30
0.0
 10
1638.227215534279
 20
1792.356500431674
 30
0.0
 10
1638.103791376088
 20
1793.237846113243
 30
0.0
 10
1637.911882187183
 20
1794.29216641052
 30
0.0
 10
1637.670324453208
 20
1795.335412520082
 30
0.0
 10
1637.628407557927
 20
1795.512558367071
 30
0.0
 10
1637.583821160539
 20
1795.689110464137
 30
0.0
 10
1637.535921622
 20
1795.864768082331
 30
0.0
 10
1637.253365455644
 20
1796.848490301109
 30
0.0
 10
1636.890985904733
 20
1797.808026772105
 30
0.0
 10
1636.546446807161
 20
1798.577462698606
 30
0.0
 10
1636.151016875848
 20
1799.326496352584
 30
0.0
 10
1635.702937993993
 20
1800.039703800136
 30
0.0
 10
1634.92604547137
 20
1801.054829775323
 30
0.0
 10
1633.934883742326
 20
1801.841484643501
 30
0.0
 10
1633.57812713974
 20
1802.071909519127
 30
0.0
 10
1633.193501511704
 20
1802.246873948982
 30
0.0
 10
1632.769907773402
 20
1802.375269111388
 30
0.0
 10
1632.350164491721
 20
1802.376300216838
 30
0.0
 10
1631.930421210037
 20
1802.376300216838
 30
0.0
  0
SPLINE
  5
4685
330
A
100
AcDbEntity
  8
MODEL
100
AcDbSpline
210
0.0
220
0.0
230
1.0
 70
     8
 71
     7
 72
    21
 73
    13
 74
     0
 42
0.000000001
 43
0.0000000001
 40
0.0
 40
0.0
 40
0.0
 40
0.0
 40
0.0
 40
0.0
 40
0.0
 40
0.0
 40
0.8399999999999999
 40
0.8399999999999999
 40
0.8399999999999999
 40
0.8399999999999999
 40
0.8399999999999999
 40
1.0
 40
1.0
 40
1.0
 40
1.0
 40
1.0
 40
1.0
 40
1.0
 40
1.0
 10
1631.930421210037
 20
1802.376300216838
 30
0.0
 10
1631.444303935531
 20
1802.376300216838
 30
0.0
 10
1630.958186661025
 20
1802.374039864761
 30
0.0
 10
1630.474085473789
 20
1802.363120228791
 30
0.0
 10
1629.981532066538
 20
1802.362277261851
 30
0.0
 10
1629.504347399518
 20
1802.311899256773
 30
0.0
 10
1628.920084308112
 20
1802.241093333312
 30
0.0
 10
1628.37393414884
 20
1802.048629697583
 30
0.0
 10
1628.285653684442
 20
1802.015656236003
 30
0.0
 10
1628.208888635927
 20
1801.971021161251
 30
0.0
 10
1628.117365955543
 20
1801.933617833795
 30
0.0
 10
1628.048650671342
 20
1801.871353654479
 30
0.0
 10
1627.983488568562
 20
1801.805569872519
 30
0.0
  0
SPLINE
  5
4686
330
A
100
AcDbEntity
  8
MODEL
100
AcDbSpline
210
0.0
220
0.0
230
1.0
 70
     8
 71
     3
 72
     9
 73
     5
 74
     0
 42
0.000000001
 43
0.0000000001
 40
0.4906456983313593
 40
0.4906456983313593
 40
0.4906456983313593
 40
0.4906456983313593
 40
0.5207258491987211
 40
0.5872593177981204
 40
0.5872593177981204
 40
0.5872593177981204
 40
0.5872593177981204
 10
1756.346082147813
 20
1001.30809248448
 30
0.0
 10
1756.827796184916
 20
1004.458830214975
 30
0.0
 10
1758.286964713117
 20
1014.840025459587
 30
0.0
 10
1759.48506235289
 20
1025.911282115671
 30
0.0
 10
1760.253404980612
 20
1033.705885917192
 30
0.0
  0
LINE
  5
4687
330
A
100
AcDbEntity
  8
MODEL
100
AcDbLine
 10
1806.233529312934
 20
1170.949936491128
 30
0.0
 11
1806.233529312934
 21
1233.802643660453
 31
0.0
  0
LINE
  5
4688
330
A
100
AcDbEntity
  8
MODEL
100
AcDbLine
 10
1803.495228236075
 20
1167.961372759888
 30
0.0
 11
1803.495228236075
 21
1236.791207326995
 31
0.0
  0
ARC
  5
4689
330
A
100
AcDbEntity
  8
MODEL
100
AcDbCircle
 10
1803.233529403847
 20
1170.949936491128
 30
0.0
 40
2.999999909087109
100
AcDbArc
 50
275.0044403739209
 51
0.0
  0
SPLINE
  5
468A
330
A
100
AcDbEntity
  8
MODEL
100
AcDbSpline
210
0.0
220
0.0
230
1.0
 70
     8
 71
     3
 72
    11
 73
     7
 74
     0
 42
0.000000001
 43
0.0000000001
 40
61.7709082754353
 40
61.7709082754353
 40
61.7709082754353
 40
61.7709082754353
 40
62.07361898214575
 40
64.09229485089182
 40
68.15683943363425
 40
73.48119571558479
 40
73.48119571558479
 40
73.48119571558479
 40
73.48119571558479
 10
1766.934962199201
 20
1157.58843680481
 30
0.0
 10
1766.934476132851
 20
1157.563946175444
 30
0.0
 10
1766.930767900907
 20
1157.378504371587
 30
0.0
 10
1766.921058188141
 20
1156.918483517959
 30
0.0
 10
1766.907320039899
 20
1156.334093563648
 30
0.0
 10
1766.902901590766
 20
1156.159143506633
 30
0.0
 10
1766.902901370401
 20
1156.159143405425
 30
0.0
  0
SPLINE
  5
468B
330
A
100
AcDbEntity
  8
MODEL
100
AcDbSpline
210
0.0
220
0.0
230
1.0
 70
     8
 71
     3
 72
    11
 73
     7
 74
     0
 42
0.000000001
 43
0.0000000001
 40
61.77090829191442
 40
61.77090829191442
 40
61.77090829191442
 40
61.77090829191442
 40
62.07358911730435
 40
64.09223839727831
 40
68.15672908223821
 40
73.48101501751101
 40
73.48101501751101
 40
73.48101501751101
 40
73.48101501751101
 10
1766.934962199055
 20
1247.164144031802
 30
0.0
 10
1766.9344761807
 20
1247.188632243586
 30
0.0
 10
1766.930768037248
 20
1247.374069769732
 30
0.0
 10
1766.921058469204
 20
1247.834084545171
 30
0.0
 10
1766.907320381174
 20
1248.418473316237
 30
0.0
 10
1766.902901759781
 20
1248.593430601712
 30
0.0
 10
1766.902904242676
 20
1248.593386765275
 30
0.0
  0
LINE
  5
468C
330
A
100
AcDbEntity
  8
MODEL
100
AcDbLine
 10
1774.235523471759
 20
1165.399195320581
 30
0.0
 11
1803.495228236075
 21
1167.961372759888
 31
0.0
  0
SPLINE
  5
468D
330
A
100
AcDbEntity
  8
MODEL
100
AcDbSpline
210
0.0
220
0.0
230
1.0
 70
     8
 71
     3
 72
    16
 73
    12
 74
     0
 42
0.000000001
 43
0.0000000001
 40
20.96235690090426
 40
20.96235690090426
 40
20.96235690090426
 40
20.96235690090426
 40
21.01971781896228
 40
21.90671234876095
 40
22.66452337794084
 40
23.42233440712073
 40
24.17413090944169
 40
24.92592741176265
 40
25.79518143773044
 40
26.66443546369822
 40
26.66643996168354
 40
26.66643996168354
 40
26.66643996168354
 40
26.66643996168354
 10
1766.92733622787
 20
1156.491730565318
 30
0.0
 10
1766.927232290568
 20
1156.489576216071
 30
0.0
 10
1766.925519044295
 20
1156.454285366254
 30
0.0
 10
1766.922369268322
 20
1156.395918487757
 30
0.0
 10
1766.917864629931
 20
1156.325884367249
 30
0.0
 10
1766.91367317081
 20
1156.270258268556
 30
0.0
 10
1766.909749760443
 20
1156.225151784569
 30
0.0
 10
1766.906231321757
 20
1156.189400431318
 30
0.0
 10
1766.903651475404
 20
1156.16568314908
 30
0.0
 10
1766.90299253293
 20
1156.159646198281
 30
0.0
 10
1766.902915863025
 20
1156.159245143525
 30
0.0
 10
1766.902915688001
 20
1156.159244234306
 30
0.0
  0
SPLINE
  5
468E
330
A
100
AcDbEntity
  8
MODEL
100
AcDbSpline
210
0.0
220
0.0
230
1.0
 70
     8
 71
     3
 72
    11
 73
     7
 74
     0
 42
0.000000001
 43
0.0000000001
 40
20.96194842018502
 40
20.96194842018502
 40
20.96194842018502
 40
20.96194842018502
 40
21.90754317077738
 40
23.4235422384194
 40
24.92750042250314
 40
26.66644490718928
 40
26.66644490718928
 40
26.66644490718928
 40
26.66644490718928
 10
1766.927332388973
 20
1248.260789806704
 30
0.0
 10
1766.925618534494
 20
1248.296301695922
 30
0.0
 10
1766.921080297486
 20
1248.381163367794
 30
0.0
 10
1766.913572617013
 20
1248.487442192938
 30
0.0
 10
1766.905494488236
 20
1248.571465546524
 30
0.0
 10
1766.903067070541
 20
1248.592552754035
 30
0.0
 10
1766.902912815639
 20
1248.593387251658
 30
0.0
  0
LINE
  5
468F
330
A
100
AcDbEntity
  8
MODEL
100
AcDbLine
 10
1717.404398968664
 20
676.0515477426052
 30
0.0
 11
1717.404398968664
 21
1728.701032408961
 31
0.0
  0
SPLINE
  5
4690
330
A
100
AcDbEntity
  8
MODEL
100
AcDbSpline
210
0.0
220
0.0
230
1.0
 70
     8
 71
     3
 72
     9
 73
     5
 74
     0
 42
0.000000001
 43
0.0000000001
 40
0.520725849198721
 40
0.520725849198721
 40
0.520725849198721
 40
0.520725849198721
 40
0.5272050118181296
 40
0.7320882413429052
 40
0.7320882413429052
 40
0.7320882413429052
 40
0.7320882413429052
 10
1756.346082147814
 20
1001.30809248448
 30
0.0
 10
1756.242322575722
 20
1000.629434248458
 30
0.0
 10
1752.816006825206
 20
978.6135249824692
 30
0.0
 10
1748.014026582222
 20
960.7705528567858
 30
0.0
 10
1741.959792328563
 20
945.5610751407185
 30
0.0
  0
LINE
  5
4691
330
A
100
AcDbEntity
  8
MODEL
100
AcDbLine
 10
1640.922626842304
 20
619.7065174995623
 30
0.0
 11
1640.94136110833
 21
619.7133362147542
 31
0.0
  0
ARC
  5
4692
330
A
100
AcDbEntity
  8
MODEL
100
AcDbCircle
 10
1640.257320821679
 20
621.5927214563235
 30
0.0
 40
2.000000000000038
100
AcDbArc
 50
290.0000000001006
 51
359.8593623617532
  0
LINE
  5
4693
330
A
100
AcDbEntity
  8
MODEL
100
AcDbLine
 10
1640.378338538688
 20
1785.244168073838
 30
0.0
 11
1640.397036946911
 21
1785.237362409807
 31
0.0
  0
ARC
  5
4694
330
A
100
AcDbEntity
  8
MODEL
100
AcDbCircle
 10
1640.257320821679
 20
1783.15985937569
 30
0.0
 40
1.999999999999951
100
AcDbArc
 50
0.9609184522490507
 51
69.99999999989946
  0
LINE
  5
4695
330
A
100
AcDbEntity
  8
MODEL
100
AcDbLine
 10
1627.404400243254
 20
1800.398086297934
 30
0.0
 11
1627.404400243254
 21
1734.149687823487
 31
0.0
  0
LINE
  5
4696
330
A
100
AcDbEntity
  8
MODEL
100
AcDbLine
 10
1627.404400243254
 20
1734.149687823487
 30
0.0
 11
1627.404400243254
 21
670.6028930085267
 31
0.0
  0
LINE
  5
4697
330
A
100
AcDbEntity
  8
MODEL
100
AcDbLine
 10
1627.404400243254
 20
670.6028930085267
 30
0.0
 11
1627.404400243254
 21
604.3544945340946
 31
0.0
  0
ARC
  5
4698
330
A
100
AcDbEntity
  8
MODEL
100
AcDbCircle
 10
1629.404400243254
 20
1800.398086297934
 30
0.0
 40
2.000000000000034
100
AcDbArc
 50
135.2720156183173
 51
180.0
  0
LINE
  5
4699
330
A
100
AcDbEntity
  8
MODEL
100
AcDbLine
 10
1627.983488568559
 20
670.6028930085267
 30
0.0
 11
1627.404400243254
 21
670.6028930085267
 31
0.0
  0
ARC
  5
469A
330
A
100
AcDbEntity
  8
MODEL
100
AcDbCircle
 10
1629.404400243254
 20
604.3544945340946
 30
0.0
 40
2.000000000000004
100
AcDbArc
 50
180.0
 51
224.727984381678
  0
SPLINE
  5
469B
330
A
100
AcDbEntity
  8
MODEL
100
AcDbSpline
210
0.0
220
0.0
230
1.0
 70
     8
 71
     3
 72
    44
 73
    40
 74
     0
 42
0.000000001
 43
0.0000000001
 40
0.0
 40
0.0
 40
0.0
 40
0.0
 40
3.505499781008754
 40
7.595854196602452
 40
10.51757897230494
 40
15.19289050879155
 40
25.13013451063199
 40
30.97453655242049
 40
37.40201925179657
 40
40.32342723156011
 40
43.82927967627061
 40
46.16673349280425
 40
52.01130003244281
 40
55.51860970661331
 40
59.02623805831023
 40
61.36474833985911
 40
64.87204182740004
 40
66.62544766499892
 40
68.96326595300145
 40
70.13215353162175
 40
72.46968562813879
 40
73.05404350444877
 40
73.63842594152823
 40
74.22286980528206
 40
74.80743722170648
 40
75.54059853412917
 40
75.80829097155545
 40
75.94135611857202
 40
76.08199061458744
 40
76.12394095276949
 40
76.15826087635439
 40
76.2899073869428
 40
76.39518629641232
 40
76.58282185384621
 40
76.70223935434285
 40
77.08177350426885
 40
77.59296105767353
 40
78.10593278961352
 40
78.51293421050202
 40
78.51293421050202
 40
78.51293421050202
 40
78.51293421050202
 10
1642.257321097479
 20
1734.149687823487
 30
0.0
 10
1642.257321097479
 20
1735.31780566819
 30
0.0
 10
1642.257048351065
 20
1737.850118448634
 30
0.0
 10
1642.259174701087
 20
1741.325538365924
 30
0.0
 10
1642.263149162213
 20
1745.132786607497
 30
0.0
 10
1642.270187081703
 20
1750.732049893061
 30
0.0
 10
1642.271009192213
 20
1756.93889585997
 30
0.0
 10
1642.265800725728
 20
1763.108979350258
 30
0.0
 10
1642.263750526691
 20
1766.965946932378
 30
0.0
 10
1642.264590985636
 20
1769.955297034216
 30
0.0
 10
1642.266157247367
 20
1771.858194996963
 30
0.0
 10
1642.268928395949
 20
1774.222800573753
 30
0.0
 10
1642.271723303593
 20
1776.338450048741
 30
0.0
 10
1642.272603966287
 20
1778.332675354159
 30
0.0
 10
1642.271590102074
 20
1779.595138700996
 30
0.0
 10
1642.269132828892
 20
1780.694200369642
 30
0.0
 10
1642.266289045085
 20
1781.44924267822
 30
0.0
 10
1642.26329674399
 20
1782.072462092965
 30
0.0
 10
1642.261455567833
 20
1782.429005561262
 30
0.0
 10
1642.259807710993
 20
1782.751579168424
 30
0.0
 10
1642.258957377137
 20
1782.92263531328
 30
0.0
 10
1642.258452943605
 20
1783.0298887559
 30
0.0
 10
1642.258222720059
 20
1783.075856020132
 30
0.0
 10
1642.25800701145
 20
1783.114208173746
 30
0.0
 10
1642.257761957054
 20
1783.148902518526
 30
0.0
 10
1642.257532985744
 20
1783.171867544003
 30
0.0
 10
1642.257127098353
 20
1783.197270663292
 30
0.0
 10
1642.256512676534
 20
1783.219980635197
 30
0.0
 10
1642.255793108317
 20
1783.242087886127
 30
0.0
 10
1642.254282264174
 20
1783.271263437299
 30
0.0
 10
1642.252310442106
 20
1783.304229046113
 30
0.0
 10
1642.246425138085
 20
1783.378186546423
 30
0.0
 10
1642.227722160286
 20
1783.51282970393
 30
0.0
 10
1642.199242720818
 20
1783.646643828408
 30
0.0
 10
1642.134692593446
 20
1783.865568090474
 30
0.0
 10
1641.999581854697
 20
1784.175628105728
 30
0.0
 10
1641.720162111479
 20
1784.555723228256
 30
0.0
 10
1641.346532379546
 20
1784.858460133805
 30
0.0
 10
1641.068680729616
 20
1784.992905097792
 30
0.0
 10
1640.941394900722
 20
1785.039235523957
 30
0.0
  0
LINE
  5
469C
330
A
100
AcDbEntity
  8
MODEL
100
AcDbLine
 10
1642.257321699289
 20
670.6028930085267
 30
0.0
 11
1642.257321699289
 21
1734.149687823487
 31
0.0
  0
SPLINE
  5
469D
330
A
100
AcDbEntity
  8
MODEL
100
AcDbSpline
210
0.0
220
0.0
230
1.0
 70
     8
 71
     3
 72
    54
 73
    50
 74
     0
 42
0.000000001
 43
0.0000000001
 40
0.0
 40
0.0
 40
0.0
 40
0.0
 40
0.3847169476158646
 40
0.8976866196804866
 40
1.282448294803737
 40
1.410723010453828
 40
1.667361724562713
 40
1.795795092220779
 40
1.860134168823898
 40
1.989016675673099
 40
2.109153112378085
 40
2.165391704700446
 40
2.194641849565263
 40
2.22388869814568
 40
2.255041785723303
 40
2.288762567303161
 40
2.312762617021824
 40
2.336756711476561
 40
2.366074551507992
 40
2.401143517142866
 40
2.447500235583068
 40
2.510797760535003
 40
2.60805255625514
 40
2.773707841734763
 40
3.519576505826927
 40
4.264639905736486
 40
4.866677640884636
 40
5.468649388507224
 40
6.070595519324175
 40
7.575698638010193
 40
8.930531829456681
 40
10.86983375737891
 40
12.03858021361707
 40
13.2073657845471
 40
14.37622891114499
 40
16.12967660615735
 40
19.63700870485224
 40
24.89827597595658
 40
27.23636092027235
 40
30.15869660100033
 40
33.08068465124109
 40
38.92375658204444
 40
44.18233162136399
 40
52.9484896201382
 40
57.62493101947173
 40
66.39264515198289
 40
73.4047003249112
 40
76.43429583632681
 40
78.51293361866072
 40
78.51293361866072
 40
78.51293361866072
 40
78.51293361866072
 10
1640.94139523532
 20
619.7133454295508
 30
0.0
 10
1641.061731357908
 20
619.7571462750602
 30
0.0
 10
1641.333389385624
 20
619.8867314660274
 30
0.0
 10
1641.671190265865
 20
620.1542632097517
 30
0.0
 10
1641.88634547291
 20
620.4222074386598
 30
0.0
 10
1642.020139417283
 20
620.6412438002117
 30
0.0
 10
1642.095020947937
 20
620.7953992576331
 30
0.0
 10
1642.147209758882
 20
620.9357970961828
 30
0.0
 10
1642.179589746201
 20
621.0376150656193
 30
0.0
 10
1642.206354617228
 20
621.138407610586
 30
0.0
 10
1642.226068177471
 20
621.236726444211
 30
0.0
 10
1642.236368548802
 20
621.3029124960267
 30
0.0
 10
1642.241067212254
 20
621.3376014944915
 30
0.0
 10
1642.244481649245
 20
621.3657008076661
 30
0.0
 10
1642.247369421659
 20
621.3925385557341
 30
0.0
 10
1642.249675970605
 20
621.4172735005523
 30
0.0
 10
1642.251148687205
 20
621.4350074618233
 30
0.0
 10
1642.252563132261
 20
621.4539314256508
 30
0.0
 10
1642.253605169179
 20
621.4698553789603
 30
0.0
 10
1642.254642071759
 20
621.4878282735554
 30
0.0
 10
1642.255458857252
 20
621.5046653302088
 30
0.0
 10
1642.256203718348
 20
621.5230815304058
 30
0.0
 10
1642.256778353597
 20
621.541478476789
 30
0.0
 10
1642.257582456644
 20
621.5769417215306
 30
0.0
 10
1642.257649512959
 20
621.5953718474884
 30
0.0
 10
1642.257992481188
 20
621.6340055092551
 30
0.0
 10
1642.258216671969
 20
621.6760098358609
 30
0.0
 10
1642.258457350158
 20
621.7234630960411
 30
0.0
 10
1642.258848183244
 20
621.8067115462145
 30
0.0
 10
1642.25949952113
 20
621.9407960217759
 30
0.0
 10
1642.260726512231
 20
622.1802843383884
 30
0.0
 10
1642.262137337034
 20
622.4569138562765
 30
0.0
 10
1642.263720435119
 20
622.7686527413425
 30
0.0
 10
1642.265082881785
 20
623.0527661253691
 30
0.0
 10
1642.266670343992
 20
623.4161271472949
 30
0.0
 10
1642.269035027114
 20
624.0483032268057
 30
0.0
 10
1642.272067727907
 20
625.2577012963702
 30
0.0
 10
1642.272623028998
 20
626.8244278862076
 30
0.0
 10
1642.271354134887
 20
628.5333382140489
 30
0.0
 10
1642.269695515361
 20
629.9806511322931
 30
0.0
 10
1642.266821063805
 20
632.2303470865845
 30
0.0
 10
1642.263906714309
 20
635.2474809559317
 30
0.0
 10
1642.264247575734
 20
640.0461763461317
 30
0.0
 10
1642.269133468732
 20
645.1218139161756
 30
0.0
 10
1642.271300438714
 20
651.6426087575055
 30
0.0
 10
1642.265393643088
 20
658.0304186071553
 30
0.0
 10
1642.258031188988
 20
664.181723579135
 30
0.0
 10
1642.257187718105
 20
668.2072524091163
 30
0.0
 10
1642.257321097479
 20
669.9100969219253
 30
0.0
 10
1642.257321097479
 20
670.6028930085267
 30
0.0
  0
ARC
  5
469E
330
A
100
AcDbEntity
  8
MODEL
100
AcDbCircle
 10
1641.403891191964
 20
1788.062567044163
 30
0.0
 40
2.999171554704485
100
AcDbArc
 50
180.1016986611252
 51
250.0030601387176
  0
ARC
  5
469F
330
A
100
AcDbEntity
  8
MODEL
100
AcDbCircle
 10
1641.403891191928
 20
616.6900137878947
 30
0.0
 40
2.999171554669072
100
AcDbArc
 50
109.996939860936
 51
179.8983013388736
  0
LINE
  5
46A0
330
A
100
AcDbEntity
  8
MODEL
100
AcDbLine
 10
1640.378265822982
 20
619.508368836101
 30
0.0
 11
1640.941395071995
 21
619.7133453863171
 31
0.0
  0
LINE
  5
46A1
330
A
100
AcDbEntity
  8
MODEL
100
AcDbLine
 10
1640.941395072011
 20
1785.039235445696
 30
0.0
 11
1640.378265823018
 21
1785.244211995913
 31
0.0
  0
SPLINE
  5
46A2
330
A
100
AcDbEntity
  8
MODEL
100
AcDbSpline
210
0.0
220
0.0
230
1.0
 70
     8
 71
     3
 72
    68
 73
    64
 74
     0
 42
0.000000001
 43
0.0000000001
 40
12.70704115625107
 40
12.70704115625107
 40
12.70704115625107
 40
12.70704115625107
 40
13.27182603992958
 40
14.01852868326161
 40
14.76530016233962
 40
15.51215400432442
 40
16.25910355717734
 40
17.21336643148956
 40
18.16835937597874
 40
19.12411423908828
 40
20.08066223937238
 40
21.01071252139899
 40
21.94188413130421
 40
22.87420666525626
 40
23.80770907075058
 40
24.53583625023511
 40
25.99448956859285
 40
27.45642799349771
 40
29.65571383978227
 40
32.60049836089701
 40
33.33898446032908
 40
34.07840804156593
 40
34.81877945767833
 40
35.56010883947704
 40
36.30862827927988
 40
37.05807093907659
 40
38.55976378169836
 40
39.3120323694498
 40
40.06526099054315
 40
40.81945832867184
 40
41.57463286308724
 40
42.34001886288586
 40
43.10631382188107
 40
43.87352572480329
 40
44.64166236275882
 40
45.41073133455018
 40
46.18074004793489
 40
46.9516957208231
 40
47.72360538241649
 40
48.83059122039025
 40
49.93926143533297
 40
51.0496343326111
 40
52.16172751448773
 40
53.29816551492264
 40
54.43604058071447
 40
55.5753688833943
 40
56.71616589803082
 40
57.89287239676378
 40
59.07058026995477
 40
60.28950641823966
 40
61.50887704544719
 40
62.80771161286913
 40
64.10586955006539
 40
64.90119124712504
 40
65.69534952149117
 40
66.71649862228239
 40
67.73511080773997
 40
70.35664603930013
 40
72.96326120065818
 40
74.19087694555392
 40
75.41625245708222
 40
76.5990651641562
 40
77.75766108543381
 40
77.75766108543381
 40
77.75766108543381
 40
77.75766108543381
 10
1717.404398968664
 20
903.9909938020392
 30
0.0
 10
1717.494882830865
 20
904.091901072632
 30
0.0
 10
1717.703904422983
 20
904.3260680179919
 30
0.0
 10
1718.073852325198
 20
904.7445171952677
 30
0.0
 10
1718.459417184386
 20
905.1860840811678
 30
0.0
 10
1718.849165202854
 20
905.6376947021017
 30
0.0
 10
1719.262105600247
 20
906.1216969647467
 30
0.0
 10
1719.751642528211
 20
906.7033864587975
 30
0.0
 10
1720.260644521256
 20
907.3180602820466
 30
0.0
 10
1720.77178049656
 20
907.9449495827248
 30
0.0
 10
1721.266554237134
 20
908.5611614680638
 30
0.0
 10
1721.778593781258
 20
909.2087965484061
 30
0.0
 10
1722.275175702765
 20
909.8467774772253
 30
0.0
 10
1722.770457346639
 20
910.492831081061
 30
0.0
 10
1723.2239149771
 20
911.0933919323252
 30
0.0
 10
1723.77159209706
 20
911.8285981854679
 30
0.0
 10
1724.403740286109
 20
912.6924625444044
 30
0.0
 10
1725.279607751355
 20
913.9177907933008
 30
0.0
 10
1726.390022049386
 20
915.5172963774785
 30
0.0
 10
1727.354982722632
 20
916.9646774748217
 30
0.0
 10
1728.067698801303
 20
918.0644965704814
 30
0.0
 10
1728.422722400758
 20
918.6186156780568
 30
0.0
 10
1728.775303411369
 20
919.1751808842928
 30
0.0
 10
1729.128128572694
 20
919.7384934316178
 30
0.0
 10
1729.474776019374
 20
920.2982157512415
 30
0.0
 10
1729.937607430439
 20
921.0539412599283
 30
0.0
 10
1730.395531609684
 20
921.814375168291
 30
0.0
 10
1730.849207631273
 20
922.5804246668085
 30
0.0
 10
1731.187743078634
 20
923.1584579778246
 30
0.0
 10
1731.523755825491
 20
923.7385612421022
 30
0.0
 10
1731.860955412473
 20
924.3272384770935
 30
0.0
 10
1732.190435810583
 20
924.908825497605
 30
0.0
 10
1732.52117117889
 20
925.4990449714933
 30
0.0
 10
1732.849376043884
 20
926.0912429445707
 30
0.0
 10
1733.175726042457
 20
926.6865780657354
 30
0.0
 10
1733.500003662782
 20
927.284639667163
 30
0.0
 10
1733.822439503529
 20
927.88584128617
 30
0.0
 10
1734.142364784937
 20
928.4888685369624
 30
0.0
 10
1734.508420445342
 20
929.1864626860151
 30
0.0
 10
1734.905964698039
 20
929.954050819968
 30
0.0
 10
1735.348330934851
 20
930.8211984127374
 30
0.0
 10
1735.784663520762
 20
931.6896167618215
 30
0.0
 10
1736.224345119194
 20
932.578210919597
 30
0.0
 10
1736.647742625461
 20
933.4469375703738
 30
0.0
 10
1737.074824591276
 20
934.3364290262653
 30
0.0
 10
1737.495349334112
 20
935.2255049731575
 30
0.0
 10
1737.922671334706
 20
936.1428946540218
 30
0.0
 10
1738.326815613586
 20
937.0234935971494
 30
0.0
 10
1738.749120782883
 20
937.9576653393851
 30
0.0
 10
1739.143032132254
 20
938.8419409400631
 30
0.0
 10
1739.567667412009
 20
939.8099768591746
 30
0.0
 10
1739.93940433764
 20
940.669501887136
 30
0.0
 10
1740.317299938783
 20
941.5573005821316
 30
0.0
 10
1740.535139266881
 20
942.0746054513547
 30
0.0
 10
1740.769153286818
 20
942.6343557943728
 30
0.0
 10
1740.922595813799
 20
943.0042194492089
 30
0.0
 10
1741.251647698947
 20
943.8032406035454
 30
0.0
 10
1741.394696404273
 20
944.1550649864184
 30
0.0
 10
1741.728635809434
 20
944.9829196346654
 30
0.0
 10
1741.815325196202
 20
945.1999727379989
 30
0.0
 10
1741.926421592875
 20
945.478495747866
 30
0.0
 10
1741.92474782091
 20
945.4744138896021
 30
0.0
 10
1741.959303200455
 20
945.5612698425066
 30
0.0
 10
1741.959300885311
 20
945.561270762988
 30
0.0
  0
SPLINE
  5
46A3
330
A
100
AcDbEntity
  8
MODEL
100
AcDbSpline
210
0.0
220
0.0
230
1.0
 70
     8
 71
     3
 72
   155
 73
   151
 74
     0
 42
0.000000001
 43
0.0000000001
 40
0.0
 40
0.0
 40
0.0
 40
0.0
 40
0.4373412775899312
 40
0.8778878842777543
 40
1.314063903709087
 40
1.753323990198475
 40
2.183732949761216
 40
2.617045198457456
 40
2.826904268017799
 40
3.037434663724407
 40
3.242922855554136
 40
3.449042324722725
 40
3.653139879311135
 40
3.857851722413999
 40
4.057480139097875
 40
4.257683547488627
 40
4.644918249954862
 40
5.034247835597463
 40
5.419122405641809
 40
5.805962697563934
 40
6.005900367424799
 40
6.206353214953461
 40
6.415637467990115
 40
6.62547691551643
 40
6.847883860118534
 40
7.07090356979331
 40
7.307945955055558
 40
7.545662932517329
 40
7.796164312446646
 40
8.047392901884773
 40
8.309014131135871
 40
8.571399663025757
 40
8.859835342020489
 40
9.14917062401112
 40
9.307405466817594
 40
9.465902048650314
 40
9.635948661850815
 40
9.806291271038903
 40
10.17327357030024
 40
10.56435076671802
 40
10.98226665853517
 40
11.40185204537527
 40
12.28503641810274
 40
12.71373653139356
 40
13.14408036530949
 40
13.54479008155256
 40
13.9469139765206
 40
14.30845167250333
 40
14.67115745473628
 40
15.00045406807645
 40
15.3307763132089
 40
15.63810707706685
 40
15.94640638477173
 40
16.26655959765789
 40
16.5878046578361
 40
16.95530867735932
 40
17.32419681675108
 40
17.59271703628096
 40
17.86193047523797
 40
18.17075243415694
 40
18.4804286846053
 40
18.85956011438401
 40
19.23986389862331
 40
19.46475760403171
 40
19.69003646202228
 40
19.94592811228406
 40
20.2022974150075
 40
20.55413245965732
 40
20.90683239195581
 40
21.25845806926064
 40
21.61091448052608
 40
22.31541864138589
 40
23.02151926992451
 40
23.72818119565904
 40
24.43794130979773
 40
25.14913079428129
 40
25.86336593423565
 40
26.57945425932806
 40
27.29857721698471
 40
28.020179233165
 40
28.74482454731928
 40
29.16560096374102
 40
29.58740636201087
 40
30.01030948278893
 40
30.43425192405964
 40
31.28588227183068
 40
32.14175111950265
 40
33.00448498459844
 40
33.87167642031817
 40
34.30857304410748
 40
34.74663265778165
 40
35.18758476342336
 40
35.62974307950871
 40
36.07569694752674
 40
36.52291174979624
 40
36.97464669011394
 40
37.42769927310899
 40
37.90806756161685
 40
38.38994212202533
 40
38.83197531476225
 40
39.27527227176063
 40
40.15284931127008
 40
41.03516452675465
 40
42.0303706324863
 40
43.03105295256892
 40
43.89137366968162
 40
44.75539160568239
 40
45.61928251147339
 40
46.48662875698787
 40
47.35408396019913
 40
48.22479772926832
 40
49.09669702827917
 40
49.9716891392121
 40
51.72624859849209
 40
53.49004138353686
 40
55.26255635849473
 40
58.83345293264058
 40
60.63156379240702
 40
62.43751670086156
 40
64.25221292559671
 40
67.90384489492645
 40
71.58401901471683
 40
74.17612010552486
 40
76.7799310053242
 40
79.39371144002553
 40
82.01688809870072
 40
84.64767648402666
 40
87.28560430077752
 40
89.92899603047972
 40
92.57678709592268
 40
95.2283577096404
 40
97.88213252294487
 40
100.5370722972669
 40
103.1923363300797
 40
105.8464472370593
 40
108.4985387749639
 40
111.1471746912327
 40
113.7914331572503
 40
115.1411332565273
 40
116.4892246656973
 40
117.8355465432483
 40
119.1799380463292
 40
120.5221575103517
 40
121.8621355498712
 40
123.1997111439287
 40
124.5347233402463
 40
125.8669848939813
 40
127.1963703083823
 40
128.5227186157616
 40
128.6498614884524
 40
128.6498614884524
 40
128.6498614884524
 40
128.6498614884524
 10
1766.923714786598
 20
1156.421792498393
 30
0.0
 10
1766.91763410711
 20
1156.312436407574
 30
0.0
 10
1766.905730342559
 20
1156.097240149346
 30
0.0
 10
1766.887878798289
 20
1155.771152944708
 30
0.0
 10
1766.870693568387
 20
1155.454043889822
 30
0.0
 10
1766.853579367223
 20
1155.135067074309
 30
0.0
 10
1766.837427733909
 20
1154.831122628497
 30
0.0
 10
1766.823889877244
 20
1154.573924626701
 30
0.0
 10
1766.813844083922
 20
1154.381736964726
 30
0.0
 10
1766.80636201654
 20
1154.237953503496
 30
0.0
 10
1766.799326667359
 20
1154.102154262535
 30
0.0
 10
1766.792268484186
 20
1153.965328588627
 30
0.0
 10
1766.785471687586
 20
1153.833004469514
 30
0.0
 10
1766.778638182333
 20
1153.6993914991
 30
0.0
 10
1766.772279272042
 20
1153.57454197951
 30
0.0
 10
1766.763804622747
 20
1153.40746552053
 30
0.0
 10
1766.754268804553
 20
1153.2183446003
 30
0.0
 10
1766.742600252374
 20
1152.985161507222
 30
0.0
 10
1766.731556972514
 20
1152.762697103866
 30
0.0
 10
1766.722554440276
 20
1152.580038096185
 30
0.0
 10
1766.714772596742
 20
1152.421227938609
 30
0.0
 10
1766.70899885792
 20
1152.302954436888
 30
0.0
 10
1766.702579199765
 20
1152.170931065073
 30
0.0
 10
1766.696309495351
 20
1152.041487347622
 30
0.0
 10
1766.689191570918
 20
1151.893939084006
 30
0.0
 10
1766.682203867457
 20
1151.74849456269
 30
0.0
 10
1766.674365501213
 20
1151.584669406391
 30
0.0
 10
1766.666613287246
 20
1151.421951095294
 30
0.0
 10
1766.658161950751
 20
1151.243804901253
 30
0.0
 10
1766.64976850999
 20
1151.066107052157
 30
0.0
 10
1766.640826522555
 20
1150.875968676959
 30
0.0
 10
1766.631865410388
 20
1150.684605930768
 30
0.0
 10
1766.621703500898
 20
1150.466611600099
 30
0.0
 10
1766.61330246813
 20
1150.285550983328
 30
0.0
 10
1766.605855738112
 20
1150.124511442784
 30
0.0
 10
1766.600047125534
 20
1149.998589756255
 30
0.0
 10
1766.593809727056
 20
1149.863042447407
 30
0.0
 10
1766.585161251635
 20
1149.674623926953
 30
0.0
 10
1766.573432669215
 20
1149.418120976723
 30
0.0
 10
1766.558581857333
 20
1149.091605838545
 30
0.0
 10
1766.542793459087
 20
1148.742575032357
 30
0.0
 10
1766.521071076932
 20
1148.259762246668
 30
0.0
 10
1766.498861056316
 20
1147.762063397862
 30
0.0
 10
1766.477289416315
 20
1147.274943835579
 30
0.0
 10
1766.46157023559
 20
1146.918231512897
 30
0.0
 10
1766.44688972982
 20
1146.583569933482
 30
0.0
 10
1766.432724313831
 20
1146.259234512352
 30
0.0
 10
1766.420033632706
 20
1145.967510993604
 30
0.0
 10
1766.407776019984
 20
1145.684695366446
 30
0.0
 10
1766.396883631464
 20
1145.432511506875
 30
0.0
 10
1766.386240843763
 20
1145.185320973146
 30
0.0
 10
1766.376600238623
 20
1144.960713279139
 30
0.0
 10
1766.367031301242
 20
1144.737174764883
 30
0.0
 10
1766.357017769748
 20
1144.50257073488
 30
0.0
 10
1766.34682195424
 20
1144.263066082869
 30
0.0
 10
1766.334885511734
 20
1143.981876019269
 30
0.0
 10
1766.324239849017
 20
1143.730373194583
 30
0.0
 10
1766.313714980038
 20
1143.481151094016
 30
0.0
 10
1766.304272892988
 20
1143.257136849363
 30
0.0
 10
1766.293659123649
 20
1143.004828832807
 30
0.0
 10
1766.282200187675
 20
1142.731878492236
 30
0.0
 10
1766.268971055302
 20
1142.416086737602
 30
0.0
 10
1766.257266611062
 20
1142.136052230253
 30
0.0
 10
1766.246917558386
 20
1141.888033207575
 30
0.0
 10
1766.23827166552
 20
1141.68057466429
 30
0.0
 10
1766.228990725182
 20
1141.457597127399
 30
0.0
 10
1766.218283229308
 20
1141.200010593919
 30
0.0
 10
1766.206057439988
 20
1140.905460962644
 30
0.0
 10
1766.192835607065
 20
1140.586388170759
 30
0.0
 10
1766.179314508438
 20
1140.259584888012
 30
0.0
 10
1766.161481506241
 20
1139.82791796984
 30
0.0
 10
1766.138834939812
 20
1139.278571660612
 30
0.0
 10
1766.111760960671
 20
1138.620141448726
 30
0.0
 10
1766.084190991015
 20
1137.948094182266
 30
0.0
 10
1766.056855567161
 20
1137.280379394211
 30
0.0
 10
1766.029028060749
 20
1136.599393850407
 30
0.0
 10
1766.001386570716
 20
1135.921859385035
 30
0.0
 10
1765.973252242497
 20
1135.231274804912
 30
0.0
 10
1765.945251422582
 20
1134.543136261211
 30
0.0
 10
1765.916815172992
 20
1133.843597706506
 30
0.0
 10
1765.892464515876
 20
1133.244078323736
 30
0.0
 10
1765.871838143221
 20
1132.736004198185
 30
0.0
 10
1765.855243328334
 20
1132.327113830583
 30
0.0
 10
1765.838499337694
 20
1131.914449923727
 30
0.0
 10
1765.816157001468
 20
1131.363712884133
 30
0.0
 10
1765.787854489389
 20
1130.665931917709
 30
0.0
 10
1765.753951770827
 20
1129.830063087266
 30
0.0
 10
1765.719325484547
 20
1128.976519721688
 30
0.0
 10
1765.690486593104
 20
1128.265910495448
 30
0.0
 10
1765.66707189209
 20
1127.689202443911
 30
0.0
 10
1765.649430441276
 20
1127.254831077149
 30
0.0
 10
1765.63160913429
 20
1126.816190850787
 30
0.0
 10
1765.613719614409
 20
1126.376046817775
 30
0.0
 10
1765.595649110762
 20
1125.931642212596
 30
0.0
 10
1765.57747418383
 20
1125.484875227467
 30
0.0
 10
1765.55914183097
 20
1125.03445843505
 30
0.0
 10
1765.540365537535
 20
1124.573369487389
 30
0.0
 10
1765.521159316279
 20
1124.101979913012
 30
0.0
 10
1765.502090250996
 20
1123.63422789663
 30
0.0
 10
1765.483531250648
 20
1123.179249996884
 30
0.0
 10
1765.459583528968
 20
1122.592502378142
 30
0.0
 10
1765.429630825888
 20
1121.859281188194
 30
0.0
 10
1765.39214455198
 20
1120.942865280227
 30
0.0
 10
1765.352861512225
 20
1119.984086200199
 30
0.0
 10
1765.313821537468
 20
1119.033167653757
 30
0.0
 10
1765.276484895951
 20
1118.125709766926
 30
0.0
 10
1765.240936996593
 20
1117.26365437741
 30
0.0
 10
1765.205230398577
 20
1116.399872227685
 30
0.0
 10
1765.169361225048
 20
1115.534470790906
 30
0.0
 10
1765.133333937206
 20
1114.667757979372
 30
0.0
 10
1765.097108651887
 20
1113.798972631321
 30
0.0
 10
1765.060693142237
 20
1112.928504158783
 30
0.0
 10
1765.011783675041
 20
1111.763474799005
 30
0.0
 10
1764.950137565029
 20
1110.303205974731
 30
0.0
 10
1764.875280862115
 20
1108.544496764804
 30
0.0
 10
1764.773860802862
 20
1106.183022885274
 30
0.0
 10
1764.67049296997
 20
1103.811143000243
 30
0.0
 10
1764.564895825985
 20
1101.428606295897
 30
0.0
 10
1764.484228395127
 20
1099.630147726723
 30
0.0
 10
1764.374536852386
 20
1097.215321484135
 30
0.0
 10
1764.233856954038
 20
1094.179477746522
 30
0.0
 10
1764.076650646414
 20
1090.884622526526
 30
0.0
 10
1763.932220543965
 20
1087.937874369145
 30
0.0
 10
1763.802107318838
 20
1085.344182795201
 30
0.0
 10
1763.668297705682
 20
1082.740754154886
 30
0.0
 10
1763.530540314917
 20
1080.127331649605
 30
0.0
 10
1763.388746097521
 20
1077.506790622905
 30
0.0
 10
1763.242644642441
 20
1074.878627571885
 30
0.0
 10
1763.092127607025
 20
1072.245368369604
 30
0.0
 10
1762.937020360311
 20
1069.608237589473
 30
0.0
 10
1762.77705181321
 20
1066.966933150481
 30
0.0
 10
1762.61211741827
 20
1064.323963561601
 30
0.0
 10
1762.442032065276
 20
1061.68040256084
 30
0.0
 10
1762.266521118856
 20
1059.03607346251
 30
0.0
 10
1762.085517888478
 20
1056.393918391707
 30
0.0
 10
1761.898707156227
 20
1053.753237472043
 30
0.0
 10
1761.706049137886
 20
1051.117270513085
 30
0.0
 10
1761.539509122816
 20
1048.912735681032
 30
0.0
 10
1761.402211622258
 20
1047.140896077788
 30
0.0
 10
1761.296458279191
 20
1045.79943136239
 30
0.0
 10
1761.189009962743
 20
1044.459870030372
 30
0.0
 10
1761.079815629507
 20
1043.122057676457
 30
0.0
 10
1760.968945252752
 20
1041.787295558748
 30
0.0
 10
1760.856280871479
 20
1040.454601569549
 30
0.0
 10
1760.741827059975
 20
1039.124494847111
 30
0.0
 10
1760.625529885175
 20
1037.796771584439
 30
0.0
 10
1760.507455576143
 20
1036.472736965541
 30
0.0
 10
1760.387523083987
 20
1035.151403775814
 30
0.0
 10
1760.302235758051
 20
1034.229551362394
 30
0.0
 10
1760.257335616386
 20
1033.748008629784
 30
0.0
 10
1760.253404980612
 20
1033.705885917178
 30
0.0
  0
SPLINE
  5
46A4
330
A
100
AcDbEntity
  8
MODEL
100
AcDbSpline
210
0.0
220
0.0
230
1.0
 70
     8
 71
     3
 72
    14
 73
    10
 74
     0
 42
0.000000001
 43
0.0000000001
 40
0.0
 40
0.0
 40
0.0
 40
0.0
 40
0.3985263612152931
 40
1.197078693631097
 40
1.597490294661422
 40
2.400325699650669
 40
3.202514296034049
 40
3.51582255108483
 40
3.666871474777342
 40
3.666871474777342
 40
3.666871474777342
 40
3.666871474777342
 10
1766.923666818622
 20
1248.331613012106
 30
0.0
 10
1766.923698697664
 20
1248.331039717126
 30
0.0
 10
1766.924072726229
 20
1248.324455211343
 30
0.0
 10
1766.925361666391
 20
1248.304038699844
 30
0.0
 10
1766.928663269554
 20
1248.25883866756
 30
0.0
 10
1766.934110625419
 20
1248.1930270212
 30
0.0
 10
1766.939113780939
 20
1248.141152257024
 30
0.0
 10
1766.941522066611
 20
1248.117411169948
 30
0.0
 10
1766.942579264775
 20
1248.107116947908
 30
0.0
 10
1766.942988365378
 20
1248.103185370954
 30
0.0
  0
LINE
  5
46A5
330
A
100
AcDbEntity
  8
MODEL
100
AcDbLine
 10
1766.923720702337
 20
1156.421894201656
 30
0.0
 11
1766.939316330597
 21
1156.612829646296
 31
0.0
  0
LINE
  5
46A6
330
A
100
AcDbEntity
  8
MODEL
100
AcDbLine
 10
1803.495228236075
 20
1236.79120807214
 30
0.0
 11
1774.235523471702
 21
1239.353385511462
 31
0.0
  0
ARC
  5
46A7
330
A
100
AcDbEntity
  8
MODEL
100
AcDbCircle
 10
1803.233420262911
 20
1233.802543594295
 30
0.0
 40
3.000109051691457
100
AcDbArc
 50
0.0019110539254857
 51
84.99364980842455
  0
LINE
  5
46A8
330
A
100
AcDbEntity
  8
MODEL
100
AcDbLine
 10
452.9993774540344
 20
602.3762806151753
 30
0.0
 11
899.9993772561957
 21
602.3762806151753
 31
0.0
  0
LINE
  5
46A9
330
A
100
AcDbEntity
  8
MODEL
100
AcDbLine
 10
969.9993772561957
 20
672.3762806151753
 30
0.0
 11
969.9993772561957
 21
1732.376300216838
 31
0.0
  0
ARC
  5
46AA
330
A
100
AcDbEntity
  8
MODEL
100
AcDbCircle
 10
899.9993772561957
 20
672.3762806151753
 30
0.0
 40
70.0
100
AcDbArc
 50
270.0
 51
0.0
  0
LINE
  5
46AB
330
A
100
AcDbEntity
  8
MODEL
100
AcDbLine
 10
899.9993772561957
 20
1802.376300216838
 30
0.0
 11
452.9993774540349
 21
1802.376300216838
 31
0.0
  0
ARC
  5
46AC
330
A
100
AcDbEntity
  8
MODEL
100
AcDbCircle
 10
899.9993772561957
 20
1732.376300216838
 30
0.0
 40
70.0
100
AcDbArc
 50
0.0
 51
90.0
  0
ARC
  5
46AD
330
A
100
AcDbEntity
  8
MODEL
100
AcDbCircle
 10
452.9993774540344
 20
1799.376300216838
 30
0.0
 40
3.0
100
AcDbArc
 50
89.99999999999133
 51
180.0
  0
LINE
  5
46AE
330
A
100
AcDbEntity
  8
MODEL
100
AcDbLine
 10
449.9993774540344
 20
1799.376300216838
 30
0.0
 11
449.9993774540344
 21
605.3762806151753
 31
0.0
  0
ARC
  5
46AF
330
A
100
AcDbEntity
  8
MODEL
100
AcDbCircle
 10
452.9993774540344
 20
605.3762806151753
 30
0.0
 40
3.0
100
AcDbArc
 50
180.0
 51
270.0
  0
LINE
  5
46B0
330
A
100
AcDbEntity
  8
MODEL
100
AcDbLine
 10
579.9993773872366
 20
922.3762904160067
 30
0.0
 11
579.9993773872366
 21
1482.376290416007
 31
0.0
  0
ARC
  5
46B1
330
A
100
AcDbEntity
  8
MODEL
100
AcDbCircle
 10
629.9993773872366
 20
922.3762904160067
 30
0.0
 40
50.0
100
AcDbArc
 50
180.0
 51
270.0
  0
LINE
  5
46B2
330
A
100
AcDbEntity
  8
MODEL
100
AcDbLine
 10
629.9993773872366
 20
1532.376290416007
 30
0.0
 11
844.9993774540349
 21
1532.376290416007
 31
0.0
  0
ARC
  5
46B3
102
{ACAD_REACTORS
330
4A62
102
}
330
A
100
AcDbEntity
  8
MODEL
100
AcDbCircle
 10
844.9993774540349
 20
1482.376290416007
 30
0.0
 40
50.0
100
AcDbArc
 50
0.0
 51
90.0
  0
ARC
  5
46B4
330
A
100
AcDbEntity
  8
MODEL
100
AcDbCircle
 10
629.9993773872366
 20
1482.376290416007
 30
0.0
 40
50.0
100
AcDbArc
 50
90.0
 51
180.0
  0
LINE
  5
46B5
330
A
100
AcDbEntity
  8
MODEL
100
AcDbLine
 10
894.9993774540349
 20
1482.376290416007
 30
0.0
 11
894.9993774540344
 21
922.3762904160067
 31
0.0
  0
LINE
  5
46B6
330
A
100
AcDbEntity
  8
MODEL
100
AcDbLine
 10
629.9993773872366
 20
872.3762904160067
 30
0.0
 11
844.9993774540344
 21
872.3762904160067
 31
0.0
  0
ARC
  5
46B7
102
{ACAD_REACTORS
330
4A62
330
4A71
102
}
330
A
100
AcDbEntity
  8
MODEL
100
AcDbCircle
 10
844.9993774540344
 20
922.3762904160067
 30
0.0
 40
50.0
100
AcDbArc
 50
270.0
 51
0.0
  0
CIRCLE
  5
46B8
330
A
100
AcDbEntity
  8
MODEL
100
AcDbCircle
 10
674.9993711884849
 20
1202.376290416007
 30
0.0
 40
22.0
  0
CIRCLE
  5
46B9
330
A
100
AcDbEntity
  8
MODEL
100
AcDbCircle
 10
674.9993711884849
 20
1202.376290416007
 30
0.0
 40
38.5
  0
CIRCLE
  5
46BA
330
A
100
AcDbEntity
  8
HIDDEN
 48
0.5
100
AcDbCircle
 10
515.9993774540344
 20
1202.376290416007
 30
0.0
 40
17.5
  0
CIRCLE
  5
46BB
330
A
100
AcDbEntity
  8
HIDDEN
 48
0.5
100
AcDbCircle
 10
515.9993774540344
 20
1302.376290416007
 30
0.0
 40
16.0
  0
CIRCLE
  5
46BC
330
A
100
AcDbEntity
  8
HIDDEN
 48
0.5
100
AcDbCircle
 10
515.9993774540344
 20
1102.376290416007
 30
0.0
 40
16.0
  0
SPLINE
  5
46BD
330
A
100
AcDbEntity
  8
MODEL
100
AcDbSpline
210
0.0
220
0.0
230
1.0
 70
     8
 71
     3
 72
     9
 73
     5
 74
     0
 42
0.000000001
 43
0.0000000001
 40
0.4906456983313593
 40
0.4906456983313593
 40
0.4906456983313593
 40
0.4906456983313593
 40
0.5207258491987211
 40
0.5872593177981204
 40
0.5872593177981204
 40
0.5872593177981204
 40
0.5872593177981204
 10
1756.346082147813
 20
1403.444487667086
 30
0.0
 10
1756.827796184916
 20
1400.293749936591
 30
0.0
 10
1758.286964713117
 20
1389.912554691979
 30
0.0
 10
1759.48506235289
 20
1378.841298035896
 30
0.0
 10
1760.253404980612
 20
1371.046694234374
 30
0.0
  0
SPLINE
  5
46BE
330
A
100
AcDbEntity
  8
MODEL
100
AcDbSpline
210
0.0
220
0.0
230
1.0
 70
     8
 71
     3
 72
     9
 73
     5
 74
     0
 42
0.000000001
 43
0.0000000001
 40
0.520725849198721
 40
0.520725849198721
 40
0.520725849198721
 40
0.520725849198721
 40
0.5272050118181296
 40
0.7320882413429052
 40
0.7320882413429052
 40
0.7320882413429052
 40
0.7320882413429052
 10
1756.346082147814
 20
1403.444487667086
 30
0.0
 10
1756.242322575722
 20
1404.123145903108
 30
0.0
 10
1752.816006825206
 20
1426.139055169097
 30
0.0
 10
1748.014026582222
 20
1443.98202729478
 30
0.0
 10
1741.959792328563
 20
1459.191505010848
 30
0.0
  0
SPLINE
  5
46BF
330
A
100
AcDbEntity
  8
MODEL
100
AcDbSpline
210
0.0
220
0.0
230
1.0
 70
     8
 71
     3
 72
    68
 73
    64
 74
     0
 42
0.000000001
 43
0.0000000001
 40
12.70704115625107
 40
12.70704115625107
 40
12.70704115625107
 40
12.70704115625107
 40
13.27182603992958
 40
14.01852868326161
 40
14.76530016233962
 40
15.51215400432442
 40
16.25910355717734
 40
17.21336643148956
 40
18.16835937597874
 40
19.12411423908828
 40
20.08066223937238
 40
21.01071252139899
 40
21.94188413130421
 40
22.87420666525626
 40
23.80770907075058
 40
24.53583625023511
 40
25.99448956859285
 40
27.45642799349771
 40
29.65571383978227
 40
32.60049836089701
 40
33.33898446032908
 40
34.07840804156593
 40
34.81877945767833
 40
35.56010883947704
 40
36.30862827927988
 40
37.05807093907659
 40
38.55976378169836
 40
39.3120323694498
 40
40.06526099054315
 40
40.81945832867184
 40
41.57463286308724
 40
42.34001886288586
 40
43.10631382188107
 40
43.87352572480329
 40
44.64166236275882
 40
45.41073133455018
 40
46.18074004793489
 40
46.9516957208231
 40
47.72360538241649
 40
48.83059122039025
 40
49.93926143533297
 40
51.0496343326111
 40
52.16172751448773
 40
53.29816551492264
 40
54.43604058071447
 40
55.5753688833943
 40
56.71616589803082
 40
57.89287239676378
 40
59.07058026995477
 40
60.28950641823966
 40
61.50887704544719
 40
62.80771161286913
 40
64.10586955006539
 40
64.90119124712504
 40
65.69534952149117
 40
66.71649862228239
 40
67.73511080773997
 40
70.35664603930013
 40
72.96326120065818
 40
74.19087694555392
 40
75.41625245708222
 40
76.5990651641562
 40
77.75766108543381
 40
77.75766108543381
 40
77.75766108543381
 40
77.75766108543381
 10
1717.404398968664
 20
1500.761586349527
 30
0.0
 10
1717.494882830865
 20
1500.660679078934
 30
0.0
 10
1717.703904422983
 20
1500.426512133574
 30
0.0
 10
1718.073852325198
 20
1500.008062956298
 30
0.0
 10
1718.459417184386
 20
1499.566496070398
 30
0.0
 10
1718.849165202854
 20
1499.114885449464
 30
0.0
 10
1719.262105600247
 20
1498.630883186819
 30
0.0
 10
1719.751642528211
 20
1498.049193692769
 30
0.0
 10
1720.260644521256
 20
1497.434519869519
 30
0.0
 10
1720.77178049656
 20
1496.807630568841
 30
0.0
 10
1721.266554237134
 20
1496.191418683502
 30
0.0
 10
1721.778593781258
 20
1495.54378360316
 30
0.0
 10
1722.275175702765
 20
1494.905802674341
 30
0.0
 10
1722.770457346639
 20
1494.259749070505
 30
0.0
 10
1723.2239149771
 20
1493.659188219241
 30
0.0
 10
1723.77159209706
 20
1492.923981966098
 30
0.0
 10
1724.403740286109
 20
1492.060117607162
 30
0.0
 10
1725.279607751355
 20
1490.834789358265
 30
0.0
 10
1726.390022049386
 20
1489.235283774088
 30
0.0
 10
1727.354982722632
 20
1487.787902676744
 30
0.0
 10
1728.067698801303
 20
1486.688083581085
 30
0.0
 10
1728.422722400758
 20
1486.133964473509
 30
0.0
 10
1728.775303411369
 20
1485.577399267273
 30
0.0
 10
1729.128128572694
 20
1485.014086719948
 30
0.0
 10
1729.474776019374
 20
1484.454364400324
 30
0.0
 10
1729.937607430439
 20
1483.698638891638
 30
0.0
 10
1730.395531609684
 20
1482.938204983275
 30
0.0
 10
1730.849207631273
 20
1482.172155484757
 30
0.0
 10
1731.187743078634
 20
1481.594122173741
 30
0.0
 10
1731.523755825491
 20
1481.014018909464
 30
0.0
 10
1731.860955412473
 20
1480.425341674473
 30
0.0
 10
1732.190435810583
 20
1479.843754653961
 30
0.0
 10
1732.52117117889
 20
1479.253535180073
 30
0.0
 10
1732.849376043884
 20
1478.661337206995
 30
0.0
 10
1733.175726042457
 20
1478.066002085831
 30
0.0
 10
1733.500003662782
 20
1477.467940484403
 30
0.0
 10
1733.822439503529
 20
1476.866738865396
 30
0.0
 10
1734.142364784937
 20
1476.263711614604
 30
0.0
 10
1734.508420445342
 20
1475.566117465551
 30
0.0
 10
1734.905964698039
 20
1474.798529331598
 30
0.0
 10
1735.348330934851
 20
1473.931381738829
 30
0.0
 10
1735.784663520762
 20
1473.062963389744
 30
0.0
 10
1736.224345119194
 20
1472.174369231969
 30
0.0
 10
1736.647742625461
 20
1471.305642581192
 30
0.0
 10
1737.074824591276
 20
1470.416151125301
 30
0.0
 10
1737.495349334112
 20
1469.527075178408
 30
0.0
 10
1737.922671334706
 20
1468.609685497544
 30
0.0
 10
1738.326815613586
 20
1467.729086554417
 30
0.0
 10
1738.749120782883
 20
1466.794914812181
 30
0.0
 10
1739.143032132254
 20
1465.910639211503
 30
0.0
 10
1739.567667412009
 20
1464.942603292391
 30
0.0
 10
1739.93940433764
 20
1464.08307826443
 30
0.0
 10
1740.317299938783
 20
1463.195279569434
 30
0.0
 10
1740.535139266881
 20
1462.677974700211
 30
0.0
 10
1740.769153286818
 20
1462.118224357193
 30
0.0
 10
1740.922595813799
 20
1461.748360702357
 30
0.0
 10
1741.251647698947
 20
1460.949339548021
 30
0.0
 10
1741.394696404273
 20
1460.597515165148
 30
0.0
 10
1741.728635809434
 20
1459.769660516901
 30
0.0
 10
1741.815325196202
 20
1459.552607413567
 30
0.0
 10
1741.926421592875
 20
1459.2740844037
 30
0.0
 10
1741.92474782091
 20
1459.278166261964
 30
0.0
 10
1741.959303200455
 20
1459.191310309059
 30
0.0
 10
1741.959300885311
 20
1459.191309388578
 30
0.0
  0
SPLINE
  5
46C0
330
A
100
AcDbEntity
  8
MODEL
100
AcDbSpline
210
0.0
220
0.0
230
1.0
 70
     8
 71
     3
 72
   155
 73
   151
 74
     0
 42
0.000000001
 43
0.0000000001
 40
0.0
 40
0.0
 40
0.0
 40
0.0
 40
0.4373412775899312
 40
0.8778878842777543
 40
1.314063903709087
 40
1.753323990198475
 40
2.183732949761216
 40
2.617045198457456
 40
2.826904268017799
 40
3.037434663724407
 40
3.242922855554136
 40
3.449042324722725
 40
3.653139879311135
 40
3.857851722413999
 40
4.057480139097875
 40
4.257683547488627
 40
4.644918249954862
 40
5.034247835597463
 40
5.419122405641809
 40
5.805962697563934
 40
6.005900367424799
 40
6.206353214953461
 40
6.415637467990115
 40
6.62547691551643
 40
6.847883860118534
 40
7.07090356979331
 40
7.307945955055558
 40
7.545662932517329
 40
7.796164312446646
 40
8.047392901884773
 40
8.309014131135871
 40
8.571399663025757
 40
8.859835342020489
 40
9.14917062401112
 40
9.307405466817594
 40
9.465902048650314
 40
9.635948661850815
 40
9.806291271038903
 40
10.17327357030024
 40
10.56435076671802
 40
10.98226665853517
 40
11.40185204537527
 40
12.28503641810274
 40
12.71373653139356
 40
13.14408036530949
 40
13.54479008155256
 40
13.9469139765206
 40
14.30845167250333
 40
14.67115745473628
 40
15.00045406807645
 40
15.3307763132089
 40
15.63810707706685
 40
15.94640638477173
 40
16.26655959765789
 40
16.5878046578361
 40
16.95530867735932
 40
17.32419681675108
 40
17.59271703628096
 40
17.86193047523797
 40
18.17075243415694
 40
18.4804286846053
 40
18.85956011438401
 40
19.23986389862331
 40
19.46475760403171
 40
19.69003646202228
 40
19.94592811228406
 40
20.2022974150075
 40
20.55413245965732
 40
20.90683239195581
 40
21.25845806926064
 40
21.61091448052608
 40
22.31541864138589
 40
23.02151926992451
 40
23.72818119565904
 40
24.43794130979773
 40
25.14913079428129
 40
25.86336593423565
 40
26.57945425932806
 40
27.29857721698471
 40
28.020179233165
 40
28.74482454731928
 40
29.16560096374102
 40
29.58740636201087
 40
30.01030948278893
 40
30.43425192405964
 40
31.28588227183068
 40
32.14175111950265
 40
33.00448498459844
 40
33.87167642031817
 40
34.30857304410748
 40
34.74663265778165
 40
35.18758476342336
 40
35.62974307950871
 40
36.07569694752674
 40
36.52291174979624
 40
36.97464669011394
 40
37.42769927310899
 40
37.90806756161685
 40
38.38994212202533
 40
38.83197531476225
 40
39.27527227176063
 40
40.15284931127008
 40
41.03516452675465
 40
42.0303706324863
 40
43.03105295256892
 40
43.89137366968162
 40
44.75539160568239
 40
45.61928251147339
 40
46.48662875698787
 40
47.35408396019913
 40
48.22479772926832
 40
49.09669702827917
 40
49.9716891392121
 40
51.72624859849209
 40
53.49004138353686
 40
55.26255635849473
 40
58.83345293264058
 40
60.63156379240702
 40
62.43751670086156
 40
64.25221292559671
 40
67.90384489492645
 40
71.58401901471683
 40
74.17612010552486
 40
76.7799310053242
 40
79.39371144002553
 40
82.01688809870072
 40
84.64767648402666
 40
87.28560430077752
 40
89.92899603047972
 40
92.57678709592268
 40
95.2283577096404
 40
97.88213252294487
 40
100.5370722972669
 40
103.1923363300797
 40
105.8464472370593
 40
108.4985387749639
 40
111.1471746912327
 40
113.7914331572503
 40
115.1411332565273
 40
116.4892246656973
 40
117.8355465432483
 40
119.1799380463292
 40
120.5221575103517
 40
121.8621355498712
 40
123.1997111439287
 40
124.5347233402463
 40
125.8669848939813
 40
127.1963703083823
 40
128.5227186157616
 40
128.6498614884524
 40
128.6498614884524
 40
128.6498614884524
 40
128.6498614884524
 10
1766.923714786598
 20
1248.330787653173
 30
0.0
 10
1766.91763410711
 20
1248.440143743992
 30
0.0
 10
1766.905730342559
 20
1248.655340002221
 30
0.0
 10
1766.887878798289
 20
1248.981427206858
 30
0.0
 10
1766.870693568387
 20
1249.298536261744
 30
0.0
 10
1766.853579367223
 20
1249.617513077257
 30
0.0
 10
1766.837427733909
 20
1249.921457523069
 30
0.0
 10
1766.823889877244
 20
1250.178655524866
 30
0.0
 10
1766.813844083922
 20
1250.37084318684
 30
0.0
 10
1766.80636201654
 20
1250.51462664807
 30
0.0
 10
1766.799326667359
 20
1250.650425889031
 30
0.0
 10
1766.792268484186
 20
1250.787251562939
 30
0.0
 10
1766.785471687586
 20
1250.919575682052
 30
0.0
 10
1766.778638182333
 20
1251.053188652466
 30
0.0
 10
1766.772279272042
 20
1251.178038172057
 30
0.0
 10
1766.763804622747
 20
1251.345114631036
 30
0.0
 10
1766.754268804553
 20
1251.534235551266
 30
0.0
 10
1766.742600252374
 20
1251.767418644344
 30
0.0
 10
1766.731556972514
 20
1251.9898830477
 30
0.0
 10
1766.722554440276
 20
1252.172542055381
 30
0.0
 10
1766.714772596742
 20
1252.331352212958
 30
0.0
 10
1766.70899885792
 20
1252.449625714679
 30
0.0
 10
1766.702579199765
 20
1252.581649086493
 30
0.0
 10
1766.696309495351
 20
1252.711092803944
 30
0.0
 10
1766.689191570918
 20
1252.85864106756
 30
0.0
 10
1766.682203867457
 20
1253.004085588877
 30
0.0
 10
1766.674365501213
 20
1253.167910745175
 30
0.0
 10
1766.666613287246
 20
1253.330629056273
 30
0.0
 10
1766.658161950751
 20
1253.508775250313
 30
0.0
 10
1766.64976850999
 20
1253.68647309941
 30
0.0
 10
1766.640826522555
 20
1253.876611474607
 30
0.0
 10
1766.631865410388
 20
1254.067974220798
 30
0.0
 10
1766.621703500898
 20
1254.285968551467
 30
0.0
 10
1766.61330246813
 20
1254.467029168238
 30
0.0
 10
1766.605855738112
 20
1254.628068708782
 30
0.0
 10
1766.600047125534
 20
1254.753990395311
 30
0.0
 10
1766.593809727056
 20
1254.889537704159
 30
0.0
 10
1766.585161251635
 20
1255.077956224614
 30
0.0
 10
1766.573432669215
 20
1255.334459174843
 30
0.0
 10
1766.558581857333
 20
1255.660974313021
 30
0.0
 10
1766.542793459087
 20
1256.01000511921
 30
0.0
 10
1766.521071076932
 20
1256.492817904899
 30
0.0
 10
1766.498861056316
 20
1256.990516753704
 30
0.0
 10
1766.477289416315
 20
1257.477636315987
 30
0.0
 10
1766.46157023559
 20
1257.83434863867
 30
0.0
 10
1766.44688972982
 20
1258.169010218084
 30
0.0
 10
1766.432724313831
 20
1258.493345639214
 30
0.0
 10
1766.420033632706
 20
1258.785069157963
 30
0.0
 10
1766.407776019984
 20
1259.06788478512
 30
0.0
 10
1766.396883631464
 20
1259.320068644691
 30
0.0
 10
1766.386240843763
 20
1259.567259178421
 30
0.0
 10
1766.376600238623
 20
1259.791866872427
 30
0.0
 10
1766.367031301242
 20
1260.015405386683
 30
0.0
 10
1766.357017769748
 20
1260.250009416686
 30
0.0
 10
1766.34682195424
 20
1260.489514068697
 30
0.0
 10
1766.334885511734
 20
1260.770704132298
 30
0.0
 10
1766.324239849017
 20
1261.022206956983
 30
0.0
 10
1766.313714980038
 20
1261.27142905755
 30
0.0
 10
1766.304272892988
 20
1261.495443302203
 30
0.0
 10
1766.293659123649
 20
1261.747751318759
 30
0.0
 10
1766.282200187675
 20
1262.020701659331
 30
0.0
 10
1766.268971055302
 20
1262.336493413965
 30
0.0
 10
1766.257266611062
 20
1262.616527921313
 30
0.0
 10
1766.246917558386
 20
1262.864546943991
 30
0.0
 10
1766.23827166552
 20
1263.072005487277
 30
0.0
 10
1766.228990725182
 20
1263.294983024167
 30
0.0
 10
1766.218283229308
 20
1263.552569557647
 30
0.0
 10
1766.206057439988
 20
1263.847119188922
 30
0.0
 10
1766.192835607065
 20
1264.166191980807
 30
0.0
 10
1766.179314508438
 20
1264.492995263554
 30
0.0
 10
1766.161481506241
 20
1264.924662181726
 30
0.0
 10
1766.138834939812
 20
1265.474008490954
 30
0.0
 10
1766.111760960671
 20
1266.13243870284
 30
0.0
 10
1766.084190991015
 20
1266.8044859693
 30
0.0
 10
1766.056855567161
 20
1267.472200757355
 30
0.0
 10
1766.029028060749
 20
1268.153186301159
 30
0.0
 10
1766.001386570716
 20
1268.830720766531
 30
0.0
 10
1765.973252242497
 20
1269.521305346654
 30
0.0
 10
1765.945251422582
 20
1270.209443890355
 30
0.0
 10
1765.916815172992
 20
1270.90898244506
 30
0.0
 10
1765.892464515876
 20
1271.50850182783
 30
0.0
 10
1765.871838143221
 20
1272.016575953381
 30
0.0
 10
1765.855243328334
 20
1272.425466320983
 30
0.0
 10
1765.838499337694
 20
1272.83813022784
 30
0.0
 10
1765.816157001468
 20
1273.388867267433
 30
0.0
 10
1765.787854489389
 20
1274.086648233857
 30
0.0
 10
1765.753951770827
 20
1274.922517064301
 30
0.0
 10
1765.719325484547
 20
1275.776060429878
 30
0.0
 10
1765.690486593104
 20
1276.486669656119
 30
0.0
 10
1765.66707189209
 20
1277.063377707655
 30
0.0
 10
1765.649430441276
 20
1277.497749074417
 30
0.0
 10
1765.63160913429
 20
1277.93638930078
 30
0.0
 10
1765.613719614409
 20
1278.376533333791
 30
0.0
 10
1765.595649110762
 20
1278.82093793897
 30
0.0
 10
1765.57747418383
 20
1279.267704924099
 30
0.0
 10
1765.55914183097
 20
1279.718121716516
 30
0.0
 10
1765.540365537535
 20
1280.179210664177
 30
0.0
 10
1765.521159316279
 20
1280.650600238554
 30
0.0
 10
1765.502090250996
 20
1281.118352254937
 30
0.0
 10
1765.483531250648
 20
1281.573330154683
 30
0.0
 10
1765.459583528968
 20
1282.160077773424
 30
0.0
 10
1765.429630825888
 20
1282.893298963372
 30
0.0
 10
1765.39214455198
 20
1283.809714871339
 30
0.0
 10
1765.352861512225
 20
1284.768493951368
 30
0.0
 10
1765.313821537468
 20
1285.719412497809
 30
0.0
 10
1765.276484895951
 20
1286.62687038464
 30
0.0
 10
1765.240936996593
 20
1287.488925774156
 30
0.0
 10
1765.205230398577
 20
1288.352707923881
 30
0.0
 10
1765.169361225048
 20
1289.21810936066
 30
0.0
 10
1765.133333937206
 20
1290.084822172194
 30
0.0
 10
1765.097108651887
 20
1290.953607520245
 30
0.0
 10
1765.060693142237
 20
1291.824075992783
 30
0.0
 10
1765.011783675041
 20
1292.989105352561
 30
0.0
 10
1764.950137565029
 20
1294.449374176835
 30
0.0
 10
1764.875280862115
 20
1296.208083386762
 30
0.0
 10
1764.773860802862
 20
1298.569557266292
 30
0.0
 10
1764.67049296997
 20
1300.941437151323
 30
0.0
 10
1764.564895825985
 20
1303.32397385567
 30
0.0
 10
1764.484228395127
 20
1305.122432424844
 30
0.0
 10
1764.374536852386
 20
1307.537258667431
 30
0.0
 10
1764.233856954038
 20
1310.573102405044
 30
0.0
 10
1764.076650646414
 20
1313.86795762504
 30
0.0
 10
1763.932220543965
 20
1316.814705782421
 30
0.0
 10
1763.802107318838
 20
1319.408397356365
 30
0.0
 10
1763.668297705682
 20
1322.011825996681
 30
0.0
 10
1763.530540314917
 20
1324.625248501962
 30
0.0
 10
1763.388746097521
 20
1327.245789528661
 30
0.0
 10
1763.242644642441
 20
1329.873952579681
 30
0.0
 10
1763.092127607025
 20
1332.507211781962
 30
0.0
 10
1762.937020360311
 20
1335.144342562093
 30
0.0
 10
1762.77705181321
 20
1337.785647001085
 30
0.0
 10
1762.61211741827
 20
1340.428616589965
 30
0.0
 10
1762.442032065276
 20
1343.072177590726
 30
0.0
 10
1762.266521118856
 20
1345.716506689056
 30
0.0
 10
1762.085517888478
 20
1348.35866175986
 30
0.0
 10
1761.898707156227
 20
1350.999342679523
 30
0.0
 10
1761.706049137886
 20
1353.635309638481
 30
0.0
 10
1761.539509122816
 20
1355.839844470535
 30
0.0
 10
1761.402211622258
 20
1357.611684073778
 30
0.0
 10
1761.296458279191
 20
1358.953148789177
 30
0.0
 10
1761.189009962743
 20
1360.292710121194
 30
0.0
 10
1761.079815629507
 20
1361.630522475109
 30
0.0
 10
1760.968945252752
 20
1362.965284592818
 30
0.0
 10
1760.856280871479
 20
1364.297978582017
 30
0.0
 10
1760.741827059975
 20
1365.628085304456
 30
0.0
 10
1760.625529885175
 20
1366.955808567127
 30
0.0
 10
1760.507455576143
 20
1368.279843186025
 30
0.0
 10
1760.387523083987
 20
1369.601176375753
 30
0.0
 10
1760.302235758051
 20
1370.523028789172
 30
0.0
 10
1760.257335616386
 20
1371.004571521782
 30
0.0
 10
1760.253404980612
 20
1371.046694234388
 30
0.0
  0
SPLINE
  5
46C1
330
A
100
AcDbEntity
  8
MODEL
100
AcDbSpline
210
0.0
220
0.0
230
1.0
 70
     8
 71
     3
 72
    14
 73
    10
 74
     0
 42
0.000000001
 43
0.0000000001
 40
0.0
 40
0.0
 40
0.0
 40
0.0
 40
4.438579156171226
 40
8.092991413260776
 40
11.35540354477697
 40
14.61796776840336
 40
17.88059968536241
 40
20.15832350912375
 40
22.77672762232345
 40
22.77672762232345
 40
22.77672762232345
 40
22.77672762232345
 10
581.968624296454
 20
1216.876238027788
 30
0.0
 10
582.0644724995955
 20
1216.876231597573
 30
0.0
 10
582.2442925791911
 20
1216.4598848516
 30
0.0
 10
582.4885919155154
 20
1214.861708600012
 30
0.0
 10
582.6860994143094
 20
1212.739594583891
 30
0.0
 10
582.8435961560949
 20
1210.176789083034
 30
0.0
 10
582.945241648798
 20
1207.518074044561
 30
0.0
 10
583.0013748983724
 20
1204.881128572841
 30
0.0
 10
583.0133488837464
 20
1203.249089594141
 30
0.0
 10
583.0133488837464
 20
1202.376290416007
 30
0.0
  0
SPLINE
  5
46C2
330
A
100
AcDbEntity
  8
MODEL
100
AcDbSpline
210
0.0
220
0.0
230
1.0
 70
     8
 71
     3
 72
    14
 73
    10
 74
     0
 42
0.000000001
 43
0.0000000001
 40
0.0
 40
0.0
 40
0.0
 40
0.0
 40
4.437951340082113
 40
8.09221583153426
 40
11.35467298824016
 40
14.61719808154339
 40
17.87974963172368
 40
20.15766791178805
 40
22.77655317433729
 40
22.77655317433729
 40
22.77655317433729
 40
22.77655317433729
 10
581.1000021015425
 20
1202.376290416007
 30
0.0
 10
581.1000021015425
 20
1203.855613943914
 30
0.0
 10
581.1232472238398
 20
1206.552735434565
 30
0.0
 10
581.2133991108744
 20
1210.017103043323
 30
0.0
 10
581.3349891703697
 20
1212.692242302434
 30
0.0
 10
581.4849154545986
 20
1214.744484397638
 30
0.0
 10
581.6448030114834
 20
1216.029326633096
 30
0.0
 10
581.808095293708
 20
1216.728394594055
 30
0.0
 10
581.9120711883952
 20
1216.876241821792
 30
0.0
 10
581.968624296454
 20
1216.876238027788
 30
0.0
  0
SPLINE
  5
46C3
330
A
100
AcDbEntity
  8
MODEL
100
AcDbSpline
210
0.0
220
0.0
230
1.0
 70
     8
 71
     3
 72
    22
 73
    18
 74
     0
 42
0.000000001
 43
0.0000000001
 40
0.0
 40
0.0
 40
0.0
 40
0.0
 40
4.069372967250446
 40
7.414366078164461
 40
10.40492380029598
 40
13.25963373910581
 40
16.25029650064632
 40
19.24095403896702
 40
22.09558862038859
 40
25.08607164947307
 40
27.94057952960579
 40
30.93101909458784
 40
33.92158931396602
 40
36.77630787140812
 40
39.76706691113682
 40
42.62175942500219
 40
45.55335725037372
 40
45.55335725037372
 40
45.55335725037372
 40
45.55335725037372
 10
581.1000021015425
 20
1202.376290416007
 30
0.0
 10
581.1000021015425
 20
1201.019826878441
 30
0.0
 10
581.1195139333909
 20
1198.548545200709
 30
0.0
 10
581.1954155472722
 20
1195.327320517416
 30
0.0
 10
581.2967664478633
 20
1192.81096520794
 30
0.0
 10
581.421928894651
 20
1190.783276065468
 30
0.0
 10
581.5714534947533
 20
1189.227475927499
 30
0.0
 10
581.7414555824362
 20
1188.220655151436
 30
0.0
 10
581.9261759853234
 20
1187.791854346139
 30
0.0
 10
582.1166336523715
 20
1187.955490401099
 30
0.0
 10
582.311406275533
 20
1188.709757163899
 30
0.0
 10
582.4994718633184
 20
1190.022204284073
 30
0.0
 10
582.6712065406214
 20
1191.850403381828
 30
0.0
 10
582.8174121267307
 20
1194.106844485909
 30
0.0
 10
582.9276941012095
 20
1196.662323580833
 30
0.0
 10
582.9974920604918
 20
1199.470360558113
 30
0.0
 10
583.0133488837464
 20
1201.39909359613
 30
0.0
 10
583.0133488837464
 20
1202.376290416007
 30
0.0
  0
SPLINE
  5
46C4
330
A
100
AcDbEntity
  8
MODEL
100
AcDbSpline
210
0.0
220
0.0
230
1.0
 70
     8
 71
     7
 72
    21
 73
    13
 74
     0
 42
0.000000001
 43
0.0000000001
 40
0.0
 40
0.0
 40
0.0
 40
0.0
 40
0.0
 40
0.0
 40
0.0
 40
0.0
 40
0.8399999999999999
 40
0.8399999999999999
 40
0.8399999999999999
 40
0.8399999999999999
 40
0.8399999999999999
 40
1.0
 40
1.0
 40
1.0
 40
1.0
 40
1.0
 40
1.0
 40
1.0
 40
1.0
 10
1631.930421210037
 20
1802.376300216838
 30
0.0
 10
1631.444303935531
 20
1802.376300216838
 30
0.0
 10
1630.958186661025
 20
1802.374039864761
 30
0.0
 10
1630.474085473789
 20
1802.363120228791
 30
0.0
 10
1629.981532066538
 20
1802.362277261851
 30
0.0
 10
1629.504347399518
 20
1802.311899256773
 30
0.0
 10
1628.920084308112
 20
1802.241093333312
 30
0.0
 10
1628.37393414884
 20
1802.048629697583
 30
0.0
 10
1628.285653684442
 20
1802.015656236003
 30
0.0
 10
1628.208888635927
 20
1801.971021161251
 30
0.0
 10
1628.117365955543
 20
1801.933617833795
 30
0.0
 10
1628.048650671342
 20
1801.871353654479
 30
0.0
 10
1627.983488568562
 20
1801.805569872519
 30
0.0
  0
ARC
  5
46C5
330
A
100
AcDbEntity
  8
MODEL
100
AcDbCircle
 10
1713.404398968664
 20
676.0515477426052
 30
0.0
 40
3.999999999999954
100
AcDbArc
 50
271.9999999999645
 51
0.0
  0
LINE
  5
46C6
330
A
100
AcDbEntity
  8
MODEL
100
AcDbLine
 10
1645.229901485151
 20
669.6684036535844
 30
0.0
 11
1713.543996955475
 21
672.0539844345294
 31
0.0
  0
ARC
  5
46C7
330
A
100
AcDbEntity
  8
MODEL
100
AcDbCircle
 10
1645.404398968663
 20
664.6714495184824
 30
0.0
 40
5.0
100
AcDbArc
 50
92.0000000001705
 51
129.0064313971749
  0
ARC
  5
46C8
330
A
100
AcDbEntity
  8
MODEL
100
AcDbCircle
 10
1713.404398968664
 20
1728.701032408961
 30
0.0
 40
3.999999999999954
100
AcDbArc
 50
0.0
 51
88.00000000004847
  0
LINE
  5
46C9
330
A
100
AcDbEntity
  8
MODEL
100
AcDbLine
 10
1645.229901485151
 20
1735.084176497982
 30
0.0
 11
1713.543996955475
 21
1732.698595717037
 31
0.0
  0
ARC
  5
46CA
330
A
100
AcDbEntity
  8
MODEL
100
AcDbCircle
 10
1645.404398968663
 20
1740.081130633084
 30
0.0
 40
5.0
100
AcDbArc
 50
230.9935686028539
 51
267.9999999998399
  0
ARC
  5
46CB
330
A
100
AcDbEntity
  8
MODEL
100
AcDbCircle
 10
1774.933387045592
 20
1157.429691795722
 30
0.0
 40
8.0
100
AcDbArc
 50
95.00444037424725
 51
178.8629979961464
  0
ARC
  5
46CC
330
A
100
AcDbEntity
  8
MODEL
100
AcDbCircle
 10
1774.933387045416
 20
1247.322889036277
 30
0.0
 40
8.0
100
AcDbArc
 50
181.1370019709134
 51
264.9955596265766
  0
LINE
  5
46CD
330
A
100
AcDbEntity
  8
MODEL
100
AcDbLine
 10
1767.018594489515
 20
1158.594191170673
 30
0.0
 11
1767.018594473229
 21
1246.158389770801
 31
0.0
  0
ARC
  5
46D2
330
A
100
AcDbEntity
  8
MODEL
100
AcDbCircle
 10
1774.988526581051
 20
2404.546896269815
 30
0.0
 40
8.000000000000002
100
AcDbArc
 50
95.00444037395977
 51
176.154012682498
  0
LINE
  5
46D4
330
A
100
AcDbEntity
  8
MODEL
100
AcDbLine
 10
1717.404408170192
 20
2674.488665295757
 30
0.0
 11
1717.404406284585
 21
2234.234744279333
 31
0.0
  0
SPLINE
  5
46D5
330
A
100
AcDbEntity
  8
MODEL
100
AcDbSpline
210
0.0
220
0.0
230
1.0
 70
     8
 71
     3
 72
    11
 73
     7
 74
     0
 42
0.000000001
 43
0.0000000001
 40
0.0505430319772765
 40
0.0505430319772765
 40
0.0505430319772765
 40
0.0505430319772765
 40
0.252556237363541
 40
0.4727949881818704
 40
0.7756739781347395
 40
0.9654661452689698
 40
0.9654661452689698
 40
0.9654661452689698
 40
0.9654661452689698
 10
1717.404408169995
 20
2277.368994335839
 30
0.0
 10
1726.343134245609
 20
2287.528000877748
 30
0.0
 10
1741.83500407259
 20
2309.295225762969
 30
0.0
 10
1758.857879508919
 20
2347.116139317387
 30
0.0
 10
1764.358100684002
 20
2368.4903633704
 30
0.0
 10
1766.19720093307
 20
2393.044397382335
 30
0.0
 10
1767.006542953291
 20
2405.083494225522
 30
0.0
  0
LINE
  5
46D7
330
A
100
AcDbEntity
  8
MODEL
100
AcDbLine
 10
1627.404402212232
 20
2550.184364111452
 30
0.0
 11
1627.404398856138
 21
2224.133032759097
 31
0.0
  0
ARC
  5
46D8
330
A
100
AcDbEntity
  8
HIDDEN
 48
0.5
100
AcDbCircle
 10
1633.421250259044
 20
2550.198116652912
 30
0.0
 40
6.016863763692175
100
AcDbArc
 50
180.0000000002252
 51
266.9886434747715
  0
ARC
  5
46D9
330
A
100
AcDbEntity
  8
MODEL
100
AcDbCircle
 10
1634.816879937039
 20
2224.132414194262
 30
0.0
 40
7.412493441689082
100
AcDbArc
 50
109.3896418399324
 51
179.9999999998313
  0
SPLINE
  5
46DA
330
A
100
AcDbEntity
  8
HIDDEN
 48
0.5
100
AcDbSpline
210
0.0
220
0.0
230
1.0
 70
     8
 71
     3
 72
    78
 73
    74
 74
     0
 42
0.000000001
 43
0.0000000001
 40
0.0
 40
0.0
 40
0.0
 40
0.0
 40
0.9825292147596781
 40
1.965043072467684
 40
2.947525840232049
 40
3.92996133871558
 40
4.912334665169113
 40
5.894625140887645
 40
6.876822476190906
 40
7.85891954233668
 40
8.840906178871128
 40
9.822771414170413
 40
10.80450481720243
 40
11.78609695281544
 40
12.76753969501699
 40
13.74882653157043
 40
14.72995271992231
 40
15.71091535079996
 40
16.69171333046924
 40
17.67234729311443
 40
18.65281945613297
 40
19.63313343277854
 40
20.61329401799116
 40
21.59330696398195
 40
22.57317875937629
 40
23.55291642197292
 40
24.53252731308204
 40
25.51201897814224
 40
26.4913990155253
 40
27.4706749732057
 40
28.44985427135081
 40
29.42894414786772
 40
30.40795162344805
 40
31.38688348257147
 40
32.36574626714255
 40
33.3445462797813
 40
34.32328959491497
 40
35.30198207265326
 40
36.28062938343102
 40
37.25923702139163
 40
38.23781026682127
 40
39.21635420597735
 40
40.19487378577211
 40
41.17337386782373
 40
42.15185928250731
 40
43.13033488517942
 40
44.10880561685635
 40
45.08727656930569
 40
46.0657530525696
 40
47.0442406613729
 40
48.02274531593365
 40
49.00127323817371
 40
49.9798308466411
 40
50.9584245509665
 40
51.93706022905008
 40
52.91574235193796
 40
53.89447305202177
 40
54.87325240450763
 40
55.85208094046125
 40
56.8309592194608
 40
57.80988604636114
 40
58.78885968529517
 40
59.76787872027091
 40
60.74694206302262
 40
61.72604877767011
 40
62.70519769139651
 40
63.68438712277122
 40
64.66361474126863
 40
65.64287690464366
 40
66.62216812306482
 40
67.60148196740765
 40
68.5808114433114
 40
69.56014898069867
 40
69.56014898069867
 40
69.56014898069867
 40
69.56014898069867
 10
1757.11945138347
 20
2492.903225134831
 30
0.0
 10
1757.119451229743
 20
2492.903227697493
 30
0.0
 10
1757.119470557277
 20
2492.896295553915
 30
0.0
 10
1757.119571887734
 20
2492.865104420289
 30
0.0
 10
1757.119764275011
 20
2492.81312267789
 30
0.0
 10
1757.120037645443
 20
2492.740285595996
 30
0.0
 10
1757.120447777786
 20
2492.646751034512
 30
0.0
 10
1757.120853496605
 20
2492.532290224412
 30
0.0
 10
1757.121323391059
 20
2492.396892199104
 30
0.0
 10
1757.121870875758
 20
2492.240679029112
 30
0.0
 10
1757.122502034566
 20
2492.063698585262
 30
0.0
 10
1757.12321432065
 20
2491.866003982167
 30
0.0
 10
1757.124003404336
 20
2491.647653128638
 30
0.0
 10
1757.124861761745
 20
2491.408713821003
 30
0.0
 10
1757.125780478505
 20
2491.149262825786
 30
0.0
 10
1757.126749766953
 20
2490.869389264748
 30
0.0
 10
1757.127759497692
 20
2490.569195272361
 30
0.0
 10
1757.128799569829
 20
2490.248796908142
 30
0.0
 10
1757.129860206324
 20
2489.908324618457
 30
0.0
 10
1757.130932170977
 20
2489.54792349451
 30
0.0
 10
1757.132006917068
 20
2489.16775329561
 30
0.0
 10
1757.133076672318
 20
2488.767988269376
 30
0.0
 10
1757.134134472616
 20
2488.34881677575
 30
0.0
 10
1757.135174161295
 20
2487.910440770411
 30
0.0
 10
1757.136190358308
 20
2487.453075206327
 30
0.0
 10
1757.137178408512
 20
2486.976947367052
 30
0.0
 10
1757.13813431729
 20
2486.482296177801
 30
0.0
 10
1757.139054679973
 20
2485.969371523198
 30
0.0
 10
1757.139936609986
 20
2485.438433596602
 30
0.0
 10
1757.14077766949
 20
2484.889752298363
 30
0.0
 10
1757.141575804758
 20
2484.323606693803
 30
0.0
 10
1757.142329287707
 20
2483.740284535076
 30
0.0
 10
1757.143036663975
 20
2483.140081848202
 30
0.0
 10
1757.143696706647
 20
2482.523302574853
 30
0.0
 10
1757.144308378184
 20
2481.890258285815
 30
0.0
 10
1757.144870786687
 20
2481.241267869893
 30
0.0
 10
1757.145383198417
 20
2480.576657451479
 30
0.0
 10
1757.145844821504
 20
2479.89676012134
 30
0.0
 10
1757.146255333041
 20
2479.201914678713
 30
0.0
 10
1757.14661492325
 20
2478.492468294292
 30
0.0
 10
1757.146923541563
 20
2477.768774908971
 30
0.0
 10
1757.147180953739
 20
2477.031194276855
 30
0.0
 10
1757.147386712494
 20
2476.280092113916
 30
0.0
 10
1757.147540153011
 20
2475.515839947269
 30
0.0
 10
1757.147640360278
 20
2474.738815045653
 30
0.0
 10
1757.147686126823
 20
2473.949400282627
 30
0.0
 10
1757.147675916413
 20
2473.147984000746
 30
0.0
 10
1757.147607855025
 20
2472.334959877942
 30
0.0
 10
1757.147479730912
 20
2471.510726878067
 30
0.0
 10
1757.147289107065
 20
2470.675688990546
 30
0.0
 10
1757.147033807464
 20
2469.83025542256
 30
0.0
 10
1757.146712632711
 20
2468.974840895868
 30
0.0
 10
1757.146325531728
 20
2468.109866381221
 30
0.0
 10
1757.145875200315
 20
2467.23575780277
 30
0.0
 10
1757.145370261677
 20
2466.352948938236
 30
0.0
 10
1757.144826941562
 20
2465.461882274084
 30
0.0
 10
1757.144268759547
 20
2464.563009010602
 30
0.0
 10
1757.143709491363
 20
2463.656787512039
 30
0.0
 10
1757.143130644376
 20
2462.743651714698
 30
0.0
 10
1757.142546501366
 20
2461.824042572913
 30
0.0
 10
1757.141976161153
 20
2460.898425016992
 30
0.0
 10
1757.141418309554
 20
2459.967248862165
 30
0.0
 10
1757.140870429189
 20
2459.030964956578
 30
0.0
 10
1757.140332439644
 20
2458.090028319017
 30
0.0
 10
1757.139805182515
 20
2457.144897381988
 30
0.0
 10
1757.139295037522
 20
2456.196034452883
 30
0.0
 10
1757.13881003153
 20
2455.24390449764
 30
0.0
 10
1757.138356924776
 20
2454.288972274695
 30
0.0
 10
1757.137954253011
 20
2453.331710840977
 30
0.0
 10
1757.137627285431
 20
2452.372571314689
 30
0.0
 10
1757.137378232822
 20
2451.412084474704
 30
0.0
 10
1757.137228672064
 20
2450.450469779742
 30
0.0
 10
1757.137174096183
 20
2449.809567901462
 30
0.0
 10
1757.137185929131
 20
2449.488663395419
 30
0.0
  0
SPLINE
  5
46DB
330
A
100
AcDbEntity
  8
HIDDEN
 48
0.5
100
AcDbSpline
210
0.0
220
0.0
230
1.0
 70
     8
 71
     3
 72
    78
 73
    74
 74
     0
 42
0.000000001
 43
0.0000000001
 40
0.0
 40
0.0
 40
0.0
 40
0.0
 40
0.9801006137919084
 40
1.960196484936872
 40
2.940282586823918
 40
3.920353636463524
 40
4.90040422490062
 40
5.880428962668033
 40
6.860422623574241
 40
7.840380269457122
 40
8.820297344477952
 40
9.800169736701092
 40
10.77999381292287
 40
11.75976643549001
 40
12.73948496534313
 40
13.71914725365136
 40
14.698751625227
 40
15.67829685633143
 40
16.65778214893361
 40
17.63720710297088
 40
18.61657168772314
 40
19.59587621306907
 40
20.5751213011752
 40
21.55430785899917
 40
22.53343705179763
 40
23.51251027928999
 40
24.49152915449159
 40
25.47049548325997
 40
26.44941124249783
 40
27.42827855617863
 40
28.4070996702333
 40
29.38587692916219
 40
30.36461275802183
 40
31.34330965149564
 40
32.32197017059161
 40
33.30059694383937
 40
34.27919266873185
 40
35.25776011198707
 40
36.23630211057895
 40
37.21482157256916
 40
38.19332146190178
 40
39.17180478100193
 40
40.15027460104837
 40
41.12873408738097
 40
42.10718644494156
 40
43.08563485748198
 40
44.06408247707549
 40
45.04253271443084
 40
46.02099012527491
 40
46.99946091310964
 40
47.97795136840785
 40
48.95646611198955
 40
49.93500855096712
 40
50.91358225408614
 40
51.89219163647419
 40
52.87084173384164
 40
53.84953752819076
 40
54.82828326887898
 40
55.80708206921013
 40
56.78593578315456
 40
57.76484503299532
 40
58.74380932033369
 40
59.72282718374701
 40
60.70189635936398
 40
61.68101390192876
 40
62.6601762747046
 40
63.63937941941581
 40
64.61861881025503
 40
65.5978894900636
 40
66.57718608402325
 40
67.55650279097965
 40
68.53583335978668
 40
69.51517106226913
 40
69.51517106226913
 40
69.51517106226913
 40
69.51517106226913
 10
1757.132848542044
 20
2406.02505751467
 30
0.0
 10
1757.132848601984
 20
2406.025058328272
 30
0.0
 10
1757.132854737304
 20
2406.032111046542
 30
0.0
 10
1757.132890822314
 20
2406.063851594151
 30
0.0
 10
1757.132960664595
 20
2406.116738983224
 30
0.0
 10
1757.133069771261
 20
2406.190753646577
 30
0.0
 10
1757.133221699324
 20
2406.285866688384
 30
0.0
 10
1757.133418098098
 20
2406.402041159161
 30
0.0
 10
1757.133658949947
 20
2406.539231386269
 30
0.0
 10
1757.133942995431
 20
2406.697382476962
 30
0.0
 10
1757.134268145825
 20
2406.876429633887
 30
0.0
 10
1757.134631766929
 20
2407.076297616265
 30
0.0
 10
1757.13503083679
 20
2407.296900449254
 30
0.0
 10
1757.135462082027
 20
2407.538141245514
 30
0.0
 10
1757.13592207933
 20
2407.799912065144
 30
0.0
 10
1757.136407324207
 20
2408.082093866418
 30
0.0
 10
1757.136914278896
 20
2408.384556515298
 30
0.0
 10
1757.137439405625
 20
2408.707158845593
 30
0.0
 10
1757.137979190876
 20
2409.049748757023
 30
0.0
 10
1757.138530164571
 20
2409.412163341603
 30
0.0
 10
1757.139088916584
 20
2409.794229030482
 30
0.0
 10
1757.139652110555
 20
2410.195761754656
 30
0.0
 10
1757.140216500461
 20
2410.616567123402
 30
0.0
 10
1757.140778939275
 20
2411.056440577526
 30
0.0
 10
1757.141336370732
 20
2411.515167594964
 30
0.0
 10
1757.141885834156
 20
2411.992523918661
 30
0.0
 10
1757.142424489567
 20
2412.48827575563
 30
0.0
 10
1757.142949657012
 20
2413.002179939242
 30
0.0
 10
1757.143458855287
 20
2413.533984064671
 30
0.0
 10
1757.14394982397
 20
2414.083426621753
 30
0.0
 10
1757.144420510863
 20
2414.650237144749
 30
0.0
 10
1757.144869031173
 20
2415.234136441171
 30
0.0
 10
1757.145293615372
 20
2415.83483682108
 30
0.0
 10
1757.145692552097
 20
2416.452042379025
 30
0.0
 10
1757.146064172811
 20
2417.085449253109
 30
0.0
 10
1757.146406868246
 20
2417.734745793738
 30
0.0
 10
1757.146719112649
 20
2418.399612695558
 30
0.0
 10
1757.146999444979
 20
2419.07972308538
 30
0.0
 10
1757.147246466185
 20
2419.774742827586
 30
0.0
 10
1757.147458918981
 20
2420.484330730448
 30
0.0
 10
1757.147636219065
 20
2421.20813821611
 30
0.0
 10
1757.147777052093
 20
2421.945808801584
 30
0.0
 10
1757.147880038515
 20
2422.696981625767
 30
0.0
 10
1757.147944545947
 20
2423.461288245755
 30
0.0
 10
1757.147970498822
 20
2424.238353367988
 30
0.0
 10
1757.147958357708
 20
2425.027794931805
 30
0.0
 10
1757.147907916245
 20
2425.829223727694
 30
0.0
 10
1757.147812289832
 20
2426.642245170504
 30
0.0
 10
1757.147652832085
 20
2427.466472326741
 30
0.0
 10
1757.147421333465
 20
2428.301520862444
 30
0.0
 10
1757.147135032958
 20
2429.146972329946
 30
0.0
 10
1757.146810594778
 20
2430.00239077491
 30
0.0
 10
1757.146450404593
 20
2430.867348690627
 30
0.0
 10
1757.146047023262
 20
2431.741425714371
 30
0.0
 10
1757.145593490472
 20
2432.624199025278
 30
0.0
 10
1757.145088026408
 20
2433.515237248657
 30
0.0
 10
1757.14453497
 20
2434.414100346582
 30
0.0
 10
1757.143943405236
 20
2435.320341184085
 30
0.0
 10
1757.143324489333
 20
2436.233508306601
 30
0.0
 10
1757.142689882828
 20
2437.153147787067
 30
0.0
 10
1757.142051053691
 20
2438.078803980066
 30
0.0
 10
1757.141418705497
 20
2439.010020037591
 30
0.0
 10
1757.140802394096
 20
2439.94633816478
 30
0.0
 10
1757.140210542325
 20
2440.887299656579
 30
0.0
 10
1757.13965089419
 20
2441.832444658696
 30
0.0
 10
1757.139130692266
 20
2442.78131224881
 30
0.0
 10
1757.138656824965
 20
2443.73343998466
 30
0.0
 10
1757.138235998186
 20
2444.688365664354
 30
0.0
 10
1757.137874712839
 20
2445.645620945802
 30
0.0
 10
1757.137580238944
 20
2446.604755429677
 30
0.0
 10
1757.137358153071
 20
2447.565247203659
 30
0.0
 10
1757.137222591707
 20
2448.526837427306
 30
0.0
 10
1757.137179886172
 20
2449.167800132188
 30
0.0
 10
1757.137186530475
 20
2449.488663449477
 30
0.0
  0
ARC
  5
46DC
330
A
100
AcDbEntity
  8
HIDDEN
 48
0.5
100
AcDbCircle
 10
1772.435399772809
 20
2493.900088875764
 30
0.0
 40
15.34835536410853
100
AcDbArc
 50
183.7239376206557
 51
219.9999999998169
  0
SPLINE
  5
46DE
330
A
100
AcDbEntity
  8
HIDDEN
 48
0.5
100
AcDbSpline
210
0.0
220
0.0
230
1.0
 70
     8
 71
     7
 72
    81
 73
    73
 74
     0
 42
0.000000001
 43
0.0000000001
 40
0.017825574461809
 40
0.017825574461809
 40
0.017825574461809
 40
0.017825574461809
 40
0.017825574461809
 40
0.017825574461809
 40
0.017825574461809
 40
0.017825574461809
 40
0.066066
 40
0.066066
 40
0.066066
 40
0.066066
 40
0.066066
 40
0.1006620084080129
 40
0.1006620084080129
 40
0.1006620084080129
 40
0.1006620084080129
 40
0.1006620084080129
 40
0.2487685199999999
 40
0.2487685199999999
 40
0.2487685199999999
 40
0.2487685199999999
 40
0.2487685199999999
 40
0.2505954452495002
 40
0.2505954452495002
 40
0.2505954452495002
 40
0.2505954452495002
 40
0.2505954452495002
 40
0.3002999999999999
 40
0.3002999999999999
 40
0.3002999999999999
 40
0.3002999999999999
 40
0.3002999999999999
 40
0.3578494787939986
 40
0.3578494787939986
 40
0.3578494787939986
 40
0.3578494787939986
 40
0.3578494787939986
 40
0.385
 40
0.385
 40
0.385
 40
0.385
 40
0.385
 40
0.47355
 40
0.47355
 40
0.47355
 40
0.47355
 40
0.47355
 40
0.5128562297169978
 40
0.5128562297169978
 40
0.5128562297169978
 40
0.5128562297169978
 40
0.5128562297169978
 40
0.53284
 40
0.53284
 40
0.53284
 40
0.53284
 40
0.53284
 40
0.7178248
 40
0.7178248
 40
0.7178248
 40
0.7178248
 40
0.7178248
 40
0.77
 40
0.77
 40
0.77
 40
0.77
 40
0.77
 40
0.7802938942836821
 40
0.7802938942836821
 40
0.7802938942836821
 40
0.7802938942836821
 40
0.7802938942836821
 40
0.9747585309410752
 40
0.9747585309410752
 40
0.9747585309410752
 40
0.9747585309410752
 40
0.9747585309410752
 40
0.9747585309410752
 40
0.9747585309410752
 40
0.9747585309410752
 10
1632.35600174075
 20
2231.124490962011
 30
0.0
 10
1634.257356707755
 20
2231.79367740506
 30
0.0
 10
1636.146664633349
 20
2232.495283084436
 30
0.0
 10
1638.023508484249
 20
2233.228150493841
 30
0.0
 10
1639.887824343757
 20
2233.991272278161
 30
0.0
 10
1641.739769245053
 20
2234.783808511282
 30
0.0
 10
1644.89904614735
 20
2236.194019771303
 30
0.0
 10
1648.023324710774
 20
2237.687055564119
 30
0.0
 10
1649.322165102748
 20
2238.324833440367
 30
0.0
 10
1650.615102848408
 20
2238.976629989441
 30
0.0
 10
1651.902187411825
 20
2239.642243914403
 30
0.0
 10
1658.668438128129
 20
2243.229235925127
 30
0.0
 10
1665.270569662177
 20
2247.189536212712
 30
0.0
 10
1670.511763649533
 20
2250.62775448209
 30
0.0
 10
1675.624760852682
 20
2254.271685253758
 30
0.0
 10
1680.578359371625
 20
2258.086005503745
 30
0.0
 10
1685.42043139776
 20
2262.091212507887
 30
0.0
 10
1690.086127583031
 20
2266.227185244241
 30
0.0
 10
1690.142952477522
 20
2266.277601083377
 30
0.0
 10
1690.199751183484
 20
2266.328036285195
 30
0.0
 10
1690.25652370067
 20
2266.378490824101
 30
0.0
 10
1691.85714873579
 20
2267.80219014264
 30
0.0
 10
1693.436937968297
 20
2269.241234567732
 30
0.0
 10
1694.941343796009
 20
2270.643037670526
 30
0.0
 10
1696.426574901364
 20
2272.058328583296
 30
0.0
 10
1697.892914300762
 20
2273.486969755457
 30
0.0
 10
1701.016839829251
 20
2276.598392756241
 30
0.0
 10
1704.054861798714
 20
2279.771193709132
 30
0.0
 10
1705.660526351951
 20
2281.491162356429
 30
0.0
 10
1707.241805058197
 20
2283.228401727306
 30
0.0
 10
1708.798526251215
 20
2284.982535871922
 30
0.0
 10
1711.05247585364
 20
2287.587631143688
 30
0.0
 10
1713.249079880035
 20
2290.223473241041
 30
0.0
 10
1713.947181242394
 20
2291.071370654015
 30
0.0
 10
1714.63911416196
 20
2291.922034007493
 30
0.0
 10
1715.32470600117
 20
2292.775211696215
 30
0.0
 10
1718.218488641148
 20
2296.420477422202
 30
0.0
 10
1720.990145888608
 20
2300.100578885491
 30
0.0
 10
1723.033071389748
 20
2302.926710504069
 30
0.0
 10
1724.989826774522
 20
2305.748504265495
 30
0.0
 10
1726.853425437969
 20
2308.550199573604
 30
0.0
 10
1729.402860378489
 20
2312.543929813869
 30
0.0
 10
1731.744073983274
 20
2316.435555353143
 30
0.0
 10
1732.443971749911
 20
2317.621129791929
 30
0.0
 10
1733.123960733958
 20
2318.794836726444
 30
0.0
 10
1733.78409501272
 20
2319.955733407466
 30
0.0
 10
1734.750182016919
 20
2321.68638418612
 30
0.0
 10
1735.672220181404
 20
2323.384931519529
 30
0.0
 10
1735.978030776306
 20
2323.953710311206
 30
0.0
 10
1736.278926537291
 20
2324.518712560981
 30
0.0
 10
1736.574963977567
 20
2325.07989504319
 30
0.0
 10
1739.56216653552
 20
2330.79632898914
 30
0.0
 10
1742.052148952257
 20
2336.106091704067
 30
0.0
 10
1743.948976355015
 20
2340.553734949159
 30
0.0
 10
1745.591737034868
 20
2344.740804530532
 30
0.0
 10
1747.063839075337
 20
2348.815133627519
 30
0.0
 10
1748.800102306711
 20
2354.093160687361
 30
0.0
 10
1750.371418289963
 20
2359.619682129542
 30
0.0
 10
1750.709519173607
 20
2360.849980198762
 30
0.0
 10
1751.040208895188
 20
2362.096879330396
 30
0.0
 10
1751.363447873088
 20
2363.362118180241
 30
0.0
 10
1751.741254236264
 20
2364.900419419891
 30
0.0
 10
1752.107478129116
 20
2366.467682637959
 30
0.0
 10
1752.167508813108
 20
2366.726733743183
 30
0.0
 10
1752.227219456173
 20
2366.986580381149
 30
0.0
 10
1752.286606757544
 20
2367.247225488441
 30
0.0
 10
1753.461391973956
 20
2372.44770551584
 30
0.0
 10
1754.505307885082
 20
2377.965215281101
 30
0.0
 10
1755.352880358208
 20
2383.497327936857
 30
0.0
 10
1756.000039114638
 20
2389.199471109062
 30
0.0
 10
1756.47151347198
 20
2394.898944469931
 30
0.0
 10
1756.825724800982
 20
2400.491398005468
 30
0.0
 10
1757.132848542044
 20
2406.02505751467
 30
0.0
  0
ARC
  5
46E0
330
A
100
AcDbEntity
  8
HIDDEN
 48
0.5
100
AcDbCircle
 10
1772.22988113229
 20
2405.187156823371
 30
0.0
 40
15.12026688254807
100
AcDbArc
 50
140.000000000199
 51
176.823284994459
  0
LINE
  5
46E1
330
A
100
AcDbEntity
  8
MODEL
100
AcDbLine
 10
1729.472436168077
 20
2674.488663015332
 30
0.0
 11
1758.308718590276
 21
2674.488659118976
 31
0.0
  0
LINE
  5
46E2
330
A
100
AcDbEntity
  8
MODEL
100
AcDbLine
 10
1728.404387204958
 20
2674.488663311326
 30
0.0
 11
1729.472436168077
 21
2674.488663311326
 31
0.0
  0
LINE
  5
46E3
330
A
100
AcDbEntity
  8
MODEL
100
AcDbLine
 10
1758.308718590276
 20
2674.488658742258
 30
0.0
 11
1759.668053634253
 21
2674.488658742258
 31
0.0
  0
SPLINE
  5
46E4
330
A
100
AcDbEntity
  8
HIDDEN
 48
0.5
100
AcDbSpline
210
0.0
220
0.0
230
1.0
 70
     8
 71
     3
 72
    22
 73
    18
 74
     0
 42
0.000000001
 43
0.0000000001
 40
1.567927432809558
 40
1.567927432809558
 40
1.567927432809558
 40
1.567927432809558
 40
4.069372876014431
 40
7.414366113427688
 40
10.40492418982833
 40
13.25963380385154
 40
16.2502965492214
 40
19.24095440731079
 40
22.09559004835205
 40
25.08607296127904
 40
27.94057986961958
 40
30.93101702964606
 40
33.92158618242157
 40
36.77630456398287
 40
39.76706456320665
 40
42.62175692312034
 40
45.42774122077206
 40
45.42774122077206
 40
45.42774122077206
 40
45.42774122077206
 10
1648.037045203811
 20
2543.383267096201
 30
0.0
 10
1648.126904296812
 20
2543.378219074923
 30
0.0
 10
1648.503136836726
 20
2543.357059654427
 30
0.0
 10
1649.644123811048
 20
2543.292573680757
 30
0.0
 10
1651.414727503658
 20
2543.191202418639
 30
0.0
 10
1653.564150442579
 20
2543.06603867563
 30
0.0
 10
1656.075386852847
 20
2542.916548124485
 30
0.0
 10
1658.85013831211
 20
2542.74661977462
 30
0.0
 10
1661.767105680606
 20
2542.561988685892
 30
0.0
 10
1664.665344065294
 20
2542.371600029557
 30
0.0
 10
1667.513505352522
 20
2542.176852625495
 30
0.0
 10
1670.153748350384
 20
2541.988767938617
 30
0.0
 10
1672.469570191787
 20
2541.816981430834
 30
0.0
 10
1674.37298941025
 20
2541.670718322994
 30
0.0
 10
1675.767265244815
 20
2541.560393825674
 30
0.0
 10
1676.61957391777
 20
2541.491572497176
 30
0.0
 10
1676.817657127444
 20
2541.475414993422
 30
0.0
 10
1676.825729317024
 20
2541.47475637828
 30
0.0
  0
SPLINE
  5
46E5
330
A
100
AcDbEntity
  8
HIDDEN
 48
0.5
100
AcDbSpline
210
0.0
220
0.0
230
1.0
 70
     8
 71
     7
 72
    61
 73
    53
 74
     0
 42
0.000000001
 43
0.0000000001
 40
0.2276343173155272
 40
0.2276343173155272
 40
0.2276343173155272
 40
0.2276343173155272
 40
0.2276343173155272
 40
0.2276343173155272
 40
0.2276343173155272
 40
0.2276343173155272
 40
0.2944811158926081
 40
0.2944811158926081
 40
0.2944811158926081
 40
0.2944811158926081
 40
0.2944811158926081
 40
0.3335349291119999
 40
0.3335349291119999
 40
0.3335349291119999
 40
0.3335349291119999
 40
0.3335349291119999
 40
0.3799441799999999
 40
0.3799441799999999
 40
0.3799441799999999
 40
0.3799441799999999
 40
0.3799441799999999
 40
0.4144370768692073
 40
0.4144370768692073
 40
0.4144370768692073
 40
0.4144370768692073
 40
0.4144370768692073
 40
0.4562249999999999
 40
0.4562249999999999
 40
0.4562249999999999
 40
0.4562249999999999
 40
0.4562249999999999
 40
0.5914579576258383
 40
0.5914579576258383
 40
0.5914579576258383
 40
0.5914579576258383
 40
0.5914579576258383
 40
0.6083
 40
0.6083
 40
0.6083
 40
0.6083
 40
0.6083
 40
0.7825354899977544
 40
0.7825354899977544
 40
0.7825354899977544
 40
0.7825354899977544
 40
0.7825354899977544
 40
0.7899999999999999
 40
0.7899999999999999
 40
0.7899999999999999
 40
0.7899999999999999
 40
0.7899999999999999
 40
0.961060065854308
 40
0.961060065854308
 40
0.961060065854308
 40
0.961060065854308
 40
0.961060065854308
 40
0.961060065854308
 40
0.961060065854308
 40
0.961060065854308
 10
1676.826271454781
 20
2541.474712142388
 30
0.0
 10
1678.839739146707
 20
2541.310810010797
 30
0.0
 10
1680.844359730217
 20
2541.14063074725
 30
0.0
 10
1682.838778282202
 20
2540.963657725967
 30
0.0
 10
1684.821123532724
 20
2540.779384159037
 30
0.0
 10
1686.789322470481
 20
2540.587296836721
 30
0.0
 10
1689.882681937283
 20
2540.269679125317
 30
0.0
 10
1692.935021381395
 20
2539.92919711166
 30
0.0
 10
1694.054930419842
 20
2539.800383759752
 30
0.0
 10
1695.169048232324
 20
2539.668163286834
 30
0.0
 10
1696.277399943377
 20
2539.532361759246
 30
0.0
 10
1698.690436588534
 20
2539.226919124273
 30
0.0
 10
1701.076694896844
 20
2538.902360361861
 30
0.0
 10
1702.364754069617
 20
2538.720120501646
 30
0.0
 10
1703.645215792486
 20
2538.531495744201
 30
0.0
 10
1704.918188073926
 20
2538.33606356817
 30
0.0
 10
1707.124188556808
 20
2537.982732754714
 30
0.0
 10
1709.306717466962
 20
2537.605978727187
 30
0.0
 10
1710.232883635798
 20
2537.440905772365
 30
0.0
 10
1711.154550668703
 20
2537.271200641848
 30
0.0
 10
1712.071493318675
 20
2537.096677676574
 30
0.0
 10
1714.088131080912
 20
2536.699683117155
 30
0.0
 10
1716.077956754037
 20
2536.277524964394
 30
0.0
 10
1717.159207513315
 20
2536.038434207656
 30
0.0
 10
1718.230669761476
 20
2535.791286371159
 30
0.0
 10
1719.291156606828
 20
2535.53591072563
 30
0.0
 10
1723.731442660958
 20
2534.418841665924
 30
0.0
 10
1727.925887396507
 20
2533.152273139061
 30
0.0
 10
1730.938866925389
 20
2532.097673381665
 30
0.0
 10
1733.705491684311
 20
2530.963405416544
 30
0.0
 10
1736.174653998699
 20
2529.778580509846
 30
0.0
 10
1738.608158561713
 20
2528.437787584448
 30
0.0
 10
1740.693516559119
 20
2527.11386432472
 30
0.0
 10
1740.920253940879
 20
2526.967489243335
 30
0.0
 10
1741.142845642818
 20
2526.821396141657
 30
0.0
 10
1741.361367244658
 20
2526.675613435869
 30
0.0
 10
1743.795331718508
 20
2525.025426472811
 30
0.0
 10
1745.728087510964
 20
2523.419392607477
 30
0.0
 10
1747.175058110434
 20
2522.007936198244
 30
0.0
 10
1748.473541102422
 20
2520.584628582144
 30
0.0
 10
1749.770896825189
 20
2518.988524498522
 30
0.0
 10
1751.107065087554
 20
2516.970041661768
 30
0.0
 10
1752.347341475287
 20
2514.552956031092
 30
0.0
 10
1752.398126394887
 20
2514.452983661931
 30
0.0
 10
1752.448737948266
 20
2514.352334788062
 30
0.0
 10
1752.499170096685
 20
2514.251008242495
 30
0.0
 10
1753.700889025443
 20
2511.811413887659
 30
0.0
 10
1754.792815481552
 20
2508.983750476551
 30
0.0
 10
1755.66323522802
 20
2505.910088409331
 30
0.0
 10
1756.251226035724
 20
2502.620969364353
 30
0.0
 10
1756.644137098184
 20
2499.299043543113
 30
0.0
 10
1756.913858369378
 20
2496.061983813379
 30
0.0
 10
1757.11945138347
 20
2492.903225134831
 30
0.0
  0
ARC
  5
46E8
330
A
100
AcDbEntity
  8
HIDDEN
 48
0.5
100
AcDbCircle
 10
1414.02412197086
 20
-1651.829611358184
 30
0.0
 40
4201.7345702918
100
AcDbArc
 50
86.80845304798021
 51
87.01120733356159
  0
LINE
  5
46FE
330
A
100
AcDbEntity
  8
HIDDEN
 48
0.5
100
AcDbLine
 10
1769.864516399385
 20
2449.488664264481
 30
0.0
 11
1769.864515367902
 21
2473.086144258682
 31
0.0
  0
SPLINE
  5
46FF
330
A
100
AcDbEntity
  8
HIDDEN
 48
0.5
100
AcDbSpline
210
0.0
220
0.0
230
1.0
 70
     8
 71
     3
 72
    26
 73
    22
 74
     0
 42
0.000000001
 43
0.0000000001
 40
120.2515803759844
 40
120.2515803759844
 40
120.2515803759844
 40
120.2515803759844
 40
121.3349279469392
 40
123.5016230888488
 40
125.6683182307584
 40
127.8350133726681
 40
130.0017085145777
 40
132.1684036564873
 40
134.3350987983969
 40
136.5017939403066
 40
138.6684890822162
 40
140.8351842241258
 40
143.0018793660354
 40
145.168574507945
 40
147.3352696498547
 40
149.5019647917643
 40
151.6686599336739
 40
153.8353550755835
 40
156.0020502174931
 40
158.1687453594028
 40
160.3354405013124
 40
160.3354405013124
 40
160.3354405013124
 40
160.3354405013124
 10
1769.864515367902
 20
2425.89118633324
 30
0.0
 10
1769.864515382512
 20
2425.891186318643
 30
0.0
 10
1769.864515426299
 20
2425.912445204064
 30
0.0
 10
1769.864515499087
 20
2426.054171326014
 30
0.0
 10
1769.864515585482
 20
2426.393088738409
 30
0.0
 10
1769.864515670305
 20
2426.898410309136
 30
0.0
 10
1769.86451575296
 20
2427.566495184697
 30
0.0
 10
1769.864515832835
 20
2428.392529798256
 30
0.0
 10
1769.864515909364
 20
2429.37056255149
 30
0.0
 10
1769.864515981993
 20
2430.493546696006
 30
0.0
 10
1769.864516050197
 20
2431.753391105303
 30
0.0
 10
1769.864516113484
 20
2433.141018571554
 30
0.0
 10
1769.8645161714
 20
2434.646431207043
 30
0.0
 10
1769.864516223525
 20
2436.258782479306
 30
0.0
 10
1769.86451626948
 20
2437.966455360226
 30
0.0
 10
1769.864516308945
 20
2439.757146028505
 30
0.0
 10
1769.864516341629
 20
2441.617952513336
 30
0.0
 10
1769.864516367298
 20
2443.535467674451
 30
0.0
 10
1769.864516385779
 20
2445.495875722304
 30
0.0
 10
1769.864516396911
 20
2447.48505205437
 30
0.0
 10
1769.864516399385
 20
2448.820793304079
 30
0.0
 10
1769.864516399385
 20
2449.488664264481
 30
0.0
  0
SPLINE
  5
4701
330
A
100
AcDbEntity
  8
MODEL
100
AcDbSpline
210
0.0
220
0.0
230
1.0
 70
     8
 71
     3
 72
    24
 73
    20
 74
     0
 42
0.000000001
 43
0.0000000001
 40
0.0
 40
0.0
 40
0.0
 40
0.0
 40
0.279284744583095
 40
0.5846941671306528
 40
1.119073164096961
 40
1.50082347597022
 40
2.187847464113023
 40
2.915908823599299
 40
3.725688458846617
 40
4.670407276020229
 40
5.615075986947499
 40
7.369619489338157
 40
8.719195330046864
 40
9.39399864729212
 40
10.20376080959009
 40
11.58185135630687
 40
13.07390393799905
 40
14.86436561454185
 40
16.32326112501032
 40
16.32326112501032
 40
16.32326112501032
 40
16.32326112501032
 10
1631.930407462139
 20
2154.488665295962
 30
0.0
 10
1632.023497906316
 20
2154.488665295962
 30
0.0
 10
1632.218437769777
 20
2154.489185672258
 30
0.0
 10
1632.590953741666
 20
2154.514921396636
 30
0.0
 10
1632.991029577773
 20
2154.599172055428
 30
0.0
 10
1633.491532024294
 20
2154.789635799475
 30
0.0
 10
1634.011968431753
 20
2155.091230859685
 30
0.0
 10
1634.585942304714
 20
2155.563868362193
 30
0.0
 10
1635.152900674823
 20
2156.168592397757
 30
0.0
 10
1635.693133807937
 20
2156.889569826357
 30
0.0
 10
1636.331025916915
 20
2157.924439400631
 30
0.0
 10
1636.915402520527
 20
2159.143833586316
 30
0.0
 10
1637.344147443938
 20
2160.329482383296
 30
0.0
 10
1637.6037620505
 20
2161.238128343519
 30
0.0
 10
1637.819521923017
 20
2162.167862344772
 30
0.0
 10
1638.051547115355
 20
2163.372693113715
 30
0.0
 10
1638.259022399469
 20
2164.913009620028
 30
0.0
 10
1638.378375397783
 20
2166.489617653152
 30
0.0
 10
1638.404385220761
 20
2167.572789590306
 30
0.0
 10
1638.404385220761
 20
2168.059044955618
 30
0.0
  0
LINE
  5
4702
330
A
100
AcDbEntity
  8
MODEL
100
AcDbLine
 10
1803.495214405185
 20
2483.903582959356
 30
0.0
 11
1802.821094835373
 21
2483.962613423508
 31
0.0
  0
LINE
  5
4703
330
A
100
AcDbEntity
  8
MODEL
100
AcDbLine
 10
1806.233515565028
 20
2418.062311454381
 30
0.0
 11
1806.233515565028
 21
2427.553989436306
 31
0.0
  0
LINE
  5
4704
330
A
100
AcDbEntity
  8
MODEL
100
AcDbLine
 10
1806.233515565028
 20
2471.423341155615
 30
0.0
 11
1806.233515565028
 21
2480.915019137542
 31
0.0
  0
ARC
  5
4705
330
A
100
AcDbEntity
  8
MODEL
100
AcDbCircle
 10
1803.082826999808
 20
2486.95120975288
 30
0.0
 40
3.000035290767282
100
AcDbArc
 50
183.5833005369592
 51
264.9949797706486
  0
ARC
  5
4706
330
A
100
AcDbEntity
  8
MODEL
100
AcDbCircle
 10
1803.233497560278
 20
2418.062327951419
 30
0.0
 40
3.000018004804391
100
AcDbArc
 50
275.0047554418455
 51
359.9996849316754
  0
ARC
  5
4707
330
A
100
AcDbEntity
  8
MODEL
100
AcDbCircle
 10
1803.233497560278
 20
2480.915002640502
 30
0.0
 40
3.000018004804352
100
AcDbArc
 50
0.0003150685503641
 51
84.99524455815605
  0
LINE
  5
4708
330
A
100
AcDbEntity
  8
MODEL
100
AcDbLine
 10
1774.290663007289
 20
2412.516399794653
 30
0.0
 11
1803.495214405185
 21
2415.073747632567
 31
0.0
  0
SPLINE
  5
4709
330
A
100
AcDbEntity
  8
MODEL
 48
0.5
100
AcDbSpline
210
0.0
220
0.0
230
1.0
 70
     8
 71
     3
 72
    20
 73
    16
 74
     0
 42
0.000000001
 43
0.0000000001
 40
0.0
 40
0.0
 40
0.0
 40
0.0
 40
4.533514738912848
 40
9.067032453796905
 40
13.18841204808415
 40
19.95745562799645
 40
31.80326021261582
 40
42.23885663861201
 40
48.44381404996041
 40
56.67461112261128
 40
64.8364177630914
 40
73.38672898675362
 40
80.44846735621765
 40
87.36156545882592
 40
89.0521973490272
 40
89.0521973490272
 40
89.0521973490272
 40
89.0521973490272
 10
1800.088656817031
 20
2486.763708653068
 30
0.0
 10
1799.994228590737
 20
2488.271860121573
 30
0.0
 10
1799.761648757084
 20
2491.285759448496
 30
0.0
 10
1799.26550338968
 20
2495.654548964157
 30
0.0
 10
1798.500559119398
 20
2500.739473548467
 30
0.0
 10
1797.015714797751
 20
2508.174725326643
 30
0.0
 10
1794.287615374552
 20
2517.484308975183
 30
0.0
 10
1790.506287251707
 20
2526.215066302554
 30
0.0
 10
1786.413248596952
 20
2533.43311462962
 30
0.0
 10
1782.052472100512
 20
2539.591217736217
 30
0.0
 10
1776.443910820663
 20
2545.75088364715
 30
0.0
 10
1770.394386265113
 20
2550.895038805249
 30
0.0
 10
1764.151082286705
 20
2555.082573652773
 30
0.0
 10
1759.557996262089
 20
2557.577061142338
 30
0.0
 10
1756.971489045839
 20
2558.816191303507
 30
0.0
 10
1756.46094291435
 20
2559.054765785973
 30
0.0
  0
ARC
  5
4716
330
A
100
AcDbEntity
  8
MODEL
100
AcDbCircle
 10
1713.404385220761
 20
2228.198143057026
 30
0.0
 40
4.0
100
AcDbArc
 50
272.0000000002123
 51
0.0
  0
LINE
  5
471B
330
A
100
AcDbEntity
  8
MODEL
100
AcDbLine
 10
1713.543983207571
 20
2224.20057974895
 30
0.0
 11
1648.12518924714
 21
2221.91610512463
 31
0.0
  0
ARC
  5
471D
330
A
100
AcDbEntity
  8
MODEL
100
AcDbCircle
 10
1648.404385220761
 20
2213.920978508477
 30
0.0
 40
8.000000000000028
100
AcDbArc
 50
92.00000000021227
 51
140.1940974932438
  0
LINE
  5
471F
330
A
100
AcDbEntity
  8
MODEL
100
AcDbLine
 10
1640.37832453705
 20
2171.620797547817
 30
0.0
 11
1640.941348407191
 21
2171.825721535124
 31
0.0
  0
LINE
  5
4720
330
A
100
AcDbEntity
  8
MODEL
100
AcDbLine
 10
1638.404385220761
 20
2168.059044955618
 30
0.0
 11
1638.404385220761
 21
2168.801719777814
 31
0.0
  0
ARC
  5
4721
330
A
100
AcDbEntity
  8
MODEL
100
AcDbCircle
 10
1641.404385220761
 20
2168.801719777813
 30
0.0
 40
3.000000000000024
100
AcDbArc
 50
110.0000051572589
 51
179.9999999997742
  0
ARC
  5
4722
330
A
100
AcDbEntity
  8
MODEL
100
AcDbCircle
 10
1640.257307951389
 20
2173.705106715127
 30
0.0
 40
2.000000000000013
100
AcDbArc
 50
290.0000051572559
 51
0.4407879898087859
  0
SPLINE
  5
4724
330
A
100
AcDbEntity
  8
MODEL
100
AcDbSpline
210
0.0
220
0.0
230
1.0
 70
     8
 71
     3
 72
    17
 73
    13
 74
     0
 42
0.000000001
 43
0.0000000001
 40
0.0
 40
0.0
 40
0.0
 40
0.0
 40
0.0986846165700861
 40
0.1974561802184851
 40
0.3322459645424353
 40
0.5386555777676384
 40
0.6847013359738444
 40
0.9766983645174958
 40
1.390677493903839
 40
2.060296363055238
 40
2.998300324359722
 40
4.050912420195138
 40
4.050912420195138
 40
4.050912420195138
 40
4.050912420195138
 10
1627.983474820655
 20
2155.05939564029
 30
0.0
 10
1628.006613042328
 20
2155.036036668355
 30
0.0
 10
1628.054702961052
 20
2154.990862842232
 30
0.0
 10
1628.145824180704
 20
2154.927476691691
 30
0.0
 10
1628.275474627538
 20
2154.858462224037
 30
0.0
 10
1628.426154573527
 20
2154.797290538805
 30
0.0
 10
1628.63061580585
 20
2154.731146481545
 30
0.0
 10
1628.906140711951
 20
2154.66143085395
 30
0.0
 10
1629.358153534899
 20
2154.582498756814
 30
0.0
 10
1630.029377733378
 20
2154.517521285115
 30
0.0
 10
1630.916020872995
 20
2154.491637676626
 30
0.0
 10
1631.57954060495
 20
2154.488665295962
 30
0.0
 10
1631.930407462139
 20
2154.488665295962
 30
0.0
  0
ARC
  5
4725
330
A
100
AcDbEntity
  8
MODEL
100
AcDbCircle
 10
1629.404386495334
 20
2156.46687921485
 30
0.0
 40
2.000000000000011
100
AcDbArc
 50
179.999999999505
 51
224.7279843811206
  0
LINE
  5
4726
330
A
100
AcDbEntity
  8
HIDDEN
 48
0.5
100
AcDbLine
 10
1760.677877435118
 20
2484.03435621865
 30
0.0
 11
1769.864516943452
 21
2473.086145580721
 31
0.0
  0
LINE
  5
4728
330
A
100
AcDbEntity
  8
HIDDEN
 48
0.5
100
AcDbLine
 10
1769.864516943452
 20
2425.8911850112
 30
0.0
 11
1760.647084708434
 21
2414.906277030625
 31
0.0
  0
LINE
  5
4729
330
A
100
AcDbEntity
  8
HIDDEN
 48
0.5
100
AcDbLine
 10
1806.233515565028
 20
2471.423341155615
 30
0.0
 11
1772.110642639199
 21
2472.014958077412
 31
0.0
  0
LINE
  5
472D
330
A
100
AcDbEntity
  8
HIDDEN
 48
0.5
100
AcDbLine
 10
1772.110642692153
 20
2426.962369460973
 30
0.0
 11
1806.233515565028
 21
2427.553989436306
 31
0.0
  0
ARC
  5
472E
330
A
100
AcDbEntity
  8
HIDDEN
 48
0.5
100
AcDbCircle
 10
1772.162648947217
 20
2423.962822464483
 30
0.0
 40
3.000000859781634
100
AcDbArc
 50
90.99329678920678
 51
139.9999878571206
  0
ARC
  5
472F
330
A
100
AcDbEntity
  8
HIDDEN
 48
0.5
100
AcDbCircle
 10
1772.162648947217
 20
2475.014508127439
 30
0.0
 40
3.000000859781172
100
AcDbArc
 50
220.0000121428905
 51
269.0067032107933
  0
LINE
  5
4732
330
A
100
AcDbEntity
  8
MODEL
100
AcDbLine
 10
1717.404385220761
 20
2228.198143057026
 30
0.0
 11
1717.404385220761
 21
2234.234765343168
 31
0.0
  0
LINE
  5
4734
330
A
100
AcDbEntity
  8
MODEL
100
AcDbLine
 10
1627.404386495348
 20
2672.488665295788
 30
0.0
 11
1627.404386495348
 21
2550.198116652912
 31
0.0
  0
LINE
  5
4737
330
A
100
AcDbEntity
  8
MODEL
100
AcDbLine
 10
1627.404386495348
 20
2224.132414194262
 30
0.0
 11
1627.404386495348
 21
2156.46687921487
 31
0.0
  0
ARC
  5
473B
330
A
100
AcDbEntity
  8
MODEL
100
AcDbCircle
 10
1629.404386495348
 20
2672.488665295791
 30
0.0
 40
1.999999999999915
100
AcDbArc
 50
90.0
 51
179.9999999998437
  0
LINE
  5
473C
330
A
100
AcDbEntity
  8
MODEL
100
AcDbLine
 10
1728.404385220761
 20
2674.488665295753
 30
0.0
 11
1629.404386495348
 21
2674.488665295788
 31
0.0
  0
LINE
  5
474C
330
A
100
AcDbEntity
  8
MODEL
100
AcDbLine
 10
1806.233515565028
 20
2471.423341155615
 30
0.0
 11
1806.233515565028
 21
2427.553989436306
 31
0.0
  0
SPLINE
  5
474D
102
{ACAD_REACTORS
330
4BB6
102
}
330
A
100
AcDbEntity
  8
MODEL
100
AcDbSpline
210
0.0
220
0.0
230
1.0
 70
     8
 71
     3
 72
    19
 73
    15
 74
     0
 42
0.000000001
 43
0.0000000001
 40
0.0
 40
0.0
 40
0.0
 40
0.0
 40
0.0400233032968835
 40
0.0747875408354216
 40
0.1442450105088182
 40
0.2069421779115951
 40
0.2705564448162965
 40
0.4081488112453923
 40
0.5556314870065492
 40
0.7997039317425145
 40
1.316741821171574
 40
1.659027584948364
 40
1.991552116965398
 40
2.047315665904553
 40
2.047315665904553
 40
2.047315665904553
 40
2.047315665904553
 10
1629.40441263571
 20
2674.488639155425
 30
0.0
 10
1629.404160389101
 20
2674.488639154844
 30
0.0
 10
1629.407748243894
 20
2674.488635433314
 30
0.0
 10
1629.432207177691
 20
2674.489186355677
 30
0.0
 10
1629.478470570414
 20
2674.490763585586
 30
0.0
 10
1629.5386882097
 20
2674.492976960665
 30
0.0
 10
1629.623545141679
 20
2674.495937893686
 30
0.0
 10
1629.738473025113
 20
2674.499300722461
 30
0.0
 10
1629.914379124987
 20
2674.502642312328
 30
0.0
 10
1630.217463052983
 20
2674.504395306868
 30
0.0
 10
1630.584604054608
 20
2674.499538014104
 30
0.0
 10
1630.978116430043
 20
2674.493146692812
 30
0.0
 10
1631.217553599817
 20
2674.490490681603
 30
0.0
 10
1631.345056482015
 20
2674.489689714259
 30
0.0
 10
1631.363374200656
 20
2674.48958603615
 30
0.0
  0
ARC
  5
474E
330
A
100
AcDbEntity
  8
MODEL
100
AcDbCircle
 10
1759.668053634253
 20
2672.488658742267
 30
0.0
 40
1.999999999999986
100
AcDbArc
 50
0.0
 51
90.0
  0
LINE
  5
474F
330
A
100
AcDbEntity
  8
MODEL
100
AcDbLine
 10
1761.668053634253
 20
2654.027653712403
 30
0.0
 11
1761.668053634253
 21
2672.488658742267
 31
0.0
  0
SPLINE
  5
4750
330
A
100
AcDbEntity
  8
MODEL
100
AcDbSpline
210
0.0
220
0.0
230
1.0
 70
     8
 71
     3
 72
    21
 73
    17
 74
     0
 42
0.000000001
 43
0.0000000001
 40
0.9940314679136765
 40
0.9940314679136765
 40
0.9940314679136765
 40
0.9940314679136765
 40
2.334998499676045
 40
4.086248958573962
 40
7.005962429152216
 40
10.51073121746473
 40
15.18688478308214
 40
22.20203853212612
 40
30.96889776847162
 40
38.56475558846513
 40
46.16088276244454
 40
54.92851095955276
 40
61.94343362440193
 40
66.03432980206829
 40
69.5398564155426
 40
72.66420345094348
 40
72.66420345094348
 40
72.66420345094348
 40
72.66420345094348
 10
1642.257308548934
 20
2173.720492966802
 30
0.0
 10
1642.257296769348
 20
2173.731283112892
 30
0.0
 10
1642.257275145857
 20
2173.774097190731
 30
0.0
 10
1642.257585568651
 20
2173.933999274904
 30
0.0
 10
1642.25918526337
 20
2174.310481850643
 30
0.0
 10
1642.26291087771
 20
2175.081703749152
 30
0.0
 10
1642.268971500037
 20
2176.558142318472
 30
0.0
 10
1642.271658349949
 20
2179.280555486873
 30
0.0
 10
1642.265954730689
 20
2183.43235837261
 30
0.0
 10
1642.262945393834
 20
2188.702479161079
 30
0.0
 10
1642.268308568388
 20
2194.810872318641
 30
0.0
 10
1642.273962577156
 20
2201.500850014869
 30
0.0
 10
1642.270314478889
 20
2207.632942120064
 30
0.0
 10
1642.264405790766
 20
2212.312139121429
 30
0.0
 10
1642.260523138836
 20
2215.81323576429
 30
0.0
 10
1642.259168483702
 20
2218.005594947852
 30
0.0
 10
1642.258678789364
 20
2674.488665295784
 30
0.0
  0
LINE
  5
4752
330
A
100
AcDbEntity
  8
MODEL
100
AcDbLine
 10
1756.460942914352
 20
2645.749529498904
 30
0.0
 11
1756.460942914352
 21
2559.054761139216
 31
0.0
  0
SPLINE
  5
4753
330
A
100
AcDbEntity
  8
MODEL
100
AcDbSpline
210
0.0
220
0.0
230
1.0
 70
     8
 71
     3
 72
    17
 73
    13
 74
     0
 42
0.000000001
 43
0.0000000001
 40
4.215596435986813
 40
4.215596435986813
 40
4.215596435986813
 40
4.215596435986813
 40
4.3903742142726
 40
5.043311732700927
 40
6.131616489903759
 40
6.349576555020604
 40
7.221353259182914
 40
8.965278791687375
 40
10.70945220263546
 40
12.45371073419929
 40
13.70962651209006
 40
14.52947495815158
 40
14.52947495815158
 40
14.52947495815158
 40
14.52947495815158
 10
1756.460942669012
 20
2645.749532583908
 30
0.0
 10
1756.513417757307
 20
2645.774742582078
 30
0.0
 10
1756.760811661645
 20
2645.896502113984
 30
0.0
 10
1757.320666518898
 20
2646.20409866869
 30
0.0
 10
1757.861558332042
 20
2646.571886993618
 30
0.0
 10
1758.431347462239
 20
2647.021705431793
 30
0.0
 10
1759.13748307163
 20
2647.650523294451
 30
0.0
 10
1760.078838160559
 20
2648.766237808572
 30
0.0
 10
1760.935510935268
 20
2650.294481075551
 30
0.0
 10
1761.436684294537
 20
2651.801972513822
 30
0.0
 10
1761.637009255129
 20
2653.062382798113
 30
0.0
 10
1761.667902627501
 20
2653.754457669579
 30
0.0
 10
1761.667899553132
 20
2654.027649456697
 30
0.0
  0
DIMENSION
  5
4800
330
A
100
AcDbEntity
  8
Dim
100
AcDbDimension
  2
*D8
 10
1887.826567610203
 20
2449.488663395419
 30
0.0
 11
1887.826567610203
 21
2562.675825381452
 31
0.0
 70
   160
  1
225
 71
     5
 42
226.3743239720661
 73
     0
 74
     0
 75
     0
  3
tform線あり
100
AcDbAlignedDimension
 13
1772.042431198775
 23
2675.862987367485
 33
0.0
 14
1808.259628787185
 24
2449.488663395419
 34
0.0
 50
89.99999999999999
100
AcDbRotatedDimension
1001
ACAD
1000
DSTYLE
1002
{
1070
   340
1005
39
1002
}
  0
DIMENSION
  5
4948
330
A
100
AcDbEntity
  8
Dim
  6
Continuous
100
AcDbDimension
  2
*D9
 10
380.7208055605711
 20
1202.376290416007
 30
0.0
 11
358.5044969668211
 21
1152.376290416007
 31
0.0
 70
    32
 71
     5
 42
100.0
 73
     0
 74
     0
 75
     0
  3
tform線あり
100
AcDbAlignedDimension
 13
499.9993774540344
 23
1102.376290416007
 33
0.0
 14
498.4993774540344
 24
1202.376290416007
 34
0.0
 50
90.0
100
AcDbRotatedDimension
  0
DIMENSION
  5
4957
330
A
100
AcDbEntity
  8
Dim
  6
Continuous
100
AcDbDimension
  2
*D10
 10
380.7208055605711
 20
1302.376290416007
 30
0.0
 11
358.5044969668211
 21
1252.376290416007
 31
0.0
 70
    32
 71
     5
 42
100.0
 73
     0
 74
     0
 75
     0
  3
tform線あり
100
AcDbAlignedDimension
 13
498.4993774540344
 23
1202.376290416007
 33
0.0
 14
498.4993774540344
 24
1302.376290416007
 34
0.0
 50
90.0
100
AcDbRotatedDimension
  0
DIMENSION
  5
4964
330
A
100
AcDbEntity
  8
Dim
  6
Continuous
100
AcDbDimension
  2
*D11
 10
579.9993774540344
 20
468.5429265465266
 30
0.0
 11
514.9993774540344
 21
490.7592351402766
 31
0.0
 70
    32
 71
     5
 42
130.0
 73
     0
 74
     0
 75
     0
  3
tform線あり
100
AcDbAlignedDimension
 13
449.9993774540344
 23
605.3762806151753
 33
0.0
 14
579.9993774540344
 24
907.30434595478
 34
0.0
100
AcDbRotatedDimension
  0
DIMENSION
  5
498D
330
A
100
AcDbEntity
  8
Dim
  6
Continuous
100
AcDbDimension
  2
*D13
 10
969.9993774540344
 20
1888.079216848494
 30
0.0
 11
709.9993774540344
 21
1910.295525442244
 31
0.0
 70
    32
 71
     5
 42
520.0
 73
     0
 74
     0
 75
     0
  3
tform線あり
100
AcDbAlignedDimension
 13
449.9993774540344
 23
1804.661251134208
 33
0.0
 14
969.9993774540344
 24
1742.097776848494
 34
0.0
100
AcDbRotatedDimension
  0
DIMENSION
  5
4A50
330
A
100
AcDbEntity
  8
Dim
  6
Continuous
100
AcDbDimension
  2
*D14
 10
301.6131544358128
 20
602.376300216838
 30
0.0
 11
279.3968458420628
 21
1202.376300216838
 31
0.0
 70
    32
 71
     5
 42
1200.0
 73
     0
 74
     0
 75
     0
  3
tform線あり
100
AcDbAlignedDimension
 13
452.9993774540349
 23
1802.376300216838
 33
0.0
 14
452.9993774540349
 24
602.376300216838
 34
0.0
 50
90.0
100
AcDbRotatedDimension
  0
DIMENSION
  5
4A60
102
{ACAD_REACTORS
330
4A62
102
}
102
{ACAD_XDICTIONARY
360
4A61
102
}
330
A
100
AcDbEntity
  8
Dim
  6
Continuous
100
AcDbDimension
  2
*D15
 10
1041.215870218669
 20
872.3762904160067
 30
0.0
 11
1018.999561624919
 21
1202.376290416007
 31
0.0
 70
    32
 71
     5
 42
660.0000000000002
 73
     0
 74
     0
 75
     0
  3
tform線あり
100
AcDbAlignedDimension
 13
844.9993774540349
 23
1532.376290416007
 33
0.0
 14
844.9993774540344
 24
872.3762904160067
 34
0.0
 50
90.0
100
AcDbRotatedDimension
  0
DIMENSION
  5
4A6F
102
{ACAD_REACTORS
330
4A71
102
}
102
{ACAD_XDICTIONARY
360
4A70
102
}
330
A
100
AcDbEntity
  8
Dim
  6
Continuous
100
AcDbDimension
  2
*D16
 10
894.9993774540344
 20
468.5429265465266
 30
0.0
 11
737.4993774540344
 21
468.5429265465266
 31
0.0
 70
   160
 71
     5
 42
315.0
 73
     0
 74
     0
 75
     0
  3
tform線あり
100
AcDbAlignedDimension
 13
579.9993774540344
 23
882.30434595478
 33
0.0
 14
894.9993774540344
 24
922.3762904160067
 34
0.0
100
AcDbRotatedDimension
  0
DIMENSION
  5
4AB5
330
A
100
AcDbEntity
  8
Dim
  6
Continuous
100
AcDbDimension
  2
*D17
 10
1459.356780398441
 20
1342.376290416007
 30
0.0
 11
1437.140471804691
 21
1482.376290416007
 31
0.0
 70
    32
 71
     5
 42
280.0
 73
     0
 74
     0
 75
     0
  3
tform線あり
100
AcDbAlignedDimension
 13
1622.805104923595
 23
1622.376290416007
 33
0.0
 14
1622.805104923595
 24
1342.376290416007
 34
0.0
 50
90.0
100
AcDbRotatedDimension
  0
DIMENSION
  5
4AC4
330
A
100
AcDbEntity
  8
Dim
  6
Continuous
100
AcDbDimension
  2
*D18
 10
1459.356780398441
 20
1062.376290416007
 30
0.0
 11
1437.140471804691
 21
1202.376290416007
 31
0.0
 70
    32
 71
     5
 42
280.0
 73
     0
 74
     0
 75
     0
  3
tform線あり
100
AcDbAlignedDimension
 13
1622.805104923595
 23
1342.376290416007
 33
0.0
 14
1622.805104923595
 24
1062.376290416007
 34
0.0
 50
90.0
100
AcDbRotatedDimension
  0
DIMENSION
  5
4AD3
330
A
100
AcDbEntity
  8
Dim
  6
Continuous
100
AcDbDimension
  2
*D19
 10
1459.356780398441
 20
782.3762904160067
 30
0.0
 11
1437.140471804691
 21
922.3762904160067
 31
0.0
 70
    32
 71
     5
 42
280.0
 73
     0
 74
     0
 75
     0
  3
tform線あり
100
AcDbAlignedDimension
 13
1622.805104923595
 23
1062.376290416007
 33
0.0
 14
1622.805104923595
 24
782.3762904160067
 34
0.0
 50
90.0
100
AcDbRotatedDimension
  0
LINE
  5
4AE2
330
A
100
AcDbEntity
  8
HIDDEN
  6
CENTER
 48
0.15
100
AcDbLine
 10
1641.404897833153
 20
1062.376290416007
 30
0.0
 11
1690.403876585465
 21
1062.376290416007
 31
0.0
  0
LINE
  5
4AE3
330
A
100
AcDbEntity
  8
HIDDEN
  6
CENTER
 48
0.15
100
AcDbLine
 10
1665.90438720931
 20
1086.875779792162
 30
0.0
 11
1665.90438720931
 21
1037.876801039852
 31
0.0
  0
CIRCLE
  5
4AE4
330
A
100
AcDbEntity
  8
HIDDEN
  6
CENTER
 48
0.15
100
AcDbCircle
 10
1665.90438720931
 20
1062.376290416007
 30
0.0
 40
10.48259753163544
  0
LINE
  5
4AE5
330
A
100
AcDbEntity
  8
HIDDEN
  6
CENTER
 48
0.15
100
AcDbLine
 10
1641.404897833153
 20
782.3762904160067
 30
0.0
 11
1690.403876585465
 21
782.3762904160067
 31
0.0
  0
LINE
  5
4AE6
330
A
100
AcDbEntity
  8
HIDDEN
  6
CENTER
 48
0.15
100
AcDbLine
 10
1665.90438720931
 20
806.8757797921617
 30
0.0
 11
1665.90438720931
 21
757.8768010398517
 31
0.0
  0
CIRCLE
  5
4AE7
330
A
100
AcDbEntity
  8
HIDDEN
  6
CENTER
 48
0.15
100
AcDbCircle
 10
1665.90438720931
 20
782.3762904160067
 30
0.0
 40
10.48259753163544
  0
LINE
  5
4AE8
330
A
100
AcDbEntity
  8
HIDDEN
  6
CENTER
 48
0.15
100
AcDbLine
 10
1641.404897833153
 20
1342.376290416007
 30
0.0
 11
1690.403876585465
 21
1342.376290416007
 31
0.0
  0
LINE
  5
4AE9
330
A
100
AcDbEntity
  8
HIDDEN
  6
CENTER
 48
0.15
100
AcDbLine
 10
1665.90438720931
 20
1366.875779792162
 30
0.0
 11
1665.90438720931
 21
1317.876801039852
 31
0.0
  0
CIRCLE
  5
4AEA
330
A
100
AcDbEntity
  8
HIDDEN
  6
CENTER
 48
0.15
100
AcDbCircle
 10
1665.90438720931
 20
1342.376290416007
 30
0.0
 40
10.48259753163544
  0
LINE
  5
4AEB
330
A
100
AcDbEntity
  8
HIDDEN
  6
CENTER
 48
0.15
100
AcDbLine
 10
1641.404897833153
 20
1622.376290416007
 30
0.0
 11
1690.403876585465
 21
1622.376290416007
 31
0.0
  0
LINE
  5
4AEC
330
A
100
AcDbEntity
  8
HIDDEN
  6
CENTER
 48
0.15
100
AcDbLine
 10
1665.90438720931
 20
1646.875779792162
 30
0.0
 11
1665.90438720931
 21
1597.876801039852
 31
0.0
  0
CIRCLE
  5
4AED
330
A
100
AcDbEntity
  8
HIDDEN
  6
CENTER
 48
0.15
100
AcDbCircle
 10
1665.90438720931
 20
1622.376290416007
 30
0.0
 40
10.48259753163544
  0
LINE
  5
4AF4
330
A
100
AcDbEntity
  8
Dim
  6
Continuous
100
AcDbLine
 10
1658.556503537038
 20
1629.852483066616
 30
0.0
 11
1529.033920013726
 21
1723.657531694699
 31
0.0
  0
MTEXT
  5
4AF5
330
A
100
AcDbEntity
  8
Dim
390
1D
100
AcDbMText
 10
1482.440634658438
 20
1724.701298472823
 30
34.99521132346015
 40
24.0
 41
1169.771715461011
 46
26.808
 71
     1
 72
     1
  1
{壁取付ボルト穴(4ヶ所)}
  7
ＭＳ ゴシック
 11
3.061616997868383E-16
 21
1.0
 31
0.0
 73
     1
 44
1.174240107638677
1001
ACAD
1000
ACAD_MTEXT_DEFINED_HEIGHT_BEGIN
1070
    46
1040
26.808
1000
ACAD_MTEXT_DEFINED_HEIGHT_END
  0
MTEXT
  5
4B0A
330
A
100
AcDbEntity
  8
Dim
390
1D
100
AcDbMText
 10
1111.208902375841
 20
648.5692200283486
 30
34.99521132346015
 40
24.4326171875
 41
833.929798641839
 46
0.0
 71
     1
 72
     1
  1
＝φ30もしくはφ35の水栓取付用穴あけ加工を承ります。\P  必要な場合、ご注文の際にご指示ください。
  7
ＭＳ ゴシック
 11
4.898587196589413E-16
 21
1.0
 31
0.0
 73
     1
 44
1.043768984567712
  0
CIRCLE
  5
4B0B
330
A
100
AcDbEntity
  8
HIDDEN
 48
0.58
390
1D
100
AcDbCircle
 10
1125.797726832124
 20
617.2021903302605
 30
34.99521132346015
 40
17.5
  0
DIMENSION
  5
4B36
330
A
100
AcDbEntity
  8
Dim
  6
Continuous
100
AcDbDimension
  2
*D20
 10
1667.404400243254
 20
468.5429265465266
 30
0.0
 11
1647.404400243254
 21
468.5429265465266
 31
0.0
 70
   160
 71
     5
 42
40.0
 73
     0
 74
     0
 75
     0
  3
tform線あり
100
AcDbAlignedDimension
 13
1627.404400243254
 23
613.4574273253013
 33
0.0
 14
1667.404400243254
 24
752.7693281486352
 34
0.0
100
AcDbRotatedDimension
  0
DIMENSION
  5
4B55
330
A
100
AcDbEntity
  8
Dim
  6
Continuous
100
AcDbDimension
  2
*D21
 10
1807.404400243254
 20
1888.079216848494
 30
0.0
 11
1717.404400243254
 21
1888.079216848494
 31
0.0
 70
   160
 71
     5
 42
180.0
 73
     0
 74
     0
 75
     0
  3
tform線あり
100
AcDbAlignedDimension
 13
1627.404400243254
 23
1794.543848612269
 33
0.0
 14
1807.404400243254
 24
1256.679942898899
 34
0.0
100
AcDbRotatedDimension
  0
DIMENSION
  5
4B63
330
A
100
AcDbEntity
  8
Dim
  6
Continuous
100
AcDbDimension
  2
*D22
 10
1642.404386495334
 20
2100.048289926181
 30
0.0
 11
1584.016532979709
 21
2100.048289926181
 31
0.0
 70
   160
 71
     5
 42
15.0
 73
     0
 74
     1
 75
     1
  3
tform線あり
100
AcDbAlignedDimension
 13
1627.404386495334
 23
2156.466879214867
 33
0.0
 14
1642.404386495334
 24
2156.466879214867
 34
0.0
100
AcDbRotatedDimension
  0
DIMENSION
  5
4B73
330
A
100
AcDbEntity
  8
Dim
  6
Continuous
100
AcDbDimension
  2
*D23
 10
1717.404386495334
 20
2100.048289926181
 30
0.0
 11
1679.904386495334
 21
2122.264598519931
 31
0.0
 70
    32
 71
     5
 42
75.0
 73
     0
 74
     0
 75
     0
  3
tform線あり
100
AcDbAlignedDimension
 13
1642.404386495334
 23
2131.466879214867
 33
0.0
 14
1717.404386495334
 24
2225.493723152403
 34
0.0
100
AcDbRotatedDimension
  0
DIMENSION
  5
4B80
330
A
100
AcDbEntity
  8
Dim
  6
Continuous
100
AcDbDimension
  2
*D24
 10
1807.404386495334
 20
2100.048289926181
 30
0.0
 11
1762.404386495334
 21
2122.264598519931
 31
0.0
 70
    32
 71
     5
 42
90.0
 73
     0
 74
     0
 75
     0
  3
tform線あり
100
AcDbAlignedDimension
 13
1717.404386495334
 23
2200.493723152403
 33
0.0
 14
1807.404386495334
 24
2415.16798856993
 34
0.0
100
AcDbRotatedDimension
  0
DIMENSION
  5
4BB4
102
{ACAD_REACTORS
330
4BB6
102
}
102
{ACAD_XDICTIONARY
360
4BB5
102
}
330
A
100
AcDbEntity
  8
Dim
  6
Continuous
 62
     3
100
AcDbDimension
  2
*D25
 10
1546.63279840104
 20
2609.48958603615
 30
0.0
 11
1524.41648980729
 21
2641.98958603615
 31
0.0
 70
    32
 71
     5
 42
65.0
 73
     0
 74
     0
 75
     0
  3
tform線あり
100
AcDbAlignedDimension
 13
1631.363374200656
 23
2674.48958603615
 33
0.0
 14
1631.363374200656
 24
2609.48958603615
 34
0.0
 50
90.0
100
AcDbRotatedDimension
  0
DIMENSION
  5
4C1A
330
A
100
AcDbEntity
  8
Dim
  6
Continuous
 62
     3
100
AcDbDimension
  2
*D26
 10
1626.567469528606
 20
2448.667782285094
 30
0.0
 11
1530.380730270793
 21
2448.667782285094
 31
0.0
 70
   160
  1
135(深さ)
 71
     5
 42
129.778103053716
 73
     0
 74
     1
 75
     1
 52
-270.0
  3
tform線あり
100
AcDbAlignedDimension
 13
1756.345572582322
 23
2448.667782285094
 33
0.0
 14
1626.567469528606
 24
2448.667782285094
 34
0.0
 50
180.0
100
AcDbRotatedDimension
1001
ACAD
1000
DSTYLE
1002
{
1070
   271
1070
     0
1070
    76
1070
     1
1070
    75
1070
     1
1002
}
  0
SPLINE
  5
4C9D
330
A
100
AcDbEntity
  8
HIDDEN
100
AcDbSpline
210
0.0
220
0.0
230
1.0
 70
  1064
 71
     3
 72
    15
 73
    11
 74
     9
 42
0.000000001
 43
0.0000000001
 44
0.0
 40
0.0
 40
0.0
 40
0.0
 40
0.0
 40
42.29390425413441
 40
97.18186325500804
 40
160.5612964346277
 40
217.6853510465187
 40
342.6054607297639
 40
361.6881413371203
 40
375.2914331150529
 40
394.9754059451961
 40
394.9754059451961
 40
394.9754059451961
 40
394.9754059451961
 10
1627.404400243254
 20
1532.376290416007
 30
0.0
 10
1641.306134051955
 20
1529.667410365305
 30
0.0
 10
1673.249186315157
 20
1523.44301431334
 30
0.0
 10
1719.052470753745
 20
1490.308983340306
 30
0.0
 10
1741.444096443815
 20
1434.622452321582
 30
0.0
 10
1756.431903529262
 20
1352.628115814438
 30
0.0
 10
1758.640230284478
 20
1294.679111197941
 30
0.0
 10
1756.506421602057
 20
1230.550969496628
 30
0.0
 10
1777.022025355531
 20
1229.423282124454
 30
0.0
 10
1787.640440438871
 20
1229.599253980082
 30
0.0
 10
1793.919496301843
 20
1229.703312552207
 30
0.0
 11
1627.404400243254
 21
1532.376290416007
 31
0.0
 11
1668.310323402435
 21
1521.630138195185
 31
0.0
 11
1712.61540003113
 21
1489.230319859166
 31
0.0
 11
1740.022690767068
 21
1432.083203005508
 31
0.0
 11
1751.393800753255
 21
1376.102353842742
 31
0.0
 11
1757.145309004201
 21
1251.314718413132
 31
0.0
 11
1760.947420709497
 21
1232.614647671479
 31
0.0
 11
1774.2355234717
 21
1229.703312552207
 31
0.0
 11
1793.919496301843
 21
1229.703312552207
 31
0.0
  0
LINE
  5
4CA0
330
A
100
AcDbEntity
  8
HIDDEN
100
AcDbLine
 10
1793.919496301843
 20
1229.703312552207
 30
0.0
 11
1806.233529312934
 21
1229.703312552207
 31
0.0
  0
LINE
  5
4CA2
330
A
100
AcDbEntity
  8
HIDDEN
100
AcDbLine
 10
1757.411897839646
 20
1240.211847363454
 30
0.0
 11
1757.411897839649
 21
1202.376290075786
 31
0.0
  0
LINE
  5
4CA6
330
A
100
AcDbEntity
  8
HIDDEN
100
AcDbLine
 10
1757.411897839646
 20
1164.540732788118
 30
0.0
 11
1757.411897839649
 21
1202.376290075786
 31
0.0
  0
SPLINE
  5
4CA7
330
A
100
AcDbEntity
  8
HIDDEN
100
AcDbSpline
210
0.0
220
0.0
230
1.0
 70
  1064
 71
     3
 72
    15
 73
    11
 74
     9
 42
0.000000001
 43
0.0000000001
 44
0.0
 40
0.0
 40
0.0
 40
0.0
 40
0.0
 40
42.29390425413435
 40
97.18186325500784
 40
160.5612964346273
 40
217.6853510465187
 40
342.6054607297637
 40
361.6881413371201
 40
375.2914331150528
 40
394.975405945196
 40
394.975405945196
 40
394.975405945196
 40
394.975405945196
 10
1627.404400243254
 20
872.3762897355655
 30
0.0
 10
1641.306134051955
 20
875.0851697862678
 30
0.0
 10
1673.249186315158
 20
881.3095658382318
 30
0.0
 10
1719.052470753745
 20
914.4435968112657
 30
0.0
 10
1741.444096443815
 20
970.1301278299898
 30
0.0
 10
1756.431903529261
 20
1052.124464337134
 30
0.0
 10
1758.640230284477
 20
1110.073468953631
 30
0.0
 10
1756.506421602057
 20
1174.201610654945
 30
0.0
 10
1777.022025355532
 20
1175.329298027118
 30
0.0
 10
1787.640440438872
 20
1175.15332617149
 30
0.0
 10
1793.919496301843
 20
1175.049267599365
 30
0.0
 11
1627.404400243254
 21
872.3762897355655
 31
0.0
 11
1668.310323402435
 21
883.1224419563871
 31
0.0
 11
1712.61540003113
 21
915.5222602924059
 31
0.0
 11
1740.022690767068
 21
972.6693771460637
 31
0.0
 11
1751.393800753255
 21
1028.65022630883
 31
0.0
 11
1757.145309004201
 21
1153.43786173844
 31
0.0
 11
1760.947420709497
 21
1172.137932480093
 31
0.0
 11
1774.2355234717
 21
1175.049267599365
 31
0.0
 11
1793.919496301843
 21
1175.049267599365
 31
0.0
  0
LINE
  5
4CA8
330
A
100
AcDbEntity
  8
HIDDEN
100
AcDbLine
 10
1793.919496301843
 20
1175.049267599365
 30
0.0
 11
1806.233529312934
 21
1175.049267599365
 31
0.0
  0
VIEWPORT
  5
349
330
B
100
AcDbEntity
 67
     1
  8
0
100
AcDbViewport
 10
202.5
 20
128.5
 30
0.0
 40
486.0
 41
308.4
 68
     1
 69
     1
 12
202.5
 22
128.5
 13
0.0
 23
0.0
 14
0.5
 24
0.5
 15
0.0
 25
0.0
 16
0.0
 26
0.0
 36
1.0
 17
0.0
 27
0.0
 37
0.0
 42
50.0
 43
0.0
 44
0.0
 45
308.4
 50
0.0
 51
0.0
 72
   100
 90
   557152
  1

281
     0
 71
     1
 74
     0
110
0.0
120
0.0
130
0.0
111
1.0
121
0.0
131
0.0
112
0.0
122
1.0
132
0.0
 79
     0
146
0.0
170
     0
 61
     5
348
26C
292
     1
282
     1
141
0.0
142
0.0
 63
   256
  0
VIEWPORT
  5
34A
330
B
100
AcDbEntity
 67
     1
  8
0
100
AcDbViewport
 10
202.5
 20
128.5
 30
0.0
 40
324.0
 41
205.6
 68
     2
 69
     2
 12
986.6781359294573
 22
1427.077061889956
 13
0.0
 23
0.0
 14
0.5
 24
0.5
 15
0.0
 25
0.0
 16
0.0
 26
0.0
 36
1.0
 17
0.0
 27
0.0
 37
0.0
 42
50.0
 43
0.0
 44
0.0
 45
2890.021615685494
 50
0.0
 51
0.0
 72
   100
 90
   557152
  1

281
     0
 71
     1
 74
     0
110
0.0
120
0.0
130
0.0
111
1.0
121
0.0
131
0.0
112
0.0
122
1.0
132
0.0
 79
     0
146
0.0
170
     0
 61
     5
348
26C
292
     1
282
     1
141
0.0
142
0.0
 63
   256
  0
ENDSEC
  0
SECTION
  2
OBJECTS
  0
DICTIONARY
  5
19
330
0
100
AcDbDictionary
281
     1
  3
ACAD_COLOR
350
38F
  3
ACAD_DETAILVIEWSTYLE
350
8CF
  3
ACAD_FIELDLIST
350
BA6
  3
ACAD_GROUP
350
1A
  3
ACAD_IMAGE_VARS
350
27B
  3
ACAD_LAYOUT
350
1E
  3
ACAD_MATERIAL
350
263
  3
ACAD_MLEADERSTYLE
350
336
  3
ACAD_MLINESTYLE
350
1B
  3
ACAD_PLOTSETTINGS
350
22
  3
ACAD_PLOTSTYLENAME
350
1F
  3
ACAD_SCALELIST
350
241
  3
ACAD_SECTIONVIEWSTYLE
350
8D0
  3
ACAD_TABLESTYLE
350
278
  3
ACAD_VISUALSTYLE
350
267
  3
ACDB_RECOMPOSE_DATA
350
4FEB
  3
AcDbVariableDictionary
350
330
  3
APPDATA
350
27A
  3
DimOffsetDictionary
350
C08
  0
SUN
  5
8C2
330
15
100
AcDbSun
 90
        1
290
     0
 63
     7
421
 16777215
 40
1.0
291
     1
 91
  2455826
 92
 54000000
292
     0
 70
     2
 71
   256
280
     1
  0
DICTIONARY
  5
2E1
330
2
100
AcDbDictionary
280
     1
281
     1
  3
ACAD_LAYERSTATES
360
2E2
  3
ACLYDICTIONARY
360
BFE
  0
DICTIONARY
  5
BDC
330
BDB
100
AcDbDictionary
280
     1
281
     1
  3
ACAD_FIELD
360
BE4
  0
DICTIONARY
  5
4A61
330
4A60
100
AcDbDictionary
280
     1
281
     1
  3
ACAD_DIMASSOC
360
4A62
  0
DICTIONARY
  5
4A70
330
4A6F
100
AcDbDictionary
280
     1
281
     1
  3
ACAD_DIMASSOC
360
4A71
  0
DICTIONARY
  5
4BB5
330
4BB4
100
AcDbDictionary
280
     1
281
     1
  3
ACAD_DIMASSOC
360
4BB6
  0
DICTIONARY
  5
38F
102
{ACAD_REACTORS
330
19
102
}
330
19
100
AcDbDictionary
281
     1
  0
DICTIONARY
  5
8CF
102
{ACAD_REACTORS
330
19
102
}
330
19
100
AcDbDictionary
281
     1
  0
FIELDLIST
  5
BA6
102
{ACAD_REACTORS
330
19
102
}
330
19
100
AcDbIdSet
 90
        2
330
BDF
330
BDE
100
AcDbFieldList
  0
DICTIONARY
  5
1A
102
{ACAD_REACTORS
330
19
102
}
330
19
100
AcDbDictionary
281
     1
  0
RASTERVARIABLES
  5
27B
102
{ACAD_REACTORS
330
19
102
}
330
19
100
AcDbRasterVariables
 90
        0
 70
     1
 71
     1
 72
     1
  0
DICTIONARY
  5
1E
102
{ACAD_REACTORS
330
19
102
}
330
19
100
AcDbDictionary
281
     1
  3
Layout1
350
21
  3
Model
350
20
  0
DICTIONARY
  5
263
102
{ACAD_REACTORS
330
19
102
}
330
19
100
AcDbDictionary
281
     1
  3
ByLayer
350
264
  3
Global
350
266
  0
DICTIONARY
  5
336
102
{ACAD_REACTORS
330
19
102
}
330
19
100
AcDbDictionary
281
     1
  3
Standard
350
8D1
  0
DICTIONARY
  5
1B
102
{ACAD_REACTORS
330
19
102
}
330
19
100
AcDbDictionary
281
     1
  3
Standard
350
1C
  0
DICTIONARY
  5
22
102
{ACAD_REACTORS
330
19
102
}
330
19
100
AcDbDictionary
281
     1
  0
ACDBDICTIONARYWDFLT
  5
1F
102
{ACAD_REACTORS
330
19
102
}
330
19
100
AcDbDictionary
281
     1
  3
Normal
350
1D
100
AcDbDictionaryWithDefault
340
1D
  0
DICTIONARY
  5
241
102
{ACAD_REACTORS
330
19
102
}
330
19
100
AcDbDictionary
281
     1
  3
A0
350
242
  3
A1
350
243
  3
A2
350
244
  3
A3
350
245
  3
A4
350
246
  3
A5
350
247
  3
A6
350
248
  3
A7
350
249
  3
A8
350
24A
  3
A9
350
24B
  3
B0
350
24C
  3
B1
350
24D
  3
B2
350
24E
  3
B3
350
24F
  3
B4
350
250
  3
B5
350
251
  3
B6
350
252
  3
B7
350
253
  3
B8
350
254
  3
B9
350
255
  3
C0
350
256
  3
C1
350
257
  3
C2
350
258
  3
C3
350
259
  3
C4
350
25A
  3
C5
350
25B
  3
C6
350
25C
  3
C7
350
25D
  3
C8
350
25E
  3
C9
350
25F
  3
D0
350
260
  3
D1
350
261
  3
D2
350
262
  0
DICTIONARY
  5
8D0
102
{ACAD_REACTORS
330
19
102
}
330
19
100
AcDbDictionary
281
     1
  0
DICTIONARY
  5
278
102
{ACAD_REACTORS
330
19
102
}
330
19
100
AcDbDictionary
281
     1
  3
Standard
350
279
  0
DICTIONARY
  5
267
102
{ACAD_REACTORS
330
19
102
}
330
19
100
AcDbDictionary
281
     1
  3
2dWireframe
350
26C
  3
3D Hidden
350
26E
  3
3dWireframe
350
26D
  3
Basic
350
26F
  3
Brighten
350
273
  3
ColorChange
350
277
  3
Conceptual
350
271
  3
Dim
350
272
  3
EdgeColorOff
350
8BC
  3
Facepattern
350
276
  3
Flat
350
268
  3
FlatWithEdges
350
269
  3
Gouraud
350
26A
  3
GouraudWithEdges
350
26B
  3
Hidden
350
8B9
  3
JitterOff
350
8BA
  3
Linepattern
350
275
  3
OverhangOff
350
8BB
  3
Realistic
350
270
  3
Shaded
350
8C1
  3
Shaded with edges
350
8C0
  3
Shades of Gray
350
8BD
  3
Sketchy
350
8BE
  3
Thicken
350
274
  3
Wireframe
350
8B8
  3
X-Ray
350
8BF
  0
XRECORD
  5
4FEB
102
{ACAD_REACTORS
330
19
102
}
330
19
100
AcDbXrecord
280
     1
 90
        1
330
279
  0
DICTIONARY
  5
330
102
{ACAD_REACTORS
330
19
102
}
330
19
100
AcDbDictionary
281
     1
  3
CANNOSCALE
350
331
  3
CMLEADERSTYLE
350
8DA
  3
CTABLESTYLE
350
335
  3
HPTRANSPARENCY
350
C07
  3
XCLIPFRAME
350
64A
  0
DICTIONARY
  5
27A
102
{ACAD_REACTORS
330
19
102
}
330
19
100
AcDbDictionary
281
     1
  0
DICTIONARY
  5
C08
102
{ACAD_REACTORS
330
19
102
}
330
19
100
AcDbDictionary
281
     1
  3
DIMRAILANGLE
350
4342
  3
DIMRAILFIRSTOFFSET
350
4340
  3
DIMRAILOFFSET
350
4341
  3
DIMRAILSENABLED
350
4343
  0
DICTIONARY
  5
2E2
102
{ACAD_REACTORS
330
2E1
102
}
330
2E1
100
AcDbDictionary
281
     1
  3
ARGON_LAYERP_15
350
870
  0
DICTIONARY
  5
BFE
102
{ACAD_REACTORS
330
2E1
102
}
330
2E1
100
AcDbDictionary
281
     1
1001
ACAD
1000
<All
  0
DICTIONARY
  5
BE4
102
{ACAD_REACTORS
330
BDC
102
}
330
BDC
100
AcDbDictionary
280
     1
281
     1
  3
TEXT
360
BDE
  0
DIMASSOC
  5
4A62
102
{ACAD_REACTORS
330
4A61
102
}
330
4A61
100
AcDbDimAssoc
330
4A60
 90
        3
 70
     0
 71
     1
  1
AcDbOsnapPointRef
 72
     1
331
46B3
 73
     0
 91
        0
 40
0.0
 10
0.0
 20
0.0
 30
0.0
 75
     0
  1
AcDbOsnapPointRef
 72
    13
331
46B7
 73
     0
 91
        0
 40
0.0
 10
0.0
 20
0.0
 30
0.0
 75
     0
  0
DIMASSOC
  5
4A71
102
{ACAD_REACTORS
330
4A70
102
}
330
4A70
100
AcDbDimAssoc
330
4A6F
 90
        2
 70
     0
 71
     1
  1
AcDbOsnapPointRef
 72
     1
331
46B7
 73
     0
 91
        0
 40
0.0
 10
0.0
 20
0.0
 30
0.0
 75
     0
  0
DIMASSOC
  5
4BB6
102
{ACAD_REACTORS
330
4BB5
102
}
330
4BB5
100
AcDbDimAssoc
330
4BB4
 90
        1
 70
     0
 71
     1
  1
AcDbOsnapPointRef
 72
     1
331
474D
 73
     0
 91
        0
 40
0.0
 10
0.0
 20
0.0
 30
0.0
 75
     0
  0
LAYOUT
  5
21
102
{ACAD_REACTORS
330
1E
102
}
330
1E
100
AcDbPlotSettings
  1

  2
none_device
  4
ISO_A3_(420.00_x_297.00_MM)
  6

 40
7.5
 41
20.0
 42
7.5
 43
20.0
 44
420.0
 45
297.0
 46
0.0
 47
0.0
 48
0.0
 49
0.0
140
0.0
141
0.0
142
1.0
143
1.0
 70
     0
 72
     1
 73
     0
 74
     0
  7

 75
     0
 76
     0
 77
     2
 78
   300
147
1.0
148
0.0
149
0.0
100
AcDbLayout
  1
Layout1
 70
     0
 71
     0
 10
0.0
 20
0.0
 11
0.0
 21
0.0
 12
0.0
 22
0.0
 32
0.0
 14
0.0
 24
0.0
 34
0.0
 15
0.0
 25
0.0
 35
0.0
146
0.0
 13
0.0
 23
0.0
 33
0.0
 16
0.0
 26
0.0
 36
0.0
 17
0.0
 27
0.0
 37
0.0
 76
     0
330
B
331
349
  0
LAYOUT
  5
20
102
{ACAD_REACTORS
330
1E
102
}
330
1E
100
AcDbPlotSettings
  1

  2
none_device
  4
ISO_A3_(420.00_x_297.00_MM)
  6

 40
7.5
 41
20.0
 42
7.5
 43
20.0
 44
420.0
 45
297.0
 46
0.0
 47
0.0
 48
0.0
 49
0.0
140
0.0
141
0.0
142
1.0
143
1.0
 70
  1024
 72
     1
 73
     0
 74
     0
  7

 75
     0
 76
     0
 77
     2
 78
   300
147
1.0
148
0.0
149
0.0
100
AcDbLayout
  1
Model
 70
     0
 71
     1
 10
0.0
 20
0.0
 11
2100.0
 21
2970.0
 12
0.0
 22
0.0
 32
0.0
 14
0.0
 24
0.0
 34
0.0
 15
2100.0
 25
2970.0
 35
34.99521132346015
146
0.0
 13
0.0
 23
0.0
 33
0.0
 16
0.0
 26
0.0
 36
0.0
 17
0.0
 27
0.0
 37
0.0
 76
     0
330
A
331
15
  0
MATERIAL
  5
264
102
{ACAD_REACTORS
330
263
102
}
330
263
100
AcDbMaterial
  1
ByLayer
 72
     1
 94
      127
  0
MATERIAL
  5
266
102
{ACAD_REACTORS
330
263
102
}
330
263
100
AcDbMaterial
  1
Global
 72
     1
 94
      127
  0
MLEADERSTYLE
  5
8D1
102
{ACAD_REACTORS
330
336
102
}
330
336
100
AcDbMLeaderStyle
170
     2
171
     1
172
     0
 90
        2
 40
0.0
 41
0.0
173
     1
 91
-1056964608
340
11
 92
       -2
290
     1
 42
2.0
291
     1
 43
8.0
  3
Standard
341
0
 44
4.0
300

342
17
174
     1
178
     6
175
     1
176
     0
 93
-1056964608
 45
4.0
292
     0
297
     0
 46
4.0
343
0
 94
-1056964608
 47
1.0
 49
1.0
140
1.0
293
     1
141
0.0
294
     1
177
     0
142
1.0
295
     0
296
     0
143
3.75
1001
ACAD_MLEADERVER
1070
     2
  0
MLINESTYLE
  5
1C
102
{ACAD_REACTORS
330
1B
102
}
330
1B
100
AcDbMlineStyle
  2
Standard
 70
     0
  3

 62
     0
 51
90.0
 52
90.0
 71
     2
 49
0.5
 62
   256
  6
BYLAYER
 49
-0.5
 62
   256
  6
BYLAYER
  0
ACDBPLACEHOLDER
  5
1D
102
{ACAD_REACTORS
330
1F
102
}
330
1F
  0
SCALE
  5
242
102
{ACAD_REACTORS
330
241
102
}
330
241
100
AcDbScale
 70
     0
300
1:1
140
1.0
141
1.0
290
     1
  0
SCALE
  5
243
102
{ACAD_REACTORS
330
241
102
}
330
241
100
AcDbScale
 70
     0
300
1:2
140
1.0
141
2.0
290
     0
  0
SCALE
  5
244
102
{ACAD_REACTORS
330
241
102
}
330
241
100
AcDbScale
 70
     0
300
1:4
140
1.0
141
4.0
290
     0
  0
SCALE
  5
245
102
{ACAD_REACTORS
330
241
102
}
330
241
100
AcDbScale
 70
     0
300
1:5
140
1.0
141
5.0
290
     0
  0
SCALE
  5
246
102
{ACAD_REACTORS
330
241
102
}
330
241
100
AcDbScale
 70
     0
300
1:8
140
1.0
141
8.0
290
     0
  0
SCALE
  5
247
102
{ACAD_REACTORS
330
241
102
}
330
241
100
AcDbScale
 70
     0
300
1:10
140
1.0
141
10.0
290
     0
  0
SCALE
  5
248
102
{ACAD_REACTORS
330
241
102
}
330
241
100
AcDbScale
 70
     0
300
1:16
140
1.0
141
16.0
290
     0
  0
SCALE
  5
249
102
{ACAD_REACTORS
330
241
102
}
330
241
100
AcDbScale
 70
     0
300
1:20
140
1.0
141
20.0
290
     0
  0
SCALE
  5
24A
102
{ACAD_REACTORS
330
241
102
}
330
241
100
AcDbScale
 70
     0
300
1:30
140
1.0
141
30.0
290
     0
  0
SCALE
  5
24B
102
{ACAD_REACTORS
330
241
102
}
330
241
100
AcDbScale
 70
     0
300
1:40
140
1.0
141
40.0
290
     0
  0
SCALE
  5
24C
102
{ACAD_REACTORS
330
241
102
}
330
241
100
AcDbScale
 70
     0
300
1:50
140
1.0
141
50.0
290
     0
  0
SCALE
  5
24D
102
{ACAD_REACTORS
330
241
102
}
330
241
100
AcDbScale
 70
     0
300
1:100
140
1.0
141
100.0
290
     0
  0
SCALE
  5
24E
102
{ACAD_REACTORS
330
241
102
}
330
241
100
AcDbScale
 70
     0
300
2:1
140
2.0
141
1.0
290
     0
  0
SCALE
  5
24F
102
{ACAD_REACTORS
330
241
102
}
330
241
100
AcDbScale
 70
     0
300
4:1
140
4.0
141
1.0
290
     0
  0
SCALE
  5
250
102
{ACAD_REACTORS
330
241
102
}
330
241
100
AcDbScale
 70
     0
300
8:1
140
8.0
141
1.0
290
     0
  0
SCALE
  5
251
102
{ACAD_REACTORS
330
241
102
}
330
241
100
AcDbScale
 70
     0
300
10:1
140
10.0
141
1.0
290
     0
  0
SCALE
  5
252
102
{ACAD_REACTORS
330
241
102
}
330
241
100
AcDbScale
 70
     0
300
100:1
140
100.0
141
1.0
290
     0
  0
SCALE
  5
253
102
{ACAD_REACTORS
330
241
102
}
330
241
100
AcDbScale
 70
     0
300
1/128" = 1'-0"
140
0.0078125
141
12.0
290
     0
  0
SCALE
  5
254
102
{ACAD_REACTORS
330
241
102
}
330
241
100
AcDbScale
 70
     0
300
1/64" = 1'-0"
140
0.015625
141
12.0
290
     0
  0
SCALE
  5
255
102
{ACAD_REACTORS
330
241
102
}
330
241
100
AcDbScale
 70
     0
300
1/32" = 1'-0"
140
0.03125
141
12.0
290
     0
  0
SCALE
  5
256
102
{ACAD_REACTORS
330
241
102
}
330
241
100
AcDbScale
 70
     0
300
1/16" = 1'-0"
140
0.0625
141
12.0
290
     0
  0
SCALE
  5
257
102
{ACAD_REACTORS
330
241
102
}
330
241
100
AcDbScale
 70
     0
300
3/32" = 1'-0"
140
0.09375
141
12.0
290
     0
  0
SCALE
  5
258
102
{ACAD_REACTORS
330
241
102
}
330
241
100
AcDbScale
 70
     0
300
1/8" = 1'-0"
140
0.125
141
12.0
290
     0
  0
SCALE
  5
259
102
{ACAD_REACTORS
330
241
102
}
330
241
100
AcDbScale
 70
     0
300
3/16" = 1'-0"
140
0.1875
141
12.0
290
     0
  0
SCALE
  5
25A
102
{ACAD_REACTORS
330
241
102
}
330
241
100
AcDbScale
 70
     0
300
1/4" = 1'-0"
140
0.25
141
12.0
290
     0
  0
SCALE
  5
25B
102
{ACAD_REACTORS
330
241
102
}
330
241
100
AcDbScale
 70
     0
300
3/8" = 1'-0"
140
0.375
141
12.0
290
     0
  0
SCALE
  5
25C
102
{ACAD_REACTORS
330
241
102
}
330
241
100
AcDbScale
 70
     0
300
1/2" = 1'-0"
140
0.5
141
12.0
290
     0
  0
SCALE
  5
25D
102
{ACAD_REACTORS
330
241
102
}
330
241
100
AcDbScale
 70
     0
300
3/4" = 1'-0"
140
0.75
141
12.0
290
     0
  0
SCALE
  5
25E
102
{ACAD_REACTORS
330
241
102
}
330
241
100
AcDbScale
 70
     0
300
1" = 1'-0"
140
1.0
141
12.0
290
     0
  0
SCALE
  5
25F
102
{ACAD_REACTORS
330
241
102
}
330
241
100
AcDbScale
 70
     0
300
1-1/2" = 1'-0"
140
1.5
141
12.0
290
     0
  0
SCALE
  5
260
102
{ACAD_REACTORS
330
241
102
}
330
241
100
AcDbScale
 70
     0
300
3" = 1'-0"
140
3.0
141
12.0
290
     0
  0
SCALE
  5
261
102
{ACAD_REACTORS
330
241
102
}
330
241
100
AcDbScale
 70
     0
300
6" = 1'-0"
140
6.0
141
12.0
290
     0
  0
SCALE
  5
262
102
{ACAD_REACTORS
330
241
102
}
330
241
100
AcDbScale
 70
     0
300
1'-0" = 1'-0"
140
12.0
141
12.0
290
     0
  0
TABLESTYLE
  5
279
102
{ACAD_REACTORS
330
278
102
}
102
{ACAD_XDICTIONARY
360
4FE9
102
}
330
278
100
AcDbTableStyle
  3
Standard
 70
     0
 71
     0
 40
0.06
 41
0.06
280
     0
281
     0
  7
Standard
140
4.5
170
     2
 62
     0
 63
   257
283
     0
 90
        4
 91
        0
  1

274
    -2
284
     1
 64
     0
275
    -2
285
     1
 65
     0
276
    -2
286
     1
 66
     0
277
    -2
287
     1
 67
     0
278
    -2
288
     1
 68
     0
279
    -2
289
     1
 69
     0
  7
Standard
140
6.0
170
     5
 62
     0
 63
   257
283
     0
 90
        4
 91
        0
  1

274
    -2
284
     1
 64
     0
275
    -2
285
     1
 65
     0
276
    -2
286
     1
 66
     0
277
    -2
287
     1
 67
     0
278
    -2
288
     1
 68
     0
279
    -2
289
     1
 69
     0
  7
Standard
140
4.5
170
     5
 62
     0
 63
   257
283
     0
 90
        4
 91
        0
  1

274
    -2
284
     1
 64
     0
275
    -2
285
     1
 65
     0
276
    -2
286
     1
 66
     0
277
    -2
287
     1
 67
     0
278
    -2
288
     1
 68
     0
279
    -2
289
     1
 69
     0
  0
VISUALSTYLE
  5
26C
102
{ACAD_REACTORS
330
267
102
}
330
267
100
AcDbVisualStyle
  2
2dWireframe
 70
     4
 71
     0
 72
     2
 73
     0
 90
        0
 40
-0.6
 41
-30.0
 62
     5
 63
     7
421
 16777215
 74
     1
 91
        4
 64
     7
 65
   257
 75
     1
175
     1
 42
1.0
 92
        0
 66
   257
 43
1.0
 76
     1
 77
     6
 78
     2
 67
     7
 79
     5
170
     0
171
     0
290
     0
174
     0
 93
        1
 44
0.0
173
     0
291
     0
 45
0.0
  0
VISUALSTYLE
  5
26E
102
{ACAD_REACTORS
330
267
102
}
330
267
100
AcDbVisualStyle
  2
3D Hidden
 70
     6
 71
     1
 72
     2
 73
     2
 90
        0
 40
-0.6
 41
-30.0
 62
     5
 63
     7
421
 16777215
 74
     2
 91
        2
 64
     7
 65
   257
 75
     2
175
     1
 42
40.0
 92
        0
 66
   257
 43
1.0
 76
     1
 77
     6
 78
     2
 67
     7
 79
     3
170
     0
171
     0
290
     0
174
     0
 93
        1
 44
0.0
173
     0
291
     0
 45
0.0
  0
VISUALSTYLE
  5
26D
102
{ACAD_REACTORS
330
267
102
}
330
267
100
AcDbVisualStyle
  2
3dWireframe
 70
     5
 71
     0
 72
     2
 73
     0
 90
        0
 40
-0.6
 41
-30.0
 62
     5
 63
     7
421
 16777215
 74
     1
 91
        4
 64
     7
 65
   257
 75
     1
175
     1
 42
1.0
 92
        0
 66
   257
 43
1.0
 76
     1
 77
     6
 78
     2
 67
     7
 79
     5
170
     0
171
     0
290
     0
174
     0
 93
        1
 44
0.0
173
     0
291
     0
 45
0.0
  0
VISUALSTYLE
  5
26F
102
{ACAD_REACTORS
330
267
102
}
330
267
100
AcDbVisualStyle
  2
Basic
 70
     7
 71
     1
 72
     0
 73
     1
 90
        0
 40
-0.6
 41
-30.0
 62
     5
 63
     7
421
 16777215
 74
     0
 91
        4
 64
     7
 65
   257
 75
     1
175
     1
 42
1.0
 92
        8
 66
     7
 43
1.0
 76
     1
 77
     6
 78
     2
 67
     7
 79
     5
170
     0
171
     0
290
     0
174
     0
 93
        1
 44
0.0
173
     0
291
     1
 45
0.0
  0
VISUALSTYLE
  5
273
102
{ACAD_REACTORS
330
267
102
}
330
267
100
AcDbVisualStyle
  2
Brighten
 70
    12
 71
     2
 72
     2
 73
     0
 90
        0
 40
-0.6
 41
-30.0
 62
     5
 63
     7
421
 16777215
 74
     1
 91
        4
 64
     7
 65
   257
 75
     1
175
     1
 42
1.0
 92
        8
 66
     7
 43
1.0
 76
     1
 77
     6
 78
     2
 67
     7
 79
     5
170
     0
171
     0
290
     0
174
     0
 93
        1
 44
50.0
173
     0
291
     1
 45
0.0
  0
VISUALSTYLE
  5
277
102
{ACAD_REACTORS
330
267
102
}
330
267
100
AcDbVisualStyle
  2
ColorChange
 70
    16
 71
     2
 72
     2
 73
     3
 90
        0
 40
-0.6
 41
-30.0
 62
     5
 63
     8
421
  8421504
 74
     1
 91
        4
 64
     7
 65
   257
 75
     1
175
     1
 42
1.0
 92
        8
 66
     8
424
  8421504
 43
1.0
 76
     1
 77
     6
 78
     2
 67
     7
 79
     5
170
     0
171
     0
290
     0
174
     0
 93
        1
 44
0.0
173
     0
291
     1
 45
0.0
  0
VISUALSTYLE
  5
271
102
{ACAD_REACTORS
330
267
102
}
330
267
100
AcDbVisualStyle
  2
Conceptual
 70
     9
 71
     3
 72
     2
 73
     0
 90
        0
 40
-0.6
 41
-30.0
 62
     5
 63
     7
421
 16777215
 74
     2
 91
        2
 64
     7
 65
   257
 75
     1
175
     1
 42
40.0
 92
        8
 66
     7
 43
1.0
 76
     1
 77
     6
 78
     2
 67
     7
 79
     3
170
     0
171
     0
290
     0
174
     0
 93
        1
 44
0.0
173
     0
291
     0
 45
0.0
  0
VISUALSTYLE
  5
272
102
{ACAD_REACTORS
330
267
102
}
330
267
100
AcDbVisualStyle
  2
Dim
 70
    11
 71
     2
 72
     2
 73
     0
 90
        0
 40
-0.6
 41
-30.0
 62
     5
 63
     7
421
 16777215
 74
     1
 91
        4
 64
     7
 65
   257
 75
     1
175
     1
 42
1.0
 92
        8
 66
     7
 43
1.0
 76
     1
 77
     6
 78
     2
 67
     7
 79
     5
170
     0
171
     0
290
     0
174
     0
 93
        1
 44
-50.0
173
     0
291
     1
 45
0.0
  0
VISUALSTYLE
  5
8BC
102
{ACAD_REACTORS
330
267
102
}
330
267
100
AcDbVisualStyle
  2
EdgeColorOff
 70
    22
 71
     2
 72
     2
 73
     0
 90
        0
 40
0.6
 41
30.0
 62
     5
 63
     7
421
 16777215
 74
     1
 91
        4
 64
     7
 65
   257
 75
     1
175
     1
 42
1.0
 92
        8
 66
     7
 43
1.0
 76
     1
 77
     6
 78
     2
 67
     7
 79
     5
170
     0
171
     0
290
     0
174
     0
 93
        1
 44
0.0
173
     0
291
     1
 45
0.0
  0
VISUALSTYLE
  5
276
102
{ACAD_REACTORS
330
267
102
}
330
267
100
AcDbVisualStyle
  2
Facepattern
 70
    15
 71
     2
 72
     2
 73
     0
 90
        0
 40
-0.6
 41
-30.0
 62
     5
 63
     7
421
 16777215
 74
     1
 91
        4
 64
     7
 65
   257
 75
     1
175
     1
 42
1.0
 92
        8
 66
     7
 43
1.0
 76
     1
 77
     6
 78
     2
 67
     7
 79
     5
170
     0
171
     0
290
     0
174
     0
 93
        1
 44
0.0
173
     0
291
     1
 45
0.0
  0
VISUALSTYLE
  5
268
102
{ACAD_REACTORS
330
267
102
}
330
267
100
AcDbVisualStyle
  2
Flat
 70
     0
 71
     2
 72
     1
 73
     1
 90
        2
 40
-0.6
 41
30.0
 62
     5
 63
     7
421
 16777215
 74
     0
 91
        4
 64
     7
 65
   257
 75
     1
175
     1
 42
1.0
 92
        8
 66
     7
 43
1.0
 76
     1
 77
     6
 78
     2
 67
     7
 79
     5
170
     0
171
     0
290
     0
174
     0
 93
       13
 44
0.0
173
     0
291
     1
 45
0.0
  0
VISUALSTYLE
  5
269
102
{ACAD_REACTORS
330
267
102
}
330
267
100
AcDbVisualStyle
  2
FlatWithEdges
 70
     1
 71
     2
 72
     1
 73
     1
 90
        2
 40
-0.6
 41
30.0
 62
     5
 63
     7
421
 16777215
 74
     1
 91
        4
 64
     7
 65
   257
 75
     1
175
     1
 42
1.0
 92
        0
 66
   257
 43
1.0
 76
     1
 77
     6
 78
     2
 67
     7
 79
     5
170
     0
171
     0
290
     0
174
     0
 93
       13
 44
0.0
173
     0
291
     1
 45
0.0
  0
VISUALSTYLE
  5
26A
102
{ACAD_REACTORS
330
267
102
}
330
267
100
AcDbVisualStyle
  2
Gouraud
 70
     2
 71
     2
 72
     2
 73
     1
 90
        2
 40
-0.6
 41
30.0
 62
     5
 63
     7
421
 16777215
 74
     0
 91
        4
 64
     7
 65
   257
 75
     1
175
     1
 42
1.0
 92
        0
 66
     7
 43
1.0
 76
     1
 77
     6
 78
     2
 67
     7
 79
     5
170
     0
171
     0
290
     0
174
     0
 93
       13
 44
0.0
173
     0
291
     1
 45
0.0
  0
VISUALSTYLE
  5
26B
102
{ACAD_REACTORS
330
267
102
}
330
267
100
AcDbVisualStyle
  2
GouraudWithEdges
 70
     3
 71
     2
 72
     2
 73
     1
 90
        2
 40
-0.6
 41
30.0
 62
     5
 63
     7
421
 16777215
 74
     1
 91
        4
 64
     7
 65
   257
 75
     1
175
     1
 42
1.0
 92
        0
 66
   257
 43
1.0
 76
     1
 77
     6
 78
     2
 67
     7
 79
     5
170
     0
171
     0
290
     0
174
     0
 93
       13
 44
0.0
173
     0
291
     1
 45
0.0
  0
VISUALSTYLE
  5
8B9
102
{ACAD_REACTORS
330
267
102
}
330
267
100
AcDbVisualStyle
  2
Hidden
 70
     6
 71
     1
 72
     2
 73
     2
 90
        0
 40
0.6
 41
30.0
 62
     5
 63
     7
421
 16777215
 74
     2
 91
        2
 64
     7
 65
   257
 75
     2
175
     1
 42
40.0
 92
        0
 66
   257
 43
1.0
 76
     1
 77
     6
 78
     2
 67
     7
 79
     3
170
     0
171
     0
290
     0
174
     0
 93
        1
 44
0.0
173
     0
291
     0
 45
0.0
  0
VISUALSTYLE
  5
8BA
102
{ACAD_REACTORS
330
267
102
}
330
267
100
AcDbVisualStyle
  2
JitterOff
 70
    20
 71
     2
 72
     2
 73
     0
 90
        0
 40
0.6
 41
30.0
 62
     5
 63
     7
421
 16777215
 74
     1
 91
        4
 64
     7
 65
   257
 75
     1
175
     1
 42
1.0
 92
       10
 66
     7
 43
1.0
 76
     1
 77
     6
 78
     2
 67
     7
 79
     5
170
     0
171
     0
290
     0
174
     0
 93
        1
 44
0.0
173
     0
291
     1
 45
0.0
  0
VISUALSTYLE
  5
275
102
{ACAD_REACTORS
330
267
102
}
330
267
100
AcDbVisualStyle
  2
Linepattern
 70
    14
 71
     2
 72
     2
 73
     0
 90
        0
 40
-0.6
 41
-30.0
 62
     5
 63
     7
421
 16777215
 74
     1
 91
        4
 64
     7
 65
   257
 75
     7
175
     7
 42
1.0
 92
        8
 66
     7
 43
1.0
 76
     1
 77
     6
 78
     2
 67
     7
 79
     5
170
     0
171
     0
290
     0
174
     0
 93
        1
 44
0.0
173
     0
291
     1
 45
0.0
  0
VISUALSTYLE
  5
8BB
102
{ACAD_REACTORS
330
267
102
}
330
267
100
AcDbVisualStyle
  2
OverhangOff
 70
    21
 71
     2
 72
     2
 73
     0
 90
        0
 40
0.6
 41
30.0
 62
     5
 63
     7
421
 16777215
 74
     1
 91
        4
 64
     7
 65
   257
 75
     1
175
     1
 42
1.0
 92
        9
 66
     7
 43
1.0
 76
     1
 77
     6
 78
     2
 67
     7
 79
     5
170
     0
171
     0
290
     0
174
     0
 93
        1
 44
0.0
173
     0
291
     1
 45
0.0
  0
VISUALSTYLE
  5
270
102
{ACAD_REACTORS
330
267
102
}
330
267
100
AcDbVisualStyle
  2
Realistic
 70
     8
 71
     2
 72
     2
 73
     0
 90
        0
 40
-0.6
 41
-30.0
 62
     5
 63
     7
421
 16777215
 74
     1
 91
        0
 64
     7
 65
   257
 75
     1
175
     1
 42
1.0
 92
        8
 66
     8
424
  7895160
 43
1.0
 76
     1
 77
     6
 78
     2
 67
     7
 79
     5
170
     0
171
     0
290
     0
174
     0
 93
       13
 44
0.0
173
     0
291
     0
 45
0.0
  0
VISUALSTYLE
  5
8C1
102
{ACAD_REACTORS
330
267
102
}
330
267
100
AcDbVisualStyle
  2
Shaded
 70
    27
 71
     2
 72
     2
 73
     1
 90
        2
 40
0.6
 41
30.0
 62
     5
 63
     7
421
 16777215
 74
     0
 91
        4
 64
     7
 65
   257
 75
     1
175
     1
 42
1.0
 92
        8
 66
   257
 43
1.0
 76
     1
 77
     6
 78
     2
 67
     8
425
  7895160
 79
     3
170
     0
171
     0
290
     0
174
     0
 93
        5
 44
0.0
173
     0
291
     0
 45
0.0
  0
VISUALSTYLE
  5
8C0
102
{ACAD_REACTORS
330
267
102
}
330
267
100
AcDbVisualStyle
  2
Shaded with edges
 70
    26
 71
     2
 72
     2
 73
     1
 90
        2
 40
0.6
 41
30.0
 62
     5
 63
     7
421
 16777215
 74
     1
 91
       10
 64
     7
 65
   257
 75
     2
175
     1
 42
1.0
 92
        8
 66
   257
 43
1.0
 76
     1
 77
     6
 78
     2
 67
     7
 79
     3
170
     0
171
     0
290
     0
174
     0
 93
        5
 44
0.0
173
     0
291
     0
 45
0.0
  0
VISUALSTYLE
  5
8BD
102
{ACAD_REACTORS
330
267
102
}
330
267
100
AcDbVisualStyle
  2
Shades of Gray
 70
    23
 71
     2
 72
     2
 73
     3
 90
        0
 40
0.6
 41
30.0
 62
     5
 63
     7
421
 16777215
 74
     2
 91
        2
 64
     7
 65
     7
 75
     1
175
     1
 42
40.0
 92
        8
 66
     7
 43
1.0
 76
     1
 77
     6
 78
     2
 67
     7
 79
     3
170
     0
171
     0
290
     0
174
     0
 93
        1
 44
0.0
173
     0
291
     0
 45
0.0
  0
VISUALSTYLE
  5
8BE
102
{ACAD_REACTORS
330
267
102
}
330
267
100
AcDbVisualStyle
  2
Sketchy
 70
    24
 71
     1
 72
     2
 73
     2
 90
        0
 40
0.6
 41
30.0
 62
     5
 63
     7
421
 16777215
 74
     2
 91
        2
 64
     7
 65
     7
 75
     1
175
     1
 42
40.0
 92
       11
 66
     7
 43
1.0
 76
     1
 77
     6
 78
     2
 67
     7
 79
     6
170
     0
171
     0
290
     0
174
     0
 93
        1
 44
0.0
173
     0
291
     0
 45
0.0
  0
VISUALSTYLE
  5
274
102
{ACAD_REACTORS
330
267
102
}
330
267
100
AcDbVisualStyle
  2
Thicken
 70
    13
 71
     2
 72
     2
 73
     0
 90
        0
 40
-0.6
 41
-30.0
 62
     5
 63
     7
421
 16777215
 74
     1
 91
        4
 64
     7
 65
   257
 75
     1
175
     1
 42
1.0
 92
       12
 66
     7
 43
1.0
 76
     1
 77
     6
 78
     2
 67
     7
 79
     5
170
     0
171
     0
290
     0
174
     0
 93
        1
 44
0.0
173
     0
291
     1
 45
0.0
  0
VISUALSTYLE
  5
8B8
102
{ACAD_REACTORS
330
267
102
}
330
267
100
AcDbVisualStyle
  2
Wireframe
 70
     5
 71
     0
 72
     2
 73
     0
 90
        0
 40
0.6
 41
30.0
 62
     5
 63
     7
421
 16777215
 74
     1
 91
        4
 64
     7
 65
   257
 75
     1
175
     1
 42
1.0
 92
        0
 66
   257
 43
1.0
 76
     1
 77
     6
 78
     2
 67
     7
 79
     3
170
     0
171
     0
290
     0
174
     0
 93
        1
 44
0.0
173
     0
291
     0
 45
0.0
  0
VISUALSTYLE
  5
8BF
102
{ACAD_REACTORS
330
267
102
}
330
267
100
AcDbVisualStyle
  2
X-Ray
 70
    25
 71
     2
 72
     2
 73
     1
 90
        1
 40
0.5
 41
30.0
 62
     5
 63
     7
421
 16777215
 74
     1
 91
        0
 64
     7
 65
   257
 75
     1
175
     1
 42
1.0
 92
        8
 66
     7
 43
1.0
 76
     1
 77
     6
 78
     2
 67
     7
 79
     3
170
     0
171
     0
290
     0
174
     0
 93
       13
 44
0.0
173
     0
291
     0
 45
0.0
  0
DICTIONARYVAR
  5
331
102
{ACAD_REACTORS
330
330
102
}
330
330
100
DictionaryVariables
280
     0
  1
1:1
  0
DICTIONARYVAR
  5
8DA
102
{ACAD_REACTORS
330
330
102
}
330
330
100
DictionaryVariables
280
     0
  1
Standard
  0
DICTIONARYVAR
  5
335
102
{ACAD_REACTORS
330
330
102
}
330
330
100
DictionaryVariables
280
     0
  1
Standard
  0
DICTIONARYVAR
  5
C07
102
{ACAD_REACTORS
330
330
102
}
330
330
100
DictionaryVariables
280
     0
  1
ByLayer
  0
DICTIONARYVAR
  5
64A
102
{ACAD_REACTORS
330
330
102
}
330
330
100
DictionaryVariables
280
     0
  1
0
  0
DICTIONARYVAR
  5
4342
102
{ACAD_REACTORS
330
C08
102
}
330
C08
100
DictionaryVariables
280
     0
  1
0.261799
  0
DICTIONARYVAR
  5
4340
102
{ACAD_REACTORS
330
C08
102
}
330
C08
100
DictionaryVariables
280
     0
  1
0.400000
  0
DICTIONARYVAR
  5
4341
102
{ACAD_REACTORS
330
C08
102
}
330
C08
100
DictionaryVariables
280
     0
  1
0.250000
  0
DICTIONARYVAR
  5
4343
102
{ACAD_REACTORS
330
C08
102
}
330
C08
100
DictionaryVariables
280
     0
  1
1
  0
XRECORD
  5
870
102
{ACAD_REACTORS
330
2E2
102
}
330
2E2
100
AcDbXrecord
280
     1
 91
     1023
301

290
     0
302
MODEL
330
14
 90
        8
 62
     7
370
    -3
331
13
  1
Color_7
330
4A
 90
        0
 62
     7
370
     9
331
13
  1
Color_7
330
4B
 90
        8
 62
     7
370
    -3
331
13
  1
Color_7
330
0
 90
        8
 62
     7
370
    -3
331
13
  1
Color_7
330
4D
 90
        9
 62
     7
370
    -3
331
13
  1
Color_7
330
382
 90
        8
 62
     7
370
    -3
331
13
  1
Color_7
330
5C4
 90
        8
 62
     7
370
     9
331
0
  1
Color_7
330
5EB
 90
        8
 62
     7
370
     9
331
13
  1
Color_7
330
0
 90
        8
 62
     7
370
    -3
331
13
  1
Color_7
  0
FIELD
  5
BDE
102
{ACAD_REACTORS
330
BE4
102
}
330
BE4
100
AcDbField
  1
_text
  2
{%<\_FldIdx 0>%N}
 90
        1
360
BDF
 97
        0
 91
       63
 92
        0
 94
        8
 95
        2
 96
        0
300

 93
        1
  6
ACFD_FIELDTEXT_CHECKSUM
 93
        2
 90
        2
140
4478.0
 94
        0
300

302

304
ACVALUE_END
  7
ACFD_FIELD_VALUE
 93
        6
 90
        4
  1
{20170411N}
 94
        0
300

302

304
ACVALUE_END
301
{20170411N}
 98
       11
  0
DICTIONARY
  5
4FE9
330
279
100
AcDbDictionary
280
     1
281
     1
  3
ACAD_ROUNDTRIP_2008_TABLESTYLE_CELLSTYLEMAP
360
4FEA
  0
FIELD
  5
BDF
330
BDE
100
AcDbField
  1
AcVar
  2
\AcVar Date \f "yyyyMMdd"
 90
        0
 97
        0
 91
       63
 92
        0
 94
        8
 95
        2
 96
        0
300

 93
        1
  6
Variable
 93
        2
 90
        4
  1
Date
 94
        0
300

302

304
ACVALUE_END
  7
ACFD_FIELD_VALUE
 93
        6
 90
        8
 92
       16
310
E107040000000B0005002C0026000000
 94
        0
300
yyyyMMdd
302

304
ACVALUE_END
301
20170411
 98
        8
  0
CELLSTYLEMAP
  5
4FEA
102
{ACAD_REACTORS
330
4FE9
102
}
330
4FE9
100
AcDbCellStyleMap
 90
        3
300
CELLSTYLE
  1
TABLEFORMAT_BEGIN
 90
        5
170
     1
 91
        0
 92
    32768
 62
   257
 93
        1
300
CONTENTFORMAT
  1
CONTENTFORMAT_BEGIN
 90
        0
 91
        0
 92
        4
 93
        0
300

 40
0.0
140
1.0
 94
        5
 62
     0
340
17
144
6.0
309
CONTENTFORMAT_END
171
     1
301
MARGIN
  1
CELLMARGIN_BEGIN
 40
0.06
 40
0.06
 40
0.06
 40
0.06
 40
0.18
 40
0.18
309
CELLMARGIN_END
 94
        6
 95
        1
302
GRIDFORMAT
  1
GRIDFORMAT_BEGIN
 90
        0
 91
        1
 62
     0
 92
       -2
340
0
 93
        0
 40
0.045
309
GRIDFORMAT_END
 95
        2
302
GRIDFORMAT
  1
GRIDFORMAT_BEGIN
 90
        0
 91
        1
 62
     0
 92
       -2
340
0
 93
        0
 40
0.045
309
GRIDFORMAT_END
 95
        4
302
GRIDFORMAT
  1
GRIDFORMAT_BEGIN
 90
        0
 91
        1
 62
     0
 92
       -2
340
0
 93
        0
 40
0.045
309
GRIDFORMAT_END
 95
        8
302
GRIDFORMAT
  1
GRIDFORMAT_BEGIN
 90
        0
 91
        1
 62
     0
 92
       -2
340
0
 93
        0
 40
0.045
309
GRIDFORMAT_END
 95
       16
302
GRIDFORMAT
  1
GRIDFORMAT_BEGIN
 90
        0
 91
        1
 62
     0
 92
       -2
340
0
 93
        0
 40
0.045
309
GRIDFORMAT_END
 95
       32
302
GRIDFORMAT
  1
GRIDFORMAT_BEGIN
 90
        0
 91
        1
 62
     0
 92
       -2
340
0
 93
        0
 40
0.045
309
GRIDFORMAT_END
309
TABLEFORMAT_END
  1
CELLSTYLE_BEGIN
 90
        1
 91
        1
300
_TITLE
309
CELLSTYLE_END
300
CELLSTYLE
  1
TABLEFORMAT_BEGIN
 90
        5
170
     1
 91
        0
 92
        0
 62
   257
 93
        1
300
CONTENTFORMAT
  1
CONTENTFORMAT_BEGIN
 90
        0
 91
        0
 92
        4
 93
        0
300

 40
0.0
140
1.0
 94
        5
 62
     0
340
17
144
4.5
309
CONTENTFORMAT_END
171
     1
301
MARGIN
  1
CELLMARGIN_BEGIN
 40
0.06
 40
0.06
 40
0.06
 40
0.06
 40
0.18
 40
0.18
309
CELLMARGIN_END
 94
        6
 95
        1
302
GRIDFORMAT
  1
GRIDFORMAT_BEGIN
 90
        0
 91
        1
 62
     0
 92
       -2
340
0
 93
        0
 40
0.045
309
GRIDFORMAT_END
 95
        2
302
GRIDFORMAT
  1
GRIDFORMAT_BEGIN
 90
        0
 91
        1
 62
     0
 92
       -2
340
0
 93
        0
 40
0.045
309
GRIDFORMAT_END
 95
        4
302
GRIDFORMAT
  1
GRIDFORMAT_BEGIN
 90
        0
 91
        1
 62
     0
 92
       -2
340
0
 93
        0
 40
0.045
309
GRIDFORMAT_END
 95
        8
302
GRIDFORMAT
  1
GRIDFORMAT_BEGIN
 90
        0
 91
        1
 62
     0
 92
       -2
340
0
 93
        0
 40
0.045
309
GRIDFORMAT_END
 95
       16
302
GRIDFORMAT
  1
GRIDFORMAT_BEGIN
 90
        0
 91
        1
 62
     0
 92
       -2
340
0
 93
        0
 40
0.045
309
GRIDFORMAT_END
 95
       32
302
GRIDFORMAT
  1
GRIDFORMAT_BEGIN
 90
        0
 91
        1
 62
     0
 92
       -2
340
0
 93
        0
 40
0.045
309
GRIDFORMAT_END
309
TABLEFORMAT_END
  1
CELLSTYLE_BEGIN
 90
        2
 91
        1
300
_HEADER
309
CELLSTYLE_END
300
CELLSTYLE
  1
TABLEFORMAT_BEGIN
 90
        5
170
     1
 91
        0
 92
        0
 62
   257
 93
        1
300
CONTENTFORMAT
  1
CONTENTFORMAT_BEGIN
 90
        0
 91
        0
 92
        4
 93
        0
300

 40
0.0
140
1.0
 94
        2
 62
     0
340
17
144
4.5
309
CONTENTFORMAT_END
171
     1
301
MARGIN
  1
CELLMARGIN_BEGIN
 40
0.06
 40
0.06
 40
0.06
 40
0.06
 40
0.18
 40
0.18
309
CELLMARGIN_END
 94
        6
 95
        1
302
GRIDFORMAT
  1
GRIDFORMAT_BEGIN
 90
        0
 91
        1
 62
     0
 92
       -2
340
0
 93
        0
 40
0.045
309
GRIDFORMAT_END
 95
        2
302
GRIDFORMAT
  1
GRIDFORMAT_BEGIN
 90
        0
 91
        1
 62
     0
 92
       -2
340
0
 93
        0
 40
0.045
309
GRIDFORMAT_END
 95
        4
302
GRIDFORMAT
  1
GRIDFORMAT_BEGIN
 90
        0
 91
        1
 62
     0
 92
       -2
340
0
 93
        0
 40
0.045
309
GRIDFORMAT_END
 95
        8
302
GRIDFORMAT
  1
GRIDFORMAT_BEGIN
 90
        0
 91
        1
 62
     0
 92
       -2
340
0
 93
        0
 40
0.045
309
GRIDFORMAT_END
 95
       16
302
GRIDFORMAT
  1
GRIDFORMAT_BEGIN
 90
        0
 91
        1
 62
     0
 92
       -2
340
0
 93
        0
 40
0.045
309
GRIDFORMAT_END
 95
       32
302
GRIDFORMAT
  1
GRIDFORMAT_BEGIN
 90
        0
 91
        1
 62
     0
 92
       -2
340
0
 93
        0
 40
0.045
309
GRIDFORMAT_END
309
TABLEFORMAT_END
  1
CELLSTYLE_BEGIN
 90
        3
 91
        2
300
_DATA
309
CELLSTYLE_END
  0
ENDSEC
  0
EOF
