  0
SECTION
  2
HEADER
  9
$ACADVER
  1
AC1021
  9
$ACADMAINTVER
 70
    25
  9
$DWGCODEPAGE
  3
ANSI_932
  9
$LASTSAVEDBY
  1
howeNelson
  9
$INSBASE
 10
0.0
 20
0.0
 30
0.0
  9
$EXTMIN
 10
0.0
 20
0.0
 30
0.0
  9
$EXTMAX
 10
2100.0
 20
2970.0
 30
34.99521132346015
  9
$LIMMIN
 10
0.0
 20
0.0
  9
$LIMMAX
 10
2100.0
 20
2970.0
  9
$ORTHOMODE
 70
     0
  9
$REGENMODE
 70
     1
  9
$FILLMODE
 70
     1
  9
$QTEXTMODE
 70
     0
  9
$MIRRTEXT
 70
     1
  9
$LTSCALE
 40
5.0
  9
$ATTMODE
 70
     1
  9
$TEXTSIZE
 40
533.0403732820173
  9
$TRACEWID
 40
1.0
  9
$TEXTSTYLE
  7
Standard
  9
$CLAYER
  8
MODEL
  9
$CELTYPE
  6
ByLayer
  9
$CECOLOR
 62
   256
  9
$CELTSCALE
 40
1.0
  9
$DISPSILH
 70
     0
  9
$DIMSCALE
 40
1.0
  9
$DIMASZ
 40
9.999389648437498
  9
$DIMEXO
 40
25.0
  9
$DIMDLI
 40
0.9999999999999999
  9
$DIMRND
 40
0.0
  9
$DIMDLE
 40
0.0
  9
$DIMEXE
 40
0.0
  9
$DIMTP
 40
0.0
  9
$DIMTM
 40
0.0
  9
$DIMTXT
 40
24.4326171875
  9
$DIMCEN
 40
0.0
  9
$DIMTSZ
 40
0.0
  9
$DIMTOL
 70
     0
  9
$DIMLIM
 70
     0
  9
$DIMTIH
 70
     0
  9
$DIMTOH
 70
     0
  9
$DIMSE1
 70
     0
  9
$DIMSE2
 70
     0
  9
$DIMTAD
 70
     1
  9
$DIMZIN
 70
    11
  9
$DIMBLK
  1
DOT
  9
$DIMASO
 70
     1
  9
$DIMSHO
 70
     1
  9
$DIMPOST
  1
<>
  9
$DIMAPOST
  1
[]
  9
$DIMALT
 70
     0
  9
$DIMALTD
 70
     1
  9
$DIMALTF
 40
1.0
  9
$DIMLFAC
 40
1.0
  9
$DIMTOFL
 70
     1
  9
$DIMTVP
 40
0.0
  9
$DIMTIX
 70
     1
  9
$DIMSOXD
 70
     0
  9
$DIMSAH
 70
     0
  9
$DIMBLK1
  1

  9
$DIMBLK2
  1

  9
$DIMSTYLE
  2
tform線あり
  9
$DIMCLRD
 70
     0
  9
$DIMCLRE
 70
     0
  9
$DIMCLRT
 70
     0
  9
$DIMTFAC
 40
0.8
  9
$DIMGAP
 40
10.0
  9
$DIMJUST
 70
     0
  9
$DIMSD1
 70
     0
  9
$DIMSD2
 70
     0
  9
$DIMTOLJ
 70
     1
  9
$DIMTZIN
 70
    11
  9
$DIMALTZ
 70
    11
  9
$DIMALTTZ
 70
    11
  9
$DIMUPT
 70
     0
  9
$DIMDEC
 70
     1
  9
$DIMTDEC
 70
     1
  9
$DIMALTU
 70
     2
  9
$DIMALTTD
 70
     2
  9
$DIMTXSTY
  7
ＭＳ ゴシック
  9
$DIMAUNIT
 70
     0
  9
$DIMADEC
 70
     2
  9
$DIMALTRND
 40
0.0
  9
$DIMAZIN
 70
     0
  9
$DIMDSEP
 70
    46
  9
$DIMATFIT
 70
     0
  9
$DIMFRAC
 70
     2
  9
$DIMLDRBLK
  1
DOT
  9
$DIMLUNIT
 70
     2
  9
$DIMLWD
 70
    -2
  9
$DIMLWE
 70
    -2
  9
$DIMTMOVE
 70
     0
  9
$DIMFXL
 40
1.0
  9
$DIMFXLON
 70
     0
  9
$DIMJOGANG
 40
0.7853981633974483
  9
$DIMTFILL
 70
     0
  9
$DIMTFILLCLR
 70
     0
  9
$DIMARCSYM
 70
     0
  9
$DIMLTYPE
  6

  9
$DIMLTEX1
  6

  9
$DIMLTEX2
  6

  9
$LUNITS
 70
     2
  9
$LUPREC
 70
     0
  9
$SKETCHINC
 40
0.1
  9
$FILLETRAD
 40
0.0
  9
$AUNITS
 70
     0
  9
$AUPREC
 70
     0
  9
$MENU
  1
acad
  9
$ELEVATION
 40
0.0
  9
$PELEVATION
 40
0.0
  9
$THICKNESS
 40
0.0
  9
$LIMCHECK
 70
     0
  9
$CHAMFERA
 40
0.0
  9
$CHAMFERB
 40
0.0
  9
$CHAMFERC
 40
0.0
  9
$CHAMFERD
 40
0.0
  9
$SKPOLY
 70
     0
  9
$TDCREATE
 40
2447893.375
  9
$TDUCREATE
 40
0.0
  9
$TDUPDATE
 40
2457959.720443171
  9
$TDUUPDATE
 40
2457959.345443171
  9
$TDINDWG
 40
0.0044873032
  9
$TDUSRTIMER
 40
2457959.345074884
  9
$USRTIMER
 70
     1
  9
$ANGBASE
 50
0.0
  9
$ANGDIR
 70
     0
  9
$PDMODE
 70
     1
  9
$PDSIZE
 40
-2.0
  9
$PLINEWID
 40
0.0
  9
$SPLFRAME
 70
     0
  9
$SPLINETYPE
 70
     6
  9
$SPLINESEGS
 70
     8
  9
$HANDSEED
  5
56E5
  9
$SURFTAB1
 70
     6
  9
$SURFTAB2
 70
     6
  9
$SURFTYPE
 70
     6
  9
$SURFU
 70
     6
  9
$SURFV
 70
     6
  9
$UCSBASE
  2

  9
$UCSNAME
  2

  9
$UCSORG
 10
0.0
 20
0.0
 30
0.0
  9
$UCSXDIR
 10
1.0
 20
0.0
 30
0.0
  9
$UCSYDIR
 10
0.0
 20
1.0
 30
0.0
  9
$UCSORTHOREF
  2

  9
$UCSORTHOVIEW
 70
     0
  9
$UCSORGTOP
 10
0.0
 20
0.0
 30
0.0
  9
$UCSORGBOTTOM
 10
0.0
 20
0.0
 30
0.0
  9
$UCSORGLEFT
 10
0.0
 20
0.0
 30
0.0
  9
$UCSORGRIGHT
 10
0.0
 20
0.0
 30
0.0
  9
$UCSORGFRONT
 10
0.0
 20
0.0
 30
0.0
  9
$UCSORGBACK
 10
0.0
 20
0.0
 30
0.0
  9
$PUCSBASE
  2

  9
$PUCSNAME
  2

  9
$PUCSORG
 10
0.0
 20
0.0
 30
0.0
  9
$PUCSXDIR
 10
1.0
 20
0.0
 30
0.0
  9
$PUCSYDIR
 10
0.0
 20
1.0
 30
0.0
  9
$PUCSORTHOREF
  2

  9
$PUCSORTHOVIEW
 70
     0
  9
$PUCSORGTOP
 10
0.0
 20
0.0
 30
0.0
  9
$PUCSORGBOTTOM
 10
0.0
 20
0.0
 30
0.0
  9
$PUCSORGLEFT
 10
0.0
 20
0.0
 30
0.0
  9
$PUCSORGRIGHT
 10
0.0
 20
0.0
 30
0.0
  9
$PUCSORGFRONT
 10
0.0
 20
0.0
 30
0.0
  9
$PUCSORGBACK
 10
0.0
 20
0.0
 30
0.0
  9
$USERI1
 70
     0
  9
$USERI2
 70
     0
  9
$USERI3
 70
     0
  9
$USERI4
 70
     0
  9
$USERI5
 70
     0
  9
$USERR1
 40
0.0
  9
$USERR2
 40
0.0
  9
$USERR3
 40
0.0
  9
$USERR4
 40
0.0
  9
$USERR5
 40
0.0
  9
$WORLDVIEW
 70
     1
  9
$SHADEDGE
 70
     3
  9
$SHADEDIF
 70
    70
  9
$TILEMODE
 70
     1
  9
$MAXACTVP
 70
    64
  9
$PINSBASE
 10
0.0
 20
0.0
 30
0.0
  9
$PLIMCHECK
 70
     0
  9
$PEXTMIN
 10
0.0
 20
0.0
 30
0.0
  9
$PEXTMAX
 10
0.0
 20
0.0
 30
0.0
  9
$PLIMMIN
 10
-7.5
 20
-20.0
  9
$PLIMMAX
 10
412.5
 20
277.0
  9
$UNITMODE
 70
     0
  9
$VISRETAIN
 70
     0
  9
$PLINEGEN
 70
     1
  9
$PSLTSCALE
 70
     0
  9
$TREEDEPTH
 70
  3020
  9
$CMLSTYLE
  2
Standard
  9
$CMLJUST
 70
     0
  9
$CMLSCALE
 40
1.0
  9
$PROXYGRAPHICS
 70
     0
  9
$MEASUREMENT
 70
     1
  9
$CELWEIGHT
370
    -1
  9
$ENDCAPS
280
     0
  9
$JOINSTYLE
280
     0
  9
$LWDISPLAY
290
     1
  9
$INSUNITS
 70
     4
  9
$HYPERLINKBASE
  1

  9
$STYLESHEET
  1

  9
$XEDIT
290
     1
  9
$CEPSNTYPE
380
     0
  9
$PSTYLEMODE
290
     1
  9
$FINGERPRINTGUID
  2

  9
$VERSIONGUID
  2

  9
$EXTNAMES
290
     1
  9
$PSVPSCALE
 40
0.0
  9
$OLESTARTUP
290
     0
  9
$SORTENTS
280
   127
  9
$INDEXCTL
280
     0
  9
$HIDETEXT
280
     1
  9
$XCLIPFRAME
290
     0
  9
$HALOGAP
280
     0
  9
$OBSCOLOR
 70
   257
  9
$OBSLTYPE
280
     0
  9
$INTERSECTIONDISPLAY
280
     0
  9
$INTERSECTIONCOLOR
 70
   257
  9
$DIMASSOC
280
     2
  9
$PROJECTNAME
  1

  9
$CAMERADISPLAY
290
     0
  9
$LENSLENGTH
 40
50.0
  9
$CAMERAHEIGHT
 40
0.0
  9
$STEPSPERSEC
 40
2.0
  9
$STEPSIZE
 40
6.0
  9
$3DDWFPREC
 40
2.0
  9
$PSOLWIDTH
 40
0.25
  9
$PSOLHEIGHT
 40
4.0
  9
$LOFTANG1
 40
1.570796326794897
  9
$LOFTANG2
 40
1.570796326794897
  9
$LOFTMAG1
 40
0.0
  9
$LOFTMAG2
 40
0.0
  9
$LOFTPARAM
 70
     7
  9
$LOFTNORMALS
280
     1
  9
$LATITUDE
 40
37.795
  9
$LONGITUDE
 40
-122.394
  9
$NORTHDIRECTION
 40
0.0
  9
$TIMEZONE
 70
 -8000
  9
$LIGHTGLYPHDISPLAY
280
     1
  9
$TILEMODELIGHTSYNCH
280
     1
  9
$SOLIDHIST
280
     1
  9
$SHOWHIST
280
     1
  9
$DWFFRAME
280
     2
  9
$DGNFRAME
280
     2
  9
$REALWORLDSCALE
290
     1
  9
$INTERFERECOLOR
 62
   256
  9
$CSHADOW
280
     0
  9
$SHADOWPLANELOCATION
 40
0.0
  0
ENDSEC
  0
SECTION
  2
CLASSES
  0
CLASS
  1
LWPOLYLINE
  2
AcDbPolyline
  3
ObjectDBX Classes
 90
        0
 91
        1
280
     0
281
     1
  0
CLASS
  1
IMAGE
  2
AcDbRasterImage
  3
ISM
 90
      127
 91
        5
280
     0
281
     1
  0
CLASS
  1
OLE2FRAME
  2
AcDbOle2Frame
  3
ObjectDBX Classes
 90
        0
 91
        1
280
     0
281
     1
  0
CLASS
  1
HATCH
  2
AcDbHatch
  3
ObjectDBX Classes
 90
        0
 91
        1
280
     0
281
     1
  0
CLASS
  1
DICTIONARYVAR
  2
AcDbDictionaryVar
  3
ObjectDBX Classes
 90
        0
 91
        4
280
     0
281
     0
  0
CLASS
  1
RASTERVARIABLES
  2
AcDbRasterVariables
  3
ISM
 90
        0
 91
        4
280
     0
281
     0
  0
CLASS
  1
IMAGEDEF
  2
AcDbRasterImageDef
  3
ISM
 90
        0
 91
        4
280
     0
281
     0
  0
CLASS
  1
IMAGEDEF_REACTOR
  2
AcDbRasterImageDefReactor
  3
ISM
 90
        1
 91
        4
280
     0
281
     0
  0
CLASS
  1
IDBUFFER
  2
AcDbIdBuffer
  3
ObjectDBX Classes
 90
        0
 91
        4
280
     0
281
     0
  0
CLASS
  1
SPATIAL_FILTER
  2
AcDbSpatialFilter
  3
ObjectDBX Classes
 90
        0
 91
        4
280
     0
281
     0
  0
CLASS
  1
XRECORD
  2
AcDbXrecord
  3
ObjectDBX Classes
 90
        0
 91
        1
280
     0
281
     0
  0
CLASS
  1
SORTENTSTABLE
  2
AcDbSortentsTable
  3
ObjectDBX Classes
 90
        0
 91
        4
280
     0
281
     0
  0
CLASS
  1
LAYER_INDEX
  2
AcDbLayerIndex
  3
ObjectDBX Classes
 90
        0
 91
        4
280
     0
281
     0
  0
CLASS
  1
SPATIAL_INDEX
  2
AcDbSpatialIndex
  3
AutoCAD 2000
 90
        0
 91
        4
280
     0
281
     0
  0
CLASS
  1
OBJECT_PTR
  2
CAseDLPNTableRecord
  3
ASE-LPNTableRecord
 90
        1
 91
        4
280
     0
281
     0
  0
CLASS
  1
LAYOUT
  2
AcDbLayout
  3
ObjectDBX Classes
 90
        0
 91
        1
280
     0
281
     0
  0
CLASS
  1
PLOTSETTINGS
  2
AcDbPlotSettings
  3
ObjectDBX Classes
 90
        0
 91
        4
280
     0
281
     0
  0
CLASS
  1
ACDBDICTIONARYWDFLT
  2
AcDbDictionaryWithDefault
  3
ObjectDBX Classes
 90
        0
 91
        4
280
     0
281
     0
  0
CLASS
  1
ACDBPLACEHOLDER
  2
AcDbPlaceHolder
  3
ObjectDBX Classes
 90
        0
 91
        1
280
     0
281
     0
  0
CLASS
  1
SCALE
  2
AcDbScale
  3
ObjectDBX Classes
 90
     1153
 91
        4
280
     0
281
     0
  0
CLASS
  1
MATERIAL
  2
AcDbMaterial
  3
ObjectDBX Classes
 90
     1153
 91
        4
280
     0
281
     0
  0
CLASS
  1
VISUALSTYLE
  2
AcDbVisualStyle
  3
ObjectDBX Classes
 90
     4095
 91
        4
280
     0
281
     0
  0
CLASS
  1
TABLESTYLE
  2
AcDbTableStyle
  3
ObjectDBX Classes
 90
     4095
 91
        4
280
     0
281
     0
  0
CLASS
  1
DIMASSOC
  2
AcDbDimAssoc
  3
"AcDbDimAssoc|Product Desc:     AcDim ARX App For Dimension|Company:          Autodesk, Inc.|WEB Address:      www.autodesk.com"
 90
        0
 91
        4
280
     0
281
     0
  0
CLASS
  1
CELLSTYLEMAP
  2
AcDbCellStyleMap
  3
ObjectDBX Classes
 90
     1152
 91
        4
280
     0
281
     0
  0
CLASS
  1
SUN
  2
AcDbSun
  3
SCENEOE
 90
     1153
 91
        4
280
     0
281
     0
  0
CLASS
  1
MLEADERSTYLE
  2
AcDbMLeaderStyle
  3
ACDB_MLEADERSTYLE_CLASS
 90
     4095
 91
        4
280
     0
281
     0
  0
CLASS
  1
FIELD
  2
AcDbField
  3
ObjectDBX Classes
 90
     1152
 91
        4
280
     0
281
     0
  0
CLASS
  1
FIELDLIST
  2
AcDbFieldList
  3
ObjectDBX Classes
 90
     1152
 91
        4
280
     0
281
     0
  0
CLASS
  1
ACDB_ALDIMOBJECTCONTEXTDATA_CLASS
  2
AcDbAlignedDimensionObjectContextData
  3
ObjectDBX Classes
 90
     1153
 91
        4
280
     0
281
     0
  0
ENDSEC
  0
SECTION
  2
TABLES
  0
TABLE
  2
VPORT
  5
7
330
0
100
AcDbSymbolTable
 70
     1
  0
VPORT
  5
15
330
7
100
AcDbSymbolTableRecord
100
AcDbViewportTableRecord
  2
*ACTIVE
 70
     0
 10
0.0
 20
0.0
 11
1.0
 21
1.0
 12
672.9525617540367
 22
1782.612370234517
 13
0.0
 23
0.0
 14
1.0
 24
1.0
 15
0.0
 25
0.0
 16
0.0
 26
0.0
 36
1.0
 17
377.0474382459633
 27
-297.6123702345167
 37
0.0
 40
3029.4
 41
2.227272727272727
 42
50.0
 43
0.0
 44
0.0
 50
0.0
 51
0.0
 71
    16
 72
  2000
 73
     1
 74
     1
 75
     0
 76
     0
 77
     0
 78
     0
281
     0
 65
     1
110
0.0
120
0.0
130
0.0
111
1.0
121
0.0
131
0.0
112
0.0
122
1.0
132
0.0
 79
     0
146
0.0
348
26C
 60
     3
 61
     5
292
     1
282
     1
141
0.0
142
0.0
 63
   256
361
8C2
  0
ENDTAB
  0
TABLE
  2
LTYPE
  5
4
330
0
100
AcDbSymbolTable
 70
     4
  0
LTYPE
  5
11
330
4
100
AcDbSymbolTableRecord
100
AcDbLinetypeTableRecord
  2
ByBlock
 70
     0
  3

 72
    65
 73
     0
 40
0.0
  0
LTYPE
  5
12
330
4
100
AcDbSymbolTableRecord
100
AcDbLinetypeTableRecord
  2
ByLayer
 70
     0
  3

 72
    65
 73
     0
 40
0.0
  0
LTYPE
  5
13
330
4
100
AcDbSymbolTableRecord
100
AcDbLinetypeTableRecord
  2
Continuous
 70
     0
  3
Solid line
 72
    65
 73
     0
 40
0.0
  0
LTYPE
  5
8D4
330
4
100
AcDbSymbolTableRecord
100
AcDbLinetypeTableRecord
  2
HIDDEN
 70
     0
  3
Hidden _ _ _ _ _ _ _ _ _ _ _ _ _ _ _ _ _ _ _ _ 
 72
    65
 73
     2
 40
9.524999999999999
 49
6.35
 74
     0
 49
-3.175
 74
     0
  0
LTYPE
  5
BF2
330
4
100
AcDbSymbolTableRecord
100
AcDbLinetypeTableRecord
  2
BORDER
 70
     0
  3
Border __  __  . __  __  . __  __  . __  __  . 
 72
    65
 73
     6
 40
44.45
 49
12.7
 74
     0
 49
-6.35
 74
     0
 49
12.7
 74
     0
 49
-6.35
 74
     0
 49
0.0
 74
     0
 49
-6.35
 74
     0
  0
LTYPE
  5
4115
330
4
100
AcDbSymbolTableRecord
100
AcDbLinetypeTableRecord
  2
CENTER
 70
     0
  3
 Center _____  _  _____  _  _____  _  _____  _ 
 72
    65
 73
     4
 40
50.8
 49
31.75
 74
     0
 49
-6.35
 74
     0
 49
6.35
 74
     0
 49
-6.35
 74
     0
  0
ENDTAB
  0
TABLE
  2
LAYER
  5
2
102
{ACAD_XDICTIONARY
360
2E1
102
}
330
0
100
AcDbSymbolTable
 70
    10
  0
LAYER
  5
14
330
2
100
AcDbSymbolTableRecord
100
AcDbLayerTableRecord
  2
0
 70
     0
 62
     7
  6
Continuous
370
    -3
390
1D
347
266
  0
LAYER
  5
4A
330
2
100
AcDbSymbolTableRecord
100
AcDbLayerTableRecord
  2
Defpoints
 70
     0
 62
     7
  6
Continuous
290
     0
370
    20
390
1D
347
266
  0
LAYER
  5
4B
330
2
100
AcDbSymbolTableRecord
100
AcDbLayerTableRecord
  2
template
 70
     0
 62
     7
  6
Continuous
370
    20
390
1D
347
266
  0
LAYER
  5
4D
330
2
100
AcDbSymbolTableRecord
100
AcDbLayerTableRecord
  2
MODEL
 70
     0
 62
     7
  6
Continuous
370
    20
390
1D
347
266
  0
LAYER
  5
382
330
2
100
AcDbSymbolTableRecord
100
AcDbLayerTableRecord
  2
レイヤー 1
 70
     0
 62
     7
  6
Continuous
370
    -3
390
1D
347
266
  0
LAYER
  5
5C4
330
2
100
AcDbSymbolTableRecord
100
AcDbLayerTableRecord
  2
HIDDEN
 70
     0
 62
   253
  6
HIDDEN
370
    20
390
1D
347
266
1001
AcAecLayerStandard
1000

1000

  0
LAYER
  5
5EB
330
2
100
AcDbSymbolTableRecord
100
AcDbLayerTableRecord
  2
Dim
 70
     0
 62
     3
  6
Continuous
370
    13
390
1D
347
266
1001
AcAecLayerStandard
1000

1000

  0
LAYER
  5
BF1
330
2
100
AcDbSymbolTableRecord
100
AcDbLayerTableRecord
  2
PRINT BORDER
 70
     0
 62
     4
  6
BORDER
290
     0
370
    20
390
1D
347
266
1001
AcAecLayerStandard
1000

1000

  0
LAYER
  5
1BD2
330
2
100
AcDbSymbolTableRecord
100
AcDbLayerTableRecord
  2
retino
 70
     0
 62
   253
  6
Continuous
370
     0
390
1D
347
266
  0
LAYER
  5
55BC
330
2
100
AcDbSymbolTableRecord
100
AcDbLayerTableRecord
  2
レイヤー 2
 70
     0
 62
     7
  6
Continuous
370
    -3
390
1D
347
266
  0
ENDTAB
  0
TABLE
  2
STYLE
  5
3
330
0
100
AcDbSymbolTable
 70
     2
  0
STYLE
  5
17
330
3
100
AcDbSymbolTableRecord
100
AcDbTextStyleTableRecord
  2
Standard
 70
     0
 40
0.0
 41
1.0
 50
0.0
 71
     0
 42
533.0403732820173
  3
txt
  4
BIGFONT.SHX
  0
STYLE
  5
39
330
3
100
AcDbSymbolTableRecord
100
AcDbTextStyleTableRecord
  2
ＭＳ ゴシック
 70
     0
 40
0.0
 41
1.0
 50
0.0
 71
     0
 42
533.0403732820173
  3
msgothic.ttc
  4
ＭＳ ゴシック
1001
ACAD
1000
ＭＳ ゴシック
1071
        0
  0
ENDTAB
  0
TABLE
  2
VIEW
  5
5
330
0
100
AcDbSymbolTable
 70
     0
  0
ENDTAB
  0
TABLE
  2
UCS
  5
6
330
0
100
AcDbSymbolTable
 70
     0
  0
ENDTAB
  0
TABLE
  2
APPID
  5
8
330
0
100
AcDbSymbolTable
 70
    14
  0
APPID
  5
16
330
8
100
AcDbSymbolTableRecord
100
AcDbRegAppTableRecord
  2
ACAD
 70
     0
  0
APPID
  5
5C5
330
8
100
AcDbSymbolTableRecord
100
AcDbRegAppTableRecord
  2
AcAecLayerStandard
 70
     0
  0
APPID
  5
913
330
8
100
AcDbSymbolTableRecord
100
AcDbRegAppTableRecord
  2
ACAD_DSTYLE_DIMBREAK
 70
     0
  0
APPID
  5
914
330
8
100
AcDbSymbolTableRecord
100
AcDbRegAppTableRecord
  2
ACAD_DSTYLE_DIMJAG
 70
     0
  0
APPID
  5
915
330
8
100
AcDbSymbolTableRecord
100
AcDbRegAppTableRecord
  2
ACAD_DSTYLE_DIMTALN
 70
     0
  0
APPID
  5
E4F
330
8
100
AcDbSymbolTableRecord
100
AcDbRegAppTableRecord
  2
ACAD_MLEADERVER
 70
     0
  0
APPID
  5
E79
330
8
100
AcDbSymbolTableRecord
100
AcDbRegAppTableRecord
  2
ACAD_PSEXT
 70
     0
  0
APPID
  5
E7A
330
8
100
AcDbSymbolTableRecord
100
AcDbRegAppTableRecord
  2
ACAD_NAV_VCDISPLAY
 70
     0
  0
APPID
  5
166E
330
8
100
AcDbSymbolTableRecord
100
AcDbRegAppTableRecord
  2
AcadAnnotative
 70
     0
  0
APPID
  5
166F
330
8
100
AcDbSymbolTableRecord
100
AcDbRegAppTableRecord
  2
GradientColor1ACI
 70
     0
  0
APPID
  5
1670
330
8
100
AcDbSymbolTableRecord
100
AcDbRegAppTableRecord
  2
GradientColor2ACI
 70
     0
  0
APPID
  5
20FE
330
8
100
AcDbSymbolTableRecord
100
AcDbRegAppTableRecord
  2
AcLayerTools
 70
     0
  0
APPID
  5
27AB
330
8
100
AcDbSymbolTableRecord
100
AcDbRegAppTableRecord
  2
ACAD_DSTYLE_DIMRADIAL_EXTENSION
 70
     0
  0
APPID
  5
4377
330
8
100
AcDbSymbolTableRecord
100
AcDbRegAppTableRecord
  2
RAK
 70
     0
  0
ENDTAB
  0
TABLE
  2
DIMSTYLE
  5
9
330
0
100
AcDbSymbolTable
 70
     2
100
AcDbDimStyleTable
  0
DIMSTYLE
105
18
330
9
100
AcDbSymbolTableRecord
100
AcDbDimStyleTableRecord
  2
Standard
 70
     0
178
     0
340
17
  0
DIMSTYLE
105
56
102
{ACAD_REACTORS
330
5113
330
5114
330
5225
330
5232
330
524E
330
525B
330
527C
330
528B
330
52A9
330
52CA
330
5304
330
5323
330
5326
330
5404
330
5405
330
5406
102
}
330
9
100
AcDbSymbolTableRecord
100
AcDbDimStyleTableRecord
  2
tform線あり
 70
     0
  3
<>
  4
[]
 41
9.999389648437498
 42
25.0
 43
0.9999999999999999
 44
0.0
 73
     0
 74
     0
 77
     1
 78
    11
140
24.4326171875
141
0.0
143
1.0
146
0.8
147
10.0
171
     1
172
     1
174
     1
178
     0
179
     2
271
     1
272
     1
276
     2
284
    11
285
    11
286
    11
289
     0
340
39
341
4E
342
4E
  0
ENDTAB
  0
TABLE
  2
BLOCK_RECORD
  5
1
330
0
100
AcDbSymbolTable
 70
    25
  0
BLOCK_RECORD
  5
A
330
1
100
AcDbSymbolTableRecord
100
AcDbBlockTableRecord
  2
*MODEL_SPACE
340
20
 70
     0
280
     1
281
     0
  0
BLOCK_RECORD
  5
B
330
1
100
AcDbSymbolTableRecord
100
AcDbBlockTableRecord
  2
*PAPER_SPACE
340
21
 70
     0
280
     1
281
     0
  0
BLOCK_RECORD
  5
4E
330
1
100
AcDbSymbolTableRecord
100
AcDbBlockTableRecord
  2
_DOT
340
0
102
{BLKREFS
331
517C
331
517D
331
5189
331
518A
331
522C
331
522D
331
5239
331
523A
331
5255
331
5256
331
5262
331
5263
331
5285
331
5286
331
5294
331
5295
331
52B2
331
52B3
331
52BF
331
52C0
331
52D1
331
52D2
331
530B
331
530C
331
532D
331
532E
331
5339
331
533A
331
540E
331
540F
331
541A
331
541B
331
5426
331
5427
102
}
 70
     0
280
     1
281
     0
  0
BLOCK_RECORD
  5
3A5
330
1
100
AcDbSymbolTableRecord
100
AcDbBlockTableRecord
  2
名称未設定-1
340
0
102
{BLKREFS
331
3D0
102
}
 70
     1
280
     1
281
     0
  0
BLOCK_RECORD
  5
3A8
330
1
100
AcDbSymbolTableRecord
100
AcDbBlockTableRecord
  2
block 2
340
0
102
{BLKREFS
331
3A7
102
}
 70
     0
280
     1
281
     0
  0
BLOCK_RECORD
  5
3AB
330
1
100
AcDbSymbolTableRecord
100
AcDbBlockTableRecord
  2
block 3
340
0
102
{BLKREFS
331
3AA
102
}
 70
     0
280
     1
281
     0
  0
BLOCK_RECORD
  5
3AE
330
1
100
AcDbSymbolTableRecord
100
AcDbBlockTableRecord
  2
block 4
340
0
102
{BLKREFS
331
3AD
102
}
 70
     0
280
     1
281
     0
  0
BLOCK_RECORD
  5
3BD
330
1
100
AcDbSymbolTableRecord
100
AcDbBlockTableRecord
  2
block 5
340
0
102
{BLKREFS
331
3BC
102
}
 70
     0
280
     1
281
     0
  0
BLOCK_RECORD
  5
11F0
330
1
100
AcDbSymbolTableRecord
100
AcDbBlockTableRecord
  2
BLOCK_2
340
0
102
{BLKREFS
331
1273
331
127B
331
127C
102
}
 70
     0
280
     1
281
     0
  0
BLOCK_RECORD
  5
38B6
330
1
100
AcDbSymbolTableRecord
100
AcDbBlockTableRecord
  2
mobile_latù
340
0
310
2800000020000000200000000100080000000000000400000000000000000000000000000000000000000000000080000080000000808000800000008000800080800000C0C0C000C0DCC000F0CAA6000020400000206000002080000020A0000020C0000020E00000400000004020000040400000406000004080000040A0
310
000040C0000040E00000600000006020000060400000606000006080000060A0000060C0000060E00000800000008020000080400000806000008080000080A0000080C0000080E00000A0000000A0200000A0400000A0600000A0800000A0A00000A0C00000A0E00000C0000000C0200000C0400000C0600000C0800000C0
310
A00000C0C00000C0E00000E0000000E0200000E0400000E0600000E0800000E0A00000E0C00000E0E00040000000400020004000400040006000400080004000A0004000C0004000E00040200000402020004020400040206000402080004020A0004020C0004020E000404000004040200040404000404060004040800040
310
40A0004040C0004040E00040600000406020004060400040606000406080004060A0004060C0004060E00040800000408020004080400040806000408080004080A0004080C0004080E00040A0000040A0200040A0400040A0600040A0800040A0A00040A0C00040A0E00040C0000040C0200040C0400040C0600040C08000
310
40C0A00040C0C00040C0E00040E0000040E0200040E0400040E0600040E0800040E0A00040E0C00040E0E00080000000800020008000400080006000800080008000A0008000C0008000E00080200000802020008020400080206000802080008020A0008020C0008020E00080400000804020008040400080406000804080
310
008040A0008040C0008040E00080600000806020008060400080606000806080008060A0008060C0008060E00080800000808020008080400080806000808080008080A0008080C0008080E00080A0000080A0200080A0400080A0600080A0800080A0A00080A0C00080A0E00080C0000080C0200080C0400080C0600080C0
310
800080C0A00080C0C00080C0E00080E0000080E0200080E0400080E0600080E0800080E0A00080E0C00080E0E000C0000000C0002000C0004000C0006000C0008000C000A000C000C000C000E000C0200000C0202000C0204000C0206000C0208000C020A000C020C000C020E000C0400000C0402000C0404000C0406000C0
310
408000C040A000C040C000C040E000C0600000C0602000C0604000C0606000C0608000C060A000C060C000C060E000C0800000C0802000C0804000C0806000C0808000C080A000C080C000C080E000C0A00000C0A02000C0A04000C0A06000C0A08000C0A0A000C0A0C000C0A0E000C0C00000C0C02000C0C04000C0C06000
310
C0C08000C0C0A000F0FBFF00A4A0A000808080000000FF0000FF000000FFFF00FF000000FF00FF00FFFF0000FFFFFF0049494949494949494949494949494949494949494949494949494949494949494949494949494949494949494949494949494949494949494949494949494949494949494949494949494949494949
310
49494949494949494949494949494949494949494949494949494949494949494949494949494949494949494949494949494949494949494949494949494949494949494949494949494949494949494949FAFAFAFAFAFAFAFAFAFAFAFAFAFAFAFAFAFAFAFAFAFAFAFAFAFAFAFAFAFA4949FAFA4949494949494949494949
310
494949494949494949494949494949FAFA4949FAFA4949494949494949494949494949494949494949494949494949FAFA4949FAFA4949494949494949494949494949494949494949494949494949FAFA4949FAFA4949494949494949494949494949494949494949494949494949FAFA4949FAFA49494949494949494949
310
49494949494949494949494949494949FAFA4949FAFA4949494949494949494949494949494949494949494949494949FAFA4949FAFA4949494949494949494949494949494949494949494949494949FAFA4949FAFA4949494949494949494949494949494949494949494949494949FAFA4949FAFA494949494949494949
310
4949494949494949494949494949494949FAFA4949FAFA4949494949494949494949494949494949494949494949494949FAFA4949FAFA4949494949494949494949494949494949494949494949494949FAFA4949FAFA4949494949494949494949494949494949494949494949494949FAFA4949FAFA4949494949494949
310
494949494949494949494949494949494949FAFA4949FAFA4949494949494949494949494949494949494949494949494949FAFA4949FAFA4949494949494949494949494949494949494949494949494949FAFA4949FAFA4949494949494949494949494949494949494949494949494949FAFA4949FAFA49494949494949
310
49494949494949494949494949494949494949FAFA4949FAFAFAFAFAFAFAFAFAFAFAFAFAFAFAFAFAFAFAFAFAFAFAFAFAFAFAFAFAFA4949FAFAFAFAFAFAFAFAFAFAFAFAFAFAFAFAFAFAFAFAFAFAFAFAFAFAFAFAFAFA4949FAFA4949494949494949494949494949494949494949494949494949FAFA4949FAFAFAFAFAFAFAFA
310
FAFAFAFAFAFAFAFAFAFAFAFAFAFAFAFAFAFAFAFAFAFA494949494949494949494949494949494949494949494949494949494949494949494949494949494949494949494949494949494949494949494949494949494949494949494949494949494949494949494949494949494949494949494949494949494949494949
310
4949494949494949494949494949494949494949494949494949494949494949494949494949494949494949494949494949494949494949
102
{BLKREFS
331
3B99
331
467E
331
4F9F
102
}
 70
     4
280
     1
281
     0
  0
BLOCK_RECORD
  5
5176
330
1
100
AcDbSymbolTableRecord
100
AcDbBlockTableRecord
  2
*D8
340
0
 70
     0
280
     1
281
     0
  0
BLOCK_RECORD
  5
5183
330
1
100
AcDbSymbolTableRecord
100
AcDbBlockTableRecord
  2
*D9
340
0
 70
     0
280
     1
281
     0
  0
BLOCK_RECORD
  5
5226
330
1
100
AcDbSymbolTableRecord
100
AcDbBlockTableRecord
  2
*D10
340
0
 70
     0
280
     1
281
     0
  0
BLOCK_RECORD
  5
5233
330
1
100
AcDbSymbolTableRecord
100
AcDbBlockTableRecord
  2
*D11
340
0
 70
     0
280
     1
281
     0
  0
BLOCK_RECORD
  5
524F
330
1
100
AcDbSymbolTableRecord
100
AcDbBlockTableRecord
  2
*D12
340
0
 70
     0
280
     1
281
     0
  0
BLOCK_RECORD
  5
525C
330
1
100
AcDbSymbolTableRecord
100
AcDbBlockTableRecord
  2
*D13
340
0
 70
     0
280
     1
281
     0
  0
BLOCK_RECORD
  5
527F
330
1
100
AcDbSymbolTableRecord
100
AcDbBlockTableRecord
  2
*D14
340
0
 70
     0
280
     1
281
     0
  0
BLOCK_RECORD
  5
528E
330
1
100
AcDbSymbolTableRecord
100
AcDbBlockTableRecord
  2
*D15
340
0
 70
     0
280
     1
281
     0
  0
BLOCK_RECORD
  5
52AC
330
1
100
AcDbSymbolTableRecord
100
AcDbBlockTableRecord
  2
*D16
340
0
 70
     0
280
     1
281
     0
  0
BLOCK_RECORD
  5
52B9
330
1
100
AcDbSymbolTableRecord
100
AcDbBlockTableRecord
  2
*D17
340
0
 70
     0
280
     1
281
     0
  0
BLOCK_RECORD
  5
52CB
330
1
100
AcDbSymbolTableRecord
100
AcDbBlockTableRecord
  2
*D18
340
0
 70
     0
280
     1
281
     0
  0
BLOCK_RECORD
  5
5305
330
1
100
AcDbSymbolTableRecord
100
AcDbBlockTableRecord
  2
*D19
340
0
 70
     0
280
     1
281
     0
  0
BLOCK_RECORD
  5
5327
330
1
100
AcDbSymbolTableRecord
100
AcDbBlockTableRecord
  2
*D20
340
0
 70
     0
280
     1
281
     0
  0
BLOCK_RECORD
  5
5333
330
1
100
AcDbSymbolTableRecord
100
AcDbBlockTableRecord
  2
*D21
340
0
 70
     0
280
     1
281
     0
  0
BLOCK_RECORD
  5
5407
330
1
100
AcDbSymbolTableRecord
100
AcDbBlockTableRecord
  2
*D22
340
0
 70
     0
280
     1
281
     0
  0
BLOCK_RECORD
  5
5414
330
1
100
AcDbSymbolTableRecord
100
AcDbBlockTableRecord
  2
*D23
340
0
 70
     0
280
     1
281
     0
  0
BLOCK_RECORD
  5
5420
330
1
100
AcDbSymbolTableRecord
100
AcDbBlockTableRecord
  2
*D24
340
0
 70
     0
280
     1
281
     0
  0
ENDTAB
  0
ENDSEC
  0
SECTION
  2
BLOCKS
  0
BLOCK
  5
D
330
A
100
AcDbEntity
  8
0
390
1D
100
AcDbBlockBegin
  2
*MODEL_SPACE
 70
     0
 10
0.0
 20
0.0
 30
0.0
  3
*MODEL_SPACE
  1
*MODEL_SPACE
  0
ENDBLK
  5
E
330
A
100
AcDbEntity
  8
0
390
1D
100
AcDbBlockEnd
  0
BLOCK
  5
F
330
B
100
AcDbEntity
 67
     1
  8
0
390
1D
100
AcDbBlockBegin
  2
*PAPER_SPACE
 70
     0
 10
0.0
 20
0.0
 30
0.0
  3
*PAPER_SPACE
  1
*PAPER_SPACE
  0
ENDBLK
  5
10
330
B
100
AcDbEntity
 67
     1
  8
0
390
1D
100
AcDbBlockEnd
  0
BLOCK
  5
2C14
330
4E
100
AcDbEntity
  8
0
390
1D
100
AcDbBlockBegin
  2
_DOT
 70
     0
 10
0.0
 20
0.0
 30
0.0
  3
_DOT
  1
_DOT
  0
POLYLINE
  5
2C16
330
4E
100
AcDbEntity
  8
0
  6
ByBlock
 62
     0
370
    -2
390
1D
100
AcDb2dPolyline
 66
     1
 10
0.0
 20
0.0
 30
0.0
 70
     1
 40
0.5
 41
0.5
  0
VERTEX
  5
2C17
330
2C16
100
AcDbEntity
  8
0
  6
ByBlock
 62
     0
370
    -2
390
1D
100
AcDbVertex
100
AcDb2dVertex
 10
-0.25
 20
0.0
 30
0.0
 42
1.0
  0
VERTEX
  5
2C18
330
2C16
100
AcDbEntity
  8
0
  6
ByBlock
 62
     0
370
    -2
390
1D
100
AcDbVertex
100
AcDb2dVertex
 10
0.25
 20
0.0
 30
0.0
 42
1.0
  0
SEQEND
  5
2C19
330
2C16
100
AcDbEntity
  8
0
390
1D
  0
LINE
  5
2C1A
330
4E
100
AcDbEntity
  8
0
  6
ByBlock
 62
     0
370
    -2
390
1D
100
AcDbLine
 10
-0.5
 20
0.0
 30
0.0
 11
-1.0
 21
0.0
 31
0.0
  0
ENDBLK
  5
2C1B
330
4E
100
AcDbEntity
  8
0
390
1D
100
AcDbBlockEnd
  0
BLOCK
  5
3A6
330
3A5
100
AcDbEntity
  8
0
100
AcDbBlockBegin
  2
名称未設定-1
 70
     0
 10
0.0
 20
0.0
 30
0.0
  3
名称未設定-1
  1
名称未設定-1
  0
INSERT
  5
3A7
330
3A5
100
AcDbEntity
  8
レイヤー 1
100
AcDbBlockReference
  2
block 2
 10
0.0
 20
0.0
 30
0.0
  0
ENDBLK
  5
3CC
330
3A5
100
AcDbEntity
  8
0
100
AcDbBlockEnd
  0
BLOCK
  5
3A9
330
3A8
100
AcDbEntity
  8
0
100
AcDbBlockBegin
  2
block 2
 70
     0
 10
0.0
 20
0.0
 30
0.0
  3
block 2
  1
block 2
  0
INSERT
  5
3AA
330
3A8
100
AcDbEntity
  8
レイヤー 1
100
AcDbBlockReference
  2
block 3
 10
0.0
 20
0.0
 30
0.0
  0
ENDBLK
  5
3CB
330
3A8
100
AcDbEntity
  8
0
100
AcDbBlockEnd
  0
BLOCK
  5
3AC
330
3AB
100
AcDbEntity
  8
0
100
AcDbBlockBegin
  2
block 3
 70
     0
 10
0.0
 20
0.0
 30
0.0
  3
block 3
  1
block 3
  0
INSERT
  5
3AD
330
3AB
100
AcDbEntity
  8
レイヤー 1
100
AcDbBlockReference
  2
block 4
 10
0.0
 20
0.0
 30
0.0
  0
ENDBLK
  5
3CA
330
3AB
100
AcDbEntity
  8
0
100
AcDbBlockEnd
  0
BLOCK
  5
3AF
330
3AE
100
AcDbEntity
  8
0
100
AcDbBlockBegin
  2
block 4
 70
     0
 10
0.0
 20
0.0
 30
0.0
  3
block 4
  1
block 4
  0
POLYLINE
  5
3B0
330
3AE
100
AcDbEntity
  8
レイヤー 1
370
     0
100
AcDb2dPolyline
 66
     1
 10
0.0
 20
0.0
 30
0.0
  0
VERTEX
  5
3B1
330
3B0
100
AcDbEntity
  8
レイヤー 1
370
     0
100
AcDbVertex
100
AcDb2dVertex
 10
83.79545727667795
 20
167.6444858234922
 30
0.0
  0
VERTEX
  5
3B2
330
3B0
100
AcDbEntity
  8
レイヤー 1
370
     0
100
AcDbVertex
100
AcDb2dVertex
 10
83.79545727667795
 20
159.7968976406313
 30
0.0
  0
VERTEX
  5
3B3
330
3B0
100
AcDbEntity
  8
レイヤー 1
370
     0
100
AcDbVertex
100
AcDb2dVertex
 10
71.3631329975216
 20
159.7968976406313
 30
0.0
  0
VERTEX
  5
3B4
330
3B0
100
AcDbEntity
  8
レイヤー 1
370
     0
100
AcDbVertex
100
AcDb2dVertex
 10
71.3631329975216
 20
127.8027915271048
 30
0.0
  0
VERTEX
  5
3B5
330
3B0
100
AcDbEntity
  8
レイヤー 1
370
     0
100
AcDbVertex
100
AcDb2dVertex
 10
60.43011526263018
 20
127.8027915271048
 30
0.0
  0
VERTEX
  5
3B6
330
3B0
100
AcDbEntity
  8
レイヤー 1
370
     0
100
AcDbVertex
100
AcDb2dVertex
 10
60.43011526263018
 20
159.7968976406313
 30
0.0
  0
VERTEX
  5
3B7
330
3B0
100
AcDbEntity
  8
レイヤー 1
370
     0
100
AcDbVertex
100
AcDb2dVertex
 10
48.21793273020759
 20
159.7968976406313
 30
0.0
  0
VERTEX
  5
3B8
330
3B0
100
AcDbEntity
  8
レイヤー 1
370
     0
100
AcDbVertex
100
AcDb2dVertex
 10
48.21793273020759
 20
167.6444858234922
 30
0.0
  0
VERTEX
  5
3B9
330
3B0
100
AcDbEntity
  8
レイヤー 1
370
     0
100
AcDbVertex
100
AcDb2dVertex
 10
83.79545727667795
 20
167.6444858234922
 30
0.0
  0
SEQEND
  5
3BA
330
3B0
100
AcDbEntity
  8
レイヤー 1
370
     0
  0
HATCH
  5
3BB
330
3AE
100
AcDbEntity
  8
レイヤー 1
 62
   250
420
  2234388
100
AcDbHatch
 10
0.0
 20
0.0
 30
0.0
210
0.0
220
0.0
230
1.0
  2
SOLID
 70
     1
 71
     0
 91
        1
 92
        1
 93
        8
 72
     1
 10
83.79545727667795
 20
167.6444858234922
 11
83.79545727667795
 21
159.7968976406313
 72
     1
 10
83.79545727667795
 20
159.7968976406313
 11
71.3631329975216
 21
159.7968976406313
 72
     1
 10
71.3631329975216
 20
159.7968976406313
 11
71.3631329975216
 21
127.8027915271048
 72
     1
 10
71.3631329975216
 20
127.8027915271048
 11
60.43011526263018
 21
127.8027915271048
 72
     1
 10
60.43011526263018
 20
127.8027915271048
 11
60.43011526263018
 21
159.7968976406313
 72
     1
 10
60.43011526263018
 20
159.7968976406313
 11
48.21793273020759
 21
159.7968976406313
 72
     1
 10
48.21793273020759
 20
159.7968976406313
 11
48.21793273020759
 21
167.6444858234922
 72
     1
 10
48.21793273020759
 20
167.6444858234922
 11
83.79545727667795
 21
167.6444858234922
 97
        0
 75
     2
 76
     1
 98
        0
  0
INSERT
  5
3BC
330
3AE
100
AcDbEntity
  8
レイヤー 1
100
AcDbBlockReference
  2
block 5
 10
0.0
 20
0.0
 30
0.0
  0
ENDBLK
  5
3C9
330
3AE
100
AcDbEntity
  8
0
100
AcDbBlockEnd
  0
BLOCK
  5
3BE
330
3BD
100
AcDbEntity
  8
0
100
AcDbBlockBegin
  2
block 5
 70
     0
 10
0.0
 20
0.0
 30
0.0
  3
block 5
  1
block 5
  0
SPLINE
  5
3BF
330
3BD
100
AcDbEntity
  8
レイヤー 1
370
     0
100
AcDbSpline
210
0.0
220
0.0
230
1.0
 70
    11
 71
     3
 72
    56
 73
    52
 74
     0
 42
0.000000001
 43
0.0000000001
 40
0.0
 40
0.0
 40
0.0
 40
0.0
 40
1.0
 40
1.0
 40
1.0
 40
2.0
 40
2.0
 40
2.0
 40
3.0
 40
3.0
 40
3.0
 40
4.0
 40
4.0
 40
4.0
 40
5.0
 40
5.0
 40
5.0
 40
6.0
 40
6.0
 40
6.0
 40
7.0
 40
7.0
 40
7.0
 40
8.0
 40
8.0
 40
8.0
 40
9.0
 40
9.0
 40
9.0
 40
10.0
 40
10.0
 40
10.0
 40
11.0
 40
11.0
 40
11.0
 40
12.0
 40
12.0
 40
12.0
 40
13.0
 40
13.0
 40
13.0
 40
14.0
 40
14.0
 40
14.0
 40
15.0
 40
15.0
 40
15.0
 40
16.0
 40
16.0
 40
16.0
 40
17.0
 40
17.0
 40
17.0
 40
17.0
 10
100.4504378777679
 20
166.69157178364
 30
0.0
 10
101.9848844191641
 20
167.1313385124438
 30
0.0
 10
103.9637485713373
 20
166.7649523658846
 30
0.0
 10
103.9637485713373
 20
166.7649523658846
 30
0.0
 10
103.9637485713373
 20
166.7649523658846
 30
0.0
 10
103.0132460999156
 20
163.911205638077
 30
0.0
 10
103.0132460999156
 20
163.911205638077
 30
0.0
 10
103.0132460999156
 20
163.911205638077
 30
0.0
 10
101.0674548862189
 20
164.3601018759394
 30
0.0
 10
99.57090442016032
 20
163.1805004036133
 30
0.0
 10
98.40508333886608
 20
162.258247733807
 30
0.0
 10
97.65301849830304
 20
159.804132345923
 30
0.0
 10
97.3598406791005
 20
158.8699940888517
 30
0.0
 10
97.3598406791005
 20
158.8699940888517
 30
0.0
 10
96.07137411762282
 20
154.9119212747295
 30
0.0
 10
96.07137411762282
 20
154.9119212747295
 30
0.0
 10
96.07137411762282
 20
154.9119212747295
 30
0.0
 10
100.3012651448482
 20
154.9119212747295
 30
0.0
 10
100.3012651448482
 20
154.9119212747295
 30
0.0
 10
100.3012651448482
 20
154.9119212747295
 30
0.0
 10
99.64152892419852
 20
152.4199098115079
 30
0.0
 10
99.64152892419852
 20
152.4199098115079
 30
0.0
 10
99.64152892419852
 20
152.4199098115079
 30
0.0
 10
95.38097652692731
 20
152.4199098115079
 30
0.0
 10
95.38097652692731
 20
152.4199098115079
 30
0.0
 10
95.38097652692731
 20
152.4199098115079
 30
0.0
 10
87.75353009080013
 20
127.8027915271048
 30
0.0
 10
87.75353009080013
 20
127.8027915271048
 30
0.0
 10
87.75353009080013
 20
127.8027915271048
 30
0.0
 10
85.36538832498108
 20
127.8027915271048
 30
0.0
 10
85.36538832498108
 20
127.8027915271048
 30
0.0
 10
85.36538832498108
 20
127.8027915271048
 30
0.0
 10
93.00006946639998
 20
152.4199098115079
 30
0.0
 10
93.00006946639998
 20
152.4199098115079
 30
0.0
 10
93.00006946639998
 20
152.4199098115079
 30
0.0
 10
89.85297266450198
 20
152.4199098115079
 30
0.0
 10
89.85297266450198
 20
152.4199098115079
 30
0.0
 10
89.85297266450198
 20
152.4199098115079
 30
0.0
 10
90.51270888515164
 20
154.9119212747295
 30
0.0
 10
90.51270888515164
 20
154.9119212747295
 30
0.0
 10
90.51270888515164
 20
154.9119212747295
 30
0.0
 10
93.6904670570955
 20
154.9119212747295
 30
0.0
 10
93.6904670570955
 20
154.9119212747295
 30
0.0
 10
93.6904670570955
 20
154.9119212747295
 30
0.0
 10
94.81598049462158
 20
158.3616699146644
 30
0.0
 10
94.81598049462158
 20
158.3616699146644
 30
0.0
 10
95.7237637538445
 20
161.2605474231013
 30
0.0
 10
96.4968436907311
 20
162.8139420021662
 30
0.0
 10
97.15657991138076
 20
163.9844139654337
 30
0.0
 10
97.81183750494507
 20
165.1523021053827
 30
0.0
 10
99.1047826935081
 20
166.3084769129547
 30
0.0
 10
100.4504378777679
 20
166.69157178364
 30
0.0
  0
HATCH
  5
3C0
330
3BD
100
AcDbEntity
  8
レイヤー 1
 62
   250
420
  2234388
100
AcDbHatch
 10
0.0
 20
0.0
 30
0.0
210
0.0
220
0.0
230
1.0
  2
SOLID
 70
     1
 71
     0
 91
        1
 92
        1
 93
        1
 72
     4
 94
        3
 73
     0
 74
     1
 95
       56
 96
       52
 40
0.0
 40
0.0
 40
0.0
 40
0.0
 40
1.0
 40
1.0
 40
1.0
 40
2.0
 40
2.0
 40
2.0
 40
3.0
 40
3.0
 40
3.0
 40
4.0
 40
4.0
 40
4.0
 40
5.0
 40
5.0
 40
5.0
 40
6.0
 40
6.0
 40
6.0
 40
7.0
 40
7.0
 40
7.0
 40
8.0
 40
8.0
 40
8.0
 40
9.0
 40
9.0
 40
9.0
 40
10.0
 40
10.0
 40
10.0
 40
11.0
 40
11.0
 40
11.0
 40
12.0
 40
12.0
 40
12.0
 40
13.0
 40
13.0
 40
13.0
 40
14.0
 40
14.0
 40
14.0
 40
15.0
 40
15.0
 40
15.0
 40
16.0
 40
16.0
 40
16.0
 40
17.0
 40
17.0
 40
17.0
 40
17.0
 10
100.4504378777679
 20
166.69157178364
 10
101.9848844191641
 20
167.1313385124438
 10
103.9637485713373
 20
166.7649523658846
 10
103.9637485713373
 20
166.7649523658846
 10
103.9637485713373
 20
166.7649523658846
 10
103.0132460999156
 20
163.911205638077
 10
103.0132460999156
 20
163.911205638077
 10
103.0132460999156
 20
163.911205638077
 10
101.0674548862189
 20
164.3601018759394
 10
99.57090442016032
 20
163.1805004036133
 10
98.40508333886608
 20
162.258247733807
 10
97.65301849830304
 20
159.804132345923
 10
97.3598406791005
 20
158.8699940888517
 10
97.3598406791005
 20
158.8699940888517
 10
96.07137411762282
 20
154.9119212747295
 10
96.07137411762282
 20
154.9119212747295
 10
96.07137411762282
 20
154.9119212747295
 10
100.3012651448482
 20
154.9119212747295
 10
100.3012651448482
 20
154.9119212747295
 10
100.3012651448482
 20
154.9119212747295
 10
99.64152892419852
 20
152.4199098115079
 10
99.64152892419852
 20
152.4199098115079
 10
99.64152892419852
 20
152.4199098115079
 10
95.38097652692731
 20
152.4199098115079
 10
95.38097652692731
 20
152.4199098115079
 10
95.38097652692731
 20
152.4199098115079
 10
87.75353009080013
 20
127.8027915271048
 10
87.75353009080013
 20
127.8027915271048
 10
87.75353009080013
 20
127.8027915271048
 10
85.36538832498108
 20
127.8027915271048
 10
85.36538832498108
 20
127.8027915271048
 10
85.36538832498108
 20
127.8027915271048
 10
93.00006946639998
 20
152.4199098115079
 10
93.00006946639998
 20
152.4199098115079
 10
93.00006946639998
 20
152.4199098115079
 10
89.85297266450198
 20
152.4199098115079
 10
89.85297266450198
 20
152.4199098115079
 10
89.85297266450198
 20
152.4199098115079
 10
90.51270888515164
 20
154.9119212747295
 10
90.51270888515164
 20
154.9119212747295
 10
90.51270888515164
 20
154.9119212747295
 10
93.6904670570955
 20
154.9119212747295
 10
93.6904670570955
 20
154.9119212747295
 10
93.6904670570955
 20
154.9119212747295
 10
94.81598049462158
 20
158.3616699146644
 10
94.81598049462158
 20
158.3616699146644
 10
95.7237637538445
 20
161.2605474231013
 10
96.4968436907311
 20
162.8139420021662
 10
97.15657991138076
 20
163.9844139654337
 10
97.81183750494507
 20
165.1523021053827
 10
99.1047826935081
 20
166.3084769129547
 10
100.4504378777679
 20
166.69157178364
 97
        0
 75
     2
 76
     1
 98
        0
  0
SPLINE
  5
3C1
330
3BD
100
AcDbEntity
  8
レイヤー 1
370
     0
100
AcDbSpline
210
0.0
220
0.0
230
1.0
 70
    11
 71
     3
 72
    38
 73
    34
 74
     0
 42
0.000000001
 43
0.0000000001
 40
0.0
 40
0.0
 40
0.0
 40
0.0
 40
1.0
 40
1.0
 40
1.0
 40
2.0
 40
2.0
 40
2.0
 40
3.0
 40
3.0
 40
3.0
 40
4.0
 40
4.0
 40
4.0
 40
5.0
 40
5.0
 40
5.0
 40
6.0
 40
6.0
 40
6.0
 40
7.0
 40
7.0
 40
7.0
 40
8.0
 40
8.0
 40
8.0
 40
9.0
 40
9.0
 40
9.0
 40
10.0
 40
10.0
 40
10.0
 40
11.0
 40
11.0
 40
11.0
 40
11.0
 10
126.377554584636
 20
154.8151140277308
 30
0.0
 10
126.377554584636
 20
154.8151140277308
 30
0.0
 10
128.8311532078563
 20
154.8151140277308
 30
0.0
 10
128.8311532078563
 20
154.8151140277308
 30
0.0
 10
128.8311532078563
 20
154.8151140277308
 30
0.0
 10
127.7345785914971
 20
151.3062819612468
 30
0.0
 10
127.7345785914971
 20
151.3062819612468
 30
0.0
 10
128.571392836906
 20
152.2922689395754
 30
0.0
 10
129.8860421413442
 20
153.604506675583
 30
0.0
 10
131.0163787157314
 20
154.2664822097754
 30
0.0
 10
132.7044766171327
 20
155.2500576196734
 30
0.0
 10
133.6642808525008
 20
155.3847609420097
 30
0.0
 10
134.7284715499351
 20
155.3565111403944
 30
0.0
 10
134.7284715499351
 20
155.3565111403944
 30
0.0
 10
133.6877075172549
 20
152.0345756272799
 30
0.0
 10
133.6877075172549
 20
152.0345756272799
 30
0.0
 10
133.011434827367
 20
152.3184516825359
 30
0.0
 10
130.930940291334
 20
151.7768823149844
 30
0.0
 10
129.739280976855
 20
150.9162968950455
 30
0.0
 10
128.66613302525
 20
150.1454562717016
 30
0.0
 10
127.9192358313239
 20
149.4857200510519
 30
0.0
 10
127.0393578639405
 20
147.8282835196966
 30
0.0
 10
126.164647543194
 20
146.1699857139017
 30
0.0
 10
125.4742499524985
 20
143.5262176944419
 30
0.0
 10
124.2822461282437
 20
139.6959580071401
 30
0.0
 10
124.2822461282437
 20
139.6959580071401
 30
0.0
 10
120.5753209406769
 20
127.8027915271048
 30
0.0
 10
120.5753209406769
 20
127.8027915271048
 30
0.0
 10
120.5753209406769
 20
127.8027915271048
 30
0.0
 10
118.1964809388044
 20
127.8027915271048
 30
0.0
 10
118.1964809388044
 20
127.8027915271048
 30
0.0
 10
118.1964809388044
 20
127.8027915271048
 30
0.0
 10
126.377554584636
 20
154.8151140277308
 30
0.0
 10
126.377554584636
 20
154.8151140277308
 30
0.0
  0
HATCH
  5
3C2
330
3BD
100
AcDbEntity
  8
レイヤー 1
 62
   250
420
  2234388
100
AcDbHatch
 10
0.0
 20
0.0
 30
0.0
210
0.0
220
0.0
230
1.0
  2
SOLID
 70
     1
 71
     0
 91
        1
 92
        1
 93
        1
 72
     4
 94
        3
 73
     0
 74
     1
 95
       38
 96
       34
 40
0.0
 40
0.0
 40
0.0
 40
0.0
 40
1.0
 40
1.0
 40
1.0
 40
2.0
 40
2.0
 40
2.0
 40
3.0
 40
3.0
 40
3.0
 40
4.0
 40
4.0
 40
4.0
 40
5.0
 40
5.0
 40
5.0
 40
6.0
 40
6.0
 40
6.0
 40
7.0
 40
7.0
 40
7.0
 40
8.0
 40
8.0
 40
8.0
 40
9.0
 40
9.0
 40
9.0
 40
10.0
 40
10.0
 40
10.0
 40
11.0
 40
11.0
 40
11.0
 40
11.0
 10
126.377554584636
 20
154.8151140277308
 10
126.377554584636
 20
154.8151140277308
 10
128.8311532078563
 20
154.8151140277308
 10
128.8311532078563
 20
154.8151140277308
 10
128.8311532078563
 20
154.8151140277308
 10
127.7345785914971
 20
151.3062819612468
 10
127.7345785914971
 20
151.3062819612468
 10
128.571392836906
 20
152.2922689395754
 10
129.8860421413442
 20
153.604506675583
 10
131.0163787157314
 20
154.2664822097754
 10
132.7044766171327
 20
155.2500576196734
 10
133.6642808525008
 20
155.3847609420097
 10
134.7284715499351
 20
155.3565111403944
 10
134.7284715499351
 20
155.3565111403944
 10
133.6877075172549
 20
152.0345756272799
 10
133.6877075172549
 20
152.0345756272799
 10
133.011434827367
 20
152.3184516825359
 10
130.930940291334
 20
151.7768823149844
 10
129.739280976855
 20
150.9162968950455
 10
128.66613302525
 20
150.1454562717016
 10
127.9192358313239
 20
149.4857200510519
 10
127.0393578639405
 20
147.8282835196966
 10
126.164647543194
 20
146.1699857139017
 10
125.4742499524985
 20
143.5262176944419
 10
124.2822461282437
 20
139.6959580071401
 10
124.2822461282437
 20
139.6959580071401
 10
120.5753209406769
 20
127.8027915271048
 10
120.5753209406769
 20
127.8027915271048
 10
120.5753209406769
 20
127.8027915271048
 10
118.1964809388044
 20
127.8027915271048
 10
118.1964809388044
 20
127.8027915271048
 10
118.1964809388044
 20
127.8027915271048
 10
126.377554584636
 20
154.8151140277308
 10
126.377554584636
 20
154.8151140277308
 97
        0
 75
     2
 76
     1
 98
        0
  0
SPLINE
  5
3C3
330
3BD
100
AcDbEntity
  8
レイヤー 1
370
     0
100
AcDbSpline
210
0.0
220
0.0
230
1.0
 70
    11
 71
     3
 72
   104
 73
   100
 74
     0
 42
0.000000001
 43
0.0000000001
 40
0.0
 40
0.0
 40
0.0
 40
0.0
 40
1.0
 40
1.0
 40
1.0
 40
2.0
 40
2.0
 40
2.0
 40
3.0
 40
3.0
 40
3.0
 40
4.0
 40
4.0
 40
4.0
 40
5.0
 40
5.0
 40
5.0
 40
6.0
 40
6.0
 40
6.0
 40
7.0
 40
7.0
 40
7.0
 40
8.0
 40
8.0
 40
8.0
 40
9.0
 40
9.0
 40
9.0
 40
10.0
 40
10.0
 40
10.0
 40
11.0
 40
11.0
 40
11.0
 40
12.0
 40
12.0
 40
12.0
 40
13.0
 40
13.0
 40
13.0
 40
14.0
 40
14.0
 40
14.0
 40
15.0
 40
15.0
 40
15.0
 40
16.0
 40
16.0
 40
16.0
 40
17.0
 40
17.0
 40
17.0
 40
18.0
 40
18.0
 40
18.0
 40
19.0
 40
19.0
 40
19.0
 40
20.0
 40
20.0
 40
20.0
 40
21.0
 40
21.0
 40
21.0
 40
22.0
 40
22.0
 40
22.0
 40
23.0
 40
23.0
 40
23.0
 40
24.0
 40
24.0
 40
24.0
 40
25.0
 40
25.0
 40
25.0
 40
26.0
 40
26.0
 40
26.0
 40
27.0
 40
27.0
 40
27.0
 40
28.0
 40
28.0
 40
28.0
 40
29.0
 40
29.0
 40
29.0
 40
30.0
 40
30.0
 40
30.0
 40
31.0
 40
31.0
 40
31.0
 40
32.0
 40
32.0
 40
32.0
 40
33.0
 40
33.0
 40
33.0
 40
33.0
 10
139.8926730891197
 20
154.8294111834263
 30
0.0
 10
139.8926730891197
 20
154.8294111834263
 30
0.0
 10
142.0344903652445
 20
154.8294111834263
 30
0.0
 10
142.0344903652445
 20
154.8294111834263
 30
0.0
 10
142.0344903652445
 20
154.8294111834263
 30
0.0
 10
140.9516961399171
 20
151.3157559800812
 30
0.0
 10
140.9516961399171
 20
151.3157559800812
 30
0.0
 10
141.8928968473923
 20
152.7887075264977
 30
0.0
 10
142.7341897198865
 20
153.4484437471474
 30
0.0
 10
143.8552245303272
 20
154.2926649527359
 30
0.0
 10
144.9803934580775
 20
155.1296514530327
 30
0.0
 10
146.3139908001845
 20
155.3044901642492
 30
0.0
 10
147.241066606852
 20
155.3044901642492
 30
0.0
 10
148.3855280820469
 20
155.3044901642492
 30
0.0
 10
149.4969166187653
 20
155.0752189084569
 30
0.0
 10
150.0784491203092
 20
153.8172414621372
 30
0.0
 10
150.5228667310863
 20
152.833838307127
 30
0.0
 10
150.5414702589793
 20
152.7201500811143
 30
0.0
 10
150.4140016419347
 20
150.7765981809602
 30
0.0
 10
151.5818897818837
 20
152.7699317437168
 30
0.0
 10
152.4424752018226
 20
153.6256940267945
 30
0.0
 10
153.9038856707499
 20
154.4507949398263
 30
0.0
 10
155.4455669174378
 20
155.3044901642492
 30
0.0
 10
156.339225275853
 20
155.3659851592288
 30
0.0
 10
157.3748216618963
 20
155.2147453676543
 30
0.0
 10
158.911679771723
 20
154.9877134254046
 30
0.0
 10
159.8859534176746
 20
154.4390816074493
 30
0.0
 10
160.3965169054045
 20
152.7816450760939
 30
0.0
 10
160.9070803931344
 20
151.1219692311958
 30
0.0
 10
160.6328506116007
 20
150.2303779314354
 30
0.0
 10
159.9992971339115
 20
147.597634224801
 30
0.0
 10
159.7105979417943
 20
146.4014962832367
 30
0.0
 10
159.2947746424084
 20
144.9400858143094
 30
0.0
 10
158.7463150793409
 20
143.2092687007094
 30
0.0
 10
158.7463150793409
 20
143.2092687007094
 30
0.0
 10
153.9038856707499
 20
127.8027915271048
 30
0.0
 10
153.9038856707499
 20
127.8027915271048
 30
0.0
 10
153.9038856707499
 20
127.8027915271048
 30
0.0
 10
151.3882752878863
 20
127.8027915271048
 30
0.0
 10
151.3882752878863
 20
127.8027915271048
 30
0.0
 10
151.3882752878863
 20
127.8027915271048
 30
0.0
 10
155.6250565106276
 20
141.2751908193897
 30
0.0
 10
155.6250565106276
 20
141.2751908193897
 30
0.0
 10
156.5094131050963
 20
144.0936252951782
 30
0.0
 10
157.109893644309
 20
146.1506931664571
 30
0.0
 10
157.4220195011804
 20
147.4415712963654
 30
0.0
 10
157.8095929989511
 20
149.0530157726519
 30
0.0
 10
157.9656559273867
 20
149.5826995529385
 30
0.0
 10
157.7816877071116
 20
150.7529992613181
 30
0.0
 10
157.6111553680925
 20
151.8430281919372
 30
0.0
 10
157.0582171779396
 20
152.5547853887321
 30
0.0
 10
156.1170164704645
 20
152.5547853887321
 30
0.0
 10
155.1096698860365
 20
152.5547853887321
 30
0.0
 10
154.2962823053817
 20
152.4412694176073
 30
0.0
 10
153.156643967048
 20
151.2945686288697
 30
0.0
 10
152.0170056287143
 20
150.1476955852443
 30
0.0
 10
151.076149431015
 20
148.7930831468137
 30
0.0
 10
150.3337308641742
 20
147.2290087646991
 30
0.0
 10
149.5957909244188
 20
145.6683794803425
 30
0.0
 10
148.8530278478023
 20
143.6822806228776
 30
0.0
 10
148.0964843801539
 20
141.2751908193897
 30
0.0
 10
148.0964843801539
 20
141.2751908193897
 30
0.0
 10
143.8552245303272
 20
127.8027915271048
 30
0.0
 10
143.8552245303272
 20
127.8027915271048
 30
0.0
 10
143.8552245303272
 20
127.8027915271048
 30
0.0
 10
141.486030802177
 20
127.8027915271048
 30
0.0
 10
141.486030802177
 20
127.8027915271048
 30
0.0
 10
141.486030802177
 20
127.8027915271048
 30
0.0
 10
146.3329388378533
 20
143.2092687007094
 30
0.0
 10
146.3329388378533
 20
143.2092687007094
 30
0.0
 10
146.8483254624444
 20
144.8408669988801
 30
0.0
 10
147.2314203331297
 20
146.1837661049335
 30
0.0
 10
147.4867020769946
 20
147.224185627838
 30
0.0
 10
147.9169947869641
 20
149.0197705792876
 30
0.0
 10
148.0306830129768
 20
150.2400242051577
 30
0.0
 10
147.709255392159
 20
151.3157559800812
 30
0.0
 10
147.3874832615654
 20
152.3916600098926
 30
0.0
 10
146.8245542879144
 20
152.6683013598569
 30
0.0
 10
145.8840425999909
 20
152.6683013598569
 30
0.0
 10
145.0989048209514
 20
152.6683013598569
 30
0.0
 10
144.3282364524954
 20
152.3275811915945
 30
0.0
 10
143.4531816219731
 20
151.6538923250251
 30
0.0
 10
142.34627171234
 20
150.8074318058939
 30
0.0
 10
141.901854101563
 20
150.1097995099067
 30
0.0
 10
141.3578731655808
 20
149.289521733736
 30
0.0
 10
140.6299240093235
 20
148.192602607601
 30
0.0
 10
140.2850697237515
 20
147.455696197173
 30
0.0
 10
139.6652966370942
 20
145.8385673095858
 30
0.0
 10
139.0506911970739
 20
144.2214384219986
 30
0.0
 10
138.463991048893
 20
142.3252566160164
 30
0.0
 10
138.0571250036777
 20
141.0154304484394
 30
0.0
 10
138.0571250036777
 20
141.0154304484394
 30
0.0
 10
133.9009590684727
 20
127.8027915271048
 30
0.0
 10
133.9009590684727
 20
127.8027915271048
 30
0.0
 10
133.9009590684727
 20
127.8027915271048
 30
0.0
 10
131.4180771143097
 20
127.8027915271048
 30
0.0
 10
131.4180771143097
 20
127.8027915271048
 30
0.0
 10
131.4180771143097
 20
127.8027915271048
 30
0.0
 10
139.8926730891197
 20
154.8294111834263
 30
0.0
 10
139.8926730891197
 20
154.8294111834263
 30
0.0
  0
HATCH
  5
3C4
330
3BD
100
AcDbEntity
  8
レイヤー 1
 62
   250
420
  2234388
100
AcDbHatch
 10
0.0
 20
0.0
 30
0.0
210
0.0
220
0.0
230
1.0
  2
SOLID
 70
     1
 71
     0
 91
        1
 92
        1
 93
        1
 72
     4
 94
        3
 73
     0
 74
     1
 95
      104
 96
      100
 40
0.0
 40
0.0
 40
0.0
 40
0.0
 40
1.0
 40
1.0
 40
1.0
 40
2.0
 40
2.0
 40
2.0
 40
3.0
 40
3.0
 40
3.0
 40
4.0
 40
4.0
 40
4.0
 40
5.0
 40
5.0
 40
5.0
 40
6.0
 40
6.0
 40
6.0
 40
7.0
 40
7.0
 40
7.0
 40
8.0
 40
8.0
 40
8.0
 40
9.0
 40
9.0
 40
9.0
 40
10.0
 40
10.0
 40
10.0
 40
11.0
 40
11.0
 40
11.0
 40
12.0
 40
12.0
 40
12.0
 40
13.0
 40
13.0
 40
13.0
 40
14.0
 40
14.0
 40
14.0
 40
15.0
 40
15.0
 40
15.0
 40
16.0
 40
16.0
 40
16.0
 40
17.0
 40
17.0
 40
17.0
 40
18.0
 40
18.0
 40
18.0
 40
19.0
 40
19.0
 40
19.0
 40
20.0
 40
20.0
 40
20.0
 40
21.0
 40
21.0
 40
21.0
 40
22.0
 40
22.0
 40
22.0
 40
23.0
 40
23.0
 40
23.0
 40
24.0
 40
24.0
 40
24.0
 40
25.0
 40
25.0
 40
25.0
 40
26.0
 40
26.0
 40
26.0
 40
27.0
 40
27.0
 40
27.0
 40
28.0
 40
28.0
 40
28.0
 40
29.0
 40
29.0
 40
29.0
 40
30.0
 40
30.0
 40
30.0
 40
31.0
 40
31.0
 40
31.0
 40
32.0
 40
32.0
 40
32.0
 40
33.0
 40
33.0
 40
33.0
 40
33.0
 10
139.8926730891197
 20
154.8294111834263
 10
139.8926730891197
 20
154.8294111834263
 10
142.0344903652445
 20
154.8294111834263
 10
142.0344903652445
 20
154.8294111834263
 10
142.0344903652445
 20
154.8294111834263
 10
140.9516961399171
 20
151.3157559800812
 10
140.9516961399171
 20
151.3157559800812
 10
141.8928968473923
 20
152.7887075264977
 10
142.7341897198865
 20
153.4484437471474
 10
143.8552245303272
 20
154.2926649527359
 10
144.9803934580775
 20
155.1296514530327
 10
146.3139908001845
 20
155.3044901642492
 10
147.241066606852
 20
155.3044901642492
 10
148.3855280820469
 20
155.3044901642492
 10
149.4969166187653
 20
155.0752189084569
 10
150.0784491203092
 20
153.8172414621372
 10
150.5228667310863
 20
152.833838307127
 10
150.5414702589793
 20
152.7201500811143
 10
150.4140016419347
 20
150.7765981809602
 10
151.5818897818837
 20
152.7699317437168
 10
152.4424752018226
 20
153.6256940267945
 10
153.9038856707499
 20
154.4507949398263
 10
155.4455669174378
 20
155.3044901642492
 10
156.339225275853
 20
155.3659851592288
 10
157.3748216618963
 20
155.2147453676543
 10
158.911679771723
 20
154.9877134254046
 10
159.8859534176746
 20
154.4390816074493
 10
160.3965169054045
 20
152.7816450760939
 10
160.9070803931344
 20
151.1219692311958
 10
160.6328506116007
 20
150.2303779314354
 10
159.9992971339115
 20
147.597634224801
 10
159.7105979417943
 20
146.4014962832367
 10
159.2947746424084
 20
144.9400858143094
 10
158.7463150793409
 20
143.2092687007094
 10
158.7463150793409
 20
143.2092687007094
 10
153.9038856707499
 20
127.8027915271048
 10
153.9038856707499
 20
127.8027915271048
 10
153.9038856707499
 20
127.8027915271048
 10
151.3882752878863
 20
127.8027915271048
 10
151.3882752878863
 20
127.8027915271048
 10
151.3882752878863
 20
127.8027915271048
 10
155.6250565106276
 20
141.2751908193897
 10
155.6250565106276
 20
141.2751908193897
 10
156.5094131050963
 20
144.0936252951782
 10
157.109893644309
 20
146.1506931664571
 10
157.4220195011804
 20
147.4415712963654
 10
157.8095929989511
 20
149.0530157726519
 10
157.9656559273867
 20
149.5826995529385
 10
157.7816877071116
 20
150.7529992613181
 10
157.6111553680925
 20
151.8430281919372
 10
157.0582171779396
 20
152.5547853887321
 10
156.1170164704645
 20
152.5547853887321
 10
155.1096698860365
 20
152.5547853887321
 10
154.2962823053817
 20
152.4412694176073
 10
153.156643967048
 20
151.2945686288697
 10
152.0170056287143
 20
150.1476955852443
 10
151.076149431015
 20
148.7930831468137
 10
150.3337308641742
 20
147.2290087646991
 10
149.5957909244188
 20
145.6683794803425
 10
148.8530278478023
 20
143.6822806228776
 10
148.0964843801539
 20
141.2751908193897
 10
148.0964843801539
 20
141.2751908193897
 10
143.8552245303272
 20
127.8027915271048
 10
143.8552245303272
 20
127.8027915271048
 10
143.8552245303272
 20
127.8027915271048
 10
141.486030802177
 20
127.8027915271048
 10
141.486030802177
 20
127.8027915271048
 10
141.486030802177
 20
127.8027915271048
 10
146.3329388378533
 20
143.2092687007094
 10
146.3329388378533
 20
143.2092687007094
 10
146.8483254624444
 20
144.8408669988801
 10
147.2314203331297
 20
146.1837661049335
 10
147.4867020769946
 20
147.224185627838
 10
147.9169947869641
 20
149.0197705792876
 10
148.0306830129768
 20
150.2400242051577
 10
147.709255392159
 20
151.3157559800812
 10
147.3874832615654
 20
152.3916600098926
 10
146.8245542879144
 20
152.6683013598569
 10
145.8840425999909
 20
152.6683013598569
 10
145.0989048209514
 20
152.6683013598569
 10
144.3282364524954
 20
152.3275811915945
 10
143.4531816219731
 20
151.6538923250251
 10
142.34627171234
 20
150.8074318058939
 10
141.901854101563
 20
150.1097995099067
 10
141.3578731655808
 20
149.289521733736
 10
140.6299240093235
 20
148.192602607601
 10
140.2850697237515
 20
147.455696197173
 10
139.6652966370942
 20
145.8385673095858
 10
139.0506911970739
 20
144.2214384219986
 10
138.463991048893
 20
142.3252566160164
 10
138.0571250036777
 20
141.0154304484394
 10
138.0571250036777
 20
141.0154304484394
 10
133.9009590684727
 20
127.8027915271048
 10
133.9009590684727
 20
127.8027915271048
 10
133.9009590684727
 20
127.8027915271048
 10
131.4180771143097
 20
127.8027915271048
 10
131.4180771143097
 20
127.8027915271048
 10
131.4180771143097
 20
127.8027915271048
 10
139.8926730891197
 20
154.8294111834263
 10
139.8926730891197
 20
154.8294111834263
 97
        0
 75
     2
 76
     1
 98
        0
  0
SPLINE
  5
3C5
330
3BD
100
AcDbEntity
  8
レイヤー 1
370
     0
100
AcDbSpline
210
0.0
220
0.0
230
1.0
 70
    11
 71
     3
 72
    29
 73
    25
 74
     0
 42
0.000000001
 43
0.0000000001
 40
0.0
 40
0.0
 40
0.0
 40
0.0
 40
1.0
 40
1.0
 40
1.0
 40
2.0
 40
2.0
 40
2.0
 40
3.0
 40
3.0
 40
3.0
 40
4.0
 40
4.0
 40
4.0
 40
5.0
 40
5.0
 40
5.0
 40
6.0
 40
6.0
 40
6.0
 40
7.0
 40
7.0
 40
7.0
 40
8.0
 40
8.0
 40
8.0
 40
8.0
 10
101.6420971922469
 20
132.8388354296931
 30
0.0
 10
101.630039350094
 20
134.7164137077823
 30
0.0
 10
102.2236296937908
 20
138.0598810818841
 30
0.0
 10
103.7487744712405
 20
142.5378191476827
 30
0.0
 10
105.819967243327
 20
148.5896501242061
 30
0.0
 10
107.0602024361932
 20
150.8074318058939
 30
0.0
 10
108.1522984254671
 20
151.8833358357054
 30
0.0
 10
109.741177511439
 20
153.4532668840085
 30
0.0
 10
111.8740375333931
 20
153.5290590346837
 30
0.0
 10
112.5075910110823
 20
153.4532668840085
 30
0.0
 10
113.4012493694975
 20
153.3490526768302
 30
0.0
 10
114.6683563248758
 20
152.7580461564518
 30
0.0
 10
114.7493161221879
 20
150.7838328862519
 30
0.0
 10
114.8106388622796
 20
149.0909118479895
 30
0.0
 10
114.3186789024427
 20
145.9191825971221
 30
0.0
 10
112.6164561002338
 20
140.9489400617108
 30
0.0
 10
110.6444821435766
 20
135.1746117095912
 30
0.0
 10
109.4669477299053
 20
132.8960240524753
 30
0.0
 10
108.5212683953448
 20
131.9072809959403
 30
0.0
 10
106.7346406980658
 20
130.0538184021569
 30
0.0
 10
104.8222669326213
 20
130.2336525051225
 30
0.0
 10
104.5408024457958
 20
130.2336525051225
 30
0.0
 10
104.1721769856939
 20
130.2336525051225
 30
0.0
 10
101.6465758193322
 20
130.6305277668397
 30
0.0
 10
101.6420971922469
 20
132.8388354296931
 30
0.0
  0
SPLINE
  5
3C6
330
3BD
100
AcDbEntity
  8
レイヤー 1
370
     0
100
AcDbSpline
210
0.0
220
0.0
230
1.0
 70
    11
 71
     3
 72
    32
 73
    28
 74
     0
 42
0.000000001
 43
0.0000000001
 40
0.0
 40
0.0
 40
0.0
 40
0.0
 40
1.0
 40
1.0
 40
1.0
 40
2.0
 40
2.0
 40
2.0
 40
3.0
 40
3.0
 40
3.0
 40
4.0
 40
4.0
 40
4.0
 40
5.0
 40
5.0
 40
5.0
 40
6.0
 40
6.0
 40
6.0
 40
7.0
 40
7.0
 40
7.0
 40
8.0
 40
8.0
 40
8.0
 40
9.0
 40
9.0
 40
9.0
 40
9.0
 10
106.2595617172429
 20
153.4105476718098
 30
0.0
 10
104.8222669326213
 20
151.5474388043041
 30
0.0
 10
103.7177685914188
 20
149.8758773721411
 30
0.0
 10
101.9232171692965
 20
144.6141795664062
 30
0.0
 10
100.2754269116635
 20
139.7999999594306
 30
0.0
 10
99.22777268346732
 20
136.3052927937542
 30
0.0
 10
99.06964269637689
 20
132.039572749846
 30
0.0
 10
98.94665270641765
 20
128.8673267343149
 30
0.0
 10
100.8807305877373
 20
127.8027915271048
 30
0.0
 10
103.7129454545577
 20
127.8027915271048
 30
0.0
 10
104.9352661390825
 20
127.8027915271048
 30
0.0
 10
108.0151835347002
 20
127.8827177950895
 30
0.0
 10
110.2045431598849
 20
130.5926316915021
 30
0.0
 10
111.7417457794874
 20
132.4984597712065
 30
0.0
 10
113.155269389579
 20
134.475256864725
 30
0.0
 10
115.0562743324223
 20
140.9489400617108
 30
0.0
 10
116.6361961642235
 20
146.3680788349845
 30
0.0
 10
117.7282921534974
 20
149.8639917848761
 30
0.0
 10
117.6480213757369
 20
151.8595646611754
 30
0.0
 10
117.6480213757369
 20
151.8595646611754
 30
0.0
 10
117.6480213757369
 20
151.8595646611754
 30
0.0
 10
117.6480213757369
 20
151.8595646611754
 30
0.0
 10
117.13229024137
 20
155.18150017429
 30
0.0
 10
114.7162431837115
 20
155.886194920681
 30
0.0
 10
113.3351034925446
 20
155.886194920681
 30
0.0
 10
111.9829026225447
 20
155.886194920681
 30
0.0
 10
108.3414342923792
 20
156.1251124501957
 30
0.0
 10
106.2595617172429
 20
153.4105476718098
 30
0.0
  0
HATCH
  5
3C7
330
3BD
100
AcDbEntity
  8
レイヤー 1
 62
   250
420
  2234388
100
AcDbHatch
 10
0.0
 20
0.0
 30
0.0
210
0.0
220
0.0
230
1.0
  2
SOLID
 70
     1
 71
     0
 91
        2
 92
        1
 93
        1
 72
     4
 94
        3
 73
     0
 74
     1
 95
       29
 96
       25
 40
0.0
 40
0.0
 40
0.0
 40
0.0
 40
1.0
 40
1.0
 40
1.0
 40
2.0
 40
2.0
 40
2.0
 40
3.0
 40
3.0
 40
3.0
 40
4.0
 40
4.0
 40
4.0
 40
5.0
 40
5.0
 40
5.0
 40
6.0
 40
6.0
 40
6.0
 40
7.0
 40
7.0
 40
7.0
 40
8.0
 40
8.0
 40
8.0
 40
8.0
 10
101.6420971922469
 20
132.8388354296931
 10
101.630039350094
 20
134.7164137077823
 10
102.2236296937908
 20
138.0598810818841
 10
103.7487744712405
 20
142.5378191476827
 10
105.819967243327
 20
148.5896501242061
 10
107.0602024361932
 20
150.8074318058939
 10
108.1522984254671
 20
151.8833358357054
 10
109.741177511439
 20
153.4532668840085
 10
111.8740375333931
 20
153.5290590346837
 10
112.5075910110823
 20
153.4532668840085
 10
113.4012493694975
 20
153.3490526768302
 10
114.6683563248758
 20
152.7580461564518
 10
114.7493161221879
 20
150.7838328862519
 10
114.8106388622796
 20
149.0909118479895
 10
114.3186789024427
 20
145.9191825971221
 10
112.6164561002338
 20
140.9489400617108
 10
110.6444821435766
 20
135.1746117095912
 10
109.4669477299053
 20
132.8960240524753
 10
108.5212683953448
 20
131.9072809959403
 10
106.7346406980658
 20
130.0538184021569
 10
104.8222669326213
 20
130.2336525051225
 10
104.5408024457958
 20
130.2336525051225
 10
104.1721769856939
 20
130.2336525051225
 10
101.6465758193322
 20
130.6305277668397
 10
101.6420971922469
 20
132.8388354296931
 97
        0
 92
        1
 93
        1
 72
     4
 94
        3
 73
     0
 74
     1
 95
       32
 96
       28
 40
0.0
 40
0.0
 40
0.0
 40
0.0
 40
1.0
 40
1.0
 40
1.0
 40
2.0
 40
2.0
 40
2.0
 40
3.0
 40
3.0
 40
3.0
 40
4.0
 40
4.0
 40
4.0
 40
5.0
 40
5.0
 40
5.0
 40
6.0
 40
6.0
 40
6.0
 40
7.0
 40
7.0
 40
7.0
 40
8.0
 40
8.0
 40
8.0
 40
9.0
 40
9.0
 40
9.0
 40
9.0
 10
106.2595617172429
 20
153.4105476718098
 10
104.8222669326213
 20
151.5474388043041
 10
103.7177685914188
 20
149.8758773721411
 10
101.9232171692965
 20
144.6141795664062
 10
100.2754269116635
 20
139.7999999594306
 10
99.22777268346732
 20
136.3052927937542
 10
99.06964269637689
 20
132.039572749846
 10
98.94665270641765
 20
128.8673267343149
 10
100.8807305877373
 20
127.8027915271048
 10
103.7129454545577
 20
127.8027915271048
 10
104.9352661390825
 20
127.8027915271048
 10
108.0151835347002
 20
127.8827177950895
 10
110.2045431598849
 20
130.5926316915021
 10
111.7417457794874
 20
132.4984597712065
 10
113.155269389579
 20
134.475256864725
 10
115.0562743324223
 20
140.9489400617108
 10
116.6361961642235
 20
146.3680788349845
 10
117.7282921534974
 20
149.8639917848761
 10
117.6480213757369
 20
151.8595646611754
 10
117.6480213757369
 20
151.8595646611754
 10
117.6480213757369
 20
151.8595646611754
 10
117.6480213757369
 20
151.8595646611754
 10
117.13229024137
 20
155.18150017429
 10
114.7162431837115
 20
155.886194920681
 10
113.3351034925446
 20
155.886194920681
 10
111.9829026225447
 20
155.886194920681
 10
108.3414342923792
 20
156.1251124501957
 10
106.2595617172429
 20
153.4105476718098
 97
        0
 75
     2
 76
     1
 98
        0
  0
ENDBLK
  5
3C8
330
3BD
100
AcDbEntity
  8
0
100
AcDbBlockEnd
  0
BLOCK
  5
11F1
330
11F0
100
AcDbEntity
  8
0
100
AcDbBlockBegin
  2
BLOCK_2
 70
     0
 10
0.0
 20
0.0
 30
0.0
  3
BLOCK_2
  1
BLOCK_2
  0
ENDBLK
  5
11F2
330
11F0
100
AcDbEntity
  8
0
100
AcDbBlockEnd
  0
BLOCK
  5
38B7
330
38B6
100
AcDbEntity
  8
0
100
AcDbBlockBegin
  2
mobile_latù
 70
     0
 10
0.0
 20
0.0
 30
0.0
  3
mobile_latù
  1
mobile_latù
  0
ENDBLK
  5
38B8
330
38B6
100
AcDbEntity
  8
0
100
AcDbBlockEnd
  0
BLOCK
  5
5177
330
5176
100
AcDbEntity
  8
0
100
AcDbBlockBegin
  2
*D8
 70
     1
 10
0.0
 20
0.0
 30
0.0
  3
*D8
  1
*D164
  0
LINE
  5
5179
330
5176
100
AcDbEntity
  8
Dim
 62
     0
370
    -2
100
AcDbLine
 10
427.2876887003918
 20
1185.721244668734
 30
0.0
 11
348.7892901393502
 21
1185.721244668734
 31
0.0
  0
LINE
  5
517A
330
5176
100
AcDbEntity
  8
Dim
 62
     0
370
    -2
100
AcDbLine
 10
427.2876887003918
 20
1085.721244668733
 30
0.0
 11
348.7892901393502
 21
1085.721244668733
 31
0.0
  0
LINE
  5
517B
330
5176
100
AcDbEntity
  8
Dim
 62
     0
370
    -2
100
AcDbLine
 10
348.7892901393502
 20
1175.721855020296
 30
0.0
 11
348.7892901393502
 21
1095.720634317171
 31
0.0
  0
INSERT
  5
517C
330
5176
100
AcDbEntity
  8
Dim
 62
     0
370
    -2
100
AcDbBlockReference
  2
_DOT
 10
348.7892901393502
 20
1185.721244668734
 30
0.0
 41
9.999389648437498
 42
9.999389648437498
 43
9.999389648437498
 50
90.0
  0
INSERT
  5
517D
330
5176
100
AcDbEntity
  8
Dim
 62
     0
370
    -2
100
AcDbBlockReference
  2
_DOT
 10
348.7892901393502
 20
1085.721244668733
 30
0.0
 41
9.999389648437498
 42
9.999389648437498
 43
9.999389648437498
 50
270.0
  0
MTEXT
  5
517E
330
5176
100
AcDbEntity
  8
Dim
 62
     0
100
AcDbMText
 10
326.5729815456002
 20
1135.721244668734
 30
0.0
 40
24.4326171875
 41
0.0
 46
0.0
 71
     5
 72
     1
  1
\A1;100
  7
ＭＳ ゴシック
 11
0.0
 21
1.0
 31
0.0
 73
     1
 44
1.0
  0
POINT
  5
517F
330
5176
100
AcDbEntity
  8
Defpoints
 62
     0
100
AcDbPoint
 10
452.2876887003918
 20
1185.721244668734
 30
0.0
  0
POINT
  5
5180
330
5176
100
AcDbEntity
  8
Defpoints
 62
     0
100
AcDbPoint
 10
452.2876887003918
 20
1085.721244668733
 30
0.0
  0
POINT
  5
5181
330
5176
100
AcDbEntity
  8
Defpoints
 62
     0
100
AcDbPoint
 10
348.7892901393502
 20
1085.721244668733
 30
0.0
  0
ENDBLK
  5
5178
330
5176
100
AcDbEntity
  8
0
100
AcDbBlockEnd
  0
BLOCK
  5
5184
330
5183
100
AcDbEntity
  8
0
100
AcDbBlockBegin
  2
*D9
 70
     1
 10
0.0
 20
0.0
 30
0.0
  3
*D9
  1
*D165
  0
LINE
  5
5186
330
5183
100
AcDbEntity
  8
Dim
 62
     0
370
    -2
100
AcDbLine
 10
427.2876887003918
 20
1185.721244668734
 30
0.0
 11
348.7892901393502
 21
1185.721244668734
 31
0.0
  0
LINE
  5
5187
330
5183
100
AcDbEntity
  8
Dim
 62
     0
370
    -2
100
AcDbLine
 10
427.2876887003918
 20
1285.721244668734
 30
0.0
 11
348.7892901393502
 21
1285.721244668734
 31
0.0
  0
LINE
  5
5188
330
5183
100
AcDbEntity
  8
Dim
 62
     0
370
    -2
100
AcDbLine
 10
348.7892901393502
 20
1195.720634317171
 30
0.0
 11
348.7892901393502
 21
1275.721855020296
 31
0.0
  0
INSERT
  5
5189
330
5183
100
AcDbEntity
  8
Dim
 62
     0
370
    -2
100
AcDbBlockReference
  2
_DOT
 10
348.7892901393502
 20
1185.721244668734
 30
0.0
 41
9.999389648437498
 42
9.999389648437498
 43
9.999389648437498
 50
269.9999999999999
  0
INSERT
  5
518A
330
5183
100
AcDbEntity
  8
Dim
 62
     0
370
    -2
100
AcDbBlockReference
  2
_DOT
 10
348.7892901393502
 20
1285.721244668734
 30
0.0
 41
9.999389648437498
 42
9.999389648437498
 43
9.999389648437498
 50
89.99999999999996
  0
MTEXT
  5
518B
330
5183
100
AcDbEntity
  8
Dim
 62
     0
100
AcDbMText
 10
326.5729815456002
 20
1235.721244668734
 30
0.0
 40
24.4326171875
 41
0.0
 46
0.0
 71
     5
 72
     1
  1
\A1;100
  7
ＭＳ ゴシック
 11
5.684341886080802E-16
 21
1.0
 31
0.0
 73
     1
 44
1.0
  0
POINT
  5
518C
330
5183
100
AcDbEntity
  8
Defpoints
 62
     0
100
AcDbPoint
 10
452.2876887003918
 20
1185.721244668734
 30
0.0
  0
POINT
  5
518D
330
5183
100
AcDbEntity
  8
Defpoints
 62
     0
100
AcDbPoint
 10
452.2876887003918
 20
1285.721244668734
 30
0.0
  0
POINT
  5
518E
330
5183
100
AcDbEntity
  8
Defpoints
 62
     0
100
AcDbPoint
 10
348.7892901393502
 20
1285.721244668734
 30
0.0
  0
ENDBLK
  5
5185
330
5183
100
AcDbEntity
  8
0
100
AcDbBlockEnd
  0
BLOCK
  5
5227
330
5226
100
AcDbEntity
  8
0
100
AcDbBlockBegin
  2
*D10
 70
     1
 10
0.0
 20
0.0
 30
0.0
  3
*D10
  1
*D177
  0
LINE
  5
5229
330
5226
100
AcDbEntity
  8
Dim
 62
     0
370
    -2
100
AcDbLine
 10
1578.135228799921
 20
1045.68257161013
 30
0.0
 11
1509.438700749674
 21
1045.68257161013
 31
0.0
  0
LINE
  5
522A
330
5226
100
AcDbEntity
  8
Dim
 62
     0
370
    -2
100
AcDbLine
 10
1578.135228799921
 20
1325.68257161013
 30
0.0
 11
1509.438700749674
 21
1325.68257161013
 31
0.0
  0
LINE
  5
522B
330
5226
100
AcDbEntity
  8
Dim
 62
     0
370
    -2
100
AcDbLine
 10
1509.438700749674
 20
1055.681961258568
 30
0.0
 11
1509.438700749674
 21
1315.683181961693
 31
0.0
  0
INSERT
  5
522C
330
5226
100
AcDbEntity
  8
Dim
 62
     0
370
    -2
100
AcDbBlockReference
  2
_DOT
 10
1509.438700749674
 20
1045.68257161013
 30
0.0
 41
9.999389648437498
 42
9.999389648437498
 43
9.999389648437498
 50
270.0
  0
INSERT
  5
522D
330
5226
100
AcDbEntity
  8
Dim
 62
     0
370
    -2
100
AcDbBlockReference
  2
_DOT
 10
1509.438700749674
 20
1325.68257161013
 30
0.0
 41
9.999389648437498
 42
9.999389648437498
 43
9.999389648437498
 50
90.0
  0
MTEXT
  5
522E
330
5226
100
AcDbEntity
  8
Dim
 62
     0
100
AcDbMText
 10
1487.222392155924
 20
1185.68257161013
 30
0.0
 40
24.4326171875
 41
0.0
 46
0.0
 71
     5
 72
     1
  1
\A1;280
  7
ＭＳ ゴシック
 11
0.0
 21
1.0
 31
0.0
 73
     1
 44
1.0
  0
POINT
  5
522F
330
5226
100
AcDbEntity
  8
Defpoints
 62
     0
100
AcDbPoint
 10
1603.135228799921
 20
1045.68257161013
 30
0.0
  0
POINT
  5
5230
330
5226
100
AcDbEntity
  8
Defpoints
 62
     0
100
AcDbPoint
 10
1603.135228799921
 20
1325.68257161013
 30
0.0
  0
POINT
  5
5231
330
5226
100
AcDbEntity
  8
Defpoints
 62
     0
100
AcDbPoint
 10
1509.438700749674
 20
1325.68257161013
 30
0.0
  0
ENDBLK
  5
5228
330
5226
100
AcDbEntity
  8
0
100
AcDbBlockEnd
  0
BLOCK
  5
5234
330
5233
100
AcDbEntity
  8
0
100
AcDbBlockBegin
  2
*D11
 70
     1
 10
0.0
 20
0.0
 30
0.0
  3
*D11
  1
*D178
  0
LINE
  5
5236
330
5233
100
AcDbEntity
  8
Dim
 62
     0
370
    -2
100
AcDbLine
 10
379.876749686779
 20
685.68257161013
 30
0.0
 11
278.1606102079608
 21
685.68257161013
 31
0.0
  0
LINE
  5
5237
330
5233
100
AcDbEntity
  8
Dim
 62
     0
370
    -2
100
AcDbLine
 10
379.8767496867795
 20
1685.68257161013
 30
0.0
 11
278.1606102079609
 21
1685.68257161013
 31
0.0
  0
LINE
  5
5238
330
5233
100
AcDbEntity
  8
Dim
 62
     0
370
    -2
100
AcDbLine
 10
278.1606102079608
 20
695.6819612585675
 30
0.0
 11
278.1606102079609
 21
1675.683181961693
 31
0.0
  0
INSERT
  5
5239
330
5233
100
AcDbEntity
  8
Dim
 62
     0
370
    -2
100
AcDbBlockReference
  2
_DOT
 10
278.1606102079608
 20
685.68257161013
 30
0.0
 41
9.999389648437498
 42
9.999389648437498
 43
9.999389648437498
 50
270.0
  0
INSERT
  5
523A
330
5233
100
AcDbEntity
  8
Dim
 62
     0
370
    -2
100
AcDbBlockReference
  2
_DOT
 10
278.1606102079609
 20
1685.68257161013
 30
0.0
 41
9.999389648437498
 42
9.999389648437498
 43
9.999389648437498
 50
90.0
  0
MTEXT
  5
523B
330
5233
100
AcDbEntity
  8
Dim
 62
     0
100
AcDbMText
 10
255.9443016142109
 20
1185.68257161013
 30
0.0
 40
24.4326171875
 41
0.0
 46
0.0
 71
     5
 72
     1
  1
\A1;1000
  7
ＭＳ ゴシック
 11
5.684341886080799E-17
 21
1.0
 31
0.0
 73
     1
 44
1.0
  0
POINT
  5
523C
330
5233
100
AcDbEntity
  8
Defpoints
 62
     0
100
AcDbPoint
 10
404.876749686779
 20
685.68257161013
 30
0.0
  0
POINT
  5
523D
330
5233
100
AcDbEntity
  8
Defpoints
 62
     0
100
AcDbPoint
 10
404.8767496867795
 20
1685.68257161013
 30
0.0
  0
POINT
  5
523E
330
5233
100
AcDbEntity
  8
Defpoints
 62
     0
100
AcDbPoint
 10
278.1606102079609
 20
1685.68257161013
 30
0.0
  0
ENDBLK
  5
5235
330
5233
100
AcDbEntity
  8
0
100
AcDbBlockEnd
  0
BLOCK
  5
5250
330
524F
100
AcDbEntity
  8
0
100
AcDbBlockBegin
  2
*D12
 70
     1
 10
0.0
 20
0.0
 30
0.0
  3
*D12
  1
*D180
  0
LINE
  5
5252
330
524F
100
AcDbEntity
  8
Dim
 62
     0
370
    -2
100
AcDbLine
 10
404.1016570074917
 20
1699.298228936354
 30
0.0
 11
404.1016570074917
 21
1755.97169730973
 31
0.0
  0
LINE
  5
5253
330
524F
100
AcDbEntity
  8
Dim
 62
     0
370
    -2
100
AcDbLine
 10
924.1016570074912
 20
1655.460297932113
 30
0.0
 11
924.1016570074912
 21
1755.97169730973
 31
0.0
  0
LINE
  5
5254
330
524F
100
AcDbEntity
  8
Dim
 62
     0
370
    -2
100
AcDbLine
 10
414.1010466559292
 20
1755.97169730973
 30
0.0
 11
914.1022673590537
 21
1755.97169730973
 31
0.0
  0
INSERT
  5
5255
330
524F
100
AcDbEntity
  8
Dim
 62
     0
370
    -2
100
AcDbBlockReference
  2
_DOT
 10
404.1016570074917
 20
1755.97169730973
 30
0.0
 41
9.999389648437498
 42
9.999389648437498
 43
9.999389648437498
 50
180.0
  0
INSERT
  5
5256
330
524F
100
AcDbEntity
  8
Dim
 62
     0
370
    -2
100
AcDbBlockReference
  2
_DOT
 10
924.1016570074912
 20
1755.97169730973
 30
0.0
 41
9.999389648437498
 42
9.999389648437498
 43
9.999389648437498
  0
MTEXT
  5
5257
330
524F
100
AcDbEntity
  8
Dim
 62
     0
100
AcDbMText
 10
664.1016570074914
 20
1778.18800590348
 30
0.0
 40
24.4326171875
 41
0.0
 46
0.0
 71
     5
 72
     1
  1
\A1;520
  7
ＭＳ ゴシック
 73
     1
 44
1.0
  0
POINT
  5
5258
330
524F
100
AcDbEntity
  8
Defpoints
 62
     0
100
AcDbPoint
 10
404.1016570074917
 20
1674.298228936354
 30
0.0
  0
POINT
  5
5259
330
524F
100
AcDbEntity
  8
Defpoints
 62
     0
100
AcDbPoint
 10
924.1016570074912
 20
1630.460297932113
 30
0.0
  0
POINT
  5
525A
330
524F
100
AcDbEntity
  8
Defpoints
 62
     0
100
AcDbPoint
 10
924.1016570074912
 20
1755.97169730973
 30
0.0
  0
ENDBLK
  5
5251
330
524F
100
AcDbEntity
  8
0
100
AcDbBlockEnd
  0
BLOCK
  5
525D
330
525C
100
AcDbEntity
  8
0
100
AcDbBlockBegin
  2
*D13
 70
     1
 10
0.0
 20
0.0
 30
0.0
  3
*D13
  1
*D181
  0
LINE
  5
525F
330
525C
100
AcDbEntity
  8
Dim
 62
     0
370
    -2
100
AcDbLine
 10
1588.158187736885
 20
653.0931820505396
 30
0.0
 11
1588.158187736885
 21
593.301465772118
 31
0.0
  0
LINE
  5
5260
330
525C
100
AcDbEntity
  8
Dim
 62
     0
370
    -2
100
AcDbLine
 10
1628.158187736885
 20
989.5621926292604
 30
0.0
 11
1628.158187736885
 21
593.301465772118
 31
0.0
  0
LINE
  5
5261
330
525C
100
AcDbEntity
  8
Dim
 62
     0
370
    -2
100
AcDbLine
 10
1598.157577385323
 20
593.301465772118
 30
0.0
 11
1618.158798088448
 21
593.301465772118
 31
0.0
  0
INSERT
  5
5262
330
525C
100
AcDbEntity
  8
Dim
 62
     0
370
    -2
100
AcDbBlockReference
  2
_DOT
 10
1588.158187736885
 20
593.301465772118
 30
0.0
 41
9.999389648437498
 42
9.999389648437498
 43
9.999389648437498
 50
180.0
  0
INSERT
  5
5263
330
525C
100
AcDbEntity
  8
Dim
 62
     0
370
    -2
100
AcDbBlockReference
  2
_DOT
 10
1628.158187736885
 20
593.301465772118
 30
0.0
 41
9.999389648437498
 42
9.999389648437498
 43
9.999389648437498
  0
MTEXT
  5
5264
330
525C
100
AcDbEntity
  8
Dim
 62
     0
100
AcDbMText
 10
1608.158187736885
 20
615.517774365868
 30
0.0
 40
24.4326171875
 41
0.0
 46
0.0
 71
     5
 72
     1
  1
\A1;40
  7
ＭＳ ゴシック
 73
     1
 44
1.0
  0
POINT
  5
5265
330
525C
100
AcDbEntity
  8
Defpoints
 62
     0
100
AcDbPoint
 10
1588.158187736885
 20
678.0931820505396
 30
0.0
  0
POINT
  5
5266
330
525C
100
AcDbEntity
  8
Defpoints
 62
     0
100
AcDbPoint
 10
1628.158187736885
 20
1014.56219262926
 30
0.0
  0
POINT
  5
5267
330
525C
100
AcDbEntity
  8
Defpoints
 62
     0
100
AcDbPoint
 10
1628.158187736885
 20
593.301465772118
 30
0.0
  0
ENDBLK
  5
525E
330
525C
100
AcDbEntity
  8
0
100
AcDbBlockEnd
  0
BLOCK
  5
5280
330
527F
100
AcDbEntity
  8
0
100
AcDbBlockBegin
  2
*D14
 70
     1
 10
0.0
 20
0.0
 30
0.0
  3
*D14
  1
*D182
  0
LINE
  5
5282
330
527F
100
AcDbEntity
  8
Dim
 62
     0
370
    -2
100
AcDbLine
 10
837.1148812936754
 20
885.68257161013
 30
0.0
 11
992.8538070079608
 21
885.68257161013
 31
0.0
  0
LINE
  5
5283
330
527F
100
AcDbEntity
  8
Dim
 62
     0
370
    -2
100
AcDbLine
 10
837.1148812936754
 20
1485.68257161013
 30
0.0
 11
992.8538070079608
 21
1485.68257161013
 31
0.0
  0
LINE
  5
5284
330
527F
100
AcDbEntity
  8
Dim
 62
     0
370
    -2
100
AcDbLine
 10
992.8538070079608
 20
895.6819612585675
 30
0.0
 11
992.8538070079608
 21
1475.683181961693
 31
0.0
  0
INSERT
  5
5285
330
527F
100
AcDbEntity
  8
Dim
 62
     0
370
    -2
100
AcDbBlockReference
  2
_DOT
 10
992.8538070079608
 20
885.68257161013
 30
0.0
 41
9.999389648437498
 42
9.999389648437498
 43
9.999389648437498
 50
270.0
  0
INSERT
  5
5286
330
527F
100
AcDbEntity
  8
Dim
 62
     0
370
    -2
100
AcDbBlockReference
  2
_DOT
 10
992.8538070079608
 20
1485.68257161013
 30
0.0
 41
9.999389648437498
 42
9.999389648437498
 43
9.999389648437498
 50
90.0
  0
MTEXT
  5
5287
330
527F
100
AcDbEntity
  8
Dim
 62
     0
100
AcDbMText
 10
970.6374984142108
 20
1185.68257161013
 30
0.0
 40
24.4326171875
 41
0.0
 46
0.0
 71
     5
 72
     1
  1
\A1;600
  7
ＭＳ ゴシック
 11
0.0
 21
1.0
 31
0.0
 73
     1
 44
1.0
  0
POINT
  5
5288
330
527F
100
AcDbEntity
  8
Defpoints
 62
     0
100
AcDbPoint
 10
812.1148812936754
 20
885.68257161013
 30
0.0
  0
POINT
  5
5289
330
527F
100
AcDbEntity
  8
Defpoints
 62
     0
100
AcDbPoint
 10
812.1148812936754
 20
1485.68257161013
 30
0.0
  0
POINT
  5
528A
330
527F
100
AcDbEntity
  8
Defpoints
 62
     0
100
AcDbPoint
 10
992.8538070079608
 20
1485.68257161013
 30
0.0
  0
ENDBLK
  5
5281
330
527F
100
AcDbEntity
  8
0
100
AcDbBlockEnd
  0
BLOCK
  5
528F
330
528E
100
AcDbEntity
  8
0
100
AcDbBlockBegin
  2
*D15
 70
     1
 10
0.0
 20
0.0
 30
0.0
  3
*D15
  1
*D183
  0
LINE
  5
5291
330
528E
100
AcDbEntity
  8
Dim
 62
     0
370
    -2
100
AcDbLine
 10
534.1016569406925
 20
910.68257161013
 30
0.0
 11
534.1016569406925
 21
566.7369236235434
 31
0.0
  0
LINE
  5
5292
330
528E
100
AcDbEntity
  8
Dim
 62
     0
370
    -2
100
AcDbLine
 10
849.1016570074912
 20
910.68257161013
 30
0.0
 11
849.1016570074912
 21
566.7369236235434
 31
0.0
  0
LINE
  5
5293
330
528E
100
AcDbEntity
  8
Dim
 62
     0
370
    -2
100
AcDbLine
 10
544.10104658913
 20
566.7369236235434
 30
0.0
 11
839.1022673590537
 21
566.7369236235434
 31
0.0
  0
INSERT
  5
5294
330
528E
100
AcDbEntity
  8
Dim
 62
     0
370
    -2
100
AcDbBlockReference
  2
_DOT
 10
534.1016569406925
 20
566.7369236235434
 30
0.0
 41
9.999389648437498
 42
9.999389648437498
 43
9.999389648437498
 50
180.0
  0
INSERT
  5
5295
330
528E
100
AcDbEntity
  8
Dim
 62
     0
370
    -2
100
AcDbBlockReference
  2
_DOT
 10
849.1016570074912
 20
566.7369236235434
 30
0.0
 41
9.999389648437498
 42
9.999389648437498
 43
9.999389648437498
  0
MTEXT
  5
5296
330
528E
100
AcDbEntity
  8
Dim
 62
     0
100
AcDbMText
 10
691.6016569740918
 20
588.9532322172934
 30
0.0
 40
24.4326171875
 41
0.0
 46
0.0
 71
     5
 72
     1
  1
\A1;310
  7
ＭＳ ゴシック
 73
     1
 44
1.0
  0
POINT
  5
5297
330
528E
100
AcDbEntity
  8
Defpoints
 62
     0
100
AcDbPoint
 10
534.1016569406925
 20
935.68257161013
 30
0.0
  0
POINT
  5
5298
330
528E
100
AcDbEntity
  8
Defpoints
 62
     0
100
AcDbPoint
 10
849.1016570074912
 20
935.68257161013
 30
0.0
  0
POINT
  5
5299
330
528E
100
AcDbEntity
  8
Defpoints
 62
     0
100
AcDbPoint
 10
849.1016570074912
 20
566.7369236235434
 30
0.0
  0
ENDBLK
  5
5290
330
528E
100
AcDbEntity
  8
0
100
AcDbBlockEnd
  0
BLOCK
  5
52AD
330
52AC
100
AcDbEntity
  8
0
100
AcDbBlockBegin
  2
*D16
 70
     1
 10
0.0
 20
0.0
 30
0.0
  3
*D16
  1
*D184
  0
LINE
  5
52AF
330
52AC
100
AcDbEntity
  8
Dim
 62
     0
370
    -2
100
AcDbLine
 10
404.1016570074908
 20
663.68257161013
 30
0.0
 11
404.1016570074909
 21
566.7369236235434
 31
0.0
  0
LINE
  5
52B0
330
52AC
100
AcDbEntity
  8
Dim
 62
     0
370
    -2
100
AcDbLine
 10
534.1016570074912
 20
815.6259110521144
 30
0.0
 11
534.1016570074912
 21
566.7369236235434
 31
0.0
  0
LINE
  5
52B1
330
52AC
100
AcDbEntity
  8
Dim
 62
     0
370
    -2
100
AcDbLine
 10
414.1010466559284
 20
566.7369236235434
 30
0.0
 11
524.1022673590537
 21
566.7369236235434
 31
0.0
  0
INSERT
  5
52B2
330
52AC
100
AcDbEntity
  8
Dim
 62
     0
370
    -2
100
AcDbBlockReference
  2
_DOT
 10
404.1016570074909
 20
566.7369236235434
 30
0.0
 41
9.999389648437498
 42
9.999389648437498
 43
9.999389648437498
 50
180.0
  0
INSERT
  5
52B3
330
52AC
100
AcDbEntity
  8
Dim
 62
     0
370
    -2
100
AcDbBlockReference
  2
_DOT
 10
534.1016570074912
 20
566.7369236235434
 30
0.0
 41
9.999389648437498
 42
9.999389648437498
 43
9.999389648437498
  0
MTEXT
  5
52B4
330
52AC
100
AcDbEntity
  8
Dim
 62
     0
100
AcDbMText
 10
469.101657007491
 20
588.9532322172934
 30
0.0
 40
24.4326171875
 41
0.0
 46
0.0
 71
     5
 72
     1
  1
\A1;130
  7
ＭＳ ゴシック
 73
     1
 44
1.0
  0
POINT
  5
52B5
330
52AC
100
AcDbEntity
  8
Defpoints
 62
     0
100
AcDbPoint
 10
404.1016570074908
 20
688.68257161013
 30
0.0
  0
POINT
  5
52B6
330
52AC
100
AcDbEntity
  8
Defpoints
 62
     0
100
AcDbPoint
 10
534.1016570074912
 20
840.6259110521144
 30
0.0
  0
POINT
  5
52B7
330
52AC
100
AcDbEntity
  8
Defpoints
 62
     0
100
AcDbPoint
 10
534.1016570074912
 20
566.7369236235434
 30
0.0
  0
ENDBLK
  5
52AE
330
52AC
100
AcDbEntity
  8
0
100
AcDbBlockEnd
  0
BLOCK
  5
52BA
330
52B9
100
AcDbEntity
  8
0
100
AcDbBlockBegin
  2
*D17
 70
     1
 10
0.0
 20
0.0
 30
0.0
  3
*D17
  1
*D185
  0
LINE
  5
52BC
330
52B9
100
AcDbEntity
  8
Dim
 62
     0
370
    -2
100
AcDbLine
 10
534.1016570074912
 20
708.5728550521146
 30
0.0
 11
534.1016570074912
 21
566.7369236235434
 31
0.0
  0
LINE
  5
52BD
330
52B9
100
AcDbEntity
  8
Dim
 62
     0
370
    -2
100
AcDbLine
 10
924.1016570074912
 20
708.5728550521146
 30
0.0
 11
924.1016570074912
 21
566.7369236235434
 31
0.0
  0
LINE
  5
52BE
330
52B9
100
AcDbEntity
  8
Dim
 62
     0
370
    -2
100
AcDbLine
 10
544.1010466559287
 20
566.7369236235434
 30
0.0
 11
914.1022673590537
 21
566.7369236235434
 31
0.0
  0
INSERT
  5
52BF
330
52B9
100
AcDbEntity
  8
Dim
 62
     0
370
    -2
100
AcDbBlockReference
  2
_DOT
 10
534.1016570074912
 20
566.7369236235434
 30
0.0
 41
9.999389648437498
 42
9.999389648437498
 43
9.999389648437498
 50
180.0
  0
INSERT
  5
52C0
330
52B9
100
AcDbEntity
  8
Dim
 62
     0
370
    -2
100
AcDbBlockReference
  2
_DOT
 10
924.1016570074912
 20
566.7369236235434
 30
0.0
 41
9.999389648437498
 42
9.999389648437498
 43
9.999389648437498
  0
MTEXT
  5
52C1
330
52B9
100
AcDbEntity
  8
Dim
 62
     0
100
AcDbMText
 10
729.1016570074912
 20
588.9532322172934
 30
0.0
 40
24.4326171875
 41
0.0
 46
0.0
 71
     5
 72
     1
  1
\A1;390
  7
ＭＳ ゴシック
 73
     1
 44
1.0
  0
POINT
  5
52C2
330
52B9
100
AcDbEntity
  8
Defpoints
 62
     0
100
AcDbPoint
 10
534.1016570074912
 20
733.5728550521146
 30
0.0
  0
POINT
  5
52C3
330
52B9
100
AcDbEntity
  8
Defpoints
 62
     0
100
AcDbPoint
 10
924.1016570074912
 20
733.5728550521146
 30
0.0
  0
POINT
  5
52C4
330
52B9
100
AcDbEntity
  8
Defpoints
 62
     0
100
AcDbPoint
 10
924.1016570074912
 20
566.7369236235434
 30
0.0
  0
ENDBLK
  5
52BB
330
52B9
100
AcDbEntity
  8
0
100
AcDbBlockEnd
  0
BLOCK
  5
52CC
330
52CB
100
AcDbEntity
  8
0
100
AcDbBlockBegin
  2
*D18
 70
     1
 10
0.0
 20
0.0
 30
0.0
  3
*D18
  1
*D186
  0
LINE
  5
52CE
330
52CB
100
AcDbEntity
  8
Dim
 62
     0
370
    -2
100
AcDbLine
 10
1588.158187736885
 20
1701.393184241138
 30
0.0
 11
1588.158187736885
 21
1755.97169730973
 31
0.0
  0
LINE
  5
52CF
330
52CB
100
AcDbEntity
  8
Dim
 62
     0
370
    -2
100
AcDbLine
 10
1768.158187736885
 20
1254.106052080685
 30
0.0
 11
1768.158187736885
 21
1755.97169730973
 31
0.0
  0
LINE
  5
52D0
330
52CB
100
AcDbEntity
  8
Dim
 62
     0
370
    -2
100
AcDbLine
 10
1598.157577385323
 20
1755.97169730973
 30
0.0
 11
1758.158798088448
 21
1755.97169730973
 31
0.0
  0
INSERT
  5
52D1
330
52CB
100
AcDbEntity
  8
Dim
 62
     0
370
    -2
100
AcDbBlockReference
  2
_DOT
 10
1588.158187736885
 20
1755.97169730973
 30
0.0
 41
9.999389648437498
 42
9.999389648437498
 43
9.999389648437498
 50
180.0
  0
INSERT
  5
52D2
330
52CB
100
AcDbEntity
  8
Dim
 62
     0
370
    -2
100
AcDbBlockReference
  2
_DOT
 10
1768.158187736885
 20
1755.97169730973
 30
0.0
 41
9.999389648437498
 42
9.999389648437498
 43
9.999389648437498
  0
MTEXT
  5
52D3
330
52CB
100
AcDbEntity
  8
Dim
 62
     0
100
AcDbMText
 10
1678.158187736885
 20
1778.18800590348
 30
0.0
 40
24.4326171875
 41
0.0
 46
0.0
 71
     5
 72
     1
  1
\A1;180
  7
ＭＳ ゴシック
 73
     1
 44
1.0
  0
POINT
  5
52D4
330
52CB
100
AcDbEntity
  8
Defpoints
 62
     0
100
AcDbPoint
 10
1588.158187736885
 20
1676.393184241138
 30
0.0
  0
POINT
  5
52D5
330
52CB
100
AcDbEntity
  8
Defpoints
 62
     0
100
AcDbPoint
 10
1768.158187736885
 20
1229.106052080685
 30
0.0
  0
POINT
  5
52D6
330
52CB
100
AcDbEntity
  8
Defpoints
 62
     0
100
AcDbPoint
 10
1768.158187736885
 20
1755.97169730973
 30
0.0
  0
ENDBLK
  5
52CD
330
52CB
100
AcDbEntity
  8
0
100
AcDbBlockEnd
  0
BLOCK
  5
5306
330
5305
100
AcDbEntity
  8
0
100
AcDbBlockBegin
  2
*D19
 70
     1
 10
0.0
 20
0.0
 30
0.0
  3
*D19
  1
*D187
  0
LINE
  5
5308
330
5305
100
AcDbEntity
  8
Dim
 62
     0
370
    -2
100
AcDbLine
 10
1732.143526325958
 20
2635.084951176704
 30
0.0
 11
1845.895409391244
 21
2635.084951176704
 31
0.0
  0
LINE
  5
5309
330
5305
100
AcDbEntity
  8
Dim
 62
     0
370
    -2
100
AcDbLine
 10
1791.987304129248
 20
2410.084957109014
 30
0.0
 11
1845.895409391244
 21
2410.084957109014
 31
0.0
  0
LINE
  5
530A
330
5305
100
AcDbEntity
  8
Dim
 62
     0
370
    -2
100
AcDbLine
 10
1845.895409391244
 20
2625.085561528266
 30
0.0
 11
1845.895409391244
 21
2420.084346757451
 31
0.0
  0
INSERT
  5
530B
330
5305
100
AcDbEntity
  8
Dim
 62
     0
370
    -2
100
AcDbBlockReference
  2
_DOT
 10
1845.895409391244
 20
2635.084951176704
 30
0.0
 41
9.999389648437498
 42
9.999389648437498
 43
9.999389648437498
 50
90.0
  0
INSERT
  5
530C
330
5305
100
AcDbEntity
  8
Dim
 62
     0
370
    -2
100
AcDbBlockReference
  2
_DOT
 10
1845.895409391244
 20
2410.084957109014
 30
0.0
 41
9.999389648437498
 42
9.999389648437498
 43
9.999389648437498
 50
270.0
  0
MTEXT
  5
530D
330
5305
100
AcDbEntity
  8
Dim
 62
     0
100
AcDbMText
 10
1823.679100797494
 20
2522.584954142859
 30
0.0
 40
24.4326171875
 41
0.0
 46
0.0
 71
     5
 72
     1
  1
\A1;225
  7
ＭＳ ゴシック
 11
0.0
 21
1.0
 31
0.0
 73
     1
 44
1.0
  0
POINT
  5
530E
330
5305
100
AcDbEntity
  8
Defpoints
 62
     0
100
AcDbPoint
 10
1707.143526325958
 20
2635.084951176704
 30
0.0
  0
POINT
  5
530F
330
5305
100
AcDbEntity
  8
Defpoints
 62
     0
100
AcDbPoint
 10
1766.987304129248
 20
2410.084957109014
 30
0.0
  0
POINT
  5
5310
330
5305
100
AcDbEntity
  8
Defpoints
 62
     0
100
AcDbPoint
 10
1845.895409391244
 20
2410.084957109014
 30
0.0
  0
ENDBLK
  5
5307
330
5305
100
AcDbEntity
  8
0
100
AcDbBlockEnd
  0
BLOCK
  5
5328
330
5327
100
AcDbEntity
  8
0
100
AcDbBlockBegin
  2
*D20
 70
     1
 10
0.0
 20
0.0
 30
0.0
  3
*D20
  1
*D189
  0
LINE
  5
532A
330
5327
100
AcDbEntity
  8
Dim
  6
Continuous
 62
     0
370
    -2
100
AcDbLine
 10
1567.117162764876
 20
2635.085877849203
 30
0.0
 11
1507.38658696526
 21
2635.085877849203
 31
0.0
  0
LINE
  5
532B
330
5327
100
AcDbEntity
  8
Dim
  6
Continuous
 62
     0
370
    -2
100
AcDbLine
 10
1567.117162764876
 20
2570.085877849203
 30
0.0
 11
1507.38658696526
 21
2570.085877849203
 31
0.0
  0
LINE
  5
532C
330
5327
100
AcDbEntity
  8
Dim
  6
Continuous
 62
     0
370
    -2
100
AcDbLine
 10
1507.38658696526
 20
2625.086488200765
 30
0.0
 11
1507.38658696526
 21
2580.08526749764
 31
0.0
  0
INSERT
  5
532D
330
5327
100
AcDbEntity
  8
Dim
 62
     0
370
    -2
100
AcDbBlockReference
  2
_DOT
 10
1507.38658696526
 20
2635.085877849203
 30
0.0
 41
9.999389648437498
 42
9.999389648437498
 43
9.999389648437498
 50
90.0
  0
INSERT
  5
532E
330
5327
100
AcDbEntity
  8
Dim
 62
     0
370
    -2
100
AcDbBlockReference
  2
_DOT
 10
1507.38658696526
 20
2570.085877849203
 30
0.0
 41
9.999389648437498
 42
9.999389648437498
 43
9.999389648437498
 50
270.0
  0
MTEXT
  5
532F
330
5327
100
AcDbEntity
  8
Dim
 62
     0
100
AcDbMText
 10
1485.17027837151
 20
2602.585877849203
 30
0.0
 40
24.4326171875
 41
0.0
 46
0.0
 71
     5
 72
     1
  1
\A1;65
  7
ＭＳ ゴシック
 11
0.0
 21
1.0
 31
0.0
 73
     1
 44
1.0
  0
POINT
  5
5330
330
5327
100
AcDbEntity
  8
Defpoints
 62
     0
100
AcDbPoint
 10
1592.117162764876
 20
2635.085877849203
 30
0.0
  0
POINT
  5
5331
330
5327
100
AcDbEntity
  8
Defpoints
 62
     0
100
AcDbPoint
 10
1592.117162764876
 20
2570.085877849203
 30
0.0
  0
POINT
  5
5332
330
5327
100
AcDbEntity
  8
Defpoints
 62
     0
100
AcDbPoint
 10
1507.38658696526
 20
2570.085877849203
 30
0.0
  0
ENDBLK
  5
5329
330
5327
100
AcDbEntity
  8
0
100
AcDbBlockEnd
  0
BLOCK
  5
5334
330
5333
100
AcDbEntity
  8
0
100
AcDbBlockBegin
  2
*D21
 70
     1
 10
0.0
 20
0.0
 30
0.0
  3
*D21
  1
*D190
  0
LINE
  5
5336
330
5333
100
AcDbEntity
  8
Dim
  6
Continuous
 62
     0
370
    -2
100
AcDbLine
 10
1717.099361146542
 20
2409.264074098147
 30
0.0
 11
1414.946558874076
 21
2409.264074098147
 31
0.0
  0
LINE
  5
5337
330
5333
100
AcDbEntity
  8
Dim
  6
Continuous
 62
     0
370
    -2
100
AcDbLine
 10
1707.099971498104
 20
2409.264074098147
 30
0.0
 11
1597.320647741263
 21
2409.264074098147
 31
0.0
  0
LINE
  5
5338
330
5333
100
AcDbEntity
  8
Dim
  6
Continuous
 62
     0
370
    -2
100
AcDbLine
 10
1597.320647741263
 20
2409.264074098147
 30
0.0
 11
1607.320037389701
 21
2409.264074098147
 31
0.0
  0
INSERT
  5
5339
330
5333
100
AcDbEntity
  8
Dim
 62
     0
370
    -2
100
AcDbBlockReference
  2
_DOT
 10
1717.099361146542
 20
2409.264074098147
 30
0.0
 41
9.999389648437498
 42
9.999389648437498
 43
9.999389648437498
  0
INSERT
  5
533A
330
5333
100
AcDbEntity
  8
Dim
 62
     0
370
    -2
100
AcDbBlockReference
  2
_DOT
 10
1587.321258092826
 20
2409.264074098147
 30
0.0
 41
9.999389648437498
 42
9.999389648437498
 43
9.999389648437498
 50
180.0
  0
MTEXT
  5
533B
330
5333
100
AcDbEntity
  8
Dim
 62
     0
100
AcDbMText
 10
1491.134518835013
 20
2433.642669312991
 30
0.0
 40
24.4326171875
 41
0.0
 46
0.0
 71
     5
 72
     1
  1
\A1;130(深さ)
  7
ＭＳ ゴシック
 73
     1
 44
1.0
  0
POINT
  5
533C
330
5333
100
AcDbEntity
  8
Defpoints
 62
     0
100
AcDbPoint
 10
1717.099361146542
 20
2409.264074098147
 30
0.0
  0
POINT
  5
533D
330
5333
100
AcDbEntity
  8
Defpoints
 62
     0
100
AcDbPoint
 10
1587.321258092826
 20
2409.264074098147
 30
0.0
  0
POINT
  5
56C3
330
5333
100
AcDbEntity
  8
Defpoints
 62
     0
100
AcDbPoint
 10
1587.321258092826
 20
2409.264074098147
 30
0.0
  0
ENDBLK
  5
5335
330
5333
100
AcDbEntity
  8
0
100
AcDbBlockEnd
  0
BLOCK
  5
5408
330
5407
100
AcDbEntity
  8
0
100
AcDbBlockBegin
  2
*D22
 70
     1
 10
0.0
 20
0.0
 30
0.0
  3
*D22
  1
*D202
  0
LINE
  5
540A
330
5407
100
AcDbEntity
  8
Dim
  6
Continuous
 62
     0
370
    -2
100
AcDbLine
 10
1588.158175059555
 20
2093.158504529099
 30
0.0
 11
1588.158175059555
 21
2061.739915240413
 31
0.0
  0
LINE
  5
540B
330
5407
100
AcDbEntity
  8
Dim
  6
Continuous
 62
     0
370
    -2
100
AcDbLine
 10
1603.158175059555
 20
2093.158504529099
 30
0.0
 11
1603.158175059555
 21
2061.739915240413
 31
0.0
  0
LINE
  5
540C
330
5407
100
AcDbEntity
  8
Dim
  6
Continuous
 62
     0
370
    -2
100
AcDbLine
 10
1588.158175059555
 20
2061.739915240413
 30
0.0
 11
1521.381247325179
 21
2061.739915240413
 31
0.0
  0
LINE
  5
540D
330
5407
100
AcDbEntity
  8
Dim
  6
Continuous
 62
     0
370
    -2
100
AcDbLine
 10
1598.157564707993
 20
2061.739915240413
 30
0.0
 11
1593.158785411118
 21
2061.739915240413
 31
0.0
  0
INSERT
  5
540E
330
5407
100
AcDbEntity
  8
Dim
 62
     0
370
    -2
100
AcDbBlockReference
  2
_DOT
 10
1588.158175059555
 20
2061.739915240413
 30
0.0
 41
9.999389648437498
 42
9.999389648437498
 43
9.999389648437498
 50
180.0
  0
INSERT
  5
540F
330
5407
100
AcDbEntity
  8
Dim
 62
     0
370
    -2
100
AcDbBlockReference
  2
_DOT
 10
1603.158175059555
 20
2061.739915240413
 30
0.0
 41
9.999389648437498
 42
9.999389648437498
 43
9.999389648437498
  0
MTEXT
  5
5410
330
5407
100
AcDbEntity
  8
Dim
 62
     0
100
AcDbMText
 10
1544.770321543929
 20
2083.956223834163
 30
0.0
 40
24.4326171875
 41
0.0
 46
0.0
 71
     5
 72
     1
  1
\A1;15
  7
ＭＳ ゴシック
 73
     1
 44
1.0
  0
POINT
  5
5411
330
5407
100
AcDbEntity
  8
Defpoints
 62
     0
100
AcDbPoint
 10
1588.158175059555
 20
2118.158504529099
 30
0.0
  0
POINT
  5
5412
330
5407
100
AcDbEntity
  8
Defpoints
 62
     0
100
AcDbPoint
 10
1603.158175059555
 20
2118.158504529099
 30
0.0
  0
POINT
  5
5413
330
5407
100
AcDbEntity
  8
Defpoints
 62
     0
100
AcDbPoint
 10
1603.158175059555
 20
2061.739915240413
 30
0.0
  0
ENDBLK
  5
5409
330
5407
100
AcDbEntity
  8
0
100
AcDbBlockEnd
  0
BLOCK
  5
5415
330
5414
100
AcDbEntity
  8
0
100
AcDbBlockBegin
  2
*D23
 70
     1
 10
0.0
 20
0.0
 30
0.0
  3
*D23
  1
*D203
  0
LINE
  5
5417
330
5414
100
AcDbEntity
  8
Dim
  6
Continuous
 62
     0
370
    -2
100
AcDbLine
 10
1603.158175059555
 20
2068.158504529099
 30
0.0
 11
1603.158175059555
 21
2061.739915240413
 31
0.0
  0
LINE
  5
5418
330
5414
100
AcDbEntity
  8
Dim
  6
Continuous
 62
     0
370
    -2
100
AcDbLine
 10
1678.158175059555
 20
2162.185348466634
 30
0.0
 11
1678.158175059555
 21
2061.739915240413
 31
0.0
  0
LINE
  5
5419
330
5414
100
AcDbEntity
  8
Dim
  6
Continuous
 62
     0
370
    -2
100
AcDbLine
 10
1613.157564707993
 20
2061.739915240413
 30
0.0
 11
1668.158785411118
 21
2061.739915240413
 31
0.0
  0
INSERT
  5
541A
330
5414
100
AcDbEntity
  8
Dim
 62
     0
370
    -2
100
AcDbBlockReference
  2
_DOT
 10
1603.158175059555
 20
2061.739915240413
 30
0.0
 41
9.999389648437498
 42
9.999389648437498
 43
9.999389648437498
 50
180.0
  0
INSERT
  5
541B
330
5414
100
AcDbEntity
  8
Dim
 62
     0
370
    -2
100
AcDbBlockReference
  2
_DOT
 10
1678.158175059555
 20
2061.739915240413
 30
0.0
 41
9.999389648437498
 42
9.999389648437498
 43
9.999389648437498
  0
MTEXT
  5
541C
330
5414
100
AcDbEntity
  8
Dim
 62
     0
100
AcDbMText
 10
1640.658175059555
 20
2083.956223834163
 30
0.0
 40
24.4326171875
 41
0.0
 46
0.0
 71
     5
 72
     1
  1
\A1;75
  7
ＭＳ ゴシック
 73
     1
 44
1.0
  0
POINT
  5
541D
330
5414
100
AcDbEntity
  8
Defpoints
 62
     0
100
AcDbPoint
 10
1603.158175059555
 20
2093.158504529099
 30
0.0
  0
POINT
  5
541E
330
5414
100
AcDbEntity
  8
Defpoints
 62
     0
100
AcDbPoint
 10
1678.158175059555
 20
2187.185348466634
 30
0.0
  0
POINT
  5
541F
330
5414
100
AcDbEntity
  8
Defpoints
 62
     0
100
AcDbPoint
 10
1678.158175059555
 20
2061.739915240413
 30
0.0
  0
ENDBLK
  5
5416
330
5414
100
AcDbEntity
  8
0
100
AcDbBlockEnd
  0
BLOCK
  5
5421
330
5420
100
AcDbEntity
  8
0
100
AcDbBlockBegin
  2
*D24
 70
     1
 10
0.0
 20
0.0
 30
0.0
  3
*D24
  1
*D204
  0
LINE
  5
5423
330
5420
100
AcDbEntity
  8
Dim
  6
Continuous
 62
     0
370
    -2
100
AcDbLine
 10
1678.158175059555
 20
2137.185348466634
 30
0.0
 11
1678.158175059555
 21
2061.739915240413
 31
0.0
  0
LINE
  5
5424
330
5420
100
AcDbEntity
  8
Dim
  6
Continuous
 62
     0
370
    -2
100
AcDbLine
 10
1768.158175059555
 20
2351.859613884161
 30
0.0
 11
1768.158175059555
 21
2061.739915240413
 31
0.0
  0
LINE
  5
5425
330
5420
100
AcDbEntity
  8
Dim
  6
Continuous
 62
     0
370
    -2
100
AcDbLine
 10
1688.157564707993
 20
2061.739915240413
 30
0.0
 11
1758.158785411118
 21
2061.739915240413
 31
0.0
  0
INSERT
  5
5426
330
5420
100
AcDbEntity
  8
Dim
 62
     0
370
    -2
100
AcDbBlockReference
  2
_DOT
 10
1678.158175059555
 20
2061.739915240413
 30
0.0
 41
9.999389648437498
 42
9.999389648437498
 43
9.999389648437498
 50
180.0
  0
INSERT
  5
5427
330
5420
100
AcDbEntity
  8
Dim
 62
     0
370
    -2
100
AcDbBlockReference
  2
_DOT
 10
1768.158175059555
 20
2061.739915240413
 30
0.0
 41
9.999389648437498
 42
9.999389648437498
 43
9.999389648437498
  0
MTEXT
  5
5428
330
5420
100
AcDbEntity
  8
Dim
 62
     0
100
AcDbMText
 10
1723.158175059555
 20
2083.956223834163
 30
0.0
 40
24.4326171875
 41
0.0
 46
0.0
 71
     5
 72
     1
  1
\A1;90
  7
ＭＳ ゴシック
 73
     1
 44
1.0
  0
POINT
  5
5429
330
5420
100
AcDbEntity
  8
Defpoints
 62
     0
100
AcDbPoint
 10
1678.158175059555
 20
2162.185348466634
 30
0.0
  0
POINT
  5
542A
330
5420
100
AcDbEntity
  8
Defpoints
 62
     0
100
AcDbPoint
 10
1768.158175059555
 20
2376.859613884161
 30
0.0
  0
POINT
  5
542B
330
5420
100
AcDbEntity
  8
Defpoints
 62
     0
100
AcDbPoint
 10
1768.158175059555
 20
2061.739915240413
 30
0.0
  0
ENDBLK
  5
5422
330
5420
100
AcDbEntity
  8
0
100
AcDbBlockEnd
  0
ENDSEC
  0
SECTION
  2
ENTITIES
  0
MTEXT
  5
177
330
A
100
AcDbEntity
  8
template
390
1D
100
AcDbMText
 10
82.00000000048226
 20
348.023957835319
 30
0.0
 40
16.28841145833333
 41
0.0
 46
0.0
 71
     1
 72
     1
  1
品名
  7
ＭＳ ゴシック
 73
     1
 44
0.7828267384257843
  0
MTEXT
  5
178
330
A
100
AcDbEntity
  8
template
390
1D
100
AcDbMText
 10
82.00000000048226
 20
263.0239578353188
 30
0.0
 40
16.28841145833333
 41
0.0
 46
0.0
 71
     1
 72
     1
  1
仕様
  7
ＭＳ ゴシック
 73
     1
 44
0.7828267384257843
  0
LINE
  5
179
330
A
100
AcDbEntity
  8
template
390
1D
100
AcDbLine
 10
2025.0
 20
271.4388797103189
 30
0.0
 11
75.00000000000023
 21
271.4388797103189
 31
0.0
  0
LWPOLYLINE
  5
17A
330
A
100
AcDbEntity
  8
template
390
1D
100
AcDbPolyline
 90
        5
 70
   128
 43
0.0
 10
2025.0
 20
2901.438879710319
 10
75.00000000000023
 20
2901.438879710319
 10
75.00000000000023
 20
101.4388797103188
 10
2025.0
 20
101.4388797103188
 10
2025.0
 20
2901.438879710319
  0
LINE
  5
17B
330
A
100
AcDbEntity
  8
template
390
1D
100
AcDbLine
 10
2025.0
 20
356.4388797103188
 30
0.0
 11
75.00000000000023
 21
356.4388797103188
 31
0.0
  0
LINE
  5
17C
330
A
100
AcDbEntity
  8
template
390
1D
100
AcDbLine
 10
2025.000000000482
 20
186.4388797103189
 30
0.0
 11
1272.000000000482
 21
186.4388797103189
 31
0.0
  0
MTEXT
  5
17E
330
A
100
AcDbEntity
  8
template
390
1D
100
AcDbMText
 10
1301.871406252743
 20
156.5284852370108
 30
0.0
 40
24.4326171875
 41
0.0
 46
0.0
 71
     1
 72
     1
  1
大洋金物株式会社 ティーフォルム事業部
  7
ＭＳ ゴシック
 73
     1
 44
0.7828267384257843
  0
MTEXT
  5
180
330
A
100
AcDbEntity
  8
template
390
1D
100
AcDbMText
 10
1834.000000000742
 20
234.4414968978188
 30
0.0
 40
24.4326171875
 41
0.0
 46
0.0
 71
     1
 72
     1
  1
1:10
  7
ＭＳ ゴシック
 73
     1
 44
0.7828267384257843
  0
MTEXT
  5
181
330
A
100
AcDbEntity
  8
template
390
1D
100
AcDbMText
 10
1781.000000000742
 20
263.0239578353188
 30
0.0
 40
16.28841145833333
 41
0.0
 46
0.0
 71
     1
 72
     1
  1
縮尺
  7
ＭＳ ゴシック
 73
     1
 44
0.7828267384257843
  0
LINE
  5
182
330
A
100
AcDbEntity
  8
template
390
1D
100
AcDbLine
 10
1774.000000000742
 20
186.4388797103189
 30
0.0
 11
1774.000000000742
 21
271.4388797103189
 31
0.0
  0
MTEXT
  5
183
330
A
100
AcDbEntity
  8
template
390
1D
100
AcDbMText
 10
1530.000000000742
 20
263.0239578353188
 30
0.0
 40
16.28841145833333
 41
0.0
 46
0.0
 71
     1
 72
     1
  1
容量
  7
ＭＳ ゴシック
 73
     1
 44
0.7828267384257843
  0
LINE
  5
184
330
A
100
AcDbEntity
  8
template
390
1D
100
AcDbLine
 10
1523.000000000742
 20
186.4388797103189
 30
0.0
 11
1523.000000000742
 21
271.4388797103189
 31
0.0
  0
MTEXT
  5
185
330
A
100
AcDbEntity
  8
template
390
1D
100
AcDbMText
 10
1279.000000000742
 20
348.023957835319
 30
0.0
 40
16.28841145833333
 41
0.0
 46
0.0
 71
     1
 72
     1
  1
品番
  7
ＭＳ ゴシック
 73
     1
 44
0.7828267384257843
  0
MTEXT
  5
186
330
A
100
AcDbEntity
  8
template
390
1D
100
AcDbMText
 10
1279.000000000742
 20
263.0239578353188
 30
0.0
 40
16.28841145833333
 41
0.0
 46
0.0
 71
     1
 72
     1
  1
重量
  7
ＭＳ ゴシック
 73
     1
 44
0.7828267384257843
  0
MTEXT
  5
187
330
A
100
AcDbEntity
  8
template
390
1D
100
AcDbMText
 10
1332.000000000742
 20
319.4414968978188
 30
0.0
 40
24.4326171875
 41
0.0
 46
24.4326171875
 71
     1
 72
     1
  1
{ADF70-2618}
  7
ＭＳ ゴシック
 73
     1
 44
0.7828267384257843
1001
ACAD
1000
ACAD_MTEXT_DEFINED_HEIGHT_BEGIN
1070
    46
1040
24.4326171875
1000
ACAD_MTEXT_DEFINED_HEIGHT_END
  0
LINE
  5
188
330
A
100
AcDbEntity
  8
template
390
1D
100
AcDbLine
 10
1272.000000000742
 20
101.4388797103188
 30
0.0
 11
1272.000000000742
 21
356.4388797103188
 31
0.0
  0
MTEXT
  5
189
330
A
100
AcDbEntity
  8
template
390
1D
100
AcDbMText
 10
135.0000000004822
 20
319.4414968978188
 30
0.0
 40
24.4326171875
 41
0.0
 46
27.5355595703125
 71
     1
 72
     1
  1
{洗面器 -CATALANO, Green-}
  7
ＭＳ ゴシック
 73
     1
 44
0.7828267384257843
1001
ACAD
1000
ACAD_MTEXT_DEFINED_HEIGHT_BEGIN
1070
    46
1040
27.5355595703125
1000
ACAD_MTEXT_DEFINED_HEIGHT_END
  0
MTEXT
  5
18A
330
A
100
AcDbEntity
  8
template
 62
     1
390
1D
100
AcDbMText
 10
135.0000000004822
 20
234.4414968978188
 30
0.0
 40
24.4326171875
 41
0.0
 46
65.556517578125
 71
     1
 72
     1
  1
{\C256;壁掛け/オーバーフロー付き/壁取付ボルト付属\P陶器/ホワイト}
  7
ＭＳ ゴシック
 73
     1
 44
0.9822934569727008
1001
ACAD
1000
ACAD_MTEXT_DEFINED_HEIGHT_BEGIN
1070
    46
1040
65.556517578125
1000
ACAD_MTEXT_DEFINED_HEIGHT_END
  0
MTEXT
  5
1A6
330
A
100
AcDbEntity
  8
template
390
1D
100
AcDbMText
 10
1332.000000000742
 20
234.4414968978188
 30
0.0
 40
24.4326171875
 41
0.0
 46
28.390701171875
 71
     1
 72
     1
  1
{25kg}
  7
ＭＳ ゴシック
 73
     1
 44
0.7828267384257843
1001
ACAD
1000
ACAD_MTEXT_DEFINED_HEIGHT_BEGIN
1070
    46
1040
28.390701171875
1000
ACAD_MTEXT_DEFINED_HEIGHT_END
  0
MTEXT
  5
374
330
A
100
AcDbEntity
  8
template
390
1D
100
AcDbMText
 10
1581.992122669024
 20
234.4414968978188
 30
0.0
 40
24.4326171875
 41
0.0
 46
24.4326171875
 71
     1
 72
     1
  1
{9L}
  7
ＭＳ ゴシック
 73
     1
 44
0.7828267384257843
1001
ACAD
1000
ACAD_MTEXT_DEFINED_HEIGHT_BEGIN
1070
    46
1040
24.4326171875
1000
ACAD_MTEXT_DEFINED_HEIGHT_END
  0
INSERT
  5
3D0
330
A
100
AcDbEntity
  8
template
100
AcDbBlockReference
  2
名称未設定-1
 10
1873.559250554905
 20
30.23897196054438
 30
0.0
 41
0.7619999999999999
 42
0.7619999999999999
 43
0.7619999999999999
  0
MTEXT
  5
BDB
102
{ACAD_XDICTIONARY
360
BDC
102
}
330
A
100
AcDbEntity
  8
template
  6
Continuous
100
AcDbMText
 10
78.95663872901252
 20
86.10730750352229
 30
0.0
 40
23.0
 41
0.0
 46
23.0
 71
     1
 72
     1
  1
{20170725N}
  7
ＭＳ ゴシック
 73
     1
 44
1.0
1001
ACAD
1000
ACAD_MTEXT_DEFINED_HEIGHT_BEGIN
1070
    46
1040
23.0
1000
ACAD_MTEXT_DEFINED_HEIGHT_END
  0
LWPOLYLINE
  5
BEE
330
A
100
AcDbEntity
  8
PRINT BORDER
100
AcDbPolyline
 90
        4
 70
     1
 43
0.0
 10
0.0
 20
0.0
 10
0.0
 20
2970.0
 10
2100.0
 20
2970.0
 10
2100.0
 20
0.0
  0
INSERT
  5
1273
330
A
100
AcDbEntity
  8
0
 62
     7
100
AcDbBlockReference
  2
BLOCK_2
 10
591.2037060744204
 20
943.564364962162
 30
0.0
  0
INSERT
  5
127B
330
A
100
AcDbEntity
  8
0
 62
     7
100
AcDbBlockReference
  2
BLOCK_2
 10
1291.863324028138
 20
1038.76992320659
 30
0.0
  0
INSERT
  5
127C
330
A
100
AcDbEntity
  8
0
 62
     7
100
AcDbBlockReference
  2
BLOCK_2
 10
652.1648429406905
 20
1595.641631888467
 30
0.0
  0
CIRCLE
  5
142C
330
A
100
AcDbEntity
  8
Dim
  6
Continuous
100
AcDbCircle
 10
1366.841726484681
 20
1758.85027442579
 30
0.0
 40
0.0
  0
INSERT
  5
3B99
330
A
100
AcDbEntity
  8
retino
100
AcDbBlockReference
  2
mobile_latù
 10
-92101.31485198285
 20
1730.415535296608
 30
0.0
  0
INSERT
  5
467E
330
A
100
AcDbEntity
  8
retino
100
AcDbBlockReference
  2
mobile_latù
 10
-100894.893236163
 20
1696.039721945452
 30
0.0
  0
INSERT
  5
4F9F
330
A
100
AcDbEntity
  8
retino
100
AcDbBlockReference
  2
mobile_latù
 10
-100687.0529675389
 20
1519.805538157597
 30
0.0
  0
SPLINE
  5
4FA0
330
A
100
AcDbEntity
  8
MODEL
100
AcDbSpline
210
0.0
220
0.0
230
1.0
 70
     8
 71
     3
 72
     8
 73
     4
 74
     0
 42
0.000000001
 43
0.0000000001
 40
0.0020618749492312
 40
0.0020618749492312
 40
0.0020618749492312
 40
0.0020618749492312
 40
0.291239253952357
 40
0.291239253952357
 40
0.291239253952357
 40
0.291239253952357
 10
1714.556988033259
 20
994.9841601019432
 30
0.0
 10
1714.545668892677
 20
994.9314449435622
 30
0.0
 10
1714.551620190282
 20
994.897028868523
 30
0.0
 10
1714.532439189496
 20
994.8718430388687
 30
0.0
  0
SPLINE
  5
4FA1
330
A
100
AcDbEntity
  8
MODEL
100
AcDbSpline
210
0.0
220
0.0
230
1.0
 70
     8
 71
     3
 72
     8
 73
     4
 74
     0
 42
0.000000001
 43
0.0000000001
 40
0.708760708641501
 40
0.708760708641501
 40
0.708760708641501
 40
0.708760708641501
 40
0.997938135621755
 40
0.997938135621755
 40
0.997938135621755
 40
0.997938135621755
 10
1714.532439140982
 20
1376.493300392234
 30
0.0
 10
1714.551620144091
 20
1376.468114581206
 30
0.0
 10
1714.545668835443
 20
1376.433698523454
 30
0.0
 10
1714.556987974325
 20
1376.380983377268
 30
0.0
  0
SPLINE
  5
4FA2
330
A
100
AcDbEntity
  8
MODEL
100
AcDbSpline
210
0.0
220
0.0
230
1.0
 70
     8
 71
     3
 72
    58
 73
    54
 74
     0
 42
0.000000001
 43
0.0000000001
 40
0.0
 40
0.0
 40
0.0
 40
0.0
 40
1.191774200115481
 40
1.787005046772453
 40
2.382327941963878
 40
2.722703221966714
 40
3.06253565186206
 40
3.373677893088761
 40
3.684404614078635
 40
3.968844065239454
 40
4.252966688057957
 40
4.515325125998306
 40
4.777439365011434
 40
5.2040308893247
 40
5.603695042425156
 40
5.978308351235013
 40
6.332751617279065
 40
6.663406229890213
 40
7.276075059465857
 40
7.868215609434001
 40
8.16124385829272
 40
8.440080528353953
 40
8.706913433540793
 40
8.956370978555881
 40
9.205757311613322
 40
9.436911281708193
 40
9.668004102301595
 40
9.89570932186799
 40
10.12335267514955
 40
10.33727554138054
 40
10.55114170196161
 40
10.75354358738386
 40
10.95589420727697
 40
11.15022618580787
 40
11.34451713903888
 40
11.53234366689654
 40
11.72013261634195
 40
11.90235278647978
 40
12.08455068063897
 40
12.43320993322054
 40
12.78187477730864
 40
13.11712781449494
 40
13.45253151676827
 40
13.77855650452487
 40
14.10488827390567
 40
14.42847516884622
 40
14.75250864219164
 40
15.08047413908622
 40
15.40898003676251
 40
16.04165360758438
 40
16.67596705960962
 40
17.27592959319555
 40
17.80061773198219
 40
17.80061773198219
 40
17.80061773198219
 40
17.80061773198219
 10
1714.545185353545
 20
1376.462956889547
 30
0.0
 10
1714.53161482837
 20
1376.528794677215
 30
0.0
 10
1714.510155613565
 20
1376.633163761943
 30
0.0
 10
1714.478169336011
 20
1376.789042693955
 30
0.0
 10
1714.456665580603
 20
1376.893878856469
 30
0.0
 10
1714.436326034569
 20
1376.992983170144
 30
0.0
 10
1714.421534110006
 20
1377.065006415462
 30
0.0
 10
1714.404601150557
 20
1377.147360098053
 30
0.0
 10
1714.389904812484
 20
1377.21873985602
 30
0.0
 10
1714.373004707432
 20
1377.30068139176
 30
0.0
 10
1714.35821933811
 20
1377.372232086389
 30
0.0
 10
1714.341480057821
 20
1377.453060895378
 30
0.0
 10
1714.322832650264
 20
1377.542885028334
 30
0.0
 10
1714.298879130595
 20
1377.65787988936
 30
0.0
 10
1714.271221270576
 20
1377.789978080006
 30
0.0
 10
1714.243134127912
 20
1377.923395674836
 30
0.0
 10
1714.215518950361
 20
1378.053818815227
 30
0.0
 10
1714.178711012736
 20
1378.226610271347
 30
0.0
 10
1714.131994507206
 20
1378.443980571871
 30
0.0
 10
1714.080684260498
 20
1378.679596835223
 30
0.0
 10
1714.037440332828
 20
1378.875988002575
 30
0.0
 10
1714.004305391808
 20
1379.025357326944
 30
0.0
 10
1713.972045551421
 20
1379.169774586436
 30
0.0
 10
1713.937142417531
 20
1379.324874664715
 30
0.0
 10
1713.90583167729
 20
1379.463076368411
 30
0.0
 10
1713.870305037217
 20
1379.618815176246
 30
0.0
 10
1713.838022012286
 20
1379.759409231817
 30
0.0
 10
1713.80099927021
 20
1379.919585261392
 30
0.0
 10
1713.767025017896
 20
1380.065612007282
 30
0.0
 10
1713.729206024163
 20
1380.22714105717
 30
0.0
 10
1713.694710375525
 20
1380.373577047314
 30
0.0
 10
1713.656806308499
 20
1380.533545037383
 30
0.0
 10
1713.621636921992
 20
1380.681131401041
 30
0.0
 10
1713.583753032377
 20
1380.839252489488
 30
0.0
 10
1713.548351912616
 20
1380.986252915711
 30
0.0
 10
1713.509407722319
 20
1381.147160371693
 30
0.0
 10
1713.472655435827
 20
1381.298270284329
 30
0.0
 10
1713.433774089521
 20
1381.457403928405
 30
0.0
 10
1713.384893544202
 20
1381.656596165237
 30
0.0
 10
1713.318815075562
 20
1381.924197958768
 30
0.0
 10
1713.244729374965
 20
1382.221990380275
 30
0.0
 10
1713.163875636727
 20
1382.544826079961
 30
0.0
 10
1713.087308752453
 20
1382.848682547206
 30
0.0
 10
1713.006483403407
 20
1383.167771716543
 30
0.0
 10
1712.927898563656
 20
1383.476554503097
 30
0.0
 10
1712.847199212875
 20
1383.792392395975
 30
0.0
 10
1712.766143564685
 20
1384.108499454233
 30
0.0
 10
1712.686274189761
 20
1384.419080346401
 30
0.0
 10
1712.577867760293
 20
1384.839528728
 30
0.0
 10
1712.46165200907
 20
1385.288978294192
 30
0.0
 10
1712.307803016457
 20
1385.882198775842
 30
0.0
 10
1712.200257950779
 20
1386.296212608519
 30
0.0
 10
1712.089391541647
 20
1386.721800773478
 30
0.0
 10
1712.064018927837
 20
1386.819198282609
 30
0.0
  0
LINE
  5
4FA3
330
A
100
AcDbEntity
  8
MODEL
100
AcDbLine
 10
1714.545185353545
 20
1376.462956889547
 30
0.0
 11
1714.755886461736
 21
1375.465022636897
 31
0.0
  0
LINE
  5
4FA4
330
A
100
AcDbEntity
  8
MODEL
100
AcDbLine
 10
1714.545185404074
 20
994.9021865629472
 30
0.0
 11
1714.755879797371
 21
995.9000893518239
 31
0.0
  0
SPLINE
  5
4FA5
330
A
100
AcDbEntity
  8
MODEL
100
AcDbSpline
210
0.0
220
0.0
230
1.0
 70
     8
 71
     3
 72
    58
 73
    54
 74
     0
 42
0.000000001
 43
0.0000000001
 40
0.0
 40
0.0
 40
0.0
 40
0.0
 40
1.191774236918345
 40
1.787005101251967
 40
2.382328013550314
 40
2.722703299560643
 40
3.062535735392117
 40
3.373677984014613
 40
3.684404712332609
 40
3.968844171585181
 40
4.252966802434133
 40
4.515325248937605
 40
4.777439496458826
 40
5.204031052972525
 40
5.603695236030112
 40
5.978308572870576
 40
6.332751865628493
 40
6.663406502171518
 40
7.276075375709947
 40
7.868215973196976
 40
8.161244247465989
 40
8.440080940723622
 40
8.706913867304804
 40
8.956371430836212
 40
9.205757782382946
 40
9.436911768043917
 40
9.668004604184123
 40
9.895709840498231
 40
10.12335321050915
 40
10.3372760908853
 40
10.55114226559518
 40
10.75354416287349
 40
10.95589479460652
 40
11.15022678382409
 40
11.34451774772536
 40
11.53234428471667
 40
11.72013324327528
 40
11.90235342171991
 40
12.08455132416514
 40
12.43321059025557
 40
12.78187544776379
 40
13.11712849547172
 40
13.45253220817349
 40
13.7785572038536
 40
14.10488898107277
 40
14.42847588151003
 40
14.75250936028494
 40
15.08047486008292
 40
15.40898076062571
 40
16.04165434273925
 40
16.67596780622532
 40
17.27593039485639
 40
17.80061881781114
 40
17.80061881781114
 40
17.80061881781114
 40
17.80061881781114
 10
1714.545185404074
 20
994.9021865629472
 30
0.0
 10
1714.531614878724
 20
994.836348775221
 30
0.0
 10
1714.510155663734
 20
994.7319796908412
 30
0.0
 10
1714.47816938631
 20
994.5761007611143
 30
0.0
 10
1714.456665631155
 20
994.4712646008409
 30
0.0
 10
1714.436326085712
 20
994.3721602909061
 30
0.0
 10
1714.421534161539
 20
994.300137048034
 30
0.0
 10
1714.404601202786
 20
994.2177833694147
 30
0.0
 10
1714.38990486517
 20
994.1464036140821
 30
0.0
 10
1714.373004760862
 20
994.064462082373
 30
0.0
 10
1714.358219392068
 20
993.9929113905671
 30
0.0
 10
1714.341480112564
 20
993.9120825856369
 30
0.0
 10
1714.322832705426
 20
993.8222584548782
 30
0.0
 10
1714.298879186206
 20
993.7072635961083
 30
0.0
 10
1714.271221326441
 20
993.5751654065969
 30
0.0
 10
1714.243134184102
 20
993.4417478130488
 30
0.0
 10
1714.215519007013
 20
993.3113246744176
 30
0.0
 10
1714.178711069952
 20
993.1385332201896
 30
0.0
 10
1714.13199456522
 20
992.9211629220661
 30
0.0
 10
1714.080684319171
 20
992.6855466598788
 30
0.0
 10
1714.037440391775
 20
992.489155492003
 30
0.0
 10
1714.004305450834
 20
992.3397861665578
 30
0.0
 10
1713.972045610668
 20
992.1953689066138
 30
0.0
 10
1713.937142476823
 20
992.0402688269094
 30
0.0
 10
1713.905831736946
 20
991.9020671233154
 30
0.0
 10
1713.870305096951
 20
991.7463283140821
 30
0.0
 10
1713.838022072314
 20
991.605734258206
 30
0.0
 10
1713.800999330005
 20
991.4455582257649
 30
0.0
 10
1713.767025077737
 20
991.2995314783909
 30
0.0
 10
1713.729206083634
 20
991.1380024250391
 30
0.0
 10
1713.694710435072
 20
990.9915664335274
 30
0.0
 10
1713.656806367714
 20
990.8315984402141
 30
0.0
 10
1713.621636981214
 20
990.6840120748964
 30
0.0
 10
1713.583753091355
 20
990.5258909836555
 30
0.0
 10
1713.548351971743
 20
990.3788905563995
 30
0.0
 10
1713.509407780926
 20
990.2179830965031
 30
0.0
 10
1713.472655494281
 20
990.0668731816111
 30
0.0
 10
1713.433774147599
 20
989.9077395343045
 30
0.0
 10
1713.384893602203
 20
989.7085472950855
 30
0.0
 10
1713.318815132772
 20
989.440945495691
 30
0.0
 10
1713.244729432176
 20
989.1431530713596
 30
0.0
 10
1713.163875692732
 20
988.8203173639774
 30
0.0
 10
1713.0873088082
 20
988.5164608931807
 30
0.0
 10
1713.006483457997
 20
988.1973717168
 30
0.0
 10
1712.927898617987
 20
987.8885889270603
 30
0.0
 10
1712.847199265895
 20
987.5727510269933
 30
0.0
 10
1712.766143617362
 20
987.2566439655636
 30
0.0
 10
1712.686274240993
 20
986.9460630661777
 30
0.0
 10
1712.577867810543
 20
986.5256146788595
 30
0.0
 10
1712.461652052351
 20
986.0761650841157
 30
0.0
 10
1712.307803059845
 20
985.4829446012443
 30
0.0
 10
1712.200257941571
 20
985.0689305656849
 30
0.0
 10
1712.089391545056
 20
984.6433424489949
 30
0.0
 10
1712.064018915774
 20
984.5459448804611
 30
0.0
  0
SPLINE
  5
4FA6
330
A
100
AcDbEntity
  8
MODEL
100
AcDbSpline
210
0.0
220
0.0
230
1.0
 70
     8
 71
     7
 72
    31
 73
    23
 74
     0
 42
0.000000001
 43
0.0000000001
 40
0.0
 40
0.0
 40
0.0
 40
0.0
 40
0.0
 40
0.0
 40
0.0
 40
0.0
 40
0.3811359999999999
 40
0.3811359999999999
 40
0.3811359999999999
 40
0.3811359999999999
 40
0.3811359999999999
 40
0.4591999999999999
 40
0.4591999999999999
 40
0.4591999999999999
 40
0.4591999999999999
 40
0.4591999999999999
 40
0.82
 40
0.82
 40
0.82
 40
0.82
 40
0.82
 40
1.0
 40
1.0
 40
1.0
 40
1.0
 40
1.0
 40
1.0
 40
1.0
 40
1.0
 10
1599.158187736887
 20
699.2529512643521
 30
0.0
 10
1599.158187736887
 20
698.3641775120775
 30
0.0
 10
1599.126957143107
 20
697.4754037598175
 30
0.0
 10
1599.070094321566
 20
696.5879247021073
 30
0.0
 10
1598.981003027914
 20
695.7023713898523
 30
0.0
 10
1598.857578869722
 20
694.8210257082972
 30
0.0
 10
1598.665669680817
 20
693.7667054110204
 30
0.0
 10
1598.424111946842
 20
692.7234593014434
 30
0.0
 10
1598.382195051561
 20
692.5463134544696
 30
0.0
 10
1598.337608654173
 20
692.3697613574038
 30
0.0
 10
1598.289709115634
 20
692.1941037392096
 30
0.0
 10
1598.007152949278
 20
691.2103815204316
 30
0.0
 10
1597.644773398366
 20
690.2508450494349
 30
0.0
 10
1597.300234300795
 20
689.4814091229198
 30
0.0
 10
1596.904804369482
 20
688.7323754689567
 30
0.0
 10
1596.456725487627
 20
688.0191680214045
 30
0.0
 10
1595.679832965003
 20
687.0040420462026
 30
0.0
 10
1594.68867123596
 20
686.2173871780249
 30
0.0
 10
1594.331914633374
 20
685.9869623024131
 30
0.0
 10
1593.947289005339
 20
685.8119978725588
 30
0.0
 10
1593.523695267037
 20
685.6836027101524
 30
0.0
 10
1593.103951985354
 20
685.6825716047022
 30
0.0
 10
1592.684208703672
 20
685.6825716047022
 30
0.0
  0
SPLINE
  5
4FA7
330
A
100
AcDbEntity
  8
MODEL
100
AcDbSpline
210
0.0
220
0.0
230
1.0
 70
     8
 71
     7
 72
    21
 73
    13
 74
     0
 42
0.000000001
 43
0.0000000001
 40
0.0
 40
0.0
 40
0.0
 40
0.0
 40
0.0
 40
0.0
 40
0.0
 40
0.0
 40
0.8399999999999999
 40
0.8399999999999999
 40
0.8399999999999999
 40
0.8399999999999999
 40
0.8399999999999999
 40
1.0
 40
1.0
 40
1.0
 40
1.0
 40
1.0
 40
1.0
 40
1.0
 40
1.0
 10
1592.684208703672
 20
685.6825716047022
 30
0.0
 10
1592.198091429165
 20
685.6825716047022
 30
0.0
 10
1591.711974154659
 20
685.684831956765
 30
0.0
 10
1591.227872967423
 20
685.6957515927495
 30
0.0
 10
1590.735319560172
 20
685.6965945596892
 30
0.0
 10
1590.258134893152
 20
685.7469725647532
 30
0.0
 10
1589.673871801745
 20
685.8177784882134
 30
0.0
 10
1589.127721642474
 20
686.0102421239424
 30
0.0
 10
1589.039441178076
 20
686.0432155855231
 30
0.0
 10
1588.962676129561
 20
686.0878506602892
 30
0.0
 10
1588.871153449178
 20
686.1252539877457
 30
0.0
 10
1588.802438164976
 20
686.1875181670619
 30
0.0
 10
1588.737276062197
 20
686.2533019490218
 30
0.0
  0
LINE
  5
4FA8
330
A
100
AcDbEntity
  8
MODEL
100
AcDbLine
 10
1599.158187736886
 20
699.2529512643521
 30
0.0
 11
1599.158187736886
 21
753.9091742218732
 31
0.0
  0
LINE
  5
4FA9
330
A
100
AcDbEntity
  8
MODEL
100
AcDbLine
 10
1599.158187736885
 20
753.9091742026501
 30
0.0
 11
1599.158187736885
 21
1617.45596901761
 31
0.0
  0
LINE
  5
4FAA
330
A
100
AcDbEntity
  8
MODEL
100
AcDbLine
 10
1599.158187736886
 20
1617.455968998386
 30
0.0
 11
1599.158187736886
 21
1672.112191945052
 31
0.0
  0
SPLINE
  5
4FAB
330
A
100
AcDbEntity
  8
MODEL
100
AcDbSpline
210
0.0
220
0.0
230
1.0
 70
     8
 71
     7
 72
    31
 73
    23
 74
     0
 42
0.000000001
 43
0.0000000001
 40
0.0
 40
0.0
 40
0.0
 40
0.0
 40
0.0
 40
0.0
 40
0.0
 40
0.0
 40
0.3811359999999999
 40
0.3811359999999999
 40
0.3811359999999999
 40
0.3811359999999999
 40
0.3811359999999999
 40
0.4591999999999999
 40
0.4591999999999999
 40
0.4591999999999999
 40
0.4591999999999999
 40
0.4591999999999999
 40
0.82
 40
0.82
 40
0.82
 40
0.82
 40
0.82
 40
1.0
 40
1.0
 40
1.0
 40
1.0
 40
1.0
 40
1.0
 40
1.0
 40
1.0
 10
1599.158187736886
 20
1672.112191945052
 30
0.0
 10
1599.158187736885
 20
1673.000965697312
 30
0.0
 10
1599.126957143106
 20
1673.889739449573
 30
0.0
 10
1599.070094321564
 20
1674.777218507297
 30
0.0
 10
1598.981003027912
 20
1675.662771819538
 30
0.0
 10
1598.857578869721
 20
1676.544117501108
 30
0.0
 10
1598.665669680815
 20
1677.598437798383
 30
0.0
 10
1598.42411194684
 20
1678.641683907947
 30
0.0
 10
1598.382195051559
 20
1678.818829754935
 30
0.0
 10
1598.337608654172
 20
1678.995381852
 30
0.0
 10
1598.289709115633
 20
1679.171039470195
 30
0.0
 10
1598.007152949277
 20
1680.154761688972
 30
0.0
 10
1597.644773398365
 20
1681.11429815997
 30
0.0
 10
1597.300234300793
 20
1681.88373408647
 30
0.0
 10
1596.90480436948
 20
1682.632767740447
 30
0.0
 10
1596.456725487626
 20
1683.345975188
 30
0.0
 10
1595.679832965002
 20
1684.361101163187
 30
0.0
 10
1594.688671235959
 20
1685.147756031364
 30
0.0
 10
1594.331914633372
 20
1685.378180906991
 30
0.0
 10
1593.947289005337
 20
1685.553145336846
 30
0.0
 10
1593.523695267035
 20
1685.681540499251
 30
0.0
 10
1593.103951985353
 20
1685.682571604703
 30
0.0
 10
1592.68420870367
 20
1685.682571604703
 30
0.0
  0
SPLINE
  5
4FAC
330
A
100
AcDbEntity
  8
MODEL
100
AcDbSpline
210
0.0
220
0.0
230
1.0
 70
     8
 71
     7
 72
    21
 73
    13
 74
     0
 42
0.000000001
 43
0.0000000001
 40
0.0
 40
0.0
 40
0.0
 40
0.0
 40
0.0
 40
0.0
 40
0.0
 40
0.0
 40
0.8399999999999999
 40
0.8399999999999999
 40
0.8399999999999999
 40
0.8399999999999999
 40
0.8399999999999999
 40
1.0
 40
1.0
 40
1.0
 40
1.0
 40
1.0
 40
1.0
 40
1.0
 40
1.0
 10
1592.68420870367
 20
1685.682571604703
 30
0.0
 10
1592.198091429164
 20
1685.682571604703
 30
0.0
 10
1591.711974154658
 20
1685.680311252625
 30
0.0
 10
1591.227872967422
 20
1685.669391616655
 30
0.0
 10
1590.73531956017
 20
1685.668548649716
 30
0.0
 10
1590.258134893151
 20
1685.618170644637
 30
0.0
 10
1589.673871801745
 20
1685.547364721177
 30
0.0
 10
1589.127721642473
 20
1685.354901085447
 30
0.0
 10
1589.039441178074
 20
1685.321927623866
 30
0.0
 10
1588.96267612956
 20
1685.277292549116
 30
0.0
 10
1588.871153449176
 20
1685.239889221659
 30
0.0
 10
1588.802438164975
 20
1685.177625042342
 30
0.0
 10
1588.737276062195
 20
1685.111841260383
 30
0.0
  0
LINE
  5
4FAD
330
A
100
AcDbEntity
  8
MODEL
100
AcDbLine
 10
1766.987316806564
 20
1154.256217679824
 30
0.0
 11
1766.987316806564
 21
1217.108924894869
 31
0.0
  0
LINE
  5
4FAE
330
A
100
AcDbEntity
  8
MODEL
100
AcDbLine
 10
1764.249015729705
 20
1151.267653948569
 30
0.0
 11
1764.249015729705
 21
1220.097488565749
 31
0.0
  0
ARC
  5
4FAF
330
A
100
AcDbEntity
  8
MODEL
100
AcDbCircle
 10
1763.987316897477
 20
1154.256217679824
 30
0.0
 40
2.999999909087109
100
AcDbArc
 50
275.0044403739209
 51
0.0
  0
SPLINE
  5
4FB0
330
A
100
AcDbEntity
  8
MODEL
100
AcDbSpline
210
0.0
220
0.0
230
1.0
 70
     8
 71
     3
 72
    33
 73
    29
 74
     0
 42
0.000000001
 43
0.0000000001
 40
0.0
 40
0.0
 40
0.0
 40
0.0
 40
6.174266202082109
 40
10.76825317175347
 40
15.56890566189477
 40
20.36504584184156
 40
23.20598176067699
 40
25.16751894077331
 40
27.55707942743178
 40
29.7207489846374
 40
31.88272437866175
 40
34.50479703715569
 40
38.02993660185394
 40
39.35511462050986
 40
42.00825190693391
 40
43.99640052261437
 40
46.20422750143265
 40
47.08539674725799
 40
48.83494008440649
 40
50.57396787608801
 40
52.09011913801414
 40
53.60225574375392
 40
56.18745052288638
 40
58.33936577402239
 40
61.90075444756629
 40
64.68873946112136
 40
68.28035463422049
 40
73.47599096569286
 40
73.47599096569286
 40
73.47599096569286
 40
73.47599096569286
 10
1727.685239694677
 20
1185.682571604703
 30
0.0
 10
1727.685239694677
 20
1183.645242266444
 30
0.0
 10
1727.687731907525
 20
1180.091656337201
 30
0.0
 10
1727.697049757515
 20
1175.031181584927
 30
0.0
 10
1727.708583466685
 20
1170.52617816061
 30
0.0
 10
1727.71911603825
 20
1166.716876656136
 30
0.0
 10
1727.726059275583
 20
1163.886419948802
 30
0.0
 10
1727.73045848774
 20
1161.82388059252
 30
0.0
 10
1727.733617460209
 20
1160.006073054013
 30
0.0
 10
1727.736841207179
 20
1158.187030523389
 30
0.0
 10
1727.741141571455
 20
1156.365202450557
 30
0.0
 10
1727.74770140064
 20
1154.275649269722
 30
0.0
 10
1727.754120927005
 20
1152.508402646199
 30
0.0
 10
1727.760032779549
 20
1150.827911291577
 30
0.0
 10
1727.764226318521
 20
1149.55561196123
 30
0.0
 10
1727.767333381758
 20
1148.185376093955
 30
0.0
 10
1727.767879005754
 20
1147.233345754037
 30
0.0
 10
1727.766793649137
 20
1146.370209169341
 30
0.0
 10
1727.764973610088
 20
1145.622986177128
 30
0.0
 10
1727.762375853708
 20
1144.819873862972
 30
0.0
 10
1727.759430923665
 20
1144.104259072977
 30
0.0
 10
1727.75531185362
 20
1143.315720621642
 30
0.0
 10
1727.750223600833
 20
1142.51959513103
 30
0.0
 10
1727.743750875514
 20
1141.590825974563
 30
0.0
 10
1727.738679713394
 20
1140.801431807966
 30
0.0
 10
1727.733754016097
 20
1140.096413831183
 30
0.0
 10
1727.728280353126
 20
1139.530432552317
 30
0.0
 10
1727.726499143265
 20
1139.370126716763
 30
0.0
 10
1727.726499134647
 20
1139.370126717331
 30
0.0
  0
SPLINE
  5
4FB1
330
A
100
AcDbEntity
  8
MODEL
100
AcDbSpline
210
0.0
220
0.0
230
1.0
 70
     8
 71
     3
 72
    33
 73
    29
 74
     0
 42
0.000000001
 43
0.0000000001
 40
0.0
 40
0.0
 40
0.0
 40
0.0
 40
3.848837597120333
 40
6.050504443749753
 40
8.676580730952596
 40
10.64378785313528
 40
12.38787282792216
 40
15.43018306820403
 40
17.81738127084197
 40
20.22161928388786
 40
21.76112650749738
 40
23.30482400373703
 40
25.07636966956169
 40
27.30690434193511
 40
29.76942373900211
 40
31.78570676572767
 40
34.66251469806374
 40
35.75863058084378
 40
39.47576391838862
 40
41.87030269588851
 40
44.04200335385029
 40
46.21647522296139
 40
48.84650429769972
 40
50.82767518572268
 40
53.69698612433624
 40
58.57192258297351
 40
64.90406604880674
 40
73.47598643528562
 40
73.47598643528562
 40
73.47598643528562
 40
73.47598643528562
 10
1727.726499134647
 20
1231.995016492074
 30
0.0
 10
1727.726499143019
 20
1231.995016311527
 30
0.0
 10
1727.727401354595
 20
1231.913293869248
 30
0.0
 10
1727.730448130968
 20
1231.612526393656
 30
0.0
 10
1727.73365504687
 20
1231.262825890823
 30
0.0
 10
1727.736856783793
 20
1230.83625595484
 30
0.0
 10
1727.740332424913
 20
1230.294809070125
 30
0.0
 10
1727.744952087129
 20
1229.602055172435
 30
0.0
 10
1727.751187423002
 20
1228.704105733791
 30
0.0
 10
1727.756289753695
 20
1227.879637718986
 30
0.0
 10
1727.760180304654
 20
1227.096248835717
 30
0.0
 10
1727.763042360064
 20
1226.355460244813
 30
0.0
 10
1727.765815663302
 20
1225.45083970818
 30
0.0
 10
1727.768122798287
 20
1224.321055741427
 30
0.0
 10
1727.767170914019
 20
1223.056645734556
 30
0.0
 10
1727.763542178155
 20
1221.572119058153
 30
0.0
 10
1727.759141407864
 20
1220.280564795728
 30
0.0
 10
1727.752986812392
 20
1218.541193664001
 30
0.0
 10
1727.746748501042
 20
1216.821577800335
 30
0.0
 10
1727.740411097566
 20
1214.723565188368
 30
0.0
 10
1727.736386094527
 20
1212.947992021552
 30
0.0
 10
1727.733114119016
 20
1211.050650713398
 30
0.0
 10
1727.729694889631
 20
1209.147176431288
 30
0.0
 10
1727.724902798375
 20
1206.987612077472
 30
0.0
 10
1727.717657662092
 20
1204.102328794819
 30
0.0
 10
1727.70560869538
 20
1199.767839594934
 30
0.0
 10
1727.690174275105
 20
1193.429658096022
 30
0.0
 10
1727.685239694677
 20
1188.511057503594
 30
0.0
 10
1727.685239694677
 20
1185.682571604703
 30
0.0
  0
SPLINE
  5
4FB2
330
A
100
AcDbEntity
  8
MODEL
100
AcDbSpline
210
0.0
220
0.0
230
1.0
 70
     8
 71
     3
 72
    14
 73
    10
 74
     0
 42
0.000000001
 43
0.0000000001
 40
0.0
 40
0.0
 40
0.0
 40
0.0
 40
16.30989292063055
 40
34.66445491166503
 40
54.56510046023459
 40
75.44526380703574
 40
96.61091467327333
 40
117.3651674861042
 40
137.031286396667
 40
137.031286396667
 40
137.031286396667
 40
137.031286396667
 10
1727.726499098658
 20
1139.370125925314
 30
0.0
 10
1727.474145341611
 20
1133.939354900518
 30
0.0
 10
1726.971684623087
 20
1122.395455290723
 30
0.0
 10
1726.13811146296
 20
1104.226145622189
 30
0.0
 10
1725.082734513373
 20
1084.542286689582
 30
0.0
 10
1723.707952995
 20
1063.938427706263
 30
0.0
 10
1721.890434057436
 20
1043.081887046588
 30
0.0
 10
1719.516302559838
 20
1022.687703991527
 30
0.0
 10
1717.406248646835
 20
1009.373291918993
 30
0.0
 10
1716.179758543024
 20
1002.933677271896
 30
0.0
  0
LINE
  5
4FB3
330
A
100
AcDbEntity
  8
MODEL
100
AcDbLine
 10
1736.84339099158
 20
1148.867832283256
 30
0.0
 11
1764.249015729705
 21
1151.267653948569
 31
0.0
  0
SPLINE
  5
4FB4
330
A
100
AcDbEntity
  8
MODEL
100
AcDbSpline
210
0.0
220
0.0
230
1.0
 70
     8
 71
     3
 72
    14
 73
    10
 74
     0
 42
0.000000001
 43
0.0000000001
 40
0.0
 40
0.0
 40
0.0
 40
0.0
 40
16.30989293082487
 40
34.66445498503776
 40
54.56510063881235
 40
75.44526412484208
 40
96.61091515037947
 40
117.3651681266825
 40
137.0312871895021
 40
137.0312871895021
 40
137.0312871895021
 40
137.0312871895021
 10
1727.72649913546
 20
1231.995016492102
 30
0.0
 10
1727.474145376505
 20
1237.425787520217
 30
0.0
 10
1726.971684656581
 20
1248.969687154429
 30
0.0
 10
1726.138111497714
 20
1267.138996882612
 30
0.0
 10
1725.082734549672
 20
1286.822855917984
 30
0.0
 10
1723.707953031201
 20
1307.42671503617
 30
0.0
 10
1721.890434089984
 20
1328.283255850125
 30
0.0
 10
1719.516302582877
 20
1348.677439063526
 30
0.0
 10
1717.406248656604
 20
1361.991851240658
 30
0.0
 10
1716.179758543296
 20
1368.43146593761
 30
0.0
  0
ARC
  5
4FB5
330
A
100
AcDbEntity
  8
MODEL
100
AcDbCircle
 10
1737.715720457957
 20
1138.905952877132
 30
0.0
 40
10.00000000000001
100
AcDbArc
 50
95.00444037391776
 51
177.3395238507597
  0
ARC
  5
4FB6
330
A
100
AcDbEntity
  8
MODEL
100
AcDbCircle
 10
1737.715720457957
 20
1232.459190332273
 30
0.0
 40
10.0
100
AcDbArc
 50
182.6604761492403
 51
264.9955596260822
  0
LINE
  5
4FB7
330
A
100
AcDbEntity
  8
MODEL
100
AcDbLine
 10
1678.158186462295
 20
759.3578364936691
 30
0.0
 11
1678.158186462295
 21
1612.007306381885
 31
0.0
  0
ARC
  5
4FB8
330
A
100
AcDbEntity
  8
MODEL
100
AcDbCircle
 10
1674.158186462295
 20
759.3578364936691
 30
0.0
 40
4.0
100
AcDbArc
 50
272.0000050089439
 51
0.0
  0
LINE
  5
4FB9
330
A
100
AcDbEntity
  8
MODEL
100
AcDbLine
 10
1601.676414335936
 20
703.0127986882578
 30
0.0
 11
1601.695148601962
 21
703.0196174034497
 31
0.0
  0
LINE
  5
4FBA
330
A
100
AcDbEntity
  8
MODEL
100
AcDbLine
 10
1601.132126032319
 20
1668.550449262518
 30
0.0
 11
1601.150824440543
 21
1668.543643598503
 31
0.0
  0
SPLINE
  5
4FBB
330
A
100
AcDbEntity
  8
MODEL
100
AcDbSpline
210
0.0
220
0.0
230
1.0
 70
    24
 71
     3
 72
    24
 73
    20
 74
     0
 42
0.000000001
 43
0.0000000001
 40
0.0
 40
0.0
 40
0.0
 40
0.0
 40
2.821454351161324
 40
7.422000410567756
 40
13.26033291502437
 40
19.26617454355642
 40
25.00028015503104
 40
31.52169651525949
 40
37.85701134183759
 40
45.15168316269486
 40
51.5758024207364
 40
58.47545620558069
 40
64.6688861435897
 40
72.27536140706772
 40
78.75168178892828
 40
85.77284207770082
 40
92.35292725524879
 40
97.96463946016982
 40
103.4109742428998
 40
103.4109742428998
 40
103.4109742428998
 40
103.4109742428998
 10
1588.158187736885
 20
1683.704357685798
 30
0.0
 10
1588.158187736885
 20
1683.704357685885
 30
0.0
 10
1588.158187736885
 20
1683.639527531413
 30
0.0
 10
1588.158187736885
 20
1683.232901476061
 30
0.0
 10
1588.158187736885
 20
1682.257784357847
 30
0.0
 10
1588.158187736885
 20
1680.691743269374
 30
0.0
 10
1588.158187736885
 20
1678.564494547755
 30
0.0
 10
1588.158187736885
 20
1675.893756399716
 30
0.0
 10
1588.158187736885
 20
1672.452214717458
 30
0.0
 10
1588.158187736885
 20
1668.477379491246
 30
0.0
 10
1588.158187736885
 20
1663.85704440884
 30
0.0
 10
1588.158187736885
 20
1659.031562942459
 30
0.0
 10
1588.158187736885
 20
1653.494458805392
 30
0.0
 10
1588.158187736885
 20
1647.691811556055
 30
0.0
 10
1588.158187736885
 20
1641.319755793477
 30
0.0
 10
1588.158187736885
 20
1635.007681128335
 30
0.0
 10
1588.158187736885
 20
1628.780975980161
 30
0.0
 10
1588.158187736885
 20
1622.957381508196
 30
0.0
 10
1588.158187736885
 20
1619.270705210321
 30
0.0
 10
1588.158187736885
 20
1617.455969140806
 30
0.0
  0
LINE
  5
4FBC
330
A
100
AcDbEntity
  8
MODEL
100
AcDbLine
 10
1588.158187736885
 20
1617.45596901761
 30
0.0
 11
1588.158187736885
 21
753.9091742026501
 31
0.0
  0
LINE
  5
4FBD
330
A
100
AcDbEntity
  8
MODEL
100
AcDbLine
 10
1588.158187736885
 20
753.9091740791916
 30
0.0
 11
1588.158187736885
 21
687.6607855236068
 31
0.0
  0
ARC
  5
4FBE
330
A
100
AcDbEntity
  8
MODEL
100
AcDbCircle
 10
1590.158187736885
 20
1683.704357685798
 30
0.0
 40
2.000000000000028
100
AcDbArc
 50
135.2720156183266
 51
180.0
  0
ARC
  5
4FBF
330
A
100
AcDbEntity
  8
MODEL
100
AcDbCircle
 10
1590.158187736885
 20
687.6607855236068
 30
0.0
 40
2.000000000000051
100
AcDbArc
 50
180.0
 51
224.7279843816711
  0
LINE
  5
4FC0
330
A
100
AcDbEntity
  8
MODEL
100
AcDbLine
 10
1726.844685034367
 20
1251.644164170021
 30
0.0
 11
1726.751725443155
 21
1253.694046339398
 31
0.0
  0
LINE
  5
4FC1
330
A
100
AcDbEntity
  8
MODEL
100
AcDbLine
 10
1727.634006156073
 20
1234.002291247655
 30
0.0
 11
1727.677965872315
 21
1233.045607690249
 31
0.0
  0
SPLINE
  5
4FC2
330
A
100
AcDbEntity
  8
MODEL
100
AcDbSpline
210
0.0
220
0.0
230
1.0
 70
     8
 71
     3
 72
     8
 73
     4
 74
     0
 42
0.000000001
 43
0.0000000001
 40
75.15552802437956
 40
75.15552802437956
 40
75.15552802437956
 40
75.15552802437956
 40
76.62534011928993
 40
76.62534011928993
 40
76.62534011928993
 40
76.62534011928993
 10
1716.451441556839
 20
1366.98703392723
 30
0.0
 10
1716.373439558099
 20
1367.471434622116
 30
0.0
 10
1716.314066065013
 20
1367.960297158249
 30
0.0
 10
1716.17975854389
 20
1368.431465937713
 30
0.0
  0
SPLINE
  5
4FC3
330
A
100
AcDbEntity
  8
MODEL
100
AcDbSpline
210
0.0
220
0.0
230
1.0
 70
     8
 71
     3
 72
     8
 73
     4
 74
     0
 42
0.000000001
 43
0.0000000001
 40
2.58199896212922
 40
2.58199896212922
 40
2.58199896212922
 40
2.58199896212922
 40
31.39669363963903
 40
31.39669363963903
 40
31.39669363963903
 40
31.39669363963903
 10
1716.566027612836
 20
1366.366748851578
 30
0.0
 10
1717.919358328743
 20
1359.185310122833
 30
0.0
 10
1718.178670286955
 20
1357.515830880423
 30
0.0
 10
1719.440326081115
 20
1348.206146321274
 30
0.0
  0
LINE
  5
4FC4
330
A
100
AcDbEntity
  8
MODEL
100
AcDbLine
 10
1726.844685034368
 20
1119.720979039397
 30
0.0
 11
1726.75172544318
 21
1117.671096870544
 31
0.0
  0
LINE
  5
4FC5
330
A
100
AcDbEntity
  8
MODEL
100
AcDbLine
 10
1727.634006154728
 20
1137.36285193004
 30
0.0
 11
1727.677966026084
 21
1138.319539030955
 31
0.0
  0
SPLINE
  5
4FC6
330
A
100
AcDbEntity
  8
MODEL
100
AcDbSpline
210
0.0
220
0.0
230
1.0
 70
     8
 71
     3
 72
     8
 73
     4
 74
     0
 42
0.000000001
 43
0.0000000001
 40
75.15553359651092
 40
75.15553359651092
 40
75.15553359651092
 40
75.15553359651092
 40
76.62534607132264
 40
76.62534607132264
 40
76.62534607132264
 40
76.62534607132264
 10
1716.451441625749
 20
1004.378109656041
 30
0.0
 10
1716.373439603688
 20
1003.893708836796
 30
0.0
 10
1716.314066093984
 20
1003.404846174788
 30
0.0
 10
1716.179758543906
 20
1002.933677271896
 30
0.0
  0
SPLINE
  5
4FC7
330
A
100
AcDbEntity
  8
MODEL
100
AcDbSpline
210
0.0
220
0.0
230
1.0
 70
     8
 71
     3
 72
     8
 73
     4
 74
     0
 42
0.000000001
 43
0.0000000001
 40
72.19081395067091
 40
72.19081395067091
 40
72.19081395067091
 40
72.19081395067091
 40
73.67587650176145
 40
73.67587650176145
 40
73.67587650176145
 40
73.67587650176145
 10
1716.979682369724
 20
1007.295282780949
 30
0.0
 10
1716.89445907789
 20
1006.807577370811
 30
0.0
 10
1716.809641864552
 20
1006.319783762388
 30
0.0
 10
1716.718341409557
 20
1005.833445518612
 30
0.0
  0
SPLINE
  5
4FC8
330
A
100
AcDbEntity
  8
MODEL
100
AcDbSpline
210
0.0
220
0.0
230
1.0
 70
     8
 71
     3
 72
     8
 73
     4
 74
     0
 42
0.000000001
 43
0.0000000001
 40
2.581999093734586
 40
2.581999093734586
 40
2.581999093734586
 40
2.581999093734586
 40
31.39669439072181
 40
31.39669439072181
 40
31.39669439072181
 40
31.39669439072181
 10
1716.566027636757
 20
1004.998394487134
 30
0.0
 10
1717.919358371663
 20
1012.179833315429
 30
0.0
 10
1718.178670318297
 20
1013.84931247984
 30
0.0
 10
1719.440326185207
 20
1023.158997652877
 30
0.0
  0
SPLINE
  5
4FC9
330
A
100
AcDbEntity
  8
MODEL
100
AcDbSpline
210
0.0
220
0.0
230
1.0
 70
     8
 71
     3
 72
    44
 73
    40
 74
     0
 42
0.000000001
 43
0.0000000001
 40
0.0
 40
0.0
 40
0.0
 40
0.0
 40
3.505499781008753
 40
7.595854196602678
 40
10.51757897230529
 40
15.19289050879259
 40
25.13013451063395
 40
30.9745365524232
 40
37.40201925179953
 40
40.32342723156191
 40
43.82927967627173
 40
46.16673349280573
 40
52.01130003244502
 40
55.51860970661573
 40
59.02623805831274
 40
61.36474833986149
 40
64.87204182740359
 40
66.62544766500356
 40
68.9632659530068
 40
70.1321535316268
 40
72.46968562814159
 40
73.05404350445076
 40
73.63842594152945
 40
74.2228698052825
 40
74.8074372217065
 40
75.5405985341288
 40
75.80829097155521
 40
75.94135611857114
 40
76.08199061458681
 40
76.12394095276903
 40
76.15826087635358
 40
76.28990738694215
 40
76.39518629641155
 40
76.5828218538433
 40
76.70223935433779
 40
77.08177350426368
 40
77.59296105766838
 40
78.10593278960833
 40
78.51293421050129
 40
78.51293421050129
 40
78.51293421050129
 40
78.51293421050129
 10
1603.011108591111
 20
1617.455969012183
 30
0.0
 10
1603.011108591111
 20
1618.624086856885
 30
0.0
 10
1603.010835844696
 20
1621.156399637315
 30
0.0
 10
1603.012962194719
 20
1624.631819554605
 30
0.0
 10
1603.016936655845
 20
1628.439067796193
 30
0.0
 10
1603.023974575334
 20
1634.038331081756
 30
0.0
 10
1603.024796685845
 20
1640.245177048652
 30
0.0
 10
1603.01958821936
 20
1646.415260538954
 30
0.0
 10
1603.017538020322
 20
1650.272228121074
 30
0.0
 10
1603.018378479268
 20
1653.261578222912
 30
0.0
 10
1603.019944740998
 20
1655.164476185643
 30
0.0
 10
1603.022715889581
 20
1657.529081762448
 30
0.0
 10
1603.025510797225
 20
1659.644731237421
 30
0.0
 10
1603.026391459919
 20
1661.638956542854
 30
0.0
 10
1603.025377595706
 20
1662.90141988969
 30
0.0
 10
1603.022920322523
 20
1664.000481558337
 30
0.0
 10
1603.020076538717
 20
1664.755523866901
 30
0.0
 10
1603.017084237621
 20
1665.378743281645
 30
0.0
 10
1603.015243061465
 20
1665.735286749958
 30
0.0
 10
1603.013595204624
 20
1666.057860357105
 30
0.0
 10
1603.012744870769
 20
1666.228916501976
 30
0.0
 10
1603.012240437237
 20
1666.336169944582
 30
0.0
 10
1603.01201021369
 20
1666.382137208828
 30
0.0
 10
1603.011794505082
 20
1666.420489362441
 30
0.0
 10
1603.011549450685
 20
1666.455183707222
 30
0.0
 10
1603.011320479376
 20
1666.478148732697
 30
0.0
 10
1603.010914591985
 20
1666.503551851973
 30
0.0
 10
1603.010300170166
 20
1666.526261823891
 30
0.0
 10
1603.009580601949
 20
1666.548369074822
 30
0.0
 10
1603.008069757805
 20
1666.577544625979
 30
0.0
 10
1603.006097935738
 20
1666.610510234809
 30
0.0
 10
1603.000212631717
 20
1666.684467735118
 30
0.0
 10
1602.981509653918
 20
1666.819110892611
 30
0.0
 10
1602.95303021445
 20
1666.952925017089
 30
0.0
 10
1602.888480087078
 20
1667.171849279154
 30
0.0
 10
1602.75336934833
 20
1667.481909294409
 30
0.0
 10
1602.473949605114
 20
1667.86200441695
 30
0.0
 10
1602.10031987318
 20
1668.164741322485
 30
0.0
 10
1601.822468223249
 20
1668.299186286488
 30
0.0
 10
1601.695182394353
 20
1668.345516712651
 30
0.0
  0
LINE
  5
4FCA
330
A
100
AcDbEntity
  8
MODEL
100
AcDbLine
 10
1603.011109192921
 20
753.9091741972222
 30
0.0
 11
1603.011109192921
 21
1617.455969012183
 31
0.0
  0
SPLINE
  5
4FCB
330
A
100
AcDbEntity
  8
MODEL
100
AcDbSpline
210
0.0
220
0.0
230
1.0
 70
     8
 71
     3
 72
    54
 73
    50
 74
     0
 42
0.000000001
 43
0.0000000001
 40
0.0
 40
0.0
 40
0.0
 40
0.0
 40
0.3847169476159086
 40
0.8976866196804498
 40
1.282448294803751
 40
1.410723010453793
 40
1.667361724562596
 40
1.795795092220717
 40
1.860134168823771
 40
1.989016675673049
 40
2.109153112378073
 40
2.16539170470054
 40
2.194641849565353
 40
2.223888698145707
 40
2.255041785723426
 40
2.288762567303229
 40
2.31276261702183
 40
2.336756711476566
 40
2.366074551508232
 40
2.401143517142705
 40
2.447500235582601
 40
2.510797760534321
 40
2.608052556253795
 40
2.773707841731158
 40
3.519576505818259
 40
4.264639905722174
 40
4.866677640869715
 40
5.468649388491515
 40
6.070595519307694
 40
7.575698637992188
 40
8.930531829438209
 40
10.86983375736072
 40
12.03858021359941
 40
13.20736578453018
 40
14.37622891112878
 40
16.12967660614162
 40
19.63700870483638
 40
24.89827597594107
 40
27.23636092025698
 40
30.15869660098517
 40
33.08068465122621
 40
38.92375658202886
 40
44.18233162134748
 40
52.94848962012293
 40
57.62493101945662
 40
66.39264515196848
 40
73.40470032489715
 40
76.43429583631632
 40
78.51293361865986
 40
78.51293361865986
 40
78.51293361865986
 40
78.51293361865986
 10
1601.695182728952
 20
703.0196266182318
 30
0.0
 10
1601.81551885154
 20
703.0634274637557
 30
0.0
 10
1602.087176879255
 20
703.1930126547229
 30
0.0
 10
1602.424977759496
 20
703.4605443984472
 30
0.0
 10
1602.640132966541
 20
703.7284886273553
 30
0.0
 10
1602.773926910914
 20
703.9475249889072
 30
0.0
 10
1602.848808441568
 20
704.101680446314
 30
0.0
 10
1602.900997252513
 20
704.2420782848637
 30
0.0
 10
1602.933377239833
 20
704.3438962543148
 30
0.0
 10
1602.96014211086
 20
704.4446887992815
 30
0.0
 10
1602.979855671102
 20
704.5430076329064
 30
0.0
 10
1602.990156042433
 20
704.6091936847222
 30
0.0
 10
1602.994854705885
 20
704.643882683187
 30
0.0
 10
1602.998269142876
 20
704.6719819963616
 30
0.0
 10
1603.00115691529
 20
704.6988197444296
 30
0.0
 10
1603.003463464237
 20
704.7235546892477
 30
0.0
 10
1603.004936180836
 20
704.7412886505188
 30
0.0
 10
1603.006350625893
 20
704.7602126143463
 30
0.0
 10
1603.00739266281
 20
704.7761365676413
 30
0.0
 10
1603.00842956539
 20
704.7941094622508
 30
0.0
 10
1603.009246350883
 20
704.8109465189043
 30
0.0
 10
1603.00999121198
 20
704.8293627191013
 30
0.0
 10
1603.010565847228
 20
704.8477596654845
 30
0.0
 10
1603.011369950275
 20
704.8832229102115
 30
0.0
 10
1603.011437006591
 20
704.9016530361839
 30
0.0
 10
1603.01177997482
 20
704.9402866979506
 30
0.0
 10
1603.0120041656
 20
704.9822910245418
 30
0.0
 10
1603.012244843789
 20
705.029744284722
 30
0.0
 10
1603.012635676876
 20
705.1129927348954
 30
0.0
 10
1603.013287014761
 20
705.2470772104568
 30
0.0
 10
1603.014514005863
 20
705.4865655270694
 30
0.0
 10
1603.015924830665
 20
705.7631950449575
 30
0.0
 10
1603.017507928751
 20
706.0749339300235
 30
0.0
 10
1603.018870375417
 20
706.3590473140646
 30
0.0
 10
1603.020457837624
 20
706.7224083359904
 30
0.0
 10
1603.022822520745
 20
707.3545844155012
 30
0.0
 10
1603.025855221539
 20
708.5639824850512
 30
0.0
 10
1603.02641052263
 20
710.130709074903
 30
0.0
 10
1603.025141628518
 20
711.8396194027298
 30
0.0
 10
1603.023483008993
 20
713.2869323209741
 30
0.0
 10
1603.020608557437
 20
715.5366282752655
 30
0.0
 10
1603.017694207941
 20
718.5537621446126
 30
0.0
 10
1603.018035069365
 20
723.3524575348126
 30
0.0
 10
1603.022920962364
 20
728.4280951048565
 30
0.0
 10
1603.025087932346
 20
734.9488899461719
 30
0.0
 10
1603.019181136719
 20
741.3366997958217
 30
0.0
 10
1603.011818682621
 20
747.4880047678159
 30
0.0
 10
1603.010975211737
 20
751.5135335977973
 30
0.0
 10
1603.011108591111
 20
753.2163781106062
 30
0.0
 10
1603.011108591111
 20
753.9091741972222
 30
0.0
  0
ARC
  5
4FCC
330
A
100
AcDbEntity
  8
MODEL
100
AcDbCircle
 10
1602.157678685567
 20
1671.368848232828
 30
0.0
 40
2.99917155467442
100
AcDbArc
 50
180.1016986611262
 51
250.0030601393038
  0
ARC
  5
4FCD
330
A
100
AcDbEntity
  8
MODEL
100
AcDbCircle
 10
1602.157678685601
 20
699.9962949765466
 30
0.0
 40
2.999171554707723
100
AcDbArc
 50
109.9969398611481
 51
179.8983013388749
  0
LINE
  5
4FCE
330
A
100
AcDbEntity
  8
MODEL
100
AcDbLine
 10
1601.132053316613
 20
702.8146500247965
 30
0.0
 11
1601.695182565627
 21
703.0196265750126
 31
0.0
  0
LINE
  5
4FCF
330
A
100
AcDbEntity
  8
MODEL
100
AcDbLine
 10
1601.695182565643
 20
1668.345516634392
 30
0.0
 11
1601.13205331665
 21
1668.550493184594
 31
0.0
  0
SPLINE
  5
4FD0
330
A
100
AcDbEntity
  8
MODEL
100
AcDbSpline
210
0.0
220
0.0
230
1.0
 70
     8
 71
     3
 72
     9
 73
     5
 74
     0
 42
0.000000001
 43
0.0000000001
 40
49.40697141394369
 40
49.40697141394369
 40
49.40697141394369
 40
49.40697141394369
 40
49.93851856121113
 40
51.47895472286849
 40
51.47895472286849
 40
51.47895472286849
 40
51.47895472286849
 10
1702.402624034645
 20
1415.759883843609
 30
0.0
 10
1702.334179820678
 20
1415.923290420149
 30
0.0
 10
1702.066485286567
 20
1416.559876872227
 30
0.0
 10
1701.79528496819
 20
1417.194981701555
 30
0.0
 10
1701.591703510256
 20
1417.666311832086
 30
0.0
  0
SPLINE
  5
4FD1
330
A
100
AcDbEntity
  8
MODEL
100
AcDbSpline
210
0.0
220
0.0
230
1.0
 70
     8
 71
     3
 72
     8
 73
     4
 74
     0
 42
0.000000001
 43
0.0000000001
 40
0.0
 40
0.0
 40
0.0
 40
0.0
 40
6.813176804713421
 40
6.813176804713421
 40
6.813176804713421
 40
6.813176804713421
 10
1716.179759797431
 20
1368.431464588735
 30
0.0
 10
1715.755058119812
 20
1370.661331176553
 30
0.0
 10
1715.306565254558
 20
1372.886710622405
 30
0.0
 10
1714.832291323943
 20
1375.106451011495
 30
0.0
  0
SPLINE
  5
4FD2
330
A
100
AcDbEntity
  8
MODEL
100
AcDbSpline
210
0.0
220
0.0
230
1.0
 70
     8
 71
     3
 72
    15
 73
    11
 74
     0
 42
0.000000001
 43
0.0000000001
 40
18.93868377853315
 40
18.93868377853315
 40
18.93868377853315
 40
18.93868377853315
 40
19.11131492031313
 40
23.34695773819121
 40
26.57472329250156
 40
28.7495223070382
 40
29.84348168738533
 40
30.94166803726025
 40
32.04397110822899
 40
33.1502802397868
 40
33.1502802397868
 40
33.1502802397868
 40
33.1502802397868
 10
1716.179760795832
 20
1368.431464778884
 30
0.0
 10
1716.190526399856
 20
1368.3749393225
 30
0.0
 10
1716.465043456743
 20
1366.931442077358
 30
0.0
 10
1716.92329206802
 20
1364.427723618398
 30
0.0
 10
1717.466967217556
 20
1361.261393744803
 30
0.0
 10
1717.817816141318
 20
1359.124552434804
 30
0.0
 10
1718.047599433823
 20
1357.687194364727
 30
0.0
 10
1718.21796099127
 20
1356.602370320222
 30
0.0
 10
1718.386023255076
 20
1355.513014497338
 30
0.0
 10
1718.496346396525
 20
1354.78515544787
 30
0.0
 10
1718.551139233127
 20
1354.420479092106
 30
0.0
  0
SPLINE
  5
4FD3
330
A
100
AcDbEntity
  8
MODEL
100
AcDbSpline
210
0.0
220
0.0
230
1.0
 70
     8
 71
     3
 72
    11
 73
     7
 74
     0
 42
0.000000001
 43
0.0000000001
 40
115.362001081401
 40
115.362001081401
 40
115.362001081401
 40
115.362001081401
 40
115.4014664143495
 40
116.4322048187705
 40
117.4676351591193
 40
118.052231631782
 40
118.052231631782
 40
118.052231631782
 40
118.052231631782
 10
1715.666024135282
 20
1371.067699715873
 30
0.0
 10
1715.668353271366
 20
1371.056008443906
 30
0.0
 10
1715.731855597104
 20
1370.737152593065
 30
0.0
 10
1715.876242562023
 20
1370.006736223512
 30
0.0
 10
1716.041733163406
 20
1369.153472339575
 30
0.0
 10
1716.143234768858
 20
1368.623177413596
 30
0.0
 10
1716.179751225774
 20
1368.431462956039
 30
0.0
  0
SPLINE
  5
4FD4
330
A
100
AcDbEntity
  8
MODEL
100
AcDbSpline
210
0.0
220
0.0
230
1.0
 70
     8
 71
     3
 72
    28
 73
    24
 74
     0
 42
0.000000001
 43
0.0000000001
 40
53.66362252263671
 40
53.66362252263671
 40
53.66362252263671
 40
53.66362252263671
 40
54.10519017792238
 40
54.97772687028568
 40
56.72959868318116
 40
58.49086339210765
 40
59.3751411380054
 40
61.15123330566532
 40
62.04314598896921
 40
64.73493917664987
 40
65.63771855540297
 40
66.54333692974198
 40
67.45184311551128
 40
68.37330095238903
 40
69.29759392474756
 40
70.22477122868605
 40
72.08797530185393
 40
74.90564003019735
 40
76.79989213109728
 40
78.7072455545429
 40
79.66595646799932
 40
80.62808796986037
 40
80.96190249760353
 40
80.96190249760353
 40
80.96190249760353
 40
80.96190249760353
 10
1701.919682314959
 20
1416.901924118356
 30
0.0
 10
1701.976310147001
 20
1416.769234265347
 30
0.0
 10
1702.144276374384
 20
1416.374385974849
 30
0.0
 10
1702.533556065133
 20
1415.45049839023
 30
0.0
 10
1703.081233294189
 20
1414.125446329869
 30
0.0
 10
1703.618631159446
 20
1412.791258558457
 30
0.0
 10
1704.150071714667
 20
1411.445845527646
 30
0.0
 10
1704.569873931798
 20
1410.361829213667
 30
0.0
 10
1705.192578420194
 20
1408.72162080172
 30
0.0
 10
1705.70176412003
 20
1407.343801033043
 30
0.0
 10
1706.200826140114
 20
1405.956407339952
 30
0.0
 10
1706.498167502632
 20
1405.118445040367
 30
0.0
 10
1706.795423162899
 20
1404.269041152788
 30
0.0
 10
1707.085524018151
 20
1403.428527113502
 30
0.0
 10
1707.375611457549
 20
1402.576347243827
 30
0.0
 10
1707.758969654781
 20
1401.434235968074
 30
0.0
 10
1708.327303664472
 20
1399.704752856268
 30
0.0
 10
1708.972887637954
 20
1397.668558562392
 30
0.0
 10
1709.602328736339
 20
1395.610246409356
 30
0.0
 10
1710.043285298669
 20
1394.125279470391
 30
0.0
 10
1710.390873765816
 20
1392.928463006742
 30
0.0
 10
1710.592912876923
 20
1392.222299126908
 30
0.0
 10
1710.707896146214
 20
1391.81634670381
 30
0.0
 10
1710.737448153805
 20
1391.711739158766
 30
0.0
  0
ARC
  5
4FD5
330
A
100
AcDbEntity
  8
MODEL
100
AcDbCircle
 10
1410.833338954833
 20
1310.292149439148
 30
0.0
 40
310.832133588411
100
AcDbArc
 50
10.7803311930187
 51
11.58038781113599
  0
SPLINE
  5
4FD6
330
A
100
AcDbEntity
  8
MODEL
100
AcDbSpline
210
0.0
220
0.0
230
1.0
 70
     8
 71
     3
 72
    35
 73
    31
 74
     0
 42
0.000000001
 43
0.0000000001
 40
77.49340222667857
 40
77.49340222667857
 40
77.49340222667857
 40
77.49340222667857
 40
78.6591940600701
 40
80.83012529391854
 40
82.988110916935
 40
83.81047288841152
 40
84.63488933430521
 40
85.77023509868398
 40
86.91001493361564
 40
88.05434033312591
 40
89.20332266616951
 40
90.13408288432744
 40
91.06765697783484
 40
92.00409939980501
 40
92.94346455133486
 40
93.88580677660653
 40
94.83118035809821
 40
95.77963951190615
 40
96.73123838317974
 40
98.12918931084258
 40
99.53387911393273
 40
100.9454748403821
 40
102.3641431554371
 40
103.7900503143102
 40
105.2233621360737
 40
106.6642439788057
 40
108.1128607159891
 40
131.1982311643401
 40
132.0347781801417
 40
132.6905877915093
 40
132.6905877915093
 40
132.6905877915093
 40
132.6905877915093
 10
1702.04357775799
 20
1416.611196855941
 30
0.0
 10
1702.043644096052
 20
1416.611224794673
 30
0.0
 10
1702.058906529387
 20
1416.575520970436
 30
0.0
 10
1702.480340390431
 20
1415.574358511396
 30
0.0
 10
1702.491381512021
 20
1415.552273361435
 30
0.0
 10
1703.035174476837
 20
1414.233457680514
 30
0.0
 10
1703.370848052662
 20
1413.406556372196
 30
0.0
 10
1703.758146542435
 20
1412.439949689084
 30
0.0
 10
1704.173243611962
 20
1411.385317255874
 30
0.0
 10
1704.584372776224
 20
1410.323001972851
 30
0.0
 10
1704.968063381383
 20
1409.31392821041
 30
0.0
 10
1705.30975572945
 20
1408.401186261515
 30
0.0
 10
1705.626297205422
 20
1407.543918434573
 30
0.0
 10
1705.939268377554
 20
1406.684305520859
 30
0.0
 10
1706.249614785007
 20
1405.819836062364
 30
0.0
 10
1706.557073637242
 20
1404.95118210536
 30
0.0
 10
1706.861774080289
 20
1404.077958213893
 30
0.0
 10
1707.163489762827
 20
1403.200815636606
 30
0.0
 10
1707.50952483826
 20
1402.18015917395
 30
0.0
 10
1707.893460762277
 20
1401.027295716412
 30
0.0
 10
1708.317858567222
 20
1399.72558669107
 30
0.0
 10
1708.735963157134
 20
1398.415266768337
 30
0.0
 10
1709.148306534508
 20
1397.094655511143
 30
0.0
 10
1709.554635924854
 20
1395.764588291539
 30
0.0
 10
1709.955515066184
 20
1394.42272983263
 30
0.0
 10
1710.349012900146
 20
1393.076973053147
 30
0.0
 10
1712.700340392096
 20
1384.830424823929
 30
0.0
 10
1713.545004901094
 20
1381.006722054691
 30
0.0
 10
1714.599636458366
 20
1376.185977025511
 30
0.0
 10
1714.663201909252
 20
1375.892692097186
 30
0.0
 10
1714.69110310553
 20
1375.763531455887
 30
0.0
  0
SPLINE
  5
4FD7
330
A
100
AcDbEntity
  8
MODEL
100
AcDbSpline
210
0.0
220
0.0
230
1.0
 70
     8
 71
     3
 72
    96
 73
    92
 74
     0
 42
0.000000001
 43
0.0000000001
 40
6.486722211698093
 40
6.486722211698093
 40
6.486722211698093
 40
6.486722211698093
 40
6.711542821926091
 40
7.100322814337318
 40
7.489517684846893
 40
7.88131650926521
 40
8.273529712824322
 40
8.668154692181057
 40
9.063193508133034
 40
9.860494102891524
 40
10.65944202285286
 40
11.4670759254008
 40
12.27634666137164
 40
13.09415174755709
 40
13.91357720597961
 40
14.74085642134386
 40
15.56973924013101
 40
16.40645242579978
 40
17.24474705584727
 40
18.0901067120478
 40
18.93702776959228
 40
19.79275214170056
 40
20.64999620076997
 40
21.51438439902586
 40
22.38026211472638
 40
23.25413419781901
 40
24.12945274491308
 40
25.01195497687879
 40
25.89586468727265
 40
26.60703161288196
 40
27.31904251790223
 40
28.03567833915024
 40
28.75313410321305
 40
29.47653814508878
 40
30.20072527667752
 40
30.93059032522379
 40
31.66120225454888
 40
32.39951068372891
 40
33.13851057431211
 40
33.88401340998958
 40
34.63016090211558
 40
35.38404549445571
 40
36.13851531121502
 40
36.90106284016138
 40
37.66413128093338
 40
38.43683886047683
 40
39.20998712605627
 40
39.99306393818366
 40
40.77649651859323
 40
41.57186366205161
 40
42.3674812795884
 40
43.17649930826301
 40
43.98564672623989
 40
44.81081953060046
 40
45.63597395551646
 40
46.47997424612325
 40
47.3237794909075
 40
48.19405147189457
 40
49.06387859420637
 40
49.51029625204403
 40
49.9565480135687
 40
50.41227875094955
 40
50.86779859307566
 40
51.3529723839995
 40
51.83785654919748
 40
52.33778071527355
 40
52.83734198189178
 40
53.35844779672164
 40
53.87908754423233
 40
54.42309446781707
 40
54.96652403779816
 40
55.71821668349398
 40
56.46861112013934
 40
56.88127066104386
 40
57.29350125940127
 40
57.74381874432148
 40
58.19360500839751
 40
58.89420538942277
 40
59.59351726267737
 40
60.2492384755508
 40
60.9039136770614
 40
61.82530752688282
 40
62.74512906900835
 40
63.63708813174156
 40
64.52794109720922
 40
66.29630319311877
 40
68.06065217394479
 40
71.63544941169638
 40
75.19385944636161
 40
76.92735437172516
 40
77.49340222667857
 40
77.49340222667857
 40
77.49340222667857
 40
77.49340222667857
 10
1678.158186462295
 20
1455.425772551986
 30
0.0
 10
1678.206710705961
 20
1455.373324839223
 30
0.0
 10
1678.338931067345
 20
1455.230087267511
 30
0.0
 10
1678.552247691003
 20
1454.997545755265
 30
0.0
 10
1678.801466516367
 20
1454.723726344688
 30
0.0
 10
1679.047550554496
 20
1454.451227192389
 30
0.0
 10
1679.295049976248
 20
1454.175016942593
 30
0.0
 10
1679.539631130135
 20
1453.89993561036
 30
0.0
 10
1679.868296715225
 20
1453.527406280569
 30
0.0
 10
1680.271915199051
 20
1453.064594999334
 30
0.0
 10
1680.759586425547
 20
1452.496760502399
 30
0.0
 10
1681.236890409103
 20
1451.932473280453
 30
0.0
 10
1681.717986258364
 20
1451.355044345328
 30
0.0
 10
1682.18913819051
 20
1450.78098817059
 30
0.0
 10
1682.663541888136
 20
1450.194289139036
 30
0.0
 10
1683.12874289032
 20
1449.610372971962
 30
0.0
 10
1683.596734582167
 20
1449.014239956872
 30
0.0
 10
1684.055784149384
 20
1448.42086866971
 30
0.0
 10
1684.517194206598
 20
1447.81570967217
 30
0.0
 10
1684.970291103072
 20
1447.212795978892
 30
0.0
 10
1685.426029139946
 20
1446.597576675588
 30
0.0
 10
1685.872418677156
 20
1445.986299278097
 30
0.0
 10
1686.321424543967
 20
1445.362648828072
 30
0.0
 10
1686.76227763394
 20
1444.741602327573
 30
0.0
 10
1687.205330942427
 20
1444.108620034516
 30
0.0
 10
1687.639869147008
 20
1443.479063319114
 30
0.0
 10
1688.076596473615
 20
1442.837480263697
 30
0.0
 10
1688.505235104034
 20
1442.199016071565
 30
0.0
 10
1688.907283100517
 20
1441.591851450358
 30
0.0
 10
1689.271917626399
 20
1441.034381126039
 30
0.0
 10
1689.610222739599
 20
1440.51154054828
 30
0.0
 10
1689.943403087632
 20
1439.991023572017
 30
0.0
 10
1690.278241326738
 20
1439.462253495062
 30
0.0
 10
1690.607278167283
 20
1438.937047692757
 30
0.0
 10
1690.938329344508
 20
1438.402954633668
 30
0.0
 10
1691.263642260202
 20
1437.872511133901
 30
0.0
 10
1691.591546922617
 20
1437.332137434772
 30
0.0
 10
1691.912573277491
 20
1436.797486476745
 30
0.0
 10
1692.23647043601
 20
1436.252356641038
 30
0.0
 10
1692.554128903708
 20
1435.71209523623
 30
0.0
 10
1692.874639475268
 20
1435.16125749088
 30
0.0
 10
1693.188275294398
 20
1434.616601359856
 30
0.0
 10
1693.505252544495
 20
1434.060404647171
 30
0.0
 10
1693.815098070132
 20
1433.511080984302
 30
0.0
 10
1694.128862209609
 20
1432.949047822098
 30
0.0
 10
1694.434645967841
 20
1432.395666280049
 30
0.0
 10
1694.744908518423
 20
1431.828408663742
 30
0.0
 10
1695.046960065485
 20
1431.270513751894
 30
0.0
 10
1695.354148077685
 20
1430.697333351156
 30
0.0
 10
1695.652058030317
 20
1430.135819211763
 30
0.0
 10
1695.956093972185
 20
1429.556943722448
 30
0.0
 10
1696.250005325396
 20
1428.991701408798
 30
0.0
 10
1696.551164794714
 20
1428.406678167609
 30
0.0
 10
1696.840821436099
 20
1427.838366464827
 30
0.0
 10
1697.139202308167
 20
1427.247070692858
 30
0.0
 10
1697.424481378557
 20
1426.676124405144
 30
0.0
 10
1697.72114843088
 20
1426.076463486329
 30
0.0
 10
1698.001077152778
 20
1425.505045187761
 30
0.0
 10
1698.244747329723
 20
1425.002765954516
 30
0.0
 10
1698.430198895091
 20
1424.617676034439
 30
0.0
 10
1698.574554455744
 20
1424.316465397307
 30
0.0
 10
1698.713344772751
 20
1424.025455253417
 30
0.0
 10
1698.859250140731
 20
1423.718032276462
 30
0.0
 10
1698.99987385436
 20
1423.42027562458
 30
0.0
 10
1699.148904717754
 20
1423.103126959671
 30
0.0
 10
1699.289732263951
 20
1422.801938706471
 30
0.0
 10
1699.439069673445
 20
1422.480941889341
 30
0.0
 10
1699.577710035563
 20
1422.181456545776
 30
0.0
 10
1699.726572733269
 20
1421.858283947542
 30
0.0
 10
1699.863631576552
 20
1421.559277086563
 30
0.0
 10
1700.029939369004
 20
1421.19461605647
 30
0.0
 10
1700.1832524407
 20
1420.856584652792
 30
0.0
 10
1700.344042204106
 20
1420.49988747455
 30
0.0
 10
1700.452995642149
 20
1420.257061459153
 30
0.0
 10
1700.548229533751
 20
1420.044174890965
 30
0.0
 10
1700.629879491284
 20
1419.861099384012
 30
0.0
 10
1700.740579497039
 20
1419.612111370574
 30
0.0
 10
1700.833015672176
 20
1419.403470785313
 30
0.0
 10
1700.959472635907
 20
1419.116897806482
 30
0.0
 10
1701.038373545018
 20
1418.937465203911
 30
0.0
 10
1701.151330728598
 20
1418.679839262069
 30
0.0
 10
1701.205929182468
 20
1418.55489679573
 30
0.0
 10
1701.301019749046
 20
1418.336894456791
 30
0.0
 10
1701.347303703784
 20
1418.230487515392
 30
0.0
 10
1701.426505584211
 20
1418.048214804847
 30
0.0
 10
1701.504155822541
 20
1417.86902571679
 30
0.0
 10
1701.643415429449
 20
1417.546679101665
 30
0.0
 10
1701.795866029461
 20
1417.192185145889
 30
0.0
 10
1701.997134962494
 20
1416.720607755444
 30
0.0
 10
1702.048458293428
 20
1416.599154165408
 30
0.0
 10
1702.04354554768
 20
1416.61118329034
 30
0.0
 10
1702.04357775799
 20
1416.611196855941
 30
0.0
  0
SPLINE
  5
4FD8
330
A
100
AcDbEntity
  8
MODEL
100
AcDbSpline
210
0.0
220
0.0
230
1.0
 70
     8
 71
     3
 72
     9
 73
     5
 74
     0
 42
0.000000001
 43
0.0000000001
 40
49.40695776739884
 40
49.40695776739884
 40
49.40695776739884
 40
49.40695776739884
 40
49.93851806194679
 40
51.47895256201859
 40
51.47895256201859
 40
51.47895256201859
 40
51.47895256201859
 10
1702.402628915202
 20
955.6052710179063
 30
0.0
 10
1702.334183018891
 20
955.4418603941447
 30
0.0
 10
1702.066487019832
 20
954.8052704009021
 30
0.0
 10
1701.795285197566
 20
954.1701620468227
 30
0.0
 10
1701.591703960916
 20
953.6988324206466
 30
0.0
  0
SPLINE
  5
4FD9
330
A
100
AcDbEntity
  8
MODEL
100
AcDbSpline
210
0.0
220
0.0
230
1.0
 70
     8
 71
     3
 72
     8
 73
     4
 74
     0
 42
0.000000001
 43
0.0000000001
 40
0.0
 40
0.0
 40
0.0
 40
0.0
 40
6.813151325544719
 40
6.813151325544719
 40
6.813151325544719
 40
6.813151325544719
 10
1716.179759797427
 20
1002.933678620611
 30
0.0
 10
1715.755059700247
 20
1000.70382033076
 30
0.0
 10
1715.306568591746
 20
998.4784491454191
 30
0.0
 10
1714.832296615903
 20
996.2587169657488
 30
0.0
  0
SPLINE
  5
4FDA
330
A
100
AcDbEntity
  8
MODEL
100
AcDbSpline
210
0.0
220
0.0
230
1.0
 70
     8
 71
     3
 72
    15
 73
    11
 74
     0
 42
0.000000001
 43
0.0000000001
 40
18.93868374031545
 40
18.93868374031545
 40
18.93868374031545
 40
18.93868374031545
 40
19.11131512250638
 40
23.34695799047125
 40
26.57472358382297
 40
28.74952262495842
 40
29.84348201876169
 40
30.9416683821908
 40
32.04397146680677
 40
33.1502806121001
 40
33.1502806121001
 40
33.1502806121001
 40
33.1502806121001
 10
1716.179760795823
 20
1002.933678430461
 30
0.0
 10
1716.190526414857
 20
1002.990203965644
 30
0.0
 10
1716.465043489704
 20
1004.433701308211
 30
0.0
 10
1716.923292119336
 20
1006.937419879148
 30
0.0
 10
1717.466967273238
 20
1010.103749795264
 30
0.0
 10
1717.817816199683
 20
1012.240591134134
 30
0.0
 10
1718.047599493885
 20
1013.677949223667
 30
0.0
 10
1718.217961052573
 20
1014.762773282957
 30
0.0
 10
1718.386023317533
 20
1015.852129120423
 30
0.0
 10
1718.496346459816
 20
1016.579988180296
 30
0.0
 10
1718.551139296734
 20
1016.944664540642
 30
0.0
  0
SPLINE
  5
4FDB
330
A
100
AcDbEntity
  8
MODEL
100
AcDbSpline
210
0.0
220
0.0
230
1.0
 70
     8
 71
     3
 72
    11
 73
     7
 74
     0
 42
0.000000001
 43
0.0000000001
 40
115.3619384677445
 40
115.3619384677445
 40
115.3619384677445
 40
115.3619384677445
 40
115.4014065241406
 40
116.4321446371229
 40
117.4675746833169
 40
118.0522519141299
 40
118.0522519141299
 40
118.0522519141299
 40
118.0522519141299
 10
1715.666007940361
 20
1000.297362254016
 30
0.0
 10
1715.668337242598
 20
1000.309054343379
 30
0.0
 10
1715.731839875911
 20
1000.627911292555
 30
0.0
 10
1715.876227034349
 20
1001.35832765892
 30
0.0
 10
1716.041722908125
 20
1002.211617546563
 30
0.0
 10
1716.143229708461
 20
1002.741939227533
 30
0.0
 10
1716.179751226884
 20
1002.933680253089
 30
0.0
  0
SPLINE
  5
4FDC
330
A
100
AcDbEntity
  8
MODEL
100
AcDbSpline
210
0.0
220
0.0
230
1.0
 70
     8
 71
     3
 72
    28
 73
    24
 74
     0
 42
0.000000001
 43
0.0000000001
 40
53.66365828352536
 40
53.66365828352536
 40
53.66365828352536
 40
53.66365828352536
 40
54.10514436582223
 40
54.97768086790297
 40
56.7295522915947
 40
58.49081659986638
 40
59.37509414116872
 40
61.15118589115622
 40
62.04309836140557
 40
64.73489089318979
 40
65.63767004777338
 40
66.54328819519485
 40
67.45179415131135
 40
68.37325175314345
 40
69.29754448795383
 40
70.22472155185126
 40
72.08792513749765
 40
74.9055891161134
 40
76.79984070502141
 40
78.70719360683897
 40
79.6659042558962
 40
80.62803549098345
 40
80.96203642462186
 40
80.96203642462186
 40
80.96203642462186
 40
80.96203642462186
 10
1701.919686468842
 20
954.46322882449
 30
0.0
 10
1701.976303823872
 20
954.5958941491842
 30
0.0
 10
1702.144259692223
 20
954.9907179152358
 30
0.0
 10
1702.533529314981
 20
955.914580651777
 30
0.0
 10
1703.081206943874
 20
957.239632301076
 30
0.0
 10
1703.618605204731
 20
958.5738196532327
 30
0.0
 10
1704.15004615425
 20
959.9192322585293
 30
0.0
 10
1704.569848685374
 20
961.0032482275708
 30
0.0
 10
1705.192553642707
 20
962.6434561130297
 30
0.0
 10
1705.701739731112
 20
964.0212754382371
 30
0.0
 10
1706.200802137527
 20
965.408668685224
 30
0.0
 10
1706.49814373089
 20
966.246630712674
 30
0.0
 10
1706.795399623286
 20
967.0960343235054
 30
0.0
 10
1707.085500706558
 20
967.936548088546
 30
0.0
 10
1707.375588375263
 20
968.7887276792023
 30
0.0
 10
1707.758946877062
 20
969.9308385790789
 30
0.0
 10
1708.327281342109
 20
971.6603211183535
 30
0.0
 10
1708.972865842179
 20
973.6965147374428
 30
0.0
 10
1709.602307463526
 20
975.7548262092166
 30
0.0
 10
1710.043264395344
 20
977.2397926483825
 30
0.0
 10
1710.390853160729
 20
978.436608723059
 30
0.0
 10
1710.592909149738
 20
979.1428307527383
 30
0.0
 10
1710.707908908952
 20
979.5488415012512
 30
0.0
 10
1710.737477380555
 20
979.6535075064164
 30
0.0
  0
ARC
  5
4FDD
330
A
100
AcDbEntity
  8
MODEL
100
AcDbCircle
 10
1410.833280867887
 20
1061.073004709193
 30
0.0
 40
310.8321926971953
100
AcDbArc
 50
348.4196337333067
 51
349.2196688290497
  0
SPLINE
  5
4FDE
330
A
100
AcDbEntity
  8
MODEL
100
AcDbSpline
210
0.0
220
0.0
230
1.0
 70
     8
 71
     3
 72
    35
 73
    31
 74
     0
 42
0.000000001
 43
0.0000000001
 40
77.49340820390385
 40
77.49340820390385
 40
77.49340820390385
 40
77.49340820390385
 40
78.65920757445855
 40
80.83013570451755
 40
82.98811817631078
 40
83.81049005816003
 40
84.6349165148143
 40
85.7702756360272
 40
86.91006893281741
 40
88.0544079028887
 40
89.20340391886609
 40
90.13416457177344
 40
91.06773910367353
 40
92.00418196767762
 40
92.94354756488043
 40
93.88589023946139
 40
94.83126427389584
 40
95.77972388427685
 40
96.73132321575032
 40
98.12927484965601
 40
99.5339653665473
 40
100.9455618143639
 40
102.3642308583586
 40
103.7901387537487
 40
105.2234513196108
 40
106.6643339140251
 40
108.1129514104762
 40
131.1982404203676
 40
132.0347965961568
 40
132.6903302546054
 40
132.6903302546054
 40
132.6903302546054
 40
132.6903302546054
 10
1702.043577783604
 20
954.7539464109575
 30
0.0
 10
1702.043644123558
 20
954.7539184713821
 30
0.0
 10
1702.058906455904
 20
954.7896220453692
 30
0.0
 10
1702.48034492012
 20
955.7907954871041
 30
0.0
 10
1702.491391811225
 20
955.812894503382
 30
0.0
 10
1703.035187962113
 20
957.1317184617362
 30
0.0
 10
1703.370866070191
 20
957.9586314618207
 30
0.0
 10
1703.758168514597
 20
958.9252487908668
 30
0.0
 10
1704.173270106939
 20
959.9798937655139
 30
0.0
 10
1704.584403592482
 20
961.0422214937278
 30
0.0
 10
1704.96809692951
 20
962.0513038635106
 30
0.0
 10
1705.309790453771
 20
962.9640503395201
 30
0.0
 10
1705.626331605281
 20
963.821318596805
 30
0.0
 10
1705.939302462565
 20
964.6809319656165
 30
0.0
 10
1706.249648553377
 20
965.545401877316
 30
0.0
 10
1706.557107090265
 20
966.4140562928221
 30
0.0
 10
1706.861807218356
 20
967.2872806461671
 30
0.0
 10
1707.163522586841
 20
968.1644236890859
 30
0.0
 10
1707.509557302149
 20
969.1850807031876
 30
0.0
 10
1707.893492826178
 20
970.3379447959012
 30
0.0
 10
1708.317890185409
 20
971.6396545458554
 30
0.0
 10
1708.735994331335
 20
972.9499752018453
 30
0.0
 10
1709.148337265064
 20
974.2705871980868
 30
0.0
 10
1709.554666215202
 20
975.6006551747266
 30
0.0
 10
1709.955544908684
 20
976.9425143623955
 30
0.0
 10
1710.349042328675
 20
978.2882720163323
 30
0.0
 10
1712.700358148182
 20
986.5347927337859
 30
0.0
 10
1713.545045143866
 20
990.3585965003583
 30
0.0
 10
1714.599648278165
 20
995.1792207897086
 30
0.0
 10
1714.663201677744
 20
995.4724501437302
 30
0.0
 10
1714.691090821388
 20
995.6015548641878
 30
0.0
  0
SPLINE
  5
4FDF
330
A
100
AcDbEntity
  8
MODEL
100
AcDbSpline
210
0.0
220
0.0
230
1.0
 70
     8
 71
     3
 72
    96
 73
    92
 74
     0
 42
0.000000001
 43
0.0000000001
 40
6.486749209611937
 40
6.486749209611937
 40
6.486749209611937
 40
6.486749209611937
 40
6.711539181581233
 40
7.100318952642317
 40
7.489513601599783
 40
7.881312207895099
 40
8.27352519314529
 40
8.668149956979894
 40
9.063188557236955
 40
9.860488728994872
 40
10.65943622532109
 40
11.4670697106029
 40
12.2763400287517
 40
13.09414470367554
 40
13.91356975033866
 40
14.74084855473953
 40
15.56973096215796
 40
16.40644373584741
 40
17.24473795361031
 40
18.09009719578231
 40
18.93701783909498
 40
19.79274178987859
 40
20.64998542758549
 40
21.51437319880293
 40
22.38025048756749
 40
23.25412213443849
 40
24.12944024559737
 40
25.01194200690028
 40
25.89585124736249
 40
26.60701626621404
 40
27.31902526103221
 40
28.03565911294908
 40
28.75311290476854
 40
29.47651493479352
 40
30.20070005203658
 40
30.93056305247772
 40
31.66117293157977
 40
32.39947924317827
 40
33.1384770147969
 40
33.8839776859486
 40
34.63012301270093
 40
35.38400537362722
 40
36.13847295888993
 40
36.90101819443658
 40
37.66408434248385
 40
38.43678951111038
 40
39.20993536777203
 40
39.99300967556105
 40
40.77643975478597
 40
41.57180424798675
 40
42.36741922014021
 40
43.17643442179864
 40
43.98557901972371
 40
44.81074875278971
 40
45.63590011620854
 40
46.47989702696701
 40
47.32369890526753
 40
48.19396691040535
 40
49.06379007668294
 40
49.51020547515836
 40
49.95645498374977
 40
50.41218321407381
 40
50.86770055687771
 40
51.3528793208826
 40
51.83776845975594
 40
52.33769762352139
 40
52.83726388721946
 40
53.35837468663315
 40
53.87901941660069
 40
54.42303138229419
 40
54.96646599025377
 40
55.71816409629391
 40
56.46856398445242
 40
56.88122611269804
 40
57.2934592949344
 40
57.74377915811032
 40
58.19356779589868
 40
58.89417183048296
 40
59.59348734171849
 40
60.24921148581459
 40
60.90388960307804
 40
61.82528684958016
 40
62.74511176371318
 40
63.63707337980484
 40
64.527928886185
 40
66.29629526501
 40
68.06064851130091
 40
71.63545138884167
 40
75.19386699903862
 40
76.92736492227188
 40
77.49340820390385
 40
77.49340820390385
 40
77.49340820390385
 40
77.49340820390385
 10
1678.158186462295
 20
915.9393706575354
 30
0.0
 10
1678.206704100002
 20
915.9918112299199
 30
0.0
 10
1678.338917804716
 20
916.1350415449995
 30
0.0
 10
1678.552227937186
 20
916.3675758358875
 30
0.0
 10
1678.80144676595
 20
916.6413950793501
 30
0.0
 10
1679.04753080269
 20
916.9138940601258
 30
0.0
 10
1679.295030228102
 20
917.190104141773
 30
0.0
 10
1679.53961138165
 20
917.4651853021203
 30
0.0
 10
1679.868276973738
 20
917.8377144076801
 30
0.0
 10
1680.271895456807
 20
918.3005253997542
 30
0.0
 10
1680.759566695518
 20
918.8683595573673
 30
0.0
 10
1681.236870681327
 20
919.4326464308103
 30
0.0
 10
1681.717966544723
 20
920.0100750237032
 30
0.0
 10
1682.189118482132
 20
920.5841308478991
 30
0.0
 10
1682.66352219364
 20
921.1708295318674
 30
0.0
 10
1683.128723206218
 20
921.7547453490986
 30
0.0
 10
1683.596714913283
 20
922.3508780131376
 30
0.0
 10
1684.05576449409
 20
922.9442489492064
 30
0.0
 10
1684.517174568024
 20
923.5494075927124
 30
0.0
 10
1684.970271481296
 20
924.1523209338045
 30
0.0
 10
1685.426009535378
 20
924.7675398780846
 30
0.0
 10
1685.872399093396
 20
925.3788169242614
 30
0.0
 10
1686.321404979547
 20
926.0024670135897
 30
0.0
 10
1686.762258092633
 20
926.6235131606516
 30
0.0
 10
1687.205311421284
 20
927.2564950889498
 30
0.0
 10
1687.639849653258
 20
927.8860514525584
 30
0.0
 10
1688.076576994119
 20
928.5276341296847
 30
0.0
 10
1688.505215659514
 20
929.1660979763544
 30
0.0
 10
1688.907263440211
 20
929.7732618938169
 30
0.0
 10
1689.271897489547
 20
930.3307311357783
 30
0.0
 10
1689.610201874322
 20
930.8535702430815
 30
0.0
 10
1689.943381540262
 20
931.3740857982627
 30
0.0
 10
1690.27821907301
 20
931.9028543862075
 30
0.0
 10
1690.607255242832
 20
932.4280587345127
 30
0.0
 10
1690.938305733783
 20
932.9621502840889
 30
0.0
 10
1691.263617995322
 20
933.4925923053959
 30
0.0
 10
1691.591521979734
 20
934.0329644550945
 30
0.0
 10
1691.912547706897
 20
934.5676139279674
 30
0.0
 10
1692.236444209888
 20
935.1127421997514
 30
0.0
 10
1692.554102061416
 20
935.6530020878561
 30
0.0
 10
1692.874611989952
 20
936.2038382377648
 30
0.0
 10
1693.188247215226
 20
936.7484928405609
 30
0.0
 10
1693.505223839672
 20
937.3046879356405
 30
0.0
 10
1693.81506878878
 20
937.8540100510143
 30
0.0
 10
1694.12883230473
 20
938.4160415462827
 30
0.0
 10
1694.434615517657
 20
938.9694215479537
 30
0.0
 10
1694.744877465939
 20
939.5366774834981
 30
0.0
 10
1695.046928479351
 20
940.094570827772
 30
0.0
 10
1695.354115893281
 20
940.6677495019101
 30
0.0
 10
1695.652025342697
 20
941.2292620832156
 30
0.0
 10
1695.956060693476
 20
941.8081358063353
 30
0.0
 10
1696.249971569197
 20
942.373376564399
 30
0.0
 10
1696.551130447027
 20
942.9583979845627
 30
0.0
 10
1696.84078664467
 20
943.5267081524651
 30
0.0
 10
1697.13916692432
 20
944.1180020469471
 30
0.0
 10
1697.424445588308
 20
944.6889468310399
 30
0.0
 10
1697.721112001263
 20
945.2886057194698
 30
0.0
 10
1698.001040398451
 20
945.8600226409615
 30
0.0
 10
1698.244710061678
 20
946.3623001781959
 30
0.0
 10
1698.43016140552
 20
946.7473891441766
 30
0.0
 10
1698.574516674582
 20
947.0485987837308
 30
0.0
 10
1698.713306823975
 20
947.3396081974786
 30
0.0
 10
1698.859212703776
 20
947.6470318500067
 30
0.0
 10
1698.999837790668
 20
947.9447910287415
 30
0.0
 10
1699.148870793776
 20
948.2619438647378
 30
0.0
 10
1699.289700422754
 20
948.5631362307465
 30
0.0
 10
1699.439039947516
 20
948.8841372535533
 30
0.0
 10
1699.577682365254
 20
949.1836267407195
 30
0.0
 10
1699.726547168028
 20
949.506803611788
 30
0.0
 10
1699.863608026675
 20
949.8058146157707
 30
0.0
 10
1700.029918006321
 20
950.1704801580343
 30
0.0
 10
1700.183233356166
 20
950.508516347574
 30
0.0
 10
1700.344025156217
 20
950.8652178243935
 30
0.0
 10
1700.452980157161
 20
951.1080471886087
 30
0.0
 10
1700.548215254804
 20
951.320936343938
 30
0.0
 10
1700.629866379328
 20
951.5040143814256
 30
0.0
 10
1700.740567806967
 20
951.7530054866945
 30
0.0
 10
1700.833005457677
 20
951.9616493237843
 30
0.0
 10
1700.959464164036
 20
952.2482261620751
 30
0.0
 10
1701.038366459811
 20
952.4276618711008
 30
0.0
 10
1701.151325429104
 20
952.6852918332295
 30
0.0
 10
1701.205924637394
 20
952.8102360068294
 30
0.0
 10
1701.301016670829
 20
953.02824168239
 30
0.0
 10
1701.347300913703
 20
953.134649277941
 30
0.0
 10
1701.426503664344
 20
953.3169239773267
 30
0.0
 10
1701.504153739106
 20
953.4961126791893
 30
0.0
 10
1701.643413630561
 20
953.8184599290832
 30
0.0
 10
1701.795864894252
 20
954.1729554163173
 30
0.0
 10
1701.997133624107
 20
954.6445323005316
 30
0.0
 10
1702.048458197001
 20
954.7659888216583
 30
0.0
 10
1702.043545572843
 20
954.7539599767767
 30
0.0
 10
1702.043577783604
 20
954.7539464109575
 30
0.0
  0
LINE
  5
4FE0
330
A
100
AcDbEntity
  8
MODEL
100
AcDbLine
 10
1764.249015729705
 20
1220.097489260836
 30
0.0
 11
1736.843390990761
 21
1222.497310926221
 31
0.0
  0
ARC
  5
4FE1
330
A
100
AcDbEntity
  8
MODEL
100
AcDbCircle
 10
1763.987207754375
 20
1217.108824831055
 30
0.0
 40
3.000109053858393
100
AcDbArc
 50
0.0019110089025224
 51
84.9936497705346
  0
LINE
  5
4FE2
330
A
100
AcDbEntity
  8
MODEL
100
AcDbLine
 10
407.1016570074912
 20
685.68257161013
 30
0.0
 11
854.1016568096516
 21
685.68257161013
 31
0.0
  0
LINE
  5
4FE3
330
A
100
AcDbEntity
  8
MODEL
100
AcDbLine
 10
924.1016568096516
 20
755.68257161013
 30
0.0
 11
924.1016568096516
 21
1615.68257161013
 31
0.0
  0
ARC
  5
4FE4
330
A
100
AcDbEntity
  8
MODEL
100
AcDbCircle
 10
854.1016568096516
 20
755.68257161013
 30
0.0
 40
70.0
100
AcDbArc
 50
270.0
 51
0.0
  0
LINE
  5
4FE5
330
A
100
AcDbEntity
  8
MODEL
100
AcDbLine
 10
854.1016568096516
 20
1685.68257161013
 30
0.0
 11
407.1016570074912
 21
1685.68257161013
 31
0.0
  0
ARC
  5
4FE6
330
A
100
AcDbEntity
  8
MODEL
100
AcDbCircle
 10
854.1016568096516
 20
1615.68257161013
 30
0.0
 40
70.0
100
AcDbArc
 50
0.0
 51
90.0
  0
LINE
  5
4FE7
102
{ACAD_REACTORS
330
52AB
102
}
330
A
100
AcDbEntity
  8
MODEL
100
AcDbLine
 10
404.1016570074917
 20
1682.68257161013
 30
0.0
 11
404.1016570074908
 21
688.68257161013
 31
0.0
  0
ARC
  5
4FE8
330
A
100
AcDbEntity
  8
MODEL
100
AcDbCircle
 10
407.1016570074912
 20
1682.68257161013
 30
0.0
 40
3.0
100
AcDbArc
 50
90.0
 51
180.0
  0
ARC
  5
4FE9
330
A
100
AcDbEntity
  8
MODEL
100
AcDbCircle
 10
407.1016570074912
 20
688.68257161013
 30
0.0
 40
3.0
100
AcDbArc
 50
180.0
 51
270.0
  0
CIRCLE
  5
4FEA
330
A
100
AcDbEntity
  8
HIDDEN
 48
0.5
100
AcDbCircle
 10
470.1016570074912
 20
1185.682571610115
 30
0.0
 40
17.5
  0
CIRCLE
  5
4FEB
330
A
100
AcDbEntity
  8
HIDDEN
 48
0.5
100
AcDbCircle
 10
470.1016570074912
 20
1285.682571610115
 30
0.0
 40
16.0
  0
CIRCLE
  5
4FEC
330
A
100
AcDbEntity
  8
HIDDEN
 48
0.5
100
AcDbCircle
 10
470.1016570074912
 20
1085.682571610115
 30
0.0
 40
16.0
  0
CIRCLE
  5
4FED
330
A
100
AcDbEntity
  8
MODEL
100
AcDbCircle
 10
629.1016496480083
 20
1185.68257161013
 30
0.0
 40
22.0
  0
CIRCLE
  5
4FEE
330
A
100
AcDbEntity
  8
MODEL
100
AcDbCircle
 10
629.1016496480083
 20
1185.68257161013
 30
0.0
 40
38.5
  0
SPLINE
  5
4FEF
330
A
100
AcDbEntity
  8
MODEL
100
AcDbSpline
210
0.0
220
0.0
230
1.0
 70
     8
 71
     3
 72
    14
 73
    10
 74
     0
 42
0.000000001
 43
0.0000000001
 40
0.0
 40
0.0
 40
0.0
 40
0.0
 40
4.438579156171226
 40
8.092991413260776
 40
11.35540354477697
 40
14.61796776840336
 40
17.88059968536241
 40
20.15832350912375
 40
22.77672762232345
 40
22.77672762232345
 40
22.77672762232345
 40
22.77672762232345
 10
536.0709027559774
 20
1200.182519221911
 30
0.0
 10
536.1667509591189
 20
1200.182512791697
 30
0.0
 10
536.3465710387145
 20
1199.766166045724
 30
0.0
 10
536.5908703750388
 20
1198.167989794136
 30
0.0
 10
536.7883778738328
 20
1196.045875778015
 30
0.0
 10
536.9458746156183
 20
1193.483070277158
 30
0.0
 10
537.0475201083214
 20
1190.824355238685
 30
0.0
 10
537.1036533578958
 20
1188.187409766964
 30
0.0
 10
537.1156273432698
 20
1186.555370788265
 30
0.0
 10
537.1156273432698
 20
1185.68257161013
 30
0.0
  0
SPLINE
  5
4FF0
330
A
100
AcDbEntity
  8
MODEL
100
AcDbSpline
210
0.0
220
0.0
230
1.0
 70
     8
 71
     3
 72
    14
 73
    10
 74
     0
 42
0.000000001
 43
0.0000000001
 40
0.0
 40
0.0
 40
0.0
 40
0.0
 40
4.437951340082113
 40
8.09221583153426
 40
11.35467298824016
 40
14.61719808154339
 40
17.87974963172368
 40
20.15766791178805
 40
22.77655317433729
 40
22.77655317433729
 40
22.77655317433729
 40
22.77655317433729
 10
535.2022805610663
 20
1185.68257161013
 30
0.0
 10
535.2022805610663
 20
1187.161895138036
 30
0.0
 10
535.2255256833637
 20
1189.859016628689
 30
0.0
 10
535.3156775703978
 20
1193.323384237447
 30
0.0
 10
535.4372676298931
 20
1195.998523496557
 30
0.0
 10
535.587193914122
 20
1198.05076559176
 30
0.0
 10
535.7470814710073
 20
1199.335607827219
 30
0.0
 10
535.9103737532314
 20
1200.034675788178
 30
0.0
 10
536.0143496479186
 20
1200.182523015915
 30
0.0
 10
536.0709027559774
 20
1200.182519221911
 30
0.0
  0
SPLINE
  5
4FF1
330
A
100
AcDbEntity
  8
MODEL
100
AcDbSpline
210
0.0
220
0.0
230
1.0
 70
     8
 71
     3
 72
    22
 73
    18
 74
     0
 42
0.000000001
 43
0.0000000001
 40
0.0
 40
0.0
 40
0.0
 40
0.0
 40
4.069372967250446
 40
7.414366078164461
 40
10.40492380029598
 40
13.25963373910581
 40
16.25029650064632
 40
19.24095403896702
 40
22.09558862038859
 40
25.08607164947307
 40
27.94057952960579
 40
30.93101909458784
 40
33.92158931396602
 40
36.77630787140812
 40
39.76706691113682
 40
42.62175942500219
 40
45.55335725037372
 40
45.55335725037372
 40
45.55335725037372
 40
45.55335725037372
 10
535.2022805610663
 20
1185.68257161013
 30
0.0
 10
535.2022805610663
 20
1184.326108072564
 30
0.0
 10
535.2217923929143
 20
1181.854826394832
 30
0.0
 10
535.2976940067956
 20
1178.633601711539
 30
0.0
 10
535.3990449073867
 20
1176.117246402064
 30
0.0
 10
535.5242073541745
 20
1174.08955725959
 30
0.0
 10
535.6737319542767
 20
1172.533757121623
 30
0.0
 10
535.8437340419596
 20
1171.526936345559
 30
0.0
 10
536.0284544448473
 20
1171.098135540261
 30
0.0
 10
536.218912111895
 20
1171.261771595221
 30
0.0
 10
536.4136847350569
 20
1172.016038358023
 30
0.0
 10
536.6017503228418
 20
1173.328485478195
 30
0.0
 10
536.7734850001448
 20
1175.156684575952
 30
0.0
 10
536.9196905862541
 20
1177.413125680031
 30
0.0
 10
537.0299725607333
 20
1179.968604774956
 30
0.0
 10
537.0997705200157
 20
1182.776641752235
 30
0.0
 10
537.1156273432698
 20
1184.705374790253
 30
0.0
 10
537.1156273432698
 20
1185.68257161013
 30
0.0
  0
LINE
  5
4FF2
102
{ACAD_REACTORS
330
528D
102
}
330
A
100
AcDbEntity
  8
MODEL
100
AcDbLine
 10
849.1016570074912
 20
1435.68257161013
 30
0.0
 11
849.1016570074912
 21
935.68257161013
 31
0.0
  0
ARC
  5
4FF3
330
A
100
AcDbEntity
  8
MODEL
100
AcDbCircle
 10
799.1016570074912
 20
935.68257161013
 30
0.0
 40
50.0
100
AcDbArc
 50
270.0
 51
0.0
  0
ARC
  5
4FF4
330
A
100
AcDbEntity
  8
MODEL
100
AcDbCircle
 10
799.1016570074912
 20
1435.68257161013
 30
0.0
 40
50.0
100
AcDbArc
 50
0.0
 51
90.0
  0
LINE
  5
4FF5
330
A
100
AcDbEntity
  8
MODEL
100
AcDbLine
 10
584.1016569406925
 20
1485.68257161013
 30
0.0
 11
799.1016570074912
 21
1485.68257161013
 31
0.0
  0
ARC
  5
4FF6
330
A
100
AcDbEntity
  8
MODEL
100
AcDbCircle
 10
584.1016569406925
 20
1435.68257161013
 30
0.0
 40
50.0
100
AcDbArc
 50
90.0
 51
180.0
  0
LINE
  5
4FF7
330
A
100
AcDbEntity
  8
MODEL
100
AcDbLine
 10
534.1016569406925
 20
935.68257161013
 30
0.0
 11
534.1016569406925
 21
1435.68257161013
 31
0.0
  0
ARC
  5
4FF8
102
{ACAD_REACTORS
330
528D
102
}
330
A
100
AcDbEntity
  8
MODEL
100
AcDbCircle
 10
584.1016569406925
 20
935.68257161013
 30
0.0
 40
50.0
100
AcDbArc
 50
180.0
 51
270.0
  0
LINE
  5
4FF9
330
A
100
AcDbEntity
  8
MODEL
100
AcDbLine
 10
584.1016569406925
 20
885.68257161013
 30
0.0
 11
799.1016570074912
 21
885.68257161013
 31
0.0
  0
LINE
  5
4FFA
330
A
100
AcDbEntity
  8
MODEL
100
AcDbLine
 10
1674.297784798582
 20
755.3602731978024
 30
0.0
 11
1605.983683268859
 21
752.9746862257741
 31
0.0
  0
ARC
  5
4FFB
330
A
100
AcDbEntity
  8
MODEL
100
AcDbCircle
 10
1606.15818118922
 20
747.9777321059225
 30
0.0
 40
4.999999999999971
100
AcDbArc
 50
92.0000050089596
 51
129.0073641538394
  0
ARC
  5
4FFC
330
A
100
AcDbEntity
  8
MODEL
100
AcDbCircle
 10
1674.158186462295
 20
1612.007306381885
 30
0.0
 40
4.0
100
AcDbArc
 50
0.0
 51
87.99999499105611
  0
LINE
  5
4FFD
330
A
100
AcDbEntity
  8
MODEL
100
AcDbLine
 10
1674.297784798582
 20
1616.004869677751
 30
0.0
 11
1605.983683268859
 21
1618.390456649781
 31
0.0
  0
ARC
  5
4FFE
330
A
100
AcDbEntity
  8
MODEL
100
AcDbCircle
 10
1606.15818118922
 20
1623.387410769632
 30
0.0
 40
4.999999999999971
100
AcDbArc
 50
230.9926358466192
 51
267.9999949910405
  0
SPLINE
  5
4FFF
330
A
100
AcDbEntity
  8
MODEL
100
AcDbSpline
210
0.0
220
0.0
230
1.0
 70
     8
 71
     3
 72
     8
 73
     4
 74
     0
 42
0.000000001
 43
0.0000000001
 40
0.0
 40
0.0
 40
0.0
 40
0.0
 40
0.4922975968652663
 40
0.4922975968652663
 40
0.4922975968652663
 40
0.4922975968652663
 10
1712.683162174293
 20
2605.470405929614
 30
0.0
 10
1712.575011028642
 20
2605.468991453655
 30
0.0
 10
1712.468838260656
 20
2605.467604832224
 30
0.0
 10
1712.364579375095
 20
2605.466245172612
 30
0.0
  0
ARC
  5
5002
330
A
100
AcDbEntity
  8
MODEL
100
AcDbCircle
 10
1735.770782240131
 20
2365.145680854029
 30
0.0
 40
8.000000000000004
100
AcDbArc
 50
95.00444037395977
 51
176.7601970942169
  0
LINE
  5
5003
330
A
100
AcDbEntity
  8
MODEL
100
AcDbLine
 10
1678.158213612817
 20
2635.084952728121
 30
0.0
 11
1678.158190472273
 21
2194.831040468927
 31
0.0
  0
SPLINE
  5
5005
330
A
100
AcDbEntity
  8
MODEL
100
AcDbSpline
210
0.0
220
0.0
230
1.0
 70
     8
 71
     3
 72
    11
 73
     7
 74
     0
 42
0.000000001
 43
0.0000000001
 40
0.0524642066952941
 40
0.0524642066952941
 40
0.0524642066952941
 40
0.0524642066952941
 40
0.2629544459023541
 40
0.4869406135542874
 40
0.7692916907358538
 40
0.9623294785455473
 40
0.9623294785455473
 40
0.9623294785455473
 40
0.9623294785455473
 10
1678.158192359607
 20
2238.009470753511
 30
0.0
 10
1687.139056184546
 20
2248.259581222798
 30
0.0
 10
1702.562899642671
 20
2269.893965961523
 30
0.0
 10
1718.99387022047
 20
2305.921335645812
 30
0.0
 10
1725.333378361105
 20
2330.827597790762
 30
0.0
 10
1727.1372912236
 20
2354.180602639219
 30
0.0
 10
1727.783568283939
 20
2365.597801654327
 30
0.0
  0
LINE
  5
5007
330
A
100
AcDbEntity
  8
MODEL
100
AcDbLine
 10
1588.158188389633
 20
2410.084944477492
 30
0.0
 11
1588.158186020727
 21
2509.843891197682
 31
0.0
  0
ARC
  5
5009
330
A
100
AcDbEntity
  8
HIDDEN
 48
0.5
100
AcDbCircle
 10
1593.263994229321
 20
2509.930005873771
 30
0.0
 40
5.105819169749023
100
AcDbArc
 50
180.0000000002143
 51
266.9923112656307
  0
ARC
  5
500A
330
A
100
AcDbEntity
  8
HIDDEN
 48
0.25
100
AcDbCircle
 10
1594.4196057993
 20
2185.546319251778
 30
0.0
 40
6.261430739731584
100
AcDbArc
 50
109.0630162748228
 51
179.9999999998169
  0
LINE
  5
500B
330
A
100
AcDbEntity
  8
MODEL
100
AcDbLine
 10
1588.158188389633
 20
2410.084944471738
 30
0.0
 11
1588.158186078745
 21
2185.546300232153
 31
0.0
  0
SPLINE
  5
500C
330
A
100
AcDbEntity
  8
HIDDEN
 48
0.5
100
AcDbSpline
210
0.0
220
0.0
230
1.0
 70
     8
 71
     7
 72
    61
 73
    53
 74
     0
 42
0.000000001
 43
0.0000000001
 40
0.0156796430588548
 40
0.0156796430588548
 40
0.0156796430588548
 40
0.0156796430588548
 40
0.0156796430588548
 40
0.0156796430588548
 40
0.0156796430588548
 40
0.0156796430588548
 40
0.1040939867023816
 40
0.1040939867023816
 40
0.1040939867023816
 40
0.1040939867023816
 40
0.1040939867023816
 40
0.1672
 40
0.1672
 40
0.1672
 40
0.1672
 40
0.1672
 40
0.2586810606351198
 40
0.2586810606351198
 40
0.2586810606351198
 40
0.2586810606351198
 40
0.2586810606351198
 40
0.27218488
 40
0.27218488
 40
0.27218488
 40
0.27218488
 40
0.27218488
 40
0.4917518685208387
 40
0.4917518685208387
 40
0.4917518685208387
 40
0.4917518685208387
 40
0.4917518685208387
 40
0.5463323536
 40
0.5463323536
 40
0.5463323536
 40
0.5463323536
 40
0.5463323536
 40
0.623656
 40
0.623656
 40
0.623656
 40
0.623656
 40
0.623656
 40
0.6309803693423239
 40
0.6309803693423239
 40
0.6309803693423239
 40
0.6309803693423239
 40
0.6309803693423239
 40
0.76
 40
0.76
 40
0.76
 40
0.76
 40
0.76
 40
0.9735508123238971
 40
0.9735508123238971
 40
0.9735508123238971
 40
0.9735508123238971
 40
0.9735508123238971
 40
0.9735508123238971
 40
0.9735508123238971
 40
0.9735508123238971
 10
1592.374573192883
 20
2191.464372694181
 30
0.0
 10
1595.752016509422
 20
2192.631476333218
 30
0.0
 10
1599.092804090983
 20
2193.901745320843
 30
0.0
 10
1602.394435547864
 20
2195.268737445427
 30
0.0
 10
1605.656576008555
 20
2196.726973440171
 30
0.0
 10
1608.879946749836
 20
2198.272273654334
 30
0.0
 10
1614.338655849472
 20
2201.063740829466
 30
0.0
 10
1619.68572259769
 20
2204.091080061567
 30
0.0
 10
1621.893376278579
 20
2205.391655297413
 30
0.0
 10
1624.081619063047
 20
2206.730847160517
 30
0.0
 10
1626.250148580588
 20
2208.107526550262
 30
0.0
 10
1631.512751052553
 20
2211.568801529846
 30
0.0
 10
1636.65094296866
 20
2215.24079841929
 30
0.0
 10
1639.646335486806
 20
2217.483947697206
 30
0.0
 10
1642.594188543782
 20
2219.793394130636
 30
0.0
 10
1645.491791868178
 20
2222.16497195762
 30
0.0
 10
1648.755934829027
 20
2224.952668833848
 30
0.0
 10
1651.945548531442
 20
2227.809543927438
 30
0.0
 10
1652.354573223772
 20
2228.178141657689
 30
0.0
 10
1652.762343686426
 20
2228.547851413174
 30
0.0
 10
1653.168849199213
 20
2228.918656625778
 30
0.0
 10
1660.16296146109
 20
2235.337231752645
 30
0.0
 10
1666.773798704107
 20
2242.072079037232
 30
0.0
 10
1672.614452298021
 20
2248.623640120524
 30
0.0
 10
1678.019061653485
 20
2255.298650660355
 30
0.0
 10
1682.949238813485
 20
2261.998633958768
 30
0.0
 10
1688.502977639687
 20
2270.295938913246
 30
0.0
 10
1693.329692881747
 20
2278.432720443251
 30
0.0
 10
1694.262076934395
 20
2280.045580389695
 30
0.0
 10
1695.166218385918
 20
2281.65071090294
 30
0.0
 10
1696.042532411916
 20
2283.247619082355
 30
0.0
 10
1698.094233442509
 20
2287.086121802174
 30
0.0
 10
1699.989353905362
 20
2290.873241466559
 30
0.0
 10
1701.047987999398
 20
2293.074955058184
 30
0.0
 10
1702.056007185197
 20
2295.258117271531
 30
0.0
 10
1703.015208714077
 20
2297.422937568012
 30
0.0
 10
1704.013834559711
 20
2299.773369697123
 30
0.0
 10
1704.958334017432
 20
2302.103568161141
 30
0.0
 10
1705.039655365126
 20
2302.305043342869
 30
0.0
 10
1705.120574560936
 20
2302.506368558182
 30
0.0
 10
1705.201093148472
 20
2302.707544604519
 30
0.0
 10
1706.69252748958
 20
2306.449698940341
 30
0.0
 10
1708.046209676907
 20
2310.140739747628
 30
0.0
 10
1709.212236978088
 20
2313.592341952529
 30
0.0
 10
1710.271526253494
 20
2317.009616194389
 30
0.0
 10
1711.231485840242
 20
2320.400847787979
 30
0.0
 10
1713.53367010759
 20
2329.359438618051
 30
0.0
 10
1715.222260453392
 20
2338.255887017886
 30
0.0
 10
1716.062717575729
 20
2343.815624338939
 30
0.0
 10
1716.715390218047
 20
2349.424999475085
 30
0.0
 10
1717.19907214864
 20
2355.103197050846
 30
0.0
 10
1717.565924117388
 20
2360.847897045173
 30
0.0
 10
1717.886563227006
 20
2366.621536685611
 30
0.0
  0
SPLINE
  5
500E
330
A
100
AcDbEntity
  8
HIDDEN
 48
0.5
100
AcDbSpline
210
0.0
220
0.0
230
1.0
 70
     8
 71
     3
 72
    78
 73
    74
 74
     0
 42
0.000000001
 43
0.0000000001
 40
0.0
 40
0.0
 40
0.0
 40
0.0
 40
0.9802871705226811
 40
1.960754145928453
 40
2.941389524121737
 40
3.922181234849218
 40
4.903116648848102
 40
5.884182681949205
 40
6.865365896982343
 40
7.846652605774475
 40
8.828028972736583
 40
9.809481120669327
 40
10.7909952385657
 40
11.77255769038768
 40
12.75415512305163
 40
13.73577457117905
 40
14.71740355558516
 40
15.6990301720737
 40
16.68064316704919
 40
17.66223199698756
 40
18.64378687019981
 40
19.62529877182047
 40
20.60675947611356
 40
21.58816155390782
 40
22.569498380455
 40
23.55076413078233
 40
24.53195376399562
 40
25.51306301080252
 40
26.49408837134937
 40
27.47502711311097
 40
28.45587724331775
 40
29.43663742878253
 40
30.41730685493397
 40
31.39788507794296
 40
32.37837192975018
 40
33.35876748569816
 40
34.33907207314315
 40
35.3192863160352
 40
36.29941123601734
 40
37.2794483574295
 40
38.25939966429103
 40
39.2392673060537
 40
40.2190537165092
 40
41.19876181899098
 40
42.17839524173412
 40
43.15795852985865
 40
44.13745721984707
 40
45.11689744785733
 40
46.09628516237381
 40
47.07562574672392
 40
48.0549243903742
 40
49.03418661557775
 40
50.01341840065738
 40
50.99262582870263
 40
51.97181489183213
 40
52.95099130632581
 40
53.93016032455616
 40
54.90932669253637
 40
55.88849470580103
 40
56.86766822354529
 40
57.84685068360474
 40
58.82604510981549
 40
59.80525407634287
 40
60.78447960536661
 40
61.76372302309512
 40
62.74298486893729
 40
63.72226490681868
 40
64.70156219210782
 40
65.68087515414058
 40
66.66020166958806
 40
67.63953910505263
 40
68.61888432237443
 40
69.59823365737479
 40
69.59823365737479
 40
69.59823365737479
 40
69.59823365737479
 10
1717.886563227006
 20
2366.621536685611
 30
0.0
 10
1717.885493351048
 20
2366.6214698276
 30
0.0
 10
1717.88338951518
 20
2366.628495199827
 30
0.0
 10
1717.88037005479
 20
2366.660136799739
 30
0.0
 10
1717.877502780149
 20
2366.712973548924
 30
0.0
 10
1717.87480471445
 20
2366.786961811723
 30
0.0
 10
1717.872290120769
 20
2366.882081754868
 30
0.0
 10
1717.869971379394
 20
2366.998294545531
 30
0.0
 10
1717.867858674002
 20
2367.135553438065
 30
0.0
 10
1717.865959990816
 20
2367.293800505254
 30
0.0
 10
1717.864281030026
 20
2367.472967315077
 30
0.0
 10
1717.862825150765
 20
2367.672974644794
 30
0.0
 10
1717.86159333782
 20
2367.893732533535
 30
0.0
 10
1717.860584216792
 20
2368.135140302697
 30
0.0
 10
1717.859794131454
 20
2368.397086616945
 30
0.0
 10
1717.859217293898
 20
2368.679449538818
 30
0.0
 10
1717.858846007849
 20
2368.98209656526
 30
0.0
 10
1717.858670955207
 20
2369.304884632425
 30
0.0
 10
1717.858681523288
 20
2369.647660088459
 30
0.0
 10
1717.858866139653
 20
2370.010258643798
 30
0.0
 10
1717.859212568979
 20
2370.392505333974
 30
0.0
 10
1717.859708126172
 20
2370.794214506148
 30
0.0
 10
1717.860339727343
 20
2371.215190003115
 30
0.0
 10
1717.86109404323
 20
2371.655225829006
 30
0.0
 10
1717.86195777501
 20
2372.114106162536
 30
0.0
 10
1717.862917749796
 20
2372.591605315575
 30
0.0
 10
1717.863960878956
 20
2373.087488074373
 30
0.0
 10
1717.865074152654
 20
2373.601510290146
 30
0.0
 10
1717.866244843931
 20
2374.133419389284
 30
0.0
 10
1717.867460974015
 20
2374.682954450183
 30
0.0
 10
1717.868711922583
 20
2375.249845739872
 30
0.0
 10
1717.869988762355
 20
2375.833813615122
 30
0.0
 10
1717.871283898046
 20
2376.434568342126
 30
0.0
 10
1717.872590509086
 20
2377.051811182667
 30
0.0
 10
1717.873902098628
 20
2377.685235544846
 30
0.0
 10
1717.875212327813
 20
2378.334527629644
 30
0.0
 10
1717.876514365812
 20
2378.99936658598
 30
0.0
 10
1717.877801024576
 20
2379.679426140677
 30
0.0
 10
1717.879064176453
 20
2380.37437470162
 30
0.0
 10
1717.880299130924
 20
2381.083876445163
 30
0.0
 10
1717.881502145352
 20
2381.807580005896
 30
0.0
 10
1717.882667869449
 20
2382.54513058604
 30
0.0
 10
1717.883789737814
 20
2383.296168659171
 30
0.0
 10
1717.884859758767
 20
2384.060330122321
 30
0.0
 10
1717.885868589251
 20
2384.837246378858
 30
0.0
 10
1717.886806878817
 20
2385.626544899284
 30
0.0
 10
1717.88766999527
 20
2386.427846101704
 30
0.0
 10
1717.888460885067
 20
2387.240755811283
 30
0.0
 10
1717.889184598407
 20
2388.06486659134
 30
0.0
 10
1717.889841793603
 20
2388.899769112056
 30
0.0
 10
1717.890428555245
 20
2389.745054047543
 30
0.0
 10
1717.89094006109
 20
2390.600312499127
 30
0.0
 10
1717.89137661162
 20
2391.46512460527
 30
0.0
 10
1717.891738744092
 20
2392.339065055769
 30
0.0
 10
1717.892028699006
 20
2393.221703292865
 30
0.0
 10
1717.892250547029
 20
2394.112603666702
 30
0.0
 10
1717.892409583164
 20
2395.011325251136
 30
0.0
 10
1717.892509861445
 20
2395.917424994974
 30
0.0
 10
1717.892555926377
 20
2396.830456573699
 30
0.0
 10
1717.892552313369
 20
2397.749970715206
 30
0.0
 10
1717.89250356748
 20
2398.675515460988
 30
0.0
 10
1717.892414423902
 20
2399.60663626865
 30
0.0
 10
1717.892290325271
 20
2400.542875989411
 30
0.0
 10
1717.892138048951
 20
2401.48377491698
 30
0.0
 10
1717.891966016311
 20
2402.428871045044
 30
0.0
 10
1717.891783242335
 20
2403.377701015441
 30
0.0
 10
1717.891598481644
 20
2404.32980010654
 30
0.0
 10
1717.891420187301
 20
2405.284704520662
 30
0.0
 10
1717.89125614164
 20
2406.241943297327
 30
0.0
 10
1717.8911145177
 20
2407.201068800805
 30
0.0
 10
1717.891000956809
 20
2408.161542910787
 30
0.0
 10
1717.890931206206
 20
2409.123161937418
 30
0.0
 10
1717.890900761867
 20
2409.764034494916
 30
0.0
 10
1717.890908826902
 20
2410.084955214222
 30
0.0
  0
ARC
  5
5010
330
A
100
AcDbEntity
  8
HIDDEN
 48
0.5
100
AcDbCircle
 10
1733.188965562283
 20
2454.496141945545
 30
0.0
 40
15.34803124753853
100
AcDbArc
 50
183.7235204463636
 51
219.9999999997872
  0
SPLINE
  5
5012
330
A
100
AcDbEntity
  8
HIDDEN
 48
0.5
100
AcDbSpline
210
0.0
220
0.0
230
1.0
 70
     8
 71
     3
 72
    78
 73
    74
 74
     0
 42
0.000000001
 43
0.0000000001
 40
0.0
 40
0.0
 40
0.0
 40
0.0
 40
0.9825239241547343
 40
1.965032392015687
 40
2.94750961021218
 40
3.929939499804529
 40
4.912305895923405
 40
5.894592772481206
 40
6.876784494362747
 40
7.858866093077578
 40
8.840823555909944
 40
9.822644113887607
 40
10.80431651098344
 40
11.78583123551544
 40
12.76718070181702
 40
13.74835936696365
 40
14.72936375883286
 40
15.71019242615574
 40
16.69084583554549
 40
17.67132623865999
 40
18.65163752254675
 40
19.63178504319509
 40
20.61177543216767
 40
21.59161635850368
 40
22.57131626085097
 40
23.55088409349541
 40
24.53032909496621
 40
25.50966058692378
 40
26.48888780829387
 40
27.46801978583595
 40
28.44706523942243
 40
29.42603251834199
 40
30.40492956385598
 40
31.38376389286969
 40
32.36254259773536
 40
33.34127235769616
 40
34.31995945815297
 40
35.29860981467352
 40
36.27722899938806
 40
37.2558222680741
 40
38.23439458672543
 40
39.21295065779299
 40
40.19149494815587
 40
41.17003171600613
 40
42.14856503200754
 40
43.12709879646782
 40
44.10563675474433
 40
45.08418250638928
 40
46.06273950601366
 40
47.04131105803547
 40
48.01990030826228
 40
48.99851021810586
 40
49.97714348095414
 40
50.95580238961065
 40
51.93448869053151
 40
52.91320364878315
 40
53.89194916807707
 40
54.87072864795039
 40
55.84954489694489
 40
56.82840051213
 40
57.80729911731002
 40
58.78624472230511
 40
59.76524044317796
 40
60.7442877317234
 40
61.72338620685485
 40
62.7025338326714
 40
63.68172719372688
 40
64.66096178104382
 40
65.64023224963229
 40
66.61953259673943
 40
67.59885623952053
 40
68.57819601042623
 40
69.55754411482015
 40
69.55754411482015
 40
69.55754411482015
 40
69.55754411482015
 10
1717.873333347499
 20
2453.499410769827
 30
0.0
 10
1717.873333443367
 20
2453.499409497423
 30
0.0
 10
1717.873355915468
 20
2453.492474730533
 30
0.0
 10
1717.873473572824
 20
2453.461250599467
 30
0.0
 10
1717.87368679095
 20
2453.40920308403
 30
0.0
 10
1717.874003519176
 20
2453.336328591877
 30
0.0
 10
1717.874427788909
 20
2453.242629324321
 30
0.0
 10
1717.874960139543
 20
2453.128112291946
 30
0.0
 10
1717.875597963389
 20
2452.992790849877
 30
0.0
 10
1717.876335951008
 20
2452.836685655732
 30
0.0
 10
1717.877166562819
 20
2452.659825849501
 30
0.0
 10
1717.878080521117
 20
2452.46225019937
 30
0.0
 10
1717.879067297795
 20
2452.244008254665
 30
0.0
 10
1717.880115582247
 20
2452.005161382793
 30
0.0
 10
1717.881213755583
 20
2451.745783759254
 30
0.0
 10
1717.882350224743
 20
2451.465963493479
 30
0.0
 10
1717.883513576689
 20
2451.165803305457
 30
0.0
 10
1717.884692642841
 20
2450.845420744547
 30
0.0
 10
1717.885876563032
 20
2450.504948047603
 30
0.0
 10
1717.887054920593
 20
2450.14453181047
 30
0.0
 10
1717.888217971707
 20
2449.764332674587
 30
0.0
 10
1717.889356928677
 20
2449.364525164928
 30
0.0
 10
1717.890464180021
 20
2448.945297831898
 30
0.0
 10
1717.891533303907
 20
2448.506853219385
 30
0.0
 10
1717.892559028743
 20
2448.049407135986
 30
0.0
 10
1717.893537167696
 20
2447.573188039178
 30
0.0
 10
1717.894464515604
 20
2447.078436322907
 30
0.0
 10
1717.895338728358
 20
2446.565403586493
 30
0.0
 10
1717.896158194842
 20
2446.034351914389
 30
0.0
 10
1717.896921911076
 20
2445.485553198318
 30
0.0
 10
1717.897629362811
 20
2444.91928852093
 30
0.0
 10
1717.898280421057
 20
2444.335847612166
 30
0.0
 10
1717.898875252565
 20
2443.735528381789
 30
0.0
 10
1717.899414245945
 20
2443.118636525683
 30
0.0
 10
1717.899897952887
 20
2442.485485199435
 30
0.0
 10
1717.900327042811
 20
2441.836394750073
 30
0.0
 10
1717.900702269387
 20
2441.171692495912
 30
0.0
 10
1717.901024446491
 20
2440.491712542986
 30
0.0
 10
1717.901294431449
 20
2439.796795631962
 30
0.0
 10
1717.901513114065
 20
2439.087288992145
 30
0.0
 10
1717.901681405306
 20
2438.363546253065
 30
0.0
 10
1717.901800190524
 20
2437.625927295056
 30
0.0
 10
1717.901870340345
 20
2436.874798019908
 30
0.0
 10
1717.901892747399
 20
2436.110530298746
 30
0.0
 10
1717.901868345219
 20
2435.333501915098
 30
0.0
 10
1717.901798089751
 20
2434.544096437779
 30
0.0
 10
1717.901683005289
 20
2433.742702999987
 30
0.0
 10
1717.901524265867
 20
2432.929716304046
 30
0.0
 10
1717.90132318906
 20
2432.105536490131
 30
0.0
 10
1717.901081350752
 20
2431.270568995184
 30
0.0
 10
1717.900800442734
 20
2430.425224396856
 30
0.0
 10
1717.900482898581
 20
2429.569917997812
 30
0.0
 10
1717.90013224287
 20
2428.705070614207
 30
0.0
 10
1717.899753416673
 20
2427.8311083464
 30
0.0
 10
1717.899352161479
 20
2426.948462291723
 30
0.0
 10
1717.898933308129
 20
2426.057569788276
 30
0.0
 10
1717.898478521226
 20
2425.158864322285
 30
0.0
 10
1717.897982587401
 20
2424.252762561817
 30
0.0
 10
1717.897466740312
 20
2423.33972816249
 30
0.0
 10
1717.896920634684
 20
2422.420206489791
 30
0.0
 10
1717.896336381938
 20
2421.494640617618
 30
0.0
 10
1717.895718123621
 20
2420.563485667943
 30
0.0
 10
1717.895079235535
 20
2419.627204572938
 30
0.0
 10
1717.894436856531
 20
2418.686263463302
 30
0.0
 10
1717.893808666329
 20
2417.741128975327
 30
0.0
 10
1717.893210779224
 20
2416.792267022645
 30
0.0
 10
1717.892657635038
 20
2415.84014339299
 30
0.0
 10
1717.892161697735
 20
2414.885221713251
 30
0.0
 10
1717.891733283995
 20
2413.92797212877
 30
0.0
 10
1717.891382603633
 20
2412.968840634932
 30
0.0
 10
1717.89111615351
 20
2412.008365525799
 30
0.0
 10
1717.890954961494
 20
2411.046743785869
 30
0.0
 10
1717.890898206478
 20
2410.405881490435
 30
0.0
 10
1717.890909657599
 20
2410.084955208484
 30
0.0
  0
ARC
  5
5013
330
A
100
AcDbEntity
  8
HIDDEN
 48
0.5
100
AcDbCircle
 10
1732.984218163943
 20
2365.783088334529
 30
0.0
 40
15.1209186305745
100
AcDbArc
 50
140.0000000002134
 51
176.8213436856905
  0
ARC
  5
5014
330
A
100
AcDbEntity
  8
HIDDEN
 48
0.5
100
AcDbCircle
 10
1365.118785171394
 20
-1868.447024956906
 30
0.0
 40
4379.211193175634
100
AcDbArc
 50
86.81154173438014
 51
87.01720085671765
  0
SPLINE
  5
5018
330
A
100
AcDbEntity
  8
HIDDEN
 48
0.5
100
AcDbSpline
210
0.0
220
0.0
230
1.0
 70
     8
 71
     3
 72
    51
 73
    47
 74
     0
 42
0.000000001
 43
0.0000000001
 40
0.0
 40
0.0
 40
0.0
 40
0.0
 40
1.034680128441657
 40
2.069439655519297
 40
3.104332998192355
 40
4.139098184796005
 40
5.173622302406084
 40
6.208762447818454
 40
7.243803138972157
 40
8.27872061658868
 40
9.314219395666928
 40
10.34936196056373
 40
11.38458917220594
 40
12.42047584472662
 40
13.45602685216815
 40
14.49183367260692
 40
15.52808642124108
 40
16.56393398792573
 40
17.60019710910252
 40
18.63682981422895
 40
19.67313768600759
 40
20.70998925362504
 40
21.74674920564503
 40
22.78327626243826
 40
23.8204191052956
 40
24.85732844058275
 40
25.89410258274312
 40
26.93137869626224
 40
27.9680849241843
 40
29.00474165850765
 40
30.04183645964203
 40
31.07831381169487
 40
32.11483783051185
 40
33.15145450872963
 40
34.18734828497958
 40
35.22337516665969
 40
36.25939604703088
 40
37.29490524082397
 40
38.33075953770219
 40
39.36605561107184
 40
40.40069592989084
 40
41.43555342889039
 40
42.47077460040808
 40
43.50548413034944
 40
44.540367790362
 40
45.57494872747675
 40
45.57494872747675
 40
45.57494872747675
 40
45.57494872747675
 10
1608.692161340227
 20
2503.985099714267
 30
0.0
 10
1608.692348417641
 20
2503.985089191637
 30
0.0
 10
1608.716650890787
 20
2503.983726193771
 30
0.0
 10
1608.827174168404
 20
2503.977523990895
 30
0.0
 10
1609.010552485783
 20
2503.967221799917
 30
0.0
 10
1609.266000376436
 20
2503.95284629998
 30
0.0
 10
1609.592184441532
 20
2503.934448109184
 30
0.0
 10
1609.987484709888
 20
2503.912087224485
 30
0.0
 10
1610.449912550383
 20
2503.88583782014
 30
0.0
 10
1610.977101200846
 20
2503.855789191191
 30
0.0
 10
1611.566342778246
 20
2503.822044047495
 30
0.0
 10
1612.214661974406
 20
2503.784714898577
 30
0.0
 10
1612.918766067033
 20
2503.74392774483
 30
0.0
 10
1613.675096786803
 20
2503.699819811985
 30
0.0
 10
1614.479841525249
 20
2503.652540113098
 30
0.0
 10
1615.328841594387
 20
2503.602256270157
 30
0.0
 10
1616.217759677242
 20
2503.549145939382
 30
0.0
 10
1617.142113742088
 20
2503.493396507713
 30
0.0
 10
1618.097152347142
 20
2503.435214532686
 30
0.0
 10
1619.078039553457
 20
2503.374816247965
 30
0.0
 10
1620.079834443565
 20
2503.312431121005
 30
0.0
 10
1621.097236159727
 20
2503.248319741291
 30
0.0
 10
1622.125118403932
 20
2503.182742680547
 30
0.0
 10
1623.158266059374
 20
2503.115978677012
 30
0.0
 10
1624.19130201513
 20
2503.048330521433
 30
0.0
 10
1625.219050607066
 20
2502.980104780959
 30
0.0
 10
1626.236222881711
 20
2502.911634251223
 30
0.0
 10
1627.237464001581
 20
2502.843276392347
 30
0.0
 10
1628.217791390056
 20
2502.775385059361
 30
0.0
 10
1629.172155391182
 20
2502.708340975759
 30
0.0
 10
1630.095643956204
 20
2502.64253749758
 30
0.0
 10
1630.983671459592
 20
2502.578367088145
 30
0.0
 10
1631.83158799334
 20
2502.516248061832
 30
0.0
 10
1632.635060454679
 20
2502.45659521554
 30
0.0
 10
1633.390093093218
 20
2502.399815886553
 30
0.0
 10
1634.092824209195
 20
2502.346321619432
 30
0.0
 10
1634.739750012905
 20
2502.296507684327
 30
0.0
 10
1635.32766275248
 20
2502.250753887319
 30
0.0
 10
1635.85349079948
 20
2502.20943242802
 30
0.0
 10
1636.314561272175
 20
2502.172883234725
 30
0.0
 10
1636.708596590139
 20
2502.141409409425
 30
0.0
 10
1637.033757866204
 20
2502.115268887725
 30
0.0
 10
1637.288398463632
 20
2502.094690244961
 30
0.0
 10
1637.471161548096
 20
2502.079861637191
 30
0.0
 10
1637.581299869639
 20
2502.070901632141
 30
0.0
 10
1637.605507444347
 20
2502.068929666355
 30
0.0
 10
1637.605699283395
 20
2502.068914056995
 30
0.0
  0
SPLINE
  5
5019
330
A
100
AcDbEntity
  8
HIDDEN
 48
0.5
100
AcDbSpline
210
0.0
220
0.0
230
1.0
 70
     8
 71
     7
 72
    71
 73
    63
 74
     0
 42
0.000000001
 43
0.0000000001
 40
0.234069382175107
 40
0.234069382175107
 40
0.234069382175107
 40
0.234069382175107
 40
0.234069382175107
 40
0.234069382175107
 40
0.234069382175107
 40
0.234069382175107
 40
0.2552041442707252
 40
0.2552041442707252
 40
0.2552041442707252
 40
0.2552041442707252
 40
0.2552041442707252
 40
0.2985150588419999
 40
0.2985150588419999
 40
0.2985150588419999
 40
0.2985150588419999
 40
0.2985150588419999
 40
0.3477431545679061
 40
0.3477431545679061
 40
0.3477431545679061
 40
0.3477431545679061
 40
0.3477431545679061
 40
0.3560957399999999
 40
0.3560957399999999
 40
0.3560957399999999
 40
0.3560957399999999
 40
0.3560957399999999
 40
0.4365564919739388
 40
0.4365564919739388
 40
0.4365564919739388
 40
0.4365564919739388
 40
0.4365564919739388
 40
0.4624619999999999
 40
0.4624619999999999
 40
0.4624619999999999
 40
0.4624619999999999
 40
0.4624619999999999
 40
0.5929
 40
0.5929
 40
0.5929
 40
0.5929
 40
0.5929
 40
0.6077649020325465
 40
0.6077649020325465
 40
0.6077649020325465
 40
0.6077649020325465
 40
0.6077649020325465
 40
0.6879954204083859
 40
0.6879954204083859
 40
0.6879954204083859
 40
0.6879954204083859
 40
0.6879954204083859
 40
0.729267
 40
0.729267
 40
0.729267
 40
0.729267
 40
0.729267
 40
0.77
 40
0.77
 40
0.77
 40
0.77
 40
0.77
 40
0.9574148243989464
 40
0.9574148243989464
 40
0.9574148243989464
 40
0.9574148243989464
 40
0.9574148243989464
 40
0.9574148243989464
 40
0.9574148243989464
 40
0.9574148243989464
 10
1637.605699283395
 20
2502.068914056995
 30
0.0
 10
1638.22426171591
 20
2502.018538834849
 30
0.0
 10
1638.841981903363
 20
2501.967571227355
 30
0.0
 10
1639.458849349572
 20
2501.915993856819
 30
0.0
 10
1640.074850750232
 20
2501.863789098488
 30
0.0
 10
1640.689969478862
 20
2501.810939117628
 30
0.0
 10
1642.562881508845
 20
2501.647762673447
 30
0.0
 10
1644.427174224507
 20
2501.478250533763
 30
0.0
 10
1645.6759780967
 20
2501.361311501137
 30
0.0
 10
1646.920409581773
 20
2501.241195545567
 30
0.0
 10
1648.160128041785
 20
2501.117741725329
 30
0.0
 10
1650.798034471332
 20
2500.846488041738
 30
0.0
 10
1653.410917452074
 20
2500.558492551005
 30
0.0
 10
1654.79324862127
 20
2500.400303258937
 30
0.0
 10
1656.16735830378
 20
2500.236874202496
 30
0.0
 10
1657.532681052343
 20
2500.067939634847
 30
0.0
 10
1659.118824482375
 20
2499.863565982778
 30
0.0
 10
1660.691780190831
 20
2499.650831841017
 30
0.0
 10
1660.919671950938
 20
2499.619795403077
 30
0.0
 10
1661.147282626207
 20
2499.58857991124
 30
0.0
 10
1661.374610549395
 20
2499.557183760185
 30
0.0
 10
1663.788773090203
 20
2499.221409049955
 30
0.0
 10
1666.170618875392
 20
2498.864836177527
 30
0.0
 10
1668.300638658231
 20
2498.523227848272
 30
0.0
 10
1670.401757415111
 20
2498.161412548923
 30
0.0
 10
1672.473192651148
 20
2497.777420597634
 30
0.0
 10
1675.169023810118
 20
2497.237954245534
 30
0.0
 10
1677.801259169475
 20
2496.653774262424
 30
0.0
 10
1678.438427204182
 20
2496.508794922143
 30
0.0
 10
1679.071522935471
 20
2496.361067721085
 30
0.0
 10
1679.700368466717
 20
2496.210552724929
 30
0.0
 10
1683.468719115353
 20
2495.285148296169
 30
0.0
 10
1687.067718640861
 20
2494.2560745064
 30
0.0
 10
1689.926398792904
 20
2493.322049402577
 30
0.0
 10
1692.608447027643
 20
2492.313759404198
 30
0.0
 10
1695.084077530427
 20
2491.239050499005
 30
0.0
 10
1697.600136510813
 20
2489.986842515251
 30
0.0
 10
1699.86277516351
 20
2488.680243949222
 30
0.0
 10
1700.091614977693
 20
2488.54601368583
 30
0.0
 10
1700.317842766835
 20
2488.411228164313
 30
0.0
 10
1700.541485633151
 20
2488.275891474055
 30
0.0
 10
1701.955861981772
 20
2487.406584064521
 30
0.0
 10
1703.267150944931
 20
2486.514727126478
 30
0.0
 10
1704.305561263656
 20
2485.746021499224
 30
0.0
 10
1705.284604576114
 20
2484.958437141589
 30
0.0
 10
1706.213600555336
 20
2484.145752873283
 30
0.0
 10
1707.554236543732
 20
2482.866666648501
 30
0.0
 10
1708.801526866129
 20
2481.501380819712
 30
0.0
 10
1709.214847795334
 20
2481.02690702663
 30
0.0
 10
1709.617998703939
 20
2480.541027860614
 30
0.0
 10
1710.010928630978
 20
2480.043199482236
 30
0.0
 10
1710.77089374603
 20
2479.029585800929
 30
0.0
 10
1711.488651481984
 20
2477.96657353559
 30
0.0
 10
1711.83449933879
 20
2477.426173869592
 30
0.0
 10
1712.169330731867
 20
2476.873353799133
 30
0.0
 10
1712.492774393529
 20
2476.308249744225
 30
0.0
 10
1714.238704013685
 20
2473.075920790585
 30
0.0
 10
1715.607920298269
 20
2469.481102722271
 30
0.0
 10
1716.448936998993
 20
2466.323619785389
 30
0.0
 10
1717.017969241063
 20
2463.078302864476
 30
0.0
 10
1717.402344833379
 20
2459.834373137782
 30
0.0
 10
1717.668660978441
 20
2456.644377843607
 30
0.0
 10
1717.873333347499
 20
2453.499410769827
 30
0.0
  0
LINE
  5
501D
330
A
100
AcDbEntity
  8
MODEL
100
AcDbLine
 10
1717.509807691127
 20
2635.084950621856
 30
0.0
 11
1718.729501628829
 21
2635.084950619727
 31
0.0
  0
LINE
  5
5021
330
A
100
AcDbEntity
  8
HIDDEN
 48
0.5
100
AcDbLine
 10
1730.618304963605
 20
2410.084956077533
 30
0.0
 11
1730.618303932122
 21
2433.682436071734
 31
0.0
  0
SPLINE
  5
5022
330
A
100
AcDbEntity
  8
HIDDEN
 48
0.5
100
AcDbSpline
210
0.0
220
0.0
230
1.0
 70
     8
 71
     3
 72
    26
 73
    22
 74
     0
 42
0.000000001
 43
0.0000000001
 40
120.2515803759844
 40
120.2515803759844
 40
120.2515803759844
 40
120.2515803759844
 40
121.3349279469392
 40
123.5016230888488
 40
125.6683182307584
 40
127.8350133726681
 40
130.0017085145777
 40
132.1684036564873
 40
134.3350987983969
 40
136.5017939403066
 40
138.6684890822162
 40
140.8351842241258
 40
143.0018793660354
 40
145.168574507945
 40
147.3352696498547
 40
149.5019647917643
 40
151.6686599336739
 40
153.8353550755835
 40
156.0020502174931
 40
158.1687453594028
 40
160.3354405013124
 40
160.3354405013124
 40
160.3354405013124
 40
160.3354405013124
 10
1730.618303932122
 20
2386.487478146291
 30
0.0
 10
1730.618303946717
 20
2386.487478131696
 30
0.0
 10
1730.618303990519
 20
2386.508737017116
 30
0.0
 10
1730.618304063293
 20
2386.650463139066
 30
0.0
 10
1730.618304149702
 20
2386.989380551461
 30
0.0
 10
1730.618304234525
 20
2387.494702122189
 30
0.0
 10
1730.61830431718
 20
2388.162786997748
 30
0.0
 10
1730.618304397055
 20
2388.988821611307
 30
0.0
 10
1730.618304473584
 20
2389.966854364542
 30
0.0
 10
1730.618304546213
 20
2391.089838509058
 30
0.0
 10
1730.618304614417
 20
2392.349682918357
 30
0.0
 10
1730.618304677704
 20
2393.737310384606
 30
0.0
 10
1730.61830473562
 20
2395.242723020095
 30
0.0
 10
1730.618304787745
 20
2396.855074292359
 30
0.0
 10
1730.6183048337
 20
2398.562747173278
 30
0.0
 10
1730.618304873165
 20
2400.353437841558
 30
0.0
 10
1730.618304905849
 20
2402.214244326388
 30
0.0
 10
1730.618304931518
 20
2404.131759487503
 30
0.0
 10
1730.618304949985
 20
2406.092167535356
 30
0.0
 10
1730.618304961117
 20
2408.081343867421
 30
0.0
 10
1730.618304963605
 20
2409.417085117131
 30
0.0
 10
1730.618304963605
 20
2410.084956077533
 30
0.0
  0
SPLINE
  5
5023
330
A
100
AcDbEntity
  8
MODEL
100
AcDbSpline
210
0.0
220
0.0
230
1.0
 70
     8
 71
     3
 72
    23
 73
    19
 74
     0
 42
0.000000001
 43
0.0000000001
 40
0.0
 40
0.0
 40
0.0
 40
0.0
 40
0.5305652824703276
 40
1.061024340545128
 40
1.421220675095192
 40
2.021439659114697
 40
2.686776748732246
 40
3.390540911800182
 40
4.202718146217786
 40
5.044308303405248
 40
6.714499642107303
 40
8.560629630118783
 40
9.215106384879924
 40
10.26226674750887
 40
11.57121717445309
 40
12.92082474148181
 40
14.81027127312417
 40
16.32325972197771
 40
16.32325972197771
 40
16.32325972197771
 40
16.32325972197771
 10
1592.684196026345
 20
2115.084957109013
 30
0.0
 10
1592.86096773396
 20
2115.084957109013
 30
0.0
 10
1593.215496271591
 20
2115.089575771503
 30
0.0
 10
1593.682866291191
 20
2115.178830066599
 30
0.0
 10
1594.152075544004
 20
2115.345299455173
 30
0.0
 10
1594.631973501066
 20
2115.601281121832
 30
0.0
 10
1595.156847776645
 20
2115.998319112452
 30
0.0
 10
1595.677731047243
 20
2116.507267908439
 30
0.0
 10
1596.17865935322
 20
2117.114040275349
 30
0.0
 10
1596.804942232604
 20
2118.029230105743
 30
0.0
 10
1597.490557826798
 20
2119.313270897748
 30
0.0
 10
1597.997514756022
 20
2120.610371046585
 30
0.0
 10
1598.336513668521
 20
2121.74371683266
 30
0.0
 10
1598.56530062619
 20
2122.721251905622
 30
0.0
 10
1598.797778070355
 20
2123.934677579939
 30
0.0
 10
1599.004997290879
 20
2125.43703482195
 30
0.0
 10
1599.129984308984
 20
2127.016851354643
 30
0.0
 10
1599.158175059569
 20
2128.151055390812
 30
0.0
 10
1599.158175059569
 20
2128.655336768664
 30
0.0
  0
LINE
  5
5025
330
A
100
AcDbEntity
  8
MODEL
100
AcDbLine
 10
1735.07291866637
 20
2373.115184378867
 30
0.0
 11
1764.249002969405
 21
2375.670039445618
 31
0.0
  0
LINE
  5
5026
330
A
100
AcDbEntity
  8
MODEL
100
AcDbLine
 10
1764.249002969405
 20
2444.499874772407
 30
0.0
 11
1763.574883399505
 21
2444.558905236567
 31
0.0
  0
LINE
  5
5027
330
A
100
AcDbEntity
  8
MODEL
100
AcDbLine
 10
1766.987304129248
 20
2378.658603267433
 30
0.0
 11
1766.987304129248
 21
2388.150281249359
 31
0.0
  0
LINE
  5
5028
330
A
100
AcDbEntity
  8
MODEL
100
AcDbLine
 10
1766.987304129248
 20
2432.019632968667
 30
0.0
 11
1766.987304129248
 21
2441.511310950594
 31
0.0
  0
ARC
  5
5029
330
A
100
AcDbEntity
  8
MODEL
100
AcDbCircle
 10
1763.836615563941
 20
2447.54750156585
 30
0.0
 40
3.000035290678196
100
AcDbArc
 50
183.5833005371355
 51
264.9949797707785
  0
ARC
  5
502A
330
A
100
AcDbEntity
  8
MODEL
100
AcDbCircle
 10
1763.987286124483
 20
2378.658619764472
 30
0.0
 40
3.000018004804363
100
AcDbArc
 50
275.0047554418439
 51
359.9996849316754
  0
ARC
  5
502B
330
A
100
AcDbEntity
  8
MODEL
100
AcDbCircle
 10
1763.987286124483
 20
2441.511294453555
 30
0.0
 40
3.000018004804485
100
AcDbArc
 50
0.0003150685503641
 51
84.99524455815605
  0
ARC
  5
502D
330
A
100
AcDbEntity
  8
MODEL
100
AcDbCircle
 10
1674.158173784981
 20
2188.794434870078
 30
0.0
 40
4.0
100
AcDbArc
 50
272.0000000002123
 51
0.0
  0
SPLINE
  5
5032
330
A
100
AcDbEntity
  8
MODEL
100
AcDbSpline
210
0.0
220
0.0
230
1.0
 70
     8
 71
     3
 72
    21
 73
    17
 74
     0
 42
0.000000001
 43
0.0000000001
 40
0.0
 40
0.0
 40
0.0
 40
0.0
 40
4.533516478593762
 40
9.067035933164373
 40
13.18841710898565
 40
19.95746039783984
 40
31.803264473107
 40
42.2388604503986
 40
48.44381759494436
 40
56.67461424734945
 40
64.83642046346715
 40
73.38673124274106
 40
80.44846959916056
 40
87.36156773175962
 40
93.96034809664994
 40
94.37361891854032
 40
94.37361891854032
 40
94.37361891854032
 40
94.37361891854032
 10
1760.842445381251
 20
2447.360000466045
 30
0.0
 10
1760.748017118723
 20
2448.868152513229
 30
0.0
 10
1760.51543717804
 20
2451.882052995761
 30
0.0
 10
1760.019291527412
 20
2456.25084417798
 30
0.0
 10
1759.254346921359
 20
2461.335769734075
 30
0.0
 10
1757.769502215804
 20
2468.771021701311
 30
0.0
 10
1755.041402480103
 20
2478.080604824315
 30
0.0
 10
1751.260074095876
 20
2486.81136159324
 30
0.0
 10
1747.167035271635
 20
2494.029409388648
 30
0.0
 10
1742.806258691391
 20
2500.187511980471
 30
0.0
 10
1737.197697428655
 20
2506.347177322775
 30
0.0
 10
1731.148172907069
 20
2511.491332062881
 30
0.0
 10
1724.904868915346
 20
2515.678866633412
 30
0.0
 10
1718.87272283978
 20
2518.954901921622
 30
0.0
 10
1714.627449196711
 20
2520.839591215466
 30
0.0
 10
1712.458686866588
 20
2521.711045074429
 30
0.0
 10
1712.330760071643
 20
2521.762138888776
 30
0.0
  0
LINE
  5
5040
330
A
100
AcDbEntity
  8
MODEL
100
AcDbLine
 10
1601.132113101256
 20
2132.21708936087
 30
0.0
 11
1601.695136971412
 21
2132.422013348176
 31
0.0
  0
LINE
  5
5041
330
A
100
AcDbEntity
  8
MODEL
100
AcDbLine
 10
1599.158173784981
 20
2128.655336768664
 30
0.0
 11
1599.158173784981
 21
2129.398011590868
 31
0.0
  0
ARC
  5
5042
330
A
100
AcDbEntity
  8
MODEL
100
AcDbCircle
 10
1602.158173784981
 20
2129.398011590864
 30
0.0
 40
3.000000000000024
100
AcDbArc
 50
110.0000051572589
 51
179.9999999997742
  0
ARC
  5
5043
330
A
100
AcDbEntity
  8
MODEL
100
AcDbCircle
 10
1601.01109651561
 20
2134.301398528178
 30
0.0
 40
2.000000000000013
100
AcDbArc
 50
290.0000051572559
 51
0.4409009947388904
  0
SPLINE
  5
5045
330
A
100
AcDbEntity
  8
MODEL
100
AcDbSpline
210
0.0
220
0.0
230
1.0
 70
     8
 71
     3
 72
    17
 73
    13
 74
     0
 42
0.000000001
 43
0.0000000001
 40
0.0
 40
0.0
 40
0.0
 40
0.0
 40
0.0986846165700058
 40
0.1974561802184047
 40
0.3322459645423549
 40
0.538655577767558
 40
0.684701335973764
 40
0.9766983645174704
 40
1.390677493903814
 40
2.060296363055185
 40
2.998300324359669
 40
4.050912420195056
 40
4.050912420195056
 40
4.050912420195056
 40
4.050912420195056
 10
1588.737263384876
 20
2115.655687453341
 30
0.0
 10
1588.760401606549
 20
2115.632328481408
 30
0.0
 10
1588.808491525259
 20
2115.587154655283
 30
0.0
 10
1588.89961274491
 20
2115.523768504741
 30
0.0
 10
1589.029263191759
 20
2115.454754037089
 30
0.0
 10
1589.179943137748
 20
2115.393582351857
 30
0.0
 10
1589.384404370071
 20
2115.327438294597
 30
0.0
 10
1589.659929276172
 20
2115.257722667003
 30
0.0
 10
1590.11194209912
 20
2115.178790569866
 30
0.0
 10
1590.783166297599
 20
2115.113813098168
 30
0.0
 10
1591.669809437215
 20
2115.087929489678
 30
0.0
 10
1592.333329169157
 20
2115.084957109013
 30
0.0
 10
1592.684196026345
 20
2115.084957109013
 30
0.0
  0
ARC
  5
5046
330
A
100
AcDbEntity
  8
MODEL
100
AcDbCircle
 10
1590.158175059569
 20
2117.063171027922
 30
0.0
 40
2.000000000000011
100
AcDbArc
 50
180.0000000001043
 51
224.7279843811161
  0
LINE
  5
5047
330
A
100
AcDbEntity
  8
MODEL
100
AcDbLine
 10
1674.297771771791
 20
2184.796871562002
 30
0.0
 11
1608.878977811361
 21
2182.512396937682
 31
0.0
  0
ARC
  5
5049
330
A
100
AcDbEntity
  8
MODEL
100
AcDbCircle
 10
1609.158173784981
 20
2174.517270321528
 30
0.0
 40
7.999999999999993
100
AcDbArc
 50
92.00000000021227
 51
140.1941029577804
  0
LINE
  5
5053
330
A
100
AcDbEntity
  8
HIDDEN
 48
0.5
100
AcDbLine
 10
1721.431691512294
 20
2444.630617626545
 30
0.0
 11
1730.618305507672
 21
2433.682437393773
 31
0.0
  0
LINE
  5
5055
330
A
100
AcDbEntity
  8
HIDDEN
 48
0.5
100
AcDbLine
 10
1730.618305507672
 20
2386.487476824252
 30
0.0
 11
1721.400922472141
 21
2375.50262747734
 31
0.0
  0
LINE
  5
5056
330
A
100
AcDbEntity
  8
HIDDEN
 48
0.5
100
AcDbLine
 10
1766.987304129248
 20
2432.019632968667
 30
0.0
 11
1732.864431203419
 21
2432.611249890465
 31
0.0
  0
LINE
  5
505A
330
A
100
AcDbEntity
  8
HIDDEN
 48
0.5
100
AcDbLine
 10
1732.864431256373
 20
2387.558661274024
 30
0.0
 11
1766.987304129248
 21
2388.150281249359
 31
0.0
  0
ARC
  5
505B
330
A
100
AcDbEntity
  8
HIDDEN
 48
0.5
100
AcDbCircle
 10
1732.916437511437
 20
2384.559114277535
 30
0.0
 40
3.000000859781634
100
AcDbArc
 50
90.99329678920678
 51
139.999987857115
  0
ARC
  5
505C
330
A
100
AcDbEntity
  8
HIDDEN
 48
0.5
100
AcDbCircle
 10
1732.916437511437
 20
2435.61079994049
 30
0.0
 40
3.000000859780809
100
AcDbArc
 50
220.000012142899
 51
269.0067032107933
  0
LINE
  5
505F
330
A
100
AcDbEntity
  8
MODEL
100
AcDbLine
 10
1678.158173784981
 20
2188.794434870078
 30
0.0
 11
1678.158173784981
 21
2194.83105715622
 31
0.0
  0
LINE
  5
5061
330
A
100
AcDbEntity
  8
MODEL
100
AcDbLine
 10
1588.158175059569
 20
2633.084957438255
 30
0.0
 11
1588.158175059569
 21
2509.930005873771
 31
0.0
  0
LINE
  5
5064
330
A
100
AcDbEntity
  8
MODEL
100
AcDbLine
 10
1588.158175059569
 20
2185.546319251778
 30
0.0
 11
1588.158175059569
 21
2117.063171027922
 31
0.0
  0
ARC
  5
506B
330
A
100
AcDbEntity
  8
MODEL
100
AcDbCircle
 10
1590.158175059555
 20
2633.084957438256
 30
0.0
 40
2.0
100
AcDbArc
 50
89.9999998999484
 51
180.0
  0
LINE
  5
506C
330
A
100
AcDbEntity
  8
MODEL
100
AcDbLine
 10
1717.509807691127
 20
2635.084950621856
 30
0.0
 11
1590.158175063062
 21
2635.084957438255
 31
0.0
  0
LINE
  5
506F
330
A
100
AcDbEntity
  8
MODEL
100
AcDbLine
 10
1766.987304129248
 20
2432.019632968667
 30
0.0
 11
1766.987304129248
 21
2388.150281249359
 31
0.0
  0
ARC
  5
5071
330
A
100
AcDbEntity
  8
MODEL
100
AcDbCircle
 10
1718.729501625352
 20
2633.084950668602
 30
0.0
 40
2.0
100
AcDbArc
 50
0.0
 51
89.9999998999484
  0
LINE
  5
5072
330
A
100
AcDbEntity
  8
MODEL
100
AcDbLine
 10
1720.729501625352
 20
2633.084950668602
 30
0.0
 11
1720.729501625352
 21
2614.620411383967
 31
0.0
  0
SPLINE
  5
5073
330
A
100
AcDbEntity
  8
MODEL
100
AcDbSpline
210
0.0
220
0.0
230
1.0
 70
     8
 71
     3
 72
     9
 73
     5
 74
     0
 42
0.000000001
 43
0.0000000001
 40
235.3716862967957
 40
235.3716862967957
 40
235.3716862967957
 40
235.3716862967957
 40
236.2962189986746
 40
241.3039047096817
 40
241.3039047096817
 40
241.3039047096817
 40
241.3039047096817
 10
1588.158013208861
 20
2509.930004300829
 30
0.0
 10
1588.158071752074
 20
2509.922777530048
 30
0.0
 10
1588.158619140468
 20
2509.855999815423
 30
0.0
 10
1588.160547465279
 20
2509.625247889034
 30
0.0
 10
1588.15835395904
 20
2509.887264504797
 30
0.0
  0
SPLINE
  5
5074
330
A
100
AcDbEntity
  8
MODEL
100
AcDbSpline
210
0.0
220
0.0
230
1.0
 70
     8
 71
     3
 72
    53
 73
    49
 74
     0
 42
0.000000001
 43
0.0000000001
 40
50.5329946533663
 40
50.5329946533663
 40
50.5329946533663
 40
50.5329946533663
 40
50.58348548445561
 40
51.69050955765007
 40
52.79539046383028
 40
53.89806823562714
 40
54.40838508705331
 40
54.91826123255464
 40
55.52353846566388
 40
56.12790499752187
 40
57.2236089324744
 40
58.31686533710189
 40
59.48113519678064
 40
60.64198984092482
 40
61.79936161003972
 40
62.95318211301318
 40
64.14125335721053
 40
65.325137645182
 40
66.50476295777955
 40
67.68005640149075
 40
68.98711978226973
 40
70.28805928945312
 40
71.58278528548075
 40
72.8712066577037
 40
74.21233896200539
 40
75.54603355483327
 40
76.92835462638111
 40
78.30210976362375
 40
79.74124605707838
 40
81.17034232156905
 40
82.67621038556969
 40
84.1702883989426
 40
85.82186453680679
 40
87.45835967837453
 40
88.34790583203228
 40
89.23292837662748
 40
90.19161272173326
 40
91.14501777944442
 40
92.03278628675375
 40
92.91609069418756
 40
93.7453368182977
 40
94.57082090230597
 40
95.35028336147025
 40
96.12662082893156
 40
96.8726396102057
 40
97.61596843993637
 40
98.9994069020269
 40
99.94352107451351
 40
99.94352107451351
 40
99.94352107451351
 40
99.94352107451351
 10
1701.020211708066
 20
2269.642965067765
 30
0.0
 10
1701.027765857787
 20
2269.655806673489
 30
0.0
 10
1701.200919737257
 20
2269.950232521546
 30
0.0
 10
1701.538372501676
 20
2270.527357171253
 30
0.0
 10
1702.032897040498
 20
2271.382931135622
 30
0.0
 10
1702.417827218585
 20
2272.056144295783
 30
0.0
 10
1702.752655728869
 20
2272.646651325277
 30
0.0
 10
1703.018399226934
 20
2273.118272003012
 30
0.0
 10
1703.228444258977
 20
2273.493204415042
 30
0.0
 10
1703.526795893343
 20
2274.02826658797
 30
0.0
 10
1703.937124130974
 20
2274.77035729905
 30
0.0
 10
1704.416134290357
 20
2275.64719364879
 30
0.0
 10
1704.853310135429
 20
2276.456271469134
 30
0.0
 10
1705.30823958533
 20
2277.307433755292
 30
0.0
 10
1705.752390184676
 20
2278.14786094522
 30
0.0
 10
1706.203314809772
 20
2279.010855141067
 30
0.0
 10
1706.628276130988
 20
2279.833343987187
 30
0.0
 10
1707.060133549097
 20
2280.678477725778
 30
0.0
 10
1707.481598560192
 20
2281.512523070479
 30
0.0
 10
1707.925911182264
 20
2282.402051561237
 30
0.0
 10
1708.332503191722
 20
2283.225534002275
 30
0.0
 10
1708.762726152333
 20
2284.10684912997
 30
0.0
 10
1709.180765560904
 20
2284.973447410745
 30
0.0
 10
1709.60908471543
 20
2285.872176502638
 30
0.0
 10
1710.002742269894
 20
2286.707940489319
 30
0.0
 10
1710.419422522176
 20
2287.603159685066
 30
0.0
 10
1710.801559870789
 20
2288.433976490877
 30
0.0
 10
1711.208855236272
 20
2289.330161825476
 30
0.0
 10
1711.575869624201
 20
2290.147379152116
 30
0.0
 10
1711.97315005484
 20
2291.042678524855
 30
0.0
 10
1712.325196669746
 20
2291.845482061171
 30
0.0
 10
1712.722507824499
 20
2292.762677193548
 30
0.0
 10
1713.049522499615
 20
2293.526690316704
 30
0.0
 10
1713.368200892091
 20
2294.279954520613
 30
0.0
 10
1713.58370472414
 20
2294.793992313071
 30
0.0
 10
1713.768931499729
 20
2295.238390526281
 30
0.0
 10
1713.92795548958
 20
2295.622205345275
 30
0.0
 10
1714.102998907099
 20
2296.047191958771
 30
0.0
 10
1714.240616554412
 20
2296.383139661633
 30
0.0
 10
1714.386917879575
 20
2296.742038210799
 30
0.0
 10
1714.499747247016
 20
2297.020090734767
 30
0.0
 10
1714.622088660242
 20
2297.322809061698
 30
0.0
 10
1714.713361328849
 20
2297.549509727241
 30
0.0
 10
1714.813779646156
 20
2297.799735544399
 30
0.0
 10
1714.890640087371
 20
2297.991844937539
 30
0.0
 10
1715.004489942646
 20
2298.277259952927
 30
0.0
 10
1715.066836971254
 20
2298.434103704905
 30
0.0
 10
1715.136409235263
 20
2298.60964797983
 30
0.0
 10
1715.161243020036
 20
2298.672346326969
 30
0.0
  0
LINE
  5
5076
330
A
100
AcDbEntity
  8
MODEL
100
AcDbLine
 10
1712.364579375094
 20
2605.456240421294
 30
0.0
 11
1712.364579375094
 21
2521.748619070045
 31
0.0
  0
SPLINE
  5
5077
330
A
100
AcDbEntity
  8
MODEL
100
AcDbSpline
210
0.0
220
0.0
230
1.0
 70
     8
 71
     3
 72
    21
 73
    17
 74
     0
 42
0.000000001
 43
0.0000000001
 40
0.0
 40
0.0
 40
0.0
 40
0.0
 40
1.529981516369432
 40
2.856967556233611
 40
4.433151184045906
 40
5.579093163625038
 40
6.970256680338974
 40
7.900949040122751
 40
8.828672360896334
 40
9.290039386406116
 40
9.749163067242709
 40
9.97783445361975
 40
10.20586010503107
 40
10.43320216927946
 40
10.66022645087829
 40
10.8865483276051
 40
10.8865483276051
 40
10.8865483276051
 40
10.8865483276051
 10
1720.729501625352
 20
2614.620411383967
 30
0.0
 10
1720.729501625352
 20
2614.110520332416
 30
0.0
 10
1720.726188447301
 20
2613.15720212593
 30
0.0
 10
1720.544634663314
 20
2611.687157029892
 30
0.0
 10
1720.152937279814
 20
2610.388629863242
 30
0.0
 10
1719.530138683901
 20
2609.162710117375
 30
0.0
 10
1718.841601167518
 20
2608.228403393246
 30
0.0
 10
1718.074302610377
 20
2607.46110920166
 30
0.0
 10
1717.464735089426
 20
2606.983141369739
 30
0.0
 10
1716.947421972556
 20
2606.648317367048
 30
0.0
 10
1716.61387513766
 20
2606.459843602351
 30
0.0
 10
1716.341731024051
 20
2606.321788372756
 30
0.0
 10
1716.135541395055
 20
2606.22477864117
 30
0.0
 10
1715.926924004179
 20
2606.134052294061
 30
0.0
 10
1715.716822291946
 20
2606.049907639042
 30
0.0
 10
1714.23793889028
 20
2605.629807965471
 30
0.0
 10
1712.683162174307
 20
2605.470405929614
 30
0.0
  0
DIMENSION
  5
5113
330
A
100
AcDbEntity
  8
Dim
100
AcDbDimension
  2
*D8
 10
348.7892901393502
 20
1085.721244668733
 30
0.0
 11
326.5729815456002
 21
1135.721244668734
 31
0.0
 70
    32
 71
     5
 42
100.0000000000002
 73
     0
 74
     0
 75
     0
  3
tform線あり
100
AcDbAlignedDimension
 13
452.2876887003918
 23
1185.721244668734
 33
0.0
 14
452.2876887003918
 24
1085.721244668733
 34
0.0
 50
90.0
100
AcDbRotatedDimension
1001
ACAD
1000
DSTYLE
1002
{
1070
   340
1005
39
1002
}
  0
DIMENSION
  5
5114
330
A
100
AcDbEntity
  8
Dim
100
AcDbDimension
  2
*D9
 10
348.7892901393502
 20
1285.721244668734
 30
0.0
 11
326.5729815456002
 21
1235.721244668734
 31
0.0
 70
    32
 71
     5
 42
100.0
 73
     0
 74
     0
 75
     0
  3
tform線あり
100
AcDbAlignedDimension
 13
452.2876887003918
 23
1185.721244668734
 33
0.0
 14
452.2876887003918
 24
1285.721244668734
 34
0.0
 50
-90.00000000000001
100
AcDbRotatedDimension
1001
ACAD
1000
DSTYLE
1002
{
1070
   340
1005
39
1002
}
  0
DIMENSION
  5
5225
330
A
100
AcDbEntity
  8
Dim
100
AcDbDimension
  2
*D10
 10
1509.438700749674
 20
1325.68257161013
 30
0.0
 11
1509.438700749674
 21
1185.68257161013
 31
0.0
 70
   160
 71
     5
 42
280.0000000000005
 73
     0
 74
     0
 75
     0
  3
tform線あり
100
AcDbAlignedDimension
 13
1603.135228799921
 23
1045.68257161013
 33
0.0
 14
1603.135228799921
 24
1325.68257161013
 34
0.0
 50
90.0
100
AcDbRotatedDimension
  0
DIMENSION
  5
5232
330
A
100
AcDbEntity
  8
Dim
100
AcDbDimension
  2
*D11
 10
278.1606102079609
 20
1685.68257161013
 30
0.0
 11
278.1606102079609
 21
1185.68257161013
 31
0.0
 70
   160
 71
     5
 42
1000.0
 73
     0
 74
     0
 75
     0
  3
tform線あり
100
AcDbAlignedDimension
 13
404.876749686779
 23
685.68257161013
 33
0.0
 14
404.8767496867795
 24
1685.68257161013
 34
0.0
 50
90.0
100
AcDbRotatedDimension
  0
DIMENSION
  5
524E
330
A
100
AcDbEntity
  8
Dim
100
AcDbDimension
  2
*D12
 10
924.1016570074912
 20
1755.97169730973
 30
0.0
 11
664.1016570074914
 21
1778.18800590348
 31
0.0
 70
    32
 71
     5
 42
519.9999999999995
 73
     0
 74
     0
 75
     0
 52
-270.0
  3
tform線あり
100
AcDbAlignedDimension
 13
404.1016570074917
 23
1674.298228936354
 33
0.0
 14
924.1016570074912
 24
1630.460297932113
 34
0.0
 50
180.0
100
AcDbRotatedDimension
  0
DIMENSION
  5
525B
330
A
100
AcDbEntity
  8
Dim
100
AcDbDimension
  2
*D13
 10
1628.158187736885
 20
593.301465772118
 30
0.0
 11
1608.158187736885
 21
615.517774365868
 31
0.0
 70
    32
 71
     5
 42
39.99999999999996
 73
     0
 74
     1
 75
     1
 52
-270.0
  3
tform線あり
100
AcDbAlignedDimension
 13
1588.158187736885
 23
678.0931820505396
 33
0.0
 14
1628.158187736885
 24
1014.56219262926
 34
0.0
 50
180.0
100
AcDbRotatedDimension
  0
LINE
  5
526D
330
A
100
AcDbEntity
  8
HIDDEN
  6
CENTER
 48
0.15
100
AcDbLine
 10
1628.158187736885
 20
1021.183082233974
 30
0.0
 11
1628.158187736885
 21
1070.182060986286
 31
0.0
  0
LINE
  5
526E
330
A
100
AcDbEntity
  8
HIDDEN
  6
CENTER
 48
0.15
100
AcDbLine
 10
1603.65869836073
 20
1045.682571610131
 30
0.0
 11
1652.65767711304
 21
1045.682571610131
 31
0.0
  0
CIRCLE
  5
526F
330
A
100
AcDbEntity
  8
HIDDEN
  6
CENTER
 48
0.15
100
AcDbCircle
 10
1628.158187736885
 20
1045.682571610131
 30
0.0
 40
10.48259753163544
  0
LINE
  5
5270
330
A
100
AcDbEntity
  8
HIDDEN
  6
CENTER
 48
0.15
100
AcDbLine
 10
1628.158187736885
 20
1301.183082233975
 30
0.0
 11
1628.158187736885
 21
1350.182060986285
 31
0.0
  0
LINE
  5
5271
330
A
100
AcDbEntity
  8
HIDDEN
  6
CENTER
 48
0.15
100
AcDbLine
 10
1603.65869836073
 20
1325.68257161013
 30
0.0
 11
1652.65767711304
 21
1325.68257161013
 31
0.0
  0
CIRCLE
  5
5272
330
A
100
AcDbEntity
  8
HIDDEN
  6
CENTER
 48
0.15
100
AcDbCircle
 10
1628.158187736885
 20
1325.68257161013
 30
0.0
 40
10.48259753163544
  0
DIMENSION
  5
527C
330
A
100
AcDbEntity
  8
Dim
100
AcDbDimension
  2
*D14
 10
992.8538070079608
 20
1485.68257161013
 30
0.0
 11
970.6374984142108
 21
1185.68257161013
 31
0.0
 70
    32
 71
     5
 42
600.0
 73
     0
 74
     0
 75
     0
  3
tform線あり
100
AcDbAlignedDimension
 13
812.1148812936754
 23
885.68257161013
 33
0.0
 14
812.1148812936754
 24
1485.68257161013
 34
0.0
 50
90.0
100
AcDbRotatedDimension
  0
DIMENSION
  5
528B
102
{ACAD_REACTORS
330
528D
102
}
102
{ACAD_XDICTIONARY
360
528C
102
}
330
A
100
AcDbEntity
  8
Dim
100
AcDbDimension
  2
*D15
 10
849.1016570074912
 20
566.7369236235434
 30
0.0
 11
691.6016569740918
 21
588.9532322172934
 31
0.0
 70
    32
  1
310
 71
     5
 42
315.0000000667987
 73
     0
 74
     0
 75
     0
 52
-270.0
  3
tform線あり
100
AcDbAlignedDimension
 13
534.1016569406925
 23
935.68257161013
 33
0.0
 14
849.1016570074912
 24
935.68257161013
 34
0.0
 50
180.0
100
AcDbRotatedDimension
  0
DIMENSION
  5
52A9
102
{ACAD_REACTORS
330
52AB
102
}
102
{ACAD_XDICTIONARY
360
52AA
102
}
330
A
100
AcDbEntity
  8
Dim
100
AcDbDimension
  2
*D16
 10
534.1016570074912
 20
566.7369236235434
 30
0.0
 11
469.101657007491
 21
588.9532322172934
 31
0.0
 70
    32
 71
     5
 42
130.0000000000004
 73
     0
 74
     0
 75
     0
 52
-270.0
  3
tform線あり
100
AcDbAlignedDimension
 13
404.1016570074908
 23
688.68257161013
 33
0.0
 14
534.1016570074912
 24
840.6259110521144
 34
0.0
 50
180.0
100
AcDbRotatedDimension
  0
MTEXT
  5
52C5
330
A
100
AcDbEntity
  8
Dim
390
1D
100
AcDbMText
 10
1170.64085676502
 20
687.0423926530746
 30
34.99521132346015
 40
24.4326171875
 41
833.929798641839
 46
0.0
 71
     1
 72
     1
  1
＝φ30もしくはφ35の水栓取付用穴あけ加工を承ります。\P  必要な場合、ご注文の際にご指示ください。
  7
ＭＳ ゴシック
 11
7.347880794884120E-16
 21
1.0
 31
0.0
 73
     1
 44
1.043768984567712
  0
CIRCLE
  5
52C6
330
A
100
AcDbEntity
  8
HIDDEN
 48
0.58
390
1D
100
AcDbCircle
 10
1185.229681221303
 20
655.6753629549864
 30
34.99521132346015
 40
17.5
  0
LINE
  5
52C8
330
A
100
AcDbEntity
  8
Dim
  6
Continuous
100
AcDbLine
 10
1619.68654935479
 20
1332.915918548485
 30
0.0
 11
1490.163965831478
 21
1426.720967176569
 31
0.0
  0
MTEXT
  5
52C9
330
A
100
AcDbEntity
  8
Dim
390
1D
100
AcDbMText
 10
1443.57068047619
 20
1427.764733954692
 30
34.99521132346015
 40
24.0
 41
1169.77171546101
 46
26.808
 71
     1
 72
     1
  1
{壁取付ボルト穴(2ヶ所)}
  7
ＭＳ ゴシック
 11
5.510910596163090E-16
 21
1.0
 31
0.0
 73
     1
 44
1.174240107638677
1001
ACAD
1000
ACAD_MTEXT_DEFINED_HEIGHT_BEGIN
1070
    46
1040
26.808
1000
ACAD_MTEXT_DEFINED_HEIGHT_END
  0
DIMENSION
  5
52CA
330
A
100
AcDbEntity
  8
Dim
100
AcDbDimension
  2
*D18
 10
1768.158187736885
 20
1755.97169730973
 30
0.0
 11
1678.158187736885
 21
1778.18800590348
 31
0.0
 70
    32
 71
     5
 42
180.0000000000001
 73
     0
 74
     0
 75
     0
 52
-270.0
  3
tform線あり
100
AcDbAlignedDimension
 13
1588.158187736885
 23
1676.393184241138
 33
0.0
 14
1768.158187736885
 24
1229.106052080685
 34
0.0
 50
180.0
100
AcDbRotatedDimension
  0
SPLINE
  5
52EB
330
A
100
AcDbEntity
  8
HIDDEN
100
AcDbSpline
210
0.0
220
0.0
230
1.0
 70
  1064
 71
     3
 72
    15
 73
    11
 74
     9
 42
0.000000001
 43
0.0000000001
 44
0.0
 40
0.0
 40
0.0
 40
0.0
 40
0.0
 40
42.2939042541343
 40
97.18186325500774
 40
160.5612964346272
 40
217.6853510465191
 40
312.6473200225637
 40
331.7300006299199
 40
345.3332924078526
 40
365.0172652379966
 40
365.0172652379966
 40
365.0172652379966
 40
365.0172652379966
 10
1588.158187736885
 20
885.68257161013
 30
0.0
 10
1602.060270747812
 20
888.3909838684025
 30
0.0
 10
1634.004125399055
 20
894.6143050387552
 30
0.0
 10
1679.799597150782
 20
927.7588019123424
 30
0.0
 10
1702.225706941264
 20
983.3991379187746
 30
0.0
 10
1715.238570512557
 20
1055.579478384954
 30
0.0
 10
1719.147833188986
 20
1105.362713641691
 30
0.0
 10
1717.24969768387
 20
1157.521518960574
 30
0.0
 10
1737.779285380315
 20
1158.631077416318
 30
0.0
 10
1748.395518315965
 20
1158.457934517671
 30
0.0
 10
1754.673283795473
 20
1158.355548810921
 30
0.0
 11
1588.158187736885
 21
885.68257161013
 31
0.0
 11
1629.064110896066
 21
896.4287238309514
 31
0.0
 11
1673.369187524761
 21
928.8285421669705
 31
0.0
 11
1700.776478260699
 21
985.9756590206282
 31
0.0
 11
1712.147588246886
 21
1041.956508183395
 31
0.0
 11
1717.899096497831
 21
1136.744142949996
 31
0.0
 11
1721.701208203126
 21
1155.444213691649
 31
0.0
 11
1734.989310965329
 21
1158.355548810921
 31
0.0
 11
1754.673283795473
 21
1158.355548810921
 31
0.0
  0
LINE
  5
52EC
330
A
100
AcDbEntity
  8
HIDDEN
100
AcDbLine
 10
1718.165685333275
 20
1147.847013999674
 30
0.0
 11
1718.165685333278
 21
1185.682571287343
 31
0.0
  0
SPLINE
  5
52F1
330
A
100
AcDbEntity
  8
HIDDEN
100
AcDbSpline
210
0.0
220
0.0
230
1.0
 70
  1064
 71
     3
 72
    15
 73
    11
 74
     9
 42
0.000000001
 43
0.0000000001
 44
0.0
 40
0.0
 40
0.0
 40
0.0
 40
0.0
 40
42.29390425413418
 40
97.18186325500763
 40
160.5612964346273
 40
217.6853510465183
 40
312.6473200225629
 40
331.7300006299191
 40
345.3332924078518
 40
365.0172652379959
 40
365.0172652379959
 40
365.0172652379959
 40
365.0172652379959
 10
1588.158187736885
 20
1485.682570964563
 30
0.0
 10
1602.060270747812
 20
1482.974158706291
 30
0.0
 10
1634.004125399055
 20
1476.750837535938
 30
0.0
 10
1679.799597150781
 20
1443.606340662351
 30
0.0
 10
1702.225706941264
 20
1387.966004655919
 30
0.0
 10
1715.238570512557
 20
1315.785664189739
 30
0.0
 10
1719.147833188986
 20
1266.002428933004
 30
0.0
 10
1717.24969768387
 20
1213.84362361412
 30
0.0
 10
1737.779285380315
 20
1212.734065158376
 30
0.0
 10
1748.395518315966
 20
1212.907208057023
 30
0.0
 10
1754.673283795473
 20
1213.009593763773
 30
0.0
 11
1588.158187736885
 21
1485.682570964563
 31
0.0
 11
1629.064110896066
 21
1474.936418743742
 31
0.0
 11
1673.369187524761
 21
1442.536600407723
 31
0.0
 11
1700.776478260699
 21
1385.389483554065
 31
0.0
 11
1712.147588246886
 21
1329.408634391299
 31
0.0
 11
1717.899096497831
 21
1234.620999624698
 31
0.0
 11
1721.701208203126
 21
1215.920928883045
 31
0.0
 11
1734.989310965329
 21
1213.009593763773
 31
0.0
 11
1754.673283795473
 21
1213.009593763773
 31
0.0
  0
LINE
  5
52F2
330
A
100
AcDbEntity
  8
HIDDEN
100
AcDbLine
 10
1718.165685333275
 20
1223.51812857502
 30
0.0
 11
1718.165685333278
 21
1185.682571287351
 31
0.0
  0
LINE
  5
52F6
330
A
100
AcDbEntity
  8
HIDDEN
100
AcDbLine
 10
1754.673283795473
 20
1158.355548810921
 30
0.0
 11
1766.987316806564
 21
1158.355548810921
 31
0.0
  0
LINE
  5
52F7
330
A
100
AcDbEntity
  8
HIDDEN
100
AcDbLine
 10
1754.673283795473
 20
1213.009593763773
 30
0.0
 11
1766.987316806564
 21
1213.009593763773
 31
0.0
  0
DIMENSION
  5
5304
330
A
100
AcDbEntity
  8
Dim
100
AcDbDimension
  2
*D19
 10
1845.895409391244
 20
2410.084957109014
 30
0.0
 11
1823.679100797494
 21
2522.584954142859
 31
0.0
 70
    32
 71
     5
 42
224.9999940676898
 73
     0
 74
     0
 75
     0
  3
tform線あり
100
AcDbAlignedDimension
 13
1707.143526325958
 23
2635.084951176704
 33
0.0
 14
1766.987304129248
 24
2410.084957109014
 34
0.0
 50
90.0
100
AcDbRotatedDimension
  0
DIMENSION
  5
5323
330
A
100
AcDbEntity
  8
Dim
  6
Continuous
100
AcDbDimension
  2
*D20
 10
1507.38658696526
 20
2570.085877849203
 30
0.0
 11
1485.17027837151
 21
2602.585877849203
 31
0.0
 70
    32
 71
     5
 42
65.0
 73
     0
 74
     0
 75
     0
  3
tform線あり
100
AcDbAlignedDimension
 13
1592.117162764876
 23
2635.085877849203
 33
0.0
 14
1592.117162764876
 24
2570.085877849203
 34
0.0
 50
89.99999999999999
100
AcDbRotatedDimension
  0
DIMENSION
  5
5326
330
A
100
AcDbEntity
  8
Dim
  6
Continuous
100
AcDbDimension
  2
*D21
 10
1587.321258092826
 20
2409.264074098147
 30
0.0
 11
1491.134518835013
 21
2409.264074098147
 31
0.0
 70
   160
  1
130(深さ)
 71
     5
 42
129.778103053716
 73
     0
 74
     1
 75
     1
 52
-270.0
  3
tform線あり
100
AcDbAlignedDimension
 13
1717.099361146542
 23
2409.264074098147
 33
0.0
 14
1587.321258092826
 24
2409.264074098147
 34
0.0
 50
180.0
100
AcDbRotatedDimension
1001
ACAD
1000
DSTYLE
1002
{
1070
   271
1070
     0
1070
    76
1070
     1
1070
    75
1070
     1
1002
}
  0
DIMENSION
  5
5404
330
A
100
AcDbEntity
  8
Dim
  6
Continuous
100
AcDbDimension
  2
*D22
 10
1603.158175059555
 20
2061.739915240413
 30
0.0
 11
1544.770321543929
 21
2061.739915240413
 31
0.0
 70
   160
 71
     5
 42
15.0
 73
     0
 74
     1
 75
     1
  3
tform線あり
100
AcDbAlignedDimension
 13
1588.158175059555
 23
2118.158504529099
 33
0.0
 14
1603.158175059555
 24
2118.158504529099
 34
0.0
 50
-0.0000000000000127
100
AcDbRotatedDimension
  0
DIMENSION
  5
5405
330
A
100
AcDbEntity
  8
Dim
  6
Continuous
100
AcDbDimension
  2
*D23
 10
1678.158175059555
 20
2061.739915240413
 30
0.0
 11
1640.658175059555
 21
2083.956223834163
 31
0.0
 70
    32
 71
     5
 42
74.99999999999999
 73
     0
 74
     0
 75
     0
  3
tform線あり
100
AcDbAlignedDimension
 13
1603.158175059555
 23
2093.158504529099
 33
0.0
 14
1678.158175059555
 24
2187.185348466634
 34
0.0
 50
-0.0000000000000127
100
AcDbRotatedDimension
  0
DIMENSION
  5
5406
330
A
100
AcDbEntity
  8
Dim
  6
Continuous
100
AcDbDimension
  2
*D24
 10
1768.158175059555
 20
2061.739915240413
 30
0.0
 11
1723.158175059555
 21
2083.956223834163
 31
0.0
 70
    32
 71
     5
 42
89.99999999999996
 73
     0
 74
     0
 75
     0
  3
tform線あり
100
AcDbAlignedDimension
 13
1678.158175059555
 23
2162.185348466634
 33
0.0
 14
1768.158175059555
 24
2376.859613884161
 34
0.0
 50
-0.0000000000000127
100
AcDbRotatedDimension
  0
LINE
  5
5433
330
A
100
AcDbEntity
  8
MODEL
100
AcDbLine
 10
1603.011037300198
 20
2134.316788724354
 30
0.0
 11
1603.011064103429
 21
2635.084956750314
 31
0.0
  0
VIEWPORT
  5
349
330
B
100
AcDbEntity
 67
     1
  8
0
100
AcDbViewport
 10
202.5
 20
128.5
 30
0.0
 40
486.0
 41
308.4
 68
     1
 69
     1
 12
202.5
 22
128.5
 13
0.0
 23
0.0
 14
0.5
 24
0.5
 15
0.0
 25
0.0
 16
0.0
 26
0.0
 36
1.0
 17
0.0
 27
0.0
 37
0.0
 42
50.0
 43
0.0
 44
0.0
 45
308.4
 50
0.0
 51
0.0
 72
   100
 90
   557152
  1

281
     0
 71
     1
 74
     0
110
0.0
120
0.0
130
0.0
111
1.0
121
0.0
131
0.0
112
0.0
122
1.0
132
0.0
 79
     0
146
0.0
170
     0
 61
     5
348
26C
292
     1
282
     1
141
0.0
142
0.0
 63
   256
  0
VIEWPORT
  5
34A
330
B
100
AcDbEntity
 67
     1
  8
0
100
AcDbViewport
 10
202.5
 20
128.5
 30
0.0
 40
324.0
 41
205.6
 68
     2
 69
     2
 12
986.6781359294573
 22
1427.077061889956
 13
0.0
 23
0.0
 14
0.5
 24
0.5
 15
0.0
 25
0.0
 16
0.0
 26
0.0
 36
1.0
 17
0.0
 27
0.0
 37
0.0
 42
50.0
 43
0.0
 44
0.0
 45
2890.021615685494
 50
0.0
 51
0.0
 72
   100
 90
   557152
  1

281
     0
 71
     1
 74
     0
110
0.0
120
0.0
130
0.0
111
1.0
121
0.0
131
0.0
112
0.0
122
1.0
132
0.0
 79
     0
146
0.0
170
     0
 61
     5
348
26C
292
     1
282
     1
141
0.0
142
0.0
 63
   256
  0
ENDSEC
  0
SECTION
  2
OBJECTS
  0
DICTIONARY
  5
19
330
0
100
AcDbDictionary
281
     1
  3
ACAD_COLOR
350
38F
  3
ACAD_DETAILVIEWSTYLE
350
8CF
  3
ACAD_FIELDLIST
350
BA6
  3
ACAD_GROUP
350
1A
  3
ACAD_IMAGE_VARS
350
27B
  3
ACAD_LAYOUT
350
1E
  3
ACAD_MATERIAL
350
263
  3
ACAD_MLEADERSTYLE
350
336
  3
ACAD_MLINESTYLE
350
1B
  3
ACAD_PLOTSETTINGS
350
22
  3
ACAD_PLOTSTYLENAME
350
1F
  3
ACAD_SCALELIST
350
241
  3
ACAD_SECTIONVIEWSTYLE
350
8D0
  3
ACAD_TABLESTYLE
350
278
  3
ACAD_VISUALSTYLE
350
267
  3
ACDB_RECOMPOSE_DATA
350
56E4
  3
AcDbVariableDictionary
350
330
  3
APPDATA
350
27A
  3
DimOffsetDictionary
350
C08
  0
SUN
  5
8C2
330
15
100
AcDbSun
 90
        1
290
     0
 63
     7
421
 16777215
 40
1.0
291
     1
 91
  2455826
 92
 54000000
292
     0
 70
     2
 71
   256
280
     1
  0
DICTIONARY
  5
2E1
330
2
100
AcDbDictionary
280
     1
281
     1
  3
ACAD_LAYERSTATES
360
2E2
  3
ACLYDICTIONARY
360
BFE
  0
DICTIONARY
  5
BDC
330
BDB
100
AcDbDictionary
280
     1
281
     1
  3
ACAD_FIELD
360
BE4
  0
DICTIONARY
  5
528C
330
528B
100
AcDbDictionary
280
     1
281
     1
  3
ACAD_DIMASSOC
360
528D
  0
DICTIONARY
  5
52AA
330
52A9
100
AcDbDictionary
280
     1
281
     1
  3
ACAD_DIMASSOC
360
52AB
  0
DICTIONARY
  5
38F
102
{ACAD_REACTORS
330
19
102
}
330
19
100
AcDbDictionary
281
     1
  0
DICTIONARY
  5
8CF
102
{ACAD_REACTORS
330
19
102
}
330
19
100
AcDbDictionary
281
     1
  0
FIELDLIST
  5
BA6
102
{ACAD_REACTORS
330
19
102
}
330
19
100
AcDbIdSet
 90
        2
330
BDF
330
BDE
100
AcDbFieldList
  0
DICTIONARY
  5
1A
102
{ACAD_REACTORS
330
19
102
}
330
19
100
AcDbDictionary
281
     1
  0
RASTERVARIABLES
  5
27B
102
{ACAD_REACTORS
330
19
102
}
330
19
100
AcDbRasterVariables
 90
        0
 70
     1
 71
     1
 72
     1
  0
DICTIONARY
  5
1E
102
{ACAD_REACTORS
330
19
102
}
330
19
100
AcDbDictionary
281
     1
  3
Layout1
350
21
  3
Model
350
20
  0
DICTIONARY
  5
263
102
{ACAD_REACTORS
330
19
102
}
330
19
100
AcDbDictionary
281
     1
  3
ByBlock
350
5463
  3
ByLayer
350
264
  3
Global
350
266
  0
DICTIONARY
  5
336
102
{ACAD_REACTORS
330
19
102
}
330
19
100
AcDbDictionary
281
     1
  3
Standard
350
8D1
  0
DICTIONARY
  5
1B
102
{ACAD_REACTORS
330
19
102
}
330
19
100
AcDbDictionary
281
     1
  3
Standard
350
1C
  0
DICTIONARY
  5
22
102
{ACAD_REACTORS
330
19
102
}
330
19
100
AcDbDictionary
281
     1
  0
ACDBDICTIONARYWDFLT
  5
1F
102
{ACAD_REACTORS
330
19
102
}
330
19
100
AcDbDictionary
281
     1
  3
Normal
350
1D
100
AcDbDictionaryWithDefault
340
1D
  0
DICTIONARY
  5
241
102
{ACAD_REACTORS
330
19
102
}
330
19
100
AcDbDictionary
281
     1
  3
A0
350
242
  3
A1
350
243
  3
A2
350
244
  3
A3
350
245
  3
A4
350
246
  3
A5
350
247
  3
A6
350
248
  3
A7
350
249
  3
A8
350
24A
  3
A9
350
24B
  3
B0
350
24C
  3
B1
350
24D
  3
B2
350
24E
  3
B3
350
24F
  3
B4
350
250
  3
B5
350
251
  3
B6
350
252
  3
B7
350
253
  3
B8
350
254
  3
B9
350
255
  3
C0
350
256
  3
C1
350
257
  3
C2
350
258
  3
C3
350
259
  3
C4
350
25A
  3
C5
350
25B
  3
C6
350
25C
  3
C7
350
25D
  3
C8
350
25E
  3
C9
350
25F
  3
D0
350
260
  3
D1
350
261
  3
D2
350
262
  0
DICTIONARY
  5
8D0
102
{ACAD_REACTORS
330
19
102
}
330
19
100
AcDbDictionary
281
     1
  0
DICTIONARY
  5
278
102
{ACAD_REACTORS
330
19
102
}
330
19
100
AcDbDictionary
281
     1
  3
Standard
350
279
  0
DICTIONARY
  5
267
102
{ACAD_REACTORS
330
19
102
}
330
19
100
AcDbDictionary
281
     1
  3
2dWireframe
350
26C
  3
3D Hidden
350
26E
  3
3dWireframe
350
26D
  3
Basic
350
26F
  3
Brighten
350
273
  3
ColorChange
350
277
  3
Conceptual
350
271
  3
Dim
350
272
  3
EdgeColorOff
350
8BC
  3
Facepattern
350
276
  3
Flat
350
268
  3
FlatWithEdges
350
269
  3
Gouraud
350
26A
  3
GouraudWithEdges
350
26B
  3
Hidden
350
8B9
  3
JitterOff
350
8BA
  3
Linepattern
350
275
  3
OverhangOff
350
8BB
  3
Realistic
350
270
  3
Shaded
350
8C1
  3
Shaded with edges
350
8C0
  3
Shades of Gray
350
8BD
  3
Sketchy
350
8BE
  3
Thicken
350
274
  3
Wireframe
350
8B8
  3
X-Ray
350
8BF
  0
XRECORD
  5
56E4
102
{ACAD_REACTORS
330
19
102
}
330
19
100
AcDbXrecord
280
     1
 90
        1
330
279
  0
DICTIONARY
  5
330
102
{ACAD_REACTORS
330
19
102
}
330
19
100
AcDbDictionary
281
     1
  3
CANNOSCALE
350
331
  3
CMLEADERSTYLE
350
8DA
  3
CTABLESTYLE
350
335
  3
HPTRANSPARENCY
350
C07
  3
XCLIPFRAME
350
64A
  0
DICTIONARY
  5
27A
102
{ACAD_REACTORS
330
19
102
}
330
19
100
AcDbDictionary
281
     1
  0
DICTIONARY
  5
C08
102
{ACAD_REACTORS
330
19
102
}
330
19
100
AcDbDictionary
281
     1
  3
DIMRAILANGLE
350
4342
  3
DIMRAILFIRSTOFFSET
350
4340
  3
DIMRAILOFFSET
350
4341
  3
DIMRAILSENABLED
350
4343
  0
DICTIONARY
  5
2E2
102
{ACAD_REACTORS
330
2E1
102
}
330
2E1
100
AcDbDictionary
281
     1
  0
DICTIONARY
  5
BFE
102
{ACAD_REACTORS
330
2E1
102
}
330
2E1
100
AcDbDictionary
281
     1
1001
ACAD
1000
<All
  0
DICTIONARY
  5
BE4
102
{ACAD_REACTORS
330
BDC
102
}
330
BDC
100
AcDbDictionary
280
     1
281
     1
  3
TEXT
360
BDE
  0
DIMASSOC
  5
528D
102
{ACAD_REACTORS
330
528C
102
}
330
528C
100
AcDbDimAssoc
330
528B
 90
        3
 70
     0
 71
     1
  1
AcDbOsnapPointRef
 72
    13
331
4FF8
 73
     0
 91
        0
 40
0.0
 10
0.0
 20
0.0
 30
0.0
 75
     0
  1
AcDbOsnapPointRef
 72
     1
331
4FF2
 73
     0
 91
        0
 40
0.0
 10
0.0
 20
0.0
 30
0.0
 75
     0
  0
DIMASSOC
  5
52AB
102
{ACAD_REACTORS
330
52AA
102
}
330
52AA
100
AcDbDimAssoc
330
52A9
 90
        1
 70
     0
 71
     1
  1
AcDbOsnapPointRef
 72
     1
331
4FE7
 73
     0
 91
        0
 40
0.0
 10
0.0
 20
0.0
 30
0.0
 75
     0
  0
LAYOUT
  5
21
102
{ACAD_REACTORS
330
1E
102
}
330
1E
100
AcDbPlotSettings
  1

  2
none_device
  4
ISO_A3_(420.00_x_297.00_MM)
  6

 40
7.5
 41
20.0
 42
7.5
 43
20.0
 44
420.0
 45
297.0
 46
0.0
 47
0.0
 48
0.0
 49
0.0
140
0.0
141
0.0
142
1.0
143
1.0
 70
     0
 72
     1
 73
     0
 74
     0
  7

 75
     0
 76
     0
 77
     2
 78
   300
147
1.0
148
0.0
149
0.0
100
AcDbLayout
  1
Layout1
 70
     0
 71
     0
 10
0.0
 20
0.0
 11
0.0
 21
0.0
 12
0.0
 22
0.0
 32
0.0
 14
0.0
 24
0.0
 34
0.0
 15
0.0
 25
0.0
 35
0.0
146
0.0
 13
0.0
 23
0.0
 33
0.0
 16
0.0
 26
0.0
 36
0.0
 17
0.0
 27
0.0
 37
0.0
 76
     0
330
B
331
349
  0
LAYOUT
  5
20
102
{ACAD_REACTORS
330
1E
102
}
330
1E
100
AcDbPlotSettings
  1

  2
none_device
  4
ISO_A3_(420.00_x_297.00_MM)
  6

 40
7.5
 41
20.0
 42
7.5
 43
20.0
 44
420.0
 45
297.0
 46
0.0
 47
0.0
 48
0.0
 49
0.0
140
0.0
141
0.0
142
1.0
143
1.0
 70
  1024
 72
     1
 73
     0
 74
     0
  7

 75
     0
 76
     0
 77
     2
 78
   300
147
1.0
148
0.0
149
0.0
100
AcDbLayout
  1
Model
 70
     0
 71
     1
 10
0.0
 20
0.0
 11
2100.0
 21
2970.0
 12
0.0
 22
0.0
 32
0.0
 14
0.0
 24
0.0
 34
0.0
 15
2100.0
 25
2970.0
 35
34.99521132346015
146
0.0
 13
0.0
 23
0.0
 33
0.0
 16
0.0
 26
0.0
 36
0.0
 17
0.0
 27
0.0
 37
0.0
 76
     0
330
A
331
15
  0
MATERIAL
  5
5463
102
{ACAD_REACTORS
330
263
102
}
330
263
100
AcDbMaterial
  1
ByBlock
 72
     1
 94
      127
  0
MATERIAL
  5
264
102
{ACAD_REACTORS
330
263
102
}
330
263
100
AcDbMaterial
  1
ByLayer
 72
     1
 94
      127
  0
MATERIAL
  5
266
102
{ACAD_REACTORS
330
263
102
}
330
263
100
AcDbMaterial
  1
Global
 72
     1
 94
      127
  0
MLEADERSTYLE
  5
8D1
102
{ACAD_REACTORS
330
336
102
}
330
336
100
AcDbMLeaderStyle
170
     2
171
     1
172
     0
 90
        2
 40
0.0
 41
0.0
173
     1
 91
-1056964608
340
11
 92
       -2
290
     1
 42
2.0
291
     1
 43
8.0
  3
Standard
341
0
 44
4.0
300

342
17
174
     1
178
     6
175
     1
176
     0
 93
-1056964608
 45
4.0
292
     0
297
     0
 46
4.0
343
0
 94
-1056964608
 47
1.0
 49
1.0
140
1.0
293
     1
141
0.0
294
     1
177
     0
142
1.0
295
     0
296
     0
143
3.75
1001
ACAD_MLEADERVER
1070
     2
  0
MLINESTYLE
  5
1C
102
{ACAD_REACTORS
330
1B
102
}
330
1B
100
AcDbMlineStyle
  2
Standard
 70
     0
  3

 62
     0
 51
90.0
 52
90.0
 71
     2
 49
0.5
 62
   256
  6
BYLAYER
 49
-0.5
 62
   256
  6
BYLAYER
  0
ACDBPLACEHOLDER
  5
1D
102
{ACAD_REACTORS
330
1F
102
}
330
1F
  0
SCALE
  5
242
102
{ACAD_REACTORS
330
241
102
}
330
241
100
AcDbScale
 70
     0
300
1:1
140
1.0
141
1.0
290
     1
  0
SCALE
  5
243
102
{ACAD_REACTORS
330
241
102
}
330
241
100
AcDbScale
 70
     0
300
1:2
140
1.0
141
2.0
290
     0
  0
SCALE
  5
244
102
{ACAD_REACTORS
330
241
102
}
330
241
100
AcDbScale
 70
     0
300
1:4
140
1.0
141
4.0
290
     0
  0
SCALE
  5
245
102
{ACAD_REACTORS
330
241
102
}
330
241
100
AcDbScale
 70
     0
300
1:5
140
1.0
141
5.0
290
     0
  0
SCALE
  5
246
102
{ACAD_REACTORS
330
241
102
}
330
241
100
AcDbScale
 70
     0
300
1:8
140
1.0
141
8.0
290
     0
  0
SCALE
  5
247
102
{ACAD_REACTORS
330
241
102
}
330
241
100
AcDbScale
 70
     0
300
1:10
140
1.0
141
10.0
290
     0
  0
SCALE
  5
248
102
{ACAD_REACTORS
330
241
102
}
330
241
100
AcDbScale
 70
     0
300
1:16
140
1.0
141
16.0
290
     0
  0
SCALE
  5
249
102
{ACAD_REACTORS
330
241
102
}
330
241
100
AcDbScale
 70
     0
300
1:20
140
1.0
141
20.0
290
     0
  0
SCALE
  5
24A
102
{ACAD_REACTORS
330
241
102
}
330
241
100
AcDbScale
 70
     0
300
1:30
140
1.0
141
30.0
290
     0
  0
SCALE
  5
24B
102
{ACAD_REACTORS
330
241
102
}
330
241
100
AcDbScale
 70
     0
300
1:40
140
1.0
141
40.0
290
     0
  0
SCALE
  5
24C
102
{ACAD_REACTORS
330
241
102
}
330
241
100
AcDbScale
 70
     0
300
1:50
140
1.0
141
50.0
290
     0
  0
SCALE
  5
24D
102
{ACAD_REACTORS
330
241
102
}
330
241
100
AcDbScale
 70
     0
300
1:100
140
1.0
141
100.0
290
     0
  0
SCALE
  5
24E
102
{ACAD_REACTORS
330
241
102
}
330
241
100
AcDbScale
 70
     0
300
2:1
140
2.0
141
1.0
290
     0
  0
SCALE
  5
24F
102
{ACAD_REACTORS
330
241
102
}
330
241
100
AcDbScale
 70
     0
300
4:1
140
4.0
141
1.0
290
     0
  0
SCALE
  5
250
102
{ACAD_REACTORS
330
241
102
}
330
241
100
AcDbScale
 70
     0
300
8:1
140
8.0
141
1.0
290
     0
  0
SCALE
  5
251
102
{ACAD_REACTORS
330
241
102
}
330
241
100
AcDbScale
 70
     0
300
10:1
140
10.0
141
1.0
290
     0
  0
SCALE
  5
252
102
{ACAD_REACTORS
330
241
102
}
330
241
100
AcDbScale
 70
     0
300
100:1
140
100.0
141
1.0
290
     0
  0
SCALE
  5
253
102
{ACAD_REACTORS
330
241
102
}
330
241
100
AcDbScale
 70
     0
300
1/128" = 1'-0"
140
0.0078125
141
12.0
290
     0
  0
SCALE
  5
254
102
{ACAD_REACTORS
330
241
102
}
330
241
100
AcDbScale
 70
     0
300
1/64" = 1'-0"
140
0.015625
141
12.0
290
     0
  0
SCALE
  5
255
102
{ACAD_REACTORS
330
241
102
}
330
241
100
AcDbScale
 70
     0
300
1/32" = 1'-0"
140
0.03125
141
12.0
290
     0
  0
SCALE
  5
256
102
{ACAD_REACTORS
330
241
102
}
330
241
100
AcDbScale
 70
     0
300
1/16" = 1'-0"
140
0.0625
141
12.0
290
     0
  0
SCALE
  5
257
102
{ACAD_REACTORS
330
241
102
}
330
241
100
AcDbScale
 70
     0
300
3/32" = 1'-0"
140
0.09375
141
12.0
290
     0
  0
SCALE
  5
258
102
{ACAD_REACTORS
330
241
102
}
330
241
100
AcDbScale
 70
     0
300
1/8" = 1'-0"
140
0.125
141
12.0
290
     0
  0
SCALE
  5
259
102
{ACAD_REACTORS
330
241
102
}
330
241
100
AcDbScale
 70
     0
300
3/16" = 1'-0"
140
0.1875
141
12.0
290
     0
  0
SCALE
  5
25A
102
{ACAD_REACTORS
330
241
102
}
330
241
100
AcDbScale
 70
     0
300
1/4" = 1'-0"
140
0.25
141
12.0
290
     0
  0
SCALE
  5
25B
102
{ACAD_REACTORS
330
241
102
}
330
241
100
AcDbScale
 70
     0
300
3/8" = 1'-0"
140
0.375
141
12.0
290
     0
  0
SCALE
  5
25C
102
{ACAD_REACTORS
330
241
102
}
330
241
100
AcDbScale
 70
     0
300
1/2" = 1'-0"
140
0.5
141
12.0
290
     0
  0
SCALE
  5
25D
102
{ACAD_REACTORS
330
241
102
}
330
241
100
AcDbScale
 70
     0
300
3/4" = 1'-0"
140
0.75
141
12.0
290
     0
  0
SCALE
  5
25E
102
{ACAD_REACTORS
330
241
102
}
330
241
100
AcDbScale
 70
     0
300
1" = 1'-0"
140
1.0
141
12.0
290
     0
  0
SCALE
  5
25F
102
{ACAD_REACTORS
330
241
102
}
330
241
100
AcDbScale
 70
     0
300
1-1/2" = 1'-0"
140
1.5
141
12.0
290
     0
  0
SCALE
  5
260
102
{ACAD_REACTORS
330
241
102
}
330
241
100
AcDbScale
 70
     0
300
3" = 1'-0"
140
3.0
141
12.0
290
     0
  0
SCALE
  5
261
102
{ACAD_REACTORS
330
241
102
}
330
241
100
AcDbScale
 70
     0
300
6" = 1'-0"
140
6.0
141
12.0
290
     0
  0
SCALE
  5
262
102
{ACAD_REACTORS
330
241
102
}
330
241
100
AcDbScale
 70
     0
300
1'-0" = 1'-0"
140
12.0
141
12.0
290
     0
  0
TABLESTYLE
  5
279
102
{ACAD_REACTORS
330
278
102
}
102
{ACAD_XDICTIONARY
360
56E2
102
}
330
278
100
AcDbTableStyle
  3
Standard
 70
     0
 71
     0
 40
0.06
 41
0.06
280
     0
281
     0
  7
Standard
140
4.5
170
     2
 62
     0
 63
   257
283
     0
 90
        4
 91
        0
  1

274
    -2
284
     1
 64
     0
275
    -2
285
     1
 65
     0
276
    -2
286
     1
 66
     0
277
    -2
287
     1
 67
     0
278
    -2
288
     1
 68
     0
279
    -2
289
     1
 69
     0
  7
Standard
140
6.0
170
     5
 62
     0
 63
   257
283
     0
 90
        4
 91
        0
  1

274
    -2
284
     1
 64
     0
275
    -2
285
     1
 65
     0
276
    -2
286
     1
 66
     0
277
    -2
287
     1
 67
     0
278
    -2
288
     1
 68
     0
279
    -2
289
     1
 69
     0
  7
Standard
140
4.5
170
     5
 62
     0
 63
   257
283
     0
 90
        4
 91
        0
  1

274
    -2
284
     1
 64
     0
275
    -2
285
     1
 65
     0
276
    -2
286
     1
 66
     0
277
    -2
287
     1
 67
     0
278
    -2
288
     1
 68
     0
279
    -2
289
     1
 69
     0
  0
VISUALSTYLE
  5
26C
102
{ACAD_REACTORS
330
267
102
}
330
267
100
AcDbVisualStyle
  2
2dWireframe
 70
     4
 71
     0
 72
     2
 73
     0
 90
        0
 40
-0.6
 41
-30.0
 62
     5
 63
     7
421
 16777215
 74
     1
 91
        4
 64
     7
 65
   257
 75
     1
175
     1
 42
1.0
 92
        0
 66
   257
 43
1.0
 76
     1
 77
     6
 78
     2
 67
     7
 79
     5
170
     0
171
     0
290
     0
174
     0
 93
        1
 44
0.0
173
     0
291
     0
 45
0.0
  0
VISUALSTYLE
  5
26E
102
{ACAD_REACTORS
330
267
102
}
330
267
100
AcDbVisualStyle
  2
3D Hidden
 70
     6
 71
     1
 72
     2
 73
     2
 90
        0
 40
-0.6
 41
-30.0
 62
     5
 63
     7
421
 16777215
 74
     2
 91
        2
 64
     7
 65
   257
 75
     2
175
     1
 42
40.0
 92
        0
 66
   257
 43
1.0
 76
     1
 77
     6
 78
     2
 67
     7
 79
     3
170
     0
171
     0
290
     0
174
     0
 93
        1
 44
0.0
173
     0
291
     0
 45
0.0
  0
VISUALSTYLE
  5
26D
102
{ACAD_REACTORS
330
267
102
}
330
267
100
AcDbVisualStyle
  2
3dWireframe
 70
     5
 71
     0
 72
     2
 73
     0
 90
        0
 40
-0.6
 41
-30.0
 62
     5
 63
     7
421
 16777215
 74
     1
 91
        4
 64
     7
 65
   257
 75
     1
175
     1
 42
1.0
 92
        0
 66
   257
 43
1.0
 76
     1
 77
     6
 78
     2
 67
     7
 79
     5
170
     0
171
     0
290
     0
174
     0
 93
        1
 44
0.0
173
     0
291
     0
 45
0.0
  0
VISUALSTYLE
  5
26F
102
{ACAD_REACTORS
330
267
102
}
330
267
100
AcDbVisualStyle
  2
Basic
 70
     7
 71
     1
 72
     0
 73
     1
 90
        0
 40
-0.6
 41
-30.0
 62
     5
 63
     7
421
 16777215
 74
     0
 91
        4
 64
     7
 65
   257
 75
     1
175
     1
 42
1.0
 92
        8
 66
     7
 43
1.0
 76
     1
 77
     6
 78
     2
 67
     7
 79
     5
170
     0
171
     0
290
     0
174
     0
 93
        1
 44
0.0
173
     0
291
     1
 45
0.0
  0
VISUALSTYLE
  5
273
102
{ACAD_REACTORS
330
267
102
}
330
267
100
AcDbVisualStyle
  2
Brighten
 70
    12
 71
     2
 72
     2
 73
     0
 90
        0
 40
-0.6
 41
-30.0
 62
     5
 63
     7
421
 16777215
 74
     1
 91
        4
 64
     7
 65
   257
 75
     1
175
     1
 42
1.0
 92
        8
 66
     7
 43
1.0
 76
     1
 77
     6
 78
     2
 67
     7
 79
     5
170
     0
171
     0
290
     0
174
     0
 93
        1
 44
50.0
173
     0
291
     1
 45
0.0
  0
VISUALSTYLE
  5
277
102
{ACAD_REACTORS
330
267
102
}
330
267
100
AcDbVisualStyle
  2
ColorChange
 70
    16
 71
     2
 72
     2
 73
     3
 90
        0
 40
-0.6
 41
-30.0
 62
     5
 63
     8
421
  8421504
 74
     1
 91
        4
 64
     7
 65
   257
 75
     1
175
     1
 42
1.0
 92
        8
 66
     8
424
  8421504
 43
1.0
 76
     1
 77
     6
 78
     2
 67
     7
 79
     5
170
     0
171
     0
290
     0
174
     0
 93
        1
 44
0.0
173
     0
291
     1
 45
0.0
  0
VISUALSTYLE
  5
271
102
{ACAD_REACTORS
330
267
102
}
330
267
100
AcDbVisualStyle
  2
Conceptual
 70
     9
 71
     3
 72
     2
 73
     0
 90
        0
 40
-0.6
 41
-30.0
 62
     5
 63
     7
421
 16777215
 74
     2
 91
        2
 64
     7
 65
   257
 75
     1
175
     1
 42
40.0
 92
        8
 66
     7
 43
1.0
 76
     1
 77
     6
 78
     2
 67
     7
 79
     3
170
     0
171
     0
290
     0
174
     0
 93
        1
 44
0.0
173
     0
291
     0
 45
0.0
  0
VISUALSTYLE
  5
272
102
{ACAD_REACTORS
330
267
102
}
330
267
100
AcDbVisualStyle
  2
Dim
 70
    11
 71
     2
 72
     2
 73
     0
 90
        0
 40
-0.6
 41
-30.0
 62
     5
 63
     7
421
 16777215
 74
     1
 91
        4
 64
     7
 65
   257
 75
     1
175
     1
 42
1.0
 92
        8
 66
     7
 43
1.0
 76
     1
 77
     6
 78
     2
 67
     7
 79
     5
170
     0
171
     0
290
     0
174
     0
 93
        1
 44
-50.0
173
     0
291
     1
 45
0.0
  0
VISUALSTYLE
  5
8BC
102
{ACAD_REACTORS
330
267
102
}
330
267
100
AcDbVisualStyle
  2
EdgeColorOff
 70
    22
 71
     2
 72
     2
 73
     0
 90
        0
 40
0.6
 41
30.0
 62
     5
 63
     7
421
 16777215
 74
     1
 91
        4
 64
     7
 65
   257
 75
     1
175
     1
 42
1.0
 92
        8
 66
     7
 43
1.0
 76
     1
 77
     6
 78
     2
 67
     7
 79
     5
170
     0
171
     0
290
     0
174
     0
 93
        1
 44
0.0
173
     0
291
     1
 45
0.0
  0
VISUALSTYLE
  5
276
102
{ACAD_REACTORS
330
267
102
}
330
267
100
AcDbVisualStyle
  2
Facepattern
 70
    15
 71
     2
 72
     2
 73
     0
 90
        0
 40
-0.6
 41
-30.0
 62
     5
 63
     7
421
 16777215
 74
     1
 91
        4
 64
     7
 65
   257
 75
     1
175
     1
 42
1.0
 92
        8
 66
     7
 43
1.0
 76
     1
 77
     6
 78
     2
 67
     7
 79
     5
170
     0
171
     0
290
     0
174
     0
 93
        1
 44
0.0
173
     0
291
     1
 45
0.0
  0
VISUALSTYLE
  5
268
102
{ACAD_REACTORS
330
267
102
}
330
267
100
AcDbVisualStyle
  2
Flat
 70
     0
 71
     2
 72
     1
 73
     1
 90
        2
 40
-0.6
 41
30.0
 62
     5
 63
     7
421
 16777215
 74
     0
 91
        4
 64
     7
 65
   257
 75
     1
175
     1
 42
1.0
 92
        8
 66
     7
 43
1.0
 76
     1
 77
     6
 78
     2
 67
     7
 79
     5
170
     0
171
     0
290
     0
174
     0
 93
       13
 44
0.0
173
     0
291
     1
 45
0.0
  0
VISUALSTYLE
  5
269
102
{ACAD_REACTORS
330
267
102
}
330
267
100
AcDbVisualStyle
  2
FlatWithEdges
 70
     1
 71
     2
 72
     1
 73
     1
 90
        2
 40
-0.6
 41
30.0
 62
     5
 63
     7
421
 16777215
 74
     1
 91
        4
 64
     7
 65
   257
 75
     1
175
     1
 42
1.0
 92
        0
 66
   257
 43
1.0
 76
     1
 77
     6
 78
     2
 67
     7
 79
     5
170
     0
171
     0
290
     0
174
     0
 93
       13
 44
0.0
173
     0
291
     1
 45
0.0
  0
VISUALSTYLE
  5
26A
102
{ACAD_REACTORS
330
267
102
}
330
267
100
AcDbVisualStyle
  2
Gouraud
 70
     2
 71
     2
 72
     2
 73
     1
 90
        2
 40
-0.6
 41
30.0
 62
     5
 63
     7
421
 16777215
 74
     0
 91
        4
 64
     7
 65
   257
 75
     1
175
     1
 42
1.0
 92
        0
 66
     7
 43
1.0
 76
     1
 77
     6
 78
     2
 67
     7
 79
     5
170
     0
171
     0
290
     0
174
     0
 93
       13
 44
0.0
173
     0
291
     1
 45
0.0
  0
VISUALSTYLE
  5
26B
102
{ACAD_REACTORS
330
267
102
}
330
267
100
AcDbVisualStyle
  2
GouraudWithEdges
 70
     3
 71
     2
 72
     2
 73
     1
 90
        2
 40
-0.6
 41
30.0
 62
     5
 63
     7
421
 16777215
 74
     1
 91
        4
 64
     7
 65
   257
 75
     1
175
     1
 42
1.0
 92
        0
 66
   257
 43
1.0
 76
     1
 77
     6
 78
     2
 67
     7
 79
     5
170
     0
171
     0
290
     0
174
     0
 93
       13
 44
0.0
173
     0
291
     1
 45
0.0
  0
VISUALSTYLE
  5
8B9
102
{ACAD_REACTORS
330
267
102
}
330
267
100
AcDbVisualStyle
  2
Hidden
 70
     6
 71
     1
 72
     2
 73
     2
 90
        0
 40
0.6
 41
30.0
 62
     5
 63
     7
421
 16777215
 74
     2
 91
        2
 64
     7
 65
   257
 75
     2
175
     1
 42
40.0
 92
        0
 66
   257
 43
1.0
 76
     1
 77
     6
 78
     2
 67
     7
 79
     3
170
     0
171
     0
290
     0
174
     0
 93
        1
 44
0.0
173
     0
291
     0
 45
0.0
  0
VISUALSTYLE
  5
8BA
102
{ACAD_REACTORS
330
267
102
}
330
267
100
AcDbVisualStyle
  2
JitterOff
 70
    20
 71
     2
 72
     2
 73
     0
 90
        0
 40
0.6
 41
30.0
 62
     5
 63
     7
421
 16777215
 74
     1
 91
        4
 64
     7
 65
   257
 75
     1
175
     1
 42
1.0
 92
       10
 66
     7
 43
1.0
 76
     1
 77
     6
 78
     2
 67
     7
 79
     5
170
     0
171
     0
290
     0
174
     0
 93
        1
 44
0.0
173
     0
291
     1
 45
0.0
  0
VISUALSTYLE
  5
275
102
{ACAD_REACTORS
330
267
102
}
330
267
100
AcDbVisualStyle
  2
Linepattern
 70
    14
 71
     2
 72
     2
 73
     0
 90
        0
 40
-0.6
 41
-30.0
 62
     5
 63
     7
421
 16777215
 74
     1
 91
        4
 64
     7
 65
   257
 75
     7
175
     7
 42
1.0
 92
        8
 66
     7
 43
1.0
 76
     1
 77
     6
 78
     2
 67
     7
 79
     5
170
     0
171
     0
290
     0
174
     0
 93
        1
 44
0.0
173
     0
291
     1
 45
0.0
  0
VISUALSTYLE
  5
8BB
102
{ACAD_REACTORS
330
267
102
}
330
267
100
AcDbVisualStyle
  2
OverhangOff
 70
    21
 71
     2
 72
     2
 73
     0
 90
        0
 40
0.6
 41
30.0
 62
     5
 63
     7
421
 16777215
 74
     1
 91
        4
 64
     7
 65
   257
 75
     1
175
     1
 42
1.0
 92
        9
 66
     7
 43
1.0
 76
     1
 77
     6
 78
     2
 67
     7
 79
     5
170
     0
171
     0
290
     0
174
     0
 93
        1
 44
0.0
173
     0
291
     1
 45
0.0
  0
VISUALSTYLE
  5
270
102
{ACAD_REACTORS
330
267
102
}
330
267
100
AcDbVisualStyle
  2
Realistic
 70
     8
 71
     2
 72
     2
 73
     0
 90
        0
 40
-0.6
 41
-30.0
 62
     5
 63
     7
421
 16777215
 74
     1
 91
        0
 64
     7
 65
   257
 75
     1
175
     1
 42
1.0
 92
        8
 66
     8
424
  7895160
 43
1.0
 76
     1
 77
     6
 78
     2
 67
     7
 79
     5
170
     0
171
     0
290
     0
174
     0
 93
       13
 44
0.0
173
     0
291
     0
 45
0.0
  0
VISUALSTYLE
  5
8C1
102
{ACAD_REACTORS
330
267
102
}
330
267
100
AcDbVisualStyle
  2
Shaded
 70
    27
 71
     2
 72
     2
 73
     1
 90
        2
 40
0.6
 41
30.0
 62
     5
 63
     7
421
 16777215
 74
     0
 91
        4
 64
     7
 65
   257
 75
     1
175
     1
 42
1.0
 92
        8
 66
   257
 43
1.0
 76
     1
 77
     6
 78
     2
 67
     8
425
  7895160
 79
     3
170
     0
171
     0
290
     0
174
     0
 93
        5
 44
0.0
173
     0
291
     0
 45
0.0
  0
VISUALSTYLE
  5
8C0
102
{ACAD_REACTORS
330
267
102
}
330
267
100
AcDbVisualStyle
  2
Shaded with edges
 70
    26
 71
     2
 72
     2
 73
     1
 90
        2
 40
0.6
 41
30.0
 62
     5
 63
     7
421
 16777215
 74
     1
 91
       10
 64
     7
 65
   257
 75
     2
175
     1
 42
1.0
 92
        8
 66
   257
 43
1.0
 76
     1
 77
     6
 78
     2
 67
     7
 79
     3
170
     0
171
     0
290
     0
174
     0
 93
        5
 44
0.0
173
     0
291
     0
 45
0.0
  0
VISUALSTYLE
  5
8BD
102
{ACAD_REACTORS
330
267
102
}
330
267
100
AcDbVisualStyle
  2
Shades of Gray
 70
    23
 71
     2
 72
     2
 73
     3
 90
        0
 40
0.6
 41
30.0
 62
     5
 63
     7
421
 16777215
 74
     2
 91
        2
 64
     7
 65
     7
 75
     1
175
     1
 42
40.0
 92
        8
 66
     7
 43
1.0
 76
     1
 77
     6
 78
     2
 67
     7
 79
     3
170
     0
171
     0
290
     0
174
     0
 93
        1
 44
0.0
173
     0
291
     0
 45
0.0
  0
VISUALSTYLE
  5
8BE
102
{ACAD_REACTORS
330
267
102
}
330
267
100
AcDbVisualStyle
  2
Sketchy
 70
    24
 71
     1
 72
     2
 73
     2
 90
        0
 40
0.6
 41
30.0
 62
     5
 63
     7
421
 16777215
 74
     2
 91
        2
 64
     7
 65
     7
 75
     1
175
     1
 42
40.0
 92
       11
 66
     7
 43
1.0
 76
     1
 77
     6
 78
     2
 67
     7
 79
     6
170
     0
171
     0
290
     0
174
     0
 93
        1
 44
0.0
173
     0
291
     0
 45
0.0
  0
VISUALSTYLE
  5
274
102
{ACAD_REACTORS
330
267
102
}
330
267
100
AcDbVisualStyle
  2
Thicken
 70
    13
 71
     2
 72
     2
 73
     0
 90
        0
 40
-0.6
 41
-30.0
 62
     5
 63
     7
421
 16777215
 74
     1
 91
        4
 64
     7
 65
   257
 75
     1
175
     1
 42
1.0
 92
       12
 66
     7
 43
1.0
 76
     1
 77
     6
 78
     2
 67
     7
 79
     5
170
     0
171
     0
290
     0
174
     0
 93
        1
 44
0.0
173
     0
291
     1
 45
0.0
  0
VISUALSTYLE
  5
8B8
102
{ACAD_REACTORS
330
267
102
}
330
267
100
AcDbVisualStyle
  2
Wireframe
 70
     5
 71
     0
 72
     2
 73
     0
 90
        0
 40
0.6
 41
30.0
 62
     5
 63
     7
421
 16777215
 74
     1
 91
        4
 64
     7
 65
   257
 75
     1
175
     1
 42
1.0
 92
        0
 66
   257
 43
1.0
 76
     1
 77
     6
 78
     2
 67
     7
 79
     3
170
     0
171
     0
290
     0
174
     0
 93
        1
 44
0.0
173
     0
291
     0
 45
0.0
  0
VISUALSTYLE
  5
8BF
102
{ACAD_REACTORS
330
267
102
}
330
267
100
AcDbVisualStyle
  2
X-Ray
 70
    25
 71
     2
 72
     2
 73
     1
 90
        1
 40
0.5
 41
30.0
 62
     5
 63
     7
421
 16777215
 74
     1
 91
        0
 64
     7
 65
   257
 75
     1
175
     1
 42
1.0
 92
        8
 66
     7
 43
1.0
 76
     1
 77
     6
 78
     2
 67
     7
 79
     3
170
     0
171
     0
290
     0
174
     0
 93
       13
 44
0.0
173
     0
291
     0
 45
0.0
  0
DICTIONARYVAR
  5
331
102
{ACAD_REACTORS
330
330
102
}
330
330
100
DictionaryVariables
280
     0
  1
1:1
  0
DICTIONARYVAR
  5
8DA
102
{ACAD_REACTORS
330
330
102
}
330
330
100
DictionaryVariables
280
     0
  1
Standard
  0
DICTIONARYVAR
  5
335
102
{ACAD_REACTORS
330
330
102
}
330
330
100
DictionaryVariables
280
     0
  1
Standard
  0
DICTIONARYVAR
  5
C07
102
{ACAD_REACTORS
330
330
102
}
330
330
100
DictionaryVariables
280
     0
  1
ByLayer
  0
DICTIONARYVAR
  5
64A
102
{ACAD_REACTORS
330
330
102
}
330
330
100
DictionaryVariables
280
     0
  1
0
  0
DICTIONARYVAR
  5
4342
102
{ACAD_REACTORS
330
C08
102
}
330
C08
100
DictionaryVariables
280
     0
  1
0.261799
  0
DICTIONARYVAR
  5
4340
102
{ACAD_REACTORS
330
C08
102
}
330
C08
100
DictionaryVariables
280
     0
  1
0.400000
  0
DICTIONARYVAR
  5
4341
102
{ACAD_REACTORS
330
C08
102
}
330
C08
100
DictionaryVariables
280
     0
  1
0.250000
  0
DICTIONARYVAR
  5
4343
102
{ACAD_REACTORS
330
C08
102
}
330
C08
100
DictionaryVariables
280
     0
  1
1
  0
FIELD
  5
BDE
102
{ACAD_REACTORS
330
BE4
102
}
330
BE4
100
AcDbField
  1
_text
  2
{%<\_FldIdx 0>%N}
 90
        1
360
BDF
 97
        0
 91
       63
 92
        0
 94
        8
 95
        2
 96
        0
300

 93
        1
  6
ACFD_FIELDTEXT_CHECKSUM
 93
        2
 90
        2
140
4543.0
 94
        0
300

302

304
ACVALUE_END
  7
ACFD_FIELD_VALUE
 93
        6
 90
        4
  1
{20170725N}
 94
        0
300

302

304
ACVALUE_END
301
{20170725N}
 98
       11
  0
DICTIONARY
  5
56E2
330
279
100
AcDbDictionary
280
     1
281
     1
  3
ACAD_ROUNDTRIP_2008_TABLESTYLE_CELLSTYLEMAP
360
56E3
  0
FIELD
  5
BDF
330
BDE
100
AcDbField
  1
AcVar
  2
\AcVar Date \f "yyyyMMdd"
 90
        0
 97
        0
 91
       63
 92
        0
 94
        8
 95
        2
 96
        0
300

 93
        1
  6
Variable
 93
        2
 90
        4
  1
Date
 94
        0
300

302

304
ACVALUE_END
  7
ACFD_FIELD_VALUE
 93
        6
 90
        8
 92
       16
310
E107070000001800110011001A000000
 94
        0
300
yyyyMMdd
302

304
ACVALUE_END
301
20170725
 98
        8
  0
CELLSTYLEMAP
  5
56E3
102
{ACAD_REACTORS
330
56E2
102
}
330
56E2
100
AcDbCellStyleMap
 90
        3
300
CELLSTYLE
  1
TABLEFORMAT_BEGIN
 90
        5
170
     1
 91
        0
 92
    32768
 62
   257
 93
        1
300
CONTENTFORMAT
  1
CONTENTFORMAT_BEGIN
 90
        0
 91
        0
 92
        4
 93
        0
300

 40
0.0
140
1.0
 94
        5
 62
     0
340
17
144
6.0
309
CONTENTFORMAT_END
171
     1
301
MARGIN
  1
CELLMARGIN_BEGIN
 40
0.06
 40
0.06
 40
0.06
 40
0.06
 40
0.18
 40
0.18
309
CELLMARGIN_END
 94
        6
 95
        1
302
GRIDFORMAT
  1
GRIDFORMAT_BEGIN
 90
        0
 91
        1
 62
     0
 92
       -2
340
0
 93
        0
 40
0.045
309
GRIDFORMAT_END
 95
        2
302
GRIDFORMAT
  1
GRIDFORMAT_BEGIN
 90
        0
 91
        1
 62
     0
 92
       -2
340
0
 93
        0
 40
0.045
309
GRIDFORMAT_END
 95
        4
302
GRIDFORMAT
  1
GRIDFORMAT_BEGIN
 90
        0
 91
        1
 62
     0
 92
       -2
340
0
 93
        0
 40
0.045
309
GRIDFORMAT_END
 95
        8
302
GRIDFORMAT
  1
GRIDFORMAT_BEGIN
 90
        0
 91
        1
 62
     0
 92
       -2
340
0
 93
        0
 40
0.045
309
GRIDFORMAT_END
 95
       16
302
GRIDFORMAT
  1
GRIDFORMAT_BEGIN
 90
        0
 91
        1
 62
     0
 92
       -2
340
0
 93
        0
 40
0.045
309
GRIDFORMAT_END
 95
       32
302
GRIDFORMAT
  1
GRIDFORMAT_BEGIN
 90
        0
 91
        1
 62
     0
 92
       -2
340
0
 93
        0
 40
0.045
309
GRIDFORMAT_END
309
TABLEFORMAT_END
  1
CELLSTYLE_BEGIN
 90
        1
 91
        1
300
_TITLE
309
CELLSTYLE_END
300
CELLSTYLE
  1
TABLEFORMAT_BEGIN
 90
        5
170
     1
 91
        0
 92
        0
 62
   257
 93
        1
300
CONTENTFORMAT
  1
CONTENTFORMAT_BEGIN
 90
        0
 91
        0
 92
        4
 93
        0
300

 40
0.0
140
1.0
 94
        5
 62
     0
340
17
144
4.5
309
CONTENTFORMAT_END
171
     1
301
MARGIN
  1
CELLMARGIN_BEGIN
 40
0.06
 40
0.06
 40
0.06
 40
0.06
 40
0.18
 40
0.18
309
CELLMARGIN_END
 94
        6
 95
        1
302
GRIDFORMAT
  1
GRIDFORMAT_BEGIN
 90
        0
 91
        1
 62
     0
 92
       -2
340
0
 93
        0
 40
0.045
309
GRIDFORMAT_END
 95
        2
302
GRIDFORMAT
  1
GRIDFORMAT_BEGIN
 90
        0
 91
        1
 62
     0
 92
       -2
340
0
 93
        0
 40
0.045
309
GRIDFORMAT_END
 95
        4
302
GRIDFORMAT
  1
GRIDFORMAT_BEGIN
 90
        0
 91
        1
 62
     0
 92
       -2
340
0
 93
        0
 40
0.045
309
GRIDFORMAT_END
 95
        8
302
GRIDFORMAT
  1
GRIDFORMAT_BEGIN
 90
        0
 91
        1
 62
     0
 92
       -2
340
0
 93
        0
 40
0.045
309
GRIDFORMAT_END
 95
       16
302
GRIDFORMAT
  1
GRIDFORMAT_BEGIN
 90
        0
 91
        1
 62
     0
 92
       -2
340
0
 93
        0
 40
0.045
309
GRIDFORMAT_END
 95
       32
302
GRIDFORMAT
  1
GRIDFORMAT_BEGIN
 90
        0
 91
        1
 62
     0
 92
       -2
340
0
 93
        0
 40
0.045
309
GRIDFORMAT_END
309
TABLEFORMAT_END
  1
CELLSTYLE_BEGIN
 90
        2
 91
        1
300
_HEADER
309
CELLSTYLE_END
300
CELLSTYLE
  1
TABLEFORMAT_BEGIN
 90
        5
170
     1
 91
        0
 92
        0
 62
   257
 93
        1
300
CONTENTFORMAT
  1
CONTENTFORMAT_BEGIN
 90
        0
 91
        0
 92
        4
 93
        0
300

 40
0.0
140
1.0
 94
        2
 62
     0
340
17
144
4.5
309
CONTENTFORMAT_END
171
     1
301
MARGIN
  1
CELLMARGIN_BEGIN
 40
0.06
 40
0.06
 40
0.06
 40
0.06
 40
0.18
 40
0.18
309
CELLMARGIN_END
 94
        6
 95
        1
302
GRIDFORMAT
  1
GRIDFORMAT_BEGIN
 90
        0
 91
        1
 62
     0
 92
       -2
340
0
 93
        0
 40
0.045
309
GRIDFORMAT_END
 95
        2
302
GRIDFORMAT
  1
GRIDFORMAT_BEGIN
 90
        0
 91
        1
 62
     0
 92
       -2
340
0
 93
        0
 40
0.045
309
GRIDFORMAT_END
 95
        4
302
GRIDFORMAT
  1
GRIDFORMAT_BEGIN
 90
        0
 91
        1
 62
     0
 92
       -2
340
0
 93
        0
 40
0.045
309
GRIDFORMAT_END
 95
        8
302
GRIDFORMAT
  1
GRIDFORMAT_BEGIN
 90
        0
 91
        1
 62
     0
 92
       -2
340
0
 93
        0
 40
0.045
309
GRIDFORMAT_END
 95
       16
302
GRIDFORMAT
  1
GRIDFORMAT_BEGIN
 90
        0
 91
        1
 62
     0
 92
       -2
340
0
 93
        0
 40
0.045
309
GRIDFORMAT_END
 95
       32
302
GRIDFORMAT
  1
GRIDFORMAT_BEGIN
 90
        0
 91
        1
 62
     0
 92
       -2
340
0
 93
        0
 40
0.045
309
GRIDFORMAT_END
309
TABLEFORMAT_END
  1
CELLSTYLE_BEGIN
 90
        3
 91
        2
300
_DATA
309
CELLSTYLE_END
  0
ENDSEC
  0
EOF
