  0
SECTION
  2
HEADER
  9
$ACADVER
  1
AC1021
  9
$ACADMAINTVER
 70
    25
  9
$DWGCODEPAGE
  3
ANSI_932
  9
$LASTSAVEDBY
  1
howeNelson
  9
$INSBASE
 10
0.0
 20
0.0
 30
0.0
  9
$EXTMIN
 10
0.0
 20
0.0
 30
0.0
  9
$EXTMAX
 10
2100.0
 20
2970.0
 30
34.99521132346015
  9
$LIMMIN
 10
0.0
 20
0.0
  9
$LIMMAX
 10
2100.0
 20
2970.0
  9
$ORTHOMODE
 70
     0
  9
$REGENMODE
 70
     1
  9
$FILLMODE
 70
     1
  9
$QTEXTMODE
 70
     0
  9
$MIRRTEXT
 70
     1
  9
$LTSCALE
 40
5.0
  9
$ATTMODE
 70
     1
  9
$TEXTSIZE
 40
533.0403732820173
  9
$TRACEWID
 40
1.0
  9
$TEXTSTYLE
  7
Standard
  9
$CLAYER
  8
Dim
  9
$CELTYPE
  6
ByLayer
  9
$CECOLOR
 62
   256
  9
$CELTSCALE
 40
1.0
  9
$DISPSILH
 70
     0
  9
$DIMSCALE
 40
1.0
  9
$DIMASZ
 40
9.999389648437498
  9
$DIMEXO
 40
25.0
  9
$DIMDLI
 40
0.9999999999999999
  9
$DIMRND
 40
0.0
  9
$DIMDLE
 40
0.0
  9
$DIMEXE
 40
0.0
  9
$DIMTP
 40
0.0
  9
$DIMTM
 40
0.0
  9
$DIMTXT
 40
24.4326171875
  9
$DIMCEN
 40
0.0
  9
$DIMTSZ
 40
0.0
  9
$DIMTOL
 70
     0
  9
$DIMLIM
 70
     0
  9
$DIMTIH
 70
     0
  9
$DIMTOH
 70
     0
  9
$DIMSE1
 70
     0
  9
$DIMSE2
 70
     0
  9
$DIMTAD
 70
     1
  9
$DIMZIN
 70
    11
  9
$DIMBLK
  1
DOT
  9
$DIMASO
 70
     1
  9
$DIMSHO
 70
     1
  9
$DIMPOST
  1
<>
  9
$DIMAPOST
  1
[]
  9
$DIMALT
 70
     0
  9
$DIMALTD
 70
     1
  9
$DIMALTF
 40
1.0
  9
$DIMLFAC
 40
1.0
  9
$DIMTOFL
 70
     1
  9
$DIMTVP
 40
0.0
  9
$DIMTIX
 70
     1
  9
$DIMSOXD
 70
     0
  9
$DIMSAH
 70
     0
  9
$DIMBLK1
  1

  9
$DIMBLK2
  1

  9
$DIMSTYLE
  2
tform線あり
  9
$DIMCLRD
 70
     0
  9
$DIMCLRE
 70
     0
  9
$DIMCLRT
 70
     0
  9
$DIMTFAC
 40
0.8
  9
$DIMGAP
 40
10.0
  9
$DIMJUST
 70
     0
  9
$DIMSD1
 70
     0
  9
$DIMSD2
 70
     0
  9
$DIMTOLJ
 70
     1
  9
$DIMTZIN
 70
    11
  9
$DIMALTZ
 70
    11
  9
$DIMALTTZ
 70
    11
  9
$DIMUPT
 70
     0
  9
$DIMDEC
 70
     1
  9
$DIMTDEC
 70
     1
  9
$DIMALTU
 70
     2
  9
$DIMALTTD
 70
     2
  9
$DIMTXSTY
  7
ＭＳ ゴシック
  9
$DIMAUNIT
 70
     0
  9
$DIMADEC
 70
     2
  9
$DIMALTRND
 40
0.0
  9
$DIMAZIN
 70
     0
  9
$DIMDSEP
 70
    46
  9
$DIMATFIT
 70
     0
  9
$DIMFRAC
 70
     2
  9
$DIMLDRBLK
  1
DOT
  9
$DIMLUNIT
 70
     2
  9
$DIMLWD
 70
    -2
  9
$DIMLWE
 70
    -2
  9
$DIMTMOVE
 70
     0
  9
$DIMFXL
 40
1.0
  9
$DIMFXLON
 70
     0
  9
$DIMJOGANG
 40
0.7853981633974483
  9
$DIMTFILL
 70
     0
  9
$DIMTFILLCLR
 70
     0
  9
$DIMARCSYM
 70
     0
  9
$DIMLTYPE
  6

  9
$DIMLTEX1
  6

  9
$DIMLTEX2
  6

  9
$LUNITS
 70
     2
  9
$LUPREC
 70
     0
  9
$SKETCHINC
 40
0.1
  9
$FILLETRAD
 40
0.0
  9
$AUNITS
 70
     0
  9
$AUPREC
 70
     0
  9
$MENU
  1
acad
  9
$ELEVATION
 40
0.0
  9
$PELEVATION
 40
0.0
  9
$THICKNESS
 40
0.0
  9
$LIMCHECK
 70
     0
  9
$CHAMFERA
 40
0.0
  9
$CHAMFERB
 40
0.0
  9
$CHAMFERC
 40
0.0
  9
$CHAMFERD
 40
0.0
  9
$SKPOLY
 70
     0
  9
$TDCREATE
 40
2447893.375
  9
$TDUCREATE
 40
0.0
  9
$TDUPDATE
 40
2457959.719879456
  9
$TDUUPDATE
 40
2457959.344879456
  9
$TDINDWG
 40
0.0035845949
  9
$TDUSRTIMER
 40
2457959.343522454
  9
$USRTIMER
 70
     1
  9
$ANGBASE
 50
0.0
  9
$ANGDIR
 70
     0
  9
$PDMODE
 70
     1
  9
$PDSIZE
 40
-2.0
  9
$PLINEWID
 40
0.0
  9
$SPLFRAME
 70
     0
  9
$SPLINETYPE
 70
     6
  9
$SPLINESEGS
 70
     8
  9
$HANDSEED
  5
5DBA
  9
$SURFTAB1
 70
     6
  9
$SURFTAB2
 70
     6
  9
$SURFTYPE
 70
     6
  9
$SURFU
 70
     6
  9
$SURFV
 70
     6
  9
$UCSBASE
  2

  9
$UCSNAME
  2

  9
$UCSORG
 10
0.0
 20
0.0
 30
0.0
  9
$UCSXDIR
 10
1.0
 20
0.0
 30
0.0
  9
$UCSYDIR
 10
0.0
 20
1.0
 30
0.0
  9
$UCSORTHOREF
  2

  9
$UCSORTHOVIEW
 70
     0
  9
$UCSORGTOP
 10
0.0
 20
0.0
 30
0.0
  9
$UCSORGBOTTOM
 10
0.0
 20
0.0
 30
0.0
  9
$UCSORGLEFT
 10
0.0
 20
0.0
 30
0.0
  9
$UCSORGRIGHT
 10
0.0
 20
0.0
 30
0.0
  9
$UCSORGFRONT
 10
0.0
 20
0.0
 30
0.0
  9
$UCSORGBACK
 10
0.0
 20
0.0
 30
0.0
  9
$PUCSBASE
  2

  9
$PUCSNAME
  2

  9
$PUCSORG
 10
0.0
 20
0.0
 30
0.0
  9
$PUCSXDIR
 10
1.0
 20
0.0
 30
0.0
  9
$PUCSYDIR
 10
0.0
 20
1.0
 30
0.0
  9
$PUCSORTHOREF
  2

  9
$PUCSORTHOVIEW
 70
     0
  9
$PUCSORGTOP
 10
0.0
 20
0.0
 30
0.0
  9
$PUCSORGBOTTOM
 10
0.0
 20
0.0
 30
0.0
  9
$PUCSORGLEFT
 10
0.0
 20
0.0
 30
0.0
  9
$PUCSORGRIGHT
 10
0.0
 20
0.0
 30
0.0
  9
$PUCSORGFRONT
 10
0.0
 20
0.0
 30
0.0
  9
$PUCSORGBACK
 10
0.0
 20
0.0
 30
0.0
  9
$USERI1
 70
     0
  9
$USERI2
 70
     0
  9
$USERI3
 70
     0
  9
$USERI4
 70
     0
  9
$USERI5
 70
     0
  9
$USERR1
 40
0.0
  9
$USERR2
 40
0.0
  9
$USERR3
 40
0.0
  9
$USERR4
 40
0.0
  9
$USERR5
 40
0.0
  9
$WORLDVIEW
 70
     1
  9
$SHADEDGE
 70
     3
  9
$SHADEDIF
 70
    70
  9
$TILEMODE
 70
     1
  9
$MAXACTVP
 70
    64
  9
$PINSBASE
 10
0.0
 20
0.0
 30
0.0
  9
$PLIMCHECK
 70
     0
  9
$PEXTMIN
 10
0.0
 20
0.0
 30
0.0
  9
$PEXTMAX
 10
0.0
 20
0.0
 30
0.0
  9
$PLIMMIN
 10
-7.5
 20
-20.0
  9
$PLIMMAX
 10
412.5
 20
277.0
  9
$UNITMODE
 70
     0
  9
$VISRETAIN
 70
     0
  9
$PLINEGEN
 70
     1
  9
$PSLTSCALE
 70
     0
  9
$TREEDEPTH
 70
  3020
  9
$CMLSTYLE
  2
Standard
  9
$CMLJUST
 70
     0
  9
$CMLSCALE
 40
1.0
  9
$PROXYGRAPHICS
 70
     0
  9
$MEASUREMENT
 70
     1
  9
$CELWEIGHT
370
    -1
  9
$ENDCAPS
280
     0
  9
$JOINSTYLE
280
     0
  9
$LWDISPLAY
290
     1
  9
$INSUNITS
 70
     4
  9
$HYPERLINKBASE
  1

  9
$STYLESHEET
  1

  9
$XEDIT
290
     1
  9
$CEPSNTYPE
380
     0
  9
$PSTYLEMODE
290
     1
  9
$FINGERPRINTGUID
  2

  9
$VERSIONGUID
  2

  9
$EXTNAMES
290
     1
  9
$PSVPSCALE
 40
0.0
  9
$OLESTARTUP
290
     0
  9
$SORTENTS
280
   127
  9
$INDEXCTL
280
     0
  9
$HIDETEXT
280
     1
  9
$XCLIPFRAME
290
     0
  9
$HALOGAP
280
     0
  9
$OBSCOLOR
 70
   257
  9
$OBSLTYPE
280
     0
  9
$INTERSECTIONDISPLAY
280
     0
  9
$INTERSECTIONCOLOR
 70
   257
  9
$DIMASSOC
280
     2
  9
$PROJECTNAME
  1

  9
$CAMERADISPLAY
290
     0
  9
$LENSLENGTH
 40
50.0
  9
$CAMERAHEIGHT
 40
0.0
  9
$STEPSPERSEC
 40
2.0
  9
$STEPSIZE
 40
6.0
  9
$3DDWFPREC
 40
2.0
  9
$PSOLWIDTH
 40
0.25
  9
$PSOLHEIGHT
 40
4.0
  9
$LOFTANG1
 40
1.570796326794897
  9
$LOFTANG2
 40
1.570796326794897
  9
$LOFTMAG1
 40
0.0
  9
$LOFTMAG2
 40
0.0
  9
$LOFTPARAM
 70
     7
  9
$LOFTNORMALS
280
     1
  9
$LATITUDE
 40
37.795
  9
$LONGITUDE
 40
-122.394
  9
$NORTHDIRECTION
 40
0.0
  9
$TIMEZONE
 70
 -8000
  9
$LIGHTGLYPHDISPLAY
280
     1
  9
$TILEMODELIGHTSYNCH
280
     1
  9
$SOLIDHIST
280
     1
  9
$SHOWHIST
280
     1
  9
$DWFFRAME
280
     2
  9
$DGNFRAME
280
     2
  9
$REALWORLDSCALE
290
     1
  9
$INTERFERECOLOR
 62
   256
  9
$CSHADOW
280
     0
  9
$SHADOWPLANELOCATION
 40
0.0
  0
ENDSEC
  0
SECTION
  2
CLASSES
  0
CLASS
  1
LWPOLYLINE
  2
AcDbPolyline
  3
ObjectDBX Classes
 90
        0
 91
        1
280
     0
281
     1
  0
CLASS
  1
IMAGE
  2
AcDbRasterImage
  3
ISM
 90
      127
 91
        5
280
     0
281
     1
  0
CLASS
  1
OLE2FRAME
  2
AcDbOle2Frame
  3
ObjectDBX Classes
 90
        0
 91
        1
280
     0
281
     1
  0
CLASS
  1
HATCH
  2
AcDbHatch
  3
ObjectDBX Classes
 90
        0
 91
        1
280
     0
281
     1
  0
CLASS
  1
DICTIONARYVAR
  2
AcDbDictionaryVar
  3
ObjectDBX Classes
 90
        0
 91
        4
280
     0
281
     0
  0
CLASS
  1
RASTERVARIABLES
  2
AcDbRasterVariables
  3
ISM
 90
        0
 91
        4
280
     0
281
     0
  0
CLASS
  1
IMAGEDEF
  2
AcDbRasterImageDef
  3
ISM
 90
        0
 91
        4
280
     0
281
     0
  0
CLASS
  1
IMAGEDEF_REACTOR
  2
AcDbRasterImageDefReactor
  3
ISM
 90
        1
 91
        4
280
     0
281
     0
  0
CLASS
  1
IDBUFFER
  2
AcDbIdBuffer
  3
ObjectDBX Classes
 90
        0
 91
        4
280
     0
281
     0
  0
CLASS
  1
SPATIAL_FILTER
  2
AcDbSpatialFilter
  3
ObjectDBX Classes
 90
        0
 91
        4
280
     0
281
     0
  0
CLASS
  1
XRECORD
  2
AcDbXrecord
  3
ObjectDBX Classes
 90
        0
 91
        1
280
     0
281
     0
  0
CLASS
  1
SORTENTSTABLE
  2
AcDbSortentsTable
  3
ObjectDBX Classes
 90
        0
 91
        4
280
     0
281
     0
  0
CLASS
  1
LAYER_INDEX
  2
AcDbLayerIndex
  3
ObjectDBX Classes
 90
        0
 91
        4
280
     0
281
     0
  0
CLASS
  1
SPATIAL_INDEX
  2
AcDbSpatialIndex
  3
AutoCAD 2000
 90
        0
 91
        4
280
     0
281
     0
  0
CLASS
  1
OBJECT_PTR
  2
CAseDLPNTableRecord
  3
ASE-LPNTableRecord
 90
        1
 91
        4
280
     0
281
     0
  0
CLASS
  1
LAYOUT
  2
AcDbLayout
  3
ObjectDBX Classes
 90
        0
 91
        1
280
     0
281
     0
  0
CLASS
  1
PLOTSETTINGS
  2
AcDbPlotSettings
  3
ObjectDBX Classes
 90
        0
 91
        4
280
     0
281
     0
  0
CLASS
  1
ACDBDICTIONARYWDFLT
  2
AcDbDictionaryWithDefault
  3
ObjectDBX Classes
 90
        0
 91
        4
280
     0
281
     0
  0
CLASS
  1
ACDBPLACEHOLDER
  2
AcDbPlaceHolder
  3
ObjectDBX Classes
 90
        0
 91
        1
280
     0
281
     0
  0
CLASS
  1
SCALE
  2
AcDbScale
  3
ObjectDBX Classes
 90
     1153
 91
        4
280
     0
281
     0
  0
CLASS
  1
MATERIAL
  2
AcDbMaterial
  3
ObjectDBX Classes
 90
     1153
 91
        4
280
     0
281
     0
  0
CLASS
  1
VISUALSTYLE
  2
AcDbVisualStyle
  3
ObjectDBX Classes
 90
     4095
 91
        4
280
     0
281
     0
  0
CLASS
  1
TABLESTYLE
  2
AcDbTableStyle
  3
ObjectDBX Classes
 90
     4095
 91
        4
280
     0
281
     0
  0
CLASS
  1
DIMASSOC
  2
AcDbDimAssoc
  3
"AcDbDimAssoc|Product Desc:     AcDim ARX App For Dimension|Company:          Autodesk, Inc.|WEB Address:      www.autodesk.com"
 90
        0
 91
        4
280
     0
281
     0
  0
CLASS
  1
CELLSTYLEMAP
  2
AcDbCellStyleMap
  3
ObjectDBX Classes
 90
     1152
 91
        4
280
     0
281
     0
  0
CLASS
  1
SUN
  2
AcDbSun
  3
SCENEOE
 90
     1153
 91
        4
280
     0
281
     0
  0
CLASS
  1
MLEADERSTYLE
  2
AcDbMLeaderStyle
  3
ACDB_MLEADERSTYLE_CLASS
 90
     4095
 91
        4
280
     0
281
     0
  0
CLASS
  1
FIELD
  2
AcDbField
  3
ObjectDBX Classes
 90
     1152
 91
        4
280
     0
281
     0
  0
CLASS
  1
FIELDLIST
  2
AcDbFieldList
  3
ObjectDBX Classes
 90
     1152
 91
        4
280
     0
281
     0
  0
CLASS
  1
ACDB_ALDIMOBJECTCONTEXTDATA_CLASS
  2
AcDbAlignedDimensionObjectContextData
  3
ObjectDBX Classes
 90
     1153
 91
        4
280
     0
281
     0
  0
ENDSEC
  0
SECTION
  2
TABLES
  0
TABLE
  2
VPORT
  5
7
330
0
100
AcDbSymbolTable
 70
     1
  0
VPORT
  5
15
330
7
100
AcDbSymbolTableRecord
100
AcDbViewportTableRecord
  2
*ACTIVE
 70
     0
 10
0.0
 20
0.0
 11
1.0
 21
1.0
 12
672.9525617540367
 22
1782.612370234518
 13
0.0
 23
0.0
 14
1.0
 24
1.0
 15
0.0
 25
0.0
 16
0.0
 26
0.0
 36
1.0
 17
377.0474382459633
 27
-297.6123702345176
 37
0.0
 40
3029.4
 41
2.227272727272727
 42
50.0
 43
0.0
 44
0.0
 50
0.0
 51
0.0
 71
    16
 72
  2000
 73
     1
 74
     1
 75
     0
 76
     0
 77
     0
 78
     0
281
     0
 65
     1
110
0.0
120
0.0
130
0.0
111
1.0
121
0.0
131
0.0
112
0.0
122
1.0
132
0.0
 79
     0
146
0.0
348
26C
 60
     3
 61
     5
292
     1
282
     1
141
0.0
142
0.0
 63
   256
361
8C2
  0
ENDTAB
  0
TABLE
  2
LTYPE
  5
4
330
0
100
AcDbSymbolTable
 70
     4
  0
LTYPE
  5
11
330
4
100
AcDbSymbolTableRecord
100
AcDbLinetypeTableRecord
  2
ByBlock
 70
     0
  3

 72
    65
 73
     0
 40
0.0
  0
LTYPE
  5
12
330
4
100
AcDbSymbolTableRecord
100
AcDbLinetypeTableRecord
  2
ByLayer
 70
     0
  3

 72
    65
 73
     0
 40
0.0
  0
LTYPE
  5
13
330
4
100
AcDbSymbolTableRecord
100
AcDbLinetypeTableRecord
  2
Continuous
 70
     0
  3
Solid line
 72
    65
 73
     0
 40
0.0
  0
LTYPE
  5
8D4
330
4
100
AcDbSymbolTableRecord
100
AcDbLinetypeTableRecord
  2
HIDDEN
 70
     0
  3
Hidden _ _ _ _ _ _ _ _ _ _ _ _ _ _ _ _ _ _ _ _ 
 72
    65
 73
     2
 40
9.524999999999999
 49
6.35
 74
     0
 49
-3.175
 74
     0
  0
LTYPE
  5
BF2
330
4
100
AcDbSymbolTableRecord
100
AcDbLinetypeTableRecord
  2
BORDER
 70
     0
  3
Border __  __  . __  __  . __  __  . __  __  . 
 72
    65
 73
     6
 40
44.45
 49
12.7
 74
     0
 49
-6.35
 74
     0
 49
12.7
 74
     0
 49
-6.35
 74
     0
 49
0.0
 74
     0
 49
-6.35
 74
     0
  0
LTYPE
  5
4115
330
4
100
AcDbSymbolTableRecord
100
AcDbLinetypeTableRecord
  2
CENTER
 70
     0
  3
 Center _____  _  _____  _  _____  _  _____  _ 
 72
    65
 73
     4
 40
50.8
 49
31.75
 74
     0
 49
-6.35
 74
     0
 49
6.35
 74
     0
 49
-6.35
 74
     0
  0
ENDTAB
  0
TABLE
  2
LAYER
  5
2
102
{ACAD_XDICTIONARY
360
2E1
102
}
330
0
100
AcDbSymbolTable
 70
     9
  0
LAYER
  5
14
330
2
100
AcDbSymbolTableRecord
100
AcDbLayerTableRecord
  2
0
 70
     0
 62
     7
  6
Continuous
370
    -3
390
1D
347
266
  0
LAYER
  5
4A
330
2
100
AcDbSymbolTableRecord
100
AcDbLayerTableRecord
  2
Defpoints
 70
     0
 62
     7
  6
Continuous
290
     0
370
    20
390
1D
347
266
  0
LAYER
  5
4B
330
2
100
AcDbSymbolTableRecord
100
AcDbLayerTableRecord
  2
template
 70
     0
 62
     7
  6
Continuous
370
    20
390
1D
347
266
  0
LAYER
  5
4D
330
2
100
AcDbSymbolTableRecord
100
AcDbLayerTableRecord
  2
MODEL
 70
     0
 62
     7
  6
Continuous
370
    20
390
1D
347
266
  0
LAYER
  5
382
330
2
100
AcDbSymbolTableRecord
100
AcDbLayerTableRecord
  2
レイヤー 1
 70
     0
 62
     7
  6
Continuous
370
    -3
390
1D
347
266
  0
LAYER
  5
5C4
330
2
100
AcDbSymbolTableRecord
100
AcDbLayerTableRecord
  2
HIDDEN
 70
     0
 62
   253
  6
HIDDEN
370
    20
390
1D
347
266
1001
AcAecLayerStandard
1000

1000

  0
LAYER
  5
5EB
330
2
100
AcDbSymbolTableRecord
100
AcDbLayerTableRecord
  2
Dim
 70
     0
 62
     3
  6
Continuous
370
    13
390
1D
347
266
1001
AcAecLayerStandard
1000

1000

  0
LAYER
  5
BF1
330
2
100
AcDbSymbolTableRecord
100
AcDbLayerTableRecord
  2
PRINT BORDER
 70
     0
 62
     4
  6
BORDER
290
     0
370
    20
390
1D
347
266
1001
AcAecLayerStandard
1000

1000

  0
LAYER
  5
1BD2
330
2
100
AcDbSymbolTableRecord
100
AcDbLayerTableRecord
  2
retino
 70
     0
 62
   253
  6
Continuous
370
     0
390
1D
347
266
  0
ENDTAB
  0
TABLE
  2
STYLE
  5
3
330
0
100
AcDbSymbolTable
 70
     2
  0
STYLE
  5
17
330
3
100
AcDbSymbolTableRecord
100
AcDbTextStyleTableRecord
  2
Standard
 70
     0
 40
0.0
 41
1.0
 50
0.0
 71
     0
 42
533.0403732820173
  3
txt
  4
BIGFONT.SHX
  0
STYLE
  5
39
330
3
100
AcDbSymbolTableRecord
100
AcDbTextStyleTableRecord
  2
ＭＳ ゴシック
 70
     0
 40
0.0
 41
1.0
 50
0.0
 71
     0
 42
533.0403732820173
  3
msgothic.ttc
  4
ＭＳ ゴシック
1001
ACAD
1000
ＭＳ ゴシック
1071
        0
  0
ENDTAB
  0
TABLE
  2
VIEW
  5
5
330
0
100
AcDbSymbolTable
 70
     0
  0
ENDTAB
  0
TABLE
  2
UCS
  5
6
330
0
100
AcDbSymbolTable
 70
     0
  0
ENDTAB
  0
TABLE
  2
APPID
  5
8
330
0
100
AcDbSymbolTable
 70
    14
  0
APPID
  5
16
330
8
100
AcDbSymbolTableRecord
100
AcDbRegAppTableRecord
  2
ACAD
 70
     0
  0
APPID
  5
5C5
330
8
100
AcDbSymbolTableRecord
100
AcDbRegAppTableRecord
  2
AcAecLayerStandard
 70
     0
  0
APPID
  5
913
330
8
100
AcDbSymbolTableRecord
100
AcDbRegAppTableRecord
  2
ACAD_DSTYLE_DIMBREAK
 70
     0
  0
APPID
  5
914
330
8
100
AcDbSymbolTableRecord
100
AcDbRegAppTableRecord
  2
ACAD_DSTYLE_DIMJAG
 70
     0
  0
APPID
  5
915
330
8
100
AcDbSymbolTableRecord
100
AcDbRegAppTableRecord
  2
ACAD_DSTYLE_DIMTALN
 70
     0
  0
APPID
  5
E4F
330
8
100
AcDbSymbolTableRecord
100
AcDbRegAppTableRecord
  2
ACAD_MLEADERVER
 70
     0
  0
APPID
  5
E79
330
8
100
AcDbSymbolTableRecord
100
AcDbRegAppTableRecord
  2
ACAD_PSEXT
 70
     0
  0
APPID
  5
E7A
330
8
100
AcDbSymbolTableRecord
100
AcDbRegAppTableRecord
  2
ACAD_NAV_VCDISPLAY
 70
     0
  0
APPID
  5
166E
330
8
100
AcDbSymbolTableRecord
100
AcDbRegAppTableRecord
  2
AcadAnnotative
 70
     0
  0
APPID
  5
166F
330
8
100
AcDbSymbolTableRecord
100
AcDbRegAppTableRecord
  2
GradientColor1ACI
 70
     0
  0
APPID
  5
1670
330
8
100
AcDbSymbolTableRecord
100
AcDbRegAppTableRecord
  2
GradientColor2ACI
 70
     0
  0
APPID
  5
20FE
330
8
100
AcDbSymbolTableRecord
100
AcDbRegAppTableRecord
  2
AcLayerTools
 70
     0
  0
APPID
  5
27AB
330
8
100
AcDbSymbolTableRecord
100
AcDbRegAppTableRecord
  2
ACAD_DSTYLE_DIMRADIAL_EXTENSION
 70
     0
  0
APPID
  5
4377
330
8
100
AcDbSymbolTableRecord
100
AcDbRegAppTableRecord
  2
RAK
 70
     0
  0
ENDTAB
  0
TABLE
  2
DIMSTYLE
  5
9
330
0
100
AcDbSymbolTable
 70
     2
100
AcDbDimStyleTable
  0
DIMSTYLE
105
18
330
9
100
AcDbSymbolTableRecord
100
AcDbDimStyleTableRecord
  2
Standard
 70
     0
178
     0
340
17
  0
DIMSTYLE
105
56
102
{ACAD_REACTORS
330
5ABD
330
5ABE
330
5BE3
330
5C0E
330
5C3F
330
5C52
330
5C72
330
5C81
330
5CA6
330
5CA7
330
5CC2
330
5CD5
330
5CD6
330
5CD7
330
5D03
102
}
330
9
100
AcDbSymbolTableRecord
100
AcDbDimStyleTableRecord
  2
tform線あり
 70
     0
  3
<>
  4
[]
 41
9.999389648437498
 42
25.0
 43
0.9999999999999999
 44
0.0
 73
     0
 74
     0
 77
     1
 78
    11
140
24.4326171875
141
0.0
143
1.0
146
0.8
147
10.0
171
     1
172
     1
174
     1
178
     0
179
     2
271
     1
272
     1
276
     2
284
    11
285
    11
286
    11
289
     0
340
39
341
4E
342
4E
  0
ENDTAB
  0
TABLE
  2
BLOCK_RECORD
  5
1
330
0
100
AcDbSymbolTable
 70
    50
  0
BLOCK_RECORD
  5
A
330
1
100
AcDbSymbolTableRecord
100
AcDbBlockTableRecord
  2
*MODEL_SPACE
340
20
 70
     0
280
     1
281
     0
  0
BLOCK_RECORD
  5
B
330
1
100
AcDbSymbolTableRecord
100
AcDbBlockTableRecord
  2
*PAPER_SPACE
340
21
 70
     0
280
     1
281
     0
  0
BLOCK_RECORD
  5
4E
330
1
100
AcDbSymbolTableRecord
100
AcDbBlockTableRecord
  2
_DOT
340
0
102
{BLKREFS
331
517C
331
517D
331
5189
331
518A
331
522C
331
522D
331
5239
331
523A
331
5255
331
5256
331
5262
331
5263
331
5285
331
5286
331
5294
331
5295
331
52B2
331
52B3
331
52BF
331
52C0
331
52D1
331
52D2
331
530B
331
530C
331
532D
331
532E
331
5338
331
5339
331
540E
331
540F
331
541A
331
541B
331
5426
331
5427
331
5B0C
331
5B0D
331
5B26
331
5B27
331
5B33
331
5B34
331
5B5A
331
5B5B
331
5B67
331
5B68
331
5B74
331
5B75
331
5B81
331
5B82
331
5B8E
331
5B8F
331
5B9D
331
5B9E
331
5BA8
331
5BA9
331
5BEA
331
5BEB
331
5C08
331
5C09
331
5C15
331
5C16
331
5C46
331
5C47
331
5C59
331
5C5A
331
5C66
331
5C67
331
5C7B
331
5C7C
331
5C8A
331
5C8B
331
5CAE
331
5CAF
331
5CB9
331
5CBA
331
5CC9
331
5CCA
331
5CDE
331
5CDF
331
5CEA
331
5CEB
331
5CF7
331
5CF8
331
5D0C
331
5D0D
102
}
 70
     0
280
     1
281
     0
  0
BLOCK_RECORD
  5
3A5
330
1
100
AcDbSymbolTableRecord
100
AcDbBlockTableRecord
  2
名称未設定-1
340
0
102
{BLKREFS
331
3D0
102
}
 70
     1
280
     1
281
     0
  0
BLOCK_RECORD
  5
3A8
330
1
100
AcDbSymbolTableRecord
100
AcDbBlockTableRecord
  2
block 2
340
0
102
{BLKREFS
331
3A7
102
}
 70
     0
280
     1
281
     0
  0
BLOCK_RECORD
  5
3AB
330
1
100
AcDbSymbolTableRecord
100
AcDbBlockTableRecord
  2
block 3
340
0
102
{BLKREFS
331
3AA
102
}
 70
     0
280
     1
281
     0
  0
BLOCK_RECORD
  5
3AE
330
1
100
AcDbSymbolTableRecord
100
AcDbBlockTableRecord
  2
block 4
340
0
102
{BLKREFS
331
3AD
102
}
 70
     0
280
     1
281
     0
  0
BLOCK_RECORD
  5
3BD
330
1
100
AcDbSymbolTableRecord
100
AcDbBlockTableRecord
  2
block 5
340
0
102
{BLKREFS
331
3BC
102
}
 70
     0
280
     1
281
     0
  0
BLOCK_RECORD
  5
11F0
330
1
100
AcDbSymbolTableRecord
100
AcDbBlockTableRecord
  2
BLOCK_2
340
0
102
{BLKREFS
331
1273
331
127B
331
127C
102
}
 70
     0
280
     1
281
     0
  0
BLOCK_RECORD
  5
38B6
330
1
100
AcDbSymbolTableRecord
100
AcDbBlockTableRecord
  2
mobile_latù
340
0
310
2800000020000000200000000100080000000000000400000000000000000000000000000000000000000000000080000080000000808000800000008000800080800000C0C0C000C0DCC000F0CAA6000020400000206000002080000020A0000020C0000020E00000400000004020000040400000406000004080000040A0
310
000040C0000040E00000600000006020000060400000606000006080000060A0000060C0000060E00000800000008020000080400000806000008080000080A0000080C0000080E00000A0000000A0200000A0400000A0600000A0800000A0A00000A0C00000A0E00000C0000000C0200000C0400000C0600000C0800000C0
310
A00000C0C00000C0E00000E0000000E0200000E0400000E0600000E0800000E0A00000E0C00000E0E00040000000400020004000400040006000400080004000A0004000C0004000E00040200000402020004020400040206000402080004020A0004020C0004020E000404000004040200040404000404060004040800040
310
40A0004040C0004040E00040600000406020004060400040606000406080004060A0004060C0004060E00040800000408020004080400040806000408080004080A0004080C0004080E00040A0000040A0200040A0400040A0600040A0800040A0A00040A0C00040A0E00040C0000040C0200040C0400040C0600040C08000
310
40C0A00040C0C00040C0E00040E0000040E0200040E0400040E0600040E0800040E0A00040E0C00040E0E00080000000800020008000400080006000800080008000A0008000C0008000E00080200000802020008020400080206000802080008020A0008020C0008020E00080400000804020008040400080406000804080
310
008040A0008040C0008040E00080600000806020008060400080606000806080008060A0008060C0008060E00080800000808020008080400080806000808080008080A0008080C0008080E00080A0000080A0200080A0400080A0600080A0800080A0A00080A0C00080A0E00080C0000080C0200080C0400080C0600080C0
310
800080C0A00080C0C00080C0E00080E0000080E0200080E0400080E0600080E0800080E0A00080E0C00080E0E000C0000000C0002000C0004000C0006000C0008000C000A000C000C000C000E000C0200000C0202000C0204000C0206000C0208000C020A000C020C000C020E000C0400000C0402000C0404000C0406000C0
310
408000C040A000C040C000C040E000C0600000C0602000C0604000C0606000C0608000C060A000C060C000C060E000C0800000C0802000C0804000C0806000C0808000C080A000C080C000C080E000C0A00000C0A02000C0A04000C0A06000C0A08000C0A0A000C0A0C000C0A0E000C0C00000C0C02000C0C04000C0C06000
310
C0C08000C0C0A000F0FBFF00A4A0A000808080000000FF0000FF000000FFFF00FF000000FF00FF00FFFF0000FFFFFF0049494949494949494949494949494949494949494949494949494949494949494949494949494949494949494949494949494949494949494949494949494949494949494949494949494949494949
310
49494949494949494949494949494949494949494949494949494949494949494949494949494949494949494949494949494949494949494949494949494949494949494949494949494949494949494949FAFAFAFAFAFAFAFAFAFAFAFAFAFAFAFAFAFAFAFAFAFAFAFAFAFAFAFAFAFA4949FAFA4949494949494949494949
310
494949494949494949494949494949FAFA4949FAFA4949494949494949494949494949494949494949494949494949FAFA4949FAFA4949494949494949494949494949494949494949494949494949FAFA4949FAFA4949494949494949494949494949494949494949494949494949FAFA4949FAFA49494949494949494949
310
49494949494949494949494949494949FAFA4949FAFA4949494949494949494949494949494949494949494949494949FAFA4949FAFA4949494949494949494949494949494949494949494949494949FAFA4949FAFA4949494949494949494949494949494949494949494949494949FAFA4949FAFA494949494949494949
310
4949494949494949494949494949494949FAFA4949FAFA4949494949494949494949494949494949494949494949494949FAFA4949FAFA4949494949494949494949494949494949494949494949494949FAFA4949FAFA4949494949494949494949494949494949494949494949494949FAFA4949FAFA4949494949494949
310
494949494949494949494949494949494949FAFA4949FAFA4949494949494949494949494949494949494949494949494949FAFA4949FAFA4949494949494949494949494949494949494949494949494949FAFA4949FAFA4949494949494949494949494949494949494949494949494949FAFA4949FAFA49494949494949
310
49494949494949494949494949494949494949FAFA4949FAFAFAFAFAFAFAFAFAFAFAFAFAFAFAFAFAFAFAFAFAFAFAFAFAFAFAFAFAFA4949FAFAFAFAFAFAFAFAFAFAFAFAFAFAFAFAFAFAFAFAFAFAFAFAFAFAFAFAFAFA4949FAFA4949494949494949494949494949494949494949494949494949FAFA4949FAFAFAFAFAFAFAFA
310
FAFAFAFAFAFAFAFAFAFAFAFAFAFAFAFAFAFAFAFAFAFA494949494949494949494949494949494949494949494949494949494949494949494949494949494949494949494949494949494949494949494949494949494949494949494949494949494949494949494949494949494949494949494949494949494949494949
310
4949494949494949494949494949494949494949494949494949494949494949494949494949494949494949494949494949494949494949
102
{BLKREFS
331
3B99
331
467E
331
4F9F
102
}
 70
     4
280
     1
281
     0
  0
BLOCK_RECORD
  5
5176
330
1
100
AcDbSymbolTableRecord
100
AcDbBlockTableRecord
  2
*D8
340
0
 70
     0
280
     1
281
     0
  0
BLOCK_RECORD
  5
5183
330
1
100
AcDbSymbolTableRecord
100
AcDbBlockTableRecord
  2
*D9
340
0
 70
     0
280
     1
281
     0
  0
BLOCK_RECORD
  5
5226
330
1
100
AcDbSymbolTableRecord
100
AcDbBlockTableRecord
  2
*D10
340
0
 70
     0
280
     1
281
     0
  0
BLOCK_RECORD
  5
5233
330
1
100
AcDbSymbolTableRecord
100
AcDbBlockTableRecord
  2
*D11
340
0
 70
     0
280
     1
281
     0
  0
BLOCK_RECORD
  5
524F
330
1
100
AcDbSymbolTableRecord
100
AcDbBlockTableRecord
  2
*D12
340
0
 70
     0
280
     1
281
     0
  0
BLOCK_RECORD
  5
525C
330
1
100
AcDbSymbolTableRecord
100
AcDbBlockTableRecord
  2
*D13
340
0
 70
     0
280
     1
281
     0
  0
BLOCK_RECORD
  5
527F
330
1
100
AcDbSymbolTableRecord
100
AcDbBlockTableRecord
  2
*D14
340
0
 70
     0
280
     1
281
     0
  0
BLOCK_RECORD
  5
528E
330
1
100
AcDbSymbolTableRecord
100
AcDbBlockTableRecord
  2
*D15
340
0
 70
     0
280
     1
281
     0
  0
BLOCK_RECORD
  5
52AC
330
1
100
AcDbSymbolTableRecord
100
AcDbBlockTableRecord
  2
*D16
340
0
 70
     0
280
     1
281
     0
  0
BLOCK_RECORD
  5
52B9
330
1
100
AcDbSymbolTableRecord
100
AcDbBlockTableRecord
  2
*D17
340
0
 70
     0
280
     1
281
     0
  0
BLOCK_RECORD
  5
52CB
330
1
100
AcDbSymbolTableRecord
100
AcDbBlockTableRecord
  2
*D18
340
0
 70
     0
280
     1
281
     0
  0
BLOCK_RECORD
  5
5305
330
1
100
AcDbSymbolTableRecord
100
AcDbBlockTableRecord
  2
*D19
340
0
 70
     0
280
     1
281
     0
  0
BLOCK_RECORD
  5
5327
330
1
100
AcDbSymbolTableRecord
100
AcDbBlockTableRecord
  2
*D20
340
0
 70
     0
280
     1
281
     0
  0
BLOCK_RECORD
  5
5333
330
1
100
AcDbSymbolTableRecord
100
AcDbBlockTableRecord
  2
*D21
340
0
 70
     0
280
     1
281
     0
  0
BLOCK_RECORD
  5
5407
330
1
100
AcDbSymbolTableRecord
100
AcDbBlockTableRecord
  2
*D22
340
0
 70
     0
280
     1
281
     0
  0
BLOCK_RECORD
  5
5414
330
1
100
AcDbSymbolTableRecord
100
AcDbBlockTableRecord
  2
*D23
340
0
 70
     0
280
     1
281
     0
  0
BLOCK_RECORD
  5
5420
330
1
100
AcDbSymbolTableRecord
100
AcDbBlockTableRecord
  2
*D24
340
0
 70
     0
280
     1
281
     0
  0
BLOCK_RECORD
  5
5B06
330
1
100
AcDbSymbolTableRecord
100
AcDbBlockTableRecord
  2
*D25
340
0
 70
     0
280
     1
281
     0
  0
BLOCK_RECORD
  5
5B20
330
1
100
AcDbSymbolTableRecord
100
AcDbBlockTableRecord
  2
*D26
340
0
 70
     0
280
     1
281
     0
  0
BLOCK_RECORD
  5
5B2D
330
1
100
AcDbSymbolTableRecord
100
AcDbBlockTableRecord
  2
*D27
340
0
 70
     0
280
     1
281
     0
  0
BLOCK_RECORD
  5
5B54
330
1
100
AcDbSymbolTableRecord
100
AcDbBlockTableRecord
  2
*D28
340
0
 70
     0
280
     1
281
     0
  0
BLOCK_RECORD
  5
5B61
330
1
100
AcDbSymbolTableRecord
100
AcDbBlockTableRecord
  2
*D29
340
0
 70
     0
280
     1
281
     0
  0
BLOCK_RECORD
  5
5B6E
330
1
100
AcDbSymbolTableRecord
100
AcDbBlockTableRecord
  2
*D30
340
0
 70
     0
280
     1
281
     0
  0
BLOCK_RECORD
  5
5B7B
330
1
100
AcDbSymbolTableRecord
100
AcDbBlockTableRecord
  2
*D31
340
0
 70
     0
280
     1
281
     0
  0
BLOCK_RECORD
  5
5B88
330
1
100
AcDbSymbolTableRecord
100
AcDbBlockTableRecord
  2
*D32
340
0
 70
     0
280
     1
281
     0
  0
BLOCK_RECORD
  5
5B95
330
1
100
AcDbSymbolTableRecord
100
AcDbBlockTableRecord
  2
*D33
340
0
 70
     0
280
     1
281
     0
  0
BLOCK_RECORD
  5
5BA2
330
1
100
AcDbSymbolTableRecord
100
AcDbBlockTableRecord
  2
*D34
340
0
 70
     0
280
     1
281
     0
  0
BLOCK_RECORD
  5
5BE4
330
1
100
AcDbSymbolTableRecord
100
AcDbBlockTableRecord
  2
*D35
340
0
 70
     0
280
     1
281
     0
  0
BLOCK_RECORD
  5
5C02
330
1
100
AcDbSymbolTableRecord
100
AcDbBlockTableRecord
  2
*D36
340
0
 70
     0
280
     1
281
     0
  0
BLOCK_RECORD
  5
5C0F
330
1
100
AcDbSymbolTableRecord
100
AcDbBlockTableRecord
  2
*D37
340
0
 70
     0
280
     1
281
     0
  0
BLOCK_RECORD
  5
5C40
330
1
100
AcDbSymbolTableRecord
100
AcDbBlockTableRecord
  2
*D38
340
0
 70
     0
280
     1
281
     0
  0
BLOCK_RECORD
  5
5C53
330
1
100
AcDbSymbolTableRecord
100
AcDbBlockTableRecord
  2
*D39
340
0
 70
     0
280
     1
281
     0
  0
BLOCK_RECORD
  5
5C60
330
1
100
AcDbSymbolTableRecord
100
AcDbBlockTableRecord
  2
*D40
340
0
 70
     0
280
     1
281
     0
  0
BLOCK_RECORD
  5
5C75
330
1
100
AcDbSymbolTableRecord
100
AcDbBlockTableRecord
  2
*D41
340
0
 70
     0
280
     1
281
     0
  0
BLOCK_RECORD
  5
5C84
330
1
100
AcDbSymbolTableRecord
100
AcDbBlockTableRecord
  2
*D42
340
0
 70
     0
280
     1
281
     0
  0
BLOCK_RECORD
  5
5CA8
330
1
100
AcDbSymbolTableRecord
100
AcDbBlockTableRecord
  2
*D43
340
0
 70
     0
280
     1
281
     0
  0
BLOCK_RECORD
  5
5CB3
330
1
100
AcDbSymbolTableRecord
100
AcDbBlockTableRecord
  2
*D44
340
0
 70
     0
280
     1
281
     0
  0
BLOCK_RECORD
  5
5CC3
330
1
100
AcDbSymbolTableRecord
100
AcDbBlockTableRecord
  2
*D45
340
0
 70
     0
280
     1
281
     0
  0
BLOCK_RECORD
  5
5CD8
330
1
100
AcDbSymbolTableRecord
100
AcDbBlockTableRecord
  2
*D46
340
0
 70
     0
280
     1
281
     0
  0
BLOCK_RECORD
  5
5CE4
330
1
100
AcDbSymbolTableRecord
100
AcDbBlockTableRecord
  2
*D47
340
0
 70
     0
280
     1
281
     0
  0
BLOCK_RECORD
  5
5CF0
330
1
100
AcDbSymbolTableRecord
100
AcDbBlockTableRecord
  2
*D48
340
0
 70
     0
280
     1
281
     0
  0
BLOCK_RECORD
  5
5D06
330
1
100
AcDbSymbolTableRecord
100
AcDbBlockTableRecord
  2
*D49
340
0
 70
     0
280
     1
281
     0
  0
ENDTAB
  0
ENDSEC
  0
SECTION
  2
BLOCKS
  0
BLOCK
  5
D
330
A
100
AcDbEntity
  8
0
390
1D
100
AcDbBlockBegin
  2
*MODEL_SPACE
 70
     0
 10
0.0
 20
0.0
 30
0.0
  3
*MODEL_SPACE
  1
*MODEL_SPACE
  0
ENDBLK
  5
E
330
A
100
AcDbEntity
  8
0
390
1D
100
AcDbBlockEnd
  0
BLOCK
  5
F
330
B
100
AcDbEntity
 67
     1
  8
0
390
1D
100
AcDbBlockBegin
  2
*PAPER_SPACE
 70
     0
 10
0.0
 20
0.0
 30
0.0
  3
*PAPER_SPACE
  1
*PAPER_SPACE
  0
ENDBLK
  5
10
330
B
100
AcDbEntity
 67
     1
  8
0
390
1D
100
AcDbBlockEnd
  0
BLOCK
  5
2C14
330
4E
100
AcDbEntity
  8
0
390
1D
100
AcDbBlockBegin
  2
_DOT
 70
     0
 10
0.0
 20
0.0
 30
0.0
  3
_DOT
  1
_DOT
  0
POLYLINE
  5
2C16
330
4E
100
AcDbEntity
  8
0
  6
ByBlock
 62
     0
370
    -2
390
1D
100
AcDb2dPolyline
 66
     1
 10
0.0
 20
0.0
 30
0.0
 70
     1
 40
0.5
 41
0.5
  0
VERTEX
  5
2C17
330
2C16
100
AcDbEntity
  8
0
  6
ByBlock
 62
     0
370
    -2
390
1D
100
AcDbVertex
100
AcDb2dVertex
 10
-0.25
 20
0.0
 30
0.0
 42
1.0
  0
VERTEX
  5
2C18
330
2C16
100
AcDbEntity
  8
0
  6
ByBlock
 62
     0
370
    -2
390
1D
100
AcDbVertex
100
AcDb2dVertex
 10
0.25
 20
0.0
 30
0.0
 42
1.0
  0
SEQEND
  5
2C19
330
2C16
100
AcDbEntity
  8
0
390
1D
  0
LINE
  5
2C1A
330
4E
100
AcDbEntity
  8
0
  6
ByBlock
 62
     0
370
    -2
390
1D
100
AcDbLine
 10
-0.5
 20
0.0
 30
0.0
 11
-1.0
 21
0.0
 31
0.0
  0
ENDBLK
  5
2C1B
330
4E
100
AcDbEntity
  8
0
390
1D
100
AcDbBlockEnd
  0
BLOCK
  5
3A6
330
3A5
100
AcDbEntity
  8
0
100
AcDbBlockBegin
  2
名称未設定-1
 70
     0
 10
0.0
 20
0.0
 30
0.0
  3
名称未設定-1
  1
名称未設定-1
  0
INSERT
  5
3A7
330
3A5
100
AcDbEntity
  8
レイヤー 1
100
AcDbBlockReference
  2
block 2
 10
0.0
 20
0.0
 30
0.0
  0
ENDBLK
  5
3CC
330
3A5
100
AcDbEntity
  8
0
100
AcDbBlockEnd
  0
BLOCK
  5
3A9
330
3A8
100
AcDbEntity
  8
0
100
AcDbBlockBegin
  2
block 2
 70
     0
 10
0.0
 20
0.0
 30
0.0
  3
block 2
  1
block 2
  0
INSERT
  5
3AA
330
3A8
100
AcDbEntity
  8
レイヤー 1
100
AcDbBlockReference
  2
block 3
 10
0.0
 20
0.0
 30
0.0
  0
ENDBLK
  5
3CB
330
3A8
100
AcDbEntity
  8
0
100
AcDbBlockEnd
  0
BLOCK
  5
3AC
330
3AB
100
AcDbEntity
  8
0
100
AcDbBlockBegin
  2
block 3
 70
     0
 10
0.0
 20
0.0
 30
0.0
  3
block 3
  1
block 3
  0
INSERT
  5
3AD
330
3AB
100
AcDbEntity
  8
レイヤー 1
100
AcDbBlockReference
  2
block 4
 10
0.0
 20
0.0
 30
0.0
  0
ENDBLK
  5
3CA
330
3AB
100
AcDbEntity
  8
0
100
AcDbBlockEnd
  0
BLOCK
  5
3AF
330
3AE
100
AcDbEntity
  8
0
100
AcDbBlockBegin
  2
block 4
 70
     0
 10
0.0
 20
0.0
 30
0.0
  3
block 4
  1
block 4
  0
POLYLINE
  5
3B0
330
3AE
100
AcDbEntity
  8
レイヤー 1
370
     0
100
AcDb2dPolyline
 66
     1
 10
0.0
 20
0.0
 30
0.0
  0
VERTEX
  5
3B1
330
3B0
100
AcDbEntity
  8
レイヤー 1
370
     0
100
AcDbVertex
100
AcDb2dVertex
 10
83.79545727667795
 20
167.6444858234922
 30
0.0
  0
VERTEX
  5
3B2
330
3B0
100
AcDbEntity
  8
レイヤー 1
370
     0
100
AcDbVertex
100
AcDb2dVertex
 10
83.79545727667795
 20
159.7968976406313
 30
0.0
  0
VERTEX
  5
3B3
330
3B0
100
AcDbEntity
  8
レイヤー 1
370
     0
100
AcDbVertex
100
AcDb2dVertex
 10
71.3631329975216
 20
159.7968976406313
 30
0.0
  0
VERTEX
  5
3B4
330
3B0
100
AcDbEntity
  8
レイヤー 1
370
     0
100
AcDbVertex
100
AcDb2dVertex
 10
71.3631329975216
 20
127.8027915271048
 30
0.0
  0
VERTEX
  5
3B5
330
3B0
100
AcDbEntity
  8
レイヤー 1
370
     0
100
AcDbVertex
100
AcDb2dVertex
 10
60.43011526263018
 20
127.8027915271048
 30
0.0
  0
VERTEX
  5
3B6
330
3B0
100
AcDbEntity
  8
レイヤー 1
370
     0
100
AcDbVertex
100
AcDb2dVertex
 10
60.43011526263018
 20
159.7968976406313
 30
0.0
  0
VERTEX
  5
3B7
330
3B0
100
AcDbEntity
  8
レイヤー 1
370
     0
100
AcDbVertex
100
AcDb2dVertex
 10
48.21793273020759
 20
159.7968976406313
 30
0.0
  0
VERTEX
  5
3B8
330
3B0
100
AcDbEntity
  8
レイヤー 1
370
     0
100
AcDbVertex
100
AcDb2dVertex
 10
48.21793273020759
 20
167.6444858234922
 30
0.0
  0
VERTEX
  5
3B9
330
3B0
100
AcDbEntity
  8
レイヤー 1
370
     0
100
AcDbVertex
100
AcDb2dVertex
 10
83.79545727667795
 20
167.6444858234922
 30
0.0
  0
SEQEND
  5
3BA
330
3B0
100
AcDbEntity
  8
レイヤー 1
370
     0
  0
HATCH
  5
3BB
330
3AE
100
AcDbEntity
  8
レイヤー 1
 62
   250
420
  2234388
100
AcDbHatch
 10
0.0
 20
0.0
 30
0.0
210
0.0
220
0.0
230
1.0
  2
SOLID
 70
     1
 71
     0
 91
        1
 92
        1
 93
        8
 72
     1
 10
83.79545727667795
 20
167.6444858234922
 11
83.79545727667795
 21
159.7968976406313
 72
     1
 10
83.79545727667795
 20
159.7968976406313
 11
71.3631329975216
 21
159.7968976406313
 72
     1
 10
71.3631329975216
 20
159.7968976406313
 11
71.3631329975216
 21
127.8027915271048
 72
     1
 10
71.3631329975216
 20
127.8027915271048
 11
60.43011526263018
 21
127.8027915271048
 72
     1
 10
60.43011526263018
 20
127.8027915271048
 11
60.43011526263018
 21
159.7968976406313
 72
     1
 10
60.43011526263018
 20
159.7968976406313
 11
48.21793273020759
 21
159.7968976406313
 72
     1
 10
48.21793273020759
 20
159.7968976406313
 11
48.21793273020759
 21
167.6444858234922
 72
     1
 10
48.21793273020759
 20
167.6444858234922
 11
83.79545727667795
 21
167.6444858234922
 97
        0
 75
     2
 76
     1
 98
        0
  0
INSERT
  5
3BC
330
3AE
100
AcDbEntity
  8
レイヤー 1
100
AcDbBlockReference
  2
block 5
 10
0.0
 20
0.0
 30
0.0
  0
ENDBLK
  5
3C9
330
3AE
100
AcDbEntity
  8
0
100
AcDbBlockEnd
  0
BLOCK
  5
3BE
330
3BD
100
AcDbEntity
  8
0
100
AcDbBlockBegin
  2
block 5
 70
     0
 10
0.0
 20
0.0
 30
0.0
  3
block 5
  1
block 5
  0
SPLINE
  5
3BF
330
3BD
100
AcDbEntity
  8
レイヤー 1
370
     0
100
AcDbSpline
210
0.0
220
0.0
230
1.0
 70
    11
 71
     3
 72
    56
 73
    52
 74
     0
 42
0.000000001
 43
0.0000000001
 40
0.0
 40
0.0
 40
0.0
 40
0.0
 40
1.0
 40
1.0
 40
1.0
 40
2.0
 40
2.0
 40
2.0
 40
3.0
 40
3.0
 40
3.0
 40
4.0
 40
4.0
 40
4.0
 40
5.0
 40
5.0
 40
5.0
 40
6.0
 40
6.0
 40
6.0
 40
7.0
 40
7.0
 40
7.0
 40
8.0
 40
8.0
 40
8.0
 40
9.0
 40
9.0
 40
9.0
 40
10.0
 40
10.0
 40
10.0
 40
11.0
 40
11.0
 40
11.0
 40
12.0
 40
12.0
 40
12.0
 40
13.0
 40
13.0
 40
13.0
 40
14.0
 40
14.0
 40
14.0
 40
15.0
 40
15.0
 40
15.0
 40
16.0
 40
16.0
 40
16.0
 40
17.0
 40
17.0
 40
17.0
 40
17.0
 10
100.4504378777679
 20
166.69157178364
 30
0.0
 10
101.9848844191641
 20
167.1313385124438
 30
0.0
 10
103.9637485713373
 20
166.7649523658846
 30
0.0
 10
103.9637485713373
 20
166.7649523658846
 30
0.0
 10
103.9637485713373
 20
166.7649523658846
 30
0.0
 10
103.0132460999156
 20
163.911205638077
 30
0.0
 10
103.0132460999156
 20
163.911205638077
 30
0.0
 10
103.0132460999156
 20
163.911205638077
 30
0.0
 10
101.0674548862189
 20
164.3601018759394
 30
0.0
 10
99.57090442016032
 20
163.1805004036133
 30
0.0
 10
98.40508333886608
 20
162.258247733807
 30
0.0
 10
97.65301849830304
 20
159.804132345923
 30
0.0
 10
97.3598406791005
 20
158.8699940888517
 30
0.0
 10
97.3598406791005
 20
158.8699940888517
 30
0.0
 10
96.07137411762282
 20
154.9119212747295
 30
0.0
 10
96.07137411762282
 20
154.9119212747295
 30
0.0
 10
96.07137411762282
 20
154.9119212747295
 30
0.0
 10
100.3012651448482
 20
154.9119212747295
 30
0.0
 10
100.3012651448482
 20
154.9119212747295
 30
0.0
 10
100.3012651448482
 20
154.9119212747295
 30
0.0
 10
99.64152892419852
 20
152.4199098115079
 30
0.0
 10
99.64152892419852
 20
152.4199098115079
 30
0.0
 10
99.64152892419852
 20
152.4199098115079
 30
0.0
 10
95.38097652692731
 20
152.4199098115079
 30
0.0
 10
95.38097652692731
 20
152.4199098115079
 30
0.0
 10
95.38097652692731
 20
152.4199098115079
 30
0.0
 10
87.75353009080013
 20
127.8027915271048
 30
0.0
 10
87.75353009080013
 20
127.8027915271048
 30
0.0
 10
87.75353009080013
 20
127.8027915271048
 30
0.0
 10
85.36538832498108
 20
127.8027915271048
 30
0.0
 10
85.36538832498108
 20
127.8027915271048
 30
0.0
 10
85.36538832498108
 20
127.8027915271048
 30
0.0
 10
93.00006946639998
 20
152.4199098115079
 30
0.0
 10
93.00006946639998
 20
152.4199098115079
 30
0.0
 10
93.00006946639998
 20
152.4199098115079
 30
0.0
 10
89.85297266450198
 20
152.4199098115079
 30
0.0
 10
89.85297266450198
 20
152.4199098115079
 30
0.0
 10
89.85297266450198
 20
152.4199098115079
 30
0.0
 10
90.51270888515164
 20
154.9119212747295
 30
0.0
 10
90.51270888515164
 20
154.9119212747295
 30
0.0
 10
90.51270888515164
 20
154.9119212747295
 30
0.0
 10
93.6904670570955
 20
154.9119212747295
 30
0.0
 10
93.6904670570955
 20
154.9119212747295
 30
0.0
 10
93.6904670570955
 20
154.9119212747295
 30
0.0
 10
94.81598049462158
 20
158.3616699146644
 30
0.0
 10
94.81598049462158
 20
158.3616699146644
 30
0.0
 10
95.7237637538445
 20
161.2605474231013
 30
0.0
 10
96.4968436907311
 20
162.8139420021662
 30
0.0
 10
97.15657991138076
 20
163.9844139654337
 30
0.0
 10
97.81183750494507
 20
165.1523021053827
 30
0.0
 10
99.1047826935081
 20
166.3084769129547
 30
0.0
 10
100.4504378777679
 20
166.69157178364
 30
0.0
  0
HATCH
  5
3C0
330
3BD
100
AcDbEntity
  8
レイヤー 1
 62
   250
420
  2234388
100
AcDbHatch
 10
0.0
 20
0.0
 30
0.0
210
0.0
220
0.0
230
1.0
  2
SOLID
 70
     1
 71
     0
 91
        1
 92
        1
 93
        1
 72
     4
 94
        3
 73
     0
 74
     1
 95
       56
 96
       52
 40
0.0
 40
0.0
 40
0.0
 40
0.0
 40
1.0
 40
1.0
 40
1.0
 40
2.0
 40
2.0
 40
2.0
 40
3.0
 40
3.0
 40
3.0
 40
4.0
 40
4.0
 40
4.0
 40
5.0
 40
5.0
 40
5.0
 40
6.0
 40
6.0
 40
6.0
 40
7.0
 40
7.0
 40
7.0
 40
8.0
 40
8.0
 40
8.0
 40
9.0
 40
9.0
 40
9.0
 40
10.0
 40
10.0
 40
10.0
 40
11.0
 40
11.0
 40
11.0
 40
12.0
 40
12.0
 40
12.0
 40
13.0
 40
13.0
 40
13.0
 40
14.0
 40
14.0
 40
14.0
 40
15.0
 40
15.0
 40
15.0
 40
16.0
 40
16.0
 40
16.0
 40
17.0
 40
17.0
 40
17.0
 40
17.0
 10
100.4504378777679
 20
166.69157178364
 10
101.9848844191641
 20
167.1313385124438
 10
103.9637485713373
 20
166.7649523658846
 10
103.9637485713373
 20
166.7649523658846
 10
103.9637485713373
 20
166.7649523658846
 10
103.0132460999156
 20
163.911205638077
 10
103.0132460999156
 20
163.911205638077
 10
103.0132460999156
 20
163.911205638077
 10
101.0674548862189
 20
164.3601018759394
 10
99.57090442016032
 20
163.1805004036133
 10
98.40508333886608
 20
162.258247733807
 10
97.65301849830304
 20
159.804132345923
 10
97.3598406791005
 20
158.8699940888517
 10
97.3598406791005
 20
158.8699940888517
 10
96.07137411762282
 20
154.9119212747295
 10
96.07137411762282
 20
154.9119212747295
 10
96.07137411762282
 20
154.9119212747295
 10
100.3012651448482
 20
154.9119212747295
 10
100.3012651448482
 20
154.9119212747295
 10
100.3012651448482
 20
154.9119212747295
 10
99.64152892419852
 20
152.4199098115079
 10
99.64152892419852
 20
152.4199098115079
 10
99.64152892419852
 20
152.4199098115079
 10
95.38097652692731
 20
152.4199098115079
 10
95.38097652692731
 20
152.4199098115079
 10
95.38097652692731
 20
152.4199098115079
 10
87.75353009080013
 20
127.8027915271048
 10
87.75353009080013
 20
127.8027915271048
 10
87.75353009080013
 20
127.8027915271048
 10
85.36538832498108
 20
127.8027915271048
 10
85.36538832498108
 20
127.8027915271048
 10
85.36538832498108
 20
127.8027915271048
 10
93.00006946639998
 20
152.4199098115079
 10
93.00006946639998
 20
152.4199098115079
 10
93.00006946639998
 20
152.4199098115079
 10
89.85297266450198
 20
152.4199098115079
 10
89.85297266450198
 20
152.4199098115079
 10
89.85297266450198
 20
152.4199098115079
 10
90.51270888515164
 20
154.9119212747295
 10
90.51270888515164
 20
154.9119212747295
 10
90.51270888515164
 20
154.9119212747295
 10
93.6904670570955
 20
154.9119212747295
 10
93.6904670570955
 20
154.9119212747295
 10
93.6904670570955
 20
154.9119212747295
 10
94.81598049462158
 20
158.3616699146644
 10
94.81598049462158
 20
158.3616699146644
 10
95.7237637538445
 20
161.2605474231013
 10
96.4968436907311
 20
162.8139420021662
 10
97.15657991138076
 20
163.9844139654337
 10
97.81183750494507
 20
165.1523021053827
 10
99.1047826935081
 20
166.3084769129547
 10
100.4504378777679
 20
166.69157178364
 97
        0
 75
     2
 76
     1
 98
        0
  0
SPLINE
  5
3C1
330
3BD
100
AcDbEntity
  8
レイヤー 1
370
     0
100
AcDbSpline
210
0.0
220
0.0
230
1.0
 70
    11
 71
     3
 72
    38
 73
    34
 74
     0
 42
0.000000001
 43
0.0000000001
 40
0.0
 40
0.0
 40
0.0
 40
0.0
 40
1.0
 40
1.0
 40
1.0
 40
2.0
 40
2.0
 40
2.0
 40
3.0
 40
3.0
 40
3.0
 40
4.0
 40
4.0
 40
4.0
 40
5.0
 40
5.0
 40
5.0
 40
6.0
 40
6.0
 40
6.0
 40
7.0
 40
7.0
 40
7.0
 40
8.0
 40
8.0
 40
8.0
 40
9.0
 40
9.0
 40
9.0
 40
10.0
 40
10.0
 40
10.0
 40
11.0
 40
11.0
 40
11.0
 40
11.0
 10
126.377554584636
 20
154.8151140277308
 30
0.0
 10
126.377554584636
 20
154.8151140277308
 30
0.0
 10
128.8311532078563
 20
154.8151140277308
 30
0.0
 10
128.8311532078563
 20
154.8151140277308
 30
0.0
 10
128.8311532078563
 20
154.8151140277308
 30
0.0
 10
127.7345785914971
 20
151.3062819612468
 30
0.0
 10
127.7345785914971
 20
151.3062819612468
 30
0.0
 10
128.571392836906
 20
152.2922689395754
 30
0.0
 10
129.8860421413442
 20
153.604506675583
 30
0.0
 10
131.0163787157314
 20
154.2664822097754
 30
0.0
 10
132.7044766171327
 20
155.2500576196734
 30
0.0
 10
133.6642808525008
 20
155.3847609420097
 30
0.0
 10
134.7284715499351
 20
155.3565111403944
 30
0.0
 10
134.7284715499351
 20
155.3565111403944
 30
0.0
 10
133.6877075172549
 20
152.0345756272799
 30
0.0
 10
133.6877075172549
 20
152.0345756272799
 30
0.0
 10
133.011434827367
 20
152.3184516825359
 30
0.0
 10
130.930940291334
 20
151.7768823149844
 30
0.0
 10
129.739280976855
 20
150.9162968950455
 30
0.0
 10
128.66613302525
 20
150.1454562717016
 30
0.0
 10
127.9192358313239
 20
149.4857200510519
 30
0.0
 10
127.0393578639405
 20
147.8282835196966
 30
0.0
 10
126.164647543194
 20
146.1699857139017
 30
0.0
 10
125.4742499524985
 20
143.5262176944419
 30
0.0
 10
124.2822461282437
 20
139.6959580071401
 30
0.0
 10
124.2822461282437
 20
139.6959580071401
 30
0.0
 10
120.5753209406769
 20
127.8027915271048
 30
0.0
 10
120.5753209406769
 20
127.8027915271048
 30
0.0
 10
120.5753209406769
 20
127.8027915271048
 30
0.0
 10
118.1964809388044
 20
127.8027915271048
 30
0.0
 10
118.1964809388044
 20
127.8027915271048
 30
0.0
 10
118.1964809388044
 20
127.8027915271048
 30
0.0
 10
126.377554584636
 20
154.8151140277308
 30
0.0
 10
126.377554584636
 20
154.8151140277308
 30
0.0
  0
HATCH
  5
3C2
330
3BD
100
AcDbEntity
  8
レイヤー 1
 62
   250
420
  2234388
100
AcDbHatch
 10
0.0
 20
0.0
 30
0.0
210
0.0
220
0.0
230
1.0
  2
SOLID
 70
     1
 71
     0
 91
        1
 92
        1
 93
        1
 72
     4
 94
        3
 73
     0
 74
     1
 95
       38
 96
       34
 40
0.0
 40
0.0
 40
0.0
 40
0.0
 40
1.0
 40
1.0
 40
1.0
 40
2.0
 40
2.0
 40
2.0
 40
3.0
 40
3.0
 40
3.0
 40
4.0
 40
4.0
 40
4.0
 40
5.0
 40
5.0
 40
5.0
 40
6.0
 40
6.0
 40
6.0
 40
7.0
 40
7.0
 40
7.0
 40
8.0
 40
8.0
 40
8.0
 40
9.0
 40
9.0
 40
9.0
 40
10.0
 40
10.0
 40
10.0
 40
11.0
 40
11.0
 40
11.0
 40
11.0
 10
126.377554584636
 20
154.8151140277308
 10
126.377554584636
 20
154.8151140277308
 10
128.8311532078563
 20
154.8151140277308
 10
128.8311532078563
 20
154.8151140277308
 10
128.8311532078563
 20
154.8151140277308
 10
127.7345785914971
 20
151.3062819612468
 10
127.7345785914971
 20
151.3062819612468
 10
128.571392836906
 20
152.2922689395754
 10
129.8860421413442
 20
153.604506675583
 10
131.0163787157314
 20
154.2664822097754
 10
132.7044766171327
 20
155.2500576196734
 10
133.6642808525008
 20
155.3847609420097
 10
134.7284715499351
 20
155.3565111403944
 10
134.7284715499351
 20
155.3565111403944
 10
133.6877075172549
 20
152.0345756272799
 10
133.6877075172549
 20
152.0345756272799
 10
133.011434827367
 20
152.3184516825359
 10
130.930940291334
 20
151.7768823149844
 10
129.739280976855
 20
150.9162968950455
 10
128.66613302525
 20
150.1454562717016
 10
127.9192358313239
 20
149.4857200510519
 10
127.0393578639405
 20
147.8282835196966
 10
126.164647543194
 20
146.1699857139017
 10
125.4742499524985
 20
143.5262176944419
 10
124.2822461282437
 20
139.6959580071401
 10
124.2822461282437
 20
139.6959580071401
 10
120.5753209406769
 20
127.8027915271048
 10
120.5753209406769
 20
127.8027915271048
 10
120.5753209406769
 20
127.8027915271048
 10
118.1964809388044
 20
127.8027915271048
 10
118.1964809388044
 20
127.8027915271048
 10
118.1964809388044
 20
127.8027915271048
 10
126.377554584636
 20
154.8151140277308
 10
126.377554584636
 20
154.8151140277308
 97
        0
 75
     2
 76
     1
 98
        0
  0
SPLINE
  5
3C3
330
3BD
100
AcDbEntity
  8
レイヤー 1
370
     0
100
AcDbSpline
210
0.0
220
0.0
230
1.0
 70
    11
 71
     3
 72
   104
 73
   100
 74
     0
 42
0.000000001
 43
0.0000000001
 40
0.0
 40
0.0
 40
0.0
 40
0.0
 40
1.0
 40
1.0
 40
1.0
 40
2.0
 40
2.0
 40
2.0
 40
3.0
 40
3.0
 40
3.0
 40
4.0
 40
4.0
 40
4.0
 40
5.0
 40
5.0
 40
5.0
 40
6.0
 40
6.0
 40
6.0
 40
7.0
 40
7.0
 40
7.0
 40
8.0
 40
8.0
 40
8.0
 40
9.0
 40
9.0
 40
9.0
 40
10.0
 40
10.0
 40
10.0
 40
11.0
 40
11.0
 40
11.0
 40
12.0
 40
12.0
 40
12.0
 40
13.0
 40
13.0
 40
13.0
 40
14.0
 40
14.0
 40
14.0
 40
15.0
 40
15.0
 40
15.0
 40
16.0
 40
16.0
 40
16.0
 40
17.0
 40
17.0
 40
17.0
 40
18.0
 40
18.0
 40
18.0
 40
19.0
 40
19.0
 40
19.0
 40
20.0
 40
20.0
 40
20.0
 40
21.0
 40
21.0
 40
21.0
 40
22.0
 40
22.0
 40
22.0
 40
23.0
 40
23.0
 40
23.0
 40
24.0
 40
24.0
 40
24.0
 40
25.0
 40
25.0
 40
25.0
 40
26.0
 40
26.0
 40
26.0
 40
27.0
 40
27.0
 40
27.0
 40
28.0
 40
28.0
 40
28.0
 40
29.0
 40
29.0
 40
29.0
 40
30.0
 40
30.0
 40
30.0
 40
31.0
 40
31.0
 40
31.0
 40
32.0
 40
32.0
 40
32.0
 40
33.0
 40
33.0
 40
33.0
 40
33.0
 10
139.8926730891197
 20
154.8294111834263
 30
0.0
 10
139.8926730891197
 20
154.8294111834263
 30
0.0
 10
142.0344903652445
 20
154.8294111834263
 30
0.0
 10
142.0344903652445
 20
154.8294111834263
 30
0.0
 10
142.0344903652445
 20
154.8294111834263
 30
0.0
 10
140.9516961399171
 20
151.3157559800812
 30
0.0
 10
140.9516961399171
 20
151.3157559800812
 30
0.0
 10
141.8928968473923
 20
152.7887075264977
 30
0.0
 10
142.7341897198865
 20
153.4484437471474
 30
0.0
 10
143.8552245303272
 20
154.2926649527359
 30
0.0
 10
144.9803934580775
 20
155.1296514530327
 30
0.0
 10
146.3139908001845
 20
155.3044901642492
 30
0.0
 10
147.241066606852
 20
155.3044901642492
 30
0.0
 10
148.3855280820469
 20
155.3044901642492
 30
0.0
 10
149.4969166187653
 20
155.0752189084569
 30
0.0
 10
150.0784491203092
 20
153.8172414621372
 30
0.0
 10
150.5228667310863
 20
152.833838307127
 30
0.0
 10
150.5414702589793
 20
152.7201500811143
 30
0.0
 10
150.4140016419347
 20
150.7765981809602
 30
0.0
 10
151.5818897818837
 20
152.7699317437168
 30
0.0
 10
152.4424752018226
 20
153.6256940267945
 30
0.0
 10
153.9038856707499
 20
154.4507949398263
 30
0.0
 10
155.4455669174378
 20
155.3044901642492
 30
0.0
 10
156.339225275853
 20
155.3659851592288
 30
0.0
 10
157.3748216618963
 20
155.2147453676543
 30
0.0
 10
158.911679771723
 20
154.9877134254046
 30
0.0
 10
159.8859534176746
 20
154.4390816074493
 30
0.0
 10
160.3965169054045
 20
152.7816450760939
 30
0.0
 10
160.9070803931344
 20
151.1219692311958
 30
0.0
 10
160.6328506116007
 20
150.2303779314354
 30
0.0
 10
159.9992971339115
 20
147.597634224801
 30
0.0
 10
159.7105979417943
 20
146.4014962832367
 30
0.0
 10
159.2947746424084
 20
144.9400858143094
 30
0.0
 10
158.7463150793409
 20
143.2092687007094
 30
0.0
 10
158.7463150793409
 20
143.2092687007094
 30
0.0
 10
153.9038856707499
 20
127.8027915271048
 30
0.0
 10
153.9038856707499
 20
127.8027915271048
 30
0.0
 10
153.9038856707499
 20
127.8027915271048
 30
0.0
 10
151.3882752878863
 20
127.8027915271048
 30
0.0
 10
151.3882752878863
 20
127.8027915271048
 30
0.0
 10
151.3882752878863
 20
127.8027915271048
 30
0.0
 10
155.6250565106276
 20
141.2751908193897
 30
0.0
 10
155.6250565106276
 20
141.2751908193897
 30
0.0
 10
156.5094131050963
 20
144.0936252951782
 30
0.0
 10
157.109893644309
 20
146.1506931664571
 30
0.0
 10
157.4220195011804
 20
147.4415712963654
 30
0.0
 10
157.8095929989511
 20
149.0530157726519
 30
0.0
 10
157.9656559273867
 20
149.5826995529385
 30
0.0
 10
157.7816877071116
 20
150.7529992613181
 30
0.0
 10
157.6111553680925
 20
151.8430281919372
 30
0.0
 10
157.0582171779396
 20
152.5547853887321
 30
0.0
 10
156.1170164704645
 20
152.5547853887321
 30
0.0
 10
155.1096698860365
 20
152.5547853887321
 30
0.0
 10
154.2962823053817
 20
152.4412694176073
 30
0.0
 10
153.156643967048
 20
151.2945686288697
 30
0.0
 10
152.0170056287143
 20
150.1476955852443
 30
0.0
 10
151.076149431015
 20
148.7930831468137
 30
0.0
 10
150.3337308641742
 20
147.2290087646991
 30
0.0
 10
149.5957909244188
 20
145.6683794803425
 30
0.0
 10
148.8530278478023
 20
143.6822806228776
 30
0.0
 10
148.0964843801539
 20
141.2751908193897
 30
0.0
 10
148.0964843801539
 20
141.2751908193897
 30
0.0
 10
143.8552245303272
 20
127.8027915271048
 30
0.0
 10
143.8552245303272
 20
127.8027915271048
 30
0.0
 10
143.8552245303272
 20
127.8027915271048
 30
0.0
 10
141.486030802177
 20
127.8027915271048
 30
0.0
 10
141.486030802177
 20
127.8027915271048
 30
0.0
 10
141.486030802177
 20
127.8027915271048
 30
0.0
 10
146.3329388378533
 20
143.2092687007094
 30
0.0
 10
146.3329388378533
 20
143.2092687007094
 30
0.0
 10
146.8483254624444
 20
144.8408669988801
 30
0.0
 10
147.2314203331297
 20
146.1837661049335
 30
0.0
 10
147.4867020769946
 20
147.224185627838
 30
0.0
 10
147.9169947869641
 20
149.0197705792876
 30
0.0
 10
148.0306830129768
 20
150.2400242051577
 30
0.0
 10
147.709255392159
 20
151.3157559800812
 30
0.0
 10
147.3874832615654
 20
152.3916600098926
 30
0.0
 10
146.8245542879144
 20
152.6683013598569
 30
0.0
 10
145.8840425999909
 20
152.6683013598569
 30
0.0
 10
145.0989048209514
 20
152.6683013598569
 30
0.0
 10
144.3282364524954
 20
152.3275811915945
 30
0.0
 10
143.4531816219731
 20
151.6538923250251
 30
0.0
 10
142.34627171234
 20
150.8074318058939
 30
0.0
 10
141.901854101563
 20
150.1097995099067
 30
0.0
 10
141.3578731655808
 20
149.289521733736
 30
0.0
 10
140.6299240093235
 20
148.192602607601
 30
0.0
 10
140.2850697237515
 20
147.455696197173
 30
0.0
 10
139.6652966370942
 20
145.8385673095858
 30
0.0
 10
139.0506911970739
 20
144.2214384219986
 30
0.0
 10
138.463991048893
 20
142.3252566160164
 30
0.0
 10
138.0571250036777
 20
141.0154304484394
 30
0.0
 10
138.0571250036777
 20
141.0154304484394
 30
0.0
 10
133.9009590684727
 20
127.8027915271048
 30
0.0
 10
133.9009590684727
 20
127.8027915271048
 30
0.0
 10
133.9009590684727
 20
127.8027915271048
 30
0.0
 10
131.4180771143097
 20
127.8027915271048
 30
0.0
 10
131.4180771143097
 20
127.8027915271048
 30
0.0
 10
131.4180771143097
 20
127.8027915271048
 30
0.0
 10
139.8926730891197
 20
154.8294111834263
 30
0.0
 10
139.8926730891197
 20
154.8294111834263
 30
0.0
  0
HATCH
  5
3C4
330
3BD
100
AcDbEntity
  8
レイヤー 1
 62
   250
420
  2234388
100
AcDbHatch
 10
0.0
 20
0.0
 30
0.0
210
0.0
220
0.0
230
1.0
  2
SOLID
 70
     1
 71
     0
 91
        1
 92
        1
 93
        1
 72
     4
 94
        3
 73
     0
 74
     1
 95
      104
 96
      100
 40
0.0
 40
0.0
 40
0.0
 40
0.0
 40
1.0
 40
1.0
 40
1.0
 40
2.0
 40
2.0
 40
2.0
 40
3.0
 40
3.0
 40
3.0
 40
4.0
 40
4.0
 40
4.0
 40
5.0
 40
5.0
 40
5.0
 40
6.0
 40
6.0
 40
6.0
 40
7.0
 40
7.0
 40
7.0
 40
8.0
 40
8.0
 40
8.0
 40
9.0
 40
9.0
 40
9.0
 40
10.0
 40
10.0
 40
10.0
 40
11.0
 40
11.0
 40
11.0
 40
12.0
 40
12.0
 40
12.0
 40
13.0
 40
13.0
 40
13.0
 40
14.0
 40
14.0
 40
14.0
 40
15.0
 40
15.0
 40
15.0
 40
16.0
 40
16.0
 40
16.0
 40
17.0
 40
17.0
 40
17.0
 40
18.0
 40
18.0
 40
18.0
 40
19.0
 40
19.0
 40
19.0
 40
20.0
 40
20.0
 40
20.0
 40
21.0
 40
21.0
 40
21.0
 40
22.0
 40
22.0
 40
22.0
 40
23.0
 40
23.0
 40
23.0
 40
24.0
 40
24.0
 40
24.0
 40
25.0
 40
25.0
 40
25.0
 40
26.0
 40
26.0
 40
26.0
 40
27.0
 40
27.0
 40
27.0
 40
28.0
 40
28.0
 40
28.0
 40
29.0
 40
29.0
 40
29.0
 40
30.0
 40
30.0
 40
30.0
 40
31.0
 40
31.0
 40
31.0
 40
32.0
 40
32.0
 40
32.0
 40
33.0
 40
33.0
 40
33.0
 40
33.0
 10
139.8926730891197
 20
154.8294111834263
 10
139.8926730891197
 20
154.8294111834263
 10
142.0344903652445
 20
154.8294111834263
 10
142.0344903652445
 20
154.8294111834263
 10
142.0344903652445
 20
154.8294111834263
 10
140.9516961399171
 20
151.3157559800812
 10
140.9516961399171
 20
151.3157559800812
 10
141.8928968473923
 20
152.7887075264977
 10
142.7341897198865
 20
153.4484437471474
 10
143.8552245303272
 20
154.2926649527359
 10
144.9803934580775
 20
155.1296514530327
 10
146.3139908001845
 20
155.3044901642492
 10
147.241066606852
 20
155.3044901642492
 10
148.3855280820469
 20
155.3044901642492
 10
149.4969166187653
 20
155.0752189084569
 10
150.0784491203092
 20
153.8172414621372
 10
150.5228667310863
 20
152.833838307127
 10
150.5414702589793
 20
152.7201500811143
 10
150.4140016419347
 20
150.7765981809602
 10
151.5818897818837
 20
152.7699317437168
 10
152.4424752018226
 20
153.6256940267945
 10
153.9038856707499
 20
154.4507949398263
 10
155.4455669174378
 20
155.3044901642492
 10
156.339225275853
 20
155.3659851592288
 10
157.3748216618963
 20
155.2147453676543
 10
158.911679771723
 20
154.9877134254046
 10
159.8859534176746
 20
154.4390816074493
 10
160.3965169054045
 20
152.7816450760939
 10
160.9070803931344
 20
151.1219692311958
 10
160.6328506116007
 20
150.2303779314354
 10
159.9992971339115
 20
147.597634224801
 10
159.7105979417943
 20
146.4014962832367
 10
159.2947746424084
 20
144.9400858143094
 10
158.7463150793409
 20
143.2092687007094
 10
158.7463150793409
 20
143.2092687007094
 10
153.9038856707499
 20
127.8027915271048
 10
153.9038856707499
 20
127.8027915271048
 10
153.9038856707499
 20
127.8027915271048
 10
151.3882752878863
 20
127.8027915271048
 10
151.3882752878863
 20
127.8027915271048
 10
151.3882752878863
 20
127.8027915271048
 10
155.6250565106276
 20
141.2751908193897
 10
155.6250565106276
 20
141.2751908193897
 10
156.5094131050963
 20
144.0936252951782
 10
157.109893644309
 20
146.1506931664571
 10
157.4220195011804
 20
147.4415712963654
 10
157.8095929989511
 20
149.0530157726519
 10
157.9656559273867
 20
149.5826995529385
 10
157.7816877071116
 20
150.7529992613181
 10
157.6111553680925
 20
151.8430281919372
 10
157.0582171779396
 20
152.5547853887321
 10
156.1170164704645
 20
152.5547853887321
 10
155.1096698860365
 20
152.5547853887321
 10
154.2962823053817
 20
152.4412694176073
 10
153.156643967048
 20
151.2945686288697
 10
152.0170056287143
 20
150.1476955852443
 10
151.076149431015
 20
148.7930831468137
 10
150.3337308641742
 20
147.2290087646991
 10
149.5957909244188
 20
145.6683794803425
 10
148.8530278478023
 20
143.6822806228776
 10
148.0964843801539
 20
141.2751908193897
 10
148.0964843801539
 20
141.2751908193897
 10
143.8552245303272
 20
127.8027915271048
 10
143.8552245303272
 20
127.8027915271048
 10
143.8552245303272
 20
127.8027915271048
 10
141.486030802177
 20
127.8027915271048
 10
141.486030802177
 20
127.8027915271048
 10
141.486030802177
 20
127.8027915271048
 10
146.3329388378533
 20
143.2092687007094
 10
146.3329388378533
 20
143.2092687007094
 10
146.8483254624444
 20
144.8408669988801
 10
147.2314203331297
 20
146.1837661049335
 10
147.4867020769946
 20
147.224185627838
 10
147.9169947869641
 20
149.0197705792876
 10
148.0306830129768
 20
150.2400242051577
 10
147.709255392159
 20
151.3157559800812
 10
147.3874832615654
 20
152.3916600098926
 10
146.8245542879144
 20
152.6683013598569
 10
145.8840425999909
 20
152.6683013598569
 10
145.0989048209514
 20
152.6683013598569
 10
144.3282364524954
 20
152.3275811915945
 10
143.4531816219731
 20
151.6538923250251
 10
142.34627171234
 20
150.8074318058939
 10
141.901854101563
 20
150.1097995099067
 10
141.3578731655808
 20
149.289521733736
 10
140.6299240093235
 20
148.192602607601
 10
140.2850697237515
 20
147.455696197173
 10
139.6652966370942
 20
145.8385673095858
 10
139.0506911970739
 20
144.2214384219986
 10
138.463991048893
 20
142.3252566160164
 10
138.0571250036777
 20
141.0154304484394
 10
138.0571250036777
 20
141.0154304484394
 10
133.9009590684727
 20
127.8027915271048
 10
133.9009590684727
 20
127.8027915271048
 10
133.9009590684727
 20
127.8027915271048
 10
131.4180771143097
 20
127.8027915271048
 10
131.4180771143097
 20
127.8027915271048
 10
131.4180771143097
 20
127.8027915271048
 10
139.8926730891197
 20
154.8294111834263
 10
139.8926730891197
 20
154.8294111834263
 97
        0
 75
     2
 76
     1
 98
        0
  0
SPLINE
  5
3C5
330
3BD
100
AcDbEntity
  8
レイヤー 1
370
     0
100
AcDbSpline
210
0.0
220
0.0
230
1.0
 70
    11
 71
     3
 72
    29
 73
    25
 74
     0
 42
0.000000001
 43
0.0000000001
 40
0.0
 40
0.0
 40
0.0
 40
0.0
 40
1.0
 40
1.0
 40
1.0
 40
2.0
 40
2.0
 40
2.0
 40
3.0
 40
3.0
 40
3.0
 40
4.0
 40
4.0
 40
4.0
 40
5.0
 40
5.0
 40
5.0
 40
6.0
 40
6.0
 40
6.0
 40
7.0
 40
7.0
 40
7.0
 40
8.0
 40
8.0
 40
8.0
 40
8.0
 10
101.6420971922469
 20
132.8388354296931
 30
0.0
 10
101.630039350094
 20
134.7164137077823
 30
0.0
 10
102.2236296937908
 20
138.0598810818841
 30
0.0
 10
103.7487744712405
 20
142.5378191476827
 30
0.0
 10
105.819967243327
 20
148.5896501242061
 30
0.0
 10
107.0602024361932
 20
150.8074318058939
 30
0.0
 10
108.1522984254671
 20
151.8833358357054
 30
0.0
 10
109.741177511439
 20
153.4532668840085
 30
0.0
 10
111.8740375333931
 20
153.5290590346837
 30
0.0
 10
112.5075910110823
 20
153.4532668840085
 30
0.0
 10
113.4012493694975
 20
153.3490526768302
 30
0.0
 10
114.6683563248758
 20
152.7580461564518
 30
0.0
 10
114.7493161221879
 20
150.7838328862519
 30
0.0
 10
114.8106388622796
 20
149.0909118479895
 30
0.0
 10
114.3186789024427
 20
145.9191825971221
 30
0.0
 10
112.6164561002338
 20
140.9489400617108
 30
0.0
 10
110.6444821435766
 20
135.1746117095912
 30
0.0
 10
109.4669477299053
 20
132.8960240524753
 30
0.0
 10
108.5212683953448
 20
131.9072809959403
 30
0.0
 10
106.7346406980658
 20
130.0538184021569
 30
0.0
 10
104.8222669326213
 20
130.2336525051225
 30
0.0
 10
104.5408024457958
 20
130.2336525051225
 30
0.0
 10
104.1721769856939
 20
130.2336525051225
 30
0.0
 10
101.6465758193322
 20
130.6305277668397
 30
0.0
 10
101.6420971922469
 20
132.8388354296931
 30
0.0
  0
SPLINE
  5
3C6
330
3BD
100
AcDbEntity
  8
レイヤー 1
370
     0
100
AcDbSpline
210
0.0
220
0.0
230
1.0
 70
    11
 71
     3
 72
    32
 73
    28
 74
     0
 42
0.000000001
 43
0.0000000001
 40
0.0
 40
0.0
 40
0.0
 40
0.0
 40
1.0
 40
1.0
 40
1.0
 40
2.0
 40
2.0
 40
2.0
 40
3.0
 40
3.0
 40
3.0
 40
4.0
 40
4.0
 40
4.0
 40
5.0
 40
5.0
 40
5.0
 40
6.0
 40
6.0
 40
6.0
 40
7.0
 40
7.0
 40
7.0
 40
8.0
 40
8.0
 40
8.0
 40
9.0
 40
9.0
 40
9.0
 40
9.0
 10
106.2595617172429
 20
153.4105476718098
 30
0.0
 10
104.8222669326213
 20
151.5474388043041
 30
0.0
 10
103.7177685914188
 20
149.8758773721411
 30
0.0
 10
101.9232171692965
 20
144.6141795664062
 30
0.0
 10
100.2754269116635
 20
139.7999999594306
 30
0.0
 10
99.22777268346732
 20
136.3052927937542
 30
0.0
 10
99.06964269637689
 20
132.039572749846
 30
0.0
 10
98.94665270641765
 20
128.8673267343149
 30
0.0
 10
100.8807305877373
 20
127.8027915271048
 30
0.0
 10
103.7129454545577
 20
127.8027915271048
 30
0.0
 10
104.9352661390825
 20
127.8027915271048
 30
0.0
 10
108.0151835347002
 20
127.8827177950895
 30
0.0
 10
110.2045431598849
 20
130.5926316915021
 30
0.0
 10
111.7417457794874
 20
132.4984597712065
 30
0.0
 10
113.155269389579
 20
134.475256864725
 30
0.0
 10
115.0562743324223
 20
140.9489400617108
 30
0.0
 10
116.6361961642235
 20
146.3680788349845
 30
0.0
 10
117.7282921534974
 20
149.8639917848761
 30
0.0
 10
117.6480213757369
 20
151.8595646611754
 30
0.0
 10
117.6480213757369
 20
151.8595646611754
 30
0.0
 10
117.6480213757369
 20
151.8595646611754
 30
0.0
 10
117.6480213757369
 20
151.8595646611754
 30
0.0
 10
117.13229024137
 20
155.18150017429
 30
0.0
 10
114.7162431837115
 20
155.886194920681
 30
0.0
 10
113.3351034925446
 20
155.886194920681
 30
0.0
 10
111.9829026225447
 20
155.886194920681
 30
0.0
 10
108.3414342923792
 20
156.1251124501957
 30
0.0
 10
106.2595617172429
 20
153.4105476718098
 30
0.0
  0
HATCH
  5
3C7
330
3BD
100
AcDbEntity
  8
レイヤー 1
 62
   250
420
  2234388
100
AcDbHatch
 10
0.0
 20
0.0
 30
0.0
210
0.0
220
0.0
230
1.0
  2
SOLID
 70
     1
 71
     0
 91
        2
 92
        1
 93
        1
 72
     4
 94
        3
 73
     0
 74
     1
 95
       29
 96
       25
 40
0.0
 40
0.0
 40
0.0
 40
0.0
 40
1.0
 40
1.0
 40
1.0
 40
2.0
 40
2.0
 40
2.0
 40
3.0
 40
3.0
 40
3.0
 40
4.0
 40
4.0
 40
4.0
 40
5.0
 40
5.0
 40
5.0
 40
6.0
 40
6.0
 40
6.0
 40
7.0
 40
7.0
 40
7.0
 40
8.0
 40
8.0
 40
8.0
 40
8.0
 10
101.6420971922469
 20
132.8388354296931
 10
101.630039350094
 20
134.7164137077823
 10
102.2236296937908
 20
138.0598810818841
 10
103.7487744712405
 20
142.5378191476827
 10
105.819967243327
 20
148.5896501242061
 10
107.0602024361932
 20
150.8074318058939
 10
108.1522984254671
 20
151.8833358357054
 10
109.741177511439
 20
153.4532668840085
 10
111.8740375333931
 20
153.5290590346837
 10
112.5075910110823
 20
153.4532668840085
 10
113.4012493694975
 20
153.3490526768302
 10
114.6683563248758
 20
152.7580461564518
 10
114.7493161221879
 20
150.7838328862519
 10
114.8106388622796
 20
149.0909118479895
 10
114.3186789024427
 20
145.9191825971221
 10
112.6164561002338
 20
140.9489400617108
 10
110.6444821435766
 20
135.1746117095912
 10
109.4669477299053
 20
132.8960240524753
 10
108.5212683953448
 20
131.9072809959403
 10
106.7346406980658
 20
130.0538184021569
 10
104.8222669326213
 20
130.2336525051225
 10
104.5408024457958
 20
130.2336525051225
 10
104.1721769856939
 20
130.2336525051225
 10
101.6465758193322
 20
130.6305277668397
 10
101.6420971922469
 20
132.8388354296931
 97
        0
 92
        1
 93
        1
 72
     4
 94
        3
 73
     0
 74
     1
 95
       32
 96
       28
 40
0.0
 40
0.0
 40
0.0
 40
0.0
 40
1.0
 40
1.0
 40
1.0
 40
2.0
 40
2.0
 40
2.0
 40
3.0
 40
3.0
 40
3.0
 40
4.0
 40
4.0
 40
4.0
 40
5.0
 40
5.0
 40
5.0
 40
6.0
 40
6.0
 40
6.0
 40
7.0
 40
7.0
 40
7.0
 40
8.0
 40
8.0
 40
8.0
 40
9.0
 40
9.0
 40
9.0
 40
9.0
 10
106.2595617172429
 20
153.4105476718098
 10
104.8222669326213
 20
151.5474388043041
 10
103.7177685914188
 20
149.8758773721411
 10
101.9232171692965
 20
144.6141795664062
 10
100.2754269116635
 20
139.7999999594306
 10
99.22777268346732
 20
136.3052927937542
 10
99.06964269637689
 20
132.039572749846
 10
98.94665270641765
 20
128.8673267343149
 10
100.8807305877373
 20
127.8027915271048
 10
103.7129454545577
 20
127.8027915271048
 10
104.9352661390825
 20
127.8027915271048
 10
108.0151835347002
 20
127.8827177950895
 10
110.2045431598849
 20
130.5926316915021
 10
111.7417457794874
 20
132.4984597712065
 10
113.155269389579
 20
134.475256864725
 10
115.0562743324223
 20
140.9489400617108
 10
116.6361961642235
 20
146.3680788349845
 10
117.7282921534974
 20
149.8639917848761
 10
117.6480213757369
 20
151.8595646611754
 10
117.6480213757369
 20
151.8595646611754
 10
117.6480213757369
 20
151.8595646611754
 10
117.6480213757369
 20
151.8595646611754
 10
117.13229024137
 20
155.18150017429
 10
114.7162431837115
 20
155.886194920681
 10
113.3351034925446
 20
155.886194920681
 10
111.9829026225447
 20
155.886194920681
 10
108.3414342923792
 20
156.1251124501957
 10
106.2595617172429
 20
153.4105476718098
 97
        0
 75
     2
 76
     1
 98
        0
  0
ENDBLK
  5
3C8
330
3BD
100
AcDbEntity
  8
0
100
AcDbBlockEnd
  0
BLOCK
  5
11F1
330
11F0
100
AcDbEntity
  8
0
100
AcDbBlockBegin
  2
BLOCK_2
 70
     0
 10
0.0
 20
0.0
 30
0.0
  3
BLOCK_2
  1
BLOCK_2
  0
ENDBLK
  5
11F2
330
11F0
100
AcDbEntity
  8
0
100
AcDbBlockEnd
  0
BLOCK
  5
38B7
330
38B6
100
AcDbEntity
  8
0
100
AcDbBlockBegin
  2
mobile_latù
 70
     0
 10
0.0
 20
0.0
 30
0.0
  3
mobile_latù
  1
mobile_latù
  0
ENDBLK
  5
38B8
330
38B6
100
AcDbEntity
  8
0
100
AcDbBlockEnd
  0
BLOCK
  5
5177
330
5176
100
AcDbEntity
  8
0
100
AcDbBlockBegin
  2
*D8
 70
     1
 10
0.0
 20
0.0
 30
0.0
  3
*D8
  1
*D164
  0
LINE
  5
5179
330
5176
100
AcDbEntity
  8
Dim
 62
     0
370
    -2
100
AcDbLine
 10
3448.664368898867
 20
3662.223009718145
 30
0.0
 11
3448.664368898867
 21
3740.721408279186
 31
0.0
  0
LINE
  5
517A
330
5176
100
AcDbEntity
  8
Dim
 62
     0
370
    -2
100
AcDbLine
 10
3348.664368898867
 20
3662.223009718145
 30
0.0
 11
3348.664368898867
 21
3740.721408279186
 31
0.0
  0
LINE
  5
517B
330
5176
100
AcDbEntity
  8
Dim
 62
     0
370
    -2
100
AcDbLine
 10
3438.664979250429
 20
3740.721408279186
 30
0.0
 11
3358.663758547304
 21
3740.721408279186
 31
0.0
  0
INSERT
  5
517C
330
5176
100
AcDbEntity
  8
Dim
 62
     0
370
    -2
100
AcDbBlockReference
  2
_DOT
 10
3448.664368898867
 20
3740.721408279186
 30
0.0
 41
9.999389648437498
 42
9.999389648437498
 43
9.999389648437498
  0
INSERT
  5
517D
330
5176
100
AcDbEntity
  8
Dim
 62
     0
370
    -2
100
AcDbBlockReference
  2
_DOT
 10
3348.664368898867
 20
3740.721408279186
 30
0.0
 41
9.999389648437498
 42
9.999389648437498
 43
9.999389648437498
 50
180.0
  0
MTEXT
  5
517E
330
5176
100
AcDbEntity
  8
Dim
 62
     0
100
AcDbMText
 10
3398.664368898867
 20
3762.937716872936
 30
0.0
 40
24.4326171875
 41
0.0
 46
0.0
 71
     5
 72
     1
  1
\A1;100
  7
ＭＳ ゴシック
 73
     1
 44
1.0
  0
POINT
  5
517F
330
5176
100
AcDbEntity
  8
Defpoints
 62
     0
100
AcDbPoint
 10
3448.664368898867
 20
3637.223009718145
 30
0.0
  0
POINT
  5
5180
330
5176
100
AcDbEntity
  8
Defpoints
 62
     0
100
AcDbPoint
 10
3348.664368898867
 20
3637.223009718145
 30
0.0
  0
POINT
  5
5181
330
5176
100
AcDbEntity
  8
Defpoints
 62
     0
100
AcDbPoint
 10
3348.664368898867
 20
3740.721408279186
 30
0.0
  0
ENDBLK
  5
5178
330
5176
100
AcDbEntity
  8
0
100
AcDbBlockEnd
  0
BLOCK
  5
5184
330
5183
100
AcDbEntity
  8
0
100
AcDbBlockBegin
  2
*D9
 70
     1
 10
0.0
 20
0.0
 30
0.0
  3
*D9
  1
*D165
  0
LINE
  5
5186
330
5183
100
AcDbEntity
  8
Dim
 62
     0
370
    -2
100
AcDbLine
 10
3448.664368898867
 20
3662.223009718145
 30
0.0
 11
3448.664368898867
 21
3740.721408279186
 31
0.0
  0
LINE
  5
5187
330
5183
100
AcDbEntity
  8
Dim
 62
     0
370
    -2
100
AcDbLine
 10
3548.664368898867
 20
3662.223009718145
 30
0.0
 11
3548.664368898867
 21
3740.721408279186
 31
0.0
  0
LINE
  5
5188
330
5183
100
AcDbEntity
  8
Dim
 62
     0
370
    -2
100
AcDbLine
 10
3458.663758547304
 20
3740.721408279186
 30
0.0
 11
3538.664979250429
 21
3740.721408279186
 31
0.0
  0
INSERT
  5
5189
330
5183
100
AcDbEntity
  8
Dim
 62
     0
370
    -2
100
AcDbBlockReference
  2
_DOT
 10
3448.664368898867
 20
3740.721408279186
 30
0.0
 41
9.999389648437498
 42
9.999389648437498
 43
9.999389648437498
 50
180.0
  0
INSERT
  5
518A
330
5183
100
AcDbEntity
  8
Dim
 62
     0
370
    -2
100
AcDbBlockReference
  2
_DOT
 10
3548.664368898867
 20
3740.721408279186
 30
0.0
 41
9.999389648437498
 42
9.999389648437498
 43
9.999389648437498
  0
MTEXT
  5
518B
330
5183
100
AcDbEntity
  8
Dim
 62
     0
100
AcDbMText
 10
3498.664368898867
 20
3762.937716872936
 30
0.0
 40
24.4326171875
 41
0.0
 46
0.0
 71
     5
 72
     1
  1
\A1;100
  7
ＭＳ ゴシック
 73
     1
 44
1.0
  0
POINT
  5
518C
330
5183
100
AcDbEntity
  8
Defpoints
 62
     0
100
AcDbPoint
 10
3448.664368898867
 20
3637.223009718145
 30
0.0
  0
POINT
  5
518D
330
5183
100
AcDbEntity
  8
Defpoints
 62
     0
100
AcDbPoint
 10
3548.664368898867
 20
3637.223009718145
 30
0.0
  0
POINT
  5
518E
330
5183
100
AcDbEntity
  8
Defpoints
 62
     0
100
AcDbPoint
 10
3548.664368898867
 20
3740.721408279186
 30
0.0
  0
ENDBLK
  5
5185
330
5183
100
AcDbEntity
  8
0
100
AcDbBlockEnd
  0
BLOCK
  5
5227
330
5226
100
AcDbEntity
  8
0
100
AcDbBlockBegin
  2
*D10
 70
     1
 10
0.0
 20
0.0
 30
0.0
  3
*D10
  1
*D177
  0
LINE
  5
5229
330
5226
100
AcDbEntity
  8
Dim
 62
     0
370
    -2
100
AcDbLine
 10
3308.625695840263
 20
2511.375469618616
 30
0.0
 11
3308.625695840263
 21
2580.071997668862
 31
0.0
  0
LINE
  5
522A
330
5226
100
AcDbEntity
  8
Dim
 62
     0
370
    -2
100
AcDbLine
 10
3588.625695840264
 20
2511.375469618616
 30
0.0
 11
3588.625695840264
 21
2580.071997668862
 31
0.0
  0
LINE
  5
522B
330
5226
100
AcDbEntity
  8
Dim
 62
     0
370
    -2
100
AcDbLine
 10
3318.625085488701
 20
2580.071997668862
 30
0.0
 11
3578.626306191826
 21
2580.071997668862
 31
0.0
  0
INSERT
  5
522C
330
5226
100
AcDbEntity
  8
Dim
 62
     0
370
    -2
100
AcDbBlockReference
  2
_DOT
 10
3308.625695840263
 20
2580.071997668862
 30
0.0
 41
9.999389648437498
 42
9.999389648437498
 43
9.999389648437498
 50
180.0
  0
INSERT
  5
522D
330
5226
100
AcDbEntity
  8
Dim
 62
     0
370
    -2
100
AcDbBlockReference
  2
_DOT
 10
3588.625695840264
 20
2580.071997668862
 30
0.0
 41
9.999389648437498
 42
9.999389648437498
 43
9.999389648437498
  0
MTEXT
  5
522E
330
5226
100
AcDbEntity
  8
Dim
 62
     0
100
AcDbMText
 10
3448.625695840264
 20
2602.288306262612
 30
0.0
 40
24.4326171875
 41
0.0
 46
0.0
 71
     5
 72
     1
  1
\A1;280
  7
ＭＳ ゴシック
 73
     1
 44
1.0
  0
POINT
  5
522F
330
5226
100
AcDbEntity
  8
Defpoints
 62
     0
100
AcDbPoint
 10
3308.625695840263
 20
2486.375469618616
 30
0.0
  0
POINT
  5
5230
330
5226
100
AcDbEntity
  8
Defpoints
 62
     0
100
AcDbPoint
 10
3588.625695840264
 20
2486.375469618616
 30
0.0
  0
POINT
  5
5231
330
5226
100
AcDbEntity
  8
Defpoints
 62
     0
100
AcDbPoint
 10
3588.625695840264
 20
2580.071997668862
 30
0.0
  0
ENDBLK
  5
5228
330
5226
100
AcDbEntity
  8
0
100
AcDbBlockEnd
  0
BLOCK
  5
5234
330
5233
100
AcDbEntity
  8
0
100
AcDbBlockBegin
  2
*D11
 70
     1
 10
0.0
 20
0.0
 30
0.0
  3
*D11
  1
*D178
  0
LINE
  5
5236
330
5233
100
AcDbEntity
  8
Dim
 62
     0
370
    -2
100
AcDbLine
 10
2948.625695840264
 20
3709.633948731757
 30
0.0
 11
2948.625695840264
 21
3811.350088210575
 31
0.0
  0
LINE
  5
5237
330
5233
100
AcDbEntity
  8
Dim
 62
     0
370
    -2
100
AcDbLine
 10
3948.625695840264
 20
3709.633948731756
 30
0.0
 11
3948.625695840264
 21
3811.350088210575
 31
0.0
  0
LINE
  5
5238
330
5233
100
AcDbEntity
  8
Dim
 62
     0
370
    -2
100
AcDbLine
 10
2958.625085488701
 20
3811.350088210575
 30
0.0
 11
3938.626306191826
 21
3811.350088210575
 31
0.0
  0
INSERT
  5
5239
330
5233
100
AcDbEntity
  8
Dim
 62
     0
370
    -2
100
AcDbBlockReference
  2
_DOT
 10
2948.625695840264
 20
3811.350088210575
 30
0.0
 41
9.999389648437498
 42
9.999389648437498
 43
9.999389648437498
 50
180.0
  0
INSERT
  5
523A
330
5233
100
AcDbEntity
  8
Dim
 62
     0
370
    -2
100
AcDbBlockReference
  2
_DOT
 10
3948.625695840264
 20
3811.350088210575
 30
0.0
 41
9.999389648437498
 42
9.999389648437498
 43
9.999389648437498
  0
MTEXT
  5
523B
330
5233
100
AcDbEntity
  8
Dim
 62
     0
100
AcDbMText
 10
3448.625695840264
 20
3833.566396804325
 30
0.0
 40
24.4326171875
 41
0.0
 46
0.0
 71
     5
 72
     1
  1
\A1;1000
  7
ＭＳ ゴシック
 73
     1
 44
1.0
  0
POINT
  5
523C
330
5233
100
AcDbEntity
  8
Defpoints
 62
     0
100
AcDbPoint
 10
2948.625695840264
 20
3684.633948731757
 30
0.0
  0
POINT
  5
523D
330
5233
100
AcDbEntity
  8
Defpoints
 62
     0
100
AcDbPoint
 10
3948.625695840264
 20
3684.633948731756
 30
0.0
  0
POINT
  5
523E
330
5233
100
AcDbEntity
  8
Defpoints
 62
     0
100
AcDbPoint
 10
3948.625695840264
 20
3811.350088210575
 30
0.0
  0
ENDBLK
  5
5235
330
5233
100
AcDbEntity
  8
0
100
AcDbBlockEnd
  0
BLOCK
  5
5250
330
524F
100
AcDbEntity
  8
0
100
AcDbBlockBegin
  2
*D12
 70
     1
 10
0.0
 20
0.0
 30
0.0
  3
*D12
  1
*D180
  0
LINE
  5
5252
330
524F
100
AcDbEntity
  8
Dim
 62
     0
370
    -2
100
AcDbLine
 10
3962.241353166488
 20
3685.409041411044
 30
0.0
 11
4018.914821539863
 21
3685.409041411044
 31
0.0
  0
LINE
  5
5253
330
524F
100
AcDbEntity
  8
Dim
 62
     0
370
    -2
100
AcDbLine
 10
3918.403422162246
 20
3165.409041411045
 30
0.0
 11
4018.914821539863
 21
3165.409041411045
 31
0.0
  0
LINE
  5
5254
330
524F
100
AcDbEntity
  8
Dim
 62
     0
370
    -2
100
AcDbLine
 10
4018.914821539863
 20
3675.409651762607
 30
0.0
 11
4018.914821539863
 21
3175.408431059483
 31
0.0
  0
INSERT
  5
5255
330
524F
100
AcDbEntity
  8
Dim
 62
     0
370
    -2
100
AcDbBlockReference
  2
_DOT
 10
4018.914821539863
 20
3685.409041411044
 30
0.0
 41
9.999389648437498
 42
9.999389648437498
 43
9.999389648437498
 50
90.0
  0
INSERT
  5
5256
330
524F
100
AcDbEntity
  8
Dim
 62
     0
370
    -2
100
AcDbBlockReference
  2
_DOT
 10
4018.914821539863
 20
3165.409041411045
 30
0.0
 41
9.999389648437498
 42
9.999389648437498
 43
9.999389648437498
 50
270.0
  0
MTEXT
  5
5257
330
524F
100
AcDbEntity
  8
Dim
 62
     0
100
AcDbMText
 10
3996.698512946113
 20
3425.409041411045
 30
0.0
 40
24.4326171875
 41
0.0
 46
0.0
 71
     5
 72
     1
  1
\A1;520
  7
ＭＳ ゴシック
 11
0.0
 21
1.0
 31
0.0
 73
     1
 44
1.0
  0
POINT
  5
5258
330
524F
100
AcDbEntity
  8
Defpoints
 62
     0
100
AcDbPoint
 10
3937.241353166488
 20
3685.409041411044
 30
0.0
  0
POINT
  5
5259
330
524F
100
AcDbEntity
  8
Defpoints
 62
     0
100
AcDbPoint
 10
3893.403422162246
 20
3165.409041411045
 30
0.0
  0
POINT
  5
525A
330
524F
100
AcDbEntity
  8
Defpoints
 62
     0
100
AcDbPoint
 10
4018.914821539863
 20
3165.409041411045
 30
0.0
  0
ENDBLK
  5
5251
330
524F
100
AcDbEntity
  8
0
100
AcDbBlockEnd
  0
BLOCK
  5
525D
330
525C
100
AcDbEntity
  8
0
100
AcDbBlockBegin
  2
*D13
 70
     1
 10
0.0
 20
0.0
 30
0.0
  3
*D13
  1
*D181
  0
LINE
  5
525F
330
525C
100
AcDbEntity
  8
Dim
 62
     0
370
    -2
100
AcDbLine
 10
2916.036306280673
 20
2501.352510681651
 30
0.0
 11
2856.244590002251
 21
2501.352510681651
 31
0.0
  0
LINE
  5
5260
330
525C
100
AcDbEntity
  8
Dim
 62
     0
370
    -2
100
AcDbLine
 10
3252.505316859394
 20
2461.352510681651
 30
0.0
 11
2856.244590002251
 21
2461.352510681651
 31
0.0
  0
LINE
  5
5261
330
525C
100
AcDbEntity
  8
Dim
 62
     0
370
    -2
100
AcDbLine
 10
2856.244590002251
 20
2491.353121033214
 30
0.0
 11
2856.244590002251
 21
2471.351900330089
 31
0.0
  0
INSERT
  5
5262
330
525C
100
AcDbEntity
  8
Dim
 62
     0
370
    -2
100
AcDbBlockReference
  2
_DOT
 10
2856.244590002251
 20
2501.352510681651
 30
0.0
 41
9.999389648437498
 42
9.999389648437498
 43
9.999389648437498
 50
90.0
  0
INSERT
  5
5263
330
525C
100
AcDbEntity
  8
Dim
 62
     0
370
    -2
100
AcDbBlockReference
  2
_DOT
 10
2856.244590002251
 20
2461.352510681651
 30
0.0
 41
9.999389648437498
 42
9.999389648437498
 43
9.999389648437498
 50
270.0
  0
MTEXT
  5
5264
330
525C
100
AcDbEntity
  8
Dim
 62
     0
100
AcDbMText
 10
2834.028281408501
 20
2481.352510681651
 30
0.0
 40
24.4326171875
 41
0.0
 46
0.0
 71
     5
 72
     1
  1
\A1;40
  7
ＭＳ ゴシック
 11
0.0
 21
1.0
 31
0.0
 73
     1
 44
1.0
  0
POINT
  5
5265
330
525C
100
AcDbEntity
  8
Defpoints
 62
     0
100
AcDbPoint
 10
2941.036306280673
 20
2501.352510681651
 30
0.0
  0
POINT
  5
5266
330
525C
100
AcDbEntity
  8
Defpoints
 62
     0
100
AcDbPoint
 10
3277.505316859394
 20
2461.352510681651
 30
0.0
  0
POINT
  5
5267
330
525C
100
AcDbEntity
  8
Defpoints
 62
     0
100
AcDbPoint
 10
2856.244590002251
 20
2461.352510681651
 30
0.0
  0
ENDBLK
  5
525E
330
525C
100
AcDbEntity
  8
0
100
AcDbBlockEnd
  0
BLOCK
  5
5280
330
527F
100
AcDbEntity
  8
0
100
AcDbBlockBegin
  2
*D14
 70
     1
 10
0.0
 20
0.0
 30
0.0
  3
*D14
  1
*D182
  0
LINE
  5
5282
330
527F
100
AcDbEntity
  8
Dim
 62
     0
370
    -2
100
AcDbLine
 10
3148.625695840263
 20
3252.395817124861
 30
0.0
 11
3148.625695840263
 21
3096.656891410576
 31
0.0
  0
LINE
  5
5283
330
527F
100
AcDbEntity
  8
Dim
 62
     0
370
    -2
100
AcDbLine
 10
3748.625695840264
 20
3252.395817124861
 30
0.0
 11
3748.625695840264
 21
3096.656891410576
 31
0.0
  0
LINE
  5
5284
330
527F
100
AcDbEntity
  8
Dim
 62
     0
370
    -2
100
AcDbLine
 10
3158.625085488701
 20
3096.656891410576
 30
0.0
 11
3738.626306191826
 21
3096.656891410576
 31
0.0
  0
INSERT
  5
5285
330
527F
100
AcDbEntity
  8
Dim
 62
     0
370
    -2
100
AcDbBlockReference
  2
_DOT
 10
3148.625695840263
 20
3096.656891410576
 30
0.0
 41
9.999389648437498
 42
9.999389648437498
 43
9.999389648437498
 50
180.0
  0
INSERT
  5
5286
330
527F
100
AcDbEntity
  8
Dim
 62
     0
370
    -2
100
AcDbBlockReference
  2
_DOT
 10
3748.625695840264
 20
3096.656891410576
 30
0.0
 41
9.999389648437498
 42
9.999389648437498
 43
9.999389648437498
  0
MTEXT
  5
5287
330
527F
100
AcDbEntity
  8
Dim
 62
     0
100
AcDbMText
 10
3448.625695840264
 20
3119.496231742607
 30
0.0
 40
24.4326171875
 41
0.0
 46
0.0
 71
     5
 72
     1
  1
\A1;??
  7
ＭＳ ゴシック
 73
     1
 44
1.0
  0
POINT
  5
5288
330
527F
100
AcDbEntity
  8
Defpoints
 62
     0
100
AcDbPoint
 10
3148.625695840263
 20
3277.395817124861
 30
0.0
  0
POINT
  5
5289
330
527F
100
AcDbEntity
  8
Defpoints
 62
     0
100
AcDbPoint
 10
3748.625695840264
 20
3277.395817124861
 30
0.0
  0
POINT
  5
528A
330
527F
100
AcDbEntity
  8
Defpoints
 62
     0
100
AcDbPoint
 10
3748.625695840264
 20
3096.656891410576
 30
0.0
  0
ENDBLK
  5
5281
330
527F
100
AcDbEntity
  8
0
100
AcDbBlockEnd
  0
BLOCK
  5
528F
330
528E
100
AcDbEntity
  8
0
100
AcDbBlockBegin
  2
*D15
 70
     1
 10
0.0
 20
0.0
 30
0.0
  3
*D15
  1
*D183
  0
LINE
  5
5291
330
528E
100
AcDbEntity
  8
Dim
 62
     0
370
    -2
100
AcDbLine
 10
3173.625695840263
 20
3555.409041477844
 30
0.0
 11
3058.264655282251
 21
3555.409041477844
 31
0.0
  0
LINE
  5
5292
330
528E
100
AcDbEntity
  8
Dim
 62
     0
370
    -2
100
AcDbLine
 10
3173.625695840263
 20
3240.409041411045
 30
0.0
 11
3058.264655282251
 21
3240.409041411045
 31
0.0
  0
LINE
  5
5293
330
528E
100
AcDbEntity
  8
Dim
 62
     0
370
    -2
100
AcDbLine
 10
3058.264655282251
 20
3545.409651829406
 30
0.0
 11
3058.264655282251
 21
3250.408431059483
 31
0.0
  0
INSERT
  5
5294
330
528E
100
AcDbEntity
  8
Dim
 62
     0
370
    -2
100
AcDbBlockReference
  2
_DOT
 10
3058.264655282251
 20
3555.409041477844
 30
0.0
 41
9.999389648437498
 42
9.999389648437498
 43
9.999389648437498
 50
90.0
  0
INSERT
  5
5295
330
528E
100
AcDbEntity
  8
Dim
 62
     0
370
    -2
100
AcDbBlockReference
  2
_DOT
 10
3058.264655282251
 20
3240.409041411045
 30
0.0
 41
9.999389648437498
 42
9.999389648437498
 43
9.999389648437498
 50
270.0
  0
MTEXT
  5
5296
330
528E
100
AcDbEntity
  8
Dim
 62
     0
100
AcDbMText
 10
3035.42531495022
 20
3397.909041444444
 30
0.0
 40
24.4326171875
 41
0.0
 46
0.0
 71
     5
 72
     1
  1
\A1;??
  7
ＭＳ ゴシック
 11
0.0
 21
1.0
 31
0.0
 73
     1
 44
1.0
  0
POINT
  5
5297
330
528E
100
AcDbEntity
  8
Defpoints
 62
     0
100
AcDbPoint
 10
3198.625695840263
 20
3555.409041477844
 30
0.0
  0
POINT
  5
5298
330
528E
100
AcDbEntity
  8
Defpoints
 62
     0
100
AcDbPoint
 10
3198.625695840263
 20
3240.409041411045
 30
0.0
  0
POINT
  5
5299
330
528E
100
AcDbEntity
  8
Defpoints
 62
     0
100
AcDbPoint
 10
3058.264655282251
 20
3240.409041411045
 30
0.0
  0
ENDBLK
  5
5290
330
528E
100
AcDbEntity
  8
0
100
AcDbBlockEnd
  0
BLOCK
  5
52AD
330
52AC
100
AcDbEntity
  8
0
100
AcDbBlockBegin
  2
*D16
 70
     1
 10
0.0
 20
0.0
 30
0.0
  3
*D16
  1
*D184
  0
LINE
  5
52AF
330
52AC
100
AcDbEntity
  8
Dim
 62
     0
370
    -2
100
AcDbLine
 10
2926.625695840264
 20
3685.409041411046
 30
0.0
 11
2829.680047853677
 21
3685.409041411046
 31
0.0
  0
LINE
  5
52B0
330
52AC
100
AcDbEntity
  8
Dim
 62
     0
370
    -2
100
AcDbLine
 10
3078.569035282248
 20
3555.409041411045
 30
0.0
 11
2829.680047853677
 21
3555.409041411045
 31
0.0
  0
LINE
  5
52B1
330
52AC
100
AcDbEntity
  8
Dim
 62
     0
370
    -2
100
AcDbLine
 10
2829.680047853677
 20
3675.409651762609
 30
0.0
 11
2829.680047853677
 21
3565.408431059483
 31
0.0
  0
INSERT
  5
52B2
330
52AC
100
AcDbEntity
  8
Dim
 62
     0
370
    -2
100
AcDbBlockReference
  2
_DOT
 10
2829.680047853677
 20
3685.409041411046
 30
0.0
 41
9.999389648437498
 42
9.999389648437498
 43
9.999389648437498
 50
90.0
  0
INSERT
  5
52B3
330
52AC
100
AcDbEntity
  8
Dim
 62
     0
370
    -2
100
AcDbBlockReference
  2
_DOT
 10
2829.680047853677
 20
3555.409041411045
 30
0.0
 41
9.999389648437498
 42
9.999389648437498
 43
9.999389648437498
 50
270.0
  0
MTEXT
  5
52B4
330
52AC
100
AcDbEntity
  8
Dim
 62
     0
100
AcDbMText
 10
2807.463739259927
 20
3620.409041411046
 30
0.0
 40
24.4326171875
 41
0.0
 46
0.0
 71
     5
 72
     1
  1
\A1;130
  7
ＭＳ ゴシック
 11
0.0
 21
1.0
 31
0.0
 73
     1
 44
1.0
  0
POINT
  5
52B5
330
52AC
100
AcDbEntity
  8
Defpoints
 62
     0
100
AcDbPoint
 10
2951.625695840264
 20
3685.409041411046
 30
0.0
  0
POINT
  5
52B6
330
52AC
100
AcDbEntity
  8
Defpoints
 62
     0
100
AcDbPoint
 10
3103.569035282248
 20
3555.409041411045
 30
0.0
  0
POINT
  5
52B7
330
52AC
100
AcDbEntity
  8
Defpoints
 62
     0
100
AcDbPoint
 10
2829.680047853677
 20
3555.409041411045
 30
0.0
  0
ENDBLK
  5
52AE
330
52AC
100
AcDbEntity
  8
0
100
AcDbBlockEnd
  0
BLOCK
  5
52BA
330
52B9
100
AcDbEntity
  8
0
100
AcDbBlockBegin
  2
*D17
 70
     1
 10
0.0
 20
0.0
 30
0.0
  3
*D17
  1
*D185
  0
LINE
  5
52BC
330
52B9
100
AcDbEntity
  8
Dim
 62
     0
370
    -2
100
AcDbLine
 10
2971.515979282248
 20
3555.409041411045
 30
0.0
 11
2829.680047853677
 21
3555.409041411045
 31
0.0
  0
LINE
  5
52BD
330
52B9
100
AcDbEntity
  8
Dim
 62
     0
370
    -2
100
AcDbLine
 10
2971.515979282248
 20
3165.409041411045
 30
0.0
 11
2829.680047853677
 21
3165.409041411045
 31
0.0
  0
LINE
  5
52BE
330
52B9
100
AcDbEntity
  8
Dim
 62
     0
370
    -2
100
AcDbLine
 10
2829.680047853677
 20
3545.409651762608
 30
0.0
 11
2829.680047853677
 21
3175.408431059483
 31
0.0
  0
INSERT
  5
52BF
330
52B9
100
AcDbEntity
  8
Dim
 62
     0
370
    -2
100
AcDbBlockReference
  2
_DOT
 10
2829.680047853677
 20
3555.409041411045
 30
0.0
 41
9.999389648437498
 42
9.999389648437498
 43
9.999389648437498
 50
90.0
  0
INSERT
  5
52C0
330
52B9
100
AcDbEntity
  8
Dim
 62
     0
370
    -2
100
AcDbBlockReference
  2
_DOT
 10
2829.680047853677
 20
3165.409041411045
 30
0.0
 41
9.999389648437498
 42
9.999389648437498
 43
9.999389648437498
 50
270.0
  0
MTEXT
  5
52C1
330
52B9
100
AcDbEntity
  8
Dim
 62
     0
100
AcDbMText
 10
2807.463739259927
 20
3360.409041411045
 30
0.0
 40
24.4326171875
 41
0.0
 46
0.0
 71
     5
 72
     1
  1
\A1;390
  7
ＭＳ ゴシック
 11
0.0
 21
1.0
 31
0.0
 73
     1
 44
1.0
  0
POINT
  5
52C2
330
52B9
100
AcDbEntity
  8
Defpoints
 62
     0
100
AcDbPoint
 10
2996.515979282248
 20
3555.409041411045
 30
0.0
  0
POINT
  5
52C3
330
52B9
100
AcDbEntity
  8
Defpoints
 62
     0
100
AcDbPoint
 10
2996.515979282248
 20
3165.409041411045
 30
0.0
  0
POINT
  5
52C4
330
52B9
100
AcDbEntity
  8
Defpoints
 62
     0
100
AcDbPoint
 10
2829.680047853677
 20
3165.409041411045
 30
0.0
  0
ENDBLK
  5
52BB
330
52B9
100
AcDbEntity
  8
0
100
AcDbBlockEnd
  0
BLOCK
  5
52CC
330
52CB
100
AcDbEntity
  8
0
100
AcDbBlockBegin
  2
*D18
 70
     1
 10
0.0
 20
0.0
 30
0.0
  3
*D18
  1
*D186
  0
LINE
  5
52CE
330
52CB
100
AcDbEntity
  8
Dim
 62
     0
370
    -2
100
AcDbLine
 10
3964.336308471271
 20
2501.352510681651
 30
0.0
 11
4018.914821539863
 21
2501.352510681651
 31
0.0
  0
LINE
  5
52CF
330
52CB
100
AcDbEntity
  8
Dim
 62
     0
370
    -2
100
AcDbLine
 10
3517.049176310818
 20
2321.352510681651
 30
0.0
 11
4018.914821539863
 21
2321.352510681651
 31
0.0
  0
LINE
  5
52D0
330
52CB
100
AcDbEntity
  8
Dim
 62
     0
370
    -2
100
AcDbLine
 10
4018.914821539863
 20
2491.353121033213
 30
0.0
 11
4018.914821539863
 21
2331.351900330089
 31
0.0
  0
INSERT
  5
52D1
330
52CB
100
AcDbEntity
  8
Dim
 62
     0
370
    -2
100
AcDbBlockReference
  2
_DOT
 10
4018.914821539863
 20
2501.352510681651
 30
0.0
 41
9.999389648437498
 42
9.999389648437498
 43
9.999389648437498
 50
90.0
  0
INSERT
  5
52D2
330
52CB
100
AcDbEntity
  8
Dim
 62
     0
370
    -2
100
AcDbBlockReference
  2
_DOT
 10
4018.914821539863
 20
2321.352510681651
 30
0.0
 41
9.999389648437498
 42
9.999389648437498
 43
9.999389648437498
 50
270.0
  0
MTEXT
  5
52D3
330
52CB
100
AcDbEntity
  8
Dim
 62
     0
100
AcDbMText
 10
3996.698512946113
 20
2411.352510681651
 30
0.0
 40
24.4326171875
 41
0.0
 46
0.0
 71
     5
 72
     1
  1
\A1;180
  7
ＭＳ ゴシック
 11
0.0
 21
1.0
 31
0.0
 73
     1
 44
1.0
  0
POINT
  5
52D4
330
52CB
100
AcDbEntity
  8
Defpoints
 62
     0
100
AcDbPoint
 10
3939.336308471271
 20
2501.352510681651
 30
0.0
  0
POINT
  5
52D5
330
52CB
100
AcDbEntity
  8
Defpoints
 62
     0
100
AcDbPoint
 10
3492.049176310818
 20
2321.352510681651
 30
0.0
  0
POINT
  5
52D6
330
52CB
100
AcDbEntity
  8
Defpoints
 62
     0
100
AcDbPoint
 10
4018.914821539863
 20
2321.352510681651
 30
0.0
  0
ENDBLK
  5
52CD
330
52CB
100
AcDbEntity
  8
0
100
AcDbBlockEnd
  0
BLOCK
  5
5306
330
5305
100
AcDbEntity
  8
0
100
AcDbBlockBegin
  2
*D19
 70
     1
 10
0.0
 20
0.0
 30
0.0
  3
*D19
  1
*D187
  0
LINE
  5
5308
330
5305
100
AcDbEntity
  8
Dim
 62
     0
370
    -2
100
AcDbLine
 10
4898.028075406837
 20
2357.367172092578
 30
0.0
 11
4898.028075406837
 21
2243.615289027292
 31
0.0
  0
LINE
  5
5309
330
5305
100
AcDbEntity
  8
Dim
 62
     0
370
    -2
100
AcDbLine
 10
4673.028081339147
 20
2297.523394289288
 30
0.0
 11
4673.028081339147
 21
2243.615289027292
 31
0.0
  0
LINE
  5
530A
330
5305
100
AcDbEntity
  8
Dim
 62
     0
370
    -2
100
AcDbLine
 10
4888.0286857584
 20
2243.615289027292
 30
0.0
 11
4683.027470987585
 21
2243.615289027292
 31
0.0
  0
INSERT
  5
530B
330
5305
100
AcDbEntity
  8
Dim
 62
     0
370
    -2
100
AcDbBlockReference
  2
_DOT
 10
4898.028075406837
 20
2243.615289027292
 30
0.0
 41
9.999389648437498
 42
9.999389648437498
 43
9.999389648437498
  0
INSERT
  5
530C
330
5305
100
AcDbEntity
  8
Dim
 62
     0
370
    -2
100
AcDbBlockReference
  2
_DOT
 10
4673.028081339147
 20
2243.615289027292
 30
0.0
 41
9.999389648437498
 42
9.999389648437498
 43
9.999389648437498
 50
180.0
  0
MTEXT
  5
530D
330
5305
100
AcDbEntity
  8
Dim
 62
     0
100
AcDbMText
 10
4785.528078372992
 20
2265.831597621042
 30
0.0
 40
24.4326171875
 41
0.0
 46
0.0
 71
     5
 72
     1
  1
\A1;225
  7
ＭＳ ゴシック
 73
     1
 44
1.0
  0
POINT
  5
530E
330
5305
100
AcDbEntity
  8
Defpoints
 62
     0
100
AcDbPoint
 10
4898.028075406837
 20
2382.367172092578
 30
0.0
  0
POINT
  5
530F
330
5305
100
AcDbEntity
  8
Defpoints
 62
     0
100
AcDbPoint
 10
4673.028081339147
 20
2322.523394289288
 30
0.0
  0
POINT
  5
5310
330
5305
100
AcDbEntity
  8
Defpoints
 62
     0
100
AcDbPoint
 10
4673.028081339147
 20
2243.615289027292
 30
0.0
  0
ENDBLK
  5
5307
330
5305
100
AcDbEntity
  8
0
100
AcDbBlockEnd
  0
BLOCK
  5
5328
330
5327
100
AcDbEntity
  8
0
100
AcDbBlockBegin
  2
*D20
 70
     1
 10
0.0
 20
0.0
 30
0.0
  3
*D20
  1
*D189
  0
LINE
  5
532A
330
5327
100
AcDbEntity
  8
Dim
  6
Continuous
 62
     0
370
    -2
100
AcDbLine
 10
4898.029002079336
 20
2522.39353565366
 30
0.0
 11
4898.029002079336
 21
2582.124111453276
 31
0.0
  0
LINE
  5
532B
330
5327
100
AcDbEntity
  8
Dim
  6
Continuous
 62
     0
370
    -2
100
AcDbLine
 10
4833.029002079336
 20
2522.39353565366
 30
0.0
 11
4833.029002079336
 21
2582.124111453276
 31
0.0
  0
LINE
  5
532C
330
5327
100
AcDbEntity
  8
Dim
  6
Continuous
 62
     0
370
    -2
100
AcDbLine
 10
4888.029612430899
 20
2582.124111453276
 30
0.0
 11
4843.028391727774
 21
2582.124111453276
 31
0.0
  0
INSERT
  5
532D
330
5327
100
AcDbEntity
  8
Dim
 62
     0
370
    -2
100
AcDbBlockReference
  2
_DOT
 10
4898.029002079336
 20
2582.124111453276
 30
0.0
 41
9.999389648437498
 42
9.999389648437498
 43
9.999389648437498
  0
INSERT
  5
532E
330
5327
100
AcDbEntity
  8
Dim
 62
     0
370
    -2
100
AcDbBlockReference
  2
_DOT
 10
4833.029002079336
 20
2582.124111453276
 30
0.0
 41
9.999389648437498
 42
9.999389648437498
 43
9.999389648437498
 50
180.0
  0
MTEXT
  5
532F
330
5327
100
AcDbEntity
  8
Dim
 62
     0
100
AcDbMText
 10
4865.529002079336
 20
2604.963451785307
 30
0.0
 40
24.4326171875
 41
0.0
 46
0.0
 71
     5
 72
     1
  1
\A1;??
  7
ＭＳ ゴシック
 73
     1
 44
1.0
  0
POINT
  5
5330
330
5327
100
AcDbEntity
  8
Defpoints
 62
     0
100
AcDbPoint
 10
4898.029002079336
 20
2497.39353565366
 30
0.0
  0
POINT
  5
5331
330
5327
100
AcDbEntity
  8
Defpoints
 62
     0
100
AcDbPoint
 10
4833.029002079336
 20
2497.39353565366
 30
0.0
  0
POINT
  5
5332
330
5327
100
AcDbEntity
  8
Defpoints
 62
     0
100
AcDbPoint
 10
4833.029002079336
 20
2582.124111453276
 30
0.0
  0
ENDBLK
  5
5329
330
5327
100
AcDbEntity
  8
0
100
AcDbBlockEnd
  0
BLOCK
  5
5334
330
5333
100
AcDbEntity
  8
0
100
AcDbBlockBegin
  2
*D21
 70
     1
 10
0.0
 20
0.0
 30
0.0
  3
*D21
  1
*D190
  0
LINE
  5
5336
330
5333
100
AcDbEntity
  8
Dim
  6
Continuous
 62
     0
370
    -2
100
AcDbLine
 10
4672.20719832828
 20
2502.18944032571
 30
0.0
 11
4672.20719832828
 21
2667.368733782741
 31
0.0
  0
LINE
  5
5337
330
5333
100
AcDbEntity
  8
Dim
  6
Continuous
 62
     0
370
    -2
100
AcDbLine
 10
4672.20719832828
 20
2382.410726920431
 30
0.0
 11
4672.20719832828
 21
2492.190050677273
 31
0.0
  0
INSERT
  5
5338
330
5333
100
AcDbEntity
  8
Dim
 62
     0
370
    -2
100
AcDbBlockReference
  2
_DOT
 10
4672.20719832828
 20
2372.411337271994
 30
0.0
 41
9.999389648437498
 42
9.999389648437498
 43
9.999389648437498
 50
270.0
  0
INSERT
  5
5339
330
5333
100
AcDbEntity
  8
Dim
 62
     0
370
    -2
100
AcDbBlockReference
  2
_DOT
 10
4672.20719832828
 20
2502.18944032571
 30
0.0
 41
9.999389648437498
 42
9.999389648437498
 43
9.999389648437498
 50
90.0
  0
MTEXT
  5
533A
330
5333
100
AcDbEntity
  8
Dim
 62
     0
100
AcDbMText
 10
4647.828603113437
 20
2598.376179583523
 30
0.0
 40
24.4326171875
 41
0.0
 46
0.0
 71
     5
 72
     1
  1
\A1;??(深さ)
  7
ＭＳ ゴシック
 11
0.0
 21
1.0
 31
0.0
 73
     1
 44
1.0
  0
POINT
  5
533B
330
5333
100
AcDbEntity
  8
Defpoints
 62
     0
100
AcDbPoint
 10
4672.20719832828
 20
2372.411337271994
 30
0.0
  0
POINT
  5
533C
330
5333
100
AcDbEntity
  8
Defpoints
 62
     0
100
AcDbPoint
 10
4672.20719832828
 20
2502.18944032571
 30
0.0
  0
POINT
  5
533D
330
5333
100
AcDbEntity
  8
Defpoints
 62
     0
100
AcDbPoint
 10
4672.20719832828
 20
2502.18944032571
 30
0.0
  0
ENDBLK
  5
5335
330
5333
100
AcDbEntity
  8
0
100
AcDbBlockEnd
  0
BLOCK
  5
5408
330
5407
100
AcDbEntity
  8
0
100
AcDbBlockBegin
  2
*D22
 70
     1
 10
0.0
 20
0.0
 30
0.0
  3
*D22
  1
*D202
  0
LINE
  5
540A
330
5407
100
AcDbEntity
  8
Dim
  6
Continuous
 62
     0
370
    -2
100
AcDbLine
 10
4356.101628759232
 20
2501.352523358981
 30
0.0
 11
4324.683039470547
 21
2501.352523358981
 31
0.0
  0
LINE
  5
540B
330
5407
100
AcDbEntity
  8
Dim
  6
Continuous
 62
     0
370
    -2
100
AcDbLine
 10
4356.101628759232
 20
2486.352523358981
 30
0.0
 11
4324.683039470547
 21
2486.352523358981
 31
0.0
  0
LINE
  5
540C
330
5407
100
AcDbEntity
  8
Dim
  6
Continuous
 62
     0
370
    -2
100
AcDbLine
 10
4324.683039470547
 20
2501.352523358981
 30
0.0
 11
4324.683039470547
 21
2568.129451093357
 31
0.0
  0
LINE
  5
540D
330
5407
100
AcDbEntity
  8
Dim
  6
Continuous
 62
     0
370
    -2
100
AcDbLine
 10
4324.683039470547
 20
2491.353133710543
 30
0.0
 11
4324.683039470547
 21
2496.351913007418
 31
0.0
  0
INSERT
  5
540E
330
5407
100
AcDbEntity
  8
Dim
 62
     0
370
    -2
100
AcDbBlockReference
  2
_DOT
 10
4324.683039470547
 20
2501.352523358981
 30
0.0
 41
9.999389648437498
 42
9.999389648437498
 43
9.999389648437498
 50
90.0
  0
INSERT
  5
540F
330
5407
100
AcDbEntity
  8
Dim
 62
     0
370
    -2
100
AcDbBlockReference
  2
_DOT
 10
4324.683039470547
 20
2486.352523358981
 30
0.0
 41
9.999389648437498
 42
9.999389648437498
 43
9.999389648437498
 50
270.0
  0
MTEXT
  5
5410
330
5407
100
AcDbEntity
  8
Dim
 62
     0
100
AcDbMText
 10
4302.466730876797
 20
2544.740376874607
 30
0.0
 40
24.4326171875
 41
0.0
 46
0.0
 71
     5
 72
     1
  1
\A1;15
  7
ＭＳ ゴシック
 11
0.0
 21
1.0
 31
0.0
 73
     1
 44
1.0
  0
POINT
  5
5411
330
5407
100
AcDbEntity
  8
Defpoints
 62
     0
100
AcDbPoint
 10
4381.101628759232
 20
2501.352523358981
 30
0.0
  0
POINT
  5
5412
330
5407
100
AcDbEntity
  8
Defpoints
 62
     0
100
AcDbPoint
 10
4381.101628759232
 20
2486.352523358981
 30
0.0
  0
POINT
  5
5413
330
5407
100
AcDbEntity
  8
Defpoints
 62
     0
100
AcDbPoint
 10
4324.683039470547
 20
2486.352523358981
 30
0.0
  0
ENDBLK
  5
5409
330
5407
100
AcDbEntity
  8
0
100
AcDbBlockEnd
  0
BLOCK
  5
5415
330
5414
100
AcDbEntity
  8
0
100
AcDbBlockBegin
  2
*D23
 70
     1
 10
0.0
 20
0.0
 30
0.0
  3
*D23
  1
*D203
  0
LINE
  5
5417
330
5414
100
AcDbEntity
  8
Dim
  6
Continuous
 62
     0
370
    -2
100
AcDbLine
 10
4331.101628759232
 20
2486.352523358981
 30
0.0
 11
4324.683039470547
 21
2486.352523358981
 31
0.0
  0
LINE
  5
5418
330
5414
100
AcDbEntity
  8
Dim
  6
Continuous
 62
     0
370
    -2
100
AcDbLine
 10
4425.128472696768
 20
2411.352523358981
 30
0.0
 11
4324.683039470547
 21
2411.352523358981
 31
0.0
  0
LINE
  5
5419
330
5414
100
AcDbEntity
  8
Dim
  6
Continuous
 62
     0
370
    -2
100
AcDbLine
 10
4324.683039470547
 20
2476.353133710543
 30
0.0
 11
4324.683039470547
 21
2421.351913007418
 31
0.0
  0
INSERT
  5
541A
330
5414
100
AcDbEntity
  8
Dim
 62
     0
370
    -2
100
AcDbBlockReference
  2
_DOT
 10
4324.683039470547
 20
2486.352523358981
 30
0.0
 41
9.999389648437498
 42
9.999389648437498
 43
9.999389648437498
 50
90.0
  0
INSERT
  5
541B
330
5414
100
AcDbEntity
  8
Dim
 62
     0
370
    -2
100
AcDbBlockReference
  2
_DOT
 10
4324.683039470547
 20
2411.352523358981
 30
0.0
 41
9.999389648437498
 42
9.999389648437498
 43
9.999389648437498
 50
270.0
  0
MTEXT
  5
541C
330
5414
100
AcDbEntity
  8
Dim
 62
     0
100
AcDbMText
 10
4302.466730876797
 20
2448.852523358981
 30
0.0
 40
24.4326171875
 41
0.0
 46
0.0
 71
     5
 72
     1
  1
\A1;75
  7
ＭＳ ゴシック
 11
0.0
 21
1.0
 31
0.0
 73
     1
 44
1.0
  0
POINT
  5
541D
330
5414
100
AcDbEntity
  8
Defpoints
 62
     0
100
AcDbPoint
 10
4356.101628759232
 20
2486.352523358981
 30
0.0
  0
POINT
  5
541E
330
5414
100
AcDbEntity
  8
Defpoints
 62
     0
100
AcDbPoint
 10
4450.128472696768
 20
2411.352523358981
 30
0.0
  0
POINT
  5
541F
330
5414
100
AcDbEntity
  8
Defpoints
 62
     0
100
AcDbPoint
 10
4324.683039470547
 20
2411.352523358981
 30
0.0
  0
ENDBLK
  5
5416
330
5414
100
AcDbEntity
  8
0
100
AcDbBlockEnd
  0
BLOCK
  5
5421
330
5420
100
AcDbEntity
  8
0
100
AcDbBlockBegin
  2
*D24
 70
     1
 10
0.0
 20
0.0
 30
0.0
  3
*D24
  1
*D204
  0
LINE
  5
5423
330
5420
100
AcDbEntity
  8
Dim
  6
Continuous
 62
     0
370
    -2
100
AcDbLine
 10
4400.128472696768
 20
2411.352523358981
 30
0.0
 11
4324.683039470547
 21
2411.352523358981
 31
0.0
  0
LINE
  5
5424
330
5420
100
AcDbEntity
  8
Dim
  6
Continuous
 62
     0
370
    -2
100
AcDbLine
 10
4614.802738114295
 20
2321.352523358981
 30
0.0
 11
4324.683039470547
 21
2321.352523358981
 31
0.0
  0
LINE
  5
5425
330
5420
100
AcDbEntity
  8
Dim
  6
Continuous
 62
     0
370
    -2
100
AcDbLine
 10
4324.683039470547
 20
2401.353133710543
 30
0.0
 11
4324.683039470547
 21
2331.351913007418
 31
0.0
  0
INSERT
  5
5426
330
5420
100
AcDbEntity
  8
Dim
 62
     0
370
    -2
100
AcDbBlockReference
  2
_DOT
 10
4324.683039470547
 20
2411.352523358981
 30
0.0
 41
9.999389648437498
 42
9.999389648437498
 43
9.999389648437498
 50
90.0
  0
INSERT
  5
5427
330
5420
100
AcDbEntity
  8
Dim
 62
     0
370
    -2
100
AcDbBlockReference
  2
_DOT
 10
4324.683039470547
 20
2321.352523358981
 30
0.0
 41
9.999389648437498
 42
9.999389648437498
 43
9.999389648437498
 50
270.0
  0
MTEXT
  5
5428
330
5420
100
AcDbEntity
  8
Dim
 62
     0
100
AcDbMText
 10
4302.466730876797
 20
2366.352523358981
 30
0.0
 40
24.4326171875
 41
0.0
 46
0.0
 71
     5
 72
     1
  1
\A1;90
  7
ＭＳ ゴシック
 11
0.0
 21
1.0
 31
0.0
 73
     1
 44
1.0
  0
POINT
  5
5429
330
5420
100
AcDbEntity
  8
Defpoints
 62
     0
100
AcDbPoint
 10
4425.128472696768
 20
2411.352523358981
 30
0.0
  0
POINT
  5
542A
330
5420
100
AcDbEntity
  8
Defpoints
 62
     0
100
AcDbPoint
 10
4639.802738114295
 20
2321.352523358981
 30
0.0
  0
POINT
  5
542B
330
5420
100
AcDbEntity
  8
Defpoints
 62
     0
100
AcDbPoint
 10
4324.683039470547
 20
2321.352523358981
 30
0.0
  0
ENDBLK
  5
5422
330
5420
100
AcDbEntity
  8
0
100
AcDbBlockEnd
  0
BLOCK
  5
5B07
330
5B06
100
AcDbEntity
  8
0
100
AcDbBlockBegin
  2
*D25
 70
     1
 10
0.0
 20
0.0
 30
0.0
  3
*D25
  1
*D51
  0
LINE
  5
5B09
330
5B06
100
AcDbEntity
  8
Dim
 62
     0
370
    -2
100
AcDbLine
 10
3309.289368929179
 20
633.146456660817
 30
0.0
 11
3309.289368929179
 21
745.136064642644
 31
0.0
  0
LINE
  5
5B0A
330
5B06
100
AcDbEntity
  8
Dim
 62
     0
370
    -2
100
AcDbLine
 10
3588.664368868541
 20
633.146456660817
 30
0.0
 11
3588.664368868541
 21
745.136064642644
 31
0.0
  0
LINE
  5
5B0B
330
5B06
100
AcDbEntity
  8
Dim
 62
     0
370
    -2
100
AcDbLine
 10
3319.288758577616
 20
745.136064642644
 30
0.0
 11
3578.664979220103
 21
745.136064642644
 31
0.0
  0
INSERT
  5
5B0C
330
5B06
100
AcDbEntity
  8
Dim
 62
     0
370
    -2
100
AcDbBlockReference
  2
_DOT
 10
3309.289368929179
 20
745.136064642644
 30
0.0
 41
9.999389648437498
 42
9.999389648437498
 43
9.999389648437498
 50
180.0
  0
INSERT
  5
5B0D
330
5B06
100
AcDbEntity
  8
Dim
 62
     0
370
    -2
100
AcDbBlockReference
  2
_DOT
 10
3588.664368868541
 20
745.136064642644
 30
0.0
 41
9.999389648437498
 42
9.999389648437498
 43
9.999389648437498
  0
MTEXT
  5
5B0E
330
5B06
100
AcDbEntity
  8
Dim
 62
     0
100
AcDbMText
 10
3448.97686889886
 20
767.352373236394
 30
0.0
 40
24.4326171875
 41
0.0
 46
0.0
 71
     5
 72
     1
  1
\A1;280
  7
ＭＳ ゴシック
 73
     1
 44
1.0
  0
POINT
  5
5B0F
330
5B06
100
AcDbEntity
  8
Defpoints
 62
     0
100
AcDbPoint
 10
3309.289368929179
 20
608.146456660817
 30
0.0
  0
POINT
  5
5B10
330
5B06
100
AcDbEntity
  8
Defpoints
 62
     0
100
AcDbPoint
 10
3588.664368868541
 20
608.146456660817
 30
0.0
  0
POINT
  5
5B11
330
5B06
100
AcDbEntity
  8
Defpoints
 62
     0
100
AcDbPoint
 10
3588.664368868541
 20
745.136064642644
 30
0.0
  0
ENDBLK
  5
5B08
330
5B06
100
AcDbEntity
  8
0
100
AcDbBlockEnd
  0
BLOCK
  5
5B21
330
5B20
100
AcDbEntity
  8
0
100
AcDbBlockBegin
  2
*D26
 70
     1
 10
0.0
 20
0.0
 30
0.0
  3
*D26
  1
*D53
  0
LINE
  5
5B23
330
5B20
100
AcDbEntity
  8
Dim
 62
     0
370
    -2
100
AcDbLine
 10
460.546864001491
 20
1000.770214248511
 30
0.0
 11
374.5441981275144
 21
1000.770214248511
 31
0.0
  0
LINE
  5
5B24
330
5B20
100
AcDbEntity
  8
Dim
 62
     0
370
    -2
100
AcDbLine
 10
460.546864001491
 20
900.7702142485109
 30
0.0
 11
374.5441981275144
 21
900.7702142485109
 31
0.0
  0
LINE
  5
5B25
330
5B20
100
AcDbEntity
  8
Dim
 62
     0
370
    -2
100
AcDbLine
 10
374.5441981275144
 20
990.7708246000734
 30
0.0
 11
374.5441981275144
 21
910.7696038969484
 31
0.0
  0
INSERT
  5
5B26
330
5B20
100
AcDbEntity
  8
Dim
 62
     0
370
    -2
100
AcDbBlockReference
  2
_DOT
 10
374.5441981275144
 20
1000.770214248511
 30
0.0
 41
9.999389648437498
 42
9.999389648437498
 43
9.999389648437498
 50
90.0
  0
INSERT
  5
5B27
330
5B20
100
AcDbEntity
  8
Dim
 62
     0
370
    -2
100
AcDbBlockReference
  2
_DOT
 10
374.5441981275144
 20
900.7702142485109
 30
0.0
 41
9.999389648437498
 42
9.999389648437498
 43
9.999389648437498
 50
270.0
  0
MTEXT
  5
5B28
330
5B20
100
AcDbEntity
  8
Dim
 62
     0
100
AcDbMText
 10
352.3278895337644
 20
950.7702142485109
 30
0.0
 40
24.4326171875
 41
0.0
 46
0.0
 71
     5
 72
     1
  1
\A1;100
  7
ＭＳ ゴシック
 11
0.0
 21
1.0
 31
0.0
 73
     1
 44
1.0
  0
POINT
  5
5B29
330
5B20
100
AcDbEntity
  8
Defpoints
 62
     0
100
AcDbPoint
 10
485.546864001491
 20
1000.770214248511
 30
0.0
  0
POINT
  5
5B2A
330
5B20
100
AcDbEntity
  8
Defpoints
 62
     0
100
AcDbPoint
 10
485.546864001491
 20
900.7702142485109
 30
0.0
  0
POINT
  5
5B2B
330
5B20
100
AcDbEntity
  8
Defpoints
 62
     0
100
AcDbPoint
 10
374.5441981275144
 20
900.7702142485109
 30
0.0
  0
ENDBLK
  5
5B22
330
5B20
100
AcDbEntity
  8
0
100
AcDbBlockEnd
  0
BLOCK
  5
5B2E
330
5B2D
100
AcDbEntity
  8
0
100
AcDbBlockBegin
  2
*D27
 70
     1
 10
0.0
 20
0.0
 30
0.0
  3
*D27
  1
*D54
  0
LINE
  5
5B30
330
5B2D
100
AcDbEntity
  8
Dim
 62
     0
370
    -2
100
AcDbLine
 10
460.546864001491
 20
1000.770214248511
 30
0.0
 11
374.5441981275144
 21
1000.770214248511
 31
0.0
  0
LINE
  5
5B31
330
5B2D
100
AcDbEntity
  8
Dim
 62
     0
370
    -2
100
AcDbLine
 10
460.546864001491
 20
1100.770214248511
 30
0.0
 11
374.5441981275144
 21
1100.770214248511
 31
0.0
  0
LINE
  5
5B32
330
5B2D
100
AcDbEntity
  8
Dim
 62
     0
370
    -2
100
AcDbLine
 10
374.5441981275144
 20
1010.769603896948
 30
0.0
 11
374.5441981275144
 21
1090.770824600073
 31
0.0
  0
INSERT
  5
5B33
330
5B2D
100
AcDbEntity
  8
Dim
 62
     0
370
    -2
100
AcDbBlockReference
  2
_DOT
 10
374.5441981275144
 20
1000.770214248511
 30
0.0
 41
9.999389648437498
 42
9.999389648437498
 43
9.999389648437498
 50
270.0
  0
INSERT
  5
5B34
330
5B2D
100
AcDbEntity
  8
Dim
 62
     0
370
    -2
100
AcDbBlockReference
  2
_DOT
 10
374.5441981275144
 20
1100.770214248511
 30
0.0
 41
9.999389648437498
 42
9.999389648437498
 43
9.999389648437498
 50
90.0
  0
MTEXT
  5
5B35
330
5B2D
100
AcDbEntity
  8
Dim
 62
     0
100
AcDbMText
 10
352.3278895337644
 20
1050.770214248511
 30
0.0
 40
24.4326171875
 41
0.0
 46
0.0
 71
     5
 72
     1
  1
\A1;100
  7
ＭＳ ゴシック
 11
0.0
 21
1.0
 31
0.0
 73
     1
 44
1.0
  0
POINT
  5
5B36
330
5B2D
100
AcDbEntity
  8
Defpoints
 62
     0
100
AcDbPoint
 10
485.546864001491
 20
1000.770214248511
 30
0.0
  0
POINT
  5
5B37
330
5B2D
100
AcDbEntity
  8
Defpoints
 62
     0
100
AcDbPoint
 10
485.546864001491
 20
1100.770214248511
 30
0.0
  0
POINT
  5
5B38
330
5B2D
100
AcDbEntity
  8
Defpoints
 62
     0
100
AcDbPoint
 10
374.5441981275144
 20
1100.770214248511
 30
0.0
  0
ENDBLK
  5
5B2F
330
5B2D
100
AcDbEntity
  8
0
100
AcDbBlockEnd
  0
BLOCK
  5
5B55
330
5B54
100
AcDbEntity
  8
0
100
AcDbBlockBegin
  2
*D28
 70
     1
 10
0.0
 20
0.0
 30
0.0
  3
*D28
  1
*D57
  0
LINE
  5
5B57
330
5B54
100
AcDbEntity
  8
MODEL
 62
     0
370
    -2
100
AcDbLine
 10
4440.304325736408
 20
519.180817276022
 30
0.0
 11
4442.616053662353
 21
519.180817276022
 31
0.0
  0
LINE
  5
5B58
330
5B54
100
AcDbEntity
  8
MODEL
 62
     0
370
    -2
100
AcDbLine
 10
4440.304325736408
 20
534.0337305873554
 30
0.0
 11
4442.616053662353
 21
534.0337305873554
 31
0.0
  0
LINE
  5
5B59
330
5B54
100
AcDbEntity
  8
MODEL
 62
     0
370
    -2
100
AcDbLine
 10
4442.616053662353
 20
529.1802069244595
 30
0.0
 11
4442.616053662353
 21
524.0343409389179
 31
0.0
  0
INSERT
  5
5B5A
330
5B54
100
AcDbEntity
  8
MODEL
 62
     0
370
    -2
100
AcDbBlockReference
  2
_DOT
 10
4442.616053662353
 20
519.180817276022
 30
0.0
 41
9.999389648437498
 42
9.999389648437498
 43
9.999389648437498
 50
270.0
  0
INSERT
  5
5B5B
330
5B54
100
AcDbEntity
  8
MODEL
 62
     0
370
    -2
100
AcDbBlockReference
  2
_DOT
 10
4442.616053662353
 20
534.0337305873554
 30
0.0
 41
9.999389648437498
 42
9.999389648437498
 43
9.999389648437498
 50
90.0
  0
MTEXT
  5
5B5C
330
5B54
100
AcDbEntity
  8
MODEL
 62
     0
100
AcDbMText
 10
4420.399745068603
 20
526.6072739316887
 30
0.0
 40
24.4326171875
 41
0.0
 46
0.0
 71
     5
 72
     1
  1
\A1;14.9
  7
ＭＳ ゴシック
 11
0.0
 21
1.0
 31
0.0
 73
     1
 44
1.0
  0
POINT
  5
5B5D
330
5B54
100
AcDbEntity
  8
Defpoints
 62
     0
100
AcDbPoint
 10
4465.304325736408
 20
519.180817276022
 30
0.0
  0
POINT
  5
5B5E
330
5B54
100
AcDbEntity
  8
Defpoints
 62
     0
100
AcDbPoint
 10
4465.304325736408
 20
534.0337305873554
 30
0.0
  0
POINT
  5
5B5F
330
5B54
100
AcDbEntity
  8
Defpoints
 62
     0
100
AcDbPoint
 10
4442.616053662353
 20
534.0337305873554
 30
0.0
  0
ENDBLK
  5
5B56
330
5B54
100
AcDbEntity
  8
0
100
AcDbBlockEnd
  0
BLOCK
  5
5B62
330
5B61
100
AcDbEntity
  8
0
100
AcDbBlockBegin
  2
*D29
 70
     1
 10
0.0
 20
0.0
 30
0.0
  3
*D29
  1
*D58
  0
LINE
  5
5B64
330
5B61
100
AcDbEntity
  8
MODEL
 62
     0
370
    -2
100
AcDbLine
 10
4440.304325736408
 20
519.180817276022
 30
0.0
 11
4442.616053662353
 21
519.180817276022
 31
0.0
  0
LINE
  5
5B65
330
5B61
100
AcDbEntity
  8
MODEL
 62
     0
370
    -2
100
AcDbLine
 10
4440.304325736408
 20
444.0337186029365
 30
0.0
 11
4442.616053662353
 21
444.0337186029365
 31
0.0
  0
LINE
  5
5B66
330
5B61
100
AcDbEntity
  8
MODEL
 62
     0
370
    -2
100
AcDbLine
 10
4442.616053662353
 20
509.1814276275845
 30
0.0
 11
4442.616053662353
 21
454.033108251374
 31
0.0
  0
INSERT
  5
5B67
330
5B61
100
AcDbEntity
  8
MODEL
 62
     0
370
    -2
100
AcDbBlockReference
  2
_DOT
 10
4442.616053662353
 20
519.180817276022
 30
0.0
 41
9.999389648437498
 42
9.999389648437498
 43
9.999389648437498
 50
90.0
  0
INSERT
  5
5B68
330
5B61
100
AcDbEntity
  8
MODEL
 62
     0
370
    -2
100
AcDbBlockReference
  2
_DOT
 10
4442.616053662353
 20
444.0337186029365
 30
0.0
 41
9.999389648437498
 42
9.999389648437498
 43
9.999389648437498
 50
270.0
  0
MTEXT
  5
5B69
330
5B61
100
AcDbEntity
  8
MODEL
 62
     0
100
AcDbMText
 10
4420.399745068603
 20
480.1072388742914
 30
0.0
 40
24.4326171875
 41
0.0
 46
0.0
 71
     5
 72
     1
  1
\A1;75.1
  7
ＭＳ ゴシック
 11
0.0
 21
1.0
 31
0.0
 73
     1
 44
1.0
  0
POINT
  5
5B6A
330
5B61
100
AcDbEntity
  8
Defpoints
 62
     0
100
AcDbPoint
 10
4465.304325736408
 20
519.180817276022
 30
0.0
  0
POINT
  5
5B6B
330
5B61
100
AcDbEntity
  8
Defpoints
 62
     0
100
AcDbPoint
 10
4465.304325736408
 20
444.0337186029365
 30
0.0
  0
POINT
  5
5B6C
330
5B61
100
AcDbEntity
  8
Defpoints
 62
     0
100
AcDbPoint
 10
4442.616053662353
 20
444.0337186029365
 30
0.0
  0
ENDBLK
  5
5B63
330
5B61
100
AcDbEntity
  8
0
100
AcDbBlockEnd
  0
BLOCK
  5
5B6F
330
5B6E
100
AcDbEntity
  8
0
100
AcDbBlockBegin
  2
*D30
 70
     1
 10
0.0
 20
0.0
 30
0.0
  3
*D30
  1
*D59
  0
LINE
  5
5B71
330
5B6E
100
AcDbEntity
  8
MODEL
 62
     0
370
    -2
100
AcDbLine
 10
4440.304325736408
 20
444.0337186029365
 30
0.0
 11
4442.616053662353
 21
444.0337186029365
 31
0.0
  0
LINE
  5
5B72
330
5B6E
100
AcDbEntity
  8
MODEL
 62
     0
370
    -2
100
AcDbLine
 10
4440.304325736408
 20
355.2046015176757
 30
0.0
 11
4442.616053662353
 21
355.2046015176757
 31
0.0
  0
LINE
  5
5B73
330
5B6E
100
AcDbEntity
  8
MODEL
 62
     0
370
    -2
100
AcDbLine
 10
4442.616053662353
 20
434.034328954499
 30
0.0
 11
4442.616053662353
 21
365.2039911661132
 31
0.0
  0
INSERT
  5
5B74
330
5B6E
100
AcDbEntity
  8
MODEL
 62
     0
370
    -2
100
AcDbBlockReference
  2
_DOT
 10
4442.616053662353
 20
444.0337186029365
 30
0.0
 41
9.999389648437498
 42
9.999389648437498
 43
9.999389648437498
 50
90.0
  0
INSERT
  5
5B75
330
5B6E
100
AcDbEntity
  8
MODEL
 62
     0
370
    -2
100
AcDbBlockReference
  2
_DOT
 10
4442.616053662353
 20
355.2046015176757
 30
0.0
 41
9.999389648437498
 42
9.999389648437498
 43
9.999389648437498
 50
270.0
  0
MTEXT
  5
5B76
330
5B6E
100
AcDbEntity
  8
MODEL
 62
     0
100
AcDbMText
 10
4420.399745068603
 20
404.9601395983491
 30
0.0
 40
24.4326171875
 41
0.0
 46
0.0
 71
     5
 72
     1
  1
\A1;90
  7
ＭＳ ゴシック
 11
0.0
 21
1.0
 31
0.0
 73
     1
 44
1.0
  0
POINT
  5
5B77
330
5B6E
100
AcDbEntity
  8
Defpoints
 62
     0
100
AcDbPoint
 10
4465.304325736408
 20
444.0337186029365
 30
0.0
  0
POINT
  5
5B78
330
5B6E
100
AcDbEntity
  8
Defpoints
 62
     0
100
AcDbPoint
 10
4465.304325736408
 20
355.2046015176757
 30
0.0
  0
POINT
  5
5B79
330
5B6E
100
AcDbEntity
  8
Defpoints
 62
     0
100
AcDbPoint
 10
4442.616053662353
 20
355.2046015176757
 30
0.0
  0
ENDBLK
  5
5B70
330
5B6E
100
AcDbEntity
  8
0
100
AcDbBlockEnd
  0
BLOCK
  5
5B7C
330
5B7B
100
AcDbEntity
  8
0
100
AcDbBlockBegin
  2
*D31
 70
     1
 10
0.0
 20
0.0
 30
0.0
  3
*D31
  1
*D60
  0
LINE
  5
5B7E
330
5B7B
100
AcDbEntity
  8
MODEL
 62
     0
370
    -2
100
AcDbLine
 10
4375.136581830327
 20
534.0337305873554
 30
0.0
 11
4377.772210186291
 21
534.0337305873554
 31
0.0
  0
LINE
  5
5B7F
330
5B7B
100
AcDbEntity
  8
MODEL
 62
     0
370
    -2
100
AcDbLine
 10
4380.136581830327
 20
352.7045808986304
 30
0.0
 11
4377.772210186291
 21
352.7045808986304
 31
0.0
  0
LINE
  5
5B80
330
5B7B
100
AcDbEntity
  8
MODEL
 62
     0
370
    -2
100
AcDbLine
 10
4377.772210186291
 20
524.0343409389179
 30
0.0
 11
4377.772210186291
 21
362.7039705470679
 31
0.0
  0
INSERT
  5
5B81
330
5B7B
100
AcDbEntity
  8
MODEL
 62
     0
370
    -2
100
AcDbBlockReference
  2
_DOT
 10
4377.772210186291
 20
534.0337305873554
 30
0.0
 41
9.999389648437498
 42
9.999389648437498
 43
9.999389648437498
 50
90.0
  0
INSERT
  5
5B82
330
5B7B
100
AcDbEntity
  8
MODEL
 62
     0
370
    -2
100
AcDbBlockReference
  2
_DOT
 10
4377.772210186291
 20
352.7045808986304
 30
0.0
 41
9.999389648437498
 42
9.999389648437498
 43
9.999389648437498
 50
270.0
  0
MTEXT
  5
5B83
330
5B7B
100
AcDbEntity
  8
MODEL
 62
     0
100
AcDbMText
 10
4355.555901592541
 20
443.3691557429929
 30
0.0
 40
24.4326171875
 41
0.0
 46
0.0
 71
     5
 72
     1
  1
\A1;180
  7
ＭＳ ゴシック
 11
0.0
 21
1.0
 31
0.0
 73
     1
 44
1.0
  0
POINT
  5
5B84
330
5B7B
100
AcDbEntity
  8
Defpoints
 62
     0
100
AcDbPoint
 10
4400.136581830327
 20
534.0337305873554
 30
0.0
  0
POINT
  5
5B85
330
5B7B
100
AcDbEntity
  8
Defpoints
 62
     0
100
AcDbPoint
 10
4405.136581830327
 20
352.7045808986304
 30
0.0
  0
POINT
  5
5B86
330
5B7B
100
AcDbEntity
  8
Defpoints
 62
     0
100
AcDbPoint
 10
4377.772210186291
 20
352.7045808986304
 30
0.0
  0
ENDBLK
  5
5B7D
330
5B7B
100
AcDbEntity
  8
0
100
AcDbBlockEnd
  0
BLOCK
  5
5B89
330
5B88
100
AcDbEntity
  8
0
100
AcDbBlockBegin
  2
*D32
 70
     1
 10
0.0
 20
0.0
 30
0.0
  3
*D32
  1
*D61
  0
LINE
  5
5B8B
330
5B88
100
AcDbEntity
  8
MODEL
 62
     0
370
    -2
100
AcDbLine
 10
4999.101067885129
 20
574.4978641151984
 30
0.0
 11
4999.101067885129
 21
570.193937218778
 31
0.0
  0
LINE
  5
5B8C
330
5B88
100
AcDbEntity
  8
MODEL
 62
     0
370
    -2
100
AcDbLine
 10
4772.726743913065
 20
564.0337813440428
 30
0.0
 11
4772.726743913065
 21
570.193937218778
 31
0.0
  0
LINE
  5
5B8D
330
5B88
100
AcDbEntity
  8
MODEL
 62
     0
370
    -2
100
AcDbLine
 10
4989.101678236691
 20
570.193937218778
 30
0.0
 11
4782.726133561502
 21
570.193937218778
 31
0.0
  0
INSERT
  5
5B8E
330
5B88
100
AcDbEntity
  8
MODEL
 62
     0
370
    -2
100
AcDbBlockReference
  2
_DOT
 10
4999.101067885129
 20
570.193937218778
 30
0.0
 41
9.999389648437498
 42
9.999389648437498
 43
9.999389648437498
  0
INSERT
  5
5B8F
330
5B88
100
AcDbEntity
  8
MODEL
 62
     0
370
    -2
100
AcDbBlockReference
  2
_DOT
 10
4772.726743913065
 20
570.193937218778
 30
0.0
 41
9.999389648437498
 42
9.999389648437498
 43
9.999389648437498
 50
180.0
  0
MTEXT
  5
5B90
330
5B88
100
AcDbEntity
  8
MODEL
 62
     0
100
AcDbMText
 10
4885.913905899097
 20
592.410245812528
 30
0.0
 40
24.4326171875
 41
0.0
 46
0.0
 71
     5
 72
     1
  1
\A1;225
  7
ＭＳ ゴシック
 73
     1
 44
1.0
  0
POINT
  5
5B91
330
5B88
100
AcDbEntity
  8
Defpoints
 62
     0
100
AcDbPoint
 10
4999.101067885129
 20
549.4978641151984
 30
0.0
  0
POINT
  5
5B92
330
5B88
100
AcDbEntity
  8
Defpoints
 62
     0
100
AcDbPoint
 10
4772.726743913065
 20
539.0337813440428
 30
0.0
  0
POINT
  5
5B93
330
5B88
100
AcDbEntity
  8
Defpoints
 62
     0
100
AcDbPoint
 10
4772.726743913065
 20
570.193937218778
 30
0.0
  0
ENDBLK
  5
5B8A
330
5B88
100
AcDbEntity
  8
0
100
AcDbBlockEnd
  0
BLOCK
  5
5B96
330
5B95
100
AcDbEntity
  8
0
100
AcDbBlockBegin
  2
*D33
 70
     1
 10
0.0
 20
0.0
 30
0.0
  3
*D33
  1
*D62
  0
LINE
  5
5B98
330
5B95
100
AcDbEntity
  8
MODEL
 62
     0
370
    -2
100
AcDbLine
 10
5050.538725183103
 20
535.5337953104909
 30
0.0
 11
5037.174474689326
 21
535.5337953104909
 31
0.0
  0
LINE
  5
5B99
330
5B95
100
AcDbEntity
  8
MODEL
 62
     0
370
    -2
100
AcDbLine
 10
5050.538725183103
 20
495.5337953104909
 30
0.0
 11
5037.174474689326
 21
495.5337953104909
 31
0.0
  0
LINE
  5
5B9A
330
5B95
100
AcDbEntity
  8
MODEL
 62
     0
370
    -2
100
AcDbLine
 10
5037.174474689326
 20
535.5337953104909
 30
0.0
 11
5037.174474689326
 21
495.5337953104909
 31
0.0
  0
LINE
  5
5B9B
330
5B95
100
AcDbEntity
  8
MODEL
 62
     0
370
    -2
100
AcDbLine
 10
5037.174474689326
 20
545.5331849589284
 30
0.0
 11
5037.174474689326
 21
555.5325746073659
 31
0.0
  0
LINE
  5
5B9C
330
5B95
100
AcDbEntity
  8
MODEL
 62
     0
370
    -2
100
AcDbLine
 10
5037.174474689326
 20
485.5344056620534
 30
0.0
 11
5037.174474689326
 21
475.5350160136159
 31
0.0
  0
INSERT
  5
5B9D
330
5B95
100
AcDbEntity
  8
MODEL
 62
     0
370
    -2
100
AcDbBlockReference
  2
_DOT
 10
5037.174474689326
 20
535.5337953104909
 30
0.0
 41
9.999389648437498
 42
9.999389648437498
 43
9.999389648437498
 50
270.0
  0
INSERT
  5
5B9E
330
5B95
100
AcDbEntity
  8
MODEL
 62
     0
370
    -2
100
AcDbBlockReference
  2
_DOT
 10
5037.174474689326
 20
495.5337953104909
 30
0.0
 41
9.999389648437498
 42
9.999389648437498
 43
9.999389648437498
 50
90.0
  0
MTEXT
  5
5B9F
330
5B95
100
AcDbEntity
  8
MODEL
 62
     0
100
AcDbMText
 10
5014.958166095576
 20
515.5337953104909
 30
0.0
 40
24.4326171875
 41
0.0
 46
0.0
 71
     5
 72
     1
  1
\A1;40
  7
ＭＳ ゴシック
 11
0.0
 21
1.0
 31
0.0
 73
     1
 44
1.0
  0
POINT
  5
5BA0
330
5B95
100
AcDbEntity
  8
Defpoints
 62
     0
100
AcDbPoint
 10
5025.538725183103
 20
535.5337953104909
 30
0.0
  0
POINT
  5
5BA1
330
5B95
100
AcDbEntity
  8
Defpoints
 62
     0
100
AcDbPoint
 10
5025.538725183103
 20
495.5337953104909
 30
0.0
  0
POINT
  5
5BC9
330
5B95
100
AcDbEntity
  8
Defpoints
 62
     0
100
AcDbPoint
 10
5037.174474689326
 20
495.5337953104909
 30
0.0
  0
ENDBLK
  5
5B97
330
5B95
100
AcDbEntity
  8
0
100
AcDbBlockEnd
  0
BLOCK
  5
5BA3
330
5BA2
100
AcDbEntity
  8
0
100
AcDbBlockBegin
  2
*D34
 70
     1
 10
0.0
 20
0.0
 30
0.0
  3
*D34
  1
*D63
  0
LINE
  5
5BA5
330
5BA2
100
AcDbEntity
  8
MODEL
 62
     0
370
    -2
100
AcDbLine
 10
5050.538725183103
 20
495.5337953104909
 30
0.0
 11
5037.174474689326
 21
495.5337953104909
 31
0.0
  0
LINE
  5
5BA6
330
5BA2
100
AcDbEntity
  8
MODEL
 62
     0
370
    -2
100
AcDbLine
 10
5050.538725183103
 20
399.7701288855469
 30
0.0
 11
5037.174474689326
 21
399.7701288855469
 31
0.0
  0
LINE
  5
5BA7
330
5BA2
100
AcDbEntity
  8
MODEL
 62
     0
370
    -2
100
AcDbLine
 10
5037.174474689326
 20
485.5344056620534
 30
0.0
 11
5037.174474689326
 21
409.7695185339844
 31
0.0
  0
INSERT
  5
5BA8
330
5BA2
100
AcDbEntity
  8
MODEL
 62
     0
370
    -2
100
AcDbBlockReference
  2
_DOT
 10
5037.174474689326
 20
495.5337953104909
 30
0.0
 41
9.999389648437498
 42
9.999389648437498
 43
9.999389648437498
 50
90.0
  0
INSERT
  5
5BA9
330
5BA2
100
AcDbEntity
  8
MODEL
 62
     0
370
    -2
100
AcDbBlockReference
  2
_DOT
 10
5037.174474689326
 20
399.7701288855469
 30
0.0
 41
9.999389648437498
 42
9.999389648437498
 43
9.999389648437498
 50
270.0
  0
MTEXT
  5
5BAA
330
5BA2
100
AcDbEntity
  8
MODEL
 62
     0
100
AcDbMText
 10
5014.958166095576
 20
447.6519620980189
 30
0.0
 40
24.4326171875
 41
0.0
 46
0.0
 71
     5
 72
     1
  1
\A1;95
  7
ＭＳ ゴシック
 11
0.0
 21
1.0
 31
0.0
 73
     1
 44
1.0
  0
POINT
  5
5BAB
330
5BA2
100
AcDbEntity
  8
Defpoints
 62
     0
100
AcDbPoint
 10
5025.538725183103
 20
495.5337953104909
 30
0.0
  0
POINT
  5
5BAC
330
5BA2
100
AcDbEntity
  8
Defpoints
 62
     0
100
AcDbPoint
 10
5025.538725183103
 20
399.7701288855469
 30
0.0
  0
POINT
  5
5BAD
330
5BA2
100
AcDbEntity
  8
Defpoints
 62
     0
100
AcDbPoint
 10
5037.174474689326
 20
399.7701288855469
 30
0.0
  0
ENDBLK
  5
5BA4
330
5BA2
100
AcDbEntity
  8
0
100
AcDbBlockEnd
  0
BLOCK
  5
5BE5
330
5BE4
100
AcDbEntity
  8
0
100
AcDbBlockBegin
  2
*D35
 70
     1
 10
0.0
 20
0.0
 30
0.0
  3
*D35
  1
*D67
  0
LINE
  5
5BE7
330
5BE4
100
AcDbEntity
  8
Dim
 62
     0
370
    -2
100
AcDbLine
 10
417.2510733415488
 20
600.1576757478742
 30
0.0
 11
295.6530889582322
 21
600.1576757478742
 31
0.0
  0
LINE
  5
5BE8
330
5BE4
100
AcDbEntity
  8
Dim
 62
     0
370
    -2
100
AcDbLine
 10
417.2510733415488
 20
1400.157675747874
 30
0.0
 11
295.6530889582323
 21
1400.157675747874
 31
0.0
  0
LINE
  5
5BE9
330
5BE4
100
AcDbEntity
  8
Dim
 62
     0
370
    -2
100
AcDbLine
 10
295.6530889582322
 20
610.1570653963117
 30
0.0
 11
295.6530889582323
 21
1390.158286099437
 31
0.0
  0
INSERT
  5
5BEA
330
5BE4
100
AcDbEntity
  8
Dim
 62
     0
370
    -2
100
AcDbBlockReference
  2
_DOT
 10
295.6530889582322
 20
600.1576757478742
 30
0.0
 41
9.999389648437498
 42
9.999389648437498
 43
9.999389648437498
 50
270.0
  0
INSERT
  5
5BEB
330
5BE4
100
AcDbEntity
  8
Dim
 62
     0
370
    -2
100
AcDbBlockReference
  2
_DOT
 10
295.6530889582323
 20
1400.157675747874
 30
0.0
 41
9.999389648437498
 42
9.999389648437498
 43
9.999389648437498
 50
90.0
  0
MTEXT
  5
5BEC
330
5BE4
100
AcDbEntity
  8
Dim
 62
     0
100
AcDbMText
 10
273.4367803644823
 20
1000.157675747874
 30
0.0
 40
24.4326171875
 41
0.0
 46
0.0
 71
     5
 72
     1
  1
\A1;800
  7
ＭＳ ゴシック
 11
7.105427357601002E-17
 21
1.0
 31
0.0
 73
     1
 44
1.0
  0
POINT
  5
5BED
330
5BE4
100
AcDbEntity
  8
Defpoints
 62
     0
100
AcDbPoint
 10
442.2510733415488
 20
600.1576757478742
 30
0.0
  0
POINT
  5
5BEE
330
5BE4
100
AcDbEntity
  8
Defpoints
 62
     0
100
AcDbPoint
 10
442.2510733415488
 20
1400.157675747874
 30
0.0
  0
POINT
  5
5BEF
330
5BE4
100
AcDbEntity
  8
Defpoints
 62
     0
100
AcDbPoint
 10
295.6530889582323
 20
1400.157675747874
 30
0.0
  0
ENDBLK
  5
5BE6
330
5BE4
100
AcDbEntity
  8
0
100
AcDbBlockEnd
  0
BLOCK
  5
5C03
330
5C02
100
AcDbEntity
  8
0
100
AcDbBlockBegin
  2
*D36
 70
     1
 10
0.0
 20
0.0
 30
0.0
  3
*D36
  1
*D68
  0
LINE
  5
5C05
330
5C02
100
AcDbEntity
  8
Dim
 62
     0
370
    -2
100
AcDbLine
 10
3309.289368929179
 20
540.0917993862558
 30
0.0
 11
3309.289368929179
 21
576.0233197554124
 31
0.0
  0
LINE
  5
5C06
330
5C02
100
AcDbEntity
  8
Dim
 62
     0
370
    -2
100
AcDbLine
 10
3588.664368868541
 20
543.5332099796015
 30
0.0
 11
3588.664368868541
 21
576.0233197554124
 31
0.0
  0
LINE
  5
5C07
330
5C02
100
AcDbEntity
  8
Dim
 62
     0
370
    -2
100
AcDbLine
 10
3319.288758577616
 20
576.0233197554124
 30
0.0
 11
3578.664979220104
 21
576.0233197554124
 31
0.0
  0
INSERT
  5
5C08
330
5C02
100
AcDbEntity
  8
Dim
 62
     0
370
    -2
100
AcDbBlockReference
  2
_DOT
 10
3309.289368929179
 20
576.0233197554124
 30
0.0
 41
9.999389648437498
 42
9.999389648437498
 43
9.999389648437498
 50
180.0
  0
INSERT
  5
5C09
330
5C02
100
AcDbEntity
  8
Dim
 62
     0
370
    -2
100
AcDbBlockReference
  2
_DOT
 10
3588.664368868541
 20
576.0233197554124
 30
0.0
 41
9.999389648437498
 42
9.999389648437498
 43
9.999389648437498
  0
MTEXT
  5
5C0A
330
5C02
100
AcDbEntity
  8
Dim
 62
     0
100
AcDbMText
 10
3448.97686889886
 20
598.2396283491624
 30
0.0
 40
24.4326171875
 41
0.0
 46
0.0
 71
     5
 72
     1
  1
\A1;279.4
  7
ＭＳ ゴシック
 73
     1
 44
1.0
  0
POINT
  5
5C0B
330
5C02
100
AcDbEntity
  8
Defpoints
 62
     0
100
AcDbPoint
 10
3309.289368929179
 20
515.0917993862558
 30
0.0
  0
POINT
  5
5C0C
330
5C02
100
AcDbEntity
  8
Defpoints
 62
     0
100
AcDbPoint
 10
3588.664368868541
 20
518.5332099796015
 30
0.0
  0
POINT
  5
5C0D
330
5C02
100
AcDbEntity
  8
Defpoints
 62
     0
100
AcDbPoint
 10
3588.664368868541
 20
576.0233197554124
 30
0.0
  0
ENDBLK
  5
5C04
330
5C02
100
AcDbEntity
  8
0
100
AcDbBlockEnd
  0
BLOCK
  5
5C10
330
5C0F
100
AcDbEntity
  8
0
100
AcDbBlockBegin
  2
*D37
 70
     1
 10
0.0
 20
0.0
 30
0.0
  3
*D37
  1
*D69
  0
LINE
  5
5C12
330
5C0F
100
AcDbEntity
  8
Dim
 62
     0
370
    -2
100
AcDbLine
 10
1542.481893534343
 20
861.3952142788226
 30
0.0
 11
1484.662351285004
 21
861.3952142788226
 31
0.0
  0
LINE
  5
5C13
330
5C0F
100
AcDbEntity
  8
Dim
 62
     0
370
    -2
100
AcDbLine
 10
1542.481893534343
 20
1141.395214278823
 30
0.0
 11
1484.662351285004
 21
1141.395214278823
 31
0.0
  0
LINE
  5
5C14
330
5C0F
100
AcDbEntity
  8
Dim
 62
     0
370
    -2
100
AcDbLine
 10
1484.662351285004
 20
871.39460392726
 30
0.0
 11
1484.662351285004
 21
1131.395824630385
 31
0.0
  0
INSERT
  5
5C15
330
5C0F
100
AcDbEntity
  8
Dim
 62
     0
370
    -2
100
AcDbBlockReference
  2
_DOT
 10
1484.662351285004
 20
861.3952142788226
 30
0.0
 41
9.999389648437498
 42
9.999389648437498
 43
9.999389648437498
 50
270.0
  0
INSERT
  5
5C16
330
5C0F
100
AcDbEntity
  8
Dim
 62
     0
370
    -2
100
AcDbBlockReference
  2
_DOT
 10
1484.662351285004
 20
1141.395214278823
 30
0.0
 41
9.999389648437498
 42
9.999389648437498
 43
9.999389648437498
 50
90.0
  0
MTEXT
  5
5C17
330
5C0F
100
AcDbEntity
  8
Dim
 62
     0
100
AcDbMText
 10
1462.446042691254
 20
1001.395214278823
 30
0.0
 40
24.4326171875
 41
0.0
 46
0.0
 71
     5
 72
     1
  1
\A1;280
  7
ＭＳ ゴシック
 11
0.0
 21
1.0
 31
0.0
 73
     1
 44
1.0
  0
POINT
  5
5C18
330
5C0F
100
AcDbEntity
  8
Defpoints
 62
     0
100
AcDbPoint
 10
1567.481893534343
 20
861.3952142788226
 30
0.0
  0
POINT
  5
5C19
330
5C0F
100
AcDbEntity
  8
Defpoints
 62
     0
100
AcDbPoint
 10
1567.481893534343
 20
1141.395214278823
 30
0.0
  0
POINT
  5
5C1A
330
5C0F
100
AcDbEntity
  8
Defpoints
 62
     0
100
AcDbPoint
 10
1484.662351285004
 20
1141.395214278823
 30
0.0
  0
ENDBLK
  5
5C11
330
5C0F
100
AcDbEntity
  8
0
100
AcDbBlockEnd
  0
BLOCK
  5
5C41
330
5C40
100
AcDbEntity
  8
0
100
AcDbBlockBegin
  2
*D38
 70
     1
 10
0.0
 20
0.0
 30
0.0
  3
*D38
  1
*D70
  0
LINE
  5
5C43
330
5C40
100
AcDbEntity
  8
Dim
 62
     0
370
    -2
100
AcDbLine
 10
438.5608401028453
 20
1416.239935687507
 30
0.0
 11
438.5608401028453
 21
1548.433117266463
 31
0.0
  0
LINE
  5
5C44
330
5C40
100
AcDbEntity
  8
Dim
 62
     0
370
    -2
100
AcDbLine
 10
958.5608401028453
 20
1384.151728302696
 30
0.0
 11
958.5608401028453
 21
1548.433117266463
 31
0.0
  0
LINE
  5
5C45
330
5C40
100
AcDbEntity
  8
Dim
 62
     0
370
    -2
100
AcDbLine
 10
448.5602297512828
 20
1548.433117266463
 30
0.0
 11
948.5614504544078
 21
1548.433117266463
 31
0.0
  0
INSERT
  5
5C46
330
5C40
100
AcDbEntity
  8
Dim
 62
     0
370
    -2
100
AcDbBlockReference
  2
_DOT
 10
438.5608401028453
 20
1548.433117266463
 30
0.0
 41
9.999389648437498
 42
9.999389648437498
 43
9.999389648437498
 50
180.0
  0
INSERT
  5
5C47
330
5C40
100
AcDbEntity
  8
Dim
 62
     0
370
    -2
100
AcDbBlockReference
  2
_DOT
 10
958.5608401028453
 20
1548.433117266463
 30
0.0
 41
9.999389648437498
 42
9.999389648437498
 43
9.999389648437498
  0
MTEXT
  5
5C48
330
5C40
100
AcDbEntity
  8
Dim
 62
     0
100
AcDbMText
 10
698.5608401028453
 20
1570.649425860213
 30
0.0
 40
24.4326171875
 41
0.0
 46
0.0
 71
     5
 72
     1
  1
\A1;520
  7
ＭＳ ゴシック
 73
     1
 44
1.0
  0
POINT
  5
5C49
330
5C40
100
AcDbEntity
  8
Defpoints
 62
     0
100
AcDbPoint
 10
438.5608401028453
 20
1391.239935687507
 30
0.0
  0
POINT
  5
5C4A
330
5C40
100
AcDbEntity
  8
Defpoints
 62
     0
100
AcDbPoint
 10
958.5608401028453
 20
1359.151728302696
 30
0.0
  0
POINT
  5
5C4B
330
5C40
100
AcDbEntity
  8
Defpoints
 62
     0
100
AcDbPoint
 10
958.5608401028453
 20
1548.433117266463
 30
0.0
  0
ENDBLK
  5
5C42
330
5C40
100
AcDbEntity
  8
0
100
AcDbBlockEnd
  0
BLOCK
  5
5C54
330
5C53
100
AcDbEntity
  8
0
100
AcDbBlockBegin
  2
*D39
 70
     1
 10
0.0
 20
0.0
 30
0.0
  3
*D39
  1
*D71
  0
LINE
  5
5C56
330
5C53
100
AcDbEntity
  8
Dim
 62
     0
370
    -2
100
AcDbLine
 10
438.5608396616776
 20
589.3531326257039
 30
0.0
 11
438.5608396616776
 21
525.6360328112305
 31
0.0
  0
LINE
  5
5C57
330
5C53
100
AcDbEntity
  8
Dim
 62
     0
370
    -2
100
AcDbLine
 10
568.5608396616776
 20
751.8091205966066
 30
0.0
 11
568.5608396616776
 21
525.6360328112305
 31
0.0
  0
LINE
  5
5C58
330
5C53
100
AcDbEntity
  8
Dim
 62
     0
370
    -2
100
AcDbLine
 10
448.5602293101151
 20
525.6360328112305
 30
0.0
 11
558.5614500132401
 21
525.6360328112305
 31
0.0
  0
INSERT
  5
5C59
330
5C53
100
AcDbEntity
  8
Dim
 62
     0
370
    -2
100
AcDbBlockReference
  2
_DOT
 10
438.5608396616776
 20
525.6360328112305
 30
0.0
 41
9.999389648437498
 42
9.999389648437498
 43
9.999389648437498
 50
180.0
  0
INSERT
  5
5C5A
330
5C53
100
AcDbEntity
  8
Dim
 62
     0
370
    -2
100
AcDbBlockReference
  2
_DOT
 10
568.5608396616776
 20
525.6360328112305
 30
0.0
 41
9.999389648437498
 42
9.999389648437498
 43
9.999389648437498
  0
MTEXT
  5
5C5B
330
5C53
100
AcDbEntity
  8
Dim
 62
     0
100
AcDbMText
 10
503.5608396616776
 20
547.8523414049805
 30
0.0
 40
24.4326171875
 41
0.0
 46
0.0
 71
     5
 72
     1
  1
\A1;130
  7
ＭＳ ゴシック
 73
     1
 44
1.0
  0
POINT
  5
5C5C
330
5C53
100
AcDbEntity
  8
Defpoints
 62
     0
100
AcDbPoint
 10
438.5608396616776
 20
614.3531326257039
 30
0.0
  0
POINT
  5
5C5D
330
5C53
100
AcDbEntity
  8
Defpoints
 62
     0
100
AcDbPoint
 10
568.5608396616776
 20
776.8091205966066
 30
0.0
  0
POINT
  5
5C5E
330
5C53
100
AcDbEntity
  8
Defpoints
 62
     0
100
AcDbPoint
 10
568.5608396616776
 20
525.6360328112305
 30
0.0
  0
ENDBLK
  5
5C55
330
5C53
100
AcDbEntity
  8
0
100
AcDbBlockEnd
  0
BLOCK
  5
5C61
330
5C60
100
AcDbEntity
  8
0
100
AcDbBlockBegin
  2
*D40
 70
     1
 10
0.0
 20
0.0
 30
0.0
  3
*D40
  1
*D72
  0
LINE
  5
5C63
330
5C60
100
AcDbEntity
  8
Dim
 62
     0
370
    -2
100
AcDbLine
 10
568.5608396616772
 20
673.9513086212405
 30
0.0
 11
568.5608396616772
 21
525.6360328112305
 31
0.0
  0
LINE
  5
5C64
330
5C60
100
AcDbEntity
  8
Dim
 62
     0
370
    -2
100
AcDbLine
 10
958.5608396616772
 20
619.5688786053238
 30
0.0
 11
958.5608396616772
 21
525.6360328112305
 31
0.0
  0
LINE
  5
5C65
330
5C60
100
AcDbEntity
  8
Dim
 62
     0
370
    -2
100
AcDbLine
 10
578.5602293101147
 20
525.6360328112305
 30
0.0
 11
948.5614500132397
 21
525.6360328112305
 31
0.0
  0
INSERT
  5
5C66
330
5C60
100
AcDbEntity
  8
Dim
 62
     0
370
    -2
100
AcDbBlockReference
  2
_DOT
 10
568.5608396616772
 20
525.6360328112305
 30
0.0
 41
9.999389648437498
 42
9.999389648437498
 43
9.999389648437498
 50
180.0
  0
INSERT
  5
5C67
330
5C60
100
AcDbEntity
  8
Dim
 62
     0
370
    -2
100
AcDbBlockReference
  2
_DOT
 10
958.5608396616772
 20
525.6360328112305
 30
0.0
 41
9.999389648437498
 42
9.999389648437498
 43
9.999389648437498
  0
MTEXT
  5
5C68
330
5C60
100
AcDbEntity
  8
Dim
 62
     0
100
AcDbMText
 10
763.5608396616772
 20
547.8523414049805
 30
0.0
 40
24.4326171875
 41
0.0
 46
0.0
 71
     5
 72
     1
  1
\A1;390
  7
ＭＳ ゴシック
 73
     1
 44
1.0
  0
POINT
  5
5C69
330
5C60
100
AcDbEntity
  8
Defpoints
 62
     0
100
AcDbPoint
 10
568.5608396616772
 20
698.9513086212405
 30
0.0
  0
POINT
  5
5C6A
330
5C60
100
AcDbEntity
  8
Defpoints
 62
     0
100
AcDbPoint
 10
958.5608396616772
 20
644.5688786053238
 30
0.0
  0
POINT
  5
5C6B
330
5C60
100
AcDbEntity
  8
Defpoints
 62
     0
100
AcDbPoint
 10
958.5608396616772
 20
525.6360328112305
 30
0.0
  0
ENDBLK
  5
5C62
330
5C60
100
AcDbEntity
  8
0
100
AcDbBlockEnd
  0
BLOCK
  5
5C76
330
5C75
100
AcDbEntity
  8
0
100
AcDbBlockBegin
  2
*D41
 70
     1
 10
0.0
 20
0.0
 30
0.0
  3
*D41
  1
*D73
  0
LINE
  5
5C78
330
5C75
100
AcDbEntity
  8
Dim
 62
     0
370
    -2
100
AcDbLine
 10
568.5608397675151
 20
748.078392451243
 30
0.0
 11
568.5608397675151
 21
525.6360328112305
 31
0.0
  0
LINE
  5
5C79
330
5C75
100
AcDbEntity
  8
Dim
 62
     0
370
    -2
100
AcDbLine
 10
883.5608390340317
 20
748.0794581309815
 30
0.0
 11
883.5608390340317
 21
525.6360328112305
 31
0.0
  0
LINE
  5
5C7A
330
5C75
100
AcDbEntity
  8
Dim
 62
     0
370
    -2
100
AcDbLine
 10
578.5602294159526
 20
525.6360328112305
 30
0.0
 11
873.5614493855942
 21
525.6360328112305
 31
0.0
  0
INSERT
  5
5C7B
330
5C75
100
AcDbEntity
  8
Dim
 62
     0
370
    -2
100
AcDbBlockReference
  2
_DOT
 10
568.5608397675151
 20
525.6360328112305
 30
0.0
 41
9.999389648437498
 42
9.999389648437498
 43
9.999389648437498
 50
180.0
  0
INSERT
  5
5C7C
330
5C75
100
AcDbEntity
  8
Dim
 62
     0
370
    -2
100
AcDbBlockReference
  2
_DOT
 10
883.5608390340317
 20
525.6360328112305
 30
0.0
 41
9.999389648437498
 42
9.999389648437498
 43
9.999389648437498
  0
MTEXT
  5
5C7D
330
5C75
100
AcDbEntity
  8
Dim
 62
     0
100
AcDbMText
 10
726.0608394007734
 20
547.8523414049805
 30
0.0
 40
24.4326171875
 41
0.0
 46
0.0
 71
     5
 72
     1
  1
\A1;310
  7
ＭＳ ゴシック
 73
     1
 44
1.0
  0
POINT
  5
5C7E
330
5C75
100
AcDbEntity
  8
Defpoints
 62
     0
100
AcDbPoint
 10
568.5608397675151
 20
773.078392451243
 30
0.0
  0
POINT
  5
5C7F
330
5C75
100
AcDbEntity
  8
Defpoints
 62
     0
100
AcDbPoint
 10
883.5608390340317
 20
773.0794581309815
 30
0.0
  0
POINT
  5
5C80
330
5C75
100
AcDbEntity
  8
Defpoints
 62
     0
100
AcDbPoint
 10
883.5608390340317
 20
525.6360328112305
 30
0.0
  0
ENDBLK
  5
5C77
330
5C75
100
AcDbEntity
  8
0
100
AcDbBlockEnd
  0
BLOCK
  5
5C85
330
5C84
100
AcDbEntity
  8
0
100
AcDbBlockBegin
  2
*D42
 70
     1
 10
0.0
 20
0.0
 30
0.0
  3
*D42
  1
*D74
  0
LINE
  5
5C87
330
5C84
100
AcDbEntity
  8
Dim
 62
     0
370
    -2
100
AcDbLine
 10
865.0109130656733
 20
750.7315411899217
 30
0.0
 11
1040.488515242992
 21
750.7315411899217
 31
0.0
  0
LINE
  5
5C88
330
5C84
100
AcDbEntity
  8
Dim
 62
     0
370
    -2
100
AcDbLine
 10
872.3868805634979
 20
1250.731541189922
 30
0.0
 11
1040.488515242992
 21
1250.731541189922
 31
0.0
  0
LINE
  5
5C89
330
5C84
100
AcDbEntity
  8
Dim
 62
     0
370
    -2
100
AcDbLine
 10
1040.488515242992
 20
760.7309308383592
 30
0.0
 11
1040.488515242992
 21
1240.732151541484
 31
0.0
  0
INSERT
  5
5C8A
330
5C84
100
AcDbEntity
  8
Dim
 62
     0
370
    -2
100
AcDbBlockReference
  2
_DOT
 10
1040.488515242992
 20
750.7315411899217
 30
0.0
 41
9.999389648437498
 42
9.999389648437498
 43
9.999389648437498
 50
270.0
  0
INSERT
  5
5C8B
330
5C84
100
AcDbEntity
  8
Dim
 62
     0
370
    -2
100
AcDbBlockReference
  2
_DOT
 10
1040.488515242992
 20
1250.731541189922
 30
0.0
 41
9.999389648437498
 42
9.999389648437498
 43
9.999389648437498
 50
90.0
  0
MTEXT
  5
5C8C
330
5C84
100
AcDbEntity
  8
Dim
 62
     0
100
AcDbMText
 10
1018.272206649242
 20
1000.731541189922
 30
0.0
 40
24.4326171875
 41
0.0
 46
0.0
 71
     5
 72
     1
  1
\A1;500
  7
ＭＳ ゴシック
 11
0.0
 21
1.0
 31
0.0
 73
     1
 44
1.0
  0
POINT
  5
5C8D
330
5C84
100
AcDbEntity
  8
Defpoints
 62
     0
100
AcDbPoint
 10
840.0109130656733
 20
750.7315411899217
 30
0.0
  0
POINT
  5
5C8E
330
5C84
100
AcDbEntity
  8
Defpoints
 62
     0
100
AcDbPoint
 10
847.3868805634979
 20
1250.731541189922
 30
0.0
  0
POINT
  5
5C8F
330
5C84
100
AcDbEntity
  8
Defpoints
 62
     0
100
AcDbPoint
 10
1040.488515242992
 20
1250.731541189922
 30
0.0
  0
ENDBLK
  5
5C86
330
5C84
100
AcDbEntity
  8
0
100
AcDbBlockEnd
  0
BLOCK
  5
5CA9
330
5CA8
100
AcDbEntity
  8
0
100
AcDbBlockBegin
  2
*D43
 70
     1
 10
0.0
 20
0.0
 30
0.0
  3
*D43
  1
*D75
  0
LINE
  5
5CAB
330
5CA8
100
AcDbEntity
  8
Dim
  6
Continuous
 62
     0
370
    -2
100
AcDbLine
 10
1707.059556366411
 20
2324.011708206426
 30
0.0
 11
1404.906754093944
 21
2324.011708206426
 31
0.0
  0
LINE
  5
5CAC
330
5CA8
100
AcDbEntity
  8
Dim
  6
Continuous
 62
     0
370
    -2
100
AcDbLine
 10
1697.060166717974
 20
2324.011708206426
 30
0.0
 11
1587.280842961132
 21
2324.011708206426
 31
0.0
  0
LINE
  5
5CAD
330
5CA8
100
AcDbEntity
  8
Dim
  6
Continuous
 62
     0
370
    -2
100
AcDbLine
 10
1587.280842961132
 20
2324.011708206426
 30
0.0
 11
1597.280232609569
 21
2324.011708206426
 31
0.0
  0
INSERT
  5
5CAE
330
5CA8
100
AcDbEntity
  8
Dim
 62
     0
370
    -2
100
AcDbBlockReference
  2
_DOT
 10
1707.059556366411
 20
2324.011708206426
 30
0.0
 41
9.999389648437498
 42
9.999389648437498
 43
9.999389648437498
  0
INSERT
  5
5CAF
330
5CA8
100
AcDbEntity
  8
Dim
 62
     0
370
    -2
100
AcDbBlockReference
  2
_DOT
 10
1577.281453312694
 20
2324.011708206426
 30
0.0
 41
9.999389648437498
 42
9.999389648437498
 43
9.999389648437498
 50
180.0
  0
MTEXT
  5
5CB0
330
5CA8
100
AcDbEntity
  8
Dim
 62
     0
100
AcDbMText
 10
1481.094714054882
 20
2348.39030342127
 30
0.0
 40
24.4326171875
 41
0.0
 46
0.0
 71
     5
 72
     1
  1
\A1;130(深さ)
  7
ＭＳ ゴシック
 73
     1
 44
1.0
  0
POINT
  5
5CB1
330
5CA8
100
AcDbEntity
  8
Defpoints
 62
     0
100
AcDbPoint
 10
1707.059556366411
 20
2324.011708206426
 30
0.0
  0
POINT
  5
5CB2
330
5CA8
100
AcDbEntity
  8
Defpoints
 62
     0
100
AcDbPoint
 10
1577.281453312694
 20
2324.011708206426
 30
0.0
  0
POINT
  5
5D8F
330
5CA8
100
AcDbEntity
  8
Defpoints
 62
     0
100
AcDbPoint
 10
1577.281453312694
 20
2324.011708206426
 30
0.0
  0
ENDBLK
  5
5CAA
330
5CA8
100
AcDbEntity
  8
0
100
AcDbBlockEnd
  0
BLOCK
  5
5CB4
330
5CB3
100
AcDbEntity
  8
0
100
AcDbBlockBegin
  2
*D44
 70
     1
 10
0.0
 20
0.0
 30
0.0
  3
*D44
  1
*D76
  0
LINE
  5
5CB6
330
5CB3
100
AcDbEntity
  8
Dim
  6
Continuous
 62
     0
370
    -2
100
AcDbLine
 10
1557.077357984744
 20
2549.833511957482
 30
0.0
 11
1497.346782185129
 21
2549.833511957482
 31
0.0
  0
LINE
  5
5CB7
330
5CB3
100
AcDbEntity
  8
Dim
  6
Continuous
 62
     0
370
    -2
100
AcDbLine
 10
1557.077357984744
 20
2484.833511957482
 30
0.0
 11
1497.346782185129
 21
2484.833511957482
 31
0.0
  0
LINE
  5
5CB8
330
5CB3
100
AcDbEntity
  8
Dim
  6
Continuous
 62
     0
370
    -2
100
AcDbLine
 10
1497.346782185129
 20
2539.834122309045
 30
0.0
 11
1497.346782185129
 21
2494.83290160592
 31
0.0
  0
INSERT
  5
5CB9
330
5CB3
100
AcDbEntity
  8
Dim
 62
     0
370
    -2
100
AcDbBlockReference
  2
_DOT
 10
1497.346782185129
 20
2549.833511957482
 30
0.0
 41
9.999389648437498
 42
9.999389648437498
 43
9.999389648437498
 50
90.0
  0
INSERT
  5
5CBA
330
5CB3
100
AcDbEntity
  8
Dim
 62
     0
370
    -2
100
AcDbBlockReference
  2
_DOT
 10
1497.346782185129
 20
2484.833511957482
 30
0.0
 41
9.999389648437498
 42
9.999389648437498
 43
9.999389648437498
 50
270.0
  0
MTEXT
  5
5CBB
330
5CB3
100
AcDbEntity
  8
Dim
 62
     0
100
AcDbMText
 10
1475.130473591379
 20
2517.333511957482
 30
0.0
 40
24.4326171875
 41
0.0
 46
0.0
 71
     5
 72
     1
  1
\A1;65
  7
ＭＳ ゴシック
 11
0.0
 21
1.0
 31
0.0
 73
     1
 44
1.0
  0
POINT
  5
5CBC
330
5CB3
100
AcDbEntity
  8
Defpoints
 62
     0
100
AcDbPoint
 10
1582.077357984744
 20
2549.833511957482
 30
0.0
  0
POINT
  5
5CBD
330
5CB3
100
AcDbEntity
  8
Defpoints
 62
     0
100
AcDbPoint
 10
1582.077357984744
 20
2484.833511957482
 30
0.0
  0
POINT
  5
5CBE
330
5CB3
100
AcDbEntity
  8
Defpoints
 62
     0
100
AcDbPoint
 10
1497.346782185129
 20
2484.833511957482
 30
0.0
  0
ENDBLK
  5
5CB5
330
5CB3
100
AcDbEntity
  8
0
100
AcDbBlockEnd
  0
BLOCK
  5
5CC4
330
5CC3
100
AcDbEntity
  8
0
100
AcDbBlockBegin
  2
*D45
 70
     1
 10
0.0
 20
0.0
 30
0.0
  3
*D45
  1
*D77
  0
LINE
  5
5CC6
330
5CC3
100
AcDbEntity
  8
Dim
 62
     0
370
    -2
100
AcDbLine
 10
1728.624575012038
 20
2549.83261436741
 30
0.0
 11
1837.953232764791
 21
2549.83261436741
 31
0.0
  0
LINE
  5
5CC7
330
5CC3
100
AcDbEntity
  8
Dim
 62
     0
370
    -2
100
AcDbLine
 10
1781.947499349116
 20
2324.832591217292
 30
0.0
 11
1837.953232764791
 21
2324.832591217292
 31
0.0
  0
LINE
  5
5CC8
330
5CC3
100
AcDbEntity
  8
Dim
 62
     0
370
    -2
100
AcDbLine
 10
1837.953232764791
 20
2539.833224718972
 30
0.0
 11
1837.953232764791
 21
2334.831980865729
 31
0.0
  0
INSERT
  5
5CC9
330
5CC3
100
AcDbEntity
  8
Dim
 62
     0
370
    -2
100
AcDbBlockReference
  2
_DOT
 10
1837.953232764791
 20
2549.83261436741
 30
0.0
 41
9.999389648437498
 42
9.999389648437498
 43
9.999389648437498
 50
90.0
  0
INSERT
  5
5CCA
330
5CC3
100
AcDbEntity
  8
Dim
 62
     0
370
    -2
100
AcDbBlockReference
  2
_DOT
 10
1837.953232764791
 20
2324.832591217292
 30
0.0
 41
9.999389648437498
 42
9.999389648437498
 43
9.999389648437498
 50
270.0
  0
MTEXT
  5
5CCB
330
5CC3
100
AcDbEntity
  8
Dim
 62
     0
100
AcDbMText
 10
1815.736924171041
 20
2437.332602792351
 30
0.0
 40
24.4326171875
 41
0.0
 46
0.0
 71
     5
 72
     1
  1
\A1;225
  7
ＭＳ ゴシック
 11
0.0
 21
1.0
 31
0.0
 73
     1
 44
1.0
  0
POINT
  5
5CCC
330
5CC3
100
AcDbEntity
  8
Defpoints
 62
     0
100
AcDbPoint
 10
1703.624575012038
 20
2549.83261436741
 30
0.0
  0
POINT
  5
5CCD
330
5CC3
100
AcDbEntity
  8
Defpoints
 62
     0
100
AcDbPoint
 10
1756.947499349116
 20
2324.832591217292
 30
0.0
  0
POINT
  5
5CCE
330
5CC3
100
AcDbEntity
  8
Defpoints
 62
     0
100
AcDbPoint
 10
1837.953232764791
 20
2324.832591217292
 30
0.0
  0
ENDBLK
  5
5CC5
330
5CC3
100
AcDbEntity
  8
0
100
AcDbBlockEnd
  0
BLOCK
  5
5CD9
330
5CD8
100
AcDbEntity
  8
0
100
AcDbBlockBegin
  2
*D46
 70
     1
 10
0.0
 20
0.0
 30
0.0
  3
*D46
  1
*D78
  0
LINE
  5
5CDB
330
5CD8
100
AcDbEntity
  8
Dim
  6
Continuous
 62
     0
370
    -2
100
AcDbLine
 10
1593.118370279423
 20
1983.482579834051
 30
0.0
 11
1593.118370279423
 21
1977.063990545366
 31
0.0
  0
LINE
  5
5CDC
330
5CD8
100
AcDbEntity
  8
Dim
  6
Continuous
 62
     0
370
    -2
100
AcDbLine
 10
1668.118370279423
 20
2077.509423771587
 30
0.0
 11
1668.118370279423
 21
1977.063990545366
 31
0.0
  0
LINE
  5
5CDD
330
5CD8
100
AcDbEntity
  8
Dim
  6
Continuous
 62
     0
370
    -2
100
AcDbLine
 10
1603.11775992786
 20
1977.063990545366
 30
0.0
 11
1658.118980630985
 21
1977.063990545366
 31
0.0
  0
INSERT
  5
5CDE
330
5CD8
100
AcDbEntity
  8
Dim
 62
     0
370
    -2
100
AcDbBlockReference
  2
_DOT
 10
1593.118370279423
 20
1977.063990545366
 30
0.0
 41
9.999389648437498
 42
9.999389648437498
 43
9.999389648437498
 50
180.0
  0
INSERT
  5
5CDF
330
5CD8
100
AcDbEntity
  8
Dim
 62
     0
370
    -2
100
AcDbBlockReference
  2
_DOT
 10
1668.118370279423
 20
1977.063990545366
 30
0.0
 41
9.999389648437498
 42
9.999389648437498
 43
9.999389648437498
  0
MTEXT
  5
5CE0
330
5CD8
100
AcDbEntity
  8
Dim
 62
     0
100
AcDbMText
 10
1630.618370279423
 20
1999.280299139116
 30
0.0
 40
24.4326171875
 41
0.0
 46
0.0
 71
     5
 72
     1
  1
\A1;75
  7
ＭＳ ゴシック
 73
     1
 44
1.0
  0
POINT
  5
5CE1
330
5CD8
100
AcDbEntity
  8
Defpoints
 62
     0
100
AcDbPoint
 10
1593.118370279423
 20
2008.482579834051
 30
0.0
  0
POINT
  5
5CE2
330
5CD8
100
AcDbEntity
  8
Defpoints
 62
     0
100
AcDbPoint
 10
1668.118370279423
 20
2102.509423771587
 30
0.0
  0
POINT
  5
5CE3
330
5CD8
100
AcDbEntity
  8
Defpoints
 62
     0
100
AcDbPoint
 10
1668.118370279423
 20
1977.063990545366
 30
0.0
  0
ENDBLK
  5
5CDA
330
5CD8
100
AcDbEntity
  8
0
100
AcDbBlockEnd
  0
BLOCK
  5
5CE5
330
5CE4
100
AcDbEntity
  8
0
100
AcDbBlockBegin
  2
*D47
 70
     1
 10
0.0
 20
0.0
 30
0.0
  3
*D47
  1
*D79
  0
LINE
  5
5CE7
330
5CE4
100
AcDbEntity
  8
Dim
  6
Continuous
 62
     0
370
    -2
100
AcDbLine
 10
1668.118370279423
 20
2052.509423771587
 30
0.0
 11
1668.118370279423
 21
1977.063990545366
 31
0.0
  0
LINE
  5
5CE8
330
5CE4
100
AcDbEntity
  8
Dim
  6
Continuous
 62
     0
370
    -2
100
AcDbLine
 10
1758.118370279423
 20
2267.183689189114
 30
0.0
 11
1758.118370279423
 21
1977.063990545366
 31
0.0
  0
LINE
  5
5CE9
330
5CE4
100
AcDbEntity
  8
Dim
  6
Continuous
 62
     0
370
    -2
100
AcDbLine
 10
1678.11775992786
 20
1977.063990545366
 30
0.0
 11
1748.118980630985
 21
1977.063990545366
 31
0.0
  0
INSERT
  5
5CEA
330
5CE4
100
AcDbEntity
  8
Dim
 62
     0
370
    -2
100
AcDbBlockReference
  2
_DOT
 10
1668.118370279423
 20
1977.063990545366
 30
0.0
 41
9.999389648437498
 42
9.999389648437498
 43
9.999389648437498
 50
180.0
  0
INSERT
  5
5CEB
330
5CE4
100
AcDbEntity
  8
Dim
 62
     0
370
    -2
100
AcDbBlockReference
  2
_DOT
 10
1758.118370279423
 20
1977.063990545366
 30
0.0
 41
9.999389648437498
 42
9.999389648437498
 43
9.999389648437498
  0
MTEXT
  5
5CEC
330
5CE4
100
AcDbEntity
  8
Dim
 62
     0
100
AcDbMText
 10
1713.118370279423
 20
1999.280299139116
 30
0.0
 40
24.4326171875
 41
0.0
 46
0.0
 71
     5
 72
     1
  1
\A1;90
  7
ＭＳ ゴシック
 73
     1
 44
1.0
  0
POINT
  5
5CED
330
5CE4
100
AcDbEntity
  8
Defpoints
 62
     0
100
AcDbPoint
 10
1668.118370279423
 20
2077.509423771587
 30
0.0
  0
POINT
  5
5CEE
330
5CE4
100
AcDbEntity
  8
Defpoints
 62
     0
100
AcDbPoint
 10
1758.118370279423
 20
2292.183689189114
 30
0.0
  0
POINT
  5
5CEF
330
5CE4
100
AcDbEntity
  8
Defpoints
 62
     0
100
AcDbPoint
 10
1758.118370279423
 20
1977.063990545366
 30
0.0
  0
ENDBLK
  5
5CE6
330
5CE4
100
AcDbEntity
  8
0
100
AcDbBlockEnd
  0
BLOCK
  5
5CF1
330
5CF0
100
AcDbEntity
  8
0
100
AcDbBlockBegin
  2
*D48
 70
     1
 10
0.0
 20
0.0
 30
0.0
  3
*D48
  1
*D80
  0
LINE
  5
5CF3
330
5CF0
100
AcDbEntity
  8
Dim
  6
Continuous
 62
     0
370
    -2
100
AcDbLine
 10
1578.118370279423
 20
2008.482579834051
 30
0.0
 11
1578.118370279423
 21
1977.063990545366
 31
0.0
  0
LINE
  5
5CF4
330
5CF0
100
AcDbEntity
  8
Dim
  6
Continuous
 62
     0
370
    -2
100
AcDbLine
 10
1593.118370279423
 20
2008.482579834051
 30
0.0
 11
1593.118370279423
 21
1977.063990545366
 31
0.0
  0
LINE
  5
5CF5
330
5CF0
100
AcDbEntity
  8
Dim
  6
Continuous
 62
     0
370
    -2
100
AcDbLine
 10
1578.118370279423
 20
1977.063990545366
 30
0.0
 11
1511.341442545046
 21
1977.063990545366
 31
0.0
  0
LINE
  5
5CF6
330
5CF0
100
AcDbEntity
  8
Dim
  6
Continuous
 62
     0
370
    -2
100
AcDbLine
 10
1588.11775992786
 20
1977.063990545366
 30
0.0
 11
1583.118980630985
 21
1977.063990545366
 31
0.0
  0
INSERT
  5
5CF7
330
5CF0
100
AcDbEntity
  8
Dim
 62
     0
370
    -2
100
AcDbBlockReference
  2
_DOT
 10
1578.118370279423
 20
1977.063990545366
 30
0.0
 41
9.999389648437498
 42
9.999389648437498
 43
9.999389648437498
 50
180.0
  0
INSERT
  5
5CF8
330
5CF0
100
AcDbEntity
  8
Dim
 62
     0
370
    -2
100
AcDbBlockReference
  2
_DOT
 10
1593.118370279423
 20
1977.063990545366
 30
0.0
 41
9.999389648437498
 42
9.999389648437498
 43
9.999389648437498
  0
MTEXT
  5
5CF9
330
5CF0
100
AcDbEntity
  8
Dim
 62
     0
100
AcDbMText
 10
1534.730516763796
 20
1999.280299139116
 30
0.0
 40
24.4326171875
 41
0.0
 46
0.0
 71
     5
 72
     1
  1
\A1;15
  7
ＭＳ ゴシック
 73
     1
 44
1.0
  0
POINT
  5
5CFA
330
5CF0
100
AcDbEntity
  8
Defpoints
 62
     0
100
AcDbPoint
 10
1578.118370279423
 20
2033.482579834051
 30
0.0
  0
POINT
  5
5CFB
330
5CF0
100
AcDbEntity
  8
Defpoints
 62
     0
100
AcDbPoint
 10
1593.118370279423
 20
2033.482579834051
 30
0.0
  0
POINT
  5
5CFC
330
5CF0
100
AcDbEntity
  8
Defpoints
 62
     0
100
AcDbPoint
 10
1593.118370279423
 20
1977.063990545366
 30
0.0
  0
ENDBLK
  5
5CF2
330
5CF0
100
AcDbEntity
  8
0
100
AcDbBlockEnd
  0
BLOCK
  5
5D07
330
5D06
100
AcDbEntity
  8
0
100
AcDbBlockBegin
  2
*D49
 70
     1
 10
0.0
 20
0.0
 30
0.0
  3
*D49
  1
*D81
  0
LINE
  5
5D09
330
5D06
100
AcDbEntity
  8
Dim
 62
     0
370
    -2
100
AcDbLine
 10
1618.118380263345
 20
811.8957249026657
 30
0.0
 11
1618.118380263345
 21
525.6360328112305
 31
0.0
  0
LINE
  5
5D0A
330
5D06
100
AcDbEntity
  8
Dim
 62
     0
370
    -2
100
AcDbLine
 10
1578.118380263345
 20
583.1020271566208
 30
0.0
 11
1578.118380263345
 21
525.6360328112305
 31
0.0
  0
LINE
  5
5D0B
330
5D06
100
AcDbEntity
  8
Dim
 62
     0
370
    -2
100
AcDbLine
 10
1608.118990614908
 20
525.6360328112305
 30
0.0
 11
1588.117769911783
 21
525.6360328112305
 31
0.0
  0
INSERT
  5
5D0C
330
5D06
100
AcDbEntity
  8
Dim
 62
     0
370
    -2
100
AcDbBlockReference
  2
_DOT
 10
1618.118380263345
 20
525.6360328112305
 30
0.0
 41
9.999389648437498
 42
9.999389648437498
 43
9.999389648437498
  0
INSERT
  5
5D0D
330
5D06
100
AcDbEntity
  8
Dim
 62
     0
370
    -2
100
AcDbBlockReference
  2
_DOT
 10
1578.118380263345
 20
525.6360328112305
 30
0.0
 41
9.999389648437498
 42
9.999389648437498
 43
9.999389648437498
 50
180.0
  0
MTEXT
  5
5D0E
330
5D06
100
AcDbEntity
  8
Dim
 62
     0
100
AcDbMText
 10
1598.118380263345
 20
547.8523414049805
 30
0.0
 40
24.4326171875
 41
0.0
 46
0.0
 71
     5
 72
     1
  1
\A1;40
  7
ＭＳ ゴシック
 73
     1
 44
1.0
  0
POINT
  5
5D0F
330
5D06
100
AcDbEntity
  8
Defpoints
 62
     0
100
AcDbPoint
 10
1618.118380263345
 20
836.8957249026657
 30
0.0
  0
POINT
  5
5D10
330
5D06
100
AcDbEntity
  8
Defpoints
 62
     0
100
AcDbPoint
 10
1578.118380263345
 20
608.1020271566208
 30
0.0
  0
POINT
  5
5D11
330
5D06
100
AcDbEntity
  8
Defpoints
 62
     0
100
AcDbPoint
 10
1578.118380263345
 20
525.6360328112305
 30
0.0
  0
ENDBLK
  5
5D08
330
5D06
100
AcDbEntity
  8
0
100
AcDbBlockEnd
  0
ENDSEC
  0
SECTION
  2
ENTITIES
  0
MTEXT
  5
177
330
A
100
AcDbEntity
  8
template
390
1D
100
AcDbMText
 10
82.00000000048226
 20
348.023957835319
 30
0.0
 40
16.28841145833333
 41
0.0
 46
0.0
 71
     1
 72
     1
  1
品名
  7
ＭＳ ゴシック
 73
     1
 44
0.7828267384257843
  0
MTEXT
  5
178
330
A
100
AcDbEntity
  8
template
390
1D
100
AcDbMText
 10
82.00000000048226
 20
263.0239578353188
 30
0.0
 40
16.28841145833333
 41
0.0
 46
0.0
 71
     1
 72
     1
  1
仕様
  7
ＭＳ ゴシック
 73
     1
 44
0.7828267384257843
  0
LINE
  5
179
330
A
100
AcDbEntity
  8
template
390
1D
100
AcDbLine
 10
2025.0
 20
271.4388797103189
 30
0.0
 11
75.00000000000023
 21
271.4388797103189
 31
0.0
  0
LWPOLYLINE
  5
17A
330
A
100
AcDbEntity
  8
template
390
1D
100
AcDbPolyline
 90
        5
 70
   128
 43
0.0
 10
2025.0
 20
2901.438879710319
 10
75.00000000000023
 20
2901.438879710319
 10
75.00000000000023
 20
101.4388797103188
 10
2025.0
 20
101.4388797103188
 10
2025.0
 20
2901.438879710319
  0
LINE
  5
17B
330
A
100
AcDbEntity
  8
template
390
1D
100
AcDbLine
 10
2025.0
 20
356.4388797103188
 30
0.0
 11
75.00000000000023
 21
356.4388797103188
 31
0.0
  0
LINE
  5
17C
330
A
100
AcDbEntity
  8
template
390
1D
100
AcDbLine
 10
2025.000000000482
 20
186.4388797103189
 30
0.0
 11
1272.000000000482
 21
186.4388797103189
 31
0.0
  0
MTEXT
  5
17E
330
A
100
AcDbEntity
  8
template
390
1D
100
AcDbMText
 10
1301.871406252743
 20
156.5284852370108
 30
0.0
 40
24.4326171875
 41
0.0
 46
0.0
 71
     1
 72
     1
  1
大洋金物株式会社 ティーフォルム事業部
  7
ＭＳ ゴシック
 73
     1
 44
0.7828267384257843
  0
MTEXT
  5
180
330
A
100
AcDbEntity
  8
template
390
1D
100
AcDbMText
 10
1834.000000000742
 20
234.4414968978188
 30
0.0
 40
24.4326171875
 41
0.0
 46
0.0
 71
     1
 72
     1
  1
1:10
  7
ＭＳ ゴシック
 73
     1
 44
0.7828267384257843
  0
MTEXT
  5
181
330
A
100
AcDbEntity
  8
template
390
1D
100
AcDbMText
 10
1781.000000000742
 20
263.0239578353188
 30
0.0
 40
16.28841145833333
 41
0.0
 46
0.0
 71
     1
 72
     1
  1
縮尺
  7
ＭＳ ゴシック
 73
     1
 44
0.7828267384257843
  0
LINE
  5
182
330
A
100
AcDbEntity
  8
template
390
1D
100
AcDbLine
 10
1774.000000000742
 20
186.4388797103189
 30
0.0
 11
1774.000000000742
 21
271.4388797103189
 31
0.0
  0
MTEXT
  5
183
330
A
100
AcDbEntity
  8
template
390
1D
100
AcDbMText
 10
1530.000000000742
 20
263.0239578353188
 30
0.0
 40
16.28841145833333
 41
0.0
 46
0.0
 71
     1
 72
     1
  1
容量
  7
ＭＳ ゴシック
 73
     1
 44
0.7828267384257843
  0
LINE
  5
184
330
A
100
AcDbEntity
  8
template
390
1D
100
AcDbLine
 10
1523.000000000742
 20
186.4388797103189
 30
0.0
 11
1523.000000000742
 21
271.4388797103189
 31
0.0
  0
MTEXT
  5
185
330
A
100
AcDbEntity
  8
template
390
1D
100
AcDbMText
 10
1279.000000000742
 20
348.023957835319
 30
0.0
 40
16.28841145833333
 41
0.0
 46
0.0
 71
     1
 72
     1
  1
品番
  7
ＭＳ ゴシック
 73
     1
 44
0.7828267384257843
  0
MTEXT
  5
186
330
A
100
AcDbEntity
  8
template
390
1D
100
AcDbMText
 10
1279.000000000742
 20
263.0239578353188
 30
0.0
 40
16.28841145833333
 41
0.0
 46
0.0
 71
     1
 72
     1
  1
重量
  7
ＭＳ ゴシック
 73
     1
 44
0.7828267384257843
  0
MTEXT
  5
187
330
A
100
AcDbEntity
  8
template
390
1D
100
AcDbMText
 10
1332.000000000742
 20
319.4414968978188
 30
0.0
 40
24.4326171875
 41
0.0
 46
24.4326171875
 71
     1
 72
     1
  1
{ADF70-2619}
  7
ＭＳ ゴシック
 73
     1
 44
0.7828267384257843
1001
ACAD
1000
ACAD_MTEXT_DEFINED_HEIGHT_BEGIN
1070
    46
1040
24.4326171875
1000
ACAD_MTEXT_DEFINED_HEIGHT_END
  0
LINE
  5
188
330
A
100
AcDbEntity
  8
template
390
1D
100
AcDbLine
 10
1272.000000000742
 20
101.4388797103188
 30
0.0
 11
1272.000000000742
 21
356.4388797103188
 31
0.0
  0
MTEXT
  5
189
330
A
100
AcDbEntity
  8
template
390
1D
100
AcDbMText
 10
135.0000000004822
 20
319.4414968978188
 30
0.0
 40
24.4326171875
 41
0.0
 46
27.5355595703125
 71
     1
 72
     1
  1
{洗面器 -CATALANO, Green-}
  7
ＭＳ ゴシック
 73
     1
 44
0.7828267384257843
1001
ACAD
1000
ACAD_MTEXT_DEFINED_HEIGHT_BEGIN
1070
    46
1040
27.5355595703125
1000
ACAD_MTEXT_DEFINED_HEIGHT_END
  0
MTEXT
  5
18A
330
A
100
AcDbEntity
  8
template
 62
     1
390
1D
100
AcDbMText
 10
135.0000000004822
 20
234.4414968978188
 30
0.0
 40
24.4326171875
 41
0.0
 46
65.556517578125
 71
     1
 72
     1
  1
{\C256;壁掛け/オーバーフロー付き/壁取付ボルト付属\P陶器/ホワイト}
  7
ＭＳ ゴシック
 73
     1
 44
0.9822934569727008
1001
ACAD
1000
ACAD_MTEXT_DEFINED_HEIGHT_BEGIN
1070
    46
1040
65.556517578125
1000
ACAD_MTEXT_DEFINED_HEIGHT_END
  0
MTEXT
  5
1A6
330
A
100
AcDbEntity
  8
template
390
1D
100
AcDbMText
 10
1332.000000000742
 20
234.4414968978188
 30
0.0
 40
24.4326171875
 41
0.0
 46
28.390701171875
 71
     1
 72
     1
  1
{17kg}
  7
ＭＳ ゴシック
 73
     1
 44
0.7828267384257843
1001
ACAD
1000
ACAD_MTEXT_DEFINED_HEIGHT_BEGIN
1070
    46
1040
28.390701171875
1000
ACAD_MTEXT_DEFINED_HEIGHT_END
  0
MTEXT
  5
374
330
A
100
AcDbEntity
  8
template
390
1D
100
AcDbMText
 10
1581.992122669024
 20
234.4414968978188
 30
0.0
 40
24.4326171875
 41
0.0
 46
24.4326171875
 71
     1
 72
     1
  1
{7.4L}
  7
ＭＳ ゴシック
 73
     1
 44
0.7828267384257843
1001
ACAD
1000
ACAD_MTEXT_DEFINED_HEIGHT_BEGIN
1070
    46
1040
24.4326171875
1000
ACAD_MTEXT_DEFINED_HEIGHT_END
  0
INSERT
  5
3D0
330
A
100
AcDbEntity
  8
template
100
AcDbBlockReference
  2
名称未設定-1
 10
1873.559250554905
 20
30.23897196054438
 30
0.0
 41
0.7619999999999999
 42
0.7619999999999999
 43
0.7619999999999999
  0
MTEXT
  5
BDB
102
{ACAD_XDICTIONARY
360
BDC
102
}
330
A
100
AcDbEntity
  8
template
  6
Continuous
100
AcDbMText
 10
78.95663872901252
 20
86.10730750352229
 30
0.0
 40
23.0
 41
0.0
 46
23.0
 71
     1
 72
     1
  1
{20170725N}
  7
ＭＳ ゴシック
 73
     1
 44
1.0
1001
ACAD
1000
ACAD_MTEXT_DEFINED_HEIGHT_BEGIN
1070
    46
1040
23.0
1000
ACAD_MTEXT_DEFINED_HEIGHT_END
  0
LWPOLYLINE
  5
BEE
330
A
100
AcDbEntity
  8
PRINT BORDER
100
AcDbPolyline
 90
        4
 70
     1
 43
0.0
 10
0.0
 20
0.0
 10
0.0
 20
2970.0
 10
2100.0
 20
2970.0
 10
2100.0
 20
0.0
  0
INSERT
  5
1273
330
A
100
AcDbEntity
  8
0
 62
     7
100
AcDbBlockReference
  2
BLOCK_2
 10
591.2037060744204
 20
943.564364962162
 30
0.0
  0
INSERT
  5
127B
330
A
100
AcDbEntity
  8
0
 62
     7
100
AcDbBlockReference
  2
BLOCK_2
 10
1291.863324028138
 20
1038.76992320659
 30
0.0
  0
INSERT
  5
127C
330
A
100
AcDbEntity
  8
0
 62
     7
100
AcDbBlockReference
  2
BLOCK_2
 10
652.1648429406905
 20
1595.641631888467
 30
0.0
  0
CIRCLE
  5
142C
330
A
100
AcDbEntity
  8
Dim
  6
Continuous
100
AcDbCircle
 10
1366.841726484681
 20
1758.85027442579
 30
0.0
 40
0.0
  0
INSERT
  5
3B99
330
A
100
AcDbEntity
  8
retino
100
AcDbBlockReference
  2
mobile_latù
 10
-92101.31485198285
 20
1730.415535296608
 30
0.0
  0
INSERT
  5
467E
330
A
100
AcDbEntity
  8
retino
100
AcDbBlockReference
  2
mobile_latù
 10
-100894.893236163
 20
1696.039721945452
 30
0.0
  0
INSERT
  5
4F9F
330
A
100
AcDbEntity
  8
retino
100
AcDbBlockReference
  2
mobile_latù
 10
-100687.0529675389
 20
1519.805538157597
 30
0.0
  0
LINE
  5
5954
330
A
100
AcDbEntity
  8
MODEL
100
AcDbLine
 10
958.5608390340317
 20
670.7315412451903
 30
0.0
 11
958.5608390340317
 21
1330.731541134639
 31
0.0
  0
ARC
  5
5955
330
A
100
AcDbEntity
  8
MODEL
100
AcDbCircle
 10
888.5608390340317
 20
670.7315412451903
 30
0.0
 40
70.0
100
AcDbArc
 50
270.0
 51
0.0
  0
LINE
  5
5956
330
A
100
AcDbEntity
  8
MODEL
100
AcDbLine
 10
883.5608390340317
 20
800.7315411899222
 30
0.0
 11
883.5608390340317
 21
1200.731541189922
 31
0.0
  0
ARC
  5
5957
330
A
100
AcDbEntity
  8
MODEL
100
AcDbCircle
 10
833.5608390340317
 20
1200.731541189922
 30
0.0
 40
50.0
100
AcDbArc
 50
0.0
 51
90.00000000000418
  0
ARC
  5
5958
330
A
100
AcDbEntity
  8
MODEL
100
AcDbCircle
 10
833.5608390340317
 20
800.7315411899222
 30
0.0
 40
50.0
100
AcDbArc
 50
270.0
 51
0.0
  0
LINE
  5
5959
330
A
100
AcDbEntity
  8
MODEL
100
AcDbLine
 10
888.5608390340317
 20
1400.731541134639
 30
0.0
 11
440.5608399284615
 21
1400.731541134639
 31
0.0
  0
ARC
  5
595A
330
A
100
AcDbEntity
  8
MODEL
100
AcDbCircle
 10
888.5608390340317
 20
1330.731541134639
 30
0.0
 40
70.0
100
AcDbArc
 50
0.0
 51
90.0
  0
LINE
  5
595B
330
A
100
AcDbEntity
  8
MODEL
100
AcDbLine
 10
440.5608394764404
 20
600.7315412451903
 30
0.0
 11
888.5608390340317
 21
600.7315412451903
 31
0.0
  0
ARC
  5
595C
330
A
100
AcDbEntity
  8
MODEL
100
AcDbCircle
 10
440.5608394764404
 20
602.7315412451903
 30
0.0
 40
2.0
100
AcDbArc
 50
265.8712843393967
 51
270.0
  0
ARC
  5
595D
330
A
100
AcDbEntity
  8
MODEL
100
AcDbCircle
 10
440.5608394764404
 20
602.7315412451903
 30
0.0
 40
2.0
100
AcDbArc
 50
253.5219568864363
 51
261.8260015654562
  0
LINE
  5
595E
330
A
100
AcDbEntity
  8
MODEL
100
AcDbLine
 10
438.5608401071117
 20
1398.753327216855
 30
0.0
 11
438.5608396550656
 21
602.70975516523
 31
0.0
  0
LINE
  5
595F
330
A
100
AcDbEntity
  8
MODEL
100
AcDbLine
 10
568.5608399946618
 20
1200.731541218298
 30
0.0
 11
568.5608397675151
 21
800.7304755101836
 31
0.0
  0
ARC
  5
5960
330
A
100
AcDbEntity
  8
MODEL
100
AcDbCircle
 10
440.5608399284615
 20
1398.731541134639
 30
0.0
 40
1.999999999999943
100
AcDbArc
 50
98.17401125246533
 51
106.4905384591759
  0
ARC
  5
5961
330
A
100
AcDbEntity
  8
MODEL
100
AcDbCircle
 10
440.5608399284615
 20
1398.731541134639
 30
0.0
 40
1.999999999999943
100
AcDbArc
 50
90.0
 51
94.12872857667861
  0
ARC
  5
5962
330
A
100
AcDbEntity
  8
MODEL
100
AcDbCircle
 10
440.5597844522617
 20
1398.739052338879
 30
0.0
 40
1.992415100076875
100
AcDbArc
 50
94.11400645677655
 51
98.17467810726814
  0
SPLINE
  5
5963
330
A
100
AcDbEntity
  8
MODEL
100
AcDbSpline
210
0.0
220
0.0
230
1.0
 70
     8
 71
     3
 72
    32
 73
    28
 74
     0
 42
0.000000001
 43
0.0000000001
 40
1.597505975606901
 40
1.597505975606901
 40
1.597505975606901
 40
1.597505975606901
 40
1.614863349726954
 40
1.638268783169982
 40
1.714502728812678
 40
1.794071856120947
 40
1.873239084569042
 40
1.939431675158108
 40
2.005733584042961
 40
2.072073284699011
 40
2.336889095386682
 40
2.402903080355884
 40
2.525112686330306
 40
2.708645471626915
 40
3.025701841036819
 40
3.261529348458629
 40
3.415157790936996
 40
3.538345960515597
 40
3.936802301898566
 40
4.430059125701086
 40
4.757709287942144
 40
5.013478826959638
 40
5.194390441418428
 40
5.292208530535167
 40
5.36794152724642
 40
5.446651463864121
 40
5.692072367207762
 40
5.692072367207762
 40
5.692072367207762
 40
5.692072367207762
 10
438.555088858629
 20
1398.888288419654
 30
0.0
 10
438.5550803223955
 20
1398.888749832815
 30
0.0
 10
438.5550751324795
 20
1398.889006913789
 30
0.0
 10
438.5553394599983
 20
1398.875350312669
 30
0.0
 10
438.5541385949368
 20
1398.936413874199
 30
0.0
 10
438.5559500095283
 20
1399.01386378345
 30
0.0
 10
438.5607482786772
 20
1399.088807815559
 30
0.0
 10
438.5681995071645
 20
1399.15881961634
 30
0.0
 10
438.5777520496986
 20
1399.224304967273
 30
0.0
 10
438.6020408848785
 20
1399.354312485903
 30
0.0
 10
438.6394211978309
 20
1399.48160709073
 30
0.0
 10
438.6965026306848
 20
1399.621308117294
 30
0.0
 10
438.7499606512906
 20
1399.733114087653
 30
0.0
 10
438.8565753886692
 20
1399.911111155165
 30
0.0
 10
439.013380592924
 20
1400.099540306099
 30
0.0
 10
439.1792816327002
 20
1400.244953299062
 30
0.0
 10
439.2943967007836
 20
1400.328817578648
 30
0.0
 10
439.4366352935813
 20
1400.42109223671
 30
0.0
 10
439.6221056953791
 20
1400.518387014865
 30
0.0
 10
439.8135750039505
 20
1400.595797289676
 30
0.0
 10
439.9646532884658
 20
1400.644296960706
 30
0.0
 10
440.073611278252
 20
1400.673236122374
 30
0.0
 10
440.1664782253861
 20
1400.693372221173
 30
0.0
 10
440.2387550477906
 20
1400.705829690928
 30
0.0
 10
440.2947507647882
 20
1400.714344120312
 30
0.0
 10
440.3817273748332
 20
1400.722505745613
 30
0.0
 10
440.4907907525585
 20
1400.747407895823
 30
0.0
 10
440.560798822688
 20
1400.731541145524
 30
0.0
  0
SPLINE
  5
5964
330
A
100
AcDbEntity
  8
MODEL
100
AcDbSpline
210
0.0
220
0.0
230
1.0
 70
     8
 71
     3
 72
    15
 73
    11
 74
     0
 42
0.000000001
 43
0.0000000001
 40
0.303175062203172
 40
0.303175062203172
 40
0.303175062203172
 40
0.303175062203172
 40
0.3339405632727535
 40
0.3510586394835327
 40
0.3714432971331119
 40
0.4275978092112573
 40
0.4682967536786826
 40
0.5061961982215815
 40
0.5871568293963199
 40
0.6639929056921134
 40
0.6639929056921134
 40
0.6639929056921134
 40
0.6639929056921134
 10
438.5550898372599
 20
1398.888288437757
 30
0.0
 10
438.5550912812528
 20
1398.88828846363
 30
0.0
 10
438.5551255177193
 20
1398.886514087168
 30
0.0
 10
438.5552183094119
 20
1398.881103695738
 30
0.0
 10
438.5561464555499
 20
1398.84450128151
 30
0.0
 10
438.5543157822076
 20
1398.930093455642
 30
0.0
 10
438.5554266319223
 20
1398.868958885625
 30
0.0
 10
438.5562082577335
 20
1398.845812650358
 30
0.0
 10
438.558089990212
 20
1398.798158839727
 30
0.0
 10
438.5601618567866
 20
1398.763070067162
 30
0.0
 10
438.5606837105906
 20
1398.754036083763
 30
0.0
  0
SPLINE
  5
5965
330
A
100
AcDbEntity
  8
MODEL
100
AcDbSpline
210
0.0
220
0.0
230
1.0
 70
     8
 71
     3
 72
    77
 73
    73
 74
     0
 42
0.000000001
 43
0.0000000001
 40
0.0063422592186293
 40
0.0063422592186293
 40
0.0063422592186293
 40
0.0063422592186293
 40
0.0349831707384707
 40
0.0703306498580203
 40
0.1485282411685319
 40
0.1610840947967311
 40
0.1761127344188629
 40
0.204699325810749
 40
0.2316520793295141
 40
0.2678958415481217
 40
0.3040609362250919
 40
0.3817542226529163
 40
0.4596429226759533
 40
0.5376365240334828
 40
0.615622972478481
 40
0.8654766195151372
 40
0.990073349622191
 40
1.114680264724534
 40
1.35842105751578
 40
1.546188595492369
 40
1.721161286991574
 40
1.978035772128191
 40
2.186739244272616
 40
2.375164714236544
 40
2.612380218594664
 40
2.897273475405071
 40
3.06402928132615
 40
3.229368010392516
 40
3.39518173389373
 40
3.556596102043018
 40
3.640902299046163
 40
3.729273695780384
 40
3.822806184377973
 40
3.921469284188766
 40
4.060747877095317
 40
4.102304349839669
 40
4.145219481738028
 40
4.169003807510297
 40
4.176461562425194
 40
4.184248975382988
 40
4.292160303069377
 40
4.404400934700452
 40
4.52711267586474
 40
4.641379106578443
 40
4.743016834477117
 40
4.841950480727728
 40
5.03654238341826
 40
5.3752665842964
 40
5.725134914176421
 40
6.081337459143863
 40
6.279930361812898
 40
6.520860944724299
 40
6.729804426847251
 40
6.927249308096426
 40
7.148727873737553
 40
7.332837126176171
 40
7.424978300238103
 40
7.546607347434753
 40
7.668502566409275
 40
7.790466394212623
 40
7.912113344258219
 40
7.94989780192116
 40
7.987716785795137
 40
8.00672135029951
 40
8.025954110434254
 40
8.052718098010308
 40
8.070032102956278
 40
8.125939499762335
 40
8.146879395506243
 40
8.165893197584397
 40
8.202866522591542
 40
8.239418721735285
 40
8.239418721735285
 40
8.239418721735285
 40
8.239418721735285
 10
438.5608622957457
 20
1398.759960101281
 30
0.0
 10
438.5602126323583
 20
1398.769376658315
 30
0.0
 10
438.558859193432
 20
1398.790406277116
 30
0.0
 10
438.5563043735729
 20
1398.839440370288
 30
0.0
 10
438.5553584798977
 20
1398.871860522956
 30
0.0
 10
438.5549328237153
 20
1398.896282361766
 30
0.0
 10
438.5547237945589
 20
1398.912401898928
 30
0.0
 10
438.5546383745391
 20
1398.935726316184
 30
0.0
 10
438.5549420000084
 20
1398.966093877495
 30
0.0
 10
438.5557935911179
 20
1398.999174812551
 30
0.0
 10
438.5580319623127
 20
1399.049081188383
 30
0.0
 10
438.5628724670128
 20
1399.112750769451
 30
0.0
 10
438.5722381988521
 20
1399.189925612959
 30
0.0
 10
438.5851888990701
 20
1399.266672761707
 30
0.0
 10
438.6139267590147
 20
1399.398658088296
 30
0.0
 10
438.6607351129996
 20
1399.542378860006
 30
0.0
 10
438.7301769024425
 20
1399.693554585367
 30
0.0
 10
438.8099389872482
 20
1399.83710315856
 30
0.0
 10
438.9176124827873
 20
1399.98779164597
 30
0.0
 10
439.0523241934438
 20
1400.13282964689
 30
0.0
 10
439.1968105704664
 20
1400.259953187943
 30
0.0
 10
439.3403343384512
 20
1400.361256138018
 30
0.0
 10
439.4696589436917
 20
1400.437615355583
 30
0.0
 10
439.584031643612
 20
1400.496933608538
 30
0.0
 10
439.7024019745982
 20
1400.550778501919
 30
0.0
 10
439.8085208165762
 20
1400.592191488282
 30
0.0
 10
439.8978530578001
 20
1400.62282150114
 30
0.0
 10
439.9678558077212
 20
1400.644467333059
 30
0.0
 10
440.0376327201402
 20
1400.663785563553
 30
0.0
 10
440.1016728979985
 20
1400.679284239076
 30
0.0
 10
440.1599146368608
 20
1400.691688775729
 30
0.0
 10
440.214156886992
 20
1400.701679479306
 30
0.0
 10
440.2637059353956
 20
1400.710155203928
 30
0.0
 10
440.3845207995801
 20
1400.724682416916
 30
0.0
 10
440.270163377058
 20
1400.711168907485
 30
0.0
 10
440.3615518594156
 20
1400.72180019724
 30
0.0
 10
440.3938936775025
 20
1400.724624705243
 30
0.0
 10
440.4173490421867
 20
1400.72637721933
 30
0.0
 10
440.4224964534651
 20
1400.726732331376
 30
0.0
 10
440.4034040359966
 20
1400.725405892623
 30
0.0
 10
440.346379005699
 20
1400.720598681616
 30
0.0
 10
440.2694118487248
 20
1400.710813269984
 30
0.0
 10
440.1956537628566
 20
1400.698693934876
 30
0.0
 10
440.1328867065349
 20
1400.686130769671
 30
0.0
 10
440.0810217022076
 20
1400.674347845012
 30
0.0
 10
440.0210308647293
 20
1400.659338528673
 30
0.0
 10
439.9321703054688
 20
1400.634324028568
 30
0.0
 10
439.8066139201032
 20
1400.592581369453
 30
0.0
 10
439.6419997412354
 20
1400.52563726722
 30
0.0
 10
439.4831090649318
 20
1400.446613406301
 30
0.0
 10
439.3228170309199
 20
1400.349597266865
 30
0.0
 10
439.1763734201209
 20
1400.244062006201
 30
0.0
 10
439.0252758351371
 20
1400.107131058936
 30
0.0
 10
438.8894030640577
 20
1399.951681836512
 30
0.0
 10
438.7772020669258
 20
1399.785021982422
 30
0.0
 10
438.7023255691888
 20
1399.63683516601
 30
0.0
 10
438.6528225921747
 20
1399.513856218433
 30
0.0
 10
438.6179764394333
 20
1399.407546564213
 30
0.0
 10
438.588821805633
 20
1399.289348782597
 30
0.0
 10
438.5685166731346
 20
1399.169361442972
 30
0.0
 10
438.5595839461234
 20
1399.076053180256
 30
0.0
 10
438.5562150021165
 20
1399.010477505905
 30
0.0
 10
438.5552319990265
 20
1398.979000341151
 30
0.0
 10
438.5548078945371
 20
1398.953737676162
 30
0.0
 10
438.554651554306
 20
1398.932198818952
 30
0.0
 10
438.554723412572
 20
1398.911648098107
 30
0.0
 10
438.5551456939679
 20
1398.882059800661
 30
0.0
 10
438.5551842237751
 20
1398.879467851181
 30
0.0
 10
438.556229616082
 20
1398.846256660316
 30
0.0
 10
438.5572359341636
 20
1398.820968557153
 30
0.0
 10
438.5590793971924
 20
1398.790829365568
 30
0.0
 10
438.5599993094488
 20
1398.76404145228
 30
0.0
 10
438.5613003673666
 20
1398.753701633036
 30
0.0
  0
ARC
  5
5966
330
A
100
AcDbEntity
  8
MODEL
100
AcDbCircle
 10
440.5597844522617
 20
602.7240300409362
 30
0.0
 40
1.992415100076875
100
AcDbArc
 50
261.8253218927319
 51
265.8859935432238
  0
SPLINE
  5
5967
330
A
100
AcDbEntity
  8
MODEL
100
AcDbSpline
210
0.0
220
0.0
230
1.0
 70
     8
 71
     3
 72
    32
 73
    28
 74
     0
 42
0.000000001
 43
0.0000000001
 40
1.597505975606901
 40
1.597505975606901
 40
1.597505975606901
 40
1.597505975606901
 40
1.614863349726954
 40
1.638268783169982
 40
1.714502728812678
 40
1.794071856120947
 40
1.873239084569042
 40
1.939431675158108
 40
2.005733584042961
 40
2.072073284699011
 40
2.336889095386682
 40
2.402903080355884
 40
2.525112686330306
 40
2.708645471626915
 40
3.025701841036819
 40
3.261529348458629
 40
3.415157790936996
 40
3.538345960515597
 40
3.936802301898566
 40
4.430059125701086
 40
4.757709287942144
 40
5.013478826959638
 40
5.194390441418428
 40
5.292208530535167
 40
5.36794152724642
 40
5.446651463864121
 40
5.692072367207762
 40
5.692072367207762
 40
5.692072367207762
 40
5.692072367207762
 10
438.555088858629
 20
602.5747939601756
 30
0.0
 10
438.5550803223955
 20
602.5743325469998
 30
0.0
 10
438.5550751324795
 20
602.574075466026
 30
0.0
 10
438.5553394599983
 20
602.5877320671466
 30
0.0
 10
438.5541385949368
 20
602.5266685056308
 30
0.0
 10
438.5559500095283
 20
602.4492185963795
 30
0.0
 10
438.5607482786772
 20
602.3742745642708
 30
0.0
 10
438.5681995071645
 20
602.30426276349
 30
0.0
 10
438.5777520496986
 20
602.2387774125568
 30
0.0
 10
438.6020408848785
 20
602.1087698939268
 30
0.0
 10
438.6394211978309
 20
601.9814752890857
 30
0.0
 10
438.6965026306848
 20
601.8417742625211
 30
0.0
 10
438.7499606512906
 20
601.7299682921771
 30
0.0
 10
438.8565753886692
 20
601.5519712246646
 30
0.0
 10
439.013380592924
 20
601.3635420737305
 30
0.0
 10
439.1792816327002
 20
601.218129080768
 30
0.0
 10
439.2943967007836
 20
601.1342648011673
 30
0.0
 10
439.4366352935813
 20
601.0419901431055
 30
0.0
 10
439.6221056953791
 20
600.9446953649644
 30
0.0
 10
439.8135750039505
 20
600.8672850901389
 30
0.0
 10
439.9646532884658
 20
600.8187854191242
 30
0.0
 10
440.073611278252
 20
600.7898462574562
 30
0.0
 10
440.1664782253861
 20
600.7697101586568
 30
0.0
 10
440.2387550477906
 20
600.7572526888875
 30
0.0
 10
440.2947507647882
 20
600.7487382595177
 30
0.0
 10
440.3817273748332
 20
600.7405766342022
 30
0.0
 10
440.4907907525585
 20
600.7156744839926
 30
0.0
 10
440.560798822688
 20
600.731541234291
 30
0.0
  0
SPLINE
  5
5968
330
A
100
AcDbEntity
  8
MODEL
100
AcDbSpline
210
0.0
220
0.0
230
1.0
 70
     8
 71
     3
 72
    15
 73
    11
 74
     0
 42
0.000000001
 43
0.0000000001
 40
0.303175062203172
 40
0.303175062203172
 40
0.303175062203172
 40
0.303175062203172
 40
0.3339405632727535
 40
0.3510586394835327
 40
0.3714432971331119
 40
0.4275978092112573
 40
0.4682967536786826
 40
0.5061961982215815
 40
0.5871568293963199
 40
0.6639929056921134
 40
0.6639929056921134
 40
0.6639929056921134
 40
0.6639929056921134
 10
438.5550898372599
 20
602.574793942073
 30
0.0
 10
438.5550912812528
 20
602.5747939161852
 30
0.0
 10
438.5551255177193
 20
602.5765682926472
 30
0.0
 10
438.5552183094119
 20
602.5819786840771
 30
0.0
 10
438.5561464555499
 20
602.6185810983047
 30
0.0
 10
438.5543157822076
 20
602.5329889241734
 30
0.0
 10
438.5554266319223
 20
602.5941234941897
 30
0.0
 10
438.5562082577335
 20
602.6172697294573
 30
0.0
 10
438.558089990212
 20
602.6649235400878
 30
0.0
 10
438.5601618567866
 20
602.7000123126531
 30
0.0
 10
438.5606837105906
 20
602.7090462960518
 30
0.0
  0
SPLINE
  5
5969
330
A
100
AcDbEntity
  8
MODEL
100
AcDbSpline
210
0.0
220
0.0
230
1.0
 70
    11
 71
     3
 72
    80
 73
    76
 74
     0
 42
0.000000001
 43
0.0000000001
 40
0.0
 40
0.0
 40
0.0
 40
0.0
 40
0.0349831707384707
 40
0.0703306498580203
 40
0.1485282411685319
 40
0.1610840947967311
 40
0.1761127344188629
 40
0.204699325810749
 40
0.2316520793295141
 40
0.2678958415481217
 40
0.3040609362250919
 40
0.3817542226529163
 40
0.4596429226759533
 40
0.5376365240334828
 40
0.615622972478481
 40
0.8654766195151372
 40
0.990073349622191
 40
1.114680264724534
 40
1.35842105751578
 40
1.546188595492369
 40
1.721161286991574
 40
1.978035772128191
 40
2.186739244272616
 40
2.375164714236544
 40
2.612380218594664
 40
2.897273475405071
 40
3.06402928132615
 40
3.229368010392516
 40
3.39518173389373
 40
3.556596102043018
 40
3.640902299046163
 40
3.729273695780384
 40
3.822806184377973
 40
3.921469284188766
 40
4.060747877095317
 40
4.102304349839669
 40
4.145219481738028
 40
4.169003807510297
 40
4.176461562425194
 40
4.184248975382988
 40
4.292160303069377
 40
4.404400934700452
 40
4.52711267586474
 40
4.641379106578443
 40
4.743016834477117
 40
4.841950480727728
 40
5.03654238341826
 40
5.3752665842964
 40
5.725134914176421
 40
6.081337459143863
 40
6.279930361812898
 40
6.520860944724299
 40
6.729804426847251
 40
6.927249308096426
 40
7.148727873737553
 40
7.332837126176171
 40
7.424978300238103
 40
7.546607347434753
 40
7.668502566409275
 40
7.790466394212623
 40
7.912113344258219
 40
7.94989780192116
 40
7.987716785795137
 40
8.00672135029951
 40
8.025954110434254
 40
8.052718098010308
 40
8.070032102956278
 40
8.125939499762335
 40
8.146879395506243
 40
8.165893197584397
 40
8.202866522591542
 40
8.239418721735285
 40
8.239418721735285
 40
8.239418721735285
 40
8.23941873248703
 40
8.23941873248703
 40
8.23941873248703
 40
8.23941873248703
 10
438.5613003681278
 20
602.7093807575188
 30
0.0
 10
438.5604829276613
 20
602.6978642648214
 30
0.0
 10
438.5589731521331
 20
602.674863286888
 30
0.0
 10
438.5563043735729
 20
602.623642009527
 30
0.0
 10
438.5553584798977
 20
602.5912218568596
 30
0.0
 10
438.5549328237153
 20
602.5668000180635
 30
0.0
 10
438.5547237945589
 20
602.5506804809015
 30
0.0
 10
438.5546383745391
 20
602.5273560636456
 30
0.0
 10
438.5549420000084
 20
602.4969885023352
 30
0.0
 10
438.5557935911179
 20
602.463907567279
 30
0.0
 10
438.5580319623127
 20
602.4140011914465
 30
0.0
 10
438.5628724670128
 20
602.3503316103638
 30
0.0
 10
438.5722381988521
 20
602.2731567668566
 30
0.0
 10
438.5851888990701
 20
602.1964096181223
 30
0.0
 10
438.6139267590147
 20
602.0644242915191
 30
0.0
 10
438.6607351129996
 20
601.9207035198092
 30
0.0
 10
438.7301769024425
 20
601.7695277944481
 30
0.0
 10
438.8099389872482
 20
601.6259792212554
 30
0.0
 10
438.9176124827873
 20
601.4752907338448
 30
0.0
 10
439.0523241934438
 20
601.3302527329402
 30
0.0
 10
439.1968105704664
 20
601.2031291918724
 30
0.0
 10
439.3403343384512
 20
601.1018262418115
 30
0.0
 10
439.4696589436917
 20
601.0254670242325
 30
0.0
 10
439.584031643612
 20
600.966148771277
 30
0.0
 10
439.7024019745982
 20
600.9123038779112
 30
0.0
 10
439.8085208165762
 20
600.8708908915473
 30
0.0
 10
439.8978530578001
 20
600.840260878675
 30
0.0
 10
439.9678558077212
 20
600.8186150467704
 30
0.0
 10
440.0376327201402
 20
600.7992968162621
 30
0.0
 10
440.1016728979985
 20
600.7837981407397
 30
0.0
 10
440.1599146368608
 20
600.7713936041005
 30
0.0
 10
440.214156886992
 20
600.7614029005094
 30
0.0
 10
440.2637059353956
 20
600.7529271758872
 30
0.0
 10
440.3845207995801
 20
600.7383999629133
 30
0.0
 10
440.270163377058
 20
600.7519134723302
 30
0.0
 10
440.3615518594156
 20
600.7412821825897
 30
0.0
 10
440.3938936775025
 20
600.7384576745867
 30
0.0
 10
440.4173490421867
 20
600.7367051604856
 30
0.0
 10
440.4224964534651
 20
600.7363500484394
 30
0.0
 10
440.4034040359966
 20
600.737676487192
 30
0.0
 10
440.346379005699
 20
600.7424836981995
 30
0.0
 10
440.2694118487248
 20
600.7522691098316
 30
0.0
 10
440.1956537628566
 20
600.7643884449394
 30
0.0
 10
440.1328867065349
 20
600.7769516101584
 30
0.0
 10
440.0810217022076
 20
600.7887345348176
 30
0.0
 10
440.0210308647293
 20
600.8037438511569
 30
0.0
 10
439.9321703054688
 20
600.828758351247
 30
0.0
 10
439.8066139201032
 20
600.8705010103627
 30
0.0
 10
439.6419997412354
 20
600.9374451125955
 30
0.0
 10
439.4831090649318
 20
601.0164689735143
 30
0.0
 10
439.3228170309199
 20
601.113485112965
 30
0.0
 10
439.1763734201209
 20
601.2190203736286
 30
0.0
 10
439.0252758351371
 20
601.3559513208934
 30
0.0
 10
438.8894030640577
 20
601.5114005433029
 30
0.0
 10
438.7772020669258
 20
601.6780603973934
 30
0.0
 10
438.7023255691888
 20
601.8262472138199
 30
0.0
 10
438.6528225921747
 20
601.9492261613964
 30
0.0
 10
438.6179764394333
 20
602.0555358156166
 30
0.0
 10
438.588821805633
 20
602.173733597218
 30
0.0
 10
438.5685166731346
 20
602.2937209368433
 30
0.0
 10
438.5595839461234
 20
602.3870291995595
 30
0.0
 10
438.5562150021165
 20
602.4526048739103
 30
0.0
 10
438.5552319990265
 20
602.4840820386785
 30
0.0
 10
438.5548078945371
 20
602.5093447036675
 30
0.0
 10
438.554651554306
 20
602.530883560878
 30
0.0
 10
438.554723412572
 20
602.5514342817082
 30
0.0
 10
438.5551456939679
 20
602.5810225791688
 30
0.0
 10
438.5551842237751
 20
602.5836145286489
 30
0.0
 10
438.556229616082
 20
602.616825719499
 30
0.0
 10
438.5572359341636
 20
602.6421138226765
 30
0.0
 10
438.5590793971924
 20
602.672253014262
 30
0.0
 10
438.5599993094488
 20
602.69904092755
 30
0.0
 10
438.5613003673666
 20
602.7093807467941
 30
0.0
 10
438.5613003673666
 20
602.7093807467941
 30
0.0
 10
438.5613003681278
 20
602.7093807575188
 30
0.0
 10
438.5613003681278
 20
602.7093807575188
 30
0.0
  0
LINE
  5
596D
330
A
100
AcDbEntity
  8
MODEL
100
AcDbLine
 10
618.5608399946586
 20
1250.731541189908
 30
0.0
 11
833.560839034028
 21
1250.731541189922
 31
0.0
  0
ARC
  5
596E
330
A
100
AcDbEntity
  8
MODEL
100
AcDbCircle
 10
618.5608399946618
 20
1200.731541189908
 30
0.0
 40
50.0
100
AcDbArc
 50
90.00000000000418
 51
179.9999999674666
  0
LINE
  5
596F
330
A
100
AcDbEntity
  8
MODEL
100
AcDbLine
 10
618.5608397561609
 20
750.7315411899076
 30
0.0
 11
833.5608390340335
 21
750.7315411899222
 31
0.0
  0
ARC
  5
5970
330
A
100
AcDbEntity
  8
MODEL
100
AcDbCircle
 10
618.5608397561582
 20
800.7315411899076
 30
0.0
 40
50.0
100
AcDbArc
 50
179.9999999674832
 51
270.0
  0
CIRCLE
  5
5971
330
A
100
AcDbEntity
  8
MODEL
100
AcDbCircle
 10
663.5608313275784
 20
1000.731541189908
 30
0.0
 40
22.0
  0
CIRCLE
  5
5972
330
A
100
AcDbEntity
  8
MODEL
100
AcDbCircle
 10
663.5608313275784
 20
1000.731541189908
 30
0.0
 40
38.5
  0
SPLINE
  5
5973
330
A
100
AcDbEntity
  8
MODEL
100
AcDbSpline
210
0.0
220
0.0
230
1.0
 70
     8
 71
     3
 72
    14
 73
    10
 74
     0
 42
0.000000001
 43
0.0000000001
 40
0.0
 40
0.0
 40
0.0
 40
0.0
 40
4.438579156171226
 40
8.092991413260776
 40
11.35540354477697
 40
14.61796776840336
 40
17.88059968536241
 40
20.15832350912375
 40
22.77672762232345
 40
22.77672762232345
 40
22.77672762232345
 40
22.77672762232345
 10
570.5300844355475
 20
1015.231488801689
 30
0.0
 10
570.6259326386889
 20
1015.231482371474
 30
0.0
 10
570.8057527182846
 20
1014.815135625501
 30
0.0
 10
571.0500520546088
 20
1013.216959373913
 30
0.0
 10
571.2475595534029
 20
1011.094845357792
 30
0.0
 10
571.4050562951879
 20
1008.532039856935
 30
0.0
 10
571.5067017878914
 20
1005.873324818462
 30
0.0
 10
571.5628350374659
 20
1003.236379346742
 30
0.0
 10
571.5748090228399
 20
1001.604340368042
 30
0.0
 10
571.5748090228399
 20
1000.731541189908
 30
0.0
  0
SPLINE
  5
5974
330
A
100
AcDbEntity
  8
MODEL
100
AcDbSpline
210
0.0
220
0.0
230
1.0
 70
     8
 71
     3
 72
    14
 73
    10
 74
     0
 42
0.000000001
 43
0.0000000001
 40
0.0
 40
0.0
 40
0.0
 40
0.0
 40
4.437951340082113
 40
8.09221583153426
 40
11.35467298824016
 40
14.61719808154339
 40
17.87974963172368
 40
20.15766791178805
 40
22.77655317433729
 40
22.77655317433729
 40
22.77655317433729
 40
22.77655317433729
 10
569.661462240636
 20
1000.731541189908
 30
0.0
 10
569.661462240636
 20
1002.210864717814
 30
0.0
 10
569.6847073629333
 20
1004.907986208466
 30
0.0
 10
569.7748592499674
 20
1008.372353817224
 30
0.0
 10
569.8964493094632
 20
1011.047493076334
 30
0.0
 10
570.0463755936917
 20
1013.099735171538
 30
0.0
 10
570.2062631505769
 20
1014.384577406996
 30
0.0
 10
570.3695554328015
 20
1015.083645367955
 30
0.0
 10
570.4735313274887
 20
1015.231492595693
 30
0.0
 10
570.5300844355475
 20
1015.231488801689
 30
0.0
  0
SPLINE
  5
5975
330
A
100
AcDbEntity
  8
MODEL
100
AcDbSpline
210
0.0
220
0.0
230
1.0
 70
     8
 71
     3
 72
    22
 73
    18
 74
     0
 42
0.000000001
 43
0.0000000001
 40
0.0
 40
0.0
 40
0.0
 40
0.0
 40
4.069372967250446
 40
7.414366078164461
 40
10.40492380029598
 40
13.25963373910581
 40
16.25029650064632
 40
19.24095403896702
 40
22.09558862038859
 40
25.08607164947307
 40
27.94057952960579
 40
30.93101909458784
 40
33.92158931396602
 40
36.77630787140812
 40
39.76706691113682
 40
42.62175942500219
 40
45.55335725037372
 40
45.55335725037372
 40
45.55335725037372
 40
45.55335725037372
 10
569.661462240636
 20
1000.731541189908
 30
0.0
 10
569.661462240636
 20
999.3750776523416
 30
0.0
 10
569.6809740724839
 20
996.9037959746097
 30
0.0
 10
569.7568756863657
 20
993.6825712913164
 30
0.0
 10
569.8582265869568
 20
991.1662159818411
 30
0.0
 10
569.9833890337445
 20
989.1385268393683
 30
0.0
 10
570.1329136338463
 20
987.5827267013997
 30
0.0
 10
570.3029157215296
 20
986.5759059253364
 30
0.0
 10
570.4876361244169
 20
986.1471051200392
 30
0.0
 10
570.678093791465
 20
986.3107411749993
 30
0.0
 10
570.8728664146265
 20
987.0650079377997
 30
0.0
 10
571.0609320024114
 20
988.3774550579733
 30
0.0
 10
571.2326666797148
 20
990.205654155729
 30
0.0
 10
571.3788722658237
 20
992.4620952598093
 30
0.0
 10
571.4891542403029
 20
995.0175743547338
 30
0.0
 10
571.5589521995853
 20
997.8256113320135
 30
0.0
 10
571.5748090228399
 20
999.754344370031
 30
0.0
 10
571.5748090228399
 20
1000.731541189908
 30
0.0
  0
LINE
  5
5976
330
A
100
AcDbEntity
  8
MODEL
100
AcDbLine
 10
1679.118368940515
 20
2549.832619118089
 30
0.0
 11
1706.920378114955
 21
2549.832613728498
 31
0.0
  0
LINE
  5
5977
330
A
100
AcDbEntity
  8
MODEL
100
AcDbLine
 10
1578.118381459673
 20
2324.832581219772
 30
0.0
 11
1578.118379067018
 21
2100.480309411062
 31
0.0
  0
LINE
  5
5978
330
A
100
AcDbEntity
  8
MODEL
100
AcDbLine
 10
1578.118381459673
 20
2324.832581223039
 30
0.0
 11
1578.118379080027
 21
2425.526343225086
 31
0.0
  0
LINE
  5
5979
330
A
100
AcDbEntity
  8
MODEL
100
AcDbLine
 10
1668.118383208217
 20
2152.787413402291
 30
0.0
 11
1668.118381319509
 21
2109.578678949841
 31
0.0
  0
ARC
  5
597B
330
A
100
AcDbEntity
  8
HIDDEN
 48
0.5
100
AcDbCircle
 10
1584.118370279436
 20
2100.480344162521
 30
0.0
 40
6.0
100
AcDbArc
 50
108.9878986739713
 51
180.0
  0
ARC
  5
597D
330
A
100
AcDbEntity
  8
HIDDEN
 48
0.5
100
AcDbCircle
 10
1584.118370279436
 20
2425.526031411387
 30
0.0
 40
6.0
100
AcDbArc
 50
180.0
 51
266.9885775163662
  0
SPLINE
  5
597E
330
A
100
AcDbEntity
  8
HIDDEN
 48
0.5
100
AcDbSpline
210
0.0
220
0.0
230
1.0
 70
     8
 71
     3
 72
    78
 73
    74
 74
     0
 42
0.000000001
 43
0.0000000001
 40
0.0
 40
0.0
 40
0.0
 40
0.0
 40
0.9805041524790354
 40
1.960998496722846
 40
2.941473283071843
 40
3.921918894163575
 40
4.902325922327925
 40
5.882685244512718
 40
6.86298809409994
 40
7.843226128858704
 40
8.823391494179292
 40
9.80347688066277
 40
10.78347557511961
 40
11.76338150406975
 40
12.74318926893949
 40
13.72289417231513
 40
14.70249223482934
 40
15.68198020250902
 40
16.66135554468481
 40
17.64061644283288
 40
18.61976177097026
 40
19.59879106844437
 40
20.57770450607959
 40
21.55650284702397
 40
22.53518740315588
 40
23.51375998757481
 40
24.49222289520183
 40
25.47057873461244
 40
26.44883087571099
 40
27.42698477586082
 40
28.40504853625259
 40
29.38303270006393
 40
30.3609496969565
 40
31.33881320518401
 40
32.31663715864788
 40
33.29443468371515
 40
34.27221760614136
 40
35.24999641105955
 40
36.22778033781486
 40
37.20557748673481
 40
38.18339491693225
 40
39.16123880274316
 40
40.13911494043643
 40
41.1170297354519
 40
42.09499010419569
 40
43.07300139445194
 40
44.05106666594918
 40
45.02918817680993
 40
46.00736889671487
 40
46.98561321707512
 40
47.9639269852812
 40
48.94231713858585
 40
49.92079112688675
 40
50.89935618009069
 40
51.87801824858094
 40
52.85678097610897
 40
53.83564558900449
 40
54.81461124342776
 40
55.7936755043695
 40
56.77283490179968
 40
57.75208537012307
 40
58.73142246677428
 40
59.71084139696209
 40
60.69033695847894
 40
61.66990351321458
 40
62.64953498388856
 40
63.6292248457161
 40
64.60896611949522
 40
65.58875136708374
 40
66.56857268936368
 40
67.5484217267932
 40
68.52828966261555
 40
69.50816722876525
 40
69.50816722876525
 40
69.50816722876525
 40
69.50816722876525
 10
1707.8459431394
 20
2281.353900997241
 30
0.0
 10
1707.84594372657
 20
2281.353911302383
 30
0.0
 10
1707.845979984267
 20
2281.360953000456
 30
0.0
 10
1707.846146842523
 20
2281.392709686546
 30
0.0
 10
1707.846422683491
 20
2281.445609935173
 30
0.0
 10
1707.846805498527
 20
2281.519640383756
 30
0.0
 10
1707.847291570768
 20
2281.6147662404
 30
0.0
 10
1707.847876427113
 20
2281.730946905605
 30
0.0
 10
1707.848554697789
 20
2281.868131675211
 30
0.0
 10
1707.849320282373
 20
2282.026260759579
 30
0.0
 10
1707.850166443866
 20
2282.205264862561
 30
0.0
 10
1707.851085928938
 20
2282.405065136119
 30
0.0
 10
1707.852071084053
 20
2282.625573030074
 30
0.0
 10
1707.85311397248
 20
2282.86669017188
 30
0.0
 10
1707.85420648742
 20
2283.128308246366
 30
0.0
 10
1707.85534045966
 20
2283.410308889217
 30
0.0
 10
1707.856507757926
 20
2283.712563595658
 30
0.0
 10
1707.857700380031
 20
2284.034933648385
 30
0.0
 10
1707.858910534341
 20
2284.37727006701
 30
0.0
 10
1707.860130710163
 20
2284.739413581464
 30
0.0
 10
1707.861353737549
 20
2285.121194628227
 30
0.0
 10
1707.862572834827
 20
2285.522433377522
 30
0.0
 10
1707.863781647844
 20
2285.942939759919
 30
0.0
 10
1707.864974270545
 20
2286.382513623872
 30
0.0
 10
1707.866145305379
 20
2286.840944487494
 30
0.0
 10
1707.86728970833
 20
2287.31801288576
 30
0.0
 10
1707.868403563799
 20
2287.813486087477
 30
0.0
 10
1707.869473980666
 20
2288.327123289756
 30
0.0
 10
1707.870478746408
 20
2288.85869523043
 30
0.0
 10
1707.871395286143
 20
2289.407967464263
 30
0.0
 10
1707.872204324405
 20
2289.97469263463
 30
0.0
 10
1707.872890956772
 20
2290.55860648439
 30
0.0
 10
1707.873444178447
 20
2291.15943139303
 30
0.0
 10
1707.873861137763
 20
2291.7768745873
 30
0.0
 10
1707.874148137125
 20
2292.410622714471
 30
0.0
 10
1707.874315060005
 20
2293.060348118779
 30
0.0
 10
1707.874372253296
 20
2293.725715480935
 30
0.0
 10
1707.874329686994
 20
2294.406383294994
 30
0.0
 10
1707.87419684189
 20
2295.102004240325
 30
0.0
 10
1707.873982696095
 20
2295.812225100782
 30
0.0
 10
1707.873695777685
 20
2296.536686785688
 30
0.0
 10
1707.873343161554
 20
2297.27502428541
 30
0.0
 10
1707.872925341362
 20
2298.026868899394
 30
0.0
 10
1707.872430131392
 20
2298.791858372305
 30
0.0
 10
1707.871857352802
 20
2299.569626760738
 30
0.0
 10
1707.87123299342
 20
2300.359772906207
 30
0.0
 10
1707.870576829285
 20
2301.161886412464
 30
0.0
 10
1707.869890169633
 20
2301.975569369598
 30
0.0
 10
1707.869163012801
 20
2302.800430021401
 30
0.0
 10
1707.868382165746
 20
2303.636074563026
 30
0.0
 10
1707.867536476813
 20
2304.482101699972
 30
0.0
 10
1707.866619050924
 20
2305.338100906705
 30
0.0
 10
1707.865628159692
 20
2306.203652224579
 30
0.0
 10
1707.864567526834
 20
2307.078326839688
 30
0.0
 10
1707.863449704294
 20
2307.961686308395
 30
0.0
 10
1707.862296011619
 20
2308.853283111662
 30
0.0
 10
1707.861127834417
 20
2309.75266724978
 30
0.0
 10
1707.85996465868
 20
2310.659388414593
 30
0.0
 10
1707.858822694557
 20
2311.572996600309
 30
0.0
 10
1707.8577136159
 20
2312.493042572903
 30
0.0
 10
1707.856645116218
 20
2313.419077091033
 30
0.0
 10
1707.855622704606
 20
2314.350649653675
 30
0.0
 10
1707.854651668938
 20
2315.287307526348
 30
0.0
 10
1707.853738091696
 20
2316.228595531885
 30
0.0
 10
1707.852888559311
 20
2317.174056388686
 30
0.0
 10
1707.852109872314
 20
2318.123231135448
 30
0.0
 10
1707.85140917894
 20
2319.075658828764
 30
0.0
 10
1707.850793913836
 20
2320.030878459329
 30
0.0
 10
1707.850271859351
 20
2320.988422785298
 30
0.0
 10
1707.849850822458
 20
2321.947842274124
 30
0.0
 10
1707.849539697257
 20
2322.908616658813
 30
0.0
 10
1707.84934433845
 20
2323.87048591484
 30
0.0
 10
1707.849303295937
 20
2324.511638187364
 30
0.0
 10
1707.849300609421
 20
2324.832592616936
 30
0.0
  0
SPLINE
  5
597F
330
A
100
AcDbEntity
  8
HIDDEN
 48
0.5
100
AcDbSpline
210
0.0
220
0.0
230
1.0
 70
     8
 71
     7
 72
    71
 73
    63
 74
     0
 42
0.000000001
 43
0.0000000001
 40
0.0160733418579843
 40
0.0160733418579843
 40
0.0160733418579843
 40
0.0160733418579843
 40
0.0160733418579843
 40
0.0160733418579843
 40
0.0160733418579843
 40
0.0160733418579843
 40
0.1111699767167463
 40
0.1111699767167463
 40
0.1111699767167463
 40
0.1111699767167463
 40
0.1111699767167463
 40
0.1490399999999999
 40
0.1490399999999999
 40
0.1490399999999999
 40
0.1490399999999999
 40
0.1490399999999999
 40
0.249514316647972
 40
0.249514316647972
 40
0.249514316647972
 40
0.249514316647972
 40
0.249514316647972
 40
0.3470170649894394
 40
0.3470170649894394
 40
0.3470170649894394
 40
0.3470170649894394
 40
0.3470170649894394
 40
0.4184783999999999
 40
0.4184783999999999
 40
0.4184783999999999
 40
0.4184783999999999
 40
0.4184783999999999
 40
0.4989599999999999
 40
0.4989599999999999
 40
0.4989599999999999
 40
0.4989599999999999
 40
0.4989599999999999
 40
0.5120330639755196
 40
0.5120330639755196
 40
0.5120330639755196
 40
0.5120330639755196
 40
0.5120330639755196
 40
0.6479999999999999
 40
0.6479999999999999
 40
0.6479999999999999
 40
0.6479999999999999
 40
0.6479999999999999
 40
0.665533245420314
 40
0.665533245420314
 40
0.665533245420314
 40
0.665533245420314
 40
0.665533245420314
 40
0.8003013007819044
 40
0.8003013007819044
 40
0.8003013007819044
 40
0.8003013007819044
 40
0.8003013007819044
 40
0.8099999999999999
 40
0.8099999999999999
 40
0.8099999999999999
 40
0.8099999999999999
 40
0.8099999999999999
 40
0.9756221292620462
 40
0.9756221292620462
 40
0.9756221292620462
 40
0.9756221292620462
 40
0.9756221292620462
 40
0.9756221292620462
 40
0.9756221292620462
 40
0.9756221292620462
 10
1582.166159602624
 20
2106.153868065117
 30
0.0
 10
1585.568575718047
 20
2107.324610126228
 30
0.0
 10
1588.932838844644
 20
2108.599814499157
 30
0.0
 10
1592.255781653628
 20
2109.972542107319
 30
0.0
 10
1595.538466558209
 20
2111.437407552909
 30
0.0
 10
1598.784198742941
 20
2112.991464408127
 30
0.0
 10
1603.274094692227
 20
2115.285947980236
 30
0.0
 10
1607.697797627392
 20
2117.745630006393
 30
0.0
 10
1608.952382804171
 20
2118.459414288739
 30
0.0
 10
1610.201651303417
 20
2119.186285946333
 30
0.0
 10
1611.445561717788
 20
2119.926072702585
 30
0.0
 10
1615.969849585148
 20
2122.675096532244
 30
0.0
 10
1620.420022476901
 20
2125.591172184678
 30
0.0
 10
1623.610876734033
 20
2127.793281740739
 30
0.0
 10
1626.757042357101
 20
2130.075181054537
 30
0.0
 10
1629.854303349595
 20
2132.43162224056
 30
0.0
 10
1635.852507610674
 20
2137.21059457497
 30
0.0
 10
1641.629272900332
 20
2142.23524979254
 30
0.0
 10
1644.417035935926
 20
2144.764312053296
 30
0.0
 10
1647.144286019451
 20
2147.342670813871
 30
0.0
 10
1649.808403873612
 20
2149.965508077893
 30
0.0
 10
1654.312399414702
 20
2154.580538537185
 30
0.0
 10
1658.616930252275
 20
2159.305937700469
 30
0.0
 10
1660.401253763586
 20
2161.322826131648
 30
0.0
 10
1662.148952223564
 20
2163.356816962696
 30
0.0
 10
1663.859731177362
 20
2165.406829717405
 30
0.0
 10
1667.418139970905
 20
2169.797551820632
 30
0.0
 10
1670.80653485583
 20
2174.251134976028
 30
0.0
 10
1672.553037560952
 20
2176.626155680348
 30
0.0
 10
1674.250553358215
 20
2179.015452288699
 30
0.0
 10
1675.898114912575
 20
2181.416892135022
 30
0.0
 10
1677.753745534384
 20
2184.219290121155
 30
0.0
 10
1679.538063090047
 20
2187.029319919651
 30
0.0
 10
1679.785999653962
 20
2187.422118909516
 30
0.0
 10
1680.032530526135
 20
2187.815034776188
 30
0.0
 10
1680.277648662246
 20
2188.208050205926
 30
0.0
 10
1683.055939343103
 20
2192.689567682125
 30
0.0
 10
1685.648709024724
 20
2197.179235555152
 30
0.0
 10
1687.851326792559
 20
2201.260747020811
 30
0.0
 10
1689.881184623867
 20
2205.298537379216
 30
0.0
 10
1691.734181361272
 20
2209.26179734748
 30
0.0
 10
1693.63356887603
 20
2213.630267905997
 30
0.0
 10
1695.33326267742
 20
2217.884097959311
 30
0.0
 10
1695.524830287555
 20
2218.368493448254
 30
0.0
 10
1695.713853414476
 20
2218.851413814732
 30
0.0
 10
1695.900366599569
 20
2219.332881579679
 30
0.0
 10
1697.499016304267
 20
2223.502761982363
 30
0.0
 10
1698.913941908482
 20
2227.568146344481
 30
0.0
 10
1700.039541854901
 20
2231.100716317843
 30
0.0
 10
1701.062046338076
 20
2234.610863519801
 30
0.0
 10
1701.999210101304
 20
2238.154602688566
 30
0.0
 10
1702.917542663432
 20
2242.035211125419
 30
0.0
 10
1703.742145065989
 20
2246.017532539748
 30
0.0
 10
1703.797081462922
 20
2246.285346542588
 30
0.0
 10
1703.851594446649
 20
2246.553627219504
 30
0.0
 10
1703.905683307588
 20
2246.822377431355
 30
0.0
 10
1704.875751441577
 20
2251.689027507167
 30
0.0
 10
1705.706643626603
 20
2256.710097914327
 30
0.0
 10
1706.36338832257
 20
2261.597376933392
 30
0.0
 10
1706.875771586244
 20
2266.569091143748
 30
0.0
 10
1707.266588079233
 20
2271.542184948722
 30
0.0
 10
1707.574342429114
 20
2276.463854794907
 30
0.0
 10
1707.8459431394
 20
2281.353900997241
 30
0.0
  0
ARC
  5
5981
330
A
100
AcDbEntity
  8
HIDDEN
 48
0.5
100
AcDbCircle
 10
1723.196810487061
 20
2369.262816804101
 30
0.0
 40
15.39677219755634
100
AcDbArc
 50
183.7278397975195
 51
219.9999999996967
  0
SPLINE
  5
5983
330
A
100
AcDbEntity
  8
HIDDEN
 48
0.5
100
AcDbSpline
210
0.0
220
0.0
230
1.0
 70
     8
 71
     3
 72
    78
 73
    74
 74
     0
 42
0.000000001
 43
0.0000000001
 40
0.0
 40
0.0
 40
0.0
 40
0.0
 40
0.9829443620889882
 40
1.965870517697925
 40
2.948760188805694
 40
3.931595118574588
 40
4.914357235999458
 40
5.897028843268619
 40
6.879592827390157
 40
7.862032892808407
 40
8.844333807194756
 40
9.826481648921847
 40
10.80846404238443
 40
11.79027036660309
 40
12.77189192351434
 40
13.75332205486438
 40
14.73455620033618
 40
15.71559189395812
 40
16.696428700407
 40
17.67706809698562
 40
18.65751331038285
 40
19.63776911952237
 40
20.61784163676833
 40
21.59773807954978
 40
22.57746654329412
 40
23.55703578471181
 40
24.53645502226482
 40
25.51573375836828
 40
26.49488162575099
 40
27.47390825859058
 40
28.45282318762369
 40
29.43163575742563
 40
30.41035506342734
 40
31.38898990592924
 40
32.36754875833184
 40
33.3460397646882
 40
34.3244707181373
 40
35.30284926395909
 40
36.28118395676761
 40
37.25948431771178
 40
38.23776010300988
 40
39.2160209411998
 40
40.19427611027866
 40
41.17253427000642
 40
42.15080332370201
 40
43.12909052524021
 40
44.10740271478983
 40
45.08574666856595
 40
46.0641294477715
 40
47.04255861523092
 40
48.02104225967578
 40
48.99958868648744
 40
49.97820547575306
 40
50.95689769368921
 40
51.93566637806556
 40
52.91451025551477
 40
53.89342977732706
 40
54.87242836707033
 40
55.85151057086972
 40
56.83067943909909
 40
57.80993488348228
 40
58.78927388314292
 40
59.76869223559191
 40
60.74818527698133
 40
61.72774798232781
 40
62.70737490811572
 40
63.68706010282986
 40
64.66679706846335
 40
65.64657873080384
 40
66.62639741271572
 40
67.60624481079934
 40
68.58611197576414
 40
69.56598929681556
 40
69.56598929681556
 40
69.56598929681556
 40
69.56598929681556
 10
1707.832615635066
 20
2368.261762033847
 30
0.0
 10
1707.832616423736
 20
2368.261750130095
 30
0.0
 10
1707.832666647882
 20
2368.254805462787
 30
0.0
 10
1707.832904079754
 20
2368.223466727988
 30
0.0
 10
1707.833303242325
 20
2368.171250068777
 30
0.0
 10
1707.833863797059
 20
2368.098150632484
 30
0.0
 10
1707.83458125242
 20
2368.004182951699
 30
0.0
 10
1707.835448433732
 20
2367.889363500198
 30
0.0
 10
1707.836455519864
 20
2367.75371626974
 30
0.0
 10
1707.837590526512
 20
2367.597272279195
 30
0.0
 10
1707.838839712989
 20
2367.42007078171
 30
0.0
 10
1707.840188032045
 20
2367.222160056993
 30
0.0
 10
1707.84161957071
 20
2367.003598318813
 30
0.0
 10
1707.843117976604
 20
2366.764454557327
 30
0.0
 10
1707.844666854274
 20
2366.504809325828
 30
0.0
 10
1707.84625012087
 20
2366.224755432431
 30
0.0
 10
1707.847852312945
 20
2365.924398514758
 30
0.0
 10
1707.849458838944
 20
2365.603857477714
 30
0.0
 10
1707.851056174855
 20
2365.263264782548
 30
0.0
 10
1707.852632003749
 20
2364.902766583116
 30
0.0
 10
1707.854175301748
 20
2364.522522713414
 30
0.0
 10
1707.855676375678
 20
2364.12270653786
 30
0.0
 10
1707.857126858667
 20
2363.703504681898
 30
0.0
 10
1707.858519671004
 20
2363.265116664855
 30
0.0
 10
1707.859848954016
 20
2362.807754459254
 30
0.0
 10
1707.861109984209
 20
2362.331642001076
 30
0.0
 10
1707.862299074855
 20
2361.837014674061
 30
0.0
 10
1707.863413470826
 20
2361.324118788328
 30
0.0
 10
1707.864451241956
 20
2360.793211069787
 30
0.0
 10
1707.865411179213
 20
2360.244558173419
 30
0.0
 10
1707.866292694889
 20
2359.678436227119
 30
0.0
 10
1707.867095736292
 20
2359.09513041785
 30
0.0
 10
1707.867820686398
 20
2358.494934596337
 30
0.0
 10
1707.868468356144
 20
2357.878150994845
 30
0.0
 10
1707.869039679892
 20
2357.245089696452
 30
0.0
 10
1707.869536563172
 20
2356.596069196471
 30
0.0
 10
1707.869954957335
 20
2355.93142555505
 30
0.0
 10
1707.870283683587
 20
2355.251477417285
 30
0.0
 10
1707.870516965311
 20
2354.556543865341
 30
0.0
 10
1707.870654068814
 20
2353.846967174637
 30
0.0
 10
1707.870695581455
 20
2353.123100129054
 30
0.0
 10
1707.870643648493
 20
2352.385303225108
 30
0.0
 10
1707.870502935431
 20
2351.633945336654
 30
0.0
 10
1707.870279546943
 20
2350.869405715035
 30
0.0
 10
1707.869978666654
 20
2350.092069549402
 30
0.0
 10
1707.869604146995
 20
2349.302326043136
 30
0.0
 10
1707.869157636087
 20
2348.500568784635
 30
0.0
 10
1707.868637737192
 20
2347.68719338501
 30
0.0
 10
1707.868041517096
 20
2346.862598552308
 30
0.0
 10
1707.867365447935
 20
2346.027187462719
 30
0.0
 10
1707.866607203657
 20
2345.181368757259
 30
0.0
 10
1707.865768593168
 20
2344.325558083397
 30
0.0
 10
1707.864860942208
 20
2343.460180914076
 30
0.0
 10
1707.863911283217
 20
2342.585677224924
 30
0.0
 10
1707.862956863711
 20
2341.702503828466
 30
0.0
 10
1707.862010838202
 20
2340.811113750563
 30
0.0
 10
1707.861049527055
 20
2339.911930415144
 30
0.0
 10
1707.860049166687
 20
2339.005373270381
 30
0.0
 10
1707.859007886159
 20
2338.0918813524
 30
0.0
 10
1707.857943641283
 20
2337.171911192694
 30
0.0
 10
1707.85688625049
 20
2336.245927636226
 30
0.0
 10
1707.855862888915
 20
2335.314395889558
 30
0.0
 10
1707.854884360378
 20
2334.377772691374
 30
0.0
 10
1707.853957628554
 20
2333.436513688651
 30
0.0
 10
1707.853088892196
 20
2332.491076132648
 30
0.0
 10
1707.852285332468
 20
2331.541919270657
 30
0.0
 10
1707.851555427128
 20
2330.589504843123
 30
0.0
 10
1707.850908246779
 20
2329.634294147999
 30
0.0
 10
1707.850353420275
 20
2328.676756798002
 30
0.0
 10
1707.849901689623
 20
2327.717337091537
 30
0.0
 10
1707.84956266421
 20
2326.756578434384
 30
0.0
 10
1707.849353149649
 20
2325.794657960274
 30
0.0
 10
1707.84929500267
 20
2325.153635338063
 30
0.0
 10
1707.849300495639
 20
2324.832592617007
 30
0.0
  0
ARC
  5
5984
330
A
100
AcDbEntity
  8
HIDDEN
 48
0.5
100
AcDbCircle
 10
1722.989888645577
 20
2280.512782900219
 30
0.0
 40
15.16728601784575
100
AcDbArc
 50
140.0000000002877
 51
176.820970283903
  0
SPLINE
  5
5986
330
A
100
AcDbEntity
  8
MODEL
100
AcDbSpline
210
0.0
220
0.0
230
1.0
 70
     8
 71
     3
 72
    11
 73
     7
 74
     0
 42
0.000000001
 43
0.0000000001
 40
0.0426690687078568
 40
0.0426690687078568
 40
0.0426690687078568
 40
0.0426690687078568
 40
0.2473152828254048
 40
0.4986799133960036
 40
0.7507009005484674
 40
0.9442546350990875
 40
0.9442546350990875
 40
0.9442546350990875
 40
0.9442546350990875
 10
1717.87041051354
 20
2280.301237326071
 30
0.0
 10
1717.329624787365
 20
2269.405495926625
 30
0.0
 10
1715.49787532138
 20
2247.535483021287
 30
0.0
 10
1708.180107866297
 20
2217.926724775144
 30
0.0
 10
1691.555390822568
 20
2183.130949638916
 30
0.0
 10
1675.925050989231
 20
2161.74179188526
 30
0.0
 10
1668.118383126385
 20
2152.787413308447
 30
0.0
  0
ARC
  5
5989
330
A
100
AcDbEntity
  8
MODEL
100
AcDbCircle
 10
1725.860575037673
 20
2279.904663401819
 30
0.0
 40
7.999999999999997
100
AcDbArc
 50
95.00444037479662
 51
177.1585839440358
  0
ARC
  5
598A
330
A
100
AcDbEntity
  8
HIDDEN
 48
0.5
100
AcDbCircle
 10
1364.845765632897
 20
-1774.527158713818
 30
0.0
 40
4199.773089345454
100
AcDbArc
 50
86.80843209469182
 51
87.01149929770146
  0
SPLINE
  5
5992
330
A
100
AcDbEntity
  8
HIDDEN
 48
0.5
100
AcDbSpline
210
0.0
220
0.0
230
1.0
 70
     8
 71
     7
 72
    51
 73
    43
 74
     0
 42
0.000000001
 43
0.0000000001
 40
0.2468971473004442
 40
0.2468971473004442
 40
0.2468971473004442
 40
0.2468971473004442
 40
0.2468971473004442
 40
0.2468971473004442
 40
0.2468971473004442
 40
0.2468971473004442
 40
0.2691743068654122
 40
0.2691743068654122
 40
0.2691743068654122
 40
0.2691743068654122
 40
0.2691743068654122
 40
0.4449078303999999
 40
0.4449078303999999
 40
0.4449078303999999
 40
0.4449078303999999
 40
0.4449078303999999
 40
0.52323568
 40
0.52323568
 40
0.52323568
 40
0.52323568
 40
0.52323568
 40
0.5330500427630187
 40
0.5330500427630187
 40
0.5330500427630187
 40
0.5330500427630187
 40
0.5330500427630187
 40
0.623656
 40
0.623656
 40
0.623656
 40
0.623656
 40
0.623656
 40
0.6875889991826598
 40
0.6875889991826598
 40
0.6875889991826598
 40
0.6875889991826598
 40
0.6875889991826598
 40
0.76
 40
0.76
 40
0.76
 40
0.76
 40
0.76
 40
0.9595271425507704
 40
0.9595271425507704
 40
0.9595271425507704
 40
0.9595271425507704
 40
0.9595271425507704
 40
0.9595271425507704
 40
0.9595271425507704
 40
0.9595271425507704
 10
1598.666309862575
 20
2418.731950271268
 30
0.0
 10
1628.161469361119
 20
2416.768068708928
 30
0.0
 10
1628.782170817212
 20
2416.716877737011
 30
0.0
 10
1629.402361959058
 20
2416.665042539005
 30
0.0
 10
1630.022033966277
 20
2416.612543360832
 30
0.0
 10
1630.641173819633
 20
2416.559360159342
 30
0.0
 10
1636.139518162148
 20
2416.080380481162
 30
0.0
 10
1641.592728702002
 20
2415.54413193087
 30
0.0
 10
1646.386198922118
 20
2415.01302212693
 30
0.0
 10
1651.105780395882
 20
2414.415719250477
 30
0.0
 10
1655.705678663303
 20
2413.741088965432
 30
0.0
 10
1662.127534079947
 20
2412.638499285169
 30
0.0
 10
1668.148462108831
 20
2411.332079297744
 30
0.0
 10
1669.963692947727
 20
2410.909083221093
 30
0.0
 10
1671.735287909235
 20
2410.465043180014
 30
0.0
 10
1673.461135796489
 20
2409.99914748921
 30
0.0
 10
1675.350096169044
 20
2409.449319107112
 30
0.0
 10
1677.178324938635
 20
2408.869364799667
 30
0.0
 10
1677.381138105512
 20
2408.804413063737
 30
0.0
 10
1677.583195533196
 20
2408.739083533862
 30
0.0
 10
1677.784496134539
 20
2408.673373966254
 30
0.0
 10
1679.836445962078
 20
2407.997123066918
 30
0.0
 10
1681.808992161371
 20
2407.28059276362
 30
0.0
 10
1683.523550403988
 20
2406.599422872188
 30
0.0
 10
1685.173648248746
 20
2405.881182889113
 30
0.0
 10
1686.760677430153
 20
2405.122780672809
 30
0.0
 10
1689.361629276172
 20
2403.754144797001
 30
0.0
 10
1691.781638187909
 20
2402.245700352743
 30
0.0
 10
1692.75175048878
 20
2401.596323373409
 30
0.0
 10
1693.690603867857
 20
2400.920147126333
 30
0.0
 10
1694.597483250952
 20
2400.215760836819
 30
0.0
 10
1696.460849600291
 20
2398.651161848996
 30
0.0
 10
1698.167315463506
 20
2396.951057365839
 30
0.0
 10
1699.027358581777
 20
2396.009164469431
 30
0.0
 10
1699.838814574424
 20
2395.028402876276
 30
0.0
 10
1700.599409058821
 20
2394.010104711635
 30
0.0
 10
1703.259366134283
 20
2390.054892201751
 30
0.0
 10
1705.178914103962
 20
2385.65211525049
 30
0.0
 10
1706.18036537226
 20
2382.246635858529
 30
0.0
 10
1706.854083609519
 20
2378.774756030323
 30
0.0
 10
1707.302290851206
 20
2375.274758420982
 30
0.0
 10
1707.604149726248
 20
2371.768258225911
 30
0.0
 10
1707.832615635066
 20
2368.261762033847
 30
0.0
  0
LINE
  5
5996
330
A
100
AcDbEntity
  8
HIDDEN
 48
0.5
100
AcDbLine
 10
1720.578499118899
 20
2348.430073419162
 30
0.0
 11
1720.578499118899
 21
2301.235109015422
 31
0.0
  0
LINE
  5
5997
330
A
100
AcDbEntity
  8
MODEL
100
AcDbLine
 10
1756.947499349116
 20
2302.897915357638
 30
0.0
 11
1756.947499349116
 21
2346.767267076946
 31
0.0
  0
ARC
  5
5999
330
A
100
AcDbEntity
  8
MODEL
100
AcDbCircle
 10
1580.118370279436
 20
2547.832615921344
 30
0.0
 40
2.000000000000001
100
AcDbArc
 50
90.00000185095459
 51
179.9999999999479
  0
LINE
  5
599C
330
A
100
AcDbEntity
  8
MODEL
100
AcDbLine
 10
1578.118370279436
 20
2031.810805136199
 30
0.0
 11
1578.118370279436
 21
2100.480344162521
 31
0.0
  0
LINE
  5
599D
330
A
100
AcDbEntity
  8
MODEL
100
AcDbLine
 10
1578.118370279436
 20
2425.526031411387
 30
0.0
 11
1578.118370279436
 21
2547.832615921339
 31
0.0
  0
LINE
  5
59A1
330
A
100
AcDbEntity
  8
MODEL
100
AcDbLine
 10
1668.118369004849
 20
2103.542068978357
 30
0.0
 11
1668.118369004849
 21
2109.578691264499
 31
0.0
  0
ARC
  5
59A7
330
A
100
AcDbEntity
  8
HIDDEN
 48
0.5
100
AcDbCircle
 10
1722.876633044375
 20
2350.358437498198
 30
0.0
 40
3.00000126012297
100
AcDbArc
 50
220.0000109698388
 51
269.0066983475346
  0
ARC
  5
59A8
330
A
100
AcDbEntity
  8
HIDDEN
 48
0.5
100
AcDbCircle
 10
1722.876633044375
 20
2299.306744936386
 30
0.0
 40
3.000001260122672
100
AcDbArc
 50
90.99330165246556
 51
139.9999890301123
  0
LINE
  5
59A9
330
A
100
AcDbEntity
  8
HIDDEN
 48
0.5
100
AcDbLine
 10
1756.947499349116
 20
2302.897915357638
 30
0.0
 11
1722.824626474786
 21
2302.306295382279
 31
0.0
  0
LINE
  5
59AB
330
A
100
AcDbEntity
  8
HIDDEN
 48
0.5
100
AcDbLine
 10
1722.824626474815
 20
2347.358887052304
 30
0.0
 11
1756.947499349116
 21
2346.767267076946
 31
0.0
  0
LINE
  5
59AE
330
A
100
AcDbEntity
  8
HIDDEN
 48
0.5
100
AcDbLine
 10
1711.371073474409
 20
2290.262126425061
 30
0.0
 11
1720.578499118899
 21
2301.235109015422
 31
0.0
  0
LINE
  5
59AF
330
A
100
AcDbEntity
  8
HIDDEN
 48
0.5
100
AcDbLine
 10
1720.578499118899
 20
2348.430073419162
 30
0.0
 11
1711.402198703159
 21
2359.365962406345
 31
0.0
  0
ARC
  5
59B1
330
A
100
AcDbEntity
  8
MODEL
100
AcDbCircle
 10
1580.118370279436
 20
2031.810805136199
 30
0.0
 40
1.999999999999951
100
AcDbArc
 50
180.0000000001043
 51
224.7279843816734
  0
SPLINE
  5
59B2
330
A
100
AcDbEntity
  8
MODEL
100
AcDbSpline
210
0.0
220
0.0
230
1.0
 70
     8
 71
     3
 72
    17
 73
    13
 74
     0
 42
0.000000001
 43
0.0000000001
 40
0.0
 40
0.0
 40
0.0
 40
0.0
 40
0.1049192283147714
 40
0.2099518058146858
 40
0.3674916391447353
 40
0.5774004750583902
 40
0.7349186791225699
 40
1.107938989796829
 40
1.509852652280386
 40
2.022604290891892
 40
3.096378764525114
 40
4.05089330224943
 40
4.05089330224943
 40
4.05089330224943
 40
4.05089330224943
 10
1578.697458604743
 20
2030.403321561618
 30
0.0
 10
1578.722058753963
 20
2030.37848671462
 30
0.0
 10
1578.773385963766
 20
2030.330612887821
 30
0.0
 10
1578.875114107737
 20
2030.261812428546
 30
0.0
 10
1579.015699127005
 20
2030.190228030398
 30
0.0
 10
1579.17921060785
 20
2030.127388899078
 30
0.0
 10
1579.415178049195
 20
2030.054696268569
 30
0.0
 10
1579.718499313778
 20
2029.985501941129
 30
0.0
 10
1580.142875959325
 20
2029.91984931152
 30
0.0
 10
1580.803064882537
 20
2029.857661510666
 30
0.0
 10
1581.65018797091
 20
2029.835734982941
 30
0.0
 10
1582.326222444302
 20
2029.832591217293
 30
0.0
 10
1582.644391246227
 20
2029.832591217293
 30
0.0
  0
ARC
  5
59B4
330
A
100
AcDbEntity
  8
MODEL
100
AcDbCircle
 10
1590.971291735477
 20
2049.049032636457
 30
0.0
 40
2.000000000000013
100
AcDbArc
 50
290.0000051563722
 51
0.987568383927012
  0
ARC
  5
59B5
330
A
100
AcDbEntity
  8
MODEL
100
AcDbCircle
 10
1592.118369004849
 20
2044.145645699144
 30
0.0
 40
3.000000000000015
100
AcDbArc
 50
110.0000051563922
 51
179.9999999997916
  0
LINE
  5
59B6
330
A
100
AcDbEntity
  8
MODEL
100
AcDbLine
 10
1589.118369004849
 20
2044.145645699146
 30
0.0
 11
1589.118369004849
 21
2043.402970876943
 31
0.0
  0
LINE
  5
59B7
330
A
100
AcDbEntity
  8
MODEL
100
AcDbLine
 10
1591.655332191279
 20
2047.169647456454
 30
0.0
 11
1591.092308321138
 21
2046.964723469148
 31
0.0
  0
ARC
  5
59B9
330
A
100
AcDbEntity
  8
MODEL
100
AcDbCircle
 10
1599.118369004849
 20
2089.264904429808
 30
0.0
 40
8.000000000000028
100
AcDbArc
 50
92.00000000021217
 51
140.1932524156914
  0
LINE
  5
59BA
330
A
100
AcDbEntity
  8
MODEL
100
AcDbLine
 10
1598.839173031228
 20
2097.260031045961
 30
0.0
 11
1664.257966991659
 21
2099.544505670281
 31
0.0
  0
ARC
  5
59C0
330
A
100
AcDbEntity
  8
MODEL
100
AcDbCircle
 10
1664.118369004849
 20
2103.542068978354
 30
0.0
 40
3.999999999999983
100
AcDbArc
 50
272.0000000002123
 51
359.9999999998437
  0
SPLINE
  5
59C8
330
A
100
AcDbEntity
  8
MODEL
100
AcDbSpline
210
0.0
220
0.0
230
1.0
 70
     8
 71
     3
 72
    22
 73
    18
 74
     0
 42
0.000000001
 43
0.0000000001
 40
91.87356897004798
 40
91.87356897004798
 40
91.87356897004798
 40
91.87356897004798
 40
100.0813088752635
 40
108.8042557415753
 40
115.4030381659343
 40
122.3161384629516
 40
129.3778758781131
 40
137.9281545878174
 40
146.0899301795447
 40
154.3206965046134
 40
160.5256343949947
 40
170.9611979909269
 40
182.8069653081208
 40
189.5759875923838
 40
193.6974828994557
 40
198.2311278983391
 40
202.7647699208373
 40
202.7647699208373
 40
202.7647699208373
 40
202.7647699208373
 10
1686.557949990517
 20
2441.498108324782
 30
0.0
 10
1689.212887667667
 20
2440.837176620049
 30
0.0
 10
1694.653281228971
 20
2439.327642335963
 30
0.0
 10
1702.054171099007
 20
2436.711953043726
 30
0.0
 10
1708.832770707464
 20
2433.702608392719
 30
0.0
 10
1714.864924451787
 20
2430.426585001703
 30
0.0
 10
1721.108229405916
 20
2426.239070420419
 30
0.0
 10
1727.157751475184
 20
2421.094945845059
 30
0.0
 10
1732.766311503583
 20
2414.935321538141
 30
0.0
 10
1737.127094130977
 20
2408.777256095647
 30
0.0
 10
1741.220145186554
 20
2401.559246667826
 30
0.0
 10
1745.001492433322
 20
2392.828530199851
 30
0.0
 10
1747.729614720927
 20
2383.518985002838
 30
0.0
 10
1749.214487132107
 20
2376.08371939266
 30
0.0
 10
1749.979455968452
 20
2370.998723707951
 30
0.0
 10
1750.475622059151
 20
2366.62981225871
 30
0.0
 10
1750.708209723918
 20
2363.615828381785
 30
0.0
 10
1750.802640601134
 20
2362.107634574334
 30
0.0
  0
LINE
  5
59CE
330
A
100
AcDbEntity
  8
MODEL
100
AcDbLine
 10
1754.209198189273
 20
2290.417673553898
 30
0.0
 11
1725.162711463912
 21
2287.87416692666
 31
0.0
  0
LINE
  5
59CF
330
A
100
AcDbEntity
  8
MODEL
100
AcDbLine
 10
1753.535078619388
 20
2359.306539344845
 30
0.0
 11
1754.209198189273
 21
2359.247508880687
 31
0.0
  0
ARC
  5
59D0
330
A
100
AcDbEntity
  8
MODEL
100
AcDbCircle
 10
1753.947481344366
 20
2293.40625387275
 30
0.0
 40
3.000018004804335
100
AcDbArc
 50
275.0047554410081
 51
359.9996849314496
  0
ARC
  5
59D1
330
A
100
AcDbEntity
  8
MODEL
100
AcDbCircle
 10
1753.947481344366
 20
2356.258928561834
 30
0.0
 40
3.000018004804442
100
AcDbArc
 50
0.0003150683419245
 51
84.99524455899268
  0
LINE
  5
59D2
330
A
100
AcDbEntity
  8
MODEL
100
AcDbLine
 10
1756.947499349116
 20
2356.258945058873
 30
0.0
 11
1756.947499349116
 21
2346.767267076946
 31
0.0
  0
LINE
  5
59D3
330
A
100
AcDbEntity
  8
MODEL
100
AcDbLine
 10
1756.947499349116
 20
2302.897915357638
 30
0.0
 11
1756.947499349116
 21
2293.406237375713
 31
0.0
  0
ARC
  5
59D4
330
A
100
AcDbEntity
  8
MODEL
100
AcDbCircle
 10
1753.796810783824
 20
2362.295135674143
 30
0.0
 40
3.000035290691296
100
AcDbArc
 50
183.5833005369109
 51
264.9949797716378
  0
SPLINE
  5
59D6
330
A
100
AcDbEntity
  8
MODEL
100
AcDbSpline
210
0.0
220
0.0
230
1.0
 70
     8
 71
     3
 72
    24
 73
    20
 74
     0
 42
0.000000001
 43
0.0000000001
 40
0.0
 40
0.0
 40
0.0
 40
0.0
 40
0.2792847445832108
 40
0.584694167130716
 40
1.119073164097033
 40
1.500823475970269
 40
2.1878474641131
 40
2.915908823599282
 40
3.725688458846579
 40
4.670407276020208
 40
5.615075986947477
 40
7.369619489338124
 40
8.71919533004684
 40
9.393998647292106
 40
10.20376080959008
 40
11.58185135630691
 40
13.07390393799898
 40
14.8643656145419
 40
16.32326112783698
 40
16.32326112783698
 40
16.32326112783698
 40
16.32326112783698
 10
1582.644391246227
 20
2029.832591217293
 30
0.0
 10
1582.737481690404
 20
2029.832591217293
 30
0.0
 10
1582.932421553865
 20
2029.833111593589
 30
0.0
 10
1583.304937525754
 20
2029.858847317967
 30
0.0
 10
1583.705013361861
 20
2029.943097976759
 30
0.0
 10
1584.205515808382
 20
2030.133561720806
 30
0.0
 10
1584.725952215842
 20
2030.435156781018
 30
0.0
 10
1585.299926088802
 20
2030.907794283524
 30
0.0
 10
1585.866884458926
 20
2031.51251831909
 30
0.0
 10
1586.407117592025
 20
2032.233495747688
 30
0.0
 10
1587.045009701032
 20
2033.268365321961
 30
0.0
 10
1587.629386304382
 20
2034.487759507649
 30
0.0
 10
1588.058131228535
 20
2035.673408304622
 30
0.0
 10
1588.317745833628
 20
2036.582054264858
 30
0.0
 10
1588.533505712926
 20
2037.511788266049
 30
0.0
 10
1588.765530858974
 20
2038.716619035427
 30
0.0
 10
1588.973006359447
 20
2040.256935539708
 30
0.0
 10
1589.092358445195
 20
2041.833543582341
 30
0.0
 10
1589.118370279436
 20
2042.916715501555
 30
0.0
 10
1589.118370279436
 20
2043.402970876943
 30
0.0
  0
LINE
  5
59D7
330
A
100
AcDbEntity
  8
MODEL
100
AcDbLine
 10
1580.118370214855
 20
2549.832615921339
 30
0.0
 11
1679.118368940515
 21
2549.832619118089
 31
0.0
  0
SPLINE
  5
59E5
330
A
100
AcDbEntity
  8
MODEL
100
AcDbSpline
210
0.0
220
0.0
230
1.0
 70
     8
 71
     3
 72
    20
 73
    16
 74
     0
 42
0.000000001
 43
0.0000000001
 40
0.0
 40
0.0
 40
0.0
 40
0.0
 40
0.0400452939236202
 40
0.074815118393307
 40
0.1088898394938656
 40
0.1748157994708659
 40
0.2695951901089518
 40
0.3359159841659832
 40
0.4769480615292822
 40
0.6253059692910966
 40
0.9640648791932787
 40
1.309849763976002
 40
1.652578922443703
 40
1.985768269176833
 40
2.092054174688216
 40
2.092054174688216
 40
2.092054174688216
 40
2.092054174688216
 10
1580.118387611815
 20
2549.832598302264
 30
0.0
 10
1580.118135212062
 20
2549.83259830166
 30
0.0
 10
1580.121718898997
 20
2549.832594987576
 30
0.0
 10
1580.139960632761
 20
2549.833006831393
 30
0.0
 10
1580.172775224142
 20
2549.834034431522
 30
0.0
 10
1580.230469326706
 20
2549.836146837913
 30
0.0
 10
1580.303132685527
 20
2549.838787830358
 30
0.0
 10
1580.401907215607
 20
2549.841934142541
 30
0.0
 10
1580.51981940525
 20
2549.844884931129
 30
0.0
 10
1580.729005442379
 20
2549.84797537055
 30
0.0
 10
1581.006837360779
 20
2549.847782062215
 30
0.0
 10
1581.348058947929
 20
2549.843193664002
 30
0.0
 10
1581.685376383204
 20
2549.837619507756
 30
0.0
 10
1581.942025474956
 20
2549.83458517285
 30
0.0
 10
1582.086196448537
 20
2549.833648895553
 30
0.0
 10
1582.121090952263
 20
2549.833460815621
 30
0.0
  0
LINE
  5
59E6
330
A
100
AcDbEntity
  8
MODEL
100
AcDbLine
 10
1686.557949990514
 20
2512.598251453477
 30
0.0
 11
1686.557949990514
 21
2441.498101892739
 31
0.0
  0
SPLINE
  5
59E7
330
A
100
AcDbEntity
  8
MODEL
100
AcDbSpline
210
0.0
220
0.0
230
1.0
 70
     8
 71
     3
 72
    29
 73
    25
 74
     0
 42
0.000000001
 43
0.0000000001
 40
0.0
 40
0.0
 40
0.0
 40
0.0
 40
1.144523990415572
 40
2.718251314899159
 40
3.576652024543054
 40
4.148922448373324
 40
5.722694605273682
 40
6.581165927377305
 40
7.296681919174817
 40
7.582982551946657
 40
7.869480571074305
 40
8.156246174262316
 40
8.589534959735548
 40
8.81393659646259
 40
9.024416494613426
 40
9.157947373260416
 40
9.30549922636918
 40
9.472092183454166
 40
9.75672491354256
 40
10.2007329923472
 40
10.6429340251699
 40
11.31178332520636
 40
12.37406592028665
 40
13.63657168133378
 40
13.63657168133378
 40
13.63657168133378
 40
13.63657168133378
 10
1708.920196407547
 20
2526.266897195468
 30
0.0
 10
1708.920202832014
 20
2525.885961503498
 30
0.0
 10
1708.833613741575
 20
2524.978884920523
 30
0.0
 10
1708.453184724407
 20
2523.838600271443
 30
0.0
 10
1707.950200050065
 20
2522.969551347796
 30
0.0
 10
1707.34844651501
 20
2522.167584850854
 30
0.0
 10
1706.608092333233
 20
2521.480424387547
 30
0.0
 10
1705.708785604452
 20
2520.934758256629
 30
0.0
 10
1705.140285894842
 20
2520.68473957022
 30
0.0
 10
1704.734257459378
 20
2520.545264045458
 30
0.0
 10
1704.459357901112
 20
2520.465271305951
 30
0.0
 10
1704.13390985383
 20
2520.387155291513
 30
0.0
 10
1703.825136962288
 20
2520.332435850121
 30
0.0
 10
1703.546910254517
 20
2520.298430381812
 30
0.0
 10
1703.379876101127
 20
2520.283907173767
 30
0.0
 10
1703.270684753762
 20
2520.276767349985
 30
0.0
 10
1703.201447441897
 20
2520.273130008827
 30
0.0
 10
1703.139648985248
 20
2520.270458604154
 30
0.0
 10
1703.082605047995
 20
2520.268496669039
 30
0.0
 10
1703.032811423341
 20
2520.267108603729
 30
0.0
 10
1702.975282907296
 20
2520.265724255665
 30
0.0
 10
1702.892086462277
 20
2520.263974110872
 30
0.0
 10
1702.754392687522
 20
2520.261403315322
 30
0.0
 10
1702.614636121565
 20
2520.259003127044
 30
0.0
 10
1702.528436758395
 20
2520.257558104824
 30
0.0
  0
SPLINE
  5
59E8
330
A
100
AcDbEntity
  8
MODEL
100
AcDbSpline
210
0.0
220
0.0
230
1.0
 70
     8
 71
     3
 72
    14
 73
    10
 74
     0
 42
0.000000001
 43
0.0000000001
 40
6.236272387136724
 40
6.236272387136724
 40
6.236272387136724
 40
6.236272387136724
 40
7.27218712990739
 40
7.554095750858888
 40
7.840577286280135
 40
8.996244706344841
 40
9.576441393030882
 40
10.16449815899884
 40
10.46595855785197
 40
10.46595855785197
 40
10.46595855785197
 40
10.46595855785197
 10
1689.465429763527
 20
2519.959635272065
 30
0.0
 10
1689.345421170364
 20
2519.832989581851
 30
0.0
 10
1689.194028472382
 20
2519.660966963818
 30
0.0
 10
1689.013386488062
 20
2519.438452050844
 30
0.0
 10
1688.820919421021
 20
2519.193506726405
 30
0.0
 10
1688.60027666483
 20
2518.890503309941
 30
0.0
 10
1688.348799113111
 20
2518.518038674081
 30
0.0
 10
1688.183510078524
 20
2518.262303618279
 30
0.0
 10
1688.080447135304
 20
2518.088650991056
 30
0.0
 10
1688.050928400771
 20
2518.035366434469
 30
0.0
  0
SPLINE
  5
59E9
330
A
100
AcDbEntity
  8
MODEL
100
AcDbSpline
210
0.0
220
0.0
230
1.0
 70
     8
 71
     3
 72
    14
 73
    10
 74
     0
 42
0.000000001
 43
0.0000000001
 40
0.0
 40
0.0
 40
0.0
 40
0.0
 40
0.7865190798536503
 40
1.571777958198719
 40
2.36578249925083
 40
2.769083596629298
 40
2.973127370160989
 40
3.26577510669344
 40
3.534467104740798
 40
3.534467104740798
 40
3.534467104740798
 40
3.534467104740798
 10
1686.557949990514
 20
2512.598251453477
 30
0.0
 10
1686.882764302776
 20
2515.456586444355
 30
0.0
 10
1687.029621388719
 20
2515.88098080288
 30
0.0
 10
1687.294685754459
 20
2516.517797443384
 30
0.0
 10
1687.544631809389
 20
2517.04916560887
 30
0.0
 10
1687.730082448499
 20
2517.421197492138
 30
0.0
 10
1687.850059838281
 20
2517.656315765298
 30
0.0
 10
1687.951643719905
 20
2517.851758811413
 30
0.0
 10
1688.020629730934
 20
2517.980674011256
 30
0.0
 10
1688.050928401105
 20
2518.03536643508
 30
0.0
  0
SPLINE
  5
59EA
330
A
100
AcDbEntity
  8
MODEL
100
AcDbSpline
210
0.0
220
0.0
230
1.0
 70
     8
 71
     3
 72
    21
 73
    17
 74
     0
 42
0.000000001
 43
0.0000000001
 40
0.9940314678969252
 40
0.9940314678969252
 40
0.9940314678969252
 40
0.9940314678969252
 40
2.33499849966966
 40
4.086248958563067
 40
7.005962429132927
 40
10.51073121743808
 40
15.18688478305525
 40
22.20203853209823
 40
30.96889776844385
 40
38.56475558843782
 40
46.16088276241696
 40
54.92851095952638
 40
61.94343362437604
 40
66.03432980204468
 40
69.53985641552013
 40
72.66420345094376
 40
72.66420345094376
 40
72.66420345094376
 40
72.66420345094376
 10
1592.971283590755
 20
2049.064427630411
 30
0.0
 10
1592.971271811155
 20
2049.075217776499
 30
0.0
 10
1592.971250187663
 20
2049.118031854342
 30
0.0
 10
1592.971560610472
 20
2049.27793393851
 30
0.0
 10
1592.973160305176
 20
2049.654416514249
 30
0.0
 10
1592.976885919517
 20
2050.425638412754
 30
0.0
 10
1592.982946541858
 20
2051.90207698207
 30
0.0
 10
1592.98563339177
 20
2054.624490150469
 30
0.0
 10
1592.979929772511
 20
2058.776293036203
 30
0.0
 10
1592.976920435641
 20
2064.046413824668
 30
0.0
 10
1592.98228361021
 20
2070.154806982229
 30
0.0
 10
1592.987937618978
 20
2076.844784678454
 30
0.0
 10
1592.984289520711
 20
2082.97687678365
 30
0.0
 10
1592.978380832573
 20
2087.656073785015
 30
0.0
 10
1592.974498180658
 20
2091.157170427884
 30
0.0
 10
1592.973143525508
 20
2093.349529611454
 30
0.0
 10
1592.97265383102
 20
2094.386409101051
 30
0.0
  0
LINE
  5
59EB
330
A
100
AcDbEntity
  8
MODEL
100
AcDbLine
 10
1708.920378179536
 20
2547.832613728498
 30
0.0
 11
1708.920378179536
 21
2526.266894063443
 31
0.0
  0
ARC
  5
59EC
330
A
100
AcDbEntity
  8
MODEL
100
AcDbCircle
 10
1706.920378179536
 20
2547.832613728498
 30
0.0
 40
2.0
100
AcDbArc
 50
0.0
 51
90.00000185012081
  0
ARC
  5
59F3
330
A
100
AcDbEntity
  8
MODEL
100
AcDbCircle
 10
1664.118378988753
 20
1327.022125711669
 30
0.0
 40
4.000000000000011
100
AcDbArc
 50
0.0
 51
88.00000000002242
  0
LINE
  5
59F4
330
A
100
AcDbEntity
  8
MODEL
100
AcDbLine
 10
1664.257976975563
 20
1331.019689019744
 30
0.0
 11
1598.839183015134
 21
1333.304163644065
 31
0.0
  0
ARC
  5
59F5
330
A
100
AcDbEntity
  8
MODEL
100
AcDbCircle
 10
1599.118378988753
 20
1341.299290260217
 30
0.0
 40
8.0
100
AcDbArc
 50
219.7928973004189
 51
267.9999999998139
  0
ARC
  5
59F6
330
A
100
AcDbEntity
  8
MODEL
100
AcDbCircle
 10
1590.97130084177
 20
1381.515140611886
 30
0.0
 40
1.999999999999995
100
AcDbArc
 50
0.9609184522492691
 51
69.99999999995512
  0
LINE
  5
59F7
330
A
100
AcDbEntity
  8
MODEL
100
AcDbLine
 10
1591.092318558778
 20
1383.599449310034
 30
0.0
 11
1591.111016967001
 21
1383.592643646004
 31
0.0
  0
SPLINE
  5
59F8
330
A
100
AcDbEntity
  8
MODEL
100
AcDbSpline
210
0.0
220
0.0
230
1.0
 70
     8
 71
     7
 72
    31
 73
    23
 74
     0
 42
0.000000001
 43
0.0000000001
 40
0.0
 40
0.0
 40
0.0
 40
0.0
 40
0.0
 40
0.0
 40
0.0
 40
0.0
 40
0.3811359999999999
 40
0.3811359999999999
 40
0.3811359999999999
 40
0.3811359999999999
 40
0.3811359999999999
 40
0.4591999999999999
 40
0.4591999999999999
 40
0.4591999999999999
 40
0.4591999999999999
 40
0.4591999999999999
 40
0.82
 40
0.82
 40
0.82
 40
0.82
 40
0.82
 40
1.0
 40
1.0
 40
1.0
 40
1.0
 40
1.0
 40
1.0
 40
1.0
 40
1.0
 10
1589.118380263345
 20
1387.161191992553
 30
0.0
 10
1589.118380263345
 20
1388.049965744828
 30
0.0
 10
1589.087149669566
 20
1388.938739497088
 30
0.0
 10
1589.030286848023
 20
1389.826218554798
 30
0.0
 10
1588.941195554372
 20
1390.711771867053
 30
0.0
 10
1588.817771396181
 20
1391.593117548608
 30
0.0
 10
1588.625862207275
 20
1392.647437845885
 30
0.0
 10
1588.384304473301
 20
1393.690683955462
 30
0.0
 10
1588.342387578019
 20
1393.867829802436
 30
0.0
 10
1588.297801180631
 20
1394.044381899501
 30
0.0
 10
1588.249901642093
 20
1394.220039517696
 30
0.0
 10
1587.967345475736
 20
1395.203761736474
 30
0.0
 10
1587.604965924825
 20
1396.16329820747
 30
0.0
 10
1587.260426827254
 20
1396.932734133985
 30
0.0
 10
1586.86499689594
 20
1397.681767787949
 30
0.0
 10
1586.416918014086
 20
1398.394975235501
 30
0.0
 10
1585.640025491462
 20
1399.410101210703
 30
0.0
 10
1584.648863762418
 20
1400.19675607888
 30
0.0
 10
1584.292107159833
 20
1400.427180954492
 30
0.0
 10
1583.907481531797
 20
1400.602145384346
 30
0.0
 10
1583.483887793495
 20
1400.730540546753
 30
0.0
 10
1583.064144511813
 20
1400.731571652203
 30
0.0
 10
1582.644401230129
 20
1400.731571652203
 30
0.0
  0
ARC
  5
59F9
330
A
100
AcDbEntity
  8
MODEL
100
AcDbCircle
 10
1580.118380263345
 20
1398.753357733298
 30
0.0
 40
2.000000000000011
100
AcDbArc
 50
135.2720156183266
 51
180.0
  0
LINE
  5
59FA
102
{ACAD_REACTORS
330
5D05
102
}
330
A
100
AcDbEntity
  8
MODEL
100
AcDbLine
 10
1578.118380263345
 20
602.7097856816731
 30
0.0
 11
1578.118380263345
 21
668.9581742319465
 31
0.0
  0
LINE
  5
59FB
330
A
100
AcDbEntity
  8
MODEL
100
AcDbLine
 10
1578.118380263345
 20
1332.50496918301
 30
0.0
 11
1578.118380263345
 21
1398.753357733298
 31
0.0
  0
LINE
  5
59FC
330
A
100
AcDbEntity
  8
MODEL
100
AcDbLine
 10
1578.118380263345
 20
668.9581743552885
 30
0.0
 11
1578.118380263345
 21
1332.504969059683
 31
0.0
  0
ARC
  5
59FD
330
A
100
AcDbEntity
  8
MODEL
100
AcDbCircle
 10
1580.118380263345
 20
602.7097856816731
 30
0.0
 40
1.999999999999991
100
AcDbArc
 50
180.0
 51
224.7279843816734
  0
SPLINE
  5
59FE
330
A
100
AcDbEntity
  8
MODEL
100
AcDbSpline
210
0.0
220
0.0
230
1.0
 70
     8
 71
     7
 72
    31
 73
    23
 74
     0
 42
0.000000001
 43
0.0000000001
 40
0.0
 40
0.0
 40
0.0
 40
0.0
 40
0.0
 40
0.0
 40
0.0
 40
0.0
 40
0.3811359999999999
 40
0.3811359999999999
 40
0.3811359999999999
 40
0.3811359999999999
 40
0.3811359999999999
 40
0.4591999999999999
 40
0.4591999999999999
 40
0.4591999999999999
 40
0.4591999999999999
 40
0.4591999999999999
 40
0.82
 40
0.82
 40
0.82
 40
0.82
 40
0.82
 40
1.0
 40
1.0
 40
1.0
 40
1.0
 40
1.0
 40
1.0
 40
1.0
 40
1.0
 10
1589.118380263345
 20
614.3019514224038
 30
0.0
 10
1589.118380263344
 20
613.4131776701438
 30
0.0
 10
1589.087149669565
 20
612.5244039178838
 30
0.0
 10
1589.030286848023
 20
611.6369248601736
 30
0.0
 10
1588.941195554371
 20
610.7513715479186
 30
0.0
 10
1588.81777139618
 20
609.8700258663489
 30
0.0
 10
1588.625862207274
 20
608.8157055690867
 30
0.0
 10
1588.384304473299
 20
607.7724594595097
 30
0.0
 10
1588.342387578018
 20
607.5953136125213
 30
0.0
 10
1588.29780118063
 20
607.4187615154556
 30
0.0
 10
1588.249901642092
 20
607.2431038972759
 30
0.0
 10
1587.967345475735
 20
606.2593816784834
 30
0.0
 10
1587.604965924824
 20
605.2998452074867
 30
0.0
 10
1587.260426827252
 20
604.5304092809861
 30
0.0
 10
1586.864996895938
 20
603.781375627023
 30
0.0
 10
1586.416918014085
 20
603.0681681794563
 30
0.0
 10
1585.640025491461
 20
602.0530422042689
 30
0.0
 10
1584.648863762417
 20
601.2663873360912
 30
0.0
 10
1584.292107159831
 20
601.0359624604648
 30
0.0
 10
1583.907481531796
 20
600.8609980306251
 30
0.0
 10
1583.483887793494
 20
600.7326028682187
 30
0.0
 10
1583.064144511811
 20
600.7315717627539
 30
0.0
 10
1582.644401230129
 20
600.7315717627539
 30
0.0
  0
LINE
  5
59FF
330
A
100
AcDbEntity
  8
MODEL
100
AcDbLine
 10
1591.636606862394
 20
618.0617988463096
 30
0.0
 11
1591.655341128421
 21
618.0686175615015
 31
0.0
  0
ARC
  5
5A00
330
A
100
AcDbEntity
  8
MODEL
100
AcDbCircle
 10
1590.97130084177
 20
619.9480028030853
 30
0.0
 40
1.999999999999995
100
AcDbArc
 50
290.0000000000448
 51
359.8593623617532
  0
ARC
  5
5A01
330
A
100
AcDbEntity
  8
MODEL
100
AcDbCircle
 10
1599.118378988753
 20
660.1638531547401
 30
0.0
 40
8.0
100
AcDbArc
 50
92.00000000018615
 51
140.2068650845669
  0
LINE
  5
5A02
330
A
100
AcDbEntity
  8
MODEL
100
AcDbLine
 10
1664.257976975563
 20
670.4434543952125
 30
0.0
 11
1598.839183015134
 21
668.1589797708916
 31
0.0
  0
ARC
  5
5A03
330
A
100
AcDbEntity
  8
MODEL
100
AcDbCircle
 10
1664.118378988753
 20
674.4410177032883
 30
0.0
 40
3.999999999999954
100
AcDbArc
 50
271.9999999999775
 51
0.0
  0
LINE
  5
5A04
330
A
100
AcDbEntity
  8
MODEL
100
AcDbLine
 10
1668.118378988753
 20
674.4410177032883
 30
0.0
 11
1668.118378988753
 21
720.4129957461741
 31
0.0
  0
LINE
  5
5A05
330
A
100
AcDbEntity
  8
MODEL
100
AcDbLine
 10
1668.118378988753
 20
720.4129957461741
 30
0.0
 11
1668.118378988753
 21
1281.050147668797
 31
0.0
  0
LINE
  5
5A06
330
A
100
AcDbEntity
  8
MODEL
100
AcDbLine
 10
1668.118378988753
 20
1327.022125711669
 30
0.0
 11
1668.118378988753
 21
1281.050147668797
 31
0.0
  0
SPLINE
  5
5A07
330
A
100
AcDbEntity
  8
MODEL
100
AcDbSpline
210
0.0
220
0.0
230
1.0
 70
     8
 71
     7
 72
    21
 73
    13
 74
     0
 42
0.000000001
 43
0.0000000001
 40
0.0
 40
0.0
 40
0.0
 40
0.0
 40
0.0
 40
0.0
 40
0.0
 40
0.0
 40
0.8399999999999999
 40
0.8399999999999999
 40
0.8399999999999999
 40
0.8399999999999999
 40
0.8399999999999999
 40
1.0
 40
1.0
 40
1.0
 40
1.0
 40
1.0
 40
1.0
 40
1.0
 40
1.0
 10
1582.644401230129
 20
1400.731571652203
 30
0.0
 10
1582.158283955624
 20
1400.731571652203
 30
0.0
 10
1581.672166681118
 20
1400.72931130014
 30
0.0
 10
1581.188065493882
 20
1400.718391664156
 30
0.0
 10
1580.69551208663
 20
1400.717548697216
 30
0.0
 10
1580.218327419611
 20
1400.667170692152
 30
0.0
 10
1579.634064328204
 20
1400.596364768692
 30
0.0
 10
1579.087914168932
 20
1400.403901132963
 30
0.0
 10
1578.999633704535
 20
1400.370927671382
 30
0.0
 10
1578.92286865602
 20
1400.326292596616
 30
0.0
 10
1578.831345975636
 20
1400.288889269159
 30
0.0
 10
1578.762630691435
 20
1400.226625089843
 30
0.0
 10
1578.697468588655
 20
1400.160841307883
 30
0.0
  0
SPLINE
  5
5A08
330
A
100
AcDbEntity
  8
MODEL
100
AcDbSpline
210
0.0
220
0.0
230
1.0
 70
     8
 71
     7
 72
    21
 73
    13
 74
     0
 42
0.000000001
 43
0.0000000001
 40
0.0
 40
0.0
 40
0.0
 40
0.0
 40
0.0
 40
0.0
 40
0.0
 40
0.0
 40
0.8399999999999999
 40
0.8399999999999999
 40
0.8399999999999999
 40
0.8399999999999999
 40
0.8399999999999999
 40
1.0
 40
1.0
 40
1.0
 40
1.0
 40
1.0
 40
1.0
 40
1.0
 40
1.0
 10
1582.644401230129
 20
600.7315717627539
 30
0.0
 10
1582.158283955623
 20
600.7315717627539
 30
0.0
 10
1581.672166681117
 20
600.7338321148313
 30
0.0
 10
1581.188065493881
 20
600.7447517508012
 30
0.0
 10
1580.695512086629
 20
600.7455947177409
 30
0.0
 10
1580.21832741961
 20
600.7959727228194
 30
0.0
 10
1579.634064328203
 20
600.8667786462797
 30
0.0
 10
1579.087914168932
 20
601.0592422820087
 30
0.0
 10
1578.999633704533
 20
601.0922157435893
 30
0.0
 10
1578.922868656019
 20
601.1368508183409
 30
0.0
 10
1578.831345975635
 20
601.1742541457975
 30
0.0
 10
1578.762630691434
 20
601.2365183251136
 30
0.0
 10
1578.697468588654
 20
601.302302107088
 30
0.0
  0
LINE
  5
5A09
330
A
100
AcDbEntity
  8
MODEL
100
AcDbLine
 10
1589.118380263345
 20
668.958174374497
 30
0.0
 11
1589.118380263345
 21
614.3019514224038
 31
0.0
  0
LINE
  5
5A0A
330
A
100
AcDbEntity
  8
MODEL
100
AcDbLine
 10
1589.118380263344
 20
1332.504969059683
 30
0.0
 11
1589.118380263344
 21
668.9581743552885
 31
0.0
  0
LINE
  5
5A0B
330
A
100
AcDbEntity
  8
MODEL
100
AcDbLine
 10
1589.118380263345
 20
1387.161191992553
 30
0.0
 11
1589.118380263345
 21
1332.50496904046
 31
0.0
  0
SPLINE
  5
5A0C
330
A
100
AcDbEntity
  8
MODEL
100
AcDbSpline
210
0.0
220
0.0
230
1.0
 70
     8
 71
     3
 72
    38
 73
    34
 74
     0
 42
0.000000001
 43
0.0000000001
 40
0.0
 40
0.0
 40
0.0
 40
0.0
 40
4.47990976529544
 40
7.710621576736441
 40
13.4906880139258
 40
16.72967712007585
 40
19.60807212251432
 40
21.68492354451616
 40
23.12643950605514
 40
24.56012809352037
 40
26.81734569149116
 40
29.1151247263799
 40
31.03880736442535
 40
34.0091281172575
 40
36.96808813301514
 40
38.01714099219318
 40
38.64487060154493
 40
40.73047714757219
 40
42.17777460916184
 40
43.81178693994725
 40
45.47101307059533
 40
46.32126592610095
 40
47.60772946946612
 40
48.90329313421351
 40
50.20048361456234
 40
51.27724267747347
 40
52.55989801721024
 40
55.10196915535946
 40
56.58255022368043
 40
58.06844993348213
 40
61.70372314076599
 40
64.38716433817208
 40
70.56337406251691
 40
70.56337406251691
 40
70.56337406251691
 40
70.56337406251691
 10
1717.870420497447
 20
1000.731571707486
 30
0.0
 10
1717.870420497447
 20
999.2467412894953
 30
0.0
 10
1717.872580451187
 20
996.6910715651507
 30
0.0
 10
1717.882426259005
 20
992.2570466634102
 30
0.0
 10
1717.896924808724
 20
988.2991524994472
 30
0.0
 10
1717.914318233769
 20
984.5699834120792
 30
0.0
 10
1717.92723008035
 20
982.067766836441
 30
0.0
 10
1717.937562167716
 20
980.1631929874461
 30
0.0
 10
1717.945616358022
 20
978.7179152894864
 30
0.0
 10
1717.953949052066
 20
977.2472181381931
 30
0.0
 10
1717.962918814654
 20
975.5780170121184
 30
0.0
 10
1717.969542206143
 20
973.839471546195
 30
0.0
 10
1717.972876427146
 20
971.9776754466625
 30
0.0
 10
1717.972793877626
 20
970.0316350023099
 30
0.0
 10
1717.970630072731
 20
968.4055957307032
 30
0.0
 10
1717.968785206544
 20
967.3753550981969
 30
0.0
 10
1717.967161316531
 20
966.5567563162372
 30
0.0
 10
1717.965126833277
 20
965.6839300176111
 30
0.0
 10
1717.961939391482
 20
964.6530873635534
 30
0.0
 10
1717.959410016962
 20
963.7460278169642
 30
0.0
 10
1717.9586657614
 20
962.9933835535526
 30
0.0
 10
1717.958717887536
 20
962.3352777076257
 30
0.0
 10
1717.959005271707
 20
961.7645904447168
 30
0.0
 10
1717.959178729942
 20
961.153548679566
 30
0.0
 10
1717.958745276676
 20
960.608241559054
 30
0.0
 10
1717.957453996007
 20
960.095044064718
 30
0.0
 10
1717.954382711316
 20
959.4468517403916
 30
0.0
 10
1717.949183033154
 20
958.8136907832854
 30
0.0
 10
1717.943493512738
 20
958.2317543532595
 30
0.0
 10
1717.936991028295
 20
957.6024274752313
 30
0.0
 10
1717.930450776641
 20
956.999157263494
 30
0.0
 10
1717.922660125667
 20
956.3166434177588
 30
0.0
 10
1717.920270146545
 20
956.1168366006791
 30
0.0
 10
1717.920270140552
 20
956.1168365909875
 30
0.0
  0
SPLINE
  5
5A0D
330
A
100
AcDbEntity
  8
MODEL
100
AcDbSpline
210
0.0
220
0.0
230
1.0
 70
     8
 71
     3
 72
     9
 73
     5
 74
     0
 42
0.000000001
 43
0.0000000001
 40
0.5918389835761423
 40
0.5918389835761423
 40
0.5918389835761423
 40
0.5918389835761423
 40
0.7526847171745952
 40
0.963737643709663
 40
0.963737643709663
 40
0.963737643709663
 40
0.963737643709663
 10
1710.50807856041
 20
1128.927575131329
 30
0.0
 10
1712.542417273619
 20
1116.668684031949
 30
0.0
 10
1715.91968359998
 20
1087.151503964972
 30
0.0
 10
1717.380485547993
 20
1059.334128035731
 30
0.0
 10
1717.920270140552
 20
1045.346306823984
 30
0.0
  0
SPLINE
  5
5A0E
330
A
100
AcDbEntity
  8
MODEL
100
AcDbSpline
210
0.0
220
0.0
230
1.0
 70
     8
 71
     3
 72
    38
 73
    34
 74
     0
 42
0.000000001
 43
0.0000000001
 40
0.0
 40
0.0
 40
0.0
 40
0.0
 40
4.634168695398008
 40
7.152818055929597
 40
10.07379515576226
 40
12.14563904240748
 40
14.20403279135343
 40
15.84392216075461
 40
18.31979657218545
 40
19.37920007754766
 40
20.65925317236612
 40
22.79834607675364
 40
23.86147428363817
 40
25.54408546519025
 40
26.79356155907085
 40
28.04404112233783
 40
29.30657646788944
 40
30.79378239682692
 40
32.48711843411547
 40
34.39301432600732
 40
37.16773958586527
 40
38.66361710065482
 40
40.24510552609612
 40
41.82659395153742
 40
44.28451669982191
 40
46.3656444603544
 40
48.26608274648191
 40
51.25568425613989
 40
52.9835950024591
 40
56.04251855639461
 40
62.36619762127725
 40
66.44996518729124
 40
70.56339042619959
 40
70.56339042619959
 40
70.56339042619959
 40
70.56339042619959
 10
1717.920270140552
 20
1045.346306823984
 30
0.0
 10
1717.920270147035
 20
1045.346306646552
 30
0.0
 10
1717.921702271512
 20
1045.225366390081
 30
0.0
 10
1717.926712280025
 20
1044.793337193729
 30
0.0
 10
1717.931986267723
 20
1044.323834924483
 30
0.0
 10
1717.938052553795
 20
1043.757402639447
 30
0.0
 10
1717.943737309823
 20
1043.209800920934
 30
0.0
 10
1717.950151001637
 20
1042.544681364311
 30
0.0
 10
1717.954993264934
 20
1041.914856883381
 30
0.0
 10
1717.957779581564
 20
1041.271359851428
 30
0.0
 10
1717.959165092385
 20
1040.636733900338
 30
0.0
 10
1717.959122361301
 20
1039.948362529224
 30
0.0
 10
1717.958722884245
 20
1039.14504089447
 30
0.0
 10
1717.958600067456
 20
1038.45122221718
 30
0.0
 10
1717.95959684287
 20
1037.685325544564
 30
0.0
 10
1717.961453409167
 20
1036.968701325492
 30
0.0
 10
1717.963927403691
 20
1036.17986468037
 30
0.0
 10
1717.96637169137
 20
1035.269514533564
 30
0.0
 10
1717.968668488715
 20
1034.179669504116
 30
0.0
 10
1717.971134120943
 20
1032.749988830842
 30
0.0
 10
1717.972706288145
 20
1031.288563491417
 30
0.0
 10
1717.972728094741
 20
1029.842519374219
 30
0.0
 10
1717.971538869985
 20
1028.65808866869
 30
0.0
 10
1717.968167005053
 20
1027.189156727127
 30
0.0
 10
1717.961176020505
 20
1025.533860365049
 30
0.0
 10
1717.951188088335
 20
1023.726152513806
 30
0.0
 10
1717.939790204806
 20
1021.712090637117
 30
0.0
 10
1717.929087551603
 20
1019.744465591885
 30
0.0
 10
1717.916813268021
 20
1017.376769159008
 30
0.0
 10
1717.90010449965
 20
1013.920262880482
 30
0.0
 10
1717.883269150158
 20
1009.585446364294
 30
0.0
 10
1717.872522551176
 20
1004.811883543229
 30
0.0
 10
1717.870420497447
 20
1002.094933747536
 30
0.0
 10
1717.870420497447
 20
1000.731571707486
 30
0.0
  0
ARC
  5
5A0F
330
A
100
AcDbEntity
  8
MODEL
100
AcDbCircle
 10
1725.914320152483
 20
1045.654794111837
 30
0.0
 40
7.999999999999996
100
AcDbArc
 50
182.2099253567259
 51
264.9955596260665
  0
ARC
  5
5A10
330
A
100
AcDbEntity
  8
MODEL
100
AcDbCircle
 10
1725.914320152483
 20
955.808349303134
 30
0.0
 40
7.999999999999996
100
AcDbArc
 50
95.00444037393353
 51
177.7900746432741
  0
LINE
  5
5A11
330
A
100
AcDbEntity
  8
MODEL
100
AcDbLine
 10
1725.216443161609
 20
963.7778516530711
 30
0.0
 11
1754.209208173181
 21
966.3166540440911
 31
0.0
  0
LINE
  5
5A12
330
A
100
AcDbEntity
  8
MODEL
100
AcDbLine
 10
1756.947509333022
 20
969.3052178659023
 30
0.0
 11
1756.947509333022
 21
1032.157925549069
 31
0.0
  0
ARC
  5
5A13
330
A
100
AcDbEntity
  8
MODEL
100
AcDbCircle
 10
1753.947509333022
 20
969.3052178659023
 30
0.0
 40
2.999999999999999
100
AcDbArc
 50
275.0044403739423
 51
0.0
  0
ARC
  5
5A14
330
A
100
AcDbEntity
  8
MODEL
100
AcDbCircle
 10
1753.947509333022
 20
1032.157925549069
 30
0.0
 40
3.000000000000001
100
AcDbArc
 50
0.0
 51
84.99555962605774
  0
LINE
  5
5A15
330
A
100
AcDbEntity
  8
MODEL
100
AcDbLine
 10
1754.209208173181
 20
1035.14648937088
 30
0.0
 11
1725.216456578727
 21
1037.685290586993
 31
0.0
  0
SPLINE
  5
5A16
330
A
100
AcDbEntity
  8
MODEL
100
AcDbSpline
210
0.0
220
0.0
230
1.0
 70
     8
 71
     3
 72
    28
 73
    24
 74
     0
 42
0.000000001
 43
0.0000000001
 40
0.0
 40
0.0
 40
0.0
 40
0.0
 40
7.125237940280779
 40
11.16515112164143
 40
14.44118982560342
 40
16.92480045981384
 40
20.27272947609356
 40
21.96231276176506
 40
22.81086285199812
 40
23.66185054119498
 40
24.51522429270556
 40
25.37093217452554
 40
26.2289218708099
 40
27.0576977177934
 40
27.88845168959579
 40
28.72113677772702
 40
29.55570567898402
 40
31.23030247705548
 40
32.91185996706166
 40
34.59998990090941
 40
36.2943000317527
 40
37.99439432497957
 40
39.69987315659321
 40
39.69987315659321
 40
39.69987315659321
 40
39.69987315659321
 10
1701.175773272764
 20
1167.441067062119
 30
0.0
 10
1701.939962398651
 20
1165.193102722046
 30
0.0
 10
1703.07233960141
 20
1161.647979076316
 30
0.0
 10
1704.411370966238
 20
1157.025029697387
 30
0.0
 10
1705.265943681887
 20
1153.872746226222
 30
0.0
 10
1706.021660509531
 20
1150.932877689488
 30
0.0
 10
1706.614106109332
 20
1148.497117293741
 30
0.0
 10
1707.057228784472
 20
1146.5860221355
 30
0.0
 10
1707.306682065786
 20
1145.484325809292
 30
0.0
 10
1707.491759078219
 20
1144.653830650732
 30
0.0
 10
1707.674580131811
 20
1143.820333142958
 30
0.0
 10
1707.855108276639
 20
1142.984157336021
 30
0.0
 10
1708.031382741774
 20
1142.154662977079
 30
0.0
 10
1708.202789952306
 20
1141.335501614045
 30
0.0
 10
1708.370190340988
 20
1140.523300819525
 30
0.0
 10
1708.53553157241
 20
1139.708870726482
 30
0.0
 10
1708.753568193325
 20
1138.618557973041
 30
0.0
 10
1709.021100412125
 20
1137.250038701681
 30
0.0
 10
1709.333967840209
 20
1135.600859542978
 30
0.0
 10
1709.63914195322
 20
1133.943377049731
 30
0.0
 10
1709.936716579745
 20
1132.278246101171
 30
0.0
 10
1710.226929525601
 20
1130.60525258126
 30
0.0
 10
1710.415011059577
 20
1129.488398336518
 30
0.0
 10
1710.50807856041
 20
1128.927575131329
 30
0.0
  0
LINE
  5
5A17
330
A
100
AcDbEntity
  8
MODEL
100
AcDbLine
 10
1591.655375092102
 20
1383.394516681893
 30
0.0
 11
1591.092245843109
 21
1383.599493232109
 31
0.0
  0
LINE
  5
5A18
330
A
100
AcDbEntity
  8
MODEL
100
AcDbLine
 10
1591.092245843072
 20
617.8636501828482
 30
0.0
 11
1591.655375092085
 21
618.0686267330643
 31
0.0
  0
ARC
  5
5A19
330
A
100
AcDbEntity
  8
MODEL
100
AcDbCircle
 10
1592.117871212051
 20
615.0452951346128
 30
0.0
 40
2.999171554701098
100
AcDbArc
 50
109.9969398611199
 51
179.8983013388747
  0
ARC
  5
5A1A
330
A
100
AcDbEntity
  8
MODEL
100
AcDbCircle
 10
1592.117871212051
 20
1386.417848280344
 30
0.0
 40
2.999171554701098
100
AcDbArc
 50
180.1016986611253
 51
250.0030601388794
  0
SPLINE
  5
5A1B
330
A
100
AcDbEntity
  8
MODEL
100
AcDbSpline
210
0.0
220
0.0
230
1.0
 70
     8
 71
     3
 72
    54
 73
    50
 74
     0
 42
0.000000001
 43
0.0000000001
 40
0.0
 40
0.0
 40
0.0
 40
0.0
 40
0.3847169476158838
 40
0.8976866196803882
 40
1.282448294803684
 40
1.410723010453713
 40
1.667361724562466
 40
1.79579509222064
 40
1.860134168823697
 40
1.989016675672927
 40
2.109153112377854
 40
2.165391704700242
 40
2.194641849564948
 40
2.223888698145239
 40
2.255041785722936
 40
2.288762567302812
 40
2.312762617021435
 40
2.336756711476272
 40
2.366074551507907
 40
2.401143517142879
 40
2.447500235583166
 40
2.510797760535612
 40
2.60805255625626
 40
2.773707841737364
 40
3.51957650583427
 40
4.264639905748028
 40
4.866677640895626
 40
5.468649388517463
 40
6.07059551933366
 40
7.575698638018264
 40
8.930531829464346
 40
10.86983375738698
 40
12.03858021362573
 40
13.2073657845566
 40
14.37622891115535
 40
16.12967660616839
 40
19.63700870486349
 40
24.89827597596848
 40
27.2363609202845
 40
30.15869660101299
 40
33.08068465125417
 40
38.92375658205722
 40
44.18233162137604
 40
52.94848962015178
 40
57.62493101948438
 40
66.39264515199517
 40
73.40470032492281
 40
76.43429583633542
 40
78.51293361865876
 40
78.51293361865876
 40
78.51293361865876
 40
78.51293361865876
 10
1591.65537525541
 20
618.0686267762981
 30
0.0
 10
1591.775711377998
 20
618.112427621822
 30
0.0
 10
1592.047369405714
 20
618.2420128127746
 30
0.0
 10
1592.385170285955
 20
618.5095445564989
 30
0.0
 10
1592.600325493
 20
618.7774887854071
 30
0.0
 10
1592.734119437372
 20
618.9965251469589
 30
0.0
 10
1592.809000968026
 20
619.1506806043803
 30
0.0
 10
1592.861189778972
 20
619.29107844293
 30
0.0
 10
1592.893569766291
 20
619.3928964123811
 30
0.0
 10
1592.920334637318
 20
619.4936889573332
 30
0.0
 10
1592.940048197559
 20
619.5920077909582
 30
0.0
 10
1592.950348568892
 20
619.6581938427739
 30
0.0
 10
1592.955047232343
 20
619.6928828412388
 30
0.0
 10
1592.958461669335
 20
619.7209821544279
 30
0.0
 10
1592.961349441749
 20
619.7478199024958
 30
0.0
 10
1592.963655990696
 20
619.7725548472995
 30
0.0
 10
1592.965128707295
 20
619.7902888085705
 30
0.0
 10
1592.966543152351
 20
619.809212772398
 30
0.0
 10
1592.967585189268
 20
619.8251367257076
 30
0.0
 10
1592.968622091849
 20
619.8431096203026
 30
0.0
 10
1592.969438877341
 20
619.859946676956
 30
0.0
 10
1592.970183738439
 20
619.8783628771675
 30
0.0
 10
1592.970758373686
 20
619.8967598235508
 30
0.0
 10
1592.971562476734
 20
619.9322230682778
 30
0.0
 10
1592.97162953305
 20
619.9506531942357
 30
0.0
 10
1592.971972501279
 20
619.9892868560023
 30
0.0
 10
1592.972196692058
 20
620.0312911826081
 30
0.0
 10
1592.972437370248
 20
620.0787444427883
 30
0.0
 10
1592.972828203334
 20
620.1619928929617
 30
0.0
 10
1592.973479541219
 20
620.2960773685231
 30
0.0
 10
1592.974706532321
 20
620.5355656851357
 30
0.0
 10
1592.976117357124
 20
620.8121952030237
 30
0.0
 10
1592.977700455209
 20
621.1239340880898
 30
0.0
 10
1592.979062901876
 20
621.4080474721309
 30
0.0
 10
1592.980650364082
 20
621.7714084940567
 30
0.0
 10
1592.983015047203
 20
622.4035845735675
 30
0.0
 10
1592.986047747997
 20
623.612982643132
 30
0.0
 10
1592.986603049089
 20
625.1797092329693
 30
0.0
 10
1592.985334154976
 20
626.8886195607961
 30
0.0
 10
1592.983675535452
 20
628.3359324790404
 30
0.0
 10
1592.980801083896
 20
630.5856284333463
 30
0.0
 10
1592.9778867344
 20
633.6027623026935
 30
0.0
 10
1592.978227595824
 20
638.4014576928935
 30
0.0
 10
1592.983113488823
 20
643.4770952629374
 30
0.0
 10
1592.985280458805
 20
649.9978901042673
 30
0.0
 10
1592.979373663178
 20
656.3856999539171
 30
0.0
 10
1592.972011209079
 20
662.5370049259113
 30
0.0
 10
1592.971167738195
 20
666.5625337558781
 30
0.0
 10
1592.971301117569
 20
668.2653782686871
 30
0.0
 10
1592.971301117569
 20
668.9581743552885
 30
0.0
  0
LINE
  5
5A1C
330
A
100
AcDbEntity
  8
MODEL
100
AcDbLine
 10
1592.971301719379
 20
668.9581743552885
 30
0.0
 11
1592.971301719379
 21
1332.504969059683
 31
0.0
  0
SPLINE
  5
5A1D
330
A
100
AcDbEntity
  8
MODEL
100
AcDbSpline
210
0.0
220
0.0
230
1.0
 70
     8
 71
     3
 72
    44
 73
    40
 74
     0
 42
0.000000001
 43
0.0000000001
 40
0.0
 40
0.0
 40
0.0
 40
0.0
 40
3.505499781009096
 40
7.595854196603144
 40
10.517578972305
 40
15.19289050879168
 40
25.13013451063115
 40
30.97453655242023
 40
37.40201925179709
 40
40.32342723155967
 40
43.82927967626968
 40
46.16673349280376
 40
52.01130003244344
 40
55.51860970661442
 40
59.02623805831172
 40
61.36474833986058
 40
64.87204182740294
 40
66.62544766500305
 40
68.96326595300629
 40
70.13215353162627
 40
72.46968562814126
 40
73.05404350445049
 40
73.63842594152923
 40
74.22286980528243
 40
74.80743722170646
 40
75.54059853413133
 40
75.80829097155741
 40
75.94135611857317
 40
76.08199061458802
 40
76.12394095277041
 40
76.15826087635479
 40
76.28990738694301
 40
76.3951862964123
 40
76.58282185384462
 40
76.70223935433962
 40
77.08177350426632
 40
77.59296105767125
 40
78.10593278961119
 40
78.51293421050049
 40
78.51293421050049
 40
78.51293421050049
 40
78.51293421050049
 10
1592.971301117569
 20
1332.504969059683
 30
0.0
 10
1592.971301117569
 20
1333.673086904386
 30
0.0
 10
1592.971028371155
 20
1336.20539968483
 30
0.0
 10
1592.973154721176
 20
1339.680819602105
 30
0.0
 10
1592.977129182304
 20
1343.488067843693
 30
0.0
 10
1592.984167101792
 20
1349.087331129257
 30
0.0
 10
1592.984989212303
 20
1355.294177096152
 30
0.0
 10
1592.979780745819
 20
1361.464260586454
 30
0.0
 10
1592.977730546781
 20
1365.321228168574
 30
0.0
 10
1592.978571005726
 20
1368.310578270412
 30
0.0
 10
1592.980137267457
 20
1370.213476233159
 30
0.0
 10
1592.98290841604
 20
1372.578081809949
 30
0.0
 10
1592.985703323683
 20
1374.693731284937
 30
0.0
 10
1592.986583986376
 20
1376.687956590355
 30
0.0
 10
1592.985570122165
 20
1377.950419937192
 30
0.0
 10
1592.983112848982
 20
1379.049481605839
 30
0.0
 10
1592.980269065175
 20
1379.804523914416
 30
0.0
 10
1592.97727676408
 20
1380.427743329161
 30
0.0
 10
1592.975435587924
 20
1380.784286797458
 30
0.0
 10
1592.973787731082
 20
1381.10686040462
 30
0.0
 10
1592.972937397227
 20
1381.277916549476
 30
0.0
 10
1592.972432963696
 20
1381.385169992097
 30
0.0
 10
1592.972202740149
 20
1381.431137256328
 30
0.0
 10
1592.971987031541
 20
1381.469489409942
 30
0.0
 10
1592.971741977143
 20
1381.504183754722
 30
0.0
 10
1592.971513005834
 20
1381.527148780199
 30
0.0
 10
1592.971107118443
 20
1381.552551899488
 30
0.0
 10
1592.970492696625
 20
1381.575261871393
 30
0.0
 10
1592.969773128407
 20
1381.597369122323
 30
0.0
 10
1592.968262284263
 20
1381.626544673495
 30
0.0
 10
1592.966290462197
 20
1381.659510282309
 30
0.0
 10
1592.960405158176
 20
1381.733467782619
 30
0.0
 10
1592.941702180377
 20
1381.868110940126
 30
0.0
 10
1592.913222740908
 20
1382.001925064604
 30
0.0
 10
1592.848672613536
 20
1382.220849326656
 30
0.0
 10
1592.713561874787
 20
1382.53090934191
 30
0.0
 10
1592.43414213157
 20
1382.911004464452
 30
0.0
 10
1592.060512399637
 20
1383.213741370001
 30
0.0
 10
1591.782660749707
 20
1383.348186333988
 30
0.0
 10
1591.655374920812
 20
1383.394516760153
 30
0.0
  0
ARC
  5
5A1E
330
A
100
AcDbEntity
  8
MODEL
100
AcDbCircle
 10
1566.462982374916
 20
1128.051614776563
 30
0.0
 40
139.7191695363184
100
AcDbArc
 50
31.928090423069
 51
33.70368144130139
  0
SPLINE
  5
5A1F
330
A
100
AcDbEntity
  8
MODEL
100
AcDbSpline
210
0.0
220
0.0
230
1.0
 70
     8
 71
     3
 72
     8
 73
     4
 74
     0
 42
0.000000001
 43
0.0000000001
 40
141.8914270885466
 40
141.8914270885466
 40
141.8914270885466
 40
141.8914270885466
 40
164.9570700830821
 40
164.9570700830821
 40
164.9570700830821
 40
164.9570700830821
 10
1682.697940102628
 20
1205.581486038882
 30
0.0
 10
1678.295834511714
 20
1212.179434077949
 30
0.0
 10
1673.44372552372
 20
1218.204902686881
 30
0.0
 10
1668.118378988753
 20
1223.572813652853
 30
0.0
  0
SPLINE
  5
5A20
330
A
100
AcDbEntity
  8
MODEL
100
AcDbSpline
210
0.0
220
0.0
230
1.0
 70
     8
 71
     3
 72
    12
 73
     8
 74
     0
 42
0.000000001
 43
0.0000000001
 40
117.1105509154256
 40
117.1105509154256
 40
117.1105509154256
 40
117.1105509154256
 40
122.8287311339116
 40
131.2741688996166
 40
139.7196066653217
 40
148.1650444310267
 40
156.6104821967318
 40
156.6104821967318
 40
156.6104821967318
 40
156.6104821967318
 10
1701.175743602675
 20
1167.441067062104
 30
0.0
 10
1700.545130382509
 20
1169.296095779301
 30
0.0
 10
1698.929266777552
 20
1173.819039606522
 30
0.0
 10
1696.138383388645
 20
1180.761010333885
 30
0.0
 10
1692.731273178583
 20
1188.18200843396
 30
0.0
 10
1689.047514290311
 20
1195.256978019174
 30
0.0
 10
1686.409543322862
 20
1199.752525099077
 30
0.0
 10
1685.044389161065
 20
1201.942725882942
 30
0.0
  0
SPLINE
  5
5A21
330
A
100
AcDbEntity
  8
MODEL
100
AcDbSpline
210
0.0
220
0.0
230
1.0
 70
     8
 71
     3
 72
     9
 73
     5
 74
     0
 42
0.000000001
 43
0.0000000001
 40
0.5918389835761423
 40
0.5918389835761423
 40
0.5918389835761423
 40
0.5918389835761423
 40
0.7526847171745952
 40
0.963737643709663
 40
0.963737643709663
 40
0.963737643709663
 40
0.963737643709663
 10
1710.50807856041
 20
872.5355682836421
 30
0.0
 10
1712.542417273619
 20
884.7944593830221
 30
0.0
 10
1715.91968359998
 20
914.3116394499998
 30
0.0
 10
1717.380485547993
 20
942.1290153792402
 30
0.0
 10
1717.920270140552
 20
956.1168365909875
 30
0.0
  0
SPLINE
  5
5A22
330
A
100
AcDbEntity
  8
MODEL
100
AcDbSpline
210
0.0
220
0.0
230
1.0
 70
     8
 71
     3
 72
    28
 73
    24
 74
     0
 42
0.000000001
 43
0.0000000001
 40
0.0
 40
0.0
 40
0.0
 40
0.0
 40
7.125237940280779
 40
11.16515112164143
 40
14.44118982560342
 40
16.92480045981384
 40
20.27272947609356
 40
21.96231276176506
 40
22.81086285199812
 40
23.66185054119498
 40
24.51522429270556
 40
25.37093217452554
 40
26.2289218708099
 40
27.0576977177934
 40
27.88845168959579
 40
28.72113677772702
 40
29.55570567898402
 40
31.23030247705548
 40
32.91185996706166
 40
34.59998990090941
 40
36.2943000317527
 40
37.99439432497957
 40
39.69987315659321
 40
39.69987315659321
 40
39.69987315659321
 40
39.69987315659321
 10
1701.175773272764
 20
834.0220763528528
 30
0.0
 10
1701.939962398651
 20
836.2700406929257
 30
0.0
 10
1703.07233960141
 20
839.8151643386559
 30
0.0
 10
1704.411370966238
 20
844.4381137175847
 30
0.0
 10
1705.265943681887
 20
847.5903971887496
 30
0.0
 10
1706.021660509531
 20
850.5302657254838
 30
0.0
 10
1706.614106109332
 20
852.9660261212307
 30
0.0
 10
1707.057228784472
 20
854.8771212794713
 30
0.0
 10
1707.306682065786
 20
855.9788176056795
 30
0.0
 10
1707.491759078219
 20
856.8093127642392
 30
0.0
 10
1707.674580131811
 20
857.6428102720133
 30
0.0
 10
1707.855108276639
 20
858.4789860789501
 30
0.0
 10
1708.031382741774
 20
859.3084804378927
 30
0.0
 10
1708.202789952306
 20
860.1276418009261
 30
0.0
 10
1708.370190340988
 20
860.9398425954464
 30
0.0
 10
1708.53553157241
 20
861.7542726884899
 30
0.0
 10
1708.753568193325
 20
862.8445854419301
 30
0.0
 10
1709.021100412125
 20
864.2131047132902
 30
0.0
 10
1709.333967840209
 20
865.8622838719934
 30
0.0
 10
1709.63914195322
 20
867.5197663652402
 30
0.0
 10
1709.936716579745
 20
869.1848973138008
 30
0.0
 10
1710.226929525601
 20
870.8578908337117
 30
0.0
 10
1710.415011059577
 20
871.974745078453
 30
0.0
 10
1710.50807856041
 20
872.5355682836421
 30
0.0
  0
ARC
  5
5A23
330
A
100
AcDbEntity
  8
MODEL
100
AcDbCircle
 10
1566.462982374916
 20
873.4115286384081
 30
0.0
 40
139.7191695363184
100
AcDbArc
 50
326.2963185588841
 51
328.0719095767479
  0
SPLINE
  5
5A24
330
A
100
AcDbEntity
  8
MODEL
100
AcDbSpline
210
0.0
220
0.0
230
1.0
 70
     8
 71
     3
 72
     8
 73
     4
 74
     0
 42
0.000000001
 43
0.0000000001
 40
141.8914270885466
 40
141.8914270885466
 40
141.8914270885466
 40
141.8914270885466
 40
164.9570700830821
 40
164.9570700830821
 40
164.9570700830821
 40
164.9570700830821
 10
1682.697940102627
 20
795.8816573760892
 30
0.0
 10
1678.295834511714
 20
789.2837093370222
 30
0.0
 10
1673.44372552372
 20
783.2582407280902
 30
0.0
 10
1668.118378988753
 20
777.8903297621187
 30
0.0
  0
SPLINE
  5
5A25
330
A
100
AcDbEntity
  8
MODEL
100
AcDbSpline
210
0.0
220
0.0
230
1.0
 70
     8
 71
     3
 72
    12
 73
     8
 74
     0
 42
0.000000001
 43
0.0000000001
 40
117.1105509154256
 40
117.1105509154256
 40
117.1105509154256
 40
117.1105509154256
 40
122.8287311339116
 40
131.2741688996166
 40
139.7196066653217
 40
148.1650444310267
 40
156.6104821967318
 40
156.6104821967318
 40
156.6104821967318
 40
156.6104821967318
 10
1701.175743602675
 20
834.0220763528673
 30
0.0
 10
1700.545130382509
 20
832.1670476356708
 30
0.0
 10
1698.929266777552
 20
827.644103808449
 30
0.0
 10
1696.138383388645
 20
820.7021330810862
 30
0.0
 10
1692.731273178583
 20
813.2811349810113
 30
0.0
 10
1689.047514290311
 20
806.2061653957976
 30
0.0
 10
1686.409543322862
 20
801.7106183158944
 30
0.0
 10
1685.044389161064
 20
799.5204175320291
 30
0.0
  0
CIRCLE
  5
5A26
330
A
100
AcDbEntity
  8
HIDDEN
 48
0.5
100
AcDbCircle
 10
504.5608398810887
 20
1000.731541190475
 30
0.0
 40
17.5
  0
CIRCLE
  5
5A27
330
A
100
AcDbEntity
  8
HIDDEN
 48
0.5
100
AcDbCircle
 10
504.5608398810887
 20
1100.731541190475
 30
0.0
 40
16.0
  0
CIRCLE
  5
5A28
330
A
100
AcDbEntity
  8
HIDDEN
 48
0.5
100
AcDbCircle
 10
504.5608398810887
 20
900.7315411904751
 30
0.0
 40
16.0
  0
DIMENSION
  5
5ABD
330
A
100
AcDbEntity
  8
Dim
100
AcDbDimension
  2
*D26
 10
374.5441981275144
 20
900.7702142485109
 30
0.0
 11
352.3278895337644
 21
950.7702142485109
 31
0.0
 70
    32
 71
     5
 42
100.0
 73
     0
 74
     0
 75
     0
  3
tform線あり
100
AcDbAlignedDimension
 13
485.546864001491
 23
1000.770214248511
 33
0.0
 14
485.546864001491
 24
900.7702142485109
 34
0.0
 50
90.0
100
AcDbRotatedDimension
1001
ACAD
1000
DSTYLE
1002
{
1070
   340
1005
39
1002
}
  0
DIMENSION
  5
5ABE
330
A
100
AcDbEntity
  8
Dim
100
AcDbDimension
  2
*D27
 10
374.5441981275144
 20
1100.770214248511
 30
0.0
 11
352.3278895337644
 21
1050.770214248511
 31
0.0
 70
    32
 71
     5
 42
100.0
 73
     0
 74
     0
 75
     0
  3
tform線あり
100
AcDbAlignedDimension
 13
485.546864001491
 23
1000.770214248511
 33
0.0
 14
485.546864001491
 24
1100.770214248511
 34
0.0
 50
-90.00000000000001
100
AcDbRotatedDimension
1001
ACAD
1000
DSTYLE
1002
{
1070
   340
1005
39
1002
}
  0
DIMENSION
  5
5BE3
330
A
100
AcDbEntity
  8
Dim
100
AcDbDimension
  2
*D35
 10
295.6530889582323
 20
1400.157675747874
 30
0.0
 11
273.4367803644823
 21
1000.157675747874
 31
0.0
 70
    32
 71
     5
 42
800.0
 73
     0
 74
     0
 75
     0
  3
tform線あり
100
AcDbAlignedDimension
 13
442.2510733415488
 23
600.1576757478742
 33
0.0
 14
442.2510733415488
 24
1400.157675747874
 34
0.0
 50
90.0
100
AcDbRotatedDimension
  0
LINE
  5
5BF5
102
{ACAD_REACTORS
330
5D05
102
}
330
A
100
AcDbEntity
  8
HIDDEN
  6
CENTER
 48
0.15
100
AcDbLine
 10
1618.118380263345
 20
836.8957249026657
 30
0.0
 11
1618.118380263345
 21
885.8947036549775
 31
0.0
  0
LINE
  5
5BF6
330
A
100
AcDbEntity
  8
HIDDEN
  6
CENTER
 48
0.15
100
AcDbLine
 10
1593.61889088719
 20
861.3952142788226
 30
0.0
 11
1642.6178696395
 21
861.3952142788226
 31
0.0
  0
CIRCLE
  5
5BF7
330
A
100
AcDbEntity
  8
HIDDEN
  6
CENTER
 48
0.15
100
AcDbCircle
 10
1618.118380263345
 20
861.3952142788226
 30
0.0
 40
10.48259753163544
  0
LINE
  5
5BF8
330
A
100
AcDbEntity
  8
HIDDEN
  6
CENTER
 48
0.15
100
AcDbLine
 10
1618.118380263345
 20
1117.520724963304
 30
0.0
 11
1618.118380263345
 21
1166.519703715615
 31
0.0
  0
LINE
  5
5BF9
330
A
100
AcDbEntity
  8
HIDDEN
  6
CENTER
 48
0.15
100
AcDbLine
 10
1593.61889088719
 20
1140.770214218185
 30
0.0
 11
1642.6178696395
 21
1140.770214218185
 31
0.0
  0
CIRCLE
  5
5BFA
330
A
100
AcDbEntity
  8
HIDDEN
  6
CENTER
 48
0.15
100
AcDbCircle
 10
1618.118380263345
 20
1141.395214278823
 30
0.0
 40
10.48259753163544
  0
LINE
  5
5BFB
330
A
100
AcDbEntity
  8
Dim
  6
Continuous
100
AcDbLine
 10
1609.64674188125
 20
1148.00356115654
 30
0.0
 11
1480.124158357939
 21
1241.808609784624
 31
0.0
  0
MTEXT
  5
5BFC
330
A
100
AcDbEntity
  8
Dim
390
1D
100
AcDbMText
 10
1433.530873002651
 20
1242.852376562747
 30
34.99521132346015
 40
24.0
 41
1169.77171546101
 46
26.808
 71
     1
 72
     1
  1
{壁取付ボルト穴(2ヶ所)}
  7
ＭＳ ゴシック
 11
7.960204194457795E-16
 21
1.0
 31
0.0
 73
     1
 44
1.174240107638677
1001
ACAD
1000
ACAD_MTEXT_DEFINED_HEIGHT_BEGIN
1070
    46
1040
26.808
1000
ACAD_MTEXT_DEFINED_HEIGHT_END
  0
DIMENSION
  5
5C0E
330
A
100
AcDbEntity
  8
Dim
100
AcDbDimension
  2
*D37
 10
1484.662351285004
 20
1141.395214278823
 30
0.0
 11
1462.446042691254
 21
1001.395214278823
 31
0.0
 70
    32
 71
     5
 42
280.0
 73
     0
 74
     0
 75
     0
  3
tform線あり
100
AcDbAlignedDimension
 13
1567.481893534343
 23
861.3952142788226
 33
0.0
 14
1567.481893534343
 24
1141.395214278823
 34
0.0
 50
90.0
100
AcDbRotatedDimension
  0
LINE
  5
5C26
330
A
100
AcDbEntity
  8
MODEL
100
AcDbLine
 10
1689.465429763527
 20
2519.959635272065
 30
0.0
 11
1702.528436758395
 21
2520.257558104824
 31
0.0
  0
SPLINE
  5
5C2C
330
A
100
AcDbEntity
  8
HIDDEN
100
AcDbSpline
210
0.0
220
0.0
230
1.0
 70
  1064
 71
     3
 72
    15
 73
    11
 74
     9
 42
0.000000001
 43
0.0000000001
 44
0.0
 40
0.0
 40
0.0
 40
0.0
 40
0.0
 40
42.2939042541343
 40
97.18186325500866
 40
160.5612964346277
 40
217.6853510465192
 40
262.8408029618835
 40
281.9234835692395
 40
295.5267753471732
 40
315.2107481773172
 40
315.2107481773172
 40
315.2107481773172
 40
315.2107481773172
 10
1578.118380263345
 20
750.7315411899194
 30
0.0
 10
1592.025247623528
 20
753.4386203756408
 30
0.0
 10
1623.980095631458
 20
759.6588784456094
 30
0.0
 10
1669.668527336486
 20
792.8332000958774
 30
0.0
 10
1692.567096830579
 20
848.3418937349361
 30
0.0
 10
1701.040057013412
 20
904.264017150992
 30
0.0
 10
1708.980315479875
 20
940.292054420937
 30
0.0
 10
1707.140697974383
 20
972.6237275162947
 30
0.0
 10
1727.762336129734
 20
973.6625000922247
 30
0.0
 10
1738.364204898094
 20
973.5004030941802
 30
0.0
 10
1744.633476321932
 20
973.4045492310606
 30
0.0
 11
1578.118380263345
 21
750.7315411899194
 31
0.0
 11
1619.024303422526
 21
761.4776934107408
 31
0.0
 11
1663.329380051222
 21
793.8775117467599
 31
0.0
 11
1690.736670787159
 21
851.0246286004176
 31
0.0
 11
1702.107780773346
 21
907.005477763184
 31
0.0
 11
1707.859289024289
 21
951.7931433701356
 31
0.0
 11
1711.661400729584
 21
970.4932141117883
 31
0.0
 11
1724.949503491788
 21
973.4045492310606
 31
0.0
 11
1744.633476321932
 21
973.4045492310606
 31
0.0
  0
LINE
  5
5C2D
330
A
100
AcDbEntity
  8
HIDDEN
100
AcDbLine
 10
1708.125877859733
 20
962.8960144198136
 30
0.0
 11
1708.125877859736
 21
1000.731571707482
 31
0.0
  0
LINE
  5
5C34
330
A
100
AcDbEntity
  8
HIDDEN
100
AcDbLine
 10
1744.633476321932
 20
973.4045492310606
 30
0.0
 11
1756.947509333022
 21
973.4045492310606
 31
0.0
  0
SPLINE
  5
5C35
330
A
100
AcDbEntity
  8
HIDDEN
100
AcDbSpline
210
0.0
220
0.0
230
1.0
 70
  1064
 71
     3
 72
    15
 73
    11
 74
     9
 42
0.000000001
 43
0.0000000001
 44
0.0
 40
0.0
 40
0.0
 40
0.0
 40
0.0
 40
42.29390425413447
 40
97.1818632550087
 40
160.5612964346271
 40
217.6853510465193
 40
262.8408029618829
 40
281.9234835692391
 40
295.5267753471727
 40
315.2107481773168
 40
315.2107481773168
 40
315.2107481773168
 40
315.2107481773168
 10
1578.118380263345
 20
1250.731602225045
 30
0.0
 10
1592.025247623528
 20
1248.024523039323
 30
0.0
 10
1623.980095631458
 20
1241.804264969354
 30
0.0
 10
1669.668527336486
 20
1208.629943319087
 30
0.0
 10
1692.567096830581
 20
1153.121249680029
 30
0.0
 10
1701.040057013411
 20
1097.199126263972
 30
0.0
 10
1708.980315479876
 20
1061.171088994028
 30
0.0
 10
1707.140697974383
 20
1028.839415898669
 30
0.0
 10
1727.762336129733
 20
1027.80064332274
 30
0.0
 10
1738.364204898094
 20
1027.962740320785
 30
0.0
 10
1744.633476321932
 20
1028.058594183904
 30
0.0
 11
1578.118380263345
 21
1250.731602225045
 31
0.0
 11
1619.024303422526
 21
1239.985450004223
 31
0.0
 11
1663.329380051222
 21
1207.585631668204
 31
0.0
 11
1690.736670787159
 21
1150.438514814547
 31
0.0
 11
1702.107780773346
 21
1094.45766565178
 31
0.0
 11
1707.859289024289
 21
1049.670000044829
 31
0.0
 11
1711.661400729584
 21
1030.969929303176
 31
0.0
 11
1724.949503491788
 21
1028.058594183904
 31
0.0
 11
1744.633476321932
 21
1028.058594183904
 31
0.0
  0
LINE
  5
5C36
330
A
100
AcDbEntity
  8
HIDDEN
100
AcDbLine
 10
1744.633476321932
 20
1028.058594183904
 30
0.0
 11
1756.947509333022
 21
1028.058594183904
 31
0.0
  0
LINE
  5
5C37
330
A
100
AcDbEntity
  8
HIDDEN
100
AcDbLine
 10
1708.125877859733
 20
1038.567128995151
 30
0.0
 11
1708.125877859736
 21
1000.731571707482
 31
0.0
  0
DIMENSION
  5
5C3F
330
A
100
AcDbEntity
  8
Dim
100
AcDbDimension
  2
*D38
 10
958.5608401028453
 20
1548.433117266463
 30
0.0
 11
698.5608401028453
 21
1570.649425860213
 31
0.0
 70
    32
 71
     5
 42
520.0
 73
     0
 74
     0
 75
     0
 52
-270.0
  3
tform線あり
100
AcDbAlignedDimension
 13
438.5608401028453
 23
1391.239935687507
 33
0.0
 14
958.5608401028453
 24
1359.151728302696
 34
0.0
 50
180.0
100
AcDbRotatedDimension
  0
DIMENSION
  5
5C52
330
A
100
AcDbEntity
  8
Dim
100
AcDbDimension
  2
*D39
 10
568.5608396616776
 20
525.6360328112305
 30
0.0
 11
503.5608396616776
 21
547.8523414049805
 31
0.0
 70
    32
 71
     5
 42
130.0
 73
     0
 74
     0
 75
     0
 52
-270.0
  3
tform線あり
100
AcDbAlignedDimension
 13
438.5608396616776
 23
614.3531326257039
 33
0.0
 14
568.5608396616776
 24
776.8091205966066
 34
0.0
 50
180.0
100
AcDbRotatedDimension
  0
DIMENSION
  5
5C72
330
A
100
AcDbEntity
  8
Dim
100
AcDbDimension
  2
*D41
 10
883.5608390340317
 20
525.6360328112305
 30
0.0
 11
726.0608394007734
 21
547.8523414049805
 31
0.0
 70
    32
  1
310
 71
     5
 42
314.9999992665166
 73
     0
 74
     0
 75
     0
 52
-270.0
  3
tform線あり
100
AcDbAlignedDimension
 13
568.5608397675151
 23
773.078392451243
 33
0.0
 14
883.5608390340317
 24
773.0794581309815
 34
0.0
 50
180.0
100
AcDbRotatedDimension
  0
DIMENSION
  5
5C81
330
A
100
AcDbEntity
  8
Dim
100
AcDbDimension
  2
*D42
 10
1040.488515242992
 20
1250.731541189922
 30
0.0
 11
1018.272206649242
 21
1000.731541189922
 31
0.0
 70
    32
 71
     5
 42
500.0000000000002
 73
     0
 74
     0
 75
     0
  3
tform線あり
100
AcDbAlignedDimension
 13
840.0109130656733
 23
750.7315411899217
 33
0.0
 14
847.3868805634979
 24
1250.731541189922
 34
0.0
 50
90.0
100
AcDbRotatedDimension
  0
DIMENSION
  5
5CA6
330
A
100
AcDbEntity
  8
Dim
  6
Continuous
100
AcDbDimension
  2
*D43
 10
1577.281453312694
 20
2324.011708206426
 30
0.0
 11
1481.094714054882
 21
2324.011708206426
 31
0.0
 70
   160
  1
130(深さ)
 71
     5
 42
129.7781030537169
 73
     0
 74
     1
 75
     1
 52
-270.0
  3
tform線あり
100
AcDbAlignedDimension
 13
1707.059556366411
 23
2324.011708206426
 33
0.0
 14
1577.281453312694
 24
2324.011708206426
 34
0.0
 50
180.0
100
AcDbRotatedDimension
1001
ACAD
1000
DSTYLE
1002
{
1070
   271
1070
     0
1070
    76
1070
     1
1070
    75
1070
     1
1002
}
  0
DIMENSION
  5
5CA7
330
A
100
AcDbEntity
  8
Dim
  6
Continuous
100
AcDbDimension
  2
*D44
 10
1497.346782185129
 20
2484.833511957482
 30
0.0
 11
1475.130473591379
 21
2517.333511957482
 31
0.0
 70
    32
 71
     5
 42
65.0
 73
     0
 74
     0
 75
     0
  3
tform線あり
100
AcDbAlignedDimension
 13
1582.077357984744
 23
2549.833511957482
 33
0.0
 14
1582.077357984744
 24
2484.833511957482
 34
0.0
 50
89.99999999999996
100
AcDbRotatedDimension
  0
DIMENSION
  5
5CC2
330
A
100
AcDbEntity
  8
Dim
100
AcDbDimension
  2
*D45
 10
1837.953232764791
 20
2324.832591217292
 30
0.0
 11
1815.736924171041
 21
2437.332602792351
 31
0.0
 70
    32
 71
     5
 42
225.0000231501181
 73
     0
 74
     0
 75
     0
  3
tform線あり
100
AcDbAlignedDimension
 13
1703.624575012038
 23
2549.83261436741
 33
0.0
 14
1756.947499349116
 24
2324.832591217292
 34
0.0
 50
90.0
100
AcDbRotatedDimension
  0
DIMENSION
  5
5CD5
330
A
100
AcDbEntity
  8
Dim
  6
Continuous
100
AcDbDimension
  2
*D46
 10
1668.118370279423
 20
1977.063990545366
 30
0.0
 11
1630.618370279423
 21
1999.280299139116
 31
0.0
 70
    32
 71
     5
 42
74.99999999999996
 73
     0
 74
     0
 75
     0
  3
tform線あり
100
AcDbAlignedDimension
 13
1593.118370279423
 23
2008.482579834051
 33
0.0
 14
1668.118370279423
 24
2102.509423771587
 34
0.0
 50
-0.0000000000000254
100
AcDbRotatedDimension
  0
DIMENSION
  5
5CD6
330
A
100
AcDbEntity
  8
Dim
  6
Continuous
100
AcDbDimension
  2
*D47
 10
1758.118370279423
 20
1977.063990545366
 30
0.0
 11
1713.118370279423
 21
1999.280299139116
 31
0.0
 70
    32
 71
     5
 42
89.9999999999999
 73
     0
 74
     0
 75
     0
  3
tform線あり
100
AcDbAlignedDimension
 13
1668.118370279423
 23
2077.509423771587
 33
0.0
 14
1758.118370279423
 24
2292.183689189114
 34
0.0
 50
-0.0000000000000254
100
AcDbRotatedDimension
  0
DIMENSION
  5
5CD7
330
A
100
AcDbEntity
  8
Dim
  6
Continuous
100
AcDbDimension
  2
*D48
 10
1593.118370279423
 20
1977.063990545366
 30
0.0
 11
1534.730516763796
 21
1977.063990545366
 31
0.0
 70
   160
 71
     5
 42
15.0
 73
     0
 74
     1
 75
     1
  3
tform線あり
100
AcDbAlignedDimension
 13
1578.118370279423
 23
2033.482579834051
 33
0.0
 14
1593.118370279423
 24
2033.482579834051
 34
0.0
 50
-0.0000000000000254
100
AcDbRotatedDimension
  0
DIMENSION
  5
5D03
102
{ACAD_REACTORS
330
5D05
102
}
102
{ACAD_XDICTIONARY
360
5D04
102
}
330
A
100
AcDbEntity
  8
Dim
100
AcDbDimension
  2
*D49
 10
1578.118380263345
 20
525.6360328112305
 30
0.0
 11
1598.118380263345
 21
525.6360328112305
 31
0.0
 70
   160
 71
     5
 42
39.99999999999997
 73
     0
 74
     0
 75
     0
 52
-270.0
  3
tform線あり
100
AcDbAlignedDimension
 13
1618.118380263345
 23
836.8957249026657
 33
0.0
 14
1578.118380263345
 24
608.1020271566208
 34
0.0
 50
180.0
100
AcDbRotatedDimension
  0
MTEXT
  5
5D24
330
A
100
AcDbEntity
  8
Dim
390
1D
100
AcDbMText
 10
1143.64348837944
 20
502.0913622328517
 30
34.99521132346015
 40
24.4326171875
 41
833.929798641839
 46
0.0
 71
     1
 72
     1
  1
＝φ30もしくはφ35の水栓取付用穴あけ加工を承ります。\P  必要な場合、ご注文の際にご指示ください。
  7
ＭＳ ゴシック
 11
9.797174393178826E-16
 21
1.0
 31
0.0
 73
     1
 44
1.043768984567712
  0
CIRCLE
  5
5D25
330
A
100
AcDbEntity
  8
HIDDEN
 48
0.58
390
1D
100
AcDbCircle
 10
1158.232312835722
 20
470.7243325347636
 30
34.99521132346015
 40
17.5
  0
VIEWPORT
  5
349
330
B
100
AcDbEntity
 67
     1
  8
0
100
AcDbViewport
 10
202.5
 20
128.5
 30
0.0
 40
486.0
 41
308.4
 68
     1
 69
     1
 12
202.5
 22
128.5
 13
0.0
 23
0.0
 14
0.5
 24
0.5
 15
0.0
 25
0.0
 16
0.0
 26
0.0
 36
1.0
 17
0.0
 27
0.0
 37
0.0
 42
50.0
 43
0.0
 44
0.0
 45
308.4
 50
0.0
 51
0.0
 72
   100
 90
   557152
  1

281
     0
 71
     1
 74
     0
110
0.0
120
0.0
130
0.0
111
1.0
121
0.0
131
0.0
112
0.0
122
1.0
132
0.0
 79
     0
146
0.0
170
     0
 61
     5
348
26C
292
     1
282
     1
141
0.0
142
0.0
 63
   256
  0
VIEWPORT
  5
34A
330
B
100
AcDbEntity
 67
     1
  8
0
100
AcDbViewport
 10
202.5
 20
128.5
 30
0.0
 40
324.0
 41
205.6
 68
     2
 69
     2
 12
986.6781359294573
 22
1427.077061889956
 13
0.0
 23
0.0
 14
0.5
 24
0.5
 15
0.0
 25
0.0
 16
0.0
 26
0.0
 36
1.0
 17
0.0
 27
0.0
 37
0.0
 42
50.0
 43
0.0
 44
0.0
 45
2890.021615685494
 50
0.0
 51
0.0
 72
   100
 90
   557152
  1

281
     0
 71
     1
 74
     0
110
0.0
120
0.0
130
0.0
111
1.0
121
0.0
131
0.0
112
0.0
122
1.0
132
0.0
 79
     0
146
0.0
170
     0
 61
     5
348
26C
292
     1
282
     1
141
0.0
142
0.0
 63
   256
  0
ENDSEC
  0
SECTION
  2
OBJECTS
  0
DICTIONARY
  5
19
330
0
100
AcDbDictionary
281
     1
  3
ACAD_COLOR
350
38F
  3
ACAD_DETAILVIEWSTYLE
350
8CF
  3
ACAD_FIELDLIST
350
BA6
  3
ACAD_GROUP
350
1A
  3
ACAD_IMAGE_VARS
350
27B
  3
ACAD_LAYOUT
350
1E
  3
ACAD_MATERIAL
350
263
  3
ACAD_MLEADERSTYLE
350
336
  3
ACAD_MLINESTYLE
350
1B
  3
ACAD_PLOTSETTINGS
350
22
  3
ACAD_PLOTSTYLENAME
350
1F
  3
ACAD_SCALELIST
350
241
  3
ACAD_SECTIONVIEWSTYLE
350
8D0
  3
ACAD_TABLESTYLE
350
278
  3
ACAD_VISUALSTYLE
350
267
  3
ACDB_RECOMPOSE_DATA
350
5DB9
  3
AcDbVariableDictionary
350
330
  3
APPDATA
350
27A
  3
DimOffsetDictionary
350
C08
  0
SUN
  5
8C2
330
15
100
AcDbSun
 90
        1
290
     0
 63
     7
421
 16777215
 40
1.0
291
     1
 91
  2455826
 92
 54000000
292
     0
 70
     2
 71
   256
280
     1
  0
DICTIONARY
  5
2E1
330
2
100
AcDbDictionary
280
     1
281
     1
  3
ACAD_LAYERSTATES
360
2E2
  3
ACLYDICTIONARY
360
BFE
  0
DICTIONARY
  5
BDC
330
BDB
100
AcDbDictionary
280
     1
281
     1
  3
ACAD_FIELD
360
BE4
  0
DICTIONARY
  5
5D04
330
5D03
100
AcDbDictionary
280
     1
281
     1
  3
ACAD_DIMASSOC
360
5D05
  0
DICTIONARY
  5
38F
102
{ACAD_REACTORS
330
19
102
}
330
19
100
AcDbDictionary
281
     1
  0
DICTIONARY
  5
8CF
102
{ACAD_REACTORS
330
19
102
}
330
19
100
AcDbDictionary
281
     1
  0
FIELDLIST
  5
BA6
102
{ACAD_REACTORS
330
19
102
}
330
19
100
AcDbIdSet
 90
        2
330
BDF
330
BDE
100
AcDbFieldList
  0
DICTIONARY
  5
1A
102
{ACAD_REACTORS
330
19
102
}
330
19
100
AcDbDictionary
281
     1
  0
RASTERVARIABLES
  5
27B
102
{ACAD_REACTORS
330
19
102
}
330
19
100
AcDbRasterVariables
 90
        0
 70
     1
 71
     1
 72
     1
  0
DICTIONARY
  5
1E
102
{ACAD_REACTORS
330
19
102
}
330
19
100
AcDbDictionary
281
     1
  3
Layout1
350
21
  3
Model
350
20
  0
DICTIONARY
  5
263
102
{ACAD_REACTORS
330
19
102
}
330
19
100
AcDbDictionary
281
     1
  3
ByBlock
350
5BF0
  3
ByLayer
350
264
  3
Global
350
266
  0
DICTIONARY
  5
336
102
{ACAD_REACTORS
330
19
102
}
330
19
100
AcDbDictionary
281
     1
  3
Standard
350
8D1
  0
DICTIONARY
  5
1B
102
{ACAD_REACTORS
330
19
102
}
330
19
100
AcDbDictionary
281
     1
  3
Standard
350
1C
  0
DICTIONARY
  5
22
102
{ACAD_REACTORS
330
19
102
}
330
19
100
AcDbDictionary
281
     1
  0
ACDBDICTIONARYWDFLT
  5
1F
102
{ACAD_REACTORS
330
19
102
}
330
19
100
AcDbDictionary
281
     1
  3
Normal
350
1D
100
AcDbDictionaryWithDefault
340
1D
  0
DICTIONARY
  5
241
102
{ACAD_REACTORS
330
19
102
}
330
19
100
AcDbDictionary
281
     1
  3
A0
350
242
  3
A1
350
243
  3
A2
350
244
  3
A3
350
245
  3
A4
350
246
  3
A5
350
247
  3
A6
350
248
  3
A7
350
249
  3
A8
350
24A
  3
A9
350
24B
  3
B0
350
24C
  3
B1
350
24D
  3
B2
350
24E
  3
B3
350
24F
  3
B4
350
250
  3
B5
350
251
  3
B6
350
252
  3
B7
350
253
  3
B8
350
254
  3
B9
350
255
  3
C0
350
256
  3
C1
350
257
  3
C2
350
258
  3
C3
350
259
  3
C4
350
25A
  3
C5
350
25B
  3
C6
350
25C
  3
C7
350
25D
  3
C8
350
25E
  3
C9
350
25F
  3
D0
350
260
  3
D1
350
261
  3
D2
350
262
  0
DICTIONARY
  5
8D0
102
{ACAD_REACTORS
330
19
102
}
330
19
100
AcDbDictionary
281
     1
  0
DICTIONARY
  5
278
102
{ACAD_REACTORS
330
19
102
}
330
19
100
AcDbDictionary
281
     1
  3
Standard
350
279
  0
DICTIONARY
  5
267
102
{ACAD_REACTORS
330
19
102
}
330
19
100
AcDbDictionary
281
     1
  3
2dWireframe
350
26C
  3
3D Hidden
350
26E
  3
3dWireframe
350
26D
  3
Basic
350
26F
  3
Brighten
350
273
  3
ColorChange
350
277
  3
Conceptual
350
271
  3
Dim
350
272
  3
EdgeColorOff
350
8BC
  3
Facepattern
350
276
  3
Flat
350
268
  3
FlatWithEdges
350
269
  3
Gouraud
350
26A
  3
GouraudWithEdges
350
26B
  3
Hidden
350
8B9
  3
JitterOff
350
8BA
  3
Linepattern
350
275
  3
OverhangOff
350
8BB
  3
Realistic
350
270
  3
Shaded
350
8C1
  3
Shaded with edges
350
8C0
  3
Shades of Gray
350
8BD
  3
Sketchy
350
8BE
  3
Thicken
350
274
  3
Wireframe
350
8B8
  3
X-Ray
350
8BF
  0
XRECORD
  5
5DB9
102
{ACAD_REACTORS
330
19
102
}
330
19
100
AcDbXrecord
280
     1
 90
        1
330
279
  0
DICTIONARY
  5
330
102
{ACAD_REACTORS
330
19
102
}
330
19
100
AcDbDictionary
281
     1
  3
CANNOSCALE
350
331
  3
CMLEADERSTYLE
350
8DA
  3
CTABLESTYLE
350
335
  3
HPTRANSPARENCY
350
C07
  3
XCLIPFRAME
350
64A
  0
DICTIONARY
  5
27A
102
{ACAD_REACTORS
330
19
102
}
330
19
100
AcDbDictionary
281
     1
  0
DICTIONARY
  5
C08
102
{ACAD_REACTORS
330
19
102
}
330
19
100
AcDbDictionary
281
     1
  3
DIMRAILANGLE
350
4342
  3
DIMRAILFIRSTOFFSET
350
4340
  3
DIMRAILOFFSET
350
4341
  3
DIMRAILSENABLED
350
4343
  0
DICTIONARY
  5
2E2
102
{ACAD_REACTORS
330
2E1
102
}
330
2E1
100
AcDbDictionary
281
     1
  0
DICTIONARY
  5
BFE
102
{ACAD_REACTORS
330
2E1
102
}
330
2E1
100
AcDbDictionary
281
     1
1001
ACAD
1000
<All
  0
DICTIONARY
  5
BE4
102
{ACAD_REACTORS
330
BDC
102
}
330
BDC
100
AcDbDictionary
280
     1
281
     1
  3
TEXT
360
BDE
  0
DIMASSOC
  5
5D05
102
{ACAD_REACTORS
330
5D04
102
}
330
5D04
100
AcDbDimAssoc
330
5D03
 90
        3
 70
     0
 71
     1
  1
AcDbOsnapPointRef
 72
    13
331
5BF5
 73
     0
 91
        0
 40
0.0
 10
0.0
 20
0.0
 30
0.0
 75
     0
  1
AcDbOsnapPointRef
 72
    10
331
59FA
 73
     0
 91
        0
 40
0.0813943039664388
 10
0.0
 20
0.0
 30
0.0
 75
     0
  0
LAYOUT
  5
21
102
{ACAD_REACTORS
330
1E
102
}
330
1E
100
AcDbPlotSettings
  1

  2
none_device
  4
ISO_A3_(420.00_x_297.00_MM)
  6

 40
7.5
 41
20.0
 42
7.5
 43
20.0
 44
420.0
 45
297.0
 46
0.0
 47
0.0
 48
0.0
 49
0.0
140
0.0
141
0.0
142
1.0
143
1.0
 70
     0
 72
     1
 73
     0
 74
     0
  7

 75
     0
 76
     0
 77
     2
 78
   300
147
1.0
148
0.0
149
0.0
100
AcDbLayout
  1
Layout1
 70
     0
 71
     0
 10
0.0
 20
0.0
 11
0.0
 21
0.0
 12
0.0
 22
0.0
 32
0.0
 14
0.0
 24
0.0
 34
0.0
 15
0.0
 25
0.0
 35
0.0
146
0.0
 13
0.0
 23
0.0
 33
0.0
 16
0.0
 26
0.0
 36
0.0
 17
0.0
 27
0.0
 37
0.0
 76
     0
330
B
331
349
  0
LAYOUT
  5
20
102
{ACAD_REACTORS
330
1E
102
}
330
1E
100
AcDbPlotSettings
  1

  2
none_device
  4
ISO_A3_(420.00_x_297.00_MM)
  6

 40
7.5
 41
20.0
 42
7.5
 43
20.0
 44
420.0
 45
297.0
 46
0.0
 47
0.0
 48
0.0
 49
0.0
140
0.0
141
0.0
142
1.0
143
1.0
 70
  1024
 72
     1
 73
     0
 74
     0
  7

 75
     0
 76
     0
 77
     2
 78
   300
147
1.0
148
0.0
149
0.0
100
AcDbLayout
  1
Model
 70
     0
 71
     1
 10
0.0
 20
0.0
 11
2100.0
 21
2970.0
 12
0.0
 22
0.0
 32
0.0
 14
0.0
 24
0.0
 34
0.0
 15
2100.0
 25
2970.0
 35
34.99521132346015
146
0.0
 13
0.0
 23
0.0
 33
0.0
 16
0.0
 26
0.0
 36
0.0
 17
0.0
 27
0.0
 37
0.0
 76
     0
330
A
331
15
  0
MATERIAL
  5
5BF0
102
{ACAD_REACTORS
330
263
102
}
330
263
100
AcDbMaterial
  1
ByBlock
 72
     1
 94
      127
  0
MATERIAL
  5
264
102
{ACAD_REACTORS
330
263
102
}
330
263
100
AcDbMaterial
  1
ByLayer
 72
     1
 94
      127
  0
MATERIAL
  5
266
102
{ACAD_REACTORS
330
263
102
}
330
263
100
AcDbMaterial
  1
Global
 72
     1
 94
      127
  0
MLEADERSTYLE
  5
8D1
102
{ACAD_REACTORS
330
336
102
}
330
336
100
AcDbMLeaderStyle
170
     2
171
     1
172
     0
 90
        2
 40
0.0
 41
0.0
173
     1
 91
-1056964608
340
11
 92
       -2
290
     1
 42
2.0
291
     1
 43
8.0
  3
Standard
341
0
 44
4.0
300

342
17
174
     1
178
     6
175
     1
176
     0
 93
-1056964608
 45
4.0
292
     0
297
     0
 46
4.0
343
0
 94
-1056964608
 47
1.0
 49
1.0
140
1.0
293
     1
141
0.0
294
     1
177
     0
142
1.0
295
     0
296
     0
143
3.75
1001
ACAD_MLEADERVER
1070
     2
  0
MLINESTYLE
  5
1C
102
{ACAD_REACTORS
330
1B
102
}
330
1B
100
AcDbMlineStyle
  2
Standard
 70
     0
  3

 62
     0
 51
90.0
 52
90.0
 71
     2
 49
0.5
 62
   256
  6
BYLAYER
 49
-0.5
 62
   256
  6
BYLAYER
  0
ACDBPLACEHOLDER
  5
1D
102
{ACAD_REACTORS
330
1F
102
}
330
1F
  0
SCALE
  5
242
102
{ACAD_REACTORS
330
241
102
}
330
241
100
AcDbScale
 70
     0
300
1:1
140
1.0
141
1.0
290
     1
  0
SCALE
  5
243
102
{ACAD_REACTORS
330
241
102
}
330
241
100
AcDbScale
 70
     0
300
1:2
140
1.0
141
2.0
290
     0
  0
SCALE
  5
244
102
{ACAD_REACTORS
330
241
102
}
330
241
100
AcDbScale
 70
     0
300
1:4
140
1.0
141
4.0
290
     0
  0
SCALE
  5
245
102
{ACAD_REACTORS
330
241
102
}
330
241
100
AcDbScale
 70
     0
300
1:5
140
1.0
141
5.0
290
     0
  0
SCALE
  5
246
102
{ACAD_REACTORS
330
241
102
}
330
241
100
AcDbScale
 70
     0
300
1:8
140
1.0
141
8.0
290
     0
  0
SCALE
  5
247
102
{ACAD_REACTORS
330
241
102
}
330
241
100
AcDbScale
 70
     0
300
1:10
140
1.0
141
10.0
290
     0
  0
SCALE
  5
248
102
{ACAD_REACTORS
330
241
102
}
330
241
100
AcDbScale
 70
     0
300
1:16
140
1.0
141
16.0
290
     0
  0
SCALE
  5
249
102
{ACAD_REACTORS
330
241
102
}
330
241
100
AcDbScale
 70
     0
300
1:20
140
1.0
141
20.0
290
     0
  0
SCALE
  5
24A
102
{ACAD_REACTORS
330
241
102
}
330
241
100
AcDbScale
 70
     0
300
1:30
140
1.0
141
30.0
290
     0
  0
SCALE
  5
24B
102
{ACAD_REACTORS
330
241
102
}
330
241
100
AcDbScale
 70
     0
300
1:40
140
1.0
141
40.0
290
     0
  0
SCALE
  5
24C
102
{ACAD_REACTORS
330
241
102
}
330
241
100
AcDbScale
 70
     0
300
1:50
140
1.0
141
50.0
290
     0
  0
SCALE
  5
24D
102
{ACAD_REACTORS
330
241
102
}
330
241
100
AcDbScale
 70
     0
300
1:100
140
1.0
141
100.0
290
     0
  0
SCALE
  5
24E
102
{ACAD_REACTORS
330
241
102
}
330
241
100
AcDbScale
 70
     0
300
2:1
140
2.0
141
1.0
290
     0
  0
SCALE
  5
24F
102
{ACAD_REACTORS
330
241
102
}
330
241
100
AcDbScale
 70
     0
300
4:1
140
4.0
141
1.0
290
     0
  0
SCALE
  5
250
102
{ACAD_REACTORS
330
241
102
}
330
241
100
AcDbScale
 70
     0
300
8:1
140
8.0
141
1.0
290
     0
  0
SCALE
  5
251
102
{ACAD_REACTORS
330
241
102
}
330
241
100
AcDbScale
 70
     0
300
10:1
140
10.0
141
1.0
290
     0
  0
SCALE
  5
252
102
{ACAD_REACTORS
330
241
102
}
330
241
100
AcDbScale
 70
     0
300
100:1
140
100.0
141
1.0
290
     0
  0
SCALE
  5
253
102
{ACAD_REACTORS
330
241
102
}
330
241
100
AcDbScale
 70
     0
300
1/128" = 1'-0"
140
0.0078125
141
12.0
290
     0
  0
SCALE
  5
254
102
{ACAD_REACTORS
330
241
102
}
330
241
100
AcDbScale
 70
     0
300
1/64" = 1'-0"
140
0.015625
141
12.0
290
     0
  0
SCALE
  5
255
102
{ACAD_REACTORS
330
241
102
}
330
241
100
AcDbScale
 70
     0
300
1/32" = 1'-0"
140
0.03125
141
12.0
290
     0
  0
SCALE
  5
256
102
{ACAD_REACTORS
330
241
102
}
330
241
100
AcDbScale
 70
     0
300
1/16" = 1'-0"
140
0.0625
141
12.0
290
     0
  0
SCALE
  5
257
102
{ACAD_REACTORS
330
241
102
}
330
241
100
AcDbScale
 70
     0
300
3/32" = 1'-0"
140
0.09375
141
12.0
290
     0
  0
SCALE
  5
258
102
{ACAD_REACTORS
330
241
102
}
330
241
100
AcDbScale
 70
     0
300
1/8" = 1'-0"
140
0.125
141
12.0
290
     0
  0
SCALE
  5
259
102
{ACAD_REACTORS
330
241
102
}
330
241
100
AcDbScale
 70
     0
300
3/16" = 1'-0"
140
0.1875
141
12.0
290
     0
  0
SCALE
  5
25A
102
{ACAD_REACTORS
330
241
102
}
330
241
100
AcDbScale
 70
     0
300
1/4" = 1'-0"
140
0.25
141
12.0
290
     0
  0
SCALE
  5
25B
102
{ACAD_REACTORS
330
241
102
}
330
241
100
AcDbScale
 70
     0
300
3/8" = 1'-0"
140
0.375
141
12.0
290
     0
  0
SCALE
  5
25C
102
{ACAD_REACTORS
330
241
102
}
330
241
100
AcDbScale
 70
     0
300
1/2" = 1'-0"
140
0.5
141
12.0
290
     0
  0
SCALE
  5
25D
102
{ACAD_REACTORS
330
241
102
}
330
241
100
AcDbScale
 70
     0
300
3/4" = 1'-0"
140
0.75
141
12.0
290
     0
  0
SCALE
  5
25E
102
{ACAD_REACTORS
330
241
102
}
330
241
100
AcDbScale
 70
     0
300
1" = 1'-0"
140
1.0
141
12.0
290
     0
  0
SCALE
  5
25F
102
{ACAD_REACTORS
330
241
102
}
330
241
100
AcDbScale
 70
     0
300
1-1/2" = 1'-0"
140
1.5
141
12.0
290
     0
  0
SCALE
  5
260
102
{ACAD_REACTORS
330
241
102
}
330
241
100
AcDbScale
 70
     0
300
3" = 1'-0"
140
3.0
141
12.0
290
     0
  0
SCALE
  5
261
102
{ACAD_REACTORS
330
241
102
}
330
241
100
AcDbScale
 70
     0
300
6" = 1'-0"
140
6.0
141
12.0
290
     0
  0
SCALE
  5
262
102
{ACAD_REACTORS
330
241
102
}
330
241
100
AcDbScale
 70
     0
300
1'-0" = 1'-0"
140
12.0
141
12.0
290
     0
  0
TABLESTYLE
  5
279
102
{ACAD_REACTORS
330
278
102
}
102
{ACAD_XDICTIONARY
360
5DB7
102
}
330
278
100
AcDbTableStyle
  3
Standard
 70
     0
 71
     0
 40
0.06
 41
0.06
280
     0
281
     0
  7
Standard
140
4.5
170
     2
 62
     0
 63
   257
283
     0
 90
        4
 91
        0
  1

274
    -2
284
     1
 64
     0
275
    -2
285
     1
 65
     0
276
    -2
286
     1
 66
     0
277
    -2
287
     1
 67
     0
278
    -2
288
     1
 68
     0
279
    -2
289
     1
 69
     0
  7
Standard
140
6.0
170
     5
 62
     0
 63
   257
283
     0
 90
        4
 91
        0
  1

274
    -2
284
     1
 64
     0
275
    -2
285
     1
 65
     0
276
    -2
286
     1
 66
     0
277
    -2
287
     1
 67
     0
278
    -2
288
     1
 68
     0
279
    -2
289
     1
 69
     0
  7
Standard
140
4.5
170
     5
 62
     0
 63
   257
283
     0
 90
        4
 91
        0
  1

274
    -2
284
     1
 64
     0
275
    -2
285
     1
 65
     0
276
    -2
286
     1
 66
     0
277
    -2
287
     1
 67
     0
278
    -2
288
     1
 68
     0
279
    -2
289
     1
 69
     0
  0
VISUALSTYLE
  5
26C
102
{ACAD_REACTORS
330
267
102
}
330
267
100
AcDbVisualStyle
  2
2dWireframe
 70
     4
 71
     0
 72
     2
 73
     0
 90
        0
 40
-0.6
 41
-30.0
 62
     5
 63
     7
421
 16777215
 74
     1
 91
        4
 64
     7
 65
   257
 75
     1
175
     1
 42
1.0
 92
        0
 66
   257
 43
1.0
 76
     1
 77
     6
 78
     2
 67
     7
 79
     5
170
     0
171
     0
290
     0
174
     0
 93
        1
 44
0.0
173
     0
291
     0
 45
0.0
  0
VISUALSTYLE
  5
26E
102
{ACAD_REACTORS
330
267
102
}
330
267
100
AcDbVisualStyle
  2
3D Hidden
 70
     6
 71
     1
 72
     2
 73
     2
 90
        0
 40
-0.6
 41
-30.0
 62
     5
 63
     7
421
 16777215
 74
     2
 91
        2
 64
     7
 65
   257
 75
     2
175
     1
 42
40.0
 92
        0
 66
   257
 43
1.0
 76
     1
 77
     6
 78
     2
 67
     7
 79
     3
170
     0
171
     0
290
     0
174
     0
 93
        1
 44
0.0
173
     0
291
     0
 45
0.0
  0
VISUALSTYLE
  5
26D
102
{ACAD_REACTORS
330
267
102
}
330
267
100
AcDbVisualStyle
  2
3dWireframe
 70
     5
 71
     0
 72
     2
 73
     0
 90
        0
 40
-0.6
 41
-30.0
 62
     5
 63
     7
421
 16777215
 74
     1
 91
        4
 64
     7
 65
   257
 75
     1
175
     1
 42
1.0
 92
        0
 66
   257
 43
1.0
 76
     1
 77
     6
 78
     2
 67
     7
 79
     5
170
     0
171
     0
290
     0
174
     0
 93
        1
 44
0.0
173
     0
291
     0
 45
0.0
  0
VISUALSTYLE
  5
26F
102
{ACAD_REACTORS
330
267
102
}
330
267
100
AcDbVisualStyle
  2
Basic
 70
     7
 71
     1
 72
     0
 73
     1
 90
        0
 40
-0.6
 41
-30.0
 62
     5
 63
     7
421
 16777215
 74
     0
 91
        4
 64
     7
 65
   257
 75
     1
175
     1
 42
1.0
 92
        8
 66
     7
 43
1.0
 76
     1
 77
     6
 78
     2
 67
     7
 79
     5
170
     0
171
     0
290
     0
174
     0
 93
        1
 44
0.0
173
     0
291
     1
 45
0.0
  0
VISUALSTYLE
  5
273
102
{ACAD_REACTORS
330
267
102
}
330
267
100
AcDbVisualStyle
  2
Brighten
 70
    12
 71
     2
 72
     2
 73
     0
 90
        0
 40
-0.6
 41
-30.0
 62
     5
 63
     7
421
 16777215
 74
     1
 91
        4
 64
     7
 65
   257
 75
     1
175
     1
 42
1.0
 92
        8
 66
     7
 43
1.0
 76
     1
 77
     6
 78
     2
 67
     7
 79
     5
170
     0
171
     0
290
     0
174
     0
 93
        1
 44
50.0
173
     0
291
     1
 45
0.0
  0
VISUALSTYLE
  5
277
102
{ACAD_REACTORS
330
267
102
}
330
267
100
AcDbVisualStyle
  2
ColorChange
 70
    16
 71
     2
 72
     2
 73
     3
 90
        0
 40
-0.6
 41
-30.0
 62
     5
 63
     8
421
  8421504
 74
     1
 91
        4
 64
     7
 65
   257
 75
     1
175
     1
 42
1.0
 92
        8
 66
     8
424
  8421504
 43
1.0
 76
     1
 77
     6
 78
     2
 67
     7
 79
     5
170
     0
171
     0
290
     0
174
     0
 93
        1
 44
0.0
173
     0
291
     1
 45
0.0
  0
VISUALSTYLE
  5
271
102
{ACAD_REACTORS
330
267
102
}
330
267
100
AcDbVisualStyle
  2
Conceptual
 70
     9
 71
     3
 72
     2
 73
     0
 90
        0
 40
-0.6
 41
-30.0
 62
     5
 63
     7
421
 16777215
 74
     2
 91
        2
 64
     7
 65
   257
 75
     1
175
     1
 42
40.0
 92
        8
 66
     7
 43
1.0
 76
     1
 77
     6
 78
     2
 67
     7
 79
     3
170
     0
171
     0
290
     0
174
     0
 93
        1
 44
0.0
173
     0
291
     0
 45
0.0
  0
VISUALSTYLE
  5
272
102
{ACAD_REACTORS
330
267
102
}
330
267
100
AcDbVisualStyle
  2
Dim
 70
    11
 71
     2
 72
     2
 73
     0
 90
        0
 40
-0.6
 41
-30.0
 62
     5
 63
     7
421
 16777215
 74
     1
 91
        4
 64
     7
 65
   257
 75
     1
175
     1
 42
1.0
 92
        8
 66
     7
 43
1.0
 76
     1
 77
     6
 78
     2
 67
     7
 79
     5
170
     0
171
     0
290
     0
174
     0
 93
        1
 44
-50.0
173
     0
291
     1
 45
0.0
  0
VISUALSTYLE
  5
8BC
102
{ACAD_REACTORS
330
267
102
}
330
267
100
AcDbVisualStyle
  2
EdgeColorOff
 70
    22
 71
     2
 72
     2
 73
     0
 90
        0
 40
0.6
 41
30.0
 62
     5
 63
     7
421
 16777215
 74
     1
 91
        4
 64
     7
 65
   257
 75
     1
175
     1
 42
1.0
 92
        8
 66
     7
 43
1.0
 76
     1
 77
     6
 78
     2
 67
     7
 79
     5
170
     0
171
     0
290
     0
174
     0
 93
        1
 44
0.0
173
     0
291
     1
 45
0.0
  0
VISUALSTYLE
  5
276
102
{ACAD_REACTORS
330
267
102
}
330
267
100
AcDbVisualStyle
  2
Facepattern
 70
    15
 71
     2
 72
     2
 73
     0
 90
        0
 40
-0.6
 41
-30.0
 62
     5
 63
     7
421
 16777215
 74
     1
 91
        4
 64
     7
 65
   257
 75
     1
175
     1
 42
1.0
 92
        8
 66
     7
 43
1.0
 76
     1
 77
     6
 78
     2
 67
     7
 79
     5
170
     0
171
     0
290
     0
174
     0
 93
        1
 44
0.0
173
     0
291
     1
 45
0.0
  0
VISUALSTYLE
  5
268
102
{ACAD_REACTORS
330
267
102
}
330
267
100
AcDbVisualStyle
  2
Flat
 70
     0
 71
     2
 72
     1
 73
     1
 90
        2
 40
-0.6
 41
30.0
 62
     5
 63
     7
421
 16777215
 74
     0
 91
        4
 64
     7
 65
   257
 75
     1
175
     1
 42
1.0
 92
        8
 66
     7
 43
1.0
 76
     1
 77
     6
 78
     2
 67
     7
 79
     5
170
     0
171
     0
290
     0
174
     0
 93
       13
 44
0.0
173
     0
291
     1
 45
0.0
  0
VISUALSTYLE
  5
269
102
{ACAD_REACTORS
330
267
102
}
330
267
100
AcDbVisualStyle
  2
FlatWithEdges
 70
     1
 71
     2
 72
     1
 73
     1
 90
        2
 40
-0.6
 41
30.0
 62
     5
 63
     7
421
 16777215
 74
     1
 91
        4
 64
     7
 65
   257
 75
     1
175
     1
 42
1.0
 92
        0
 66
   257
 43
1.0
 76
     1
 77
     6
 78
     2
 67
     7
 79
     5
170
     0
171
     0
290
     0
174
     0
 93
       13
 44
0.0
173
     0
291
     1
 45
0.0
  0
VISUALSTYLE
  5
26A
102
{ACAD_REACTORS
330
267
102
}
330
267
100
AcDbVisualStyle
  2
Gouraud
 70
     2
 71
     2
 72
     2
 73
     1
 90
        2
 40
-0.6
 41
30.0
 62
     5
 63
     7
421
 16777215
 74
     0
 91
        4
 64
     7
 65
   257
 75
     1
175
     1
 42
1.0
 92
        0
 66
     7
 43
1.0
 76
     1
 77
     6
 78
     2
 67
     7
 79
     5
170
     0
171
     0
290
     0
174
     0
 93
       13
 44
0.0
173
     0
291
     1
 45
0.0
  0
VISUALSTYLE
  5
26B
102
{ACAD_REACTORS
330
267
102
}
330
267
100
AcDbVisualStyle
  2
GouraudWithEdges
 70
     3
 71
     2
 72
     2
 73
     1
 90
        2
 40
-0.6
 41
30.0
 62
     5
 63
     7
421
 16777215
 74
     1
 91
        4
 64
     7
 65
   257
 75
     1
175
     1
 42
1.0
 92
        0
 66
   257
 43
1.0
 76
     1
 77
     6
 78
     2
 67
     7
 79
     5
170
     0
171
     0
290
     0
174
     0
 93
       13
 44
0.0
173
     0
291
     1
 45
0.0
  0
VISUALSTYLE
  5
8B9
102
{ACAD_REACTORS
330
267
102
}
330
267
100
AcDbVisualStyle
  2
Hidden
 70
     6
 71
     1
 72
     2
 73
     2
 90
        0
 40
0.6
 41
30.0
 62
     5
 63
     7
421
 16777215
 74
     2
 91
        2
 64
     7
 65
   257
 75
     2
175
     1
 42
40.0
 92
        0
 66
   257
 43
1.0
 76
     1
 77
     6
 78
     2
 67
     7
 79
     3
170
     0
171
     0
290
     0
174
     0
 93
        1
 44
0.0
173
     0
291
     0
 45
0.0
  0
VISUALSTYLE
  5
8BA
102
{ACAD_REACTORS
330
267
102
}
330
267
100
AcDbVisualStyle
  2
JitterOff
 70
    20
 71
     2
 72
     2
 73
     0
 90
        0
 40
0.6
 41
30.0
 62
     5
 63
     7
421
 16777215
 74
     1
 91
        4
 64
     7
 65
   257
 75
     1
175
     1
 42
1.0
 92
       10
 66
     7
 43
1.0
 76
     1
 77
     6
 78
     2
 67
     7
 79
     5
170
     0
171
     0
290
     0
174
     0
 93
        1
 44
0.0
173
     0
291
     1
 45
0.0
  0
VISUALSTYLE
  5
275
102
{ACAD_REACTORS
330
267
102
}
330
267
100
AcDbVisualStyle
  2
Linepattern
 70
    14
 71
     2
 72
     2
 73
     0
 90
        0
 40
-0.6
 41
-30.0
 62
     5
 63
     7
421
 16777215
 74
     1
 91
        4
 64
     7
 65
   257
 75
     7
175
     7
 42
1.0
 92
        8
 66
     7
 43
1.0
 76
     1
 77
     6
 78
     2
 67
     7
 79
     5
170
     0
171
     0
290
     0
174
     0
 93
        1
 44
0.0
173
     0
291
     1
 45
0.0
  0
VISUALSTYLE
  5
8BB
102
{ACAD_REACTORS
330
267
102
}
330
267
100
AcDbVisualStyle
  2
OverhangOff
 70
    21
 71
     2
 72
     2
 73
     0
 90
        0
 40
0.6
 41
30.0
 62
     5
 63
     7
421
 16777215
 74
     1
 91
        4
 64
     7
 65
   257
 75
     1
175
     1
 42
1.0
 92
        9
 66
     7
 43
1.0
 76
     1
 77
     6
 78
     2
 67
     7
 79
     5
170
     0
171
     0
290
     0
174
     0
 93
        1
 44
0.0
173
     0
291
     1
 45
0.0
  0
VISUALSTYLE
  5
270
102
{ACAD_REACTORS
330
267
102
}
330
267
100
AcDbVisualStyle
  2
Realistic
 70
     8
 71
     2
 72
     2
 73
     0
 90
        0
 40
-0.6
 41
-30.0
 62
     5
 63
     7
421
 16777215
 74
     1
 91
        0
 64
     7
 65
   257
 75
     1
175
     1
 42
1.0
 92
        8
 66
     8
424
  7895160
 43
1.0
 76
     1
 77
     6
 78
     2
 67
     7
 79
     5
170
     0
171
     0
290
     0
174
     0
 93
       13
 44
0.0
173
     0
291
     0
 45
0.0
  0
VISUALSTYLE
  5
8C1
102
{ACAD_REACTORS
330
267
102
}
330
267
100
AcDbVisualStyle
  2
Shaded
 70
    27
 71
     2
 72
     2
 73
     1
 90
        2
 40
0.6
 41
30.0
 62
     5
 63
     7
421
 16777215
 74
     0
 91
        4
 64
     7
 65
   257
 75
     1
175
     1
 42
1.0
 92
        8
 66
   257
 43
1.0
 76
     1
 77
     6
 78
     2
 67
     8
425
  7895160
 79
     3
170
     0
171
     0
290
     0
174
     0
 93
        5
 44
0.0
173
     0
291
     0
 45
0.0
  0
VISUALSTYLE
  5
8C0
102
{ACAD_REACTORS
330
267
102
}
330
267
100
AcDbVisualStyle
  2
Shaded with edges
 70
    26
 71
     2
 72
     2
 73
     1
 90
        2
 40
0.6
 41
30.0
 62
     5
 63
     7
421
 16777215
 74
     1
 91
       10
 64
     7
 65
   257
 75
     2
175
     1
 42
1.0
 92
        8
 66
   257
 43
1.0
 76
     1
 77
     6
 78
     2
 67
     7
 79
     3
170
     0
171
     0
290
     0
174
     0
 93
        5
 44
0.0
173
     0
291
     0
 45
0.0
  0
VISUALSTYLE
  5
8BD
102
{ACAD_REACTORS
330
267
102
}
330
267
100
AcDbVisualStyle
  2
Shades of Gray
 70
    23
 71
     2
 72
     2
 73
     3
 90
        0
 40
0.6
 41
30.0
 62
     5
 63
     7
421
 16777215
 74
     2
 91
        2
 64
     7
 65
     7
 75
     1
175
     1
 42
40.0
 92
        8
 66
     7
 43
1.0
 76
     1
 77
     6
 78
     2
 67
     7
 79
     3
170
     0
171
     0
290
     0
174
     0
 93
        1
 44
0.0
173
     0
291
     0
 45
0.0
  0
VISUALSTYLE
  5
8BE
102
{ACAD_REACTORS
330
267
102
}
330
267
100
AcDbVisualStyle
  2
Sketchy
 70
    24
 71
     1
 72
     2
 73
     2
 90
        0
 40
0.6
 41
30.0
 62
     5
 63
     7
421
 16777215
 74
     2
 91
        2
 64
     7
 65
     7
 75
     1
175
     1
 42
40.0
 92
       11
 66
     7
 43
1.0
 76
     1
 77
     6
 78
     2
 67
     7
 79
     6
170
     0
171
     0
290
     0
174
     0
 93
        1
 44
0.0
173
     0
291
     0
 45
0.0
  0
VISUALSTYLE
  5
274
102
{ACAD_REACTORS
330
267
102
}
330
267
100
AcDbVisualStyle
  2
Thicken
 70
    13
 71
     2
 72
     2
 73
     0
 90
        0
 40
-0.6
 41
-30.0
 62
     5
 63
     7
421
 16777215
 74
     1
 91
        4
 64
     7
 65
   257
 75
     1
175
     1
 42
1.0
 92
       12
 66
     7
 43
1.0
 76
     1
 77
     6
 78
     2
 67
     7
 79
     5
170
     0
171
     0
290
     0
174
     0
 93
        1
 44
0.0
173
     0
291
     1
 45
0.0
  0
VISUALSTYLE
  5
8B8
102
{ACAD_REACTORS
330
267
102
}
330
267
100
AcDbVisualStyle
  2
Wireframe
 70
     5
 71
     0
 72
     2
 73
     0
 90
        0
 40
0.6
 41
30.0
 62
     5
 63
     7
421
 16777215
 74
     1
 91
        4
 64
     7
 65
   257
 75
     1
175
     1
 42
1.0
 92
        0
 66
   257
 43
1.0
 76
     1
 77
     6
 78
     2
 67
     7
 79
     3
170
     0
171
     0
290
     0
174
     0
 93
        1
 44
0.0
173
     0
291
     0
 45
0.0
  0
VISUALSTYLE
  5
8BF
102
{ACAD_REACTORS
330
267
102
}
330
267
100
AcDbVisualStyle
  2
X-Ray
 70
    25
 71
     2
 72
     2
 73
     1
 90
        1
 40
0.5
 41
30.0
 62
     5
 63
     7
421
 16777215
 74
     1
 91
        0
 64
     7
 65
   257
 75
     1
175
     1
 42
1.0
 92
        8
 66
     7
 43
1.0
 76
     1
 77
     6
 78
     2
 67
     7
 79
     3
170
     0
171
     0
290
     0
174
     0
 93
       13
 44
0.0
173
     0
291
     0
 45
0.0
  0
DICTIONARYVAR
  5
331
102
{ACAD_REACTORS
330
330
102
}
330
330
100
DictionaryVariables
280
     0
  1
1:1
  0
DICTIONARYVAR
  5
8DA
102
{ACAD_REACTORS
330
330
102
}
330
330
100
DictionaryVariables
280
     0
  1
Standard
  0
DICTIONARYVAR
  5
335
102
{ACAD_REACTORS
330
330
102
}
330
330
100
DictionaryVariables
280
     0
  1
Standard
  0
DICTIONARYVAR
  5
C07
102
{ACAD_REACTORS
330
330
102
}
330
330
100
DictionaryVariables
280
     0
  1
ByLayer
  0
DICTIONARYVAR
  5
64A
102
{ACAD_REACTORS
330
330
102
}
330
330
100
DictionaryVariables
280
     0
  1
0
  0
DICTIONARYVAR
  5
4342
102
{ACAD_REACTORS
330
C08
102
}
330
C08
100
DictionaryVariables
280
     0
  1
0.261799
  0
DICTIONARYVAR
  5
4340
102
{ACAD_REACTORS
330
C08
102
}
330
C08
100
DictionaryVariables
280
     0
  1
0.400000
  0
DICTIONARYVAR
  5
4341
102
{ACAD_REACTORS
330
C08
102
}
330
C08
100
DictionaryVariables
280
     0
  1
0.250000
  0
DICTIONARYVAR
  5
4343
102
{ACAD_REACTORS
330
C08
102
}
330
C08
100
DictionaryVariables
280
     0
  1
1
  0
FIELD
  5
BDE
102
{ACAD_REACTORS
330
BE4
102
}
330
BE4
100
AcDbField
  1
_text
  2
{%<\_FldIdx 0>%N}
 90
        1
360
BDF
 97
        0
 91
       63
 92
        0
 94
        8
 95
        2
 96
        0
300

 93
        1
  6
ACFD_FIELDTEXT_CHECKSUM
 93
        2
 90
        2
140
4543.0
 94
        0
300

302

304
ACVALUE_END
  7
ACFD_FIELD_VALUE
 93
        6
 90
        4
  1
{20170725N}
 94
        0
300

302

304
ACVALUE_END
301
{20170725N}
 98
       11
  0
DICTIONARY
  5
5DB7
330
279
100
AcDbDictionary
280
     1
281
     1
  3
ACAD_ROUNDTRIP_2008_TABLESTYLE_CELLSTYLEMAP
360
5DB8
  0
FIELD
  5
BDF
330
BDE
100
AcDbField
  1
AcVar
  2
\AcVar Date \f "yyyyMMdd"
 90
        0
 97
        0
 91
       63
 92
        0
 94
        8
 95
        2
 96
        0
300

 93
        1
  6
Variable
 93
        2
 90
        4
  1
Date
 94
        0
300

302

304
ACVALUE_END
  7
ACFD_FIELD_VALUE
 93
        6
 90
        8
 92
       16
310
E1070700000018001100100025000000
 94
        0
300
yyyyMMdd
302

304
ACVALUE_END
301
20170725
 98
        8
  0
CELLSTYLEMAP
  5
5DB8
102
{ACAD_REACTORS
330
5DB7
102
}
330
5DB7
100
AcDbCellStyleMap
 90
        3
300
CELLSTYLE
  1
TABLEFORMAT_BEGIN
 90
        5
170
     1
 91
        0
 92
    32768
 62
   257
 93
        1
300
CONTENTFORMAT
  1
CONTENTFORMAT_BEGIN
 90
        0
 91
        0
 92
        4
 93
        0
300

 40
0.0
140
1.0
 94
        5
 62
     0
340
17
144
6.0
309
CONTENTFORMAT_END
171
     1
301
MARGIN
  1
CELLMARGIN_BEGIN
 40
0.06
 40
0.06
 40
0.06
 40
0.06
 40
0.18
 40
0.18
309
CELLMARGIN_END
 94
        6
 95
        1
302
GRIDFORMAT
  1
GRIDFORMAT_BEGIN
 90
        0
 91
        1
 62
     0
 92
       -2
340
0
 93
        0
 40
0.045
309
GRIDFORMAT_END
 95
        2
302
GRIDFORMAT
  1
GRIDFORMAT_BEGIN
 90
        0
 91
        1
 62
     0
 92
       -2
340
0
 93
        0
 40
0.045
309
GRIDFORMAT_END
 95
        4
302
GRIDFORMAT
  1
GRIDFORMAT_BEGIN
 90
        0
 91
        1
 62
     0
 92
       -2
340
0
 93
        0
 40
0.045
309
GRIDFORMAT_END
 95
        8
302
GRIDFORMAT
  1
GRIDFORMAT_BEGIN
 90
        0
 91
        1
 62
     0
 92
       -2
340
0
 93
        0
 40
0.045
309
GRIDFORMAT_END
 95
       16
302
GRIDFORMAT
  1
GRIDFORMAT_BEGIN
 90
        0
 91
        1
 62
     0
 92
       -2
340
0
 93
        0
 40
0.045
309
GRIDFORMAT_END
 95
       32
302
GRIDFORMAT
  1
GRIDFORMAT_BEGIN
 90
        0
 91
        1
 62
     0
 92
       -2
340
0
 93
        0
 40
0.045
309
GRIDFORMAT_END
309
TABLEFORMAT_END
  1
CELLSTYLE_BEGIN
 90
        1
 91
        1
300
_TITLE
309
CELLSTYLE_END
300
CELLSTYLE
  1
TABLEFORMAT_BEGIN
 90
        5
170
     1
 91
        0
 92
        0
 62
   257
 93
        1
300
CONTENTFORMAT
  1
CONTENTFORMAT_BEGIN
 90
        0
 91
        0
 92
        4
 93
        0
300

 40
0.0
140
1.0
 94
        5
 62
     0
340
17
144
4.5
309
CONTENTFORMAT_END
171
     1
301
MARGIN
  1
CELLMARGIN_BEGIN
 40
0.06
 40
0.06
 40
0.06
 40
0.06
 40
0.18
 40
0.18
309
CELLMARGIN_END
 94
        6
 95
        1
302
GRIDFORMAT
  1
GRIDFORMAT_BEGIN
 90
        0
 91
        1
 62
     0
 92
       -2
340
0
 93
        0
 40
0.045
309
GRIDFORMAT_END
 95
        2
302
GRIDFORMAT
  1
GRIDFORMAT_BEGIN
 90
        0
 91
        1
 62
     0
 92
       -2
340
0
 93
        0
 40
0.045
309
GRIDFORMAT_END
 95
        4
302
GRIDFORMAT
  1
GRIDFORMAT_BEGIN
 90
        0
 91
        1
 62
     0
 92
       -2
340
0
 93
        0
 40
0.045
309
GRIDFORMAT_END
 95
        8
302
GRIDFORMAT
  1
GRIDFORMAT_BEGIN
 90
        0
 91
        1
 62
     0
 92
       -2
340
0
 93
        0
 40
0.045
309
GRIDFORMAT_END
 95
       16
302
GRIDFORMAT
  1
GRIDFORMAT_BEGIN
 90
        0
 91
        1
 62
     0
 92
       -2
340
0
 93
        0
 40
0.045
309
GRIDFORMAT_END
 95
       32
302
GRIDFORMAT
  1
GRIDFORMAT_BEGIN
 90
        0
 91
        1
 62
     0
 92
       -2
340
0
 93
        0
 40
0.045
309
GRIDFORMAT_END
309
TABLEFORMAT_END
  1
CELLSTYLE_BEGIN
 90
        2
 91
        1
300
_HEADER
309
CELLSTYLE_END
300
CELLSTYLE
  1
TABLEFORMAT_BEGIN
 90
        5
170
     1
 91
        0
 92
        0
 62
   257
 93
        1
300
CONTENTFORMAT
  1
CONTENTFORMAT_BEGIN
 90
        0
 91
        0
 92
        4
 93
        0
300

 40
0.0
140
1.0
 94
        2
 62
     0
340
17
144
4.5
309
CONTENTFORMAT_END
171
     1
301
MARGIN
  1
CELLMARGIN_BEGIN
 40
0.06
 40
0.06
 40
0.06
 40
0.06
 40
0.18
 40
0.18
309
CELLMARGIN_END
 94
        6
 95
        1
302
GRIDFORMAT
  1
GRIDFORMAT_BEGIN
 90
        0
 91
        1
 62
     0
 92
       -2
340
0
 93
        0
 40
0.045
309
GRIDFORMAT_END
 95
        2
302
GRIDFORMAT
  1
GRIDFORMAT_BEGIN
 90
        0
 91
        1
 62
     0
 92
       -2
340
0
 93
        0
 40
0.045
309
GRIDFORMAT_END
 95
        4
302
GRIDFORMAT
  1
GRIDFORMAT_BEGIN
 90
        0
 91
        1
 62
     0
 92
       -2
340
0
 93
        0
 40
0.045
309
GRIDFORMAT_END
 95
        8
302
GRIDFORMAT
  1
GRIDFORMAT_BEGIN
 90
        0
 91
        1
 62
     0
 92
       -2
340
0
 93
        0
 40
0.045
309
GRIDFORMAT_END
 95
       16
302
GRIDFORMAT
  1
GRIDFORMAT_BEGIN
 90
        0
 91
        1
 62
     0
 92
       -2
340
0
 93
        0
 40
0.045
309
GRIDFORMAT_END
 95
       32
302
GRIDFORMAT
  1
GRIDFORMAT_BEGIN
 90
        0
 91
        1
 62
     0
 92
       -2
340
0
 93
        0
 40
0.045
309
GRIDFORMAT_END
309
TABLEFORMAT_END
  1
CELLSTYLE_BEGIN
 90
        3
 91
        2
300
_DATA
309
CELLSTYLE_END
  0
ENDSEC
  0
EOF
