  0
SECTION
  2
HEADER
  9
$ACADVER
  1
AC1021
  9
$ACADMAINTVER
 70
    25
  9
$DWGCODEPAGE
  3
ANSI_932
  9
$LASTSAVEDBY
  1
T-HOWE-PC
  9
$INSBASE
 10
0.0
 20
0.0
 30
0.0
  9
$EXTMIN
 10
0.0
 20
0.0
 30
-0.0000000000000142
  9
$EXTMAX
 10
2100.0
 20
2970.0
 30
0.0000000000000071
  9
$LIMMIN
 10
0.0
 20
0.0
  9
$LIMMAX
 10
2100.0
 20
2970.0
  9
$ORTHOMODE
 70
     1
  9
$REGENMODE
 70
     1
  9
$FILLMODE
 70
     1
  9
$QTEXTMODE
 70
     0
  9
$MIRRTEXT
 70
     1
  9
$LTSCALE
 40
5.0
  9
$ATTMODE
 70
     1
  9
$TEXTSIZE
 40
2.5
  9
$TRACEWID
 40
1.0
  9
$TEXTSTYLE
  7
ＭＳ ゴシック
  9
$CLAYER
  8
DIM
  9
$CELTYPE
  6
ByLayer
  9
$CECOLOR
 62
   256
  9
$CELTSCALE
 40
1.0
  9
$DISPSILH
 70
     0
  9
$DIMSCALE
 40
1.0
  9
$DIMASZ
 40
10.0
  9
$DIMEXO
 40
30.0
  9
$DIMDLI
 40
0.9999999999999999
  9
$DIMRND
 40
0.0
  9
$DIMDLE
 40
0.0
  9
$DIMEXE
 40
0.0
  9
$DIMTP
 40
0.0
  9
$DIMTM
 40
0.0
  9
$DIMTXT
 40
24.0
  9
$DIMCEN
 40
0.0
  9
$DIMTSZ
 40
0.0
  9
$DIMTOL
 70
     0
  9
$DIMLIM
 70
     0
  9
$DIMTIH
 70
     0
  9
$DIMTOH
 70
     0
  9
$DIMSE1
 70
     0
  9
$DIMSE2
 70
     0
  9
$DIMTAD
 70
     1
  9
$DIMZIN
 70
    11
  9
$DIMBLK
  1
DOT
  9
$DIMASO
 70
     1
  9
$DIMSHO
 70
     1
  9
$DIMPOST
  1
<>
  9
$DIMAPOST
  1
[]
  9
$DIMALT
 70
     0
  9
$DIMALTD
 70
     1
  9
$DIMALTF
 40
1.0
  9
$DIMLFAC
 40
1.0
  9
$DIMTOFL
 70
     0
  9
$DIMTVP
 40
0.0
  9
$DIMTIX
 70
     1
  9
$DIMSOXD
 70
     0
  9
$DIMSAH
 70
     0
  9
$DIMBLK1
  1

  9
$DIMBLK2
  1

  9
$DIMSTYLE
  2
tfrom線あり
  9
$DIMCLRD
 70
     0
  9
$DIMCLRE
 70
     0
  9
$DIMCLRT
 70
     0
  9
$DIMTFAC
 40
1.0
  9
$DIMGAP
 40
20.0
  9
$DIMJUST
 70
     0
  9
$DIMSD1
 70
     0
  9
$DIMSD2
 70
     0
  9
$DIMTOLJ
 70
     1
  9
$DIMTZIN
 70
    11
  9
$DIMALTZ
 70
    11
  9
$DIMALTTZ
 70
    11
  9
$DIMUPT
 70
     0
  9
$DIMDEC
 70
     0
  9
$DIMTDEC
 70
     1
  9
$DIMALTU
 70
     2
  9
$DIMALTTD
 70
     2
  9
$DIMTXSTY
  7
ＭＳ ゴシック
  9
$DIMAUNIT
 70
     0
  9
$DIMADEC
 70
     2
  9
$DIMALTRND
 40
0.0
  9
$DIMAZIN
 70
     0
  9
$DIMDSEP
 70
    46
  9
$DIMATFIT
 70
     0
  9
$DIMFRAC
 70
     2
  9
$DIMLDRBLK
  1
DOT
  9
$DIMLUNIT
 70
     2
  9
$DIMLWD
 70
    -2
  9
$DIMLWE
 70
    -2
  9
$DIMTMOVE
 70
     0
  9
$DIMFXL
 40
1.0
  9
$DIMFXLON
 70
     0
  9
$DIMJOGANG
 40
0.7853981633974483
  9
$DIMTFILL
 70
     0
  9
$DIMTFILLCLR
 70
     0
  9
$DIMARCSYM
 70
     0
  9
$DIMLTYPE
  6

  9
$DIMLTEX1
  6

  9
$DIMLTEX2
  6

  9
$LUNITS
 70
     2
  9
$LUPREC
 70
     0
  9
$SKETCHINC
 40
0.1
  9
$FILLETRAD
 40
0.0
  9
$AUNITS
 70
     0
  9
$AUPREC
 70
     0
  9
$MENU
  1
acad
  9
$ELEVATION
 40
0.0
  9
$PELEVATION
 40
0.0
  9
$THICKNESS
 40
0.0
  9
$LIMCHECK
 70
     0
  9
$CHAMFERA
 40
0.0
  9
$CHAMFERB
 40
0.0
  9
$CHAMFERC
 40
0.0
  9
$CHAMFERD
 40
0.0
  9
$SKPOLY
 70
     0
  9
$TDCREATE
 40
2447893.375
  9
$TDUCREATE
 40
0.0
  9
$TDUPDATE
 40
2459450.724591493
  9
$TDUUPDATE
 40
2459450.349591493
  9
$TDINDWG
 40
0.2318033796
  9
$TDUSRTIMER
 40
0.0025836806
  9
$USRTIMER
 70
     1
  9
$ANGBASE
 50
0.0
  9
$ANGDIR
 70
     0
  9
$PDMODE
 70
     1
  9
$PDSIZE
 40
-2.0
  9
$PLINEWID
 40
0.0
  9
$SPLFRAME
 70
     0
  9
$SPLINETYPE
 70
     6
  9
$SPLINESEGS
 70
     8
  9
$HANDSEED
  5
429D
  9
$SURFTAB1
 70
     6
  9
$SURFTAB2
 70
     6
  9
$SURFTYPE
 70
     6
  9
$SURFU
 70
     6
  9
$SURFV
 70
     6
  9
$UCSBASE
  2

  9
$UCSNAME
  2

  9
$UCSORG
 10
0.0
 20
0.0
 30
0.0
  9
$UCSXDIR
 10
1.0
 20
0.0
 30
0.0
  9
$UCSYDIR
 10
0.0
 20
1.0
 30
0.0
  9
$UCSORTHOREF
  2

  9
$UCSORTHOVIEW
 70
     0
  9
$UCSORGTOP
 10
0.0
 20
0.0
 30
0.0
  9
$UCSORGBOTTOM
 10
0.0
 20
0.0
 30
0.0
  9
$UCSORGLEFT
 10
0.0
 20
0.0
 30
0.0
  9
$UCSORGRIGHT
 10
0.0
 20
0.0
 30
0.0
  9
$UCSORGFRONT
 10
0.0
 20
0.0
 30
0.0
  9
$UCSORGBACK
 10
0.0
 20
0.0
 30
0.0
  9
$PUCSBASE
  2

  9
$PUCSNAME
  2

  9
$PUCSORG
 10
0.0
 20
0.0
 30
0.0
  9
$PUCSXDIR
 10
1.0
 20
0.0
 30
0.0
  9
$PUCSYDIR
 10
0.0
 20
1.0
 30
0.0
  9
$PUCSORTHOREF
  2

  9
$PUCSORTHOVIEW
 70
     0
  9
$PUCSORGTOP
 10
0.0
 20
0.0
 30
0.0
  9
$PUCSORGBOTTOM
 10
0.0
 20
0.0
 30
0.0
  9
$PUCSORGLEFT
 10
0.0
 20
0.0
 30
0.0
  9
$PUCSORGRIGHT
 10
0.0
 20
0.0
 30
0.0
  9
$PUCSORGFRONT
 10
0.0
 20
0.0
 30
0.0
  9
$PUCSORGBACK
 10
0.0
 20
0.0
 30
0.0
  9
$USERI1
 70
     0
  9
$USERI2
 70
     0
  9
$USERI3
 70
     0
  9
$USERI4
 70
     0
  9
$USERI5
 70
     0
  9
$USERR1
 40
0.0
  9
$USERR2
 40
0.0
  9
$USERR3
 40
0.0
  9
$USERR4
 40
0.0
  9
$USERR5
 40
0.0
  9
$WORLDVIEW
 70
     1
  9
$SHADEDGE
 70
     3
  9
$SHADEDIF
 70
    70
  9
$TILEMODE
 70
     1
  9
$MAXACTVP
 70
    64
  9
$PINSBASE
 10
0.0
 20
0.0
 30
0.0
  9
$PLIMCHECK
 70
     0
  9
$PEXTMIN
 10
0.0
 20
0.0
 30
0.0
  9
$PEXTMAX
 10
0.0
 20
0.0
 30
0.0
  9
$PLIMMIN
 10
-7.5
 20
-20.0
  9
$PLIMMAX
 10
412.5
 20
277.0
  9
$UNITMODE
 70
     0
  9
$VISRETAIN
 70
     0
  9
$PLINEGEN
 70
     1
  9
$PSLTSCALE
 70
     0
  9
$TREEDEPTH
 70
  3020
  9
$CMLSTYLE
  2
Standard
  9
$CMLJUST
 70
     0
  9
$CMLSCALE
 40
1.0
  9
$PROXYGRAPHICS
 70
     0
  9
$MEASUREMENT
 70
     1
  9
$CELWEIGHT
370
    -1
  9
$ENDCAPS
280
     0
  9
$JOINSTYLE
280
     0
  9
$LWDISPLAY
290
     1
  9
$INSUNITS
 70
     4
  9
$HYPERLINKBASE
  1

  9
$STYLESHEET
  1

  9
$XEDIT
290
     1
  9
$CEPSNTYPE
380
     0
  9
$PSTYLEMODE
290
     1
  9
$FINGERPRINTGUID
  2

  9
$VERSIONGUID
  2

  9
$EXTNAMES
290
     1
  9
$PSVPSCALE
 40
0.0
  9
$OLESTARTUP
290
     0
  9
$SORTENTS
280
   127
  9
$INDEXCTL
280
     0
  9
$HIDETEXT
280
     1
  9
$XCLIPFRAME
290
     0
  9
$HALOGAP
280
     0
  9
$OBSCOLOR
 70
   257
  9
$OBSLTYPE
280
     0
  9
$INTERSECTIONDISPLAY
280
     0
  9
$INTERSECTIONCOLOR
 70
   257
  9
$DIMASSOC
280
     2
  9
$PROJECTNAME
  1

  9
$CAMERADISPLAY
290
     0
  9
$LENSLENGTH
 40
50.0
  9
$CAMERAHEIGHT
 40
0.0
  9
$STEPSPERSEC
 40
2.0
  9
$STEPSIZE
 40
6.0
  9
$3DDWFPREC
 40
2.0
  9
$PSOLWIDTH
 40
0.25
  9
$PSOLHEIGHT
 40
4.0
  9
$LOFTANG1
 40
1.570796326794897
  9
$LOFTANG2
 40
1.570796326794897
  9
$LOFTMAG1
 40
0.0
  9
$LOFTMAG2
 40
0.0
  9
$LOFTPARAM
 70
     7
  9
$LOFTNORMALS
280
     1
  9
$LATITUDE
 40
37.795
  9
$LONGITUDE
 40
-122.394
  9
$NORTHDIRECTION
 40
0.0
  9
$TIMEZONE
 70
 -8000
  9
$LIGHTGLYPHDISPLAY
280
     1
  9
$TILEMODELIGHTSYNCH
280
     1
  9
$SOLIDHIST
280
     1
  9
$SHOWHIST
280
     1
  9
$DWFFRAME
280
     2
  9
$DGNFRAME
280
     2
  9
$REALWORLDSCALE
290
     1
  9
$INTERFERECOLOR
 62
   256
  9
$CSHADOW
280
     0
  9
$SHADOWPLANELOCATION
 40
0.0
  0
ENDSEC
  0
SECTION
  2
CLASSES
  0
CLASS
  1
LWPOLYLINE
  2
AcDbPolyline
  3
ObjectDBX Classes
 90
        0
 91
        1
280
     0
281
     1
  0
CLASS
  1
IMAGE
  2
AcDbRasterImage
  3
ISM
 90
      127
 91
        4
280
     0
281
     1
  0
CLASS
  1
OLE2FRAME
  2
AcDbOle2Frame
  3
ObjectDBX Classes
 90
        0
 91
        1
280
     0
281
     1
  0
CLASS
  1
HATCH
  2
AcDbHatch
  3
ObjectDBX Classes
 90
        0
 91
        1
280
     0
281
     1
  0
CLASS
  1
DICTIONARYVAR
  2
AcDbDictionaryVar
  3
ObjectDBX Classes
 90
        0
 91
        3
280
     0
281
     0
  0
CLASS
  1
RASTERVARIABLES
  2
AcDbRasterVariables
  3
ISM
 90
        0
 91
        3
280
     0
281
     0
  0
CLASS
  1
IMAGEDEF
  2
AcDbRasterImageDef
  3
ISM
 90
        0
 91
        3
280
     0
281
     0
  0
CLASS
  1
IMAGEDEF_REACTOR
  2
AcDbRasterImageDefReactor
  3
ISM
 90
        1
 91
        3
280
     0
281
     0
  0
CLASS
  1
IDBUFFER
  2
AcDbIdBuffer
  3
ObjectDBX Classes
 90
        0
 91
        3
280
     0
281
     0
  0
CLASS
  1
SPATIAL_FILTER
  2
AcDbSpatialFilter
  3
ObjectDBX Classes
 90
        0
 91
        3
280
     0
281
     0
  0
CLASS
  1
XRECORD
  2
AcDbXrecord
  3
ObjectDBX Classes
 90
        0
 91
        1
280
     0
281
     0
  0
CLASS
  1
SORTENTSTABLE
  2
AcDbSortentsTable
  3
ObjectDBX Classes
 90
        0
 91
        3
280
     0
281
     0
  0
CLASS
  1
LAYER_INDEX
  2
AcDbLayerIndex
  3
ObjectDBX Classes
 90
        0
 91
        3
280
     0
281
     0
  0
CLASS
  1
SPATIAL_INDEX
  2
AcDbSpatialIndex
  3
AutoCAD 2000
 90
        0
 91
        3
280
     0
281
     0
  0
CLASS
  1
OBJECT_PTR
  2
CAseDLPNTableRecord
  3
ASE-LPNTableRecord
 90
        1
 91
        3
280
     0
281
     0
  0
CLASS
  1
LAYOUT
  2
AcDbLayout
  3
ObjectDBX Classes
 90
        0
 91
        1
280
     0
281
     0
  0
CLASS
  1
PLOTSETTINGS
  2
AcDbPlotSettings
  3
ObjectDBX Classes
 90
        0
 91
        3
280
     0
281
     0
  0
CLASS
  1
ACDBDICTIONARYWDFLT
  2
AcDbDictionaryWithDefault
  3
ObjectDBX Classes
 90
        0
 91
        3
280
     0
281
     0
  0
CLASS
  1
ACDBPLACEHOLDER
  2
AcDbPlaceHolder
  3
ObjectDBX Classes
 90
        0
 91
        1
280
     0
281
     0
  0
CLASS
  1
SCALE
  2
AcDbScale
  3
ObjectDBX Classes
 90
     1153
 91
        3
280
     0
281
     0
  0
CLASS
  1
MATERIAL
  2
AcDbMaterial
  3
ObjectDBX Classes
 90
     1153
 91
        3
280
     0
281
     0
  0
CLASS
  1
VISUALSTYLE
  2
AcDbVisualStyle
  3
ObjectDBX Classes
 90
     4095
 91
        3
280
     0
281
     0
  0
CLASS
  1
TABLESTYLE
  2
AcDbTableStyle
  3
ObjectDBX Classes
 90
     4095
 91
        3
280
     0
281
     0
  0
CLASS
  1
DIMASSOC
  2
AcDbDimAssoc
  3
"AcDbDimAssoc|Product Desc:     AcDim ARX App For Dimension|Company:          Autodesk, Inc.|WEB Address:      www.autodesk.com"
 90
        0
 91
        3
280
     0
281
     0
  0
CLASS
  1
CELLSTYLEMAP
  2
AcDbCellStyleMap
  3
ObjectDBX Classes
 90
     1152
 91
        3
280
     0
281
     0
  0
CLASS
  1
SUN
  2
AcDbSun
  3
SCENEOE
 90
     1153
 91
        3
280
     0
281
     0
  0
CLASS
  1
MLEADERSTYLE
  2
AcDbMLeaderStyle
  3
ACDB_MLEADERSTYLE_CLASS
 90
     4095
 91
        3
280
     0
281
     0
  0
CLASS
  1
FIELD
  2
AcDbField
  3
ObjectDBX Classes
 90
     1152
 91
        3
280
     0
281
     0
  0
CLASS
  1
FIELDLIST
  2
AcDbFieldList
  3
ObjectDBX Classes
 90
     1152
 91
        3
280
     0
281
     0
  0
CLASS
  1
MULTILEADER
  2
AcDbMLeader
  3
ACDB_MLEADER_CLASS
 90
     1025
 91
        3
280
     0
281
     1
  0
ENDSEC
  0
SECTION
  2
TABLES
  0
TABLE
  2
VPORT
  5
7
330
0
100
AcDbSymbolTable
 70
     1
  0
VPORT
  5
15
330
7
100
AcDbSymbolTableRecord
100
AcDbViewportTableRecord
  2
*ACTIVE
 70
     0
 10
0.0
 20
0.0
 11
1.0
 21
1.0
 12
1141.020135670901
 22
1411.401285469834
 13
0.0
 23
0.0
 14
1.0
 24
1.0
 15
0.0
 25
0.0
 16
0.0
 26
0.0
 36
1.0
 17
-91.02013567090125
 27
73.59871453016603
 37
-46.86809886248109
 40
3029.4
 41
2.226173541963016
 42
50.0
 43
0.0
 44
0.0
 50
0.0
 51
0.0
 71
    16
 72
  2000
 73
     1
 74
     1
 75
     0
 76
     0
 77
     0
 78
     0
281
     0
 65
     1
110
0.0
120
0.0
130
0.0
111
1.0
121
0.0
131
0.0
112
0.0
122
1.0
132
0.0
 79
     0
146
0.0
348
26C
 60
     3
 61
     5
292
     1
282
     1
141
0.0
142
0.0
 63
   256
361
904
  0
ENDTAB
  0
TABLE
  2
LTYPE
  5
4
330
0
100
AcDbSymbolTable
 70
     3
  0
LTYPE
  5
11
330
4
100
AcDbSymbolTableRecord
100
AcDbLinetypeTableRecord
  2
ByBlock
 70
     0
  3

 72
    65
 73
     0
 40
0.0
  0
LTYPE
  5
12
330
4
100
AcDbSymbolTableRecord
100
AcDbLinetypeTableRecord
  2
ByLayer
 70
     0
  3

 72
    65
 73
     0
 40
0.0
  0
LTYPE
  5
13
330
4
100
AcDbSymbolTableRecord
100
AcDbLinetypeTableRecord
  2
Continuous
 70
     0
  3
Solid line
 72
    65
 73
     0
 40
0.0
  0
LTYPE
  5
DAF
330
4
100
AcDbSymbolTableRecord
100
AcDbLinetypeTableRecord
  2
BORDER
 70
     0
  3
Border __  __  . __  __  . __  __  . __  __  . 
 72
    65
 73
     6
 40
44.45
 49
12.7
 74
     0
 49
-6.35
 74
     0
 49
12.7
 74
     0
 49
-6.35
 74
     0
 49
0.0
 74
     0
 49
-6.35
 74
     0
  0
LTYPE
  5
33DD
330
4
100
AcDbSymbolTableRecord
100
AcDbLinetypeTableRecord
  2
HIDDEN
 70
     0
  3
Hidden _ _ _ _ _ _ _ _ _ _ _ _ _ _ _ _ _ _ _ _ 
 72
    65
 73
     2
 40
9.524999999999999
 49
6.35
 74
     0
 49
-3.175
 74
     0
  0
ENDTAB
  0
TABLE
  2
LAYER
  5
2
102
{ACAD_XDICTIONARY
360
2E1
102
}
330
0
100
AcDbSymbolTable
 70
    10
  0
LAYER
  5
14
330
2
100
AcDbSymbolTableRecord
100
AcDbLayerTableRecord
  2
0
 70
     0
 62
     7
  6
Continuous
370
    -3
390
1D
347
266
  0
LAYER
  5
4B
330
2
100
AcDbSymbolTableRecord
100
AcDbLayerTableRecord
  2
TEMPLATE
 70
     0
 62
     7
  6
Continuous
370
    20
390
1D
347
266
  0
LAYER
  5
4C
330
2
100
AcDbSymbolTableRecord
100
AcDbLayerTableRecord
  2
DIM
 70
     0
 62
     3
  6
Continuous
370
    13
390
1D
347
266
  0
LAYER
  5
D5D
330
2
100
AcDbSymbolTableRecord
100
AcDbLayerTableRecord
  2
Defpoints
 70
     0
 62
     7
  6
Continuous
290
     0
370
    -3
390
1D
347
266
  0
LAYER
  5
DAE
330
2
100
AcDbSymbolTableRecord
100
AcDbLayerTableRecord
  2
BORDER
 70
     0
 62
     4
  6
BORDER
290
     0
370
    20
390
1D
347
266
1001
AcAecLayerStandard
1000

1000

  0
LAYER
  5
157B
330
2
100
AcDbSymbolTableRecord
100
AcDbLayerTableRecord
  2
Layer3
 70
     0
 62
     7
  6
Continuous
370
    -3
390
1D
347
266
  0
LAYER
  5
157F
330
2
100
AcDbSymbolTableRecord
100
AcDbLayerTableRecord
  2
Layer9
 70
     0
 62
     7
  6
Continuous
370
    -3
390
1D
347
266
  0
LAYER
  5
1582
330
2
100
AcDbSymbolTableRecord
100
AcDbLayerTableRecord
  2
Standard
 70
     0
 62
     7
  6
Continuous
370
    -3
390
1D
347
266
  0
LAYER
  5
33DC
330
2
100
AcDbSymbolTableRecord
100
AcDbLayerTableRecord
  2
HIDDEN
 70
     0
 62
     8
  6
HIDDEN
370
    20
390
1D
347
266
1001
AcAecLayerStandard
1000

1000

  0
LAYER
  5
3777
330
2
100
AcDbSymbolTableRecord
100
AcDbLayerTableRecord
  2
レイヤー 1
 70
     0
 62
     7
  6
Continuous
370
    -3
390
1D
347
266
  0
ENDTAB
  0
TABLE
  2
STYLE
  5
3
330
0
100
AcDbSymbolTable
 70
     2
  0
STYLE
  5
17
330
3
100
AcDbSymbolTableRecord
100
AcDbTextStyleTableRecord
  2
Standard
 70
     0
 40
0.0
 41
1.0
 50
0.0
 71
     0
 42
2.5
  3
txt
  4
BIGFONT.SHX
  0
STYLE
  5
39
330
3
100
AcDbSymbolTableRecord
100
AcDbTextStyleTableRecord
  2
ＭＳ ゴシック
 70
     0
 40
0.0
 41
1.0
 50
0.0
 71
     0
 42
2.5
  3
msgothic.ttc
  4
ＭＳ ゴシック
1001
ACAD
1000
ＭＳ ゴシック
1071
        0
  0
ENDTAB
  0
TABLE
  2
VIEW
  5
5
330
0
100
AcDbSymbolTable
 70
     0
  0
ENDTAB
  0
TABLE
  2
UCS
  5
6
330
0
100
AcDbSymbolTable
 70
     0
  0
ENDTAB
  0
TABLE
  2
APPID
  5
8
330
0
100
AcDbSymbolTable
 70
     4
  0
APPID
  5
16
330
8
100
AcDbSymbolTableRecord
100
AcDbRegAppTableRecord
  2
ACAD
 70
     0
  0
APPID
  5
7AC
330
8
100
AcDbSymbolTableRecord
100
AcDbRegAppTableRecord
  2
AcAecLayerStandard
 70
     0
  0
APPID
  5
F3A
330
8
100
AcDbSymbolTableRecord
100
AcDbRegAppTableRecord
  2
ACAD_MLEADERVER
 70
     0
  0
APPID
  5
41CE
330
8
100
AcDbSymbolTableRecord
100
AcDbRegAppTableRecord
  2
PLOTTRANSPARENCY
 70
     0
  0
ENDTAB
  0
TABLE
  2
DIMSTYLE
  5
9
330
0
100
AcDbSymbolTable
 70
     1
100
AcDbDimStyleTable
  0
DIMSTYLE
105
57
102
{ACAD_REACTORS
330
40AA
330
40C7
330
40D4
330
40E1
330
40F1
330
40FE
330
410C
330
4119
330
414C
330
4168
330
41A2
330
4220
330
423C
330
4268
102
}
330
9
100
AcDbSymbolTableRecord
100
AcDbDimStyleTableRecord
  2
tfrom線あり
 70
     0
  3
<>
  4
[]
 41
10.0
 42
30.0
 43
0.9999999999999999
 44
0.0
 73
     0
 74
     0
 77
     1
 78
    11
140
24.0
141
0.0
143
1.0
147
20.0
171
     1
174
     1
178
     0
179
     2
271
     0
272
     1
276
     2
284
    11
285
    11
286
    11
289
     0
340
39
341
4E
342
4E
  0
ENDTAB
  0
TABLE
  2
BLOCK_RECORD
  5
1
330
0
100
AcDbSymbolTable
 70
    23
  0
BLOCK_RECORD
  5
A
102
{ACAD_XDICTIONARY
360
374D
102
}
330
1
100
AcDbSymbolTableRecord
100
AcDbBlockTableRecord
  2
*MODEL_SPACE
340
20
 70
     0
280
     1
281
     0
  0
BLOCK_RECORD
  5
B
330
1
100
AcDbSymbolTableRecord
100
AcDbBlockTableRecord
  2
*PAPER_SPACE
340
21
 70
     0
280
     1
281
     0
  0
BLOCK_RECORD
  5
4E
330
1
100
AcDbSymbolTableRecord
100
AcDbBlockTableRecord
  2
_DOT
340
0
102
{BLKREFS
331
40B1
331
40B2
331
40CE
331
40CF
331
40DB
331
40DC
331
40E8
331
40E9
331
40F8
331
40F9
331
4105
331
4106
331
4113
331
4114
331
4122
331
4123
331
4141
331
4142
331
4153
331
4154
331
416F
331
4170
331
419C
331
419D
331
41AB
331
41AC
331
41ED
331
41EE
331
4227
331
4228
331
4236
331
4237
331
4244
331
4245
331
4262
331
4263
331
4271
331
4272
102
}
 70
     0
280
     1
281
     0
  0
BLOCK_RECORD
  5
68D
330
1
100
AcDbSymbolTableRecord
100
AcDbBlockTableRecord
  2
block 2
340
0
102
{BLKREFS
331
68C
102
}
 70
     0
280
     1
281
     0
  0
BLOCK_RECORD
  5
199A
330
1
100
AcDbSymbolTableRecord
100
AcDbBlockTableRecord
  2
SEANNOT_GROUP
340
0
102
{BLKREFS
331
28CA
102
}
 70
     0
280
     1
281
     0
  0
BLOCK_RECORD
  5
1F2F
330
1
100
AcDbSymbolTableRecord
100
AcDbBlockTableRecord
  2
SEANNOT_GROUP1
340
0
102
{BLKREFS
331
2B9B
102
}
 70
     0
280
     1
281
     0
  0
BLOCK_RECORD
  5
40AB
330
1
100
AcDbSymbolTableRecord
100
AcDbBlockTableRecord
  2
*D4
340
0
 70
     0
280
     1
281
     0
  0
BLOCK_RECORD
  5
40C8
330
1
100
AcDbSymbolTableRecord
100
AcDbBlockTableRecord
  2
*D5
340
0
 70
     0
280
     1
281
     0
  0
BLOCK_RECORD
  5
40D5
330
1
100
AcDbSymbolTableRecord
100
AcDbBlockTableRecord
  2
*D6
340
0
 70
     0
280
     1
281
     0
  0
BLOCK_RECORD
  5
40E2
330
1
100
AcDbSymbolTableRecord
100
AcDbBlockTableRecord
  2
*D7
340
0
 70
     0
280
     1
281
     0
  0
BLOCK_RECORD
  5
40F2
330
1
100
AcDbSymbolTableRecord
100
AcDbBlockTableRecord
  2
*D8
340
0
 70
     0
280
     1
281
     0
  0
BLOCK_RECORD
  5
40FF
330
1
100
AcDbSymbolTableRecord
100
AcDbBlockTableRecord
  2
*D9
340
0
 70
     0
280
     1
281
     0
  0
BLOCK_RECORD
  5
410D
330
1
100
AcDbSymbolTableRecord
100
AcDbBlockTableRecord
  2
*D10
340
0
 70
     0
280
     1
281
     0
  0
BLOCK_RECORD
  5
411C
330
1
100
AcDbSymbolTableRecord
100
AcDbBlockTableRecord
  2
*D11
340
0
 70
     0
280
     1
281
     0
  0
BLOCK_RECORD
  5
4139
330
1
100
AcDbSymbolTableRecord
100
AcDbBlockTableRecord
  2
*D12
340
0
 70
     0
280
     1
281
     0
  0
BLOCK_RECORD
  5
414D
330
1
100
AcDbSymbolTableRecord
100
AcDbBlockTableRecord
  2
*D13
340
0
 70
     0
280
     1
281
     0
  0
BLOCK_RECORD
  5
4169
330
1
100
AcDbSymbolTableRecord
100
AcDbBlockTableRecord
  2
*D14
340
0
 70
     0
280
     1
281
     0
  0
BLOCK_RECORD
  5
4196
330
1
100
AcDbSymbolTableRecord
100
AcDbBlockTableRecord
  2
*D15
340
0
 70
     0
280
     1
281
     0
  0
BLOCK_RECORD
  5
41A3
330
1
100
AcDbSymbolTableRecord
100
AcDbBlockTableRecord
  2
*D16
340
0
 70
     0
280
     1
281
     0
  0
BLOCK_RECORD
  5
41E7
330
1
100
AcDbSymbolTableRecord
100
AcDbBlockTableRecord
  2
*D17
340
0
 70
     0
280
     1
281
     0
  0
BLOCK_RECORD
  5
4221
330
1
100
AcDbSymbolTableRecord
100
AcDbBlockTableRecord
  2
*D18
340
0
 70
     0
280
     1
281
     0
  0
BLOCK_RECORD
  5
4230
330
1
100
AcDbSymbolTableRecord
100
AcDbBlockTableRecord
  2
*D19
340
0
 70
     0
280
     1
281
     0
  0
BLOCK_RECORD
  5
423E
330
1
100
AcDbSymbolTableRecord
100
AcDbBlockTableRecord
  2
*D20
340
0
 70
     0
280
     1
281
     0
  0
BLOCK_RECORD
  5
425A
330
1
100
AcDbSymbolTableRecord
100
AcDbBlockTableRecord
  2
*D21
340
0
 70
     0
280
     1
281
     0
  0
BLOCK_RECORD
  5
4269
330
1
100
AcDbSymbolTableRecord
100
AcDbBlockTableRecord
  2
*D22
340
0
 70
     0
280
     1
281
     0
  0
ENDTAB
  0
ENDSEC
  0
SECTION
  2
BLOCKS
  0
BLOCK
  5
D
330
A
100
AcDbEntity
  8
0
390
1D
100
AcDbBlockBegin
  2
*MODEL_SPACE
 70
     0
 10
0.0
 20
0.0
 30
0.0
  3
*MODEL_SPACE
  1
*MODEL_SPACE
  0
ENDBLK
  5
E
330
A
100
AcDbEntity
  8
0
390
1D
100
AcDbBlockEnd
  0
BLOCK
  5
F
330
B
100
AcDbEntity
 67
     1
  8
0
390
1D
100
AcDbBlockBegin
  2
*PAPER_SPACE
 70
     0
 10
0.0
 20
0.0
 30
0.0
  3
*PAPER_SPACE
  1
*PAPER_SPACE
  0
ENDBLK
  5
10
330
B
100
AcDbEntity
 67
     1
  8
0
390
1D
100
AcDbBlockEnd
  0
BLOCK
  5
EC4
330
4E
100
AcDbEntity
  8
0
390
1D
100
AcDbBlockBegin
  2
_DOT
 70
     0
 10
0.0
 20
0.0
 30
0.0
  3
_DOT
  1
_DOT
  0
POLYLINE
  5
EC6
330
4E
100
AcDbEntity
  8
0
  6
ByBlock
 62
     0
370
    -2
390
1D
100
AcDb2dPolyline
 66
     1
 10
0.0
 20
0.0
 30
0.0
 70
     1
 40
0.5
 41
0.5
  0
VERTEX
  5
EC7
330
EC6
100
AcDbEntity
  8
0
  6
ByBlock
 62
     0
370
    -2
390
1D
100
AcDbVertex
100
AcDb2dVertex
 10
-0.25
 20
0.0
 30
0.0
 42
1.0
  0
VERTEX
  5
EC8
330
EC6
100
AcDbEntity
  8
0
  6
ByBlock
 62
     0
370
    -2
390
1D
100
AcDbVertex
100
AcDb2dVertex
 10
0.25
 20
0.0
 30
0.0
 42
1.0
  0
SEQEND
  5
EC9
330
EC6
100
AcDbEntity
  8
0
390
1D
  0
LINE
  5
ECA
330
4E
100
AcDbEntity
  8
0
  6
ByBlock
 62
     0
370
    -2
390
1D
100
AcDbLine
 10
-0.5
 20
0.0
 30
0.0
 11
-1.0
 21
0.0
 31
0.0
  0
ENDBLK
  5
ECB
330
4E
100
AcDbEntity
  8
0
390
1D
100
AcDbBlockEnd
  0
BLOCK
  5
68E
330
68D
100
AcDbEntity
  8
0
100
AcDbBlockBegin
  2
block 2
 70
     0
 10
0.0
 20
0.0
 30
0.0
  3
block 2
  1
block 2
  0
ENDBLK
  5
6B0
330
68D
100
AcDbEntity
  8
0
100
AcDbBlockEnd
  0
BLOCK
  5
199B
330
199A
100
AcDbEntity
  8
0
100
AcDbBlockBegin
  2
SEANNOT_GROUP
 70
     0
 10
0.0
 20
0.0
 30
0.0
  3
SEANNOT_GROUP
  1
SEANNOT_GROUP
  0
ENDBLK
  5
199C
330
199A
100
AcDbEntity
  8
0
100
AcDbBlockEnd
  0
BLOCK
  5
1F30
330
1F2F
100
AcDbEntity
  8
0
100
AcDbBlockBegin
  2
SEANNOT_GROUP1
 70
     0
 10
0.0
 20
0.0
 30
0.0
  3
SEANNOT_GROUP1
  1
SEANNOT_GROUP1
  0
ENDBLK
  5
1F31
330
1F2F
100
AcDbEntity
  8
0
100
AcDbBlockEnd
  0
BLOCK
  5
40AC
330
40AB
100
AcDbEntity
  8
0
100
AcDbBlockBegin
  2
*D4
 70
     1
 10
0.0
 20
0.0
 30
0.0
  3
*D4
  1

  0
LINE
  5
40AE
330
40AB
100
AcDbEntity
  8
DIM
 62
     0
370
    -2
100
AcDbLine
 10
447.1069477635342
 20
2318.481208097572
 30
0.0
 11
447.1069477635342
 21
2493.331256495882
 31
0.0
  0
LINE
  5
40AF
330
40AB
100
AcDbEntity
  8
DIM
 62
     0
370
    -2
100
AcDbLine
 10
997.1069477635342
 20
2318.481208097571
 30
0.0
 11
997.1069477635342
 21
2493.331256495882
 31
0.0
  0
LINE
  5
40B0
330
40AB
100
AcDbEntity
  8
DIM
 62
     0
370
    -2
100
AcDbLine
 10
457.1069477635342
 20
2493.331256495882
 30
0.0
 11
987.1069477635342
 21
2493.331256495882
 31
0.0
  0
INSERT
  5
40B1
330
40AB
100
AcDbEntity
  8
DIM
 62
     0
370
    -2
100
AcDbBlockReference
  2
_DOT
 10
447.1069477635342
 20
2493.331256495882
 30
0.0
 41
10.0
 42
10.0
 43
10.0
 50
180.0
  0
INSERT
  5
40B2
330
40AB
100
AcDbEntity
  8
DIM
 62
     0
370
    -2
100
AcDbBlockReference
  2
_DOT
 10
997.1069477635342
 20
2493.331256495882
 30
0.0
 41
10.0
 42
10.0
 43
10.0
  0
MTEXT
  5
40B3
330
40AB
100
AcDbEntity
  8
DIM
 62
     0
100
AcDbMText
 10
722.1069477635342
 20
2525.335758184016
 30
0.0
 40
24.0
 41
0.0
 46
0.0
 71
     5
 72
     1
  1
\A1;550
  7
ＭＳ ゴシック
 73
     1
 44
1.0
  0
POINT
  5
40B4
330
40AB
100
AcDbEntity
  8
Defpoints
 62
     0
100
AcDbPoint
 10
447.1069477635342
 20
2288.481208097572
 30
0.0
  0
POINT
  5
40B5
330
40AB
100
AcDbEntity
  8
Defpoints
 62
     0
100
AcDbPoint
 10
997.1069477635342
 20
2288.481208097571
 30
0.0
  0
POINT
  5
40B6
330
40AB
100
AcDbEntity
  8
Defpoints
 62
     0
100
AcDbPoint
 10
997.1069477635342
 20
2493.331256495882
 30
0.0
  0
ENDBLK
  5
40AD
330
40AB
100
AcDbEntity
  8
0
100
AcDbBlockEnd
  0
BLOCK
  5
40C9
330
40C8
100
AcDbEntity
  8
0
100
AcDbBlockBegin
  2
*D5
 70
     1
 10
0.0
 20
0.0
 30
0.0
  3
*D5
  1

  0
LINE
  5
40CB
330
40C8
100
AcDbEntity
  8
DIM
 62
     0
370
    -2
100
AcDbLine
 10
930.9941107867867
 20
2410.141997446081
 30
0.0
 11
1057.602038450627
 21
2410.14199744608
 31
0.0
  0
LINE
  5
40CC
330
40C8
100
AcDbEntity
  8
DIM
 62
     0
370
    -2
100
AcDbLine
 10
930.994110786786
 20
2030.14199744608
 30
0.0
 11
1057.602038450626
 21
2030.14199744608
 31
0.0
  0
LINE
  5
40CD
330
40C8
100
AcDbEntity
  8
DIM
 62
     0
370
    -2
100
AcDbLine
 10
1057.602038450627
 20
2400.14199744608
 30
0.0
 11
1057.602038450626
 21
2040.14199744608
 31
0.0
  0
INSERT
  5
40CE
330
40C8
100
AcDbEntity
  8
DIM
 62
     0
370
    -2
100
AcDbBlockReference
  2
_DOT
 10
1057.602038450627
 20
2410.14199744608
 30
0.0
 41
10.0
 42
10.0
 43
10.0
 50
89.9999999999999
  0
INSERT
  5
40CF
330
40C8
100
AcDbEntity
  8
DIM
 62
     0
370
    -2
100
AcDbBlockReference
  2
_DOT
 10
1057.602038450626
 20
2030.14199744608
 30
0.0
 41
10.0
 42
10.0
 43
10.0
 50
269.9999999999999
  0
MTEXT
  5
40D0
330
40C8
100
AcDbEntity
  8
DIM
 62
     0
100
AcDbMText
 10
1025.597536762494
 20
2220.14199744608
 30
0.0
 40
24.0
 41
0.0
 46
0.0
 71
     5
 72
     1
  1
\A1;380
  7
ＭＳ ゴシック
 11
1.795055332446568E-15
 21
1.0
 31
0.0
 73
     1
 44
1.0
  0
POINT
  5
40D1
330
40C8
100
AcDbEntity
  8
Defpoints
 62
     0
100
AcDbPoint
 10
900.9941107867867
 20
2410.141997446081
 30
0.0
  0
POINT
  5
40D2
330
40C8
100
AcDbEntity
  8
Defpoints
 62
     0
100
AcDbPoint
 10
900.994110786786
 20
2030.14199744608
 30
0.0
  0
POINT
  5
40D3
330
40C8
100
AcDbEntity
  8
Defpoints
 62
     0
100
AcDbPoint
 10
1057.602038450626
 20
2030.14199744608
 30
0.0
  0
ENDBLK
  5
40CA
330
40C8
100
AcDbEntity
  8
0
100
AcDbBlockEnd
  0
BLOCK
  5
40D6
330
40D5
100
AcDbEntity
  8
0
100
AcDbBlockBegin
  2
*D6
 70
     1
 10
0.0
 20
0.0
 30
0.0
  3
*D6
  1

  0
LINE
  5
40D8
330
40D5
100
AcDbEntity
  8
DIM
 62
     0
370
    -2
100
AcDbLine
 10
532.5702926527473
 20
2402.796243696637
 30
0.0
 11
349.8920779001818
 21
2402.796243696637
 31
0.0
  0
LINE
  5
40D9
330
40D5
100
AcDbEntity
  8
DIM
 62
     0
370
    -2
100
AcDbLine
 10
532.5702926527475
 20
2042.796243696637
 30
0.0
 11
349.8920779001818
 21
2042.796243696637
 31
0.0
  0
LINE
  5
40DA
330
40D5
100
AcDbEntity
  8
DIM
 62
     0
370
    -2
100
AcDbLine
 10
349.8920779001818
 20
2392.796243696637
 30
0.0
 11
349.8920779001818
 21
2052.796243696637
 31
0.0
  0
INSERT
  5
40DB
330
40D5
100
AcDbEntity
  8
DIM
 62
     0
370
    -2
100
AcDbBlockReference
  2
_DOT
 10
349.8920779001818
 20
2402.796243696637
 30
0.0
 41
10.0
 42
10.0
 43
10.0
 50
90.0
  0
INSERT
  5
40DC
330
40D5
100
AcDbEntity
  8
DIM
 62
     0
370
    -2
100
AcDbBlockReference
  2
_DOT
 10
349.8920779001818
 20
2042.796243696637
 30
0.0
 41
10.0
 42
10.0
 43
10.0
 50
270.0
  0
MTEXT
  5
40DD
330
40D5
100
AcDbEntity
  8
DIM
 62
     0
100
AcDbMText
 10
317.8875762120487
 20
2222.796243696637
 30
0.0
 40
24.0
 41
0.0
 46
0.0
 71
     5
 72
     1
  1
\A1;360
  7
ＭＳ ゴシック
 11
0.0
 21
1.0
 31
0.0
 73
     1
 44
1.0
  0
POINT
  5
40DE
330
40D5
100
AcDbEntity
  8
Defpoints
 62
     0
100
AcDbPoint
 10
562.5702926527473
 20
2402.796243696637
 30
0.0
  0
POINT
  5
40DF
330
40D5
100
AcDbEntity
  8
Defpoints
 62
     0
100
AcDbPoint
 10
562.5702926527475
 20
2042.796243696637
 30
0.0
  0
POINT
  5
40E0
330
40D5
100
AcDbEntity
  8
Defpoints
 62
     0
100
AcDbPoint
 10
349.8920779001818
 20
2042.796243696637
 30
0.0
  0
ENDBLK
  5
40D7
330
40D5
100
AcDbEntity
  8
0
100
AcDbBlockEnd
  0
BLOCK
  5
40E3
330
40E2
100
AcDbEntity
  8
0
100
AcDbBlockBegin
  2
*D7
 70
     1
 10
0.0
 20
0.0
 30
0.0
  3
*D7
  1

  0
LINE
  5
40E5
330
40E2
100
AcDbEntity
  8
DIM
 62
     0
370
    -2
100
AcDbLine
 10
456.2936437153194
 20
2115.14069557663
 30
0.0
 11
456.2936437153194
 21
1941.249285364421
 31
0.0
  0
LINE
  5
40E6
330
40E2
100
AcDbEntity
  8
DIM
 62
     0
370
    -2
100
AcDbLine
 10
986.2936437153194
 20
2115.14069557663
 30
0.0
 11
986.2936437153194
 21
1941.249285364421
 31
0.0
  0
LINE
  5
40E7
330
40E2
100
AcDbEntity
  8
DIM
 62
     0
370
    -2
100
AcDbLine
 10
466.2936437153194
 20
1941.249285364421
 30
0.0
 11
976.2936437153194
 21
1941.249285364421
 31
0.0
  0
INSERT
  5
40E8
330
40E2
100
AcDbEntity
  8
DIM
 62
     0
370
    -2
100
AcDbBlockReference
  2
_DOT
 10
456.2936437153194
 20
1941.249285364421
 30
0.0
 41
10.0
 42
10.0
 43
10.0
 50
180.0
  0
INSERT
  5
40E9
330
40E2
100
AcDbEntity
  8
DIM
 62
     0
370
    -2
100
AcDbBlockReference
  2
_DOT
 10
986.2936437153194
 20
1941.249285364421
 30
0.0
 41
10.0
 42
10.0
 43
10.0
  0
MTEXT
  5
40EA
330
40E2
100
AcDbEntity
  8
DIM
 62
     0
100
AcDbMText
 10
721.2936437153194
 20
1973.253787052555
 30
0.0
 40
24.0
 41
0.0
 46
0.0
 71
     5
 72
     1
  1
\A1;530
  7
ＭＳ ゴシック
 73
     1
 44
1.0
  0
POINT
  5
40EB
330
40E2
100
AcDbEntity
  8
Defpoints
 62
     0
100
AcDbPoint
 10
456.2936437153194
 20
2145.14069557663
 30
0.0
  0
POINT
  5
40EC
330
40E2
100
AcDbEntity
  8
Defpoints
 62
     0
100
AcDbPoint
 10
986.2936437153194
 20
2145.14069557663
 30
0.0
  0
POINT
  5
40ED
330
40E2
100
AcDbEntity
  8
Defpoints
 62
     0
100
AcDbPoint
 10
986.2936437153194
 20
1941.249285364421
 30
0.0
  0
ENDBLK
  5
40E4
330
40E2
100
AcDbEntity
  8
0
100
AcDbBlockEnd
  0
BLOCK
  5
40F3
330
40F2
100
AcDbEntity
  8
0
100
AcDbBlockBegin
  2
*D8
 70
     1
 10
0.0
 20
0.0
 30
0.0
  3
*D8
  1

  0
LINE
  5
40F5
330
40F2
100
AcDbEntity
  8
DIM
 62
     0
370
    -2
100
AcDbLine
 10
1008.172862755516
 20
1563.084173446332
 30
0.0
 11
1101.032013528142
 21
1563.084173446332
 31
0.0
  0
LINE
  5
40F6
330
40F2
100
AcDbEntity
  8
DIM
 62
     0
370
    -2
100
AcDbLine
 10
937.8240854359026
 20
723.0841734463322
 30
0.0
 11
1101.032013528142
 21
723.0841734463322
 31
0.0
  0
LINE
  5
40F7
330
40F2
100
AcDbEntity
  8
DIM
 62
     0
370
    -2
100
AcDbLine
 10
1101.032013528142
 20
1553.084173446332
 30
0.0
 11
1101.032013528142
 21
733.0841734463322
 31
0.0
  0
INSERT
  5
40F8
330
40F2
100
AcDbEntity
  8
DIM
 62
     0
370
    -2
100
AcDbBlockReference
  2
_DOT
 10
1101.032013528142
 20
1563.084173446332
 30
0.0
 41
10.0
 42
10.0
 43
10.0
 50
90.0
  0
INSERT
  5
40F9
330
40F2
100
AcDbEntity
  8
DIM
 62
     0
370
    -2
100
AcDbBlockReference
  2
_DOT
 10
1101.032013528142
 20
723.0841734463322
 30
0.0
 41
10.0
 42
10.0
 43
10.0
 50
270.0
  0
MTEXT
  5
40FA
330
40F2
100
AcDbEntity
  8
DIM
 62
     0
100
AcDbMText
 10
1069.032013528142
 20
1143.084173446332
 30
0.0
 40
24.0
 41
0.0
 46
0.0
 71
     5
 72
     1
  1
\A1;840
  7
ＭＳ ゴシック
 11
0.0
 21
1.0
 31
0.0
 73
     1
 44
1.0
  0
POINT
  5
40FB
330
40F2
100
AcDbEntity
  8
Defpoints
 62
     0
100
AcDbPoint
 10
978.172862755516
 20
1563.084173446332
 30
0.0
  0
POINT
  5
40FC
330
40F2
100
AcDbEntity
  8
Defpoints
 62
     0
100
AcDbPoint
 10
907.8240854359026
 20
723.0841734463322
 30
0.0
  0
POINT
  5
40FD
330
40F2
100
AcDbEntity
  8
Defpoints
 62
     0
100
AcDbPoint
 10
1101.032013528142
 20
723.0841734463322
 30
0.0
  0
ENDBLK
  5
40F4
330
40F2
100
AcDbEntity
  8
0
100
AcDbBlockEnd
  0
BLOCK
  5
4100
330
40FF
100
AcDbEntity
  8
0
100
AcDbBlockBegin
  2
*D9
 70
     1
 10
0.0
 20
0.0
 30
0.0
  3
*D9
  1

  0
LINE
  5
4102
330
40FF
100
AcDbEntity
  8
DIM
 62
     0
370
    -2
100
AcDbLine
 10
532.8880008575743
 20
670.2007256454258
 30
0.0
 11
532.8880008575743
 21
615.2135616045828
 31
0.0
  0
LINE
  5
4103
330
40FF
100
AcDbEntity
  8
DIM
 62
     0
370
    -2
100
AcDbLine
 10
902.8880008575743
 20
670.2007256454259
 30
0.0
 11
902.8880008575743
 21
615.2135616045828
 31
0.0
  0
LINE
  5
4104
330
40FF
100
AcDbEntity
  8
DIM
 62
     0
370
    -2
100
AcDbLine
 10
542.8880008575743
 20
615.2135616045828
 30
0.0
 11
892.8880008575743
 21
615.2135616045828
 31
0.0
  0
INSERT
  5
4105
330
40FF
100
AcDbEntity
  8
DIM
 62
     0
370
    -2
100
AcDbBlockReference
  2
_DOT
 10
532.8880008575743
 20
615.2135616045828
 30
0.0
 41
10.0
 42
10.0
 43
10.0
 50
180.0
  0
INSERT
  5
4106
330
40FF
100
AcDbEntity
  8
DIM
 62
     0
370
    -2
100
AcDbBlockReference
  2
_DOT
 10
902.8880008575743
 20
615.2135616045828
 30
0.0
 41
10.0
 42
10.0
 43
10.0
  0
MTEXT
  5
4107
330
40FF
100
AcDbEntity
  8
DIM
 62
     0
100
AcDbMText
 10
717.8880008575743
 20
647.2180632927158
 30
0.0
 40
24.0
 41
0.0
 46
0.0
 71
     5
 72
     1
  1
\A1;370
  7
ＭＳ ゴシック
 73
     1
 44
1.0
  0
POINT
  5
4108
330
40FF
100
AcDbEntity
  8
Defpoints
 62
     0
100
AcDbPoint
 10
532.8880008575743
 20
700.2007256454258
 30
0.0
  0
POINT
  5
4109
330
40FF
100
AcDbEntity
  8
Defpoints
 62
     0
100
AcDbPoint
 10
902.8880008575743
 20
700.2007256454259
 30
0.0
  0
POINT
  5
410A
330
40FF
100
AcDbEntity
  8
Defpoints
 62
     0
100
AcDbPoint
 10
902.8880008575743
 20
615.2135616045828
 30
0.0
  0
ENDBLK
  5
4101
330
40FF
100
AcDbEntity
  8
0
100
AcDbBlockEnd
  0
BLOCK
  5
410E
330
410D
100
AcDbEntity
  8
0
100
AcDbBlockBegin
  2
*D10
 70
     1
 10
0.0
 20
0.0
 30
0.0
  3
*D10
  1

  0
LINE
  5
4110
330
410D
100
AcDbEntity
  8
DIM
 62
     0
370
    -2
100
AcDbLine
 10
515.759192578731
 20
722.8454840321099
 30
0.0
 11
342.775232864535
 21
722.8454840321099
 31
0.0
  0
LINE
  5
4111
330
410D
100
AcDbEntity
  8
DIM
 62
     0
370
    -2
100
AcDbLine
 10
583.5881694612175
 20
1402.84548403211
 30
0.0
 11
342.775232864535
 21
1402.84548403211
 31
0.0
  0
LINE
  5
4112
330
410D
100
AcDbEntity
  8
DIM
 62
     0
370
    -2
100
AcDbLine
 10
342.775232864535
 20
732.8454840321099
 30
0.0
 11
342.775232864535
 21
1392.84548403211
 31
0.0
  0
INSERT
  5
4113
330
410D
100
AcDbEntity
  8
DIM
 62
     0
370
    -2
100
AcDbBlockReference
  2
_DOT
 10
342.775232864535
 20
722.8454840321099
 30
0.0
 41
10.0
 42
10.0
 43
10.0
 50
270.0
  0
INSERT
  5
4114
330
410D
100
AcDbEntity
  8
DIM
 62
     0
370
    -2
100
AcDbBlockReference
  2
_DOT
 10
342.775232864535
 20
1402.84548403211
 30
0.0
 41
10.0
 42
10.0
 43
10.0
 50
90.0
  0
MTEXT
  5
4115
330
410D
100
AcDbEntity
  8
DIM
 62
     0
100
AcDbMText
 10
310.775232864535
 20
1062.84548403211
 30
0.0
 40
24.0
 41
0.0
 46
0.0
 71
     5
 72
     1
  1
\A1;680
  7
ＭＳ ゴシック
 11
8.359326303060002E-17
 21
1.0
 31
0.0
 73
     1
 44
1.0
  0
POINT
  5
4116
330
410D
100
AcDbEntity
  8
Defpoints
 62
     0
100
AcDbPoint
 10
545.759192578731
 20
722.8454840321099
 30
0.0
  0
POINT
  5
4117
330
410D
100
AcDbEntity
  8
Defpoints
 62
     0
100
AcDbPoint
 10
613.5881694612175
 20
1402.84548403211
 30
0.0
  0
POINT
  5
4118
330
410D
100
AcDbEntity
  8
Defpoints
 62
     0
100
AcDbPoint
 10
342.775232864535
 20
1402.84548403211
 30
0.0
  0
ENDBLK
  5
410F
330
410D
100
AcDbEntity
  8
0
100
AcDbBlockEnd
  0
BLOCK
  5
411D
330
411C
100
AcDbEntity
  8
0
100
AcDbBlockBegin
  2
*D11
 70
     1
 10
0.0
 20
0.0
 30
0.0
  3
*D11
  1

  0
LINE
  5
411F
330
411C
100
AcDbEntity
  8
DIM
 62
     0
370
    -2
100
AcDbLine
 10
583.5881694612175
 20
1402.84548403211
 30
0.0
 11
342.775232864535
 21
1402.84548403211
 31
0.0
  0
LINE
  5
4120
330
411C
100
AcDbEntity
  8
DIM
 62
     0
370
    -2
100
AcDbLine
 10
515.7591925787312
 20
1562.84548403211
 30
0.0
 11
342.775232864535
 21
1562.84548403211
 31
0.0
  0
LINE
  5
4121
330
411C
100
AcDbEntity
  8
DIM
 62
     0
370
    -2
100
AcDbLine
 10
342.775232864535
 20
1412.84548403211
 30
0.0
 11
342.775232864535
 21
1552.84548403211
 31
0.0
  0
INSERT
  5
4122
330
411C
100
AcDbEntity
  8
DIM
 62
     0
370
    -2
100
AcDbBlockReference
  2
_DOT
 10
342.775232864535
 20
1402.84548403211
 30
0.0
 41
10.0
 42
10.0
 43
10.0
 50
270.0
  0
INSERT
  5
4123
330
411C
100
AcDbEntity
  8
DIM
 62
     0
370
    -2
100
AcDbBlockReference
  2
_DOT
 10
342.775232864535
 20
1562.84548403211
 30
0.0
 41
10.0
 42
10.0
 43
10.0
 50
90.0
  0
MTEXT
  5
4124
330
411C
100
AcDbEntity
  8
DIM
 62
     0
100
AcDbMText
 10
310.7707311764019
 20
1482.84548403211
 30
0.0
 40
24.0
 41
0.0
 46
0.0
 71
     5
 72
     1
  1
\A1;160
  7
ＭＳ ゴシック
 11
0.0
 21
1.0
 31
0.0
 73
     1
 44
1.0
  0
POINT
  5
4125
330
411C
100
AcDbEntity
  8
Defpoints
 62
     0
100
AcDbPoint
 10
613.5881694612175
 20
1402.84548403211
 30
0.0
  0
POINT
  5
4126
330
411C
100
AcDbEntity
  8
Defpoints
 62
     0
100
AcDbPoint
 10
545.7591925787312
 20
1562.84548403211
 30
0.0
  0
POINT
  5
4127
330
411C
100
AcDbEntity
  8
Defpoints
 62
     0
100
AcDbPoint
 10
342.775232864535
 20
1562.84548403211
 30
0.0
  0
ENDBLK
  5
411E
330
411C
100
AcDbEntity
  8
0
100
AcDbBlockEnd
  0
BLOCK
  5
413A
330
4139
100
AcDbEntity
  8
0
100
AcDbBlockBegin
  2
*D12
 70
     1
 10
0.0
 20
0.0
 30
0.0
  3
*D12
  1

  0
LINE
  5
413C
330
4139
100
AcDbEntity
  8
DIM
 62
     0
370
    -2
100
AcDbLine
 10
510.9975113750061
 20
722.8454840321099
 30
0.0
 11
430.3623396557493
 21
722.8454840321099
 31
0.0
  0
LINE
  5
413D
330
4139
100
AcDbEntity
  8
DIM
 62
     0
370
    -2
100
AcDbLine
 10
510.9975113750061
 20
792.8454840321099
 30
0.0
 11
430.3623396557493
 21
792.8454840321099
 31
0.0
  0
LINE
  5
413E
330
4139
100
AcDbEntity
  8
DIM
 62
     0
370
    -2
100
AcDbLine
 10
430.3623396557493
 20
792.8454840321099
 30
0.0
 11
430.3623396557493
 21
1062.059939452893
 31
0.0
  0
LINE
  5
413F
330
4139
100
AcDbEntity
  8
DIM
 62
     0
370
    -2
100
AcDbLine
 10
430.3623396557493
 20
732.8454840321099
 30
0.0
 11
430.3623396557493
 21
782.8454840321099
 31
0.0
  0
LINE
  5
4140
330
4139
100
AcDbEntity
  8
DIM
 62
     0
370
    -2
100
AcDbLine
 10
430.3623396557493
 20
782.8454840321099
 30
0.0
 11
430.3623396557493
 21
772.8454840321099
 31
0.0
  0
INSERT
  5
4141
330
4139
100
AcDbEntity
  8
DIM
 62
     0
370
    -2
100
AcDbBlockReference
  2
_DOT
 10
430.3623396557493
 20
722.8454840321099
 30
0.0
 41
10.0
 42
10.0
 43
10.0
 50
270.0
  0
INSERT
  5
4142
330
4139
100
AcDbEntity
  8
DIM
 62
     0
370
    -2
100
AcDbBlockReference
  2
_DOT
 10
430.3623396557493
 20
792.8454840321099
 30
0.0
 41
10.0
 42
10.0
 43
10.0
 50
90.0
  0
MTEXT
  5
4143
330
4139
100
AcDbEntity
  8
DIM
 62
     0
100
AcDbMText
 10
396.2913755442075
 20
937.4527117425013
 30
0.0
 40
24.0
 41
0.0
 46
0.0
 71
     5
 72
     1
  1
\A1;70(床固定位置)
  7
ＭＳ ゴシック
 11
0.0
 21
1.0
 31
0.0
 73
     1
 44
1.0
  0
POINT
  5
4144
330
4139
100
AcDbEntity
  8
Defpoints
 62
     0
100
AcDbPoint
 10
540.9975113750061
 20
722.8454840321099
 30
0.0
  0
POINT
  5
41F4
330
4139
100
AcDbEntity
  8
Defpoints
 62
     0
100
AcDbPoint
 10
540.9975113750061
 20
792.8454840321099
 30
0.0
  0
POINT
  5
4218
330
4139
100
AcDbEntity
  8
Defpoints
 62
     0
100
AcDbPoint
 10
430.3623396557493
 20
792.8454840321099
 30
0.0
  0
ENDBLK
  5
413B
330
4139
100
AcDbEntity
  8
0
100
AcDbBlockEnd
  0
BLOCK
  5
414E
330
414D
100
AcDbEntity
  8
0
100
AcDbBlockBegin
  2
*D13
 70
     1
 10
0.0
 20
0.0
 30
0.0
  3
*D13
  1

  0
LINE
  5
4150
330
414D
100
AcDbEntity
  8
DIM
 62
     0
370
    -2
100
AcDbLine
 10
1775.541447909511
 20
1563.075525278508
 30
0.0
 11
1834.418280383326
 21
1563.075525278508
 31
0.0
  0
LINE
  5
4151
330
414D
100
AcDbEntity
  8
DIM
 62
     0
370
    -2
100
AcDbLine
 10
1775.541447909511
 20
1273.075525278508
 30
0.0
 11
1834.418280383326
 21
1273.075525278508
 31
0.0
  0
LINE
  5
4152
330
414D
100
AcDbEntity
  8
DIM
 62
     0
370
    -2
100
AcDbLine
 10
1834.418280383326
 20
1553.075525278508
 30
0.0
 11
1834.418280383326
 21
1283.075525278508
 31
0.0
  0
INSERT
  5
4153
330
414D
100
AcDbEntity
  8
DIM
 62
     0
370
    -2
100
AcDbBlockReference
  2
_DOT
 10
1834.418280383326
 20
1563.075525278508
 30
0.0
 41
10.0
 42
10.0
 43
10.0
 50
90.0
  0
INSERT
  5
4154
330
414D
100
AcDbEntity
  8
DIM
 62
     0
370
    -2
100
AcDbBlockReference
  2
_DOT
 10
1834.418280383326
 20
1273.075525278508
 30
0.0
 41
10.0
 42
10.0
 43
10.0
 50
270.0
  0
MTEXT
  5
4155
330
414D
100
AcDbEntity
  8
DIM
 62
     0
100
AcDbMText
 10
1802.413778695193
 20
1418.075525278508
 30
0.0
 40
24.0
 41
0.0
 46
0.0
 71
     5
 72
     1
  1
\A1;290
  7
ＭＳ ゴシック
 11
0.0
 21
1.0
 31
0.0
 73
     1
 44
1.0
  0
POINT
  5
4156
330
414D
100
AcDbEntity
  8
Defpoints
 62
     0
100
AcDbPoint
 10
1745.541447909511
 20
1563.075525278508
 30
0.0
  0
POINT
  5
4157
330
414D
100
AcDbEntity
  8
Defpoints
 62
     0
100
AcDbPoint
 10
1745.541447909511
 20
1273.075525278508
 30
0.0
  0
POINT
  5
4158
330
414D
100
AcDbEntity
  8
Defpoints
 62
     0
100
AcDbPoint
 10
1834.418280383326
 20
1273.075525278508
 30
0.0
  0
ENDBLK
  5
414F
330
414D
100
AcDbEntity
  8
0
100
AcDbBlockEnd
  0
BLOCK
  5
416A
330
4169
100
AcDbEntity
  8
0
100
AcDbBlockBegin
  2
*D14
 70
     1
 10
0.0
 20
0.0
 30
0.0
  3
*D14
  1

  0
LINE
  5
416C
330
4169
100
AcDbEntity
  8
DIM
 62
     0
370
    -2
100
AcDbLine
 10
993.4333296056889
 20
1591.281895271876
 30
0.0
 11
993.4333296056889
 21
1668.171383029057
 31
0.0
  0
LINE
  5
416D
330
4169
100
AcDbEntity
  8
DIM
 62
     0
370
    -2
100
AcDbLine
 10
718.4333296056889
 20
1591.281895271876
 30
0.0
 11
718.4333296056889
 21
1668.171383029057
 31
0.0
  0
LINE
  5
416E
330
4169
100
AcDbEntity
  8
DIM
 62
     0
370
    -2
100
AcDbLine
 10
983.4333296056889
 20
1668.171383029057
 30
0.0
 11
728.4333296056889
 21
1668.171383029057
 31
0.0
  0
INSERT
  5
416F
330
4169
100
AcDbEntity
  8
DIM
 62
     0
370
    -2
100
AcDbBlockReference
  2
_DOT
 10
993.4333296056889
 20
1668.171383029057
 30
0.0
 41
10.0
 42
10.0
 43
10.0
  0
INSERT
  5
4170
330
4169
100
AcDbEntity
  8
DIM
 62
     0
370
    -2
100
AcDbBlockReference
  2
_DOT
 10
718.4333296056889
 20
1668.171383029057
 30
0.0
 41
10.0
 42
10.0
 43
10.0
 50
180.0
  0
MTEXT
  5
4171
330
4169
100
AcDbEntity
  8
DIM
 62
     0
100
AcDbMText
 10
855.9333296056889
 20
1700.17588471719
 30
0.0
 40
24.0
 41
0.0
 46
0.0
 71
     5
 72
     1
  1
\A1;275
  7
ＭＳ ゴシック
 73
     1
 44
1.0
  0
POINT
  5
4172
330
4169
100
AcDbEntity
  8
Defpoints
 62
     0
100
AcDbPoint
 10
993.4333296056889
 20
1561.281895271876
 30
0.0
  0
POINT
  5
4173
330
4169
100
AcDbEntity
  8
Defpoints
 62
     0
100
AcDbPoint
 10
718.4333296056889
 20
1561.281895271876
 30
0.0
  0
POINT
  5
4174
330
4169
100
AcDbEntity
  8
Defpoints
 62
     0
100
AcDbPoint
 10
718.4333296056889
 20
1668.171383029057
 30
0.0
  0
ENDBLK
  5
416B
330
4169
100
AcDbEntity
  8
0
100
AcDbBlockEnd
  0
BLOCK
  5
4197
330
4196
100
AcDbEntity
  8
0
100
AcDbBlockBegin
  2
*D15
 70
     1
 10
0.0
 20
0.0
 30
0.0
  3
*D15
  1

  0
LINE
  5
4199
330
4196
100
AcDbEntity
  8
DIM
 62
     0
370
    -2
100
AcDbLine
 10
1597.53947106169
 20
1425.469338135058
 30
0.0
 11
1574.383518860434
 21
1425.469338135058
 31
0.0
  0
LINE
  5
419A
330
4196
100
AcDbEntity
  8
DIM
 62
     0
370
    -2
100
AcDbLine
 10
1597.542930328819
 20
1563.075525278508
 30
0.0
 11
1574.383518860434
 21
1563.075525278508
 31
0.0
  0
LINE
  5
419B
330
4196
100
AcDbEntity
  8
DIM
 62
     0
370
    -2
100
AcDbLine
 10
1574.383518860434
 20
1435.469338135058
 30
0.0
 11
1574.383518860434
 21
1553.075525278508
 31
0.0
  0
INSERT
  5
419C
330
4196
100
AcDbEntity
  8
DIM
 62
     0
370
    -2
100
AcDbBlockReference
  2
_DOT
 10
1574.383518860434
 20
1425.469338135058
 30
0.0
 41
10.0
 42
10.0
 43
10.0
 50
270.0
  0
INSERT
  5
419D
330
4196
100
AcDbEntity
  8
DIM
 62
     0
370
    -2
100
AcDbBlockReference
  2
_DOT
 10
1574.383518860434
 20
1563.075525278508
 30
0.0
 41
10.0
 42
10.0
 43
10.0
 50
90.0
  0
MTEXT
  5
419E
330
4196
100
AcDbEntity
  8
DIM
 62
     0
100
AcDbMText
 10
1542.379017172301
 20
1494.272431706783
 30
0.0
 40
24.0
 41
0.0
 46
0.0
 71
     5
 72
     1
  1
\A1;138
  7
ＭＳ ゴシック
 11
0.0
 21
1.0
 31
0.0
 73
     1
 44
1.0
  0
POINT
  5
419F
330
4196
100
AcDbEntity
  8
Defpoints
 62
     0
100
AcDbPoint
 10
1567.53947106169
 20
1425.469338135058
 30
0.0
  0
POINT
  5
41A0
330
4196
100
AcDbEntity
  8
Defpoints
 62
     0
100
AcDbPoint
 10
1567.542930328819
 20
1563.075525278508
 30
0.0
  0
POINT
  5
41A1
330
4196
100
AcDbEntity
  8
Defpoints
 62
     0
100
AcDbPoint
 10
1574.383518860434
 20
1563.075525278508
 30
0.0
  0
ENDBLK
  5
4198
330
4196
100
AcDbEntity
  8
0
100
AcDbBlockEnd
  0
BLOCK
  5
41A4
330
41A3
100
AcDbEntity
  8
0
100
AcDbBlockBegin
  2
*D16
 70
     1
 10
0.0
 20
0.0
 30
0.0
  3
*D16
  1

  0
LINE
  5
41A6
330
41A3
100
AcDbEntity
  8
DIM
 62
     0
370
    -2
100
AcDbLine
 10
1537.542930328819
 20
1563.075525278508
 30
0.0
 11
1567.542930328819
 21
1563.075525278508
 31
0.0
  0
LINE
  5
41A7
330
41A3
100
AcDbEntity
  8
DIM
 62
     0
370
    -2
100
AcDbLine
 10
1537.542930328819
 20
1433.075525278508
 30
0.0
 11
1567.542930328819
 21
1433.075525278508
 31
0.0
  0
LINE
  5
41A8
330
41A3
100
AcDbEntity
  8
DIM
 62
     0
370
    -2
100
AcDbLine
 10
1567.542930328819
 20
1563.075525278508
 30
0.0
 11
1567.542930328819
 21
1753.156305571118
 31
0.0
  0
LINE
  5
41A9
330
41A3
100
AcDbEntity
  8
DIM
 62
     0
370
    -2
100
AcDbLine
 10
1567.542930328819
 20
1553.075525278508
 30
0.0
 11
1567.542930328819
 21
1443.075525278508
 31
0.0
  0
LINE
  5
41AA
330
41A3
100
AcDbEntity
  8
DIM
 62
     0
370
    -2
100
AcDbLine
 10
1567.542930328819
 20
1553.075525278508
 30
0.0
 11
1567.542930328819
 21
1543.075525278508
 31
0.0
  0
INSERT
  5
41AB
330
41A3
100
AcDbEntity
  8
DIM
 62
     0
370
    -2
100
AcDbBlockReference
  2
_DOT
 10
1567.542930328819
 20
1563.075525278508
 30
0.0
 41
10.0
 42
10.0
 43
10.0
 50
90.0
  0
INSERT
  5
41AC
330
41A3
100
AcDbEntity
  8
DIM
 62
     0
370
    -2
100
AcDbBlockReference
  2
_DOT
 10
1567.542930328819
 20
1433.075525278508
 30
0.0
 41
10.0
 42
10.0
 43
10.0
 50
270.0
  0
MTEXT
  5
41AD
330
41A3
100
AcDbEntity
  8
DIM
 62
     0
100
AcDbMText
 10
1533.533676858767
 20
1668.115915424813
 30
0.0
 40
24.0
 41
0.0
 46
0.0
 71
     5
 72
     1
  1
\A1;130(深さ)
  7
ＭＳ ゴシック
 11
0.0
 21
1.0
 31
0.0
 73
     1
 44
1.0
  0
POINT
  5
41AE
330
41A3
100
AcDbEntity
  8
Defpoints
 62
     0
100
AcDbPoint
 10
1567.542930328819
 20
1563.075525278508
 30
0.0
  0
POINT
  5
41AF
330
41A3
100
AcDbEntity
  8
Defpoints
 62
     0
100
AcDbPoint
 10
1567.542930328819
 20
1433.075525278508
 30
0.0
  0
POINT
  5
41B0
330
41A3
100
AcDbEntity
  8
Defpoints
 62
     0
100
AcDbPoint
 10
1567.542930328819
 20
1433.075525278508
 30
0.0
  0
ENDBLK
  5
41A5
330
41A3
100
AcDbEntity
  8
0
100
AcDbBlockEnd
  0
BLOCK
  5
41E8
330
41E7
100
AcDbEntity
  8
0
100
AcDbBlockBegin
  2
*D17
 70
     1
 10
0.0
 20
0.0
 30
0.0
  3
*D17
  1

  0
LINE
  5
41EA
330
41E7
100
AcDbEntity
  8
DIM
 62
     0
370
    -2
100
AcDbLine
 10
1038.172862755516
 20
723.0841734463322
 30
0.0
 11
1057.535320079658
 21
723.0841734463322
 31
0.0
  0
LINE
  5
41EB
330
41E7
100
AcDbEntity
  8
DIM
 62
     0
370
    -2
100
AcDbLine
 10
1038.172862755516
 20
1013.084173446332
 30
0.0
 11
1057.535320079658
 21
1013.084173446332
 31
0.0
  0
LINE
  5
41EC
330
41E7
100
AcDbEntity
  8
DIM
 62
     0
370
    -2
100
AcDbLine
 10
1057.535320079658
 20
733.0841734463322
 30
0.0
 11
1057.535320079658
 21
1003.084173446332
 31
0.0
  0
INSERT
  5
41ED
330
41E7
100
AcDbEntity
  8
DIM
 62
     0
370
    -2
100
AcDbBlockReference
  2
_DOT
 10
1057.535320079658
 20
723.0841734463322
 30
0.0
 41
10.0
 42
10.0
 43
10.0
 50
270.0
  0
INSERT
  5
41EE
330
41E7
100
AcDbEntity
  8
DIM
 62
     0
370
    -2
100
AcDbBlockReference
  2
_DOT
 10
1057.535320079658
 20
1013.084173446332
 30
0.0
 41
10.0
 42
10.0
 43
10.0
 50
90.0
  0
MTEXT
  5
41EF
330
41E7
100
AcDbEntity
  8
DIM
 62
     0
100
AcDbMText
 10
1025.530818391524
 20
868.0841734463322
 30
0.0
 40
24.0
 41
0.0
 46
0.0
 71
     5
 72
     1
  1
\A1;290
  7
ＭＳ ゴシック
 11
0.0
 21
1.0
 31
0.0
 73
     1
 44
1.0
  0
POINT
  5
41F0
330
41E7
100
AcDbEntity
  8
Defpoints
 62
     0
100
AcDbPoint
 10
1008.172862755516
 20
723.0841734463322
 30
0.0
  0
POINT
  5
41F1
330
41E7
100
AcDbEntity
  8
Defpoints
 62
     0
100
AcDbPoint
 10
1008.172862755516
 20
1013.084173446332
 30
0.0
  0
POINT
  5
41F2
330
41E7
100
AcDbEntity
  8
Defpoints
 62
     0
100
AcDbPoint
 10
1057.535320079658
 20
1013.084173446332
 30
0.0
  0
ENDBLK
  5
41E9
330
41E7
100
AcDbEntity
  8
0
100
AcDbBlockEnd
  0
BLOCK
  5
4222
330
4221
100
AcDbEntity
  8
0
100
AcDbBlockBegin
  2
*D18
 70
     1
 10
0.0
 20
0.0
 30
0.0
  3
*D18
  1

  0
LINE
  5
4224
330
4221
100
AcDbEntity
  8
DIM
 62
     0
370
    -2
100
AcDbLine
 10
1452.584565082052
 20
694.5266878570353
 30
0.0
 11
1452.584565082052
 21
569.8043093792547
 31
0.0
  0
LINE
  5
4225
330
4221
100
AcDbEntity
  8
DIM
 62
     0
370
    -2
100
AcDbLine
 10
1682.584565082052
 20
694.5266878570353
 30
0.0
 11
1682.584565082052
 21
569.8043093792547
 31
0.0
  0
LINE
  5
4226
330
4221
100
AcDbEntity
  8
DIM
 62
     0
370
    -2
100
AcDbLine
 10
1462.584565082052
 20
569.8043093792547
 30
0.0
 11
1672.584565082052
 21
569.8043093792547
 31
0.0
  0
INSERT
  5
4227
330
4221
100
AcDbEntity
  8
DIM
 62
     0
370
    -2
100
AcDbBlockReference
  2
_DOT
 10
1452.584565082052
 20
569.8043093792547
 30
0.0
 41
10.0
 42
10.0
 43
10.0
 50
180.0
  0
INSERT
  5
4228
330
4221
100
AcDbEntity
  8
DIM
 62
     0
370
    -2
100
AcDbBlockReference
  2
_DOT
 10
1682.584565082052
 20
569.8043093792547
 30
0.0
 41
10.0
 42
10.0
 43
10.0
  0
MTEXT
  5
4229
330
4221
100
AcDbEntity
  8
DIM
 62
     0
100
AcDbMText
 10
1567.584565082052
 20
601.8088110673878
 30
0.0
 40
24.0
 41
0.0
 46
0.0
 71
     5
 72
     1
  1
\A1;230
  7
ＭＳ ゴシック
 73
     1
 44
1.0
  0
POINT
  5
422A
330
4221
100
AcDbEntity
  8
Defpoints
 62
     0
100
AcDbPoint
 10
1452.584565082052
 20
724.5266878570353
 30
0.0
  0
POINT
  5
422B
330
4221
100
AcDbEntity
  8
Defpoints
 62
     0
100
AcDbPoint
 10
1682.584565082052
 20
724.5266878570353
 30
0.0
  0
POINT
  5
422C
330
4221
100
AcDbEntity
  8
Defpoints
 62
     0
100
AcDbPoint
 10
1682.584565082052
 20
569.8043093792547
 30
0.0
  0
ENDBLK
  5
4223
330
4221
100
AcDbEntity
  8
0
100
AcDbBlockEnd
  0
BLOCK
  5
4231
330
4230
100
AcDbEntity
  8
0
100
AcDbBlockBegin
  2
*D19
 70
     1
 10
0.0
 20
0.0
 30
0.0
  3
*D19
  1

  0
LINE
  5
4233
330
4230
100
AcDbEntity
  8
DIM
 62
     0
370
    -2
100
AcDbLine
 10
1452.584565082052
 20
664.5266878570353
 30
0.0
 11
1452.584565082052
 21
649.6663986021011
 31
0.0
  0
LINE
  5
4234
330
4230
100
AcDbEntity
  8
DIM
 62
     0
370
    -2
100
AcDbLine
 10
1567.584565082052
 20
664.5266878570353
 30
0.0
 11
1567.584565082052
 21
649.6663986021011
 31
0.0
  0
LINE
  5
4235
330
4230
100
AcDbEntity
  8
DIM
 62
     0
370
    -2
100
AcDbLine
 10
1462.584565082052
 20
649.6663986021011
 30
0.0
 11
1557.584565082052
 21
649.6663986021011
 31
0.0
  0
INSERT
  5
4236
330
4230
100
AcDbEntity
  8
DIM
 62
     0
370
    -2
100
AcDbBlockReference
  2
_DOT
 10
1452.584565082052
 20
649.6663986021011
 30
0.0
 41
10.0
 42
10.0
 43
10.0
 50
180.0
  0
INSERT
  5
4237
330
4230
100
AcDbEntity
  8
DIM
 62
     0
370
    -2
100
AcDbBlockReference
  2
_DOT
 10
1567.584565082052
 20
649.6663986021011
 30
0.0
 41
10.0
 42
10.0
 43
10.0
  0
MTEXT
  5
4238
330
4230
100
AcDbEntity
  8
DIM
 62
     0
100
AcDbMText
 10
1510.084565082052
 20
681.6709002902342
 30
0.0
 40
24.0
 41
0.0
 46
0.0
 71
     5
 72
     1
  1
\A1;115
  7
ＭＳ ゴシック
 73
     1
 44
1.0
  0
POINT
  5
4239
330
4230
100
AcDbEntity
  8
Defpoints
 62
     0
100
AcDbPoint
 10
1452.584565082052
 20
694.5266878570353
 30
0.0
  0
POINT
  5
423A
330
4230
100
AcDbEntity
  8
Defpoints
 62
     0
100
AcDbPoint
 10
1567.584565082052
 20
694.5266878570353
 30
0.0
  0
POINT
  5
423B
330
4230
100
AcDbEntity
  8
Defpoints
 62
     0
100
AcDbPoint
 10
1567.584565082052
 20
649.6663986021011
 30
0.0
  0
ENDBLK
  5
4232
330
4230
100
AcDbEntity
  8
0
100
AcDbBlockEnd
  0
BLOCK
  5
423F
330
423E
100
AcDbEntity
  8
0
100
AcDbBlockBegin
  2
*D20
 70
     1
 10
0.0
 20
0.0
 30
0.0
  3
*D20
  1

  0
LINE
  5
4241
330
423E
100
AcDbEntity
  8
DIM
 62
     0
370
    -2
100
AcDbLine
 10
1682.584565082052
 20
664.5266878570353
 30
0.0
 11
1682.584565082052
 21
649.6663986021011
 31
0.0
  0
LINE
  5
4242
330
423E
100
AcDbEntity
  8
DIM
 62
     0
370
    -2
100
AcDbLine
 10
1567.542930328819
 20
757.8454840321099
 30
0.0
 11
1567.542930328819
 21
649.6663986021011
 31
0.0
  0
LINE
  5
4243
330
423E
100
AcDbEntity
  8
DIM
 62
     0
370
    -2
100
AcDbLine
 10
1672.584565082052
 20
649.6663986021011
 30
0.0
 11
1577.542930328819
 21
649.6663986021011
 31
0.0
  0
INSERT
  5
4244
330
423E
100
AcDbEntity
  8
DIM
 62
     0
370
    -2
100
AcDbBlockReference
  2
_DOT
 10
1682.584565082052
 20
649.6663986021011
 30
0.0
 41
10.0
 42
10.0
 43
10.0
  0
INSERT
  5
4245
330
423E
100
AcDbEntity
  8
DIM
 62
     0
370
    -2
100
AcDbBlockReference
  2
_DOT
 10
1567.542930328819
 20
649.6663986021011
 30
0.0
 41
10.0
 42
10.0
 43
10.0
 50
180.0
  0
MTEXT
  5
4246
330
423E
100
AcDbEntity
  8
DIM
 62
     0
100
AcDbMText
 10
1625.063747705436
 20
681.6709002902342
 30
0.0
 40
24.0
 41
0.0
 46
0.0
 71
     5
 72
     1
  1
\A1;115
  7
ＭＳ ゴシック
 73
     1
 44
1.0
  0
POINT
  5
4247
330
423E
100
AcDbEntity
  8
Defpoints
 62
     0
100
AcDbPoint
 10
1682.584565082052
 20
694.5266878570353
 30
0.0
  0
POINT
  5
4248
330
423E
100
AcDbEntity
  8
Defpoints
 62
     0
100
AcDbPoint
 10
1567.542930328819
 20
787.8454840321099
 30
0.0
  0
POINT
  5
4249
330
423E
100
AcDbEntity
  8
Defpoints
 62
     0
100
AcDbPoint
 10
1567.542930328819
 20
649.6663986021011
 30
0.0
  0
ENDBLK
  5
4240
330
423E
100
AcDbEntity
  8
0
100
AcDbBlockEnd
  0
BLOCK
  5
425B
330
425A
100
AcDbEntity
  8
0
100
AcDbBlockBegin
  2
*D21
 70
     1
 10
0.0
 20
0.0
 30
0.0
  3
*D21
  1

  0
LINE
  5
425D
330
425A
100
AcDbEntity
  8
DIM
 62
     0
370
    -2
100
AcDbLine
 10
1771.679106677424
 20
722.8454840321097
 30
0.0
 11
1691.043934958167
 21
722.8454840321097
 31
0.0
  0
LINE
  5
425E
330
425A
100
AcDbEntity
  8
DIM
 62
     0
370
    -2
100
AcDbLine
 10
1771.679106677424
 20
792.8454840321097
 30
0.0
 11
1691.043934958167
 21
792.8454840321097
 31
0.0
  0
LINE
  5
425F
330
425A
100
AcDbEntity
  8
DIM
 62
     0
370
    -2
100
AcDbLine
 10
1691.043934958167
 20
792.8454840321097
 30
0.0
 11
1691.043934958167
 21
1062.059939452893
 31
0.0
  0
LINE
  5
4260
330
425A
100
AcDbEntity
  8
DIM
 62
     0
370
    -2
100
AcDbLine
 10
1691.043934958167
 20
732.8454840321097
 30
0.0
 11
1691.043934958167
 21
782.8454840321097
 31
0.0
  0
LINE
  5
4261
330
425A
100
AcDbEntity
  8
DIM
 62
     0
370
    -2
100
AcDbLine
 10
1691.043934958167
 20
782.8454840321097
 30
0.0
 11
1691.043934958167
 21
772.8454840321097
 31
0.0
  0
INSERT
  5
4262
330
425A
100
AcDbEntity
  8
DIM
 62
     0
370
    -2
100
AcDbBlockReference
  2
_DOT
 10
1691.043934958167
 20
722.8454840321097
 30
0.0
 41
10.0
 42
10.0
 43
10.0
 50
270.0
  0
INSERT
  5
4263
330
425A
100
AcDbEntity
  8
DIM
 62
     0
370
    -2
100
AcDbBlockReference
  2
_DOT
 10
1691.043934958167
 20
792.8454840321097
 30
0.0
 41
10.0
 42
10.0
 43
10.0
 50
90.0
  0
MTEXT
  5
4264
330
425A
100
AcDbEntity
  8
DIM
 62
     0
100
AcDbMText
 10
1656.972970846625
 20
937.4527117425012
 30
0.0
 40
24.0
 41
0.0
 46
0.0
 71
     5
 72
     1
  1
\A1;70(床固定位置)
  7
ＭＳ ゴシック
 11
0.0
 21
1.0
 31
0.0
 73
     1
 44
1.0
  0
POINT
  5
4265
330
425A
100
AcDbEntity
  8
Defpoints
 62
     0
100
AcDbPoint
 10
1801.679106677424
 20
722.8454840321097
 30
0.0
  0
POINT
  5
4266
330
425A
100
AcDbEntity
  8
Defpoints
 62
     0
100
AcDbPoint
 10
1801.679106677424
 20
792.8454840321097
 30
0.0
  0
POINT
  5
4267
330
425A
100
AcDbEntity
  8
Defpoints
 62
     0
100
AcDbPoint
 10
1691.043934958167
 20
792.8454840321097
 30
0.0
  0
ENDBLK
  5
425C
330
425A
100
AcDbEntity
  8
0
100
AcDbBlockEnd
  0
BLOCK
  5
426A
330
4269
100
AcDbEntity
  8
0
100
AcDbBlockBegin
  2
*D22
 70
     1
 10
0.0
 20
0.0
 30
0.0
  3
*D22
  1

  0
LINE
  5
426C
330
4269
100
AcDbEntity
  8
DIM
 62
     0
370
    -2
100
AcDbLine
 10
1714.03717287117
 20
722.8454840321095
 30
0.0
 11
1794.672344590426
 21
722.8454840321095
 31
0.0
  0
LINE
  5
426D
330
4269
100
AcDbEntity
  8
DIM
 62
     0
370
    -2
100
AcDbLine
 10
1602.542930328819
 20
792.8454840321099
 30
0.0
 11
1794.672344590426
 21
792.8454840321099
 31
0.0
  0
LINE
  5
426E
330
4269
100
AcDbEntity
  8
DIM
 62
     0
370
    -2
100
AcDbLine
 10
1794.672344590426
 20
792.8454840321099
 30
0.0
 11
1794.672344590426
 21
1062.059939452892
 31
0.0
  0
LINE
  5
426F
330
4269
100
AcDbEntity
  8
DIM
 62
     0
370
    -2
100
AcDbLine
 10
1794.672344590426
 20
732.8454840321095
 30
0.0
 11
1794.672344590426
 21
782.8454840321099
 31
0.0
  0
LINE
  5
4270
330
4269
100
AcDbEntity
  8
DIM
 62
     0
370
    -2
100
AcDbLine
 10
1794.672344590426
 20
782.8454840321099
 30
0.0
 11
1794.672344590426
 21
772.8454840321099
 31
0.0
  0
INSERT
  5
4271
330
4269
100
AcDbEntity
  8
DIM
 62
     0
370
    -2
100
AcDbBlockReference
  2
_DOT
 10
1794.672344590426
 20
722.8454840321095
 30
0.0
 41
10.0
 42
10.0
 43
10.0
 50
270.0
  0
INSERT
  5
4272
330
4269
100
AcDbEntity
  8
DIM
 62
     0
370
    -2
100
AcDbBlockReference
  2
_DOT
 10
1794.672344590426
 20
792.8454840321099
 30
0.0
 41
10.0
 42
10.0
 43
10.0
 50
90.0
  0
MTEXT
  5
4273
330
4269
100
AcDbEntity
  8
DIM
 62
     0
100
AcDbMText
 10
1760.601380478884
 20
937.4527117425012
 30
0.0
 40
24.0
 41
0.0
 46
0.0
 71
     5
 72
     1
  1
\A1;70(床固定位置)
  7
ＭＳ ゴシック
 11
0.0
 21
1.0
 31
0.0
 73
     1
 44
1.0
  0
POINT
  5
4274
330
4269
100
AcDbEntity
  8
Defpoints
 62
     0
100
AcDbPoint
 10
1684.03717287117
 20
722.8454840321095
 30
0.0
  0
POINT
  5
4275
330
4269
100
AcDbEntity
  8
Defpoints
 62
     0
100
AcDbPoint
 10
1572.542930328819
 20
792.8454840321099
 30
0.0
  0
POINT
  5
4276
330
4269
100
AcDbEntity
  8
Defpoints
 62
     0
100
AcDbPoint
 10
1794.672344590426
 20
792.84548403211
 30
0.0
  0
ENDBLK
  5
426B
330
4269
100
AcDbEntity
  8
0
100
AcDbBlockEnd
  0
ENDSEC
  0
SECTION
  2
ENTITIES
  0
MTEXT
  5
177
330
A
100
AcDbEntity
  8
TEMPLATE
390
1D
100
AcDbMText
 10
79.20214454773075
 20
343.7317516314282
 30
0.0
 40
16.28841145833333
 41
0.0
 46
0.0
 71
     1
 72
     1
  1
品名
  7
ＭＳ ゴシック
 73
     1
 44
0.7828267384257843
  0
MTEXT
  5
178
330
A
100
AcDbEntity
  8
TEMPLATE
390
1D
100
AcDbMText
 10
79.20214454773075
 20
258.731751631428
 30
0.0
 40
16.28841145833333
 41
0.0
 46
0.0
 71
     1
 72
     1
  1
仕様
  7
ＭＳ ゴシック
 73
     1
 44
0.7828267384257843
  0
LINE
  5
179
330
A
100
AcDbEntity
  8
TEMPLATE
390
1D
100
AcDbLine
 10
2022.202144547248
 20
267.1466735064284
 30
0.0
 11
72.20214454724874
 21
267.1466735064284
 31
0.0
  0
LWPOLYLINE
  5
17A
330
A
100
AcDbEntity
  8
TEMPLATE
390
1D
100
AcDbPolyline
 90
        5
 70
   128
 43
0.0
 10
2022.202144547248
 20
2897.146673506426
 10
72.20214454724874
 20
2897.146673506426
 10
72.20214454724874
 20
97.14667350642826
 10
2022.202144547248
 20
97.14667350642826
 10
2022.202144547248
 20
2897.146673506426
  0
LINE
  5
17B
330
A
100
AcDbEntity
  8
TEMPLATE
390
1D
100
AcDbLine
 10
2022.202144547248
 20
352.1466735064282
 30
0.0
 11
72.20214454724874
 21
352.1466735064282
 31
0.0
  0
LINE
  5
17C
330
A
100
AcDbEntity
  8
TEMPLATE
390
1D
100
AcDbLine
 10
2022.202144547732
 20
182.1466735064282
 30
0.0
 11
1269.20214454773
 21
182.1466735064282
 31
0.0
  0
MTEXT
  5
17E
330
A
100
AcDbEntity
  8
TEMPLATE
390
1D
100
AcDbMText
 10
1299.073550799991
 20
152.2362790331201
 30
0.0
 40
24.4326171875
 41
0.0
 46
0.0
 71
     1
 72
     1
  1
大洋金物株式会社 ティーフォルム事業部
  7
ＭＳ ゴシック
 73
     1
 44
0.7828267384257843
  0
MTEXT
  5
180
330
A
100
AcDbEntity
  8
TEMPLATE
390
1D
100
AcDbMText
 10
1831.20214454799
 20
230.1492906939282
 30
0.0
 40
24.4326171875
 41
0.0
 46
24.4326171875
 71
     1
 72
     1
  1
{1:10}
  7
ＭＳ ゴシック
 73
     1
 44
0.7828267384257843
1001
ACAD
1000
ACAD_MTEXT_DEFINED_HEIGHT_BEGIN
1070
    46
1040
24.4326171875
1000
ACAD_MTEXT_DEFINED_HEIGHT_END
  0
MTEXT
  5
181
330
A
100
AcDbEntity
  8
TEMPLATE
390
1D
100
AcDbMText
 10
1778.20214454799
 20
258.731751631428
 30
0.0
 40
16.28841145833333
 41
0.0
 46
0.0
 71
     1
 72
     1
  1
縮尺
  7
ＭＳ ゴシック
 73
     1
 44
0.7828267384257843
  0
LINE
  5
182
330
A
100
AcDbEntity
  8
TEMPLATE
390
1D
100
AcDbLine
 10
1771.20214454799
 20
182.1466735064282
 30
0.0
 11
1771.20214454799
 21
267.1466735064284
 31
0.0
  0
MTEXT
  5
183
330
A
100
AcDbEntity
  8
TEMPLATE
390
1D
100
AcDbMText
 10
1527.20214454799
 20
258.731751631428
 30
0.0
 40
16.28841145833333
 41
0.0
 46
0.0
 71
     1
 72
     1
  1
容量
  7
ＭＳ ゴシック
 73
     1
 44
0.7828267384257843
  0
LINE
  5
184
330
A
100
AcDbEntity
  8
TEMPLATE
390
1D
100
AcDbLine
 10
1520.20214454799
 20
182.1466735064282
 30
0.0
 11
1520.20214454799
 21
267.1466735064284
 31
0.0
  0
MTEXT
  5
185
330
A
100
AcDbEntity
  8
TEMPLATE
390
1D
100
AcDbMText
 10
1276.20214454799
 20
343.7317516314282
 30
0.0
 40
16.28841145833333
 41
0.0
 46
0.0
 71
     1
 72
     1
  1
品番
  7
ＭＳ ゴシック
 73
     1
 44
0.7828267384257843
  0
MTEXT
  5
186
330
A
100
AcDbEntity
  8
TEMPLATE
390
1D
100
AcDbMText
 10
1276.20214454799
 20
258.731751631428
 30
0.0
 40
16.28841145833333
 41
0.0
 46
0.0
 71
     1
 72
     1
  1
重量
  7
ＭＳ ゴシック
 73
     1
 44
0.7828267384257843
  0
MTEXT
  5
187
330
A
100
AcDbEntity
  8
TEMPLATE
390
1D
100
AcDbMText
 10
1329.20214454799
 20
315.1492906939282
 30
0.0
 40
24.4326171875
 41
0.0
 46
24.4326171875
 71
     1
 72
     1
  1
{ADF70-2626}
  7
ＭＳ ゴシック
 73
     1
 44
0.7828267384257843
1001
ACAD
1000
ACAD_MTEXT_DEFINED_HEIGHT_BEGIN
1070
    46
1040
24.4326171875
1000
ACAD_MTEXT_DEFINED_HEIGHT_END
  0
LINE
  5
188
330
A
100
AcDbEntity
  8
TEMPLATE
390
1D
100
AcDbLine
 10
1269.20214454799
 20
97.14667350642826
 30
0.0
 11
1269.20214454799
 21
352.1466735064282
 31
0.0
  0
MTEXT
  5
189
330
A
100
AcDbEntity
  8
TEMPLATE
390
1D
100
AcDbMText
 10
132.2021445477307
 20
315.1492906939282
 30
0.0
 40
24.4326171875
 41
0.0
 46
27.53672361022102
 71
     1
 72
     1
  1
{洗面器　-CATALANO, Green-}
  7
ＭＳ ゴシック
 73
     1
 44
0.7828267384257843
1001
ACAD
1000
ACAD_MTEXT_DEFINED_HEIGHT_BEGIN
1070
    46
1040
27.53672361022102
1000
ACAD_MTEXT_DEFINED_HEIGHT_END
  0
INSERT
  5
68C
330
A
100
AcDbEntity
  8
TEMPLATE
100
AcDbBlockReference
  2
block 2
 10
919.2743017702577
 20
8.373076514336368
 30
0.0
 41
0.3809999999999999
 42
0.3809999999999999
 43
0.3809999999999999
  0
LWPOLYLINE
  5
DAC
330
A
100
AcDbEntity
  8
BORDER
100
AcDbPolyline
 90
        4
 70
     1
 43
0.0
 10
0.0
 20
0.0
 10
0.0
 20
2970.0
 10
2100.0
 20
2970.0
 10
2100.0
 20
0.0
  0
MTEXT
  5
121B
330
A
100
AcDbEntity
  8
TEMPLATE
390
1D
100
AcDbMText
 10
1329.20214454799
 20
227.1688729773101
 30
0.0
 40
24.4326171875
 41
0.0
 46
28.40135167875453
 71
     1
 72
     1
  1
{41kg}
  7
ＭＳ ゴシック
 73
     1
 44
0.7828267384257843
1001
ACAD
1000
ACAD_MTEXT_DEFINED_HEIGHT_BEGIN
1070
    46
1040
28.40135167875453
1000
ACAD_MTEXT_DEFINED_HEIGHT_END
  0
MTEXT
  5
1466
102
{ACAD_XDICTIONARY
360
1468
102
}
330
A
100
AcDbEntity
  8
TEMPLATE
 48
0.05
100
AcDbMText
 10
74.728656548571
 20
83.86172105142839
 30
0.0
 40
22.0
 41
0.0
 46
22.0
 71
     1
 72
     1
  1
{20210823N}
  7
ＭＳ ゴシック
 73
     1
 44
1.0
1001
ACAD
1000
ACAD_MTEXT_DEFINED_HEIGHT_BEGIN
1070
    46
1040
22.0
1000
ACAD_MTEXT_DEFINED_HEIGHT_END
  0
MTEXT
  5
146D
330
A
100
AcDbEntity
  8
TEMPLATE
390
1D
100
AcDbMText
 10
1583.904999862276
 20
227.1688729773101
 30
0.0
 40
24.4326171875
 41
0.0
 46
24.4326171875
 71
     1
 72
     1
  1
{11L}
  7
ＭＳ ゴシック
 73
     1
 44
0.7828267384257843
1001
ACAD
1000
ACAD_MTEXT_DEFINED_HEIGHT_BEGIN
1070
    46
1040
24.4326171875
1000
ACAD_MTEXT_DEFINED_HEIGHT_END
  0
POINT
  5
262A
330
A
100
AcDbEntity
  8
Layer9
  6
Continuous
 62
     7
100
AcDbPoint
 10
1037.460145007193
 20
1010.220672371878
 30
0.0
  0
POINT
  5
262B
330
A
100
AcDbEntity
  8
Layer9
  6
Continuous
 62
     7
100
AcDbPoint
 10
1037.460146257193
 20
1010.220672788578
 30
0.0
  0
POINT
  5
262C
330
A
100
AcDbEntity
  8
Layer9
  6
Continuous
 62
     7
100
AcDbPoint
 10
1037.853693340493
 20
1015.267975288578
 30
0.0
  0
POINT
  5
2812
330
A
100
AcDbEntity
  8
Layer9
  6
Continuous
 62
     7
100
AcDbPoint
 10
925.7934783404928
 20
1010.220672371878
 30
0.0
  0
POINT
  5
2813
330
A
100
AcDbEntity
  8
Layer9
  6
Continuous
 62
     7
100
AcDbPoint
 10
925.7934795904928
 20
1010.220672788578
 30
0.0
  0
POINT
  5
2814
330
A
100
AcDbEntity
  8
Layer9
  6
Continuous
 62
     7
100
AcDbPoint
 10
926.1870266737928
 20
1015.267975288578
 30
0.0
  0
INSERT
  5
28CA
330
A
100
AcDbEntity
  8
Layer3
100
AcDbBlockReference
  2
SEANNOT_GROUP
 10
859.7083018867928
 20
826.1905269541776
 30
0.0
  0
POINT
  5
2A52
330
A
100
AcDbEntity
  8
Standard
  6
Continuous
 62
     7
100
AcDbPoint
 10
1036.111241014893
 20
1018.794321538578
 30
0.0
  0
INSERT
  5
2B9B
330
A
100
AcDbEntity
  8
Layer3
100
AcDbBlockReference
  2
SEANNOT_GROUP1
 10
859.7083018867928
 20
826.1905269541776
 30
0.0
  0
HATCH
  5
369B
102
{ACAD_REACTORS
330
36AC
102
}
330
A
100
AcDbEntity
  8
TEMPLATE
100
AcDbHatch
 10
0.0
 20
0.0
 30
0.0
210
0.0
220
0.0
230
1.0
  2
SOLID
 70
     1
 71
     1
 91
        6
 92
        1
 93
        8
 72
     1
 10
1934.476782902687
 20
153.1053194253001
 11
1934.476782902687
 21
147.1959117946397
 72
     1
 10
1934.476782902687
 20
147.1959117946397
 11
1925.116191352377
 21
147.1959117946397
 72
     1
 10
1925.116191352377
 20
147.1959117946397
 11
1925.116191352377
 21
123.105319426746
 72
     1
 10
1925.116191352377
 20
123.105319426746
 11
1916.883578199102
 21
123.105319426746
 72
     1
 10
1916.883578199102
 20
123.105319426746
 11
1916.883578199102
 21
147.1959117946397
 72
     1
 10
1916.883578199102
 20
147.1959117946397
 11
1907.688876764557
 21
147.1959117946397
 72
     1
 10
1907.688876764557
 20
147.1959117946397
 11
1907.688876764557
 21
153.1053194253001
 72
     1
 10
1907.688876764557
 20
153.1053194253001
 11
1934.476782902687
 21
153.1053194253001
 97
        1
330
369C
 92
        1
 93
        1
 72
     4
 94
        3
 73
     0
 74
     1
 95
       56
 96
       52
 40
0.0
 40
0.0
 40
0.0
 40
0.0
 40
1.0
 40
1.0
 40
1.0
 40
2.0
 40
2.0
 40
2.0
 40
3.0
 40
3.0
 40
3.0
 40
4.0
 40
4.0
 40
4.0
 40
5.0
 40
5.0
 40
5.0
 40
6.0
 40
6.0
 40
6.0
 40
7.0
 40
7.0
 40
7.0
 40
8.0
 40
8.0
 40
8.0
 40
9.0
 40
9.0
 40
9.0
 40
10.0
 40
10.0
 40
10.0
 40
11.0
 40
11.0
 40
11.0
 40
12.0
 40
12.0
 40
12.0
 40
13.0
 40
13.0
 40
13.0
 40
14.0
 40
14.0
 40
14.0
 40
15.0
 40
15.0
 40
15.0
 40
16.0
 40
16.0
 40
16.0
 40
17.0
 40
17.0
 40
17.0
 40
17.0
 10
1947.01896833698
 20
152.3909504648878
 10
1948.1728345189
 20
152.715738018898
 10
1949.662423612235
 20
152.4440650580081
 10
1949.662423612235
 20
152.4440650580081
 10
1949.662423612235
 20
152.4440650580081
 10
1948.946790018651
 20
150.2964947655846
 10
1948.946790018651
 20
150.2964947655846
 10
1948.946790018651
 20
150.2964947655846
 10
1947.484427733556
 20
150.6348957237139
 10
1946.356523726704
 20
149.7454866546012
 10
1945.480058550036
 20
149.0499384113589
 10
1944.912238256914
 20
147.2017886193686
 10
1944.69442379101
 20
146.4990989182278
 10
1944.69442379101
 20
146.4990989182278
 10
1943.723334297183
 20
143.518432927829
 10
1943.723334297183
 20
143.518432927829
 10
1943.723334297183
 20
143.518432927829
 10
1946.907457447503
 20
143.518432927829
 10
1946.907457447503
 20
143.518432927829
 10
1946.907457447503
 20
143.518432927829
 10
1946.412241976351
 20
141.642461206109
 10
1946.412241976351
 20
141.642461206109
 10
1946.412241976351
 20
141.642461206109
 10
1943.202156650962
 20
141.642461206109
 10
1943.202156650962
 20
141.642461206109
 10
1943.202156650962
 20
141.642461206109
 10
1937.458713526257
 20
123.105319426746
 10
1937.458713526257
 20
123.105319426746
 10
1937.458713526257
 20
123.105319426746
 10
1935.660479549369
 20
123.105319426746
 10
1935.660479549369
 20
123.105319426746
 10
1935.660479549369
 20
123.105319426746
 10
1941.409129987127
 20
141.642461206109
 10
1941.409129987127
 20
141.642461206109
 10
1941.409129987127
 20
141.642461206109
 10
1939.040397670409
 20
141.642461206109
 10
1939.040397670409
 20
141.642461206109
 10
1939.040397670409
 20
141.642461206109
 10
1939.536952164915
 20
143.518432927829
 10
1939.536952164915
 20
143.518432927829
 10
1939.536952164915
 20
143.518432927829
 10
1941.930307633347
 20
143.518432927829
 10
1941.930307633347
 20
143.518432927829
 10
1941.930307633347
 20
143.518432927829
 10
1942.77686795507
 20
146.1179236028939
 10
1942.77686795507
 20
146.1179236028939
 10
1943.461406450716
 20
148.2973328951149
 10
1944.042245026465
 20
149.4674161376772
 10
1944.540138544327
 20
150.3496093587049
 10
1945.032750358952
 20
151.232546481597
 10
1946.007708142475
 20
152.0998616653363
 10
1947.01896833698
 20
152.3909504648878
 97
        1
330
36A7
 92
        1
 93
        1
 72
     4
 94
        3
 73
     0
 74
     1
 95
       32
 96
       28
 40
0.0
 40
0.0
 40
0.0
 40
0.0
 40
1.0
 40
1.0
 40
1.0
 40
2.0
 40
2.0
 40
2.0
 40
3.0
 40
3.0
 40
3.0
 40
4.0
 40
4.0
 40
4.0
 40
5.0
 40
5.0
 40
5.0
 40
6.0
 40
6.0
 40
6.0
 40
7.0
 40
7.0
 40
7.0
 40
8.0
 40
8.0
 40
8.0
 40
9.0
 40
9.0
 40
9.0
 40
9.0
 10
1951.394524713372
 20
142.3847264864374
 10
1950.311998720255
 20
140.9844800070205
 10
1949.478382290974
 20
139.7243102486757
 10
1948.128795528524
 20
135.7635535518901
 10
1946.888041608841
 20
132.1406026917421
 10
1946.098464169936
 20
129.5048096056932
 10
1945.979216701069
 20
126.2947242803041
 10
1945.888460673606
 20
123.9059066132458
 10
1947.343086379314
 20
123.105319426746
 10
1949.475853024634
 20
123.105319426746
 10
1950.395018168326
 20
123.105319426746
 10
1952.714504181618
 20
123.1637901132903
 10
1954.3662638814
 20
125.2056519507783
 10
1955.522584939468
 20
126.6401923061455
 10
1956.588298750451
 20
128.1272521331414
 10
1958.017036671275
 20
133.0053142189559
 10
1959.205940631009
 20
137.0833842397621
 10
1960.029142434186
 20
139.7191029356247
 10
1959.968291261677
 20
141.2197761667398
 10
1959.968291261677
 20
141.2197761667398
 10
1959.968291261677
 20
141.2197761667398
 10
1959.968291261677
 20
141.2197761667398
 10
1959.580569609936
 20
143.7233035012931
 10
1957.762919794387
 20
144.2522921170894
 10
1956.724432791643
 20
144.2522921170894
 10
1955.70156772805
 20
144.2522921170894
 10
1952.960735698745
 20
144.4292663706373
 10
1951.394524713372
 20
142.3847264864374
 97
        1
330
36AA
 92
        1
 93
        1
 72
     4
 94
        3
 73
     0
 74
     1
 95
       38
 96
       34
 40
0.0
 40
0.0
 40
0.0
 40
0.0
 40
1.0
 40
1.0
 40
1.0
 40
2.0
 40
2.0
 40
2.0
 40
3.0
 40
3.0
 40
3.0
 40
4.0
 40
4.0
 40
4.0
 40
5.0
 40
5.0
 40
5.0
 40
6.0
 40
6.0
 40
6.0
 40
7.0
 40
7.0
 40
7.0
 40
8.0
 40
8.0
 40
8.0
 40
9.0
 40
9.0
 40
9.0
 40
10.0
 40
10.0
 40
10.0
 40
11.0
 40
11.0
 40
11.0
 40
11.0
 10
1966.542747159137
 20
143.4464976175386
 10
1966.542747159137
 20
143.4464976175386
 10
1968.39149207262
 20
143.4464976175386
 10
1968.39149207262
 20
143.4464976175386
 10
1968.39149207262
 20
143.4464976175386
 10
1967.56561222273
 20
140.8022984404216
 10
1967.56561222273
 20
140.8022984404216
 10
1968.193167835563
 20
141.54456372075
 10
1969.183598777865
 20
142.5331349083912
 10
1970.034176169654
 20
143.0316235477459
 10
1971.304760554101
 20
143.7738888280742
 10
1972.030808773784
 20
143.8717863134333
 10
1972.829313035064
 20
143.8522960845852
 10
1972.829313035064
 20
143.8522960845852
 10
1972.048959979278
 20
141.3520419182353
 10
1972.048959979278
 20
141.3520419182353
 10
1971.540726225497
 20
141.5672527276151
 10
1969.974515240128
 20
141.1575859708734
 10
1969.076030568268
 20
140.5112840310564
 10
1968.265772657532
 20
139.9285113104618
 10
1967.705614553615
 20
139.4326263276327
 10
1967.04190531017
 20
138.1859955832205
 10
1966.383254599404
 20
136.9375050841474
 10
1965.86341597654
 20
134.9467493047458
 10
1964.968799594376
 20
132.058773486655
 10
1964.968799594376
 20
132.058773486655
 10
1962.174852971949
 20
123.105319426746
 10
1962.174852971949
 20
123.105319426746
 10
1962.174852971949
 20
123.105319426746
 10
1960.380561674943
 20
123.105319426746
 10
1960.380561674943
 20
123.105319426746
 10
1960.380561674943
 20
123.105319426746
 10
1966.542747159137
 20
143.4464976175386
 10
1966.542747159137
 20
143.4464976175386
 97
        1
330
36A8
 92
        1
 93
        1
 72
     4
 94
        3
 73
     0
 74
     1
 95
      104
 96
      100
 40
0.0
 40
0.0
 40
0.0
 40
0.0
 40
1.0
 40
1.0
 40
1.0
 40
2.0
 40
2.0
 40
2.0
 40
3.0
 40
3.0
 40
3.0
 40
4.0
 40
4.0
 40
4.0
 40
5.0
 40
5.0
 40
5.0
 40
6.0
 40
6.0
 40
6.0
 40
7.0
 40
7.0
 40
7.0
 40
8.0
 40
8.0
 40
8.0
 40
9.0
 40
9.0
 40
9.0
 40
10.0
 40
10.0
 40
10.0
 40
11.0
 40
11.0
 40
11.0
 40
12.0
 40
12.0
 40
12.0
 40
13.0
 40
13.0
 40
13.0
 40
14.0
 40
14.0
 40
14.0
 40
15.0
 40
15.0
 40
15.0
 40
16.0
 40
16.0
 40
16.0
 40
17.0
 40
17.0
 40
17.0
 40
18.0
 40
18.0
 40
18.0
 40
19.0
 40
19.0
 40
19.0
 40
20.0
 40
20.0
 40
20.0
 40
21.0
 40
21.0
 40
21.0
 40
22.0
 40
22.0
 40
22.0
 40
23.0
 40
23.0
 40
23.0
 40
24.0
 40
24.0
 40
24.0
 40
25.0
 40
25.0
 40
25.0
 40
26.0
 40
26.0
 40
26.0
 40
27.0
 40
27.0
 40
27.0
 40
28.0
 40
28.0
 40
28.0
 40
29.0
 40
29.0
 40
29.0
 40
30.0
 40
30.0
 40
30.0
 40
31.0
 40
31.0
 40
31.0
 40
32.0
 40
32.0
 40
32.0
 40
33.0
 40
33.0
 40
33.0
 40
33.0
 10
1976.718878323425
 20
143.4575073651321
 10
1976.718878323425
 20
143.4575073651321
 10
1978.332996588864
 20
143.4575073651321
 10
1978.332996588864
 20
143.4575073651321
 10
1978.332996588864
 20
143.4575073651321
 10
1977.517531365076
 20
140.810778921676
 10
1977.517531365076
 20
140.810778921676
 10
1978.225279598895
 20
141.920531723033
 10
1978.860571791119
 20
142.4151520726926
 10
1979.704602846502
 20
143.054312554611
 10
1980.551163168223
 20
143.6843974337833
 10
1981.556025806694
 20
143.812794895584
 10
1982.253508194784
 20
143.812794895584
 10
1983.117029479015
 20
143.812794895584
 10
1983.950645908296
 20
143.6422925882567
 10
1984.388804106443
 20
142.6958262461422
 10
1984.72460140805
 20
141.9536353560001
 10
1984.740223347202
 20
141.8660781065566
 10
1984.644260006691
 20
140.4010377747479
 10
1985.521915426345
 20
141.9030500292188
 10
1986.170151511008
 20
142.5500214807137
 10
1987.272167732975
 20
143.1716258786317
 10
1988.42863757142
 20
143.812794895584
 10
1989.102761440966
 20
143.8607765658398
 10
1989.885941323838
 20
143.7453229964802
 10
1991.039733115569
 20
143.5748950793392
 10
1991.776195961356
 20
143.1632197875635
 10
1992.161239566385
 20
141.9121256319649
 10
1992.54762219477
 20
140.6648997660613
 10
1992.338883331611
 20
139.9959088193793
 10
1991.861744675765
 20
138.0103603530286
 10
1991.64393020986
 20
137.1060732466272
 10
1991.328813380087
 20
136.0111240923725
 10
1990.916542966819
 20
134.7082543670094
 10
1990.916542966819
 20
134.7082543670094
 10
1987.272167732975
 20
123.105319426746
 10
1987.272167732975
 20
123.105319426746
 10
1987.272167732975
 20
123.105319426746
 10
1985.376705782409
 20
123.105319426746
 10
1985.376705782409
 20
123.105319426746
 10
1985.376705782409
 20
123.105319426746
 10
1988.567449659321
 20
133.2490164697431
 10
1988.567449659321
 20
133.2490164697431
 10
1989.233836949479
 20
135.3713684889626
 10
1989.684939040069
 20
136.9212880235028
 10
1989.918375445127
 20
137.893047029008
 10
1990.211323999339
 20
139.1052351170969
 10
1990.327967811683
 20
139.505231149601
 10
1990.189304504152
 20
140.3874987608153
 10
1990.062246065708
 20
141.2087664191461
 10
1989.647297605728
 20
141.7435574694851
 10
1988.936871325198
 20
141.7435574694851
 10
1988.17972800758
 20
141.7435574694851
 10
1987.566455310545
 20
141.659273388245
 10
1986.708290119737
 20
140.7971655175569
 10
1985.84997614856
 20
139.9285113104618
 10
1985.140740111011
 20
138.9088450248874
 10
1984.584599077163
 20
137.7361581257997
 10
1984.029648286297
 20
136.5563297688134
 10
1983.466960916042
 20
135.0608638507494
 10
1982.896536966398
 20
133.2490164697431
 10
1982.896536966398
 20
133.2490164697431
 10
1979.704602846502
 20
123.105319426746
 10
1979.704602846502
 20
123.105319426746
 10
1979.704602846502
 20
123.105319426746
 10
1977.921916418581
 20
123.105319426746
 10
1977.921916418581
 20
123.105319426746
 10
1977.921916418581
 20
123.105319426746
 10
1981.571498965475
 20
134.7030470539584
 10
1981.571498965475
 20
134.7030470539584
 10
1981.956542570504
 20
135.9373290274211
 10
1982.245771615394
 20
136.9433819088763
 10
1982.436359273062
 20
137.729686179579
 10
1982.760402925207
 20
139.0832156219098
 10
1982.851158952669
 20
139.9985124759046
 10
1982.606117678524
 20
140.810778921676
 10
1982.364944694076
 20
141.6204417109219
 10
1981.941069411725
 20
141.8272464292334
 10
1981.233172397533
 20
141.8272464292334
 10
1980.639389929345
 20
141.8272464292334
 10
1980.059890376953
 20
141.5724600406662
 10
1979.398710399847
 20
141.0654909200569
 10
1978.566284213549
 20
140.4276694614944
 10
1978.233164958657
 20
139.9038881587491
 10
1977.824762835085
 20
139.2815398589669
 10
1977.273680333915
 20
138.458263665602
 10
1977.015695167332
 20
137.9040567766015
 10
1976.550310160944
 20
136.687926008631
 10
1976.084776374184
 20
135.4646537827621
 10
1975.644088909695
 20
134.0411231749885
 10
1975.336708659311
 20
133.0564946672286
 10
1975.336708659311
 20
133.0564946672286
 10
1972.205774492298
 20
123.105319426746
 10
1972.205774492298
 20
123.105319426746
 10
1972.205774492298
 20
123.105319426746
 10
1970.338878373326
 20
123.105319426746
 10
1970.338878373326
 20
123.105319426746
 10
1970.338878373326
 20
123.105319426746
 10
1976.718878323425
 20
143.4575073651321
 10
1976.718878323425
 20
143.4575073651321
 97
        1
330
36A9
 92
       16
 93
        1
 72
     4
 94
        3
 73
     0
 74
     1
 95
       29
 96
       25
 40
0.0
 40
0.0
 40
0.0
 40
0.0
 40
1.0
 40
1.0
 40
1.0
 40
2.0
 40
2.0
 40
2.0
 40
3.0
 40
3.0
 40
3.0
 40
4.0
 40
4.0
 40
4.0
 40
5.0
 40
5.0
 40
5.0
 40
6.0
 40
6.0
 40
6.0
 40
7.0
 40
7.0
 40
7.0
 40
8.0
 40
8.0
 40
8.0
 40
8.0
 10
1947.916188375669
 20
126.8949043045264
 10
1947.908303015907
 20
128.3120373562658
 10
1948.355685597176
 20
130.8298476066162
 10
1949.501740809517
 20
134.1986815898748
 10
1951.062744481836
 20
138.7603622127471
 10
1951.998870588036
 20
140.4276694614944
 10
1952.818055321147
 20
141.2392663955878
 10
1954.014844640642
 20
142.4210288974216
 10
1955.623755593032
 20
142.4799459250845
 10
1956.098364982539
 20
142.4210288974216
 10
1956.77382787544
 20
142.3399435941987
 10
1957.727956406759
 20
141.8978427161679
 10
1957.784939289575
 20
140.4095182560024
 10
1957.830466083678
 20
139.1357350935386
 10
1957.463424903768
 20
136.7501905946838
 10
1956.178706383896
 20
133.0053142189559
 10
1954.698044112936
 20
128.6536370924121
 10
1953.808635043822
 20
126.9429603649685
 10
1953.095679496951
 20
126.1974219164366
 10
1951.752490290537
 20
124.7997790935452
 10
1950.311998720255
 20
124.9339789898883
 10
1950.0993915674
 20
124.9339789898883
 10
1949.823255195324
 20
124.9339789898883
 10
1947.920056665365
 20
125.2336226608809
 10
1947.916188375669
 20
126.8949043045264
 97
        1
330
36AB
 75
     0
 76
     1
 98
        1
 10
1859.334883625664
 20
72.26751235270598
1001
ACAD
1010
0.0
1020
0.0
1030
0.0
  0
POLYLINE
  5
369C
102
{ACAD_REACTORS
330
369B
330
36AC
102
}
330
A
100
AcDbEntity
  8
TEMPLATE
100
AcDb2dPolyline
 66
     1
 10
0.0
 20
0.0
 30
0.0
  0
VERTEX
  5
369D
330
369C
100
AcDbEntity
  8
TEMPLATE
100
AcDbVertex
100
AcDb2dVertex
 10
1934.476782902687
 20
153.1053194253001
 30
0.0
  0
VERTEX
  5
369E
330
369C
100
AcDbEntity
  8
TEMPLATE
100
AcDbVertex
100
AcDb2dVertex
 10
1934.476782902687
 20
147.1959117946397
 30
0.0
  0
VERTEX
  5
369F
330
369C
100
AcDbEntity
  8
TEMPLATE
100
AcDbVertex
100
AcDb2dVertex
 10
1925.116191352377
 20
147.1959117946397
 30
0.0
  0
VERTEX
  5
36A0
330
369C
100
AcDbEntity
  8
TEMPLATE
100
AcDbVertex
100
AcDb2dVertex
 10
1925.116191352377
 20
123.105319426746
 30
0.0
  0
VERTEX
  5
36A1
330
369C
100
AcDbEntity
  8
TEMPLATE
100
AcDbVertex
100
AcDb2dVertex
 10
1916.883578199102
 20
123.105319426746
 30
0.0
  0
VERTEX
  5
36A2
330
369C
100
AcDbEntity
  8
TEMPLATE
100
AcDbVertex
100
AcDb2dVertex
 10
1916.883578199102
 20
147.1959117946397
 30
0.0
  0
VERTEX
  5
36A3
330
369C
100
AcDbEntity
  8
TEMPLATE
100
AcDbVertex
100
AcDb2dVertex
 10
1907.688876764557
 20
147.1959117946397
 30
0.0
  0
VERTEX
  5
36A4
330
369C
100
AcDbEntity
  8
TEMPLATE
100
AcDbVertex
100
AcDb2dVertex
 10
1907.688876764557
 20
153.1053194253001
 30
0.0
  0
VERTEX
  5
36A5
330
369C
100
AcDbEntity
  8
TEMPLATE
100
AcDbVertex
100
AcDb2dVertex
 10
1934.476782902687
 20
153.1053194253001
 30
0.0
  0
SEQEND
  5
36A6
330
369C
100
AcDbEntity
  8
TEMPLATE
  0
SPLINE
  5
36A7
102
{ACAD_REACTORS
330
369B
330
36AC
102
}
330
A
100
AcDbEntity
  8
TEMPLATE
100
AcDbSpline
210
0.0
220
0.0
230
1.0
 70
    11
 71
     3
 72
    56
 73
    52
 74
     0
 42
0.000000001
 43
0.0000000001
 40
0.0
 40
0.0
 40
0.0
 40
0.0
 40
1.0
 40
1.0
 40
1.0
 40
2.0
 40
2.0
 40
2.0
 40
3.0
 40
3.0
 40
3.0
 40
4.0
 40
4.0
 40
4.0
 40
5.0
 40
5.0
 40
5.0
 40
6.0
 40
6.0
 40
6.0
 40
7.0
 40
7.0
 40
7.0
 40
8.0
 40
8.0
 40
8.0
 40
9.0
 40
9.0
 40
9.0
 40
10.0
 40
10.0
 40
10.0
 40
11.0
 40
11.0
 40
11.0
 40
12.0
 40
12.0
 40
12.0
 40
13.0
 40
13.0
 40
13.0
 40
14.0
 40
14.0
 40
14.0
 40
15.0
 40
15.0
 40
15.0
 40
16.0
 40
16.0
 40
16.0
 40
17.0
 40
17.0
 40
17.0
 40
17.0
 10
1947.01896833698
 20
152.3909504648878
 30
0.0
 10
1948.1728345189
 20
152.715738018898
 30
0.0
 10
1949.662423612235
 20
152.4440650580081
 30
0.0
 10
1949.662423612235
 20
152.4440650580081
 30
0.0
 10
1949.662423612235
 20
152.4440650580081
 30
0.0
 10
1948.946790018651
 20
150.2964947655846
 30
0.0
 10
1948.946790018651
 20
150.2964947655846
 30
0.0
 10
1948.946790018651
 20
150.2964947655846
 30
0.0
 10
1947.484427733556
 20
150.6348957237139
 30
0.0
 10
1946.356523726704
 20
149.7454866546012
 30
0.0
 10
1945.480058550036
 20
149.0499384113589
 30
0.0
 10
1944.912238256914
 20
147.2017886193686
 30
0.0
 10
1944.69442379101
 20
146.4990989182278
 30
0.0
 10
1944.69442379101
 20
146.4990989182278
 30
0.0
 10
1943.723334297183
 20
143.518432927829
 30
0.0
 10
1943.723334297183
 20
143.518432927829
 30
0.0
 10
1943.723334297183
 20
143.518432927829
 30
0.0
 10
1946.907457447503
 20
143.518432927829
 30
0.0
 10
1946.907457447503
 20
143.518432927829
 30
0.0
 10
1946.907457447503
 20
143.518432927829
 30
0.0
 10
1946.412241976351
 20
141.642461206109
 30
0.0
 10
1946.412241976351
 20
141.642461206109
 30
0.0
 10
1946.412241976351
 20
141.642461206109
 30
0.0
 10
1943.202156650962
 20
141.642461206109
 30
0.0
 10
1943.202156650962
 20
141.642461206109
 30
0.0
 10
1943.202156650962
 20
141.642461206109
 30
0.0
 10
1937.458713526257
 20
123.105319426746
 30
0.0
 10
1937.458713526257
 20
123.105319426746
 30
0.0
 10
1937.458713526257
 20
123.105319426746
 30
0.0
 10
1935.660479549369
 20
123.105319426746
 30
0.0
 10
1935.660479549369
 20
123.105319426746
 30
0.0
 10
1935.660479549369
 20
123.105319426746
 30
0.0
 10
1941.409129987127
 20
141.642461206109
 30
0.0
 10
1941.409129987127
 20
141.642461206109
 30
0.0
 10
1941.409129987127
 20
141.642461206109
 30
0.0
 10
1939.040397670409
 20
141.642461206109
 30
0.0
 10
1939.040397670409
 20
141.642461206109
 30
0.0
 10
1939.040397670409
 20
141.642461206109
 30
0.0
 10
1939.536952164915
 20
143.518432927829
 30
0.0
 10
1939.536952164915
 20
143.518432927829
 30
0.0
 10
1939.536952164915
 20
143.518432927829
 30
0.0
 10
1941.930307633347
 20
143.518432927829
 30
0.0
 10
1941.930307633347
 20
143.518432927829
 30
0.0
 10
1941.930307633347
 20
143.518432927829
 30
0.0
 10
1942.77686795507
 20
146.1179236028939
 30
0.0
 10
1942.77686795507
 20
146.1179236028939
 30
0.0
 10
1943.461406450716
 20
148.2973328951149
 30
0.0
 10
1944.042245026465
 20
149.4674161376772
 30
0.0
 10
1944.540138544327
 20
150.3496093587049
 30
0.0
 10
1945.032750358952
 20
151.232546481597
 30
0.0
 10
1946.007708142475
 20
152.0998616653363
 30
0.0
 10
1947.01896833698
 20
152.3909504648878
 30
0.0
  0
SPLINE
  5
36A8
102
{ACAD_REACTORS
330
369B
330
36AC
102
}
330
A
100
AcDbEntity
  8
TEMPLATE
100
AcDbSpline
210
0.0
220
0.0
230
1.0
 70
    11
 71
     3
 72
    38
 73
    34
 74
     0
 42
0.000000001
 43
0.0000000001
 40
0.0
 40
0.0
 40
0.0
 40
0.0
 40
1.0
 40
1.0
 40
1.0
 40
2.0
 40
2.0
 40
2.0
 40
3.0
 40
3.0
 40
3.0
 40
4.0
 40
4.0
 40
4.0
 40
5.0
 40
5.0
 40
5.0
 40
6.0
 40
6.0
 40
6.0
 40
7.0
 40
7.0
 40
7.0
 40
8.0
 40
8.0
 40
8.0
 40
9.0
 40
9.0
 40
9.0
 40
10.0
 40
10.0
 40
10.0
 40
11.0
 40
11.0
 40
11.0
 40
11.0
 10
1966.542747159137
 20
143.4464976175386
 30
0.0
 10
1966.542747159137
 20
143.4464976175386
 30
0.0
 10
1968.39149207262
 20
143.4464976175386
 30
0.0
 10
1968.39149207262
 20
143.4464976175386
 30
0.0
 10
1968.39149207262
 20
143.4464976175386
 30
0.0
 10
1967.56561222273
 20
140.8022984404216
 30
0.0
 10
1967.56561222273
 20
140.8022984404216
 30
0.0
 10
1968.193167835563
 20
141.54456372075
 30
0.0
 10
1969.183598777865
 20
142.5331349083912
 30
0.0
 10
1970.034176169654
 20
143.0316235477459
 30
0.0
 10
1971.304760554101
 20
143.7738888280742
 30
0.0
 10
1972.030808773784
 20
143.8717863134333
 30
0.0
 10
1972.829313035064
 20
143.8522960845852
 30
0.0
 10
1972.829313035064
 20
143.8522960845852
 30
0.0
 10
1972.048959979278
 20
141.3520419182353
 30
0.0
 10
1972.048959979278
 20
141.3520419182353
 30
0.0
 10
1971.540726225497
 20
141.5672527276151
 30
0.0
 10
1969.974515240128
 20
141.1575859708734
 30
0.0
 10
1969.076030568268
 20
140.5112840310564
 30
0.0
 10
1968.265772657532
 20
139.9285113104618
 30
0.0
 10
1967.705614553615
 20
139.4326263276327
 30
0.0
 10
1967.04190531017
 20
138.1859955832205
 30
0.0
 10
1966.383254599404
 20
136.9375050841474
 30
0.0
 10
1965.86341597654
 20
134.9467493047458
 30
0.0
 10
1964.968799594376
 20
132.058773486655
 30
0.0
 10
1964.968799594376
 20
132.058773486655
 30
0.0
 10
1962.174852971949
 20
123.105319426746
 30
0.0
 10
1962.174852971949
 20
123.105319426746
 30
0.0
 10
1962.174852971949
 20
123.105319426746
 30
0.0
 10
1960.380561674943
 20
123.105319426746
 30
0.0
 10
1960.380561674943
 20
123.105319426746
 30
0.0
 10
1960.380561674943
 20
123.105319426746
 30
0.0
 10
1966.542747159137
 20
143.4464976175386
 30
0.0
 10
1966.542747159137
 20
143.4464976175386
 30
0.0
  0
SPLINE
  5
36A9
102
{ACAD_REACTORS
330
369B
330
36AC
102
}
330
A
100
AcDbEntity
  8
TEMPLATE
100
AcDbSpline
210
0.0
220
0.0
230
1.0
 70
    11
 71
     3
 72
   104
 73
   100
 74
     0
 42
0.000000001
 43
0.0000000001
 40
0.0
 40
0.0
 40
0.0
 40
0.0
 40
1.0
 40
1.0
 40
1.0
 40
2.0
 40
2.0
 40
2.0
 40
3.0
 40
3.0
 40
3.0
 40
4.0
 40
4.0
 40
4.0
 40
5.0
 40
5.0
 40
5.0
 40
6.0
 40
6.0
 40
6.0
 40
7.0
 40
7.0
 40
7.0
 40
8.0
 40
8.0
 40
8.0
 40
9.0
 40
9.0
 40
9.0
 40
10.0
 40
10.0
 40
10.0
 40
11.0
 40
11.0
 40
11.0
 40
12.0
 40
12.0
 40
12.0
 40
13.0
 40
13.0
 40
13.0
 40
14.0
 40
14.0
 40
14.0
 40
15.0
 40
15.0
 40
15.0
 40
16.0
 40
16.0
 40
16.0
 40
17.0
 40
17.0
 40
17.0
 40
18.0
 40
18.0
 40
18.0
 40
19.0
 40
19.0
 40
19.0
 40
20.0
 40
20.0
 40
20.0
 40
21.0
 40
21.0
 40
21.0
 40
22.0
 40
22.0
 40
22.0
 40
23.0
 40
23.0
 40
23.0
 40
24.0
 40
24.0
 40
24.0
 40
25.0
 40
25.0
 40
25.0
 40
26.0
 40
26.0
 40
26.0
 40
27.0
 40
27.0
 40
27.0
 40
28.0
 40
28.0
 40
28.0
 40
29.0
 40
29.0
 40
29.0
 40
30.0
 40
30.0
 40
30.0
 40
31.0
 40
31.0
 40
31.0
 40
32.0
 40
32.0
 40
32.0
 40
33.0
 40
33.0
 40
33.0
 40
33.0
 10
1976.718878323425
 20
143.4575073651321
 30
0.0
 10
1976.718878323425
 20
143.4575073651321
 30
0.0
 10
1978.332996588864
 20
143.4575073651321
 30
0.0
 10
1978.332996588864
 20
143.4575073651321
 30
0.0
 10
1978.332996588864
 20
143.4575073651321
 30
0.0
 10
1977.517531365076
 20
140.810778921676
 30
0.0
 10
1977.517531365076
 20
140.810778921676
 30
0.0
 10
1978.225279598895
 20
141.920531723033
 30
0.0
 10
1978.860571791119
 20
142.4151520726926
 30
0.0
 10
1979.704602846502
 20
143.054312554611
 30
0.0
 10
1980.551163168223
 20
143.6843974337833
 30
0.0
 10
1981.556025806694
 20
143.812794895584
 30
0.0
 10
1982.253508194784
 20
143.812794895584
 30
0.0
 10
1983.117029479015
 20
143.812794895584
 30
0.0
 10
1983.950645908296
 20
143.6422925882567
 30
0.0
 10
1984.388804106443
 20
142.6958262461422
 30
0.0
 10
1984.72460140805
 20
141.9536353560001
 30
0.0
 10
1984.740223347202
 20
141.8660781065566
 30
0.0
 10
1984.644260006691
 20
140.4010377747479
 30
0.0
 10
1985.521915426345
 20
141.9030500292188
 30
0.0
 10
1986.170151511008
 20
142.5500214807137
 30
0.0
 10
1987.272167732975
 20
143.1716258786317
 30
0.0
 10
1988.42863757142
 20
143.812794895584
 30
0.0
 10
1989.102761440966
 20
143.8607765658398
 30
0.0
 10
1989.885941323838
 20
143.7453229964802
 30
0.0
 10
1991.039733115569
 20
143.5748950793392
 30
0.0
 10
1991.776195961356
 20
143.1632197875635
 30
0.0
 10
1992.161239566385
 20
141.9121256319649
 30
0.0
 10
1992.54762219477
 20
140.6648997660613
 30
0.0
 10
1992.338883331611
 20
139.9959088193793
 30
0.0
 10
1991.861744675765
 20
138.0103603530286
 30
0.0
 10
1991.64393020986
 20
137.1060732466272
 30
0.0
 10
1991.328813380087
 20
136.0111240923725
 30
0.0
 10
1990.916542966819
 20
134.7082543670094
 30
0.0
 10
1990.916542966819
 20
134.7082543670094
 30
0.0
 10
1987.272167732975
 20
123.105319426746
 30
0.0
 10
1987.272167732975
 20
123.105319426746
 30
0.0
 10
1987.272167732975
 20
123.105319426746
 30
0.0
 10
1985.376705782409
 20
123.105319426746
 30
0.0
 10
1985.376705782409
 20
123.105319426746
 30
0.0
 10
1985.376705782409
 20
123.105319426746
 30
0.0
 10
1988.567449659321
 20
133.2490164697431
 30
0.0
 10
1988.567449659321
 20
133.2490164697431
 30
0.0
 10
1989.233836949479
 20
135.3713684889626
 30
0.0
 10
1989.684939040069
 20
136.9212880235028
 30
0.0
 10
1989.918375445127
 20
137.893047029008
 30
0.0
 10
1990.211323999339
 20
139.1052351170969
 30
0.0
 10
1990.327967811683
 20
139.505231149601
 30
0.0
 10
1990.189304504152
 20
140.3874987608153
 30
0.0
 10
1990.062246065708
 20
141.2087664191461
 30
0.0
 10
1989.647297605728
 20
141.7435574694851
 30
0.0
 10
1988.936871325198
 20
141.7435574694851
 30
0.0
 10
1988.17972800758
 20
141.7435574694851
 30
0.0
 10
1987.566455310545
 20
141.659273388245
 30
0.0
 10
1986.708290119737
 20
140.7971655175569
 30
0.0
 10
1985.84997614856
 20
139.9285113104618
 30
0.0
 10
1985.140740111011
 20
138.9088450248874
 30
0.0
 10
1984.584599077163
 20
137.7361581257997
 30
0.0
 10
1984.029648286297
 20
136.5563297688134
 30
0.0
 10
1983.466960916042
 20
135.0608638507494
 30
0.0
 10
1982.896536966398
 20
133.2490164697431
 30
0.0
 10
1982.896536966398
 20
133.2490164697431
 30
0.0
 10
1979.704602846502
 20
123.105319426746
 30
0.0
 10
1979.704602846502
 20
123.105319426746
 30
0.0
 10
1979.704602846502
 20
123.105319426746
 30
0.0
 10
1977.921916418581
 20
123.105319426746
 30
0.0
 10
1977.921916418581
 20
123.105319426746
 30
0.0
 10
1977.921916418581
 20
123.105319426746
 30
0.0
 10
1981.571498965475
 20
134.7030470539584
 30
0.0
 10
1981.571498965475
 20
134.7030470539584
 30
0.0
 10
1981.956542570504
 20
135.9373290274211
 30
0.0
 10
1982.245771615394
 20
136.9433819088763
 30
0.0
 10
1982.436359273062
 20
137.729686179579
 30
0.0
 10
1982.760402925207
 20
139.0832156219098
 30
0.0
 10
1982.851158952669
 20
139.9985124759046
 30
0.0
 10
1982.606117678524
 20
140.810778921676
 30
0.0
 10
1982.364944694076
 20
141.6204417109219
 30
0.0
 10
1981.941069411725
 20
141.8272464292334
 30
0.0
 10
1981.233172397533
 20
141.8272464292334
 30
0.0
 10
1980.639389929345
 20
141.8272464292334
 30
0.0
 10
1980.059890376953
 20
141.5724600406662
 30
0.0
 10
1979.398710399847
 20
141.0654909200569
 30
0.0
 10
1978.566284213549
 20
140.4276694614944
 30
0.0
 10
1978.233164958657
 20
139.9038881587491
 30
0.0
 10
1977.824762835085
 20
139.2815398589669
 30
0.0
 10
1977.273680333915
 20
138.458263665602
 30
0.0
 10
1977.015695167332
 20
137.9040567766015
 30
0.0
 10
1976.550310160944
 20
136.687926008631
 30
0.0
 10
1976.084776374184
 20
135.4646537827621
 30
0.0
 10
1975.644088909695
 20
134.0411231749885
 30
0.0
 10
1975.336708659311
 20
133.0564946672286
 30
0.0
 10
1975.336708659311
 20
133.0564946672286
 30
0.0
 10
1972.205774492298
 20
123.105319426746
 30
0.0
 10
1972.205774492298
 20
123.105319426746
 30
0.0
 10
1972.205774492298
 20
123.105319426746
 30
0.0
 10
1970.338878373326
 20
123.105319426746
 30
0.0
 10
1970.338878373326
 20
123.105319426746
 30
0.0
 10
1970.338878373326
 20
123.105319426746
 30
0.0
 10
1976.718878323425
 20
143.4575073651321
 30
0.0
 10
1976.718878323425
 20
143.4575073651321
 30
0.0
  0
SPLINE
  5
36AA
102
{ACAD_REACTORS
330
369B
330
36AC
102
}
330
A
100
AcDbEntity
  8
TEMPLATE
100
AcDbSpline
210
0.0
220
0.0
230
1.0
 70
    11
 71
     3
 72
    32
 73
    28
 74
     0
 42
0.000000001
 43
0.0000000001
 40
0.0
 40
0.0
 40
0.0
 40
0.0
 40
1.0
 40
1.0
 40
1.0
 40
2.0
 40
2.0
 40
2.0
 40
3.0
 40
3.0
 40
3.0
 40
4.0
 40
4.0
 40
4.0
 40
5.0
 40
5.0
 40
5.0
 40
6.0
 40
6.0
 40
6.0
 40
7.0
 40
7.0
 40
7.0
 40
8.0
 40
8.0
 40
8.0
 40
9.0
 40
9.0
 40
9.0
 40
9.0
 10
1951.394524713372
 20
142.3847264864374
 30
0.0
 10
1950.311998720255
 20
140.9844800070205
 30
0.0
 10
1949.478382290974
 20
139.7243102486757
 30
0.0
 10
1948.128795528524
 20
135.7635535518901
 30
0.0
 10
1946.888041608841
 20
132.1406026917421
 30
0.0
 10
1946.098464169936
 20
129.5048096056932
 30
0.0
 10
1945.979216701069
 20
126.2947242803041
 30
0.0
 10
1945.888460673606
 20
123.9059066132458
 30
0.0
 10
1947.343086379314
 20
123.105319426746
 30
0.0
 10
1949.475853024634
 20
123.105319426746
 30
0.0
 10
1950.395018168326
 20
123.105319426746
 30
0.0
 10
1952.714504181618
 20
123.1637901132903
 30
0.0
 10
1954.3662638814
 20
125.2056519507783
 30
0.0
 10
1955.522584939468
 20
126.6401923061455
 30
0.0
 10
1956.588298750451
 20
128.1272521331414
 30
0.0
 10
1958.017036671275
 20
133.0053142189559
 30
0.0
 10
1959.205940631009
 20
137.0833842397621
 30
0.0
 10
1960.029142434186
 20
139.7191029356247
 30
0.0
 10
1959.968291261677
 20
141.2197761667398
 30
0.0
 10
1959.968291261677
 20
141.2197761667398
 30
0.0
 10
1959.968291261677
 20
141.2197761667398
 30
0.0
 10
1959.968291261677
 20
141.2197761667398
 30
0.0
 10
1959.580569609936
 20
143.7233035012931
 30
0.0
 10
1957.762919794387
 20
144.2522921170894
 30
0.0
 10
1956.724432791643
 20
144.2522921170894
 30
0.0
 10
1955.70156772805
 20
144.2522921170894
 30
0.0
 10
1952.960735698745
 20
144.4292663706373
 30
0.0
 10
1951.394524713372
 20
142.3847264864374
 30
0.0
  0
SPLINE
  5
36AB
102
{ACAD_REACTORS
330
369B
330
36AC
102
}
330
A
100
AcDbEntity
  8
TEMPLATE
100
AcDbSpline
210
0.0
220
0.0
230
1.0
 70
    11
 71
     3
 72
    29
 73
    25
 74
     0
 42
0.000000001
 43
0.0000000001
 40
0.0
 40
0.0
 40
0.0
 40
0.0
 40
1.0
 40
1.0
 40
1.0
 40
2.0
 40
2.0
 40
2.0
 40
3.0
 40
3.0
 40
3.0
 40
4.0
 40
4.0
 40
4.0
 40
5.0
 40
5.0
 40
5.0
 40
6.0
 40
6.0
 40
6.0
 40
7.0
 40
7.0
 40
7.0
 40
8.0
 40
8.0
 40
8.0
 40
8.0
 10
1947.916188375669
 20
126.8949043045264
 30
0.0
 10
1947.908303015907
 20
128.3120373562658
 30
0.0
 10
1948.355685597176
 20
130.8298476066162
 30
0.0
 10
1949.501740809517
 20
134.1986815898748
 30
0.0
 10
1951.062744481836
 20
138.7603622127471
 30
0.0
 10
1951.998870588036
 20
140.4276694614944
 30
0.0
 10
1952.818055321147
 20
141.2392663955878
 30
0.0
 10
1954.014844640642
 20
142.4210288974216
 30
0.0
 10
1955.623755593032
 20
142.4799459250845
 30
0.0
 10
1956.098364982539
 20
142.4210288974216
 30
0.0
 10
1956.77382787544
 20
142.3399435941987
 30
0.0
 10
1957.727956406759
 20
141.8978427161679
 30
0.0
 10
1957.784939289575
 20
140.4095182560024
 30
0.0
 10
1957.830466083678
 20
139.1357350935386
 30
0.0
 10
1957.463424903768
 20
136.7501905946838
 30
0.0
 10
1956.178706383896
 20
133.0053142189559
 30
0.0
 10
1954.698044112936
 20
128.6536370924121
 30
0.0
 10
1953.808635043822
 20
126.9429603649685
 30
0.0
 10
1953.095679496951
 20
126.1974219164366
 30
0.0
 10
1951.752490290537
 20
124.7997790935452
 30
0.0
 10
1950.311998720255
 20
124.9339789898883
 30
0.0
 10
1950.0993915674
 20
124.9339789898883
 30
0.0
 10
1949.823255195324
 20
124.9339789898883
 30
0.0
 10
1947.920056665365
 20
125.2336226608809
 30
0.0
 10
1947.916188375669
 20
126.8949043045264
 30
0.0
  0
LINE
  5
3BD5
330
A
100
AcDbEntity
  8
レイヤー 1
100
AcDbLine
 10
993.8605490961786
 20
2221.359412389153
 30
0.0
 11
993.7342858459526
 21
2200.155834519026
 31
0.0
  0
LINE
  5
3BD6
330
A
100
AcDbEntity
  8
レイヤー 1
100
AcDbLine
 10
993.7342858459526
 20
2200.155834519026
 30
0.0
 11
992.8971432006188
 21
2178.962634450289
 31
0.0
  0
LINE
  5
3BD7
330
A
100
AcDbEntity
  8
レイヤー 1
100
AcDbLine
 10
992.8971432006188
 20
2178.962634450289
 30
0.0
 11
992.1845341719456
 21
2168.404951171126
 31
0.0
  0
LINE
  5
3BD8
330
A
100
AcDbEntity
  8
レイヤー 1
100
AcDbLine
 10
992.1845341719456
 20
2168.404951171126
 30
0.0
 11
991.2211282763876
 21
2157.874942028999
 31
0.0
  0
LINE
  5
3BD9
330
A
100
AcDbEntity
  8
レイヤー 1
100
AcDbLine
 10
991.2211282763876
 20
2157.874942028999
 30
0.0
 11
989.7872620512196
 21
2147.327636551225
 31
0.0
  0
LINE
  5
3BDA
330
A
100
AcDbEntity
  8
レイヤー 1
100
AcDbLine
 10
989.7872620512196
 20
2147.327636551225
 30
0.0
 11
987.7462944448278
 21
2136.916972125065
 31
0.0
  0
LINE
  5
3BDB
330
A
100
AcDbEntity
  8
レイヤー 1
100
AcDbLine
 10
987.7462944448278
 20
2305.931575170599
 30
0.0
 11
989.7872620512196
 21
2295.508803309485
 31
0.0
  0
LINE
  5
3BDC
330
A
100
AcDbEntity
  8
レイヤー 1
100
AcDbLine
 10
989.7872620512196
 20
2295.508803309485
 30
0.0
 11
991.2211282763876
 21
2284.96495709884
 31
0.0
  0
LINE
  5
3BDD
330
A
100
AcDbEntity
  8
レイヤー 1
100
AcDbLine
 10
991.2211282763876
 20
2284.96495709884
 30
0.0
 11
992.1845341719456
 21
2274.424570155325
 31
0.0
  0
LINE
  5
3BDE
330
A
100
AcDbEntity
  8
レイヤー 1
100
AcDbLine
 10
992.1845341719456
 20
2274.424570155325
 30
0.0
 11
992.8971432006188
 21
2263.88418321181
 31
0.0
  0
LINE
  5
3BDF
330
A
100
AcDbEntity
  8
レイヤー 1
100
AcDbLine
 10
992.8971432006188
 20
2263.88418321181
 30
0.0
 11
993.7342858459526
 21
2242.685794242378
 31
0.0
  0
LINE
  5
3BE0
330
A
100
AcDbEntity
  8
レイヤー 1
100
AcDbLine
 10
993.7342858459526
 20
2242.685794242378
 30
0.0
 11
993.8605490961786
 21
2221.359412389153
 31
0.0
  0
LINE
  5
3BE1
330
A
100
AcDbEntity
  8
レイヤー 1
100
AcDbLine
 10
453.0335371731094
 20
2136.916972125065
 30
0.0
 11
451.1171031833805
 21
2147.336284719048
 31
0.0
  0
LINE
  5
3BE2
330
A
100
AcDbEntity
  8
レイヤー 1
100
AcDbLine
 10
451.1171031833805
 20
2147.336284719048
 30
0.0
 11
449.6832369582121
 21
2157.874942028999
 31
0.0
  0
LINE
  5
3BE3
330
A
100
AcDbEntity
  8
レイヤー 1
100
AcDbLine
 10
449.6832369582121
 20
2157.874942028999
 30
0.0
 11
448.6056752473801
 21
2168.418788239644
 31
0.0
  0
LINE
  5
3BE4
330
A
100
AcDbEntity
  8
レイヤー 1
100
AcDbLine
 10
448.6056752473801
 20
2168.418788239644
 30
0.0
 11
447.88268841732
 21
2178.962634450289
 31
0.0
  0
LINE
  5
3BE5
330
A
100
AcDbEntity
  8
レイヤー 1
100
AcDbLine
 10
447.88268841732
 20
2178.962634450289
 30
0.0
 11
447.1631608543889
 21
2200.155834519026
 31
0.0
  0
LINE
  5
3BE6
330
A
100
AcDbEntity
  8
レイヤー 1
100
AcDbLine
 10
447.1631608543889
 20
2200.155834519026
 30
0.0
 11
447.0438161384213
 21
2221.359412389153
 31
0.0
  0
LINE
  5
3BE7
330
A
100
AcDbEntity
  8
レイヤー 1
100
AcDbLine
 10
447.0438161384213
 20
2221.359412389153
 30
0.0
 11
447.1700793886471
 21
2242.677146074554
 31
0.0
  0
LINE
  5
3BE8
330
A
100
AcDbEntity
  8
レイヤー 1
100
AcDbLine
 10
447.1700793886471
 20
2242.677146074554
 30
0.0
 11
447.8913365851426
 21
2263.875535043986
 31
0.0
  0
LINE
  5
3BE9
330
A
100
AcDbEntity
  8
レイヤー 1
100
AcDbLine
 10
447.8913365851426
 20
2263.875535043986
 30
0.0
 11
448.6056752473801
 21
2274.424570155325
 31
0.0
  0
LINE
  5
3BEA
330
A
100
AcDbEntity
  8
レイヤー 1
100
AcDbLine
 10
448.6056752473801
 20
2274.424570155325
 30
0.0
 11
449.6832369582121
 21
2284.96495709884
 31
0.0
  0
LINE
  5
3BEB
330
A
100
AcDbEntity
  8
レイヤー 1
100
AcDbLine
 10
449.6832369582121
 20
2284.96495709884
 30
0.0
 11
451.1171031833805
 21
2295.508803309485
 31
0.0
  0
LINE
  5
3BEC
330
A
100
AcDbEntity
  8
レイヤー 1
100
AcDbLine
 10
451.1171031833805
 20
2295.508803309485
 30
0.0
 11
453.0335371731094
 21
2305.931575170599
 31
0.0
  0
LINE
  5
3BED
330
A
100
AcDbEntity
  8
HIDDEN
 48
0.5
100
AcDbLine
 10
1755.03866801358
 20
1563.075525278508
 30
0.0
 11
1754.070073217327
 21
1562.836835846574
 31
0.0
  0
LINE
  5
3BEE
330
A
100
AcDbEntity
  8
HIDDEN
 48
0.5
100
AcDbLine
 10
1754.070073217327
 20
1562.831646945881
 30
0.0
 11
1753.222552770605
 21
1562.224545564657
 31
0.0
  0
LINE
  5
3BEF
330
A
100
AcDbEntity
  8
HIDDEN
 48
0.5
100
AcDbLine
 10
1753.222552770605
 20
1562.224545564657
 30
0.0
 11
1752.748633173868
 21
1561.383943652194
 31
0.0
  0
LINE
  5
3BF0
330
A
100
AcDbEntity
  8
レイヤー 1
100
AcDbLine
 10
1756.733708907024
 20
1562.224545564657
 30
0.0
 11
1757.204169236633
 21
1561.383943652194
 31
0.0
  0
LINE
  5
3BF1
330
A
100
AcDbEntity
  8
レイヤー 1
100
AcDbLine
 10
1757.204169236633
 20
1561.383943652194
 30
0.0
 11
1757.318325051905
 21
1560.4222673902
 31
0.0
  0
LINE
  5
3BF2
330
A
100
AcDbEntity
  8
レイヤー 1
100
AcDbLine
 10
1752.748633173868
 20
1500.53889411183
 30
0.0
 11
1747.317583780589
 21
1429.207076268458
 31
0.0
  0
LINE
  5
3BF8
330
A
100
AcDbEntity
  8
レイヤー 1
100
AcDbLine
 10
1747.321043047718
 20
1429.207076268458
 30
0.0
 11
1744.916852392733
 21
1399.197933920248
 31
0.0
  0
LINE
  5
3BF9
330
A
100
AcDbEntity
  8
レイヤー 1
100
AcDbLine
 10
1744.916852392733
 20
1399.197933920248
 30
0.0
 11
1736.714930028744
 21
1297.979777711762
 31
0.0
  0
LINE
  5
3BFA
330
A
100
AcDbEntity
  8
レイヤー 1
100
AcDbLine
 10
1732.622617014573
 20
1247.967423187354
 30
0.0
 11
1722.867483709448
 21
1138.308655182945
 31
0.0
  0
LINE
  5
3BFB
330
A
100
AcDbEntity
  8
レイヤー 1
100
AcDbLine
 10
1722.867483709448
 20
1138.31384408364
 30
0.0
 11
1721.058287000731
 21
1117.352414912576
 31
0.0
  0
LINE
  5
3BFC
330
A
100
AcDbEntity
  8
レイヤー 1
100
AcDbLine
 10
1721.058287000731
 20
1117.352414912576
 30
0.0
 11
1712.738749554341
 21
1028.777880062327
 31
0.0
  0
LINE
  5
3BFD
330
A
100
AcDbEntity
  8
レイヤー 1
100
AcDbLine
 10
1712.738749554341
 20
1028.777880062327
 30
0.0
 11
1708.885125972104
 21
986.7235695692802
 31
0.0
  0
LINE
  5
3BFE
330
A
100
AcDbEntity
  8
レイヤー 1
100
AcDbLine
 10
1696.120430264335
 20
856.1051020273728
 30
0.0
 11
1682.847222288534
 21
725.8533168011897
 31
0.0
  0
LINE
  5
3BFF
330
A
100
AcDbEntity
  8
レイヤー 1
100
AcDbLine
 10
1682.861059357051
 20
725.8533168011897
 30
0.0
 11
1682.861059357051
 21
725.6111681021264
 31
0.0
  0
LINE
  5
3C00
330
A
100
AcDbEntity
  8
レイヤー 1
100
AcDbLine
 10
1682.861059357051
 20
725.6059792014323
 30
0.0
 11
1682.501295575585
 21
724.6408436723084
 31
0.0
  0
LINE
  5
3C01
330
A
100
AcDbEntity
  8
レイヤー 1
100
AcDbLine
 10
1682.490917774198
 20
724.6512214736965
 30
0.0
 11
1682.490917774198
 21
724.5266878570353
 31
0.0
  0
LINE
  5
3C02
330
A
100
AcDbEntity
  8
レイヤー 1
100
AcDbLine
 10
1682.501295575585
 20
724.5266878570353
 30
0.0
 11
1681.892464560796
 21
723.6808970438785
 31
0.0
  0
LINE
  5
3C03
330
A
100
AcDbEntity
  8
レイヤー 1
100
AcDbLine
 10
1681.892464560796
 20
723.6808970438785
 30
0.0
 11
1680.934247565933
 21
723.0807141969142
 31
0.0
  0
LINE
  5
3C05
330
A
100
AcDbEntity
  8
レイヤー 1
100
AcDbLine
 10
1680.934247565933
 20
723.0807141969142
 30
0.0
 11
1679.841119153018
 21
722.8385654978508
 31
0.0
  0
LINE
  5
3C06
330
A
100
AcDbEntity
  8
レイヤー 1
100
AcDbLine
 10
1696.120430264335
 20
856.1051020273728
 30
0.0
 11
1708.885125972104
 21
986.7235695692802
 31
0.0
  0
LINE
  5
3C07
330
A
100
AcDbEntity
  8
レイヤー 1
100
AcDbLine
 10
1721.058287000731
 20
1117.352414912576
 30
0.0
 11
1732.622617014573
 21
1247.967423187354
 31
0.0
  0
LINE
  5
3C08
330
A
100
AcDbEntity
  8
レイヤー 1
100
AcDbLine
 10
1735.995402465813
 20
1289.058327784842
 30
0.0
 11
1746.961279266251
 21
1424.737703137173
 31
0.0
  0
LINE
  5
3C09
330
A
100
AcDbEntity
  8
レイヤー 1
100
AcDbLine
 10
1746.961279266251
 20
1424.737703137173
 30
0.0
 11
1757.318325051905
 21
1560.429185924459
 31
0.0
  0
LINE
  5
3C0A
330
A
100
AcDbEntity
  8
レイヤー 1
100
AcDbLine
 10
1756.719871838507
 20
1562.231464098916
 30
0.0
 11
1755.993425741317
 21
1562.819539510927
 31
0.0
  0
LINE
  5
3C0B
330
A
100
AcDbEntity
  8
レイヤー 1
100
AcDbLine
 10
1755.993425741317
 20
1562.819539510927
 30
0.0
 11
1755.03866801358
 21
1563.075525278508
 31
0.0
  0
LINE
  5
3C0C
330
A
100
AcDbEntity
  8
レイヤー 1
100
AcDbLine
 10
1679.848037687278
 20
722.8385654978508
 30
0.0
 11
1680.937706833062
 21
723.0807141969142
 31
0.0
  0
LINE
  5
3C0D
330
A
100
AcDbEntity
  8
レイヤー 1
100
AcDbLine
 10
1680.937706833062
 20
723.0807141969142
 30
0.0
 11
1681.892464560796
 21
723.6808970438785
 31
0.0
  0
LINE
  5
3C0E
330
A
100
AcDbEntity
  8
レイヤー 1
100
AcDbLine
 10
1681.892464560796
 20
723.6808970438785
 30
0.0
 11
1682.490917774198
 21
724.5266878570353
 31
0.0
  0
LINE
  5
3C0F
330
A
100
AcDbEntity
  8
レイヤー 1
100
AcDbLine
 10
1682.490917774198
 20
724.5266878570353
 30
0.0
 11
1682.861059357051
 21
725.6111681021264
 31
0.0
  0
LINE
  5
3C38
330
A
100
AcDbEntity
  8
HIDDEN
 48
0.25
100
AcDbLine
 10
960.5097547008937
 20
1513.561305220745
 30
0.0
 11
955.8068810383697
 21
1508.123337293207
 31
0.0
  0
LINE
  5
3C97
330
A
100
AcDbEntity
  8
レイヤー 1
100
AcDbLine
 10
910.2673589123751
 20
787.9142987375651
 30
0.0
 11
906.4033575287503
 21
756.7186277639446
 31
0.0
  0
LINE
  5
3C98
330
A
100
AcDbEntity
  8
レイヤー 1
100
AcDbLine
 10
906.4102760630085
 20
756.7047906954269
 30
0.0
 11
902.5549228472064
 21
725.8585057018838
 31
0.0
  0
LINE
  5
3C9A
330
A
100
AcDbEntity
  8
レイヤー 1
100
AcDbLine
 10
902.5549228472064
 20
725.8585057018838
 30
0.0
 11
902.4269299634161
 21
725.4987419204183
 31
0.0
  0
LINE
  5
3C9C
330
A
100
AcDbEntity
  8
レイヤー 1
100
AcDbLine
 10
890.0168091364194
 20
722.8454840321099
 30
0.0
 11
899.5401715438675
 21
722.8454840321099
 31
0.0
  0
LINE
  5
3C9D
330
A
100
AcDbEntity
  8
レイヤー 1
100
AcDbLine
 10
900.5053070729919
 20
723.0841734640437
 30
0.0
 11
899.5401715438675
 21
722.8454840321099
 31
0.0
  0
LINE
  5
3C9E
330
A
100
AcDbEntity
  8
HIDDEN
 48
0.5
100
AcDbLine
 10
749.3958706896301
 20
1424.381398622838
 30
0.0
 11
749.3958706896301
 21
1425.349993419091
 31
0.0
  0
LINE
  5
3C9F
330
A
100
AcDbEntity
  8
HIDDEN
 48
0.5
100
AcDbLine
 10
748.9098436579388
 20
1424.142709190904
 30
0.0
 11
749.3872225218056
 21
1424.374480088579
 31
0.0
  0
LINE
  5
3CA0
330
A
100
AcDbEntity
  8
HIDDEN
 48
0.5
100
AcDbLine
 10
749.1571812576967
 20
1425.467608501494
 30
0.0
 11
749.3958706896301
 21
1425.346534151961
 31
0.0
  0
LINE
  5
3CA1
330
A
100
AcDbEntity
  8
HIDDEN
 48
0.5
100
AcDbLine
 10
748.9098436579388
 20
1424.142709190904
 30
0.0
 11
744.3349628792057
 21
1423.04612151086
 31
0.0
  0
LINE
  5
3CA2
330
A
100
AcDbEntity
  8
HIDDEN
 48
0.5
100
AcDbLine
 10
738.4282642556245
 20
1404.981828560733
 30
0.0
 11
738.4282642556245
 21
1415.235096332502
 31
0.0
  0
LINE
  5
3CA3
330
A
100
AcDbEntity
  8
HIDDEN
 48
0.5
100
AcDbLine
 10
744.3349628792057
 20
1423.059958579378
 30
0.0
 11
742.7713741366824
 21
1422.454586831719
 31
0.0
  0
LINE
  5
3CA4
330
A
100
AcDbEntity
  8
HIDDEN
 48
0.5
100
AcDbLine
 10
742.7713741366824
 20
1422.454586831719
 30
0.0
 11
741.3254004765604
 21
1421.496369836854
 31
0.0
  0
LINE
  5
3CA5
330
A
100
AcDbEntity
  8
HIDDEN
 48
0.5
100
AcDbLine
 10
741.3254004765604
 20
1421.496369836854
 30
0.0
 11
739.998771532406
 21
1420.178389060524
 31
0.0
  0
LINE
  5
3CA6
330
A
100
AcDbEntity
  8
HIDDEN
 48
0.5
100
AcDbLine
 10
739.998771532406
 20
1420.178389060524
 30
0.0
 11
739.1547103528137
 21
1418.718578331885
 31
0.0
  0
LINE
  5
3CA7
330
A
100
AcDbEntity
  8
HIDDEN
 48
0.5
100
AcDbLine
 10
739.1547103528137
 20
1418.718578331885
 30
0.0
 11
738.5562571394148
 21
1417.040833774088
 31
0.0
  0
LINE
  5
3CA8
330
A
100
AcDbEntity
  8
HIDDEN
 48
0.5
100
AcDbLine
 10
738.5562571394148
 20
1417.040833774088
 30
0.0
 11
738.4282642556245
 21
1415.235096332502
 31
0.0
  0
LINE
  5
3CA9
330
A
100
AcDbEntity
  8
HIDDEN
 48
0.5
100
AcDbLine
 10
752.7703857744345
 20
1431.618185457703
 30
0.0
 11
753.3740278885289
 21
1431.849956355378
 31
0.0
  0
LINE
  5
3CAA
330
A
100
AcDbEntity
  8
HIDDEN
 48
0.5
100
AcDbLine
 10
753.3740278885289
 20
1431.849956355378
 30
0.0
 11
753.7320620364299
 21
1432.341172287764
 31
0.0
  0
LINE
  5
3CAB
330
A
100
AcDbEntity
  8
HIDDEN
 48
0.5
100
AcDbLine
 10
753.7320620364299
 20
1432.341172287764
 30
0.0
 11
753.8600549202201
 21
1432.946544035422
 31
0.0
  0
LINE
  5
3CAC
330
A
100
AcDbEntity
  8
HIDDEN
 48
0.5
100
AcDbLine
 10
753.8600549202201
 20
1432.946544035422
 30
0.0
 11
753.7320620364299
 21
1433.42046363216
 31
0.0
  0
LINE
  5
3CAD
330
A
100
AcDbEntity
  8
HIDDEN
 48
0.5
100
AcDbLine
 10
753.7320620364299
 20
1433.42046363216
 30
0.0
 11
753.2477646383031
 21
1433.790605215014
 31
0.0
  0
LINE
  5
3CAE
330
A
100
AcDbEntity
  8
HIDDEN
 48
0.5
100
AcDbLine
 10
725.5321163969347
 20
1425.467608501494
 30
0.0
 11
725.5321163969347
 21
1431.618185457703
 31
0.0
  0
LINE
  5
3CAF
330
A
100
AcDbEntity
  8
HIDDEN
 48
0.5
100
AcDbLine
 10
749.2799852407934
 20
1402.947779488601
 30
0.0
 11
748.4324647940703
 21
1404.037448634385
 31
0.0
  0
LINE
  5
3CB0
330
A
100
AcDbEntity
  8
HIDDEN
 48
0.5
100
AcDbLine
 10
748.4324647940703
 20
1404.037448634385
 30
0.0
 11
747.2320991001416
 21
1404.625524046397
 31
0.0
  0
LINE
  5
3CB1
330
A
100
AcDbEntity
  8
HIDDEN
 48
0.5
100
AcDbLine
 10
747.2320991001416
 20
1404.625524046397
 30
0.0
 11
745.7792069057614
 21
1404.874591279719
 31
0.0
  0
LINE
  5
3CB2
330
A
100
AcDbEntity
  8
HIDDEN
 48
0.5
100
AcDbLine
 10
749.2799852407934
 20
1402.947779488601
 30
0.0
 11
749.8853569884504
 21
1399.443541886441
 31
0.0
  0
LINE
  5
3CB4
330
A
100
AcDbEntity
  8
HIDDEN
 48
0.5
100
AcDbLine
 10
747.8253634128469
 20
1399.322467536909
 30
0.0
 11
747.8253634128469
 21
1399.4504604207
 31
0.0
  0
LINE
  5
3CB5
330
A
100
AcDbEntity
  8
HIDDEN
 48
0.5
100
AcDbLine
 10
747.8253634128469
 20
1399.4504604207
 30
0.0
 11
747.8253634128469
 21
1397.765797328645
 31
0.0
  0
LINE
  5
3CB6
330
A
100
AcDbEntity
  8
HIDDEN
 48
0.5
100
AcDbLine
 10
747.8253634128469
 20
1399.443541886441
 30
0.0
 11
747.8253634128469
 21
1397.765797328645
 31
0.0
  0
LINE
  5
3CB7
330
A
100
AcDbEntity
  8
HIDDEN
 48
0.5
100
AcDbLine
 10
733.8481945761978
 20
1307.029220522473
 30
0.0
 11
733.8481945761978
 21
1355.815264849482
 31
0.0
  0
LINE
  5
3CB8
330
A
100
AcDbEntity
  8
HIDDEN
 48
0.5
100
AcDbLine
 10
745.4280912921204
 20
1294.001620512864
 30
0.0
 11
745.4280912921204
 21
1307.029220522473
 31
0.0
  0
LINE
  5
3CB9
330
A
100
AcDbEntity
  8
HIDDEN
 48
0.5
100
AcDbLine
 10
745.4280912921204
 20
1177.96742318883
 30
0.0
 11
745.4280912921204
 21
1252.071843636478
 31
0.0
  0
LINE
  5
3CBA
330
A
100
AcDbEntity
  8
HIDDEN
 48
0.5
100
AcDbLine
 10
745.4194431242959
 20
1252.552681767475
 30
0.0
 11
745.4194431242959
 21
1293.520782381867
 31
0.0
  0
LINE
  5
3CBB
330
A
100
AcDbEntity
  8
HIDDEN
 48
0.5
100
AcDbLine
 10
733.8568427440205
 20
1350.287355976578
 30
0.0
 11
742.9028262876018
 21
1350.287355976578
 31
0.0
  0
LINE
  5
3CBC
330
A
100
AcDbEntity
  8
HIDDEN
 48
0.5
100
AcDbLine
 10
742.9028262876018
 20
1350.287355976578
 30
0.0
 11
742.9028262876018
 21
1362.813362252413
 31
0.0
  0
LINE
  5
3CBD
330
A
100
AcDbEntity
  8
HIDDEN
 48
0.5
100
AcDbLine
 10
738.677331488947
 20
1359.675806965978
 30
0.0
 11
737.4735065278892
 21
1357.748995174859
 31
0.0
  0
LINE
  5
3CBE
330
A
100
AcDbEntity
  8
HIDDEN
 48
0.5
100
AcDbLine
 10
737.4735065278892
 20
1357.762832243377
 30
0.0
 11
737.4735065278892
 21
1363.29420038341
 31
0.0
  0
LINE
  5
3CBF
330
A
100
AcDbEntity
  8
HIDDEN
 48
0.5
100
AcDbLine
 10
738.670412954687
 20
1359.675806965978
 30
0.0
 11
738.670412954687
 21
1363.29420038341
 31
0.0
  0
LINE
  5
3CC0
330
A
100
AcDbEntity
  8
HIDDEN
 48
0.5
100
AcDbLine
 10
743.8489358475144
 20
1397.765797328645
 30
0.0
 11
743.3715569836459
 21
1397.641263711984
 31
0.0
  0
LINE
  5
3CC1
330
A
100
AcDbEntity
  8
HIDDEN
 48
0.5
100
AcDbLine
 10
743.3715569836459
 20
1397.641263711984
 30
0.0
 11
743.0031450343577
 21
1397.267662862
 31
0.0
  0
LINE
  5
3CC2
330
A
100
AcDbEntity
  8
HIDDEN
 48
0.5
100
AcDbLine
 10
743.0031450343577
 20
1397.267662862
 30
0.0
 11
742.8855299519546
 21
1396.793743265262
 31
0.0
  0
LINE
  5
3CC3
330
A
100
AcDbEntity
  8
HIDDEN
 48
0.5
100
AcDbLine
 10
742.8855299519546
 20
1396.793743265262
 30
0.0
 11
742.8855299519546
 21
1363.29420038341
 31
0.0
  0
LINE
  5
3CC4
330
A
100
AcDbEntity
  8
HIDDEN
 48
0.5
100
AcDbLine
 10
733.8568427440205
 20
1273.041920975365
 30
0.0
 11
733.6129644113935
 21
1275.812793946076
 31
0.0
  0
LINE
  5
3CC5
330
A
100
AcDbEntity
  8
HIDDEN
 48
0.5
100
AcDbLine
 10
733.6129644113935
 20
1275.812793946076
 30
0.0
 11
732.888247947767
 21
1278.472970368644
 31
0.0
  0
LINE
  5
3CC6
330
A
100
AcDbEntity
  8
HIDDEN
 48
0.5
100
AcDbLine
 10
732.888247947767
 20
1278.472970368644
 30
0.0
 11
731.6861526202738
 21
1280.987857571773
 31
0.0
  0
LINE
  5
3CC7
330
A
100
AcDbEntity
  8
HIDDEN
 48
0.5
100
AcDbLine
 10
731.6861526202738
 20
1280.987857571773
 30
0.0
 11
730.1191046106214
 21
1283.291729480005
 31
0.0
  0
LINE
  5
3CC8
330
A
100
AcDbEntity
  8
HIDDEN
 48
0.5
100
AcDbLine
 10
725.9022579797893
 20
1286.896285828919
 30
0.0
 11
723.3648855403189
 21
1288.103570057107
 31
0.0
  0
LINE
  5
3CC9
330
A
100
AcDbEntity
  8
HIDDEN
 48
0.5
100
AcDbLine
 10
723.3648855403189
 20
1288.103570057107
 30
0.0
 11
720.6061200045606
 21
1288.826556887167
 31
0.0
  0
LINE
  5
3CCA
330
A
100
AcDbEntity
  8
HIDDEN
 48
0.5
100
AcDbLine
 10
720.6061200045606
 20
1288.826556887167
 30
0.0
 11
717.8352470338505
 21
1289.065246319101
 31
0.0
  0
LINE
  5
3CCB
330
A
100
AcDbEntity
  8
HIDDEN
 48
0.5
100
AcDbLine
 10
717.826598866026
 20
1257.004758563112
 30
0.0
 11
720.5957422031734
 21
1257.246907262175
 31
0.0
  0
LINE
  5
3CCC
330
A
100
AcDbEntity
  8
HIDDEN
 48
0.5
100
AcDbLine
 10
725.9022579797893
 20
1259.173719053294
 30
0.0
 11
728.1940224530681
 21
1260.744226330076
 31
0.0
  0
LINE
  5
3CCD
330
A
100
AcDbEntity
  8
HIDDEN
 48
0.5
100
AcDbLine
 10
728.1940224530681
 20
1260.744226330076
 30
0.0
 11
730.1191046106214
 21
1262.799031004985
 31
0.0
  0
LINE
  5
3CCE
330
A
100
AcDbEntity
  8
HIDDEN
 48
0.5
100
AcDbLine
 10
730.1191046106214
 20
1262.799031004985
 30
0.0
 11
731.6861526202738
 21
1264.964532228038
 31
0.0
  0
LINE
  5
3CCF
330
A
100
AcDbEntity
  8
HIDDEN
 48
0.5
100
AcDbLine
 10
731.6861526202738
 20
1264.964532228038
 30
0.0
 11
732.888247947767
 21
1267.496715766814
 31
0.0
  0
LINE
  5
3CD0
330
A
100
AcDbEntity
  8
HIDDEN
 48
0.5
100
AcDbLine
 10
733.8568427440205
 20
1273.041920975365
 30
0.0
 11
733.8568427440205
 21
1273.162995324897
 31
0.0
  0
LINE
  5
3CF2
330
A
100
AcDbEntity
  8
レイヤー 1
100
AcDbLine
 10
899.5401715438675
 20
722.8385654978508
 30
0.0
 11
900.5053070729919
 21
723.0807141969142
 31
0.0
  0
LINE
  5
3CF3
330
A
100
AcDbEntity
  8
レイヤー 1
100
AcDbLine
 10
900.5053070729919
 20
723.0807141969142
 30
0.0
 11
901.4721722356808
 21
723.6791674103135
 31
0.0
  0
LINE
  5
3CF4
330
A
100
AcDbEntity
  8
レイヤー 1
100
AcDbLine
 10
901.4721722356808
 20
723.6791674103135
 30
0.0
 11
902.1882405314827
 21
724.5266878570353
 31
0.0
  0
LINE
  5
3CF5
330
A
100
AcDbEntity
  8
レイヤー 1
100
AcDbLine
 10
902.1882405314827
 20
724.5266878570353
 30
0.0
 11
902.4269299634161
 21
725.4883641190297
 31
0.0
  0
LINE
  5
3CF6
330
A
100
AcDbEntity
  8
レイヤー 1
100
AcDbLine
 10
890.0168091364194
 20
722.8385654978508
 30
0.0
 11
899.5401715438675
 21
722.8385654978508
 31
0.0
  0
LINE
  5
3CFF
330
A
100
AcDbEntity
  8
レイヤー 1
100
AcDbLine
 10
993.4333296056868
 20
1560.313300475621
 30
0.0
 11
993.4333296056868
 21
1561.281895271874
 31
0.0
  0
LINE
  5
3D00
330
A
100
AcDbEntity
  8
レイヤー 1
100
AcDbLine
 10
992.9403840397367
 20
1554.214612526354
 30
0.0
 11
993.4333296056868
 21
1560.313300475621
 31
0.0
  0
LINE
  5
3D01
330
A
100
AcDbEntity
  8
レイヤー 1
100
AcDbLine
 10
992.2225861103707
 20
1547.150789047963
 30
0.0
 11
992.9403840397367
 21
1554.214612526354
 31
0.0
  0
LINE
  5
3D02
330
A
100
AcDbEntity
  8
レイヤー 1
100
AcDbLine
 10
991.6085661948887
 20
1540.208039919104
 30
0.0
 11
992.2156675761107
 21
1547.150789047963
 31
0.0
  0
LINE
  5
3D03
330
A
100
AcDbEntity
  8
レイヤー 1
100
AcDbLine
 10
991.0135722486198
 20
1533.48668388653
 30
0.0
 11
991.6085661948887
 21
1540.208039919104
 31
0.0
  0
LINE
  5
3D04
330
A
100
AcDbEntity
  8
レイヤー 1
100
AcDbLine
 10
990.3995523331357
 20
1526.910617073395
 30
0.0
 11
991.0135722486198
 21
1533.493602420789
 31
0.0
  0
LINE
  5
3D05
330
A
100
AcDbEntity
  8
レイヤー 1
100
AcDbLine
 10
989.7924509519128
 20
1520.562861890806
 30
0.0
 11
990.4082005009607
 21
1526.910617073395
 31
0.0
  0
LINE
  5
3D06
330
A
100
AcDbEntity
  8
レイヤー 1
100
AcDbLine
 10
989.1957273720777
 20
1514.567951955422
 30
0.0
 11
989.8010991197368
 21
1520.555943356547
 31
0.0
  0
LINE
  5
3D07
330
A
100
AcDbEntity
  8
レイヤー 1
100
AcDbLine
 10
989.1957273720777
 20
1514.211647441087
 30
0.0
 11
989.1957273720777
 21
1514.567951955422
 31
0.0
  0
LINE
  5
3D08
330
A
100
AcDbEntity
  8
レイヤー 1
100
AcDbLine
 10
989.1888088378198
 20
1513.488660611026
 30
0.0
 11
989.1888088378198
 21
1514.211647441087
 31
0.0
  0
LINE
  5
3D09
330
A
100
AcDbEntity
  8
レイヤー 1
100
AcDbLine
 10
989.0833011903708
 20
1512.409369266629
 30
0.0
 11
989.1957273720777
 21
1513.488660611026
 31
0.0
  0
LINE
  5
3D0A
330
A
100
AcDbEntity
  8
レイヤー 1
100
AcDbLine
 10
988.9639564744027
 20
1511.21592210696
 30
0.0
 11
989.0763826561126
 21
1512.409369266629
 31
0.0
  0
LINE
  5
3D19
330
A
100
AcDbEntity
  8
レイヤー 1
100
AcDbLine
 10
988.9483897723208
 20
1511.212462839831
 30
0.0
 11
983.3962660295108
 21
1451.920624240601
 31
0.0
  0
LINE
  5
3D49
330
A
100
AcDbEntity
  8
レイヤー 1
100
AcDbLine
 10
983.3876178616867
 20
1451.920624240601
 30
0.0
 11
979.5288053787558
 21
1411.672051189141
 31
0.0
  0
LINE
  5
3D5A
330
A
100
AcDbEntity
  8
レイヤー 1
100
AcDbLine
 10
979.5218868444967
 20
1411.672051189141
 30
0.0
 11
972.8731754216428
 21
1343.507192402804
 31
0.0
  0
LINE
  5
3D5B
330
A
100
AcDbEntity
  8
レイヤー 1
100
AcDbLine
 10
972.8731754216428
 20
1343.507192402804
 30
0.0
 11
961.7671983024597
 21
1235.111056900654
 31
0.0
  0
LINE
  5
3D5C
330
A
100
AcDbEntity
  8
レイヤー 1
100
AcDbLine
 10
937.355150169742
 20
1013.631478935914
 30
0.0
 11
961.7671983024597
 21
1235.111056900654
 31
0.0
  0
LINE
  5
3D5D
330
A
100
AcDbEntity
  8
レイヤー 1
100
AcDbLine
 10
937.3465020019175
 20
1013.631478935914
 30
0.0
 11
925.7544978510414
 21
914.2121416347561
 31
0.0
  0
LINE
  5
3D5F
330
A
100
AcDbEntity
  8
レイヤー 1
100
AcDbLine
 10
925.7544978510414
 20
914.2121416347561
 30
0.0
 11
913.6574406992622
 21
814.9138786831297
 31
0.0
  0
SPLINE
  5
3D60
330
A
100
AcDbEntity
  8
レイヤー 1
100
AcDbSpline
210
0.0
220
0.0
230
1.0
 70
     8
 71
     3
 72
    11
 73
     7
 74
     0
 42
0.000000001
 43
0.0000000001
 40
0.0
 40
0.0
 40
0.0
 40
0.0
 40
1.0
 40
1.0
 40
1.0
 40
2.0
 40
2.0
 40
2.0
 40
2.0
 10
720.4573715179945
 20
2040.04711469833
 30
0.0
 10
720.4573715179945
 20
2040.04711469833
 30
0.0
 10
744.3228554442526
 20
2040.403419212668
 30
0.0
 10
744.3228554442526
 20
2040.403419212668
 30
0.0
 10
744.3228554442526
 20
2040.403419212668
 30
0.0
 10
768.0793724559339
 20
2041.216346988095
 30
0.0
 10
768.0793724559339
 20
2041.216346988095
 30
0.0
  0
SPLINE
  5
3D61
330
A
100
AcDbEntity
  8
レイヤー 1
100
AcDbSpline
210
0.0
220
0.0
230
1.0
 70
     8
 71
     3
 72
    14
 73
    10
 74
     0
 42
0.000000001
 43
0.0000000001
 40
2.0
 40
2.0
 40
2.0
 40
2.0
 40
3.0
 40
3.0
 40
3.0
 40
4.0
 40
4.0
 40
4.0
 40
5.0
 40
5.0
 40
5.0
 40
5.0
 10
768.0793724559339
 20
2041.216346988095
 30
0.0
 10
818.3926832206057
 20
2044.390224579389
 30
0.0
 10
896.7070317648272
 20
2051.160010351774
 30
0.0
 10
940.6985318503816
 20
2080.136561461835
 30
0.0
 10
940.6985318503816
 20
2080.136561461835
 30
0.0
 10
945.5155613281777
 20
2083.670202834596
 30
0.0
 10
945.5155613281777
 20
2083.670202834596
 30
0.0
 10
945.5155613281777
 20
2083.670202834596
 30
0.0
 10
950.0956310076037
 20
2087.430426204337
 30
0.0
 10
950.0956310076037
 20
2087.430426204337
 30
0.0
  0
SPLINE
  5
3D62
330
A
100
AcDbEntity
  8
レイヤー 1
100
AcDbSpline
210
0.0
220
0.0
230
1.0
 70
     8
 71
     3
 72
    14
 73
    10
 74
     0
 42
0.000000001
 43
0.0000000001
 40
5.0
 40
5.0
 40
5.0
 40
5.0
 40
6.0
 40
6.0
 40
6.0
 40
7.0
 40
7.0
 40
7.0
 40
8.0
 40
8.0
 40
8.0
 40
8.0
 10
950.0956310076037
 20
2087.430426204337
 30
0.0
 10
979.0358598128066
 20
2112.03446366274
 30
0.0
 10
982.1837929006288
 20
2150.231691306421
 30
0.0
 10
984.1936271028558
 20
2185.728960955545
 30
0.0
 10
984.1936271028558
 20
2185.728960955545
 30
0.0
 10
984.5516612507568
 20
2197.616732445992
 30
0.0
 10
984.5516612507568
 20
2197.616732445992
 30
0.0
 10
984.5516612507568
 20
2197.616732445992
 30
0.0
 10
984.7851617819967
 20
2221.359412389153
 30
0.0
 10
984.7851617819967
 20
2221.359412389153
 30
0.0
  0
SPLINE
  5
3D63
330
A
100
AcDbEntity
  8
レイヤー 1
100
AcDbSpline
210
0.0
220
0.0
230
1.0
 70
     8
 71
     3
 72
    11
 73
     7
 74
     0
 42
0.000000001
 43
0.0000000001
 40
0.0
 40
0.0
 40
0.0
 40
0.0
 40
1.0
 40
1.0
 40
1.0
 40
2.0
 40
2.0
 40
2.0
 40
2.0
 10
456.1174738190389
 20
2221.359412389153
 30
0.0
 10
456.1174738190389
 20
2221.359412389153
 30
0.0
 10
456.3544336174077
 20
2197.599436110344
 30
0.0
 10
456.3544336174077
 20
2197.599436110344
 30
0.0
 10
456.3544336174077
 20
2197.599436110344
 30
0.0
 10
456.8231643134518
 20
2185.723772054851
 30
0.0
 10
456.8231643134518
 20
2185.723772054851
 30
0.0
  0
SPLINE
  5
3D64
330
A
100
AcDbEntity
  8
レイヤー 1
100
AcDbSpline
210
0.0
220
0.0
230
1.0
 70
     8
 71
     3
 72
    14
 73
    10
 74
     0
 42
0.000000001
 43
0.0000000001
 40
2.0
 40
2.0
 40
2.0
 40
2.0
 40
3.0
 40
3.0
 40
3.0
 40
4.0
 40
4.0
 40
4.0
 40
5.0
 40
5.0
 40
5.0
 40
5.0
 10
456.8231643134518
 20
2185.723772054851
 30
0.0
 10
458.4144271930113
 20
2150.62604775918
 30
0.0
 10
462.2369173710817
 20
2111.72831852178
 30
0.0
 10
490.8087342269941
 20
2087.430426204337
 30
0.0
 10
490.8087342269941
 20
2087.430426204337
 30
0.0
 10
495.5185264237775
 20
2083.670202834596
 30
0.0
 10
495.5185264237775
 20
2083.670202834596
 30
0.0
 10
495.5185264237775
 20
2083.670202834596
 30
0.0
 10
500.3338262680086
 20
2080.136561461835
 30
0.0
 10
500.3338262680086
 20
2080.136561461835
 30
0.0
  0
SPLINE
  5
3D65
330
A
100
AcDbEntity
  8
レイヤー 1
100
AcDbSpline
210
0.0
220
0.0
230
1.0
 70
     8
 71
     3
 72
    14
 73
    10
 74
     0
 42
0.000000001
 43
0.0000000001
 40
5.0
 40
5.0
 40
5.0
 40
5.0
 40
6.0
 40
6.0
 40
6.0
 40
7.0
 40
7.0
 40
7.0
 40
8.0
 40
8.0
 40
8.0
 40
8.0
 10
500.3338262680086
 20
2080.136561461835
 30
0.0
 10
545.2973804169455
 20
2050.845217042993
 30
0.0
 10
621.449687005243
 20
2044.630643644887
 30
0.0
 10
672.8319113129241
 20
2041.221535888789
 30
0.0
 10
672.8319113129241
 20
2041.221535888789
 30
0.0
 10
696.6973952391841
 20
2040.389582144149
 30
0.0
 10
696.6973952391841
 20
2040.389582144149
 30
0.0
 10
696.6973952391841
 20
2040.389582144149
 30
0.0
 10
720.4573715179945
 20
2040.04711469833
 30
0.0
 10
720.4573715179945
 20
2040.04711469833
 30
0.0
  0
SPLINE
  5
3D66
330
A
100
AcDbEntity
  8
レイヤー 1
100
AcDbSpline
210
0.0
220
0.0
230
1.0
 70
     8
 71
     3
 72
    11
 73
     7
 74
     0
 42
0.000000001
 43
0.0000000001
 40
0.0
 40
0.0
 40
0.0
 40
0.0
 40
1.0
 40
1.0
 40
1.0
 40
2.0
 40
2.0
 40
2.0
 40
2.0
 10
984.7851617819967
 20
2221.359412389153
 30
0.0
 10
984.7851617819967
 20
2221.359412389153
 30
0.0
 10
984.5516612507568
 20
2245.223166681847
 30
0.0
 10
984.5516612507568
 20
2245.223166681847
 30
0.0
 10
984.5516612507568
 20
2245.223166681847
 30
0.0
 10
984.2022752706807
 20
2257.100560370906
 30
0.0
 10
984.2022752706807
 20
2257.100560370906
 30
0.0
  0
SPLINE
  5
3D67
330
A
100
AcDbEntity
  8
レイヤー 1
100
AcDbSpline
210
0.0
220
0.0
230
1.0
 70
     8
 71
     3
 72
    14
 73
    10
 74
     0
 42
0.000000001
 43
0.0000000001
 40
2.0
 40
2.0
 40
2.0
 40
2.0
 40
3.0
 40
3.0
 40
3.0
 40
4.0
 40
4.0
 40
4.0
 40
5.0
 40
5.0
 40
5.0
 40
5.0
 10
984.2022752706807
 20
2257.100560370906
 30
0.0
 10
982.1976299691478
 20
2292.590911485771
 30
0.0
 10
978.9822411722987
 20
2330.779490961629
 30
0.0
 10
950.0956310076037
 20
2355.406013656373
 30
0.0
 10
950.0956310076037
 20
2355.406013656373
 30
0.0
 10
945.5155613281777
 20
2359.173155560372
 30
0.0
 10
945.5155613281777
 20
2359.173155560372
 30
0.0
 10
945.5155613281777
 20
2359.173155560372
 30
0.0
 10
940.693342949688
 20
2362.577074415778
 30
0.0
 10
940.693342949688
 20
2362.577074415778
 30
0.0
  0
SPLINE
  5
3D68
330
A
100
AcDbEntity
  8
レイヤー 1
100
AcDbSpline
210
0.0
220
0.0
230
1.0
 70
     8
 71
     3
 72
    14
 73
    10
 74
     0
 42
0.000000001
 43
0.0000000001
 40
5.0
 40
5.0
 40
5.0
 40
5.0
 40
6.0
 40
6.0
 40
6.0
 40
7.0
 40
7.0
 40
7.0
 40
8.0
 40
8.0
 40
8.0
 40
8.0
 10
940.693342949688
 20
2362.577074415778
 30
0.0
 10
897.5960634171029
 20
2391.500006885331
 30
0.0
 10
817.520947903979
 20
2398.589774867195
 30
0.0
 10
768.0707242881094
 20
2401.497288889519
 30
0.0
 10
768.0707242881094
 20
2401.497288889519
 30
0.0
 10
744.3228554442526
 20
2402.439939182302
 30
0.0
 10
744.3228554442526
 20
2402.439939182302
 30
0.0
 10
744.3228554442526
 20
2402.439939182302
 30
0.0
 10
720.4573715179945
 20
2402.787595528814
 30
0.0
 10
720.4573715179945
 20
2402.787595528814
 30
0.0
  0
SPLINE
  5
3D69
330
A
100
AcDbEntity
  8
レイヤー 1
100
AcDbSpline
210
0.0
220
0.0
230
1.0
 70
     8
 71
     3
 72
    11
 73
     7
 74
     0
 42
0.000000001
 43
0.0000000001
 40
0.0
 40
0.0
 40
0.0
 40
0.0
 40
1.0
 40
1.0
 40
1.0
 40
2.0
 40
2.0
 40
2.0
 40
2.0
 10
720.4573715179945
 20
2402.796243696638
 30
0.0
 10
720.4573715179945
 20
2402.796243696638
 30
0.0
 10
696.6973952391841
 20
2402.439939182302
 30
0.0
 10
696.6973952391841
 20
2402.439939182302
 30
0.0
 10
696.6973952391841
 20
2402.439939182302
 30
0.0
 10
672.8319113129241
 20
2401.497288889519
 30
0.0
 10
672.8319113129241
 20
2401.497288889519
 30
0.0
  0
SPLINE
  5
3D6A
330
A
100
AcDbEntity
  8
レイヤー 1
100
AcDbSpline
210
0.0
220
0.0
230
1.0
 70
     8
 71
     3
 72
    14
 73
    10
 74
     0
 42
0.000000001
 43
0.0000000001
 40
2.0
 40
2.0
 40
2.0
 40
2.0
 40
3.0
 40
3.0
 40
3.0
 40
4.0
 40
4.0
 40
4.0
 40
5.0
 40
5.0
 40
5.0
 40
5.0
 10
672.8319113129241
 20
2401.497288889519
 30
0.0
 10
623.039220251238
 20
2398.506752456086
 30
0.0
 10
543.7199546059041
 20
2391.648755371898
 30
0.0
 10
500.3338262680086
 20
2362.582263316472
 30
0.0
 10
500.3338262680086
 20
2362.582263316472
 30
0.0
 10
495.5185264237775
 20
2359.173155560372
 30
0.0
 10
495.5185264237775
 20
2359.173155560372
 30
0.0
 10
495.5185264237775
 20
2359.173155560372
 30
0.0
 10
490.8156527612541
 20
2355.411202557067
 30
0.0
 10
490.8156527612541
 20
2355.411202557067
 30
0.0
  0
SPLINE
  5
3D6B
330
A
100
AcDbEntity
  8
レイヤー 1
100
AcDbSpline
210
0.0
220
0.0
230
1.0
 70
     8
 71
     3
 72
    14
 73
    10
 74
     0
 42
0.000000001
 43
0.0000000001
 40
5.0
 40
5.0
 40
5.0
 40
5.0
 40
6.0
 40
6.0
 40
6.0
 40
7.0
 40
7.0
 40
7.0
 40
8.0
 40
8.0
 40
8.0
 40
8.0
 10
490.8156527612541
 20
2355.411202557067
 30
0.0
 10
462.2213506689991
 20
2330.87116154056
 30
0.0
 10
458.4455605971766
 20
2292.449081533463
 30
0.0
 10
456.8318124812745
 20
2257.109208538729
 30
0.0
 10
456.8318124812745
 20
2257.109208538729
 30
0.0
 10
456.3578928845368
 20
2245.231814849672
 30
0.0
 10
456.3578928845368
 20
2245.231814849672
 30
0.0
 10
456.3578928845368
 20
2245.231814849672
 30
0.0
 10
456.1174738190389
 20
2221.368060556978
 30
0.0
 10
456.1174738190389
 20
2221.368060556978
 30
0.0
  0
SPLINE
  5
3D6C
330
A
100
AcDbEntity
  8
レイヤー 1
100
AcDbSpline
210
0.0
220
0.0
230
1.0
 70
     8
 71
     3
 72
    11
 73
     7
 74
     0
 42
0.000000001
 43
0.0000000001
 40
0.0
 40
0.0
 40
0.0
 40
0.0
 40
1.0
 40
1.0
 40
1.0
 40
2.0
 40
2.0
 40
2.0
 40
2.0
 10
987.7462944448278
 20
2136.916972125065
 30
0.0
 10
987.7462944448278
 20
2136.916972125065
 30
0.0
 10
985.3455630569717
 20
2127.571761974784
 30
0.0
 10
985.3455630569717
 20
2127.571761974784
 30
0.0
 10
985.3455630569717
 20
2127.571761974784
 30
0.0
 10
982.3550266235386
 20
2118.460052355743
 30
0.0
 10
982.3550266235386
 20
2118.460052355743
 30
0.0
  0
SPLINE
  5
3D6D
330
A
100
AcDbEntity
  8
レイヤー 1
100
AcDbSpline
210
0.0
220
0.0
230
1.0
 70
     8
 71
     3
 72
    14
 73
    10
 74
     0
 42
0.000000001
 43
0.0000000001
 40
2.0
 40
2.0
 40
2.0
 40
2.0
 40
3.0
 40
3.0
 40
3.0
 40
4.0
 40
4.0
 40
4.0
 40
5.0
 40
5.0
 40
5.0
 40
5.0
 10
982.3550266235386
 20
2118.460052355743
 30
0.0
 10
973.7795034095657
 20
2095.935034442155
 30
0.0
 10
959.7954160386568
 20
2080.755770278012
 30
0.0
 10
938.7544237236166
 20
2068.995991671356
 30
0.0
 10
938.7544237236166
 20
2068.995991671356
 30
0.0
 10
930.2532747529262
 20
2064.556022310672
 30
0.0
 10
930.2532747529262
 20
2064.556022310672
 30
0.0
 10
930.2532747529262
 20
2064.556022310672
 30
0.0
 10
921.3871731000786
 20
2060.614187416633
 30
0.0
 10
921.3871731000786
 20
2060.614187416633
 30
0.0
  0
SPLINE
  5
3D6E
330
A
100
AcDbEntity
  8
レイヤー 1
100
AcDbSpline
210
0.0
220
0.0
230
1.0
 70
     8
 71
     3
 72
    14
 73
    10
 74
     0
 42
0.000000001
 43
0.0000000001
 40
5.0
 40
5.0
 40
5.0
 40
5.0
 40
6.0
 40
6.0
 40
6.0
 40
7.0
 40
7.0
 40
7.0
 40
8.0
 40
8.0
 40
8.0
 40
8.0
 10
921.3871731000786
 20
2060.614187416633
 30
0.0
 10
872.6201547422811
 20
2041.30282866633
 30
0.0
 10
811.1524371186119
 20
2035.723030786485
 30
0.0
 10
759.3170488169694
 20
2033.301543795852
 30
0.0
 10
759.3170488169694
 20
2033.301543795852
 30
0.0
 10
739.9174787548641
 20
2032.696172048192
 30
0.0
 10
739.9174787548641
 20
2032.696172048192
 30
0.0
 10
739.9174787548641
 20
2032.696172048192
 30
0.0
 10
720.3951047096639
 20
2032.462671516954
 30
0.0
 10
720.3951047096639
 20
2032.462671516954
 30
0.0
  0
SPLINE
  5
3D6F
330
A
100
AcDbEntity
  8
レイヤー 1
100
AcDbSpline
210
0.0
220
0.0
230
1.0
 70
    24
 71
     3
 72
     8
 73
     4
 74
     0
 42
0.000000001
 43
0.0000000001
 40
0.0
 40
0.0
 40
0.0
 40
0.0
 40
1.0
 40
1.0
 40
1.0
 40
1.0
 10
875.276871897719
 20
2396.00397268791
 30
0.0
 10
875.276871897719
 20
2396.00397268791
 30
0.0
 10
884.7379674968383
 20
2393.841930731987
 30
0.0
 10
884.7379674968383
 20
2393.841930731987
 30
0.0
  0
SPLINE
  5
3D70
330
A
100
AcDbEntity
  8
レイヤー 1
100
AcDbSpline
210
0.0
220
0.0
230
1.0
 70
     8
 71
     3
 72
    11
 73
     7
 74
     0
 42
0.000000001
 43
0.0000000001
 40
1.0
 40
1.0
 40
1.0
 40
1.0
 40
2.0
 40
2.0
 40
2.0
 40
3.0
 40
3.0
 40
3.0
 40
3.0
 10
884.7379674968383
 20
2393.841930731987
 30
0.0
 10
931.1717101758027
 20
2381.929944371635
 30
0.0
 10
971.6105429193858
 20
2364.630149457123
 30
0.0
 10
985.3576704919258
 20
2315.276785320878
 30
0.0
 10
985.3576704919258
 20
2315.276785320878
 30
0.0
 10
987.7462944448278
 20
2305.931575170599
 30
0.0
 10
987.7462944448278
 20
2305.931575170599
 30
0.0
  0
SPLINE
  5
3D71
330
A
100
AcDbEntity
  8
レイヤー 1
100
AcDbSpline
210
0.0
220
0.0
230
1.0
 70
    24
 71
     3
 72
     8
 73
     4
 74
     0
 42
0.000000001
 43
0.0000000001
 40
0.0
 40
0.0
 40
0.0
 40
0.0
 40
1.0
 40
1.0
 40
1.0
 40
1.0
 10
720.3864565418394
 20
2410.377227610886
 30
0.0
 10
720.3864565418394
 20
2410.377227610886
 30
0.0
 10
739.9071009534769
 20
2410.141997446081
 30
0.0
 10
739.9071009534769
 20
2410.141997446081
 30
0.0
  0
SPLINE
  5
3D72
330
A
100
AcDbEntity
  8
レイヤー 1
100
AcDbSpline
210
0.0
220
0.0
230
1.0
 70
     8
 71
     3
 72
    11
 73
     7
 74
     0
 42
0.000000001
 43
0.0000000001
 40
1.0
 40
1.0
 40
1.0
 40
1.0
 40
2.0
 40
2.0
 40
2.0
 40
3.0
 40
3.0
 40
3.0
 40
3.0
 10
739.9071009534769
 20
2410.141997446081
 30
0.0
 10
779.1282716674818
 20
2409.356743807689
 30
0.0
 10
817.5417035067553
 20
2406.395611144857
 30
0.0
 10
856.2214989149984
 20
2399.71230705071
 30
0.0
 10
856.2214989149984
 20
2399.71230705071
 30
0.0
 10
875.2682237298964
 20
2395.995324520086
 30
0.0
 10
875.2682237298964
 20
2395.995324520086
 30
0.0
  0
SPLINE
  5
3D73
330
A
100
AcDbEntity
  8
レイヤー 1
100
AcDbSpline
210
0.0
220
0.0
230
1.0
 70
    24
 71
     3
 72
     8
 73
     4
 74
     0
 42
0.000000001
 43
0.0000000001
 40
0.0
 40
0.0
 40
0.0
 40
0.0
 40
1.0
 40
1.0
 40
1.0
 40
1.0
 10
565.5116078880424
 20
2396.00397268791
 30
0.0
 10
565.5116078880424
 20
2396.00397268791
 30
0.0
 10
584.6724885182125
 20
2399.717495951404
 30
0.0
 10
584.6724885182125
 20
2399.717495951404
 30
0.0
  0
SPLINE
  5
3D74
330
A
100
AcDbEntity
  8
レイヤー 1
100
AcDbSpline
210
0.0
220
0.0
230
1.0
 70
     8
 71
     3
 72
    11
 73
     7
 74
     0
 42
0.000000001
 43
0.0000000001
 40
1.0
 40
1.0
 40
1.0
 40
1.0
 40
2.0
 40
2.0
 40
2.0
 40
3.0
 40
3.0
 40
3.0
 40
3.0
 10
584.6724885182125
 20
2399.717495951404
 30
0.0
 10
623.2830985838668
 20
2406.409448213376
 30
0.0
 10
661.8539270775314
 20
2409.346366006302
 30
0.0
 10
700.983427212605
 20
2410.141997446081
 30
0.0
 10
700.983427212605
 20
2410.141997446081
 30
0.0
 10
720.3864565418394
 20
2410.385875778709
 30
0.0
 10
720.3864565418394
 20
2410.385875778709
 30
0.0
  0
SPLINE
  5
3D75
330
A
100
AcDbEntity
  8
レイヤー 1
100
AcDbSpline
210
0.0
220
0.0
230
1.0
 70
    24
 71
     3
 72
     8
 73
     4
 74
     0
 42
0.000000001
 43
0.0000000001
 40
0.0
 40
0.0
 40
0.0
 40
0.0
 40
1.0
 40
1.0
 40
1.0
 40
1.0
 10
453.0335371731094
 20
2305.931575170599
 30
0.0
 10
453.0335371731094
 20
2305.931575170599
 30
0.0
 10
455.4325389274022
 20
2315.276785320878
 30
0.0
 10
455.4325389274022
 20
2315.276785320878
 30
0.0
  0
SPLINE
  5
3D76
330
A
100
AcDbEntity
  8
レイヤー 1
100
AcDbSpline
210
0.0
220
0.0
230
1.0
 70
     8
 71
     3
 72
    11
 73
     7
 74
     0
 42
0.000000001
 43
0.0000000001
 40
1.0
 40
1.0
 40
1.0
 40
1.0
 40
2.0
 40
2.0
 40
2.0
 40
3.0
 40
3.0
 40
3.0
 40
3.0
 10
455.4325389274022
 20
2315.276785320878
 30
0.0
 10
469.4062484969222
 20
2364.721820036053
 30
0.0
 10
509.5216397638983
 20
2381.886703532517
 30
0.0
 10
556.1750459055843
 20
2393.848849266246
 30
0.0
 10
556.1750459055843
 20
2393.848849266246
 30
0.0
 10
565.520256055865
 20
2396.00397268791
 30
0.0
 10
565.520256055865
 20
2396.00397268791
 30
0.0
  0
SPLINE
  5
3D77
330
A
100
AcDbEntity
  8
レイヤー 1
100
AcDbSpline
210
0.0
220
0.0
230
1.0
 70
     8
 71
     3
 72
    11
 73
     7
 74
     0
 42
0.000000001
 43
0.0000000001
 40
0.0
 40
0.0
 40
0.0
 40
0.0
 40
1.0
 40
1.0
 40
1.0
 40
2.0
 40
2.0
 40
2.0
 40
2.0
 10
720.3864565418394
 20
2032.45402334913
 30
0.0
 10
720.3864565418394
 20
2032.45402334913
 30
0.0
 10
700.983427212605
 20
2032.696172048192
 30
0.0
 10
700.983427212605
 20
2032.696172048192
 30
0.0
 10
700.983427212605
 20
2032.696172048192
 30
0.0
 10
681.4593235338384
 20
2033.294625261593
 30
0.0
 10
681.4593235338384
 20
2033.294625261593
 30
0.0
  0
SPLINE
  5
3D78
330
A
100
AcDbEntity
  8
レイヤー 1
100
AcDbSpline
210
0.0
220
0.0
230
1.0
 70
     8
 71
     3
 72
    14
 73
    10
 74
     0
 42
0.000000001
 43
0.0000000001
 40
2.0
 40
2.0
 40
2.0
 40
2.0
 40
3.0
 40
3.0
 40
3.0
 40
4.0
 40
4.0
 40
4.0
 40
5.0
 40
5.0
 40
5.0
 40
5.0
 10
681.4593235338384
 20
2033.294625261593
 30
0.0
 10
629.3887050673916
 20
2035.747245656391
 30
0.0
 10
568.4035552082846
 20
2041.294180498508
 30
0.0
 10
519.3857399836002
 20
2060.607268882374
 30
0.0
 10
519.3857399836002
 20
2060.607268882374
 30
0.0
 10
510.6459015809783
 20
2064.556022310672
 30
0.0
 10
510.6459015809783
 20
2064.556022310672
 30
0.0
 10
510.6459015809783
 20
2064.556022310672
 30
0.0
 10
502.1378340760298
 20
2068.995991671356
 30
0.0
 10
502.1378340760298
 20
2068.995991671356
 30
0.0
  0
SPLINE
  5
3D79
330
A
100
AcDbEntity
  8
レイヤー 1
100
AcDbSpline
210
0.0
220
0.0
230
1.0
 70
     8
 71
     3
 72
    14
 73
    10
 74
     0
 42
0.000000001
 43
0.0000000001
 40
5.0
 40
5.0
 40
5.0
 40
5.0
 40
6.0
 40
6.0
 40
6.0
 40
7.0
 40
7.0
 40
7.0
 40
8.0
 40
8.0
 40
8.0
 40
8.0
 10
502.1378340760298
 20
2068.995991671356
 30
0.0
 10
481.5984354947636
 20
2080.179802300953
 30
0.0
 10
466.574838351446
 20
2096.440087443059
 30
0.0
 10
458.5424200768016
 20
2118.460052355743
 30
0.0
 10
458.5424200768016
 20
2118.460052355743
 30
0.0
 10
455.4238907595777
 20
2127.571761974784
 30
0.0
 10
455.4238907595777
 20
2127.571761974784
 30
0.0
 10
455.4238907595777
 20
2127.571761974784
 30
0.0
 10
453.0266186388512
 20
2136.908323957241
 30
0.0
 10
453.0266186388512
 20
2136.908323957241
 30
0.0
  0
SPLINE
  5
3D7A
330
A
100
AcDbEntity
  8
レイヤー 1
100
AcDbSpline
210
0.0
220
0.0
230
1.0
 70
     8
 71
     3
 72
    11
 73
     7
 74
     0
 42
0.000000001
 43
0.0000000001
 40
0.0
 40
0.0
 40
0.0
 40
0.0
 40
1.0
 40
1.0
 40
1.0
 40
2.0
 40
2.0
 40
2.0
 40
2.0
 10
742.2507544336972
 20
2221.380167991931
 30
0.0
 10
742.2507544336972
 20
2221.380167991931
 30
0.0
 10
742.012065001762
 20
2224.498697309154
 30
0.0
 10
742.012065001762
 20
2224.498697309154
 30
0.0
 10
742.012065001762
 20
2224.498697309154
 30
0.0
 10
741.4118821547986
 20
2227.606848824988
 30
0.0
 10
741.4118821547986
 20
2227.606848824988
 30
0.0
  0
SPLINE
  5
3D7B
330
A
100
AcDbEntity
  8
レイヤー 1
100
AcDbSpline
210
0.0
220
0.0
230
1.0
 70
     8
 71
     3
 72
    14
 73
    10
 74
     0
 42
0.000000001
 43
0.0000000001
 40
2.0
 40
2.0
 40
2.0
 40
2.0
 40
3.0
 40
3.0
 40
3.0
 40
4.0
 40
4.0
 40
4.0
 40
5.0
 40
5.0
 40
5.0
 40
5.0
 10
741.4118821547986
 20
2227.606848824988
 30
0.0
 10
734.0557506039663
 20
2249.93295887863
 30
0.0
 10
702.9015908359002
 20
2247.656761107436
 30
0.0
 10
698.8871113321425
 20
2224.498697309154
 30
0.0
 10
698.8871113321425
 20
2224.498697309154
 30
0.0
 10
698.6501515337736
 20
2221.380167991931
 30
0.0
 10
698.6501515337736
 20
2221.380167991931
 30
0.0
 10
698.6501515337736
 20
2221.380167991931
 30
0.0
 10
698.8871113321425
 20
2218.272016476095
 30
0.0
 10
698.8871113321425
 20
2218.272016476095
 30
0.0
  0
SPLINE
  5
3D7C
330
A
100
AcDbEntity
  8
レイヤー 1
100
AcDbSpline
210
0.0
220
0.0
230
1.0
 70
     8
 71
     3
 72
    14
 73
    10
 74
     0
 42
0.000000001
 43
0.0000000001
 40
5.0
 40
5.0
 40
5.0
 40
5.0
 40
6.0
 40
6.0
 40
6.0
 40
7.0
 40
7.0
 40
7.0
 40
8.0
 40
8.0
 40
8.0
 40
8.0
 10
698.8871113321425
 20
2218.272016476095
 30
0.0
 10
703.0451504217731
 20
2195.05341550305
 30
0.0
 10
734.168176785674
 20
2193.010718263093
 30
0.0
 10
741.4118821547986
 20
2215.279750409099
 30
0.0
 10
741.4118821547986
 20
2215.279750409099
 30
0.0
 10
742.012065001762
 20
2218.272016476095
 30
0.0
 10
742.012065001762
 20
2218.272016476095
 30
0.0
 10
742.012065001762
 20
2218.272016476095
 30
0.0
 10
742.2507544336972
 20
2221.380167991931
 30
0.0
 10
742.2507544336972
 20
2221.380167991931
 30
0.0
  0
SPLINE
  5
3D7D
330
A
100
AcDbEntity
  8
レイヤー 1
100
AcDbSpline
210
0.0
220
0.0
230
1.0
 70
     8
 71
     3
 72
    11
 73
     7
 74
     0
 42
0.000000001
 43
0.0000000001
 40
0.0
 40
0.0
 40
0.0
 40
0.0
 40
1.0
 40
1.0
 40
1.0
 40
2.0
 40
2.0
 40
2.0
 40
2.0
 10
687.5095817432943
 20
2221.388816159755
 30
0.0
 10
687.5095817432943
 20
2221.388816159755
 30
0.0
 10
687.7482711752277
 20
2224.626690192944
 30
0.0
 10
687.7482711752277
 20
2224.626690192944
 30
0.0
 10
687.7482711752277
 20
2224.626690192944
 30
0.0
 10
688.234298206919
 20
2227.852456791181
 30
0.0
 10
688.234298206919
 20
2227.852456791181
 30
0.0
  0
SPLINE
  5
3D7E
330
A
100
AcDbEntity
  8
レイヤー 1
100
AcDbSpline
210
0.0
220
0.0
230
1.0
 70
     8
 71
     3
 72
    14
 73
    10
 74
     0
 42
0.000000001
 43
0.0000000001
 40
2.0
 40
2.0
 40
2.0
 40
2.0
 40
3.0
 40
3.0
 40
3.0
 40
4.0
 40
4.0
 40
4.0
 40
5.0
 40
5.0
 40
5.0
 40
5.0
 10
688.234298206919
 20
2227.852456791181
 30
0.0
 10
696.8029028866335
 20
2265.221189957353
 30
0.0
 10
748.3113904445404
 20
2262.602524740339
 30
0.0
 10
753.2685202410798
 20
2224.626690192944
 30
0.0
 10
753.2685202410798
 20
2224.626690192944
 30
0.0
 10
753.3878649570456
 20
2221.388816159755
 30
0.0
 10
753.3878649570456
 20
2221.388816159755
 30
0.0
 10
753.3878649570456
 20
2221.388816159755
 30
0.0
 10
753.2685202410798
 20
2218.150942126565
 30
0.0
 10
753.2685202410798
 20
2218.150942126565
 30
0.0
  0
SPLINE
  5
3D7F
330
A
100
AcDbEntity
  8
レイヤー 1
100
AcDbSpline
210
0.0
220
0.0
230
1.0
 70
     8
 71
     3
 72
    14
 73
    10
 74
     0
 42
0.000000001
 43
0.0000000001
 40
5.0
 40
5.0
 40
5.0
 40
5.0
 40
6.0
 40
6.0
 40
6.0
 40
7.0
 40
7.0
 40
7.0
 40
8.0
 40
8.0
 40
8.0
 40
8.0
 10
753.2685202410798
 20
2218.150942126565
 30
0.0
 10
748.2387458348207
 20
2180.197592815512
 30
0.0
 10
696.7095026741376
 20
2177.642924040392
 30
0.0
 10
688.234298206919
 20
2215.047979511423
 30
0.0
 10
688.234298206919
 20
2215.047979511423
 30
0.0
 10
687.7482711752277
 20
2218.150942126565
 30
0.0
 10
687.7482711752277
 20
2218.150942126565
 30
0.0
 10
687.7482711752277
 20
2218.150942126565
 30
0.0
 10
687.5095817432943
 20
2221.388816159755
 30
0.0
 10
687.5095817432943
 20
2221.388816159755
 30
0.0
  0
SPLINE
  5
3D80
330
A
100
AcDbEntity
  8
HIDDEN
 48
0.5
100
AcDbSpline
210
0.0
220
0.0
230
1.0
 70
     8
 71
     3
 72
    11
 73
     7
 74
     0
 42
0.000000001
 43
0.0000000001
 40
1.0
 40
1.0
 40
1.0
 40
1.0
 40
2.0
 40
2.0
 40
2.0
 40
3.0
 40
3.0
 40
3.0
 40
3.0
 10
1619.829752990858
 20
1431.249773508414
 30
0.0
 10
1687.022557713812
 20
1447.229858013031
 30
0.0
 10
1724.147412547355
 20
1484.508650233835
 30
0.0
 10
1747.919496261119
 20
1547.899720381494
 30
0.0
 10
1747.919496261119
 20
1547.899720381494
 30
0.0
 10
1752.748633173868
 20
1561.383943652194
 30
0.0
 10
1752.748633173868
 20
1561.383943652194
 30
0.0
  0
ARC
  5
3D8C
330
A
100
AcDbEntity
  8
HIDDEN
 48
0.5
100
AcDbCircle
 10
1635.117904731131
 20
1342.658594341243
 30
0.0
 40
89.90063742745795
100
AcDbArc
 50
99.7910808129603
 51
112.109589814856
  0
SPLINE
  5
3D8D
330
A
100
AcDbEntity
  8
HIDDEN
 48
0.5
100
AcDbSpline
210
0.0
220
0.0
230
1.0
 70
    27
 71
     3
 72
    23
 73
    19
 74
     0
 42
0.000000001
 43
0.0000000001
 40
0.0
 40
0.0
 40
0.0
 40
0.0
 40
1.0
 40
1.0
 40
1.0
 40
2.0
 40
2.0
 40
2.0
 40
3.0
 40
3.0
 40
3.0
 40
4.0
 40
4.0
 40
4.0
 40
5.0
 40
5.0
 40
5.0
 40
6.0
 40
6.0
 40
6.0
 40
6.0
 10
1536.208888670021
 20
1425.469338135058
 30
0.0
 10
1536.208888670021
 20
1425.469338135058
 30
0.0
 10
1598.876971987619
 20
1425.469338135058
 30
0.0
 10
1598.876971987619
 20
1425.469338135058
 30
0.0
 10
1598.876971987619
 20
1425.469338135058
 30
0.0
 10
1536.208888670021
 20
1425.469338135058
 30
0.0
 10
1536.208888670021
 20
1425.469338135058
 30
0.0
 10
1536.208888670021
 20
1425.469338135058
 30
0.0
 10
1598.876971987619
 20
1425.469338135058
 30
0.0
 10
1598.876971987619
 20
1425.469338135058
 30
0.0
 10
1598.876971987619
 20
1425.469338135058
 30
0.0
 10
1536.208888670021
 20
1425.469338135058
 30
0.0
 10
1536.208888670021
 20
1425.469338135058
 30
0.0
 10
1536.208888670021
 20
1425.469338135058
 30
0.0
 10
1598.876971987619
 20
1425.469338135058
 30
0.0
 10
1598.876971987619
 20
1425.469338135058
 30
0.0
 10
1598.876971987619
 20
1425.469338135058
 30
0.0
 10
1536.208888670021
 20
1425.469338135058
 30
0.0
 10
1536.208888670021
 20
1425.469338135058
 30
0.0
  0
LINE
  5
3D8F
330
A
100
AcDbEntity
  8
HIDDEN
 48
0.5
100
AcDbLine
 10
1544.518048315022
 20
1404.853835676942
 30
0.0
 11
1590.553975274097
 21
1404.853835676942
 31
0.0
  0
LINE
  5
3D90
330
A
100
AcDbEntity
  8
HIDDEN
 48
0.5
100
AcDbLine
 10
1535.970199238086
 20
1424.386587523532
 30
0.0
 11
1598.984209268633
 21
1424.386587523532
 31
0.0
  0
LINE
  5
3D91
330
A
100
AcDbEntity
  8
HIDDEN
 48
0.5
100
AcDbLine
 10
1598.984209268633
 20
1424.386587523532
 30
0.0
 11
1598.984209268633
 21
1425.349993419091
 31
0.0
  0
LINE
  5
3D92
330
A
100
AcDbEntity
  8
HIDDEN
 48
0.5
100
AcDbLine
 10
1598.634823288554
 20
1424.13752029021
 30
0.0
 11
1598.987668535762
 21
1424.377939355708
 31
0.0
  0
LINE
  5
3D93
330
A
100
AcDbEntity
  8
HIDDEN
 48
0.5
100
AcDbLine
 10
1598.876971987619
 20
1425.469338135058
 30
0.0
 11
1598.984209268633
 21
1425.343074884832
 31
0.0
  0
LINE
  5
3D94
330
A
100
AcDbEntity
  8
HIDDEN
 48
0.5
100
AcDbLine
 10
1598.634823288554
 20
1424.13752029021
 30
0.0
 11
1594.054753609128
 21
1423.044391877295
 31
0.0
  0
LINE
  5
3D95
330
A
100
AcDbEntity
  8
HIDDEN
 48
0.5
100
AcDbLine
 10
1535.970199238086
 20
1425.343074884832
 30
0.0
 11
1535.970199238086
 21
1424.377939355708
 31
0.0
  0
LINE
  5
3D96
330
A
100
AcDbEntity
  8
HIDDEN
 48
0.5
100
AcDbLine
 10
1535.970199238086
 20
1424.377939355708
 30
0.0
 11
1536.444118834825
 21
1424.13752029021
 31
0.0
  0
LINE
  5
3D97
330
A
100
AcDbEntity
  8
HIDDEN
 48
0.5
100
AcDbLine
 10
1536.208888670021
 20
1425.469338135058
 30
0.0
 11
1535.970199238086
 21
1425.343074884832
 31
0.0
  0
LINE
  5
3D98
330
A
100
AcDbEntity
  8
HIDDEN
 48
0.5
100
AcDbLine
 10
1536.444118834825
 20
1424.13752029021
 30
0.0
 11
1540.788958349447
 21
1423.044391877295
 31
0.0
  0
LINE
  5
3D99
330
A
100
AcDbEntity
  8
HIDDEN
 48
0.5
100
AcDbLine
 10
1567.53947106169
 20
1425.469338135058
 30
0.0
 11
1536.219266471408
 21
1425.469338135058
 31
0.0
  0
LINE
  5
3D9A
330
A
100
AcDbEntity
  8
HIDDEN
 48
0.5
100
AcDbLine
 10
1588.021791735321
 20
1404.983558194298
 30
0.0
 11
1588.021791735321
 21
1415.233366698937
 31
0.0
  0
LINE
  5
3D9B
330
A
100
AcDbEntity
  8
HIDDEN
 48
0.5
100
AcDbLine
 10
1547.050231853799
 20
1404.853835676942
 30
0.0
 11
1547.050231853799
 21
1415.219529630419
 31
0.0
  0
LINE
  5
3D9C
330
A
100
AcDbEntity
  8
HIDDEN
 48
0.5
100
AcDbLine
 10
1594.051294341998
 20
1423.053040045119
 30
0.0
 11
1592.356253448554
 21
1422.44766829746
 31
0.0
  0
LINE
  5
3D9D
330
A
100
AcDbEntity
  8
HIDDEN
 48
0.5
100
AcDbLine
 10
1592.356253448554
 20
1422.44766829746
 30
0.0
 11
1590.913739055563
 21
1421.49118093616
 31
0.0
  0
LINE
  5
3D9E
330
A
100
AcDbEntity
  8
HIDDEN
 48
0.5
100
AcDbLine
 10
1590.913739055563
 20
1421.49118093616
 30
0.0
 11
1589.706454827376
 21
1420.1697408927
 31
0.0
  0
LINE
  5
3D9F
330
A
100
AcDbEntity
  8
HIDDEN
 48
0.5
100
AcDbLine
 10
1589.706454827376
 20
1420.1697408927
 30
0.0
 11
1588.737860031123
 21
1418.715119064755
 31
0.0
  0
LINE
  5
3DA0
330
A
100
AcDbEntity
  8
HIDDEN
 48
0.5
100
AcDbLine
 10
1588.737860031123
 20
1418.715119064755
 30
0.0
 11
1588.267399701514
 21
1417.032185606265
 31
0.0
  0
LINE
  5
3DA1
330
A
100
AcDbEntity
  8
HIDDEN
 48
0.5
100
AcDbLine
 10
1588.267399701514
 20
1417.032185606265
 30
0.0
 11
1588.021791735321
 21
1415.228177798243
 31
0.0
  0
LINE
  5
3DA2
330
A
100
AcDbEntity
  8
HIDDEN
 48
0.5
100
AcDbLine
 10
1547.050231853799
 20
1415.228177798243
 30
0.0
 11
1546.818460956125
 21
1417.032185606265
 31
0.0
  0
LINE
  5
3DA3
330
A
100
AcDbEntity
  8
HIDDEN
 48
0.5
100
AcDbLine
 10
1546.818460956125
 20
1417.032185606265
 30
0.0
 11
1546.216548475596
 21
1418.723767232579
 31
0.0
  0
LINE
  5
3DA4
330
A
100
AcDbEntity
  8
HIDDEN
 48
0.5
100
AcDbLine
 10
1545.251412946471
 20
1420.278707807279
 30
0.0
 11
1544.047587985413
 21
1421.612255285691
 31
0.0
  0
LINE
  5
3DA5
330
A
100
AcDbEntity
  8
HIDDEN
 48
0.5
100
AcDbLine
 10
1544.047587985413
 20
1421.612255285691
 30
0.0
 11
1542.48399924289
 21
1422.44766829746
 31
0.0
  0
LINE
  5
3DA6
330
A
100
AcDbEntity
  8
HIDDEN
 48
0.5
100
AcDbLine
 10
1542.48399924289
 20
1422.44766829746
 30
0.0
 11
1540.782039815187
 21
1423.053040045119
 31
0.0
  0
LINE
  5
3DA7
330
A
100
AcDbEntity
  8
HIDDEN
 48
0.5
100
AcDbLine
 10
1602.363913254131
 20
1431.60607802275
 30
0.0
 11
1602.969285001789
 21
1431.844767454683
 31
0.0
  0
LINE
  5
3DA8
330
A
100
AcDbEntity
  8
HIDDEN
 48
0.5
100
AcDbLine
 10
1602.969285001789
 20
1431.844767454683
 30
0.0
 11
1603.460500934174
 21
1432.334253753505
 31
0.0
  0
LINE
  5
3DA9
330
A
100
AcDbEntity
  8
HIDDEN
 48
0.5
100
AcDbLine
 10
1603.460500934174
 20
1432.334253753505
 30
0.0
 11
1603.567738215188
 21
1432.937895867598
 31
0.0
  0
LINE
  5
3DAA
330
A
100
AcDbEntity
  8
HIDDEN
 48
0.5
100
AcDbLine
 10
1603.567738215188
 20
1432.937895867598
 30
0.0
 11
1603.329048783255
 21
1433.417004365031
 31
0.0
  0
LINE
  5
3DAB
330
A
100
AcDbEntity
  8
HIDDEN
 48
0.5
100
AcDbLine
 10
1603.329048783255
 20
1433.417004365031
 30
0.0
 11
1602.844751385128
 21
1433.775038512931
 31
0.0
  0
LINE
  5
3DAC
330
A
100
AcDbEntity
  8
HIDDEN
 48
0.5
100
AcDbLine
 10
1575.129103143762
 20
1425.469338135058
 30
0.0
 11
1575.129103143762
 21
1431.614726190574
 31
0.0
  0
LINE
  5
3DAD
330
A
100
AcDbEntity
  8
HIDDEN
 48
0.5
100
AcDbLine
 10
1559.818386828698
 20
1425.469338135058
 30
0.0
 11
1559.818386828698
 21
1431.614726190574
 31
0.0
  0
LINE
  5
3DAE
330
A
100
AcDbEntity
  8
HIDDEN
 48
0.5
100
AcDbLine
 10
1532.234190738251
 20
1433.775038512931
 30
0.0
 11
1531.746434072995
 21
1433.417004365031
 31
0.0
  0
LINE
  5
3DAF
330
A
100
AcDbEntity
  8
HIDDEN
 48
0.5
100
AcDbLine
 10
1531.746434072995
 20
1433.417004365031
 30
0.0
 11
1531.511203908191
 21
1432.937895867598
 31
0.0
  0
LINE
  5
3DB0
330
A
100
AcDbEntity
  8
HIDDEN
 48
0.5
100
AcDbLine
 10
1531.511203908191
 20
1432.937895867598
 30
0.0
 11
1531.621900456334
 21
1432.334253753505
 31
0.0
  0
LINE
  5
3DB1
330
A
100
AcDbEntity
  8
HIDDEN
 48
0.5
100
AcDbLine
 10
1531.621900456334
 20
1432.334253753505
 30
0.0
 11
1531.988582772057
 21
1431.844767454683
 31
0.0
  0
LINE
  5
3DB2
330
A
100
AcDbEntity
  8
HIDDEN
 48
0.5
100
AcDbLine
 10
1531.988582772057
 20
1431.844767454683
 30
0.0
 11
1532.593954519717
 21
1431.60607802275
 31
0.0
  0
LINE
  5
3DB3
330
A
100
AcDbEntity
  8
HIDDEN
 48
0.5
100
AcDbLine
 10
1532.593954519717
 20
1431.60607802275
 30
0.0
 11
1602.363913254131
 21
1431.60607802275
 31
0.0
  0
LINE
  5
3DB4
330
A
100
AcDbEntity
  8
HIDDEN
 48
0.5
100
AcDbLine
 10
1602.851669919386
 20
1433.775038512931
 30
0.0
 11
1532.234190738251
 21
1433.775038512931
 31
0.0
  0
LINE
  5
3DB5
330
A
100
AcDbEntity
  8
HIDDEN
 48
0.5
100
AcDbLine
 10
1598.876971987619
 20
1402.935672053647
 30
0.0
 11
1598.029451540897
 21
1404.025341199433
 31
0.0
  0
LINE
  5
3DB6
330
A
100
AcDbEntity
  8
HIDDEN
 48
0.5
100
AcDbLine
 10
1598.029451540897
 20
1404.025341199433
 30
0.0
 11
1596.822167312709
 21
1404.620335145703
 31
0.0
  0
LINE
  5
3DB7
330
A
100
AcDbEntity
  8
HIDDEN
 48
0.5
100
AcDbLine
 10
1596.822167312709
 20
1404.620335145703
 30
0.0
 11
1595.490349467861
 21
1404.862483844766
 31
0.0
  0
LINE
  5
3DB8
330
A
100
AcDbEntity
  8
HIDDEN
 48
0.5
100
AcDbLine
 10
1539.574755587001
 20
1404.853835676942
 30
0.0
 11
1538.263693344929
 21
1404.625524046397
 31
0.0
  0
LINE
  5
3DB9
330
A
100
AcDbEntity
  8
HIDDEN
 48
0.5
100
AcDbLine
 10
1538.263693344929
 20
1404.625524046397
 30
0.0
 11
1537.046031315353
 21
1404.021881932303
 31
0.0
  0
LINE
  5
3DBA
330
A
100
AcDbEntity
  8
HIDDEN
 48
0.5
100
AcDbLine
 10
1537.046031315353
 20
1404.021881932303
 30
0.0
 11
1536.094732854747
 21
1402.928753519389
 31
0.0
  0
LINE
  5
3DBB
330
A
100
AcDbEntity
  8
HIDDEN
 48
0.5
100
AcDbLine
 10
1598.876971987619
 20
1402.935672053647
 30
0.0
 11
1536.094732854747
 21
1402.935672053647
 31
0.0
  0
LINE
  5
3DBC
330
A
100
AcDbEntity
  8
HIDDEN
 48
0.5
100
AcDbLine
 10
1539.574755587001
 20
1404.853835676942
 30
0.0
 11
1595.490349467861
 21
1404.853835676942
 31
0.0
  0
LINE
  5
3DBD
330
A
100
AcDbEntity
  8
HIDDEN
 48
0.5
100
AcDbLine
 10
1601.281162642605
 20
1425.94844663249
 30
0.0
 11
1600.679250162075
 21
1425.469338135058
 31
0.0
  0
LINE
  5
3DE2
330
A
100
AcDbEntity
  8
HIDDEN
 48
0.5
100
AcDbLine
 10
1597.54169487564
 20
1399.317278636215
 30
0.0
 11
1597.54169487564
 21
1399.441812252876
 31
0.0
  0
LINE
  5
3DE3
330
A
100
AcDbEntity
  8
HIDDEN
 48
0.5
100
AcDbLine
 10
1597.54169487564
 20
1399.441812252876
 30
0.0
 11
1597.54169487564
 21
1397.755419527256
 31
0.0
  0
LINE
  5
3DE4
330
A
100
AcDbEntity
  8
HIDDEN
 48
0.5
100
AcDbLine
 10
1598.876971987619
 20
1402.935672053647
 30
0.0
 11
1599.478884468147
 21
1399.434893718617
 31
0.0
  0
LINE
  5
3DE5
330
A
100
AcDbEntity
  8
HIDDEN
 48
0.5
100
AcDbLine
 10
1543.552912785899
 20
1399.441812252876
 30
0.0
 11
1543.552912785899
 21
1399.317278636215
 31
0.0
  0
LINE
  5
3DE6
330
A
100
AcDbEntity
  8
HIDDEN
 48
0.5
100
AcDbLine
 10
1537.540706514869
 20
1399.441812252876
 30
0.0
 11
1537.540706514869
 21
1397.76406769508
 31
0.0
  0
LINE
  5
3DE7
330
A
100
AcDbEntity
  8
HIDDEN
 48
0.5
100
AcDbLine
 10
1537.540706514869
 20
1397.76406769508
 30
0.0
 11
1597.54169487564
 21
1397.76406769508
 31
0.0
  0
LINE
  5
3DE8
330
A
100
AcDbEntity
  8
HIDDEN
 48
0.5
100
AcDbLine
 10
1536.094732854747
 20
1402.935672053647
 30
0.0
 11
1535.485901839959
 21
1399.434893718617
 31
0.0
  0
LINE
  5
3DE9
330
A
100
AcDbEntity
  8
HIDDEN
 48
0.5
100
AcDbLine
 10
1535.485901839959
 20
1399.434893718617
 30
0.0
 11
1599.478884468147
 21
1399.434893718617
 31
0.0
  0
LINE
  5
3DEA
330
A
100
AcDbEntity
  8
HIDDEN
 48
0.5
100
AcDbLine
 10
1542.477080708632
 20
1396.781635830309
 30
0.0
 11
1542.359465626229
 21
1397.259014694177
 31
0.0
  0
LINE
  5
3DEB
330
A
100
AcDbEntity
  8
HIDDEN
 48
0.5
100
AcDbLine
 10
1542.359465626229
 20
1397.259014694177
 30
0.0
 11
1541.992783310505
 21
1397.627426643466
 31
0.0
  0
LINE
  5
3DEC
330
A
100
AcDbEntity
  8
HIDDEN
 48
0.5
100
AcDbLine
 10
1541.992783310505
 20
1397.627426643466
 30
0.0
 11
1541.511945179508
 21
1397.755419527256
 31
0.0
  0
LINE
  5
3DED
330
A
100
AcDbEntity
  8
HIDDEN
 48
0.5
100
AcDbLine
 10
1567.53947106169
 20
1307.018842721085
 30
0.0
 11
1583.566255672555
 21
1307.018842721085
 31
0.0
  0
LINE
  5
3DEE
330
A
100
AcDbEntity
  8
HIDDEN
 48
0.5
100
AcDbLine
 10
1583.566255672555
 20
1307.018842721085
 30
0.0
 11
1583.566255672555
 21
1355.810075948788
 31
0.0
  0
LINE
  5
3DEF
330
A
100
AcDbEntity
  8
HIDDEN
 48
0.5
100
AcDbLine
 10
1567.53947106169
 20
1307.018842721085
 30
0.0
 11
1551.523064252213
 21
1307.018842721085
 31
0.0
  0
LINE
  5
3DF0
330
A
100
AcDbEntity
  8
HIDDEN
 48
0.5
100
AcDbLine
 10
1551.523064252213
 20
1307.018842721085
 30
0.0
 11
1551.523064252213
 21
1355.810075948788
 31
0.0
  0
LINE
  5
3DF1
330
A
100
AcDbEntity
  8
HIDDEN
 48
0.5
100
AcDbLine
 10
1567.53947106169
 20
1294.001620512864
 30
0.0
 11
1595.012970603992
 21
1294.001620512864
 31
0.0
  0
LINE
  5
3DF2
330
A
100
AcDbEntity
  8
HIDDEN
 48
0.5
100
AcDbLine
 10
1595.012970603992
 20
1294.001620512864
 30
0.0
 11
1595.012970603992
 21
1307.027490888908
 31
0.0
  0
LINE
  5
3DF3
330
A
100
AcDbEntity
  8
HIDDEN
 48
0.5
100
AcDbLine
 10
1595.012970603992
 20
1307.027490888908
 30
0.0
 11
1540.065971519386
 21
1307.027490888908
 31
0.0
  0
LINE
  5
3DF4
330
A
100
AcDbEntity
  8
HIDDEN
 48
0.5
100
AcDbLine
 10
1540.065971519386
 20
1307.027490888908
 30
0.0
 11
1540.065971519386
 21
1294.001620512864
 31
0.0
  0
LINE
  5
3DF5
330
A
100
AcDbEntity
  8
HIDDEN
 48
0.5
100
AcDbLine
 10
1540.065971519386
 20
1294.001620512864
 30
0.0
 11
1567.53947106169
 21
1294.001620512864
 31
0.0
  0
LINE
  5
3DF6
330
A
100
AcDbEntity
  8
HIDDEN
 48
0.5
100
AcDbLine
 10
1776.977340148722
 20
1257.008217830241
 30
0.0
 11
1786.978081420039
 21
1257.008217830241
 31
0.0
  0
LINE
  5
3DF7
330
A
100
AcDbEntity
  8
HIDDEN
 48
0.5
100
AcDbLine
 10
1786.978081420039
 20
1257.008217830241
 30
0.0
 11
1786.978081420039
 21
1289.066975952666
 31
0.0
  0
LINE
  5
3DF8
330
A
100
AcDbEntity
  8
HIDDEN
 48
0.5
100
AcDbLine
 10
1786.978081420039
 20
1289.066975952666
 30
0.0
 11
1776.977340148722
 21
1289.066975952666
 31
0.0
  0
LINE
  5
3DF9
330
A
100
AcDbEntity
  8
HIDDEN
 48
0.5
100
AcDbLine
 10
1764.42711900298
 20
1307.982248616644
 30
0.0
 11
1776.963503080204
 21
1307.982248616644
 31
0.0
  0
LINE
  5
3DFA
330
A
100
AcDbEntity
  8
HIDDEN
 48
0.5
100
AcDbLine
 10
1776.963503080204
 20
1307.982248616644
 30
0.0
 11
1776.963503080204
 21
1237.980518984555
 31
0.0
  0
LINE
  5
3DFB
330
A
100
AcDbEntity
  8
HIDDEN
 48
0.5
100
AcDbLine
 10
1776.963503080204
 20
1237.980518984555
 30
0.0
 11
1764.42711900298
 21
1237.980518984555
 31
0.0
  0
LINE
  5
3DFC
330
A
100
AcDbEntity
  8
HIDDEN
 48
0.5
100
AcDbLine
 10
1764.42711900298
 20
1237.980518984555
 30
0.0
 11
1764.42711900298
 21
1307.982248616644
 31
0.0
  0
LINE
  5
3DFD
330
A
100
AcDbEntity
  8
HIDDEN
 48
0.5
100
AcDbLine
 10
1764.42711900298
 20
1289.058327784842
 30
0.0
 11
1597.54169487564
 21
1289.058327784842
 31
0.0
  0
LINE
  5
3DFE
330
A
100
AcDbEntity
  8
HIDDEN
 48
0.5
100
AcDbLine
 10
1597.060856744644
 20
1289.058327784842
 30
0.0
 11
1595.012970603992
 21
1289.058327784842
 31
0.0
  0
LINE
  5
3DFF
330
A
100
AcDbEntity
  8
HIDDEN
 48
0.5
100
AcDbLine
 10
1597.54169487564
 20
1288.57576002028
 30
0.0
 11
1597.060856744644
 21
1288.57576002028
 31
0.0
  0
LINE
  5
3E00
330
A
100
AcDbEntity
  8
HIDDEN
 48
0.5
100
AcDbLine
 10
1595.012970603992
 20
1257.008217830241
 30
0.0
 11
1597.060856744644
 21
1257.008217830241
 31
0.0
  0
LINE
  5
3E01
330
A
100
AcDbEntity
  8
HIDDEN
 48
0.5
100
AcDbLine
 10
1597.54169487564
 20
1257.008217830241
 30
0.0
 11
1764.42711900298
 21
1257.008217830241
 31
0.0
  0
LINE
  5
3E02
330
A
100
AcDbEntity
  8
HIDDEN
 48
0.5
100
AcDbLine
 10
1597.060856744644
 20
1257.489055961239
 30
0.0
 11
1597.54169487564
 21
1257.489055961239
 31
0.0
  0
LINE
  5
3E03
330
A
100
AcDbEntity
  8
HIDDEN
 48
0.5
100
AcDbLine
 10
1567.53947106169
 20
1252.064925102219
 30
0.0
 11
1540.065971519386
 21
1252.064925102219
 31
0.0
  0
LINE
  5
3E04
330
A
100
AcDbEntity
  8
HIDDEN
 48
0.5
100
AcDbLine
 10
1540.065971519386
 20
1252.064925102219
 30
0.0
 11
1540.065971519386
 21
1177.958775021006
 31
0.0
  0
LINE
  5
3E05
330
A
100
AcDbEntity
  8
HIDDEN
 48
0.5
100
AcDbLine
 10
1540.065971519386
 20
1177.958775021006
 30
0.0
 11
1595.012970603992
 21
1177.958775021006
 31
0.0
  0
LINE
  5
3E06
330
A
100
AcDbEntity
  8
HIDDEN
 48
0.5
100
AcDbLine
 10
1595.012970603992
 20
1177.958775021006
 30
0.0
 11
1595.012970603992
 21
1252.064925102219
 31
0.0
  0
LINE
  5
3E07
330
A
100
AcDbEntity
  8
HIDDEN
 48
0.5
100
AcDbLine
 10
1595.012970603992
 20
1252.064925102219
 30
0.0
 11
1567.53947106169
 21
1252.064925102219
 31
0.0
  0
LINE
  5
3E08
330
A
100
AcDbEntity
  8
HIDDEN
 48
0.5
100
AcDbLine
 10
1595.012970603992
 20
1289.058327784842
 30
0.0
 11
1595.012970603992
 21
1293.512134214043
 31
0.0
  0
LINE
  5
3E09
330
A
100
AcDbEntity
  8
HIDDEN
 48
0.5
100
AcDbLine
 10
1595.012970603992
 20
1293.512134214043
 30
0.0
 11
1540.065971519386
 21
1293.512134214043
 31
0.0
  0
LINE
  5
3E0A
330
A
100
AcDbEntity
  8
HIDDEN
 48
0.5
100
AcDbLine
 10
1540.065971519386
 20
1293.512134214043
 30
0.0
 11
1540.065971519386
 21
1252.55441140104
 31
0.0
  0
LINE
  5
3E0B
330
A
100
AcDbEntity
  8
HIDDEN
 48
0.5
100
AcDbLine
 10
1540.065971519386
 20
1252.55441140104
 30
0.0
 11
1595.012970603992
 21
1252.55441140104
 31
0.0
  0
LINE
  5
3E0C
330
A
100
AcDbEntity
  8
HIDDEN
 48
0.5
100
AcDbLine
 10
1595.012970603992
 20
1252.55441140104
 30
0.0
 11
1595.012970603992
 21
1256.999569662417
 31
0.0
  0
LINE
  5
3E0D
330
A
100
AcDbEntity
  8
HIDDEN
 48
0.5
100
AcDbLine
 10
1597.060856744644
 20
1289.058327784842
 30
0.0
 11
1597.060856744644
 21
1256.999569662417
 31
0.0
  0
LINE
  5
3E0E
330
A
100
AcDbEntity
  8
HIDDEN
 48
0.5
100
AcDbLine
 10
1597.54169487564
 20
1289.058327784842
 30
0.0
 11
1597.54169487564
 21
1256.999569662417
 31
0.0
  0
LINE
  5
3E0F
330
A
100
AcDbEntity
  8
HIDDEN
 48
0.5
100
AcDbLine
 10
1583.566255672555
 20
1350.27351890806
 30
0.0
 11
1592.477327798086
 21
1350.27351890806
 31
0.0
  0
LINE
  5
3E10
330
A
100
AcDbEntity
  8
HIDDEN
 48
0.5
100
AcDbLine
 10
1592.477327798086
 20
1350.27351890806
 30
0.0
 11
1592.477327798086
 21
1362.80125481746
 31
0.0
  0
LINE
  5
3E11
330
A
100
AcDbEntity
  8
HIDDEN
 48
0.5
100
AcDbLine
 10
1592.477327798086
 20
1362.80125481746
 30
0.0
 11
1542.477080708632
 21
1362.80125481746
 31
0.0
  0
LINE
  5
3E12
330
A
100
AcDbEntity
  8
HIDDEN
 48
0.5
100
AcDbLine
 10
1542.477080708632
 20
1362.80125481746
 30
0.0
 11
1542.477080708632
 21
1350.27351890806
 31
0.0
  0
LINE
  5
3E13
330
A
100
AcDbEntity
  8
HIDDEN
 48
0.5
100
AcDbLine
 10
1542.477080708632
 20
1350.27351890806
 30
0.0
 11
1583.448640590152
 21
1350.27351890806
 31
0.0
  0
LINE
  5
3E14
330
A
100
AcDbEntity
  8
HIDDEN
 48
0.5
100
AcDbLine
 10
1547.897752300522
 20
1357.750724808424
 30
0.0
 11
1567.53255252743
 21
1357.750724808424
 31
0.0
  0
LINE
  5
3E15
330
A
100
AcDbEntity
  8
HIDDEN
 48
0.5
100
AcDbLine
 10
1546.818460956125
 20
1359.670618065283
 30
0.0
 11
1588.267399701514
 21
1359.670618065283
 31
0.0
  0
LINE
  5
3E16
330
A
100
AcDbEntity
  8
HIDDEN
 48
0.5
100
AcDbLine
 10
1588.267399701514
 20
1359.670618065283
 30
0.0
 11
1587.060115473325
 21
1357.7420766406
 31
0.0
  0
LINE
  5
3E17
330
A
100
AcDbEntity
  8
HIDDEN
 48
0.5
100
AcDbLine
 10
1587.060115473325
 20
1357.7420766406
 30
0.0
 11
1567.53947106169
 21
1357.7420766406
 31
0.0
  0
LINE
  5
3E18
330
A
100
AcDbEntity
  8
HIDDEN
 48
0.5
100
AcDbLine
 10
1546.818460956125
 20
1359.670618065283
 30
0.0
 11
1547.908130101909
 21
1357.7420766406
 31
0.0
  0
LINE
  5
3E19
330
A
100
AcDbEntity
  8
HIDDEN
 48
0.5
100
AcDbLine
 10
1587.060115473325
 20
1357.750724808424
 30
0.0
 11
1587.060115473325
 21
1363.287281849151
 31
0.0
  0
LINE
  5
3E1A
330
A
100
AcDbEntity
  8
HIDDEN
 48
0.5
100
AcDbLine
 10
1547.897752300522
 20
1357.750724808424
 30
0.0
 11
1547.897752300522
 21
1363.287281849151
 31
0.0
  0
LINE
  5
3E1B
330
A
100
AcDbEntity
  8
HIDDEN
 48
0.5
100
AcDbLine
 10
1546.818460956125
 20
1359.670618065283
 30
0.0
 11
1546.818460956125
 21
1363.287281849151
 31
0.0
  0
LINE
  5
3E1C
330
A
100
AcDbEntity
  8
HIDDEN
 48
0.5
100
AcDbLine
 10
1588.267399701514
 20
1359.670618065283
 30
0.0
 11
1588.267399701514
 21
1363.287281849151
 31
0.0
  0
LINE
  5
3E1D
330
A
100
AcDbEntity
  8
HIDDEN
 48
0.5
100
AcDbLine
 10
1593.570456211001
 20
1397.755419527256
 30
0.0
 11
1592.958165929084
 21
1397.627426643466
 31
0.0
  0
LINE
  5
3E1E
330
A
100
AcDbEntity
  8
HIDDEN
 48
0.5
100
AcDbLine
 10
1592.958165929084
 20
1397.627426643466
 30
0.0
 11
1592.601861414747
 21
1397.259014694177
 31
0.0
  0
LINE
  5
3E1F
330
A
100
AcDbEntity
  8
HIDDEN
 48
0.5
100
AcDbLine
 10
1592.601861414747
 20
1397.259014694177
 30
0.0
 11
1592.473868530957
 21
1396.781635830309
 31
0.0
  0
LINE
  5
3E20
330
A
100
AcDbEntity
  8
HIDDEN
 48
0.5
100
AcDbLine
 10
1592.473868530957
 20
1396.781635830309
 30
0.0
 11
1592.473868530957
 21
1363.287281849151
 31
0.0
  0
LINE
  5
3E21
330
A
100
AcDbEntity
  8
HIDDEN
 48
0.5
100
AcDbLine
 10
1542.477080708632
 20
1396.781635830309
 30
0.0
 11
1542.477080708632
 21
1363.287281849151
 31
0.0
  0
LINE
  5
3E22
330
A
100
AcDbEntity
  8
HIDDEN
 48
0.5
100
AcDbLine
 10
1542.477080708632
 20
1363.287281849151
 30
0.0
 11
1592.477327798086
 21
1363.287281849151
 31
0.0
  0
SPLINE
  5
3E2B
330
A
100
AcDbEntity
  8
HIDDEN
 48
0.5
100
AcDbSpline
210
0.0
220
0.0
230
1.0
 70
    24
 71
     3
 72
     8
 73
     4
 74
     0
 42
0.000000001
 43
0.0000000001
 40
0.0
 40
0.0
 40
0.0
 40
0.0
 40
1.0
 40
1.0
 40
1.0
 40
1.0
 10
1595.012970603992
 20
1289.058327784842
 30
0.0
 10
1595.012970603992
 20
1289.058327784842
 30
0.0
 10
1592.972002997602
 20
1286.524414612501
 30
0.0
 10
1592.972002997602
 20
1286.524414612501
 30
0.0
  0
SPLINE
  5
3E2C
330
A
100
AcDbEntity
  8
HIDDEN
 48
0.5
100
AcDbSpline
210
0.0
220
0.0
230
1.0
 70
     8
 71
     3
 72
    11
 73
     7
 74
     0
 42
0.000000001
 43
0.0000000001
 40
1.0
 40
1.0
 40
1.0
 40
1.0
 40
2.0
 40
2.0
 40
2.0
 40
3.0
 40
3.0
 40
3.0
 40
3.0
 10
1592.972002997602
 20
1286.524414612501
 30
0.0
 10
1587.015145000644
 20
1278.412433193878
 30
0.0
 10
1587.10162667888
 20
1267.571090010098
 30
0.0
 10
1592.972002997602
 20
1259.415867752357
 30
0.0
 10
1592.972002997602
 20
1259.415867752357
 30
0.0
 10
1595.012970603992
 20
1256.999569662417
 30
0.0
 10
1595.012970603992
 20
1256.999569662417
 30
0.0
  0
LINE
  5
3E2D
330
A
100
AcDbEntity
  8
レイヤー 1
100
AcDbLine
 10
1567.542930328819
 20
722.8385654978508
 30
0.0
 11
1679.841119153018
 21
722.8385654978508
 31
0.0
  0
LINE
  5
3E2E
330
A
100
AcDbEntity
  8
レイヤー 1
100
AcDbLine
 10
1755.03866801358
 20
1563.075525278508
 30
0.0
 11
1567.542930328819
 21
1563.075525278508
 31
0.0
  0
SPLINE
  5
3E2F
330
A
100
AcDbEntity
  8
HIDDEN
 48
0.5
100
AcDbSpline
210
0.0
220
0.0
230
1.0
 70
    27
 71
     3
 72
    11
 73
     7
 74
     0
 42
0.000000001
 43
0.0000000001
 40
4.5
 40
4.5
 40
4.5
 40
4.5
 40
5.0
 40
5.0
 40
5.0
 40
5.500000000000002
 40
5.500000000000002
 40
5.500000000000002
 40
5.500000000000002
 10
1567.542930328819
 20
1425.469338135058
 30
0.0
 10
1583.209951158219
 20
1425.469338135058
 30
0.0
 10
1598.876971987619
 20
1425.469338135058
 30
0.0
 10
1598.876971987619
 20
1425.469338135058
 30
0.0
 10
1598.876971987619
 20
1425.469338135058
 30
0.0
 10
1583.209951158219
 20
1425.469338135058
 30
0.0
 10
1567.542930328819
 20
1425.469338135058
 30
0.0
  0
SPLINE
  5
3E30
330
A
100
AcDbEntity
  8
HIDDEN
 48
0.5
100
AcDbSpline
210
0.0
220
0.0
230
1.0
 70
    27
 71
     3
 72
    11
 73
     7
 74
     0
 42
0.000000001
 43
0.0000000001
 40
2.5
 40
2.5
 40
2.5
 40
2.5
 40
3.0
 40
3.0
 40
3.0
 40
3.5
 40
3.5
 40
3.5
 40
3.5
 10
1567.542930328819
 20
1425.469338135058
 30
0.0
 10
1583.209951158219
 20
1425.469338135058
 30
0.0
 10
1598.876971987619
 20
1425.469338135058
 30
0.0
 10
1598.876971987619
 20
1425.469338135058
 30
0.0
 10
1598.876971987619
 20
1425.469338135058
 30
0.0
 10
1583.209951158219
 20
1425.469338135058
 30
0.0
 10
1567.542930328819
 20
1425.469338135058
 30
0.0
  0
LINE
  5
3E32
330
A
100
AcDbEntity
  8
0
100
AcDbLine
 10
1735.995402465813
 20
1289.058327784842
 30
0.0
 11
1732.622617014573
 21
1247.967423187354
 31
0.0
  0
LINE
  5
3E33
330
A
100
AcDbEntity
  8
HIDDEN
 48
0.5
100
AcDbLine
 10
1380.047192644057
 20
1563.075525278508
 30
0.0
 11
1381.015787440311
 21
1562.836835846574
 31
0.0
  0
LINE
  5
3E34
330
A
100
AcDbEntity
  8
HIDDEN
 48
0.5
100
AcDbLine
 10
1381.015787440311
 20
1562.831646945881
 30
0.0
 11
1381.863307887032
 21
1562.224545564657
 31
0.0
  0
LINE
  5
3E35
330
A
100
AcDbEntity
  8
HIDDEN
 48
0.5
100
AcDbLine
 10
1381.863307887032
 20
1562.224545564657
 30
0.0
 11
1382.33722748377
 21
1561.383943652194
 31
0.0
  0
LINE
  5
3E36
330
A
100
AcDbEntity
  8
レイヤー 1
100
AcDbLine
 10
1378.352151750613
 20
1562.224545564657
 30
0.0
 11
1377.881691421004
 21
1561.383943652194
 31
0.0
  0
LINE
  5
3E37
330
A
100
AcDbEntity
  8
レイヤー 1
100
AcDbLine
 10
1377.881691421004
 20
1561.383943652194
 30
0.0
 11
1377.767535605732
 21
1560.4222673902
 31
0.0
  0
LINE
  5
3E38
330
A
100
AcDbEntity
  8
レイヤー 1
100
AcDbLine
 10
1382.33722748377
 20
1500.53889411183
 30
0.0
 11
1387.768276877049
 21
1429.207076268458
 31
0.0
  0
LINE
  5
3E3E
330
A
100
AcDbEntity
  8
レイヤー 1
100
AcDbLine
 10
1387.76481760992
 20
1429.207076268458
 30
0.0
 11
1390.169008264906
 21
1399.197933920248
 31
0.0
  0
LINE
  5
3E3F
330
A
100
AcDbEntity
  8
レイヤー 1
100
AcDbLine
 10
1390.169008264906
 20
1399.197933920248
 30
0.0
 11
1398.370930628895
 21
1297.979777711762
 31
0.0
  0
LINE
  5
3E40
330
A
100
AcDbEntity
  8
レイヤー 1
100
AcDbLine
 10
1402.463243643066
 20
1247.967423187354
 30
0.0
 11
1412.218376948189
 21
1138.308655182945
 31
0.0
  0
LINE
  5
3E41
330
A
100
AcDbEntity
  8
レイヤー 1
100
AcDbLine
 10
1412.218376948189
 20
1138.31384408364
 30
0.0
 11
1414.027573656906
 21
1117.352414912576
 31
0.0
  0
LINE
  5
3E42
330
A
100
AcDbEntity
  8
レイヤー 1
100
AcDbLine
 10
1414.027573656906
 20
1117.352414912576
 30
0.0
 11
1422.347111103296
 21
1028.777880062327
 31
0.0
  0
LINE
  5
3E43
330
A
100
AcDbEntity
  8
レイヤー 1
100
AcDbLine
 10
1422.347111103296
 20
1028.777880062327
 30
0.0
 11
1426.200734685534
 21
986.7235695692802
 31
0.0
  0
LINE
  5
3E44
330
A
100
AcDbEntity
  8
レイヤー 1
100
AcDbLine
 10
1438.965430393302
 20
856.1051020273728
 30
0.0
 11
1452.238638369105
 21
725.8533168011897
 31
0.0
  0
LINE
  5
3E45
330
A
100
AcDbEntity
  8
レイヤー 1
100
AcDbLine
 10
1452.224801300587
 20
725.8533168011897
 30
0.0
 11
1452.224801300587
 21
725.6111681021264
 31
0.0
  0
LINE
  5
3E46
330
A
100
AcDbEntity
  8
レイヤー 1
100
AcDbLine
 10
1452.224801300587
 20
725.6059792014323
 30
0.0
 11
1452.584565082052
 21
724.6408436723084
 31
0.0
  0
LINE
  5
3E47
330
A
100
AcDbEntity
  8
レイヤー 1
100
AcDbLine
 10
1452.594942883441
 20
724.6512214736965
 30
0.0
 11
1452.594942883441
 21
724.5266878570353
 31
0.0
  0
LINE
  5
3E48
330
A
100
AcDbEntity
  8
レイヤー 1
100
AcDbLine
 10
1452.584565082052
 20
724.5266878570353
 30
0.0
 11
1453.19339609684
 21
723.6808970438785
 31
0.0
  0
LINE
  5
3E49
330
A
100
AcDbEntity
  8
レイヤー 1
100
AcDbLine
 10
1453.19339609684
 20
723.6808970438785
 30
0.0
 11
1454.151613091705
 21
723.0807141969142
 31
0.0
  0
LINE
  5
3E4A
330
A
100
AcDbEntity
  8
レイヤー 1
100
AcDbLine
 10
1464.643570295408
 20
722.8385654978508
 30
0.0
 11
1455.244741504619
 21
722.8385654978508
 31
0.0
  0
LINE
  5
3E4B
330
A
100
AcDbEntity
  8
レイヤー 1
100
AcDbLine
 10
1454.151613091705
 20
723.0807141969142
 30
0.0
 11
1455.244741504619
 21
722.8385654978508
 31
0.0
  0
LINE
  5
3E4C
330
A
100
AcDbEntity
  8
レイヤー 1
100
AcDbLine
 10
1438.965430393302
 20
856.1051020273728
 30
0.0
 11
1426.200734685534
 21
986.7235695692802
 31
0.0
  0
LINE
  5
3E4D
330
A
100
AcDbEntity
  8
レイヤー 1
100
AcDbLine
 10
1414.027573656906
 20
1117.352414912576
 30
0.0
 11
1402.463243643066
 21
1247.967423187354
 31
0.0
  0
LINE
  5
3E4E
330
A
100
AcDbEntity
  8
レイヤー 1
100
AcDbLine
 10
1399.090458191826
 20
1289.058327784842
 30
0.0
 11
1388.124581391385
 21
1424.737703137173
 31
0.0
  0
LINE
  5
3E4F
330
A
100
AcDbEntity
  8
レイヤー 1
100
AcDbLine
 10
1388.124581391385
 20
1424.737703137173
 30
0.0
 11
1377.767535605732
 21
1560.429185924459
 31
0.0
  0
LINE
  5
3E50
330
A
100
AcDbEntity
  8
レイヤー 1
100
AcDbLine
 10
1378.365988819131
 20
1562.231464098916
 30
0.0
 11
1379.092434916322
 21
1562.819539510927
 31
0.0
  0
LINE
  5
3E51
330
A
100
AcDbEntity
  8
レイヤー 1
100
AcDbLine
 10
1379.092434916322
 20
1562.819539510927
 30
0.0
 11
1380.047192644057
 21
1563.075525278508
 31
0.0
  0
LINE
  5
3E52
330
A
100
AcDbEntity
  8
レイヤー 1
100
AcDbLine
 10
1455.237822970361
 20
722.8385654978508
 30
0.0
 11
1454.148153824576
 21
723.0807141969142
 31
0.0
  0
LINE
  5
3E53
330
A
100
AcDbEntity
  8
レイヤー 1
100
AcDbLine
 10
1454.148153824576
 20
723.0807141969142
 30
0.0
 11
1453.19339609684
 21
723.6808970438785
 31
0.0
  0
LINE
  5
3E54
330
A
100
AcDbEntity
  8
レイヤー 1
100
AcDbLine
 10
1453.19339609684
 20
723.6808970438785
 30
0.0
 11
1452.594942883441
 21
724.5266878570353
 31
0.0
  0
LINE
  5
3E55
330
A
100
AcDbEntity
  8
レイヤー 1
100
AcDbLine
 10
1452.594942883441
 20
724.5266878570353
 30
0.0
 11
1452.224801300587
 21
725.6111681021264
 31
0.0
  0
LINE
  5
3E56
330
A
100
AcDbEntity
  8
レイヤー 1
100
AcDbLine
 10
1455.237822970361
 20
722.8385654978508
 30
0.0
 11
1464.633192494019
 21
722.8385654978508
 31
0.0
  0
SPLINE
  5
3E7E
330
A
100
AcDbEntity
  8
HIDDEN
 48
0.5
100
AcDbSpline
210
0.0
220
0.0
230
1.0
 70
     8
 71
     3
 72
    11
 73
     7
 74
     0
 42
0.000000001
 43
0.0000000001
 40
1.0
 40
1.0
 40
1.0
 40
1.0
 40
2.0
 40
2.0
 40
2.0
 40
3.0
 40
3.0
 40
3.0
 40
3.0
 10
1515.256107666779
 20
1431.249773508414
 30
0.0
 10
1448.063302943825
 20
1447.229858013031
 30
0.0
 10
1410.938448110283
 20
1484.508650233835
 30
0.0
 10
1387.166364396521
 20
1547.899720381494
 30
0.0
 10
1387.166364396521
 20
1547.899720381494
 30
0.0
 10
1382.33722748377
 20
1561.383943652194
 30
0.0
 10
1382.33722748377
 20
1561.383943652194
 30
0.0
  0
ARC
  5
3E8A
330
A
100
AcDbEntity
  8
HIDDEN
 48
0.5
100
AcDbCircle
 10
1499.967955926506
 20
1342.658594341243
 30
0.0
 40
89.90063742745795
100
AcDbArc
 50
67.89041018514281
 51
80.2089191870397
  0
LINE
  5
3E8B
330
A
100
AcDbEntity
  8
レイヤー 1
100
AcDbLine
 10
1567.542930328819
 20
722.8385654978508
 30
0.0
 11
1464.643570295408
 21
722.8385654978508
 31
0.0
  0
LINE
  5
3E8C
330
A
100
AcDbEntity
  8
レイヤー 1
100
AcDbLine
 10
1380.047192644057
 20
1563.075525278508
 30
0.0
 11
1567.542930328819
 21
1563.075525278508
 31
0.0
  0
SPLINE
  5
3E8D
330
A
100
AcDbEntity
  8
HIDDEN
 48
0.5
100
AcDbSpline
210
0.0
220
0.0
230
1.0
 70
    27
 71
     3
 72
    11
 73
     7
 74
     0
 42
0.000000001
 43
0.0000000001
 40
4.5
 40
4.5
 40
4.5
 40
4.5
 40
5.0
 40
5.0
 40
5.0
 40
5.500000000000002
 40
5.500000000000002
 40
5.500000000000002
 40
5.500000000000002
 10
1567.542930328819
 20
1425.469338135058
 30
0.0
 10
1551.875909499419
 20
1425.469338135058
 30
0.0
 10
1536.208888670021
 20
1425.469338135058
 30
0.0
 10
1536.208888670021
 20
1425.469338135058
 30
0.0
 10
1536.208888670021
 20
1425.469338135058
 30
0.0
 10
1551.875909499419
 20
1425.469338135058
 30
0.0
 10
1567.542930328819
 20
1425.469338135058
 30
0.0
  0
SPLINE
  5
3E8E
330
A
100
AcDbEntity
  8
HIDDEN
 48
0.5
100
AcDbSpline
210
0.0
220
0.0
230
1.0
 70
    27
 71
     3
 72
    11
 73
     7
 74
     0
 42
0.000000001
 43
0.0000000001
 40
2.5
 40
2.5
 40
2.5
 40
2.5
 40
3.0
 40
3.0
 40
3.0
 40
3.5
 40
3.5
 40
3.5
 40
3.5
 10
1567.542930328819
 20
1425.469338135058
 30
0.0
 10
1551.875909499419
 20
1425.469338135058
 30
0.0
 10
1536.208888670021
 20
1425.469338135058
 30
0.0
 10
1536.208888670021
 20
1425.469338135058
 30
0.0
 10
1536.208888670021
 20
1425.469338135058
 30
0.0
 10
1551.875909499419
 20
1425.469338135058
 30
0.0
 10
1567.542930328819
 20
1425.469338135058
 30
0.0
  0
LINE
  5
3E90
330
A
100
AcDbEntity
  8
0
100
AcDbLine
 10
1399.090458191826
 20
1289.058327784842
 30
0.0
 11
1402.463243643066
 21
1247.967423187354
 31
0.0
  0
LINE
  5
3E91
330
A
100
AcDbEntity
  8
HIDDEN
 48
0.5
100
AcDbLine
 10
1545.251412946471
 20
1420.278707807279
 30
0.0
 11
1546.216548475596
 21
1418.723767232579
 31
0.0
  0
LINE
  5
3E92
330
A
100
AcDbEntity
  8
HIDDEN
 48
0.5
100
AcDbLine
 10
1544.286277417349
 20
1417.153259955797
 30
0.0
 11
1545.133797864069
 21
1416.061861176448
 31
0.0
  0
LINE
  5
3E95
330
A
100
AcDbEntity
  8
HIDDEN
 48
0.5
100
AcDbLine
 10
1545.375946563132
 20
1414.868414016778
 30
0.0
 11
1545.375946563132
 21
1414.020893570056
 31
0.0
  0
LINE
  5
3E97
330
A
100
AcDbEntity
  8
HIDDEN
 48
0.5
100
AcDbLine
 10
1545.375946563132
 20
1414.015704669362
 30
0.0
 11
1545.375946563132
 21
1412.683886824513
 31
0.0
  0
LINE
  5
3E99
330
A
100
AcDbEntity
  8
HIDDEN
 48
0.5
100
AcDbLine
 10
1545.375946563132
 20
1412.683886824513
 30
0.0
 11
1545.500480179794
 21
1411.004412633152
 31
0.0
  0
LINE
  5
3E9B
330
A
100
AcDbEntity
  8
HIDDEN
 48
0.5
100
AcDbLine
 10
1545.500480179794
 20
1411.004412633152
 30
0.0
 11
1545.500480179794
 21
1409.07241194134
 31
0.0
  0
LINE
  5
3E9D
330
A
100
AcDbEntity
  8
HIDDEN
 48
0.5
100
AcDbLine
 10
1545.500480179794
 20
1409.077600842034
 30
0.0
 11
1545.500480179794
 21
1408.107276412216
 31
0.0
  0
LINE
  5
3E9E
330
A
100
AcDbEntity
  8
HIDDEN
 48
0.5
100
AcDbLine
 10
1545.500480179794
 20
1408.107276412216
 30
0.0
 11
1545.375946563132
 21
1407.503634298122
 31
0.0
  0
LINE
  5
3E9F
330
A
100
AcDbEntity
  8
HIDDEN
 48
0.5
100
AcDbLine
 10
1545.375946563132
 20
1407.515741733076
 30
0.0
 11
1545.254872213602
 21
1406.912099618981
 31
0.0
  0
LINE
  5
3EA0
330
A
100
AcDbEntity
  8
HIDDEN
 48
0.5
100
AcDbLine
 10
1545.254872213602
 20
1406.912099618981
 30
0.0
 11
1545.016182781667
 21
1406.545417303257
 31
0.0
  0
LINE
  5
3EA1
330
A
100
AcDbEntity
  8
HIDDEN
 48
0.5
100
AcDbLine
 10
1545.009264247409
 20
1406.545417303257
 30
0.0
 11
1544.639122664553
 21
1405.938315922034
 31
0.0
  0
LINE
  5
3EA2
330
A
100
AcDbEntity
  8
HIDDEN
 48
0.5
100
AcDbLine
 10
1544.652959733072
 20
1405.938315922034
 30
0.0
 11
1544.421188835397
 21
1405.710004291488
 31
0.0
  0
LINE
  5
3EA3
330
A
100
AcDbEntity
  8
HIDDEN
 48
0.5
100
AcDbLine
 10
1544.421188835397
 20
1405.710004291488
 30
0.0
 11
1543.684364936819
 21
1405.339862708634
 31
0.0
  0
LINE
  5
3EA4
330
A
100
AcDbEntity
  8
HIDDEN
 48
0.5
100
AcDbLine
 10
1543.684364936819
 20
1405.339862708634
 30
0.0
 11
1543.449134772014
 21
1405.23262542762
 31
0.0
  0
LINE
  5
3EA6
330
A
100
AcDbEntity
  8
HIDDEN
 48
0.5
100
AcDbLine
 10
1543.438756970625
 20
1405.223977259797
 30
0.0
 11
1542.480539975761
 21
1405.097714009571
 31
0.0
  0
LINE
  5
3EA7
330
A
100
AcDbEntity
  8
HIDDEN
 48
0.5
100
AcDbLine
 10
1534.406610495562
 20
1425.469338135059
 30
0.0
 11
1544.296655218736
 21
1417.153259955797
 31
0.0
  0
LINE
  5
3EA8
330
A
100
AcDbEntity
  8
HIDDEN
 48
0.5
100
AcDbLine
 10
1544.296655218736
 20
1417.153259955797
 30
0.0
 11
1545.133797864069
 21
1416.07742787853
 31
0.0
  0
LINE
  5
3EA9
330
A
100
AcDbEntity
  8
HIDDEN
 48
0.5
100
AcDbLine
 10
1545.133797864069
 20
1416.07742787853
 30
0.0
 11
1545.375946563132
 21
1414.868414016778
 31
0.0
  0
LINE
  5
3EAA
330
A
100
AcDbEntity
  8
HIDDEN
 48
0.5
100
AcDbLine
 10
1545.500480179794
 20
1408.107276412216
 30
0.0
 11
1545.254872213602
 21
1406.912099618981
 31
0.0
  0
LINE
  5
3EAB
330
A
100
AcDbEntity
  8
HIDDEN
 48
0.5
100
AcDbLine
 10
1545.254872213602
 20
1406.912099618981
 30
0.0
 11
1544.639122664553
 21
1405.938315922034
 31
0.0
  0
LINE
  5
3EB6
330
A
100
AcDbEntity
  8
HIDDEN
 48
0.5
100
AcDbLine
 10
1533.804698015034
 20
1425.94844663249
 30
0.0
 11
1534.406610495562
 21
1425.469338135059
 31
0.0
  0
ARC
  5
3EB7
330
A
100
AcDbEntity
  8
HIDDEN
 48
0.25
100
AcDbCircle
 10
990.8167429578516
 20
1560.050051993429
 30
0.0
 40
3.082102877041365
100
AcDbArc
 50
65.39961272100247
 51
151.6487763054845
  0
ARC
  5
3EB8
330
A
100
AcDbEntity
  8
0
100
AcDbCircle
 10
990.8803781131246
 20
1560.465559650532
 30
0.0
 40
2.680291993432735
100
AcDbArc
 50
17.73227550675144
 51
62.93815866597789
  0
LINE
  5
3EBE
330
A
100
AcDbEntity
  8
0
100
AcDbLine
 10
910.2673589123751
 20
787.9142987375651
 30
0.0
 11
913.6574406992622
 21
814.9138786831297
 31
0.0
  0
LINE
  5
3EBF
330
A
100
AcDbEntity
  8
レイヤー 1
100
AcDbLine
 10
890.8625999495762
 20
722.8385654978508
 30
0.0
 11
717.8880008575743
 21
722.8385654978508
 31
0.0
  0
LINE
  5
3EC0
330
A
100
AcDbEntity
  8
レイヤー 1
100
AcDbLine
 10
717.8880008575743
 20
1563.084173446332
 30
0.0
 11
990.2750187164747
 21
1563.084173446332
 31
0.0
  0
LINE
  5
3EC1
330
A
100
AcDbEntity
  8
HIDDEN
 48
0.5
100
AcDbLine
 10
745.4280912921204
 20
1252.071843636478
 30
0.0
 11
717.826598866026
 21
1252.071843636478
 31
0.0
  0
LINE
  5
3EC2
330
A
100
AcDbEntity
  8
HIDDEN
 48
0.5
100
AcDbLine
 10
717.826598866026
 20
1294.001620512864
 30
0.0
 11
745.4280912921204
 21
1294.001620512864
 31
0.0
  0
LINE
  5
3EC3
330
A
100
AcDbEntity
  8
HIDDEN
 48
0.5
100
AcDbLine
 10
717.826598866026
 20
1307.029220522473
 30
0.0
 11
733.8481945761978
 21
1307.029220522473
 31
0.0
  0
LINE
  5
3EC4
330
A
100
AcDbEntity
  8
HIDDEN
 48
0.5
100
AcDbLine
 10
737.4735065278892
 20
1357.748995174859
 30
0.0
 11
717.826598866026
 21
1357.748995174859
 31
0.0
  0
LINE
  5
3EC5
330
A
100
AcDbEntity
  8
HIDDEN
 48
0.5
100
AcDbLine
 10
717.826598866026
 20
1416.438921293559
 30
0.0
 11
740.0056900666659
 21
1416.438921293559
 31
0.0
  0
LINE
  5
3EC6
330
A
100
AcDbEntity
  8
HIDDEN
 48
0.5
100
AcDbLine
 10
749.1571812576967
 20
1425.467608501494
 30
0.0
 11
717.826598866026
 21
1425.467608501494
 31
0.0
  0
LINE
  5
3EC8
330
A
100
AcDbEntity
  8
HIDDEN
 48
0.5
100
AcDbLine
 10
717.8880008575743
 20
1399.443541886441
 30
0.0
 11
749.8853569884504
 21
1399.443541886441
 31
0.0
  0
LINE
  5
3EC9
330
A
100
AcDbEntity
  8
HIDDEN
 48
0.5
100
AcDbLine
 10
742.9028262876018
 20
1362.813362252413
 30
0.0
 11
717.8880008575743
 21
1362.813362252413
 31
0.0
  0
LINE
  5
3ECA
330
A
100
AcDbEntity
  8
HIDDEN
 48
0.5
100
AcDbLine
 10
739.8794268164402
 20
1405.116739978783
 30
0.0
 11
717.8880008575743
 21
1405.116739978783
 31
0.0
  0
LINE
  5
3ECC
330
A
100
AcDbEntity
  8
HIDDEN
 48
0.5
100
AcDbLine
 10
717.8880008575743
 20
1177.96742318883
 30
0.0
 11
745.4280912921204
 21
1177.96742318883
 31
0.0
  0
LINE
  5
3ECD
330
A
100
AcDbEntity
  8
HIDDEN
 48
0.5
100
AcDbLine
 10
717.8880008575743
 20
1404.86767274546
 30
0.0
 11
740.8341845441755
 21
1404.86767274546
 31
0.0
  0
LINE
  5
3ECE
330
A
100
AcDbEntity
  8
HIDDEN
 48
0.5
100
AcDbLine
 10
717.8880008575743
 20
1350.287355976578
 30
0.0
 11
733.8568427440205
 21
1350.287355976578
 31
0.0
  0
LINE
  5
3ECF
330
A
100
AcDbEntity
  8
HIDDEN
 48
0.5
100
AcDbLine
 10
717.8880008575743
 20
1363.29420038341
 30
0.0
 11
742.8941781197791
 21
1363.29420038341
 31
0.0
  0
LINE
  5
3ED0
330
A
100
AcDbEntity
  8
HIDDEN
 48
0.5
100
AcDbLine
 10
717.8880008575743
 20
1359.675806965978
 30
0.0
 11
738.677331488947
 21
1359.675806965978
 31
0.0
  0
LINE
  5
3ED1
330
A
100
AcDbEntity
  8
HIDDEN
 48
0.5
100
AcDbLine
 10
717.8880008575743
 20
1397.765797328645
 30
0.0
 11
747.8253634128469
 21
1397.765797328645
 31
0.0
  0
LINE
  5
3ED2
330
A
100
AcDbEntity
  8
HIDDEN
 48
0.5
100
AcDbLine
 10
717.8880008575743
 20
1404.86767274546
 30
0.0
 11
745.7792069057614
 21
1404.86767274546
 31
0.0
  0
LINE
  5
3ED3
330
A
100
AcDbEntity
  8
HIDDEN
 48
0.5
100
AcDbLine
 10
749.2799852407934
 20
1402.947779488601
 30
0.0
 11
717.8880008575743
 21
1402.947779488601
 31
0.0
  0
LINE
  5
3ED4
330
A
100
AcDbEntity
  8
HIDDEN
 48
0.5
100
AcDbLine
 10
753.2546831725613
 20
1433.790605215014
 30
0.0
 11
717.8880008575743
 21
1433.790605215014
 31
0.0
  0
LINE
  5
3ED5
330
A
100
AcDbEntity
  8
HIDDEN
 48
0.5
100
AcDbLine
 10
717.8880008575743
 20
1252.552681767475
 30
0.0
 11
745.4194431242959
 21
1252.552681767475
 31
0.0
  0
LINE
  5
3ED6
330
A
100
AcDbEntity
  8
HIDDEN
 48
0.5
100
AcDbLine
 10
717.8880008575743
 20
1431.618185457703
 30
0.0
 11
752.7703857744345
 21
1431.618185457703
 31
0.0
  0
LINE
  5
3ED7
330
A
100
AcDbEntity
  8
HIDDEN
 48
0.5
100
AcDbLine
 10
745.4280912921204
 20
1307.029220522473
 30
0.0
 11
717.8880008575743
 21
1307.029220522473
 31
0.0
  0
LINE
  5
3ED8
330
A
100
AcDbEntity
  8
HIDDEN
 48
0.5
100
AcDbLine
 10
745.4194431242959
 20
1293.520782381867
 30
0.0
 11
717.8880008575743
 21
1293.520782381867
 31
0.0
  0
LINE
  5
3ED9
330
A
100
AcDbEntity
  8
HIDDEN
 48
0.5
100
AcDbLine
 10
717.8880008575743
 20
1397.765797328645
 30
0.0
 11
747.8253634128469
 21
1397.765797328645
 31
0.0
  0
LINE
  5
3EDA
330
A
100
AcDbEntity
  8
HIDDEN
 48
0.5
100
AcDbLine
 10
717.8880008575743
 20
1424.381398622838
 30
0.0
 11
749.3958706896301
 21
1424.381398622838
 31
0.0
  0
LINE
  5
3EDB
330
A
100
AcDbEntity
  8
HIDDEN
 48
0.25
100
AcDbLine
 10
475.266247014255
 20
1513.561305220745
 30
0.0
 11
479.9691206767784
 21
1508.123337293207
 31
0.0
  0
LINE
  5
3EDD
330
A
100
AcDbEntity
  8
HIDDEN
 48
0.25
100
AcDbLine
 10
479.9604725089557
 20
1508.130255827467
 30
0.0
 11
481.5292501521726
 21
1506.45251126967
 31
0.0
  0
LINE
  5
3EDF
330
A
100
AcDbEntity
  8
HIDDEN
 48
0.25
100
AcDbLine
 10
481.5292501521726
 20
1506.445592735411
 30
0.0
 11
485.3811441008456
 21
1502.235664638838
 31
0.0
  0
LINE
  5
3EE1
330
A
100
AcDbEntity
  8
HIDDEN
 48
0.25
100
AcDbLine
 10
485.3811441008456
 20
1502.235664638838
 30
0.0
 11
487.5570231252859
 21
1500.187778498188
 31
0.0
  0
LINE
  5
3EE3
330
A
100
AcDbEntity
  8
HIDDEN
 48
0.25
100
AcDbLine
 10
487.5570231252859
 20
1500.1774006968
 30
0.0
 11
491.1667683748947
 21
1496.559007279368
 31
0.0
  0
LINE
  5
3F3A
330
A
100
AcDbEntity
  8
レイヤー 1
100
AcDbLine
 10
525.5086428027735
 20
787.9142987375651
 30
0.0
 11
529.3726441864001
 21
756.7186277639446
 31
0.0
  0
LINE
  5
3F3B
330
A
100
AcDbEntity
  8
レイヤー 1
100
AcDbLine
 10
529.3657256521401
 20
756.7047906954269
 30
0.0
 11
533.2210788679422
 21
725.8585057018838
 31
0.0
  0
LINE
  5
3F3D
330
A
100
AcDbEntity
  8
レイヤー 1
100
AcDbLine
 10
533.2210788679422
 20
725.8585057018838
 30
0.0
 11
533.3490717517325
 21
725.4987419204183
 31
0.0
  0
LINE
  5
3F3F
330
A
100
AcDbEntity
  8
レイヤー 1
100
AcDbLine
 10
545.759192578731
 20
722.8454840321099
 30
0.0
 11
536.2358301712811
 21
722.8454840321099
 31
0.0
  0
LINE
  5
3F40
330
A
100
AcDbEntity
  8
レイヤー 1
100
AcDbLine
 10
535.2706946421567
 20
723.0841734640437
 30
0.0
 11
536.2358301712811
 21
722.8454840321099
 31
0.0
  0
LINE
  5
3F41
330
A
100
AcDbEntity
  8
HIDDEN
 48
0.5
100
AcDbLine
 10
686.3801310255185
 20
1424.381398622838
 30
0.0
 11
686.3801310255185
 21
1425.349993419091
 31
0.0
  0
LINE
  5
3F42
330
A
100
AcDbEntity
  8
HIDDEN
 48
0.5
100
AcDbLine
 10
686.8661580572116
 20
1424.142709190904
 30
0.0
 11
686.388779193343
 21
1424.374480088579
 31
0.0
  0
LINE
  5
3F43
330
A
100
AcDbEntity
  8
HIDDEN
 48
0.5
100
AcDbLine
 10
686.6188204574537
 20
1425.467608501494
 30
0.0
 11
686.3801310255185
 21
1425.346534151961
 31
0.0
  0
LINE
  5
3F44
330
A
100
AcDbEntity
  8
HIDDEN
 48
0.5
100
AcDbLine
 10
686.8661580572116
 20
1424.142709190904
 30
0.0
 11
691.4410388359429
 21
1423.04612151086
 31
0.0
  0
LINE
  5
3F45
330
A
100
AcDbEntity
  8
HIDDEN
 48
0.5
100
AcDbLine
 10
697.3477374595241
 20
1404.981828560733
 30
0.0
 11
697.3477374595241
 21
1415.235096332502
 31
0.0
  0
LINE
  5
3F46
330
A
100
AcDbEntity
  8
HIDDEN
 48
0.5
100
AcDbLine
 10
691.4410388359429
 20
1423.059958579378
 30
0.0
 11
693.0046275784662
 21
1422.454586831719
 31
0.0
  0
LINE
  5
3F47
330
A
100
AcDbEntity
  8
HIDDEN
 48
0.5
100
AcDbLine
 10
693.0046275784662
 20
1422.454586831719
 30
0.0
 11
694.4506012385882
 21
1421.496369836854
 31
0.0
  0
LINE
  5
3F48
330
A
100
AcDbEntity
  8
HIDDEN
 48
0.5
100
AcDbLine
 10
694.4506012385882
 20
1421.496369836854
 30
0.0
 11
695.7772301827426
 21
1420.178389060524
 31
0.0
  0
LINE
  5
3F49
330
A
100
AcDbEntity
  8
HIDDEN
 48
0.5
100
AcDbLine
 10
695.7772301827426
 20
1420.178389060524
 30
0.0
 11
696.6212913623349
 21
1418.718578331885
 31
0.0
  0
LINE
  5
3F4A
330
A
100
AcDbEntity
  8
HIDDEN
 48
0.5
100
AcDbLine
 10
696.6212913623349
 20
1418.718578331885
 30
0.0
 11
697.2197445757338
 21
1417.040833774088
 31
0.0
  0
LINE
  5
3F4B
330
A
100
AcDbEntity
  8
HIDDEN
 48
0.5
100
AcDbLine
 10
697.2197445757338
 20
1417.040833774088
 30
0.0
 11
697.3477374595241
 21
1415.235096332502
 31
0.0
  0
LINE
  5
3F4C
330
A
100
AcDbEntity
  8
HIDDEN
 48
0.5
100
AcDbLine
 10
683.005615940714
 20
1431.618185457703
 30
0.0
 11
682.4019738266215
 21
1431.849956355378
 31
0.0
  0
LINE
  5
3F4D
330
A
100
AcDbEntity
  8
HIDDEN
 48
0.5
100
AcDbLine
 10
682.4019738266215
 20
1431.849956355378
 30
0.0
 11
682.0439396787206
 21
1432.341172287764
 31
0.0
  0
LINE
  5
3F50
330
A
100
AcDbEntity
  8
HIDDEN
 48
0.5
100
AcDbLine
 10
682.0439396787206
 20
1433.42046363216
 30
0.0
 11
682.5282370768473
 21
1433.790605215014
 31
0.0
  0
LINE
  5
3F51
330
A
100
AcDbEntity
  8
HIDDEN
 48
0.5
100
AcDbLine
 10
710.2438853182139
 20
1425.467608501494
 30
0.0
 11
710.2438853182139
 21
1431.618185457703
 31
0.0
  0
LINE
  5
3F52
330
A
100
AcDbEntity
  8
HIDDEN
 48
0.5
100
AcDbLine
 10
686.496016474357
 20
1402.947779488601
 30
0.0
 11
687.3435369210783
 21
1404.037448634385
 31
0.0
  0
LINE
  5
3F53
330
A
100
AcDbEntity
  8
HIDDEN
 48
0.5
100
AcDbLine
 10
687.3435369210783
 20
1404.037448634385
 30
0.0
 11
688.543902615007
 21
1404.625524046397
 31
0.0
  0
LINE
  5
3F54
330
A
100
AcDbEntity
  8
HIDDEN
 48
0.5
100
AcDbLine
 10
688.543902615007
 20
1404.625524046397
 30
0.0
 11
689.9967948093872
 21
1404.874591279719
 31
0.0
  0
LINE
  5
3F55
330
A
100
AcDbEntity
  8
HIDDEN
 48
0.5
100
AcDbLine
 10
686.496016474357
 20
1402.947779488601
 30
0.0
 11
685.8906447266982
 21
1399.443541886441
 31
0.0
  0
LINE
  5
3F57
330
A
100
AcDbEntity
  8
HIDDEN
 48
0.5
100
AcDbLine
 10
687.9506383023017
 20
1399.322467536909
 30
0.0
 11
687.9506383023017
 21
1399.4504604207
 31
0.0
  0
LINE
  5
3F58
330
A
100
AcDbEntity
  8
HIDDEN
 48
0.5
100
AcDbLine
 10
687.9506383023017
 20
1399.4504604207
 30
0.0
 11
687.9506383023017
 21
1397.765797328645
 31
0.0
  0
LINE
  5
3F59
330
A
100
AcDbEntity
  8
HIDDEN
 48
0.5
100
AcDbLine
 10
687.9506383023017
 20
1399.443541886441
 30
0.0
 11
687.9506383023017
 21
1397.765797328645
 31
0.0
  0
LINE
  5
3F5A
330
A
100
AcDbEntity
  8
HIDDEN
 48
0.5
100
AcDbLine
 10
701.9278071389526
 20
1307.029220522473
 30
0.0
 11
701.9278071389526
 21
1355.815264849482
 31
0.0
  0
LINE
  5
3F5B
330
A
100
AcDbEntity
  8
HIDDEN
 48
0.5
100
AcDbLine
 10
690.3479104230282
 20
1294.001620512864
 30
0.0
 11
690.3479104230282
 21
1307.029220522473
 31
0.0
  0
LINE
  5
3F5C
330
A
100
AcDbEntity
  8
HIDDEN
 48
0.5
100
AcDbLine
 10
690.3479104230282
 20
1177.96742318883
 30
0.0
 11
690.3479104230282
 21
1252.071843636478
 31
0.0
  0
LINE
  5
3F5D
330
A
100
AcDbEntity
  8
HIDDEN
 48
0.5
100
AcDbLine
 10
690.3565585908527
 20
1252.552681767475
 30
0.0
 11
690.3565585908527
 21
1293.520782381867
 31
0.0
  0
LINE
  5
3F5E
330
A
100
AcDbEntity
  8
HIDDEN
 48
0.5
100
AcDbLine
 10
701.9191589711281
 20
1350.287355976578
 30
0.0
 11
692.8731754275468
 21
1350.287355976578
 31
0.0
  0
LINE
  5
3F5F
330
A
100
AcDbEntity
  8
HIDDEN
 48
0.5
100
AcDbLine
 10
692.8731754275468
 20
1350.287355976578
 30
0.0
 11
692.8731754275468
 21
1362.813362252413
 31
0.0
  0
LINE
  5
3F60
330
A
100
AcDbEntity
  8
HIDDEN
 48
0.5
100
AcDbLine
 10
697.0986702262035
 20
1359.675806965978
 30
0.0
 11
698.3024951872612
 21
1357.748995174859
 31
0.0
  0
LINE
  5
3F61
330
A
100
AcDbEntity
  8
HIDDEN
 48
0.5
100
AcDbLine
 10
698.3024951872612
 20
1357.762832243377
 30
0.0
 11
698.3024951872612
 21
1363.29420038341
 31
0.0
  0
LINE
  5
3F62
330
A
100
AcDbEntity
  8
HIDDEN
 48
0.5
100
AcDbLine
 10
697.1055887604616
 20
1359.675806965978
 30
0.0
 11
697.1055887604616
 21
1363.29420038341
 31
0.0
  0
LINE
  5
3F63
330
A
100
AcDbEntity
  8
HIDDEN
 48
0.5
100
AcDbLine
 10
691.9270658676342
 20
1397.765797328645
 30
0.0
 11
692.4044447315027
 21
1397.641263711984
 31
0.0
  0
LINE
  5
3F64
330
A
100
AcDbEntity
  8
HIDDEN
 48
0.5
100
AcDbLine
 10
692.4044447315027
 20
1397.641263711984
 30
0.0
 11
692.7728566807928
 21
1397.267662862
 31
0.0
  0
LINE
  5
3F65
330
A
100
AcDbEntity
  8
HIDDEN
 48
0.5
100
AcDbLine
 10
692.7728566807928
 20
1397.267662862
 30
0.0
 11
692.890471763194
 21
1396.793743265262
 31
0.0
  0
LINE
  5
3F66
330
A
100
AcDbEntity
  8
HIDDEN
 48
0.5
100
AcDbLine
 10
692.890471763194
 20
1396.793743265262
 30
0.0
 11
692.890471763194
 21
1363.29420038341
 31
0.0
  0
LINE
  5
3F67
330
A
100
AcDbEntity
  8
HIDDEN
 48
0.5
100
AcDbLine
 10
701.9191589711281
 20
1273.041920975365
 30
0.0
 11
702.1630373037569
 21
1275.812793946076
 31
0.0
  0
LINE
  5
3F68
330
A
100
AcDbEntity
  8
HIDDEN
 48
0.5
100
AcDbLine
 10
702.1630373037569
 20
1275.812793946076
 30
0.0
 11
702.8877537673816
 21
1278.472970368644
 31
0.0
  0
LINE
  5
3F69
330
A
100
AcDbEntity
  8
HIDDEN
 48
0.5
100
AcDbLine
 10
702.8877537673816
 20
1278.472970368644
 30
0.0
 11
704.0898490948748
 21
1280.987857571773
 31
0.0
  0
LINE
  5
3F6A
330
A
100
AcDbEntity
  8
HIDDEN
 48
0.5
100
AcDbLine
 10
704.0898490948748
 20
1280.987857571773
 30
0.0
 11
705.6568971045272
 21
1283.291729480005
 31
0.0
  0
LINE
  5
3F6B
330
A
100
AcDbEntity
  8
HIDDEN
 48
0.5
100
AcDbLine
 10
709.8737437353593
 20
1286.896285828919
 30
0.0
 11
712.4111161748315
 21
1288.103570057107
 31
0.0
  0
LINE
  5
3F6C
330
A
100
AcDbEntity
  8
HIDDEN
 48
0.5
100
AcDbLine
 10
712.4111161748315
 20
1288.103570057107
 30
0.0
 11
715.169881710588
 21
1288.826556887167
 31
0.0
  0
LINE
  5
3F6D
330
A
100
AcDbEntity
  8
HIDDEN
 48
0.5
100
AcDbLine
 10
715.169881710588
 20
1288.826556887167
 30
0.0
 11
717.9407546813
 21
1289.065246319101
 31
0.0
  0
LINE
  5
3F6E
330
A
100
AcDbEntity
  8
HIDDEN
 48
0.5
100
AcDbLine
 10
717.9494028491226
 20
1257.004758563112
 30
0.0
 11
715.180259511977
 21
1257.246907262175
 31
0.0
  0
LINE
  5
3F6F
330
A
100
AcDbEntity
  8
HIDDEN
 48
0.5
100
AcDbLine
 10
709.8737437353593
 20
1259.173719053294
 30
0.0
 11
707.5819792620823
 21
1260.744226330076
 31
0.0
  0
LINE
  5
3F70
330
A
100
AcDbEntity
  8
HIDDEN
 48
0.5
100
AcDbLine
 10
707.5819792620823
 20
1260.744226330076
 30
0.0
 11
705.6568971045272
 21
1262.799031004985
 31
0.0
  0
LINE
  5
3F71
330
A
100
AcDbEntity
  8
HIDDEN
 48
0.5
100
AcDbLine
 10
705.6568971045272
 20
1262.799031004985
 30
0.0
 11
704.0898490948748
 21
1264.964532228038
 31
0.0
  0
LINE
  5
3F72
330
A
100
AcDbEntity
  8
HIDDEN
 48
0.5
100
AcDbLine
 10
704.0898490948748
 20
1264.964532228038
 30
0.0
 11
702.8877537673816
 21
1267.496715766814
 31
0.0
  0
LINE
  5
3F73
330
A
100
AcDbEntity
  8
HIDDEN
 48
0.5
100
AcDbLine
 10
701.9191589711281
 20
1273.041920975365
 30
0.0
 11
701.9191589711281
 21
1273.162995324897
 31
0.0
  0
LINE
  5
3F95
330
A
100
AcDbEntity
  8
レイヤー 1
100
AcDbLine
 10
536.2358301712811
 20
722.8385654978508
 30
0.0
 11
535.2706946421567
 21
723.0807141969142
 31
0.0
  0
LINE
  5
3F96
330
A
100
AcDbEntity
  8
レイヤー 1
100
AcDbLine
 10
535.2706946421567
 20
723.0807141969142
 30
0.0
 11
534.3038294794678
 21
723.6791674103135
 31
0.0
  0
LINE
  5
3F97
330
A
100
AcDbEntity
  8
レイヤー 1
100
AcDbLine
 10
534.3038294794678
 20
723.6791674103135
 30
0.0
 11
533.5877611836659
 21
724.5266878570353
 31
0.0
  0
LINE
  5
3F98
330
A
100
AcDbEntity
  8
レイヤー 1
100
AcDbLine
 10
533.5877611836659
 20
724.5266878570353
 30
0.0
 11
533.3490717517325
 21
725.4883641190297
 31
0.0
  0
LINE
  5
3F99
330
A
100
AcDbEntity
  8
レイヤー 1
100
AcDbLine
 10
545.759192578731
 20
722.8385654978508
 30
0.0
 11
536.2358301712811
 21
722.8385654978508
 31
0.0
  0
LINE
  5
3FA2
330
A
100
AcDbEntity
  8
レイヤー 1
100
AcDbLine
 10
442.342672109462
 20
1560.313300475621
 30
0.0
 11
442.342672109462
 21
1561.281895271874
 31
0.0
  0
LINE
  5
3FA3
330
A
100
AcDbEntity
  8
レイヤー 1
100
AcDbLine
 10
442.8356176754132
 20
1554.214612526354
 30
0.0
 11
442.342672109462
 21
1560.313300475621
 31
0.0
  0
LINE
  5
3FA4
330
A
100
AcDbEntity
  8
レイヤー 1
100
AcDbLine
 10
443.5534156047779
 20
1547.150789047963
 30
0.0
 11
442.8356176754132
 21
1554.214612526354
 31
0.0
  0
LINE
  5
3FA5
330
A
100
AcDbEntity
  8
レイヤー 1
100
AcDbLine
 10
444.1674355202613
 20
1540.208039919104
 30
0.0
 11
443.5603341390379
 21
1547.150789047963
 31
0.0
  0
LINE
  5
3FA6
330
A
100
AcDbEntity
  8
レイヤー 1
100
AcDbLine
 10
444.7624294665311
 20
1533.48668388653
 30
0.0
 11
444.1674355202613
 21
1540.208039919104
 31
0.0
  0
LINE
  5
3FA7
330
A
100
AcDbEntity
  8
レイヤー 1
100
AcDbLine
 10
445.3764493820126
 20
1526.910617073395
 30
0.0
 11
444.7624294665311
 21
1533.493602420789
 31
0.0
  0
LINE
  5
3FA8
330
A
100
AcDbEntity
  8
レイヤー 1
100
AcDbLine
 10
445.983550763236
 20
1520.562861890806
 30
0.0
 11
445.36780121419
 21
1526.910617073395
 31
0.0
  0
LINE
  5
3FA9
330
A
100
AcDbEntity
  8
レイヤー 1
100
AcDbLine
 10
446.5802743430704
 20
1514.567951955422
 30
0.0
 11
445.9749025954115
 21
1520.555943356547
 31
0.0
  0
LINE
  5
3FAA
330
A
100
AcDbEntity
  8
レイヤー 1
100
AcDbLine
 10
446.5802743430704
 20
1514.211647441087
 30
0.0
 11
446.5802743430704
 21
1514.567951955422
 31
0.0
  0
LINE
  5
3FAB
330
A
100
AcDbEntity
  8
レイヤー 1
100
AcDbLine
 10
446.5871928773304
 20
1513.488660611026
 30
0.0
 11
446.5871928773304
 21
1514.211647441087
 31
0.0
  0
LINE
  5
3FAC
330
A
100
AcDbEntity
  8
レイヤー 1
100
AcDbLine
 10
446.692700524778
 20
1512.409369266629
 30
0.0
 11
446.5802743430704
 21
1513.488660611026
 31
0.0
  0
LINE
  5
3FAD
330
A
100
AcDbEntity
  8
レイヤー 1
100
AcDbLine
 10
446.8120452407456
 20
1511.21592210696
 30
0.0
 11
446.699619059038
 21
1512.409369266629
 31
0.0
  0
LINE
  5
3FBC
330
A
100
AcDbEntity
  8
レイヤー 1
100
AcDbLine
 10
446.8276119428283
 20
1511.212462839831
 30
0.0
 11
452.3797356856376
 21
1451.920624240601
 31
0.0
  0
LINE
  5
3FD3
330
A
100
AcDbEntity
  8
HIDDEN
 48
0.5
100
AcDbLine
 10
682.1148546548739
 20
1427.968658636105
 30
0.0
 11
684.0468553466872
 21
1426.650677859774
 31
0.0
  0
LINE
  5
3FD5
330
A
100
AcDbEntity
  8
HIDDEN
 48
0.5
100
AcDbLine
 10
684.0468553466872
 20
1426.647218592645
 30
0.0
 11
685.4549762931929
 21
1425.467608501494
 31
0.0
  0
LINE
  5
3FEC
330
A
100
AcDbEntity
  8
レイヤー 1
100
AcDbLine
 10
452.3883838534621
 20
1451.920624240601
 30
0.0
 11
456.2471963363932
 21
1411.672051189141
 31
0.0
  0
LINE
  5
3FFD
330
A
100
AcDbEntity
  8
レイヤー 1
100
AcDbLine
 10
456.2541148706514
 20
1411.672051189141
 30
0.0
 11
462.9028262935062
 21
1343.507192402804
 31
0.0
  0
LINE
  5
3FFE
330
A
100
AcDbEntity
  8
レイヤー 1
100
AcDbLine
 10
462.9028262935062
 20
1343.507192402804
 30
0.0
 11
474.0088034126911
 21
1235.111056900654
 31
0.0
  0
LINE
  5
3FFF
330
A
100
AcDbEntity
  8
レイヤー 1
100
AcDbLine
 10
498.4208515454065
 20
1013.631478935914
 30
0.0
 11
474.0088034126911
 21
1235.111056900654
 31
0.0
  0
LINE
  5
4000
330
A
100
AcDbEntity
  8
レイヤー 1
100
AcDbLine
 10
498.4294997132311
 20
1013.631478935914
 30
0.0
 11
510.0215038641072
 21
914.2121416347561
 31
0.0
  0
LINE
  5
4002
330
A
100
AcDbEntity
  8
レイヤー 1
100
AcDbLine
 10
510.0215038641072
 20
914.2121416347561
 30
0.0
 11
522.1185610158864
 21
814.9138786831297
 31
0.0
  0
ARC
  5
4004
330
A
100
AcDbEntity
  8
0
100
AcDbCircle
 10
444.8956236020258
 20
1560.465559650532
 30
0.0
 40
2.680291993432735
100
AcDbArc
 50
117.0618413340537
 51
162.2677244932582
  0
LINE
  5
400A
330
A
100
AcDbEntity
  8
0
100
AcDbLine
 10
525.5086428027735
 20
787.9142987375651
 30
0.0
 11
522.1185610158864
 21
814.9138786831297
 31
0.0
  0
LINE
  5
400B
330
A
100
AcDbEntity
  8
レイヤー 1
100
AcDbLine
 10
544.9134017655724
 20
722.8385654978508
 30
0.0
 11
717.8880008575743
 21
722.8385654978513
 31
0.0
  0
LINE
  5
400C
330
A
100
AcDbEntity
  8
レイヤー 1
100
AcDbLine
 10
717.8880008575743
 20
1563.084173446332
 30
0.0
 11
445.5009829986738
 21
1563.084173446332
 31
0.0
  0
LINE
  5
400D
330
A
100
AcDbEntity
  8
HIDDEN
 48
0.5
100
AcDbLine
 10
690.3479104230282
 20
1252.071843636478
 30
0.0
 11
717.9494028491226
 21
1252.071843636478
 31
0.0
  0
LINE
  5
400E
330
A
100
AcDbEntity
  8
HIDDEN
 48
0.5
100
AcDbLine
 10
717.9494028491226
 20
1294.001620512864
 30
0.0
 11
690.3479104230282
 21
1294.001620512864
 31
0.0
  0
LINE
  5
400F
330
A
100
AcDbEntity
  8
HIDDEN
 48
0.5
100
AcDbLine
 10
717.9494028491226
 20
1307.029220522473
 30
0.0
 11
701.9278071389526
 21
1307.029220522473
 31
0.0
  0
LINE
  5
4010
330
A
100
AcDbEntity
  8
HIDDEN
 48
0.5
100
AcDbLine
 10
698.3024951872612
 20
1357.748995174859
 30
0.0
 11
717.9494028491226
 21
1357.748995174859
 31
0.0
  0
LINE
  5
4011
330
A
100
AcDbEntity
  8
HIDDEN
 48
0.5
100
AcDbLine
 10
717.9494028491226
 20
1416.438921293559
 30
0.0
 11
695.7703116484827
 21
1416.438921293559
 31
0.0
  0
LINE
  5
4012
330
A
100
AcDbEntity
  8
HIDDEN
 48
0.5
100
AcDbLine
 10
685.4549762931929
 20
1425.467608501494
 30
0.0
 11
717.9494028491226
 21
1425.467608501494
 31
0.0
  0
LINE
  5
4014
330
A
100
AcDbEntity
  8
HIDDEN
 48
0.5
100
AcDbLine
 10
717.8880008575743
 20
1399.443541886441
 30
0.0
 11
685.8906447266982
 21
1399.443541886441
 31
0.0
  0
LINE
  5
4015
330
A
100
AcDbEntity
  8
HIDDEN
 48
0.5
100
AcDbLine
 10
692.8731754275468
 20
1362.813362252413
 30
0.0
 11
717.8880008575743
 21
1362.813362252413
 31
0.0
  0
LINE
  5
4016
330
A
100
AcDbEntity
  8
HIDDEN
 48
0.5
100
AcDbLine
 10
695.8965748987102
 20
1405.116739978783
 30
0.0
 11
717.8880008575743
 21
1405.116739978783
 31
0.0
  0
LINE
  5
4018
330
A
100
AcDbEntity
  8
HIDDEN
 48
0.5
100
AcDbLine
 10
717.8880008575743
 20
1177.96742318883
 30
0.0
 11
690.3479104230282
 21
1177.96742318883
 31
0.0
  0
LINE
  5
4019
330
A
100
AcDbEntity
  8
HIDDEN
 48
0.5
100
AcDbLine
 10
717.8880008575743
 20
1404.86767274546
 30
0.0
 11
694.9418171709731
 21
1404.86767274546
 31
0.0
  0
LINE
  5
401A
330
A
100
AcDbEntity
  8
HIDDEN
 48
0.5
100
AcDbLine
 10
717.8880008575743
 20
1350.287355976578
 30
0.0
 11
701.9191589711281
 21
1350.287355976578
 31
0.0
  0
LINE
  5
401B
330
A
100
AcDbEntity
  8
HIDDEN
 48
0.5
100
AcDbLine
 10
717.8880008575743
 20
1363.29420038341
 30
0.0
 11
692.8818235953713
 21
1363.29420038341
 31
0.0
  0
LINE
  5
401C
330
A
100
AcDbEntity
  8
HIDDEN
 48
0.5
100
AcDbLine
 10
717.8880008575743
 20
1359.675806965978
 30
0.0
 11
697.0986702262035
 21
1359.675806965978
 31
0.0
  0
LINE
  5
401D
330
A
100
AcDbEntity
  8
HIDDEN
 48
0.5
100
AcDbLine
 10
717.8880008575743
 20
1397.765797328645
 30
0.0
 11
687.9506383023017
 21
1397.765797328645
 31
0.0
  0
LINE
  5
401E
330
A
100
AcDbEntity
  8
HIDDEN
 48
0.5
100
AcDbLine
 10
717.8880008575743
 20
1404.86767274546
 30
0.0
 11
689.9967948093872
 21
1404.86767274546
 31
0.0
  0
LINE
  5
401F
330
A
100
AcDbEntity
  8
HIDDEN
 48
0.5
100
AcDbLine
 10
686.496016474357
 20
1402.947779488601
 30
0.0
 11
717.8880008575743
 21
1402.947779488601
 31
0.0
  0
LINE
  5
4020
330
A
100
AcDbEntity
  8
HIDDEN
 48
0.5
100
AcDbLine
 10
682.5213185425873
 20
1433.790605215014
 30
0.0
 11
717.8880008575743
 21
1433.790605215014
 31
0.0
  0
LINE
  5
4021
330
A
100
AcDbEntity
  8
HIDDEN
 48
0.5
100
AcDbLine
 10
717.8880008575743
 20
1252.552681767475
 30
0.0
 11
690.3565585908527
 21
1252.552681767475
 31
0.0
  0
LINE
  5
4022
330
A
100
AcDbEntity
  8
HIDDEN
 48
0.5
100
AcDbLine
 10
717.8880008575743
 20
1431.618185457703
 30
0.0
 11
683.005615940714
 21
1431.618185457703
 31
0.0
  0
LINE
  5
4023
330
A
100
AcDbEntity
  8
HIDDEN
 48
0.5
100
AcDbLine
 10
690.3479104230282
 20
1307.029220522473
 30
0.0
 11
717.8880008575743
 21
1307.029220522473
 31
0.0
  0
LINE
  5
4024
330
A
100
AcDbEntity
  8
HIDDEN
 48
0.5
100
AcDbLine
 10
690.3565585908527
 20
1293.520782381867
 30
0.0
 11
717.8880008575743
 21
1293.520782381867
 31
0.0
  0
LINE
  5
4025
330
A
100
AcDbEntity
  8
HIDDEN
 48
0.5
100
AcDbLine
 10
717.8880008575743
 20
1397.765797328645
 30
0.0
 11
687.9506383023017
 21
1397.765797328645
 31
0.0
  0
LINE
  5
4026
330
A
100
AcDbEntity
  8
HIDDEN
 48
0.5
100
AcDbLine
 10
717.8880008575743
 20
1424.381398622838
 30
0.0
 11
686.3801310255185
 21
1424.381398622838
 31
0.0
  0
LINE
  5
404B
330
A
100
AcDbEntity
  8
HIDDEN
 48
0.5
100
AcDbLine
 10
755.9632893349409
 20
1428.677808397649
 30
0.0
 11
753.6646063274039
 21
1427.968658636106
 31
0.0
  0
LINE
  5
404C
330
A
100
AcDbEntity
  8
HIDDEN
 48
0.5
100
AcDbLine
 10
753.6611470602749
 20
1427.968658636106
 30
0.0
 11
751.7291463684617
 21
1426.650677859775
 31
0.0
  0
LINE
  5
404D
330
A
100
AcDbEntity
  8
HIDDEN
 48
0.5
100
AcDbLine
 10
751.7291463684617
 20
1426.647218592646
 30
0.0
 11
750.3210254219559
 21
1425.467608501494
 31
0.0
  0
LINE
  5
404E
330
A
100
AcDbEntity
  8
HIDDEN
 48
0.5
100
AcDbLine
 10
678.4324647955464
 20
1428.92687563097
 30
0.0
 11
757.7888091390085
 21
1428.923261018645
 31
0.0
  0
SPLINE
  5
405B
330
A
100
AcDbEntity
  8
HIDDEN
 48
0.5
100
AcDbSpline
210
0.0
220
0.0
230
1.0
 70
  1064
 71
     3
 72
    33
 73
    29
 74
    27
 42
0.000000001
 43
0.0000000001
 44
0.0
 40
0.0
 40
0.0
 40
0.0
 40
0.0
 40
1.397155794066229
 40
2.47495103403037
 40
3.488788461377136
 40
6.935544367914281
 40
16.20042399938772
 40
61.10735742156673
 40
108.5375644627399
 40
157.3427753397096
 40
239.6334290441604
 40
280.2063543827323
 40
303.1539377569734
 40
322.4214741964474
 40
345.7522206657494
 40
358.0729642230968
 40
376.4358699033543
 40
400.0755384932185
 40
439.9647521654384
 40
480.8467978479144
 40
535.7204750056904
 40
588.7184466801119
 40
628.5707299411444
 40
640.6757900380103
 40
643.9853163347476
 40
645.5447433586278
 40
647.3061488622166
 40
647.9793590803044
 40
647.9793590803044
 40
647.9793590803044
 40
647.9793590803044
 10
444.7644192040428
 20
1563.125990174399
 30
0.0
 10
445.2366600274644
 20
1563.093004234222
 30
0.0
 10
446.0731973121414
 20
1563.034572248974
 30
0.0
 10
447.0815359548025
 20
1562.372487118076
 30
0.0
 10
448.1837926009691
 20
1560.864832419908
 30
0.0
 10
449.2525965653898
 20
1556.327188372375
 30
0.0
 10
457.3718196670982
 20
1538.943639163595
 30
0.0
 10
475.4043443911303
 20
1509.737020012009
 30
0.0
 10
511.5533322302258
 20
1478.67231525843
 30
0.0
 10
564.3483663675564
 20
1450.465864090705
 30
0.0
 10
620.2022862520357
 20
1435.816537870475
 30
0.0
 10
668.4171299760624
 20
1428.854182510135
 30
0.0
 10
696.0485926501323
 20
1428.943513337084
 30
0.0
 10
717.8910362469383
 20
1428.901440795595
 30
0.0
 10
736.1975852565264
 20
1428.999100516229
 30
0.0
 10
754.2060860079512
 20
1428.760471979085
 30
0.0
 10
772.2927922589324
 20
1430.017667350696
 30
0.0
 10
799.3682914176337
 20
1433.552938811683
 30
0.0
 10
833.5349173062709
 20
1440.482529913965
 30
0.0
 10
876.7507319506763
 20
1454.045667938271
 30
0.0
 10
921.6266596007645
 20
1475.965261431679
 30
0.0
 10
959.4604885862141
 20
1508.767252918127
 30
0.0
 10
978.3001726038501
 20
1538.578063127936
 30
0.0
 10
986.1392908892869
 20
1555.324753435267
 30
0.0
 10
987.6386974627911
 20
1560.797181898335
 30
0.0
 10
988.8967362793278
 20
1562.694938609052
 30
0.0
 10
990.2636879689355
 20
1563.186694265483
 30
0.0
 10
991.0720542071954
 20
1563.114652206823
 30
0.0
 10
991.2955804116427
 20
1563.094731424422
 30
0.0
 11
444.7644192040428
 21
1563.125990174399
 31
0.0
 11
446.1425109630459
 21
1562.895974051789
 31
0.0
 11
447.0500365911301
 21
1562.314562137859
 31
0.0
 11
447.6716731224213
 21
1561.51366616955
 31
0.0
 11
448.8584580298698
 21
1558.277670517096
 31
0.0
 11
452.4073248729585
 21
1549.719426613367
 31
0.0
 11
476.673894408591
 21
1511.933632029207
 31
0.0
 11
512.1271056812459
 21
1480.426579637321
 31
0.0
 11
554.9841931962619
 21
1457.076661897086
 31
0.0
 11
634.0680493676153
 21
1434.328137105915
 31
0.0
 11
674.325449896076
 21
1429.277991244612
 31
0.0
 11
697.2703337976975
 21
1428.926017582454
 31
0.0
 11
716.5378702171841
 21
1428.925139962962
 31
0.0
 11
739.8686166622837
 21
1428.924077267795
 31
0.0
 11
752.18936020685
 21
1428.923516068664
 31
0.0
 11
770.517290965432
 21
1430.056326348744
 31
0.0
 11
793.9659332025894
 21
1433.05551095
 31
0.0
 11
833.039883321615
 21
1441.078963416608
 31
0.0
 11
871.9978160236947
 21
1453.473362908487
 31
0.0
 11
920.9205481222381
 21
1478.326667091834
 31
0.0
 11
960.5097547008937
 21
1513.561305220745
 31
0.0
 11
982.1296589962726
 21
1547.039420749792
 31
0.0
 11
986.8782290719766
 21
1558.174211371302
 31
0.0
 11
988.0214062520768
 21
1561.280030143171
 31
0.0
 11
988.9700934787886
 21
1562.517691320021
 31
0.0
 11
990.6230998101728
 21
1563.126065724871
 31
0.0
 11
991.2955804116427
 21
1563.094731424422
 31
0.0
  0
LINE
  5
407A
330
A
100
AcDbEntity
  8
HIDDEN
 48
0.5
100
AcDbLine
 10
1600.98020640234
 20
1425.708892383774
 30
0.0
 11
1534.105654255298
 21
1425.708892383775
 31
0.0
  0
LINE
  5
407B
330
A
100
AcDbEntity
  8
HIDDEN
 48
0.5
100
AcDbLine
 10
1590.785746171771
 20
1417.153259955797
 30
0.0
 11
1589.938225725049
 21
1416.061861176448
 31
0.0
  0
LINE
  5
407C
330
A
100
AcDbEntity
  8
HIDDEN
 48
0.5
100
AcDbLine
 10
1589.696077025987
 20
1414.868414016778
 30
0.0
 11
1589.696077025987
 21
1414.020893570056
 31
0.0
  0
LINE
  5
407D
330
A
100
AcDbEntity
  8
HIDDEN
 48
0.5
100
AcDbLine
 10
1589.696077025987
 20
1414.015704669362
 30
0.0
 11
1589.696077025987
 21
1412.683886824513
 31
0.0
  0
LINE
  5
407E
330
A
100
AcDbEntity
  8
HIDDEN
 48
0.5
100
AcDbLine
 10
1589.696077025987
 20
1412.683886824513
 30
0.0
 11
1589.571543409326
 21
1411.004412633152
 31
0.0
  0
LINE
  5
407F
330
A
100
AcDbEntity
  8
HIDDEN
 48
0.5
100
AcDbLine
 10
1589.571543409326
 20
1411.004412633152
 30
0.0
 11
1589.571543409326
 21
1409.07241194134
 31
0.0
  0
LINE
  5
4080
330
A
100
AcDbEntity
  8
HIDDEN
 48
0.5
100
AcDbLine
 10
1589.571543409326
 20
1409.077600842034
 30
0.0
 11
1589.571543409326
 21
1408.107276412216
 31
0.0
  0
LINE
  5
4081
330
A
100
AcDbEntity
  8
HIDDEN
 48
0.5
100
AcDbLine
 10
1589.571543409326
 20
1408.107276412216
 30
0.0
 11
1589.696077025987
 21
1407.503634298122
 31
0.0
  0
LINE
  5
4082
330
A
100
AcDbEntity
  8
HIDDEN
 48
0.5
100
AcDbLine
 10
1589.696077025987
 20
1407.515741733076
 30
0.0
 11
1589.817151375517
 21
1406.912099618981
 31
0.0
  0
LINE
  5
4083
330
A
100
AcDbEntity
  8
HIDDEN
 48
0.5
100
AcDbLine
 10
1589.817151375517
 20
1406.912099618981
 30
0.0
 11
1590.055840807453
 21
1406.545417303257
 31
0.0
  0
LINE
  5
4084
330
A
100
AcDbEntity
  8
HIDDEN
 48
0.5
100
AcDbLine
 10
1590.062759341711
 20
1406.545417303257
 30
0.0
 11
1590.432900924565
 21
1405.938315922034
 31
0.0
  0
LINE
  5
4085
330
A
100
AcDbEntity
  8
HIDDEN
 48
0.5
100
AcDbLine
 10
1590.419063856047
 20
1405.938315922034
 30
0.0
 11
1590.650834753722
 21
1405.710004291488
 31
0.0
  0
LINE
  5
4086
330
A
100
AcDbEntity
  8
HIDDEN
 48
0.5
100
AcDbLine
 10
1590.650834753722
 20
1405.710004291488
 30
0.0
 11
1591.387658652301
 21
1405.339862708634
 31
0.0
  0
LINE
  5
4087
330
A
100
AcDbEntity
  8
HIDDEN
 48
0.5
100
AcDbLine
 10
1600.665413093557
 20
1425.469338135059
 30
0.0
 11
1590.775368370384
 21
1417.153259955797
 31
0.0
  0
LINE
  5
4088
330
A
100
AcDbEntity
  8
HIDDEN
 48
0.5
100
AcDbLine
 10
1590.775368370384
 20
1417.153259955797
 30
0.0
 11
1589.938225725049
 21
1416.07742787853
 31
0.0
  0
LINE
  5
4089
330
A
100
AcDbEntity
  8
HIDDEN
 48
0.5
100
AcDbLine
 10
1589.938225725049
 20
1416.07742787853
 30
0.0
 11
1589.696077025987
 21
1414.868414016778
 31
0.0
  0
LINE
  5
408A
330
A
100
AcDbEntity
  8
HIDDEN
 48
0.5
100
AcDbLine
 10
1589.571543409326
 20
1408.107276412216
 30
0.0
 11
1589.817151375517
 21
1406.912099618981
 31
0.0
  0
LINE
  5
408B
330
A
100
AcDbEntity
  8
HIDDEN
 48
0.5
100
AcDbLine
 10
1589.817151375517
 20
1406.912099618981
 30
0.0
 11
1590.432900924565
 21
1405.938315922034
 31
0.0
  0
DIMENSION
  5
40AA
330
A
100
AcDbEntity
  8
DIM
100
AcDbDimension
  2
*D4
 10
997.1069477635342
 20
2493.331256495882
 30
0.0
 11
722.1069477635342
 21
2525.335758184016
 31
0.0
 70
    32
 71
     5
 42
550.0
 73
     0
 74
     0
 75
     0
  3
tfrom線あり
100
AcDbAlignedDimension
 13
447.1069477635342
 23
2288.481208097572
 33
0.0
 14
997.1069477635342
 24
2288.481208097571
 34
0.0
100
AcDbRotatedDimension
  0
DIMENSION
  5
40C7
330
A
100
AcDbEntity
  8
DIM
100
AcDbDimension
  2
*D5
 10
1057.602038450626
 20
2030.14199744608
 30
0.0
 11
1025.597536762494
 21
2220.14199744608
 31
0.0
 70
    32
 71
     5
 42
380.0000000000005
 73
     0
 74
     0
 75
     0
 52
-90.0
  3
tfrom線あり
100
AcDbAlignedDimension
 13
900.9941107867867
 23
2410.141997446081
 33
0.0
 14
900.994110786786
 24
2030.14199744608
 34
0.0
 50
89.9999999999999
100
AcDbRotatedDimension
  0
DIMENSION
  5
40D4
330
A
100
AcDbEntity
  8
DIM
100
AcDbDimension
  2
*D6
 10
349.8920779001818
 20
2042.796243696637
 30
0.0
 11
349.8920779001818
 21
2222.796243696637
 31
0.0
 70
   160
 71
     5
 42
359.9999999999998
 73
     0
 74
     0
 75
     0
  3
tfrom線あり
100
AcDbAlignedDimension
 13
562.5702926527473
 23
2402.796243696637
 33
0.0
 14
562.5702926527475
 24
2042.796243696637
 34
0.0
 50
90.0
100
AcDbRotatedDimension
  0
DIMENSION
  5
40E1
330
A
100
AcDbEntity
  8
DIM
100
AcDbDimension
  2
*D7
 10
986.2936437153194
 20
1941.249285364421
 30
0.0
 11
721.2936437153194
 21
1973.253787052555
 31
0.0
 70
    32
 71
     5
 42
530.0
 73
     0
 74
     0
 75
     0
  3
tfrom線あり
100
AcDbAlignedDimension
 13
456.2936437153194
 23
2145.14069557663
 33
0.0
 14
986.2936437153194
 24
2145.14069557663
 34
0.0
100
AcDbRotatedDimension
  0
DIMENSION
  5
40F1
330
A
100
AcDbEntity
  8
DIM
100
AcDbDimension
  2
*D8
 10
1101.032013528142
 20
723.0841734463322
 30
0.0
 11
1069.032013528142
 21
1143.084173446332
 31
0.0
 70
    32
 71
     5
 42
839.9999999999998
 73
     0
 74
     0
 75
     0
  3
tfrom線あり
100
AcDbAlignedDimension
 13
978.172862755516
 23
1563.084173446332
 33
0.0
 14
907.8240854359026
 24
723.0841734463322
 34
0.0
 50
90.0
100
AcDbRotatedDimension
  0
DIMENSION
  5
40FE
330
A
100
AcDbEntity
  8
DIM
100
AcDbDimension
  2
*D9
 10
902.8880008575743
 20
615.2135616045828
 30
0.0
 11
717.8880008575743
 21
647.2180632927158
 31
0.0
 70
    32
 71
     5
 42
370.0
 73
     0
 74
     0
 75
     0
  3
tfrom線あり
100
AcDbAlignedDimension
 13
532.8880008575743
 23
700.2007256454258
 33
0.0
 14
902.8880008575743
 24
700.2007256454259
 34
0.0
100
AcDbRotatedDimension
  0
DIMENSION
  5
410C
330
A
100
AcDbEntity
  8
DIM
100
AcDbDimension
  2
*D10
 10
342.775232864535
 20
1402.84548403211
 30
0.0
 11
310.775232864535
 21
1062.84548403211
 31
0.0
 70
    32
 71
     5
 42
680.0
 73
     0
 74
     0
 75
     0
  3
tfrom線あり
100
AcDbAlignedDimension
 13
545.759192578731
 23
722.8454840321099
 33
0.0
 14
613.5881694612175
 24
1402.84548403211
 34
0.0
 50
90.0
100
AcDbRotatedDimension
  0
DIMENSION
  5
4119
102
{ACAD_REACTORS
330
411B
102
}
102
{ACAD_XDICTIONARY
360
411A
102
}
330
A
100
AcDbEntity
  8
DIM
100
AcDbDimension
  2
*D11
 10
342.775232864535
 20
1562.84548403211
 30
0.0
 11
310.7707311764019
 21
1482.84548403211
 31
0.0
 70
    32
 71
     5
 42
160.0
 73
     0
 74
     0
 75
     0
  3
tfrom線あり
100
AcDbAlignedDimension
 13
613.5881694612175
 23
1402.84548403211
 33
0.0
 14
545.7591925787312
 24
1562.84548403211
 34
0.0
 50
90.0
100
AcDbRotatedDimension
  0
ARC
  5
412C
330
A
100
AcDbEntity
  8
HIDDEN
 48
0.5
100
AcDbCircle
 10
665.09141400175
 20
1410.334748561231
 30
0.0
 40
24.13740803640137
100
AcDbArc
 50
346.3181635034547
 51
50.37706996509466
  0
ARC
  5
4130
330
A
100
AcDbEntity
  8
HIDDEN
 48
0.5
100
AcDbCircle
 10
770.6845877133986
 20
1410.334748561231
 30
0.0
 40
24.13740803640137
100
AcDbArc
 50
129.6229300349051
 51
193.6818364965452
  0
LINE
  5
4145
330
A
100
AcDbEntity
  8
DIM
100
AcDbLine
 10
520.3864093032596
 20
799.3732773739819
 30
0.0
 11
531.0934535918698
 21
799.3732773739819
 31
0.0
  0
LINE
  5
4146
330
A
100
AcDbEntity
  8
DIM
100
AcDbLine
 10
520.3864093032595
 20
786.3176906902378
 30
0.0
 11
531.0934535918697
 21
786.3176906902378
 31
0.0
  0
LINE
  5
4147
330
A
100
AcDbEntity
  8
DIM
100
AcDbLine
 10
915.389592411889
 20
799.3732773739819
 30
0.0
 11
904.6825481232788
 21
799.3732773739819
 31
0.0
  0
LINE
  5
4148
330
A
100
AcDbEntity
  8
DIM
100
AcDbLine
 10
915.3895924118891
 20
786.3176906902378
 30
0.0
 11
904.6825481232789
 21
786.3176906902378
 31
0.0
  0
DIMENSION
  5
414C
330
A
100
AcDbEntity
  8
DIM
100
AcDbDimension
  2
*D13
 10
1834.418280383326
 20
1273.075525278508
 30
0.0
 11
1802.413778695193
 21
1418.075525278508
 31
0.0
 70
    32
 71
     5
 42
290.0
 73
     0
 74
     0
 75
     0
  3
tfrom線あり
100
AcDbAlignedDimension
 13
1745.541447909511
 23
1563.075525278508
 33
0.0
 14
1745.541447909511
 24
1273.075525278508
 34
0.0
 50
90.0
100
AcDbRotatedDimension
  0
DIMENSION
  5
4168
330
A
100
AcDbEntity
  8
DIM
100
AcDbDimension
  2
*D14
 10
718.4333296056889
 20
1668.171383029057
 30
0.0
 11
855.9333296056889
 21
1700.17588471719
 31
0.0
 70
    32
 71
     5
 42
275.0
 73
     0
 74
     0
 75
     0
  3
tfrom線あり
100
AcDbAlignedDimension
 13
993.4333296056889
 23
1561.281895271876
 33
0.0
 14
718.4333296056889
 24
1561.281895271876
 34
0.0
100
AcDbRotatedDimension
  0
MTEXT
  5
4187
330
A
100
AcDbEntity
  8
TEMPLATE
390
1D
100
AcDbMText
 10
1329.20214454799
 20
388.2032061224997
 30
0.0
 40
24.4326171875
 41
0.0
 46
27.29230578166031
 71
     1
 72
     1
  1
{ADF70-2626-006 (マットブラック)}
  7
ＭＳ ゴシック
 73
     1
 44
0.7828267384257843
1001
ACAD
1000
ACAD_MTEXT_DEFINED_HEIGHT_BEGIN
1070
    46
1040
27.29230578166031
1000
ACAD_MTEXT_DEFINED_HEIGHT_END
  0
MTEXT
  5
4188
330
A
100
AcDbEntity
  8
TEMPLATE
390
1D
100
AcDbMText
 10
1329.20214454799
 20
425.4463786939282
 30
0.0
 40
24.4326171875
 41
0.0
 46
27.29230578166031
 71
     1
 72
     1
  1
{ADF70-2626-001 (ホワイト)}
  7
ＭＳ ゴシック
 73
     1
 44
0.7828267384257843
1001
ACAD
1000
ACAD_MTEXT_DEFINED_HEIGHT_BEGIN
1070
    46
1040
27.29230578166031
1000
ACAD_MTEXT_DEFINED_HEIGHT_END
  0
DIMENSION
  5
41A2
330
A
100
AcDbEntity
  8
DIM
100
AcDbDimension
  2
*D16
 10
1567.542930328819
 20
1433.075525278508
 30
0.0
 11
1567.542930328819
 21
1668.115915424813
 31
0.0
 70
   160
 71
     5
 42
130.0
 73
     0
 74
     1
 75
     1
  3
tfrom線あり
100
AcDbAlignedDimension
 13
1567.542930328819
 23
1563.075525278508
 33
0.0
 14
1567.542930328819
 24
1433.075525278508
 34
0.0
 50
90.0
100
AcDbRotatedDimension
1001
ACAD
1000
DSTYLE
1002
{
1070
     3
1000
<>(深さ)
1070
   172
1070
     1
1002
}
  0
MTEXT
  5
41BB
330
A
100
AcDbEntity
  8
TEMPLATE
390
1D
100
AcDbMText
 10
132.2021445477308
 20
224.9062186939282
 30
0.0
 40
24.4326171875
 41
0.0
 46
65.60765859707155
 71
     1
 72
     1
  1
{フロアスタンド/壁排水専用/オーバーフロー無し/床工固定金具付属/\P陶器}
  7
ＭＳ ゴシック
 73
     1
 44
0.8840641112754306
1001
ACAD
1000
ACAD_MTEXT_DEFINED_HEIGHT_BEGIN
1070
    46
1040
65.60765859707155
1000
ACAD_MTEXT_DEFINED_HEIGHT_END
  0
CIRCLE
  5
41F3
330
A
100
AcDbEntity
  8
HIDDEN
 48
0.5
100
AcDbCircle
 10
717.8880008575745
 20
1273.075525278508
 30
0.0
 40
25.0
  0
LINE
  5
41F7
330
A
100
AcDbEntity
  8
DIM
100
AcDbLine
 10
740.7749370955561
 20
1283.134757338589
 30
0.0
 11
998.6223068500308
 21
1319.562482636167
 31
0.0
  0
MTEXT
  5
4213
330
A
100
AcDbEntity
  8
DIM
390
1D
100
AcDbMText
 10
1014.972895566311
 20
1359.855675658589
 30
0.0
 40
24.4326171875
 41
0.0
 46
27.16131310166605
 71
     1
 72
     1
  1
{壁排水パイプ用穴 Ø50}
  7
ＭＳ ゴシック
 73
     1
 44
0.7828267384257843
1001
ACAD
1000
ACAD_MTEXT_DEFINED_HEIGHT_BEGIN
1070
    46
1040
27.16131310166605
1000
ACAD_MTEXT_DEFINED_HEIGHT_END
  0
LINE
  5
4214
330
A
100
AcDbEntity
  8
DIM
100
AcDbLine
 10
998.6223068500308
 20
1319.562482636167
 30
0.0
 11
1336.166983400011
 21
1319.562482636167
 31
0.0
  0
DIMENSION
  5
4220
330
A
100
AcDbEntity
  8
DIM
100
AcDbDimension
  2
*D18
 10
1682.584565082052
 20
569.8043093792547
 30
0.0
 11
1567.584565082052
 21
601.8088110673878
 31
0.0
 70
    32
 71
     5
 42
230.0
 73
     0
 74
     0
 75
     0
  3
tfrom線あり
100
AcDbAlignedDimension
 13
1452.584565082052
 23
724.5266878570353
 33
0.0
 14
1682.584565082052
 24
724.5266878570353
 34
0.0
100
AcDbRotatedDimension
  0
DIMENSION
  5
423C
330
A
100
AcDbEntity
  8
DIM
100
AcDbDimension
  2
*D20
 10
1567.542930328819
 20
649.6663986021011
 30
0.0
 11
1625.063747705436
 21
681.6709002902342
 31
0.0
 70
    32
 71
     5
 42
115.041634753233
 73
     0
 74
     0
 75
     0
 52
-89.99999999999999
  3
tfrom線あり
100
AcDbAlignedDimension
 13
1682.584565082052
 23
694.5266878570353
 33
0.0
 14
1567.542930328819
 24
787.8454840321099
 34
0.0
 50
180.0
100
AcDbRotatedDimension
  0
CIRCLE
  5
424F
330
A
100
AcDbEntity
  8
DIM
100
AcDbCircle
 10
1567.542930328819
 20
792.8454840321099
 30
0.0
 40
5.0
  0
DIMENSION
  5
4268
330
A
100
AcDbEntity
  8
DIM
100
AcDbDimension
  2
*D22
 10
1794.672344590426
 20
792.8454840321099
 30
0.0
 11
1794.672344590426
 21
937.4527117425012
 31
0.0
 70
   160
 71
     5
 42
70.00000000000036
 73
     0
 74
     1
 75
     1
 52
-90.0
  3
tfrom線あり
100
AcDbAlignedDimension
 13
1684.03717287117
 23
722.8454840321095
 33
0.0
 14
1572.542930328819
 24
792.8454840321099
 34
0.0
 50
90.00000000000001
100
AcDbRotatedDimension
1001
ACAD
1000
DSTYLE
1002
{
1070
   172
1070
     1
1070
     3
1000
<>(床固定位置)
1002
}
  0
VIEWPORT
  5
349
330
B
100
AcDbEntity
 67
     1
  8
0
100
AcDbViewport
 10
202.5
 20
128.5
 30
0.0
 40
486.0
 41
308.4
 68
     1
 69
     1
 12
202.5
 22
128.5
 13
0.0
 23
0.0
 14
0.5
 24
0.5
 15
0.0
 25
0.0
 16
0.0
 26
0.0
 36
1.0
 17
0.0
 27
0.0
 37
0.0
 42
50.0
 43
0.0
 44
0.0
 45
308.4
 50
0.0
 51
0.0
 72
   100
 90
   557152
  1

281
     0
 71
     1
 74
     0
110
0.0
120
0.0
130
0.0
111
1.0
121
0.0
131
0.0
112
0.0
122
1.0
132
0.0
 79
     0
146
0.0
170
     0
 61
     5
348
26C
292
     1
282
     1
141
0.0
142
0.0
 63
   256
  0
VIEWPORT
  5
34A
330
B
100
AcDbEntity
 67
     1
  8
0
100
AcDbViewport
 10
202.5
 20
128.5
 30
0.0
 40
324.0
 41
205.6
 68
     2
 69
     2
 12
986.6781359294573
 22
1427.077061889956
 13
0.0
 23
0.0
 14
0.5
 24
0.5
 15
0.0
 25
0.0
 16
0.0
 26
0.0
 36
1.0
 17
0.0
 27
0.0
 37
0.0
 42
50.0
 43
0.0
 44
0.0
 45
2890.021615685494
 50
0.0
 51
0.0
 72
   100
 90
   557152
  1

281
     0
 71
     1
 74
     0
110
0.0
120
0.0
130
0.0
111
1.0
121
0.0
131
0.0
112
0.0
122
1.0
132
0.0
 79
     0
146
0.0
170
     0
 61
     5
348
26C
292
     1
282
     1
141
0.0
142
0.0
 63
   256
  0
ENDSEC
  0
SECTION
  2
OBJECTS
  0
DICTIONARY
  5
19
330
0
100
AcDbDictionary
281
     1
  3
ACAD_COLOR
350
674
  3
ACAD_DETAILVIEWSTYLE
350
BBF
  3
ACAD_FIELDLIST
350
146A
  3
ACAD_GROUP
350
1A
  3
ACAD_IMAGE_VARS
350
27B
  3
ACAD_LAYOUT
350
1E
  3
ACAD_MATERIAL
350
263
  3
ACAD_MLEADERSTYLE
350
336
  3
ACAD_MLINESTYLE
350
1B
  3
ACAD_PLOTSETTINGS
350
22
  3
ACAD_PLOTSTYLENAME
350
1F
  3
ACAD_SCALELIST
350
241
  3
ACAD_SECTIONVIEWSTYLE
350
BC0
  3
ACAD_TABLESTYLE
350
278
  3
ACAD_VISUALSTYLE
350
267
  3
ACDB_RECOMPOSE_DATA
350
429C
  3
AcDbVariableDictionary
350
330
  3
APPDATA
350
27A
  3
DimOffsetDictionary
350
E3E
  0
SUN
  5
904
330
15
100
AcDbSun
 90
        1
290
     0
 63
     7
421
 16777215
 40
1.0
291
     1
 91
  2455826
 92
 54000000
292
     0
 70
     2
 71
   256
280
     1
  0
DICTIONARY
  5
2E1
330
2
100
AcDbDictionary
280
     1
281
     1
  3
ACAD_LAYERSTATES
360
2E2
  3
ACLYDICTIONARY
360
DF9
  0
DICTIONARY
  5
374D
330
A
100
AcDbDictionary
280
     1
281
     1
  3
ACAD_SORTENTS
360
374E
  0
DICTIONARY
  5
1468
330
1466
100
AcDbDictionary
280
     1
281
     1
  3
ACAD_FIELD
360
4293
  0
DICTIONARY
  5
411A
330
4119
100
AcDbDictionary
280
     1
281
     1
  3
ACAD_DIMASSOC
360
411B
  0
DICTIONARY
  5
674
102
{ACAD_REACTORS
330
19
102
}
330
19
100
AcDbDictionary
281
     1
  0
DICTIONARY
  5
BBF
102
{ACAD_REACTORS
330
19
102
}
330
19
100
AcDbDictionary
281
     1
  0
FIELDLIST
  5
146A
102
{ACAD_REACTORS
330
19
102
}
330
19
100
AcDbIdSet
 90
        2
330
146B
330
1467
100
AcDbFieldList
  0
DICTIONARY
  5
1A
102
{ACAD_REACTORS
330
19
102
}
330
19
100
AcDbDictionary
281
     1
  3
*A1
350
36AC
  0
RASTERVARIABLES
  5
27B
102
{ACAD_REACTORS
330
19
102
}
330
19
100
AcDbRasterVariables
 90
        0
 70
     1
 71
     1
 72
     1
  0
DICTIONARY
  5
1E
102
{ACAD_REACTORS
330
19
102
}
330
19
100
AcDbDictionary
281
     1
  3
Layout1
350
21
  3
Model
350
20
  0
DICTIONARY
  5
263
102
{ACAD_REACTORS
330
19
102
}
330
19
100
AcDbDictionary
281
     1
  3
ByBlock
350
265
  3
ByLayer
350
264
  3
Global
350
266
  0
DICTIONARY
  5
336
102
{ACAD_REACTORS
330
19
102
}
330
19
100
AcDbDictionary
281
     1
  3
Standard
350
DAB
  0
DICTIONARY
  5
1B
102
{ACAD_REACTORS
330
19
102
}
330
19
100
AcDbDictionary
281
     1
  3
Standard
350
1C
  0
DICTIONARY
  5
22
102
{ACAD_REACTORS
330
19
102
}
330
19
100
AcDbDictionary
281
     1
  0
ACDBDICTIONARYWDFLT
  5
1F
102
{ACAD_REACTORS
330
19
102
}
330
19
100
AcDbDictionary
281
     1
  3
Normal
350
1D
100
AcDbDictionaryWithDefault
340
1D
  0
DICTIONARY
  5
241
102
{ACAD_REACTORS
330
19
102
}
330
19
100
AcDbDictionary
281
     1
  3
A0
350
242
  3
A1
350
243
  3
A2
350
244
  3
A3
350
245
  3
A4
350
246
  3
A5
350
247
  3
A6
350
248
  3
A7
350
249
  3
A8
350
24A
  3
A9
350
24B
  3
B0
350
24C
  3
B1
350
24D
  3
B2
350
24E
  3
B3
350
24F
  3
B4
350
250
  3
B5
350
251
  3
B6
350
252
  3
B7
350
253
  3
B8
350
254
  3
B9
350
255
  3
C0
350
256
  3
C1
350
257
  3
C2
350
258
  3
C3
350
259
  3
C4
350
25A
  3
C5
350
25B
  3
C6
350
25C
  3
C7
350
25D
  3
C8
350
25E
  3
C9
350
25F
  3
D0
350
260
  3
D1
350
261
  3
D2
350
262
  0
DICTIONARY
  5
BC0
102
{ACAD_REACTORS
330
19
102
}
330
19
100
AcDbDictionary
281
     1
  0
DICTIONARY
  5
278
102
{ACAD_REACTORS
330
19
102
}
330
19
100
AcDbDictionary
281
     1
  3
Standard
350
279
  0
DICTIONARY
  5
267
102
{ACAD_REACTORS
330
19
102
}
330
19
100
AcDbDictionary
281
     1
  3
2dWireframe
350
26C
  3
3D Hidden
350
26E
  3
3dWireframe
350
26D
  3
Basic
350
26F
  3
Brighten
350
273
  3
ColorChange
350
277
  3
Conceptual
350
271
  3
Dim
350
272
  3
EdgeColorOff
350
8FE
  3
Facepattern
350
276
  3
Flat
350
268
  3
FlatWithEdges
350
269
  3
Gouraud
350
26A
  3
GouraudWithEdges
350
26B
  3
Hidden
350
8FB
  3
JitterOff
350
8FC
  3
Linepattern
350
275
  3
OverhangOff
350
8FD
  3
Realistic
350
270
  3
Shaded
350
903
  3
Shaded with edges
350
902
  3
Shades of Gray
350
8FF
  3
Sketchy
350
900
  3
Thicken
350
274
  3
Wireframe
350
8FA
  3
X-Ray
350
901
  0
XRECORD
  5
429C
102
{ACAD_REACTORS
330
19
102
}
330
19
100
AcDbXrecord
280
     1
 90
        1
330
279
  0
DICTIONARY
  5
330
102
{ACAD_REACTORS
330
19
102
}
330
19
100
AcDbDictionary
281
     1
  3
CANNOSCALE
350
331
  3
CMLEADERSTYLE
350
DB1
  3
CTABLESTYLE
350
335
  3
HPTRANSPARENCY
350
D52
  3
XCLIPFRAME
350
896
  0
DICTIONARY
  5
27A
102
{ACAD_REACTORS
330
19
102
}
330
19
100
AcDbDictionary
281
     1
  0
DICTIONARY
  5
E3E
102
{ACAD_REACTORS
330
19
102
}
330
19
100
AcDbDictionary
281
     1
  3
DIMRAILANGLE
350
ECE
  3
DIMRAILFIRSTOFFSET
350
ECC
  3
DIMRAILOFFSET
350
ECD
  3
DIMRAILSENABLED
350
ECF
  0
DICTIONARY
  5
2E2
102
{ACAD_REACTORS
330
2E1
102
}
330
2E1
100
AcDbDictionary
281
     1
  0
DICTIONARY
  5
DF9
102
{ACAD_REACTORS
330
2E1
102
}
330
2E1
100
AcDbDictionary
281
     1
1001
ACAD
1000
<All
  0
SORTENTSTABLE
  5
374E
102
{ACAD_REACTORS
330
374D
102
}
330
374D
100
AcDbSortentsTable
330
A
331
0
  5
35AD
331
369B
  5
35AE
331
369C
  5
369A
331
36A7
  5
369B
331
36A8
  5
369C
331
36A9
  5
36A7
331
36AA
  5
36A8
331
36AB
  5
36A9
  0
DICTIONARY
  5
4293
102
{ACAD_REACTORS
330
1468
102
}
330
1468
100
AcDbDictionary
280
     1
281
     1
  3
TEXT
360
1467
  0
DIMASSOC
  5
411B
102
{ACAD_REACTORS
330
411A
102
}
330
411A
100
AcDbDimAssoc
330
4119
 90
        0
 70
     0
 71
     1
  0
GROUP
  5
36AC
102
{ACAD_REACTORS
330
1A
102
}
330
1A
100
AcDbGroup
300

 70
     1
 71
     1
340
369B
340
369C
340
36A7
340
36A8
340
36A9
340
36AA
340
36AB
  0
LAYOUT
  5
21
102
{ACAD_REACTORS
330
1E
102
}
330
1E
100
AcDbPlotSettings
  1

  2
none_device
  4
ISO_A3_(420.00_x_297.00_MM)
  6

 40
7.5
 41
20.0
 42
7.5
 43
20.0
 44
420.0
 45
297.0
 46
0.0
 47
0.0
 48
0.0
 49
0.0
140
0.0
141
0.0
142
1.0
143
1.0
 70
     0
 72
     1
 73
     0
 74
     0
  7

 75
     0
 76
     0
 77
     2
 78
   300
147
1.0
148
0.0
149
0.0
100
AcDbLayout
  1
Layout1
 70
     0
 71
     0
 10
-7.5
 20
-20.0
 11
412.5
 21
277.0
 12
0.0
 22
0.0
 32
0.0
 14
0.0
 24
0.0
 34
0.0
 15
0.0
 25
0.0
 35
0.0
146
0.0
 13
0.0
 23
0.0
 33
0.0
 16
0.0
 26
0.0
 36
0.0
 17
0.0
 27
0.0
 37
0.0
 76
     0
330
B
331
349
  0
LAYOUT
  5
20
102
{ACAD_REACTORS
330
1E
102
}
330
1E
100
AcDbPlotSettings
  1

  2
none_device
  4
ISO_A3_(420.00_x_297.00_MM)
  6

 40
7.5
 41
20.0
 42
7.5
 43
20.0
 44
420.0
 45
297.0
 46
0.0
 47
0.0
 48
0.0
 49
0.0
140
0.0
141
0.0
142
1.0
143
1.0
 70
  1024
 72
     1
 73
     0
 74
     0
  7

 75
     0
 76
     0
 77
     2
 78
   300
147
1.0
148
0.0
149
0.0
100
AcDbLayout
  1
Model
 70
     0
 71
     1
 10
0.0
 20
0.0
 11
2100.0
 21
2970.0
 12
0.0
 22
0.0
 32
0.0
 14
0.0
 24
0.0
 34
-0.0000000000000142
 15
2100.0
 25
2970.0
 35
0.0000000000000071
146
0.0
 13
0.0
 23
0.0
 33
0.0
 16
0.0
 26
0.0
 36
0.0
 17
0.0
 27
0.0
 37
0.0
 76
     0
330
A
331
15
  0
MATERIAL
  5
265
102
{ACAD_REACTORS
330
263
102
}
330
263
100
AcDbMaterial
  1
ByBlock
 72
     1
 94
      127
  0
MATERIAL
  5
264
102
{ACAD_REACTORS
330
263
102
}
330
263
100
AcDbMaterial
  1
ByLayer
 72
     1
 94
      127
  0
MATERIAL
  5
266
102
{ACAD_REACTORS
330
263
102
}
330
263
100
AcDbMaterial
  1
Global
 72
     1
 94
      127
  0
MLEADERSTYLE
  5
DAB
102
{ACAD_REACTORS
330
336
102
}
330
336
100
AcDbMLeaderStyle
170
     2
171
     1
172
     0
 90
        2
 40
0.0
 41
0.0
173
     1
 91
-1056964608
340
11
 92
       -2
290
     1
 42
2.0
291
     1
 43
8.0
  3
Standard
341
0
 44
4.0
300

342
17
174
     1
178
     6
175
     1
176
     0
 93
-1056964608
 45
4.0
292
     0
297
     0
 46
4.0
343
0
 94
-1056964608
 47
1.0
 49
1.0
140
1.0
293
     1
141
0.0
294
     1
177
     0
142
1.0
295
     0
296
     0
143
3.75
1001
ACAD_MLEADERVER
1070
     2
  0
MLINESTYLE
  5
1C
102
{ACAD_REACTORS
330
1B
102
}
330
1B
100
AcDbMlineStyle
  2
Standard
 70
     0
  3

 62
     0
 51
90.0
 52
90.0
 71
     2
 49
0.5
 62
   256
  6
BYLAYER
 49
-0.5
 62
   256
  6
BYLAYER
  0
ACDBPLACEHOLDER
  5
1D
102
{ACAD_REACTORS
330
1F
102
}
330
1F
  0
SCALE
  5
242
102
{ACAD_REACTORS
330
241
102
}
330
241
100
AcDbScale
 70
     0
300
1:1
140
1.0
141
1.0
290
     1
  0
SCALE
  5
243
102
{ACAD_REACTORS
330
241
102
}
330
241
100
AcDbScale
 70
     0
300
1:2
140
1.0
141
2.0
290
     0
  0
SCALE
  5
244
102
{ACAD_REACTORS
330
241
102
}
330
241
100
AcDbScale
 70
     0
300
1:4
140
1.0
141
4.0
290
     0
  0
SCALE
  5
245
102
{ACAD_REACTORS
330
241
102
}
330
241
100
AcDbScale
 70
     0
300
1:5
140
1.0
141
5.0
290
     0
  0
SCALE
  5
246
102
{ACAD_REACTORS
330
241
102
}
330
241
100
AcDbScale
 70
     0
300
1:8
140
1.0
141
8.0
290
     0
  0
SCALE
  5
247
102
{ACAD_REACTORS
330
241
102
}
330
241
100
AcDbScale
 70
     0
300
1:10
140
1.0
141
10.0
290
     0
  0
SCALE
  5
248
102
{ACAD_REACTORS
330
241
102
}
330
241
100
AcDbScale
 70
     0
300
1:16
140
1.0
141
16.0
290
     0
  0
SCALE
  5
249
102
{ACAD_REACTORS
330
241
102
}
330
241
100
AcDbScale
 70
     0
300
1:20
140
1.0
141
20.0
290
     0
  0
SCALE
  5
24A
102
{ACAD_REACTORS
330
241
102
}
330
241
100
AcDbScale
 70
     0
300
1:30
140
1.0
141
30.0
290
     0
  0
SCALE
  5
24B
102
{ACAD_REACTORS
330
241
102
}
330
241
100
AcDbScale
 70
     0
300
1:40
140
1.0
141
40.0
290
     0
  0
SCALE
  5
24C
102
{ACAD_REACTORS
330
241
102
}
330
241
100
AcDbScale
 70
     0
300
1:50
140
1.0
141
50.0
290
     0
  0
SCALE
  5
24D
102
{ACAD_REACTORS
330
241
102
}
330
241
100
AcDbScale
 70
     0
300
1:100
140
1.0
141
100.0
290
     0
  0
SCALE
  5
24E
102
{ACAD_REACTORS
330
241
102
}
330
241
100
AcDbScale
 70
     0
300
2:1
140
2.0
141
1.0
290
     0
  0
SCALE
  5
24F
102
{ACAD_REACTORS
330
241
102
}
330
241
100
AcDbScale
 70
     0
300
4:1
140
4.0
141
1.0
290
     0
  0
SCALE
  5
250
102
{ACAD_REACTORS
330
241
102
}
330
241
100
AcDbScale
 70
     0
300
8:1
140
8.0
141
1.0
290
     0
  0
SCALE
  5
251
102
{ACAD_REACTORS
330
241
102
}
330
241
100
AcDbScale
 70
     0
300
10:1
140
10.0
141
1.0
290
     0
  0
SCALE
  5
252
102
{ACAD_REACTORS
330
241
102
}
330
241
100
AcDbScale
 70
     0
300
100:1
140
100.0
141
1.0
290
     0
  0
SCALE
  5
253
102
{ACAD_REACTORS
330
241
102
}
330
241
100
AcDbScale
 70
     0
300
1/128" = 1'-0"
140
0.0078125
141
12.0
290
     0
  0
SCALE
  5
254
102
{ACAD_REACTORS
330
241
102
}
330
241
100
AcDbScale
 70
     0
300
1/64" = 1'-0"
140
0.015625
141
12.0
290
     0
  0
SCALE
  5
255
102
{ACAD_REACTORS
330
241
102
}
330
241
100
AcDbScale
 70
     0
300
1/32" = 1'-0"
140
0.03125
141
12.0
290
     0
  0
SCALE
  5
256
102
{ACAD_REACTORS
330
241
102
}
330
241
100
AcDbScale
 70
     0
300
1/16" = 1'-0"
140
0.0625
141
12.0
290
     0
  0
SCALE
  5
257
102
{ACAD_REACTORS
330
241
102
}
330
241
100
AcDbScale
 70
     0
300
3/32" = 1'-0"
140
0.09375
141
12.0
290
     0
  0
SCALE
  5
258
102
{ACAD_REACTORS
330
241
102
}
330
241
100
AcDbScale
 70
     0
300
1/8" = 1'-0"
140
0.125
141
12.0
290
     0
  0
SCALE
  5
259
102
{ACAD_REACTORS
330
241
102
}
330
241
100
AcDbScale
 70
     0
300
3/16" = 1'-0"
140
0.1875
141
12.0
290
     0
  0
SCALE
  5
25A
102
{ACAD_REACTORS
330
241
102
}
330
241
100
AcDbScale
 70
     0
300
1/4" = 1'-0"
140
0.25
141
12.0
290
     0
  0
SCALE
  5
25B
102
{ACAD_REACTORS
330
241
102
}
330
241
100
AcDbScale
 70
     0
300
3/8" = 1'-0"
140
0.375
141
12.0
290
     0
  0
SCALE
  5
25C
102
{ACAD_REACTORS
330
241
102
}
330
241
100
AcDbScale
 70
     0
300
1/2" = 1'-0"
140
0.5
141
12.0
290
     0
  0
SCALE
  5
25D
102
{ACAD_REACTORS
330
241
102
}
330
241
100
AcDbScale
 70
     0
300
3/4" = 1'-0"
140
0.75
141
12.0
290
     0
  0
SCALE
  5
25E
102
{ACAD_REACTORS
330
241
102
}
330
241
100
AcDbScale
 70
     0
300
1" = 1'-0"
140
1.0
141
12.0
290
     0
  0
SCALE
  5
25F
102
{ACAD_REACTORS
330
241
102
}
330
241
100
AcDbScale
 70
     0
300
1-1/2" = 1'-0"
140
1.5
141
12.0
290
     0
  0
SCALE
  5
260
102
{ACAD_REACTORS
330
241
102
}
330
241
100
AcDbScale
 70
     0
300
3" = 1'-0"
140
3.0
141
12.0
290
     0
  0
SCALE
  5
261
102
{ACAD_REACTORS
330
241
102
}
330
241
100
AcDbScale
 70
     0
300
6" = 1'-0"
140
6.0
141
12.0
290
     0
  0
SCALE
  5
262
102
{ACAD_REACTORS
330
241
102
}
330
241
100
AcDbScale
 70
     0
300
1'-0" = 1'-0"
140
12.0
141
12.0
290
     0
  0
TABLESTYLE
  5
279
102
{ACAD_REACTORS
330
278
102
}
102
{ACAD_XDICTIONARY
360
429A
102
}
330
278
100
AcDbTableStyle
  3
Standard
 70
     0
 71
     0
 40
0.06
 41
0.06
280
     0
281
     0
  7
Standard
140
4.5
170
     2
 62
     0
 63
   257
283
     0
 90
        4
 91
        0
  1

274
    -2
284
     1
 64
     0
275
    -2
285
     1
 65
     0
276
    -2
286
     1
 66
     0
277
    -2
287
     1
 67
     0
278
    -2
288
     1
 68
     0
279
    -2
289
     1
 69
     0
  7
Standard
140
6.0
170
     5
 62
     0
 63
   257
283
     0
 90
        4
 91
        0
  1

274
    -2
284
     1
 64
     0
275
    -2
285
     1
 65
     0
276
    -2
286
     1
 66
     0
277
    -2
287
     1
 67
     0
278
    -2
288
     1
 68
     0
279
    -2
289
     1
 69
     0
  7
Standard
140
4.5
170
     5
 62
     0
 63
   257
283
     0
 90
        4
 91
        0
  1

274
    -2
284
     1
 64
     0
275
    -2
285
     1
 65
     0
276
    -2
286
     1
 66
     0
277
    -2
287
     1
 67
     0
278
    -2
288
     1
 68
     0
279
    -2
289
     1
 69
     0
  0
VISUALSTYLE
  5
26C
102
{ACAD_REACTORS
330
267
102
}
330
267
100
AcDbVisualStyle
  2
2dWireframe
 70
     4
 71
     0
 72
     2
 73
     0
 90
        0
 40
-0.6
 41
-30.0
 62
     5
 63
     7
421
 16777215
 74
     1
 91
        4
 64
     7
 65
   257
 75
     1
175
     1
 42
1.0
 92
        0
 66
   257
 43
1.0
 76
     1
 77
     6
 78
     2
 67
     7
 79
     5
170
     0
171
     0
290
     0
174
     0
 93
        1
 44
0.0
173
     0
291
     0
 45
0.0
  0
VISUALSTYLE
  5
26E
102
{ACAD_REACTORS
330
267
102
}
330
267
100
AcDbVisualStyle
  2
3D Hidden
 70
     6
 71
     1
 72
     2
 73
     2
 90
        0
 40
-0.6
 41
-30.0
 62
     5
 63
     7
421
 16777215
 74
     2
 91
        2
 64
     7
 65
   257
 75
     2
175
     1
 42
40.0
 92
        0
 66
   257
 43
1.0
 76
     1
 77
     6
 78
     2
 67
     7
 79
     3
170
     0
171
     0
290
     0
174
     0
 93
        1
 44
0.0
173
     0
291
     0
 45
0.0
  0
VISUALSTYLE
  5
26D
102
{ACAD_REACTORS
330
267
102
}
330
267
100
AcDbVisualStyle
  2
3dWireframe
 70
     5
 71
     0
 72
     2
 73
     0
 90
        0
 40
-0.6
 41
-30.0
 62
     5
 63
     7
421
 16777215
 74
     1
 91
        4
 64
     7
 65
   257
 75
     1
175
     1
 42
1.0
 92
        0
 66
   257
 43
1.0
 76
     1
 77
     6
 78
     2
 67
     7
 79
     5
170
     0
171
     0
290
     0
174
     0
 93
        1
 44
0.0
173
     0
291
     0
 45
0.0
  0
VISUALSTYLE
  5
26F
102
{ACAD_REACTORS
330
267
102
}
330
267
100
AcDbVisualStyle
  2
Basic
 70
     7
 71
     1
 72
     0
 73
     1
 90
        0
 40
-0.6
 41
-30.0
 62
     5
 63
     7
421
 16777215
 74
     0
 91
        4
 64
     7
 65
   257
 75
     1
175
     1
 42
1.0
 92
        8
 66
     7
 43
1.0
 76
     1
 77
     6
 78
     2
 67
     7
 79
     5
170
     0
171
     0
290
     0
174
     0
 93
        1
 44
0.0
173
     0
291
     1
 45
0.0
  0
VISUALSTYLE
  5
273
102
{ACAD_REACTORS
330
267
102
}
330
267
100
AcDbVisualStyle
  2
Brighten
 70
    12
 71
     2
 72
     2
 73
     0
 90
        0
 40
-0.6
 41
-30.0
 62
     5
 63
     7
421
 16777215
 74
     1
 91
        4
 64
     7
 65
   257
 75
     1
175
     1
 42
1.0
 92
        8
 66
     7
 43
1.0
 76
     1
 77
     6
 78
     2
 67
     7
 79
     5
170
     0
171
     0
290
     0
174
     0
 93
        1
 44
50.0
173
     0
291
     1
 45
0.0
  0
VISUALSTYLE
  5
277
102
{ACAD_REACTORS
330
267
102
}
330
267
100
AcDbVisualStyle
  2
ColorChange
 70
    16
 71
     2
 72
     2
 73
     3
 90
        0
 40
-0.6
 41
-30.0
 62
     5
 63
     8
421
  8421504
 74
     1
 91
        4
 64
     7
 65
   257
 75
     1
175
     1
 42
1.0
 92
        8
 66
     8
424
  8421504
 43
1.0
 76
     1
 77
     6
 78
     2
 67
     7
 79
     5
170
     0
171
     0
290
     0
174
     0
 93
        1
 44
0.0
173
     0
291
     1
 45
0.0
  0
VISUALSTYLE
  5
271
102
{ACAD_REACTORS
330
267
102
}
330
267
100
AcDbVisualStyle
  2
Conceptual
 70
     9
 71
     3
 72
     2
 73
     0
 90
        0
 40
-0.6
 41
-30.0
 62
     5
 63
     7
421
 16777215
 74
     2
 91
        2
 64
     7
 65
   257
 75
     1
175
     1
 42
40.0
 92
        8
 66
     7
 43
1.0
 76
     1
 77
     6
 78
     2
 67
     7
 79
     3
170
     0
171
     0
290
     0
174
     0
 93
        1
 44
0.0
173
     0
291
     0
 45
0.0
  0
VISUALSTYLE
  5
272
102
{ACAD_REACTORS
330
267
102
}
330
267
100
AcDbVisualStyle
  2
Dim
 70
    11
 71
     2
 72
     2
 73
     0
 90
        0
 40
-0.6
 41
-30.0
 62
     5
 63
     7
421
 16777215
 74
     1
 91
        4
 64
     7
 65
   257
 75
     1
175
     1
 42
1.0
 92
        8
 66
     7
 43
1.0
 76
     1
 77
     6
 78
     2
 67
     7
 79
     5
170
     0
171
     0
290
     0
174
     0
 93
        1
 44
-50.0
173
     0
291
     1
 45
0.0
  0
VISUALSTYLE
  5
8FE
102
{ACAD_REACTORS
330
267
102
}
330
267
100
AcDbVisualStyle
  2
EdgeColorOff
 70
    22
 71
     2
 72
     2
 73
     0
 90
        0
 40
0.6
 41
30.0
 62
     5
 63
     7
421
 16777215
 74
     1
 91
        4
 64
     7
 65
   257
 75
     1
175
     1
 42
1.0
 92
        8
 66
     7
 43
1.0
 76
     1
 77
     6
 78
     2
 67
     7
 79
     5
170
     0
171
     0
290
     0
174
     0
 93
        1
 44
0.0
173
     0
291
     1
 45
0.0
  0
VISUALSTYLE
  5
276
102
{ACAD_REACTORS
330
267
102
}
330
267
100
AcDbVisualStyle
  2
Facepattern
 70
    15
 71
     2
 72
     2
 73
     0
 90
        0
 40
-0.6
 41
-30.0
 62
     5
 63
     7
421
 16777215
 74
     1
 91
        4
 64
     7
 65
   257
 75
     1
175
     1
 42
1.0
 92
        8
 66
     7
 43
1.0
 76
     1
 77
     6
 78
     2
 67
     7
 79
     5
170
     0
171
     0
290
     0
174
     0
 93
        1
 44
0.0
173
     0
291
     1
 45
0.0
  0
VISUALSTYLE
  5
268
102
{ACAD_REACTORS
330
267
102
}
330
267
100
AcDbVisualStyle
  2
Flat
 70
     0
 71
     2
 72
     1
 73
     1
 90
        2
 40
-0.6
 41
30.0
 62
     5
 63
     7
421
 16777215
 74
     0
 91
        4
 64
     7
 65
   257
 75
     1
175
     1
 42
1.0
 92
        8
 66
     7
 43
1.0
 76
     1
 77
     6
 78
     2
 67
     7
 79
     5
170
     0
171
     0
290
     0
174
     0
 93
       13
 44
0.0
173
     0
291
     1
 45
0.0
  0
VISUALSTYLE
  5
269
102
{ACAD_REACTORS
330
267
102
}
330
267
100
AcDbVisualStyle
  2
FlatWithEdges
 70
     1
 71
     2
 72
     1
 73
     1
 90
        2
 40
-0.6
 41
30.0
 62
     5
 63
     7
421
 16777215
 74
     1
 91
        4
 64
     7
 65
   257
 75
     1
175
     1
 42
1.0
 92
        0
 66
   257
 43
1.0
 76
     1
 77
     6
 78
     2
 67
     7
 79
     5
170
     0
171
     0
290
     0
174
     0
 93
       13
 44
0.0
173
     0
291
     1
 45
0.0
  0
VISUALSTYLE
  5
26A
102
{ACAD_REACTORS
330
267
102
}
330
267
100
AcDbVisualStyle
  2
Gouraud
 70
     2
 71
     2
 72
     2
 73
     1
 90
        2
 40
-0.6
 41
30.0
 62
     5
 63
     7
421
 16777215
 74
     0
 91
        4
 64
     7
 65
   257
 75
     1
175
     1
 42
1.0
 92
        0
 66
     7
 43
1.0
 76
     1
 77
     6
 78
     2
 67
     7
 79
     5
170
     0
171
     0
290
     0
174
     0
 93
       13
 44
0.0
173
     0
291
     1
 45
0.0
  0
VISUALSTYLE
  5
26B
102
{ACAD_REACTORS
330
267
102
}
330
267
100
AcDbVisualStyle
  2
GouraudWithEdges
 70
     3
 71
     2
 72
     2
 73
     1
 90
        2
 40
-0.6
 41
30.0
 62
     5
 63
     7
421
 16777215
 74
     1
 91
        4
 64
     7
 65
   257
 75
     1
175
     1
 42
1.0
 92
        0
 66
   257
 43
1.0
 76
     1
 77
     6
 78
     2
 67
     7
 79
     5
170
     0
171
     0
290
     0
174
     0
 93
       13
 44
0.0
173
     0
291
     1
 45
0.0
  0
VISUALSTYLE
  5
8FB
102
{ACAD_REACTORS
330
267
102
}
330
267
100
AcDbVisualStyle
  2
Hidden
 70
     6
 71
     1
 72
     2
 73
     2
 90
        0
 40
0.6
 41
30.0
 62
     5
 63
     7
421
 16777215
 74
     2
 91
        2
 64
     7
 65
   257
 75
     2
175
     1
 42
40.0
 92
        0
 66
   257
 43
1.0
 76
     1
 77
     6
 78
     2
 67
     7
 79
     3
170
     0
171
     0
290
     0
174
     0
 93
        1
 44
0.0
173
     0
291
     0
 45
0.0
  0
VISUALSTYLE
  5
8FC
102
{ACAD_REACTORS
330
267
102
}
330
267
100
AcDbVisualStyle
  2
JitterOff
 70
    20
 71
     2
 72
     2
 73
     0
 90
        0
 40
0.6
 41
30.0
 62
     5
 63
     7
421
 16777215
 74
     1
 91
        4
 64
     7
 65
   257
 75
     1
175
     1
 42
1.0
 92
       10
 66
     7
 43
1.0
 76
     1
 77
     6
 78
     2
 67
     7
 79
     5
170
     0
171
     0
290
     0
174
     0
 93
        1
 44
0.0
173
     0
291
     1
 45
0.0
  0
VISUALSTYLE
  5
275
102
{ACAD_REACTORS
330
267
102
}
330
267
100
AcDbVisualStyle
  2
Linepattern
 70
    14
 71
     2
 72
     2
 73
     0
 90
        0
 40
-0.6
 41
-30.0
 62
     5
 63
     7
421
 16777215
 74
     1
 91
        4
 64
     7
 65
   257
 75
     7
175
     7
 42
1.0
 92
        8
 66
     7
 43
1.0
 76
     1
 77
     6
 78
     2
 67
     7
 79
     5
170
     0
171
     0
290
     0
174
     0
 93
        1
 44
0.0
173
     0
291
     1
 45
0.0
  0
VISUALSTYLE
  5
8FD
102
{ACAD_REACTORS
330
267
102
}
330
267
100
AcDbVisualStyle
  2
OverhangOff
 70
    21
 71
     2
 72
     2
 73
     0
 90
        0
 40
0.6
 41
30.0
 62
     5
 63
     7
421
 16777215
 74
     1
 91
        4
 64
     7
 65
   257
 75
     1
175
     1
 42
1.0
 92
        9
 66
     7
 43
1.0
 76
     1
 77
     6
 78
     2
 67
     7
 79
     5
170
     0
171
     0
290
     0
174
     0
 93
        1
 44
0.0
173
     0
291
     1
 45
0.0
  0
VISUALSTYLE
  5
270
102
{ACAD_REACTORS
330
267
102
}
330
267
100
AcDbVisualStyle
  2
Realistic
 70
     8
 71
     2
 72
     2
 73
     0
 90
        0
 40
-0.6
 41
-30.0
 62
     5
 63
     7
421
 16777215
 74
     1
 91
        0
 64
     7
 65
   257
 75
     1
175
     1
 42
1.0
 92
        8
 66
     8
424
  7895160
 43
1.0
 76
     1
 77
     6
 78
     2
 67
     7
 79
     5
170
     0
171
     0
290
     0
174
     0
 93
       13
 44
0.0
173
     0
291
     0
 45
0.0
  0
VISUALSTYLE
  5
903
102
{ACAD_REACTORS
330
267
102
}
330
267
100
AcDbVisualStyle
  2
Shaded
 70
    27
 71
     2
 72
     2
 73
     1
 90
        2
 40
0.6
 41
30.0
 62
     5
 63
     7
421
 16777215
 74
     0
 91
        4
 64
     7
 65
   257
 75
     1
175
     1
 42
1.0
 92
        8
 66
   257
 43
1.0
 76
     1
 77
     6
 78
     2
 67
     8
425
  7895160
 79
     3
170
     0
171
     0
290
     0
174
     0
 93
        5
 44
0.0
173
     0
291
     0
 45
0.0
  0
VISUALSTYLE
  5
902
102
{ACAD_REACTORS
330
267
102
}
330
267
100
AcDbVisualStyle
  2
Shaded with edges
 70
    26
 71
     2
 72
     2
 73
     1
 90
        2
 40
0.6
 41
30.0
 62
     5
 63
     7
421
 16777215
 74
     1
 91
       10
 64
     7
 65
   257
 75
     2
175
     1
 42
1.0
 92
        8
 66
   257
 43
1.0
 76
     1
 77
     6
 78
     2
 67
     7
 79
     3
170
     0
171
     0
290
     0
174
     0
 93
        5
 44
0.0
173
     0
291
     0
 45
0.0
  0
VISUALSTYLE
  5
8FF
102
{ACAD_REACTORS
330
267
102
}
330
267
100
AcDbVisualStyle
  2
Shades of Gray
 70
    23
 71
     2
 72
     2
 73
     3
 90
        0
 40
0.6
 41
30.0
 62
     5
 63
     7
421
 16777215
 74
     2
 91
        2
 64
     7
 65
     7
 75
     1
175
     1
 42
40.0
 92
        8
 66
     7
 43
1.0
 76
     1
 77
     6
 78
     2
 67
     7
 79
     3
170
     0
171
     0
290
     0
174
     0
 93
        1
 44
0.0
173
     0
291
     0
 45
0.0
  0
VISUALSTYLE
  5
900
102
{ACAD_REACTORS
330
267
102
}
330
267
100
AcDbVisualStyle
  2
Sketchy
 70
    24
 71
     1
 72
     2
 73
     2
 90
        0
 40
0.6
 41
30.0
 62
     5
 63
     7
421
 16777215
 74
     2
 91
        2
 64
     7
 65
     7
 75
     1
175
     1
 42
40.0
 92
       11
 66
     7
 43
1.0
 76
     1
 77
     6
 78
     2
 67
     7
 79
     6
170
     0
171
     0
290
     0
174
     0
 93
        1
 44
0.0
173
     0
291
     0
 45
0.0
  0
VISUALSTYLE
  5
274
102
{ACAD_REACTORS
330
267
102
}
330
267
100
AcDbVisualStyle
  2
Thicken
 70
    13
 71
     2
 72
     2
 73
     0
 90
        0
 40
-0.6
 41
-30.0
 62
     5
 63
     7
421
 16777215
 74
     1
 91
        4
 64
     7
 65
   257
 75
     1
175
     1
 42
1.0
 92
       12
 66
     7
 43
1.0
 76
     1
 77
     6
 78
     2
 67
     7
 79
     5
170
     0
171
     0
290
     0
174
     0
 93
        1
 44
0.0
173
     0
291
     1
 45
0.0
  0
VISUALSTYLE
  5
8FA
102
{ACAD_REACTORS
330
267
102
}
330
267
100
AcDbVisualStyle
  2
Wireframe
 70
     5
 71
     0
 72
     2
 73
     0
 90
        0
 40
0.6
 41
30.0
 62
     5
 63
     7
421
 16777215
 74
     1
 91
        4
 64
     7
 65
   257
 75
     1
175
     1
 42
1.0
 92
        0
 66
   257
 43
1.0
 76
     1
 77
     6
 78
     2
 67
     7
 79
     3
170
     0
171
     0
290
     0
174
     0
 93
        1
 44
0.0
173
     0
291
     0
 45
0.0
  0
VISUALSTYLE
  5
901
102
{ACAD_REACTORS
330
267
102
}
330
267
100
AcDbVisualStyle
  2
X-Ray
 70
    25
 71
     2
 72
     2
 73
     1
 90
        1
 40
0.5
 41
30.0
 62
     5
 63
     7
421
 16777215
 74
     1
 91
        0
 64
     7
 65
   257
 75
     1
175
     1
 42
1.0
 92
        8
 66
     7
 43
1.0
 76
     1
 77
     6
 78
     2
 67
     7
 79
     3
170
     0
171
     0
290
     0
174
     0
 93
       13
 44
0.0
173
     0
291
     0
 45
0.0
  0
DICTIONARYVAR
  5
331
102
{ACAD_REACTORS
330
330
102
}
330
330
100
DictionaryVariables
280
     0
  1
1:1
  0
DICTIONARYVAR
  5
DB1
102
{ACAD_REACTORS
330
330
102
}
330
330
100
DictionaryVariables
280
     0
  1
Standard
  0
DICTIONARYVAR
  5
335
102
{ACAD_REACTORS
330
330
102
}
330
330
100
DictionaryVariables
280
     0
  1
Standard
  0
DICTIONARYVAR
  5
D52
102
{ACAD_REACTORS
330
330
102
}
330
330
100
DictionaryVariables
280
     0
  1
ByLayer
  0
DICTIONARYVAR
  5
896
102
{ACAD_REACTORS
330
330
102
}
330
330
100
DictionaryVariables
280
     0
  1
0
  0
DICTIONARYVAR
  5
ECE
102
{ACAD_REACTORS
330
E3E
102
}
330
E3E
100
DictionaryVariables
280
     0
  1
0.261799
  0
DICTIONARYVAR
  5
ECC
102
{ACAD_REACTORS
330
E3E
102
}
330
E3E
100
DictionaryVariables
280
     0
  1
0.400000
  0
DICTIONARYVAR
  5
ECD
102
{ACAD_REACTORS
330
E3E
102
}
330
E3E
100
DictionaryVariables
280
     0
  1
0.250000
  0
DICTIONARYVAR
  5
ECF
102
{ACAD_REACTORS
330
E3E
102
}
330
E3E
100
DictionaryVariables
280
     0
  1
1
  0
FIELD
  5
1467
102
{ACAD_REACTORS
330
427D
330
4293
102
}
330
4293
100
AcDbField
  1
_text
  2
{%<\_FldIdx 0>%N}
 90
        1
360
146B
 97
        0
 91
       63
 92
        0
 94
       11
 95
        2
 96
        0
300

 93
        1
  6
ACFD_FIELDTEXT_CHECKSUM
 93
        2
 90
        2
140
4506.0
 94
        0
300

302

304
ACVALUE_END
  7
ACFD_FIELD_VALUE
 93
        6
 90
        4
  1
{20210823N}
 94
        0
300

302

304
ACVALUE_END
301
{20210823N}
 98
       11
  0
DICTIONARY
  5
429A
330
279
100
AcDbDictionary
280
     1
281
     1
  3
ACAD_ROUNDTRIP_2008_TABLESTYLE_CELLSTYLEMAP
360
429B
  0
FIELD
  5
146B
330
1467
100
AcDbField
  1
AcVar
  2
\AcVar Date \f "yyyyMMdd"
 90
        0
 97
        0
 91
       63
 92
        0
 94
        8
 95
       64
 96
        0
300
Variable not supported
 93
        1
  6
Variable
 93
        2
 90
        4
  1
Date
 94
        0
300

302

304
ACVALUE_END
  7
ACFD_FIELD_VALUE
 93
        6
 90
        8
 92
       16
310
E5070800000017000800160014000000
 94
        0
300
yyyyMMdd
302

304
ACVALUE_END
301
20210823
 98
        8
  0
CELLSTYLEMAP
  5
429B
102
{ACAD_REACTORS
330
429A
102
}
330
429A
100
AcDbCellStyleMap
 90
        3
300
CELLSTYLE
  1
TABLEFORMAT_BEGIN
 90
        5
170
     1
 91
        0
 92
    32768
 62
   257
 93
        1
300
CONTENTFORMAT
  1
CONTENTFORMAT_BEGIN
 90
        0
 91
        0
 92
        4
 93
        0
300

 40
0.0
140
1.0
 94
        5
 62
     0
340
17
144
6.0
309
CONTENTFORMAT_END
171
     1
301
MARGIN
  1
CELLMARGIN_BEGIN
 40
0.06
 40
0.06
 40
0.06
 40
0.06
 40
0.18
 40
0.18
309
CELLMARGIN_END
 94
        6
 95
        1
302
GRIDFORMAT
  1
GRIDFORMAT_BEGIN
 90
        0
 91
        1
 62
     0
 92
       -2
340
0
 93
        0
 40
0.045
309
GRIDFORMAT_END
 95
        2
302
GRIDFORMAT
  1
GRIDFORMAT_BEGIN
 90
        0
 91
        1
 62
     0
 92
       -2
340
0
 93
        0
 40
0.045
309
GRIDFORMAT_END
 95
        4
302
GRIDFORMAT
  1
GRIDFORMAT_BEGIN
 90
        0
 91
        1
 62
     0
 92
       -2
340
0
 93
        0
 40
0.045
309
GRIDFORMAT_END
 95
        8
302
GRIDFORMAT
  1
GRIDFORMAT_BEGIN
 90
        0
 91
        1
 62
     0
 92
       -2
340
0
 93
        0
 40
0.045
309
GRIDFORMAT_END
 95
       16
302
GRIDFORMAT
  1
GRIDFORMAT_BEGIN
 90
        0
 91
        1
 62
     0
 92
       -2
340
0
 93
        0
 40
0.045
309
GRIDFORMAT_END
 95
       32
302
GRIDFORMAT
  1
GRIDFORMAT_BEGIN
 90
        0
 91
        1
 62
     0
 92
       -2
340
0
 93
        0
 40
0.045
309
GRIDFORMAT_END
309
TABLEFORMAT_END
  1
CELLSTYLE_BEGIN
 90
        1
 91
        1
300
_TITLE
309
CELLSTYLE_END
300
CELLSTYLE
  1
TABLEFORMAT_BEGIN
 90
        5
170
     1
 91
        0
 92
        0
 62
   257
 93
        1
300
CONTENTFORMAT
  1
CONTENTFORMAT_BEGIN
 90
        0
 91
        0
 92
        4
 93
        0
300

 40
0.0
140
1.0
 94
        5
 62
     0
340
17
144
4.5
309
CONTENTFORMAT_END
171
     1
301
MARGIN
  1
CELLMARGIN_BEGIN
 40
0.06
 40
0.06
 40
0.06
 40
0.06
 40
0.18
 40
0.18
309
CELLMARGIN_END
 94
        6
 95
        1
302
GRIDFORMAT
  1
GRIDFORMAT_BEGIN
 90
        0
 91
        1
 62
     0
 92
       -2
340
0
 93
        0
 40
0.045
309
GRIDFORMAT_END
 95
        2
302
GRIDFORMAT
  1
GRIDFORMAT_BEGIN
 90
        0
 91
        1
 62
     0
 92
       -2
340
0
 93
        0
 40
0.045
309
GRIDFORMAT_END
 95
        4
302
GRIDFORMAT
  1
GRIDFORMAT_BEGIN
 90
        0
 91
        1
 62
     0
 92
       -2
340
0
 93
        0
 40
0.045
309
GRIDFORMAT_END
 95
        8
302
GRIDFORMAT
  1
GRIDFORMAT_BEGIN
 90
        0
 91
        1
 62
     0
 92
       -2
340
0
 93
        0
 40
0.045
309
GRIDFORMAT_END
 95
       16
302
GRIDFORMAT
  1
GRIDFORMAT_BEGIN
 90
        0
 91
        1
 62
     0
 92
       -2
340
0
 93
        0
 40
0.045
309
GRIDFORMAT_END
 95
       32
302
GRIDFORMAT
  1
GRIDFORMAT_BEGIN
 90
        0
 91
        1
 62
     0
 92
       -2
340
0
 93
        0
 40
0.045
309
GRIDFORMAT_END
309
TABLEFORMAT_END
  1
CELLSTYLE_BEGIN
 90
        2
 91
        1
300
_HEADER
309
CELLSTYLE_END
300
CELLSTYLE
  1
TABLEFORMAT_BEGIN
 90
        5
170
     1
 91
        0
 92
        0
 62
   257
 93
        1
300
CONTENTFORMAT
  1
CONTENTFORMAT_BEGIN
 90
        0
 91
        0
 92
        4
 93
        0
300

 40
0.0
140
1.0
 94
        2
 62
     0
340
17
144
4.5
309
CONTENTFORMAT_END
171
     1
301
MARGIN
  1
CELLMARGIN_BEGIN
 40
0.06
 40
0.06
 40
0.06
 40
0.06
 40
0.18
 40
0.18
309
CELLMARGIN_END
 94
        6
 95
        1
302
GRIDFORMAT
  1
GRIDFORMAT_BEGIN
 90
        0
 91
        1
 62
     0
 92
       -2
340
0
 93
        0
 40
0.045
309
GRIDFORMAT_END
 95
        2
302
GRIDFORMAT
  1
GRIDFORMAT_BEGIN
 90
        0
 91
        1
 62
     0
 92
       -2
340
0
 93
        0
 40
0.045
309
GRIDFORMAT_END
 95
        4
302
GRIDFORMAT
  1
GRIDFORMAT_BEGIN
 90
        0
 91
        1
 62
     0
 92
       -2
340
0
 93
        0
 40
0.045
309
GRIDFORMAT_END
 95
        8
302
GRIDFORMAT
  1
GRIDFORMAT_BEGIN
 90
        0
 91
        1
 62
     0
 92
       -2
340
0
 93
        0
 40
0.045
309
GRIDFORMAT_END
 95
       16
302
GRIDFORMAT
  1
GRIDFORMAT_BEGIN
 90
        0
 91
        1
 62
     0
 92
       -2
340
0
 93
        0
 40
0.045
309
GRIDFORMAT_END
 95
       32
302
GRIDFORMAT
  1
GRIDFORMAT_BEGIN
 90
        0
 91
        1
 62
     0
 92
       -2
340
0
 93
        0
 40
0.045
309
GRIDFORMAT_END
309
TABLEFORMAT_END
  1
CELLSTYLE_BEGIN
 90
        3
 91
        2
300
_DATA
309
CELLSTYLE_END
  0
ENDSEC
  0
EOF
