  0
SECTION
  2
HEADER
  9
$ACADVER
  1
AC1021
  9
$ACADMAINTVER
 70
    25
  9
$DWGCODEPAGE
  3
ANSI_932
  9
$LASTSAVEDBY
  1
howeNelson
  9
$INSBASE
 10
0.0
 20
0.0
 30
0.0
  9
$EXTMIN
 10
0.0
 20
0.0
 30
0.0
  9
$EXTMAX
 10
2100.0
 20
2970.0
 30
34.99521132346015
  9
$LIMMIN
 10
0.0
 20
0.0
  9
$LIMMAX
 10
2100.0
 20
2970.0
  9
$ORTHOMODE
 70
     0
  9
$REGENMODE
 70
     1
  9
$FILLMODE
 70
     1
  9
$QTEXTMODE
 70
     0
  9
$MIRRTEXT
 70
     1
  9
$LTSCALE
 40
5.0
  9
$ATTMODE
 70
     1
  9
$TEXTSIZE
 40
533.0403732820173
  9
$TRACEWID
 40
1.0
  9
$TEXTSTYLE
  7
Standard
  9
$CLAYER
  8
Dim
  9
$CELTYPE
  6
ByLayer
  9
$CECOLOR
 62
   256
  9
$CELTSCALE
 40
1.0
  9
$DISPSILH
 70
     0
  9
$DIMSCALE
 40
1.0
  9
$DIMASZ
 40
9.999389648437498
  9
$DIMEXO
 40
25.0
  9
$DIMDLI
 40
0.9999999999999999
  9
$DIMRND
 40
0.0
  9
$DIMDLE
 40
0.0
  9
$DIMEXE
 40
0.0
  9
$DIMTP
 40
0.0
  9
$DIMTM
 40
0.0
  9
$DIMTXT
 40
24.4326171875
  9
$DIMCEN
 40
0.0
  9
$DIMTSZ
 40
0.0
  9
$DIMTOL
 70
     0
  9
$DIMLIM
 70
     0
  9
$DIMTIH
 70
     0
  9
$DIMTOH
 70
     0
  9
$DIMSE1
 70
     0
  9
$DIMSE2
 70
     0
  9
$DIMTAD
 70
     1
  9
$DIMZIN
 70
    11
  9
$DIMBLK
  1
DOT
  9
$DIMASO
 70
     1
  9
$DIMSHO
 70
     1
  9
$DIMPOST
  1
<>
  9
$DIMAPOST
  1
[]
  9
$DIMALT
 70
     0
  9
$DIMALTD
 70
     1
  9
$DIMALTF
 40
1.0
  9
$DIMLFAC
 40
1.0
  9
$DIMTOFL
 70
     1
  9
$DIMTVP
 40
0.0
  9
$DIMTIX
 70
     1
  9
$DIMSOXD
 70
     0
  9
$DIMSAH
 70
     0
  9
$DIMBLK1
  1

  9
$DIMBLK2
  1

  9
$DIMSTYLE
  2
tform線あり
  9
$DIMCLRD
 70
     0
  9
$DIMCLRE
 70
     0
  9
$DIMCLRT
 70
     0
  9
$DIMTFAC
 40
0.8
  9
$DIMGAP
 40
10.0
  9
$DIMJUST
 70
     0
  9
$DIMSD1
 70
     0
  9
$DIMSD2
 70
     0
  9
$DIMTOLJ
 70
     1
  9
$DIMTZIN
 70
    11
  9
$DIMALTZ
 70
    11
  9
$DIMALTTZ
 70
    11
  9
$DIMUPT
 70
     0
  9
$DIMDEC
 70
     1
  9
$DIMTDEC
 70
     1
  9
$DIMALTU
 70
     2
  9
$DIMALTTD
 70
     2
  9
$DIMTXSTY
  7
ＭＳ ゴシック
  9
$DIMAUNIT
 70
     0
  9
$DIMADEC
 70
     2
  9
$DIMALTRND
 40
0.0
  9
$DIMAZIN
 70
     0
  9
$DIMDSEP
 70
    46
  9
$DIMATFIT
 70
     0
  9
$DIMFRAC
 70
     2
  9
$DIMLDRBLK
  1
DOT
  9
$DIMLUNIT
 70
     2
  9
$DIMLWD
 70
    -2
  9
$DIMLWE
 70
    -2
  9
$DIMTMOVE
 70
     0
  9
$DIMFXL
 40
1.0
  9
$DIMFXLON
 70
     0
  9
$DIMJOGANG
 40
0.7853981633974483
  9
$DIMTFILL
 70
     0
  9
$DIMTFILLCLR
 70
     0
  9
$DIMARCSYM
 70
     0
  9
$DIMLTYPE
  6

  9
$DIMLTEX1
  6

  9
$DIMLTEX2
  6

  9
$LUNITS
 70
     2
  9
$LUPREC
 70
     0
  9
$SKETCHINC
 40
0.1
  9
$FILLETRAD
 40
0.0
  9
$AUNITS
 70
     0
  9
$AUPREC
 70
     0
  9
$MENU
  1
acad
  9
$ELEVATION
 40
0.0
  9
$PELEVATION
 40
0.0
  9
$THICKNESS
 40
0.0
  9
$LIMCHECK
 70
     0
  9
$CHAMFERA
 40
0.0
  9
$CHAMFERB
 40
0.0
  9
$CHAMFERC
 40
0.0
  9
$CHAMFERD
 40
0.0
  9
$SKPOLY
 70
     0
  9
$TDCREATE
 40
2447893.375
  9
$TDUCREATE
 40
0.0
  9
$TDUPDATE
 40
2458579.762476203
  9
$TDUUPDATE
 40
2458579.387476203
  9
$TDINDWG
 40
0.0
  9
$TDUSRTIMER
 40
0.0
  9
$USRTIMER
 70
     1
  9
$ANGBASE
 50
0.0
  9
$ANGDIR
 70
     0
  9
$PDMODE
 70
     1
  9
$PDSIZE
 40
-2.0
  9
$PLINEWID
 40
0.0
  9
$SPLFRAME
 70
     0
  9
$SPLINETYPE
 70
     6
  9
$SPLINESEGS
 70
     8
  9
$HANDSEED
  5
7343
  9
$SURFTAB1
 70
     6
  9
$SURFTAB2
 70
     6
  9
$SURFTYPE
 70
     6
  9
$SURFU
 70
     6
  9
$SURFV
 70
     6
  9
$UCSBASE
  2

  9
$UCSNAME
  2

  9
$UCSORG
 10
0.0
 20
0.0
 30
0.0
  9
$UCSXDIR
 10
1.0
 20
0.0
 30
0.0
  9
$UCSYDIR
 10
0.0
 20
1.0
 30
0.0
  9
$UCSORTHOREF
  2

  9
$UCSORTHOVIEW
 70
     0
  9
$UCSORGTOP
 10
0.0
 20
0.0
 30
0.0
  9
$UCSORGBOTTOM
 10
0.0
 20
0.0
 30
0.0
  9
$UCSORGLEFT
 10
0.0
 20
0.0
 30
0.0
  9
$UCSORGRIGHT
 10
0.0
 20
0.0
 30
0.0
  9
$UCSORGFRONT
 10
0.0
 20
0.0
 30
0.0
  9
$UCSORGBACK
 10
0.0
 20
0.0
 30
0.0
  9
$PUCSBASE
  2

  9
$PUCSNAME
  2

  9
$PUCSORG
 10
0.0
 20
0.0
 30
0.0
  9
$PUCSXDIR
 10
1.0
 20
0.0
 30
0.0
  9
$PUCSYDIR
 10
0.0
 20
1.0
 30
0.0
  9
$PUCSORTHOREF
  2

  9
$PUCSORTHOVIEW
 70
     0
  9
$PUCSORGTOP
 10
0.0
 20
0.0
 30
0.0
  9
$PUCSORGBOTTOM
 10
0.0
 20
0.0
 30
0.0
  9
$PUCSORGLEFT
 10
0.0
 20
0.0
 30
0.0
  9
$PUCSORGRIGHT
 10
0.0
 20
0.0
 30
0.0
  9
$PUCSORGFRONT
 10
0.0
 20
0.0
 30
0.0
  9
$PUCSORGBACK
 10
0.0
 20
0.0
 30
0.0
  9
$USERI1
 70
     0
  9
$USERI2
 70
     0
  9
$USERI3
 70
     0
  9
$USERI4
 70
     0
  9
$USERI5
 70
     0
  9
$USERR1
 40
0.0
  9
$USERR2
 40
0.0
  9
$USERR3
 40
0.0
  9
$USERR4
 40
0.0
  9
$USERR5
 40
0.0
  9
$WORLDVIEW
 70
     1
  9
$SHADEDGE
 70
     3
  9
$SHADEDIF
 70
    70
  9
$TILEMODE
 70
     1
  9
$MAXACTVP
 70
    64
  9
$PINSBASE
 10
0.0
 20
0.0
 30
0.0
  9
$PLIMCHECK
 70
     0
  9
$PEXTMIN
 10
0.0
 20
0.0
 30
0.0
  9
$PEXTMAX
 10
0.0
 20
0.0
 30
0.0
  9
$PLIMMIN
 10
-7.5
 20
-20.0
  9
$PLIMMAX
 10
412.5
 20
277.0
  9
$UNITMODE
 70
     0
  9
$VISRETAIN
 70
     0
  9
$PLINEGEN
 70
     1
  9
$PSLTSCALE
 70
     0
  9
$TREEDEPTH
 70
  3020
  9
$CMLSTYLE
  2
Standard
  9
$CMLJUST
 70
     0
  9
$CMLSCALE
 40
1.0
  9
$PROXYGRAPHICS
 70
     0
  9
$MEASUREMENT
 70
     1
  9
$CELWEIGHT
370
    -1
  9
$ENDCAPS
280
     0
  9
$JOINSTYLE
280
     0
  9
$LWDISPLAY
290
     1
  9
$INSUNITS
 70
     4
  9
$HYPERLINKBASE
  1

  9
$STYLESHEET
  1

  9
$XEDIT
290
     1
  9
$CEPSNTYPE
380
     0
  9
$PSTYLEMODE
290
     1
  9
$FINGERPRINTGUID
  2

  9
$VERSIONGUID
  2

  9
$EXTNAMES
290
     1
  9
$PSVPSCALE
 40
0.0
  9
$OLESTARTUP
290
     0
  9
$SORTENTS
280
   127
  9
$INDEXCTL
280
     0
  9
$HIDETEXT
280
     1
  9
$XCLIPFRAME
290
     0
  9
$HALOGAP
280
     0
  9
$OBSCOLOR
 70
   257
  9
$OBSLTYPE
280
     0
  9
$INTERSECTIONDISPLAY
280
     0
  9
$INTERSECTIONCOLOR
 70
   257
  9
$DIMASSOC
280
     2
  9
$PROJECTNAME
  1

  9
$CAMERADISPLAY
290
     0
  9
$LENSLENGTH
 40
50.0
  9
$CAMERAHEIGHT
 40
0.0
  9
$STEPSPERSEC
 40
2.0
  9
$STEPSIZE
 40
6.0
  9
$3DDWFPREC
 40
2.0
  9
$PSOLWIDTH
 40
0.25
  9
$PSOLHEIGHT
 40
4.0
  9
$LOFTANG1
 40
1.570796326794897
  9
$LOFTANG2
 40
1.570796326794897
  9
$LOFTMAG1
 40
0.0
  9
$LOFTMAG2
 40
0.0
  9
$LOFTPARAM
 70
     7
  9
$LOFTNORMALS
280
     1
  9
$LATITUDE
 40
37.795
  9
$LONGITUDE
 40
-122.394
  9
$NORTHDIRECTION
 40
0.0
  9
$TIMEZONE
 70
 -8000
  9
$LIGHTGLYPHDISPLAY
280
     1
  9
$TILEMODELIGHTSYNCH
280
     1
  9
$SOLIDHIST
280
     1
  9
$SHOWHIST
280
     1
  9
$DWFFRAME
280
     2
  9
$DGNFRAME
280
     2
  9
$REALWORLDSCALE
290
     1
  9
$INTERFERECOLOR
 62
   256
  9
$CSHADOW
280
     0
  9
$SHADOWPLANELOCATION
 40
0.0
  0
ENDSEC
  0
SECTION
  2
CLASSES
  0
CLASS
  1
LWPOLYLINE
  2
AcDbPolyline
  3
ObjectDBX Classes
 90
        0
 91
        1
280
     0
281
     1
  0
CLASS
  1
IMAGE
  2
AcDbRasterImage
  3
ISM
 90
      127
 91
       17
280
     0
281
     1
  0
CLASS
  1
OLE2FRAME
  2
AcDbOle2Frame
  3
ObjectDBX Classes
 90
        0
 91
        1
280
     0
281
     1
  0
CLASS
  1
HATCH
  2
AcDbHatch
  3
ObjectDBX Classes
 90
        0
 91
        1
280
     0
281
     1
  0
CLASS
  1
DICTIONARYVAR
  2
AcDbDictionaryVar
  3
ObjectDBX Classes
 90
        0
 91
       16
280
     0
281
     0
  0
CLASS
  1
RASTERVARIABLES
  2
AcDbRasterVariables
  3
ISM
 90
        0
 91
       16
280
     0
281
     0
  0
CLASS
  1
IMAGEDEF
  2
AcDbRasterImageDef
  3
ISM
 90
        0
 91
       16
280
     0
281
     0
  0
CLASS
  1
IMAGEDEF_REACTOR
  2
AcDbRasterImageDefReactor
  3
ISM
 90
        1
 91
       16
280
     0
281
     0
  0
CLASS
  1
IDBUFFER
  2
AcDbIdBuffer
  3
ObjectDBX Classes
 90
        0
 91
       16
280
     0
281
     0
  0
CLASS
  1
SPATIAL_FILTER
  2
AcDbSpatialFilter
  3
ObjectDBX Classes
 90
        0
 91
       16
280
     0
281
     0
  0
CLASS
  1
XRECORD
  2
AcDbXrecord
  3
ObjectDBX Classes
 90
        0
 91
        1
280
     0
281
     0
  0
CLASS
  1
SORTENTSTABLE
  2
AcDbSortentsTable
  3
ObjectDBX Classes
 90
        0
 91
       16
280
     0
281
     0
  0
CLASS
  1
LAYER_INDEX
  2
AcDbLayerIndex
  3
ObjectDBX Classes
 90
        0
 91
       16
280
     0
281
     0
  0
CLASS
  1
SPATIAL_INDEX
  2
AcDbSpatialIndex
  3
AutoCAD 2000
 90
        0
 91
       16
280
     0
281
     0
  0
CLASS
  1
OBJECT_PTR
  2
CAseDLPNTableRecord
  3
ASE-LPNTableRecord
 90
        1
 91
       16
280
     0
281
     0
  0
CLASS
  1
LAYOUT
  2
AcDbLayout
  3
ObjectDBX Classes
 90
        0
 91
        1
280
     0
281
     0
  0
CLASS
  1
PLOTSETTINGS
  2
AcDbPlotSettings
  3
ObjectDBX Classes
 90
        0
 91
       16
280
     0
281
     0
  0
CLASS
  1
ACDBDICTIONARYWDFLT
  2
AcDbDictionaryWithDefault
  3
ObjectDBX Classes
 90
        0
 91
       16
280
     0
281
     0
  0
CLASS
  1
ACDBPLACEHOLDER
  2
AcDbPlaceHolder
  3
ObjectDBX Classes
 90
        0
 91
        1
280
     0
281
     0
  0
CLASS
  1
SCALE
  2
AcDbScale
  3
ObjectDBX Classes
 90
     1153
 91
       16
280
     0
281
     0
  0
CLASS
  1
MATERIAL
  2
AcDbMaterial
  3
ObjectDBX Classes
 90
     1153
 91
       16
280
     0
281
     0
  0
CLASS
  1
VISUALSTYLE
  2
AcDbVisualStyle
  3
ObjectDBX Classes
 90
     4095
 91
       16
280
     0
281
     0
  0
CLASS
  1
TABLESTYLE
  2
AcDbTableStyle
  3
ObjectDBX Classes
 90
     4095
 91
       16
280
     0
281
     0
  0
CLASS
  1
DIMASSOC
  2
AcDbDimAssoc
  3
"AcDbDimAssoc|Product Desc:     AcDim ARX App For Dimension|Company:          Autodesk, Inc.|WEB Address:      www.autodesk.com"
 90
        0
 91
       16
280
     0
281
     0
  0
CLASS
  1
CELLSTYLEMAP
  2
AcDbCellStyleMap
  3
ObjectDBX Classes
 90
     1152
 91
       16
280
     0
281
     0
  0
CLASS
  1
SUN
  2
AcDbSun
  3
SCENEOE
 90
     1153
 91
       16
280
     0
281
     0
  0
CLASS
  1
MLEADERSTYLE
  2
AcDbMLeaderStyle
  3
ACDB_MLEADERSTYLE_CLASS
 90
     4095
 91
       16
280
     0
281
     0
  0
CLASS
  1
FIELD
  2
AcDbField
  3
ObjectDBX Classes
 90
     1152
 91
       16
280
     0
281
     0
  0
CLASS
  1
FIELDLIST
  2
AcDbFieldList
  3
ObjectDBX Classes
 90
     1152
 91
       16
280
     0
281
     0
  0
CLASS
  1
ACDB_ALDIMOBJECTCONTEXTDATA_CLASS
  2
AcDbAlignedDimensionObjectContextData
  3
ObjectDBX Classes
 90
     1153
 91
       16
280
     0
281
     0
  0
ENDSEC
  0
SECTION
  2
TABLES
  0
TABLE
  2
VPORT
  5
7
330
0
100
AcDbSymbolTable
 70
     1
  0
VPORT
  5
15
330
7
100
AcDbSymbolTableRecord
100
AcDbViewportTableRecord
  2
*ACTIVE
 70
     0
 10
0.0
 20
0.0
 11
1.0
 21
1.0
 12
672.9525617540367
 22
1782.612370234528
 13
0.0
 23
0.0
 14
1.0
 24
1.0
 15
0.0
 25
0.0
 16
0.0
 26
0.0
 36
1.0
 17
377.0474382459633
 27
-297.6123702345285
 37
0.0
 40
3029.4
 41
2.341176470588235
 42
50.0
 43
0.0
 44
0.0
 50
0.0
 51
0.0
 71
    16
 72
  2000
 73
     1
 74
     1
 75
     0
 76
     0
 77
     0
 78
     0
281
     0
 65
     1
110
0.0
120
0.0
130
0.0
111
1.0
121
0.0
131
0.0
112
0.0
122
1.0
132
0.0
 79
     0
146
0.0
348
26C
 60
     3
 61
     5
292
     1
282
     1
141
0.0
142
0.0
 63
   256
361
8C2
  0
ENDTAB
  0
TABLE
  2
LTYPE
  5
4
330
0
100
AcDbSymbolTable
 70
     5
  0
LTYPE
  5
11
330
4
100
AcDbSymbolTableRecord
100
AcDbLinetypeTableRecord
  2
ByBlock
 70
     0
  3

 72
    65
 73
     0
 40
0.0
  0
LTYPE
  5
12
330
4
100
AcDbSymbolTableRecord
100
AcDbLinetypeTableRecord
  2
ByLayer
 70
     0
  3

 72
    65
 73
     0
 40
0.0
  0
LTYPE
  5
13
330
4
100
AcDbSymbolTableRecord
100
AcDbLinetypeTableRecord
  2
Continuous
 70
     0
  3
Solid line
 72
    65
 73
     0
 40
0.0
  0
LTYPE
  5
8D4
330
4
100
AcDbSymbolTableRecord
100
AcDbLinetypeTableRecord
  2
HIDDEN
 70
     0
  3
Hidden _ _ _ _ _ _ _ _ _ _ _ _ _ _ _ _ _ _ _ _ 
 72
    65
 73
     2
 40
9.524999999999999
 49
6.35
 74
     0
 49
-3.175
 74
     0
  0
LTYPE
  5
BF2
330
4
100
AcDbSymbolTableRecord
100
AcDbLinetypeTableRecord
  2
BORDER
 70
     0
  3
Border __  __  . __  __  . __  __  . __  __  . 
 72
    65
 73
     6
 40
44.45
 49
12.7
 74
     0
 49
-6.35
 74
     0
 49
12.7
 74
     0
 49
-6.35
 74
     0
 49
0.0
 74
     0
 49
-6.35
 74
     0
  0
LTYPE
  5
4115
330
4
100
AcDbSymbolTableRecord
100
AcDbLinetypeTableRecord
  2
CENTER
 70
     0
  3
 Center _____  _  _____  _  _____  _  _____  _ 
 72
    65
 73
     4
 40
50.8
 49
31.75
 74
     0
 49
-6.35
 74
     0
 49
6.35
 74
     0
 49
-6.35
 74
     0
  0
LTYPE
  5
4FFD
330
4
100
AcDbSymbolTableRecord
100
AcDbLinetypeTableRecord
  2
HIDDEN2
 70
     0
  3
Hidden (.5x) _ _ _ _ _ _ _ _ _ _ _ _ _ _ _ _ _ 
 72
    65
 73
     2
 40
4.762499999999999
 49
3.175
 74
     0
 49
-1.5875
 74
     0
  0
ENDTAB
  0
TABLE
  2
LAYER
  5
2
102
{ACAD_XDICTIONARY
360
2E1
102
}
330
0
100
AcDbSymbolTable
 70
     9
  0
LAYER
  5
14
330
2
100
AcDbSymbolTableRecord
100
AcDbLayerTableRecord
  2
0
 70
     0
 62
     7
  6
Continuous
370
    -3
390
1D
347
266
  0
LAYER
  5
4A
330
2
100
AcDbSymbolTableRecord
100
AcDbLayerTableRecord
  2
Defpoints
 70
     0
 62
     7
  6
Continuous
290
     0
370
    20
390
1D
347
266
  0
LAYER
  5
4B
330
2
100
AcDbSymbolTableRecord
100
AcDbLayerTableRecord
  2
template
 70
     0
 62
     7
  6
Continuous
370
    20
390
1D
347
266
  0
LAYER
  5
4D
330
2
100
AcDbSymbolTableRecord
100
AcDbLayerTableRecord
  2
MODEL
 70
     0
 62
     7
  6
Continuous
370
    20
390
1D
347
266
  0
LAYER
  5
382
330
2
100
AcDbSymbolTableRecord
100
AcDbLayerTableRecord
  2
レイヤー 1
 70
     0
 62
     7
  6
Continuous
370
    -3
390
1D
347
266
  0
LAYER
  5
5C4
330
2
100
AcDbSymbolTableRecord
100
AcDbLayerTableRecord
  2
HIDDEN
 70
     0
 62
   253
  6
HIDDEN
370
    20
390
1D
347
266
1001
AcAecLayerStandard
1000

1000

  0
LAYER
  5
5EB
330
2
100
AcDbSymbolTableRecord
100
AcDbLayerTableRecord
  2
Dim
 70
     0
 62
     3
  6
Continuous
370
    13
390
1D
347
266
1001
AcAecLayerStandard
1000

1000

  0
LAYER
  5
BF1
330
2
100
AcDbSymbolTableRecord
100
AcDbLayerTableRecord
  2
PRINT BORDER
 70
     0
 62
     4
  6
BORDER
290
     0
370
    20
390
1D
347
266
1001
AcAecLayerStandard
1000

1000

  0
LAYER
  5
1BD2
330
2
100
AcDbSymbolTableRecord
100
AcDbLayerTableRecord
  2
retino
 70
     0
 62
   253
  6
Continuous
370
     0
390
1D
347
266
  0
ENDTAB
  0
TABLE
  2
STYLE
  5
3
330
0
100
AcDbSymbolTable
 70
     2
  0
STYLE
  5
17
330
3
100
AcDbSymbolTableRecord
100
AcDbTextStyleTableRecord
  2
Standard
 70
     0
 40
0.0
 41
1.0
 50
0.0
 71
     0
 42
533.0403732820173
  3
txt
  4
BIGFONT.SHX
  0
STYLE
  5
39
330
3
100
AcDbSymbolTableRecord
100
AcDbTextStyleTableRecord
  2
ＭＳ ゴシック
 70
     0
 40
0.0
 41
1.0
 50
0.0
 71
     0
 42
533.0403732820173
  3
msgothic.ttc
  4
ＭＳ ゴシック
1001
ACAD
1000
ＭＳ ゴシック
1071
        0
  0
ENDTAB
  0
TABLE
  2
VIEW
  5
5
330
0
100
AcDbSymbolTable
 70
     0
  0
ENDTAB
  0
TABLE
  2
UCS
  5
6
330
0
100
AcDbSymbolTable
 70
     0
  0
ENDTAB
  0
TABLE
  2
APPID
  5
8
330
0
100
AcDbSymbolTable
 70
    15
  0
APPID
  5
16
330
8
100
AcDbSymbolTableRecord
100
AcDbRegAppTableRecord
  2
ACAD
 70
     0
  0
APPID
  5
5C5
330
8
100
AcDbSymbolTableRecord
100
AcDbRegAppTableRecord
  2
AcAecLayerStandard
 70
     0
  0
APPID
  5
913
330
8
100
AcDbSymbolTableRecord
100
AcDbRegAppTableRecord
  2
ACAD_DSTYLE_DIMBREAK
 70
     0
  0
APPID
  5
914
330
8
100
AcDbSymbolTableRecord
100
AcDbRegAppTableRecord
  2
ACAD_DSTYLE_DIMJAG
 70
     0
  0
APPID
  5
915
330
8
100
AcDbSymbolTableRecord
100
AcDbRegAppTableRecord
  2
ACAD_DSTYLE_DIMTALN
 70
     0
  0
APPID
  5
E4F
330
8
100
AcDbSymbolTableRecord
100
AcDbRegAppTableRecord
  2
ACAD_MLEADERVER
 70
     0
  0
APPID
  5
E79
330
8
100
AcDbSymbolTableRecord
100
AcDbRegAppTableRecord
  2
ACAD_PSEXT
 70
     0
  0
APPID
  5
E7A
330
8
100
AcDbSymbolTableRecord
100
AcDbRegAppTableRecord
  2
ACAD_NAV_VCDISPLAY
 70
     0
  0
APPID
  5
166E
330
8
100
AcDbSymbolTableRecord
100
AcDbRegAppTableRecord
  2
AcadAnnotative
 70
     0
  0
APPID
  5
166F
330
8
100
AcDbSymbolTableRecord
100
AcDbRegAppTableRecord
  2
GradientColor1ACI
 70
     0
  0
APPID
  5
1670
330
8
100
AcDbSymbolTableRecord
100
AcDbRegAppTableRecord
  2
GradientColor2ACI
 70
     0
  0
APPID
  5
20FE
330
8
100
AcDbSymbolTableRecord
100
AcDbRegAppTableRecord
  2
AcLayerTools
 70
     0
  0
APPID
  5
27AB
330
8
100
AcDbSymbolTableRecord
100
AcDbRegAppTableRecord
  2
ACAD_DSTYLE_DIMRADIAL_EXTENSION
 70
     0
  0
APPID
  5
4377
330
8
100
AcDbSymbolTableRecord
100
AcDbRegAppTableRecord
  2
RAK
 70
     0
  0
APPID
  5
500B
330
8
100
AcDbSymbolTableRecord
100
AcDbRegAppTableRecord
  2
AcadAnnoAV
 70
     0
  0
ENDTAB
  0
TABLE
  2
DIMSTYLE
  5
9
330
0
100
AcDbSymbolTable
 70
     3
100
AcDbDimStyleTable
  0
DIMSTYLE
105
18
330
9
100
AcDbSymbolTableRecord
100
AcDbDimStyleTableRecord
  2
Standard
 70
     0
178
     0
340
17
  0
DIMSTYLE
105
56
102
{ACAD_REACTORS
330
6FD8
330
6FD9
330
70DB
330
70EC
330
70FB
330
711D
330
715E
330
715F
330
7160
330
7161
330
7162
330
7163
330
71B0
330
71BD
330
724D
330
724E
330
7269
330
7295
330
729E
330
72E4
330
72FA
330
7309
330
7328
102
}
330
9
100
AcDbSymbolTableRecord
100
AcDbDimStyleTableRecord
  2
tform線あり
 70
     0
  3
<>
  4
[]
 41
9.999389648437498
 42
25.0
 43
0.9999999999999999
 44
0.0
 73
     0
 74
     0
 77
     1
 78
    11
140
24.4326171875
141
0.0
143
1.0
146
0.8
147
10.0
171
     1
172
     1
174
     1
178
     0
179
     2
271
     1
272
     1
276
     2
284
    11
285
    11
286
    11
289
     0
340
39
341
4E
342
4E
  0
DIMSTYLE
105
5EF0
330
9
100
AcDbSymbolTableRecord
100
AcDbDimStyleTableRecord
  2
Standard1
 70
     0
 41
0.0
 42
5.0
 44
0.0
 73
     0
 74
     0
 77
     2
140
20.0
141
0.0
147
2.0
178
     0
271
     0
272
     0
340
17
341
5EF1
342
5EF1
1001
ACAD_DSTYLE_DIMJAG
1070
   388
1040
1.5
1001
ACAD_DSTYLE_DIMTALN
1070
   392
1070
     0
  0
ENDTAB
  0
TABLE
  2
BLOCK_RECORD
  5
1
330
0
100
AcDbSymbolTable
 70
    84
  0
BLOCK_RECORD
  5
A
102
{ACAD_XDICTIONARY
360
560A
102
}
330
1
100
AcDbSymbolTableRecord
100
AcDbBlockTableRecord
  2
*MODEL_SPACE
340
20
 70
     0
280
     1
281
     0
  0
BLOCK_RECORD
  5
B
330
1
100
AcDbSymbolTableRecord
100
AcDbBlockTableRecord
  2
*PAPER_SPACE
340
21
 70
     0
280
     1
281
     0
  0
BLOCK_RECORD
  5
4E
330
1
100
AcDbSymbolTableRecord
100
AcDbBlockTableRecord
  2
_DOT
340
0
102
{BLKREFS
331
6A75
331
6A76
331
6AF7
331
6AF8
331
6B01
331
6B02
331
6B44
331
6B45
331
6B57
331
6B58
331
6B68
331
6B69
331
6B97
331
6B98
331
6BA3
331
6BA4
331
6BAF
331
6BB0
331
6BBB
331
6BBC
331
6BC7
331
6BC8
331
6BD3
331
6BD4
331
6C6E
331
6C6F
331
6C7A
331
6C7B
331
6C86
331
6C87
331
6CAA
331
6CAB
331
6CB7
331
6CB8
331
6CC8
331
6CC9
331
6CED
331
6CEE
331
6CFB
331
6CFC
331
6FEE
331
6FEF
331
6FF8
331
6FF9
331
7002
331
7003
331
700C
331
700D
331
7016
331
7017
331
7020
331
7021
331
702A
331
702B
331
7034
331
7035
331
703E
331
703F
331
7048
331
7049
331
7052
331
7053
331
705C
331
705D
331
7066
331
7067
331
7072
331
7073
331
707A
331
707B
331
7084
331
7085
331
708E
331
708F
331
7098
331
7099
331
70A2
331
70A3
331
70E5
331
70E6
331
70F3
331
70F4
331
710F
331
7110
331
7124
331
7125
331
7132
331
7133
331
713E
331
713F
331
716B
331
716C
331
7177
331
7178
331
7183
331
7184
331
718F
331
7190
331
719B
331
719C
331
71A7
331
71A8
331
71B7
331
71B8
331
71C4
331
71C5
331
71F3
331
71F4
331
71FF
331
7200
331
720B
331
720C
331
7217
331
7218
331
7223
331
7224
331
722F
331
7230
331
723B
331
723C
331
7247
331
7248
331
7257
331
7258
331
7263
331
7264
331
7270
331
7271
331
7280
331
7281
331
728F
331
7290
331
72A6
331
72A7
331
72B2
331
72B3
331
72BE
331
72BF
331
72F0
331
72F1
331
7303
331
7304
331
7312
331
7313
331
7332
331
7331
102
}
 70
     0
280
     1
281
     0
  0
BLOCK_RECORD
  5
3A5
330
1
100
AcDbSymbolTableRecord
100
AcDbBlockTableRecord
  2
名称未設定-1
340
0
102
{BLKREFS
331
3D0
102
}
 70
     1
280
     1
281
     0
  0
BLOCK_RECORD
  5
3A8
330
1
100
AcDbSymbolTableRecord
100
AcDbBlockTableRecord
  2
block 2
340
0
102
{BLKREFS
331
3A7
102
}
 70
     0
280
     1
281
     0
  0
BLOCK_RECORD
  5
3AB
330
1
100
AcDbSymbolTableRecord
100
AcDbBlockTableRecord
  2
block 3
340
0
102
{BLKREFS
331
3AA
102
}
 70
     0
280
     1
281
     0
  0
BLOCK_RECORD
  5
3AE
330
1
100
AcDbSymbolTableRecord
100
AcDbBlockTableRecord
  2
block 4
340
0
102
{BLKREFS
331
3AD
102
}
 70
     0
280
     1
281
     0
  0
BLOCK_RECORD
  5
3BD
330
1
100
AcDbSymbolTableRecord
100
AcDbBlockTableRecord
  2
block 5
340
0
102
{BLKREFS
331
3BC
102
}
 70
     0
280
     1
281
     0
  0
BLOCK_RECORD
  5
11F0
330
1
100
AcDbSymbolTableRecord
100
AcDbBlockTableRecord
  2
BLOCK_2
340
0
102
{BLKREFS
331
1273
331
127B
331
127C
102
}
 70
     0
280
     1
281
     0
  0
BLOCK_RECORD
  5
38B6
330
1
100
AcDbSymbolTableRecord
100
AcDbBlockTableRecord
  2
mobile_latù
340
0
310
2800000020000000200000000100080000000000000400000000000000000000000000000000000000000000000080000080000000808000800000008000800080800000C0C0C000C0DCC000F0CAA6000020400000206000002080000020A0000020C0000020E00000400000004020000040400000406000004080000040A0
310
000040C0000040E00000600000006020000060400000606000006080000060A0000060C0000060E00000800000008020000080400000806000008080000080A0000080C0000080E00000A0000000A0200000A0400000A0600000A0800000A0A00000A0C00000A0E00000C0000000C0200000C0400000C0600000C0800000C0
310
A00000C0C00000C0E00000E0000000E0200000E0400000E0600000E0800000E0A00000E0C00000E0E00040000000400020004000400040006000400080004000A0004000C0004000E00040200000402020004020400040206000402080004020A0004020C0004020E000404000004040200040404000404060004040800040
310
40A0004040C0004040E00040600000406020004060400040606000406080004060A0004060C0004060E00040800000408020004080400040806000408080004080A0004080C0004080E00040A0000040A0200040A0400040A0600040A0800040A0A00040A0C00040A0E00040C0000040C0200040C0400040C0600040C08000
310
40C0A00040C0C00040C0E00040E0000040E0200040E0400040E0600040E0800040E0A00040E0C00040E0E00080000000800020008000400080006000800080008000A0008000C0008000E00080200000802020008020400080206000802080008020A0008020C0008020E00080400000804020008040400080406000804080
310
008040A0008040C0008040E00080600000806020008060400080606000806080008060A0008060C0008060E00080800000808020008080400080806000808080008080A0008080C0008080E00080A0000080A0200080A0400080A0600080A0800080A0A00080A0C00080A0E00080C0000080C0200080C0400080C0600080C0
310
800080C0A00080C0C00080C0E00080E0000080E0200080E0400080E0600080E0800080E0A00080E0C00080E0E000C0000000C0002000C0004000C0006000C0008000C000A000C000C000C000E000C0200000C0202000C0204000C0206000C0208000C020A000C020C000C020E000C0400000C0402000C0404000C0406000C0
310
408000C040A000C040C000C040E000C0600000C0602000C0604000C0606000C0608000C060A000C060C000C060E000C0800000C0802000C0804000C0806000C0808000C080A000C080C000C080E000C0A00000C0A02000C0A04000C0A06000C0A08000C0A0A000C0A0C000C0A0E000C0C00000C0C02000C0C04000C0C06000
310
C0C08000C0C0A000F0FBFF00A4A0A000808080000000FF0000FF000000FFFF00FF000000FF00FF00FFFF0000FFFFFF0049494949494949494949494949494949494949494949494949494949494949494949494949494949494949494949494949494949494949494949494949494949494949494949494949494949494949
310
49494949494949494949494949494949494949494949494949494949494949494949494949494949494949494949494949494949494949494949494949494949494949494949494949494949494949494949FAFAFAFAFAFAFAFAFAFAFAFAFAFAFAFAFAFAFAFAFAFAFAFAFAFAFAFAFAFA4949FAFA4949494949494949494949
310
494949494949494949494949494949FAFA4949FAFA4949494949494949494949494949494949494949494949494949FAFA4949FAFA4949494949494949494949494949494949494949494949494949FAFA4949FAFA4949494949494949494949494949494949494949494949494949FAFA4949FAFA49494949494949494949
310
49494949494949494949494949494949FAFA4949FAFA4949494949494949494949494949494949494949494949494949FAFA4949FAFA4949494949494949494949494949494949494949494949494949FAFA4949FAFA4949494949494949494949494949494949494949494949494949FAFA4949FAFA494949494949494949
310
4949494949494949494949494949494949FAFA4949FAFA4949494949494949494949494949494949494949494949494949FAFA4949FAFA4949494949494949494949494949494949494949494949494949FAFA4949FAFA4949494949494949494949494949494949494949494949494949FAFA4949FAFA4949494949494949
310
494949494949494949494949494949494949FAFA4949FAFA4949494949494949494949494949494949494949494949494949FAFA4949FAFA4949494949494949494949494949494949494949494949494949FAFA4949FAFA4949494949494949494949494949494949494949494949494949FAFA4949FAFA49494949494949
310
49494949494949494949494949494949494949FAFA4949FAFAFAFAFAFAFAFAFAFAFAFAFAFAFAFAFAFAFAFAFAFAFAFAFAFAFAFAFAFA4949FAFAFAFAFAFAFAFAFAFAFAFAFAFAFAFAFAFAFAFAFAFAFAFAFAFAFAFAFAFA4949FAFA4949494949494949494949494949494949494949494949494949FAFA4949FAFAFAFAFAFAFAFA
310
FAFAFAFAFAFAFAFAFAFAFAFAFAFAFAFAFAFAFAFAFAFA494949494949494949494949494949494949494949494949494949494949494949494949494949494949494949494949494949494949494949494949494949494949494949494949494949494949494949494949494949494949494949494949494949494949494949
310
4949494949494949494949494949494949494949494949494949494949494949494949494949494949494949494949494949494949494949
102
{BLKREFS
331
3B99
331
467E
331
527B
102
}
 70
     4
280
     1
281
     0
  0
BLOCK_RECORD
  5
5039
330
1
100
AcDbSymbolTableRecord
100
AcDbBlockTableRecord
  2
.TD_SECTION_1
340
0
102
{BLKREFS
331
527C
331
527E
331
5280
331
5282
331
5284
331
5286
102
}
 70
     0
280
     1
281
     0
  0
BLOCK_RECORD
  5
503D
330
1
100
AcDbSymbolTableRecord
100
AcDbBlockTableRecord
  2
.TD_SECTION_2
340
0
102
{BLKREFS
331
527D
331
527F
331
5281
331
5283
331
5285
331
5287
102
}
 70
     0
280
     1
281
     0
  0
BLOCK_RECORD
  5
5EF1
330
1
100
AcDbSymbolTableRecord
100
AcDbBlockTableRecord
  2
_None
340
0
 70
     0
280
     1
281
     0
  0
BLOCK_RECORD
  5
6A6F
330
1
100
AcDbSymbolTableRecord
100
AcDbBlockTableRecord
  2
*D11
340
0
 70
     0
280
     1
281
     0
  0
BLOCK_RECORD
  5
6AF1
330
1
100
AcDbSymbolTableRecord
100
AcDbBlockTableRecord
  2
*D12
340
0
 70
     0
280
     1
281
     0
  0
BLOCK_RECORD
  5
6AFB
330
1
100
AcDbSymbolTableRecord
100
AcDbBlockTableRecord
  2
*D13
340
0
 70
     0
280
     1
281
     0
  0
BLOCK_RECORD
  5
6B3E
330
1
100
AcDbSymbolTableRecord
100
AcDbBlockTableRecord
  2
*D14
340
0
 70
     0
280
     1
281
     0
  0
BLOCK_RECORD
  5
6B51
330
1
100
AcDbSymbolTableRecord
100
AcDbBlockTableRecord
  2
*D15
340
0
 70
     0
280
     1
281
     0
  0
BLOCK_RECORD
  5
6B62
330
1
100
AcDbSymbolTableRecord
100
AcDbBlockTableRecord
  2
*D16
340
0
 70
     0
280
     1
281
     0
  0
BLOCK_RECORD
  5
6B91
330
1
100
AcDbSymbolTableRecord
100
AcDbBlockTableRecord
  2
*D17
340
0
 70
     0
280
     1
281
     0
  0
BLOCK_RECORD
  5
6B9D
330
1
100
AcDbSymbolTableRecord
100
AcDbBlockTableRecord
  2
*D18
340
0
 70
     0
280
     1
281
     0
  0
BLOCK_RECORD
  5
6BA9
330
1
100
AcDbSymbolTableRecord
100
AcDbBlockTableRecord
  2
*D19
340
0
 70
     0
280
     1
281
     0
  0
BLOCK_RECORD
  5
6BB5
330
1
100
AcDbSymbolTableRecord
100
AcDbBlockTableRecord
  2
*D20
340
0
 70
     0
280
     1
281
     0
  0
BLOCK_RECORD
  5
6BC1
330
1
100
AcDbSymbolTableRecord
100
AcDbBlockTableRecord
  2
*D21
340
0
 70
     0
280
     1
281
     0
  0
BLOCK_RECORD
  5
6BCD
330
1
100
AcDbSymbolTableRecord
100
AcDbBlockTableRecord
  2
*D22
340
0
 70
     0
280
     1
281
     0
  0
BLOCK_RECORD
  5
6C68
330
1
100
AcDbSymbolTableRecord
100
AcDbBlockTableRecord
  2
*D23
340
0
 70
     0
280
     1
281
     0
  0
BLOCK_RECORD
  5
6C74
330
1
100
AcDbSymbolTableRecord
100
AcDbBlockTableRecord
  2
*D24
340
0
 70
     0
280
     1
281
     0
  0
BLOCK_RECORD
  5
6C80
330
1
100
AcDbSymbolTableRecord
100
AcDbBlockTableRecord
  2
*D25
340
0
 70
     0
280
     1
281
     0
  0
BLOCK_RECORD
  5
6CA4
330
1
100
AcDbSymbolTableRecord
100
AcDbBlockTableRecord
  2
*D26
340
0
 70
     0
280
     1
281
     0
  0
BLOCK_RECORD
  5
6CB1
330
1
100
AcDbSymbolTableRecord
100
AcDbBlockTableRecord
  2
*D27
340
0
 70
     0
280
     1
281
     0
  0
BLOCK_RECORD
  5
6CC2
330
1
100
AcDbSymbolTableRecord
100
AcDbBlockTableRecord
  2
*D28
340
0
 70
     0
280
     1
281
     0
  0
BLOCK_RECORD
  5
6CE7
330
1
100
AcDbSymbolTableRecord
100
AcDbBlockTableRecord
  2
*D29
340
0
 70
     0
280
     1
281
     0
  0
BLOCK_RECORD
  5
6CF5
330
1
100
AcDbSymbolTableRecord
100
AcDbBlockTableRecord
  2
*D30
340
0
 70
     0
280
     1
281
     0
  0
BLOCK_RECORD
  5
6FE8
330
1
100
AcDbSymbolTableRecord
100
AcDbBlockTableRecord
  2
*D31
340
0
 70
     0
280
     1
281
     0
  0
BLOCK_RECORD
  5
6FF2
330
1
100
AcDbSymbolTableRecord
100
AcDbBlockTableRecord
  2
*D32
340
0
 70
     0
280
     1
281
     0
  0
BLOCK_RECORD
  5
6FFC
330
1
100
AcDbSymbolTableRecord
100
AcDbBlockTableRecord
  2
*D33
340
0
 70
     0
280
     1
281
     0
  0
BLOCK_RECORD
  5
7006
330
1
100
AcDbSymbolTableRecord
100
AcDbBlockTableRecord
  2
*D34
340
0
 70
     0
280
     1
281
     0
  0
BLOCK_RECORD
  5
7010
330
1
100
AcDbSymbolTableRecord
100
AcDbBlockTableRecord
  2
*D35
340
0
 70
     0
280
     1
281
     0
  0
BLOCK_RECORD
  5
701A
330
1
100
AcDbSymbolTableRecord
100
AcDbBlockTableRecord
  2
*D36
340
0
 70
     0
280
     1
281
     0
  0
BLOCK_RECORD
  5
7024
330
1
100
AcDbSymbolTableRecord
100
AcDbBlockTableRecord
  2
*D37
340
0
 70
     0
280
     1
281
     0
  0
BLOCK_RECORD
  5
702E
330
1
100
AcDbSymbolTableRecord
100
AcDbBlockTableRecord
  2
*D38
340
0
 70
     0
280
     1
281
     0
  0
BLOCK_RECORD
  5
7038
330
1
100
AcDbSymbolTableRecord
100
AcDbBlockTableRecord
  2
*D39
340
0
 70
     0
280
     1
281
     0
  0
BLOCK_RECORD
  5
7042
330
1
100
AcDbSymbolTableRecord
100
AcDbBlockTableRecord
  2
*D40
340
0
 70
     0
280
     1
281
     0
  0
BLOCK_RECORD
  5
704C
330
1
100
AcDbSymbolTableRecord
100
AcDbBlockTableRecord
  2
*D41
340
0
 70
     0
280
     1
281
     0
  0
BLOCK_RECORD
  5
7056
330
1
100
AcDbSymbolTableRecord
100
AcDbBlockTableRecord
  2
*D42
340
0
 70
     0
280
     1
281
     0
  0
BLOCK_RECORD
  5
7060
330
1
100
AcDbSymbolTableRecord
100
AcDbBlockTableRecord
  2
*D43
340
0
 70
     0
280
     1
281
     0
  0
BLOCK_RECORD
  5
706A
330
1
100
AcDbSymbolTableRecord
100
AcDbBlockTableRecord
  2
*D44
340
0
 70
     0
280
     1
281
     0
  0
BLOCK_RECORD
  5
7074
330
1
100
AcDbSymbolTableRecord
100
AcDbBlockTableRecord
  2
*D45
340
0
 70
     0
280
     1
281
     0
  0
BLOCK_RECORD
  5
707E
330
1
100
AcDbSymbolTableRecord
100
AcDbBlockTableRecord
  2
*D46
340
0
 70
     0
280
     1
281
     0
  0
BLOCK_RECORD
  5
7088
330
1
100
AcDbSymbolTableRecord
100
AcDbBlockTableRecord
  2
*D47
340
0
 70
     0
280
     1
281
     0
  0
BLOCK_RECORD
  5
7092
330
1
100
AcDbSymbolTableRecord
100
AcDbBlockTableRecord
  2
*D48
340
0
 70
     0
280
     1
281
     0
  0
BLOCK_RECORD
  5
709C
330
1
100
AcDbSymbolTableRecord
100
AcDbBlockTableRecord
  2
*D49
340
0
 70
     0
280
     1
281
     0
  0
BLOCK_RECORD
  5
70DF
330
1
100
AcDbSymbolTableRecord
100
AcDbBlockTableRecord
  2
*D50
340
0
 70
     0
280
     1
281
     0
  0
BLOCK_RECORD
  5
70ED
330
1
100
AcDbSymbolTableRecord
100
AcDbBlockTableRecord
  2
*D51
340
0
 70
     0
280
     1
281
     0
  0
BLOCK_RECORD
  5
7109
330
1
100
AcDbSymbolTableRecord
100
AcDbBlockTableRecord
  2
*D52
340
0
 70
     0
280
     1
281
     0
  0
BLOCK_RECORD
  5
711E
330
1
100
AcDbSymbolTableRecord
100
AcDbBlockTableRecord
  2
*D53
340
0
 70
     0
280
     1
281
     0
  0
BLOCK_RECORD
  5
712C
330
1
100
AcDbSymbolTableRecord
100
AcDbBlockTableRecord
  2
*D54
340
0
 70
     0
280
     1
281
     0
  0
BLOCK_RECORD
  5
7138
330
1
100
AcDbSymbolTableRecord
100
AcDbBlockTableRecord
  2
*D55
340
0
 70
     0
280
     1
281
     0
  0
BLOCK_RECORD
  5
7165
330
1
100
AcDbSymbolTableRecord
100
AcDbBlockTableRecord
  2
*D56
340
0
 70
     0
280
     1
281
     0
  0
BLOCK_RECORD
  5
7171
330
1
100
AcDbSymbolTableRecord
100
AcDbBlockTableRecord
  2
*D57
340
0
 70
     0
280
     1
281
     0
  0
BLOCK_RECORD
  5
717D
330
1
100
AcDbSymbolTableRecord
100
AcDbBlockTableRecord
  2
*D58
340
0
 70
     0
280
     1
281
     0
  0
BLOCK_RECORD
  5
7189
330
1
100
AcDbSymbolTableRecord
100
AcDbBlockTableRecord
  2
*D59
340
0
 70
     0
280
     1
281
     0
  0
BLOCK_RECORD
  5
7195
330
1
100
AcDbSymbolTableRecord
100
AcDbBlockTableRecord
  2
*D60
340
0
 70
     0
280
     1
281
     0
  0
BLOCK_RECORD
  5
71A1
330
1
100
AcDbSymbolTableRecord
100
AcDbBlockTableRecord
  2
*D61
340
0
 70
     0
280
     1
281
     0
  0
BLOCK_RECORD
  5
71B1
330
1
100
AcDbSymbolTableRecord
100
AcDbBlockTableRecord
  2
*D62
340
0
 70
     0
280
     1
281
     0
  0
BLOCK_RECORD
  5
71BE
330
1
100
AcDbSymbolTableRecord
100
AcDbBlockTableRecord
  2
*D63
340
0
 70
     0
280
     1
281
     0
  0
BLOCK_RECORD
  5
71ED
330
1
100
AcDbSymbolTableRecord
100
AcDbBlockTableRecord
  2
*D64
340
0
 70
     0
280
     1
281
     0
  0
BLOCK_RECORD
  5
71F9
330
1
100
AcDbSymbolTableRecord
100
AcDbBlockTableRecord
  2
*D65
340
0
 70
     0
280
     1
281
     0
  0
BLOCK_RECORD
  5
7205
330
1
100
AcDbSymbolTableRecord
100
AcDbBlockTableRecord
  2
*D66
340
0
 70
     0
280
     1
281
     0
  0
BLOCK_RECORD
  5
7211
330
1
100
AcDbSymbolTableRecord
100
AcDbBlockTableRecord
  2
*D67
340
0
 70
     0
280
     1
281
     0
  0
BLOCK_RECORD
  5
721D
330
1
100
AcDbSymbolTableRecord
100
AcDbBlockTableRecord
  2
*D68
340
0
 70
     0
280
     1
281
     0
  0
BLOCK_RECORD
  5
7229
330
1
100
AcDbSymbolTableRecord
100
AcDbBlockTableRecord
  2
*D69
340
0
 70
     0
280
     1
281
     0
  0
BLOCK_RECORD
  5
7235
330
1
100
AcDbSymbolTableRecord
100
AcDbBlockTableRecord
  2
*D70
340
0
 70
     0
280
     1
281
     0
  0
BLOCK_RECORD
  5
7241
330
1
100
AcDbSymbolTableRecord
100
AcDbBlockTableRecord
  2
*D71
340
0
 70
     0
280
     1
281
     0
  0
BLOCK_RECORD
  5
7251
330
1
100
AcDbSymbolTableRecord
100
AcDbBlockTableRecord
  2
*D72
340
0
 70
     0
280
     1
281
     0
  0
BLOCK_RECORD
  5
725D
330
1
100
AcDbSymbolTableRecord
100
AcDbBlockTableRecord
  2
*D73
340
0
 70
     0
280
     1
281
     0
  0
BLOCK_RECORD
  5
726A
330
1
100
AcDbSymbolTableRecord
100
AcDbBlockTableRecord
  2
*D74
340
0
 70
     0
280
     1
281
     0
  0
BLOCK_RECORD
  5
727A
330
1
100
AcDbSymbolTableRecord
100
AcDbBlockTableRecord
  2
*D75
340
0
 70
     0
280
     1
281
     0
  0
BLOCK_RECORD
  5
7289
330
1
100
AcDbSymbolTableRecord
100
AcDbBlockTableRecord
  2
*D76
340
0
 70
     0
280
     1
281
     0
  0
BLOCK_RECORD
  5
72A0
330
1
100
AcDbSymbolTableRecord
100
AcDbBlockTableRecord
  2
*D77
340
0
 70
     0
280
     1
281
     0
  0
BLOCK_RECORD
  5
72AC
330
1
100
AcDbSymbolTableRecord
100
AcDbBlockTableRecord
  2
*D78
340
0
 70
     0
280
     1
281
     0
  0
BLOCK_RECORD
  5
72B8
330
1
100
AcDbSymbolTableRecord
100
AcDbBlockTableRecord
  2
*D79
340
0
 70
     0
280
     1
281
     0
  0
BLOCK_RECORD
  5
72E7
330
1
100
AcDbSymbolTableRecord
100
AcDbBlockTableRecord
  2
*D80
340
0
 70
     0
280
     1
281
     0
  0
BLOCK_RECORD
  5
72FD
330
1
100
AcDbSymbolTableRecord
100
AcDbBlockTableRecord
  2
*D81
340
0
 70
     0
280
     1
281
     0
  0
BLOCK_RECORD
  5
730C
330
1
100
AcDbSymbolTableRecord
100
AcDbBlockTableRecord
  2
*D82
340
0
 70
     0
280
     1
281
     0
  0
BLOCK_RECORD
  5
732B
330
1
100
AcDbSymbolTableRecord
100
AcDbBlockTableRecord
  2
*D83
340
0
 70
     0
280
     1
281
     0
  0
ENDTAB
  0
ENDSEC
  0
SECTION
  2
BLOCKS
  0
BLOCK
  5
D
330
A
100
AcDbEntity
  8
0
390
1D
100
AcDbBlockBegin
  2
*MODEL_SPACE
 70
     0
 10
0.0
 20
0.0
 30
0.0
  3
*MODEL_SPACE
  1
*MODEL_SPACE
  0
ENDBLK
  5
E
330
A
100
AcDbEntity
  8
0
390
1D
100
AcDbBlockEnd
  0
BLOCK
  5
F
330
B
100
AcDbEntity
 67
     1
  8
0
390
1D
100
AcDbBlockBegin
  2
*PAPER_SPACE
 70
     0
 10
0.0
 20
0.0
 30
0.0
  3
*PAPER_SPACE
  1
*PAPER_SPACE
  0
ENDBLK
  5
10
330
B
100
AcDbEntity
 67
     1
  8
0
390
1D
100
AcDbBlockEnd
  0
BLOCK
  5
2C14
330
4E
100
AcDbEntity
  8
0
390
1D
100
AcDbBlockBegin
  2
_DOT
 70
     0
 10
0.0
 20
0.0
 30
0.0
  3
_DOT
  1
_DOT
  0
POLYLINE
  5
2C16
330
4E
100
AcDbEntity
  8
0
  6
ByBlock
 62
     0
370
    -2
390
1D
100
AcDb2dPolyline
 66
     1
 10
0.0
 20
0.0
 30
0.0
 70
     1
 40
0.5
 41
0.5
  0
VERTEX
  5
2C17
330
2C16
100
AcDbEntity
  8
0
  6
ByBlock
 62
     0
370
    -2
390
1D
100
AcDbVertex
100
AcDb2dVertex
 10
-0.25
 20
0.0
 30
0.0
 42
1.0
  0
VERTEX
  5
2C18
330
2C16
100
AcDbEntity
  8
0
  6
ByBlock
 62
     0
370
    -2
390
1D
100
AcDbVertex
100
AcDb2dVertex
 10
0.25
 20
0.0
 30
0.0
 42
1.0
  0
SEQEND
  5
2C19
330
2C16
100
AcDbEntity
  8
0
390
1D
  0
LINE
  5
2C1A
330
4E
100
AcDbEntity
  8
0
  6
ByBlock
 62
     0
370
    -2
390
1D
100
AcDbLine
 10
-0.5
 20
0.0
 30
0.0
 11
-1.0
 21
0.0
 31
0.0
  0
ENDBLK
  5
2C1B
330
4E
100
AcDbEntity
  8
0
390
1D
100
AcDbBlockEnd
  0
BLOCK
  5
3A6
330
3A5
100
AcDbEntity
  8
0
100
AcDbBlockBegin
  2
名称未設定-1
 70
     0
 10
0.0
 20
0.0
 30
0.0
  3
名称未設定-1
  1
名称未設定-1
  0
INSERT
  5
3A7
330
3A5
100
AcDbEntity
  8
レイヤー 1
100
AcDbBlockReference
  2
block 2
 10
0.0
 20
0.0
 30
0.0
  0
ENDBLK
  5
3CC
330
3A5
100
AcDbEntity
  8
0
100
AcDbBlockEnd
  0
BLOCK
  5
3A9
330
3A8
100
AcDbEntity
  8
0
100
AcDbBlockBegin
  2
block 2
 70
     0
 10
0.0
 20
0.0
 30
0.0
  3
block 2
  1
block 2
  0
INSERT
  5
3AA
330
3A8
100
AcDbEntity
  8
レイヤー 1
100
AcDbBlockReference
  2
block 3
 10
0.0
 20
0.0
 30
0.0
  0
ENDBLK
  5
3CB
330
3A8
100
AcDbEntity
  8
0
100
AcDbBlockEnd
  0
BLOCK
  5
3AC
330
3AB
100
AcDbEntity
  8
0
100
AcDbBlockBegin
  2
block 3
 70
     0
 10
0.0
 20
0.0
 30
0.0
  3
block 3
  1
block 3
  0
INSERT
  5
3AD
330
3AB
100
AcDbEntity
  8
レイヤー 1
100
AcDbBlockReference
  2
block 4
 10
0.0
 20
0.0
 30
0.0
  0
ENDBLK
  5
3CA
330
3AB
100
AcDbEntity
  8
0
100
AcDbBlockEnd
  0
BLOCK
  5
3AF
330
3AE
100
AcDbEntity
  8
0
100
AcDbBlockBegin
  2
block 4
 70
     0
 10
0.0
 20
0.0
 30
0.0
  3
block 4
  1
block 4
  0
POLYLINE
  5
3B0
330
3AE
100
AcDbEntity
  8
レイヤー 1
370
     0
100
AcDb2dPolyline
 66
     1
 10
0.0
 20
0.0
 30
0.0
  0
VERTEX
  5
3B1
330
3B0
100
AcDbEntity
  8
レイヤー 1
370
     0
100
AcDbVertex
100
AcDb2dVertex
 10
83.79545727667795
 20
167.6444858234922
 30
0.0
  0
VERTEX
  5
3B2
330
3B0
100
AcDbEntity
  8
レイヤー 1
370
     0
100
AcDbVertex
100
AcDb2dVertex
 10
83.79545727667795
 20
159.7968976406313
 30
0.0
  0
VERTEX
  5
3B3
330
3B0
100
AcDbEntity
  8
レイヤー 1
370
     0
100
AcDbVertex
100
AcDb2dVertex
 10
71.3631329975216
 20
159.7968976406313
 30
0.0
  0
VERTEX
  5
3B4
330
3B0
100
AcDbEntity
  8
レイヤー 1
370
     0
100
AcDbVertex
100
AcDb2dVertex
 10
71.3631329975216
 20
127.8027915271048
 30
0.0
  0
VERTEX
  5
3B5
330
3B0
100
AcDbEntity
  8
レイヤー 1
370
     0
100
AcDbVertex
100
AcDb2dVertex
 10
60.43011526263018
 20
127.8027915271048
 30
0.0
  0
VERTEX
  5
3B6
330
3B0
100
AcDbEntity
  8
レイヤー 1
370
     0
100
AcDbVertex
100
AcDb2dVertex
 10
60.43011526263018
 20
159.7968976406313
 30
0.0
  0
VERTEX
  5
3B7
330
3B0
100
AcDbEntity
  8
レイヤー 1
370
     0
100
AcDbVertex
100
AcDb2dVertex
 10
48.21793273020759
 20
159.7968976406313
 30
0.0
  0
VERTEX
  5
3B8
330
3B0
100
AcDbEntity
  8
レイヤー 1
370
     0
100
AcDbVertex
100
AcDb2dVertex
 10
48.21793273020759
 20
167.6444858234922
 30
0.0
  0
VERTEX
  5
3B9
330
3B0
100
AcDbEntity
  8
レイヤー 1
370
     0
100
AcDbVertex
100
AcDb2dVertex
 10
83.79545727667795
 20
167.6444858234922
 30
0.0
  0
SEQEND
  5
3BA
330
3B0
100
AcDbEntity
  8
レイヤー 1
370
     0
  0
HATCH
  5
3BB
330
3AE
100
AcDbEntity
  8
レイヤー 1
 62
   250
420
  2234388
100
AcDbHatch
 10
0.0
 20
0.0
 30
0.0
210
0.0
220
0.0
230
1.0
  2
SOLID
 70
     1
 71
     0
 91
        1
 92
        1
 93
        8
 72
     1
 10
83.79545727667795
 20
167.6444858234922
 11
83.79545727667795
 21
159.7968976406313
 72
     1
 10
83.79545727667795
 20
159.7968976406313
 11
71.3631329975216
 21
159.7968976406313
 72
     1
 10
71.3631329975216
 20
159.7968976406313
 11
71.3631329975216
 21
127.8027915271048
 72
     1
 10
71.3631329975216
 20
127.8027915271048
 11
60.43011526263018
 21
127.8027915271048
 72
     1
 10
60.43011526263018
 20
127.8027915271048
 11
60.43011526263018
 21
159.7968976406313
 72
     1
 10
60.43011526263018
 20
159.7968976406313
 11
48.21793273020759
 21
159.7968976406313
 72
     1
 10
48.21793273020759
 20
159.7968976406313
 11
48.21793273020759
 21
167.6444858234922
 72
     1
 10
48.21793273020759
 20
167.6444858234922
 11
83.79545727667795
 21
167.6444858234922
 97
        0
 75
     2
 76
     1
 98
        0
  0
INSERT
  5
3BC
330
3AE
100
AcDbEntity
  8
レイヤー 1
100
AcDbBlockReference
  2
block 5
 10
0.0
 20
0.0
 30
0.0
  0
ENDBLK
  5
3C9
330
3AE
100
AcDbEntity
  8
0
100
AcDbBlockEnd
  0
BLOCK
  5
3BE
330
3BD
100
AcDbEntity
  8
0
100
AcDbBlockBegin
  2
block 5
 70
     0
 10
0.0
 20
0.0
 30
0.0
  3
block 5
  1
block 5
  0
SPLINE
  5
3BF
330
3BD
100
AcDbEntity
  8
レイヤー 1
370
     0
100
AcDbSpline
210
0.0
220
0.0
230
1.0
 70
    11
 71
     3
 72
    56
 73
    52
 74
     0
 42
0.000000001
 43
0.0000000001
 40
0.0
 40
0.0
 40
0.0
 40
0.0
 40
1.0
 40
1.0
 40
1.0
 40
2.0
 40
2.0
 40
2.0
 40
3.0
 40
3.0
 40
3.0
 40
4.0
 40
4.0
 40
4.0
 40
5.0
 40
5.0
 40
5.0
 40
6.0
 40
6.0
 40
6.0
 40
7.0
 40
7.0
 40
7.0
 40
8.0
 40
8.0
 40
8.0
 40
9.0
 40
9.0
 40
9.0
 40
10.0
 40
10.0
 40
10.0
 40
11.0
 40
11.0
 40
11.0
 40
12.0
 40
12.0
 40
12.0
 40
13.0
 40
13.0
 40
13.0
 40
14.0
 40
14.0
 40
14.0
 40
15.0
 40
15.0
 40
15.0
 40
16.0
 40
16.0
 40
16.0
 40
17.0
 40
17.0
 40
17.0
 40
17.0
 10
100.4504378777679
 20
166.69157178364
 30
0.0
 10
101.9848844191641
 20
167.1313385124438
 30
0.0
 10
103.9637485713373
 20
166.7649523658846
 30
0.0
 10
103.9637485713373
 20
166.7649523658846
 30
0.0
 10
103.9637485713373
 20
166.7649523658846
 30
0.0
 10
103.0132460999156
 20
163.911205638077
 30
0.0
 10
103.0132460999156
 20
163.911205638077
 30
0.0
 10
103.0132460999156
 20
163.911205638077
 30
0.0
 10
101.0674548862189
 20
164.3601018759394
 30
0.0
 10
99.57090442016032
 20
163.1805004036133
 30
0.0
 10
98.40508333886608
 20
162.258247733807
 30
0.0
 10
97.65301849830304
 20
159.804132345923
 30
0.0
 10
97.3598406791005
 20
158.8699940888517
 30
0.0
 10
97.3598406791005
 20
158.8699940888517
 30
0.0
 10
96.07137411762282
 20
154.9119212747295
 30
0.0
 10
96.07137411762282
 20
154.9119212747295
 30
0.0
 10
96.07137411762282
 20
154.9119212747295
 30
0.0
 10
100.3012651448482
 20
154.9119212747295
 30
0.0
 10
100.3012651448482
 20
154.9119212747295
 30
0.0
 10
100.3012651448482
 20
154.9119212747295
 30
0.0
 10
99.64152892419852
 20
152.4199098115079
 30
0.0
 10
99.64152892419852
 20
152.4199098115079
 30
0.0
 10
99.64152892419852
 20
152.4199098115079
 30
0.0
 10
95.38097652692731
 20
152.4199098115079
 30
0.0
 10
95.38097652692731
 20
152.4199098115079
 30
0.0
 10
95.38097652692731
 20
152.4199098115079
 30
0.0
 10
87.75353009080013
 20
127.8027915271048
 30
0.0
 10
87.75353009080013
 20
127.8027915271048
 30
0.0
 10
87.75353009080013
 20
127.8027915271048
 30
0.0
 10
85.36538832498108
 20
127.8027915271048
 30
0.0
 10
85.36538832498108
 20
127.8027915271048
 30
0.0
 10
85.36538832498108
 20
127.8027915271048
 30
0.0
 10
93.00006946639998
 20
152.4199098115079
 30
0.0
 10
93.00006946639998
 20
152.4199098115079
 30
0.0
 10
93.00006946639998
 20
152.4199098115079
 30
0.0
 10
89.85297266450198
 20
152.4199098115079
 30
0.0
 10
89.85297266450198
 20
152.4199098115079
 30
0.0
 10
89.85297266450198
 20
152.4199098115079
 30
0.0
 10
90.51270888515164
 20
154.9119212747295
 30
0.0
 10
90.51270888515164
 20
154.9119212747295
 30
0.0
 10
90.51270888515164
 20
154.9119212747295
 30
0.0
 10
93.6904670570955
 20
154.9119212747295
 30
0.0
 10
93.6904670570955
 20
154.9119212747295
 30
0.0
 10
93.6904670570955
 20
154.9119212747295
 30
0.0
 10
94.81598049462158
 20
158.3616699146644
 30
0.0
 10
94.81598049462158
 20
158.3616699146644
 30
0.0
 10
95.7237637538445
 20
161.2605474231013
 30
0.0
 10
96.4968436907311
 20
162.8139420021662
 30
0.0
 10
97.15657991138076
 20
163.9844139654337
 30
0.0
 10
97.81183750494507
 20
165.1523021053827
 30
0.0
 10
99.1047826935081
 20
166.3084769129547
 30
0.0
 10
100.4504378777679
 20
166.69157178364
 30
0.0
  0
HATCH
  5
3C0
330
3BD
100
AcDbEntity
  8
レイヤー 1
 62
   250
420
  2234388
100
AcDbHatch
 10
0.0
 20
0.0
 30
0.0
210
0.0
220
0.0
230
1.0
  2
SOLID
 70
     1
 71
     0
 91
        1
 92
        1
 93
        1
 72
     4
 94
        3
 73
     0
 74
     1
 95
       56
 96
       52
 40
0.0
 40
0.0
 40
0.0
 40
0.0
 40
1.0
 40
1.0
 40
1.0
 40
2.0
 40
2.0
 40
2.0
 40
3.0
 40
3.0
 40
3.0
 40
4.0
 40
4.0
 40
4.0
 40
5.0
 40
5.0
 40
5.0
 40
6.0
 40
6.0
 40
6.0
 40
7.0
 40
7.0
 40
7.0
 40
8.0
 40
8.0
 40
8.0
 40
9.0
 40
9.0
 40
9.0
 40
10.0
 40
10.0
 40
10.0
 40
11.0
 40
11.0
 40
11.0
 40
12.0
 40
12.0
 40
12.0
 40
13.0
 40
13.0
 40
13.0
 40
14.0
 40
14.0
 40
14.0
 40
15.0
 40
15.0
 40
15.0
 40
16.0
 40
16.0
 40
16.0
 40
17.0
 40
17.0
 40
17.0
 40
17.0
 10
100.4504378777679
 20
166.69157178364
 10
101.9848844191641
 20
167.1313385124438
 10
103.9637485713373
 20
166.7649523658846
 10
103.9637485713373
 20
166.7649523658846
 10
103.9637485713373
 20
166.7649523658846
 10
103.0132460999156
 20
163.911205638077
 10
103.0132460999156
 20
163.911205638077
 10
103.0132460999156
 20
163.911205638077
 10
101.0674548862189
 20
164.3601018759394
 10
99.57090442016032
 20
163.1805004036133
 10
98.40508333886608
 20
162.258247733807
 10
97.65301849830304
 20
159.804132345923
 10
97.3598406791005
 20
158.8699940888517
 10
97.3598406791005
 20
158.8699940888517
 10
96.07137411762282
 20
154.9119212747295
 10
96.07137411762282
 20
154.9119212747295
 10
96.07137411762282
 20
154.9119212747295
 10
100.3012651448482
 20
154.9119212747295
 10
100.3012651448482
 20
154.9119212747295
 10
100.3012651448482
 20
154.9119212747295
 10
99.64152892419852
 20
152.4199098115079
 10
99.64152892419852
 20
152.4199098115079
 10
99.64152892419852
 20
152.4199098115079
 10
95.38097652692731
 20
152.4199098115079
 10
95.38097652692731
 20
152.4199098115079
 10
95.38097652692731
 20
152.4199098115079
 10
87.75353009080013
 20
127.8027915271048
 10
87.75353009080013
 20
127.8027915271048
 10
87.75353009080013
 20
127.8027915271048
 10
85.36538832498108
 20
127.8027915271048
 10
85.36538832498108
 20
127.8027915271048
 10
85.36538832498108
 20
127.8027915271048
 10
93.00006946639998
 20
152.4199098115079
 10
93.00006946639998
 20
152.4199098115079
 10
93.00006946639998
 20
152.4199098115079
 10
89.85297266450198
 20
152.4199098115079
 10
89.85297266450198
 20
152.4199098115079
 10
89.85297266450198
 20
152.4199098115079
 10
90.51270888515164
 20
154.9119212747295
 10
90.51270888515164
 20
154.9119212747295
 10
90.51270888515164
 20
154.9119212747295
 10
93.6904670570955
 20
154.9119212747295
 10
93.6904670570955
 20
154.9119212747295
 10
93.6904670570955
 20
154.9119212747295
 10
94.81598049462158
 20
158.3616699146644
 10
94.81598049462158
 20
158.3616699146644
 10
95.7237637538445
 20
161.2605474231013
 10
96.4968436907311
 20
162.8139420021662
 10
97.15657991138076
 20
163.9844139654337
 10
97.81183750494507
 20
165.1523021053827
 10
99.1047826935081
 20
166.3084769129547
 10
100.4504378777679
 20
166.69157178364
 97
        0
 75
     2
 76
     1
 98
        0
  0
SPLINE
  5
3C1
330
3BD
100
AcDbEntity
  8
レイヤー 1
370
     0
100
AcDbSpline
210
0.0
220
0.0
230
1.0
 70
    11
 71
     3
 72
    38
 73
    34
 74
     0
 42
0.000000001
 43
0.0000000001
 40
0.0
 40
0.0
 40
0.0
 40
0.0
 40
1.0
 40
1.0
 40
1.0
 40
2.0
 40
2.0
 40
2.0
 40
3.0
 40
3.0
 40
3.0
 40
4.0
 40
4.0
 40
4.0
 40
5.0
 40
5.0
 40
5.0
 40
6.0
 40
6.0
 40
6.0
 40
7.0
 40
7.0
 40
7.0
 40
8.0
 40
8.0
 40
8.0
 40
9.0
 40
9.0
 40
9.0
 40
10.0
 40
10.0
 40
10.0
 40
11.0
 40
11.0
 40
11.0
 40
11.0
 10
126.377554584636
 20
154.8151140277308
 30
0.0
 10
126.377554584636
 20
154.8151140277308
 30
0.0
 10
128.8311532078563
 20
154.8151140277308
 30
0.0
 10
128.8311532078563
 20
154.8151140277308
 30
0.0
 10
128.8311532078563
 20
154.8151140277308
 30
0.0
 10
127.7345785914971
 20
151.3062819612468
 30
0.0
 10
127.7345785914971
 20
151.3062819612468
 30
0.0
 10
128.571392836906
 20
152.2922689395754
 30
0.0
 10
129.8860421413442
 20
153.604506675583
 30
0.0
 10
131.0163787157314
 20
154.2664822097754
 30
0.0
 10
132.7044766171327
 20
155.2500576196734
 30
0.0
 10
133.6642808525008
 20
155.3847609420097
 30
0.0
 10
134.7284715499351
 20
155.3565111403944
 30
0.0
 10
134.7284715499351
 20
155.3565111403944
 30
0.0
 10
133.6877075172549
 20
152.0345756272799
 30
0.0
 10
133.6877075172549
 20
152.0345756272799
 30
0.0
 10
133.011434827367
 20
152.3184516825359
 30
0.0
 10
130.930940291334
 20
151.7768823149844
 30
0.0
 10
129.739280976855
 20
150.9162968950455
 30
0.0
 10
128.66613302525
 20
150.1454562717016
 30
0.0
 10
127.9192358313239
 20
149.4857200510519
 30
0.0
 10
127.0393578639405
 20
147.8282835196966
 30
0.0
 10
126.164647543194
 20
146.1699857139017
 30
0.0
 10
125.4742499524985
 20
143.5262176944419
 30
0.0
 10
124.2822461282437
 20
139.6959580071401
 30
0.0
 10
124.2822461282437
 20
139.6959580071401
 30
0.0
 10
120.5753209406769
 20
127.8027915271048
 30
0.0
 10
120.5753209406769
 20
127.8027915271048
 30
0.0
 10
120.5753209406769
 20
127.8027915271048
 30
0.0
 10
118.1964809388044
 20
127.8027915271048
 30
0.0
 10
118.1964809388044
 20
127.8027915271048
 30
0.0
 10
118.1964809388044
 20
127.8027915271048
 30
0.0
 10
126.377554584636
 20
154.8151140277308
 30
0.0
 10
126.377554584636
 20
154.8151140277308
 30
0.0
  0
HATCH
  5
3C2
330
3BD
100
AcDbEntity
  8
レイヤー 1
 62
   250
420
  2234388
100
AcDbHatch
 10
0.0
 20
0.0
 30
0.0
210
0.0
220
0.0
230
1.0
  2
SOLID
 70
     1
 71
     0
 91
        1
 92
        1
 93
        1
 72
     4
 94
        3
 73
     0
 74
     1
 95
       38
 96
       34
 40
0.0
 40
0.0
 40
0.0
 40
0.0
 40
1.0
 40
1.0
 40
1.0
 40
2.0
 40
2.0
 40
2.0
 40
3.0
 40
3.0
 40
3.0
 40
4.0
 40
4.0
 40
4.0
 40
5.0
 40
5.0
 40
5.0
 40
6.0
 40
6.0
 40
6.0
 40
7.0
 40
7.0
 40
7.0
 40
8.0
 40
8.0
 40
8.0
 40
9.0
 40
9.0
 40
9.0
 40
10.0
 40
10.0
 40
10.0
 40
11.0
 40
11.0
 40
11.0
 40
11.0
 10
126.377554584636
 20
154.8151140277308
 10
126.377554584636
 20
154.8151140277308
 10
128.8311532078563
 20
154.8151140277308
 10
128.8311532078563
 20
154.8151140277308
 10
128.8311532078563
 20
154.8151140277308
 10
127.7345785914971
 20
151.3062819612468
 10
127.7345785914971
 20
151.3062819612468
 10
128.571392836906
 20
152.2922689395754
 10
129.8860421413442
 20
153.604506675583
 10
131.0163787157314
 20
154.2664822097754
 10
132.7044766171327
 20
155.2500576196734
 10
133.6642808525008
 20
155.3847609420097
 10
134.7284715499351
 20
155.3565111403944
 10
134.7284715499351
 20
155.3565111403944
 10
133.6877075172549
 20
152.0345756272799
 10
133.6877075172549
 20
152.0345756272799
 10
133.011434827367
 20
152.3184516825359
 10
130.930940291334
 20
151.7768823149844
 10
129.739280976855
 20
150.9162968950455
 10
128.66613302525
 20
150.1454562717016
 10
127.9192358313239
 20
149.4857200510519
 10
127.0393578639405
 20
147.8282835196966
 10
126.164647543194
 20
146.1699857139017
 10
125.4742499524985
 20
143.5262176944419
 10
124.2822461282437
 20
139.6959580071401
 10
124.2822461282437
 20
139.6959580071401
 10
120.5753209406769
 20
127.8027915271048
 10
120.5753209406769
 20
127.8027915271048
 10
120.5753209406769
 20
127.8027915271048
 10
118.1964809388044
 20
127.8027915271048
 10
118.1964809388044
 20
127.8027915271048
 10
118.1964809388044
 20
127.8027915271048
 10
126.377554584636
 20
154.8151140277308
 10
126.377554584636
 20
154.8151140277308
 97
        0
 75
     2
 76
     1
 98
        0
  0
SPLINE
  5
3C3
330
3BD
100
AcDbEntity
  8
レイヤー 1
370
     0
100
AcDbSpline
210
0.0
220
0.0
230
1.0
 70
    11
 71
     3
 72
   104
 73
   100
 74
     0
 42
0.000000001
 43
0.0000000001
 40
0.0
 40
0.0
 40
0.0
 40
0.0
 40
1.0
 40
1.0
 40
1.0
 40
2.0
 40
2.0
 40
2.0
 40
3.0
 40
3.0
 40
3.0
 40
4.0
 40
4.0
 40
4.0
 40
5.0
 40
5.0
 40
5.0
 40
6.0
 40
6.0
 40
6.0
 40
7.0
 40
7.0
 40
7.0
 40
8.0
 40
8.0
 40
8.0
 40
9.0
 40
9.0
 40
9.0
 40
10.0
 40
10.0
 40
10.0
 40
11.0
 40
11.0
 40
11.0
 40
12.0
 40
12.0
 40
12.0
 40
13.0
 40
13.0
 40
13.0
 40
14.0
 40
14.0
 40
14.0
 40
15.0
 40
15.0
 40
15.0
 40
16.0
 40
16.0
 40
16.0
 40
17.0
 40
17.0
 40
17.0
 40
18.0
 40
18.0
 40
18.0
 40
19.0
 40
19.0
 40
19.0
 40
20.0
 40
20.0
 40
20.0
 40
21.0
 40
21.0
 40
21.0
 40
22.0
 40
22.0
 40
22.0
 40
23.0
 40
23.0
 40
23.0
 40
24.0
 40
24.0
 40
24.0
 40
25.0
 40
25.0
 40
25.0
 40
26.0
 40
26.0
 40
26.0
 40
27.0
 40
27.0
 40
27.0
 40
28.0
 40
28.0
 40
28.0
 40
29.0
 40
29.0
 40
29.0
 40
30.0
 40
30.0
 40
30.0
 40
31.0
 40
31.0
 40
31.0
 40
32.0
 40
32.0
 40
32.0
 40
33.0
 40
33.0
 40
33.0
 40
33.0
 10
139.8926730891197
 20
154.8294111834263
 30
0.0
 10
139.8926730891197
 20
154.8294111834263
 30
0.0
 10
142.0344903652445
 20
154.8294111834263
 30
0.0
 10
142.0344903652445
 20
154.8294111834263
 30
0.0
 10
142.0344903652445
 20
154.8294111834263
 30
0.0
 10
140.9516961399171
 20
151.3157559800812
 30
0.0
 10
140.9516961399171
 20
151.3157559800812
 30
0.0
 10
141.8928968473923
 20
152.7887075264977
 30
0.0
 10
142.7341897198865
 20
153.4484437471474
 30
0.0
 10
143.8552245303272
 20
154.2926649527359
 30
0.0
 10
144.9803934580775
 20
155.1296514530327
 30
0.0
 10
146.3139908001845
 20
155.3044901642492
 30
0.0
 10
147.241066606852
 20
155.3044901642492
 30
0.0
 10
148.3855280820469
 20
155.3044901642492
 30
0.0
 10
149.4969166187653
 20
155.0752189084569
 30
0.0
 10
150.0784491203092
 20
153.8172414621372
 30
0.0
 10
150.5228667310863
 20
152.833838307127
 30
0.0
 10
150.5414702589793
 20
152.7201500811143
 30
0.0
 10
150.4140016419347
 20
150.7765981809602
 30
0.0
 10
151.5818897818837
 20
152.7699317437168
 30
0.0
 10
152.4424752018226
 20
153.6256940267945
 30
0.0
 10
153.9038856707499
 20
154.4507949398263
 30
0.0
 10
155.4455669174378
 20
155.3044901642492
 30
0.0
 10
156.339225275853
 20
155.3659851592288
 30
0.0
 10
157.3748216618963
 20
155.2147453676543
 30
0.0
 10
158.911679771723
 20
154.9877134254046
 30
0.0
 10
159.8859534176746
 20
154.4390816074493
 30
0.0
 10
160.3965169054045
 20
152.7816450760939
 30
0.0
 10
160.9070803931344
 20
151.1219692311958
 30
0.0
 10
160.6328506116007
 20
150.2303779314354
 30
0.0
 10
159.9992971339115
 20
147.597634224801
 30
0.0
 10
159.7105979417943
 20
146.4014962832367
 30
0.0
 10
159.2947746424084
 20
144.9400858143094
 30
0.0
 10
158.7463150793409
 20
143.2092687007094
 30
0.0
 10
158.7463150793409
 20
143.2092687007094
 30
0.0
 10
153.9038856707499
 20
127.8027915271048
 30
0.0
 10
153.9038856707499
 20
127.8027915271048
 30
0.0
 10
153.9038856707499
 20
127.8027915271048
 30
0.0
 10
151.3882752878863
 20
127.8027915271048
 30
0.0
 10
151.3882752878863
 20
127.8027915271048
 30
0.0
 10
151.3882752878863
 20
127.8027915271048
 30
0.0
 10
155.6250565106276
 20
141.2751908193897
 30
0.0
 10
155.6250565106276
 20
141.2751908193897
 30
0.0
 10
156.5094131050963
 20
144.0936252951782
 30
0.0
 10
157.109893644309
 20
146.1506931664571
 30
0.0
 10
157.4220195011804
 20
147.4415712963654
 30
0.0
 10
157.8095929989511
 20
149.0530157726519
 30
0.0
 10
157.9656559273867
 20
149.5826995529385
 30
0.0
 10
157.7816877071116
 20
150.7529992613181
 30
0.0
 10
157.6111553680925
 20
151.8430281919372
 30
0.0
 10
157.0582171779396
 20
152.5547853887321
 30
0.0
 10
156.1170164704645
 20
152.5547853887321
 30
0.0
 10
155.1096698860365
 20
152.5547853887321
 30
0.0
 10
154.2962823053817
 20
152.4412694176073
 30
0.0
 10
153.156643967048
 20
151.2945686288697
 30
0.0
 10
152.0170056287143
 20
150.1476955852443
 30
0.0
 10
151.076149431015
 20
148.7930831468137
 30
0.0
 10
150.3337308641742
 20
147.2290087646991
 30
0.0
 10
149.5957909244188
 20
145.6683794803425
 30
0.0
 10
148.8530278478023
 20
143.6822806228776
 30
0.0
 10
148.0964843801539
 20
141.2751908193897
 30
0.0
 10
148.0964843801539
 20
141.2751908193897
 30
0.0
 10
143.8552245303272
 20
127.8027915271048
 30
0.0
 10
143.8552245303272
 20
127.8027915271048
 30
0.0
 10
143.8552245303272
 20
127.8027915271048
 30
0.0
 10
141.486030802177
 20
127.8027915271048
 30
0.0
 10
141.486030802177
 20
127.8027915271048
 30
0.0
 10
141.486030802177
 20
127.8027915271048
 30
0.0
 10
146.3329388378533
 20
143.2092687007094
 30
0.0
 10
146.3329388378533
 20
143.2092687007094
 30
0.0
 10
146.8483254624444
 20
144.8408669988801
 30
0.0
 10
147.2314203331297
 20
146.1837661049335
 30
0.0
 10
147.4867020769946
 20
147.224185627838
 30
0.0
 10
147.9169947869641
 20
149.0197705792876
 30
0.0
 10
148.0306830129768
 20
150.2400242051577
 30
0.0
 10
147.709255392159
 20
151.3157559800812
 30
0.0
 10
147.3874832615654
 20
152.3916600098926
 30
0.0
 10
146.8245542879144
 20
152.6683013598569
 30
0.0
 10
145.8840425999909
 20
152.6683013598569
 30
0.0
 10
145.0989048209514
 20
152.6683013598569
 30
0.0
 10
144.3282364524954
 20
152.3275811915945
 30
0.0
 10
143.4531816219731
 20
151.6538923250251
 30
0.0
 10
142.34627171234
 20
150.8074318058939
 30
0.0
 10
141.901854101563
 20
150.1097995099067
 30
0.0
 10
141.3578731655808
 20
149.289521733736
 30
0.0
 10
140.6299240093235
 20
148.192602607601
 30
0.0
 10
140.2850697237515
 20
147.455696197173
 30
0.0
 10
139.6652966370942
 20
145.8385673095858
 30
0.0
 10
139.0506911970739
 20
144.2214384219986
 30
0.0
 10
138.463991048893
 20
142.3252566160164
 30
0.0
 10
138.0571250036777
 20
141.0154304484394
 30
0.0
 10
138.0571250036777
 20
141.0154304484394
 30
0.0
 10
133.9009590684727
 20
127.8027915271048
 30
0.0
 10
133.9009590684727
 20
127.8027915271048
 30
0.0
 10
133.9009590684727
 20
127.8027915271048
 30
0.0
 10
131.4180771143097
 20
127.8027915271048
 30
0.0
 10
131.4180771143097
 20
127.8027915271048
 30
0.0
 10
131.4180771143097
 20
127.8027915271048
 30
0.0
 10
139.8926730891197
 20
154.8294111834263
 30
0.0
 10
139.8926730891197
 20
154.8294111834263
 30
0.0
  0
HATCH
  5
3C4
330
3BD
100
AcDbEntity
  8
レイヤー 1
 62
   250
420
  2234388
100
AcDbHatch
 10
0.0
 20
0.0
 30
0.0
210
0.0
220
0.0
230
1.0
  2
SOLID
 70
     1
 71
     0
 91
        1
 92
        1
 93
        1
 72
     4
 94
        3
 73
     0
 74
     1
 95
      104
 96
      100
 40
0.0
 40
0.0
 40
0.0
 40
0.0
 40
1.0
 40
1.0
 40
1.0
 40
2.0
 40
2.0
 40
2.0
 40
3.0
 40
3.0
 40
3.0
 40
4.0
 40
4.0
 40
4.0
 40
5.0
 40
5.0
 40
5.0
 40
6.0
 40
6.0
 40
6.0
 40
7.0
 40
7.0
 40
7.0
 40
8.0
 40
8.0
 40
8.0
 40
9.0
 40
9.0
 40
9.0
 40
10.0
 40
10.0
 40
10.0
 40
11.0
 40
11.0
 40
11.0
 40
12.0
 40
12.0
 40
12.0
 40
13.0
 40
13.0
 40
13.0
 40
14.0
 40
14.0
 40
14.0
 40
15.0
 40
15.0
 40
15.0
 40
16.0
 40
16.0
 40
16.0
 40
17.0
 40
17.0
 40
17.0
 40
18.0
 40
18.0
 40
18.0
 40
19.0
 40
19.0
 40
19.0
 40
20.0
 40
20.0
 40
20.0
 40
21.0
 40
21.0
 40
21.0
 40
22.0
 40
22.0
 40
22.0
 40
23.0
 40
23.0
 40
23.0
 40
24.0
 40
24.0
 40
24.0
 40
25.0
 40
25.0
 40
25.0
 40
26.0
 40
26.0
 40
26.0
 40
27.0
 40
27.0
 40
27.0
 40
28.0
 40
28.0
 40
28.0
 40
29.0
 40
29.0
 40
29.0
 40
30.0
 40
30.0
 40
30.0
 40
31.0
 40
31.0
 40
31.0
 40
32.0
 40
32.0
 40
32.0
 40
33.0
 40
33.0
 40
33.0
 40
33.0
 10
139.8926730891197
 20
154.8294111834263
 10
139.8926730891197
 20
154.8294111834263
 10
142.0344903652445
 20
154.8294111834263
 10
142.0344903652445
 20
154.8294111834263
 10
142.0344903652445
 20
154.8294111834263
 10
140.9516961399171
 20
151.3157559800812
 10
140.9516961399171
 20
151.3157559800812
 10
141.8928968473923
 20
152.7887075264977
 10
142.7341897198865
 20
153.4484437471474
 10
143.8552245303272
 20
154.2926649527359
 10
144.9803934580775
 20
155.1296514530327
 10
146.3139908001845
 20
155.3044901642492
 10
147.241066606852
 20
155.3044901642492
 10
148.3855280820469
 20
155.3044901642492
 10
149.4969166187653
 20
155.0752189084569
 10
150.0784491203092
 20
153.8172414621372
 10
150.5228667310863
 20
152.833838307127
 10
150.5414702589793
 20
152.7201500811143
 10
150.4140016419347
 20
150.7765981809602
 10
151.5818897818837
 20
152.7699317437168
 10
152.4424752018226
 20
153.6256940267945
 10
153.9038856707499
 20
154.4507949398263
 10
155.4455669174378
 20
155.3044901642492
 10
156.339225275853
 20
155.3659851592288
 10
157.3748216618963
 20
155.2147453676543
 10
158.911679771723
 20
154.9877134254046
 10
159.8859534176746
 20
154.4390816074493
 10
160.3965169054045
 20
152.7816450760939
 10
160.9070803931344
 20
151.1219692311958
 10
160.6328506116007
 20
150.2303779314354
 10
159.9992971339115
 20
147.597634224801
 10
159.7105979417943
 20
146.4014962832367
 10
159.2947746424084
 20
144.9400858143094
 10
158.7463150793409
 20
143.2092687007094
 10
158.7463150793409
 20
143.2092687007094
 10
153.9038856707499
 20
127.8027915271048
 10
153.9038856707499
 20
127.8027915271048
 10
153.9038856707499
 20
127.8027915271048
 10
151.3882752878863
 20
127.8027915271048
 10
151.3882752878863
 20
127.8027915271048
 10
151.3882752878863
 20
127.8027915271048
 10
155.6250565106276
 20
141.2751908193897
 10
155.6250565106276
 20
141.2751908193897
 10
156.5094131050963
 20
144.0936252951782
 10
157.109893644309
 20
146.1506931664571
 10
157.4220195011804
 20
147.4415712963654
 10
157.8095929989511
 20
149.0530157726519
 10
157.9656559273867
 20
149.5826995529385
 10
157.7816877071116
 20
150.7529992613181
 10
157.6111553680925
 20
151.8430281919372
 10
157.0582171779396
 20
152.5547853887321
 10
156.1170164704645
 20
152.5547853887321
 10
155.1096698860365
 20
152.5547853887321
 10
154.2962823053817
 20
152.4412694176073
 10
153.156643967048
 20
151.2945686288697
 10
152.0170056287143
 20
150.1476955852443
 10
151.076149431015
 20
148.7930831468137
 10
150.3337308641742
 20
147.2290087646991
 10
149.5957909244188
 20
145.6683794803425
 10
148.8530278478023
 20
143.6822806228776
 10
148.0964843801539
 20
141.2751908193897
 10
148.0964843801539
 20
141.2751908193897
 10
143.8552245303272
 20
127.8027915271048
 10
143.8552245303272
 20
127.8027915271048
 10
143.8552245303272
 20
127.8027915271048
 10
141.486030802177
 20
127.8027915271048
 10
141.486030802177
 20
127.8027915271048
 10
141.486030802177
 20
127.8027915271048
 10
146.3329388378533
 20
143.2092687007094
 10
146.3329388378533
 20
143.2092687007094
 10
146.8483254624444
 20
144.8408669988801
 10
147.2314203331297
 20
146.1837661049335
 10
147.4867020769946
 20
147.224185627838
 10
147.9169947869641
 20
149.0197705792876
 10
148.0306830129768
 20
150.2400242051577
 10
147.709255392159
 20
151.3157559800812
 10
147.3874832615654
 20
152.3916600098926
 10
146.8245542879144
 20
152.6683013598569
 10
145.8840425999909
 20
152.6683013598569
 10
145.0989048209514
 20
152.6683013598569
 10
144.3282364524954
 20
152.3275811915945
 10
143.4531816219731
 20
151.6538923250251
 10
142.34627171234
 20
150.8074318058939
 10
141.901854101563
 20
150.1097995099067
 10
141.3578731655808
 20
149.289521733736
 10
140.6299240093235
 20
148.192602607601
 10
140.2850697237515
 20
147.455696197173
 10
139.6652966370942
 20
145.8385673095858
 10
139.0506911970739
 20
144.2214384219986
 10
138.463991048893
 20
142.3252566160164
 10
138.0571250036777
 20
141.0154304484394
 10
138.0571250036777
 20
141.0154304484394
 10
133.9009590684727
 20
127.8027915271048
 10
133.9009590684727
 20
127.8027915271048
 10
133.9009590684727
 20
127.8027915271048
 10
131.4180771143097
 20
127.8027915271048
 10
131.4180771143097
 20
127.8027915271048
 10
131.4180771143097
 20
127.8027915271048
 10
139.8926730891197
 20
154.8294111834263
 10
139.8926730891197
 20
154.8294111834263
 97
        0
 75
     2
 76
     1
 98
        0
  0
SPLINE
  5
3C5
330
3BD
100
AcDbEntity
  8
レイヤー 1
370
     0
100
AcDbSpline
210
0.0
220
0.0
230
1.0
 70
    11
 71
     3
 72
    29
 73
    25
 74
     0
 42
0.000000001
 43
0.0000000001
 40
0.0
 40
0.0
 40
0.0
 40
0.0
 40
1.0
 40
1.0
 40
1.0
 40
2.0
 40
2.0
 40
2.0
 40
3.0
 40
3.0
 40
3.0
 40
4.0
 40
4.0
 40
4.0
 40
5.0
 40
5.0
 40
5.0
 40
6.0
 40
6.0
 40
6.0
 40
7.0
 40
7.0
 40
7.0
 40
8.0
 40
8.0
 40
8.0
 40
8.0
 10
101.6420971922469
 20
132.8388354296931
 30
0.0
 10
101.630039350094
 20
134.7164137077823
 30
0.0
 10
102.2236296937908
 20
138.0598810818841
 30
0.0
 10
103.7487744712405
 20
142.5378191476827
 30
0.0
 10
105.819967243327
 20
148.5896501242061
 30
0.0
 10
107.0602024361932
 20
150.8074318058939
 30
0.0
 10
108.1522984254671
 20
151.8833358357054
 30
0.0
 10
109.741177511439
 20
153.4532668840085
 30
0.0
 10
111.8740375333931
 20
153.5290590346837
 30
0.0
 10
112.5075910110823
 20
153.4532668840085
 30
0.0
 10
113.4012493694975
 20
153.3490526768302
 30
0.0
 10
114.6683563248758
 20
152.7580461564518
 30
0.0
 10
114.7493161221879
 20
150.7838328862519
 30
0.0
 10
114.8106388622796
 20
149.0909118479895
 30
0.0
 10
114.3186789024427
 20
145.9191825971221
 30
0.0
 10
112.6164561002338
 20
140.9489400617108
 30
0.0
 10
110.6444821435766
 20
135.1746117095912
 30
0.0
 10
109.4669477299053
 20
132.8960240524753
 30
0.0
 10
108.5212683953448
 20
131.9072809959403
 30
0.0
 10
106.7346406980658
 20
130.0538184021569
 30
0.0
 10
104.8222669326213
 20
130.2336525051225
 30
0.0
 10
104.5408024457958
 20
130.2336525051225
 30
0.0
 10
104.1721769856939
 20
130.2336525051225
 30
0.0
 10
101.6465758193322
 20
130.6305277668397
 30
0.0
 10
101.6420971922469
 20
132.8388354296931
 30
0.0
  0
SPLINE
  5
3C6
330
3BD
100
AcDbEntity
  8
レイヤー 1
370
     0
100
AcDbSpline
210
0.0
220
0.0
230
1.0
 70
    11
 71
     3
 72
    32
 73
    28
 74
     0
 42
0.000000001
 43
0.0000000001
 40
0.0
 40
0.0
 40
0.0
 40
0.0
 40
1.0
 40
1.0
 40
1.0
 40
2.0
 40
2.0
 40
2.0
 40
3.0
 40
3.0
 40
3.0
 40
4.0
 40
4.0
 40
4.0
 40
5.0
 40
5.0
 40
5.0
 40
6.0
 40
6.0
 40
6.0
 40
7.0
 40
7.0
 40
7.0
 40
8.0
 40
8.0
 40
8.0
 40
9.0
 40
9.0
 40
9.0
 40
9.0
 10
106.2595617172429
 20
153.4105476718098
 30
0.0
 10
104.8222669326213
 20
151.5474388043041
 30
0.0
 10
103.7177685914188
 20
149.8758773721411
 30
0.0
 10
101.9232171692965
 20
144.6141795664062
 30
0.0
 10
100.2754269116635
 20
139.7999999594306
 30
0.0
 10
99.22777268346732
 20
136.3052927937542
 30
0.0
 10
99.06964269637689
 20
132.039572749846
 30
0.0
 10
98.94665270641765
 20
128.8673267343149
 30
0.0
 10
100.8807305877373
 20
127.8027915271048
 30
0.0
 10
103.7129454545577
 20
127.8027915271048
 30
0.0
 10
104.9352661390825
 20
127.8027915271048
 30
0.0
 10
108.0151835347002
 20
127.8827177950895
 30
0.0
 10
110.2045431598849
 20
130.5926316915021
 30
0.0
 10
111.7417457794874
 20
132.4984597712065
 30
0.0
 10
113.155269389579
 20
134.475256864725
 30
0.0
 10
115.0562743324223
 20
140.9489400617108
 30
0.0
 10
116.6361961642235
 20
146.3680788349845
 30
0.0
 10
117.7282921534974
 20
149.8639917848761
 30
0.0
 10
117.6480213757369
 20
151.8595646611754
 30
0.0
 10
117.6480213757369
 20
151.8595646611754
 30
0.0
 10
117.6480213757369
 20
151.8595646611754
 30
0.0
 10
117.6480213757369
 20
151.8595646611754
 30
0.0
 10
117.13229024137
 20
155.18150017429
 30
0.0
 10
114.7162431837115
 20
155.886194920681
 30
0.0
 10
113.3351034925446
 20
155.886194920681
 30
0.0
 10
111.9829026225447
 20
155.886194920681
 30
0.0
 10
108.3414342923792
 20
156.1251124501957
 30
0.0
 10
106.2595617172429
 20
153.4105476718098
 30
0.0
  0
HATCH
  5
3C7
330
3BD
100
AcDbEntity
  8
レイヤー 1
 62
   250
420
  2234388
100
AcDbHatch
 10
0.0
 20
0.0
 30
0.0
210
0.0
220
0.0
230
1.0
  2
SOLID
 70
     1
 71
     0
 91
        2
 92
        1
 93
        1
 72
     4
 94
        3
 73
     0
 74
     1
 95
       29
 96
       25
 40
0.0
 40
0.0
 40
0.0
 40
0.0
 40
1.0
 40
1.0
 40
1.0
 40
2.0
 40
2.0
 40
2.0
 40
3.0
 40
3.0
 40
3.0
 40
4.0
 40
4.0
 40
4.0
 40
5.0
 40
5.0
 40
5.0
 40
6.0
 40
6.0
 40
6.0
 40
7.0
 40
7.0
 40
7.0
 40
8.0
 40
8.0
 40
8.0
 40
8.0
 10
101.6420971922469
 20
132.8388354296931
 10
101.630039350094
 20
134.7164137077823
 10
102.2236296937908
 20
138.0598810818841
 10
103.7487744712405
 20
142.5378191476827
 10
105.819967243327
 20
148.5896501242061
 10
107.0602024361932
 20
150.8074318058939
 10
108.1522984254671
 20
151.8833358357054
 10
109.741177511439
 20
153.4532668840085
 10
111.8740375333931
 20
153.5290590346837
 10
112.5075910110823
 20
153.4532668840085
 10
113.4012493694975
 20
153.3490526768302
 10
114.6683563248758
 20
152.7580461564518
 10
114.7493161221879
 20
150.7838328862519
 10
114.8106388622796
 20
149.0909118479895
 10
114.3186789024427
 20
145.9191825971221
 10
112.6164561002338
 20
140.9489400617108
 10
110.6444821435766
 20
135.1746117095912
 10
109.4669477299053
 20
132.8960240524753
 10
108.5212683953448
 20
131.9072809959403
 10
106.7346406980658
 20
130.0538184021569
 10
104.8222669326213
 20
130.2336525051225
 10
104.5408024457958
 20
130.2336525051225
 10
104.1721769856939
 20
130.2336525051225
 10
101.6465758193322
 20
130.6305277668397
 10
101.6420971922469
 20
132.8388354296931
 97
        0
 92
        1
 93
        1
 72
     4
 94
        3
 73
     0
 74
     1
 95
       32
 96
       28
 40
0.0
 40
0.0
 40
0.0
 40
0.0
 40
1.0
 40
1.0
 40
1.0
 40
2.0
 40
2.0
 40
2.0
 40
3.0
 40
3.0
 40
3.0
 40
4.0
 40
4.0
 40
4.0
 40
5.0
 40
5.0
 40
5.0
 40
6.0
 40
6.0
 40
6.0
 40
7.0
 40
7.0
 40
7.0
 40
8.0
 40
8.0
 40
8.0
 40
9.0
 40
9.0
 40
9.0
 40
9.0
 10
106.2595617172429
 20
153.4105476718098
 10
104.8222669326213
 20
151.5474388043041
 10
103.7177685914188
 20
149.8758773721411
 10
101.9232171692965
 20
144.6141795664062
 10
100.2754269116635
 20
139.7999999594306
 10
99.22777268346732
 20
136.3052927937542
 10
99.06964269637689
 20
132.039572749846
 10
98.94665270641765
 20
128.8673267343149
 10
100.8807305877373
 20
127.8027915271048
 10
103.7129454545577
 20
127.8027915271048
 10
104.9352661390825
 20
127.8027915271048
 10
108.0151835347002
 20
127.8827177950895
 10
110.2045431598849
 20
130.5926316915021
 10
111.7417457794874
 20
132.4984597712065
 10
113.155269389579
 20
134.475256864725
 10
115.0562743324223
 20
140.9489400617108
 10
116.6361961642235
 20
146.3680788349845
 10
117.7282921534974
 20
149.8639917848761
 10
117.6480213757369
 20
151.8595646611754
 10
117.6480213757369
 20
151.8595646611754
 10
117.6480213757369
 20
151.8595646611754
 10
117.6480213757369
 20
151.8595646611754
 10
117.13229024137
 20
155.18150017429
 10
114.7162431837115
 20
155.886194920681
 10
113.3351034925446
 20
155.886194920681
 10
111.9829026225447
 20
155.886194920681
 10
108.3414342923792
 20
156.1251124501957
 10
106.2595617172429
 20
153.4105476718098
 97
        0
 75
     2
 76
     1
 98
        0
  0
ENDBLK
  5
3C8
330
3BD
100
AcDbEntity
  8
0
100
AcDbBlockEnd
  0
BLOCK
  5
11F1
330
11F0
100
AcDbEntity
  8
0
100
AcDbBlockBegin
  2
BLOCK_2
 70
     0
 10
0.0
 20
0.0
 30
0.0
  3
BLOCK_2
  1
BLOCK_2
  0
ENDBLK
  5
11F2
330
11F0
100
AcDbEntity
  8
0
100
AcDbBlockEnd
  0
BLOCK
  5
38B7
330
38B6
100
AcDbEntity
  8
0
100
AcDbBlockBegin
  2
mobile_latù
 70
     0
 10
0.0
 20
0.0
 30
0.0
  3
mobile_latù
  1
mobile_latù
  0
ENDBLK
  5
38B8
330
38B6
100
AcDbEntity
  8
0
100
AcDbBlockEnd
  0
BLOCK
  5
503A
330
5039
100
AcDbEntity
  8
0
100
AcDbBlockBegin
  2
.TD_SECTION_1
 70
     0
 10
225818116096.0
 20
0.0
 30
0.0
  3
.TD_SECTION_1
  1

  0
ENDBLK
  5
503B
330
5039
100
AcDbEntity
  8
0
100
AcDbBlockEnd
  0
BLOCK
  5
503E
330
503D
100
AcDbEntity
  8
0
100
AcDbBlockBegin
  2
.TD_SECTION_2
 70
     0
 10
225818181632.0
 20
0.0
 30
0.0
  3
.TD_SECTION_2
  1

  0
ENDBLK
  5
503F
330
503D
100
AcDbEntity
  8
0
100
AcDbBlockEnd
  0
BLOCK
  5
5EF2
330
5EF1
100
AcDbEntity
  8
0
100
AcDbBlockBegin
  2
_None
 70
     0
 10
0.0
 20
0.0
 30
0.0
  3
_None
  1

  0
ENDBLK
  5
5EF3
330
5EF1
100
AcDbEntity
  8
0
100
AcDbBlockEnd
  0
BLOCK
  5
6A70
330
6A6F
100
AcDbEntity
  8
0
100
AcDbBlockBegin
  2
*D11
 70
     1
 10
0.0
 20
0.0
 30
0.0
  3
*D11
  1

  0
LINE
  5
6A72
330
6A6F
100
AcDbEntity
  8
Dim
 62
     0
370
    -2
100
AcDbLine
 10
-1591.747649480099
 20
1088.002389898838
 30
0.0
 11
-1591.747649480099
 21
1178.904629766291
 31
0.0
  0
LINE
  5
6A73
330
6A6F
100
AcDbEntity
  8
Dim
 62
     0
370
    -2
100
AcDbLine
 10
-1461.747649480099
 20
1088.002389898838
 30
0.0
 11
-1461.747649480099
 21
1178.904629766291
 31
0.0
  0
LINE
  5
6A74
330
6A6F
100
AcDbEntity
  8
Dim
 62
     0
370
    -2
100
AcDbLine
 10
-1581.748259831662
 20
1178.904629766291
 30
0.0
 11
-1471.747039128537
 21
1178.904629766291
 31
0.0
  0
INSERT
  5
6A75
330
6A6F
100
AcDbEntity
  8
Dim
 62
     0
370
    -2
100
AcDbBlockReference
  2
_DOT
 10
-1591.747649480099
 20
1178.904629766291
 30
0.0
 41
9.999389648437498
 42
9.999389648437498
 43
9.999389648437498
 50
180.0
  0
INSERT
  5
6A76
330
6A6F
100
AcDbEntity
  8
Dim
 62
     0
370
    -2
100
AcDbBlockReference
  2
_DOT
 10
-1461.747649480099
 20
1178.904629766291
 30
0.0
 41
9.999389648437498
 42
9.999389648437498
 43
9.999389648437498
  0
MTEXT
  5
6A77
330
6A6F
100
AcDbEntity
  8
Dim
 62
     0
100
AcDbMText
 10
-1526.747649480099
 20
1201.120938360041
 30
0.0
 40
24.4326171875
 41
0.0
 46
0.0
 71
     5
 72
     1
  1
\A1;130
  7
ＭＳ ゴシック
 73
     1
 44
1.0
  0
POINT
  5
6A78
330
6A6F
100
AcDbEntity
  8
Defpoints
 62
     0
100
AcDbPoint
 10
-1591.747649480099
 20
1063.002389898838
 30
0.0
  0
POINT
  5
6B07
330
6A6F
100
AcDbEntity
  8
Defpoints
 62
     0
100
AcDbPoint
 10
-1461.747649480099
 20
1063.002389898838
 30
0.0
  0
POINT
  5
6B08
330
6A6F
100
AcDbEntity
  8
Defpoints
 62
     0
100
AcDbPoint
 10
-1461.747649480099
 20
1178.904629766291
 30
0.0
  0
ENDBLK
  5
6A71
330
6A6F
100
AcDbEntity
  8
0
100
AcDbBlockEnd
  0
BLOCK
  5
6AF2
330
6AF1
100
AcDbEntity
  8
0
100
AcDbBlockBegin
  2
*D12
 70
     1
 10
0.0
 20
0.0
 30
0.0
  3
*D12
  1

  0
LINE
  5
6AF4
330
6AF1
100
AcDbEntity
  8
Dim
 62
     0
370
    -2
100
AcDbLine
 10
-1626.738617633271
 20
2290.48420798902
 30
0.0
 11
-1626.738617633271
 21
2388.747315188733
 31
0.0
  0
LINE
  5
6AF5
330
6AF1
100
AcDbEntity
  8
Dim
 62
     0
370
    -2
100
AcDbLine
 10
-1526.738617633271
 20
2290.48420798902
 30
0.0
 11
-1526.738617633271
 21
2388.747315188733
 31
0.0
  0
LINE
  5
6AF6
330
6AF1
100
AcDbEntity
  8
Dim
 62
     0
370
    -2
100
AcDbLine
 10
-1616.739227984834
 20
2388.747315188733
 30
0.0
 11
-1536.738007281709
 21
2388.747315188733
 31
0.0
  0
INSERT
  5
6AF7
330
6AF1
100
AcDbEntity
  8
Dim
 62
     0
370
    -2
100
AcDbBlockReference
  2
_DOT
 10
-1626.738617633271
 20
2388.747315188733
 30
0.0
 41
9.999389648437498
 42
9.999389648437498
 43
9.999389648437498
 50
180.0
  0
INSERT
  5
6AF8
330
6AF1
100
AcDbEntity
  8
Dim
 62
     0
370
    -2
100
AcDbBlockReference
  2
_DOT
 10
-1526.738617633271
 20
2388.747315188733
 30
0.0
 41
9.999389648437498
 42
9.999389648437498
 43
9.999389648437498
  0
MTEXT
  5
6AF9
330
6AF1
100
AcDbEntity
  8
Dim
 62
     0
100
AcDbMText
 10
-1576.738617633271
 20
2410.963623782483
 30
0.0
 40
24.4326171875
 41
0.0
 46
0.0
 71
     5
 72
     1
  1
\A1;100
  7
ＭＳ ゴシック
 73
     1
 44
1.0
  0
POINT
  5
6AFA
330
6AF1
100
AcDbEntity
  8
Defpoints
 62
     0
100
AcDbPoint
 10
-1626.738617633271
 20
2265.48420798902
 30
0.0
  0
POINT
  5
6B1F
330
6AF1
100
AcDbEntity
  8
Defpoints
 62
     0
100
AcDbPoint
 10
-1526.738617633271
 20
2265.48420798902
 30
0.0
  0
POINT
  5
6B20
330
6AF1
100
AcDbEntity
  8
Defpoints
 62
     0
100
AcDbPoint
 10
-1526.738617633271
 20
2388.747315188733
 30
0.0
  0
ENDBLK
  5
6AF3
330
6AF1
100
AcDbEntity
  8
0
100
AcDbBlockEnd
  0
BLOCK
  5
6AFC
330
6AFB
100
AcDbEntity
  8
0
100
AcDbBlockBegin
  2
*D13
 70
     1
 10
0.0
 20
0.0
 30
0.0
  3
*D13
  1

  0
LINE
  5
6AFE
330
6AFB
100
AcDbEntity
  8
Dim
 62
     0
370
    -2
100
AcDbLine
 10
-1526.738617633271
 20
2290.48420798902
 30
0.0
 11
-1526.738617633271
 21
2388.747315188733
 31
0.0
  0
LINE
  5
6AFF
330
6AFB
100
AcDbEntity
  8
Dim
 62
     0
370
    -2
100
AcDbLine
 10
-1426.738617633271
 20
2290.48420798902
 30
0.0
 11
-1426.738617633271
 21
2388.747315188733
 31
0.0
  0
LINE
  5
6B00
330
6AFB
100
AcDbEntity
  8
Dim
 62
     0
370
    -2
100
AcDbLine
 10
-1516.739227984834
 20
2388.747315188733
 30
0.0
 11
-1436.738007281709
 21
2388.747315188733
 31
0.0
  0
INSERT
  5
6B01
330
6AFB
100
AcDbEntity
  8
Dim
 62
     0
370
    -2
100
AcDbBlockReference
  2
_DOT
 10
-1526.738617633271
 20
2388.747315188733
 30
0.0
 41
9.999389648437498
 42
9.999389648437498
 43
9.999389648437498
 50
180.0
  0
INSERT
  5
6B02
330
6AFB
100
AcDbEntity
  8
Dim
 62
     0
370
    -2
100
AcDbBlockReference
  2
_DOT
 10
-1426.738617633271
 20
2388.747315188733
 30
0.0
 41
9.999389648437498
 42
9.999389648437498
 43
9.999389648437498
  0
MTEXT
  5
6B03
330
6AFB
100
AcDbEntity
  8
Dim
 62
     0
100
AcDbMText
 10
-1476.738617633271
 20
2410.963623782483
 30
0.0
 40
24.4326171875
 41
0.0
 46
0.0
 71
     5
 72
     1
  1
\A1;100
  7
ＭＳ ゴシック
 73
     1
 44
1.0
  0
POINT
  5
6B04
330
6AFB
100
AcDbEntity
  8
Defpoints
 62
     0
100
AcDbPoint
 10
-1526.738617633271
 20
2265.48420798902
 30
0.0
  0
POINT
  5
6B21
330
6AFB
100
AcDbEntity
  8
Defpoints
 62
     0
100
AcDbPoint
 10
-1426.738617633271
 20
2265.48420798902
 30
0.0
  0
POINT
  5
6B22
330
6AFB
100
AcDbEntity
  8
Defpoints
 62
     0
100
AcDbPoint
 10
-1426.738617633271
 20
2388.747315188733
 30
0.0
  0
ENDBLK
  5
6AFD
330
6AFB
100
AcDbEntity
  8
0
100
AcDbBlockEnd
  0
BLOCK
  5
6B3F
330
6B3E
100
AcDbEntity
  8
0
100
AcDbBlockBegin
  2
*D14
 70
     1
 10
0.0
 20
0.0
 30
0.0
  3
*D14
  1

  0
LINE
  5
6B41
330
6B3E
100
AcDbEntity
  8
Dim
 62
     0
370
    -2
100
AcDbLine
 10
-1811.030078383104
 20
1103.002403363979
 30
0.0
 11
-1894.519552111119
 21
1103.002403363979
 31
0.0
  0
LINE
  5
6B42
330
6B3E
100
AcDbEntity
  8
Dim
 62
     0
370
    -2
100
AcDbLine
 10
-1691.438601082464
 20
1063.002403363979
 30
0.0
 11
-1894.519552111119
 21
1063.002403363979
 31
0.0
  0
LINE
  5
6B43
330
6B3E
100
AcDbEntity
  8
Dim
 62
     0
370
    -2
100
AcDbLine
 10
-1894.519552111119
 20
1093.003013715542
 30
0.0
 11
-1894.519552111119
 21
1073.001793012416
 31
0.0
  0
INSERT
  5
6B44
330
6B3E
100
AcDbEntity
  8
Dim
 62
     0
370
    -2
100
AcDbBlockReference
  2
_DOT
 10
-1894.519552111119
 20
1103.002403363979
 30
0.0
 41
9.999389648437498
 42
9.999389648437498
 43
9.999389648437498
 50
90.0
  0
INSERT
  5
6B45
330
6B3E
100
AcDbEntity
  8
Dim
 62
     0
370
    -2
100
AcDbBlockReference
  2
_DOT
 10
-1894.519552111119
 20
1063.002403363979
 30
0.0
 41
9.999389648437498
 42
9.999389648437498
 43
9.999389648437498
 50
270.0
  0
MTEXT
  5
6B46
330
6B3E
100
AcDbEntity
  8
Dim
 62
     0
100
AcDbMText
 10
-1916.735860704869
 20
1083.002403363979
 30
0.0
 40
24.4326171875
 41
0.0
 46
0.0
 71
     5
 72
     1
  1
\A1;40
  7
ＭＳ ゴシック
 11
0.0
 21
1.0
 31
0.0
 73
     1
 44
1.0
  0
POINT
  5
6B47
330
6B3E
100
AcDbEntity
  8
Defpoints
 62
     0
100
AcDbPoint
 10
-1786.030078383104
 20
1103.002403363979
 30
0.0
  0
POINT
  5
6B48
330
6B3E
100
AcDbEntity
  8
Defpoints
 62
     0
100
AcDbPoint
 10
-1666.438601082464
 20
1063.002403363979
 30
0.0
  0
POINT
  5
6B49
330
6B3E
100
AcDbEntity
  8
Defpoints
 62
     0
100
AcDbPoint
 10
-1894.519552111119
 20
1063.002403363979
 30
0.0
  0
ENDBLK
  5
6B40
330
6B3E
100
AcDbEntity
  8
0
100
AcDbBlockEnd
  0
BLOCK
  5
6B52
330
6B51
100
AcDbEntity
  8
0
100
AcDbBlockBegin
  2
*D15
 70
     1
 10
0.0
 20
0.0
 30
0.0
  3
*D15
  1

  0
LINE
  5
6B54
330
6B51
100
AcDbEntity
  8
Dim
 62
     0
370
    -2
100
AcDbLine
 10
-1676.73876611539
 20
899.7321532712955
 30
0.0
 11
-1676.73876611539
 21
850.6125101352956
 31
0.0
  0
LINE
  5
6B55
330
6B51
100
AcDbEntity
  8
Dim
 62
     0
370
    -2
100
AcDbLine
 10
-1376.73876611539
 20
899.7321532712956
 30
0.0
 11
-1376.73876611539
 21
850.6125101352956
 31
0.0
  0
LINE
  5
6B56
330
6B51
100
AcDbEntity
  8
Dim
 62
     0
370
    -2
100
AcDbLine
 10
-1666.739376466952
 20
850.6125101352956
 30
0.0
 11
-1386.738155763827
 21
850.6125101352956
 31
0.0
  0
INSERT
  5
6B57
330
6B51
100
AcDbEntity
  8
Dim
 62
     0
370
    -2
100
AcDbBlockReference
  2
_DOT
 10
-1676.73876611539
 20
850.6125101352956
 30
0.0
 41
9.999389648437498
 42
9.999389648437498
 43
9.999389648437498
 50
180.0
  0
INSERT
  5
6B58
330
6B51
100
AcDbEntity
  8
Dim
 62
     0
370
    -2
100
AcDbBlockReference
  2
_DOT
 10
-1376.73876611539
 20
850.6125101352956
 30
0.0
 41
9.999389648437498
 42
9.999389648437498
 43
9.999389648437498
  0
MTEXT
  5
6B59
330
6B51
100
AcDbEntity
  8
Dim
 62
     0
100
AcDbMText
 10
-1526.73876611539
 20
872.8288187290456
 30
0.0
 40
24.4326171875
 41
0.0
 46
0.0
 71
     5
 72
     1
  1
\A1;300
  7
ＭＳ ゴシック
 73
     1
 44
1.0
  0
POINT
  5
6B5A
330
6B51
100
AcDbEntity
  8
Defpoints
 62
     0
100
AcDbPoint
 10
-1676.73876611539
 20
924.7321532712955
 30
0.0
  0
POINT
  5
6B5B
330
6B51
100
AcDbEntity
  8
Defpoints
 62
     0
100
AcDbPoint
 10
-1376.73876611539
 20
924.7321532712956
 30
0.0
  0
POINT
  5
6B5C
330
6B51
100
AcDbEntity
  8
Defpoints
 62
     0
100
AcDbPoint
 10
-1376.73876611539
 20
850.6125101352956
 30
0.0
  0
ENDBLK
  5
6B53
330
6B51
100
AcDbEntity
  8
0
100
AcDbBlockEnd
  0
BLOCK
  5
6B63
330
6B62
100
AcDbEntity
  8
0
100
AcDbBlockBegin
  2
*D16
 70
     1
 10
0.0
 20
0.0
 30
0.0
  3
*D16
  1

  0
LINE
  5
6B65
330
6B62
100
AcDbEntity
  8
Dim
 62
     0
370
    -2
100
AcDbLine
 10
-1247.910020382365
 20
1103.002403567455
 30
0.0
 11
-1188.307140382365
 21
1103.002403567455
 31
0.0
  0
LINE
  5
6B66
330
6B62
100
AcDbEntity
  8
Dim
 62
     0
370
    -2
100
AcDbLine
 10
-1330.632836382365
 20
933.0024035674553
 30
0.0
 11
-1188.307140382365
 21
933.0024035674553
 31
0.0
  0
LINE
  5
6B67
330
6B62
100
AcDbEntity
  8
Dim
 62
     0
370
    -2
100
AcDbLine
 10
-1188.307140382365
 20
1093.003013919018
 30
0.0
 11
-1188.307140382365
 21
943.0017932158928
 31
0.0
  0
INSERT
  5
6B68
330
6B62
100
AcDbEntity
  8
Dim
 62
     0
370
    -2
100
AcDbBlockReference
  2
_DOT
 10
-1188.307140382365
 20
1103.002403567455
 30
0.0
 41
9.999389648437498
 42
9.999389648437498
 43
9.999389648437498
 50
90.0
  0
INSERT
  5
6B69
330
6B62
100
AcDbEntity
  8
Dim
 62
     0
370
    -2
100
AcDbBlockReference
  2
_DOT
 10
-1188.307140382365
 20
933.0024035674553
 30
0.0
 41
9.999389648437498
 42
9.999389648437498
 43
9.999389648437498
 50
270.0
  0
MTEXT
  5
6B6A
330
6B62
100
AcDbEntity
  8
Dim
 62
     0
100
AcDbMText
 10
-1210.523448976115
 20
1018.002403567455
 30
0.0
 40
24.4326171875
 41
0.0
 46
0.0
 71
     5
 72
     1
  1
\A1;170
  7
ＭＳ ゴシック
 11
0.0
 21
1.0
 31
0.0
 73
     1
 44
1.0
  0
POINT
  5
6B6B
330
6B62
100
AcDbEntity
  8
Defpoints
 62
     0
100
AcDbPoint
 10
-1272.910020382365
 20
1103.002403567455
 30
0.0
  0
POINT
  5
6B6C
330
6B62
100
AcDbEntity
  8
Defpoints
 62
     0
100
AcDbPoint
 10
-1355.632836382365
 20
933.0024035674553
 30
0.0
  0
POINT
  5
6B6D
330
6B62
100
AcDbEntity
  8
Defpoints
 62
     0
100
AcDbPoint
 10
-1188.307140382365
 20
933.0024035674553
 30
0.0
  0
ENDBLK
  5
6B64
330
6B62
100
AcDbEntity
  8
0
100
AcDbBlockEnd
  0
BLOCK
  5
6B92
330
6B91
100
AcDbEntity
  8
0
100
AcDbBlockBegin
  2
*D17
 70
     1
 10
0.0
 20
0.0
 30
0.0
  3
*D17
  1

  0
LINE
  5
6B94
330
6B91
100
AcDbEntity
  8
Dim
 62
     0
370
    -2
100
AcDbLine
 10
-272.1089512804635
 20
907.0425677147731
 30
0.0
 11
-272.1089512804635
 21
819.1404192008584
 31
0.0
  0
LINE
  5
6B95
330
6B91
100
AcDbEntity
  8
Dim
 62
     0
370
    -2
100
AcDbLine
 10
-499.1089556737886
 20
906.896131301285
 30
0.0
 11
-499.1089556737886
 21
819.1404192008584
 31
0.0
  0
LINE
  5
6B96
330
6B91
100
AcDbEntity
  8
Dim
 62
     0
370
    -2
100
AcDbLine
 10
-282.108340928901
 20
819.1404192008584
 30
0.0
 11
-489.1095660253511
 21
819.1404192008584
 31
0.0
  0
INSERT
  5
6B97
330
6B91
100
AcDbEntity
  8
Dim
 62
     0
370
    -2
100
AcDbBlockReference
  2
_DOT
 10
-272.1089512804635
 20
819.1404192008584
 30
0.0
 41
9.999389648437498
 42
9.999389648437498
 43
9.999389648437498
  0
INSERT
  5
6B98
330
6B91
100
AcDbEntity
  8
Dim
 62
     0
370
    -2
100
AcDbBlockReference
  2
_DOT
 10
-499.1089556737886
 20
819.1404192008584
 30
0.0
 41
9.999389648437498
 42
9.999389648437498
 43
9.999389648437498
 50
180.0
  0
MTEXT
  5
6B99
330
6B91
100
AcDbEntity
  8
Dim
 62
     0
100
AcDbMText
 10
-385.6089534771256
 20
841.3567277946084
 30
0.0
 40
24.4326171875
 41
0.0
 46
0.0
 71
     5
 72
     1
  1
\A1;230
  7
ＭＳ ゴシック
 73
     1
 44
1.0
  0
POINT
  5
6B9A
330
6B91
100
AcDbEntity
  8
Defpoints
 62
     0
100
AcDbPoint
 10
-272.1089512804635
 20
932.0425677147731
 30
0.0
  0
POINT
  5
6B9B
330
6B91
100
AcDbEntity
  8
Defpoints
 62
     0
100
AcDbPoint
 10
-499.1089556737886
 20
931.896131301285
 30
0.0
  0
POINT
  5
6B9C
330
6B91
100
AcDbEntity
  8
Defpoints
 62
     0
100
AcDbPoint
 10
-499.1089556737886
 20
819.1404192008584
 30
0.0
  0
ENDBLK
  5
6B93
330
6B91
100
AcDbEntity
  8
0
100
AcDbBlockEnd
  0
BLOCK
  5
6B9E
330
6B9D
100
AcDbEntity
  8
0
100
AcDbBlockBegin
  2
*D18
 70
     1
 10
0.0
 20
0.0
 30
0.0
  3
*D18
  1

  0
LINE
  5
6BA0
330
6B9D
100
AcDbEntity
  8
Dim
 62
     0
370
    -2
100
AcDbLine
 10
-807.7084610361535
 20
1101.872275163075
 30
0.0
 11
-862.1517095626816
 21
1101.872275163075
 31
0.0
  0
LINE
  5
6BA1
330
6B9D
100
AcDbEntity
  8
Dim
 62
     0
370
    -2
100
AcDbLine
 10
-807.7084610361535
 20
1016.87227386685
 30
0.0
 11
-862.1517095626816
 21
1016.87227386685
 31
0.0
  0
LINE
  5
6BA2
330
6B9D
100
AcDbEntity
  8
Dim
 62
     0
370
    -2
100
AcDbLine
 10
-862.1517095626816
 20
1091.872885514638
 30
0.0
 11
-862.1517095626816
 21
1026.871663515288
 31
0.0
  0
INSERT
  5
6BA3
330
6B9D
100
AcDbEntity
  8
Dim
 62
     0
370
    -2
100
AcDbBlockReference
  2
_DOT
 10
-862.1517095626816
 20
1101.872275163075
 30
0.0
 41
9.999389648437498
 42
9.999389648437498
 43
9.999389648437498
 50
90.0
  0
INSERT
  5
6BA4
330
6B9D
100
AcDbEntity
  8
Dim
 62
     0
370
    -2
100
AcDbBlockReference
  2
_DOT
 10
-862.1517095626816
 20
1016.87227386685
 30
0.0
 41
9.999389648437498
 42
9.999389648437498
 43
9.999389648437498
 50
270.0
  0
MTEXT
  5
6BA5
330
6B9D
100
AcDbEntity
  8
Dim
 62
     0
100
AcDbMText
 10
-884.3680181564316
 20
1057.775922217238
 30
0.0
 40
24.4326171875
 41
0.0
 46
0.0
 71
     5
 72
     1
  1
\A1;85
  7
ＭＳ ゴシック
 11
0.0
 21
1.0
 31
0.0
 73
     1
 44
1.0
  0
POINT
  5
6BA6
330
6B9D
100
AcDbEntity
  8
Defpoints
 62
     0
100
AcDbPoint
 10
-782.7084610361535
 20
1101.872275163075
 30
0.0
  0
POINT
  5
6BA7
330
6B9D
100
AcDbEntity
  8
Defpoints
 62
     0
100
AcDbPoint
 10
-782.7084610361535
 20
1016.87227386685
 30
0.0
  0
POINT
  5
6BA8
330
6B9D
100
AcDbEntity
  8
Defpoints
 62
     0
100
AcDbPoint
 10
-862.1517095626816
 20
1016.87227386685
 30
0.0
  0
ENDBLK
  5
6B9F
330
6B9D
100
AcDbEntity
  8
0
100
AcDbBlockEnd
  0
BLOCK
  5
6BAA
330
6BA9
100
AcDbEntity
  8
0
100
AcDbBlockBegin
  2
*D19
 70
     1
 10
0.0
 20
0.0
 30
0.0
  3
*D19
  1

  0
LINE
  5
6BAC
330
6BA9
100
AcDbEntity
  8
Dim
 62
     0
370
    -2
100
AcDbLine
 10
-807.7084610361535
 20
1016.87227386685
 30
0.0
 11
-862.1517095626816
 21
1016.87227386685
 31
0.0
  0
LINE
  5
6BAD
330
6BA9
100
AcDbEntity
  8
Dim
 62
     0
370
    -2
100
AcDbLine
 10
-715.1687121645055
 20
931.8722782472968
 30
0.0
 11
-862.1517095626816
 21
931.8722782472968
 31
0.0
  0
LINE
  5
6BAE
330
6BA9
100
AcDbEntity
  8
Dim
 62
     0
370
    -2
100
AcDbLine
 10
-862.1517095626816
 20
1006.872884218413
 30
0.0
 11
-862.1517095626816
 21
941.8716678957343
 31
0.0
  0
INSERT
  5
6BAF
330
6BA9
100
AcDbEntity
  8
Dim
 62
     0
370
    -2
100
AcDbBlockReference
  2
_DOT
 10
-862.1517095626816
 20
1016.87227386685
 30
0.0
 41
9.999389648437498
 42
9.999389648437498
 43
9.999389648437498
 50
90.0
  0
INSERT
  5
6BB0
330
6BA9
100
AcDbEntity
  8
Dim
 62
     0
370
    -2
100
AcDbBlockReference
  2
_DOT
 10
-862.1517095626816
 20
931.8722782472968
 30
0.0
 41
9.999389648437498
 42
9.999389648437498
 43
9.999389648437498
 50
270.0
  0
MTEXT
  5
6BB1
330
6BA9
100
AcDbEntity
  8
Dim
 62
     0
100
AcDbMText
 10
-884.3680181564316
 20
974.3722760570735
 30
0.0
 40
24.4326171875
 41
0.0
 46
0.0
 71
     5
 72
     1
  1
\A1;85
  7
ＭＳ ゴシック
 11
0.0
 21
1.0
 31
0.0
 73
     1
 44
1.0
  0
POINT
  5
6BB2
330
6BA9
100
AcDbEntity
  8
Defpoints
 62
     0
100
AcDbPoint
 10
-782.7084610361535
 20
1016.87227386685
 30
0.0
  0
POINT
  5
6BB3
330
6BA9
100
AcDbEntity
  8
Defpoints
 62
     0
100
AcDbPoint
 10
-690.1687121645055
 20
931.8722782472968
 30
0.0
  0
POINT
  5
6BB4
330
6BA9
100
AcDbEntity
  8
Defpoints
 62
     0
100
AcDbPoint
 10
-862.1517095626816
 20
931.8722782472969
 30
0.0
  0
ENDBLK
  5
6BAB
330
6BA9
100
AcDbEntity
  8
0
100
AcDbBlockEnd
  0
BLOCK
  5
6BB6
330
6BB5
100
AcDbEntity
  8
0
100
AcDbBlockBegin
  2
*D20
 70
     1
 10
0.0
 20
0.0
 30
0.0
  3
*D20
  1

  0
LINE
  5
6BB8
330
6BB5
100
AcDbEntity
  8
Dim
 62
     0
370
    -2
100
AcDbLine
 10
-272.1089574231776
 20
1118.04466090408
 30
0.0
 11
-272.1089574231776
 21
1157.111839482518
 31
0.0
  0
LINE
  5
6BB9
330
6BB5
100
AcDbEntity
  8
Dim
 62
     0
370
    -2
100
AcDbLine
 10
-337.1089574231776
 20
1118.04466090408
 30
0.0
 11
-337.1089574231776
 21
1157.111839482518
 31
0.0
  0
LINE
  5
6BBA
330
6BB5
100
AcDbEntity
  8
Dim
 62
     0
370
    -2
100
AcDbLine
 10
-282.1083470716151
 20
1157.111839482518
 30
0.0
 11
-327.1095677747401
 21
1157.111839482518
 31
0.0
  0
INSERT
  5
6BBB
330
6BB5
100
AcDbEntity
  8
Dim
 62
     0
370
    -2
100
AcDbBlockReference
  2
_DOT
 10
-272.1089574231776
 20
1157.111839482518
 30
0.0
 41
9.999389648437498
 42
9.999389648437498
 43
9.999389648437498
  0
INSERT
  5
6BBC
330
6BB5
100
AcDbEntity
  8
Dim
 62
     0
370
    -2
100
AcDbBlockReference
  2
_DOT
 10
-337.1089574231776
 20
1157.111839482518
 30
0.0
 41
9.999389648437498
 42
9.999389648437498
 43
9.999389648437498
 50
180.0
  0
MTEXT
  5
6BBD
330
6BB5
100
AcDbEntity
  8
Dim
 62
     0
100
AcDbMText
 10
-304.6089574231776
 20
1179.328148076268
 30
0.0
 40
24.4326171875
 41
0.0
 46
0.0
 71
     5
 72
     1
  1
\A1;65
  7
ＭＳ ゴシック
 73
     1
 44
1.0
  0
POINT
  5
6BBE
330
6BB5
100
AcDbEntity
  8
Defpoints
 62
     0
100
AcDbPoint
 10
-272.1089574231776
 20
1093.04466090408
 30
0.0
  0
POINT
  5
6BBF
330
6BB5
100
AcDbEntity
  8
Defpoints
 62
     0
100
AcDbPoint
 10
-337.1089574231776
 20
1093.04466090408
 30
0.0
  0
POINT
  5
6BC0
330
6BB5
100
AcDbEntity
  8
Defpoints
 62
     0
100
AcDbPoint
 10
-337.1089574231776
 20
1157.111839482518
 30
0.0
  0
ENDBLK
  5
6BB7
330
6BB5
100
AcDbEntity
  8
0
100
AcDbBlockEnd
  0
BLOCK
  5
6BC2
330
6BC1
100
AcDbEntity
  8
0
100
AcDbBlockBegin
  2
*D21
 70
     1
 10
0.0
 20
0.0
 30
0.0
  3
*D21
  1

  0
LINE
  5
6BC4
330
6BC1
100
AcDbEntity
  8
Dim
 62
     0
370
    -2
100
AcDbLine
 10
-272.1089512804635
 20
882.0425677147731
 30
0.0
 11
-272.1089512804635
 21
741.5720434827462
 31
0.0
  0
LINE
  5
6BC5
330
6BC1
100
AcDbEntity
  8
Dim
 62
     0
370
    -2
100
AcDbLine
 10
-672.1089512804635
 20
882.0425677147731
 30
0.0
 11
-672.1089512804635
 21
741.5720434827462
 31
0.0
  0
LINE
  5
6BC6
330
6BC1
100
AcDbEntity
  8
Dim
 62
     0
370
    -2
100
AcDbLine
 10
-282.108340928901
 20
741.5720434827462
 30
0.0
 11
-662.109561632026
 21
741.5720434827462
 31
0.0
  0
INSERT
  5
6BC7
330
6BC1
100
AcDbEntity
  8
Dim
 62
     0
370
    -2
100
AcDbBlockReference
  2
_DOT
 10
-272.1089512804635
 20
741.5720434827462
 30
0.0
 41
9.999389648437498
 42
9.999389648437498
 43
9.999389648437498
  0
INSERT
  5
6BC8
330
6BC1
100
AcDbEntity
  8
Dim
 62
     0
370
    -2
100
AcDbBlockReference
  2
_DOT
 10
-672.1089512804635
 20
741.5720434827462
 30
0.0
 41
9.999389648437498
 42
9.999389648437498
 43
9.999389648437498
 50
180.0
  0
MTEXT
  5
6BC9
330
6BC1
100
AcDbEntity
  8
Dim
 62
     0
100
AcDbMText
 10
-472.1089512804635
 20
763.7883520764962
 30
0.0
 40
24.4326171875
 41
0.0
 46
0.0
 71
     5
 72
     1
  1
\A1;400
  7
ＭＳ ゴシック
 73
     1
 44
1.0
  0
POINT
  5
6BCA
330
6BC1
100
AcDbEntity
  8
Defpoints
 62
     0
100
AcDbPoint
 10
-272.1089512804635
 20
907.0425677147731
 30
0.0
  0
POINT
  5
6BCB
330
6BC1
100
AcDbEntity
  8
Defpoints
 62
     0
100
AcDbPoint
 10
-672.1089512804635
 20
907.0425677147731
 30
0.0
  0
POINT
  5
6BCC
330
6BC1
100
AcDbEntity
  8
Defpoints
 62
     0
100
AcDbPoint
 10
-672.1089512804635
 20
741.5720434827462
 30
0.0
  0
ENDBLK
  5
6BC3
330
6BC1
100
AcDbEntity
  8
0
100
AcDbBlockEnd
  0
BLOCK
  5
6BCE
330
6BCD
100
AcDbEntity
  8
0
100
AcDbBlockBegin
  2
*D22
 70
     1
 10
0.0
 20
0.0
 30
0.0
  3
*D22
  1

  0
LINE
  5
6BD0
330
6BCD
100
AcDbEntity
  8
Dim
  6
Continuous
 62
     0
370
    -2
100
AcDbLine
 10
-499.1036397979116
 20
1101.872271444353
 30
0.0
 11
-499.1036397979113
 21
1281.529533778069
 31
0.0
  0
LINE
  5
6BD1
330
6BCD
100
AcDbEntity
  8
Dim
  6
Continuous
 62
     0
370
    -2
100
AcDbLine
 10
-499.1036397979119
 20
989.3761211540376
 30
0.0
 11
-499.1036397979116
 21
1091.872881795915
 31
0.0
  0
LINE
  5
6BD2
330
6BCD
100
AcDbEntity
  8
Dim
  6
Continuous
 62
     0
370
    -2
100
AcDbLine
 10
-499.1036397979116
 20
1091.872881795915
 30
0.0
 11
-499.1036397979116
 21
1081.873492147478
 31
0.0
  0
INSERT
  5
6BD3
330
6BCD
100
AcDbEntity
  8
Dim
 62
     0
370
    -2
100
AcDbBlockReference
  2
_DOT
 10
-499.1036397979119
 20
979.3767315056001
 30
0.0
 41
9.999389648437498
 42
9.999389648437498
 43
9.999389648437498
 50
269.9999999999999
  0
INSERT
  5
6BD4
330
6BCD
100
AcDbEntity
  8
Dim
 62
     0
370
    -2
100
AcDbBlockReference
  2
_DOT
 10
-499.1036397979116
 20
1101.872271444353
 30
0.0
 41
9.999389648437498
 42
9.999389648437498
 43
9.999389648437498
 50
89.9999999999999
  0
MTEXT
  5
6BD5
330
6BCD
100
AcDbEntity
  8
Dim
 62
     0
100
AcDbMText
 10
-523.4822350127552
 20
1205.341573817131
 30
0.0
 40
24.4326171875
 41
0.0
 46
0.0
 71
     5
 72
     1
  1
\A1;120(深さ)
  7
ＭＳ ゴシック
 11
1.856179217275321E-15
 21
1.0
 31
0.0
 73
     1
 44
1.0
  0
POINT
  5
6BD6
330
6BCD
100
AcDbEntity
  8
Defpoints
 62
     0
100
AcDbPoint
 10
-500.1223396805785
 20
979.3767315056001
 30
0.0
  0
POINT
  5
6BD7
330
6BCD
100
AcDbEntity
  8
Defpoints
 62
     0
100
AcDbPoint
 10
-499.1036397979115
 20
1101.872271444353
 30
0.0
  0
POINT
  5
6BD8
330
6BCD
100
AcDbEntity
  8
Defpoints
 62
     0
100
AcDbPoint
 10
-499.1036397979126
 20
1101.872271444353
 30
0.0
  0
ENDBLK
  5
6BCF
330
6BCD
100
AcDbEntity
  8
0
100
AcDbBlockEnd
  0
BLOCK
  5
6C69
330
6C68
100
AcDbEntity
  8
0
100
AcDbBlockBegin
  2
*D23
 70
     1
 10
0.0
 20
0.0
 30
0.0
  3
*D23
  1

  0
LINE
  5
6C6B
330
6C68
100
AcDbEntity
  8
Dim
 62
     0
370
    -2
100
AcDbLine
 10
-1236.460363282667
 20
2312.364504097951
 30
0.0
 11
-1132.149091645693
 21
2312.364504097951
 31
0.0
  0
LINE
  5
6C6C
330
6C68
100
AcDbEntity
  8
Dim
 62
     0
370
    -2
100
AcDbLine
 10
-1236.460363282666
 20
1812.364504097951
 30
0.0
 11
-1132.149091645693
 21
1812.364504097951
 31
0.0
  0
LINE
  5
6C6D
330
6C68
100
AcDbEntity
  8
Dim
 62
     0
370
    -2
100
AcDbLine
 10
-1132.149091645693
 20
2302.365114449513
 30
0.0
 11
-1132.149091645693
 21
1822.363893746389
 31
0.0
  0
INSERT
  5
6C6E
330
6C68
100
AcDbEntity
  8
Dim
 62
     0
370
    -2
100
AcDbBlockReference
  2
_DOT
 10
-1132.149091645693
 20
2312.364504097951
 30
0.0
 41
9.999389648437498
 42
9.999389648437498
 43
9.999389648437498
 50
90.0
  0
INSERT
  5
6C6F
330
6C68
100
AcDbEntity
  8
Dim
 62
     0
370
    -2
100
AcDbBlockReference
  2
_DOT
 10
-1132.149091645693
 20
1812.364504097951
 30
0.0
 41
9.999389648437498
 42
9.999389648437498
 43
9.999389648437498
 50
270.0
  0
MTEXT
  5
6C70
330
6C68
100
AcDbEntity
  8
Dim
 62
     0
100
AcDbMText
 10
-1154.365400239443
 20
2062.364504097951
 30
0.0
 40
24.4326171875
 41
0.0
 46
0.0
 71
     5
 72
     1
  1
\A1;500
  7
ＭＳ ゴシック
 11
0.0
 21
1.0
 31
0.0
 73
     1
 44
1.0
  0
POINT
  5
6C71
330
6C68
100
AcDbEntity
  8
Defpoints
 62
     0
100
AcDbPoint
 10
-1261.460363282667
 20
2312.364504097951
 30
0.0
  0
POINT
  5
6C72
330
6C68
100
AcDbEntity
  8
Defpoints
 62
     0
100
AcDbPoint
 10
-1261.460363282666
 20
1812.364504097951
 30
0.0
  0
POINT
  5
6C73
330
6C68
100
AcDbEntity
  8
Defpoints
 62
     0
100
AcDbPoint
 10
-1132.149091645693
 20
1812.364504097951
 30
0.0
  0
ENDBLK
  5
6C6A
330
6C68
100
AcDbEntity
  8
0
100
AcDbBlockEnd
  0
BLOCK
  5
6C75
330
6C74
100
AcDbEntity
  8
0
100
AcDbBlockBegin
  2
*D24
 70
     1
 10
0.0
 20
0.0
 30
0.0
  3
*D24
  1

  0
LINE
  5
6C77
330
6C74
100
AcDbEntity
  8
Dim
 62
     0
370
    -2
100
AcDbLine
 10
-1811.11879533357
 20
2312.364504097951
 30
0.0
 11
-1893.750155344759
 21
2312.36450409795
 31
0.0
  0
LINE
  5
6C78
330
6C74
100
AcDbEntity
  8
Dim
 62
     0
370
    -2
100
AcDbLine
 10
-1811.118795333568
 20
2182.364504219414
 30
0.0
 11
-1893.750155344758
 21
2182.364504219413
 31
0.0
  0
LINE
  5
6C79
330
6C74
100
AcDbEntity
  8
Dim
 62
     0
370
    -2
100
AcDbLine
 10
-1893.750155344759
 20
2302.365114449513
 30
0.0
 11
-1893.750155344758
 21
2192.363893867851
 31
0.0
  0
INSERT
  5
6C7A
330
6C74
100
AcDbEntity
  8
Dim
 62
     0
370
    -2
100
AcDbBlockReference
  2
_DOT
 10
-1893.750155344759
 20
2312.36450409795
 30
0.0
 41
9.999389648437498
 42
9.999389648437498
 43
9.999389648437498
 50
90.0000000000002
  0
INSERT
  5
6C7B
330
6C74
100
AcDbEntity
  8
Dim
 62
     0
370
    -2
100
AcDbBlockReference
  2
_DOT
 10
-1893.750155344758
 20
2182.364504219413
 30
0.0
 41
9.999389648437498
 42
9.999389648437498
 43
9.999389648437498
 50
270.0000000000002
  0
MTEXT
  5
6C7C
330
6C74
100
AcDbEntity
  8
Dim
 62
     0
100
AcDbMText
 10
-1915.966463938508
 20
2247.364504158682
 30
0.0
 40
24.4326171875
 41
0.0
 46
0.0
 71
     5
 72
     1
  1
\A1;130
  7
ＭＳ ゴシック
 11
-3.498056548548836E-15
 21
1.0
 31
0.0
 73
     1
 44
1.0
  0
POINT
  5
6C7D
330
6C74
100
AcDbEntity
  8
Defpoints
 62
     0
100
AcDbPoint
 10
-1786.11879533357
 20
2312.364504097951
 30
0.0
  0
POINT
  5
6C7E
330
6C74
100
AcDbEntity
  8
Defpoints
 62
     0
100
AcDbPoint
 10
-1786.118795333568
 20
2182.364504219414
 30
0.0
  0
POINT
  5
6C7F
330
6C74
100
AcDbEntity
  8
Defpoints
 62
     0
100
AcDbPoint
 10
-1893.750155344758
 20
2182.364504219413
 30
0.0
  0
ENDBLK
  5
6C76
330
6C74
100
AcDbEntity
  8
0
100
AcDbBlockEnd
  0
BLOCK
  5
6C81
330
6C80
100
AcDbEntity
  8
0
100
AcDbBlockBegin
  2
*D25
 70
     1
 10
0.0
 20
0.0
 30
0.0
  3
*D25
  1

  0
LINE
  5
6C83
330
6C80
100
AcDbEntity
  8
Dim
 62
     0
370
    -2
100
AcDbLine
 10
-1811.118795333568
 20
2182.364504219414
 30
0.0
 11
-1893.750155344759
 21
2182.364504219414
 31
0.0
  0
LINE
  5
6C84
330
6C80
100
AcDbEntity
  8
Dim
 62
     0
370
    -2
100
AcDbLine
 10
-1811.118795333568
 20
1827.364504219414
 30
0.0
 11
-1893.750155344758
 21
1827.364504219414
 31
0.0
  0
LINE
  5
6C85
330
6C80
100
AcDbEntity
  8
Dim
 62
     0
370
    -2
100
AcDbLine
 10
-1893.750155344759
 20
2172.365114570976
 30
0.0
 11
-1893.750155344758
 21
1837.363893867851
 31
0.0
  0
INSERT
  5
6C86
330
6C80
100
AcDbEntity
  8
Dim
 62
     0
370
    -2
100
AcDbBlockReference
  2
_DOT
 10
-1893.750155344759
 20
2182.364504219414
 30
0.0
 41
9.999389648437498
 42
9.999389648437498
 43
9.999389648437498
 50
90.00000000000009
  0
INSERT
  5
6C87
330
6C80
100
AcDbEntity
  8
Dim
 62
     0
370
    -2
100
AcDbBlockReference
  2
_DOT
 10
-1893.750155344758
 20
1827.364504219414
 30
0.0
 41
9.999389648437498
 42
9.999389648437498
 43
9.999389648437498
 50
270.0000000000001
  0
MTEXT
  5
6C88
330
6C80
100
AcDbEntity
  8
Dim
 62
     0
100
AcDbMText
 10
-1915.966463938508
 20
2004.864504219414
 30
0.0
 40
24.4326171875
 41
0.0
 46
0.0
 71
     5
 72
     1
  1
\A1;355
  7
ＭＳ ゴシック
 11
-1.280978453201306E-15
 21
1.0
 31
0.0
 73
     1
 44
1.0
  0
POINT
  5
6C89
330
6C80
100
AcDbEntity
  8
Defpoints
 62
     0
100
AcDbPoint
 10
-1786.118795333568
 20
2182.364504219414
 30
0.0
  0
POINT
  5
6C8A
330
6C80
100
AcDbEntity
  8
Defpoints
 62
     0
100
AcDbPoint
 10
-1786.118795333568
 20
1827.364504219414
 30
0.0
  0
POINT
  5
6C8B
330
6C80
100
AcDbEntity
  8
Defpoints
 62
     0
100
AcDbPoint
 10
-1893.750155344758
 20
1827.364504219414
 30
0.0
  0
ENDBLK
  5
6C82
330
6C80
100
AcDbEntity
  8
0
100
AcDbBlockEnd
  0
BLOCK
  5
6CA5
330
6CA4
100
AcDbEntity
  8
0
100
AcDbBlockBegin
  2
*D26
 70
     1
 10
0.0
 20
0.0
 30
0.0
  3
*D26
  1

  0
LINE
  5
6CA7
330
6CA4
100
AcDbEntity
  8
Dim
 62
     0
370
    -2
100
AcDbLine
 10
-849.2742776321807
 20
1827.048295853449
 30
0.0
 11
-849.2742776321807
 21
1712.337397929561
 31
0.0
  0
LINE
  5
6CA8
330
6CA4
100
AcDbEntity
  8
Dim
 62
     0
370
    -2
100
AcDbLine
 10
-429.2742776321807
 20
1827.048295853449
 30
0.0
 11
-429.2742776321807
 21
1712.337397929561
 31
0.0
  0
LINE
  5
6CA9
330
6CA4
100
AcDbEntity
  8
Dim
 62
     0
370
    -2
100
AcDbLine
 10
-839.2748879837432
 20
1712.337397929561
 30
0.0
 11
-439.2736672806182
 21
1712.337397929561
 31
0.0
  0
INSERT
  5
6CAA
330
6CA4
100
AcDbEntity
  8
Dim
 62
     0
370
    -2
100
AcDbBlockReference
  2
_DOT
 10
-849.2742776321807
 20
1712.337397929561
 30
0.0
 41
9.999389648437498
 42
9.999389648437498
 43
9.999389648437498
 50
180.0
  0
INSERT
  5
6CAB
330
6CA4
100
AcDbEntity
  8
Dim
 62
     0
370
    -2
100
AcDbBlockReference
  2
_DOT
 10
-429.2742776321807
 20
1712.337397929561
 30
0.0
 41
9.999389648437498
 42
9.999389648437498
 43
9.999389648437498
  0
MTEXT
  5
6CAC
330
6CA4
100
AcDbEntity
  8
Dim
 62
     0
100
AcDbMText
 10
-639.2742776321807
 20
1734.553706523311
 30
0.0
 40
24.4326171875
 41
0.0
 46
0.0
 71
     5
 72
     1
  1
\A1;420
  7
ＭＳ ゴシック
 73
     1
 44
1.0
  0
POINT
  5
6CAD
330
6CA4
100
AcDbEntity
  8
Defpoints
 62
     0
100
AcDbPoint
 10
-849.2742776321807
 20
1852.048295853449
 30
0.0
  0
POINT
  5
6CAE
330
6CA4
100
AcDbEntity
  8
Defpoints
 62
     0
100
AcDbPoint
 10
-429.2742776321807
 20
1852.048295853449
 30
0.0
  0
POINT
  5
6CAF
330
6CA4
100
AcDbEntity
  8
Defpoints
 62
     0
100
AcDbPoint
 10
-429.2742776321807
 20
1712.337397929561
 30
0.0
  0
ENDBLK
  5
6CA6
330
6CA4
100
AcDbEntity
  8
0
100
AcDbBlockEnd
  0
BLOCK
  5
6CB2
330
6CB1
100
AcDbEntity
  8
0
100
AcDbBlockBegin
  2
*D27
 70
     1
 10
0.0
 20
0.0
 30
0.0
  3
*D27
  1

  0
LINE
  5
6CB4
330
6CB1
100
AcDbEntity
  8
Dim
 62
     0
370
    -2
100
AcDbLine
 10
-280.0023388989434
 20
2312.364473062906
 30
0.0
 11
-182.6865500989456
 21
2312.364473062906
 31
0.0
  0
LINE
  5
6CB5
330
6CB1
100
AcDbEntity
  8
Dim
 62
     0
370
    -2
100
AcDbLine
 10
-392.9653545175036
 20
1852.364473062906
 30
0.0
 11
-182.6865500989456
 21
1852.364473062906
 31
0.0
  0
LINE
  5
6CB6
330
6CB1
100
AcDbEntity
  8
Dim
 62
     0
370
    -2
100
AcDbLine
 10
-182.6865500989456
 20
2302.365083414469
 30
0.0
 11
-182.6865500989456
 21
1862.363862711343
 31
0.0
  0
INSERT
  5
6CB7
330
6CB1
100
AcDbEntity
  8
Dim
 62
     0
370
    -2
100
AcDbBlockReference
  2
_DOT
 10
-182.6865500989456
 20
2312.364473062906
 30
0.0
 41
9.999389648437498
 42
9.999389648437498
 43
9.999389648437498
 50
90.0
  0
INSERT
  5
6CB8
330
6CB1
100
AcDbEntity
  8
Dim
 62
     0
370
    -2
100
AcDbBlockReference
  2
_DOT
 10
-182.6865500989456
 20
1852.364473062906
 30
0.0
 41
9.999389648437498
 42
9.999389648437498
 43
9.999389648437498
 50
270.0
  0
MTEXT
  5
6CB9
330
6CB1
100
AcDbEntity
  8
Dim
 62
     0
100
AcDbMText
 10
-206.9429822278521
 20
2082.364473062906
 30
0.0
 40
24.4326171875
 41
0.0
 46
0.0
 71
     5
 72
     1
  1
\A1;460(半埋め込み)
  7
ＭＳ ゴシック
 11
6.178632484870433E-17
 21
1.0
 31
0.0
 73
     1
 44
1.0
  0
POINT
  5
6CBA
330
6CB1
100
AcDbEntity
  8
Defpoints
 62
     0
100
AcDbPoint
 10
-305.0023388989434
 20
2312.364473062906
 30
0.0
  0
POINT
  5
6CBB
330
6CB1
100
AcDbEntity
  8
Defpoints
 62
     0
100
AcDbPoint
 10
-417.9653545175036
 20
1852.364473062906
 30
0.0
  0
POINT
  5
6CBC
330
6CB1
100
AcDbEntity
  8
Defpoints
 62
     0
100
AcDbPoint
 10
-182.6865500989456
 20
1852.364473062906
 30
0.0
  0
ENDBLK
  5
6CB3
330
6CB1
100
AcDbEntity
  8
0
100
AcDbBlockEnd
  0
BLOCK
  5
6CC3
330
6CC2
100
AcDbEntity
  8
0
100
AcDbBlockBegin
  2
*D28
 70
     1
 10
0.0
 20
0.0
 30
0.0
  3
*D28
  1

  0
LINE
  5
6CC5
330
6CC2
100
AcDbEntity
  8
Dim
 62
     0
370
    -2
100
AcDbLine
 10
-280.0023388989434
 20
2312.364473062906
 30
0.0
 11
-257.9191525816925
 21
2312.364473062906
 31
0.0
  0
LINE
  5
6CC6
330
6CC2
100
AcDbEntity
  8
Dim
 62
     0
370
    -2
100
AcDbLine
 10
-384.8283237816925
 20
2062.364473062906
 30
0.0
 11
-257.9191525816925
 21
2062.364473062906
 31
0.0
  0
LINE
  5
6CC7
330
6CC2
100
AcDbEntity
  8
Dim
 62
     0
370
    -2
100
AcDbLine
 10
-257.9191525816925
 20
2302.365083414469
 30
0.0
 11
-257.9191525816925
 21
2072.363862711344
 31
0.0
  0
INSERT
  5
6CC8
330
6CC2
100
AcDbEntity
  8
Dim
 62
     0
370
    -2
100
AcDbBlockReference
  2
_DOT
 10
-257.9191525816925
 20
2312.364473062906
 30
0.0
 41
9.999389648437498
 42
9.999389648437498
 43
9.999389648437498
 50
90.0
  0
INSERT
  5
6CC9
330
6CC2
100
AcDbEntity
  8
Dim
 62
     0
370
    -2
100
AcDbBlockReference
  2
_DOT
 10
-257.9191525816925
 20
2062.364473062906
 30
0.0
 41
9.999389648437498
 42
9.999389648437498
 43
9.999389648437498
 50
270.0
  0
MTEXT
  5
6CCA
330
6CC2
100
AcDbEntity
  8
Dim
 62
     0
100
AcDbMText
 10
-278.4221525816927
 20
2187.364473062906
 30
0.0
 40
18.0
 41
0.0
 46
0.0
 71
     5
 72
     1
  1
\A1;250(カウンター置き)
  7
ＭＳ ゴシック
 11
0.0
 21
1.0
 31
0.0
 73
     1
 44
1.0
  0
POINT
  5
6CCB
330
6CC2
100
AcDbEntity
  8
Defpoints
 62
     0
100
AcDbPoint
 10
-305.0023388989434
 20
2312.364473062906
 30
0.0
  0
POINT
  5
6CCC
330
6CC2
100
AcDbEntity
  8
Defpoints
 62
     0
100
AcDbPoint
 10
-409.8283237816925
 20
2062.364473062906
 30
0.0
  0
POINT
  5
6CCD
330
6CC2
100
AcDbEntity
  8
Defpoints
 62
     0
100
AcDbPoint
 10
-257.9191525816925
 20
2062.364473062906
 30
0.0
  0
ENDBLK
  5
6CC4
330
6CC2
100
AcDbEntity
  8
0
100
AcDbBlockEnd
  0
BLOCK
  5
6CE8
330
6CE7
100
AcDbEntity
  8
0
100
AcDbBlockBegin
  2
*D29
 70
     1
 10
0.0
 20
0.0
 30
0.0
  3
*D29
  1

  0
LINE
  5
6CEA
330
6CE7
100
AcDbEntity
  8
Dim
 62
     0
370
    -2
100
AcDbLine
 10
-1776.685338539819
 20
2331.31216986861
 30
0.0
 11
-1776.685338539819
 21
2456.466260701384
 31
0.0
  0
LINE
  5
6CEB
330
6CE7
100
AcDbEntity
  8
Dim
 62
     0
370
    -2
100
AcDbLine
 10
-1276.685338539819
 20
2331.31216986861
 30
0.0
 11
-1276.685338539819
 21
2456.466260701384
 31
0.0
  0
LINE
  5
6CEC
330
6CE7
100
AcDbEntity
  8
Dim
 62
     0
370
    -2
100
AcDbLine
 10
-1766.685948891381
 20
2456.466260701384
 30
0.0
 11
-1286.684728188256
 21
2456.466260701384
 31
0.0
  0
INSERT
  5
6CED
330
6CE7
100
AcDbEntity
  8
Dim
 62
     0
370
    -2
100
AcDbBlockReference
  2
_DOT
 10
-1776.685338539819
 20
2456.466260701384
 30
0.0
 41
9.999389648437498
 42
9.999389648437498
 43
9.999389648437498
 50
180.0
  0
INSERT
  5
6CEE
330
6CE7
100
AcDbEntity
  8
Dim
 62
     0
370
    -2
100
AcDbBlockReference
  2
_DOT
 10
-1276.685338539819
 20
2456.466260701384
 30
0.0
 41
9.999389648437498
 42
9.999389648437498
 43
9.999389648437498
  0
MTEXT
  5
6CEF
330
6CE7
100
AcDbEntity
  8
Dim
 62
     0
100
AcDbMText
 10
-1526.685338539819
 20
2478.682569295134
 30
0.0
 40
24.4326171875
 41
0.0
 46
0.0
 71
     5
 72
     1
  1
\A1;500
  7
ＭＳ ゴシック
 73
     1
 44
1.0
  0
POINT
  5
6CF0
330
6CE7
100
AcDbEntity
  8
Defpoints
 62
     0
100
AcDbPoint
 10
-1776.685338539819
 20
2306.31216986861
 30
0.0
  0
POINT
  5
6CF1
330
6CE7
100
AcDbEntity
  8
Defpoints
 62
     0
100
AcDbPoint
 10
-1276.685338539819
 20
2306.31216986861
 30
0.0
  0
POINT
  5
6CF2
330
6CE7
100
AcDbEntity
  8
Defpoints
 62
     0
100
AcDbPoint
 10
-1276.685338539819
 20
2456.466260701384
 30
0.0
  0
ENDBLK
  5
6CE9
330
6CE7
100
AcDbEntity
  8
0
100
AcDbBlockEnd
  0
BLOCK
  5
6CF6
330
6CF5
100
AcDbEntity
  8
0
100
AcDbBlockBegin
  2
*D30
 70
     1
 10
0.0
 20
0.0
 30
0.0
  3
*D30
  1

  0
LINE
  5
6CF8
330
6CF5
100
AcDbEntity
  8
Dim
 62
     0
370
    -2
100
AcDbLine
 10
-1761.738617633271
 20
1788.183562461384
 30
0.0
 11
-1761.738617633271
 21
1712.279889873494
 31
0.0
  0
LINE
  5
6CF9
330
6CF5
100
AcDbEntity
  8
Dim
 62
     0
370
    -2
100
AcDbLine
 10
-1291.738617633271
 20
1788.183562461384
 30
0.0
 11
-1291.738617633271
 21
1712.279889873494
 31
0.0
  0
LINE
  5
6CFA
330
6CF5
100
AcDbEntity
  8
Dim
 62
     0
370
    -2
100
AcDbLine
 10
-1751.739227984834
 20
1712.279889873494
 30
0.0
 11
-1301.738007281709
 21
1712.279889873494
 31
0.0
  0
INSERT
  5
6CFB
330
6CF5
100
AcDbEntity
  8
Dim
 62
     0
370
    -2
100
AcDbBlockReference
  2
_DOT
 10
-1761.738617633271
 20
1712.279889873494
 30
0.0
 41
9.999389648437498
 42
9.999389648437498
 43
9.999389648437498
 50
180.0
  0
INSERT
  5
6CFC
330
6CF5
100
AcDbEntity
  8
Dim
 62
     0
370
    -2
100
AcDbBlockReference
  2
_DOT
 10
-1291.738617633271
 20
1712.279889873494
 30
0.0
 41
9.999389648437498
 42
9.999389648437498
 43
9.999389648437498
  0
MTEXT
  5
6CFD
330
6CF5
100
AcDbEntity
  8
Dim
 62
     0
100
AcDbMText
 10
-1526.738617633271
 20
1734.496198467244
 30
0.0
 40
24.4326171875
 41
0.0
 46
0.0
 71
     5
 72
     1
  1
\A1;470
  7
ＭＳ ゴシック
 73
     1
 44
1.0
  0
POINT
  5
6CFE
330
6CF5
100
AcDbEntity
  8
Defpoints
 62
     0
100
AcDbPoint
 10
-1761.738617633271
 20
1813.183562461384
 30
0.0
  0
POINT
  5
6CFF
330
6CF5
100
AcDbEntity
  8
Defpoints
 62
     0
100
AcDbPoint
 10
-1291.738617633271
 20
1813.183562461384
 30
0.0
  0
POINT
  5
6D00
330
6CF5
100
AcDbEntity
  8
Defpoints
 62
     0
100
AcDbPoint
 10
-1291.738617633271
 20
1712.279889873494
 30
0.0
  0
ENDBLK
  5
6CF7
330
6CF5
100
AcDbEntity
  8
0
100
AcDbBlockEnd
  0
BLOCK
  5
6FE9
330
6FE8
100
AcDbEntity
  8
0
100
AcDbBlockBegin
  2
*D31
 70
     1
 10
0.0
 20
0.0
 30
0.0
  3
*D31
  1

  0
LINE
  5
6FEB
330
6FE8
100
AcDbEntity
  8
Dim
 62
     0
370
    -2
100
AcDbLine
 10
2865.230573697362
 20
2373.500165775295
 30
0.0
 11
2865.230573697362
 21
2366.084017188799
 31
0.0
  0
LINE
  5
6FEC
330
6FE8
100
AcDbEntity
  8
Dim
 62
     0
370
    -2
100
AcDbLine
 10
2995.230573697304
 20
2377.345380242241
 30
0.0
 11
2995.230573697304
 21
2366.084017188799
 31
0.0
  0
LINE
  5
6FED
330
6FE8
100
AcDbEntity
  8
Dim
 62
     0
370
    -2
100
AcDbLine
 10
2875.2299633458
 20
2366.084017188799
 30
0.0
 11
2985.231184048866
 21
2366.084017188799
 31
0.0
  0
INSERT
  5
6FEE
330
6FE8
100
AcDbEntity
  8
Dim
 62
     0
370
    -2
100
AcDbBlockReference
  2
_DOT
 10
2865.230573697362
 20
2366.084017188799
 30
0.0
 41
9.999389648437498
 42
9.999389648437498
 43
9.999389648437498
 50
180.0
  0
INSERT
  5
6FEF
330
6FE8
100
AcDbEntity
  8
Dim
 62
     0
370
    -2
100
AcDbBlockReference
  2
_DOT
 10
2995.230573697304
 20
2366.084017188799
 30
0.0
 41
9.999389648437498
 42
9.999389648437498
 43
9.999389648437498
  0
MTEXT
  5
6FF0
330
6FE8
100
AcDbEntity
  8
Dim
 62
     0
100
AcDbMText
 10
2930.230573697333
 20
2388.300325782549
 30
0.0
 40
24.4326171875
 41
0.0
 46
0.0
 71
     5
 72
     1
  1
\A1;130
  7
ＭＳ ゴシック
 73
     1
 44
1.0
  0
POINT
  5
6FF1
330
6FE8
100
AcDbEntity
  8
Defpoints
 62
     0
100
AcDbPoint
 10
2865.230573697362
 20
2348.500165775295
 30
0.0
  0
POINT
  5
70A6
330
6FE8
100
AcDbEntity
  8
Defpoints
 62
     0
100
AcDbPoint
 10
2995.230573697304
 20
2352.345380242241
 30
0.0
  0
POINT
  5
70A7
330
6FE8
100
AcDbEntity
  8
Defpoints
 62
     0
100
AcDbPoint
 10
2995.230573697304
 20
2366.084017188799
 30
0.0
  0
ENDBLK
  5
6FEA
330
6FE8
100
AcDbEntity
  8
0
100
AcDbBlockEnd
  0
BLOCK
  5
6FF3
330
6FF2
100
AcDbEntity
  8
0
100
AcDbBlockBegin
  2
*D32
 70
     1
 10
0.0
 20
0.0
 30
0.0
  3
*D32
  1

  0
LINE
  5
6FF5
330
6FF2
100
AcDbEntity
  8
Dim
 62
     0
370
    -2
100
AcDbLine
 10
2680.46371280262
 20
2377.345380242241
 30
0.0
 11
2680.46371280262
 21
2366.084017188799
 31
0.0
  0
LINE
  5
6FF6
330
6FF2
100
AcDbEntity
  8
Dim
 62
     0
370
    -2
100
AcDbLine
 10
2865.230573697362
 20
2373.500165775295
 30
0.0
 11
2865.230573697362
 21
2366.084017188799
 31
0.0
  0
LINE
  5
6FF7
330
6FF2
100
AcDbEntity
  8
Dim
 62
     0
370
    -2
100
AcDbLine
 10
2690.463102451057
 20
2366.084017188799
 30
0.0
 11
2855.231184048925
 21
2366.084017188799
 31
0.0
  0
INSERT
  5
6FF8
330
6FF2
100
AcDbEntity
  8
Dim
 62
     0
370
    -2
100
AcDbBlockReference
  2
_DOT
 10
2680.46371280262
 20
2366.084017188799
 30
0.0
 41
9.999389648437498
 42
9.999389648437498
 43
9.999389648437498
 50
180.0
  0
INSERT
  5
6FF9
330
6FF2
100
AcDbEntity
  8
Dim
 62
     0
370
    -2
100
AcDbBlockReference
  2
_DOT
 10
2865.230573697362
 20
2366.084017188799
 30
0.0
 41
9.999389648437498
 42
9.999389648437498
 43
9.999389648437498
  0
MTEXT
  5
6FFA
330
6FF2
100
AcDbEntity
  8
Dim
 62
     0
100
AcDbMText
 10
2772.847143249991
 20
2388.300325782549
 30
0.0
 40
24.4326171875
 41
0.0
 46
0.0
 71
     5
 72
     1
  1
\A1;184.8
  7
ＭＳ ゴシック
 73
     1
 44
1.0
  0
POINT
  5
6FFB
330
6FF2
100
AcDbEntity
  8
Defpoints
 62
     0
100
AcDbPoint
 10
2680.46371280262
 20
2352.345380242241
 30
0.0
  0
POINT
  5
70A8
330
6FF2
100
AcDbEntity
  8
Defpoints
 62
     0
100
AcDbPoint
 10
2865.230573697362
 20
2348.500165775295
 30
0.0
  0
POINT
  5
70A9
330
6FF2
100
AcDbEntity
  8
Defpoints
 62
     0
100
AcDbPoint
 10
2865.230573697362
 20
2366.084017188799
 30
0.0
  0
ENDBLK
  5
6FF4
330
6FF2
100
AcDbEntity
  8
0
100
AcDbBlockEnd
  0
BLOCK
  5
6FFD
330
6FFC
100
AcDbEntity
  8
0
100
AcDbBlockBegin
  2
*D33
 70
     1
 10
0.0
 20
0.0
 30
0.0
  3
*D33
  1

  0
LINE
  5
6FFF
330
6FFC
100
AcDbEntity
  8
Dim
 62
     0
370
    -2
100
AcDbLine
 10
3265.230573697304
 20
2377.345380242241
 30
0.0
 11
3265.230573697304
 21
2366.084017188799
 31
0.0
  0
LINE
  5
7000
330
6FFC
100
AcDbEntity
  8
Dim
 62
     0
370
    -2
100
AcDbLine
 10
3430.35715461573
 20
2377.345380242241
 30
0.0
 11
3430.35715461573
 21
2366.084017188799
 31
0.0
  0
LINE
  5
7001
330
6FFC
100
AcDbEntity
  8
Dim
 62
     0
370
    -2
100
AcDbLine
 10
3275.229963345741
 20
2366.084017188799
 30
0.0
 11
3420.357764967292
 21
2366.084017188799
 31
0.0
  0
INSERT
  5
7002
330
6FFC
100
AcDbEntity
  8
Dim
 62
     0
370
    -2
100
AcDbBlockReference
  2
_DOT
 10
3265.230573697304
 20
2366.084017188799
 30
0.0
 41
9.999389648437498
 42
9.999389648437498
 43
9.999389648437498
 50
180.0
  0
INSERT
  5
7003
330
6FFC
100
AcDbEntity
  8
Dim
 62
     0
370
    -2
100
AcDbBlockReference
  2
_DOT
 10
3430.35715461573
 20
2366.084017188799
 30
0.0
 41
9.999389648437498
 42
9.999389648437498
 43
9.999389648437498
  0
MTEXT
  5
7004
330
6FFC
100
AcDbEntity
  8
Dim
 62
     0
100
AcDbMText
 10
3347.793864156517
 20
2388.300325782549
 30
0.0
 40
24.4326171875
 41
0.0
 46
0.0
 71
     5
 72
     1
  1
\A1;165.1
  7
ＭＳ ゴシック
 73
     1
 44
1.0
  0
POINT
  5
7005
330
6FFC
100
AcDbEntity
  8
Defpoints
 62
     0
100
AcDbPoint
 10
3265.230573697304
 20
2352.345380242241
 30
0.0
  0
POINT
  5
70AA
330
6FFC
100
AcDbEntity
  8
Defpoints
 62
     0
100
AcDbPoint
 10
3430.35715461573
 20
2352.345380242241
 30
0.0
  0
POINT
  5
70AB
330
6FFC
100
AcDbEntity
  8
Defpoints
 62
     0
100
AcDbPoint
 10
3430.35715461573
 20
2366.084017188799
 30
0.0
  0
ENDBLK
  5
6FFE
330
6FFC
100
AcDbEntity
  8
0
100
AcDbBlockEnd
  0
BLOCK
  5
7007
330
7006
100
AcDbEntity
  8
0
100
AcDbBlockBegin
  2
*D34
 70
     1
 10
0.0
 20
0.0
 30
0.0
  3
*D34
  1

  0
LINE
  5
7009
330
7006
100
AcDbEntity
  8
Dim
 62
     0
370
    -2
100
AcDbLine
 10
2680.463712802634
 20
1708.555650574267
 30
0.0
 11
2680.463712802634
 21
1710.867378500212
 31
0.0
  0
LINE
  5
700A
330
7006
100
AcDbEntity
  8
Dim
 62
     0
370
    -2
100
AcDbLine
 10
3430.35715461573
 20
1708.555650574267
 30
0.0
 11
3430.35715461573
 21
1710.867378500212
 31
0.0
  0
LINE
  5
700B
330
7006
100
AcDbEntity
  8
Dim
 62
     0
370
    -2
100
AcDbLine
 10
2690.463102451072
 20
1710.867378500212
 30
0.0
 11
3420.357764967292
 21
1710.867378500212
 31
0.0
  0
INSERT
  5
700C
330
7006
100
AcDbEntity
  8
Dim
 62
     0
370
    -2
100
AcDbBlockReference
  2
_DOT
 10
2680.463712802634
 20
1710.867378500212
 30
0.0
 41
9.999389648437498
 42
9.999389648437498
 43
9.999389648437498
 50
180.0
  0
INSERT
  5
700D
330
7006
100
AcDbEntity
  8
Dim
 62
     0
370
    -2
100
AcDbBlockReference
  2
_DOT
 10
3430.35715461573
 20
1710.867378500212
 30
0.0
 41
9.999389648437498
 42
9.999389648437498
 43
9.999389648437498
  0
MTEXT
  5
700E
330
7006
100
AcDbEntity
  8
Dim
 62
     0
100
AcDbMText
 10
3055.410433709182
 20
1733.083687093962
 30
0.0
 40
24.4326171875
 41
0.0
 46
0.0
 71
     5
 72
     1
  1
\A1;749.9
  7
ＭＳ ゴシック
 73
     1
 44
1.0
  0
POINT
  5
700F
330
7006
100
AcDbEntity
  8
Defpoints
 62
     0
100
AcDbPoint
 10
2680.463712802634
 20
1733.555650574267
 30
0.0
  0
POINT
  5
70AC
330
7006
100
AcDbEntity
  8
Defpoints
 62
     0
100
AcDbPoint
 10
3430.35715461573
 20
1733.555650574267
 30
0.0
  0
POINT
  5
70AD
330
7006
100
AcDbEntity
  8
Defpoints
 62
     0
100
AcDbPoint
 10
3430.35715461573
 20
1710.867378500212
 30
0.0
  0
ENDBLK
  5
7008
330
7006
100
AcDbEntity
  8
0
100
AcDbBlockEnd
  0
BLOCK
  5
7011
330
7010
100
AcDbEntity
  8
0
100
AcDbBlockBegin
  2
*D35
 70
     1
 10
0.0
 20
0.0
 30
0.0
  3
*D35
  1

  0
LINE
  5
7013
330
7010
100
AcDbEntity
  8
Dim
 62
     0
370
    -2
100
AcDbLine
 10
2623.658254978928
 20
2311.959867197429
 30
0.0
 11
2630.684730393489
 21
2311.959867197429
 31
0.0
  0
LINE
  5
7014
330
7010
100
AcDbEntity
  8
Dim
 62
     0
370
    -2
100
AcDbLine
 10
2623.658254978928
 20
1852.048264818404
 30
0.0
 11
2630.684730393489
 21
1852.048264818404
 31
0.0
  0
LINE
  5
7015
330
7010
100
AcDbEntity
  8
Dim
 62
     0
370
    -2
100
AcDbLine
 10
2630.684730393489
 20
2301.960477548991
 30
0.0
 11
2630.684730393489
 21
1862.047654466842
 31
0.0
  0
INSERT
  5
7016
330
7010
100
AcDbEntity
  8
Dim
 62
     0
370
    -2
100
AcDbBlockReference
  2
_DOT
 10
2630.684730393489
 20
2311.959867197429
 30
0.0
 41
9.999389648437498
 42
9.999389648437498
 43
9.999389648437498
 50
90.0
  0
INSERT
  5
7017
330
7010
100
AcDbEntity
  8
Dim
 62
     0
370
    -2
100
AcDbBlockReference
  2
_DOT
 10
2630.684730393489
 20
1852.048264818404
 30
0.0
 41
9.999389648437498
 42
9.999389648437498
 43
9.999389648437498
 50
270.0
  0
MTEXT
  5
7018
330
7010
100
AcDbEntity
  8
Dim
 62
     0
100
AcDbMText
 10
2608.468421799739
 20
2082.004066007917
 30
0.0
 40
24.4326171875
 41
0.0
 46
0.0
 71
     5
 72
     1
  1
\A1;459.9
  7
ＭＳ ゴシック
 11
0.0
 21
1.0
 31
0.0
 73
     1
 44
1.0
  0
POINT
  5
7019
330
7010
100
AcDbEntity
  8
Defpoints
 62
     0
100
AcDbPoint
 10
2648.658254978928
 20
2311.959867197429
 30
0.0
  0
POINT
  5
70AE
330
7010
100
AcDbEntity
  8
Defpoints
 62
     0
100
AcDbPoint
 10
2648.658254978928
 20
1852.048264818404
 30
0.0
  0
POINT
  5
70AF
330
7010
100
AcDbEntity
  8
Defpoints
 62
     0
100
AcDbPoint
 10
2630.684730393489
 20
1852.048264818404
 30
0.0
  0
ENDBLK
  5
7012
330
7010
100
AcDbEntity
  8
0
100
AcDbBlockEnd
  0
BLOCK
  5
701B
330
701A
100
AcDbEntity
  8
0
100
AcDbBlockBegin
  2
*D36
 70
     1
 10
0.0
 20
0.0
 30
0.0
  3
*D36
  1

  0
LINE
  5
701D
330
701A
100
AcDbEntity
  8
Dim
 62
     0
370
    -2
100
AcDbLine
 10
2720.169101192133
 20
1756.426321799228
 30
0.0
 11
2720.169101192133
 21
1765.35970059074
 31
0.0
  0
LINE
  5
701E
330
701A
100
AcDbEntity
  8
Dim
 62
     0
370
    -2
100
AcDbLine
 10
3140.651796743839
 20
1756.426321799228
 30
0.0
 11
3140.651796743839
 21
1765.35970059074
 31
0.0
  0
LINE
  5
701F
330
701A
100
AcDbEntity
  8
Dim
 62
     0
370
    -2
100
AcDbLine
 10
2730.16849084057
 20
1765.35970059074
 30
0.0
 11
3130.652407095401
 21
1765.35970059074
 31
0.0
  0
INSERT
  5
7020
330
701A
100
AcDbEntity
  8
Dim
 62
     0
370
    -2
100
AcDbBlockReference
  2
_DOT
 10
2720.169101192133
 20
1765.35970059074
 30
0.0
 41
9.999389648437498
 42
9.999389648437498
 43
9.999389648437498
 50
180.0
  0
INSERT
  5
7021
330
701A
100
AcDbEntity
  8
Dim
 62
     0
370
    -2
100
AcDbBlockReference
  2
_DOT
 10
3140.651796743839
 20
1765.35970059074
 30
0.0
 41
9.999389648437498
 42
9.999389648437498
 43
9.999389648437498
  0
MTEXT
  5
7022
330
701A
100
AcDbEntity
  8
Dim
 62
     0
100
AcDbMText
 10
2930.410448967986
 20
1787.57600918449
 30
0.0
 40
24.4326171875
 41
0.0
 46
0.0
 71
     5
 72
     1
  1
\A1;420.5
  7
ＭＳ ゴシック
 73
     1
 44
1.0
  0
POINT
  5
7023
330
701A
100
AcDbEntity
  8
Defpoints
 62
     0
100
AcDbPoint
 10
2720.169101192133
 20
1781.426321799228
 30
0.0
  0
POINT
  5
70B0
330
701A
100
AcDbEntity
  8
Defpoints
 62
     0
100
AcDbPoint
 10
3140.651796743839
 20
1781.426321799228
 30
0.0
  0
POINT
  5
70B1
330
701A
100
AcDbEntity
  8
Defpoints
 62
     0
100
AcDbPoint
 10
3140.651796743839
 20
1765.35970059074
 30
0.0
  0
ENDBLK
  5
701C
330
701A
100
AcDbEntity
  8
0
100
AcDbBlockEnd
  0
BLOCK
  5
7025
330
7024
100
AcDbEntity
  8
0
100
AcDbBlockBegin
  2
*D37
 70
     1
 10
0.0
 20
0.0
 30
0.0
  3
*D37
  1

  0
LINE
  5
7027
330
7024
100
AcDbEntity
  8
Dim
 62
     0
370
    -2
100
AcDbLine
 10
361.2900074939034
 20
914.5188930676059
 30
0.0
 11
286.361379067197
 21
914.518893067606
 31
0.0
  0
LINE
  5
7028
330
7024
100
AcDbEntity
  8
Dim
 62
     0
370
    -2
100
AcDbLine
 10
361.2900074939034
 20
1014.518893067606
 30
0.0
 11
286.361379067197
 21
1014.518893067606
 31
0.0
  0
LINE
  5
7029
330
7024
100
AcDbEntity
  8
Dim
 62
     0
370
    -2
100
AcDbLine
 10
286.361379067197
 20
924.5182827160435
 30
0.0
 11
286.361379067197
 21
1004.519503419168
 31
0.0
  0
INSERT
  5
702A
330
7024
100
AcDbEntity
  8
Dim
 62
     0
370
    -2
100
AcDbBlockReference
  2
_DOT
 10
286.361379067197
 20
914.518893067606
 30
0.0
 41
9.999389648437498
 42
9.999389648437498
 43
9.999389648437498
 50
269.9999999999999
  0
INSERT
  5
702B
330
7024
100
AcDbEntity
  8
Dim
 62
     0
370
    -2
100
AcDbBlockReference
  2
_DOT
 10
286.361379067197
 20
1014.518893067606
 30
0.0
 41
9.999389648437498
 42
9.999389648437498
 43
9.999389648437498
 50
89.99999999999996
  0
MTEXT
  5
702C
330
7024
100
AcDbEntity
  8
Dim
 62
     0
100
AcDbMText
 10
264.145070473447
 20
964.518893067606
 30
0.0
 40
24.4326171875
 41
0.0
 46
0.0
 71
     5
 72
     1
  1
\A1;100
  7
ＭＳ ゴシック
 11
5.684341886080802E-16
 21
1.0
 31
0.0
 73
     1
 44
1.0
  0
POINT
  5
702D
330
7024
100
AcDbEntity
  8
Defpoints
 62
     0
100
AcDbPoint
 10
386.2900074939034
 20
914.5188930676059
 30
0.0
  0
POINT
  5
70B2
330
7024
100
AcDbEntity
  8
Defpoints
 62
     0
100
AcDbPoint
 10
386.2900074939034
 20
1014.518893067606
 30
0.0
  0
POINT
  5
70B3
330
7024
100
AcDbEntity
  8
Defpoints
 62
     0
100
AcDbPoint
 10
286.361379067197
 20
1014.518893067606
 30
0.0
  0
ENDBLK
  5
7026
330
7024
100
AcDbEntity
  8
0
100
AcDbBlockEnd
  0
BLOCK
  5
702F
330
702E
100
AcDbEntity
  8
0
100
AcDbBlockBegin
  2
*D38
 70
     1
 10
0.0
 20
0.0
 30
0.0
  3
*D38
  1

  0
LINE
  5
7031
330
702E
100
AcDbEntity
  8
Dim
 62
     0
370
    -2
100
AcDbLine
 10
361.2900074939034
 20
1014.518893067606
 30
0.0
 11
286.361379067197
 21
1014.518893067606
 31
0.0
  0
LINE
  5
7032
330
702E
100
AcDbEntity
  8
Dim
 62
     0
370
    -2
100
AcDbLine
 10
361.2900074939034
 20
1114.518893067606
 30
0.0
 11
286.361379067197
 21
1114.518893067606
 31
0.0
  0
LINE
  5
7033
330
702E
100
AcDbEntity
  8
Dim
 62
     0
370
    -2
100
AcDbLine
 10
286.361379067197
 20
1024.518282716043
 30
0.0
 11
286.361379067197
 21
1104.519503419168
 31
0.0
  0
INSERT
  5
7034
330
702E
100
AcDbEntity
  8
Dim
 62
     0
370
    -2
100
AcDbBlockReference
  2
_DOT
 10
286.361379067197
 20
1014.518893067606
 30
0.0
 41
9.999389648437498
 42
9.999389648437498
 43
9.999389648437498
 50
269.9999999999999
  0
INSERT
  5
7035
330
702E
100
AcDbEntity
  8
Dim
 62
     0
370
    -2
100
AcDbBlockReference
  2
_DOT
 10
286.361379067197
 20
1114.518893067606
 30
0.0
 41
9.999389648437498
 42
9.999389648437498
 43
9.999389648437498
 50
89.99999999999996
  0
MTEXT
  5
7036
330
702E
100
AcDbEntity
  8
Dim
 62
     0
100
AcDbMText
 10
264.145070473447
 20
1064.518893067606
 30
0.0
 40
24.4326171875
 41
0.0
 46
0.0
 71
     5
 72
     1
  1
\A1;100
  7
ＭＳ ゴシック
 11
5.684341886080808E-16
 21
1.0
 31
0.0
 73
     1
 44
1.0
  0
POINT
  5
7037
330
702E
100
AcDbEntity
  8
Defpoints
 62
     0
100
AcDbPoint
 10
386.2900074939034
 20
1014.518893067606
 30
0.0
  0
POINT
  5
70B4
330
702E
100
AcDbEntity
  8
Defpoints
 62
     0
100
AcDbPoint
 10
386.2900074939034
 20
1114.518893067606
 30
0.0
  0
POINT
  5
70B5
330
702E
100
AcDbEntity
  8
Defpoints
 62
     0
100
AcDbPoint
 10
286.361379067197
 20
1114.518893067606
 30
0.0
  0
ENDBLK
  5
7030
330
702E
100
AcDbEntity
  8
0
100
AcDbBlockEnd
  0
BLOCK
  5
7039
330
7038
100
AcDbEntity
  8
0
100
AcDbBlockBegin
  2
*D39
 70
     1
 10
0.0
 20
0.0
 30
0.0
  3
*D39
  1

  0
LINE
  5
703B
330
7038
100
AcDbEntity
  8
Dim
 62
     0
370
    -2
100
AcDbLine
 10
2680.46371280262
 20
2429.395793422892
 30
0.0
 11
2680.46371280262
 21
2423.900559084746
 31
0.0
  0
LINE
  5
703C
330
7038
100
AcDbEntity
  8
Dim
 62
     0
370
    -2
100
AcDbLine
 10
2830.410433709197
 20
2429.395793422892
 30
0.0
 11
2830.410433709197
 21
2423.900559084746
 31
0.0
  0
LINE
  5
703D
330
7038
100
AcDbEntity
  8
Dim
 62
     0
370
    -2
100
AcDbLine
 10
2690.463102451057
 20
2423.900559084746
 30
0.0
 11
2820.411044060759
 21
2423.900559084746
 31
0.0
  0
INSERT
  5
703E
330
7038
100
AcDbEntity
  8
Dim
 62
     0
370
    -2
100
AcDbBlockReference
  2
_DOT
 10
2680.46371280262
 20
2423.900559084746
 30
0.0
 41
9.999389648437498
 42
9.999389648437498
 43
9.999389648437498
 50
180.0
  0
INSERT
  5
703F
330
7038
100
AcDbEntity
  8
Dim
 62
     0
370
    -2
100
AcDbBlockReference
  2
_DOT
 10
2830.410433709197
 20
2423.900559084746
 30
0.0
 41
9.999389648437498
 42
9.999389648437498
 43
9.999389648437498
  0
MTEXT
  5
7040
330
7038
100
AcDbEntity
  8
Dim
 62
     0
100
AcDbMText
 10
2755.437073255908
 20
2446.116867678496
 30
0.0
 40
24.4326171875
 41
0.0
 46
0.0
 71
     5
 72
     1
  1
\A1;149.9
  7
ＭＳ ゴシック
 73
     1
 44
1.0
  0
POINT
  5
7041
330
7038
100
AcDbEntity
  8
Defpoints
 62
     0
100
AcDbPoint
 10
2680.46371280262
 20
2404.395793422892
 30
0.0
  0
POINT
  5
70B6
330
7038
100
AcDbEntity
  8
Defpoints
 62
     0
100
AcDbPoint
 10
2830.410433709197
 20
2404.395793422892
 30
0.0
  0
POINT
  5
70B7
330
7038
100
AcDbEntity
  8
Defpoints
 62
     0
100
AcDbPoint
 10
2830.410433709197
 20
2423.900559084746
 30
0.0
  0
ENDBLK
  5
703A
330
7038
100
AcDbEntity
  8
0
100
AcDbBlockEnd
  0
BLOCK
  5
7043
330
7042
100
AcDbEntity
  8
0
100
AcDbBlockBegin
  2
*D40
 70
     1
 10
0.0
 20
0.0
 30
0.0
  3
*D40
  1

  0
LINE
  5
7045
330
7042
100
AcDbEntity
  8
Dim
 62
     0
370
    -2
100
AcDbLine
 10
2567.530025472905
 20
2311.959867197429
 30
0.0
 11
2555.232069441609
 21
2311.959867197429
 31
0.0
  0
LINE
  5
7046
330
7042
100
AcDbEntity
  8
Dim
 62
     0
370
    -2
100
AcDbLine
 10
2567.530025472891
 20
2182.36447318437
 30
0.0
 11
2555.232069441609
 21
2182.36447318437
 31
0.0
  0
LINE
  5
7047
330
7042
100
AcDbEntity
  8
Dim
 62
     0
370
    -2
100
AcDbLine
 10
2555.232069441609
 20
2301.960477548991
 30
0.0
 11
2555.232069441609
 21
2192.363862832807
 31
0.0
  0
INSERT
  5
7048
330
7042
100
AcDbEntity
  8
Dim
 62
     0
370
    -2
100
AcDbBlockReference
  2
_DOT
 10
2555.232069441609
 20
2311.959867197429
 30
0.0
 41
9.999389648437498
 42
9.999389648437498
 43
9.999389648437498
 50
90.0
  0
INSERT
  5
7049
330
7042
100
AcDbEntity
  8
Dim
 62
     0
370
    -2
100
AcDbBlockReference
  2
_DOT
 10
2555.232069441609
 20
2182.36447318437
 30
0.0
 41
9.999389648437498
 42
9.999389648437498
 43
9.999389648437498
 50
270.0
  0
MTEXT
  5
704A
330
7042
100
AcDbEntity
  8
Dim
 62
     0
100
AcDbMText
 10
2533.015760847859
 20
2247.162170190899
 30
0.0
 40
24.4326171875
 41
0.0
 46
0.0
 71
     5
 72
     1
  1
\A1;129.6
  7
ＭＳ ゴシック
 11
0.0
 21
1.0
 31
0.0
 73
     1
 44
1.0
  0
POINT
  5
704B
330
7042
100
AcDbEntity
  8
Defpoints
 62
     0
100
AcDbPoint
 10
2592.530025472905
 20
2311.959867197429
 30
0.0
  0
POINT
  5
70B8
330
7042
100
AcDbEntity
  8
Defpoints
 62
     0
100
AcDbPoint
 10
2592.530025472891
 20
2182.36447318437
 30
0.0
  0
POINT
  5
70B9
330
7042
100
AcDbEntity
  8
Defpoints
 62
     0
100
AcDbPoint
 10
2555.232069441609
 20
2182.36447318437
 30
0.0
  0
ENDBLK
  5
7044
330
7042
100
AcDbEntity
  8
0
100
AcDbBlockEnd
  0
BLOCK
  5
704D
330
704C
100
AcDbEntity
  8
0
100
AcDbBlockBegin
  2
*D41
 70
     1
 10
0.0
 20
0.0
 30
0.0
  3
*D41
  1

  0
LINE
  5
704F
330
704C
100
AcDbEntity
  8
Dim
 62
     0
370
    -2
100
AcDbLine
 10
2562.530025472905
 20
2182.36447318437
 30
0.0
 11
2555.232069441609
 21
2182.36447318437
 31
0.0
  0
LINE
  5
7050
330
704C
100
AcDbEntity
  8
Dim
 62
     0
370
    -2
100
AcDbLine
 10
2562.530025472905
 20
1812.01314629087
 30
0.0
 11
2555.232069441609
 21
1812.01314629087
 31
0.0
  0
LINE
  5
7051
330
704C
100
AcDbEntity
  8
Dim
 62
     0
370
    -2
100
AcDbLine
 10
2555.232069441609
 20
2172.365083535932
 30
0.0
 11
2555.232069441609
 21
1822.012535939308
 31
0.0
  0
INSERT
  5
7052
330
704C
100
AcDbEntity
  8
Dim
 62
     0
370
    -2
100
AcDbBlockReference
  2
_DOT
 10
2555.232069441609
 20
2182.36447318437
 30
0.0
 41
9.999389648437498
 42
9.999389648437498
 43
9.999389648437498
 50
90.0
  0
INSERT
  5
7053
330
704C
100
AcDbEntity
  8
Dim
 62
     0
370
    -2
100
AcDbBlockReference
  2
_DOT
 10
2555.232069441609
 20
1812.01314629087
 30
0.0
 41
9.999389648437498
 42
9.999389648437498
 43
9.999389648437498
 50
270.0
  0
MTEXT
  5
7054
330
704C
100
AcDbEntity
  8
Dim
 62
     0
100
AcDbMText
 10
2533.015760847859
 20
1997.18880973762
 30
0.0
 40
24.4326171875
 41
0.0
 46
0.0
 71
     5
 72
     1
  1
\A1;370.4
  7
ＭＳ ゴシック
 11
0.0
 21
1.0
 31
0.0
 73
     1
 44
1.0
  0
POINT
  5
7055
330
704C
100
AcDbEntity
  8
Defpoints
 62
     0
100
AcDbPoint
 10
2587.530025472905
 20
2182.36447318437
 30
0.0
  0
POINT
  5
70BA
330
704C
100
AcDbEntity
  8
Defpoints
 62
     0
100
AcDbPoint
 10
2587.530025472905
 20
1812.01314629087
 30
0.0
  0
POINT
  5
70BB
330
704C
100
AcDbEntity
  8
Defpoints
 62
     0
100
AcDbPoint
 10
2555.232069441609
 20
1812.01314629087
 30
0.0
  0
ENDBLK
  5
704E
330
704C
100
AcDbEntity
  8
0
100
AcDbBlockEnd
  0
BLOCK
  5
7057
330
7056
100
AcDbEntity
  8
0
100
AcDbBlockBegin
  2
*D42
 70
     1
 10
0.0
 20
0.0
 30
0.0
  3
*D42
  1

  0
LINE
  5
7059
330
7056
100
AcDbEntity
  8
Dim
 62
     0
370
    -2
100
AcDbLine
 10
3497.731296322975
 20
2311.959867197429
 30
0.0
 11
3503.753085309695
 21
2311.959867197429
 31
0.0
  0
LINE
  5
705A
330
7056
100
AcDbEntity
  8
Dim
 62
     0
370
    -2
100
AcDbLine
 10
3497.731296322975
 20
1811.717293050712
 30
0.0
 11
3503.753085309695
 21
1811.717293050712
 31
0.0
  0
LINE
  5
705B
330
7056
100
AcDbEntity
  8
Dim
 62
     0
370
    -2
100
AcDbLine
 10
3503.753085309695
 20
2301.960477548991
 30
0.0
 11
3503.753085309695
 21
1821.71668269915
 31
0.0
  0
INSERT
  5
705C
330
7056
100
AcDbEntity
  8
Dim
 62
     0
370
    -2
100
AcDbBlockReference
  2
_DOT
 10
3503.753085309695
 20
2311.959867197429
 30
0.0
 41
9.999389648437498
 42
9.999389648437498
 43
9.999389648437498
 50
90.0
  0
INSERT
  5
705D
330
7056
100
AcDbEntity
  8
Dim
 62
     0
370
    -2
100
AcDbBlockReference
  2
_DOT
 10
3503.753085309695
 20
1811.717293050712
 30
0.0
 41
9.999389648437498
 42
9.999389648437498
 43
9.999389648437498
 50
270.0
  0
MTEXT
  5
705E
330
7056
100
AcDbEntity
  8
Dim
 62
     0
100
AcDbMText
 10
3481.280234235476
 20
2076.06969850379
 30
0.0
 40
24.4326171875
 41
0.0
 46
0.0
 71
     5
 72
     1
  1
\A1;\fArial|b0|i0|c0|p0;500.2
  7
ＭＳ ゴシック
 11
0.0
 21
1.0
 31
0.0
 73
     1
 44
1.0
  0
POINT
  5
705F
330
7056
100
AcDbEntity
  8
Defpoints
 62
     0
100
AcDbPoint
 10
3472.731296322975
 20
2311.959867197429
 30
0.0
  0
POINT
  5
70BC
330
7056
100
AcDbEntity
  8
Defpoints
 62
     0
100
AcDbPoint
 10
3472.731296322975
 20
1811.717293050712
 30
0.0
  0
POINT
  5
70BD
330
7056
100
AcDbEntity
  8
Defpoints
 62
     0
100
AcDbPoint
 10
3503.753085309695
 20
1811.717293050712
 30
0.0
  0
ENDBLK
  5
7058
330
7056
100
AcDbEntity
  8
0
100
AcDbBlockEnd
  0
BLOCK
  5
7061
330
7060
100
AcDbEntity
  8
0
100
AcDbBlockBegin
  2
*D43
 70
     1
 10
0.0
 20
0.0
 30
0.0
  3
*D43
  1

  0
LINE
  5
7063
330
7060
100
AcDbEntity
  8
Dim
 62
     0
370
    -2
100
AcDbLine
 10
4396.429716819182
 20
1155.841257846862
 30
0.0
 11
4396.429716819182
 21
1148.774899370741
 31
0.0
  0
LINE
  5
7064
330
7060
100
AcDbEntity
  8
Dim
 62
     0
370
    -2
100
AcDbLine
 10
4169.429712425856
 20
1155.694821433374
 30
0.0
 11
4169.429712425856
 21
1148.774899370741
 31
0.0
  0
LINE
  5
7065
330
7060
100
AcDbEntity
  8
Dim
 62
     0
370
    -2
100
AcDbLine
 10
4386.430327170744
 20
1148.774899370741
 30
0.0
 11
4179.429102074294
 21
1148.774899370741
 31
0.0
  0
INSERT
  5
7066
330
7060
100
AcDbEntity
  8
Dim
 62
     0
370
    -2
100
AcDbBlockReference
  2
_DOT
 10
4396.429716819182
 20
1148.774899370741
 30
0.0
 41
9.999389648437498
 42
9.999389648437498
 43
9.999389648437498
  0
INSERT
  5
7067
330
7060
100
AcDbEntity
  8
Dim
 62
     0
370
    -2
100
AcDbBlockReference
  2
_DOT
 10
4169.429712425856
 20
1148.774899370741
 30
0.0
 41
9.999389648437498
 42
9.999389648437498
 43
9.999389648437498
 50
180.0
  0
MTEXT
  5
7068
330
7060
100
AcDbEntity
  8
Dim
 62
     0
100
AcDbMText
 10
4282.929714622519
 20
1170.991207964491
 30
0.0
 40
24.4326171875
 41
0.0
 46
0.0
 71
     5
 72
     1
  1
\A1;230
  7
ＭＳ ゴシック
 73
     1
 44
1.0
  0
POINT
  5
7069
330
7060
100
AcDbEntity
  8
Defpoints
 62
     0
100
AcDbPoint
 10
4396.429716819182
 20
1130.841257846862
 30
0.0
  0
POINT
  5
70BE
330
7060
100
AcDbEntity
  8
Defpoints
 62
     0
100
AcDbPoint
 10
4169.429712425856
 20
1130.694821433374
 30
0.0
  0
POINT
  5
70BF
330
7060
100
AcDbEntity
  8
Defpoints
 62
     0
100
AcDbPoint
 10
4169.429712425856
 20
1148.774899370741
 30
0.0
  0
ENDBLK
  5
7062
330
7060
100
AcDbEntity
  8
0
100
AcDbBlockEnd
  0
BLOCK
  5
706B
330
706A
100
AcDbEntity
  8
0
100
AcDbBlockBegin
  2
*D44
 70
     1
 10
0.0
 20
0.0
 30
0.0
  3
*D44
  1

  0
LINE
  5
706D
330
706A
100
AcDbEntity
  8
Dim
 62
     0
370
    -2
100
AcDbLine
 10
4457.241697854854
 20
1103.002390102198
 30
0.0
 11
4443.87744736108
 21
1103.002390102198
 31
0.0
  0
LINE
  5
706E
330
706A
100
AcDbEntity
  8
Dim
 62
     0
370
    -2
100
AcDbLine
 10
4457.241697854854
 20
1063.002390102198
 30
0.0
 11
4443.87744736108
 21
1063.002390102198
 31
0.0
  0
LINE
  5
706F
330
706A
100
AcDbEntity
  8
Dim
 62
     0
370
    -2
100
AcDbLine
 10
4443.87744736108
 20
1103.002390102198
 30
0.0
 11
4443.87744736108
 21
1063.002390102198
 31
0.0
  0
LINE
  5
7070
330
706A
100
AcDbEntity
  8
Dim
 62
     0
370
    -2
100
AcDbLine
 10
4443.87744736108
 20
1113.001779750635
 30
0.0
 11
4443.87744736108
 21
1123.001169399073
 31
0.0
  0
LINE
  5
7071
330
706A
100
AcDbEntity
  8
Dim
 62
     0
370
    -2
100
AcDbLine
 10
4443.87744736108
 20
1053.00300045376
 30
0.0
 11
4443.87744736108
 21
1043.003610805323
 31
0.0
  0
INSERT
  5
7072
330
706A
100
AcDbEntity
  8
Dim
 62
     0
370
    -2
100
AcDbBlockReference
  2
_DOT
 10
4443.87744736108
 20
1103.002390102198
 30
0.0
 41
9.999389648437498
 42
9.999389648437498
 43
9.999389648437498
 50
270.0
  0
INSERT
  5
7073
330
706A
100
AcDbEntity
  8
Dim
 62
     0
370
    -2
100
AcDbBlockReference
  2
_DOT
 10
4443.87744736108
 20
1063.002390102198
 30
0.0
 41
9.999389648437498
 42
9.999389648437498
 43
9.999389648437498
 50
90.0
  0
MTEXT
  5
70C0
330
706A
100
AcDbEntity
  8
Dim
 62
     0
100
AcDbMText
 10
4421.66113876733
 20
1083.002390102198
 30
0.0
 40
24.4326171875
 41
0.0
 46
0.0
 71
     5
 72
     1
  1
\A1;40
  7
ＭＳ ゴシック
 11
0.0
 21
1.0
 31
0.0
 73
     1
 44
1.0
  0
POINT
  5
70C1
330
706A
100
AcDbEntity
  8
Defpoints
 62
     0
100
AcDbPoint
 10
4432.241697854854
 20
1103.002390102198
 30
0.0
  0
POINT
  5
70C2
330
706A
100
AcDbEntity
  8
Defpoints
 62
     0
100
AcDbPoint
 10
4432.241697854854
 20
1063.002390102198
 30
0.0
  0
POINT
  5
70C3
330
706A
100
AcDbEntity
  8
Defpoints
 62
     0
100
AcDbPoint
 10
4443.87744736108
 20
1063.002390102198
 30
0.0
  0
ENDBLK
  5
706C
330
706A
100
AcDbEntity
  8
0
100
AcDbBlockEnd
  0
BLOCK
  5
7075
330
7074
100
AcDbEntity
  8
0
100
AcDbBlockBegin
  2
*D45
 70
     1
 10
0.0
 20
0.0
 30
0.0
  3
*D45
  1

  0
LINE
  5
7077
330
7074
100
AcDbEntity
  8
Dim
 62
     0
370
    -2
100
AcDbLine
 10
4457.241697854854
 20
1063.002390102198
 30
0.0
 11
4443.87744736108
 21
1063.002390102198
 31
0.0
  0
LINE
  5
7078
330
7074
100
AcDbEntity
  8
Dim
 62
     0
370
    -2
100
AcDbLine
 10
4457.241697854854
 20
933.0023851542121
 30
0.0
 11
4443.87744736108
 21
933.0023851542121
 31
0.0
  0
LINE
  5
7079
330
7074
100
AcDbEntity
  8
Dim
 62
     0
370
    -2
100
AcDbLine
 10
4443.87744736108
 20
1053.00300045376
 30
0.0
 11
4443.87744736108
 21
943.0017748026496
 31
0.0
  0
INSERT
  5
707A
330
7074
100
AcDbEntity
  8
Dim
 62
     0
370
    -2
100
AcDbBlockReference
  2
_DOT
 10
4443.87744736108
 20
1063.002390102198
 30
0.0
 41
9.999389648437498
 42
9.999389648437498
 43
9.999389648437498
 50
90.0
  0
INSERT
  5
707B
330
7074
100
AcDbEntity
  8
Dim
 62
     0
370
    -2
100
AcDbBlockReference
  2
_DOT
 10
4443.87744736108
 20
933.0023851542121
 30
0.0
 41
9.999389648437498
 42
9.999389648437498
 43
9.999389648437498
 50
270.0
  0
MTEXT
  5
707C
330
7074
100
AcDbEntity
  8
Dim
 62
     0
100
AcDbMText
 10
4421.66113876733
 20
998.002387628205
 30
0.0
 40
24.4326171875
 41
0.0
 46
0.0
 71
     5
 72
     1
  1
\A1;130
  7
ＭＳ ゴシック
 11
0.0
 21
1.0
 31
0.0
 73
     1
 44
1.0
  0
POINT
  5
707D
330
7074
100
AcDbEntity
  8
Defpoints
 62
     0
100
AcDbPoint
 10
4432.241697854854
 20
1063.002390102198
 30
0.0
  0
POINT
  5
70C4
330
7074
100
AcDbEntity
  8
Defpoints
 62
     0
100
AcDbPoint
 10
4432.241697854854
 20
933.0023851542121
 30
0.0
  0
POINT
  5
70C5
330
7074
100
AcDbEntity
  8
Defpoints
 62
     0
100
AcDbPoint
 10
4443.87744736108
 20
933.0023851542121
 30
0.0
  0
ENDBLK
  5
7076
330
7074
100
AcDbEntity
  8
0
100
AcDbBlockEnd
  0
BLOCK
  5
707F
330
707E
100
AcDbEntity
  8
0
100
AcDbBlockBegin
  2
*D46
 70
     1
 10
0.0
 20
0.0
 30
0.0
  3
*D46
  1

  0
LINE
  5
7081
330
707E
100
AcDbEntity
  8
Dim
 62
     0
370
    -2
100
AcDbLine
 10
3817.500322232311
 20
1103.002403567493
 30
0.0
 11
3819.812050158257
 21
1103.002403567493
 31
0.0
  0
LINE
  5
7082
330
707E
100
AcDbEntity
  8
Dim
 62
     0
370
    -2
100
AcDbLine
 10
3817.500322232311
 20
1018.002402271266
 30
0.0
 11
3819.812050158257
 21
1018.002402271266
 31
0.0
  0
LINE
  5
7083
330
707E
100
AcDbEntity
  8
Dim
 62
     0
370
    -2
100
AcDbLine
 10
3819.812050158257
 20
1093.003013919055
 30
0.0
 11
3819.812050158257
 21
1028.001791919704
 31
0.0
  0
INSERT
  5
7084
330
707E
100
AcDbEntity
  8
Dim
 62
     0
370
    -2
100
AcDbBlockReference
  2
_DOT
 10
3819.812050158257
 20
1103.002403567493
 30
0.0
 41
9.999389648437498
 42
9.999389648437498
 43
9.999389648437498
 50
90.0
  0
INSERT
  5
7085
330
707E
100
AcDbEntity
  8
Dim
 62
     0
370
    -2
100
AcDbBlockReference
  2
_DOT
 10
3819.812050158257
 20
1018.002402271266
 30
0.0
 41
9.999389648437498
 42
9.999389648437498
 43
9.999389648437498
 50
270.0
  0
MTEXT
  5
7086
330
707E
100
AcDbEntity
  8
Dim
 62
     0
100
AcDbMText
 10
3797.595741564507
 20
1058.906050621654
 30
0.0
 40
24.4326171875
 41
0.0
 46
0.0
 71
     5
 72
     1
  1
\A1;85
  7
ＭＳ ゴシック
 11
0.0
 21
1.0
 31
0.0
 73
     1
 44
1.0
  0
POINT
  5
7087
330
707E
100
AcDbEntity
  8
Defpoints
 62
     0
100
AcDbPoint
 10
3842.500322232311
 20
1103.002403567493
 30
0.0
  0
POINT
  5
70C6
330
707E
100
AcDbEntity
  8
Defpoints
 62
     0
100
AcDbPoint
 10
3842.500322232311
 20
1018.002402271266
 30
0.0
  0
POINT
  5
70C7
330
707E
100
AcDbEntity
  8
Defpoints
 62
     0
100
AcDbPoint
 10
3819.812050158257
 20
1018.002402271266
 30
0.0
  0
ENDBLK
  5
7080
330
707E
100
AcDbEntity
  8
0
100
AcDbBlockEnd
  0
BLOCK
  5
7089
330
7088
100
AcDbEntity
  8
0
100
AcDbBlockBegin
  2
*D47
 70
     1
 10
0.0
 20
0.0
 30
0.0
  3
*D47
  1

  0
LINE
  5
708B
330
7088
100
AcDbEntity
  8
Dim
 62
     0
370
    -2
100
AcDbLine
 10
3817.500322232311
 20
1018.002402271266
 30
0.0
 11
3819.812050158257
 21
1018.002402271266
 31
0.0
  0
LINE
  5
708C
330
7088
100
AcDbEntity
  8
Dim
 62
     0
370
    -2
100
AcDbLine
 10
3822.500322232311
 20
933.0024066517128
 30
0.0
 11
3819.812050158257
 21
933.0024066517128
 31
0.0
  0
LINE
  5
708D
330
7088
100
AcDbEntity
  8
Dim
 62
     0
370
    -2
100
AcDbLine
 10
3819.812050158257
 20
1008.003012622829
 30
0.0
 11
3819.812050158257
 21
943.0017963001503
 31
0.0
  0
INSERT
  5
708E
330
7088
100
AcDbEntity
  8
Dim
 62
     0
370
    -2
100
AcDbBlockReference
  2
_DOT
 10
3819.812050158257
 20
1018.002402271266
 30
0.0
 41
9.999389648437498
 42
9.999389648437498
 43
9.999389648437498
 50
90.0
  0
INSERT
  5
708F
330
7088
100
AcDbEntity
  8
Dim
 62
     0
370
    -2
100
AcDbBlockReference
  2
_DOT
 10
3819.812050158257
 20
933.0024066517128
 30
0.0
 41
9.999389648437498
 42
9.999389648437498
 43
9.999389648437498
 50
270.0
  0
MTEXT
  5
7090
330
7088
100
AcDbEntity
  8
Dim
 62
     0
100
AcDbMText
 10
3797.595741564507
 20
983.7589513457117
 30
0.0
 40
24.4326171875
 41
0.0
 46
0.0
 71
     5
 72
     1
  1
\A1;85
  7
ＭＳ ゴシック
 11
0.0
 21
1.0
 31
0.0
 73
     1
 44
1.0
  0
POINT
  5
7091
330
7088
100
AcDbEntity
  8
Defpoints
 62
     0
100
AcDbPoint
 10
3842.500322232311
 20
1018.002402271266
 30
0.0
  0
POINT
  5
70C8
330
7088
100
AcDbEntity
  8
Defpoints
 62
     0
100
AcDbPoint
 10
3847.500322232311
 20
933.0024066517128
 30
0.0
  0
POINT
  5
70C9
330
7088
100
AcDbEntity
  8
Defpoints
 62
     0
100
AcDbPoint
 10
3819.812050158257
 20
933.0024066517128
 30
0.0
  0
ENDBLK
  5
708A
330
7088
100
AcDbEntity
  8
0
100
AcDbBlockEnd
  0
BLOCK
  5
7093
330
7092
100
AcDbEntity
  8
0
100
AcDbBlockBegin
  2
*D48
 70
     1
 10
0.0
 20
0.0
 30
0.0
  3
*D48
  1

  0
LINE
  5
7095
330
7092
100
AcDbEntity
  8
Dim
 62
     0
370
    -2
100
AcDbLine
 10
3752.332578326238
 20
1103.002403567507
 30
0.0
 11
3754.968206682196
 21
1103.002403567507
 31
0.0
  0
LINE
  5
7096
330
7092
100
AcDbEntity
  8
Dim
 62
     0
370
    -2
100
AcDbLine
 10
3757.332578326238
 20
933.0024066517128
 30
0.0
 11
3754.968206682196
 21
933.0024066517128
 31
0.0
  0
LINE
  5
7097
330
7092
100
AcDbEntity
  8
Dim
 62
     0
370
    -2
100
AcDbLine
 10
3754.968206682196
 20
1093.00301391907
 30
0.0
 11
3754.968206682196
 21
943.0017963001503
 31
0.0
  0
INSERT
  5
7098
330
7092
100
AcDbEntity
  8
Dim
 62
     0
370
    -2
100
AcDbBlockReference
  2
_DOT
 10
3754.968206682196
 20
1103.002403567507
 30
0.0
 41
9.999389648437498
 42
9.999389648437498
 43
9.999389648437498
 50
90.0
  0
INSERT
  5
7099
330
7092
100
AcDbEntity
  8
Dim
 62
     0
370
    -2
100
AcDbBlockReference
  2
_DOT
 10
3754.968206682196
 20
933.0024066517128
 30
0.0
 41
9.999389648437498
 42
9.999389648437498
 43
9.999389648437498
 50
270.0
  0
MTEXT
  5
709A
330
7092
100
AcDbEntity
  8
Dim
 62
     0
100
AcDbMText
 10
3732.751898088446
 20
1018.00240510961
 30
0.0
 40
24.4326171875
 41
0.0
 46
0.0
 71
     5
 72
     1
  1
\A1;170
  7
ＭＳ ゴシック
 11
0.0
 21
1.0
 31
0.0
 73
     1
 44
1.0
  0
POINT
  5
709B
330
7092
100
AcDbEntity
  8
Defpoints
 62
     0
100
AcDbPoint
 10
3777.332578326238
 20
1103.002403567507
 30
0.0
  0
POINT
  5
70CA
330
7092
100
AcDbEntity
  8
Defpoints
 62
     0
100
AcDbPoint
 10
3782.332578326238
 20
933.0024066517128
 30
0.0
  0
POINT
  5
70CB
330
7092
100
AcDbEntity
  8
Defpoints
 62
     0
100
AcDbPoint
 10
3754.968206682196
 20
933.0024066517128
 30
0.0
  0
ENDBLK
  5
7094
330
7092
100
AcDbEntity
  8
0
100
AcDbBlockEnd
  0
BLOCK
  5
709D
330
709C
100
AcDbEntity
  8
0
100
AcDbBlockBegin
  2
*D49
 70
     1
 10
0.0
 20
0.0
 30
0.0
  3
*D49
  1

  0
LINE
  5
709F
330
709C
100
AcDbEntity
  8
Dim
 62
     0
370
    -2
100
AcDbLine
 10
2995.230573697304
 20
2377.345380242241
 30
0.0
 11
2995.230573697304
 21
2366.084017188799
 31
0.0
  0
LINE
  5
70A0
330
709C
100
AcDbEntity
  8
Dim
 62
     0
370
    -2
100
AcDbLine
 10
3265.230573697304
 20
2377.345380242241
 30
0.0
 11
3265.230573697304
 21
2366.084017188799
 31
0.0
  0
LINE
  5
70A1
330
709C
100
AcDbEntity
  8
Dim
 62
     0
370
    -2
100
AcDbLine
 10
3005.229963345741
 20
2366.084017188799
 30
0.0
 11
3255.231184048866
 21
2366.084017188799
 31
0.0
  0
INSERT
  5
70A2
330
709C
100
AcDbEntity
  8
Dim
 62
     0
370
    -2
100
AcDbBlockReference
  2
_DOT
 10
2995.230573697304
 20
2366.084017188799
 30
0.0
 41
9.999389648437498
 42
9.999389648437498
 43
9.999389648437498
 50
180.0
  0
INSERT
  5
70A3
330
709C
100
AcDbEntity
  8
Dim
 62
     0
370
    -2
100
AcDbBlockReference
  2
_DOT
 10
3265.230573697304
 20
2366.084017188799
 30
0.0
 41
9.999389648437498
 42
9.999389648437498
 43
9.999389648437498
  0
MTEXT
  5
70A4
330
709C
100
AcDbEntity
  8
Dim
 62
     0
100
AcDbMText
 10
3130.230573697304
 20
2388.300325782549
 30
0.0
 40
24.4326171875
 41
0.0
 46
0.0
 71
     5
 72
     1
  1
\A1;270
  7
ＭＳ ゴシック
 73
     1
 44
1.0
  0
POINT
  5
70A5
330
709C
100
AcDbEntity
  8
Defpoints
 62
     0
100
AcDbPoint
 10
2995.230573697304
 20
2352.345380242241
 30
0.0
  0
POINT
  5
70CC
330
709C
100
AcDbEntity
  8
Defpoints
 62
     0
100
AcDbPoint
 10
3265.230573697304
 20
2352.345380242241
 30
0.0
  0
POINT
  5
70CD
330
709C
100
AcDbEntity
  8
Defpoints
 62
     0
100
AcDbPoint
 10
3265.230573697304
 20
2366.084017188799
 30
0.0
  0
ENDBLK
  5
709E
330
709C
100
AcDbEntity
  8
0
100
AcDbBlockEnd
  0
BLOCK
  5
70E0
330
70DF
100
AcDbEntity
  8
0
100
AcDbBlockBegin
  2
*D50
 70
     1
 10
0.0
 20
0.0
 30
0.0
  3
*D50
  1

  0
LINE
  5
70E2
330
70DF
100
AcDbEntity
  8
Dim
 62
     0
370
    -2
100
AcDbLine
 10
1544.497723312816
 20
729.9683809753055
 30
0.0
 11
1544.497723312816
 21
646.47890724729
 31
0.0
  0
LINE
  5
70E3
330
70DF
100
AcDbEntity
  8
Dim
 62
     0
370
    -2
100
AcDbLine
 10
1584.497723312816
 20
849.5598582759449
 30
0.0
 11
1584.497723312816
 21
646.47890724729
 31
0.0
  0
LINE
  5
70E4
330
70DF
100
AcDbEntity
  8
Dim
 62
     0
370
    -2
100
AcDbLine
 10
1554.497112961253
 20
646.47890724729
 30
0.0
 11
1574.498333664378
 21
646.47890724729
 31
0.0
  0
INSERT
  5
70E5
330
70DF
100
AcDbEntity
  8
Dim
 62
     0
370
    -2
100
AcDbBlockReference
  2
_DOT
 10
1544.497723312816
 20
646.47890724729
 30
0.0
 41
9.999389648437498
 42
9.999389648437498
 43
9.999389648437498
 50
180.0
  0
INSERT
  5
70E6
330
70DF
100
AcDbEntity
  8
Dim
 62
     0
370
    -2
100
AcDbBlockReference
  2
_DOT
 10
1584.497723312816
 20
646.47890724729
 30
0.0
 41
9.999389648437498
 42
9.999389648437498
 43
9.999389648437498
  0
MTEXT
  5
70E7
330
70DF
100
AcDbEntity
  8
Dim
 62
     0
100
AcDbMText
 10
1564.497723312816
 20
668.69521584104
 30
0.0
 40
24.4326171875
 41
0.0
 46
0.0
 71
     5
 72
     1
  1
\A1;40
  7
ＭＳ ゴシック
 73
     1
 44
1.0
  0
POINT
  5
70E8
330
70DF
100
AcDbEntity
  8
Defpoints
 62
     0
100
AcDbPoint
 10
1544.497723312816
 20
754.9683809753055
 30
0.0
  0
POINT
  5
70E9
330
70DF
100
AcDbEntity
  8
Defpoints
 62
     0
100
AcDbPoint
 10
1584.497723312816
 20
874.5598582759449
 30
0.0
  0
POINT
  5
70EA
330
70DF
100
AcDbEntity
  8
Defpoints
 62
     0
100
AcDbPoint
 10
1584.497723312816
 20
646.47890724729
 30
0.0
  0
ENDBLK
  5
70E1
330
70DF
100
AcDbEntity
  8
0
100
AcDbBlockEnd
  0
BLOCK
  5
70EE
330
70ED
100
AcDbEntity
  8
0
100
AcDbBlockBegin
  2
*D51
 70
     1
 10
0.0
 20
0.0
 30
0.0
  3
*D51
  1

  0
LINE
  5
70F0
330
70ED
100
AcDbEntity
  8
Dim
 62
     0
370
    -2
100
AcDbLine
 10
1747.767973405499
 20
864.5188778088009
 30
0.0
 11
1796.887616541499
 21
864.5188778088009
 31
0.0
  0
LINE
  5
70F1
330
70ED
100
AcDbEntity
  8
Dim
 62
     0
370
    -2
100
AcDbLine
 10
1747.767973405499
 20
1164.518877808801
 30
0.0
 11
1796.887616541499
 21
1164.518877808801
 31
0.0
  0
LINE
  5
70F2
330
70ED
100
AcDbEntity
  8
Dim
 62
     0
370
    -2
100
AcDbLine
 10
1796.887616541499
 20
874.5182674572384
 30
0.0
 11
1796.887616541499
 21
1154.519488160363
 31
0.0
  0
INSERT
  5
70F3
330
70ED
100
AcDbEntity
  8
Dim
 62
     0
370
    -2
100
AcDbBlockReference
  2
_DOT
 10
1796.887616541499
 20
864.5188778088009
 30
0.0
 41
9.999389648437498
 42
9.999389648437498
 43
9.999389648437498
 50
269.9999999999999
  0
INSERT
  5
70F4
330
70ED
100
AcDbEntity
  8
Dim
 62
     0
370
    -2
100
AcDbBlockReference
  2
_DOT
 10
1796.887616541499
 20
1164.518877808801
 30
0.0
 41
9.999389648437498
 42
9.999389648437498
 43
9.999389648437498
 50
89.99999999999996
  0
MTEXT
  5
70F5
330
70ED
100
AcDbEntity
  8
Dim
 62
     0
100
AcDbMText
 10
1774.671307947749
 20
1014.518877808801
 30
0.0
 40
24.4326171875
 41
0.0
 46
0.0
 71
     5
 72
     1
  1
\A1;300
  7
ＭＳ ゴシック
 11
7.579122514774402E-16
 21
1.0
 31
0.0
 73
     1
 44
1.0
  0
POINT
  5
70F6
330
70ED
100
AcDbEntity
  8
Defpoints
 62
     0
100
AcDbPoint
 10
1722.767973405499
 20
864.5188778088009
 30
0.0
  0
POINT
  5
70F7
330
70ED
100
AcDbEntity
  8
Defpoints
 62
     0
100
AcDbPoint
 10
1722.767973405499
 20
1164.518877808801
 30
0.0
  0
POINT
  5
70F8
330
70ED
100
AcDbEntity
  8
Defpoints
 62
     0
100
AcDbPoint
 10
1796.887616541499
 20
1164.518877808801
 30
0.0
  0
ENDBLK
  5
70EF
330
70ED
100
AcDbEntity
  8
0
100
AcDbBlockEnd
  0
BLOCK
  5
710A
330
7109
100
AcDbEntity
  8
0
100
AcDbBlockBegin
  2
*D52
 70
     1
 10
0.0
 20
0.0
 30
0.0
  3
*D52
  1

  0
LINE
  5
710C
330
7109
100
AcDbEntity
  8
Dim
 62
     0
370
    -2
100
AcDbLine
 10
1534.497736574479
 20
949.5098307031835
 30
0.0
 11
1468.595496707027
 21
949.5098307031836
 31
0.0
  0
LINE
  5
710D
330
7109
100
AcDbEntity
  8
Dim
 62
     0
370
    -2
100
AcDbLine
 10
1534.49773657448
 20
1079.509830703184
 30
0.0
 11
1468.595496707027
 21
1079.509830703184
 31
0.0
  0
LINE
  5
710E
330
7109
100
AcDbEntity
  8
Dim
 62
     0
370
    -2
100
AcDbLine
 10
1468.595496707027
 20
959.5092203516211
 30
0.0
 11
1468.595496707027
 21
1069.510441054746
 31
0.0
  0
INSERT
  5
710F
330
7109
100
AcDbEntity
  8
Dim
 62
     0
370
    -2
100
AcDbBlockReference
  2
_DOT
 10
1468.595496707027
 20
949.5098307031836
 30
0.0
 41
9.999389648437498
 42
9.999389648437498
 43
9.999389648437498
 50
269.9999999999999
  0
INSERT
  5
7110
330
7109
100
AcDbEntity
  8
Dim
 62
     0
370
    -2
100
AcDbBlockReference
  2
_DOT
 10
1468.595496707027
 20
1079.509830703184
 30
0.0
 41
9.999389648437498
 42
9.999389648437498
 43
9.999389648437498
 50
89.9999999999999
  0
MTEXT
  5
7111
330
7109
100
AcDbEntity
  8
Dim
 62
     0
100
AcDbMText
 10
1446.379188113277
 20
1014.509830703184
 30
0.0
 40
24.4326171875
 41
0.0
 46
0.0
 71
     5
 72
     1
  1
\A1;130
  7
ＭＳ ゴシック
 11
1.749028272640242E-15
 21
1.0
 31
0.0
 73
     1
 44
1.0
  0
POINT
  5
7112
330
7109
100
AcDbEntity
  8
Defpoints
 62
     0
100
AcDbPoint
 10
1559.497736574479
 20
949.5098307031835
 30
0.0
  0
POINT
  5
7113
330
7109
100
AcDbEntity
  8
Defpoints
 62
     0
100
AcDbPoint
 10
1559.49773657448
 20
1079.509830703184
 30
0.0
  0
POINT
  5
7114
330
7109
100
AcDbEntity
  8
Defpoints
 62
     0
100
AcDbPoint
 10
1468.595496707027
 20
1079.509830703184
 30
0.0
  0
ENDBLK
  5
710B
330
7109
100
AcDbEntity
  8
0
100
AcDbBlockEnd
  0
BLOCK
  5
711F
330
711E
100
AcDbEntity
  8
0
100
AcDbBlockBegin
  2
*D53
 70
     1
 10
0.0
 20
0.0
 30
0.0
  3
*D53
  1

  0
LINE
  5
7121
330
711E
100
AcDbEntity
  8
Dim
 62
     0
370
    -2
100
AcDbLine
 10
1544.497723109339
 20
1529.027496160006
 30
0.0
 11
1544.497723109339
 21
1620.741869280006
 31
0.0
  0
LINE
  5
7122
330
711E
100
AcDbEntity
  8
Dim
 62
     0
370
    -2
100
AcDbLine
 10
1714.497723109339
 20
1204.152436960006
 30
0.0
 11
1714.497723109339
 21
1620.741869280006
 31
0.0
  0
LINE
  5
7123
330
711E
100
AcDbEntity
  8
Dim
 62
     0
370
    -2
100
AcDbLine
 10
1554.497112757776
 20
1620.741869280006
 30
0.0
 11
1704.498333460902
 21
1620.741869280006
 31
0.0
  0
INSERT
  5
7124
330
711E
100
AcDbEntity
  8
Dim
 62
     0
370
    -2
100
AcDbBlockReference
  2
_DOT
 10
1544.497723109339
 20
1620.741869280006
 30
0.0
 41
9.999389648437498
 42
9.999389648437498
 43
9.999389648437498
 50
179.9999999999999
  0
INSERT
  5
7125
330
711E
100
AcDbEntity
  8
Dim
 62
     0
370
    -2
100
AcDbBlockReference
  2
_DOT
 10
1714.497723109339
 20
1620.741869280006
 30
0.0
 41
9.999389648437498
 42
9.999389648437498
 43
9.999389648437498
 50
359.9999999999998
  0
MTEXT
  5
7126
330
711E
100
AcDbEntity
  8
Dim
 62
     0
100
AcDbMText
 10
1629.497723109339
 20
1642.958177873756
 30
0.0
 40
24.4326171875
 41
0.0
 46
0.0
 71
     5
 72
     1
  1
\A1;170
  7
ＭＳ ゴシック
 73
     1
 44
1.0
  0
POINT
  5
7127
330
711E
100
AcDbEntity
  8
Defpoints
 62
     0
100
AcDbPoint
 10
1544.497723109339
 20
1504.027496160006
 30
0.0
  0
POINT
  5
7128
330
711E
100
AcDbEntity
  8
Defpoints
 62
     0
100
AcDbPoint
 10
1714.497723109339
 20
1179.152436960006
 30
0.0
  0
POINT
  5
7129
330
711E
100
AcDbEntity
  8
Defpoints
 62
     0
100
AcDbPoint
 10
1714.497723109339
 20
1620.741869280006
 30
0.0
  0
ENDBLK
  5
7120
330
711E
100
AcDbEntity
  8
0
100
AcDbBlockEnd
  0
BLOCK
  5
712D
330
712C
100
AcDbEntity
  8
0
100
AcDbBlockBegin
  2
*D54
 70
     1
 10
0.0
 20
0.0
 30
0.0
  3
*D54
  1

  0
LINE
  5
712F
330
712C
100
AcDbEntity
  8
Dim
 62
     0
370
    -2
100
AcDbLine
 10
3862.616538963846
 20
1101.872275163075
 30
0.0
 11
3808.173290437318
 21
1101.872275163075
 31
0.0
  0
LINE
  5
7130
330
712C
100
AcDbEntity
  8
Dim
 62
     0
370
    -2
100
AcDbLine
 10
3862.616538963846
 20
1016.87227386685
 30
0.0
 11
3808.173290437318
 21
1016.87227386685
 31
0.0
  0
LINE
  5
7131
330
712C
100
AcDbEntity
  8
Dim
 62
     0
370
    -2
100
AcDbLine
 10
3808.173290437318
 20
1091.872885514638
 30
0.0
 11
3808.173290437318
 21
1026.871663515288
 31
0.0
  0
INSERT
  5
7132
330
712C
100
AcDbEntity
  8
Dim
 62
     0
370
    -2
100
AcDbBlockReference
  2
_DOT
 10
3808.173290437318
 20
1101.872275163075
 30
0.0
 41
9.999389648437498
 42
9.999389648437498
 43
9.999389648437498
 50
90.0
  0
INSERT
  5
7133
330
712C
100
AcDbEntity
  8
Dim
 62
     0
370
    -2
100
AcDbBlockReference
  2
_DOT
 10
3808.173290437318
 20
1016.87227386685
 30
0.0
 41
9.999389648437498
 42
9.999389648437498
 43
9.999389648437498
 50
270.0
  0
MTEXT
  5
7134
330
712C
100
AcDbEntity
  8
Dim
 62
     0
100
AcDbMText
 10
3785.956981843568
 20
1057.775922217238
 30
0.0
 40
24.4326171875
 41
0.0
 46
0.0
 71
     5
 72
     1
  1
\A1;85
  7
ＭＳ ゴシック
 11
0.0
 21
1.0
 31
0.0
 73
     1
 44
1.0
  0
POINT
  5
7135
330
712C
100
AcDbEntity
  8
Defpoints
 62
     0
100
AcDbPoint
 10
3887.616538963846
 20
1101.872275163075
 30
0.0
  0
POINT
  5
7136
330
712C
100
AcDbEntity
  8
Defpoints
 62
     0
100
AcDbPoint
 10
3887.616538963846
 20
1016.87227386685
 30
0.0
  0
POINT
  5
7137
330
712C
100
AcDbEntity
  8
Defpoints
 62
     0
100
AcDbPoint
 10
3808.173290437318
 20
1016.87227386685
 30
0.0
  0
ENDBLK
  5
712E
330
712C
100
AcDbEntity
  8
0
100
AcDbBlockEnd
  0
BLOCK
  5
7139
330
7138
100
AcDbEntity
  8
0
100
AcDbBlockBegin
  2
*D55
 70
     1
 10
0.0
 20
0.0
 30
0.0
  3
*D55
  1

  0
LINE
  5
713B
330
7138
100
AcDbEntity
  8
Dim
 62
     0
370
    -2
100
AcDbLine
 10
3862.616538963846
 20
1016.87227386685
 30
0.0
 11
3808.173290437318
 21
1016.87227386685
 31
0.0
  0
LINE
  5
713C
330
7138
100
AcDbEntity
  8
Dim
 62
     0
370
    -2
100
AcDbLine
 10
3955.156287835494
 20
931.8722782472968
 30
0.0
 11
3808.173290437318
 21
931.8722782472968
 31
0.0
  0
LINE
  5
713D
330
7138
100
AcDbEntity
  8
Dim
 62
     0
370
    -2
100
AcDbLine
 10
3808.173290437318
 20
1006.872884218413
 30
0.0
 11
3808.173290437318
 21
941.8716678957343
 31
0.0
  0
INSERT
  5
713E
330
7138
100
AcDbEntity
  8
Dim
 62
     0
370
    -2
100
AcDbBlockReference
  2
_DOT
 10
3808.173290437318
 20
1016.87227386685
 30
0.0
 41
9.999389648437498
 42
9.999389648437498
 43
9.999389648437498
 50
90.0
  0
INSERT
  5
713F
330
7138
100
AcDbEntity
  8
Dim
 62
     0
370
    -2
100
AcDbBlockReference
  2
_DOT
 10
3808.173290437318
 20
931.8722782472968
 30
0.0
 41
9.999389648437498
 42
9.999389648437498
 43
9.999389648437498
 50
270.0
  0
MTEXT
  5
7140
330
7138
100
AcDbEntity
  8
Dim
 62
     0
100
AcDbMText
 10
3785.956981843568
 20
974.3722760570735
 30
0.0
 40
24.4326171875
 41
0.0
 46
0.0
 71
     5
 72
     1
  1
\A1;85
  7
ＭＳ ゴシック
 11
0.0
 21
1.0
 31
0.0
 73
     1
 44
1.0
  0
POINT
  5
7141
330
7138
100
AcDbEntity
  8
Defpoints
 62
     0
100
AcDbPoint
 10
3887.616538963846
 20
1016.87227386685
 30
0.0
  0
POINT
  5
7142
330
7138
100
AcDbEntity
  8
Defpoints
 62
     0
100
AcDbPoint
 10
3980.156287835494
 20
931.8722782472968
 30
0.0
  0
POINT
  5
7143
330
7138
100
AcDbEntity
  8
Defpoints
 62
     0
100
AcDbPoint
 10
3808.173290437318
 20
931.8722782472969
 30
0.0
  0
ENDBLK
  5
713A
330
7138
100
AcDbEntity
  8
0
100
AcDbBlockEnd
  0
BLOCK
  5
7166
330
7165
100
AcDbEntity
  8
0
100
AcDbBlockBegin
  2
*D56
 70
     1
 10
0.0
 20
0.0
 30
0.0
  3
*D56
  1

  0
LINE
  5
7168
330
7165
100
AcDbEntity
  8
Dim
 62
     0
370
    -2
100
AcDbLine
 10
1740.457558962023
 20
2498.389508077942
 30
0.0
 11
1828.359707475937
 21
2498.389508077942
 31
0.0
  0
LINE
  5
7169
330
7165
100
AcDbEntity
  8
Dim
 62
     0
370
    -2
100
AcDbLine
 10
1740.603995375511
 20
2271.389503684617
 30
0.0
 11
1828.359707475937
 21
2271.389503684617
 31
0.0
  0
LINE
  5
716A
330
7165
100
AcDbEntity
  8
Dim
 62
     0
370
    -2
100
AcDbLine
 10
1828.359707475937
 20
2488.390118429505
 30
0.0
 11
1828.359707475937
 21
2281.388893333055
 31
0.0
  0
INSERT
  5
716B
330
7165
100
AcDbEntity
  8
Dim
 62
     0
370
    -2
100
AcDbBlockReference
  2
_DOT
 10
1828.359707475937
 20
2498.389508077942
 30
0.0
 41
9.999389648437498
 42
9.999389648437498
 43
9.999389648437498
 50
89.99999999999994
  0
INSERT
  5
716C
330
7165
100
AcDbEntity
  8
Dim
 62
     0
370
    -2
100
AcDbBlockReference
  2
_DOT
 10
1828.359707475937
 20
2271.389503684617
 30
0.0
 41
9.999389648437498
 42
9.999389648437498
 43
9.999389648437498
 50
269.9999999999999
  0
MTEXT
  5
716D
330
7165
100
AcDbEntity
  8
Dim
 62
     0
100
AcDbMText
 10
1806.143398882187
 20
2384.889505881281
 30
0.0
 40
24.4326171875
 41
0.0
 46
0.0
 71
     5
 72
     1
  1
\A1;230
  7
ＭＳ ゴシック
 11
1.001646127941300E-15
 21
1.0
 31
0.0
 73
     1
 44
1.0
  0
POINT
  5
716E
330
7165
100
AcDbEntity
  8
Defpoints
 62
     0
100
AcDbPoint
 10
1715.457558962023
 20
2498.389508077942
 30
0.0
  0
POINT
  5
716F
330
7165
100
AcDbEntity
  8
Defpoints
 62
     0
100
AcDbPoint
 10
1715.603995375511
 20
2271.389503684617
 30
0.0
  0
POINT
  5
7170
330
7165
100
AcDbEntity
  8
Defpoints
 62
     0
100
AcDbPoint
 10
1828.359707475937
 20
2271.389503684617
 30
0.0
  0
ENDBLK
  5
7167
330
7165
100
AcDbEntity
  8
0
100
AcDbBlockEnd
  0
BLOCK
  5
7172
330
7171
100
AcDbEntity
  8
0
100
AcDbBlockBegin
  2
*D57
 70
     1
 10
0.0
 20
0.0
 30
0.0
  3
*D57
  1

  0
LINE
  5
7174
330
7171
100
AcDbEntity
  8
Dim
 62
     0
370
    -2
100
AcDbLine
 10
1545.62785151372
 20
1962.789998322253
 30
0.0
 11
1545.62785151372
 21
1908.346749795725
 31
0.0
  0
LINE
  5
7175
330
7171
100
AcDbEntity
  8
Dim
 62
     0
370
    -2
100
AcDbLine
 10
1630.627852809945
 20
1962.789998322253
 30
0.0
 11
1630.627852809945
 21
1908.346749795725
 31
0.0
  0
LINE
  5
7176
330
7171
100
AcDbEntity
  8
Dim
 62
     0
370
    -2
100
AcDbLine
 10
1555.627241162158
 20
1908.346749795725
 30
0.0
 11
1620.628463161507
 21
1908.346749795725
 31
0.0
  0
INSERT
  5
7177
330
7171
100
AcDbEntity
  8
Dim
 62
     0
370
    -2
100
AcDbBlockReference
  2
_DOT
 10
1545.62785151372
 20
1908.346749795725
 30
0.0
 41
9.999389648437498
 42
9.999389648437498
 43
9.999389648437498
 50
180.0
  0
INSERT
  5
7178
330
7171
100
AcDbEntity
  8
Dim
 62
     0
370
    -2
100
AcDbBlockReference
  2
_DOT
 10
1630.627852809945
 20
1908.346749795725
 30
0.0
 41
9.999389648437498
 42
9.999389648437498
 43
9.999389648437498
  0
MTEXT
  5
7179
330
7171
100
AcDbEntity
  8
Dim
 62
     0
100
AcDbMText
 10
1589.724204459557
 20
1930.563058389475
 30
0.0
 40
24.4326171875
 41
0.0
 46
0.0
 71
     5
 72
     1
  1
\A1;85
  7
ＭＳ ゴシック
 73
     1
 44
1.0
  0
POINT
  5
717A
330
7171
100
AcDbEntity
  8
Defpoints
 62
     0
100
AcDbPoint
 10
1545.62785151372
 20
1987.789998322253
 30
0.0
  0
POINT
  5
717B
330
7171
100
AcDbEntity
  8
Defpoints
 62
     0
100
AcDbPoint
 10
1630.627852809945
 20
1987.789998322253
 30
0.0
  0
POINT
  5
717C
330
7171
100
AcDbEntity
  8
Defpoints
 62
     0
100
AcDbPoint
 10
1630.627852809945
 20
1908.346749795725
 30
0.0
  0
ENDBLK
  5
7173
330
7171
100
AcDbEntity
  8
0
100
AcDbBlockEnd
  0
BLOCK
  5
717E
330
717D
100
AcDbEntity
  8
0
100
AcDbBlockBegin
  2
*D58
 70
     1
 10
0.0
 20
0.0
 30
0.0
  3
*D58
  1

  0
LINE
  5
7180
330
717D
100
AcDbEntity
  8
Dim
 62
     0
370
    -2
100
AcDbLine
 10
1630.627852809945
 20
1962.789998322253
 30
0.0
 11
1630.627852809945
 21
1908.346749795725
 31
0.0
  0
LINE
  5
7181
330
717D
100
AcDbEntity
  8
Dim
 62
     0
370
    -2
100
AcDbLine
 10
1715.627848429498
 20
2055.329747193901
 30
0.0
 11
1715.627848429498
 21
1908.346749795725
 31
0.0
  0
LINE
  5
7182
330
717D
100
AcDbEntity
  8
Dim
 62
     0
370
    -2
100
AcDbLine
 10
1640.627242458382
 20
1908.346749795725
 30
0.0
 11
1705.628458781061
 21
1908.346749795725
 31
0.0
  0
INSERT
  5
7183
330
717D
100
AcDbEntity
  8
Dim
 62
     0
370
    -2
100
AcDbBlockReference
  2
_DOT
 10
1630.627852809945
 20
1908.346749795725
 30
0.0
 41
9.999389648437498
 42
9.999389648437498
 43
9.999389648437498
 50
180.0
  0
INSERT
  5
7184
330
717D
100
AcDbEntity
  8
Dim
 62
     0
370
    -2
100
AcDbBlockReference
  2
_DOT
 10
1715.627848429498
 20
1908.346749795725
 30
0.0
 41
9.999389648437498
 42
9.999389648437498
 43
9.999389648437498
  0
MTEXT
  5
7185
330
717D
100
AcDbEntity
  8
Dim
 62
     0
100
AcDbMText
 10
1673.127850619721
 20
1930.563058389475
 30
0.0
 40
24.4326171875
 41
0.0
 46
0.0
 71
     5
 72
     1
  1
\A1;85
  7
ＭＳ ゴシック
 73
     1
 44
1.0
  0
POINT
  5
7186
330
717D
100
AcDbEntity
  8
Defpoints
 62
     0
100
AcDbPoint
 10
1630.627852809945
 20
1987.789998322253
 30
0.0
  0
POINT
  5
7187
330
717D
100
AcDbEntity
  8
Defpoints
 62
     0
100
AcDbPoint
 10
1715.627848429498
 20
2080.329747193901
 30
0.0
  0
POINT
  5
7188
330
717D
100
AcDbEntity
  8
Defpoints
 62
     0
100
AcDbPoint
 10
1715.627848429498
 20
1908.346749795725
 30
0.0
  0
ENDBLK
  5
717F
330
717D
100
AcDbEntity
  8
0
100
AcDbBlockEnd
  0
BLOCK
  5
718A
330
7189
100
AcDbEntity
  8
0
100
AcDbBlockBegin
  2
*D59
 70
     1
 10
0.0
 20
0.0
 30
0.0
  3
*D59
  1

  0
LINE
  5
718C
330
7189
100
AcDbEntity
  8
Dim
 62
     0
370
    -2
100
AcDbLine
 10
1529.455465772716
 20
2498.389501935229
 30
0.0
 11
1490.388287194278
 21
2498.389501935229
 31
0.0
  0
LINE
  5
718D
330
7189
100
AcDbEntity
  8
Dim
 62
     0
370
    -2
100
AcDbLine
 10
1529.455465772716
 20
2433.389501935229
 30
0.0
 11
1490.388287194278
 21
2433.389501935229
 31
0.0
  0
LINE
  5
718E
330
7189
100
AcDbEntity
  8
Dim
 62
     0
370
    -2
100
AcDbLine
 10
1490.388287194278
 20
2488.390112286792
 30
0.0
 11
1490.388287194278
 21
2443.388891583667
 31
0.0
  0
INSERT
  5
718F
330
7189
100
AcDbEntity
  8
Dim
 62
     0
370
    -2
100
AcDbBlockReference
  2
_DOT
 10
1490.388287194278
 20
2498.389501935229
 30
0.0
 41
9.999389648437498
 42
9.999389648437498
 43
9.999389648437498
 50
90.0
  0
INSERT
  5
7190
330
7189
100
AcDbEntity
  8
Dim
 62
     0
370
    -2
100
AcDbBlockReference
  2
_DOT
 10
1490.388287194278
 20
2433.389501935229
 30
0.0
 41
9.999389648437498
 42
9.999389648437498
 43
9.999389648437498
 50
270.0
  0
MTEXT
  5
7191
330
7189
100
AcDbEntity
  8
Dim
 62
     0
100
AcDbMText
 10
1468.171978600528
 20
2465.889501935229
 30
0.0
 40
24.4326171875
 41
0.0
 46
0.0
 71
     5
 72
     1
  1
\A1;65
  7
ＭＳ ゴシック
 11
0.0
 21
1.0
 31
0.0
 73
     1
 44
1.0
  0
POINT
  5
7192
330
7189
100
AcDbEntity
  8
Defpoints
 62
     0
100
AcDbPoint
 10
1554.455465772716
 20
2498.389501935229
 30
0.0
  0
POINT
  5
7193
330
7189
100
AcDbEntity
  8
Defpoints
 62
     0
100
AcDbPoint
 10
1554.455465772716
 20
2433.389501935229
 30
0.0
  0
POINT
  5
7194
330
7189
100
AcDbEntity
  8
Defpoints
 62
     0
100
AcDbPoint
 10
1490.388287194278
 20
2433.389501935229
 30
0.0
  0
ENDBLK
  5
718B
330
7189
100
AcDbEntity
  8
0
100
AcDbBlockEnd
  0
BLOCK
  5
7196
330
7195
100
AcDbEntity
  8
0
100
AcDbBlockBegin
  2
*D60
 70
     1
 10
0.0
 20
0.0
 30
0.0
  3
*D60
  1

  0
LINE
  5
7198
330
7195
100
AcDbEntity
  8
Dim
 62
     0
370
    -2
100
AcDbLine
 10
1765.457558962023
 20
2498.389508077942
 30
0.0
 11
1905.928083194049
 21
2498.389508077942
 31
0.0
  0
LINE
  5
7199
330
7195
100
AcDbEntity
  8
Dim
 62
     0
370
    -2
100
AcDbLine
 10
1765.457558962022
 20
2098.389508077943
 30
0.0
 11
1905.928083194049
 21
2098.389508077943
 31
0.0
  0
LINE
  5
719A
330
7195
100
AcDbEntity
  8
Dim
 62
     0
370
    -2
100
AcDbLine
 10
1905.928083194049
 20
2488.390118429505
 30
0.0
 11
1905.928083194049
 21
2108.38889772638
 31
0.0
  0
INSERT
  5
719B
330
7195
100
AcDbEntity
  8
Dim
 62
     0
370
    -2
100
AcDbBlockReference
  2
_DOT
 10
1905.928083194049
 20
2498.389508077942
 30
0.0
 41
9.999389648437498
 42
9.999389648437498
 43
9.999389648437498
 50
89.99999999999994
  0
INSERT
  5
719C
330
7195
100
AcDbEntity
  8
Dim
 62
     0
370
    -2
100
AcDbBlockReference
  2
_DOT
 10
1905.928083194049
 20
2098.389508077943
 30
0.0
 41
9.999389648437498
 42
9.999389648437498
 43
9.999389648437498
 50
269.9999999999999
  0
MTEXT
  5
719D
330
7195
100
AcDbEntity
  8
Dim
 62
     0
100
AcDbMText
 10
1883.711774600299
 20
2298.389508077943
 30
0.0
 40
24.4326171875
 41
0.0
 46
0.0
 71
     5
 72
     1
  1
\A1;400
  7
ＭＳ ゴシック
 11
1.136868377216163E-15
 21
1.0
 31
0.0
 73
     1
 44
1.0
  0
POINT
  5
719E
330
7195
100
AcDbEntity
  8
Defpoints
 62
     0
100
AcDbPoint
 10
1740.457558962023
 20
2498.389508077942
 30
0.0
  0
POINT
  5
719F
330
7195
100
AcDbEntity
  8
Defpoints
 62
     0
100
AcDbPoint
 10
1740.457558962022
 20
2098.389508077943
 30
0.0
  0
POINT
  5
71A0
330
7195
100
AcDbEntity
  8
Defpoints
 62
     0
100
AcDbPoint
 10
1905.928083194049
 20
2098.389508077943
 30
0.0
  0
ENDBLK
  5
7197
330
7195
100
AcDbEntity
  8
0
100
AcDbBlockEnd
  0
BLOCK
  5
71A2
330
71A1
100
AcDbEntity
  8
0
100
AcDbBlockBegin
  2
*D61
 70
     1
 10
0.0
 20
0.0
 30
0.0
  3
*D61
  1

  0
LINE
  5
71A4
330
71A1
100
AcDbEntity
  8
Dim
  6
Continuous
 62
     0
370
    -2
100
AcDbLine
 10
1545.627855232442
 20
2271.394819560495
 30
0.0
 11
1365.970592898727
 21
2271.394819560496
 31
0.0
  0
LINE
  5
71A5
330
71A1
100
AcDbEntity
  8
Dim
  6
Continuous
 62
     0
370
    -2
100
AcDbLine
 10
1658.124005522758
 20
2271.394819560494
 30
0.0
 11
1555.62724488088
 21
2271.394819560495
 31
0.0
  0
LINE
  5
71A6
330
71A1
100
AcDbEntity
  8
Dim
  6
Continuous
 62
     0
370
    -2
100
AcDbLine
 10
1555.62724488088
 20
2271.394819560495
 30
0.0
 11
1565.626634529317
 21
2271.394819560495
 31
0.0
  0
INSERT
  5
71A7
330
71A1
100
AcDbEntity
  8
Dim
 62
     0
370
    -2
100
AcDbBlockReference
  2
_DOT
 10
1668.123395171196
 20
2271.394819560494
 30
0.0
 41
9.999389648437498
 42
9.999389648437498
 43
9.999389648437498
 50
359.9999999999998
  0
INSERT
  5
71A8
330
71A1
100
AcDbEntity
  8
Dim
 62
     0
370
    -2
100
AcDbBlockReference
  2
_DOT
 10
1545.627855232442
 20
2271.394819560495
 30
0.0
 41
9.999389648437498
 42
9.999389648437498
 43
9.999389648437498
 50
179.9999999999998
  0
MTEXT
  5
71A9
330
71A1
100
AcDbEntity
  8
Dim
 62
     0
100
AcDbMText
 10
1442.158552859664
 20
2295.773414775339
 30
0.0
 40
24.4326171875
 41
0.0
 46
0.0
 71
     5
 72
     1
  1
\A1;120(深さ)
  7
ＭＳ ゴシック
 73
     1
 44
1.0
  0
POINT
  5
71AA
330
71A1
100
AcDbEntity
  8
Defpoints
 62
     0
100
AcDbPoint
 10
1668.123395171196
 20
2270.376119677828
 30
0.0
  0
POINT
  5
71AB
330
71A1
100
AcDbEntity
  8
Defpoints
 62
     0
100
AcDbPoint
 10
1545.627855232442
 20
2271.394819560495
 30
0.0
  0
POINT
  5
71AC
330
71A1
100
AcDbEntity
  8
Defpoints
 62
     0
100
AcDbPoint
 10
1545.627855232442
 20
2271.394819560495
 30
0.0
  0
ENDBLK
  5
71A3
330
71A1
100
AcDbEntity
  8
0
100
AcDbBlockEnd
  0
BLOCK
  5
71B2
330
71B1
100
AcDbEntity
  8
0
100
AcDbBlockBegin
  2
*D62
 70
     1
 10
0.0
 20
0.0
 30
0.0
  3
*D62
  1

  0
LINE
  5
71B4
330
71B1
100
AcDbEntity
  8
Dim
 62
     0
370
    -2
100
AcDbLine
 10
335.5402594793663
 20
1553.721284896003
 30
0.0
 11
335.5402594793664
 21
1622.572437657603
 31
0.0
  0
LINE
  5
71B5
330
71B1
100
AcDbEntity
  8
Dim
 62
     0
370
    -2
100
AcDbLine
 10
835.5402594793663
 20
1553.721284896002
 30
0.0
 11
835.5402594793665
 21
1622.572437657602
 31
0.0
  0
LINE
  5
71B6
330
71B1
100
AcDbEntity
  8
Dim
 62
     0
370
    -2
100
AcDbLine
 10
345.5396491278039
 20
1622.572437657603
 30
0.0
 11
825.540869830929
 21
1622.572437657602
 31
0.0
  0
INSERT
  5
71B7
330
71B1
100
AcDbEntity
  8
Dim
 62
     0
370
    -2
100
AcDbBlockReference
  2
_DOT
 10
335.5402594793664
 20
1622.572437657603
 30
0.0
 41
9.999389648437498
 42
9.999389648437498
 43
9.999389648437498
 50
179.9999999999999
  0
INSERT
  5
71B8
330
71B1
100
AcDbEntity
  8
Dim
 62
     0
370
    -2
100
AcDbBlockReference
  2
_DOT
 10
835.5402594793665
 20
1622.572437657602
 30
0.0
 41
9.999389648437498
 42
9.999389648437498
 43
9.999389648437498
 50
359.9999999999998
  0
MTEXT
  5
71B9
330
71B1
100
AcDbEntity
  8
Dim
 62
     0
100
AcDbMText
 10
585.5402594793665
 20
1644.788746251352
 30
0.0
 40
24.4326171875
 41
0.0
 46
0.0
 71
     5
 72
     1
  1
\A1;500
  7
ＭＳ ゴシック
 73
     1
 44
1.0
  0
POINT
  5
71BA
330
71B1
100
AcDbEntity
  8
Defpoints
 62
     0
100
AcDbPoint
 10
335.5402594793663
 20
1528.721284896003
 30
0.0
  0
POINT
  5
71BB
330
71B1
100
AcDbEntity
  8
Defpoints
 62
     0
100
AcDbPoint
 10
835.5402594793663
 20
1528.721284896002
 30
0.0
  0
POINT
  5
71BC
330
71B1
100
AcDbEntity
  8
Defpoints
 62
     0
100
AcDbPoint
 10
835.5402594793665
 20
1622.572437657602
 30
0.0
  0
ENDBLK
  5
71B3
330
71B1
100
AcDbEntity
  8
0
100
AcDbBlockEnd
  0
BLOCK
  5
71BF
330
71BE
100
AcDbEntity
  8
0
100
AcDbBlockBegin
  2
*D63
 70
     1
 10
0.0
 20
0.0
 30
0.0
  3
*D63
  1

  0
LINE
  5
71C1
330
71BE
100
AcDbEntity
  8
Dim
 62
     0
370
    -2
100
AcDbLine
 10
301.0006484431979
 20
764.5721721610435
 30
0.0
 11
153.0402662399997
 21
764.5721721610436
 31
0.0
  0
LINE
  5
71C2
330
71BE
100
AcDbEntity
  8
Dim
 62
     0
370
    -2
100
AcDbLine
 10
301.0006484431983
 20
1514.572172161043
 30
0.0
 11
153.0402662400004
 21
1514.572172161043
 31
0.0
  0
LINE
  5
71C3
330
71BE
100
AcDbEntity
  8
Dim
 62
     0
370
    -2
100
AcDbLine
 10
153.0402662399997
 20
774.5715618094811
 30
0.0
 11
153.0402662400004
 21
1504.572782512606
 31
0.0
  0
INSERT
  5
71C4
330
71BE
100
AcDbEntity
  8
Dim
 62
     0
370
    -2
100
AcDbBlockReference
  2
_DOT
 10
153.0402662399997
 20
764.5721721610436
 30
0.0
 41
9.999389648437498
 42
9.999389648437498
 43
9.999389648437498
 50
269.9999999999999
  0
INSERT
  5
71C5
330
71BE
100
AcDbEntity
  8
Dim
 62
     0
370
    -2
100
AcDbBlockReference
  2
_DOT
 10
153.0402662400004
 20
1514.572172161043
 30
0.0
 41
9.999389648437498
 42
9.999389648437498
 43
9.999389648437498
 50
89.99999999999994
  0
MTEXT
  5
71C6
330
71BE
100
AcDbEntity
  8
Dim
 62
     0
100
AcDbMText
 10
130.8239576462501
 20
1139.572172161043
 30
0.0
 40
24.4326171875
 41
0.0
 46
0.0
 71
     5
 72
     1
  1
\A1;750
  7
ＭＳ ゴシック
 11
9.473903143468006E-16
 21
1.0
 31
0.0
 73
     1
 44
1.0
  0
POINT
  5
71C7
330
71BE
100
AcDbEntity
  8
Defpoints
 62
     0
100
AcDbPoint
 10
326.0006484431979
 20
764.5721721610435
 30
0.0
  0
POINT
  5
71C8
330
71BE
100
AcDbEntity
  8
Defpoints
 62
     0
100
AcDbPoint
 10
326.0006484431983
 20
1514.572172161043
 30
0.0
  0
POINT
  5
71C9
330
71BE
100
AcDbEntity
  8
Defpoints
 62
     0
100
AcDbPoint
 10
153.0402662400004
 20
1514.572172161043
 30
0.0
  0
ENDBLK
  5
71C0
330
71BE
100
AcDbEntity
  8
0
100
AcDbBlockEnd
  0
BLOCK
  5
71EE
330
71ED
100
AcDbEntity
  8
0
100
AcDbBlockBegin
  2
*D64
 70
     1
 10
0.0
 20
0.0
 30
0.0
  3
*D64
  1

  0
LINE
  5
71F0
330
71ED
100
AcDbEntity
  8
Dim
 62
     0
370
    -2
100
AcDbLine
 10
3838.649614978928
 20
2311.959867197429
 30
0.0
 11
3736.169217211191
 21
2311.959867197429
 31
0.0
  0
LINE
  5
71F1
330
71ED
100
AcDbEntity
  8
Dim
 62
     0
370
    -2
100
AcDbLine
 10
3838.649614978928
 20
1852.048264818404
 30
0.0
 11
3736.169217211191
 21
1852.048264818404
 31
0.0
  0
LINE
  5
71F2
330
71ED
100
AcDbEntity
  8
Dim
 62
     0
370
    -2
100
AcDbLine
 10
3736.169217211191
 20
2301.960477548991
 30
0.0
 11
3736.169217211191
 21
1862.047654466842
 31
0.0
  0
INSERT
  5
71F3
330
71ED
100
AcDbEntity
  8
Dim
 62
     0
370
    -2
100
AcDbBlockReference
  2
_DOT
 10
3736.169217211191
 20
2311.959867197429
 30
0.0
 41
9.999389648437498
 42
9.999389648437498
 43
9.999389648437498
 50
90.0
  0
INSERT
  5
71F4
330
71ED
100
AcDbEntity
  8
Dim
 62
     0
370
    -2
100
AcDbBlockReference
  2
_DOT
 10
3736.169217211191
 20
1852.048264818404
 30
0.0
 41
9.999389648437498
 42
9.999389648437498
 43
9.999389648437498
 50
270.0
  0
MTEXT
  5
71F5
330
71ED
100
AcDbEntity
  8
Dim
 62
     0
100
AcDbMText
 10
3713.952908617441
 20
2037.307646822398
 30
0.0
 40
24.4326171875
 41
0.0
 46
0.0
 71
     5
 72
     1
  1
\A1;459.9
  7
ＭＳ ゴシック
 11
0.0
 21
1.0
 31
0.0
 73
     1
 44
1.0
  0
POINT
  5
71F6
330
71ED
100
AcDbEntity
  8
Defpoints
 62
     0
100
AcDbPoint
 10
3863.649614978928
 20
2311.959867197429
 30
0.0
  0
POINT
  5
71F7
330
71ED
100
AcDbEntity
  8
Defpoints
 62
     0
100
AcDbPoint
 10
3863.649614978928
 20
1852.048264818404
 30
0.0
  0
POINT
  5
71F8
330
71ED
100
AcDbEntity
  8
Defpoints
 62
     0
100
AcDbPoint
 10
3736.169217211191
 20
1852.048264818404
 30
0.0
  0
ENDBLK
  5
71EF
330
71ED
100
AcDbEntity
  8
0
100
AcDbBlockEnd
  0
BLOCK
  5
71FA
330
71F9
100
AcDbEntity
  8
0
100
AcDbBlockBegin
  2
*D65
 70
     1
 10
0.0
 20
0.0
 30
0.0
  3
*D65
  1

  0
LINE
  5
71FC
330
71F9
100
AcDbEntity
  8
Dim
 62
     0
370
    -2
100
AcDbLine
 10
3935.160461192133
 20
1756.426321799228
 30
0.0
 11
3935.160461192133
 21
1765.35970059074
 31
0.0
  0
LINE
  5
71FD
330
71F9
100
AcDbEntity
  8
Dim
 62
     0
370
    -2
100
AcDbLine
 10
4355.643156743839
 20
1756.426321799228
 30
0.0
 11
4355.643156743839
 21
1765.35970059074
 31
0.0
  0
LINE
  5
71FE
330
71F9
100
AcDbEntity
  8
Dim
 62
     0
370
    -2
100
AcDbLine
 10
3945.15985084057
 20
1765.35970059074
 30
0.0
 11
4345.643767095401
 21
1765.35970059074
 31
0.0
  0
INSERT
  5
71FF
330
71F9
100
AcDbEntity
  8
Dim
 62
     0
370
    -2
100
AcDbBlockReference
  2
_DOT
 10
3935.160461192133
 20
1765.35970059074
 30
0.0
 41
9.999389648437498
 42
9.999389648437498
 43
9.999389648437498
 50
180.0
  0
INSERT
  5
7200
330
71F9
100
AcDbEntity
  8
Dim
 62
     0
370
    -2
100
AcDbBlockReference
  2
_DOT
 10
4355.643156743839
 20
1765.35970059074
 30
0.0
 41
9.999389648437498
 42
9.999389648437498
 43
9.999389648437498
  0
MTEXT
  5
7201
330
71F9
100
AcDbEntity
  8
Dim
 62
     0
100
AcDbMText
 10
4145.401808967986
 20
1787.57600918449
 30
0.0
 40
24.4326171875
 41
0.0
 46
0.0
 71
     5
 72
     1
  1
\A1;420.5
  7
ＭＳ ゴシック
 73
     1
 44
1.0
  0
POINT
  5
7202
330
71F9
100
AcDbEntity
  8
Defpoints
 62
     0
100
AcDbPoint
 10
3935.160461192133
 20
1781.426321799228
 30
0.0
  0
POINT
  5
7203
330
71F9
100
AcDbEntity
  8
Defpoints
 62
     0
100
AcDbPoint
 10
4355.643156743839
 20
1781.426321799228
 30
0.0
  0
POINT
  5
7204
330
71F9
100
AcDbEntity
  8
Defpoints
 62
     0
100
AcDbPoint
 10
4355.643156743839
 20
1765.35970059074
 30
0.0
  0
ENDBLK
  5
71FB
330
71F9
100
AcDbEntity
  8
0
100
AcDbBlockEnd
  0
BLOCK
  5
7206
330
7205
100
AcDbEntity
  8
0
100
AcDbBlockBegin
  2
*D66
 70
     1
 10
0.0
 20
0.0
 30
0.0
  3
*D66
  1

  0
LINE
  5
7208
330
7205
100
AcDbEntity
  8
Dim
 62
     0
370
    -2
100
AcDbLine
 10
4045.401793709197
 20
2286.210119182892
 30
0.0
 11
4045.401793709197
 21
2361.138747609598
 31
0.0
  0
LINE
  5
7209
330
7205
100
AcDbEntity
  8
Dim
 62
     0
370
    -2
100
AcDbLine
 10
4145.401793709197
 20
2286.210119182892
 30
0.0
 11
4145.401793709197
 21
2361.138747609598
 31
0.0
  0
LINE
  5
720A
330
7205
100
AcDbEntity
  8
Dim
 62
     0
370
    -2
100
AcDbLine
 10
4055.401183357634
 20
2361.138747609598
 30
0.0
 11
4135.402404060759
 21
2361.138747609598
 31
0.0
  0
INSERT
  5
720B
330
7205
100
AcDbEntity
  8
Dim
 62
     0
370
    -2
100
AcDbBlockReference
  2
_DOT
 10
4045.401793709197
 20
2361.138747609598
 30
0.0
 41
9.999389648437498
 42
9.999389648437498
 43
9.999389648437498
 50
180.0
  0
INSERT
  5
720C
330
7205
100
AcDbEntity
  8
Dim
 62
     0
370
    -2
100
AcDbBlockReference
  2
_DOT
 10
4145.401793709197
 20
2361.138747609598
 30
0.0
 41
9.999389648437498
 42
9.999389648437498
 43
9.999389648437498
  0
MTEXT
  5
720D
330
7205
100
AcDbEntity
  8
Dim
 62
     0
100
AcDbMText
 10
4095.401793709197
 20
2383.355056203348
 30
0.0
 40
24.4326171875
 41
0.0
 46
0.0
 71
     5
 72
     1
  1
\A1;100
  7
ＭＳ ゴシック
 73
     1
 44
1.0
  0
POINT
  5
720E
330
7205
100
AcDbEntity
  8
Defpoints
 62
     0
100
AcDbPoint
 10
4045.401793709197
 20
2261.210119182892
 30
0.0
  0
POINT
  5
720F
330
7205
100
AcDbEntity
  8
Defpoints
 62
     0
100
AcDbPoint
 10
4145.401793709197
 20
2261.210119182892
 30
0.0
  0
POINT
  5
7210
330
7205
100
AcDbEntity
  8
Defpoints
 62
     0
100
AcDbPoint
 10
4145.401793709197
 20
2361.138747609598
 30
0.0
  0
ENDBLK
  5
7207
330
7205
100
AcDbEntity
  8
0
100
AcDbBlockEnd
  0
BLOCK
  5
7212
330
7211
100
AcDbEntity
  8
0
100
AcDbBlockBegin
  2
*D67
 70
     1
 10
0.0
 20
0.0
 30
0.0
  3
*D67
  1

  0
LINE
  5
7214
330
7211
100
AcDbEntity
  8
Dim
 62
     0
370
    -2
100
AcDbLine
 10
4145.401793709197
 20
2286.210119182892
 30
0.0
 11
4145.401793709197
 21
2361.138747609598
 31
0.0
  0
LINE
  5
7215
330
7211
100
AcDbEntity
  8
Dim
 62
     0
370
    -2
100
AcDbLine
 10
4245.401793709197
 20
2286.210119182892
 30
0.0
 11
4245.401793709197
 21
2361.138747609598
 31
0.0
  0
LINE
  5
7216
330
7211
100
AcDbEntity
  8
Dim
 62
     0
370
    -2
100
AcDbLine
 10
4155.401183357634
 20
2361.138747609598
 30
0.0
 11
4235.402404060759
 21
2361.138747609598
 31
0.0
  0
INSERT
  5
7217
330
7211
100
AcDbEntity
  8
Dim
 62
     0
370
    -2
100
AcDbBlockReference
  2
_DOT
 10
4145.401793709197
 20
2361.138747609598
 30
0.0
 41
9.999389648437498
 42
9.999389648437498
 43
9.999389648437498
 50
180.0
  0
INSERT
  5
7218
330
7211
100
AcDbEntity
  8
Dim
 62
     0
370
    -2
100
AcDbBlockReference
  2
_DOT
 10
4245.401793709197
 20
2361.138747609598
 30
0.0
 41
9.999389648437498
 42
9.999389648437498
 43
9.999389648437498
  0
MTEXT
  5
7219
330
7211
100
AcDbEntity
  8
Dim
 62
     0
100
AcDbMText
 10
4195.401793709197
 20
2383.355056203348
 30
0.0
 40
24.4326171875
 41
0.0
 46
0.0
 71
     5
 72
     1
  1
\A1;100
  7
ＭＳ ゴシック
 73
     1
 44
1.0
  0
POINT
  5
721A
330
7211
100
AcDbEntity
  8
Defpoints
 62
     0
100
AcDbPoint
 10
4145.401793709197
 20
2261.210119182892
 30
0.0
  0
POINT
  5
721B
330
7211
100
AcDbEntity
  8
Defpoints
 62
     0
100
AcDbPoint
 10
4245.401793709197
 20
2261.210119182892
 30
0.0
  0
POINT
  5
721C
330
7211
100
AcDbEntity
  8
Defpoints
 62
     0
100
AcDbPoint
 10
4245.401793709197
 20
2361.138747609598
 30
0.0
  0
ENDBLK
  5
7213
330
7211
100
AcDbEntity
  8
0
100
AcDbBlockEnd
  0
BLOCK
  5
721E
330
721D
100
AcDbEntity
  8
0
100
AcDbBlockBegin
  2
*D68
 70
     1
 10
0.0
 20
0.0
 30
0.0
  3
*D68
  1

  0
LINE
  5
7220
330
721D
100
AcDbEntity
  8
Dim
 62
     0
370
    -2
100
AcDbLine
 10
3782.521385472905
 20
2311.959867197429
 30
0.0
 11
3770.223429441609
 21
2311.959867197429
 31
0.0
  0
LINE
  5
7221
330
721D
100
AcDbEntity
  8
Dim
 62
     0
370
    -2
100
AcDbLine
 10
3782.521385472891
 20
2182.36447318437
 30
0.0
 11
3770.223429441609
 21
2182.36447318437
 31
0.0
  0
LINE
  5
7222
330
721D
100
AcDbEntity
  8
Dim
 62
     0
370
    -2
100
AcDbLine
 10
3770.223429441609
 20
2301.960477548991
 30
0.0
 11
3770.223429441609
 21
2192.363862832807
 31
0.0
  0
INSERT
  5
7223
330
721D
100
AcDbEntity
  8
Dim
 62
     0
370
    -2
100
AcDbBlockReference
  2
_DOT
 10
3770.223429441609
 20
2311.959867197429
 30
0.0
 41
9.999389648437498
 42
9.999389648437498
 43
9.999389648437498
 50
90.0
  0
INSERT
  5
7224
330
721D
100
AcDbEntity
  8
Dim
 62
     0
370
    -2
100
AcDbBlockReference
  2
_DOT
 10
3770.223429441609
 20
2182.36447318437
 30
0.0
 41
9.999389648437498
 42
9.999389648437498
 43
9.999389648437498
 50
270.0
  0
MTEXT
  5
7225
330
721D
100
AcDbEntity
  8
Dim
 62
     0
100
AcDbMText
 10
3748.007120847859
 20
2247.162170190899
 30
0.0
 40
24.4326171875
 41
0.0
 46
0.0
 71
     5
 72
     1
  1
\A1;129.6
  7
ＭＳ ゴシック
 11
0.0
 21
1.0
 31
0.0
 73
     1
 44
1.0
  0
POINT
  5
7226
330
721D
100
AcDbEntity
  8
Defpoints
 62
     0
100
AcDbPoint
 10
3807.521385472905
 20
2311.959867197429
 30
0.0
  0
POINT
  5
7227
330
721D
100
AcDbEntity
  8
Defpoints
 62
     0
100
AcDbPoint
 10
3807.521385472891
 20
2182.36447318437
 30
0.0
  0
POINT
  5
7228
330
721D
100
AcDbEntity
  8
Defpoints
 62
     0
100
AcDbPoint
 10
3770.223429441609
 20
2182.36447318437
 30
0.0
  0
ENDBLK
  5
721F
330
721D
100
AcDbEntity
  8
0
100
AcDbBlockEnd
  0
BLOCK
  5
722A
330
7229
100
AcDbEntity
  8
0
100
AcDbBlockBegin
  2
*D69
 70
     1
 10
0.0
 20
0.0
 30
0.0
  3
*D69
  1

  0
LINE
  5
722C
330
7229
100
AcDbEntity
  8
Dim
 62
     0
370
    -2
100
AcDbLine
 10
3777.521385472905
 20
2182.36447318437
 30
0.0
 11
3770.223429441609
 21
2182.36447318437
 31
0.0
  0
LINE
  5
722D
330
7229
100
AcDbEntity
  8
Dim
 62
     0
370
    -2
100
AcDbLine
 10
3777.521385472905
 20
1812.01314629087
 30
0.0
 11
3770.223429441609
 21
1812.01314629087
 31
0.0
  0
LINE
  5
722E
330
7229
100
AcDbEntity
  8
Dim
 62
     0
370
    -2
100
AcDbLine
 10
3770.223429441609
 20
2172.365083535932
 30
0.0
 11
3770.223429441609
 21
1822.012535939308
 31
0.0
  0
INSERT
  5
722F
330
7229
100
AcDbEntity
  8
Dim
 62
     0
370
    -2
100
AcDbBlockReference
  2
_DOT
 10
3770.223429441609
 20
2182.36447318437
 30
0.0
 41
9.999389648437498
 42
9.999389648437498
 43
9.999389648437498
 50
90.0
  0
INSERT
  5
7230
330
7229
100
AcDbEntity
  8
Dim
 62
     0
370
    -2
100
AcDbBlockReference
  2
_DOT
 10
3770.223429441609
 20
1812.01314629087
 30
0.0
 41
9.999389648437498
 42
9.999389648437498
 43
9.999389648437498
 50
270.0
  0
MTEXT
  5
7231
330
7229
100
AcDbEntity
  8
Dim
 62
     0
100
AcDbMText
 10
3748.007120847859
 20
1997.18880973762
 30
0.0
 40
24.4326171875
 41
0.0
 46
0.0
 71
     5
 72
     1
  1
\A1;370.4
  7
ＭＳ ゴシック
 11
0.0
 21
1.0
 31
0.0
 73
     1
 44
1.0
  0
POINT
  5
7232
330
7229
100
AcDbEntity
  8
Defpoints
 62
     0
100
AcDbPoint
 10
3802.521385472905
 20
2182.36447318437
 30
0.0
  0
POINT
  5
7233
330
7229
100
AcDbEntity
  8
Defpoints
 62
     0
100
AcDbPoint
 10
3802.521385472905
 20
1812.01314629087
 30
0.0
  0
POINT
  5
7234
330
7229
100
AcDbEntity
  8
Defpoints
 62
     0
100
AcDbPoint
 10
3770.223429441609
 20
1812.01314629087
 30
0.0
  0
ENDBLK
  5
722B
330
7229
100
AcDbEntity
  8
0
100
AcDbBlockEnd
  0
BLOCK
  5
7236
330
7235
100
AcDbEntity
  8
0
100
AcDbBlockBegin
  2
*D70
 70
     1
 10
0.0
 20
0.0
 30
0.0
  3
*D70
  1

  0
LINE
  5
7238
330
7235
100
AcDbEntity
  8
Dim
 62
     0
370
    -2
100
AcDbLine
 10
4690.479385537594
 20
2311.959867197429
 30
0.0
 11
4794.682083777594
 21
2311.959867197429
 31
0.0
  0
LINE
  5
7239
330
7235
100
AcDbEntity
  8
Dim
 62
     0
370
    -2
100
AcDbLine
 10
4690.479385537594
 20
1811.959867197429
 30
0.0
 11
4794.682083777594
 21
1811.959867197429
 31
0.0
  0
LINE
  5
723A
330
7235
100
AcDbEntity
  8
Dim
 62
     0
370
    -2
100
AcDbLine
 10
4794.682083777594
 20
2301.960477548992
 30
0.0
 11
4794.682083777594
 21
1821.959256845867
 31
0.0
  0
INSERT
  5
723B
330
7235
100
AcDbEntity
  8
Dim
 62
     0
370
    -2
100
AcDbBlockReference
  2
_DOT
 10
4794.682083777594
 20
2311.959867197429
 30
0.0
 41
9.999389648437498
 42
9.999389648437498
 43
9.999389648437498
 50
90.0
  0
INSERT
  5
723C
330
7235
100
AcDbEntity
  8
Dim
 62
     0
370
    -2
100
AcDbBlockReference
  2
_DOT
 10
4794.682083777594
 20
1811.959867197429
 30
0.0
 41
9.999389648437498
 42
9.999389648437498
 43
9.999389648437498
 50
270.0
  0
MTEXT
  5
723D
330
7235
100
AcDbEntity
  8
Dim
 62
     0
100
AcDbMText
 10
4772.465775183844
 20
2061.959867197429
 30
0.0
 40
24.4326171875
 41
0.0
 46
0.0
 71
     5
 72
     1
  1
\A1;500
  7
ＭＳ ゴシック
 11
0.0
 21
1.0
 31
0.0
 73
     1
 44
1.0
  0
POINT
  5
723E
330
7235
100
AcDbEntity
  8
Defpoints
 62
     0
100
AcDbPoint
 10
4665.479385537594
 20
2311.959867197429
 30
0.0
  0
POINT
  5
723F
330
7235
100
AcDbEntity
  8
Defpoints
 62
     0
100
AcDbPoint
 10
4665.479385537594
 20
1811.959867197429
 30
0.0
  0
POINT
  5
7240
330
7235
100
AcDbEntity
  8
Defpoints
 62
     0
100
AcDbPoint
 10
4794.682083777594
 20
1811.959867197429
 30
0.0
  0
ENDBLK
  5
7237
330
7235
100
AcDbEntity
  8
0
100
AcDbBlockEnd
  0
BLOCK
  5
7242
330
7241
100
AcDbEntity
  8
0
100
AcDbBlockBegin
  2
*D71
 70
     1
 10
0.0
 20
0.0
 30
0.0
  3
*D71
  1

  0
LINE
  5
7244
330
7241
100
AcDbEntity
  8
Dim
 62
     0
370
    -2
100
AcDbLine
 10
3895.455072802634
 20
2346.499478233597
 30
0.0
 11
3895.455072802634
 21
2431.150826918397
 31
0.0
  0
LINE
  5
7245
330
7241
100
AcDbEntity
  8
Dim
 62
     0
370
    -2
100
AcDbLine
 10
4645.455072802634
 20
2346.499478233597
 30
0.0
 11
4645.455072802634
 21
2431.150826918397
 31
0.0
  0
LINE
  5
7246
330
7241
100
AcDbEntity
  8
Dim
 62
     0
370
    -2
100
AcDbLine
 10
3905.454462451072
 20
2431.150826918397
 30
0.0
 11
4635.455683154197
 21
2431.150826918397
 31
0.0
  0
INSERT
  5
7247
330
7241
100
AcDbEntity
  8
Dim
 62
     0
370
    -2
100
AcDbBlockReference
  2
_DOT
 10
3895.455072802634
 20
2431.150826918397
 30
0.0
 41
9.999389648437498
 42
9.999389648437498
 43
9.999389648437498
 50
180.0
  0
INSERT
  5
7248
330
7241
100
AcDbEntity
  8
Dim
 62
     0
370
    -2
100
AcDbBlockReference
  2
_DOT
 10
4645.455072802634
 20
2431.150826918397
 30
0.0
 41
9.999389648437498
 42
9.999389648437498
 43
9.999389648437498
  0
MTEXT
  5
7249
330
7241
100
AcDbEntity
  8
Dim
 62
     0
100
AcDbMText
 10
4270.455072802634
 20
2453.367135512147
 30
0.0
 40
24.4326171875
 41
0.0
 46
0.0
 71
     5
 72
     1
  1
\A1;750
  7
ＭＳ ゴシック
 73
     1
 44
1.0
  0
POINT
  5
724A
330
7241
100
AcDbEntity
  8
Defpoints
 62
     0
100
AcDbPoint
 10
3895.455072802634
 20
2321.499478233597
 30
0.0
  0
POINT
  5
724B
330
7241
100
AcDbEntity
  8
Defpoints
 62
     0
100
AcDbPoint
 10
4645.455072802634
 20
2321.499478233597
 30
0.0
  0
POINT
  5
724C
330
7241
100
AcDbEntity
  8
Defpoints
 62
     0
100
AcDbPoint
 10
4645.455072802634
 20
2431.150826918397
 30
0.0
  0
ENDBLK
  5
7243
330
7241
100
AcDbEntity
  8
0
100
AcDbBlockEnd
  0
BLOCK
  5
7252
330
7251
100
AcDbEntity
  8
0
100
AcDbBlockBegin
  2
*D72
 70
     1
 10
0.0
 20
0.0
 30
0.0
  3
*D72
  1

  0
LINE
  5
7254
330
7251
100
AcDbEntity
  8
Dim
 62
     0
370
    -2
100
AcDbLine
 10
335.5402284443217
 20
730.1388791082145
 30
0.0
 11
335.5402284443217
 21
647.5075190970263
 31
0.0
  0
LINE
  5
7255
330
7251
100
AcDbEntity
  8
Dim
 62
     0
370
    -2
100
AcDbLine
 10
465.5402283228586
 20
730.1388791082163
 30
0.0
 11
465.5402283228586
 21
647.5075190970265
 31
0.0
  0
LINE
  5
7256
330
7251
100
AcDbEntity
  8
Dim
 62
     0
370
    -2
100
AcDbLine
 10
345.5396180927592
 20
647.5075190970263
 30
0.0
 11
455.5408386744211
 21
647.5075190970265
 31
0.0
  0
INSERT
  5
7257
330
7251
100
AcDbEntity
  8
Dim
 62
     0
370
    -2
100
AcDbBlockReference
  2
_DOT
 10
335.5402284443217
 20
647.5075190970263
 30
0.0
 41
9.999389648437498
 42
9.999389648437498
 43
9.999389648437498
 50
180.0000000000001
  0
INSERT
  5
7258
330
7251
100
AcDbEntity
  8
Dim
 62
     0
370
    -2
100
AcDbBlockReference
  2
_DOT
 10
465.5402283228586
 20
647.5075190970265
 30
0.0
 41
9.999389648437498
 42
9.999389648437498
 43
9.999389648437498
 50
0.0000000000001002
  0
MTEXT
  5
7259
330
7251
100
AcDbEntity
  8
Dim
 62
     0
100
AcDbMText
 10
400.5402283835901
 20
669.7238276907764
 30
0.0
 40
24.4326171875
 41
0.0
 46
0.0
 71
     5
 72
     1
  1
\A1;130
  7
ＭＳ ゴシック
 73
     1
 44
1.0
  0
POINT
  5
725A
330
7251
100
AcDbEntity
  8
Defpoints
 62
     0
100
AcDbPoint
 10
335.5402284443217
 20
755.1388791082145
 30
0.0
  0
POINT
  5
725B
330
7251
100
AcDbEntity
  8
Defpoints
 62
     0
100
AcDbPoint
 10
465.5402283228586
 20
755.1388791082163
 30
0.0
  0
POINT
  5
725C
330
7251
100
AcDbEntity
  8
Defpoints
 62
     0
100
AcDbPoint
 10
465.5402283228586
 20
647.5075190970265
 30
0.0
  0
ENDBLK
  5
7253
330
7251
100
AcDbEntity
  8
0
100
AcDbBlockEnd
  0
BLOCK
  5
725E
330
725D
100
AcDbEntity
  8
0
100
AcDbBlockBegin
  2
*D73
 70
     1
 10
0.0
 20
0.0
 30
0.0
  3
*D73
  1

  0
LINE
  5
7260
330
725D
100
AcDbEntity
  8
Dim
 62
     0
370
    -2
100
AcDbLine
 10
465.5402283228586
 20
730.1388791082163
 30
0.0
 11
465.5402283228587
 21
647.5075190970258
 31
0.0
  0
LINE
  5
7261
330
725D
100
AcDbEntity
  8
Dim
 62
     0
370
    -2
100
AcDbLine
 10
820.5402283228586
 20
730.1388791082159
 30
0.0
 11
820.5402283228588
 21
647.507519097026
 31
0.0
  0
LINE
  5
7262
330
725D
100
AcDbEntity
  8
Dim
 62
     0
370
    -2
100
AcDbLine
 10
475.5396179712962
 20
647.5075190970258
 30
0.0
 11
810.5408386744213
 21
647.507519097026
 31
0.0
  0
INSERT
  5
7263
330
725D
100
AcDbEntity
  8
Dim
 62
     0
370
    -2
100
AcDbBlockReference
  2
_DOT
 10
465.5402283228587
 20
647.5075190970258
 30
0.0
 41
9.999389648437498
 42
9.999389648437498
 43
9.999389648437498
 50
180.0
  0
INSERT
  5
7264
330
725D
100
AcDbEntity
  8
Dim
 62
     0
370
    -2
100
AcDbBlockReference
  2
_DOT
 10
820.5402283228588
 20
647.507519097026
 30
0.0
 41
9.999389648437498
 42
9.999389648437498
 43
9.999389648437498
 50
0.0000000000000367
  0
MTEXT
  5
7265
330
725D
100
AcDbEntity
  8
Dim
 62
     0
100
AcDbMText
 10
643.0402283228588
 20
669.7238276907759
 30
0.0
 40
24.4326171875
 41
0.0
 46
0.0
 71
     5
 72
     1
  1
\A1;355
  7
ＭＳ ゴシック
 73
     1
 44
1.0
  0
POINT
  5
7266
330
725D
100
AcDbEntity
  8
Defpoints
 62
     0
100
AcDbPoint
 10
465.5402283228586
 20
755.1388791082163
 30
0.0
  0
POINT
  5
7267
330
725D
100
AcDbEntity
  8
Defpoints
 62
     0
100
AcDbPoint
 10
820.5402283228586
 20
755.1388791082159
 30
0.0
  0
POINT
  5
7268
330
725D
100
AcDbEntity
  8
Defpoints
 62
     0
100
AcDbPoint
 10
820.5402283228588
 20
647.507519097026
 30
0.0
  0
ENDBLK
  5
725F
330
725D
100
AcDbEntity
  8
0
100
AcDbBlockEnd
  0
BLOCK
  5
726B
330
726A
100
AcDbEntity
  8
0
100
AcDbBlockBegin
  2
*D74
 70
     1
 10
0.0
 20
0.0
 30
0.0
  3
*D74
  1

  0
LINE
  5
726D
330
726A
100
AcDbEntity
  8
Dim
 62
     0
370
    -2
100
AcDbLine
 10
859.7211700808884
 20
779.5188930675909
 30
0.0
 11
935.6248426687785
 21
779.5188930675907
 31
0.0
  0
LINE
  5
726E
330
726A
100
AcDbEntity
  8
Dim
 62
     0
370
    -2
100
AcDbLine
 10
859.7211700808894
 20
1249.518893067591
 30
0.0
 11
935.6248426687789
 21
1249.518893067591
 31
0.0
  0
LINE
  5
726F
330
726A
100
AcDbEntity
  8
Dim
 62
     0
370
    -2
100
AcDbLine
 10
935.6248426687785
 20
789.5182827160282
 30
0.0
 11
935.6248426687789
 21
1239.519503419153
 31
0.0
  0
INSERT
  5
7270
330
726A
100
AcDbEntity
  8
Dim
 62
     0
370
    -2
100
AcDbBlockReference
  2
_DOT
 10
935.6248426687785
 20
779.5188930675907
 30
0.0
 41
9.999389648437498
 42
9.999389648437498
 43
9.999389648437498
 50
269.9999999999999
  0
INSERT
  5
7271
330
726A
100
AcDbEntity
  8
Dim
 62
     0
370
    -2
100
AcDbBlockReference
  2
_DOT
 10
935.6248426687789
 20
1249.518893067591
 30
0.0
 41
9.999389648437498
 42
9.999389648437498
 43
9.999389648437498
 50
89.99999999999994
  0
MTEXT
  5
7272
330
726A
100
AcDbEntity
  8
Dim
 62
     0
100
AcDbMText
 10
913.4085340750287
 20
1014.518893067591
 30
0.0
 40
24.4326171875
 41
0.0
 46
0.0
 71
     5
 72
     1
  1
\A1;470
  7
ＭＳ ゴシック
 11
9.675475550775831E-16
 21
1.0
 31
0.0
 73
     1
 44
1.0
  0
POINT
  5
7273
330
726A
100
AcDbEntity
  8
Defpoints
 62
     0
100
AcDbPoint
 10
834.7211700808884
 20
779.5188930675909
 30
0.0
  0
POINT
  5
7274
330
726A
100
AcDbEntity
  8
Defpoints
 62
     0
100
AcDbPoint
 10
834.7211700808894
 20
1249.518893067591
 30
0.0
  0
POINT
  5
7275
330
726A
100
AcDbEntity
  8
Defpoints
 62
     0
100
AcDbPoint
 10
935.6248426687789
 20
1249.518893067591
 30
0.0
  0
ENDBLK
  5
726C
330
726A
100
AcDbEntity
  8
0
100
AcDbBlockEnd
  0
BLOCK
  5
727B
330
727A
100
AcDbEntity
  8
0
100
AcDbBlockBegin
  2
*D75
 70
     1
 10
0.0
 20
0.0
 30
0.0
  3
*D75
  1

  0
LINE
  5
727D
330
727A
100
AcDbEntity
  8
Dim
 62
     0
370
    -2
100
AcDbLine
 10
4691.800897211191
 20
2311.959867197428
 30
0.0
 11
4834.126593211191
 21
2311.959867197428
 31
0.0
  0
LINE
  5
727E
330
727A
100
AcDbEntity
  8
Dim
 62
     0
370
    -2
100
AcDbLine
 10
4401.323860743825
 20
1851.959867197428
 30
0.0
 11
4834.126593211191
 21
1851.959867197428
 31
0.0
  0
LINE
  5
727F
330
727A
100
AcDbEntity
  8
Dim
 62
     0
370
    -2
100
AcDbLine
 10
4834.126593211191
 20
2301.96047754899
 30
0.0
 11
4834.126593211191
 21
1861.959256845866
 31
0.0
  0
INSERT
  5
7280
330
727A
100
AcDbEntity
  8
Dim
 62
     0
370
    -2
100
AcDbBlockReference
  2
_DOT
 10
4834.126593211191
 20
2311.959867197428
 30
0.0
 41
9.999389648437498
 42
9.999389648437498
 43
9.999389648437498
 50
90.0
  0
INSERT
  5
7281
330
727A
100
AcDbEntity
  8
Dim
 62
     0
370
    -2
100
AcDbBlockReference
  2
_DOT
 10
4834.126593211191
 20
1851.959867197428
 30
0.0
 41
9.999389648437498
 42
9.999389648437498
 43
9.999389648437498
 50
270.0
  0
MTEXT
  5
7282
330
727A
100
AcDbEntity
  8
Dim
 62
     0
100
AcDbMText
 10
4811.910284617441
 20
2081.959867197428
 30
0.0
 40
24.4326171875
 41
0.0
 46
0.0
 71
     5
 72
     1
  1
\A1;460
  7
ＭＳ ゴシック
 11
0.0
 21
1.0
 31
0.0
 73
     1
 44
1.0
  0
POINT
  5
7283
330
727A
100
AcDbEntity
  8
Defpoints
 62
     0
100
AcDbPoint
 10
4666.800897211191
 20
2311.959867197428
 30
0.0
  0
POINT
  5
7284
330
727A
100
AcDbEntity
  8
Defpoints
 62
     0
100
AcDbPoint
 10
4376.323860743825
 20
1851.959867197428
 30
0.0
  0
POINT
  5
7285
330
727A
100
AcDbEntity
  8
Defpoints
 62
     0
100
AcDbPoint
 10
4834.126593211191
 20
1851.959867197428
 30
0.0
  0
ENDBLK
  5
727C
330
727A
100
AcDbEntity
  8
0
100
AcDbBlockEnd
  0
BLOCK
  5
728A
330
7289
100
AcDbEntity
  8
0
100
AcDbBlockBegin
  2
*D76
 70
     1
 10
0.0
 20
0.0
 30
0.0
  3
*D76
  1

  0
LINE
  5
728C
330
7289
100
AcDbEntity
  8
Dim
 62
     0
370
    -2
100
AcDbLine
 10
3935.160461192118
 20
1827.04829585345
 30
0.0
 11
3935.160461192118
 21
1711.875284008016
 31
0.0
  0
LINE
  5
728D
330
7289
100
AcDbEntity
  8
Dim
 62
     0
370
    -2
100
AcDbLine
 10
4355.160456203126
 20
1826.983559823884
 30
0.0
 11
4355.160456203126
 21
1711.875284008016
 31
0.0
  0
LINE
  5
728E
330
7289
100
AcDbEntity
  8
Dim
 62
     0
370
    -2
100
AcDbLine
 10
3945.159850840556
 20
1711.875284008016
 30
0.0
 11
4345.161066554689
 21
1711.875284008016
 31
0.0
  0
INSERT
  5
728F
330
7289
100
AcDbEntity
  8
Dim
 62
     0
370
    -2
100
AcDbBlockReference
  2
_DOT
 10
3935.160461192118
 20
1711.875284008016
 30
0.0
 41
9.999389648437498
 42
9.999389648437498
 43
9.999389648437498
 50
180.0
  0
INSERT
  5
7290
330
7289
100
AcDbEntity
  8
Dim
 62
     0
370
    -2
100
AcDbBlockReference
  2
_DOT
 10
4355.160456203126
 20
1711.875284008016
 30
0.0
 41
9.999389648437498
 42
9.999389648437498
 43
9.999389648437498
  0
MTEXT
  5
7291
330
7289
100
AcDbEntity
  8
Dim
 62
     0
100
AcDbMText
 10
4145.160458697623
 20
1734.091592601766
 30
0.0
 40
24.4326171875
 41
0.0
 46
0.0
 71
     5
 72
     1
  1
\A1;420
  7
ＭＳ ゴシック
 73
     1
 44
1.0
  0
POINT
  5
7292
330
7289
100
AcDbEntity
  8
Defpoints
 62
     0
100
AcDbPoint
 10
3935.160461192118
 20
1852.04829585345
 30
0.0
  0
POINT
  5
7293
330
7289
100
AcDbEntity
  8
Defpoints
 62
     0
100
AcDbPoint
 10
4355.160456203126
 20
1851.983559823884
 30
0.0
  0
POINT
  5
7294
330
7289
100
AcDbEntity
  8
Defpoints
 62
     0
100
AcDbPoint
 10
4355.160456203126
 20
1711.875284008016
 30
0.0
  0
ENDBLK
  5
728B
330
7289
100
AcDbEntity
  8
0
100
AcDbBlockEnd
  0
BLOCK
  5
72A1
330
72A0
100
AcDbEntity
  8
0
100
AcDbBlockBegin
  2
*D77
 70
     1
 10
0.0
 20
0.0
 30
0.0
  3
*D77
  1

  0
LINE
  5
72A3
330
72A0
100
AcDbEntity
  8
Dim
 62
     0
370
    -2
100
AcDbLine
 10
820.8564366888245
 20
1860.270993068682
 30
0.0
 11
935.5673346127128
 21
1860.270993068682
 31
0.0
  0
LINE
  5
72A4
330
72A0
100
AcDbEntity
  8
Dim
 62
     0
370
    -2
100
AcDbLine
 10
820.8564366888249
 20
2280.270993068681
 30
0.0
 11
935.5673346127132
 21
2280.270993068681
 31
0.0
  0
LINE
  5
72A5
330
72A0
100
AcDbEntity
  8
Dim
 62
     0
370
    -2
100
AcDbLine
 10
935.5673346127128
 20
1870.270382717119
 30
0.0
 11
935.5673346127132
 21
2270.271603420243
 31
0.0
  0
INSERT
  5
72A6
330
72A0
100
AcDbEntity
  8
Dim
 62
     0
370
    -2
100
AcDbBlockReference
  2
_DOT
 10
935.5673346127128
 20
1860.270993068682
 30
0.0
 41
9.999389648437498
 42
9.999389648437498
 43
9.999389648437498
 50
269.9999999999999
  0
INSERT
  5
72A7
330
72A0
100
AcDbEntity
  8
Dim
 62
     0
370
    -2
100
AcDbBlockReference
  2
_DOT
 10
935.5673346127132
 20
2280.270993068681
 30
0.0
 41
9.999389648437498
 42
9.999389648437498
 43
9.999389648437498
 50
89.99999999999994
  0
MTEXT
  5
72A8
330
72A0
100
AcDbEntity
  8
Dim
 62
     0
100
AcDbMText
 10
913.351026018963
 20
2070.270993068681
 30
0.0
 40
24.4326171875
 41
0.0
 46
0.0
 71
     5
 72
     1
  1
\A1;420
  7
ＭＳ ゴシック
 11
1.082731787824918E-15
 21
1.0
 31
0.0
 73
     1
 44
1.0
  0
POINT
  5
72A9
330
72A0
100
AcDbEntity
  8
Defpoints
 62
     0
100
AcDbPoint
 10
795.8564366888245
 20
1860.270993068682
 30
0.0
  0
POINT
  5
72AA
330
72A0
100
AcDbEntity
  8
Defpoints
 62
     0
100
AcDbPoint
 10
795.8564366888249
 20
2280.270993068681
 30
0.0
  0
POINT
  5
72AB
330
72A0
100
AcDbEntity
  8
Defpoints
 62
     0
100
AcDbPoint
 10
935.5673346127132
 20
2280.270993068681
 30
0.0
  0
ENDBLK
  5
72A2
330
72A0
100
AcDbEntity
  8
0
100
AcDbBlockEnd
  0
BLOCK
  5
72AD
330
72AC
100
AcDbEntity
  8
0
100
AcDbBlockBegin
  2
*D78
 70
     1
 10
0.0
 20
0.0
 30
0.0
  3
*D78
  1

  0
LINE
  5
72AF
330
72AC
100
AcDbEntity
  8
Dim
 62
     0
370
    -2
100
AcDbLine
 10
335.5402594793677
 20
2379.542931801919
 30
0.0
 11
335.5402594793677
 21
2396.676816000001
 31
0.0
  0
LINE
  5
72B0
330
72AC
100
AcDbEntity
  8
Dim
 62
     0
370
    -2
100
AcDbLine
 10
795.5402594793677
 20
2316.579916183359
 30
0.0
 11
795.5402594793679
 21
2396.676816
 31
0.0
  0
LINE
  5
72B1
330
72AC
100
AcDbEntity
  8
Dim
 62
     0
370
    -2
100
AcDbLine
 10
345.5396491278052
 20
2396.676816000001
 30
0.0
 11
785.5408698309304
 21
2396.676816
 31
0.0
  0
INSERT
  5
72B2
330
72AC
100
AcDbEntity
  8
Dim
 62
     0
370
    -2
100
AcDbBlockReference
  2
_DOT
 10
335.5402594793677
 20
2396.676816000001
 30
0.0
 41
9.999389648437498
 42
9.999389648437498
 43
9.999389648437498
 50
179.9999999999999
  0
INSERT
  5
72B3
330
72AC
100
AcDbEntity
  8
Dim
 62
     0
370
    -2
100
AcDbBlockReference
  2
_DOT
 10
795.5402594793679
 20
2396.676816
 30
0.0
 41
9.999389648437498
 42
9.999389648437498
 43
9.999389648437498
 50
359.9999999999999
  0
MTEXT
  5
72B4
330
72AC
100
AcDbEntity
  8
Dim
 62
     0
100
AcDbMText
 10
565.5402594793678
 20
2418.893124593751
 30
0.0
 40
24.4326171875
 41
0.0
 46
0.0
 71
     5
 72
     1
  1
\A1;460
  7
ＭＳ ゴシック
 73
     1
 44
1.0
  0
POINT
  5
72B5
330
72AC
100
AcDbEntity
  8
Defpoints
 62
     0
100
AcDbPoint
 10
335.5402594793677
 20
2404.542931801919
 30
0.0
  0
POINT
  5
72B6
330
72AC
100
AcDbEntity
  8
Defpoints
 62
     0
100
AcDbPoint
 10
795.5402594793677
 20
2291.579916183359
 30
0.0
  0
POINT
  5
72B7
330
72AC
100
AcDbEntity
  8
Defpoints
 62
     0
100
AcDbPoint
 10
795.5402594793679
 20
2396.676816
 30
0.0
  0
ENDBLK
  5
72AE
330
72AC
100
AcDbEntity
  8
0
100
AcDbBlockEnd
  0
BLOCK
  5
72B9
330
72B8
100
AcDbEntity
  8
0
100
AcDbBlockBegin
  2
*D79
 70
     1
 10
0.0
 20
0.0
 30
0.0
  3
*D79
  1

  0
LINE
  5
72BB
330
72B8
100
AcDbEntity
  8
Dim
 62
     0
370
    -2
100
AcDbLine
 10
335.5402594793677
 20
2429.542931801919
 30
0.0
 11
335.5402594793677
 21
2451.626118119171
 31
0.0
  0
LINE
  5
72BC
330
72B8
100
AcDbEntity
  8
Dim
 62
     0
370
    -2
100
AcDbLine
 10
585.5402594793677
 20
2324.716946919169
 30
0.0
 11
585.5402594793678
 21
2451.62611811917
 31
0.0
  0
LINE
  5
72BD
330
72B8
100
AcDbEntity
  8
Dim
 62
     0
370
    -2
100
AcDbLine
 10
345.5396491278052
 20
2451.626118119171
 30
0.0
 11
575.5408698309303
 21
2451.62611811917
 31
0.0
  0
INSERT
  5
72BE
330
72B8
100
AcDbEntity
  8
Dim
 62
     0
370
    -2
100
AcDbBlockReference
  2
_DOT
 10
335.5402594793677
 20
2451.626118119171
 30
0.0
 41
9.999389648437498
 42
9.999389648437498
 43
9.999389648437498
 50
179.9999999999999
  0
INSERT
  5
72BF
330
72B8
100
AcDbEntity
  8
Dim
 62
     0
370
    -2
100
AcDbBlockReference
  2
_DOT
 10
585.5402594793678
 20
2451.62611811917
 30
0.0
 41
9.999389648437498
 42
9.999389648437498
 43
9.999389648437498
 50
359.9999999999998
  0
MTEXT
  5
72C0
330
72B8
100
AcDbEntity
  8
Dim
 62
     0
100
AcDbMText
 10
460.5402594793678
 20
2472.12911811917
 30
0.0
 40
18.0
 41
0.0
 46
0.0
 71
     5
 72
     1
  1
\A1;250(カウンター置き)
  7
ＭＳ ゴシック
 73
     1
 44
1.0
  0
POINT
  5
72C1
330
72B8
100
AcDbEntity
  8
Defpoints
 62
     0
100
AcDbPoint
 10
335.5402594793677
 20
2404.542931801919
 30
0.0
  0
POINT
  5
72C2
330
72B8
100
AcDbEntity
  8
Defpoints
 62
     0
100
AcDbPoint
 10
585.5402594793677
 20
2299.716946919169
 30
0.0
  0
POINT
  5
72C3
330
72B8
100
AcDbEntity
  8
Defpoints
 62
     0
100
AcDbPoint
 10
585.5402594793678
 20
2451.62611811917
 30
0.0
  0
ENDBLK
  5
72BA
330
72B8
100
AcDbEntity
  8
0
100
AcDbBlockEnd
  0
BLOCK
  5
72E8
330
72E7
100
AcDbEntity
  8
0
100
AcDbBlockBegin
  2
*D80
 70
     1
 10
0.0
 20
0.0
 30
0.0
  3
*D80
  1

  0
LINE
  5
72EA
330
72E7
100
AcDbEntity
  8
Dim
 62
     0
370
    -2
100
AcDbLine
 10
1709.497725081672
 20
2228.275244174306
 30
0.0
 11
1709.497725081672
 21
2204.262817348821
 31
0.0
  0
LINE
  5
72EB
330
72E7
100
AcDbEntity
  8
Dim
 62
     0
370
    -2
100
AcDbLine
 10
1714.497724825338
 20
2228.275244103551
 30
0.0
 11
1714.497724825338
 21
2204.262817348821
 31
0.0
  0
LINE
  5
72EC
330
72E7
100
AcDbEntity
  8
Dim
 62
     0
370
    -2
100
AcDbLine
 10
1714.497724825338
 20
2204.262817348821
 30
0.0
 11
1773.258289862404
 21
2204.262817348821
 31
0.0
  0
LINE
  5
72ED
330
72E7
100
AcDbEntity
  8
Dim
 62
     0
370
    -2
100
AcDbLine
 10
1709.497725081672
 20
2204.262817348821
 30
0.0
 11
1714.497724825338
 21
2204.262817348821
 31
0.0
  0
LINE
  5
72EE
330
72E7
100
AcDbEntity
  8
Dim
 62
     0
370
    -2
100
AcDbLine
 10
1699.498335433235
 20
2204.262817348821
 30
0.0
 11
1689.498945784797
 21
2204.262817348821
 31
0.0
  0
LINE
  5
72EF
330
72E7
100
AcDbEntity
  8
Dim
 62
     0
370
    -2
100
AcDbLine
 10
1724.497114473776
 20
2204.262817348821
 30
0.0
 11
1734.496504122213
 21
2204.262817348821
 31
0.0
  0
INSERT
  5
72F0
330
72E7
100
AcDbEntity
  8
Dim
 62
     0
370
    -2
100
AcDbBlockReference
  2
_DOT
 10
1709.497725081672
 20
2204.262817348821
 30
0.0
 41
9.999389648437498
 42
9.999389648437498
 43
9.999389648437498
  0
INSERT
  5
72F1
330
72E7
100
AcDbEntity
  8
Dim
 62
     0
370
    -2
100
AcDbBlockReference
  2
_DOT
 10
1714.497724825338
 20
2204.262817348821
 30
0.0
 41
9.999389648437498
 42
9.999389648437498
 43
9.999389648437498
 50
180.0
  0
MTEXT
  5
72F2
330
72E7
100
AcDbEntity
  8
Dim
 62
     0
100
AcDbMText
 10
1756.942458319435
 20
2226.479125942571
 30
0.0
 40
24.4326171875
 41
0.0
 46
0.0
 71
     5
 72
     1
  1
\A1;5
  7
ＭＳ ゴシック
 73
     1
 44
1.0
  0
POINT
  5
72F3
330
72E7
100
AcDbEntity
  8
Defpoints
 62
     0
100
AcDbPoint
 10
1709.497725081672
 20
2253.275244174306
 30
0.0
  0
POINT
  5
72F4
330
72E7
100
AcDbEntity
  8
Defpoints
 62
     0
100
AcDbPoint
 10
1714.497724825338
 20
2253.275244103551
 30
0.0
  0
POINT
  5
72F6
330
72E7
100
AcDbEntity
  8
Defpoints
 62
     0
100
AcDbPoint
 10
1714.497724825338
 20
2204.262817348821
 30
0.0
  0
ENDBLK
  5
72E9
330
72E7
100
AcDbEntity
  8
0
100
AcDbBlockEnd
  0
BLOCK
  5
72FE
330
72FD
100
AcDbEntity
  8
0
100
AcDbBlockBegin
  2
*D81
 70
     1
 10
0.0
 20
0.0
 30
0.0
  3
*D81
  1

  0
LINE
  5
7300
330
72FD
100
AcDbEntity
  8
Dim
 62
     0
370
    -2
100
AcDbLine
 10
1534.497736574479
 20
949.5098307031835
 30
0.0
 11
1468.595496707027
 21
949.5098307031835
 31
0.0
  0
LINE
  5
7301
330
72FD
100
AcDbEntity
  8
Dim
 62
     0
370
    -2
100
AcDbLine
 10
1534.497736574479
 20
764.5098307031835
 30
0.0
 11
1468.595496707027
 21
764.5098307031835
 31
0.0
  0
LINE
  5
7302
330
72FD
100
AcDbEntity
  8
Dim
 62
     0
370
    -2
100
AcDbLine
 10
1468.595496707027
 20
939.510441054746
 30
0.0
 11
1468.595496707027
 21
774.509220351621
 31
0.0
  0
INSERT
  5
7303
330
72FD
100
AcDbEntity
  8
Dim
 62
     0
370
    -2
100
AcDbBlockReference
  2
_DOT
 10
1468.595496707027
 20
949.5098307031835
 30
0.0
 41
9.999389648437498
 42
9.999389648437498
 43
9.999389648437498
 50
90.0
  0
INSERT
  5
7304
330
72FD
100
AcDbEntity
  8
Dim
 62
     0
370
    -2
100
AcDbBlockReference
  2
_DOT
 10
1468.595496707027
 20
764.5098307031835
 30
0.0
 41
9.999389648437498
 42
9.999389648437498
 43
9.999389648437498
 50
270.0
  0
MTEXT
  5
7305
330
72FD
100
AcDbEntity
  8
Dim
 62
     0
100
AcDbMText
 10
1446.379188113277
 20
857.0098307031835
 30
0.0
 40
24.4326171875
 41
0.0
 46
0.0
 71
     5
 72
     1
  1
\A1;185
  7
ＭＳ ゴシック
 11
0.0
 21
1.0
 31
0.0
 73
     1
 44
1.0
  0
POINT
  5
7306
330
72FD
100
AcDbEntity
  8
Defpoints
 62
     0
100
AcDbPoint
 10
1559.497736574479
 20
949.5098307031835
 30
0.0
  0
POINT
  5
7307
330
72FD
100
AcDbEntity
  8
Defpoints
 62
     0
100
AcDbPoint
 10
1559.497736574479
 20
764.5098307031835
 30
0.0
  0
POINT
  5
7308
330
72FD
100
AcDbEntity
  8
Defpoints
 62
     0
100
AcDbPoint
 10
1468.595496707027
 20
764.5098307031835
 30
0.0
  0
ENDBLK
  5
72FF
330
72FD
100
AcDbEntity
  8
0
100
AcDbBlockEnd
  0
BLOCK
  5
730D
330
730C
100
AcDbEntity
  8
0
100
AcDbBlockBegin
  2
*D82
 70
     1
 10
0.0
 20
0.0
 30
0.0
  3
*D82
  1

  0
LINE
  5
730F
330
730C
100
AcDbEntity
  8
Dim
 62
     0
370
    -2
100
AcDbLine
 10
1509.49773657448
 20
1079.509830703184
 30
0.0
 11
1468.595496707027
 21
1079.509830703184
 31
0.0
  0
LINE
  5
7310
330
730C
100
AcDbEntity
  8
Dim
 62
     0
370
    -2
100
AcDbLine
 10
1509.49773657448
 20
1349.509830703184
 30
0.0
 11
1468.595496707027
 21
1349.509830703184
 31
0.0
  0
LINE
  5
7311
330
730C
100
AcDbEntity
  8
Dim
 62
     0
370
    -2
100
AcDbLine
 10
1468.595496707027
 20
1089.509220351621
 30
0.0
 11
1468.595496707027
 21
1339.510441054746
 31
0.0
  0
INSERT
  5
7312
330
730C
100
AcDbEntity
  8
Dim
 62
     0
370
    -2
100
AcDbBlockReference
  2
_DOT
 10
1468.595496707027
 20
1079.509830703184
 30
0.0
 41
9.999389648437498
 42
9.999389648437498
 43
9.999389648437498
 50
270.0
  0
INSERT
  5
7313
330
730C
100
AcDbEntity
  8
Dim
 62
     0
370
    -2
100
AcDbBlockReference
  2
_DOT
 10
1468.595496707027
 20
1349.509830703184
 30
0.0
 41
9.999389648437498
 42
9.999389648437498
 43
9.999389648437498
 50
90.0
  0
MTEXT
  5
7314
330
730C
100
AcDbEntity
  8
Dim
 62
     0
100
AcDbMText
 10
1446.379188113277
 20
1214.509830703184
 30
0.0
 40
24.4326171875
 41
0.0
 46
0.0
 71
     5
 72
     1
  1
\A1;270
  7
ＭＳ ゴシック
 11
0.0
 21
1.0
 31
0.0
 73
     1
 44
1.0
  0
POINT
  5
7315
330
730C
100
AcDbEntity
  8
Defpoints
 62
     0
100
AcDbPoint
 10
1534.49773657448
 20
1079.509830703184
 30
0.0
  0
POINT
  5
7316
330
730C
100
AcDbEntity
  8
Defpoints
 62
     0
100
AcDbPoint
 10
1534.49773657448
 20
1349.509830703184
 30
0.0
  0
POINT
  5
7317
330
730C
100
AcDbEntity
  8
Defpoints
 62
     0
100
AcDbPoint
 10
1468.595496707027
 20
1349.509830703184
 30
0.0
  0
ENDBLK
  5
730E
330
730C
100
AcDbEntity
  8
0
100
AcDbBlockEnd
  0
BLOCK
  5
732C
330
732B
100
AcDbEntity
  8
0
100
AcDbBlockBegin
  2
*D83
 70
     1
 10
0.0
 20
0.0
 30
0.0
  3
*D83
  1

  0
LINE
  5
732E
330
732B
100
AcDbEntity
  8
Dim
 62
     0
370
    -2
100
AcDbLine
 10
336.2900074939034
 20
1014.518893067606
 30
0.0
 11
218.8425062399997
 21
1014.518893067606
 31
0.0
  0
LINE
  5
732F
330
732B
100
AcDbEntity
  8
Dim
 62
     0
370
    -2
100
AcDbLine
 10
336.2900074939034
 20
764.518893067606
 30
0.0
 11
218.8425062399997
 21
764.518893067606
 31
0.0
  0
LINE
  5
7330
330
732B
100
AcDbEntity
  8
Dim
 62
     0
370
    -2
100
AcDbLine
 10
218.8425062399997
 20
1004.519503419168
 30
0.0
 11
218.8425062399997
 21
774.5182827160435
 31
0.0
  0
INSERT
  5
7331
330
732B
100
AcDbEntity
  8
Dim
 62
     0
370
    -2
100
AcDbBlockReference
  2
_DOT
 10
218.8425062399997
 20
1014.518893067606
 30
0.0
 41
9.999389648437498
 42
9.999389648437498
 43
9.999389648437498
 50
90.0
  0
INSERT
  5
7332
330
732B
100
AcDbEntity
  8
Dim
 62
     0
370
    -2
100
AcDbBlockReference
  2
_DOT
 10
218.8425062399997
 20
764.518893067606
 30
0.0
 41
9.999389648437498
 42
9.999389648437498
 43
9.999389648437498
 50
270.0
  0
MTEXT
  5
7333
330
732B
100
AcDbEntity
  8
Dim
 62
     0
100
AcDbMText
 10
196.6261976462497
 20
889.518893067606
 30
0.0
 40
24.4326171875
 41
0.0
 46
0.0
 71
     5
 72
     1
  1
\A1;250
  7
ＭＳ ゴシック
 11
1.136868377216160E-16
 21
1.0
 31
0.0
 73
     1
 44
1.0
  0
POINT
  5
7334
330
732B
100
AcDbEntity
  8
Defpoints
 62
     0
100
AcDbPoint
 10
361.2900074939034
 20
1014.518893067606
 30
0.0
  0
POINT
  5
7335
330
732B
100
AcDbEntity
  8
Defpoints
 62
     0
100
AcDbPoint
 10
361.2900074939034
 20
764.518893067606
 30
0.0
  0
POINT
  5
7336
330
732B
100
AcDbEntity
  8
Defpoints
 62
     0
100
AcDbPoint
 10
218.8425062399997
 20
764.518893067606
 30
0.0
  0
ENDBLK
  5
732D
330
732B
100
AcDbEntity
  8
0
100
AcDbBlockEnd
  0
ENDSEC
  0
SECTION
  2
ENTITIES
  0
MTEXT
  5
177
330
A
100
AcDbEntity
  8
template
390
1D
100
AcDbMText
 10
82.00000000048226
 20
348.023957835319
 30
0.0
 40
16.28841145833333
 41
0.0
 46
0.0
 71
     1
 72
     1
  1
品名
  7
ＭＳ ゴシック
 73
     1
 44
0.7828267384257843
  0
MTEXT
  5
178
330
A
100
AcDbEntity
  8
template
390
1D
100
AcDbMText
 10
82.00000000048226
 20
263.0239578353188
 30
0.0
 40
16.28841145833333
 41
0.0
 46
0.0
 71
     1
 72
     1
  1
仕様
  7
ＭＳ ゴシック
 73
     1
 44
0.7828267384257843
  0
LINE
  5
179
330
A
100
AcDbEntity
  8
template
390
1D
100
AcDbLine
 10
2025.0
 20
271.4388797103189
 30
0.0
 11
75.00000000000023
 21
271.4388797103189
 31
0.0
  0
LWPOLYLINE
  5
17A
330
A
100
AcDbEntity
  8
template
390
1D
100
AcDbPolyline
 90
        5
 70
   128
 43
0.0
 10
2025.0
 20
2901.438879710319
 10
75.00000000000023
 20
2901.438879710319
 10
75.00000000000023
 20
101.4388797103188
 10
2025.0
 20
101.4388797103188
 10
2025.0
 20
2901.438879710319
  0
LINE
  5
17B
330
A
100
AcDbEntity
  8
template
390
1D
100
AcDbLine
 10
2025.0
 20
356.4388797103188
 30
0.0
 11
75.00000000000023
 21
356.4388797103188
 31
0.0
  0
LINE
  5
17C
330
A
100
AcDbEntity
  8
template
390
1D
100
AcDbLine
 10
2025.000000000482
 20
186.4388797103189
 30
0.0
 11
1272.000000000482
 21
186.4388797103189
 31
0.0
  0
MTEXT
  5
17E
330
A
100
AcDbEntity
  8
template
390
1D
100
AcDbMText
 10
1301.871406252743
 20
156.5284852370108
 30
0.0
 40
24.4326171875
 41
0.0
 46
0.0
 71
     1
 72
     1
  1
大洋金物株式会社 ティーフォルム事業部
  7
ＭＳ ゴシック
 73
     1
 44
0.7828267384257843
  0
MTEXT
  5
180
330
A
100
AcDbEntity
  8
template
390
1D
100
AcDbMText
 10
1834.000000000742
 20
234.4414968978188
 30
0.0
 40
24.4326171875
 41
0.0
 46
0.0
 71
     1
 72
     1
  1
1:10
  7
ＭＳ ゴシック
 73
     1
 44
0.7828267384257843
  0
MTEXT
  5
181
330
A
100
AcDbEntity
  8
template
390
1D
100
AcDbMText
 10
1781.000000000742
 20
263.0239578353188
 30
0.0
 40
16.28841145833333
 41
0.0
 46
0.0
 71
     1
 72
     1
  1
縮尺
  7
ＭＳ ゴシック
 73
     1
 44
0.7828267384257843
  0
LINE
  5
182
330
A
100
AcDbEntity
  8
template
390
1D
100
AcDbLine
 10
1774.000000000742
 20
186.4388797103189
 30
0.0
 11
1774.000000000742
 21
271.4388797103189
 31
0.0
  0
MTEXT
  5
183
330
A
100
AcDbEntity
  8
template
390
1D
100
AcDbMText
 10
1530.000000000742
 20
263.0239578353188
 30
0.0
 40
16.28841145833333
 41
0.0
 46
0.0
 71
     1
 72
     1
  1
容量
  7
ＭＳ ゴシック
 73
     1
 44
0.7828267384257843
  0
LINE
  5
184
330
A
100
AcDbEntity
  8
template
390
1D
100
AcDbLine
 10
1523.000000000742
 20
186.4388797103189
 30
0.0
 11
1523.000000000742
 21
271.4388797103189
 31
0.0
  0
MTEXT
  5
185
330
A
100
AcDbEntity
  8
template
390
1D
100
AcDbMText
 10
1279.000000000742
 20
348.023957835319
 30
0.0
 40
16.28841145833333
 41
0.0
 46
0.0
 71
     1
 72
     1
  1
品番
  7
ＭＳ ゴシック
 73
     1
 44
0.7828267384257843
  0
MTEXT
  5
186
330
A
100
AcDbEntity
  8
template
390
1D
100
AcDbMText
 10
1279.000000000742
 20
263.0239578353188
 30
0.0
 40
16.28841145833333
 41
0.0
 46
0.0
 71
     1
 72
     1
  1
重量
  7
ＭＳ ゴシック
 73
     1
 44
0.7828267384257843
  0
MTEXT
  5
187
330
A
100
AcDbEntity
  8
template
390
1D
100
AcDbMText
 10
1332.000000000742
 20
319.4414968978188
 30
0.0
 40
24.4326171875
 41
0.0
 46
24.4326171875
 71
     1
 72
     1
  1
{ADF70-3003}
  7
ＭＳ ゴシック
 73
     1
 44
0.7828267384257843
1001
ACAD
1000
ACAD_MTEXT_DEFINED_HEIGHT_BEGIN
1070
    46
1040
24.4326171875
1000
ACAD_MTEXT_DEFINED_HEIGHT_END
  0
LINE
  5
188
330
A
100
AcDbEntity
  8
template
390
1D
100
AcDbLine
 10
1272.000000000742
 20
101.4388797103188
 30
0.0
 11
1272.000000000742
 21
356.4388797103188
 31
0.0
  0
MTEXT
  5
189
330
A
100
AcDbEntity
  8
template
390
1D
100
AcDbMText
 10
135.0000000004822
 20
319.4414968978188
 30
0.0
 40
24.4326171875
 41
0.0
 46
27.5355595703125
 71
     1
 72
     1
  1
{洗面器 -CATALANO, New Zero-}
  7
ＭＳ ゴシック
 73
     1
 44
0.7828267384257843
1001
ACAD
1000
ACAD_MTEXT_DEFINED_HEIGHT_BEGIN
1070
    46
1040
27.5355595703125
1000
ACAD_MTEXT_DEFINED_HEIGHT_END
  0
MTEXT
  5
18A
330
A
100
AcDbEntity
  8
template
 62
     1
390
1D
100
AcDbMText
 10
135.0000000004822
 20
234.4414968978188
 30
0.0
 40
24.4326171875
 41
0.0
 46
68.99651757812501
 71
     1
 72
     1
  1
{{\C256;壁掛け,半埋め込み/オーバーフロー付き/壁取付ボルト付属/\P陶器/ホワイト}}
  7
ＭＳ ゴシック
 73
     1
 44
0.9822934569727008
1001
ACAD
1000
ACAD_MTEXT_DEFINED_HEIGHT_BEGIN
1070
    46
1040
68.99651757812501
1000
ACAD_MTEXT_DEFINED_HEIGHT_END
  0
MTEXT
  5
1A6
330
A
100
AcDbEntity
  8
template
390
1D
100
AcDbMText
 10
1332.000000000742
 20
234.4414968978188
 30
0.0
 40
24.4326171875
 41
0.0
 46
28.390701171875
 71
     1
 72
     1
  1
{23kg}
  7
ＭＳ ゴシック
 73
     1
 44
0.7828267384257843
1001
ACAD
1000
ACAD_MTEXT_DEFINED_HEIGHT_BEGIN
1070
    46
1040
28.390701171875
1000
ACAD_MTEXT_DEFINED_HEIGHT_END
  0
MTEXT
  5
374
330
A
100
AcDbEntity
  8
template
390
1D
100
AcDbMText
 10
1581.992122669024
 20
234.4414968978188
 30
0.0
 40
24.4326171875
 41
0.0
 46
24.4326171875
 71
     1
 72
     1
  1
{6L}
  7
ＭＳ ゴシック
 73
     1
 44
0.7828267384257843
1001
ACAD
1000
ACAD_MTEXT_DEFINED_HEIGHT_BEGIN
1070
    46
1040
24.4326171875
1000
ACAD_MTEXT_DEFINED_HEIGHT_END
  0
INSERT
  5
3D0
330
A
100
AcDbEntity
  8
template
100
AcDbBlockReference
  2
名称未設定-1
 10
1873.559250554905
 20
30.23897196054438
 30
0.0
 41
0.7619999999999999
 42
0.7619999999999999
 43
0.7619999999999999
  0
MTEXT
  5
BDB
102
{ACAD_XDICTIONARY
360
BDC
102
}
330
A
100
AcDbEntity
  8
template
  6
Continuous
100
AcDbMText
 10
78.95663872901252
 20
86.10730750352229
 30
0.0
 40
23.0
 41
0.0
 46
23.0
 71
     1
 72
     1
  1
{20190404N}
  7
ＭＳ ゴシック
 73
     1
 44
1.0
1001
ACAD
1000
ACAD_MTEXT_DEFINED_HEIGHT_BEGIN
1070
    46
1040
23.0
1000
ACAD_MTEXT_DEFINED_HEIGHT_END
  0
LWPOLYLINE
  5
BEE
330
A
100
AcDbEntity
  8
PRINT BORDER
100
AcDbPolyline
 90
        4
 70
     1
 43
0.0
 10
0.0
 20
0.0
 10
0.0
 20
2970.0
 10
2100.0
 20
2970.0
 10
2100.0
 20
0.0
  0
INSERT
  5
1273
330
A
100
AcDbEntity
  8
0
 62
     7
100
AcDbBlockReference
  2
BLOCK_2
 10
591.2037060744204
 20
943.564364962162
 30
0.0
  0
INSERT
  5
127B
330
A
100
AcDbEntity
  8
0
 62
     7
100
AcDbBlockReference
  2
BLOCK_2
 10
1291.863324028138
 20
1038.76992320659
 30
0.0
  0
INSERT
  5
127C
330
A
100
AcDbEntity
  8
0
 62
     7
100
AcDbBlockReference
  2
BLOCK_2
 10
652.1648429406905
 20
1595.641631888467
 30
0.0
  0
INSERT
  5
3B99
330
A
100
AcDbEntity
  8
retino
100
AcDbBlockReference
  2
mobile_latù
 10
-92101.31485198285
 20
1730.415535296608
 30
0.0
  0
INSERT
  5
467E
330
A
100
AcDbEntity
  8
retino
100
AcDbBlockReference
  2
mobile_latù
 10
-100894.893236163
 20
1696.039721945452
 30
0.0
  0
INSERT
  5
527B
330
A
100
AcDbEntity
  8
retino
100
AcDbBlockReference
  2
mobile_latù
 10
-89900.42748460227
 20
2057.97116653715
 30
0.0
  0
INSERT
  5
527C
330
A
100
AcDbEntity
  8
0
100
AcDbBlockReference
  2
.TD_SECTION_1
 10
225818104807.5758
 20
2467.422636311911
 30
0.0
  0
INSERT
  5
527D
330
A
100
AcDbEntity
  8
0
100
AcDbBlockReference
  2
.TD_SECTION_2
 10
225818170343.5758
 20
2467.422636311911
 30
0.0
  0
INSERT
  5
527E
330
A
100
AcDbEntity
  8
0
  6
Continuous
 62
     0
370
     0
100
AcDbBlockReference
  2
.TD_SECTION_1
 10
-8769.816836312122
 20
2681.893749185237
 30
0.0
  0
INSERT
  5
527F
330
A
100
AcDbEntity
  8
0
  6
Continuous
 62
     0
370
     0
100
AcDbBlockReference
  2
.TD_SECTION_2
 10
-9327.194994881458
 20
2989.447269387873
 30
0.0
  0
INSERT
  5
5280
330
A
100
AcDbEntity
  8
0
  6
Continuous
 62
     0
370
     0
100
AcDbBlockReference
  2
.TD_SECTION_1
 10
-11193.31175928566
 20
763.8992218647024
 30
0.0
  0
INSERT
  5
5281
330
A
100
AcDbEntity
  8
0
  6
Continuous
 62
     0
370
     0
100
AcDbBlockReference
  2
.TD_SECTION_2
 10
-10905.35097055885
 20
465.7910675678274
 30
0.0
  0
INSERT
  5
5282
330
A
100
AcDbEntity
  8
0
  6
Continuous
 62
     0
370
     0
100
AcDbBlockReference
  2
.TD_SECTION_1
 10
-11064.96092844183
 20
698.0103962023752
 30
0.0
  0
INSERT
  5
5283
330
A
100
AcDbEntity
  8
0
  6
Continuous
 62
     0
370
     0
100
AcDbBlockReference
  2
.TD_SECTION_2
 10
-10776.90956354314
 20
399.8117572863596
 30
0.0
  0
INSERT
  5
5284
330
A
100
AcDbEntity
  8
0
  6
Continuous
 62
     0
370
     0
100
AcDbBlockReference
  2
.TD_SECTION_1
 10
-1462.487522281953
 20
1958.724372419401
 30
0.0
  0
INSERT
  5
5285
330
A
100
AcDbEntity
  8
0
  6
Continuous
 62
     0
370
     0
100
AcDbBlockReference
  2
.TD_SECTION_2
 10
-1135.18037048752
 20
1672.677238019987
 30
0.0
  0
INSERT
  5
5286
330
A
100
AcDbEntity
  8
0
  6
Continuous
 62
     0
370
     0
100
AcDbBlockReference
  2
.TD_SECTION_1
 10
704.608903935718
 20
-713.9911611042783
 30
0.0
  0
INSERT
  5
5287
330
A
100
AcDbEntity
  8
0
  6
Continuous
 62
     0
370
     0
100
AcDbBlockReference
  2
.TD_SECTION_2
 10
1319.461252263355
 20
-1311.565746065216
 30
0.0
  0
LINE
  5
6F1D
330
A
100
AcDbEntity
  8
MODEL
100
AcDbLine
 10
468.697882770382
 20
1002.610295530042
 30
0.0
 11
468.5823279608117
 21
1002.534856076917
 31
0.0
  0
LINE
  5
6F1E
330
A
100
AcDbEntity
  8
MODEL
100
AcDbLine
 10
468.5823279608117
 20
1002.534856076917
 30
0.0
 11
468.4660865057335
 21
1002.609486814222
 31
0.0
  0
CIRCLE
  5
6F1F
330
A
100
AcDbEntity
  8
HIDDEN
 48
0.5
100
AcDbCircle
 10
404.598402979585
 20
1014.518877808802
 30
0.0
 40
17.5
  0
CIRCLE
  5
6F20
330
A
100
AcDbEntity
  8
HIDDEN
 48
0.5
100
AcDbCircle
 10
404.598402979585
 20
914.5188778088022
 30
0.0
 40
16.0
  0
CIRCLE
  5
6F21
330
A
100
AcDbEntity
  8
HIDDEN
 48
0.5
100
AcDbCircle
 10
404.598402979585
 20
1114.518877808802
 30
0.0
 40
16.0
  0
LINE
  5
6FA0
330
A
100
AcDbEntity
  8
MODEL
100
AcDbLine
 10
335.5402594793663
 20
767.5717152465049
 30
0.0
 11
335.5402594793668
 21
1511.466070888678
 31
0.0
  0
LINE
  5
6FA1
330
A
100
AcDbEntity
  8
MODEL
100
AcDbLine
 10
829.4878942149808
 20
764.572172161043
 30
0.0
 11
338.5402594793663
 21
764.5721721610435
 31
0.0
  0
LINE
  5
6FA2
330
A
100
AcDbEntity
  8
MODEL
100
AcDbLine
 10
835.4869803859197
 20
1508.466527803201
 30
0.0
 11
835.4869803859192
 21
770.5712583319805
 31
0.0
  0
LINE
  5
6FA3
330
A
100
AcDbEntity
  8
MODEL
100
AcDbLine
 10
338.5402594793668
 20
1514.465613974139
 30
0.0
 11
829.4878942149812
 21
1514.465613974139
 31
0.0
  0
LINE
  5
6FA4
330
A
100
AcDbEntity
  8
MODEL
100
AcDbLine
 10
1714.497723109339
 20
1136.964401447428
 30
0.0
 11
1714.497723109339
 21
892.0733541701734
 31
0.0
  0
LINE
  5
6FA5
330
A
100
AcDbEntity
  8
MODEL
100
AcDbLine
 10
1629.497723109339
 20
1509.104408237439
 30
0.0
 11
1629.497723109339
 21
1507.104712847121
 31
0.0
  0
LINE
  5
6FA6
330
A
100
AcDbEntity
  8
MODEL
100
AcDbLine
 10
1629.497723109339
 20
771.9330427704804
 30
0.0
 11
1629.497723109339
 21
769.933347380163
 31
0.0
  0
LINE
  5
6FA7
330
A
100
AcDbEntity
  8
MODEL
100
AcDbLine
 10
1629.497723109339
 20
1507.104712847121
 30
0.0
 11
1629.497723109339
 21
771.9330427704804
 31
0.0
  0
LINE
  5
6FA8
330
A
100
AcDbEntity
  8
MODEL
100
AcDbLine
 10
1547.550080328651
 20
1514.465598715349
 30
0.0
 11
1625.567532735088
 21
1513.103799018059
 31
0.0
  0
LINE
  5
6FA9
330
A
100
AcDbEntity
  8
MODEL
100
AcDbLine
 10
1625.567532735087
 20
765.9339565995429
 30
0.0
 11
1547.55008032865
 21
764.572156902253
 31
0.0
  0
LINE
  5
6FAA
330
A
100
AcDbEntity
  8
MODEL
100
AcDbLine
 10
1544.497723109339
 20
767.5716999877291
 30
0.0
 11
1544.497723109339
 21
1511.466055629873
 31
0.0
  0
ARC
  5
6FAB
330
A
100
AcDbEntity
  8
MODEL
100
AcDbCircle
 10
1547.497723109339
 20
767.5716999877291
 30
0.0
 40
3.0
100
AcDbArc
 50
180.0
 51
271.0000000000104
  0
ARC
  5
6FAC
330
A
100
AcDbEntity
  8
MODEL
100
AcDbCircle
 10
1547.497723109339
 20
1511.466055629873
 30
0.0
 40
3.0
100
AcDbArc
 50
88.99999999997219
 51
180.0
  0
ARC
  5
6FAD
330
A
100
AcDbEntity
  8
MODEL
100
AcDbCircle
 10
1625.497723109339
 20
1509.104408237439
 30
0.0
 40
4.0
100
AcDbArc
 50
0.0
 51
88.99999999997219
  0
ARC
  5
6FAE
330
A
100
AcDbEntity
  8
MODEL
100
AcDbCircle
 10
1625.497723109339
 20
769.933347380163
 30
0.0
 40
4.0
100
AcDbArc
 50
271.0000000000278
 51
0.0
  0
ELLIPSE
  5
6FAF
330
A
100
AcDbEntity
  8
MODEL
100
AcDbEllipse
 10
338.5402594793663
 20
767.5717152465049
 30
0.0
 11
-3.0
 21
2.848232278972478E-15
 31
0.0
210
0.0
220
0.0
230
1.0
 40
0.999847695156391
 41
0.0
 42
1.570796326794896
  0
ELLIPSE
  5
6FB0
330
A
100
AcDbEntity
  8
MODEL
100
AcDbEllipse
 10
829.4869803163137
 20
1508.465613904537
 30
0.0
 11
-4.242640883925763
 21
-4.242640883925753
 31
0.0
210
0.0
220
0.0
230
1.0
 40
0.9999999536127822
 41
2.356346783440442
 42
3.926838523739145
  0
ELLIPSE
  5
6FB1
330
A
100
AcDbEntity
  8
MODEL
100
AcDbEllipse
 10
829.4869803163187
 20
770.5721722306448
 30
0.0
 11
-4.242640883920004
 21
4.242640883920015
 31
0.0
210
0.0
220
0.0
230
1.0
 40
0.9999999536135945
 41
2.356346783439886
 42
3.926838523739682
  0
ELLIPSE
  5
6FB2
330
A
100
AcDbEntity
  8
MODEL
100
AcDbEllipse
 10
338.5402594793668
 20
1511.466070888678
 30
0.0
 11
-3.0
 21
2.848232278972478E-15
 31
0.0
210
0.0
220
0.0
230
1.0
 40
0.999847695156391
 41
4.71238898038469
 42
6.283185307179586
  0
SPLINE
  5
6FB3
330
A
100
AcDbEntity
  8
MODEL
100
AcDbSpline
210
0.0
220
0.0
230
1.0
 70
     8
 71
     3
 72
    10
 73
     6
 74
     0
 42
0.000000001
 43
0.0000000001
 40
0.0
 40
0.0
 40
0.0
 40
0.0
 40
0.5
 40
0.5
 40
1.0
 40
1.0
 40
1.0
 40
1.0
 10
1640.344364203079
 20
835.8788715281366
 30
0.0
 10
1640.790030794714
 20
836.25283020081
 30
0.0
 10
1641.268407143212
 20
836.5877929261292
 30
0.0
 10
1642.276073456675
 20
837.1695693434554
 30
0.0
 10
1642.805347860373
 20
837.4163740511681
 30
0.0
 10
1643.352038866687
 20
837.6153533048014
 30
0.0
  0
SPLINE
  5
6FB4
330
A
100
AcDbEntity
  8
MODEL
100
AcDbSpline
210
0.0
220
0.0
230
1.0
 70
     8
 71
     3
 72
    10
 73
     6
 74
     0
 42
0.000000001
 43
0.0000000001
 40
0.0
 40
0.0
 40
0.0
 40
0.0
 40
0.5
 40
0.5
 40
1.0
 40
1.0
 40
1.0
 40
1.0
 10
1640.344364203079
 20
1193.158884089465
 30
0.0
 10
1640.790030794714
 20
1192.784925416792
 30
0.0
 10
1641.268407143213
 20
1192.449962691473
 30
0.0
 10
1642.276073456675
 20
1191.868186274146
 30
0.0
 10
1642.805347860373
 20
1191.621381566434
 30
0.0
 10
1643.352038866688
 20
1191.4224023128
 30
0.0
  0
SPLINE
  5
6FB5
330
A
100
AcDbEntity
  8
MODEL
100
AcDbSpline
210
0.0
220
0.0
230
1.0
 70
     8
 71
     3
 72
    22
 73
    18
 74
     0
 42
0.000000001
 43
0.0000000001
 40
0.0
 40
0.0
 40
0.0
 40
0.0
 40
0.125
 40
0.125
 40
0.25
 40
0.25
 40
0.375
 40
0.375
 40
0.5
 40
0.5
 40
0.625
 40
0.625
 40
0.75
 40
0.75
 40
0.875
 40
0.875
 40
1.0
 40
1.0
 40
1.0
 40
1.0
 10
1710.549843969293
 20
862.0733541701734
 30
0.0
 10
1710.836856747607
 20
862.1778182783414
 30
0.0
 10
1711.115874773625
 20
862.3042397011991
 30
0.0
 10
1711.651436672085
 20
862.5980590200884
 30
0.0
 10
1711.907975694795
 20
862.7654542554769
 30
0.0
 10
1712.392607671987
 20
863.1373254508176
 30
0.0
 10
1712.620696237928
 20
863.3417980433255
 30
0.0
 10
1713.043117525466
 20
863.7830650770734
 30
0.0
 10
1713.237446421865
 20
864.0198555224592
 30
0.0
 10
1713.58782432828
 20
864.5202470311156
 30
0.0
 10
1713.743870165484
 20
864.7838435631379
 30
0.0
 10
1714.014048951586
 20
865.3317119440139
 30
0.0
 10
1714.128179453907
 20
865.6159788317123
 30
0.0
 10
1714.311870173749
 20
866.1985713640129
 30
0.0
 10
1714.381428727875
 20
866.4968917329929
 30
0.0
 10
1714.474355616416
 20
867.1006474225101
 30
0.0
 10
1714.497723109339
 20
867.4060772757907
 30
0.0
 10
1714.497723109339
 20
867.7115098948957
 30
0.0
  0
SPLINE
  5
6FB6
330
A
100
AcDbEntity
  8
MODEL
100
AcDbSpline
210
0.0
220
0.0
230
1.0
 70
    24
 71
     3
 72
    66
 73
    62
 74
     0
 42
0.000000001
 43
0.0000000001
 40
0.0
 40
0.0
 40
0.0
 40
0.0
 40
0.0312591625884898
 40
0.0625183251769797
 40
0.0937774877654695
 40
0.1250366503539593
 40
0.1328514410010818
 40
0.1328514410010818
 40
0.1406662316482042
 40
0.1406662316482042
 40
0.1562958129424482
 40
0.1562958129424482
 40
0.1875549755309361
 40
0.1875549755309361
 40
0.2500733007079119
 40
0.2500733007079119
 40
0.3125916258848876
 40
0.3125916258848876
 40
0.3438507884733756
 40
0.3438507884733756
 40
0.3516655791204971
 40
0.3516655791204971
 40
0.3594803697676185
 40
0.3594803697676185
 40
0.3751099510618616
 40
0.3751099510618616
 40
0.406369113650347
 40
0.4376282762388323
 40
0.4376282762388323
 40
0.5001466014158021
 40
0.5001466014158021
 40
0.5626649265927719
 40
0.5626649265927719
 40
0.5704797172398949
 40
0.5704797172398949
 40
0.5782945078870176
 40
0.5782945078870176
 40
0.5939240891812635
 40
0.5939240891812635
 40
0.6251832517697538
 40
0.6251832517697538
 40
0.6877015769467332
 40
0.6877015769467332
 40
0.7189607395352213
 40
0.7502199021237097
 40
0.7502199021237097
 40
0.781479064712198
 40
0.781479064712198
 40
0.789293855359317
 40
0.789293855359317
 40
0.7971086460064359
 40
0.8127382273006698
 40
0.8127382273006698
 40
0.8439973898891342
 40
0.8752565524775984
 40
0.8752565524775984
 40
0.9065157150660628
 40
0.937774877654527
 40
0.9690340402429913
 40
0.9690340402429913
 40
1.0
 40
1.0
 40
1.0
 40
1.0
 10
1714.497723109339
 20
892.0733541701734
 30
0.0
 10
1714.497723109339
 20
891.6716307404381
 30
0.0
 10
1714.497723109338
 20
890.8704890336189
 30
0.0
 10
1714.497723109339
 20
889.6755383917002
 30
0.0
 10
1714.497723109338
 20
888.4872739970701
 30
0.0
 10
1714.497723109339
 20
887.6010890536668
 30
0.0
 10
1714.497723109339
 20
887.1105227526964
 30
0.0
 10
1714.497723109339
 20
886.9144370980462
 30
0.0
 10
1714.497723109338
 20
886.8164189748745
 30
0.0
 10
1714.497723109339
 20
886.5229016739281
 30
0.0
 10
1714.497723109339
 20
886.328199603256
 30
0.0
 10
1714.497723109339
 20
885.7469773879961
 30
0.0
 10
1714.497723109339
 20
885.3633385602984
 30
0.0
 10
1714.497723109339
 20
884.2236971110065
 30
0.0
 10
1714.497723109339
 20
883.4789323419495
 30
0.0
 10
1714.497723109339
 20
882.0190179991582
 30
0.0
 10
1714.497723109339
 20
881.3038533272297
 30
0.0
 10
1714.497723109339
 20
880.2534133784898
 30
0.0
 10
1714.497723109339
 20
879.9069939935976
 30
0.0
 10
1714.497723109339
 20
879.4787147750862
 30
0.0
 10
1714.497723109339
 20
879.39329638355
 30
0.0
 10
1714.497723109339
 20
879.2229374751146
 30
0.0
 10
1714.497723109339
 20
879.1379385084688
 30
0.0
 10
1714.497723109339
 20
878.8841614647786
 30
0.0
 10
1714.497723109339
 20
878.7166440785472
 30
0.0
 10
1714.497723109339
 20
878.2190461939858
 30
0.0
 10
1714.497723109339
 20
877.5687763356505
 30
0.0
 10
1714.497723109339
 20
876.9443165435764
 30
0.0
 10
1714.497723109339
 20
876.026757735362
 30
0.0
 10
1714.497723109339
 20
875.4404957481561
 30
0.0
 10
1714.497723109339
 20
874.3192119274422
 30
0.0
 10
1714.497723109339
 20
873.78418542178
 30
0.0
 10
1714.497723109339
 20
873.2118144201045
 30
0.0
 10
1714.497723109338
 20
873.1486292439618
 30
0.0
 10
1714.497723109338
 20
873.0230870609043
 30
0.0
 10
1714.497723109338
 20
872.9607149855105
 30
0.0
 10
1714.497723109339
 20
872.775347694896
 30
0.0
 10
1714.497723109339
 20
872.6539352805371
 30
0.0
 10
1714.497723109339
 20
872.2961355298135
 30
0.0
 10
1714.497723109339
 20
872.0661801663623
 30
0.0
 10
1714.497723109339
 20
871.4017741922103
 30
0.0
 10
1714.497723109339
 20
870.9927113655972
 30
0.0
 10
1714.497723109339
 20
870.429237242493
 30
0.0
 10
1714.497723109339
 20
870.0703376988927
 30
0.0
 10
1714.497723109339
 20
869.7452224384283
 30
0.0
 10
1714.497723109339
 20
869.4373228022555
 30
0.0
 10
1714.497723109339
 20
869.2919877397758
 30
0.0
 10
1714.497723109339
 20
869.1212835220899
 30
0.0
 10
1714.497723109339
 20
869.0876686414954
 30
0.0
 10
1714.497723109339
 20
869.0216742585139
 30
0.0
 10
1714.497723109338
 20
868.9245416886656
 30
0.0
 10
1714.497723109339
 20
868.8329528643476
 30
0.0
 10
1714.497723109339
 20
868.6570977273327
 30
0.0
 10
1714.497723109339
 20
868.442137919566
 30
0.0
 10
1714.497723109339
 20
868.2657906558557
 30
0.0
 10
1714.497723109339
 20
868.1087487973523
 30
0.0
 10
1714.497723109339
 20
867.9710253861663
 30
0.0
 10
1714.497723109339
 20
867.8223147416097
 30
0.0
 10
1714.497723109339
 20
867.7621056837338
 30
0.0
 10
1714.497723109339
 20
867.7219452581589
 30
0.0
 10
1714.497723109339
 20
867.7116490019939
 30
0.0
 10
1714.497723109339
 20
867.7115341703134
 30
0.0
  0
SPLINE
  5
6FB7
330
A
100
AcDbEntity
  8
MODEL
100
AcDbSpline
210
0.0
220
0.0
230
1.0
 70
    24
 71
     3
 72
    66
 73
    62
 74
     0
 42
0.000000001
 43
0.0000000001
 40
0.0
 40
0.0
 40
0.0
 40
0.0
 40
0.0312499999999888
 40
0.0624999999999777
 40
0.0937499999999665
 40
0.1249999999999554
 40
0.1328124999999536
 40
0.1328124999999536
 40
0.1406249999999519
 40
0.1406249999999519
 40
0.156249999999948
 40
0.156249999999948
 40
0.1874999999999406
 40
0.1874999999999406
 40
0.2499999999999224
 40
0.2499999999999224
 40
0.3124999999999042
 40
0.3124999999999042
 40
0.3437499999998956
 40
0.3437499999998956
 40
0.3515624999998953
 40
0.3515624999998953
 40
0.359374999999895
 40
0.359374999999895
 40
0.3749999999998944
 40
0.3749999999998944
 40
0.4062499999998956
 40
0.4374999999998969
 40
0.4374999999998969
 40
0.4999999999998979
 40
0.4999999999998979
 40
0.5624999999998989
 40
0.5624999999998989
 40
0.5703124999999001
 40
0.5703124999999001
 40
0.5781249999999013
 40
0.5781249999999013
 40
0.5937499999999035
 40
0.5937499999999035
 40
0.6249999999999126
 40
0.6249999999999126
 40
0.6874999999999301
 40
0.6874999999999301
 40
0.7187499999999387
 40
0.7499999999999475
 40
0.7499999999999475
 40
0.7812499999999561
 40
0.7812499999999561
 40
0.7890624999999596
 40
0.7890624999999596
 40
0.796874999999963
 40
0.8124999999999665
 40
0.8124999999999665
 40
0.843749999999972
 40
0.8749999999999777
 40
0.8749999999999777
 40
0.9062499999999832
 40
0.9374999999999889
 40
0.9687499999999944
 40
0.9687499999999944
 40
1.0
 40
1.0
 40
1.0
 40
1.0
 10
1714.497723109339
 20
1161.32627072521
 30
0.0
 10
1714.497723109339
 20
1161.326220720216
 30
0.0
 10
1714.497723109339
 20
1161.305757280944
 30
0.0
 10
1714.497723109339
 20
1161.214923969844
 30
0.0
 10
1714.497723109339
 20
1161.064662582484
 30
0.0
 10
1714.497723109339
 20
1160.907407331684
 30
0.0
 10
1714.497723109339
 20
1160.80441207901
 30
0.0
 10
1714.497723109339
 20
1160.761961948297
 30
0.0
 10
1714.497723109339
 20
1160.740100280363
 30
0.0
 10
1714.497723109339
 20
1160.672708668073
 30
0.0
 10
1714.497723109339
 20
1160.625435036356
 30
0.0
 10
1714.497723109339
 20
1160.4766831587
 30
0.0
 10
1714.497723109339
 20
1160.368280370614
 30
0.0
 10
1714.497723109339
 20
1160.015975213722
 30
0.0
 10
1714.497723109339
 20
1159.74506540826
 30
0.0
 10
1714.497723109339
 20
1159.13207290148
 30
0.0
 10
1714.497723109339
 20
1158.790026485014
 30
0.0
 10
1714.497723109339
 20
1158.22334728653
 30
0.0
 10
1714.497723109339
 20
1158.025496649188
 30
0.0
 10
1714.497723109339
 20
1157.766779872439
 30
0.0
 10
1714.497723109339
 20
1157.71446585876
 30
0.0
 10
1714.497723109339
 20
1157.608689376309
 30
0.0
 10
1714.497723109339
 20
1157.555189333445
 30
0.0
 10
1714.497723109339
 20
1157.393274050915
 30
0.0
 10
1714.497723109339
 20
1157.283475099346
 30
0.0
 10
1714.497723109339
 20
1156.948564986447
 30
0.0
 10
1714.497723109339
 20
1156.487335521549
 30
0.0
 10
1714.497723109339
 20
1155.997383875186
 30
0.0
 10
1714.497723109339
 20
1155.241167014213
 30
0.0
 10
1714.497723109339
 20
1154.70870775582
 30
0.0
 10
1714.497723109339
 20
1153.586767727505
 30
0.0
 10
1714.497723109339
 20
1152.997292156895
 30
0.0
 10
1714.497723109339
 20
1152.301266061778
 30
0.0
 10
1714.497723109339
 20
1152.223471786677
 30
0.0
 10
1714.497723109339
 20
1152.066961626038
 30
0.0
 10
1714.497723109339
 20
1151.988225022501
 30
0.0
 10
1714.497723109339
 20
1151.751269301177
 30
0.0
 10
1714.497723109339
 20
1151.592100421137
 30
0.0
 10
1714.497723109339
 20
1151.111031698306
 30
0.0
 10
1714.497723109339
 20
1150.785572826858
 30
0.0
 10
1714.497723109339
 20
1149.795108267189
 30
0.0
 10
1714.497723109339
 20
1149.11605465745
 30
0.0
 10
1714.497723109339
 20
1148.069741083203
 30
0.0
 10
1714.497723109339
 20
1147.362930428524
 30
0.0
 10
1714.497723109339
 20
1146.637425784745
 30
0.0
 10
1714.497723109339
 20
1145.902395152468
 30
0.0
 10
1714.497723109339
 20
1145.53011300004
 30
0.0
 10
1714.497723109339
 20
1145.058693218885
 30
0.0
 10
1714.497723109339
 20
1144.964039704438
 30
0.0
 10
1714.497723109339
 20
1144.77450188489
 30
0.0
 10
1714.497723109339
 20
1144.489875554161
 30
0.0
 10
1714.497723109339
 20
1144.204296138803
 30
0.0
 10
1714.497723109339
 20
1143.63187841669
 30
0.0
 10
1714.497723109339
 20
1142.865300006404
 30
0.0
 10
1714.497723109339
 20
1142.092083240841
 30
0.0
 10
1714.497723109339
 20
1141.315547506073
 30
0.0
 10
1714.497723109339
 20
1140.535690414366
 30
0.0
 10
1714.497723109339
 20
1139.355955246177
 30
0.0
 10
1714.497723109339
 20
1138.562771947861
 30
0.0
 10
1714.497723109339
 20
1137.766174407861
 30
0.0
 10
1714.497723109339
 20
1137.366168688484
 30
0.0
 10
1714.497723109339
 20
1136.964401447428
 30
0.0
  0
SPLINE
  5
6FB8
330
A
100
AcDbEntity
  8
MODEL
100
AcDbSpline
210
0.0
220
0.0
230
1.0
 70
     8
 71
     3
 72
    22
 73
    18
 74
     0
 42
0.000000001
 43
0.0000000001
 40
0.0
 40
0.0
 40
0.0
 40
0.0
 40
0.125
 40
0.125
 40
0.25
 40
0.25
 40
0.375
 40
0.375
 40
0.5
 40
0.5
 40
0.625
 40
0.625
 40
0.75
 40
0.75
 40
0.875
 40
0.875
 40
1.0
 40
1.0
 40
1.0
 40
1.0
 10
1710.549843969293
 20
1166.964401447428
 30
0.0
 10
1710.836856747607
 20
1166.85993733926
 30
0.0
 10
1711.115874773625
 20
1166.733515916403
 30
0.0
 10
1711.651436672085
 20
1166.439696597513
 30
0.0
 10
1711.907975694795
 20
1166.272301362125
 30
0.0
 10
1712.392607671987
 20
1165.900430166799
 30
0.0
 10
1712.620696237928
 20
1165.695957574276
 30
0.0
 10
1713.043117525466
 20
1165.254690540528
 30
0.0
 10
1713.237446421865
 20
1165.017900095143
 30
0.0
 10
1713.587824328281
 20
1164.517508586486
 30
0.0
 10
1713.743870165484
 20
1164.253912054478
 30
0.0
 10
1714.014048951586
 20
1163.706043673588
 30
0.0
 10
1714.128179453907
 20
1163.42177678589
 30
0.0
 10
1714.311870173749
 20
1162.839184253589
 30
0.0
 10
1714.381428727876
 20
1162.540863884609
 30
0.0
 10
1714.474355616416
 20
1161.937108195092
 30
0.0
 10
1714.497723109339
 20
1161.631678341811
 30
0.0
 10
1714.497723109339
 20
1161.326245722706
 30
0.0
  0
SPLINE
  5
6FB9
330
A
100
AcDbEntity
  8
MODEL
100
AcDbSpline
210
0.0
220
0.0
230
1.0
 70
    24
 71
     1
 72
     4
 73
     2
 74
     0
 42
0.000000001
 43
0.0000000001
 40
0.0
 40
0.0
 40
1.0
 40
1.0
 10
1643.352038866687
 20
1191.4224023128
 30
0.0
 10
1710.549843969292
 20
1166.964401447428
 30
0.0
  0
SPLINE
  5
6FBA
330
A
100
AcDbEntity
  8
MODEL
100
AcDbSpline
210
0.0
220
0.0
230
1.0
 70
     8
 71
     3
 72
    15
 73
    11
 74
     0
 42
0.000000001
 43
0.0000000001
 40
0.0
 40
0.0
 40
0.0
 40
0.0
 40
0.0312500000000099
 40
0.0312500000000099
 40
0.0625000000000197
 40
0.1250000000000424
 40
0.2500000000000903
 40
0.5000000000000597
 40
0.5000000000000597
 40
1.0
 40
1.0
 40
1.0
 40
1.0
 10
1643.352038866688
 20
1191.4224023128
 30
0.0
 10
1643.35074668673
 20
1191.422872627834
 30
0.0
 10
1643.349471279958
 20
1191.423328582397
 30
0.0
 10
1643.346975057667
 20
1191.424204039514
 30
0.0
 10
1643.343302197527
 20
1191.425466337499
 30
0.0
 10
1643.335234472339
 20
1191.428054018335
 30
0.0
 10
1643.321124129395
 20
1191.431786749799
 30
0.0
 10
1643.312556622544
 20
1191.432471845018
 30
0.0
 10
1643.300282086103
 20
1191.430372212078
 30
0.0
 10
1643.298575264038
 20
1191.424349249264
 30
0.0
 10
1643.303814194186
 20
1191.413354637155
 30
0.0
  0
SPLINE
  5
6FBB
330
A
100
AcDbEntity
  8
MODEL
100
AcDbSpline
210
0.0
220
0.0
230
1.0
 70
     8
 71
     3
 72
    15
 73
    11
 74
     0
 42
0.000000001
 43
0.0000000001
 40
0.0
 40
0.0
 40
0.0
 40
0.0
 40
0.5000000000001945
 40
0.5000000000001945
 40
0.7500000000002275
 40
0.8750000000002429
 40
0.9375000000001851
 40
0.9687500000000925
 40
0.9687500000000925
 40
1.0
 40
1.0
 40
1.0
 40
1.0
 10
1643.303814194172
 20
837.6244009804609
 30
0.0
 10
1643.298575264017
 20
837.613406368338
 30
0.0
 10
1643.300282086079
 20
837.6073834055092
 30
0.0
 10
1643.312556622523
 20
837.6052837725833
 30
0.0
 10
1643.321124129377
 20
837.6059688677883
 30
0.0
 10
1643.335234472329
 20
837.6097015992668
 30
0.0
 10
1643.343302197522
 20
837.6122892801027
 30
0.0
 10
1643.346975057663
 20
837.6135515780875
 30
0.0
 10
1643.349471279957
 20
837.6144270352047
 30
0.0
 10
1643.350746680123
 20
837.6148830036359
 30
0.0
 10
1643.352038866687
 20
837.6153533048014
 30
0.0
  0
SPLINE
  5
6FBC
330
A
100
AcDbEntity
  8
MODEL
100
AcDbSpline
210
0.0
220
0.0
230
1.0
 70
    24
 71
     3
 72
     8
 73
     4
 74
     0
 42
0.000000001
 43
0.0000000001
 40
0.0
 40
0.0
 40
0.0
 40
0.0
 40
1.0
 40
1.0
 40
1.0
 40
1.0
 10
1643.352038866688
 20
837.6153533048014
 30
0.0
 10
1665.751307234226
 20
845.7680202599254
 30
0.0
 10
1688.150575601754
 20
853.9206872150494
 30
0.0
 10
1710.549843969292
 20
862.0733541701734
 30
0.0
  0
SPLINE
  5
6FBD
330
A
100
AcDbEntity
  8
MODEL
100
AcDbSpline
210
0.0
220
0.0
230
1.0
 70
     8
 71
     3
 72
    10
 73
     6
 74
     0
 42
0.000000001
 43
0.0000000001
 40
0.0
 40
0.0
 40
0.0
 40
0.0
 40
0.5
 40
0.5
 40
1.0
 40
1.0
 40
1.0
 40
1.0
 10
1640.419763030935
 20
1193.095616960821
 30
0.0
 10
1640.847991404103
 20
1192.736290690834
 30
0.0
 10
1641.306848269847
 20
1192.41347781676
 30
0.0
 10
1642.272784732629
 20
1191.850048658812
 30
0.0
 10
1642.779851245863
 20
1191.609440006705
 30
0.0
 10
1643.303814194186
 20
1191.413354637155
 30
0.0
  0
SPLINE
  5
6FBE
330
A
100
AcDbEntity
  8
MODEL
100
AcDbSpline
210
0.0
220
0.0
230
1.0
 70
     8
 71
     3
 72
    10
 73
     6
 74
     0
 42
0.000000001
 43
0.0000000001
 40
0.0
 40
0.0
 40
0.0
 40
0.0
 40
0.5
 40
0.5
 40
1.0
 40
1.0
 40
1.0
 40
1.0
 10
1640.419763030972
 20
835.9421386568097
 30
0.0
 10
1640.847991404131
 20
836.301464926782
 30
0.0
 10
1641.306848269867
 20
836.6242778008559
 30
0.0
 10
1642.272784732631
 20
837.187706958804
 30
0.0
 10
1642.779851245858
 20
837.4283156109118
 30
0.0
 10
1643.303814194172
 20
837.6244009804609
 30
0.0
  0
SPLINE
  5
6FBF
330
A
100
AcDbEntity
  8
MODEL
100
AcDbSpline
210
0.0
220
0.0
230
1.0
 70
    24
 71
     3
 72
     8
 73
     4
 74
     0
 42
0.000000001
 43
0.0000000001
 40
0.0
 40
0.0
 40
0.0
 40
0.0
 40
1.0
 40
1.0
 40
1.0
 40
1.0
 10
1629.497807778755
 20
826.7775300329481
 30
0.0
 10
1633.138459529493
 20
829.8323995742353
 30
0.0
 10
1636.779111280222
 20
832.8872691155079
 30
0.0
 10
1640.419763030969
 20
835.9421386568097
 30
0.0
  0
SPLINE
  5
6FC0
330
A
100
AcDbEntity
  8
MODEL
100
AcDbSpline
210
0.0
220
0.0
230
1.0
 70
    24
 71
     1
 72
     4
 73
     2
 74
     0
 42
0.000000001
 43
0.0000000001
 40
0.0
 40
0.0
 40
1.0
 40
1.0
 10
1629.497807778719
 20
1202.260225584683
 30
0.0
 10
1640.419763030934
 20
1193.095616960821
 30
0.0
  0
CIRCLE
  5
6FC1
330
A
100
AcDbEntity
  8
MODEL
100
AcDbCircle
 10
562.5402594793668
 20
1014.518893067591
 30
0.0
 40
22.0
  0
CIRCLE
  5
6FC2
330
A
100
AcDbEntity
  8
MODEL
100
AcDbCircle
 10
562.5402594793668
 20
1014.518893067591
 30
0.0
 40
38.44689109742895
  0
LINE
  5
6FC3
330
A
100
AcDbEntity
  8
MODEL
100
AcDbLine
 10
828.5856256142151
 20
1237.913755623795
 30
0.0
 11
828.5856256142151
 21
791.1240305113865
 31
0.0
  0
LINE
  5
6FC4
330
A
100
AcDbEntity
  8
MODEL
100
AcDbLine
 10
808.5856256142151
 20
771.1240305113865
 30
0.0
 11
485.1356534924253
 21
771.124030511387
 31
0.0
  0
LINE
  5
6FC5
330
A
100
AcDbEntity
  8
MODEL
100
AcDbLine
 10
465.1356534924257
 20
1237.913755623796
 30
0.0
 11
465.1356534924253
 21
791.124030511387
 31
0.0
  0
ARC
  5
6FC6
330
A
100
AcDbEntity
  8
MODEL
100
AcDbCircle
 10
485.1356534924253
 20
791.124030511387
 30
0.0
 40
20.0
100
AcDbArc
 50
180.0
 51
269.9999999997785
  0
ARC
  5
6FC7
330
A
100
AcDbEntity
  8
MODEL
100
AcDbCircle
 10
808.5856256142151
 20
791.1240305113865
 30
0.0
 40
20.0
100
AcDbArc
 50
270.0000000002215
 51
0.0
  0
LINE
  5
6FC8
330
A
100
AcDbEntity
  8
MODEL
100
AcDbLine
 10
808.5856256142151
 20
1257.913755623795
 30
0.0
 11
485.1356534924257
 21
1257.913755623796
 31
0.0
  0
ARC
  5
6FC9
330
A
100
AcDbEntity
  8
MODEL
100
AcDbCircle
 10
485.1356534924257
 20
1237.913755623796
 30
0.0
 40
20.0
100
AcDbArc
 50
90.00000000022146
 51
180.0
  0
ARC
  5
6FCA
330
A
100
AcDbEntity
  8
MODEL
100
AcDbCircle
 10
808.5856256142151
 20
1237.913755623795
 30
0.0
 40
20.0
100
AcDbArc
 50
0.0
 51
89.99999999977852
  0
ELLIPSE
  5
6FCB
330
A
100
AcDbEntity
  8
MODEL
100
AcDbEllipse
 10
468.581267075273
 20
1014.518893067591
 30
0.0
 11
-1.137666781618087E-14
 21
-11.98287221885403
 31
0.0
210
0.0
220
0.0
230
1.0
 40
0.086521914256924
 41
0.0
 42
6.283185307179586
  0
DIMENSION
  5
6FD8
330
A
100
AcDbEntity
  8
Dim
100
AcDbDimension
  2
*D37
 10
286.361379067197
 20
1014.518893067606
 30
0.0
 11
264.145070473447
 21
964.518893067606
 31
0.0
 70
    32
 71
     5
 42
100.0
 73
     0
 74
     0
 75
     0
  3
tform線あり
100
AcDbAlignedDimension
 13
386.2900074939034
 23
914.5188930676059
 33
0.0
 14
386.2900074939034
 24
1014.518893067606
 34
0.0
 50
89.99999999999996
100
AcDbRotatedDimension
  0
DIMENSION
  5
6FD9
330
A
100
AcDbEntity
  8
Dim
100
AcDbDimension
  2
*D38
 10
286.361379067197
 20
1114.518893067606
 30
0.0
 11
264.145070473447
 21
1064.518893067606
 31
0.0
 70
    32
 71
     5
 42
100.0
 73
     0
 74
     0
 75
     0
  3
tform線あり
100
AcDbAlignedDimension
 13
386.2900074939034
 23
1014.518893067606
 33
0.0
 14
386.2900074939034
 24
1114.518893067606
 34
0.0
 50
89.99999999999996
100
AcDbRotatedDimension
  0
MTEXT
  5
70D3
330
A
100
AcDbEntity
  8
Dim
390
1D
100
AcDbMText
 10
1078.457030885768
 20
736.3396163000043
 30
34.99521132346015
 40
24.4326171875
 41
833.929798641839
 46
0.0
 71
     1
 72
     1
  1
＝φ30もしくはφ35の水栓取付用穴あけ加工を承ります。\P  必要な場合、ご注文の際にご指示ください。
  7
ＭＳ ゴシック
 11
9.494107596574928E-16
 21
1.0
 31
0.0
 73
     1
 44
0.9822934569727008
  0
CIRCLE
  5
70D4
330
A
100
AcDbEntity
  8
HIDDEN
 48
0.58
390
1D
100
AcDbCircle
 10
1093.045855342051
 20
704.9725866019171
 30
34.99521132346015
 40
17.5
  0
MTEXT
  5
70D5
330
A
100
AcDbEntity
  8
Dim
390
1D
100
AcDbMText
 10
1075.780238320775
 20
1817.51942550769
 30
34.99521132346015
 40
24.0
 41
1169.771715461011
 46
177.5543690294172
 71
     1
 72
     1
  1
{※陶器製品には寸法公差があります。\P　洗面器の収め方をご確認の上、必ず現物を合わせて\P  カウンターに切込を行ってください。\P※カウンター置きの場合も壁固定が必要です。}
  7
ＭＳ ゴシック
 11
9.494107596574928E-16
 21
1.0
 31
0.0
 73
     1
 44
1.0
1001
ACAD
1000
ACAD_MTEXT_DEFINED_HEIGHT_BEGIN
1070
    46
1040
177.5543690294172
1000
ACAD_MTEXT_DEFINED_HEIGHT_END
  0
DIMENSION
  5
70DB
330
A
100
AcDbEntity
  8
Dim
100
AcDbDimension
  2
*D50
 10
1584.497723312816
 20
646.47890724729
 30
0.0
 11
1564.497723312816
 21
668.69521584104
 31
0.0
 70
    32
 71
     5
 42
40.0
 73
     0
 74
     1
 75
     1
  3
tform線あり
100
AcDbAlignedDimension
 13
1544.497723312816
 23
754.9683809753055
 33
0.0
 14
1584.497723312816
 24
874.5598582759449
 34
0.0
100
AcDbRotatedDimension
  0
DIMENSION
  5
70EC
330
A
100
AcDbEntity
  8
Dim
100
AcDbDimension
  2
*D51
 10
1796.887616541499
 20
1164.518877808801
 30
0.0
 11
1774.671307947749
 21
1014.518877808801
 31
0.0
 70
    32
 71
     5
 42
300.0
 73
     0
 74
     0
 75
     0
  3
tform線あり
100
AcDbAlignedDimension
 13
1722.767973405499
 23
864.5188778088009
 33
0.0
 14
1722.767973405499
 24
1164.518877808801
 34
0.0
 50
89.99999999999994
100
AcDbRotatedDimension
1001
ACAD
1000
DSTYLE
1002
{
1070
   144
1040
1.0
1002
}
  0
DIMENSION
  5
70FB
330
A
100
AcDbEntity
  8
Dim
100
AcDbDimension
  2
*D52
 10
1468.595496707027
 20
1079.509830703184
 30
0.0
 11
1446.379188113277
 21
1014.509830703184
 31
0.0
 70
    32
 71
     5
 42
130.0000000000005
 73
     0
 74
     0
 75
     0
  3
tform線あり
100
AcDbAlignedDimension
 13
1559.497736574479
 23
949.5098307031835
 33
0.0
 14
1559.49773657448
 24
1079.509830703184
 34
0.0
 50
89.99999999999994
100
AcDbRotatedDimension
  0
LINE
  5
70FC
330
A
100
AcDbEntity
  8
HIDDEN
  6
CENTER
 48
0.15
100
AcDbLine
 10
1584.497736574481
 20
1055.010341327028
 30
0.0
 11
1584.497736574479
 21
1104.009320079339
 31
0.0
  0
LINE
  5
70FD
330
A
100
AcDbEntity
  8
HIDDEN
  6
CENTER
 48
0.15
100
AcDbLine
 10
1559.998247198325
 20
1079.509830703185
 30
0.0
 11
1608.997225950635
 21
1079.509830703185
 31
0.0
  0
CIRCLE
  5
70FE
330
A
100
AcDbEntity
  8
HIDDEN
  6
CENTER
 48
0.15
100
AcDbCircle
 10
1584.497736574479
 20
1079.509830703185
 30
0.0
 40
14.99999999998556
  0
LINE
  5
70FF
330
A
100
AcDbEntity
  8
Dim
100
AcDbLine
 10
1416.845268807191
 20
1443.220200474143
 30
0.0
 11
1575.373625557289
 21
1363.649003922701
 31
0.0
  0
MTEXT
  5
7100
330
A
100
AcDbEntity
  8
Dim
390
1D
100
AcDbMText
 10
1374.076517515065
 20
1432.795033994901
 30
34.99521132346015
 40
24.0
 41
1169.771715461011
 46
26.808
 71
     1
 72
     1
  1
{壁取付ボルト穴(3ヶ所)}
  7
ＭＳ ゴシック
 11
9.494107596574928E-16
 21
1.0
 31
0.0
 73
     1
 44
1.174240107638677
1001
ACAD
1000
ACAD_MTEXT_DEFINED_HEIGHT_BEGIN
1070
    46
1040
26.808
1000
ACAD_MTEXT_DEFINED_HEIGHT_END
  0
LINE
  5
7101
330
A
100
AcDbEntity
  8
HIDDEN
  6
CENTER
 48
0.15
100
AcDbLine
 10
1584.497736574481
 20
925.0103413270258
 30
0.0
 11
1584.497736574478
 21
974.0093200793376
 31
0.0
  0
LINE
  5
7102
330
A
100
AcDbEntity
  8
HIDDEN
  6
CENTER
 48
0.15
100
AcDbLine
 10
1559.998247198325
 20
949.5098307031835
 30
0.0
 11
1608.997225950635
 21
949.5098307031835
 31
0.0
  0
CIRCLE
  5
7103
330
A
100
AcDbEntity
  8
HIDDEN
  6
CENTER
 48
0.15
100
AcDbCircle
 10
1584.497736574478
 20
949.5098307031835
 30
0.0
 40
14.99999999998556
  0
CIRCLE
  5
7104
330
A
100
AcDbEntity
  8
HIDDEN
 48
0.6
100
AcDbCircle
 10
1572.395893245183
 20
1014.518714067893
 30
0.0
 40
11.98287221885312
  0
SPLINE
  5
7105
330
A
100
AcDbEntity
  8
HIDDEN
100
AcDbSpline
210
0.0
220
0.0
230
1.0
 70
     8
 71
     3
 72
    33
 73
    29
 74
     0
 42
0.000000001
 43
0.0000000001
 40
0.0
 40
0.0
 40
0.0
 40
0.0
 40
2.252949374986973
 40
8.444851214002917
 40
25.25681817945885
 40
35.15110622899498
 40
49.65944032421928
 40
70.58492050548384
 40
96.94890800805
 40
119.6082213994468
 40
134.9623150450342
 40
156.6762825165685
 40
173.1501186868863
 40
173.2233984614097
 40
201.1737829162469
 40
224.1314819664683
 40
249.4275724675456
 40
252.7746985521848
 40
257.288656466055
 40
261.7540397209712
 40
265.3248918769302
 40
269.4193146521806
 40
272.3144937896177
 40
272.8106103245707
 40
289.1940837092448
 40
294.4427124155957
 40
300.4988224613867
 40
303.9778772402268
 40
303.9778772402268
 40
303.9778772402268
 40
303.9778772402268
 10
1544.569670476673
 20
1258.794287123624
 30
0.0
 10
1545.043035080939
 20
1258.209398168263
 30
0.0
 10
1546.817373065355
 20
1256.017027465408
 30
0.0
 10
1553.602414621019
 20
1250.922272576319
 30
0.0
 10
1561.889447946232
 20
1243.788787669202
 30
0.0
 10
1572.226746379395
 20
1234.728476572092
 30
0.0
 10
1583.888426007097
 20
1225.121891366808
 30
0.0
 10
1599.484668688345
 20
1211.666777611223
 30
0.0
 10
1617.346052854548
 20
1196.658754145116
 30
0.0
 10
1633.942146353985
 20
1183.115165492654
 30
0.0
 10
1647.301690977103
 20
1167.925090754158
 30
0.0
 10
1652.333816880953
 20
1150.366772106011
 30
0.0
 10
1654.991503666893
 20
1137.934680285526
 30
0.0
 10
1656.651412019066
 20
1123.195138640039
 30
0.0
 10
1660.354365572044
 20
1106.560533006482
 30
0.0
 10
1664.297657498022
 20
1081.497559570475
 30
0.0
 10
1666.275648157623
 20
1064.321194867147
 30
0.0
 10
1666.860124141169
 20
1053.356243444838
 30
0.0
 10
1667.222439958294
 20
1049.110944297759
 30
0.0
 10
1670.024493969571
 20
1045.823997757836
 30
0.0
 10
1672.750021154355
 20
1042.821742830251
 30
0.0
 10
1675.079786756049
 20
1040.38709786032
 30
0.0
 10
1677.020203366
 20
1038.324861319711
 30
0.0
 10
1683.688361133486
 20
1038.609459348973
 30
0.0
 10
1690.994382357371
 20
1038.349082420644
 30
0.0
 10
1700.233608138468
 20
1038.385589102006
 30
0.0
 10
1705.160096414257
 20
1038.380225942456
 30
0.0
 10
1708.338311945914
 20
1038.379583868383
 30
0.0
 10
1709.497993338702
 20
1038.37957073465
 30
0.0
  0
LINE
  5
7106
330
A
100
AcDbEntity
  8
HIDDEN
100
AcDbLine
 10
1667.054584997403
 20
1050.497151899474
 30
0.0
 11
1666.788897240817
 21
975.1229233671879
 31
0.0
  0
LINE
  5
7107
330
A
100
AcDbEntity
  8
HIDDEN
100
AcDbLine
 10
1678.728955144131
 20
1037.292445539093
 30
0.0
 11
1678.728955144131
 21
991.7453100785083
 31
0.0
  0
SPLINE
  5
7108
330
A
100
AcDbEntity
  8
HIDDEN
100
AcDbSpline
210
0.0
220
0.0
230
1.0
 70
     8
 71
     3
 72
    33
 73
    29
 74
     0
 42
0.000000001
 43
0.0000000001
 40
0.0
 40
0.0
 40
0.0
 40
0.0
 40
2.252949374986973
 40
8.444851214002917
 40
25.25681817945888
 40
35.15110622899543
 40
49.65944032421943
 40
70.58492050548489
 40
96.94890800805035
 40
119.6082213994479
 40
134.9623150450355
 40
156.6762825165692
 40
173.1501186868871
 40
173.22339846141
 40
201.1737829162472
 40
224.1314819664687
 40
249.4275724675458
 40
252.7746985521857
 40
257.2886564660552
 40
261.7540397209715
 40
265.3248918769306
 40
269.4193146521813
 40
272.3144937896182
 40
272.8106103245711
 40
289.1940837092452
 40
294.4427124155961
 40
300.4988224613871
 40
303.9779158311396
 40
303.9779158311396
 40
303.9779158311396
 40
303.9779158311396
 10
1544.569670476676
 20
766.8257881430359
 30
0.0
 10
1545.043035080942
 20
767.4106770983967
 30
0.0
 10
1546.817373065358
 20
769.6030478012513
 30
0.0
 10
1553.602414621022
 20
774.6978026903411
 30
0.0
 10
1561.889447946236
 20
781.8312875974566
 30
0.0
 10
1572.226746379398
 20
790.8915986945688
 30
0.0
 10
1583.8884260071
 20
800.4981838998516
 30
0.0
 10
1599.484668688347
 20
813.9532976554381
 30
0.0
 10
1617.346052854549
 20
828.9613211215463
 30
0.0
 10
1633.942146353988
 20
842.5049097740066
 30
0.0
 10
1647.301690977105
 20
857.6949845125025
 30
0.0
 10
1652.333816880959
 20
875.2533031606579
 30
0.0
 10
1654.991503666886
 20
887.6853949811248
 30
0.0
 10
1656.651412019084
 20
902.4249366266398
 30
0.0
 10
1660.354365572038
 20
919.0595422601727
 30
0.0
 10
1664.297657498025
 20
944.1225156961882
 30
0.0
 10
1666.275648157625
 20
961.2988803995131
 30
0.0
 10
1666.860124141169
 20
972.2638318218239
 30
0.0
 10
1667.222439958293
 20
976.5091309689019
 30
0.0
 10
1670.024493969571
 20
979.7960775088255
 30
0.0
 10
1672.750021154355
 20
982.7983324364109
 30
0.0
 10
1675.079786756049
 20
985.232977406342
 30
0.0
 10
1677.020203366
 20
987.295213946951
 30
0.0
 10
1683.688361133485
 20
987.0106159176862
 30
0.0
 10
1690.994382357371
 20
987.2709928460184
 30
0.0
 10
1700.233608138468
 20
987.2344861646558
 30
0.0
 10
1705.160109274128
 20
987.2398493382061
 30
0.0
 10
1708.338337671791
 20
987.2404914034765
 30
0.0
 10
1709.498031929497
 20
987.2405045324491
 30
0.0
  0
LINE
  5
7117
330
A
100
AcDbEntity
  8
HIDDEN
  6
CENTER
 48
0.15
100
AcDbLine
 10
1584.49773657448
 20
1324.839543679556
 30
0.0
 11
1584.497736574477
 21
1373.838522431868
 31
0.0
  0
CIRCLE
  5
7118
330
A
100
AcDbEntity
  8
HIDDEN
  6
CENTER
 48
0.15
100
AcDbCircle
 10
1584.497736574477
 20
1349.339033055714
 30
0.0
 40
14.99999999998556
  0
LINE
  5
7119
330
A
100
AcDbEntity
  8
HIDDEN
  6
CENTER
 48
0.15
100
AcDbLine
 10
1559.998247198324
 20
1349.339033055714
 30
0.0
 11
1608.997225950634
 21
1349.339033055714
 31
0.0
  0
DIMENSION
  5
711D
330
A
100
AcDbEntity
  8
Dim
100
AcDbDimension
  2
*D53
 10
1714.497723109339
 20
1620.741869280006
 30
0.0
 11
1629.497723109339
 21
1642.958177873756
 31
0.0
 70
    32
 71
     5
 42
170.0000000000003
 73
     0
 74
     0
 75
     0
 52
-270.0
  3
tform線あり
100
AcDbAlignedDimension
 13
1544.497723109339
 23
1504.027496160006
 33
0.0
 14
1714.497723109339
 24
1179.152436960006
 34
0.0
 50
179.9999999999999
100
AcDbRotatedDimension
1001
ACAD
1000
DSTYLE
1002
{
1070
   144
1040
1.0
1002
}
  0
LINE
  5
7144
330
A
100
AcDbEntity
  8
MODEL
100
AcDbLine
 10
1629.497723108385
 20
2008.357767719262
 30
0.0
 11
1629.497723525769
 21
2498.389499350902
 31
0.0
  0
LINE
  5
7145
102
{ACAD_REACTORS
330
72E6
102
}
330
A
100
AcDbEntity
  8
MODEL
100
AcDbLine
 10
1714.497723108387
 20
2131.944019525875
 30
0.0
 11
1714.497727925188
 21
2472.331290952827
 31
0.0
  0
LINE
  5
7146
102
{ACAD_REACTORS
330
72E6
102
}
330
A
100
AcDbEntity
  8
HIDDEN
 48
0.5
100
AcDbLine
 10
1709.497725081672
 20
2293.389487848302
 30
0.0
 11
1709.497725081672
 21
2249.389516762464
 31
0.0
  0
LINE
  5
7147
330
A
100
AcDbEntity
  8
HIDDEN
 48
0.5
100
AcDbLine
 10
1700.429298554428
 20
2293.626325586936
 30
0.0
 11
1709.497725081672
 21
2293.389487848302
 31
0.0
  0
LINE
  5
7148
330
A
100
AcDbEntity
  8
MODEL
100
AcDbLine
 10
1544.497723108386
 20
2495.389502312462
 30
0.0
 11
1544.497723108386
 21
2372.054865649008
 31
0.0
  0
LINE
  5
7149
330
A
100
AcDbEntity
  8
MODEL
100
AcDbLine
 10
1544.497723108385
 20
2003.074300303076
 30
0.0
 11
1544.497723108385
 21
2001.496093253833
 31
0.0
  0
LINE
  5
714A
330
A
100
AcDbEntity
  8
MODEL
100
AcDbLine
 10
1547.602421598489
 20
1998.497920772769
 30
0.0
 11
1625.637321095197
 21
2001.22295951041
 31
0.0
  0
LINE
  5
714B
330
A
100
AcDbEntity
  8
MODEL
100
AcDbLine
 10
1629.497723108385
 20
2005.220522818486
 30
0.0
 11
1629.497723108385
 21
2008.357767719262
 31
0.0
  0
LINE
  5
714C
330
A
100
AcDbEntity
  8
MODEL
100
AcDbLine
 10
1629.497723108385
 20
2060.59811149022
 30
0.0
 11
1640.449539762031
 21
2069.787776805005
 31
0.0
  0
LINE
  5
714D
330
A
100
AcDbEntity
  8
MODEL
100
AcDbLine
 10
1643.457214425634
 20
2071.524258581684
 30
0.0
 11
1710.549843968325
 21
2095.943978673832
 31
0.0
  0
LINE
  5
714E
330
A
100
AcDbEntity
  8
MODEL
100
AcDbLine
 10
1714.497723108387
 20
2101.58213439854
 30
0.0
 11
1714.497723108387
 21
2131.944019525875
 31
0.0
  0
LINE
  5
714F
330
A
100
AcDbEntity
  8
HIDDEN
100
AcDbLine
 10
1709.497725081672
 20
2249.389516762464
 30
0.0
 11
1678.448496070628
 21
2248.769002703451
 31
0.0
  0
ARC
  5
7150
330
A
100
AcDbEntity
  8
MODEL
100
AcDbCircle
 10
1547.497723108385
 20
2001.496093253833
 30
0.0
 40
3.0
100
AcDbArc
 50
180.0
 51
272.0000000002123
  0
ARC
  5
7151
330
A
100
AcDbEntity
  8
MODEL
100
AcDbCircle
 10
1625.497723108385
 20
2005.220522818486
 30
0.0
 40
4.0
100
AcDbArc
 50
272.0000000010465
 51
0.0000000004168817
  0
ARC
  5
7152
330
A
100
AcDbEntity
  8
MODEL
100
AcDbCircle
 10
1646.877415858889
 20
2062.127332373823
 30
0.0
 40
10.0
100
AcDbArc
 50
109.9999999995244
 51
129.9999999999379
  0
ARC
  5
7153
330
A
100
AcDbEntity
  8
MODEL
100
AcDbCircle
 10
1708.497723108387
 20
2101.58213439854
 30
0.0
 40
6.000000000000001
100
AcDbArc
 50
290.0000000005249
 51
0.0000000005558422
  0
LINE
  5
7154
330
A
100
AcDbEntity
  8
HIDDEN
100
AcDbLine
 10
1668.118936681142
 20
2306.320299630093
 30
0.0
 11
1668.127853661249
 21
2236.469339490893
 31
0.0
  0
LINE
  5
7155
330
A
100
AcDbEntity
  8
HIDDEN
100
AcDbLine
 10
1678.448496070628
 20
2294.010001921468
 30
0.0
 11
1685.98599712693
 21
2293.878434351132
 31
0.0
  0
ARC
  5
7156
330
A
100
AcDbEntity
  8
MODEL
100
AcDbCircle
 10
1548.497723110293
 20
2003.074300303076
 30
0.0
 40
4.0
100
AcDbArc
 50
130.0000074546662
 51
180.0
  0
LINE
  5
7157
330
A
100
AcDbEntity
  8
MODEL
100
AcDbLine
 10
1547.497723108357
 20
2498.389502198808
 30
0.0
 11
1622.497723108357
 21
2498.389499357576
 31
0.0
  0
ARC
  5
7158
330
A
100
AcDbEntity
  8
MODEL
100
AcDbCircle
 10
1547.497722977215
 20
2495.389502198808
 30
0.0
 40
3.0
100
AcDbArc
 50
89.99999749537496
 51
179.9999974950971
  0
LINE
  5
7159
330
A
100
AcDbEntity
  8
MODEL
100
AcDbLine
 10
1622.497723108357
 20
2498.389499357576
 30
0.0
 11
1711.497728929023
 21
2498.389499272726
 31
0.0
  0
ARC
  5
715A
330
A
100
AcDbEntity
  8
MODEL
100
AcDbCircle
 10
1711.497728926447
 20
2495.389499272726
 30
0.0
 40
3.0
100
AcDbArc
 50
359.9999974959308
 51
89.9999999499742
  0
LINE
  5
715B
330
A
100
AcDbEntity
  8
MODEL
100
AcDbLine
 10
1714.497727925188
 20
2472.331290952827
 30
0.0
 11
1714.497727925188
 21
2495.389499141598
 31
0.0
  0
ARC
  5
715C
330
A
100
AcDbEntity
  8
HIDDEN
100
AcDbCircle
 10
1694.113744178144
 20
2345.662603695451
 30
0.0
 40
52.4181310868377
100
AcDbArc
 50
261.0799544596086
 51
276.9200455136598
  0
LINE
  5
715D
330
A
100
AcDbEntity
  8
MODEL
100
AcDbLine
 10
1544.497723108386
 20
2372.054865649008
 30
0.0
 11
1544.497723110293
 21
2003.074300303076
 31
0.0
  0
DIMENSION
  5
715E
330
A
100
AcDbEntity
  8
Dim
100
AcDbDimension
  2
*D56
 10
1828.359707475937
 20
2271.389503684617
 30
0.0
 11
1828.359707475937
 21
2384.889505881281
 31
0.0
 70
   160
  1
230
 71
     5
 42
227.0000043933251
 73
     0
 74
     0
 75
     0
  3
tform線あり
100
AcDbAlignedDimension
 13
1715.457558962023
 23
2498.389508077942
 33
0.0
 14
1715.603995375511
 24
2271.389503684617
 34
0.0
 50
89.99999999999991
100
AcDbRotatedDimension
  0
DIMENSION
  5
715F
330
A
100
AcDbEntity
  8
Dim
100
AcDbDimension
  2
*D57
 10
1630.627852809945
 20
1908.346749795725
 30
0.0
 11
1589.724204459557
 21
1908.346749795725
 31
0.0
 70
   160
 71
     5
 42
85.00000129622458
 73
     0
 74
     0
 75
     0
  3
tform線あり
100
AcDbAlignedDimension
 13
1545.62785151372
 23
1987.789998322253
 33
0.0
 14
1630.627852809945
 24
1987.789998322253
 34
0.0
 50
-0.0000000000000891
100
AcDbRotatedDimension
  0
DIMENSION
  5
7160
330
A
100
AcDbEntity
  8
Dim
100
AcDbDimension
  2
*D58
 10
1715.627848429498
 20
1908.346749795725
 30
0.0
 11
1673.127850619721
 21
1908.346749795725
 31
0.0
 70
   160
 71
     5
 42
84.99999561955323
 73
     0
 74
     0
 75
     0
  3
tform線あり
100
AcDbAlignedDimension
 13
1630.627852809945
 23
1987.789998322253
 33
0.0
 14
1715.627848429498
 24
2080.329747193901
 34
0.0
 50
-0.0000000000000891
100
AcDbRotatedDimension
  0
DIMENSION
  5
7161
330
A
100
AcDbEntity
  8
Dim
100
AcDbDimension
  2
*D59
 10
1490.388287194278
 20
2433.389501935229
 30
0.0
 11
1468.171978600528
 21
2465.889501935229
 31
0.0
 70
    32
 71
     5
 42
65.0
 73
     0
 74
     0
 75
     0
  3
tform線あり
100
AcDbAlignedDimension
 13
1554.455465772716
 23
2498.389501935229
 33
0.0
 14
1554.455465772716
 24
2433.389501935229
 34
0.0
 50
89.99999999999994
100
AcDbRotatedDimension
1001
ACAD
1000
DSTYLE
1002
{
1070
   144
1040
1.0
1002
}
  0
DIMENSION
  5
7162
330
A
100
AcDbEntity
  8
Dim
100
AcDbDimension
  2
*D60
 10
1905.928083194049
 20
2098.389508077943
 30
0.0
 11
1883.711774600299
 21
2298.389508077943
 31
0.0
 70
    32
 71
     5
 42
399.9999999999991
 73
     0
 74
     0
 75
     0
  3
tform線あり
100
AcDbAlignedDimension
 13
1740.457558962023
 23
2498.389508077942
 33
0.0
 14
1740.457558962022
 24
2098.389508077943
 34
0.0
 50
89.99999999999994
100
AcDbRotatedDimension
1001
ACAD
1000
DSTYLE
1002
{
1070
   144
1040
1.0
1002
}
  0
DIMENSION
  5
7163
330
A
100
AcDbEntity
  8
Dim
  6
Continuous
 62
     3
100
AcDbDimension
  2
*D61
 10
1545.627855232442
 20
2271.394819560495
 30
0.0
 11
1442.158552859664
 21
2271.394819560495
 31
0.0
 70
   160
  1
120(深さ)
 71
     5
 42
122.4955399387536
 73
     0
 74
     1
 75
     1
 52
-270.0
  3
tform線あり
100
AcDbAlignedDimension
 13
1668.123395171196
 23
2270.376119677828
 33
0.0
 14
1545.627855232442
 24
2271.394819560495
 34
0.0
 50
179.9999999999998
100
AcDbRotatedDimension
1001
ACAD
1000
DSTYLE
1002
{
1070
   271
1070
     0
1070
    76
1070
     1
1070
    75
1070
     1
1002
}
  0
SPLINE
  5
7164
330
A
100
AcDbEntity
  8
HIDDEN
100
AcDbSpline
210
0.0
220
0.0
230
1.0
 70
  1064
 71
     3
 72
    66
 73
    62
 74
    60
 42
0.000000001
 43
0.0000000001
 44
0.0
 40
0.0
 40
0.0
 40
0.0
 40
0.0
 40
1.629864225944397
 40
4.229507171279719
 40
8.049252180357971
 40
15.66698417524718
 40
30.89646384370994
 40
72.30061266234236
 40
94.37074879264522
 40
109.629453062214
 40
122.5307630326307
 40
135.7968031480181
 40
142.7230802962883
 40
162.0728607224281
 40
178.5978446303726
 40
191.3916361267872
 40
212.5309065087668
 40
232.7809097324182
 40
254.2795827049889
 40
270.9487962077241
 40
278.8732781552197
 40
284.6408347087536
 40
287.2123231132185
 40
292.178834549641
 40
297.0312621939628
 40
298.085956572318
 40
298.1744072753431
 40
310.0460747210886
 40
310.2952225784666
 40
316.0632989317557
 40
339.329116532919
 40
339.5260871297927
 40
342.4330124593279
 40
343.8258601961505
 40
343.970532578779
 40
346.6091338049362
 40
348.2457415652674
 40
350.0116589716482
 40
352.2041443733205
 40
353.8911677089999
 40
355.3890942071867
 40
357.4318309254843
 40
359.0477398064613
 40
362.3317169065816
 40
365.6574662661126
 40
370.5545493476696
 40
374.2030307113863
 40
384.104417730105
 40
396.929124119459
 40
413.5744440423626
 40
433.7579084631797
 40
452.6781031319849
 40
472.1164214310561
 40
493.9820060825218
 40
504.6005401740793
 40
510.5018826049191
 40
512.8407902477903
 40
514.6229480972899
 40
515.6744051159144
 40
517.5688180038769
 40
518.6673069877056
 40
518.6673069877056
 40
518.6673069877056
 40
518.6673069877056
 10
1544.497723108385
 20
2002.285196778455
 30
0.0
 10
1544.481529872547
 20
2002.838513016894
 30
0.0
 10
1544.439508331112
 20
2004.274371882444
 30
0.0
 10
1546.120638413659
 20
2006.590375883881
 30
0.0
 10
1549.903122339481
 20
2009.284649439453
 30
0.0
 10
1556.580801790549
 20
2015.207131614473
 30
0.0
 10
1573.089824060388
 20
2028.808529672433
 30
0.0
 10
1593.139525809662
 20
2045.753599827368
 30
0.0
 10
1613.227555021856
 20
2062.63818786364
 30
0.0
 10
1626.100956808763
 20
2073.344432908464
 30
0.0
 10
1636.511868314316
 20
2082.421132959502
 30
0.0
 10
1643.800561871595
 20
2090.815087623194
 30
0.0
 10
1650.375471614041
 20
2102.29506464333
 30
0.0
 10
1654.075567193678
 20
2116.306793547744
 30
0.0
 10
1655.844224850794
 20
2132.407677537555
 30
0.0
 10
1657.659899301732
 20
2149.134054633138
 30
0.0
 10
1659.606355616981
 20
2167.089334104396
 30
0.0
 10
1661.880317842764
 20
2187.922534105783
 30
0.0
 10
1663.95035763098
 20
2207.307758138689
 30
0.0
 10
1665.685954222971
 20
2222.515918399156
 30
0.0
 10
1666.641115054984
 20
2232.690375276177
 30
0.0
 10
1669.14027667886
 20
2237.642089714745
 30
0.0
 10
1671.945069017814
 20
2241.062234137939
 30
0.0
 10
1674.823328872297
 20
2244.144218989928
 30
0.0
 10
1676.490650603037
 20
2247.157486833146
 30
0.0
 10
1678.459234134903
 20
2248.444666338424
 30
0.0
 10
1678.345669661617
 20
2252.802238965158
 30
0.0
 10
1678.399229139327
 20
2264.88993059242
 30
0.0
 10
1678.493347610374
 20
2258.496399948701
 30
0.0
 10
1678.286235862863
 20
2279.591007592912
 30
0.0
 10
1679.061646740991
 20
2281.819720218728
 30
0.0
 10
1678.378498547129
 20
2290.614313954925
 30
0.0
 10
1678.187159631946
 20
2292.011515358874
 30
0.0
 10
1678.734753067313
 20
2293.698206559726
 30
0.0
 10
1677.792883728873
 20
2294.747249304273
 30
0.0
 10
1676.881755433738
 20
2295.889068340365
 30
0.0
 10
1675.577960064831
 20
2297.428173907467
 30
0.0
 10
1674.381703703924
 20
2298.857875474451
 30
0.0
 10
1673.170618339807
 20
2300.298492672434
 30
0.0
 10
1672.020738128502
 20
2301.673599880303
 30
0.0
 10
1670.893166413813
 20
2303.001758806607
 30
0.0
 10
1669.822564813456
 20
2304.349373214762
 30
0.0
 10
1668.573559362985
 20
2306.300622226766
 30
0.0
 10
1667.354677436996
 20
2308.768432958379
 30
0.0
 10
1666.189553244802
 20
2312.439225235096
 30
0.0
 10
1665.633090235938
 20
2316.365907953264
 30
0.0
 10
1664.329173453385
 20
2322.374824204685
 30
0.0
 10
1661.8950327778
 20
2330.850753479278
 30
0.0
 10
1656.11470687791
 20
2342.71519922018
 30
0.0
 10
1644.4466309118
 20
2355.24448968182
 30
0.0
 10
1626.101000834333
 20
2360.88876338655
 30
0.0
 10
1606.760497443011
 20
2362.798267506035
 30
0.0
 10
1586.750206764819
 20
2364.723050444797
 30
0.0
 10
1569.534869290993
 20
2366.222343532384
 30
0.0
 10
1556.74359904477
 20
2367.280026065833
 30
0.0
 10
1550.545944352361
 20
2367.918890658166
 30
0.0
 10
1547.13116158279
 20
2368.086925617703
 30
0.0
 10
1545.655718743466
 20
2369.122564426047
 30
0.0
 10
1544.734556279118
 20
2370.421930063508
 30
0.0
 10
1544.458842056915
 20
2371.792760319583
 30
0.0
 10
1544.4872840161
 20
2372.78805150798
 30
0.0
 10
1544.497723108386
 20
2373.153354632837
 30
0.0
 11
1544.497723108385
 21
2002.285196778455
 31
0.0
 11
1544.586560911389
 21
2003.912638095299
 31
0.0
 11
1545.929619289682
 21
2006.138472239104
 31
0.0
 11
1548.855400539682
 21
2008.594130198089
 31
0.0
 11
1554.691338039682
 21
2013.490217844573
 31
0.0
 11
1566.355400539682
 21
2023.282393137541
 31
0.0
 11
1598.075438986648
 21
2049.893343896927
 31
0.0
 11
1614.980400539683
 21
2064.081831614105
 31
0.0
 11
1626.663994289682
 21
2073.896193186369
 31
0.0
 11
1636.222588039682
 21
2082.560896555512
 31
0.0
 11
1644.726494289682
 21
2092.742811838713
 31
0.0
 11
1648.163994289682
 21
2098.755873362151
 31
0.0
 11
1653.796806789682
 21
2117.267637888518
 31
0.0
 11
1655.976494289682
 21
2133.648237864104
 31
0.0
 11
1657.359306789682
 21
2146.367079416839
 31
0.0
 11
1659.640841307353
 21
2167.382867589713
 31
0.0
 11
1661.828056789682
 21
2187.514403025237
 31
0.0
 11
1664.148369289682
 21
2208.887495676603
 31
0.0
 11
1665.945244289683
 21
2225.459578196134
 31
0.0
 11
1667.269463039683
 21
2233.272635141935
 31
0.0
 11
1669.859306789683
 21
2238.426024118987
 31
0.0
 11
1671.459060667256
 21
2240.439314993522
 31
0.0
 11
1674.651472016742
 21
2244.24388403926
 31
0.0
 11
1677.770551733481
 21
2247.961059817187
 31
0.0
 11
1678.448496070628
 21
2248.769002703451
 31
0.0
 11
1678.448496070628
 21
2248.857453406476
 31
0.0
 11
1678.460382949789
 21
2260.729114901165
 31
0.0
 11
1678.464183741401
 21
2260.479996036325
 31
0.0
 11
1678.448496070628
 21
2266.248051056378
 31
0.0
 11
1678.463925894354
 21
2289.513863541033
 31
0.0
 11
1678.448496070628
 21
2289.71022885511
 31
0.0
 11
1678.448496070628
 21
2292.617154184645
 31
0.0
 11
1678.448496070628
 21
2294.010001921468
 31
0.0
 11
1678.355502474988
 21
2294.120827412513
 31
0.0
 11
1676.659442653322
 21
2296.142113515965
 31
0.0
 11
1675.607451682271
 21
2297.395827980268
 31
0.0
 11
1674.472342090244
 21
2298.748599394901
 31
0.0
 11
1673.06303993329
 21
2300.428140899881
 31
0.0
 11
1671.978642461822
 21
2301.720475941192
 31
0.0
 11
1671.015794069196
 21
2302.867954379677
 31
0.0
 11
1669.765556789683
 21
2304.483404795257
 31
0.0
 11
1668.890556789683
 21
2305.841910044279
 31
0.0
 11
1667.437431789683
 21
2308.786894480314
 31
0.0
 11
1666.421806789683
 21
2311.953772226896
 31
0.0
 11
1665.507744289683
 21
2316.764792124357
 31
0.0
 11
1664.749931789683
 21
2320.333704630462
 31
0.0
 11
1661.929619289683
 21
2329.824927012052
 31
0.0
 11
1656.183525539683
 21
2341.29033152255
 31
0.0
 11
1644.570244289683
 21
2353.215027491178
 31
0.0
 11
1625.671806789683
 21
2360.301726023286
 31
0.0
 11
1606.913994289683
 21
2362.775232950773
 31
0.0
 11
1587.563150061324
 21
2364.61725519434
 31
0.0
 11
1565.781181789683
 21
2366.527661005584
 31
0.0
 11
1555.203056789683
 21
2367.453154245939
 31
0.0
 11
1549.324150539683
 21
2367.96725908908
 31
0.0
 11
1547.015100109252
 21
2368.339784352127
 31
0.0
 11
1545.548632883466
 21
2369.352483950344
 31
0.0
 11
1544.946323132146
 21
2370.214333603984
 31
0.0
 11
1544.497723108386
 21
2372.054865649008
 31
0.0
 11
1544.497723108386
 21
2373.153354632837
 31
0.0
  0
DIMENSION
  5
71B0
330
A
100
AcDbEntity
  8
Dim
100
AcDbDimension
  2
*D62
 10
835.5402594793665
 20
1622.572437657602
 30
0.0
 11
585.5402594793665
 21
1644.788746251352
 31
0.0
 70
    32
 71
     5
 42
500.0
 73
     0
 74
     0
 75
     0
 52
-270.0
  3
tform線あり
100
AcDbAlignedDimension
 13
335.5402594793663
 23
1528.721284896003
 33
0.0
 14
835.5402594793663
 24
1528.721284896002
 34
0.0
 50
179.9999999999999
100
AcDbRotatedDimension
1001
ACAD
1000
DSTYLE
1002
{
1070
   144
1040
1.0
1002
}
  0
DIMENSION
  5
71BD
330
A
100
AcDbEntity
  8
Dim
100
AcDbDimension
  2
*D63
 10
153.0402662400004
 20
1514.572172161043
 30
0.0
 11
130.8239576462501
 21
1139.572172161043
 31
0.0
 70
    32
 71
     5
 42
749.9999999999995
 73
     0
 74
     0
 75
     0
  3
tform線あり
100
AcDbAlignedDimension
 13
326.0006484431979
 23
764.5721721610435
 33
0.0
 14
326.0006484431983
 24
1514.572172161043
 34
0.0
 50
89.99999999999994
100
AcDbRotatedDimension
1001
ACAD
1000
DSTYLE
1002
{
1070
   144
1040
1.0
1002
}
  0
LINE
  5
71CC
330
A
100
AcDbEntity
  8
HIDDEN
100
AcDbLine
 10
468.6978827703824
 20
2058.604055530042
 30
0.0
 11
468.5823279608121
 21
2058.528616076917
 31
0.0
  0
LINE
  5
71CD
330
A
100
AcDbEntity
  8
HIDDEN
100
AcDbLine
 10
468.5823279608121
 20
2058.528616076917
 30
0.0
 11
468.466086505734
 21
2058.603246814222
 31
0.0
  0
CIRCLE
  5
71CE
330
A
100
AcDbEntity
  8
HIDDEN
100
AcDbCircle
 10
404.5984029795854
 20
2070.512637808802
 30
0.0
 40
17.5
  0
CIRCLE
  5
71CF
330
A
100
AcDbEntity
  8
HIDDEN
100
AcDbCircle
 10
404.5984029795854
 20
1970.512637808802
 30
0.0
 40
16.0
  0
CIRCLE
  5
71D0
330
A
100
AcDbEntity
  8
HIDDEN
100
AcDbCircle
 10
404.5984029795859
 20
2170.512637808802
 30
0.0
 40
16.0
  0
LINE
  5
71D1
330
A
100
AcDbEntity
  8
HIDDEN
100
AcDbLine
 10
335.5402594793668
 20
1823.565475246505
 30
0.0
 11
335.5402594793673
 21
2567.459830888677
 31
0.0
  0
LINE
  5
71D2
330
A
100
AcDbEntity
  8
HIDDEN
100
AcDbLine
 10
829.4878942149817
 20
1820.565932161043
 30
0.0
 11
338.5402594793668
 21
1820.565932161043
 31
0.0
  0
LINE
  5
71D3
330
A
100
AcDbEntity
  8
HIDDEN
100
AcDbLine
 10
835.4869803859201
 20
2564.460287803201
 30
0.0
 11
835.4869803859201
 21
1826.56501833198
 31
0.0
  0
LINE
  5
71D4
330
A
100
AcDbEntity
  8
HIDDEN
100
AcDbLine
 10
338.5402594793673
 20
2570.459373974139
 30
0.0
 11
829.4878942149817
 21
2570.459373974139
 31
0.0
  0
ELLIPSE
  5
71D5
330
A
100
AcDbEntity
  8
HIDDEN
100
AcDbEllipse
 10
338.5402594793668
 20
1823.565475246505
 30
0.0
 11
-3.0
 21
2.848232278972478E-15
 31
0.0
210
0.0
220
0.0
230
1.0
 40
0.999847695156391
 41
0.0
 42
1.570796326794896
  0
ELLIPSE
  5
71D6
330
A
100
AcDbEntity
  8
HIDDEN
100
AcDbEllipse
 10
829.4869803163142
 20
2564.459373904537
 30
0.0
 11
-4.242640883925763
 21
-4.242640883925753
 31
0.0
210
0.0
220
0.0
230
1.0
 40
0.9999999536127822
 41
2.356346783440442
 42
3.926838523739145
  0
ELLIPSE
  5
71D7
330
A
100
AcDbEntity
  8
HIDDEN
100
AcDbEllipse
 10
829.4869803163192
 20
1826.565932230645
 30
0.0
 11
-4.242640883920004
 21
4.242640883920015
 31
0.0
210
0.0
220
0.0
230
1.0
 40
0.9999999536135945
 41
2.356346783439886
 42
3.926838523739682
  0
ELLIPSE
  5
71D8
330
A
100
AcDbEntity
  8
HIDDEN
100
AcDbEllipse
 10
338.5402594793673
 20
2567.459830888677
 30
0.0
 11
-3.0
 21
2.848232278972478E-15
 31
0.0
210
0.0
220
0.0
230
1.0
 40
0.999847695156391
 41
4.71238898038469
 42
6.283185307179586
  0
CIRCLE
  5
71D9
330
A
100
AcDbEntity
  8
HIDDEN
100
AcDbCircle
 10
562.5402594793673
 20
2070.512653067591
 30
0.0
 40
22.0
  0
LINE
  5
71DB
330
A
100
AcDbEntity
  8
HIDDEN
100
AcDbLine
 10
828.585625614216
 20
2293.907515623795
 30
0.0
 11
828.5856256142156
 21
1847.117790511386
 31
0.0
  0
LINE
  5
71DC
330
A
100
AcDbEntity
  8
HIDDEN
100
AcDbLine
 10
808.5856256142156
 20
1827.117790511386
 30
0.0
 11
485.1356534924257
 21
1827.117790511387
 31
0.0
  0
LINE
  5
71DD
330
A
100
AcDbEntity
  8
HIDDEN
100
AcDbLine
 10
465.1356534924262
 20
2293.907515623795
 30
0.0
 11
465.1356534924257
 21
1847.117790511387
 31
0.0
  0
ARC
  5
71DE
330
A
100
AcDbEntity
  8
HIDDEN
100
AcDbCircle
 10
485.1356534924257
 20
1847.117790511387
 30
0.0
 40
20.0
100
AcDbArc
 50
180.0
 51
269.9999999997785
  0
ARC
  5
71DF
330
A
100
AcDbEntity
  8
HIDDEN
100
AcDbCircle
 10
808.5856256142156
 20
1847.117790511386
 30
0.0
 40
20.0
100
AcDbArc
 50
270.0000000002215
 51
0.0
  0
LINE
  5
71E0
330
A
100
AcDbEntity
  8
HIDDEN
100
AcDbLine
 10
808.585625614216
 20
2313.907515623795
 30
0.0
 11
485.1356534924262
 21
2313.907515623795
 31
0.0
  0
ARC
  5
71E1
330
A
100
AcDbEntity
  8
HIDDEN
100
AcDbCircle
 10
485.1356534924262
 20
2293.907515623795
 30
0.0
 40
20.0
100
AcDbArc
 50
90.00000000022146
 51
180.0
  0
ARC
  5
71E2
330
A
100
AcDbEntity
  8
HIDDEN
100
AcDbCircle
 10
808.585625614216
 20
2293.907515623795
 30
0.0
 40
20.0
100
AcDbArc
 50
0.0
 51
89.99999999977852
  0
ELLIPSE
  5
71E3
330
A
100
AcDbEntity
  8
HIDDEN
100
AcDbEllipse
 10
468.5812670752734
 20
2070.512653067591
 30
0.0
 11
-1.137666781618087E-14
 21
-11.98287221885403
 31
0.0
210
0.0
220
0.0
230
1.0
 40
0.086521914256924
 41
0.0
 42
6.283185307179586
  0
DIMENSION
  5
724D
330
A
100
AcDbEntity
  8
Dim
100
AcDbDimension
  2
*D72
 10
465.5402283228586
 20
647.5075190970265
 30
0.0
 11
400.5402283835901
 21
669.7238276907764
 31
0.0
 70
    32
 71
     5
 42
129.999999878537
 73
     0
 74
     0
 75
     0
 52
270.0
  3
tform線あり
100
AcDbAlignedDimension
 13
335.5402284443217
 23
755.1388791082145
 33
0.0
 14
465.5402283228586
 24
755.1388791082163
 34
0.0
 50
-179.9999999999999
100
AcDbRotatedDimension
  0
DIMENSION
  5
724E
102
{ACAD_XDICTIONARY
360
724F
102
}
330
A
100
AcDbEntity
  8
Dim
100
AcDbDimension
  2
*D73
 10
820.5402283228588
 20
647.507519097026
 30
0.0
 11
643.0402283228588
 21
669.7238276907759
 31
0.0
 70
    32
 71
     5
 42
355.0
 73
     0
 74
     0
 75
     0
  3
tform線あり
100
AcDbAlignedDimension
 13
465.5402283228586
 23
755.1388791082163
 33
0.0
 14
820.5402283228586
 24
755.1388791082159
 34
0.0
 50
-180.0
100
AcDbRotatedDimension
1001
ACAD
1000
DSTYLE
1002
{
1070
   144
1040
1.0
1002
}
  0
DIMENSION
  5
7269
330
A
100
AcDbEntity
  8
Dim
100
AcDbDimension
  2
*D74
 10
935.6248426687789
 20
1249.518893067591
 30
0.0
 11
913.4085340750287
 21
1014.518893067591
 31
0.0
 70
    32
 71
     5
 42
470.0
 73
     0
 74
     0
 75
     0
  3
tform線あり
100
AcDbAlignedDimension
 13
834.7211700808884
 23
779.5188930675909
 33
0.0
 14
834.7211700808894
 24
1249.518893067591
 34
0.0
 50
89.99999999999994
100
AcDbRotatedDimension
1001
ACAD
1000
DSTYLE
1002
{
1070
   144
1040
1.0
1002
}
  0
DIMENSION
  5
7295
330
A
100
AcDbEntity
  8
Dim
100
AcDbDimension
  2
*D77
 10
935.5673346127132
 20
2280.270993068681
 30
0.0
 11
913.351026018963
 21
2070.270993068681
 31
0.0
 70
    32
 71
     5
 42
419.9999999999986
 73
     0
 74
     0
 75
     0
  3
tform線あり
100
AcDbAlignedDimension
 13
795.8564366888245
 23
1860.270993068682
 33
0.0
 14
795.8564366888249
 24
2280.270993068681
 34
0.0
 50
89.99999999999994
100
AcDbRotatedDimension
1001
ACAD
1000
DSTYLE
1002
{
1070
   144
1040
1.0
1002
}
  0
MTEXT
  5
729A
330
A
100
AcDbEntity
  8
Dim
390
1D
100
AcDbMText
 10
222.1668322741875
 20
2047.752673359844
 30
34.99521132346015
 40
24.0
 41
1169.771715461011
 46
26.928
 71
     1
 72
     1
  1
{カウンター切込寸法 }
  7
ＭＳ ゴシック
 11
9.494107596574928E-16
 21
1.0
 31
0.0
 73
     1
 44
1.174240107638677
1001
ACAD
1000
ACAD_MTEXT_DEFINED_HEIGHT_BEGIN
1070
    46
1040
26.928
1000
ACAD_MTEXT_DEFINED_HEIGHT_END
  0
LINE
  5
729B
330
A
100
AcDbEntity
  8
Dim
100
AcDbLine
 10
335.5402594793682
 20
2671.948184371201
 30
0.0
 11
335.5402594793663
 21
1778.662095667202
 31
0.0
  0
LINE
  5
729C
330
A
100
AcDbEntity
  8
Dim
100
AcDbLine
 10
335.5402594793691
 20
2622.0744566107
 30
0.0
 11
298.1605748340985
 21
2651.266307484863
 31
0.0
  0
LINE
  5
729D
330
A
100
AcDbEntity
  8
Dim
100
AcDbLine
 10
335.5402594793691
 20
2596.955887253859
 30
0.0
 11
298.160574834098
 21
2626.147738128025
 31
0.0
  0
DIMENSION
  5
729E
330
A
100
AcDbEntity
  8
Dim
100
AcDbDimension
  2
*D78
 10
795.5402594793679
 20
2396.676816
 30
0.0
 11
565.5402594793678
 21
2418.893124593751
 31
0.0
 70
    32
 71
     5
 42
460.0000000000002
 73
     0
 74
     0
 75
     0
 52
-270.0
  3
tform線あり
100
AcDbAlignedDimension
 13
335.5402594793677
 23
2404.542931801919
 33
0.0
 14
795.5402594793677
 24
2291.579916183359
 34
0.0
 50
179.9999999999999
100
AcDbRotatedDimension
1001
ACAD
1000
DSTYLE
1002
{
1070
     3
1000
<>
1070
   144
1040
1.0
1002
}
  0
LINE
  5
72C6
330
A
100
AcDbEntity
  8
Dim
100
AcDbLine
 10
335.5402594793695
 20
2649.7971283291
 30
0.0
 11
298.1605748340985
 21
2678.988979203264
 31
0.0
  0
LWPOLYLINE
  5
72D6
102
{ACAD_REACTORS
330
72D8
102
}
330
A
100
AcDbEntity
  8
MODEL
100
AcDbPolyline
 90
        4
 70
     1
 43
0.0
 10
335.5539791655933
 20
1860.270993068668
 10
335.5539791655933
 20
2280.754016102262
 10
795.856436688824
 20
2280.754016102262
 10
795.856436688824
 20
1860.270993068668
  0
HATCH
  5
72D8
330
A
100
AcDbEntity
  8
Dim
100
AcDbHatch
 10
0.0
 20
0.0
 30
0.0
210
0.0
220
0.0
230
1.0
  2
ANSI31
 70
     0
 71
     1
 91
        1
 92
        1
 93
        4
 72
     1
 10
335.5539791655933
 20
1860.270993068668
 11
335.5539791655933
 21
2280.754016102262
 72
     1
 10
335.5539791655933
 20
2280.754016102262
 11
795.856436688824
 21
2280.754016102262
 72
     1
 10
795.856436688824
 20
2280.754016102262
 11
795.856436688824
 21
1860.270993068668
 72
     1
 10
795.856436688824
 20
1860.270993068668
 11
335.5539791655933
 21
1860.270993068668
 97
        1
330
72D6
 75
     0
 76
     1
 52
0.0
 41
8.0
 77
     0
 78
     1
 53
45.0
 43
0.0
 44
0.0
 45
-17.96051224213831
 46
17.96051224213831
 79
     0
 98
        1
 10
0.0
 20
0.0
1001
ACAD
1010
0.0
1020
0.0
1030
0.0
  0
LINE
  5
72E0
330
A
100
AcDbEntity
  8
HIDDEN
100
AcDbLine
 10
1709.498031929497
 20
987.2405045324492
 30
0.0
 11
1709.497993338701
 21
1038.379570734649
 31
0.0
  0
DIMENSION
  5
72E4
102
{ACAD_REACTORS
330
72E6
102
}
102
{ACAD_XDICTIONARY
360
72E5
102
}
330
A
100
AcDbEntity
  8
Dim
100
AcDbDimension
  2
*D80
 10
1714.497724825338
 20
2204.262817348821
 30
0.0
 11
1756.942458319435
 21
2204.262817348821
 31
0.0
 70
   160
 71
     5
 42
4.999999743666194
 73
     0
 74
     0
 75
     0
  3
tform線あり
100
AcDbAlignedDimension
 13
1709.497725081672
 23
2253.275244174306
 33
0.0
 14
1714.497724825338
 24
2253.275244103551
 34
0.0
100
AcDbRotatedDimension
1001
ACAD
1000
DSTYLE
1002
{
1070
   144
1040
1.0
1002
}
  0
DIMENSION
  5
72FA
102
{ACAD_REACTORS
330
72FC
102
}
102
{ACAD_XDICTIONARY
360
72FB
102
}
330
A
100
AcDbEntity
  8
Dim
100
AcDbDimension
  2
*D81
 10
1468.595496707027
 20
764.5098307031835
 30
0.0
 11
1446.379188113277
 21
857.0098307031835
 31
0.0
 70
    32
 71
     5
 42
185.0
 73
     0
 74
     0
 75
     0
  3
tform線あり
100
AcDbAlignedDimension
 13
1559.497736574479
 23
949.5098307031835
 33
0.0
 14
1559.497736574479
 24
764.5098307031835
 34
0.0
 50
90.0
100
AcDbRotatedDimension
1001
ACAD
1000
DSTYLE
1002
{
1070
   144
1040
1.0
1002
}
  0
DIMENSION
  5
7309
330
A
100
AcDbEntity
  8
Dim
100
AcDbDimension
  2
*D82
 10
1468.595496707027
 20
1349.509830703184
 30
0.0
 11
1446.379188113277
 21
1214.509830703184
 31
0.0
 70
    32
 71
     5
 42
270.0
 73
     0
 74
     0
 75
     0
  3
tform線あり
100
AcDbAlignedDimension
 13
1534.49773657448
 23
1079.509830703184
 33
0.0
 14
1534.49773657448
 24
1349.509830703184
 34
0.0
 50
90.0
100
AcDbRotatedDimension
1001
ACAD
1000
DSTYLE
1002
{
1070
   144
1040
1.0
1002
}
  0
DIMENSION
  5
7328
102
{ACAD_XDICTIONARY
360
7329
102
}
330
A
100
AcDbEntity
  8
Dim
100
AcDbDimension
  2
*D83
 10
218.8425062399997
 20
764.518893067606
 30
0.0
 11
196.6261976462497
 21
889.518893067606
 31
0.0
 70
    32
 71
     5
 42
250.0
 73
     0
 74
     0
 75
     0
  3
tform線あり
100
AcDbAlignedDimension
 13
361.2900074939034
 23
1014.518893067606
 33
0.0
 14
361.2900074939034
 24
764.518893067606
 34
0.0
 50
90.0
100
AcDbRotatedDimension
1001
ACAD
1000
DSTYLE
1002
{
1070
   144
1040
1.0
1002
}
  0
VIEWPORT
  5
349
330
B
100
AcDbEntity
 67
     1
  8
0
100
AcDbViewport
 10
202.5
 20
128.5
 30
0.0
 40
486.0
 41
308.4
 68
     1
 69
     1
 12
202.5
 22
128.5
 13
0.0
 23
0.0
 14
0.5
 24
0.5
 15
0.0
 25
0.0
 16
0.0
 26
0.0
 36
1.0
 17
0.0
 27
0.0
 37
0.0
 42
50.0
 43
0.0
 44
0.0
 45
308.4
 50
0.0
 51
0.0
 72
   100
 90
   557152
  1

281
     0
 71
     1
 74
     0
110
0.0
120
0.0
130
0.0
111
1.0
121
0.0
131
0.0
112
0.0
122
1.0
132
0.0
 79
     0
146
0.0
170
     0
 61
     5
348
26C
292
     1
282
     1
141
0.0
142
0.0
 63
   256
  0
VIEWPORT
  5
34A
330
B
100
AcDbEntity
 67
     1
  8
0
100
AcDbViewport
 10
202.5
 20
128.5
 30
0.0
 40
324.0
 41
205.6
 68
     2
 69
     2
 12
986.6781359294573
 22
1427.077061889956
 13
0.0
 23
0.0
 14
0.5
 24
0.5
 15
0.0
 25
0.0
 16
0.0
 26
0.0
 36
1.0
 17
0.0
 27
0.0
 37
0.0
 42
50.0
 43
0.0
 44
0.0
 45
2890.021615685494
 50
0.0
 51
0.0
 72
   100
 90
   557152
  1

281
     0
 71
     1
 74
     0
110
0.0
120
0.0
130
0.0
111
1.0
121
0.0
131
0.0
112
0.0
122
1.0
132
0.0
 79
     0
146
0.0
170
     0
 61
     5
348
26C
292
     1
282
     1
141
0.0
142
0.0
 63
   256
  0
ENDSEC
  0
SECTION
  2
OBJECTS
  0
DICTIONARY
  5
19
330
0
100
AcDbDictionary
281
     1
  3
ACAD_COLOR
350
38F
  3
ACAD_DETAILVIEWSTYLE
350
8CF
  3
ACAD_FIELDLIST
350
BA6
  3
ACAD_GROUP
350
1A
  3
ACAD_IMAGE_DICT
350
5E43
  3
ACAD_IMAGE_VARS
350
27B
  3
ACAD_LAYOUT
350
1E
  3
ACAD_MATERIAL
350
263
  3
ACAD_MLEADERSTYLE
350
336
  3
ACAD_MLINESTYLE
350
1B
  3
ACAD_PLOTSETTINGS
350
22
  3
ACAD_PLOTSTYLENAME
350
1F
  3
ACAD_SCALELIST
350
241
  3
ACAD_SECTIONVIEWSTYLE
350
8D0
  3
ACAD_TABLESTYLE
350
278
  3
ACAD_VISUALSTYLE
350
267
  3
ACDB_RECOMPOSE_DATA
350
7342
  3
AcDbVariableDictionary
350
330
  3
APPDATA
350
27A
  3
DimOffsetDictionary
350
C08
  0
SUN
  5
8C2
330
15
100
AcDbSun
 90
        1
290
     0
 63
     7
421
 16777215
 40
1.0
291
     1
 91
  2455826
 92
 54000000
292
     0
 70
     2
 71
   256
280
     1
  0
DICTIONARY
  5
2E1
330
2
100
AcDbDictionary
280
     1
281
     1
  3
ACAD_LAYERSTATES
360
2E2
  3
ACLYDICTIONARY
360
BFE
  0
DICTIONARY
  5
560A
330
A
100
AcDbDictionary
280
     1
281
     1
  3
ACAD_SORTENTS
360
560B
  0
DICTIONARY
  5
BDC
330
BDB
100
AcDbDictionary
280
     1
281
     1
  3
ACAD_FIELD
360
731E
  0
DICTIONARY
  5
724F
330
724E
100
AcDbDictionary
280
     1
281
     1
  3
ACAD_DIMASSOC
360
7250
  0
DICTIONARY
  5
72E5
330
72E4
100
AcDbDictionary
280
     1
281
     1
  3
ACAD_DIMASSOC
360
72E6
  0
DICTIONARY
  5
72FB
330
72FA
100
AcDbDictionary
280
     1
281
     1
  3
ACAD_DIMASSOC
360
72FC
  0
DICTIONARY
  5
7329
330
7328
100
AcDbDictionary
280
     1
281
     1
  0
DICTIONARY
  5
38F
102
{ACAD_REACTORS
330
19
102
}
330
19
100
AcDbDictionary
281
     1
  0
DICTIONARY
  5
8CF
102
{ACAD_REACTORS
330
19
102
}
330
19
100
AcDbDictionary
281
     1
  0
FIELDLIST
  5
BA6
102
{ACAD_REACTORS
330
19
102
}
330
19
100
AcDbIdSet
 90
        2
330
BDF
330
BDE
100
AcDbFieldList
  0
DICTIONARY
  5
1A
102
{ACAD_REACTORS
330
19
102
}
330
19
100
AcDbDictionary
281
     1
  0
DICTIONARY
  5
5E43
102
{ACAD_REACTORS
330
19
102
}
330
19
100
AcDbDictionary
281
     1
  3
Untitled
350
5E44
  0
RASTERVARIABLES
  5
27B
102
{ACAD_REACTORS
330
19
102
}
330
19
100
AcDbRasterVariables
 90
        0
 70
     1
 71
     1
 72
     1
  0
DICTIONARY
  5
1E
102
{ACAD_REACTORS
330
19
102
}
330
19
100
AcDbDictionary
281
     1
  3
Layout1
350
21
  3
Model
350
20
  0
DICTIONARY
  5
263
102
{ACAD_REACTORS
330
19
102
}
330
19
100
AcDbDictionary
281
     1
  3
ByBlock
350
4FEC
  3
ByLayer
350
264
  3
Global
350
266
  0
DICTIONARY
  5
336
102
{ACAD_REACTORS
330
19
102
}
330
19
100
AcDbDictionary
281
     1
  3
Standard
350
8D1
  0
DICTIONARY
  5
1B
102
{ACAD_REACTORS
330
19
102
}
330
19
100
AcDbDictionary
281
     1
  3
Standard
350
1C
  0
DICTIONARY
  5
22
102
{ACAD_REACTORS
330
19
102
}
330
19
100
AcDbDictionary
281
     1
  0
ACDBDICTIONARYWDFLT
  5
1F
102
{ACAD_REACTORS
330
19
102
}
330
19
100
AcDbDictionary
281
     1
  3
Normal
350
1D
100
AcDbDictionaryWithDefault
340
1D
  0
DICTIONARY
  5
241
102
{ACAD_REACTORS
330
19
102
}
330
19
100
AcDbDictionary
281
     1
  3
A0
350
242
  3
A1
350
243
  3
A2
350
244
  3
A3
350
245
  3
A4
350
246
  3
A5
350
247
  3
A6
350
248
  3
A7
350
249
  3
A8
350
24A
  3
A9
350
24B
  3
B0
350
24C
  3
B1
350
24D
  3
B2
350
24E
  3
B3
350
24F
  3
B4
350
250
  3
B5
350
251
  3
B6
350
252
  3
B7
350
253
  3
B8
350
254
  3
B9
350
255
  3
C0
350
256
  3
C1
350
257
  3
C2
350
258
  3
C3
350
259
  3
C4
350
25A
  3
C5
350
25B
  3
C6
350
25C
  3
C7
350
25D
  3
C8
350
25E
  3
C9
350
25F
  3
D0
350
260
  3
D1
350
261
  3
D2
350
262
  0
DICTIONARY
  5
8D0
102
{ACAD_REACTORS
330
19
102
}
330
19
100
AcDbDictionary
281
     1
  0
DICTIONARY
  5
278
102
{ACAD_REACTORS
330
19
102
}
330
19
100
AcDbDictionary
281
     1
  3
Standard
350
279
  0
DICTIONARY
  5
267
102
{ACAD_REACTORS
330
19
102
}
330
19
100
AcDbDictionary
281
     1
  3
2dWireframe
350
26C
  3
3D Hidden
350
26E
  3
3dWireframe
350
26D
  3
Basic
350
26F
  3
Brighten
350
273
  3
ColorChange
350
277
  3
Conceptual
350
271
  3
Dim
350
272
  3
EdgeColorOff
350
8BC
  3
Facepattern
350
276
  3
Flat
350
268
  3
FlatWithEdges
350
269
  3
Gouraud
350
26A
  3
GouraudWithEdges
350
26B
  3
Hidden
350
8B9
  3
JitterOff
350
8BA
  3
Linepattern
350
275
  3
OverhangOff
350
8BB
  3
Realistic
350
270
  3
Shaded
350
8C1
  3
Shaded with edges
350
8C0
  3
Shades of Gray
350
8BD
  3
Sketchy
350
8BE
  3
Thicken
350
274
  3
Wireframe
350
8B8
  3
X-Ray
350
8BF
  0
XRECORD
  5
7342
102
{ACAD_REACTORS
330
19
102
}
330
19
100
AcDbXrecord
280
     1
 90
        1
330
279
  0
DICTIONARY
  5
330
102
{ACAD_REACTORS
330
19
102
}
330
19
100
AcDbDictionary
281
     1
  3
CANNOSCALE
350
331
  3
CMLEADERSTYLE
350
8DA
  3
CTABLESTYLE
350
335
  3
HPTRANSPARENCY
350
C07
  3
XCLIPFRAME
350
64A
  0
DICTIONARY
  5
27A
102
{ACAD_REACTORS
330
19
102
}
330
19
100
AcDbDictionary
281
     1
  0
DICTIONARY
  5
C08
102
{ACAD_REACTORS
330
19
102
}
330
19
100
AcDbDictionary
281
     1
  3
DIMRAILANGLE
350
4342
  3
DIMRAILFIRSTOFFSET
350
4340
  3
DIMRAILOFFSET
350
4341
  3
DIMRAILSENABLED
350
4343
  0
DICTIONARY
  5
2E2
102
{ACAD_REACTORS
330
2E1
102
}
330
2E1
100
AcDbDictionary
281
     1
  0
DICTIONARY
  5
BFE
102
{ACAD_REACTORS
330
2E1
102
}
330
2E1
100
AcDbDictionary
281
     1
1001
ACAD
1000
<All
  0
SORTENTSTABLE
  5
560B
102
{ACAD_REACTORS
330
560A
102
}
330
560A
100
AcDbSortentsTable
330
A
331
0
  5
72D6
331
72D6
  5
72D8
331
72D8
  5
72D7
  0
DICTIONARY
  5
731E
102
{ACAD_REACTORS
330
BDC
102
}
330
BDC
100
AcDbDictionary
280
     1
281
     1
  3
TEXT
360
BDE
  0
DIMASSOC
  5
7250
102
{ACAD_REACTORS
330
724F
102
}
330
724F
100
AcDbDimAssoc
330
724E
 90
        0
 70
     0
 71
     1
  0
DIMASSOC
  5
72E6
102
{ACAD_REACTORS
330
72E5
102
}
330
72E5
100
AcDbDimAssoc
330
72E4
 90
        3
 70
     0
 71
     1
  1
AcDbOsnapPointRef
 72
    10
331
7146
 73
     0
 91
        0
 40
0.911687955333842
 10
0.0
 20
0.0
 30
0.0
 75
     0
  1
AcDbOsnapPointRef
 72
     8
331
7145
 73
     0
 91
        0
 40
0.3564505337377586
 10
0.0
 20
0.0
 30
0.0
 75
     1
  1
AcDbOsnapPointRef
 72
    10
331
7146
 73
     0
 91
        0
 40
0.911687955333842
 10
0.0
 20
0.0
 30
0.0
 75
     0
  0
DIMASSOC
  5
72FC
102
{ACAD_REACTORS
330
72FB
102
}
330
72FB
100
AcDbDimAssoc
330
72FA
 90
        0
 70
     0
 71
     1
  0
IMAGEDEF
  5
5E44
102
{ACAD_REACTORS
330
5E43
102
}
330
5E43
100
AcDbRasterImageDef
 90
        0
  1
K:/DESKTOP/Untitled.png
 10
1035.0
 20
588.0
 11
0.2646202699126753
 21
0.2646202699126753
280
     1
281
     3
  0
LAYOUT
  5
21
102
{ACAD_REACTORS
330
1E
102
}
330
1E
100
AcDbPlotSettings
  1

  2
none_device
  4
ISO_A3_(420.00_x_297.00_MM)
  6

 40
7.5
 41
20.0
 42
7.5
 43
20.0
 44
420.0
 45
297.0
 46
0.0
 47
0.0
 48
0.0
 49
0.0
140
0.0
141
0.0
142
1.0
143
1.0
 70
     0
 72
     1
 73
     0
 74
     0
  7

 75
     0
 76
     0
 77
     2
 78
   300
147
1.0
148
0.0
149
0.0
100
AcDbLayout
  1
Layout1
 70
     0
 71
     0
 10
0.0
 20
0.0
 11
0.0
 21
0.0
 12
0.0
 22
0.0
 32
0.0
 14
0.0
 24
0.0
 34
0.0
 15
0.0
 25
0.0
 35
0.0
146
0.0
 13
0.0
 23
0.0
 33
0.0
 16
0.0
 26
0.0
 36
0.0
 17
0.0
 27
0.0
 37
0.0
 76
     0
330
B
331
349
  0
LAYOUT
  5
20
102
{ACAD_REACTORS
330
1E
102
}
330
1E
100
AcDbPlotSettings
  1

  2
none_device
  4
ISO_A3_(420.00_x_297.00_MM)
  6

 40
7.5
 41
20.0
 42
7.5
 43
20.0
 44
420.0
 45
297.0
 46
0.0
 47
0.0
 48
0.0
 49
0.0
140
0.0
141
0.0
142
1.0
143
1.0
 70
  1024
 72
     1
 73
     0
 74
     0
  7

 75
     0
 76
     0
 77
     2
 78
   300
147
1.0
148
0.0
149
0.0
100
AcDbLayout
  1
Model
 70
     0
 71
     1
 10
0.0
 20
0.0
 11
2100.0
 21
2970.0
 12
0.0
 22
0.0
 32
0.0
 14
0.0
 24
0.0
 34
0.0
 15
2100.0
 25
2970.0
 35
34.99521132346015
146
0.0
 13
0.0
 23
0.0
 33
0.0
 16
0.0
 26
0.0
 36
0.0
 17
0.0
 27
0.0
 37
0.0
 76
     0
330
A
331
15
  0
MATERIAL
  5
4FEC
102
{ACAD_REACTORS
330
263
102
}
330
263
100
AcDbMaterial
  1
ByBlock
 72
     1
 94
      127
  0
MATERIAL
  5
264
102
{ACAD_REACTORS
330
263
102
}
330
263
100
AcDbMaterial
  1
ByLayer
 72
     1
 94
      127
  0
MATERIAL
  5
266
102
{ACAD_REACTORS
330
263
102
}
330
263
100
AcDbMaterial
  1
Global
 72
     1
 94
      127
  0
MLEADERSTYLE
  5
8D1
102
{ACAD_REACTORS
330
336
102
}
330
336
100
AcDbMLeaderStyle
170
     2
171
     1
172
     0
 90
        2
 40
0.0
 41
0.0
173
     1
 91
-1056964608
340
11
 92
       -2
290
     1
 42
2.0
291
     1
 43
8.0
  3
Standard
341
0
 44
4.0
300

342
17
174
     1
178
     6
175
     1
176
     0
 93
-1056964608
 45
4.0
292
     0
297
     0
 46
4.0
343
0
 94
-1056964608
 47
1.0
 49
1.0
140
1.0
293
     1
141
0.0
294
     1
177
     0
142
1.0
295
     0
296
     0
143
3.75
1001
ACAD_MLEADERVER
1070
     2
  0
MLINESTYLE
  5
1C
102
{ACAD_REACTORS
330
1B
102
}
330
1B
100
AcDbMlineStyle
  2
Standard
 70
     0
  3

 62
     0
 51
90.0
 52
90.0
 71
     2
 49
0.5
 62
   256
  6
BYLAYER
 49
-0.5
 62
   256
  6
BYLAYER
  0
ACDBPLACEHOLDER
  5
1D
102
{ACAD_REACTORS
330
1F
102
}
330
1F
  0
SCALE
  5
242
102
{ACAD_REACTORS
330
241
102
}
330
241
100
AcDbScale
 70
     0
300
1:1
140
1.0
141
1.0
290
     1
  0
SCALE
  5
243
102
{ACAD_REACTORS
330
241
102
}
330
241
100
AcDbScale
 70
     0
300
1:2
140
1.0
141
2.0
290
     0
  0
SCALE
  5
244
102
{ACAD_REACTORS
330
241
102
}
330
241
100
AcDbScale
 70
     0
300
1:4
140
1.0
141
4.0
290
     0
  0
SCALE
  5
245
102
{ACAD_REACTORS
330
241
102
}
330
241
100
AcDbScale
 70
     0
300
1:5
140
1.0
141
5.0
290
     0
  0
SCALE
  5
246
102
{ACAD_REACTORS
330
241
102
}
330
241
100
AcDbScale
 70
     0
300
1:8
140
1.0
141
8.0
290
     0
  0
SCALE
  5
247
102
{ACAD_REACTORS
330
241
102
}
330
241
100
AcDbScale
 70
     0
300
1:10
140
1.0
141
10.0
290
     0
  0
SCALE
  5
248
102
{ACAD_REACTORS
330
241
102
}
330
241
100
AcDbScale
 70
     0
300
1:16
140
1.0
141
16.0
290
     0
  0
SCALE
  5
249
102
{ACAD_REACTORS
330
241
102
}
330
241
100
AcDbScale
 70
     0
300
1:20
140
1.0
141
20.0
290
     0
  0
SCALE
  5
24A
102
{ACAD_REACTORS
330
241
102
}
330
241
100
AcDbScale
 70
     0
300
1:30
140
1.0
141
30.0
290
     0
  0
SCALE
  5
24B
102
{ACAD_REACTORS
330
241
102
}
330
241
100
AcDbScale
 70
     0
300
1:40
140
1.0
141
40.0
290
     0
  0
SCALE
  5
24C
102
{ACAD_REACTORS
330
241
102
}
330
241
100
AcDbScale
 70
     0
300
1:50
140
1.0
141
50.0
290
     0
  0
SCALE
  5
24D
102
{ACAD_REACTORS
330
241
102
}
330
241
100
AcDbScale
 70
     0
300
1:100
140
1.0
141
100.0
290
     0
  0
SCALE
  5
24E
102
{ACAD_REACTORS
330
241
102
}
330
241
100
AcDbScale
 70
     0
300
2:1
140
2.0
141
1.0
290
     0
  0
SCALE
  5
24F
102
{ACAD_REACTORS
330
241
102
}
330
241
100
AcDbScale
 70
     0
300
4:1
140
4.0
141
1.0
290
     0
  0
SCALE
  5
250
102
{ACAD_REACTORS
330
241
102
}
330
241
100
AcDbScale
 70
     0
300
8:1
140
8.0
141
1.0
290
     0
  0
SCALE
  5
251
102
{ACAD_REACTORS
330
241
102
}
330
241
100
AcDbScale
 70
     0
300
10:1
140
10.0
141
1.0
290
     0
  0
SCALE
  5
252
102
{ACAD_REACTORS
330
241
102
}
330
241
100
AcDbScale
 70
     0
300
100:1
140
100.0
141
1.0
290
     0
  0
SCALE
  5
253
102
{ACAD_REACTORS
330
241
102
}
330
241
100
AcDbScale
 70
     0
300
1/128" = 1'-0"
140
0.0078125
141
12.0
290
     0
  0
SCALE
  5
254
102
{ACAD_REACTORS
330
241
102
}
330
241
100
AcDbScale
 70
     0
300
1/64" = 1'-0"
140
0.015625
141
12.0
290
     0
  0
SCALE
  5
255
102
{ACAD_REACTORS
330
241
102
}
330
241
100
AcDbScale
 70
     0
300
1/32" = 1'-0"
140
0.03125
141
12.0
290
     0
  0
SCALE
  5
256
102
{ACAD_REACTORS
330
241
102
}
330
241
100
AcDbScale
 70
     0
300
1/16" = 1'-0"
140
0.0625
141
12.0
290
     0
  0
SCALE
  5
257
102
{ACAD_REACTORS
330
241
102
}
330
241
100
AcDbScale
 70
     0
300
3/32" = 1'-0"
140
0.09375
141
12.0
290
     0
  0
SCALE
  5
258
102
{ACAD_REACTORS
330
241
102
}
330
241
100
AcDbScale
 70
     0
300
1/8" = 1'-0"
140
0.125
141
12.0
290
     0
  0
SCALE
  5
259
102
{ACAD_REACTORS
330
241
102
}
330
241
100
AcDbScale
 70
     0
300
3/16" = 1'-0"
140
0.1875
141
12.0
290
     0
  0
SCALE
  5
25A
102
{ACAD_REACTORS
330
241
102
}
330
241
100
AcDbScale
 70
     0
300
1/4" = 1'-0"
140
0.25
141
12.0
290
     0
  0
SCALE
  5
25B
102
{ACAD_REACTORS
330
241
102
}
330
241
100
AcDbScale
 70
     0
300
3/8" = 1'-0"
140
0.375
141
12.0
290
     0
  0
SCALE
  5
25C
102
{ACAD_REACTORS
330
241
102
}
330
241
100
AcDbScale
 70
     0
300
1/2" = 1'-0"
140
0.5
141
12.0
290
     0
  0
SCALE
  5
25D
102
{ACAD_REACTORS
330
241
102
}
330
241
100
AcDbScale
 70
     0
300
3/4" = 1'-0"
140
0.75
141
12.0
290
     0
  0
SCALE
  5
25E
102
{ACAD_REACTORS
330
241
102
}
330
241
100
AcDbScale
 70
     0
300
1" = 1'-0"
140
1.0
141
12.0
290
     0
  0
SCALE
  5
25F
102
{ACAD_REACTORS
330
241
102
}
330
241
100
AcDbScale
 70
     0
300
1-1/2" = 1'-0"
140
1.5
141
12.0
290
     0
  0
SCALE
  5
260
102
{ACAD_REACTORS
330
241
102
}
330
241
100
AcDbScale
 70
     0
300
3" = 1'-0"
140
3.0
141
12.0
290
     0
  0
SCALE
  5
261
102
{ACAD_REACTORS
330
241
102
}
330
241
100
AcDbScale
 70
     0
300
6" = 1'-0"
140
6.0
141
12.0
290
     0
  0
SCALE
  5
262
102
{ACAD_REACTORS
330
241
102
}
330
241
100
AcDbScale
 70
     0
300
1'-0" = 1'-0"
140
12.0
141
12.0
290
     0
  0
TABLESTYLE
  5
279
102
{ACAD_REACTORS
330
278
102
}
102
{ACAD_XDICTIONARY
360
7340
102
}
330
278
100
AcDbTableStyle
  3
Standard
 70
     0
 71
     0
 40
0.06
 41
0.06
280
     0
281
     0
  7
Standard
140
4.5
170
     2
 62
     0
 63
   257
283
     0
 90
        4
 91
        0
  1

274
    -2
284
     1
 64
     0
275
    -2
285
     1
 65
     0
276
    -2
286
     1
 66
     0
277
    -2
287
     1
 67
     0
278
    -2
288
     1
 68
     0
279
    -2
289
     1
 69
     0
  7
Standard
140
6.0
170
     5
 62
     0
 63
   257
283
     0
 90
        4
 91
        0
  1

274
    -2
284
     1
 64
     0
275
    -2
285
     1
 65
     0
276
    -2
286
     1
 66
     0
277
    -2
287
     1
 67
     0
278
    -2
288
     1
 68
     0
279
    -2
289
     1
 69
     0
  7
Standard
140
4.5
170
     5
 62
     0
 63
   257
283
     0
 90
        4
 91
        0
  1

274
    -2
284
     1
 64
     0
275
    -2
285
     1
 65
     0
276
    -2
286
     1
 66
     0
277
    -2
287
     1
 67
     0
278
    -2
288
     1
 68
     0
279
    -2
289
     1
 69
     0
  0
VISUALSTYLE
  5
26C
102
{ACAD_REACTORS
330
267
102
}
330
267
100
AcDbVisualStyle
  2
2dWireframe
 70
     4
 71
     0
 72
     2
 73
     0
 90
        0
 40
-0.6
 41
-30.0
 62
     5
 63
     7
421
 16777215
 74
     1
 91
        4
 64
     7
 65
   257
 75
     1
175
     1
 42
1.0
 92
        0
 66
   257
 43
1.0
 76
     1
 77
     6
 78
     2
 67
     7
 79
     5
170
     0
171
     0
290
     0
174
     0
 93
        1
 44
0.0
173
     0
291
     0
 45
0.0
  0
VISUALSTYLE
  5
26E
102
{ACAD_REACTORS
330
267
102
}
330
267
100
AcDbVisualStyle
  2
3D Hidden
 70
     6
 71
     1
 72
     2
 73
     2
 90
        0
 40
-0.6
 41
-30.0
 62
     5
 63
     7
421
 16777215
 74
     2
 91
        2
 64
     7
 65
   257
 75
     2
175
     1
 42
40.0
 92
        0
 66
   257
 43
1.0
 76
     1
 77
     6
 78
     2
 67
     7
 79
     3
170
     0
171
     0
290
     0
174
     0
 93
        1
 44
0.0
173
     0
291
     0
 45
0.0
  0
VISUALSTYLE
  5
26D
102
{ACAD_REACTORS
330
267
102
}
330
267
100
AcDbVisualStyle
  2
3dWireframe
 70
     5
 71
     0
 72
     2
 73
     0
 90
        0
 40
-0.6
 41
-30.0
 62
     5
 63
     7
421
 16777215
 74
     1
 91
        4
 64
     7
 65
   257
 75
     1
175
     1
 42
1.0
 92
        0
 66
   257
 43
1.0
 76
     1
 77
     6
 78
     2
 67
     7
 79
     5
170
     0
171
     0
290
     0
174
     0
 93
        1
 44
0.0
173
     0
291
     0
 45
0.0
  0
VISUALSTYLE
  5
26F
102
{ACAD_REACTORS
330
267
102
}
330
267
100
AcDbVisualStyle
  2
Basic
 70
     7
 71
     1
 72
     0
 73
     1
 90
        0
 40
-0.6
 41
-30.0
 62
     5
 63
     7
421
 16777215
 74
     0
 91
        4
 64
     7
 65
   257
 75
     1
175
     1
 42
1.0
 92
        8
 66
     7
 43
1.0
 76
     1
 77
     6
 78
     2
 67
     7
 79
     5
170
     0
171
     0
290
     0
174
     0
 93
        1
 44
0.0
173
     0
291
     1
 45
0.0
  0
VISUALSTYLE
  5
273
102
{ACAD_REACTORS
330
267
102
}
330
267
100
AcDbVisualStyle
  2
Brighten
 70
    12
 71
     2
 72
     2
 73
     0
 90
        0
 40
-0.6
 41
-30.0
 62
     5
 63
     7
421
 16777215
 74
     1
 91
        4
 64
     7
 65
   257
 75
     1
175
     1
 42
1.0
 92
        8
 66
     7
 43
1.0
 76
     1
 77
     6
 78
     2
 67
     7
 79
     5
170
     0
171
     0
290
     0
174
     0
 93
        1
 44
50.0
173
     0
291
     1
 45
0.0
  0
VISUALSTYLE
  5
277
102
{ACAD_REACTORS
330
267
102
}
330
267
100
AcDbVisualStyle
  2
ColorChange
 70
    16
 71
     2
 72
     2
 73
     3
 90
        0
 40
-0.6
 41
-30.0
 62
     5
 63
     8
421
  8421504
 74
     1
 91
        4
 64
     7
 65
   257
 75
     1
175
     1
 42
1.0
 92
        8
 66
     8
424
  8421504
 43
1.0
 76
     1
 77
     6
 78
     2
 67
     7
 79
     5
170
     0
171
     0
290
     0
174
     0
 93
        1
 44
0.0
173
     0
291
     1
 45
0.0
  0
VISUALSTYLE
  5
271
102
{ACAD_REACTORS
330
267
102
}
330
267
100
AcDbVisualStyle
  2
Conceptual
 70
     9
 71
     3
 72
     2
 73
     0
 90
        0
 40
-0.6
 41
-30.0
 62
     5
 63
     7
421
 16777215
 74
     2
 91
        2
 64
     7
 65
   257
 75
     1
175
     1
 42
40.0
 92
        8
 66
     7
 43
1.0
 76
     1
 77
     6
 78
     2
 67
     7
 79
     3
170
     0
171
     0
290
     0
174
     0
 93
        1
 44
0.0
173
     0
291
     0
 45
0.0
  0
VISUALSTYLE
  5
272
102
{ACAD_REACTORS
330
267
102
}
330
267
100
AcDbVisualStyle
  2
Dim
 70
    11
 71
     2
 72
     2
 73
     0
 90
        0
 40
-0.6
 41
-30.0
 62
     5
 63
     7
421
 16777215
 74
     1
 91
        4
 64
     7
 65
   257
 75
     1
175
     1
 42
1.0
 92
        8
 66
     7
 43
1.0
 76
     1
 77
     6
 78
     2
 67
     7
 79
     5
170
     0
171
     0
290
     0
174
     0
 93
        1
 44
-50.0
173
     0
291
     1
 45
0.0
  0
VISUALSTYLE
  5
8BC
102
{ACAD_REACTORS
330
267
102
}
330
267
100
AcDbVisualStyle
  2
EdgeColorOff
 70
    22
 71
     2
 72
     2
 73
     0
 90
        0
 40
0.6
 41
30.0
 62
     5
 63
     7
421
 16777215
 74
     1
 91
        4
 64
     7
 65
   257
 75
     1
175
     1
 42
1.0
 92
        8
 66
     7
 43
1.0
 76
     1
 77
     6
 78
     2
 67
     7
 79
     5
170
     0
171
     0
290
     0
174
     0
 93
        1
 44
0.0
173
     0
291
     1
 45
0.0
  0
VISUALSTYLE
  5
276
102
{ACAD_REACTORS
330
267
102
}
330
267
100
AcDbVisualStyle
  2
Facepattern
 70
    15
 71
     2
 72
     2
 73
     0
 90
        0
 40
-0.6
 41
-30.0
 62
     5
 63
     7
421
 16777215
 74
     1
 91
        4
 64
     7
 65
   257
 75
     1
175
     1
 42
1.0
 92
        8
 66
     7
 43
1.0
 76
     1
 77
     6
 78
     2
 67
     7
 79
     5
170
     0
171
     0
290
     0
174
     0
 93
        1
 44
0.0
173
     0
291
     1
 45
0.0
  0
VISUALSTYLE
  5
268
102
{ACAD_REACTORS
330
267
102
}
330
267
100
AcDbVisualStyle
  2
Flat
 70
     0
 71
     2
 72
     1
 73
     1
 90
        2
 40
-0.6
 41
30.0
 62
     5
 63
     7
421
 16777215
 74
     0
 91
        4
 64
     7
 65
   257
 75
     1
175
     1
 42
1.0
 92
        8
 66
     7
 43
1.0
 76
     1
 77
     6
 78
     2
 67
     7
 79
     5
170
     0
171
     0
290
     0
174
     0
 93
       13
 44
0.0
173
     0
291
     1
 45
0.0
  0
VISUALSTYLE
  5
269
102
{ACAD_REACTORS
330
267
102
}
330
267
100
AcDbVisualStyle
  2
FlatWithEdges
 70
     1
 71
     2
 72
     1
 73
     1
 90
        2
 40
-0.6
 41
30.0
 62
     5
 63
     7
421
 16777215
 74
     1
 91
        4
 64
     7
 65
   257
 75
     1
175
     1
 42
1.0
 92
        0
 66
   257
 43
1.0
 76
     1
 77
     6
 78
     2
 67
     7
 79
     5
170
     0
171
     0
290
     0
174
     0
 93
       13
 44
0.0
173
     0
291
     1
 45
0.0
  0
VISUALSTYLE
  5
26A
102
{ACAD_REACTORS
330
267
102
}
330
267
100
AcDbVisualStyle
  2
Gouraud
 70
     2
 71
     2
 72
     2
 73
     1
 90
        2
 40
-0.6
 41
30.0
 62
     5
 63
     7
421
 16777215
 74
     0
 91
        4
 64
     7
 65
   257
 75
     1
175
     1
 42
1.0
 92
        0
 66
     7
 43
1.0
 76
     1
 77
     6
 78
     2
 67
     7
 79
     5
170
     0
171
     0
290
     0
174
     0
 93
       13
 44
0.0
173
     0
291
     1
 45
0.0
  0
VISUALSTYLE
  5
26B
102
{ACAD_REACTORS
330
267
102
}
330
267
100
AcDbVisualStyle
  2
GouraudWithEdges
 70
     3
 71
     2
 72
     2
 73
     1
 90
        2
 40
-0.6
 41
30.0
 62
     5
 63
     7
421
 16777215
 74
     1
 91
        4
 64
     7
 65
   257
 75
     1
175
     1
 42
1.0
 92
        0
 66
   257
 43
1.0
 76
     1
 77
     6
 78
     2
 67
     7
 79
     5
170
     0
171
     0
290
     0
174
     0
 93
       13
 44
0.0
173
     0
291
     1
 45
0.0
  0
VISUALSTYLE
  5
8B9
102
{ACAD_REACTORS
330
267
102
}
330
267
100
AcDbVisualStyle
  2
Hidden
 70
     6
 71
     1
 72
     2
 73
     2
 90
        0
 40
0.6
 41
30.0
 62
     5
 63
     7
421
 16777215
 74
     2
 91
        2
 64
     7
 65
   257
 75
     2
175
     1
 42
40.0
 92
        0
 66
   257
 43
1.0
 76
     1
 77
     6
 78
     2
 67
     7
 79
     3
170
     0
171
     0
290
     0
174
     0
 93
        1
 44
0.0
173
     0
291
     0
 45
0.0
  0
VISUALSTYLE
  5
8BA
102
{ACAD_REACTORS
330
267
102
}
330
267
100
AcDbVisualStyle
  2
JitterOff
 70
    20
 71
     2
 72
     2
 73
     0
 90
        0
 40
0.6
 41
30.0
 62
     5
 63
     7
421
 16777215
 74
     1
 91
        4
 64
     7
 65
   257
 75
     1
175
     1
 42
1.0
 92
       10
 66
     7
 43
1.0
 76
     1
 77
     6
 78
     2
 67
     7
 79
     5
170
     0
171
     0
290
     0
174
     0
 93
        1
 44
0.0
173
     0
291
     1
 45
0.0
  0
VISUALSTYLE
  5
275
102
{ACAD_REACTORS
330
267
102
}
330
267
100
AcDbVisualStyle
  2
Linepattern
 70
    14
 71
     2
 72
     2
 73
     0
 90
        0
 40
-0.6
 41
-30.0
 62
     5
 63
     7
421
 16777215
 74
     1
 91
        4
 64
     7
 65
   257
 75
     7
175
     7
 42
1.0
 92
        8
 66
     7
 43
1.0
 76
     1
 77
     6
 78
     2
 67
     7
 79
     5
170
     0
171
     0
290
     0
174
     0
 93
        1
 44
0.0
173
     0
291
     1
 45
0.0
  0
VISUALSTYLE
  5
8BB
102
{ACAD_REACTORS
330
267
102
}
330
267
100
AcDbVisualStyle
  2
OverhangOff
 70
    21
 71
     2
 72
     2
 73
     0
 90
        0
 40
0.6
 41
30.0
 62
     5
 63
     7
421
 16777215
 74
     1
 91
        4
 64
     7
 65
   257
 75
     1
175
     1
 42
1.0
 92
        9
 66
     7
 43
1.0
 76
     1
 77
     6
 78
     2
 67
     7
 79
     5
170
     0
171
     0
290
     0
174
     0
 93
        1
 44
0.0
173
     0
291
     1
 45
0.0
  0
VISUALSTYLE
  5
270
102
{ACAD_REACTORS
330
267
102
}
330
267
100
AcDbVisualStyle
  2
Realistic
 70
     8
 71
     2
 72
     2
 73
     0
 90
        0
 40
-0.6
 41
-30.0
 62
     5
 63
     7
421
 16777215
 74
     1
 91
        0
 64
     7
 65
   257
 75
     1
175
     1
 42
1.0
 92
        8
 66
     8
424
  7895160
 43
1.0
 76
     1
 77
     6
 78
     2
 67
     7
 79
     5
170
     0
171
     0
290
     0
174
     0
 93
       13
 44
0.0
173
     0
291
     0
 45
0.0
  0
VISUALSTYLE
  5
8C1
102
{ACAD_REACTORS
330
267
102
}
330
267
100
AcDbVisualStyle
  2
Shaded
 70
    27
 71
     2
 72
     2
 73
     1
 90
        2
 40
0.6
 41
30.0
 62
     5
 63
     7
421
 16777215
 74
     0
 91
        4
 64
     7
 65
   257
 75
     1
175
     1
 42
1.0
 92
        8
 66
   257
 43
1.0
 76
     1
 77
     6
 78
     2
 67
     8
425
  7895160
 79
     3
170
     0
171
     0
290
     0
174
     0
 93
        5
 44
0.0
173
     0
291
     0
 45
0.0
  0
VISUALSTYLE
  5
8C0
102
{ACAD_REACTORS
330
267
102
}
330
267
100
AcDbVisualStyle
  2
Shaded with edges
 70
    26
 71
     2
 72
     2
 73
     1
 90
        2
 40
0.6
 41
30.0
 62
     5
 63
     7
421
 16777215
 74
     1
 91
       10
 64
     7
 65
   257
 75
     2
175
     1
 42
1.0
 92
        8
 66
   257
 43
1.0
 76
     1
 77
     6
 78
     2
 67
     7
 79
     3
170
     0
171
     0
290
     0
174
     0
 93
        5
 44
0.0
173
     0
291
     0
 45
0.0
  0
VISUALSTYLE
  5
8BD
102
{ACAD_REACTORS
330
267
102
}
330
267
100
AcDbVisualStyle
  2
Shades of Gray
 70
    23
 71
     2
 72
     2
 73
     3
 90
        0
 40
0.6
 41
30.0
 62
     5
 63
     7
421
 16777215
 74
     2
 91
        2
 64
     7
 65
     7
 75
     1
175
     1
 42
40.0
 92
        8
 66
     7
 43
1.0
 76
     1
 77
     6
 78
     2
 67
     7
 79
     3
170
     0
171
     0
290
     0
174
     0
 93
        1
 44
0.0
173
     0
291
     0
 45
0.0
  0
VISUALSTYLE
  5
8BE
102
{ACAD_REACTORS
330
267
102
}
330
267
100
AcDbVisualStyle
  2
Sketchy
 70
    24
 71
     1
 72
     2
 73
     2
 90
        0
 40
0.6
 41
30.0
 62
     5
 63
     7
421
 16777215
 74
     2
 91
        2
 64
     7
 65
     7
 75
     1
175
     1
 42
40.0
 92
       11
 66
     7
 43
1.0
 76
     1
 77
     6
 78
     2
 67
     7
 79
     6
170
     0
171
     0
290
     0
174
     0
 93
        1
 44
0.0
173
     0
291
     0
 45
0.0
  0
VISUALSTYLE
  5
274
102
{ACAD_REACTORS
330
267
102
}
330
267
100
AcDbVisualStyle
  2
Thicken
 70
    13
 71
     2
 72
     2
 73
     0
 90
        0
 40
-0.6
 41
-30.0
 62
     5
 63
     7
421
 16777215
 74
     1
 91
        4
 64
     7
 65
   257
 75
     1
175
     1
 42
1.0
 92
       12
 66
     7
 43
1.0
 76
     1
 77
     6
 78
     2
 67
     7
 79
     5
170
     0
171
     0
290
     0
174
     0
 93
        1
 44
0.0
173
     0
291
     1
 45
0.0
  0
VISUALSTYLE
  5
8B8
102
{ACAD_REACTORS
330
267
102
}
330
267
100
AcDbVisualStyle
  2
Wireframe
 70
     5
 71
     0
 72
     2
 73
     0
 90
        0
 40
0.6
 41
30.0
 62
     5
 63
     7
421
 16777215
 74
     1
 91
        4
 64
     7
 65
   257
 75
     1
175
     1
 42
1.0
 92
        0
 66
   257
 43
1.0
 76
     1
 77
     6
 78
     2
 67
     7
 79
     3
170
     0
171
     0
290
     0
174
     0
 93
        1
 44
0.0
173
     0
291
     0
 45
0.0
  0
VISUALSTYLE
  5
8BF
102
{ACAD_REACTORS
330
267
102
}
330
267
100
AcDbVisualStyle
  2
X-Ray
 70
    25
 71
     2
 72
     2
 73
     1
 90
        1
 40
0.5
 41
30.0
 62
     5
 63
     7
421
 16777215
 74
     1
 91
        0
 64
     7
 65
   257
 75
     1
175
     1
 42
1.0
 92
        8
 66
     7
 43
1.0
 76
     1
 77
     6
 78
     2
 67
     7
 79
     3
170
     0
171
     0
290
     0
174
     0
 93
       13
 44
0.0
173
     0
291
     0
 45
0.0
  0
DICTIONARYVAR
  5
331
102
{ACAD_REACTORS
330
330
102
}
330
330
100
DictionaryVariables
280
     0
  1
1:1
  0
DICTIONARYVAR
  5
8DA
102
{ACAD_REACTORS
330
330
102
}
330
330
100
DictionaryVariables
280
     0
  1
Standard
  0
DICTIONARYVAR
  5
335
102
{ACAD_REACTORS
330
330
102
}
330
330
100
DictionaryVariables
280
     0
  1
Standard
  0
DICTIONARYVAR
  5
C07
102
{ACAD_REACTORS
330
330
102
}
330
330
100
DictionaryVariables
280
     0
  1
ByLayer
  0
DICTIONARYVAR
  5
64A
102
{ACAD_REACTORS
330
330
102
}
330
330
100
DictionaryVariables
280
     0
  1
0
  0
DICTIONARYVAR
  5
4342
102
{ACAD_REACTORS
330
C08
102
}
330
C08
100
DictionaryVariables
280
     0
  1
0.261799
  0
DICTIONARYVAR
  5
4340
102
{ACAD_REACTORS
330
C08
102
}
330
C08
100
DictionaryVariables
280
     0
  1
0.400000
  0
DICTIONARYVAR
  5
4341
102
{ACAD_REACTORS
330
C08
102
}
330
C08
100
DictionaryVariables
280
     0
  1
0.250000
  0
DICTIONARYVAR
  5
4343
102
{ACAD_REACTORS
330
C08
102
}
330
C08
100
DictionaryVariables
280
     0
  1
1
  0
FIELD
  5
BDE
102
{ACAD_REACTORS
330
731E
102
}
330
731E
100
AcDbField
  1
_text
  2
{%<\_FldIdx 0>%N}
 90
        1
360
BDF
 97
        0
 91
       63
 92
        0
 94
       11
 95
        2
 96
        0
300

 93
        1
  6
ACFD_FIELDTEXT_CHECKSUM
 93
        2
 90
        2
140
4507.0
 94
        0
300

302

304
ACVALUE_END
  7
ACFD_FIELD_VALUE
 93
        6
 90
        4
  1
{20190404N}
 94
        0
300

302

304
ACVALUE_END
301
{20190404N}
 98
       11
  0
DICTIONARY
  5
7340
330
279
100
AcDbDictionary
280
     1
281
     1
  3
ACAD_ROUNDTRIP_2008_TABLESTYLE_CELLSTYLEMAP
360
7341
  0
FIELD
  5
BDF
330
BDE
100
AcDbField
  1
AcVar
  2
\AcVar Date \f "yyyyMMdd"
 90
        0
 97
        0
 91
       63
 92
        0
 94
        8
 95
       64
 96
        0
300
Variable not supported
 93
        1
  6
Variable
 93
        2
 90
        4
  1
Date
 94
        0
300

302

304
ACVALUE_END
  7
ACFD_FIELD_VALUE
 93
        6
 90
        8
 92
       16
310
E3070400000004000A00040019000000
 94
        0
300
yyyyMMdd
302

304
ACVALUE_END
301
20190404
 98
        8
  0
CELLSTYLEMAP
  5
7341
102
{ACAD_REACTORS
330
7340
102
}
330
7340
100
AcDbCellStyleMap
 90
        3
300
CELLSTYLE
  1
TABLEFORMAT_BEGIN
 90
        5
170
     1
 91
        0
 92
    32768
 62
   257
 93
        1
300
CONTENTFORMAT
  1
CONTENTFORMAT_BEGIN
 90
        0
 91
        0
 92
        4
 93
        0
300

 40
0.0
140
1.0
 94
        5
 62
     0
340
17
144
6.0
309
CONTENTFORMAT_END
171
     1
301
MARGIN
  1
CELLMARGIN_BEGIN
 40
0.06
 40
0.06
 40
0.06
 40
0.06
 40
0.18
 40
0.18
309
CELLMARGIN_END
 94
        6
 95
        1
302
GRIDFORMAT
  1
GRIDFORMAT_BEGIN
 90
        0
 91
        1
 62
     0
 92
       -2
340
0
 93
        0
 40
0.045
309
GRIDFORMAT_END
 95
        2
302
GRIDFORMAT
  1
GRIDFORMAT_BEGIN
 90
        0
 91
        1
 62
     0
 92
       -2
340
0
 93
        0
 40
0.045
309
GRIDFORMAT_END
 95
        4
302
GRIDFORMAT
  1
GRIDFORMAT_BEGIN
 90
        0
 91
        1
 62
     0
 92
       -2
340
0
 93
        0
 40
0.045
309
GRIDFORMAT_END
 95
        8
302
GRIDFORMAT
  1
GRIDFORMAT_BEGIN
 90
        0
 91
        1
 62
     0
 92
       -2
340
0
 93
        0
 40
0.045
309
GRIDFORMAT_END
 95
       16
302
GRIDFORMAT
  1
GRIDFORMAT_BEGIN
 90
        0
 91
        1
 62
     0
 92
       -2
340
0
 93
        0
 40
0.045
309
GRIDFORMAT_END
 95
       32
302
GRIDFORMAT
  1
GRIDFORMAT_BEGIN
 90
        0
 91
        1
 62
     0
 92
       -2
340
0
 93
        0
 40
0.045
309
GRIDFORMAT_END
309
TABLEFORMAT_END
  1
CELLSTYLE_BEGIN
 90
        1
 91
        1
300
_TITLE
309
CELLSTYLE_END
300
CELLSTYLE
  1
TABLEFORMAT_BEGIN
 90
        5
170
     1
 91
        0
 92
        0
 62
   257
 93
        1
300
CONTENTFORMAT
  1
CONTENTFORMAT_BEGIN
 90
        0
 91
        0
 92
        4
 93
        0
300

 40
0.0
140
1.0
 94
        5
 62
     0
340
17
144
4.5
309
CONTENTFORMAT_END
171
     1
301
MARGIN
  1
CELLMARGIN_BEGIN
 40
0.06
 40
0.06
 40
0.06
 40
0.06
 40
0.18
 40
0.18
309
CELLMARGIN_END
 94
        6
 95
        1
302
GRIDFORMAT
  1
GRIDFORMAT_BEGIN
 90
        0
 91
        1
 62
     0
 92
       -2
340
0
 93
        0
 40
0.045
309
GRIDFORMAT_END
 95
        2
302
GRIDFORMAT
  1
GRIDFORMAT_BEGIN
 90
        0
 91
        1
 62
     0
 92
       -2
340
0
 93
        0
 40
0.045
309
GRIDFORMAT_END
 95
        4
302
GRIDFORMAT
  1
GRIDFORMAT_BEGIN
 90
        0
 91
        1
 62
     0
 92
       -2
340
0
 93
        0
 40
0.045
309
GRIDFORMAT_END
 95
        8
302
GRIDFORMAT
  1
GRIDFORMAT_BEGIN
 90
        0
 91
        1
 62
     0
 92
       -2
340
0
 93
        0
 40
0.045
309
GRIDFORMAT_END
 95
       16
302
GRIDFORMAT
  1
GRIDFORMAT_BEGIN
 90
        0
 91
        1
 62
     0
 92
       -2
340
0
 93
        0
 40
0.045
309
GRIDFORMAT_END
 95
       32
302
GRIDFORMAT
  1
GRIDFORMAT_BEGIN
 90
        0
 91
        1
 62
     0
 92
       -2
340
0
 93
        0
 40
0.045
309
GRIDFORMAT_END
309
TABLEFORMAT_END
  1
CELLSTYLE_BEGIN
 90
        2
 91
        1
300
_HEADER
309
CELLSTYLE_END
300
CELLSTYLE
  1
TABLEFORMAT_BEGIN
 90
        5
170
     1
 91
        0
 92
        0
 62
   257
 93
        1
300
CONTENTFORMAT
  1
CONTENTFORMAT_BEGIN
 90
        0
 91
        0
 92
        4
 93
        0
300

 40
0.0
140
1.0
 94
        2
 62
     0
340
17
144
4.5
309
CONTENTFORMAT_END
171
     1
301
MARGIN
  1
CELLMARGIN_BEGIN
 40
0.06
 40
0.06
 40
0.06
 40
0.06
 40
0.18
 40
0.18
309
CELLMARGIN_END
 94
        6
 95
        1
302
GRIDFORMAT
  1
GRIDFORMAT_BEGIN
 90
        0
 91
        1
 62
     0
 92
       -2
340
0
 93
        0
 40
0.045
309
GRIDFORMAT_END
 95
        2
302
GRIDFORMAT
  1
GRIDFORMAT_BEGIN
 90
        0
 91
        1
 62
     0
 92
       -2
340
0
 93
        0
 40
0.045
309
GRIDFORMAT_END
 95
        4
302
GRIDFORMAT
  1
GRIDFORMAT_BEGIN
 90
        0
 91
        1
 62
     0
 92
       -2
340
0
 93
        0
 40
0.045
309
GRIDFORMAT_END
 95
        8
302
GRIDFORMAT
  1
GRIDFORMAT_BEGIN
 90
        0
 91
        1
 62
     0
 92
       -2
340
0
 93
        0
 40
0.045
309
GRIDFORMAT_END
 95
       16
302
GRIDFORMAT
  1
GRIDFORMAT_BEGIN
 90
        0
 91
        1
 62
     0
 92
       -2
340
0
 93
        0
 40
0.045
309
GRIDFORMAT_END
 95
       32
302
GRIDFORMAT
  1
GRIDFORMAT_BEGIN
 90
        0
 91
        1
 62
     0
 92
       -2
340
0
 93
        0
 40
0.045
309
GRIDFORMAT_END
309
TABLEFORMAT_END
  1
CELLSTYLE_BEGIN
 90
        3
 91
        2
300
_DATA
309
CELLSTYLE_END
  0
ENDSEC
  0
EOF
