  0
SECTION
  2
HEADER
  9
$ACADVER
  1
AC1021
  9
$ACADMAINTVER
 70
    25
  9
$DWGCODEPAGE
  3
ANSI_932
  9
$LASTSAVEDBY
  1
howeNelson
  9
$INSBASE
 10
0.0
 20
0.0
 30
0.0
  9
$EXTMIN
 10
0.0
 20
0.0
 30
0.0
  9
$EXTMAX
 10
2100.0
 20
2970.0
 30
34.99521132346015
  9
$LIMMIN
 10
0.0
 20
0.0
  9
$LIMMAX
 10
2100.0
 20
2970.0
  9
$ORTHOMODE
 70
     0
  9
$REGENMODE
 70
     1
  9
$FILLMODE
 70
     1
  9
$QTEXTMODE
 70
     0
  9
$MIRRTEXT
 70
     1
  9
$LTSCALE
 40
5.0
  9
$ATTMODE
 70
     1
  9
$TEXTSIZE
 40
533.0403732820173
  9
$TRACEWID
 40
1.0
  9
$TEXTSTYLE
  7
Standard
  9
$CLAYER
  8
MODEL
  9
$CELTYPE
  6
ByLayer
  9
$CECOLOR
 62
   256
  9
$CELTSCALE
 40
1.0
  9
$DISPSILH
 70
     0
  9
$DIMSCALE
 40
1.0
  9
$DIMASZ
 40
9.999389648437498
  9
$DIMEXO
 40
25.0
  9
$DIMDLI
 40
0.9999999999999999
  9
$DIMRND
 40
0.0
  9
$DIMDLE
 40
0.0
  9
$DIMEXE
 40
0.0
  9
$DIMTP
 40
0.0
  9
$DIMTM
 40
0.0
  9
$DIMTXT
 40
24.4326171875
  9
$DIMCEN
 40
0.0
  9
$DIMTSZ
 40
0.0
  9
$DIMTOL
 70
     0
  9
$DIMLIM
 70
     0
  9
$DIMTIH
 70
     0
  9
$DIMTOH
 70
     0
  9
$DIMSE1
 70
     0
  9
$DIMSE2
 70
     0
  9
$DIMTAD
 70
     1
  9
$DIMZIN
 70
    11
  9
$DIMBLK
  1
DOT
  9
$DIMASO
 70
     1
  9
$DIMSHO
 70
     1
  9
$DIMPOST
  1
<>
  9
$DIMAPOST
  1
[]
  9
$DIMALT
 70
     0
  9
$DIMALTD
 70
     1
  9
$DIMALTF
 40
1.0
  9
$DIMLFAC
 40
1.0
  9
$DIMTOFL
 70
     1
  9
$DIMTVP
 40
0.0
  9
$DIMTIX
 70
     1
  9
$DIMSOXD
 70
     0
  9
$DIMSAH
 70
     0
  9
$DIMBLK1
  1

  9
$DIMBLK2
  1

  9
$DIMSTYLE
  2
tform線あり
  9
$DIMCLRD
 70
     0
  9
$DIMCLRE
 70
     0
  9
$DIMCLRT
 70
     0
  9
$DIMTFAC
 40
0.8
  9
$DIMGAP
 40
10.0
  9
$DIMJUST
 70
     0
  9
$DIMSD1
 70
     0
  9
$DIMSD2
 70
     0
  9
$DIMTOLJ
 70
     1
  9
$DIMTZIN
 70
    11
  9
$DIMALTZ
 70
    11
  9
$DIMALTTZ
 70
    11
  9
$DIMUPT
 70
     0
  9
$DIMDEC
 70
     1
  9
$DIMTDEC
 70
     1
  9
$DIMALTU
 70
     2
  9
$DIMALTTD
 70
     2
  9
$DIMTXSTY
  7
ＭＳ ゴシック
  9
$DIMAUNIT
 70
     0
  9
$DIMADEC
 70
     2
  9
$DIMALTRND
 40
0.0
  9
$DIMAZIN
 70
     0
  9
$DIMDSEP
 70
    46
  9
$DIMATFIT
 70
     0
  9
$DIMFRAC
 70
     2
  9
$DIMLDRBLK
  1
DOT
  9
$DIMLUNIT
 70
     2
  9
$DIMLWD
 70
    -2
  9
$DIMLWE
 70
    -2
  9
$DIMTMOVE
 70
     0
  9
$DIMFXL
 40
1.0
  9
$DIMFXLON
 70
     0
  9
$DIMJOGANG
 40
0.7853981633974483
  9
$DIMTFILL
 70
     0
  9
$DIMTFILLCLR
 70
     0
  9
$DIMARCSYM
 70
     0
  9
$DIMLTYPE
  6

  9
$DIMLTEX1
  6

  9
$DIMLTEX2
  6

  9
$LUNITS
 70
     2
  9
$LUPREC
 70
     0
  9
$SKETCHINC
 40
0.1
  9
$FILLETRAD
 40
0.0
  9
$AUNITS
 70
     0
  9
$AUPREC
 70
     0
  9
$MENU
  1
acad
  9
$ELEVATION
 40
0.0
  9
$PELEVATION
 40
0.0
  9
$THICKNESS
 40
0.0
  9
$LIMCHECK
 70
     0
  9
$CHAMFERA
 40
0.0
  9
$CHAMFERB
 40
0.0
  9
$CHAMFERC
 40
0.0
  9
$CHAMFERD
 40
0.0
  9
$SKPOLY
 70
     0
  9
$TDCREATE
 40
2447893.375
  9
$TDUCREATE
 40
0.0
  9
$TDUPDATE
 40
2458579.762488044
  9
$TDUUPDATE
 40
2458579.387488044
  9
$TDINDWG
 40
0.0
  9
$TDUSRTIMER
 40
0.0
  9
$USRTIMER
 70
     1
  9
$ANGBASE
 50
0.0
  9
$ANGDIR
 70
     0
  9
$PDMODE
 70
     1
  9
$PDSIZE
 40
-2.0
  9
$PLINEWID
 40
0.0
  9
$SPLFRAME
 70
     0
  9
$SPLINETYPE
 70
     6
  9
$SPLINESEGS
 70
     8
  9
$HANDSEED
  5
58BB
  9
$SURFTAB1
 70
     6
  9
$SURFTAB2
 70
     6
  9
$SURFTYPE
 70
     6
  9
$SURFU
 70
     6
  9
$SURFV
 70
     6
  9
$UCSBASE
  2

  9
$UCSNAME
  2

  9
$UCSORG
 10
0.0
 20
0.0
 30
0.0
  9
$UCSXDIR
 10
1.0
 20
0.0
 30
0.0
  9
$UCSYDIR
 10
0.0
 20
1.0
 30
0.0
  9
$UCSORTHOREF
  2

  9
$UCSORTHOVIEW
 70
     0
  9
$UCSORGTOP
 10
0.0
 20
0.0
 30
0.0
  9
$UCSORGBOTTOM
 10
0.0
 20
0.0
 30
0.0
  9
$UCSORGLEFT
 10
0.0
 20
0.0
 30
0.0
  9
$UCSORGRIGHT
 10
0.0
 20
0.0
 30
0.0
  9
$UCSORGFRONT
 10
0.0
 20
0.0
 30
0.0
  9
$UCSORGBACK
 10
0.0
 20
0.0
 30
0.0
  9
$PUCSBASE
  2

  9
$PUCSNAME
  2

  9
$PUCSORG
 10
0.0
 20
0.0
 30
0.0
  9
$PUCSXDIR
 10
1.0
 20
0.0
 30
0.0
  9
$PUCSYDIR
 10
0.0
 20
1.0
 30
0.0
  9
$PUCSORTHOREF
  2

  9
$PUCSORTHOVIEW
 70
     0
  9
$PUCSORGTOP
 10
0.0
 20
0.0
 30
0.0
  9
$PUCSORGBOTTOM
 10
0.0
 20
0.0
 30
0.0
  9
$PUCSORGLEFT
 10
0.0
 20
0.0
 30
0.0
  9
$PUCSORGRIGHT
 10
0.0
 20
0.0
 30
0.0
  9
$PUCSORGFRONT
 10
0.0
 20
0.0
 30
0.0
  9
$PUCSORGBACK
 10
0.0
 20
0.0
 30
0.0
  9
$USERI1
 70
     0
  9
$USERI2
 70
     0
  9
$USERI3
 70
     0
  9
$USERI4
 70
     0
  9
$USERI5
 70
     0
  9
$USERR1
 40
0.0
  9
$USERR2
 40
0.0
  9
$USERR3
 40
0.0
  9
$USERR4
 40
0.0
  9
$USERR5
 40
0.0
  9
$WORLDVIEW
 70
     1
  9
$SHADEDGE
 70
     3
  9
$SHADEDIF
 70
    70
  9
$TILEMODE
 70
     1
  9
$MAXACTVP
 70
    64
  9
$PINSBASE
 10
0.0
 20
0.0
 30
0.0
  9
$PLIMCHECK
 70
     0
  9
$PEXTMIN
 10
0.0
 20
0.0
 30
0.0
  9
$PEXTMAX
 10
0.0
 20
0.0
 30
0.0
  9
$PLIMMIN
 10
-7.5
 20
-20.0
  9
$PLIMMAX
 10
412.5
 20
277.0
  9
$UNITMODE
 70
     0
  9
$VISRETAIN
 70
     0
  9
$PLINEGEN
 70
     1
  9
$PSLTSCALE
 70
     0
  9
$TREEDEPTH
 70
  3020
  9
$CMLSTYLE
  2
Standard
  9
$CMLJUST
 70
     0
  9
$CMLSCALE
 40
1.0
  9
$PROXYGRAPHICS
 70
     0
  9
$MEASUREMENT
 70
     1
  9
$CELWEIGHT
370
    -1
  9
$ENDCAPS
280
     0
  9
$JOINSTYLE
280
     0
  9
$LWDISPLAY
290
     1
  9
$INSUNITS
 70
     4
  9
$HYPERLINKBASE
  1

  9
$STYLESHEET
  1

  9
$XEDIT
290
     1
  9
$CEPSNTYPE
380
     0
  9
$PSTYLEMODE
290
     1
  9
$FINGERPRINTGUID
  2

  9
$VERSIONGUID
  2

  9
$EXTNAMES
290
     1
  9
$PSVPSCALE
 40
0.0
  9
$OLESTARTUP
290
     0
  9
$SORTENTS
280
   127
  9
$INDEXCTL
280
     0
  9
$HIDETEXT
280
     1
  9
$XCLIPFRAME
290
     0
  9
$HALOGAP
280
     0
  9
$OBSCOLOR
 70
   257
  9
$OBSLTYPE
280
     0
  9
$INTERSECTIONDISPLAY
280
     0
  9
$INTERSECTIONCOLOR
 70
   257
  9
$DIMASSOC
280
     2
  9
$PROJECTNAME
  1

  9
$CAMERADISPLAY
290
     0
  9
$LENSLENGTH
 40
50.0
  9
$CAMERAHEIGHT
 40
0.0
  9
$STEPSPERSEC
 40
2.0
  9
$STEPSIZE
 40
6.0
  9
$3DDWFPREC
 40
2.0
  9
$PSOLWIDTH
 40
0.25
  9
$PSOLHEIGHT
 40
4.0
  9
$LOFTANG1
 40
1.570796326794897
  9
$LOFTANG2
 40
1.570796326794897
  9
$LOFTMAG1
 40
0.0
  9
$LOFTMAG2
 40
0.0
  9
$LOFTPARAM
 70
     7
  9
$LOFTNORMALS
280
     1
  9
$LATITUDE
 40
37.795
  9
$LONGITUDE
 40
-122.394
  9
$NORTHDIRECTION
 40
0.0
  9
$TIMEZONE
 70
 -8000
  9
$LIGHTGLYPHDISPLAY
280
     1
  9
$TILEMODELIGHTSYNCH
280
     1
  9
$SOLIDHIST
280
     1
  9
$SHOWHIST
280
     1
  9
$DWFFRAME
280
     2
  9
$DGNFRAME
280
     2
  9
$REALWORLDSCALE
290
     1
  9
$INTERFERECOLOR
 62
   256
  9
$CSHADOW
280
     0
  9
$SHADOWPLANELOCATION
 40
0.0
  0
ENDSEC
  0
SECTION
  2
CLASSES
  0
CLASS
  1
LWPOLYLINE
  2
AcDbPolyline
  3
ObjectDBX Classes
 90
        0
 91
        1
280
     0
281
     1
  0
CLASS
  1
IMAGE
  2
AcDbRasterImage
  3
ISM
 90
      127
 91
       17
280
     0
281
     1
  0
CLASS
  1
OLE2FRAME
  2
AcDbOle2Frame
  3
ObjectDBX Classes
 90
        0
 91
        1
280
     0
281
     1
  0
CLASS
  1
HATCH
  2
AcDbHatch
  3
ObjectDBX Classes
 90
        0
 91
        1
280
     0
281
     1
  0
CLASS
  1
DICTIONARYVAR
  2
AcDbDictionaryVar
  3
ObjectDBX Classes
 90
        0
 91
       16
280
     0
281
     0
  0
CLASS
  1
RASTERVARIABLES
  2
AcDbRasterVariables
  3
ISM
 90
        0
 91
       16
280
     0
281
     0
  0
CLASS
  1
IMAGEDEF
  2
AcDbRasterImageDef
  3
ISM
 90
        0
 91
       16
280
     0
281
     0
  0
CLASS
  1
IMAGEDEF_REACTOR
  2
AcDbRasterImageDefReactor
  3
ISM
 90
        1
 91
       16
280
     0
281
     0
  0
CLASS
  1
IDBUFFER
  2
AcDbIdBuffer
  3
ObjectDBX Classes
 90
        0
 91
       16
280
     0
281
     0
  0
CLASS
  1
SPATIAL_FILTER
  2
AcDbSpatialFilter
  3
ObjectDBX Classes
 90
        0
 91
       16
280
     0
281
     0
  0
CLASS
  1
XRECORD
  2
AcDbXrecord
  3
ObjectDBX Classes
 90
        0
 91
        1
280
     0
281
     0
  0
CLASS
  1
SORTENTSTABLE
  2
AcDbSortentsTable
  3
ObjectDBX Classes
 90
        0
 91
       16
280
     0
281
     0
  0
CLASS
  1
LAYER_INDEX
  2
AcDbLayerIndex
  3
ObjectDBX Classes
 90
        0
 91
       16
280
     0
281
     0
  0
CLASS
  1
SPATIAL_INDEX
  2
AcDbSpatialIndex
  3
AutoCAD 2000
 90
        0
 91
       16
280
     0
281
     0
  0
CLASS
  1
OBJECT_PTR
  2
CAseDLPNTableRecord
  3
ASE-LPNTableRecord
 90
        1
 91
       16
280
     0
281
     0
  0
CLASS
  1
LAYOUT
  2
AcDbLayout
  3
ObjectDBX Classes
 90
        0
 91
        1
280
     0
281
     0
  0
CLASS
  1
PLOTSETTINGS
  2
AcDbPlotSettings
  3
ObjectDBX Classes
 90
        0
 91
       16
280
     0
281
     0
  0
CLASS
  1
ACDBDICTIONARYWDFLT
  2
AcDbDictionaryWithDefault
  3
ObjectDBX Classes
 90
        0
 91
       16
280
     0
281
     0
  0
CLASS
  1
ACDBPLACEHOLDER
  2
AcDbPlaceHolder
  3
ObjectDBX Classes
 90
        0
 91
        1
280
     0
281
     0
  0
CLASS
  1
SCALE
  2
AcDbScale
  3
ObjectDBX Classes
 90
     1153
 91
       16
280
     0
281
     0
  0
CLASS
  1
MATERIAL
  2
AcDbMaterial
  3
ObjectDBX Classes
 90
     1153
 91
       16
280
     0
281
     0
  0
CLASS
  1
VISUALSTYLE
  2
AcDbVisualStyle
  3
ObjectDBX Classes
 90
     4095
 91
       16
280
     0
281
     0
  0
CLASS
  1
TABLESTYLE
  2
AcDbTableStyle
  3
ObjectDBX Classes
 90
     4095
 91
       16
280
     0
281
     0
  0
CLASS
  1
DIMASSOC
  2
AcDbDimAssoc
  3
"AcDbDimAssoc|Product Desc:     AcDim ARX App For Dimension|Company:          Autodesk, Inc.|WEB Address:      www.autodesk.com"
 90
        0
 91
       16
280
     0
281
     0
  0
CLASS
  1
CELLSTYLEMAP
  2
AcDbCellStyleMap
  3
ObjectDBX Classes
 90
     1152
 91
       16
280
     0
281
     0
  0
CLASS
  1
SUN
  2
AcDbSun
  3
SCENEOE
 90
     1153
 91
       16
280
     0
281
     0
  0
CLASS
  1
MLEADERSTYLE
  2
AcDbMLeaderStyle
  3
ACDB_MLEADERSTYLE_CLASS
 90
     4095
 91
       16
280
     0
281
     0
  0
CLASS
  1
FIELD
  2
AcDbField
  3
ObjectDBX Classes
 90
     1152
 91
       16
280
     0
281
     0
  0
CLASS
  1
FIELDLIST
  2
AcDbFieldList
  3
ObjectDBX Classes
 90
     1152
 91
       16
280
     0
281
     0
  0
CLASS
  1
ACDB_ALDIMOBJECTCONTEXTDATA_CLASS
  2
AcDbAlignedDimensionObjectContextData
  3
ObjectDBX Classes
 90
     1153
 91
       16
280
     0
281
     0
  0
ENDSEC
  0
SECTION
  2
TABLES
  0
TABLE
  2
VPORT
  5
7
330
0
100
AcDbSymbolTable
 70
     1
  0
VPORT
  5
15
330
7
100
AcDbSymbolTableRecord
100
AcDbViewportTableRecord
  2
*ACTIVE
 70
     0
 10
0.0
 20
0.0
 11
1.0
 21
1.0
 12
672.9525617540367
 22
1782.612370234514
 13
0.0
 23
0.0
 14
1.0
 24
1.0
 15
0.0
 25
0.0
 16
0.0
 26
0.0
 36
1.0
 17
377.0474382459633
 27
-297.6123702345144
 37
0.0
 40
3029.4
 41
2.341176470588235
 42
50.0
 43
0.0
 44
0.0
 50
0.0
 51
0.0
 71
    16
 72
  2000
 73
     1
 74
     1
 75
     0
 76
     0
 77
     0
 78
     0
281
     0
 65
     1
110
0.0
120
0.0
130
0.0
111
1.0
121
0.0
131
0.0
112
0.0
122
1.0
132
0.0
 79
     0
146
0.0
348
26C
 60
     3
 61
     5
292
     1
282
     1
141
0.0
142
0.0
 63
   256
361
8C2
  0
ENDTAB
  0
TABLE
  2
LTYPE
  5
4
330
0
100
AcDbSymbolTable
 70
     5
  0
LTYPE
  5
11
330
4
100
AcDbSymbolTableRecord
100
AcDbLinetypeTableRecord
  2
ByBlock
 70
     0
  3

 72
    65
 73
     0
 40
0.0
  0
LTYPE
  5
12
330
4
100
AcDbSymbolTableRecord
100
AcDbLinetypeTableRecord
  2
ByLayer
 70
     0
  3

 72
    65
 73
     0
 40
0.0
  0
LTYPE
  5
13
330
4
100
AcDbSymbolTableRecord
100
AcDbLinetypeTableRecord
  2
Continuous
 70
     0
  3
Solid line
 72
    65
 73
     0
 40
0.0
  0
LTYPE
  5
8D4
330
4
100
AcDbSymbolTableRecord
100
AcDbLinetypeTableRecord
  2
HIDDEN
 70
     0
  3
Hidden _ _ _ _ _ _ _ _ _ _ _ _ _ _ _ _ _ _ _ _ 
 72
    65
 73
     2
 40
9.524999999999999
 49
6.35
 74
     0
 49
-3.175
 74
     0
  0
LTYPE
  5
BF2
330
4
100
AcDbSymbolTableRecord
100
AcDbLinetypeTableRecord
  2
BORDER
 70
     0
  3
Border __  __  . __  __  . __  __  . __  __  . 
 72
    65
 73
     6
 40
44.45
 49
12.7
 74
     0
 49
-6.35
 74
     0
 49
12.7
 74
     0
 49
-6.35
 74
     0
 49
0.0
 74
     0
 49
-6.35
 74
     0
  0
LTYPE
  5
4115
330
4
100
AcDbSymbolTableRecord
100
AcDbLinetypeTableRecord
  2
CENTER
 70
     0
  3
 Center _____  _  _____  _  _____  _  _____  _ 
 72
    65
 73
     4
 40
50.8
 49
31.75
 74
     0
 49
-6.35
 74
     0
 49
6.35
 74
     0
 49
-6.35
 74
     0
  0
LTYPE
  5
4FFD
330
4
100
AcDbSymbolTableRecord
100
AcDbLinetypeTableRecord
  2
HIDDEN2
 70
     0
  3
Hidden (.5x) _ _ _ _ _ _ _ _ _ _ _ _ _ _ _ _ _ 
 72
    65
 73
     2
 40
4.762499999999999
 49
3.175
 74
     0
 49
-1.5875
 74
     0
  0
ENDTAB
  0
TABLE
  2
LAYER
  5
2
102
{ACAD_XDICTIONARY
360
2E1
102
}
330
0
100
AcDbSymbolTable
 70
    13
  0
LAYER
  5
14
330
2
100
AcDbSymbolTableRecord
100
AcDbLayerTableRecord
  2
0
 70
     0
 62
     7
  6
Continuous
370
    -3
390
1D
347
266
  0
LAYER
  5
4A
330
2
100
AcDbSymbolTableRecord
100
AcDbLayerTableRecord
  2
Defpoints
 70
     0
 62
     7
  6
Continuous
290
     0
370
    20
390
1D
347
266
  0
LAYER
  5
4B
330
2
100
AcDbSymbolTableRecord
100
AcDbLayerTableRecord
  2
template
 70
     0
 62
     7
  6
Continuous
370
    20
390
1D
347
266
  0
LAYER
  5
4D
330
2
100
AcDbSymbolTableRecord
100
AcDbLayerTableRecord
  2
MODEL
 70
     0
 62
     7
  6
Continuous
370
    20
390
1D
347
266
  0
LAYER
  5
382
330
2
100
AcDbSymbolTableRecord
100
AcDbLayerTableRecord
  2
レイヤー 1
 70
     0
 62
     7
  6
Continuous
370
    -3
390
1D
347
266
  0
LAYER
  5
5C4
330
2
100
AcDbSymbolTableRecord
100
AcDbLayerTableRecord
  2
HIDDEN
 70
     0
 62
   253
  6
HIDDEN
370
    20
390
1D
347
266
1001
AcAecLayerStandard
1000

1000

  0
LAYER
  5
5EB
330
2
100
AcDbSymbolTableRecord
100
AcDbLayerTableRecord
  2
Dim
 70
     0
 62
     3
  6
Continuous
370
    13
390
1D
347
266
1001
AcAecLayerStandard
1000

1000

  0
LAYER
  5
BF1
330
2
100
AcDbSymbolTableRecord
100
AcDbLayerTableRecord
  2
PRINT BORDER
 70
     0
 62
     4
  6
BORDER
290
     0
370
    20
390
1D
347
266
1001
AcAecLayerStandard
1000

1000

  0
LAYER
  5
1BD2
330
2
100
AcDbSymbolTableRecord
100
AcDbLayerTableRecord
  2
retino
 70
     0
 62
   253
  6
Continuous
370
     0
390
1D
347
266
  0
LAYER
  5
4FF7
102
{ACAD_XDICTIONARY
360
4FF8
102
}
330
2
100
AcDbSymbolTableRecord
100
AcDbLayerTableRecord
  2
Cartiglio e testi
 70
     0
 62
    40
  6
Continuous
370
    30
390
1D
347
266
  0
LAYER
  5
4FFA
102
{ACAD_XDICTIONARY
360
4FFB
102
}
330
2
100
AcDbSymbolTableRecord
100
AcDbLayerTableRecord
  2
tratteggio
 70
     0
 62
    74
  6
HIDDEN2
370
     0
390
1D
347
266
  0
LAYER
  5
4FFE
330
2
100
AcDbSymbolTableRecord
100
AcDbLayerTableRecord
  2
Quote
 70
     0
 62
     5
  6
Continuous
370
     0
390
1D
347
266
  0
LAYER
  5
4FFF
330
2
100
AcDbSymbolTableRecord
100
AcDbLayerTableRecord
  2
idraulica
 70
     0
 62
     4
  6
Continuous
370
    -3
390
1D
347
266
  0
ENDTAB
  0
TABLE
  2
STYLE
  5
3
330
0
100
AcDbSymbolTable
 70
     3
  0
STYLE
  5
17
330
3
100
AcDbSymbolTableRecord
100
AcDbTextStyleTableRecord
  2
Standard
 70
     0
 40
0.0
 41
1.0
 50
0.0
 71
     0
 42
533.0403732820173
  3
txt
  4
BIGFONT.SHX
  0
STYLE
  5
39
330
3
100
AcDbSymbolTableRecord
100
AcDbTextStyleTableRecord
  2
ＭＳ ゴシック
 70
     0
 40
0.0
 41
1.0
 50
0.0
 71
     0
 42
533.0403732820173
  3
msgothic.ttc
  4
ＭＳ ゴシック
1001
ACAD
1000
ＭＳ ゴシック
1071
        0
  0
STYLE
  5
500E
330
3
100
AcDbSymbolTableRecord
100
AcDbTextStyleTableRecord
  2
CONVERTER_2
 70
     0
 40
0.0
 41
1.0
 50
0.0
 71
     0
 42
533.0403732820173
  3
txt_____.ttf
  4

1001
ACAD
1000
txt
1071
        0
  0
ENDTAB
  0
TABLE
  2
VIEW
  5
5
330
0
100
AcDbSymbolTable
 70
     0
  0
ENDTAB
  0
TABLE
  2
UCS
  5
6
330
0
100
AcDbSymbolTable
 70
     0
  0
ENDTAB
  0
TABLE
  2
APPID
  5
8
330
0
100
AcDbSymbolTable
 70
    15
  0
APPID
  5
16
330
8
100
AcDbSymbolTableRecord
100
AcDbRegAppTableRecord
  2
ACAD
 70
     0
  0
APPID
  5
5C5
330
8
100
AcDbSymbolTableRecord
100
AcDbRegAppTableRecord
  2
AcAecLayerStandard
 70
     0
  0
APPID
  5
913
330
8
100
AcDbSymbolTableRecord
100
AcDbRegAppTableRecord
  2
ACAD_DSTYLE_DIMBREAK
 70
     0
  0
APPID
  5
914
330
8
100
AcDbSymbolTableRecord
100
AcDbRegAppTableRecord
  2
ACAD_DSTYLE_DIMJAG
 70
     0
  0
APPID
  5
915
330
8
100
AcDbSymbolTableRecord
100
AcDbRegAppTableRecord
  2
ACAD_DSTYLE_DIMTALN
 70
     0
  0
APPID
  5
E4F
330
8
100
AcDbSymbolTableRecord
100
AcDbRegAppTableRecord
  2
ACAD_MLEADERVER
 70
     0
  0
APPID
  5
E79
330
8
100
AcDbSymbolTableRecord
100
AcDbRegAppTableRecord
  2
ACAD_PSEXT
 70
     0
  0
APPID
  5
E7A
330
8
100
AcDbSymbolTableRecord
100
AcDbRegAppTableRecord
  2
ACAD_NAV_VCDISPLAY
 70
     0
  0
APPID
  5
166E
330
8
100
AcDbSymbolTableRecord
100
AcDbRegAppTableRecord
  2
AcadAnnotative
 70
     0
  0
APPID
  5
166F
330
8
100
AcDbSymbolTableRecord
100
AcDbRegAppTableRecord
  2
GradientColor1ACI
 70
     0
  0
APPID
  5
1670
330
8
100
AcDbSymbolTableRecord
100
AcDbRegAppTableRecord
  2
GradientColor2ACI
 70
     0
  0
APPID
  5
20FE
330
8
100
AcDbSymbolTableRecord
100
AcDbRegAppTableRecord
  2
AcLayerTools
 70
     0
  0
APPID
  5
27AB
330
8
100
AcDbSymbolTableRecord
100
AcDbRegAppTableRecord
  2
ACAD_DSTYLE_DIMRADIAL_EXTENSION
 70
     0
  0
APPID
  5
4377
330
8
100
AcDbSymbolTableRecord
100
AcDbRegAppTableRecord
  2
RAK
 70
     0
  0
APPID
  5
500B
330
8
100
AcDbSymbolTableRecord
100
AcDbRegAppTableRecord
  2
AcadAnnoAV
 70
     0
  0
ENDTAB
  0
TABLE
  2
DIMSTYLE
  5
9
330
0
100
AcDbSymbolTable
 70
     4
100
AcDbDimStyleTable
  0
DIMSTYLE
105
18
330
9
100
AcDbSymbolTableRecord
100
AcDbDimStyleTableRecord
  2
Standard
 70
     0
178
     0
340
17
  0
DIMSTYLE
105
56
102
{ACAD_REACTORS
330
53CF
330
53D0
330
53D1
330
53D2
330
53D3
330
53D9
330
53DA
330
53DC
330
53DD
330
53DE
330
53E1
330
53E2
330
54EE
330
5523
330
55CD
330
5657
330
5666
330
56B4
330
5702
330
571C
330
573B
330
5756
330
5765
330
5823
102
}
330
9
100
AcDbSymbolTableRecord
100
AcDbDimStyleTableRecord
  2
tform線あり
 70
     0
  3
<>
  4
[]
 41
9.999389648437498
 42
25.0
 43
0.9999999999999999
 44
0.0
 73
     0
 74
     0
 77
     1
 78
    11
140
24.4326171875
141
0.0
143
1.0
146
0.8
147
10.0
171
     1
172
     1
174
     1
178
     0
179
     2
271
     1
272
     1
276
     2
284
    11
285
    11
286
    11
289
     0
340
39
341
4E
342
4E
  0
DIMSTYLE
105
5001
330
9
100
AcDbSymbolTableRecord
100
AcDbDimStyleTableRecord
  2
scala  A3
 70
     0
 41
5.0
 42
0.625
 43
0.0
 44
1.25
 49
10.0
 90
        2
290
     1
 73
     0
 74
     0
 77
     1
 78
     8
140
6.0
141
2.5
143
0.03937007874016
147
2.0
171
     3
176
   256
177
   256
178
     0
271
     0
272
     0
274
     3
278
    44
283
     0
284
     8
340
17
371
    -1
372
     0
345
12
346
12
347
12
1001
ACAD_DSTYLE_DIMJAG
1070
   388
1040
1.5
1001
ACAD_DSTYLE_DIMTALN
1070
   392
1070
     0
  0
DIMSTYLE
105
5005
330
9
100
AcDbSymbolTableRecord
100
AcDbDimStyleTableRecord
  2
Standard1
 70
     0
 41
0.0
 42
5.0
 44
0.0
 73
     0
 74
     0
 77
     2
140
20.0
141
0.0
147
2.0
178
     0
271
     0
272
     0
340
17
341
5006
342
5006
1001
ACAD_DSTYLE_DIMJAG
1070
   388
1040
1.5
1001
ACAD_DSTYLE_DIMTALN
1070
   392
1070
     0
  0
ENDTAB
  0
TABLE
  2
BLOCK_RECORD
  5
1
330
0
100
AcDbSymbolTable
 70
   100
  0
BLOCK_RECORD
  5
A
102
{ACAD_XDICTIONARY
360
560A
102
}
330
1
100
AcDbSymbolTableRecord
100
AcDbBlockTableRecord
  2
*MODEL_SPACE
340
20
 70
     0
280
     1
281
     0
  0
BLOCK_RECORD
  5
B
330
1
100
AcDbSymbolTableRecord
100
AcDbBlockTableRecord
  2
*PAPER_SPACE
340
21
 70
     0
280
     1
281
     0
  0
BLOCK_RECORD
  5
4E
330
1
100
AcDbSymbolTableRecord
100
AcDbBlockTableRecord
  2
_DOT
340
0
102
{BLKREFS
331
48C9
331
48CA
331
4951
331
4952
331
495E
331
495F
331
496B
331
496C
331
4994
331
4995
331
4A57
331
4A58
331
4A69
331
4A6A
331
4A78
331
4A79
331
4ABE
331
4ABF
331
4ACD
331
4ACE
331
4ADC
331
4ADD
331
4B3D
331
4B3E
331
4B5C
331
4B5D
331
4B6C
331
4B6D
331
4B7A
331
4B7B
331
4B87
331
4B88
331
4BBD
331
4BBE
331
4C21
331
4C22
331
5411
331
5412
331
541B
331
541C
331
5425
331
5426
331
542F
331
5430
331
5439
331
543A
331
5443
331
5444
331
544D
331
544E
331
5457
331
5458
331
5461
331
5462
331
546B
331
546C
331
5475
331
5476
331
547F
331
5480
331
5489
331
548A
331
5493
331
5494
331
549D
331
549E
331
54A7
331
54A8
331
54B1
331
54B2
331
54F7
331
54F8
331
552B
331
552C
331
5537
331
5538
331
556D
331
556E
331
5579
331
557A
331
5585
331
5586
331
5591
331
5592
331
559D
331
559E
331
55A9
331
55AA
331
55B5
331
55B6
331
55C4
331
55C5
331
55D4
331
55D5
331
55E3
331
55E4
331
55F2
331
55F3
331
5601
331
5602
331
5651
331
5652
331
5660
331
5661
331
566F
331
5670
331
56AA
331
56AB
331
56BB
331
56BC
331
5709
331
570A
331
5725
331
5726
331
5744
331
5745
331
575F
331
5760
331
576E
331
576F
331
582F
331
0
331
582E
331
5845
331
5844
331
588A
331
5889
102
}
 70
     0
280
     1
281
     0
  0
BLOCK_RECORD
  5
3A5
330
1
100
AcDbSymbolTableRecord
100
AcDbBlockTableRecord
  2
名称未設定-1
340
0
102
{BLKREFS
331
3D0
102
}
 70
     1
280
     1
281
     0
  0
BLOCK_RECORD
  5
3A8
330
1
100
AcDbSymbolTableRecord
100
AcDbBlockTableRecord
  2
block 2
340
0
102
{BLKREFS
331
3A7
102
}
 70
     0
280
     1
281
     0
  0
BLOCK_RECORD
  5
3AB
330
1
100
AcDbSymbolTableRecord
100
AcDbBlockTableRecord
  2
block 3
340
0
102
{BLKREFS
331
3AA
102
}
 70
     0
280
     1
281
     0
  0
BLOCK_RECORD
  5
3AE
330
1
100
AcDbSymbolTableRecord
100
AcDbBlockTableRecord
  2
block 4
340
0
102
{BLKREFS
331
3AD
102
}
 70
     0
280
     1
281
     0
  0
BLOCK_RECORD
  5
3BD
330
1
100
AcDbSymbolTableRecord
100
AcDbBlockTableRecord
  2
block 5
340
0
102
{BLKREFS
331
3BC
102
}
 70
     0
280
     1
281
     0
  0
BLOCK_RECORD
  5
11F0
330
1
100
AcDbSymbolTableRecord
100
AcDbBlockTableRecord
  2
BLOCK_2
340
0
102
{BLKREFS
331
1273
331
127B
331
127C
102
}
 70
     0
280
     1
281
     0
  0
BLOCK_RECORD
  5
38B6
330
1
100
AcDbSymbolTableRecord
100
AcDbBlockTableRecord
  2
mobile_latù
340
0
310
2800000020000000200000000100080000000000000400000000000000000000000000000000000000000000000080000080000000808000800000008000800080800000C0C0C000C0DCC000F0CAA6000020400000206000002080000020A0000020C0000020E00000400000004020000040400000406000004080000040A0
310
000040C0000040E00000600000006020000060400000606000006080000060A0000060C0000060E00000800000008020000080400000806000008080000080A0000080C0000080E00000A0000000A0200000A0400000A0600000A0800000A0A00000A0C00000A0E00000C0000000C0200000C0400000C0600000C0800000C0
310
A00000C0C00000C0E00000E0000000E0200000E0400000E0600000E0800000E0A00000E0C00000E0E00040000000400020004000400040006000400080004000A0004000C0004000E00040200000402020004020400040206000402080004020A0004020C0004020E000404000004040200040404000404060004040800040
310
40A0004040C0004040E00040600000406020004060400040606000406080004060A0004060C0004060E00040800000408020004080400040806000408080004080A0004080C0004080E00040A0000040A0200040A0400040A0600040A0800040A0A00040A0C00040A0E00040C0000040C0200040C0400040C0600040C08000
310
40C0A00040C0C00040C0E00040E0000040E0200040E0400040E0600040E0800040E0A00040E0C00040E0E00080000000800020008000400080006000800080008000A0008000C0008000E00080200000802020008020400080206000802080008020A0008020C0008020E00080400000804020008040400080406000804080
310
008040A0008040C0008040E00080600000806020008060400080606000806080008060A0008060C0008060E00080800000808020008080400080806000808080008080A0008080C0008080E00080A0000080A0200080A0400080A0600080A0800080A0A00080A0C00080A0E00080C0000080C0200080C0400080C0600080C0
310
800080C0A00080C0C00080C0E00080E0000080E0200080E0400080E0600080E0800080E0A00080E0C00080E0E000C0000000C0002000C0004000C0006000C0008000C000A000C000C000C000E000C0200000C0202000C0204000C0206000C0208000C020A000C020C000C020E000C0400000C0402000C0404000C0406000C0
310
408000C040A000C040C000C040E000C0600000C0602000C0604000C0606000C0608000C060A000C060C000C060E000C0800000C0802000C0804000C0806000C0808000C080A000C080C000C080E000C0A00000C0A02000C0A04000C0A06000C0A08000C0A0A000C0A0C000C0A0E000C0C00000C0C02000C0C04000C0C06000
310
C0C08000C0C0A000F0FBFF00A4A0A000808080000000FF0000FF000000FFFF00FF000000FF00FF00FFFF0000FFFFFF0049494949494949494949494949494949494949494949494949494949494949494949494949494949494949494949494949494949494949494949494949494949494949494949494949494949494949
310
49494949494949494949494949494949494949494949494949494949494949494949494949494949494949494949494949494949494949494949494949494949494949494949494949494949494949494949FAFAFAFAFAFAFAFAFAFAFAFAFAFAFAFAFAFAFAFAFAFAFAFAFAFAFAFAFAFA4949FAFA4949494949494949494949
310
494949494949494949494949494949FAFA4949FAFA4949494949494949494949494949494949494949494949494949FAFA4949FAFA4949494949494949494949494949494949494949494949494949FAFA4949FAFA4949494949494949494949494949494949494949494949494949FAFA4949FAFA49494949494949494949
310
49494949494949494949494949494949FAFA4949FAFA4949494949494949494949494949494949494949494949494949FAFA4949FAFA4949494949494949494949494949494949494949494949494949FAFA4949FAFA4949494949494949494949494949494949494949494949494949FAFA4949FAFA494949494949494949
310
4949494949494949494949494949494949FAFA4949FAFA4949494949494949494949494949494949494949494949494949FAFA4949FAFA4949494949494949494949494949494949494949494949494949FAFA4949FAFA4949494949494949494949494949494949494949494949494949FAFA4949FAFA4949494949494949
310
494949494949494949494949494949494949FAFA4949FAFA4949494949494949494949494949494949494949494949494949FAFA4949FAFA4949494949494949494949494949494949494949494949494949FAFA4949FAFA4949494949494949494949494949494949494949494949494949FAFA4949FAFA49494949494949
310
49494949494949494949494949494949494949FAFA4949FAFAFAFAFAFAFAFAFAFAFAFAFAFAFAFAFAFAFAFAFAFAFAFAFAFAFAFAFAFA4949FAFAFAFAFAFAFAFAFAFAFAFAFAFAFAFAFAFAFAFAFAFAFAFAFAFAFAFAFAFA4949FAFA4949494949494949494949494949494949494949494949494949FAFA4949FAFAFAFAFAFAFAFA
310
FAFAFAFAFAFAFAFAFAFAFAFAFAFAFAFAFAFAFAFAFAFA494949494949494949494949494949494949494949494949494949494949494949494949494949494949494949494949494949494949494949494949494949494949494949494949494949494949494949494949494949494949494949494949494949494949494949
310
4949494949494949494949494949494949494949494949494949494949494949494949494949494949494949494949494949494949494949
102
{BLKREFS
331
3B99
331
467E
331
527B
102
}
 70
     4
280
     1
281
     0
  0
BLOCK_RECORD
  5
48C3
330
1
100
AcDbSymbolTableRecord
100
AcDbBlockTableRecord
  2
*D8
340
0
 70
     0
280
     1
281
     0
  0
BLOCK_RECORD
  5
494B
330
1
100
AcDbSymbolTableRecord
100
AcDbBlockTableRecord
  2
*D9
340
0
 70
     0
280
     1
281
     0
  0
BLOCK_RECORD
  5
4958
330
1
100
AcDbSymbolTableRecord
100
AcDbBlockTableRecord
  2
*D10
340
0
 70
     0
280
     1
281
     0
  0
BLOCK_RECORD
  5
4965
330
1
100
AcDbSymbolTableRecord
100
AcDbBlockTableRecord
  2
*D11
340
0
 70
     0
280
     1
281
     0
  0
BLOCK_RECORD
  5
498E
330
1
100
AcDbSymbolTableRecord
100
AcDbBlockTableRecord
  2
*D12
340
0
 70
     0
280
     1
281
     0
  0
BLOCK_RECORD
  5
4A51
330
1
100
AcDbSymbolTableRecord
100
AcDbBlockTableRecord
  2
*D13
340
0
 70
     0
280
     1
281
     0
  0
BLOCK_RECORD
  5
4A63
330
1
100
AcDbSymbolTableRecord
100
AcDbBlockTableRecord
  2
*D14
340
0
 70
     0
280
     1
281
     0
  0
BLOCK_RECORD
  5
4A72
330
1
100
AcDbSymbolTableRecord
100
AcDbBlockTableRecord
  2
*D15
340
0
 70
     0
280
     1
281
     0
  0
BLOCK_RECORD
  5
4AB8
330
1
100
AcDbSymbolTableRecord
100
AcDbBlockTableRecord
  2
*D16
340
0
 70
     0
280
     1
281
     0
  0
BLOCK_RECORD
  5
4AC7
330
1
100
AcDbSymbolTableRecord
100
AcDbBlockTableRecord
  2
*D17
340
0
 70
     0
280
     1
281
     0
  0
BLOCK_RECORD
  5
4AD6
330
1
100
AcDbSymbolTableRecord
100
AcDbBlockTableRecord
  2
*D18
340
0
 70
     0
280
     1
281
     0
  0
BLOCK_RECORD
  5
4B37
330
1
100
AcDbSymbolTableRecord
100
AcDbBlockTableRecord
  2
*D19
340
0
 70
     0
280
     1
281
     0
  0
BLOCK_RECORD
  5
4B56
330
1
100
AcDbSymbolTableRecord
100
AcDbBlockTableRecord
  2
*D20
340
0
 70
     0
280
     1
281
     0
  0
BLOCK_RECORD
  5
4B64
330
1
100
AcDbSymbolTableRecord
100
AcDbBlockTableRecord
  2
*D21
340
0
 70
     0
280
     1
281
     0
  0
BLOCK_RECORD
  5
4B74
330
1
100
AcDbSymbolTableRecord
100
AcDbBlockTableRecord
  2
*D22
340
0
 70
     0
280
     1
281
     0
  0
BLOCK_RECORD
  5
4B81
330
1
100
AcDbSymbolTableRecord
100
AcDbBlockTableRecord
  2
*D23
340
0
 70
     0
280
     1
281
     0
  0
BLOCK_RECORD
  5
4BB7
330
1
100
AcDbSymbolTableRecord
100
AcDbBlockTableRecord
  2
*D24
340
0
 70
     0
280
     1
281
     0
  0
BLOCK_RECORD
  5
4C1B
330
1
100
AcDbSymbolTableRecord
100
AcDbBlockTableRecord
  2
*D25
340
0
 70
     0
280
     1
281
     0
  0
BLOCK_RECORD
  5
5006
330
1
100
AcDbSymbolTableRecord
100
AcDbBlockTableRecord
  2
_None
340
0
 70
     0
280
     1
281
     0
  0
BLOCK_RECORD
  5
5039
330
1
100
AcDbSymbolTableRecord
100
AcDbBlockTableRecord
  2
.TD_SECTION_1
340
0
102
{BLKREFS
331
527C
331
527E
331
5280
331
5282
331
5284
331
5286
102
}
 70
     0
280
     1
281
     0
  0
BLOCK_RECORD
  5
503D
330
1
100
AcDbSymbolTableRecord
100
AcDbBlockTableRecord
  2
.TD_SECTION_2
340
0
102
{BLKREFS
331
527D
331
527F
331
5281
331
5283
331
5285
331
5287
102
}
 70
     0
280
     1
281
     0
  0
BLOCK_RECORD
  5
517F
330
1
100
AcDbSymbolTableRecord
100
AcDbBlockTableRecord
  2
*D29
340
0
 70
     0
280
     1
281
     0
  0
BLOCK_RECORD
  5
5198
330
1
100
AcDbSymbolTableRecord
100
AcDbBlockTableRecord
  2
*D30
340
0
 70
     0
280
     1
281
     0
  0
BLOCK_RECORD
  5
51A3
330
1
100
AcDbSymbolTableRecord
100
AcDbBlockTableRecord
  2
*D31
340
0
 70
     0
280
     1
281
     0
  0
BLOCK_RECORD
  5
51AE
330
1
100
AcDbSymbolTableRecord
100
AcDbBlockTableRecord
  2
*D32
340
0
 70
     0
280
     1
281
     0
  0
BLOCK_RECORD
  5
51BA
330
1
100
AcDbSymbolTableRecord
100
AcDbBlockTableRecord
  2
*D33
340
0
 70
     0
280
     1
281
     0
  0
BLOCK_RECORD
  5
51C5
330
1
100
AcDbSymbolTableRecord
100
AcDbBlockTableRecord
  2
*D34
340
0
 70
     0
280
     1
281
     0
  0
BLOCK_RECORD
  5
51D0
330
1
100
AcDbSymbolTableRecord
100
AcDbBlockTableRecord
  2
*D35
340
0
 70
     0
280
     1
281
     0
  0
BLOCK_RECORD
  5
51DB
330
1
100
AcDbSymbolTableRecord
100
AcDbBlockTableRecord
  2
*D36
340
0
 70
     0
280
     1
281
     0
  0
BLOCK_RECORD
  5
51E6
330
1
100
AcDbSymbolTableRecord
100
AcDbBlockTableRecord
  2
*D37
340
0
 70
     0
280
     1
281
     0
  0
BLOCK_RECORD
  5
51F1
330
1
100
AcDbSymbolTableRecord
100
AcDbBlockTableRecord
  2
*D38
340
0
 70
     0
280
     1
281
     0
  0
BLOCK_RECORD
  5
51FC
330
1
100
AcDbSymbolTableRecord
100
AcDbBlockTableRecord
  2
*D39
340
0
 70
     0
280
     1
281
     0
  0
BLOCK_RECORD
  5
520A
330
1
100
AcDbSymbolTableRecord
100
AcDbBlockTableRecord
  2
*D40
340
0
 70
     0
280
     1
281
     0
  0
BLOCK_RECORD
  5
5215
330
1
100
AcDbSymbolTableRecord
100
AcDbBlockTableRecord
  2
*D41
340
0
 70
     0
280
     1
281
     0
  0
BLOCK_RECORD
  5
5220
330
1
100
AcDbSymbolTableRecord
100
AcDbBlockTableRecord
  2
*D42
340
0
 70
     0
280
     1
281
     0
  0
BLOCK_RECORD
  5
522B
330
1
100
AcDbSymbolTableRecord
100
AcDbBlockTableRecord
  2
*D43
340
0
 70
     0
280
     1
281
     0
  0
BLOCK_RECORD
  5
5236
330
1
100
AcDbSymbolTableRecord
100
AcDbBlockTableRecord
  2
*D44
340
0
 70
     0
280
     1
281
     0
  0
BLOCK_RECORD
  5
5241
330
1
100
AcDbSymbolTableRecord
100
AcDbBlockTableRecord
  2
*D45
340
0
 70
     0
280
     1
281
     0
  0
BLOCK_RECORD
  5
524C
330
1
100
AcDbSymbolTableRecord
100
AcDbBlockTableRecord
  2
*D46
340
0
 70
     0
280
     1
281
     0
  0
BLOCK_RECORD
  5
5257
330
1
100
AcDbSymbolTableRecord
100
AcDbBlockTableRecord
  2
*D47
340
0
 70
     0
280
     1
281
     0
  0
BLOCK_RECORD
  5
5262
330
1
100
AcDbSymbolTableRecord
100
AcDbBlockTableRecord
  2
*D48
340
0
 70
     0
280
     1
281
     0
  0
BLOCK_RECORD
  5
526D
330
1
100
AcDbSymbolTableRecord
100
AcDbBlockTableRecord
  2
*D49
340
0
 70
     0
280
     1
281
     0
  0
BLOCK_RECORD
  5
53E3
330
1
100
AcDbSymbolTableRecord
100
AcDbBlockTableRecord
  2
*D50
340
0
 70
     0
280
     1
281
     0
  0
BLOCK_RECORD
  5
53ED
330
1
100
AcDbSymbolTableRecord
100
AcDbBlockTableRecord
  2
*D51
340
0
 70
     0
280
     1
281
     0
  0
BLOCK_RECORD
  5
53F7
330
1
100
AcDbSymbolTableRecord
100
AcDbBlockTableRecord
  2
*D52
340
0
 70
     0
280
     1
281
     0
  0
BLOCK_RECORD
  5
5401
330
1
100
AcDbSymbolTableRecord
100
AcDbBlockTableRecord
  2
*D53
340
0
 70
     0
280
     1
281
     0
  0
BLOCK_RECORD
  5
540B
330
1
100
AcDbSymbolTableRecord
100
AcDbBlockTableRecord
  2
*D54
340
0
 70
     0
280
     1
281
     0
  0
BLOCK_RECORD
  5
5415
330
1
100
AcDbSymbolTableRecord
100
AcDbBlockTableRecord
  2
*D55
340
0
 70
     0
280
     1
281
     0
  0
BLOCK_RECORD
  5
541F
330
1
100
AcDbSymbolTableRecord
100
AcDbBlockTableRecord
  2
*D56
340
0
 70
     0
280
     1
281
     0
  0
BLOCK_RECORD
  5
5429
330
1
100
AcDbSymbolTableRecord
100
AcDbBlockTableRecord
  2
*D57
340
0
 70
     0
280
     1
281
     0
  0
BLOCK_RECORD
  5
5433
330
1
100
AcDbSymbolTableRecord
100
AcDbBlockTableRecord
  2
*D58
340
0
 70
     0
280
     1
281
     0
  0
BLOCK_RECORD
  5
543D
330
1
100
AcDbSymbolTableRecord
100
AcDbBlockTableRecord
  2
*D59
340
0
 70
     0
280
     1
281
     0
  0
BLOCK_RECORD
  5
5447
330
1
100
AcDbSymbolTableRecord
100
AcDbBlockTableRecord
  2
*D60
340
0
 70
     0
280
     1
281
     0
  0
BLOCK_RECORD
  5
5451
330
1
100
AcDbSymbolTableRecord
100
AcDbBlockTableRecord
  2
*D61
340
0
 70
     0
280
     1
281
     0
  0
BLOCK_RECORD
  5
545B
330
1
100
AcDbSymbolTableRecord
100
AcDbBlockTableRecord
  2
*D62
340
0
 70
     0
280
     1
281
     0
  0
BLOCK_RECORD
  5
5465
330
1
100
AcDbSymbolTableRecord
100
AcDbBlockTableRecord
  2
*D63
340
0
 70
     0
280
     1
281
     0
  0
BLOCK_RECORD
  5
546F
330
1
100
AcDbSymbolTableRecord
100
AcDbBlockTableRecord
  2
*D64
340
0
 70
     0
280
     1
281
     0
  0
BLOCK_RECORD
  5
5479
330
1
100
AcDbSymbolTableRecord
100
AcDbBlockTableRecord
  2
*D65
340
0
 70
     0
280
     1
281
     0
  0
BLOCK_RECORD
  5
5483
330
1
100
AcDbSymbolTableRecord
100
AcDbBlockTableRecord
  2
*D66
340
0
 70
     0
280
     1
281
     0
  0
BLOCK_RECORD
  5
548D
330
1
100
AcDbSymbolTableRecord
100
AcDbBlockTableRecord
  2
*D67
340
0
 70
     0
280
     1
281
     0
  0
BLOCK_RECORD
  5
5497
330
1
100
AcDbSymbolTableRecord
100
AcDbBlockTableRecord
  2
*D68
340
0
 70
     0
280
     1
281
     0
  0
BLOCK_RECORD
  5
54A1
330
1
100
AcDbSymbolTableRecord
100
AcDbBlockTableRecord
  2
*D69
340
0
 70
     0
280
     1
281
     0
  0
BLOCK_RECORD
  5
54AB
330
1
100
AcDbSymbolTableRecord
100
AcDbBlockTableRecord
  2
*D70
340
0
 70
     0
280
     1
281
     0
  0
BLOCK_RECORD
  5
54F1
330
1
100
AcDbSymbolTableRecord
100
AcDbBlockTableRecord
  2
*D71
340
0
 70
     0
280
     1
281
     0
  0
BLOCK_RECORD
  5
5525
330
1
100
AcDbSymbolTableRecord
100
AcDbBlockTableRecord
  2
*D72
340
0
 70
     0
280
     1
281
     0
  0
BLOCK_RECORD
  5
5531
330
1
100
AcDbSymbolTableRecord
100
AcDbBlockTableRecord
  2
*D73
340
0
 70
     0
280
     1
281
     0
  0
BLOCK_RECORD
  5
5567
330
1
100
AcDbSymbolTableRecord
100
AcDbBlockTableRecord
  2
*D74
340
0
 70
     0
280
     1
281
     0
  0
BLOCK_RECORD
  5
5573
330
1
100
AcDbSymbolTableRecord
100
AcDbBlockTableRecord
  2
*D75
340
0
 70
     0
280
     1
281
     0
  0
BLOCK_RECORD
  5
557F
330
1
100
AcDbSymbolTableRecord
100
AcDbBlockTableRecord
  2
*D76
340
0
 70
     0
280
     1
281
     0
  0
BLOCK_RECORD
  5
558B
330
1
100
AcDbSymbolTableRecord
100
AcDbBlockTableRecord
  2
*D77
340
0
 70
     0
280
     1
281
     0
  0
BLOCK_RECORD
  5
5597
330
1
100
AcDbSymbolTableRecord
100
AcDbBlockTableRecord
  2
*D78
340
0
 70
     0
280
     1
281
     0
  0
BLOCK_RECORD
  5
55A3
330
1
100
AcDbSymbolTableRecord
100
AcDbBlockTableRecord
  2
*D79
340
0
 70
     0
280
     1
281
     0
  0
BLOCK_RECORD
  5
55AF
330
1
100
AcDbSymbolTableRecord
100
AcDbBlockTableRecord
  2
*D80
340
0
 70
     0
280
     1
281
     0
  0
BLOCK_RECORD
  5
55BE
330
1
100
AcDbSymbolTableRecord
100
AcDbBlockTableRecord
  2
*D81
340
0
 70
     0
280
     1
281
     0
  0
BLOCK_RECORD
  5
55CE
330
1
100
AcDbSymbolTableRecord
100
AcDbBlockTableRecord
  2
*D82
340
0
 70
     0
280
     1
281
     0
  0
BLOCK_RECORD
  5
55DD
330
1
100
AcDbSymbolTableRecord
100
AcDbBlockTableRecord
  2
*D83
340
0
 70
     0
280
     1
281
     0
  0
BLOCK_RECORD
  5
55EC
330
1
100
AcDbSymbolTableRecord
100
AcDbBlockTableRecord
  2
*D84
340
0
 70
     0
280
     1
281
     0
  0
BLOCK_RECORD
  5
55FB
330
1
100
AcDbSymbolTableRecord
100
AcDbBlockTableRecord
  2
*D85
340
0
 70
     0
280
     1
281
     0
  0
BLOCK_RECORD
  5
564B
330
1
100
AcDbSymbolTableRecord
100
AcDbBlockTableRecord
  2
*D86
340
0
 70
     0
280
     1
281
     0
  0
BLOCK_RECORD
  5
565A
330
1
100
AcDbSymbolTableRecord
100
AcDbBlockTableRecord
  2
*D87
340
0
 70
     0
280
     1
281
     0
  0
BLOCK_RECORD
  5
5669
330
1
100
AcDbSymbolTableRecord
100
AcDbBlockTableRecord
  2
*D88
340
0
 70
     0
280
     1
281
     0
  0
BLOCK_RECORD
  5
56A5
330
1
100
AcDbSymbolTableRecord
100
AcDbBlockTableRecord
  2
*D89
340
0
 70
     0
280
     1
281
     0
  0
BLOCK_RECORD
  5
56B5
330
1
100
AcDbSymbolTableRecord
100
AcDbBlockTableRecord
  2
*D90
340
0
 70
     0
280
     1
281
     0
  0
BLOCK_RECORD
  5
5703
330
1
100
AcDbSymbolTableRecord
100
AcDbBlockTableRecord
  2
*D91
340
0
 70
     0
280
     1
281
     0
  0
BLOCK_RECORD
  5
571F
330
1
100
AcDbSymbolTableRecord
100
AcDbBlockTableRecord
  2
*D92
340
0
 70
     0
280
     1
281
     0
  0
BLOCK_RECORD
  5
573E
330
1
100
AcDbSymbolTableRecord
100
AcDbBlockTableRecord
  2
*D93
340
0
 70
     0
280
     1
281
     0
  0
BLOCK_RECORD
  5
5759
330
1
100
AcDbSymbolTableRecord
100
AcDbBlockTableRecord
  2
*D94
340
0
 70
     0
280
     1
281
     0
  0
BLOCK_RECORD
  5
5768
330
1
100
AcDbSymbolTableRecord
100
AcDbBlockTableRecord
  2
*D95
340
0
 70
     0
280
     1
281
     0
  0
BLOCK_RECORD
  5
5826
330
1
100
AcDbSymbolTableRecord
100
AcDbBlockTableRecord
  2
*D96
340
0
 70
     0
280
     1
281
     0
  0
BLOCK_RECORD
  5
583E
330
1
100
AcDbSymbolTableRecord
100
AcDbBlockTableRecord
  2
*D97
340
0
 70
     0
280
     1
281
     0
  0
BLOCK_RECORD
  5
5883
330
1
100
AcDbSymbolTableRecord
100
AcDbBlockTableRecord
  2
*D99
340
0
 70
     0
280
     1
281
     0
  0
ENDTAB
  0
ENDSEC
  0
SECTION
  2
BLOCKS
  0
BLOCK
  5
D
330
A
100
AcDbEntity
  8
0
390
1D
100
AcDbBlockBegin
  2
*MODEL_SPACE
 70
     0
 10
0.0
 20
0.0
 30
0.0
  3
*MODEL_SPACE
  1
*MODEL_SPACE
  0
ENDBLK
  5
E
330
A
100
AcDbEntity
  8
0
390
1D
100
AcDbBlockEnd
  0
BLOCK
  5
F
330
B
100
AcDbEntity
 67
     1
  8
0
390
1D
100
AcDbBlockBegin
  2
*PAPER_SPACE
 70
     0
 10
0.0
 20
0.0
 30
0.0
  3
*PAPER_SPACE
  1
*PAPER_SPACE
  0
ENDBLK
  5
10
330
B
100
AcDbEntity
 67
     1
  8
0
390
1D
100
AcDbBlockEnd
  0
BLOCK
  5
2C14
330
4E
100
AcDbEntity
  8
0
390
1D
100
AcDbBlockBegin
  2
_DOT
 70
     0
 10
0.0
 20
0.0
 30
0.0
  3
_DOT
  1
_DOT
  0
POLYLINE
  5
2C16
330
4E
100
AcDbEntity
  8
0
  6
ByBlock
 62
     0
370
    -2
390
1D
100
AcDb2dPolyline
 66
     1
 10
0.0
 20
0.0
 30
0.0
 70
     1
 40
0.5
 41
0.5
  0
VERTEX
  5
2C17
330
2C16
100
AcDbEntity
  8
0
  6
ByBlock
 62
     0
370
    -2
390
1D
100
AcDbVertex
100
AcDb2dVertex
 10
-0.25
 20
0.0
 30
0.0
 42
1.0
  0
VERTEX
  5
2C18
330
2C16
100
AcDbEntity
  8
0
  6
ByBlock
 62
     0
370
    -2
390
1D
100
AcDbVertex
100
AcDb2dVertex
 10
0.25
 20
0.0
 30
0.0
 42
1.0
  0
SEQEND
  5
2C19
330
2C16
100
AcDbEntity
  8
0
390
1D
  0
LINE
  5
2C1A
330
4E
100
AcDbEntity
  8
0
  6
ByBlock
 62
     0
370
    -2
390
1D
100
AcDbLine
 10
-0.5
 20
0.0
 30
0.0
 11
-1.0
 21
0.0
 31
0.0
  0
ENDBLK
  5
2C1B
330
4E
100
AcDbEntity
  8
0
390
1D
100
AcDbBlockEnd
  0
BLOCK
  5
3A6
330
3A5
100
AcDbEntity
  8
0
100
AcDbBlockBegin
  2
名称未設定-1
 70
     0
 10
0.0
 20
0.0
 30
0.0
  3
名称未設定-1
  1
名称未設定-1
  0
INSERT
  5
3A7
330
3A5
100
AcDbEntity
  8
レイヤー 1
100
AcDbBlockReference
  2
block 2
 10
0.0
 20
0.0
 30
0.0
  0
ENDBLK
  5
3CC
330
3A5
100
AcDbEntity
  8
0
100
AcDbBlockEnd
  0
BLOCK
  5
3A9
330
3A8
100
AcDbEntity
  8
0
100
AcDbBlockBegin
  2
block 2
 70
     0
 10
0.0
 20
0.0
 30
0.0
  3
block 2
  1
block 2
  0
INSERT
  5
3AA
330
3A8
100
AcDbEntity
  8
レイヤー 1
100
AcDbBlockReference
  2
block 3
 10
0.0
 20
0.0
 30
0.0
  0
ENDBLK
  5
3CB
330
3A8
100
AcDbEntity
  8
0
100
AcDbBlockEnd
  0
BLOCK
  5
3AC
330
3AB
100
AcDbEntity
  8
0
100
AcDbBlockBegin
  2
block 3
 70
     0
 10
0.0
 20
0.0
 30
0.0
  3
block 3
  1
block 3
  0
INSERT
  5
3AD
330
3AB
100
AcDbEntity
  8
レイヤー 1
100
AcDbBlockReference
  2
block 4
 10
0.0
 20
0.0
 30
0.0
  0
ENDBLK
  5
3CA
330
3AB
100
AcDbEntity
  8
0
100
AcDbBlockEnd
  0
BLOCK
  5
3AF
330
3AE
100
AcDbEntity
  8
0
100
AcDbBlockBegin
  2
block 4
 70
     0
 10
0.0
 20
0.0
 30
0.0
  3
block 4
  1
block 4
  0
POLYLINE
  5
3B0
330
3AE
100
AcDbEntity
  8
レイヤー 1
370
     0
100
AcDb2dPolyline
 66
     1
 10
0.0
 20
0.0
 30
0.0
  0
VERTEX
  5
3B1
330
3B0
100
AcDbEntity
  8
レイヤー 1
370
     0
100
AcDbVertex
100
AcDb2dVertex
 10
83.79545727667795
 20
167.6444858234922
 30
0.0
  0
VERTEX
  5
3B2
330
3B0
100
AcDbEntity
  8
レイヤー 1
370
     0
100
AcDbVertex
100
AcDb2dVertex
 10
83.79545727667795
 20
159.7968976406313
 30
0.0
  0
VERTEX
  5
3B3
330
3B0
100
AcDbEntity
  8
レイヤー 1
370
     0
100
AcDbVertex
100
AcDb2dVertex
 10
71.3631329975216
 20
159.7968976406313
 30
0.0
  0
VERTEX
  5
3B4
330
3B0
100
AcDbEntity
  8
レイヤー 1
370
     0
100
AcDbVertex
100
AcDb2dVertex
 10
71.3631329975216
 20
127.8027915271048
 30
0.0
  0
VERTEX
  5
3B5
330
3B0
100
AcDbEntity
  8
レイヤー 1
370
     0
100
AcDbVertex
100
AcDb2dVertex
 10
60.43011526263018
 20
127.8027915271048
 30
0.0
  0
VERTEX
  5
3B6
330
3B0
100
AcDbEntity
  8
レイヤー 1
370
     0
100
AcDbVertex
100
AcDb2dVertex
 10
60.43011526263018
 20
159.7968976406313
 30
0.0
  0
VERTEX
  5
3B7
330
3B0
100
AcDbEntity
  8
レイヤー 1
370
     0
100
AcDbVertex
100
AcDb2dVertex
 10
48.21793273020759
 20
159.7968976406313
 30
0.0
  0
VERTEX
  5
3B8
330
3B0
100
AcDbEntity
  8
レイヤー 1
370
     0
100
AcDbVertex
100
AcDb2dVertex
 10
48.21793273020759
 20
167.6444858234922
 30
0.0
  0
VERTEX
  5
3B9
330
3B0
100
AcDbEntity
  8
レイヤー 1
370
     0
100
AcDbVertex
100
AcDb2dVertex
 10
83.79545727667795
 20
167.6444858234922
 30
0.0
  0
SEQEND
  5
3BA
330
3B0
100
AcDbEntity
  8
レイヤー 1
370
     0
  0
HATCH
  5
3BB
330
3AE
100
AcDbEntity
  8
レイヤー 1
 62
   250
420
  2234388
100
AcDbHatch
 10
0.0
 20
0.0
 30
0.0
210
0.0
220
0.0
230
1.0
  2
SOLID
 70
     1
 71
     0
 91
        1
 92
        1
 93
        8
 72
     1
 10
83.79545727667795
 20
167.6444858234922
 11
83.79545727667795
 21
159.7968976406313
 72
     1
 10
83.79545727667795
 20
159.7968976406313
 11
71.3631329975216
 21
159.7968976406313
 72
     1
 10
71.3631329975216
 20
159.7968976406313
 11
71.3631329975216
 21
127.8027915271048
 72
     1
 10
71.3631329975216
 20
127.8027915271048
 11
60.43011526263018
 21
127.8027915271048
 72
     1
 10
60.43011526263018
 20
127.8027915271048
 11
60.43011526263018
 21
159.7968976406313
 72
     1
 10
60.43011526263018
 20
159.7968976406313
 11
48.21793273020759
 21
159.7968976406313
 72
     1
 10
48.21793273020759
 20
159.7968976406313
 11
48.21793273020759
 21
167.6444858234922
 72
     1
 10
48.21793273020759
 20
167.6444858234922
 11
83.79545727667795
 21
167.6444858234922
 97
        0
 75
     2
 76
     1
 98
        0
  0
INSERT
  5
3BC
330
3AE
100
AcDbEntity
  8
レイヤー 1
100
AcDbBlockReference
  2
block 5
 10
0.0
 20
0.0
 30
0.0
  0
ENDBLK
  5
3C9
330
3AE
100
AcDbEntity
  8
0
100
AcDbBlockEnd
  0
BLOCK
  5
3BE
330
3BD
100
AcDbEntity
  8
0
100
AcDbBlockBegin
  2
block 5
 70
     0
 10
0.0
 20
0.0
 30
0.0
  3
block 5
  1
block 5
  0
SPLINE
  5
3BF
330
3BD
100
AcDbEntity
  8
レイヤー 1
370
     0
100
AcDbSpline
210
0.0
220
0.0
230
1.0
 70
    11
 71
     3
 72
    56
 73
    52
 74
     0
 42
0.000000001
 43
0.0000000001
 40
0.0
 40
0.0
 40
0.0
 40
0.0
 40
1.0
 40
1.0
 40
1.0
 40
2.0
 40
2.0
 40
2.0
 40
3.0
 40
3.0
 40
3.0
 40
4.0
 40
4.0
 40
4.0
 40
5.0
 40
5.0
 40
5.0
 40
6.0
 40
6.0
 40
6.0
 40
7.0
 40
7.0
 40
7.0
 40
8.0
 40
8.0
 40
8.0
 40
9.0
 40
9.0
 40
9.0
 40
10.0
 40
10.0
 40
10.0
 40
11.0
 40
11.0
 40
11.0
 40
12.0
 40
12.0
 40
12.0
 40
13.0
 40
13.0
 40
13.0
 40
14.0
 40
14.0
 40
14.0
 40
15.0
 40
15.0
 40
15.0
 40
16.0
 40
16.0
 40
16.0
 40
17.0
 40
17.0
 40
17.0
 40
17.0
 10
100.4504378777679
 20
166.69157178364
 30
0.0
 10
101.9848844191641
 20
167.1313385124438
 30
0.0
 10
103.9637485713373
 20
166.7649523658846
 30
0.0
 10
103.9637485713373
 20
166.7649523658846
 30
0.0
 10
103.9637485713373
 20
166.7649523658846
 30
0.0
 10
103.0132460999156
 20
163.911205638077
 30
0.0
 10
103.0132460999156
 20
163.911205638077
 30
0.0
 10
103.0132460999156
 20
163.911205638077
 30
0.0
 10
101.0674548862189
 20
164.3601018759394
 30
0.0
 10
99.57090442016032
 20
163.1805004036133
 30
0.0
 10
98.40508333886608
 20
162.258247733807
 30
0.0
 10
97.65301849830304
 20
159.804132345923
 30
0.0
 10
97.3598406791005
 20
158.8699940888517
 30
0.0
 10
97.3598406791005
 20
158.8699940888517
 30
0.0
 10
96.07137411762282
 20
154.9119212747295
 30
0.0
 10
96.07137411762282
 20
154.9119212747295
 30
0.0
 10
96.07137411762282
 20
154.9119212747295
 30
0.0
 10
100.3012651448482
 20
154.9119212747295
 30
0.0
 10
100.3012651448482
 20
154.9119212747295
 30
0.0
 10
100.3012651448482
 20
154.9119212747295
 30
0.0
 10
99.64152892419852
 20
152.4199098115079
 30
0.0
 10
99.64152892419852
 20
152.4199098115079
 30
0.0
 10
99.64152892419852
 20
152.4199098115079
 30
0.0
 10
95.38097652692731
 20
152.4199098115079
 30
0.0
 10
95.38097652692731
 20
152.4199098115079
 30
0.0
 10
95.38097652692731
 20
152.4199098115079
 30
0.0
 10
87.75353009080013
 20
127.8027915271048
 30
0.0
 10
87.75353009080013
 20
127.8027915271048
 30
0.0
 10
87.75353009080013
 20
127.8027915271048
 30
0.0
 10
85.36538832498108
 20
127.8027915271048
 30
0.0
 10
85.36538832498108
 20
127.8027915271048
 30
0.0
 10
85.36538832498108
 20
127.8027915271048
 30
0.0
 10
93.00006946639998
 20
152.4199098115079
 30
0.0
 10
93.00006946639998
 20
152.4199098115079
 30
0.0
 10
93.00006946639998
 20
152.4199098115079
 30
0.0
 10
89.85297266450198
 20
152.4199098115079
 30
0.0
 10
89.85297266450198
 20
152.4199098115079
 30
0.0
 10
89.85297266450198
 20
152.4199098115079
 30
0.0
 10
90.51270888515164
 20
154.9119212747295
 30
0.0
 10
90.51270888515164
 20
154.9119212747295
 30
0.0
 10
90.51270888515164
 20
154.9119212747295
 30
0.0
 10
93.6904670570955
 20
154.9119212747295
 30
0.0
 10
93.6904670570955
 20
154.9119212747295
 30
0.0
 10
93.6904670570955
 20
154.9119212747295
 30
0.0
 10
94.81598049462158
 20
158.3616699146644
 30
0.0
 10
94.81598049462158
 20
158.3616699146644
 30
0.0
 10
95.7237637538445
 20
161.2605474231013
 30
0.0
 10
96.4968436907311
 20
162.8139420021662
 30
0.0
 10
97.15657991138076
 20
163.9844139654337
 30
0.0
 10
97.81183750494507
 20
165.1523021053827
 30
0.0
 10
99.1047826935081
 20
166.3084769129547
 30
0.0
 10
100.4504378777679
 20
166.69157178364
 30
0.0
  0
HATCH
  5
3C0
330
3BD
100
AcDbEntity
  8
レイヤー 1
 62
   250
420
  2234388
100
AcDbHatch
 10
0.0
 20
0.0
 30
0.0
210
0.0
220
0.0
230
1.0
  2
SOLID
 70
     1
 71
     0
 91
        1
 92
        1
 93
        1
 72
     4
 94
        3
 73
     0
 74
     1
 95
       56
 96
       52
 40
0.0
 40
0.0
 40
0.0
 40
0.0
 40
1.0
 40
1.0
 40
1.0
 40
2.0
 40
2.0
 40
2.0
 40
3.0
 40
3.0
 40
3.0
 40
4.0
 40
4.0
 40
4.0
 40
5.0
 40
5.0
 40
5.0
 40
6.0
 40
6.0
 40
6.0
 40
7.0
 40
7.0
 40
7.0
 40
8.0
 40
8.0
 40
8.0
 40
9.0
 40
9.0
 40
9.0
 40
10.0
 40
10.0
 40
10.0
 40
11.0
 40
11.0
 40
11.0
 40
12.0
 40
12.0
 40
12.0
 40
13.0
 40
13.0
 40
13.0
 40
14.0
 40
14.0
 40
14.0
 40
15.0
 40
15.0
 40
15.0
 40
16.0
 40
16.0
 40
16.0
 40
17.0
 40
17.0
 40
17.0
 40
17.0
 10
100.4504378777679
 20
166.69157178364
 10
101.9848844191641
 20
167.1313385124438
 10
103.9637485713373
 20
166.7649523658846
 10
103.9637485713373
 20
166.7649523658846
 10
103.9637485713373
 20
166.7649523658846
 10
103.0132460999156
 20
163.911205638077
 10
103.0132460999156
 20
163.911205638077
 10
103.0132460999156
 20
163.911205638077
 10
101.0674548862189
 20
164.3601018759394
 10
99.57090442016032
 20
163.1805004036133
 10
98.40508333886608
 20
162.258247733807
 10
97.65301849830304
 20
159.804132345923
 10
97.3598406791005
 20
158.8699940888517
 10
97.3598406791005
 20
158.8699940888517
 10
96.07137411762282
 20
154.9119212747295
 10
96.07137411762282
 20
154.9119212747295
 10
96.07137411762282
 20
154.9119212747295
 10
100.3012651448482
 20
154.9119212747295
 10
100.3012651448482
 20
154.9119212747295
 10
100.3012651448482
 20
154.9119212747295
 10
99.64152892419852
 20
152.4199098115079
 10
99.64152892419852
 20
152.4199098115079
 10
99.64152892419852
 20
152.4199098115079
 10
95.38097652692731
 20
152.4199098115079
 10
95.38097652692731
 20
152.4199098115079
 10
95.38097652692731
 20
152.4199098115079
 10
87.75353009080013
 20
127.8027915271048
 10
87.75353009080013
 20
127.8027915271048
 10
87.75353009080013
 20
127.8027915271048
 10
85.36538832498108
 20
127.8027915271048
 10
85.36538832498108
 20
127.8027915271048
 10
85.36538832498108
 20
127.8027915271048
 10
93.00006946639998
 20
152.4199098115079
 10
93.00006946639998
 20
152.4199098115079
 10
93.00006946639998
 20
152.4199098115079
 10
89.85297266450198
 20
152.4199098115079
 10
89.85297266450198
 20
152.4199098115079
 10
89.85297266450198
 20
152.4199098115079
 10
90.51270888515164
 20
154.9119212747295
 10
90.51270888515164
 20
154.9119212747295
 10
90.51270888515164
 20
154.9119212747295
 10
93.6904670570955
 20
154.9119212747295
 10
93.6904670570955
 20
154.9119212747295
 10
93.6904670570955
 20
154.9119212747295
 10
94.81598049462158
 20
158.3616699146644
 10
94.81598049462158
 20
158.3616699146644
 10
95.7237637538445
 20
161.2605474231013
 10
96.4968436907311
 20
162.8139420021662
 10
97.15657991138076
 20
163.9844139654337
 10
97.81183750494507
 20
165.1523021053827
 10
99.1047826935081
 20
166.3084769129547
 10
100.4504378777679
 20
166.69157178364
 97
        0
 75
     2
 76
     1
 98
        0
  0
SPLINE
  5
3C1
330
3BD
100
AcDbEntity
  8
レイヤー 1
370
     0
100
AcDbSpline
210
0.0
220
0.0
230
1.0
 70
    11
 71
     3
 72
    38
 73
    34
 74
     0
 42
0.000000001
 43
0.0000000001
 40
0.0
 40
0.0
 40
0.0
 40
0.0
 40
1.0
 40
1.0
 40
1.0
 40
2.0
 40
2.0
 40
2.0
 40
3.0
 40
3.0
 40
3.0
 40
4.0
 40
4.0
 40
4.0
 40
5.0
 40
5.0
 40
5.0
 40
6.0
 40
6.0
 40
6.0
 40
7.0
 40
7.0
 40
7.0
 40
8.0
 40
8.0
 40
8.0
 40
9.0
 40
9.0
 40
9.0
 40
10.0
 40
10.0
 40
10.0
 40
11.0
 40
11.0
 40
11.0
 40
11.0
 10
126.377554584636
 20
154.8151140277308
 30
0.0
 10
126.377554584636
 20
154.8151140277308
 30
0.0
 10
128.8311532078563
 20
154.8151140277308
 30
0.0
 10
128.8311532078563
 20
154.8151140277308
 30
0.0
 10
128.8311532078563
 20
154.8151140277308
 30
0.0
 10
127.7345785914971
 20
151.3062819612468
 30
0.0
 10
127.7345785914971
 20
151.3062819612468
 30
0.0
 10
128.571392836906
 20
152.2922689395754
 30
0.0
 10
129.8860421413442
 20
153.604506675583
 30
0.0
 10
131.0163787157314
 20
154.2664822097754
 30
0.0
 10
132.7044766171327
 20
155.2500576196734
 30
0.0
 10
133.6642808525008
 20
155.3847609420097
 30
0.0
 10
134.7284715499351
 20
155.3565111403944
 30
0.0
 10
134.7284715499351
 20
155.3565111403944
 30
0.0
 10
133.6877075172549
 20
152.0345756272799
 30
0.0
 10
133.6877075172549
 20
152.0345756272799
 30
0.0
 10
133.011434827367
 20
152.3184516825359
 30
0.0
 10
130.930940291334
 20
151.7768823149844
 30
0.0
 10
129.739280976855
 20
150.9162968950455
 30
0.0
 10
128.66613302525
 20
150.1454562717016
 30
0.0
 10
127.9192358313239
 20
149.4857200510519
 30
0.0
 10
127.0393578639405
 20
147.8282835196966
 30
0.0
 10
126.164647543194
 20
146.1699857139017
 30
0.0
 10
125.4742499524985
 20
143.5262176944419
 30
0.0
 10
124.2822461282437
 20
139.6959580071401
 30
0.0
 10
124.2822461282437
 20
139.6959580071401
 30
0.0
 10
120.5753209406769
 20
127.8027915271048
 30
0.0
 10
120.5753209406769
 20
127.8027915271048
 30
0.0
 10
120.5753209406769
 20
127.8027915271048
 30
0.0
 10
118.1964809388044
 20
127.8027915271048
 30
0.0
 10
118.1964809388044
 20
127.8027915271048
 30
0.0
 10
118.1964809388044
 20
127.8027915271048
 30
0.0
 10
126.377554584636
 20
154.8151140277308
 30
0.0
 10
126.377554584636
 20
154.8151140277308
 30
0.0
  0
HATCH
  5
3C2
330
3BD
100
AcDbEntity
  8
レイヤー 1
 62
   250
420
  2234388
100
AcDbHatch
 10
0.0
 20
0.0
 30
0.0
210
0.0
220
0.0
230
1.0
  2
SOLID
 70
     1
 71
     0
 91
        1
 92
        1
 93
        1
 72
     4
 94
        3
 73
     0
 74
     1
 95
       38
 96
       34
 40
0.0
 40
0.0
 40
0.0
 40
0.0
 40
1.0
 40
1.0
 40
1.0
 40
2.0
 40
2.0
 40
2.0
 40
3.0
 40
3.0
 40
3.0
 40
4.0
 40
4.0
 40
4.0
 40
5.0
 40
5.0
 40
5.0
 40
6.0
 40
6.0
 40
6.0
 40
7.0
 40
7.0
 40
7.0
 40
8.0
 40
8.0
 40
8.0
 40
9.0
 40
9.0
 40
9.0
 40
10.0
 40
10.0
 40
10.0
 40
11.0
 40
11.0
 40
11.0
 40
11.0
 10
126.377554584636
 20
154.8151140277308
 10
126.377554584636
 20
154.8151140277308
 10
128.8311532078563
 20
154.8151140277308
 10
128.8311532078563
 20
154.8151140277308
 10
128.8311532078563
 20
154.8151140277308
 10
127.7345785914971
 20
151.3062819612468
 10
127.7345785914971
 20
151.3062819612468
 10
128.571392836906
 20
152.2922689395754
 10
129.8860421413442
 20
153.604506675583
 10
131.0163787157314
 20
154.2664822097754
 10
132.7044766171327
 20
155.2500576196734
 10
133.6642808525008
 20
155.3847609420097
 10
134.7284715499351
 20
155.3565111403944
 10
134.7284715499351
 20
155.3565111403944
 10
133.6877075172549
 20
152.0345756272799
 10
133.6877075172549
 20
152.0345756272799
 10
133.011434827367
 20
152.3184516825359
 10
130.930940291334
 20
151.7768823149844
 10
129.739280976855
 20
150.9162968950455
 10
128.66613302525
 20
150.1454562717016
 10
127.9192358313239
 20
149.4857200510519
 10
127.0393578639405
 20
147.8282835196966
 10
126.164647543194
 20
146.1699857139017
 10
125.4742499524985
 20
143.5262176944419
 10
124.2822461282437
 20
139.6959580071401
 10
124.2822461282437
 20
139.6959580071401
 10
120.5753209406769
 20
127.8027915271048
 10
120.5753209406769
 20
127.8027915271048
 10
120.5753209406769
 20
127.8027915271048
 10
118.1964809388044
 20
127.8027915271048
 10
118.1964809388044
 20
127.8027915271048
 10
118.1964809388044
 20
127.8027915271048
 10
126.377554584636
 20
154.8151140277308
 10
126.377554584636
 20
154.8151140277308
 97
        0
 75
     2
 76
     1
 98
        0
  0
SPLINE
  5
3C3
330
3BD
100
AcDbEntity
  8
レイヤー 1
370
     0
100
AcDbSpline
210
0.0
220
0.0
230
1.0
 70
    11
 71
     3
 72
   104
 73
   100
 74
     0
 42
0.000000001
 43
0.0000000001
 40
0.0
 40
0.0
 40
0.0
 40
0.0
 40
1.0
 40
1.0
 40
1.0
 40
2.0
 40
2.0
 40
2.0
 40
3.0
 40
3.0
 40
3.0
 40
4.0
 40
4.0
 40
4.0
 40
5.0
 40
5.0
 40
5.0
 40
6.0
 40
6.0
 40
6.0
 40
7.0
 40
7.0
 40
7.0
 40
8.0
 40
8.0
 40
8.0
 40
9.0
 40
9.0
 40
9.0
 40
10.0
 40
10.0
 40
10.0
 40
11.0
 40
11.0
 40
11.0
 40
12.0
 40
12.0
 40
12.0
 40
13.0
 40
13.0
 40
13.0
 40
14.0
 40
14.0
 40
14.0
 40
15.0
 40
15.0
 40
15.0
 40
16.0
 40
16.0
 40
16.0
 40
17.0
 40
17.0
 40
17.0
 40
18.0
 40
18.0
 40
18.0
 40
19.0
 40
19.0
 40
19.0
 40
20.0
 40
20.0
 40
20.0
 40
21.0
 40
21.0
 40
21.0
 40
22.0
 40
22.0
 40
22.0
 40
23.0
 40
23.0
 40
23.0
 40
24.0
 40
24.0
 40
24.0
 40
25.0
 40
25.0
 40
25.0
 40
26.0
 40
26.0
 40
26.0
 40
27.0
 40
27.0
 40
27.0
 40
28.0
 40
28.0
 40
28.0
 40
29.0
 40
29.0
 40
29.0
 40
30.0
 40
30.0
 40
30.0
 40
31.0
 40
31.0
 40
31.0
 40
32.0
 40
32.0
 40
32.0
 40
33.0
 40
33.0
 40
33.0
 40
33.0
 10
139.8926730891197
 20
154.8294111834263
 30
0.0
 10
139.8926730891197
 20
154.8294111834263
 30
0.0
 10
142.0344903652445
 20
154.8294111834263
 30
0.0
 10
142.0344903652445
 20
154.8294111834263
 30
0.0
 10
142.0344903652445
 20
154.8294111834263
 30
0.0
 10
140.9516961399171
 20
151.3157559800812
 30
0.0
 10
140.9516961399171
 20
151.3157559800812
 30
0.0
 10
141.8928968473923
 20
152.7887075264977
 30
0.0
 10
142.7341897198865
 20
153.4484437471474
 30
0.0
 10
143.8552245303272
 20
154.2926649527359
 30
0.0
 10
144.9803934580775
 20
155.1296514530327
 30
0.0
 10
146.3139908001845
 20
155.3044901642492
 30
0.0
 10
147.241066606852
 20
155.3044901642492
 30
0.0
 10
148.3855280820469
 20
155.3044901642492
 30
0.0
 10
149.4969166187653
 20
155.0752189084569
 30
0.0
 10
150.0784491203092
 20
153.8172414621372
 30
0.0
 10
150.5228667310863
 20
152.833838307127
 30
0.0
 10
150.5414702589793
 20
152.7201500811143
 30
0.0
 10
150.4140016419347
 20
150.7765981809602
 30
0.0
 10
151.5818897818837
 20
152.7699317437168
 30
0.0
 10
152.4424752018226
 20
153.6256940267945
 30
0.0
 10
153.9038856707499
 20
154.4507949398263
 30
0.0
 10
155.4455669174378
 20
155.3044901642492
 30
0.0
 10
156.339225275853
 20
155.3659851592288
 30
0.0
 10
157.3748216618963
 20
155.2147453676543
 30
0.0
 10
158.911679771723
 20
154.9877134254046
 30
0.0
 10
159.8859534176746
 20
154.4390816074493
 30
0.0
 10
160.3965169054045
 20
152.7816450760939
 30
0.0
 10
160.9070803931344
 20
151.1219692311958
 30
0.0
 10
160.6328506116007
 20
150.2303779314354
 30
0.0
 10
159.9992971339115
 20
147.597634224801
 30
0.0
 10
159.7105979417943
 20
146.4014962832367
 30
0.0
 10
159.2947746424084
 20
144.9400858143094
 30
0.0
 10
158.7463150793409
 20
143.2092687007094
 30
0.0
 10
158.7463150793409
 20
143.2092687007094
 30
0.0
 10
153.9038856707499
 20
127.8027915271048
 30
0.0
 10
153.9038856707499
 20
127.8027915271048
 30
0.0
 10
153.9038856707499
 20
127.8027915271048
 30
0.0
 10
151.3882752878863
 20
127.8027915271048
 30
0.0
 10
151.3882752878863
 20
127.8027915271048
 30
0.0
 10
151.3882752878863
 20
127.8027915271048
 30
0.0
 10
155.6250565106276
 20
141.2751908193897
 30
0.0
 10
155.6250565106276
 20
141.2751908193897
 30
0.0
 10
156.5094131050963
 20
144.0936252951782
 30
0.0
 10
157.109893644309
 20
146.1506931664571
 30
0.0
 10
157.4220195011804
 20
147.4415712963654
 30
0.0
 10
157.8095929989511
 20
149.0530157726519
 30
0.0
 10
157.9656559273867
 20
149.5826995529385
 30
0.0
 10
157.7816877071116
 20
150.7529992613181
 30
0.0
 10
157.6111553680925
 20
151.8430281919372
 30
0.0
 10
157.0582171779396
 20
152.5547853887321
 30
0.0
 10
156.1170164704645
 20
152.5547853887321
 30
0.0
 10
155.1096698860365
 20
152.5547853887321
 30
0.0
 10
154.2962823053817
 20
152.4412694176073
 30
0.0
 10
153.156643967048
 20
151.2945686288697
 30
0.0
 10
152.0170056287143
 20
150.1476955852443
 30
0.0
 10
151.076149431015
 20
148.7930831468137
 30
0.0
 10
150.3337308641742
 20
147.2290087646991
 30
0.0
 10
149.5957909244188
 20
145.6683794803425
 30
0.0
 10
148.8530278478023
 20
143.6822806228776
 30
0.0
 10
148.0964843801539
 20
141.2751908193897
 30
0.0
 10
148.0964843801539
 20
141.2751908193897
 30
0.0
 10
143.8552245303272
 20
127.8027915271048
 30
0.0
 10
143.8552245303272
 20
127.8027915271048
 30
0.0
 10
143.8552245303272
 20
127.8027915271048
 30
0.0
 10
141.486030802177
 20
127.8027915271048
 30
0.0
 10
141.486030802177
 20
127.8027915271048
 30
0.0
 10
141.486030802177
 20
127.8027915271048
 30
0.0
 10
146.3329388378533
 20
143.2092687007094
 30
0.0
 10
146.3329388378533
 20
143.2092687007094
 30
0.0
 10
146.8483254624444
 20
144.8408669988801
 30
0.0
 10
147.2314203331297
 20
146.1837661049335
 30
0.0
 10
147.4867020769946
 20
147.224185627838
 30
0.0
 10
147.9169947869641
 20
149.0197705792876
 30
0.0
 10
148.0306830129768
 20
150.2400242051577
 30
0.0
 10
147.709255392159
 20
151.3157559800812
 30
0.0
 10
147.3874832615654
 20
152.3916600098926
 30
0.0
 10
146.8245542879144
 20
152.6683013598569
 30
0.0
 10
145.8840425999909
 20
152.6683013598569
 30
0.0
 10
145.0989048209514
 20
152.6683013598569
 30
0.0
 10
144.3282364524954
 20
152.3275811915945
 30
0.0
 10
143.4531816219731
 20
151.6538923250251
 30
0.0
 10
142.34627171234
 20
150.8074318058939
 30
0.0
 10
141.901854101563
 20
150.1097995099067
 30
0.0
 10
141.3578731655808
 20
149.289521733736
 30
0.0
 10
140.6299240093235
 20
148.192602607601
 30
0.0
 10
140.2850697237515
 20
147.455696197173
 30
0.0
 10
139.6652966370942
 20
145.8385673095858
 30
0.0
 10
139.0506911970739
 20
144.2214384219986
 30
0.0
 10
138.463991048893
 20
142.3252566160164
 30
0.0
 10
138.0571250036777
 20
141.0154304484394
 30
0.0
 10
138.0571250036777
 20
141.0154304484394
 30
0.0
 10
133.9009590684727
 20
127.8027915271048
 30
0.0
 10
133.9009590684727
 20
127.8027915271048
 30
0.0
 10
133.9009590684727
 20
127.8027915271048
 30
0.0
 10
131.4180771143097
 20
127.8027915271048
 30
0.0
 10
131.4180771143097
 20
127.8027915271048
 30
0.0
 10
131.4180771143097
 20
127.8027915271048
 30
0.0
 10
139.8926730891197
 20
154.8294111834263
 30
0.0
 10
139.8926730891197
 20
154.8294111834263
 30
0.0
  0
HATCH
  5
3C4
330
3BD
100
AcDbEntity
  8
レイヤー 1
 62
   250
420
  2234388
100
AcDbHatch
 10
0.0
 20
0.0
 30
0.0
210
0.0
220
0.0
230
1.0
  2
SOLID
 70
     1
 71
     0
 91
        1
 92
        1
 93
        1
 72
     4
 94
        3
 73
     0
 74
     1
 95
      104
 96
      100
 40
0.0
 40
0.0
 40
0.0
 40
0.0
 40
1.0
 40
1.0
 40
1.0
 40
2.0
 40
2.0
 40
2.0
 40
3.0
 40
3.0
 40
3.0
 40
4.0
 40
4.0
 40
4.0
 40
5.0
 40
5.0
 40
5.0
 40
6.0
 40
6.0
 40
6.0
 40
7.0
 40
7.0
 40
7.0
 40
8.0
 40
8.0
 40
8.0
 40
9.0
 40
9.0
 40
9.0
 40
10.0
 40
10.0
 40
10.0
 40
11.0
 40
11.0
 40
11.0
 40
12.0
 40
12.0
 40
12.0
 40
13.0
 40
13.0
 40
13.0
 40
14.0
 40
14.0
 40
14.0
 40
15.0
 40
15.0
 40
15.0
 40
16.0
 40
16.0
 40
16.0
 40
17.0
 40
17.0
 40
17.0
 40
18.0
 40
18.0
 40
18.0
 40
19.0
 40
19.0
 40
19.0
 40
20.0
 40
20.0
 40
20.0
 40
21.0
 40
21.0
 40
21.0
 40
22.0
 40
22.0
 40
22.0
 40
23.0
 40
23.0
 40
23.0
 40
24.0
 40
24.0
 40
24.0
 40
25.0
 40
25.0
 40
25.0
 40
26.0
 40
26.0
 40
26.0
 40
27.0
 40
27.0
 40
27.0
 40
28.0
 40
28.0
 40
28.0
 40
29.0
 40
29.0
 40
29.0
 40
30.0
 40
30.0
 40
30.0
 40
31.0
 40
31.0
 40
31.0
 40
32.0
 40
32.0
 40
32.0
 40
33.0
 40
33.0
 40
33.0
 40
33.0
 10
139.8926730891197
 20
154.8294111834263
 10
139.8926730891197
 20
154.8294111834263
 10
142.0344903652445
 20
154.8294111834263
 10
142.0344903652445
 20
154.8294111834263
 10
142.0344903652445
 20
154.8294111834263
 10
140.9516961399171
 20
151.3157559800812
 10
140.9516961399171
 20
151.3157559800812
 10
141.8928968473923
 20
152.7887075264977
 10
142.7341897198865
 20
153.4484437471474
 10
143.8552245303272
 20
154.2926649527359
 10
144.9803934580775
 20
155.1296514530327
 10
146.3139908001845
 20
155.3044901642492
 10
147.241066606852
 20
155.3044901642492
 10
148.3855280820469
 20
155.3044901642492
 10
149.4969166187653
 20
155.0752189084569
 10
150.0784491203092
 20
153.8172414621372
 10
150.5228667310863
 20
152.833838307127
 10
150.5414702589793
 20
152.7201500811143
 10
150.4140016419347
 20
150.7765981809602
 10
151.5818897818837
 20
152.7699317437168
 10
152.4424752018226
 20
153.6256940267945
 10
153.9038856707499
 20
154.4507949398263
 10
155.4455669174378
 20
155.3044901642492
 10
156.339225275853
 20
155.3659851592288
 10
157.3748216618963
 20
155.2147453676543
 10
158.911679771723
 20
154.9877134254046
 10
159.8859534176746
 20
154.4390816074493
 10
160.3965169054045
 20
152.7816450760939
 10
160.9070803931344
 20
151.1219692311958
 10
160.6328506116007
 20
150.2303779314354
 10
159.9992971339115
 20
147.597634224801
 10
159.7105979417943
 20
146.4014962832367
 10
159.2947746424084
 20
144.9400858143094
 10
158.7463150793409
 20
143.2092687007094
 10
158.7463150793409
 20
143.2092687007094
 10
153.9038856707499
 20
127.8027915271048
 10
153.9038856707499
 20
127.8027915271048
 10
153.9038856707499
 20
127.8027915271048
 10
151.3882752878863
 20
127.8027915271048
 10
151.3882752878863
 20
127.8027915271048
 10
151.3882752878863
 20
127.8027915271048
 10
155.6250565106276
 20
141.2751908193897
 10
155.6250565106276
 20
141.2751908193897
 10
156.5094131050963
 20
144.0936252951782
 10
157.109893644309
 20
146.1506931664571
 10
157.4220195011804
 20
147.4415712963654
 10
157.8095929989511
 20
149.0530157726519
 10
157.9656559273867
 20
149.5826995529385
 10
157.7816877071116
 20
150.7529992613181
 10
157.6111553680925
 20
151.8430281919372
 10
157.0582171779396
 20
152.5547853887321
 10
156.1170164704645
 20
152.5547853887321
 10
155.1096698860365
 20
152.5547853887321
 10
154.2962823053817
 20
152.4412694176073
 10
153.156643967048
 20
151.2945686288697
 10
152.0170056287143
 20
150.1476955852443
 10
151.076149431015
 20
148.7930831468137
 10
150.3337308641742
 20
147.2290087646991
 10
149.5957909244188
 20
145.6683794803425
 10
148.8530278478023
 20
143.6822806228776
 10
148.0964843801539
 20
141.2751908193897
 10
148.0964843801539
 20
141.2751908193897
 10
143.8552245303272
 20
127.8027915271048
 10
143.8552245303272
 20
127.8027915271048
 10
143.8552245303272
 20
127.8027915271048
 10
141.486030802177
 20
127.8027915271048
 10
141.486030802177
 20
127.8027915271048
 10
141.486030802177
 20
127.8027915271048
 10
146.3329388378533
 20
143.2092687007094
 10
146.3329388378533
 20
143.2092687007094
 10
146.8483254624444
 20
144.8408669988801
 10
147.2314203331297
 20
146.1837661049335
 10
147.4867020769946
 20
147.224185627838
 10
147.9169947869641
 20
149.0197705792876
 10
148.0306830129768
 20
150.2400242051577
 10
147.709255392159
 20
151.3157559800812
 10
147.3874832615654
 20
152.3916600098926
 10
146.8245542879144
 20
152.6683013598569
 10
145.8840425999909
 20
152.6683013598569
 10
145.0989048209514
 20
152.6683013598569
 10
144.3282364524954
 20
152.3275811915945
 10
143.4531816219731
 20
151.6538923250251
 10
142.34627171234
 20
150.8074318058939
 10
141.901854101563
 20
150.1097995099067
 10
141.3578731655808
 20
149.289521733736
 10
140.6299240093235
 20
148.192602607601
 10
140.2850697237515
 20
147.455696197173
 10
139.6652966370942
 20
145.8385673095858
 10
139.0506911970739
 20
144.2214384219986
 10
138.463991048893
 20
142.3252566160164
 10
138.0571250036777
 20
141.0154304484394
 10
138.0571250036777
 20
141.0154304484394
 10
133.9009590684727
 20
127.8027915271048
 10
133.9009590684727
 20
127.8027915271048
 10
133.9009590684727
 20
127.8027915271048
 10
131.4180771143097
 20
127.8027915271048
 10
131.4180771143097
 20
127.8027915271048
 10
131.4180771143097
 20
127.8027915271048
 10
139.8926730891197
 20
154.8294111834263
 10
139.8926730891197
 20
154.8294111834263
 97
        0
 75
     2
 76
     1
 98
        0
  0
SPLINE
  5
3C5
330
3BD
100
AcDbEntity
  8
レイヤー 1
370
     0
100
AcDbSpline
210
0.0
220
0.0
230
1.0
 70
    11
 71
     3
 72
    29
 73
    25
 74
     0
 42
0.000000001
 43
0.0000000001
 40
0.0
 40
0.0
 40
0.0
 40
0.0
 40
1.0
 40
1.0
 40
1.0
 40
2.0
 40
2.0
 40
2.0
 40
3.0
 40
3.0
 40
3.0
 40
4.0
 40
4.0
 40
4.0
 40
5.0
 40
5.0
 40
5.0
 40
6.0
 40
6.0
 40
6.0
 40
7.0
 40
7.0
 40
7.0
 40
8.0
 40
8.0
 40
8.0
 40
8.0
 10
101.6420971922469
 20
132.8388354296931
 30
0.0
 10
101.630039350094
 20
134.7164137077823
 30
0.0
 10
102.2236296937908
 20
138.0598810818841
 30
0.0
 10
103.7487744712405
 20
142.5378191476827
 30
0.0
 10
105.819967243327
 20
148.5896501242061
 30
0.0
 10
107.0602024361932
 20
150.8074318058939
 30
0.0
 10
108.1522984254671
 20
151.8833358357054
 30
0.0
 10
109.741177511439
 20
153.4532668840085
 30
0.0
 10
111.8740375333931
 20
153.5290590346837
 30
0.0
 10
112.5075910110823
 20
153.4532668840085
 30
0.0
 10
113.4012493694975
 20
153.3490526768302
 30
0.0
 10
114.6683563248758
 20
152.7580461564518
 30
0.0
 10
114.7493161221879
 20
150.7838328862519
 30
0.0
 10
114.8106388622796
 20
149.0909118479895
 30
0.0
 10
114.3186789024427
 20
145.9191825971221
 30
0.0
 10
112.6164561002338
 20
140.9489400617108
 30
0.0
 10
110.6444821435766
 20
135.1746117095912
 30
0.0
 10
109.4669477299053
 20
132.8960240524753
 30
0.0
 10
108.5212683953448
 20
131.9072809959403
 30
0.0
 10
106.7346406980658
 20
130.0538184021569
 30
0.0
 10
104.8222669326213
 20
130.2336525051225
 30
0.0
 10
104.5408024457958
 20
130.2336525051225
 30
0.0
 10
104.1721769856939
 20
130.2336525051225
 30
0.0
 10
101.6465758193322
 20
130.6305277668397
 30
0.0
 10
101.6420971922469
 20
132.8388354296931
 30
0.0
  0
SPLINE
  5
3C6
330
3BD
100
AcDbEntity
  8
レイヤー 1
370
     0
100
AcDbSpline
210
0.0
220
0.0
230
1.0
 70
    11
 71
     3
 72
    32
 73
    28
 74
     0
 42
0.000000001
 43
0.0000000001
 40
0.0
 40
0.0
 40
0.0
 40
0.0
 40
1.0
 40
1.0
 40
1.0
 40
2.0
 40
2.0
 40
2.0
 40
3.0
 40
3.0
 40
3.0
 40
4.0
 40
4.0
 40
4.0
 40
5.0
 40
5.0
 40
5.0
 40
6.0
 40
6.0
 40
6.0
 40
7.0
 40
7.0
 40
7.0
 40
8.0
 40
8.0
 40
8.0
 40
9.0
 40
9.0
 40
9.0
 40
9.0
 10
106.2595617172429
 20
153.4105476718098
 30
0.0
 10
104.8222669326213
 20
151.5474388043041
 30
0.0
 10
103.7177685914188
 20
149.8758773721411
 30
0.0
 10
101.9232171692965
 20
144.6141795664062
 30
0.0
 10
100.2754269116635
 20
139.7999999594306
 30
0.0
 10
99.22777268346732
 20
136.3052927937542
 30
0.0
 10
99.06964269637689
 20
132.039572749846
 30
0.0
 10
98.94665270641765
 20
128.8673267343149
 30
0.0
 10
100.8807305877373
 20
127.8027915271048
 30
0.0
 10
103.7129454545577
 20
127.8027915271048
 30
0.0
 10
104.9352661390825
 20
127.8027915271048
 30
0.0
 10
108.0151835347002
 20
127.8827177950895
 30
0.0
 10
110.2045431598849
 20
130.5926316915021
 30
0.0
 10
111.7417457794874
 20
132.4984597712065
 30
0.0
 10
113.155269389579
 20
134.475256864725
 30
0.0
 10
115.0562743324223
 20
140.9489400617108
 30
0.0
 10
116.6361961642235
 20
146.3680788349845
 30
0.0
 10
117.7282921534974
 20
149.8639917848761
 30
0.0
 10
117.6480213757369
 20
151.8595646611754
 30
0.0
 10
117.6480213757369
 20
151.8595646611754
 30
0.0
 10
117.6480213757369
 20
151.8595646611754
 30
0.0
 10
117.6480213757369
 20
151.8595646611754
 30
0.0
 10
117.13229024137
 20
155.18150017429
 30
0.0
 10
114.7162431837115
 20
155.886194920681
 30
0.0
 10
113.3351034925446
 20
155.886194920681
 30
0.0
 10
111.9829026225447
 20
155.886194920681
 30
0.0
 10
108.3414342923792
 20
156.1251124501957
 30
0.0
 10
106.2595617172429
 20
153.4105476718098
 30
0.0
  0
HATCH
  5
3C7
330
3BD
100
AcDbEntity
  8
レイヤー 1
 62
   250
420
  2234388
100
AcDbHatch
 10
0.0
 20
0.0
 30
0.0
210
0.0
220
0.0
230
1.0
  2
SOLID
 70
     1
 71
     0
 91
        2
 92
        1
 93
        1
 72
     4
 94
        3
 73
     0
 74
     1
 95
       29
 96
       25
 40
0.0
 40
0.0
 40
0.0
 40
0.0
 40
1.0
 40
1.0
 40
1.0
 40
2.0
 40
2.0
 40
2.0
 40
3.0
 40
3.0
 40
3.0
 40
4.0
 40
4.0
 40
4.0
 40
5.0
 40
5.0
 40
5.0
 40
6.0
 40
6.0
 40
6.0
 40
7.0
 40
7.0
 40
7.0
 40
8.0
 40
8.0
 40
8.0
 40
8.0
 10
101.6420971922469
 20
132.8388354296931
 10
101.630039350094
 20
134.7164137077823
 10
102.2236296937908
 20
138.0598810818841
 10
103.7487744712405
 20
142.5378191476827
 10
105.819967243327
 20
148.5896501242061
 10
107.0602024361932
 20
150.8074318058939
 10
108.1522984254671
 20
151.8833358357054
 10
109.741177511439
 20
153.4532668840085
 10
111.8740375333931
 20
153.5290590346837
 10
112.5075910110823
 20
153.4532668840085
 10
113.4012493694975
 20
153.3490526768302
 10
114.6683563248758
 20
152.7580461564518
 10
114.7493161221879
 20
150.7838328862519
 10
114.8106388622796
 20
149.0909118479895
 10
114.3186789024427
 20
145.9191825971221
 10
112.6164561002338
 20
140.9489400617108
 10
110.6444821435766
 20
135.1746117095912
 10
109.4669477299053
 20
132.8960240524753
 10
108.5212683953448
 20
131.9072809959403
 10
106.7346406980658
 20
130.0538184021569
 10
104.8222669326213
 20
130.2336525051225
 10
104.5408024457958
 20
130.2336525051225
 10
104.1721769856939
 20
130.2336525051225
 10
101.6465758193322
 20
130.6305277668397
 10
101.6420971922469
 20
132.8388354296931
 97
        0
 92
        1
 93
        1
 72
     4
 94
        3
 73
     0
 74
     1
 95
       32
 96
       28
 40
0.0
 40
0.0
 40
0.0
 40
0.0
 40
1.0
 40
1.0
 40
1.0
 40
2.0
 40
2.0
 40
2.0
 40
3.0
 40
3.0
 40
3.0
 40
4.0
 40
4.0
 40
4.0
 40
5.0
 40
5.0
 40
5.0
 40
6.0
 40
6.0
 40
6.0
 40
7.0
 40
7.0
 40
7.0
 40
8.0
 40
8.0
 40
8.0
 40
9.0
 40
9.0
 40
9.0
 40
9.0
 10
106.2595617172429
 20
153.4105476718098
 10
104.8222669326213
 20
151.5474388043041
 10
103.7177685914188
 20
149.8758773721411
 10
101.9232171692965
 20
144.6141795664062
 10
100.2754269116635
 20
139.7999999594306
 10
99.22777268346732
 20
136.3052927937542
 10
99.06964269637689
 20
132.039572749846
 10
98.94665270641765
 20
128.8673267343149
 10
100.8807305877373
 20
127.8027915271048
 10
103.7129454545577
 20
127.8027915271048
 10
104.9352661390825
 20
127.8027915271048
 10
108.0151835347002
 20
127.8827177950895
 10
110.2045431598849
 20
130.5926316915021
 10
111.7417457794874
 20
132.4984597712065
 10
113.155269389579
 20
134.475256864725
 10
115.0562743324223
 20
140.9489400617108
 10
116.6361961642235
 20
146.3680788349845
 10
117.7282921534974
 20
149.8639917848761
 10
117.6480213757369
 20
151.8595646611754
 10
117.6480213757369
 20
151.8595646611754
 10
117.6480213757369
 20
151.8595646611754
 10
117.6480213757369
 20
151.8595646611754
 10
117.13229024137
 20
155.18150017429
 10
114.7162431837115
 20
155.886194920681
 10
113.3351034925446
 20
155.886194920681
 10
111.9829026225447
 20
155.886194920681
 10
108.3414342923792
 20
156.1251124501957
 10
106.2595617172429
 20
153.4105476718098
 97
        0
 75
     2
 76
     1
 98
        0
  0
ENDBLK
  5
3C8
330
3BD
100
AcDbEntity
  8
0
100
AcDbBlockEnd
  0
BLOCK
  5
11F1
330
11F0
100
AcDbEntity
  8
0
100
AcDbBlockBegin
  2
BLOCK_2
 70
     0
 10
0.0
 20
0.0
 30
0.0
  3
BLOCK_2
  1
BLOCK_2
  0
ENDBLK
  5
11F2
330
11F0
100
AcDbEntity
  8
0
100
AcDbBlockEnd
  0
BLOCK
  5
38B7
330
38B6
100
AcDbEntity
  8
0
100
AcDbBlockBegin
  2
mobile_latù
 70
     0
 10
0.0
 20
0.0
 30
0.0
  3
mobile_latù
  1
mobile_latù
  0
ENDBLK
  5
38B8
330
38B6
100
AcDbEntity
  8
0
100
AcDbBlockEnd
  0
BLOCK
  5
48C4
330
48C3
100
AcDbEntity
  8
0
100
AcDbBlockBegin
  2
*D8
 70
     1
 10
0.0
 20
0.0
 30
0.0
  3
*D8
  1
*D93
  0
LINE
  5
48C6
330
48C3
100
AcDbEntity
  8
Dim
 62
     0
370
    -2
100
AcDbLine
 10
-229.889848557857
 20
2675.862987367485
 30
0.0
 11
-139.1057121464289
 21
2675.862987367485
 31
0.0
  0
LINE
  5
48C7
330
48C3
100
AcDbEntity
  8
Dim
 62
     0
370
    -2
100
AcDbLine
 10
-193.672650969447
 20
2449.488663395419
 30
0.0
 11
-139.1057121464289
 21
2449.488663395419
 31
0.0
  0
LINE
  5
48C8
330
48C3
100
AcDbEntity
  8
Dim
 62
     0
370
    -2
100
AcDbLine
 10
-139.1057121464289
 20
2665.863597719047
 30
0.0
 11
-139.1057121464289
 21
2459.488053043856
 31
0.0
  0
INSERT
  5
48C9
330
48C3
100
AcDbEntity
  8
Dim
 62
     0
370
    -2
100
AcDbBlockReference
  2
_DOT
 10
-139.1057121464289
 20
2675.862987367485
 30
0.0
 41
9.999389648437498
 42
9.999389648437498
 43
9.999389648437498
 50
89.99999999999999
  0
INSERT
  5
48CA
330
48C3
100
AcDbEntity
  8
Dim
 62
     0
370
    -2
100
AcDbBlockReference
  2
_DOT
 10
-139.1057121464289
 20
2449.488663395419
 30
0.0
 41
9.999389648437498
 42
9.999389648437498
 43
9.999389648437498
 50
270.0
  0
MTEXT
  5
48CB
330
48C3
100
AcDbEntity
  8
Dim
 62
     0
100
AcDbMText
 10
-161.3220207401789
 20
2562.675825381452
 30
0.0
 40
24.4326171875
 41
0.0
 46
0.0
 71
     5
 72
     1
  1
\A1;225
  7
ＭＳ ゴシック
 11
2.511036493159105E-16
 21
1.0
 31
0.0
 73
     1
 44
1.0
  0
POINT
  5
48CC
330
48C3
100
AcDbEntity
  8
Defpoints
 62
     0
100
AcDbPoint
 10
-254.889848557857
 20
2675.862987367485
 30
0.0
  0
POINT
  5
48CD
330
48C3
100
AcDbEntity
  8
Defpoints
 62
     0
100
AcDbPoint
 10
-218.672650969447
 20
2449.488663395419
 30
0.0
  0
POINT
  5
48CE
330
48C3
100
AcDbEntity
  8
Defpoints
 62
     0
100
AcDbPoint
 10
-139.1057121464289
 20
2449.488663395419
 30
0.0
  0
ENDBLK
  5
48C5
330
48C3
100
AcDbEntity
  8
0
100
AcDbBlockEnd
  0
BLOCK
  5
494C
330
494B
100
AcDbEntity
  8
0
100
AcDbBlockBegin
  2
*D9
 70
     1
 10
0.0
 20
0.0
 30
0.0
  3
*D9
  1
*D103
  0
LINE
  5
494E
330
494B
100
AcDbEntity
  8
Dim
  6
Continuous
 62
     0
370
    -2
100
AcDbLine
 10
-1551.932902302598
 20
1102.376290416007
 30
0.0
 11
-1646.211474196061
 21
1102.376290416007
 31
0.0
  0
LINE
  5
494F
330
494B
100
AcDbEntity
  8
Dim
  6
Continuous
 62
     0
370
    -2
100
AcDbLine
 10
-1553.432902302598
 20
1202.376290416007
 30
0.0
 11
-1646.211474196061
 21
1202.376290416007
 31
0.0
  0
LINE
  5
4950
330
494B
100
AcDbEntity
  8
Dim
  6
Continuous
 62
     0
370
    -2
100
AcDbLine
 10
-1646.211474196061
 20
1112.375680064444
 30
0.0
 11
-1646.211474196061
 21
1192.376900767569
 31
0.0
  0
INSERT
  5
4951
330
494B
100
AcDbEntity
  8
Dim
 62
     0
370
    -2
100
AcDbBlockReference
  2
_DOT
 10
-1646.211474196061
 20
1102.376290416007
 30
0.0
 41
9.999389648437498
 42
9.999389648437498
 43
9.999389648437498
 50
270.0
  0
INSERT
  5
4952
330
494B
100
AcDbEntity
  8
Dim
 62
     0
370
    -2
100
AcDbBlockReference
  2
_DOT
 10
-1646.211474196061
 20
1202.376290416007
 30
0.0
 41
9.999389648437498
 42
9.999389648437498
 43
9.999389648437498
 50
90.0
  0
MTEXT
  5
4953
330
494B
100
AcDbEntity
  8
Dim
 62
     0
100
AcDbMText
 10
-1668.427782789811
 20
1152.376290416007
 30
0.0
 40
24.4326171875
 41
0.0
 46
0.0
 71
     5
 72
     1
  1
\A1;100
  7
ＭＳ ゴシック
 11
0.0
 21
1.0
 31
0.0
 73
     1
 44
1.0
  0
POINT
  5
4954
330
494B
100
AcDbEntity
  8
Defpoints
 62
     0
100
AcDbPoint
 10
-1526.932902302598
 20
1102.376290416007
 30
0.0
  0
POINT
  5
4955
330
494B
100
AcDbEntity
  8
Defpoints
 62
     0
100
AcDbPoint
 10
-1528.432902302598
 20
1202.376290416007
 30
0.0
  0
POINT
  5
4956
330
494B
100
AcDbEntity
  8
Defpoints
 62
     0
100
AcDbPoint
 10
-1646.211474196061
 20
1202.376290416007
 30
0.0
  0
ENDBLK
  5
494D
330
494B
100
AcDbEntity
  8
0
100
AcDbBlockEnd
  0
BLOCK
  5
4959
330
4958
100
AcDbEntity
  8
0
100
AcDbBlockBegin
  2
*D10
 70
     1
 10
0.0
 20
0.0
 30
0.0
  3
*D10
  1
*D104
  0
LINE
  5
495B
330
4958
100
AcDbEntity
  8
Dim
  6
Continuous
 62
     0
370
    -2
100
AcDbLine
 10
-1553.432902302598
 20
1202.376290416007
 30
0.0
 11
-1646.211474196061
 21
1202.376290416007
 31
0.0
  0
LINE
  5
495C
330
4958
100
AcDbEntity
  8
Dim
  6
Continuous
 62
     0
370
    -2
100
AcDbLine
 10
-1553.432902302598
 20
1302.376290416007
 30
0.0
 11
-1646.211474196061
 21
1302.376290416007
 31
0.0
  0
LINE
  5
495D
330
4958
100
AcDbEntity
  8
Dim
  6
Continuous
 62
     0
370
    -2
100
AcDbLine
 10
-1646.211474196061
 20
1212.375680064444
 30
0.0
 11
-1646.211474196061
 21
1292.376900767569
 31
0.0
  0
INSERT
  5
495E
330
4958
100
AcDbEntity
  8
Dim
 62
     0
370
    -2
100
AcDbBlockReference
  2
_DOT
 10
-1646.211474196061
 20
1202.376290416007
 30
0.0
 41
9.999389648437498
 42
9.999389648437498
 43
9.999389648437498
 50
270.0
  0
INSERT
  5
495F
330
4958
100
AcDbEntity
  8
Dim
 62
     0
370
    -2
100
AcDbBlockReference
  2
_DOT
 10
-1646.211474196061
 20
1302.376290416007
 30
0.0
 41
9.999389648437498
 42
9.999389648437498
 43
9.999389648437498
 50
90.0
  0
MTEXT
  5
4960
330
4958
100
AcDbEntity
  8
Dim
 62
     0
100
AcDbMText
 10
-1668.427782789811
 20
1252.376290416007
 30
0.0
 40
24.4326171875
 41
0.0
 46
0.0
 71
     5
 72
     1
  1
\A1;100
  7
ＭＳ ゴシック
 11
0.0
 21
1.0
 31
0.0
 73
     1
 44
1.0
  0
POINT
  5
4961
330
4958
100
AcDbEntity
  8
Defpoints
 62
     0
100
AcDbPoint
 10
-1528.432902302598
 20
1202.376290416007
 30
0.0
  0
POINT
  5
4962
330
4958
100
AcDbEntity
  8
Defpoints
 62
     0
100
AcDbPoint
 10
-1528.432902302598
 20
1302.376290416007
 30
0.0
  0
POINT
  5
4963
330
4958
100
AcDbEntity
  8
Defpoints
 62
     0
100
AcDbPoint
 10
-1646.211474196061
 20
1302.376290416007
 30
0.0
  0
ENDBLK
  5
495A
330
4958
100
AcDbEntity
  8
0
100
AcDbBlockEnd
  0
BLOCK
  5
4966
330
4965
100
AcDbEntity
  8
0
100
AcDbBlockBegin
  2
*D11
 70
     1
 10
0.0
 20
0.0
 30
0.0
  3
*D11
  1
*D105
  0
LINE
  5
4968
330
4965
100
AcDbEntity
  8
Dim
  6
Continuous
 62
     0
370
    -2
100
AcDbLine
 10
-1576.932902302598
 20
580.3762806151753
 30
0.0
 11
-1576.932902302598
 21
468.5429265465266
 31
0.0
  0
LINE
  5
4969
330
4965
100
AcDbEntity
  8
Dim
  6
Continuous
 62
     0
370
    -2
100
AcDbLine
 10
-1446.932902302598
 20
882.30434595478
 30
0.0
 11
-1446.932902302598
 21
468.5429265465266
 31
0.0
  0
LINE
  5
496A
330
4965
100
AcDbEntity
  8
Dim
  6
Continuous
 62
     0
370
    -2
100
AcDbLine
 10
-1566.93351265416
 20
468.5429265465266
 30
0.0
 11
-1456.932291951035
 21
468.5429265465266
 31
0.0
  0
INSERT
  5
496B
330
4965
100
AcDbEntity
  8
Dim
 62
     0
370
    -2
100
AcDbBlockReference
  2
_DOT
 10
-1576.932902302598
 20
468.5429265465266
 30
0.0
 41
9.999389648437498
 42
9.999389648437498
 43
9.999389648437498
 50
180.0
  0
INSERT
  5
496C
330
4965
100
AcDbEntity
  8
Dim
 62
     0
370
    -2
100
AcDbBlockReference
  2
_DOT
 10
-1446.932902302598
 20
468.5429265465266
 30
0.0
 41
9.999389648437498
 42
9.999389648437498
 43
9.999389648437498
  0
MTEXT
  5
496D
330
4965
100
AcDbEntity
  8
Dim
 62
     0
100
AcDbMText
 10
-1511.932902302598
 20
490.7592351402766
 30
0.0
 40
24.4326171875
 41
0.0
 46
0.0
 71
     5
 72
     1
  1
\A1;130
  7
ＭＳ ゴシック
 73
     1
 44
1.0
  0
POINT
  5
496E
330
4965
100
AcDbEntity
  8
Defpoints
 62
     0
100
AcDbPoint
 10
-1576.932902302598
 20
605.3762806151753
 30
0.0
  0
POINT
  5
496F
330
4965
100
AcDbEntity
  8
Defpoints
 62
     0
100
AcDbPoint
 10
-1446.932902302598
 20
907.30434595478
 30
0.0
  0
POINT
  5
4970
330
4965
100
AcDbEntity
  8
Defpoints
 62
     0
100
AcDbPoint
 10
-1446.932902302598
 20
468.5429265465266
 30
0.0
  0
ENDBLK
  5
4967
330
4965
100
AcDbEntity
  8
0
100
AcDbBlockEnd
  0
BLOCK
  5
498F
330
498E
100
AcDbEntity
  8
0
100
AcDbBlockBegin
  2
*D12
 70
     1
 10
0.0
 20
0.0
 30
0.0
  3
*D12
  1
*D108
  0
LINE
  5
4991
330
498E
100
AcDbEntity
  8
Dim
  6
Continuous
 62
     0
370
    -2
100
AcDbLine
 10
-1576.932902302598
 20
1829.661251134208
 30
0.0
 11
-1576.932902302598
 21
1888.079216848494
 31
0.0
  0
LINE
  5
4992
330
498E
100
AcDbEntity
  8
Dim
  6
Continuous
 62
     0
370
    -2
100
AcDbLine
 10
-1056.932902302598
 20
1767.097776848494
 30
0.0
 11
-1056.932902302598
 21
1888.079216848494
 31
0.0
  0
LINE
  5
4993
330
498E
100
AcDbEntity
  8
Dim
  6
Continuous
 62
     0
370
    -2
100
AcDbLine
 10
-1566.93351265416
 20
1888.079216848494
 30
0.0
 11
-1066.932291951035
 21
1888.079216848494
 31
0.0
  0
INSERT
  5
4994
330
498E
100
AcDbEntity
  8
Dim
 62
     0
370
    -2
100
AcDbBlockReference
  2
_DOT
 10
-1576.932902302598
 20
1888.079216848494
 30
0.0
 41
9.999389648437498
 42
9.999389648437498
 43
9.999389648437498
 50
180.0
  0
INSERT
  5
4995
330
498E
100
AcDbEntity
  8
Dim
 62
     0
370
    -2
100
AcDbBlockReference
  2
_DOT
 10
-1056.932902302598
 20
1888.079216848494
 30
0.0
 41
9.999389648437498
 42
9.999389648437498
 43
9.999389648437498
  0
MTEXT
  5
4996
330
498E
100
AcDbEntity
  8
Dim
 62
     0
100
AcDbMText
 10
-1316.932902302598
 20
1910.295525442244
 30
0.0
 40
24.4326171875
 41
0.0
 46
0.0
 71
     5
 72
     1
  1
\A1;520
  7
ＭＳ ゴシック
 73
     1
 44
1.0
  0
POINT
  5
4997
330
498E
100
AcDbEntity
  8
Defpoints
 62
     0
100
AcDbPoint
 10
-1576.932902302598
 20
1804.661251134208
 30
0.0
  0
POINT
  5
4998
330
498E
100
AcDbEntity
  8
Defpoints
 62
     0
100
AcDbPoint
 10
-1056.932902302598
 20
1742.097776848494
 30
0.0
  0
POINT
  5
4999
330
498E
100
AcDbEntity
  8
Defpoints
 62
     0
100
AcDbPoint
 10
-1056.932902302598
 20
1888.079216848494
 30
0.0
  0
ENDBLK
  5
4990
330
498E
100
AcDbEntity
  8
0
100
AcDbBlockEnd
  0
BLOCK
  5
4A52
330
4A51
100
AcDbEntity
  8
0
100
AcDbBlockBegin
  2
*D13
 70
     1
 10
0.0
 20
0.0
 30
0.0
  3
*D13
  1
*D120
  0
LINE
  5
4A54
330
4A51
100
AcDbEntity
  8
Dim
  6
Continuous
 62
     0
370
    -2
100
AcDbLine
 10
-1598.932902302597
 20
1802.376300216838
 30
0.0
 11
-1725.319125320819
 21
1802.376300216838
 31
0.0
  0
LINE
  5
4A55
330
4A51
100
AcDbEntity
  8
Dim
  6
Continuous
 62
     0
370
    -2
100
AcDbLine
 10
-1598.932902302597
 20
602.376300216838
 30
0.0
 11
-1725.319125320819
 21
602.376300216838
 31
0.0
  0
LINE
  5
4A56
330
4A51
100
AcDbEntity
  8
Dim
  6
Continuous
 62
     0
370
    -2
100
AcDbLine
 10
-1725.319125320819
 20
1792.3769105684
 30
0.0
 11
-1725.319125320819
 21
612.3756898652755
 31
0.0
  0
INSERT
  5
4A57
330
4A51
100
AcDbEntity
  8
Dim
 62
     0
370
    -2
100
AcDbBlockReference
  2
_DOT
 10
-1725.319125320819
 20
1802.376300216838
 30
0.0
 41
9.999389648437498
 42
9.999389648437498
 43
9.999389648437498
 50
90.0
  0
INSERT
  5
4A58
330
4A51
100
AcDbEntity
  8
Dim
 62
     0
370
    -2
100
AcDbBlockReference
  2
_DOT
 10
-1725.319125320819
 20
602.376300216838
 30
0.0
 41
9.999389648437498
 42
9.999389648437498
 43
9.999389648437498
 50
270.0
  0
MTEXT
  5
4A59
330
4A51
100
AcDbEntity
  8
Dim
 62
     0
100
AcDbMText
 10
-1747.535433914569
 20
1202.376300216838
 30
0.0
 40
24.4326171875
 41
0.0
 46
0.0
 71
     5
 72
     1
  1
\A1;1200
  7
ＭＳ ゴシック
 11
0.0
 21
1.0
 31
0.0
 73
     1
 44
1.0
  0
POINT
  5
4A5A
330
4A51
100
AcDbEntity
  8
Defpoints
 62
     0
100
AcDbPoint
 10
-1573.932902302597
 20
1802.376300216838
 30
0.0
  0
POINT
  5
4A5B
330
4A51
100
AcDbEntity
  8
Defpoints
 62
     0
100
AcDbPoint
 10
-1573.932902302597
 20
602.376300216838
 30
0.0
  0
POINT
  5
4A5C
330
4A51
100
AcDbEntity
  8
Defpoints
 62
     0
100
AcDbPoint
 10
-1725.319125320819
 20
602.376300216838
 30
0.0
  0
ENDBLK
  5
4A53
330
4A51
100
AcDbEntity
  8
0
100
AcDbBlockEnd
  0
BLOCK
  5
4A64
330
4A63
100
AcDbEntity
  8
0
100
AcDbBlockBegin
  2
*D14
 70
     1
 10
0.0
 20
0.0
 30
0.0
  3
*D14
  1
*D121
  0
LINE
  5
4A66
330
4A63
100
AcDbEntity
  8
Dim
  6
Continuous
 62
     0
370
    -2
100
AcDbLine
 10
-1156.932902302597
 20
1532.376290416007
 30
0.0
 11
-985.716409537963
 21
1532.376290416007
 31
0.0
  0
LINE
  5
4A67
330
4A63
100
AcDbEntity
  8
Dim
  6
Continuous
 62
     0
370
    -2
100
AcDbLine
 10
-1156.932902302598
 20
872.3762904160067
 30
0.0
 11
-985.716409537963
 21
872.3762904160067
 31
0.0
  0
LINE
  5
4A68
330
4A63
100
AcDbEntity
  8
Dim
  6
Continuous
 62
     0
370
    -2
100
AcDbLine
 10
-985.716409537963
 20
1522.376900767569
 30
0.0
 11
-985.716409537963
 21
882.3756800644442
 31
0.0
  0
INSERT
  5
4A69
330
4A63
100
AcDbEntity
  8
Dim
 62
     0
370
    -2
100
AcDbBlockReference
  2
_DOT
 10
-985.716409537963
 20
1532.376290416007
 30
0.0
 41
9.999389648437498
 42
9.999389648437498
 43
9.999389648437498
 50
90.0
  0
INSERT
  5
4A6A
330
4A63
100
AcDbEntity
  8
Dim
 62
     0
370
    -2
100
AcDbBlockReference
  2
_DOT
 10
-985.716409537963
 20
872.3762904160067
 30
0.0
 41
9.999389648437498
 42
9.999389648437498
 43
9.999389648437498
 50
270.0
  0
MTEXT
  5
4A6B
330
4A63
100
AcDbEntity
  8
Dim
 62
     0
100
AcDbMText
 10
-1007.932718131713
 20
1202.376290416007
 30
0.0
 40
24.4326171875
 41
0.0
 46
0.0
 71
     5
 72
     1
  1
\A1;660
  7
ＭＳ ゴシック
 11
0.0
 21
1.0
 31
0.0
 73
     1
 44
1.0
  0
POINT
  5
4A6C
330
4A63
100
AcDbEntity
  8
Defpoints
 62
     0
100
AcDbPoint
 10
-1181.932902302597
 20
1532.376290416007
 30
0.0
  0
POINT
  5
4A6D
330
4A63
100
AcDbEntity
  8
Defpoints
 62
     0
100
AcDbPoint
 10
-1181.932902302598
 20
872.3762904160067
 30
0.0
  0
POINT
  5
4A6E
330
4A63
100
AcDbEntity
  8
Defpoints
 62
     0
100
AcDbPoint
 10
-985.716409537963
 20
872.3762904160067
 30
0.0
  0
ENDBLK
  5
4A65
330
4A63
100
AcDbEntity
  8
0
100
AcDbBlockEnd
  0
BLOCK
  5
4A73
330
4A72
100
AcDbEntity
  8
0
100
AcDbBlockBegin
  2
*D15
 70
     1
 10
0.0
 20
0.0
 30
0.0
  3
*D15
  1
*D122
  0
LINE
  5
4A75
330
4A72
100
AcDbEntity
  8
Dim
  6
Continuous
 62
     0
370
    -2
100
AcDbLine
 10
-1446.932902302598
 20
857.30434595478
 30
0.0
 11
-1446.932902302598
 21
468.5429265465266
 31
0.0
  0
LINE
  5
4A76
330
4A72
100
AcDbEntity
  8
Dim
  6
Continuous
 62
     0
370
    -2
100
AcDbLine
 10
-1131.932902302598
 20
897.3762904160067
 30
0.0
 11
-1131.932902302598
 21
468.5429265465266
 31
0.0
  0
LINE
  5
4A77
330
4A72
100
AcDbEntity
  8
Dim
  6
Continuous
 62
     0
370
    -2
100
AcDbLine
 10
-1436.93351265416
 20
468.5429265465266
 30
0.0
 11
-1141.932291951035
 21
468.5429265465266
 31
0.0
  0
INSERT
  5
4A78
330
4A72
100
AcDbEntity
  8
Dim
 62
     0
370
    -2
100
AcDbBlockReference
  2
_DOT
 10
-1446.932902302598
 20
468.5429265465266
 30
0.0
 41
9.999389648437498
 42
9.999389648437498
 43
9.999389648437498
 50
180.0
  0
INSERT
  5
4A79
330
4A72
100
AcDbEntity
  8
Dim
 62
     0
370
    -2
100
AcDbBlockReference
  2
_DOT
 10
-1131.932902302598
 20
468.5429265465266
 30
0.0
 41
9.999389648437498
 42
9.999389648437498
 43
9.999389648437498
  0
MTEXT
  5
4A7A
330
4A72
100
AcDbEntity
  8
Dim
 62
     0
100
AcDbMText
 10
-1289.432902302598
 20
490.7592351402766
 30
0.0
 40
24.4326171875
 41
0.0
 46
0.0
 71
     5
 72
     1
  1
\A1;315
  7
ＭＳ ゴシック
 73
     1
 44
1.0
  0
POINT
  5
4A7B
330
4A72
100
AcDbEntity
  8
Defpoints
 62
     0
100
AcDbPoint
 10
-1446.932902302598
 20
882.30434595478
 30
0.0
  0
POINT
  5
4A7C
330
4A72
100
AcDbEntity
  8
Defpoints
 62
     0
100
AcDbPoint
 10
-1131.932902302598
 20
922.3762904160067
 30
0.0
  0
POINT
  5
4A7D
330
4A72
100
AcDbEntity
  8
Defpoints
 62
     0
100
AcDbPoint
 10
-1131.932902302598
 20
468.5429265465266
 30
0.0
  0
ENDBLK
  5
4A74
330
4A72
100
AcDbEntity
  8
0
100
AcDbBlockEnd
  0
BLOCK
  5
4AB9
330
4AB8
100
AcDbEntity
  8
0
100
AcDbBlockBegin
  2
*D16
 70
     1
 10
0.0
 20
0.0
 30
0.0
  3
*D16
  1
*D123
  0
LINE
  5
4ABB
330
4AB8
100
AcDbEntity
  8
Dim
  6
Continuous
 62
     0
370
    -2
100
AcDbLine
 10
-429.1271748330369
 20
1622.376290416007
 30
0.0
 11
-567.5754993581909
 21
1622.376290416007
 31
0.0
  0
LINE
  5
4ABC
330
4AB8
100
AcDbEntity
  8
Dim
  6
Continuous
 62
     0
370
    -2
100
AcDbLine
 10
-429.1271748330369
 20
1342.376290416007
 30
0.0
 11
-567.5754993581909
 21
1342.376290416007
 31
0.0
  0
LINE
  5
4ABD
330
4AB8
100
AcDbEntity
  8
Dim
  6
Continuous
 62
     0
370
    -2
100
AcDbLine
 10
-567.5754993581909
 20
1612.376900767569
 30
0.0
 11
-567.5754993581909
 21
1352.375680064444
 31
0.0
  0
INSERT
  5
4ABE
330
4AB8
100
AcDbEntity
  8
Dim
 62
     0
370
    -2
100
AcDbBlockReference
  2
_DOT
 10
-567.5754993581909
 20
1622.376290416007
 30
0.0
 41
9.999389648437498
 42
9.999389648437498
 43
9.999389648437498
 50
90.0
  0
INSERT
  5
4ABF
330
4AB8
100
AcDbEntity
  8
Dim
 62
     0
370
    -2
100
AcDbBlockReference
  2
_DOT
 10
-567.5754993581909
 20
1342.376290416007
 30
0.0
 41
9.999389648437498
 42
9.999389648437498
 43
9.999389648437498
 50
270.0
  0
MTEXT
  5
4AC0
330
4AB8
100
AcDbEntity
  8
Dim
 62
     0
100
AcDbMText
 10
-589.7918079519409
 20
1482.376290416007
 30
0.0
 40
24.4326171875
 41
0.0
 46
0.0
 71
     5
 72
     1
  1
\A1;280
  7
ＭＳ ゴシック
 11
0.0
 21
1.0
 31
0.0
 73
     1
 44
1.0
  0
POINT
  5
4AC1
330
4AB8
100
AcDbEntity
  8
Defpoints
 62
     0
100
AcDbPoint
 10
-404.1271748330369
 20
1622.376290416007
 30
0.0
  0
POINT
  5
4AC2
330
4AB8
100
AcDbEntity
  8
Defpoints
 62
     0
100
AcDbPoint
 10
-404.1271748330369
 20
1342.376290416007
 30
0.0
  0
POINT
  5
4AC3
330
4AB8
100
AcDbEntity
  8
Defpoints
 62
     0
100
AcDbPoint
 10
-567.5754993581909
 20
1342.376290416007
 30
0.0
  0
ENDBLK
  5
4ABA
330
4AB8
100
AcDbEntity
  8
0
100
AcDbBlockEnd
  0
BLOCK
  5
4AC8
330
4AC7
100
AcDbEntity
  8
0
100
AcDbBlockBegin
  2
*D17
 70
     1
 10
0.0
 20
0.0
 30
0.0
  3
*D17
  1
*D124
  0
LINE
  5
4ACA
330
4AC7
100
AcDbEntity
  8
Dim
  6
Continuous
 62
     0
370
    -2
100
AcDbLine
 10
-429.1271748330369
 20
1342.376290416007
 30
0.0
 11
-567.5754993581909
 21
1342.376290416007
 31
0.0
  0
LINE
  5
4ACB
330
4AC7
100
AcDbEntity
  8
Dim
  6
Continuous
 62
     0
370
    -2
100
AcDbLine
 10
-429.1271748330369
 20
1062.376290416007
 30
0.0
 11
-567.5754993581909
 21
1062.376290416007
 31
0.0
  0
LINE
  5
4ACC
330
4AC7
100
AcDbEntity
  8
Dim
  6
Continuous
 62
     0
370
    -2
100
AcDbLine
 10
-567.5754993581909
 20
1332.376900767569
 30
0.0
 11
-567.5754993581909
 21
1072.375680064444
 31
0.0
  0
INSERT
  5
4ACD
330
4AC7
100
AcDbEntity
  8
Dim
 62
     0
370
    -2
100
AcDbBlockReference
  2
_DOT
 10
-567.5754993581909
 20
1342.376290416007
 30
0.0
 41
9.999389648437498
 42
9.999389648437498
 43
9.999389648437498
 50
90.0
  0
INSERT
  5
4ACE
330
4AC7
100
AcDbEntity
  8
Dim
 62
     0
370
    -2
100
AcDbBlockReference
  2
_DOT
 10
-567.5754993581909
 20
1062.376290416007
 30
0.0
 41
9.999389648437498
 42
9.999389648437498
 43
9.999389648437498
 50
270.0
  0
MTEXT
  5
4ACF
330
4AC7
100
AcDbEntity
  8
Dim
 62
     0
100
AcDbMText
 10
-589.7918079519409
 20
1202.376290416007
 30
0.0
 40
24.4326171875
 41
0.0
 46
0.0
 71
     5
 72
     1
  1
\A1;280
  7
ＭＳ ゴシック
 11
0.0
 21
1.0
 31
0.0
 73
     1
 44
1.0
  0
POINT
  5
4AD0
330
4AC7
100
AcDbEntity
  8
Defpoints
 62
     0
100
AcDbPoint
 10
-404.1271748330369
 20
1342.376290416007
 30
0.0
  0
POINT
  5
4AD1
330
4AC7
100
AcDbEntity
  8
Defpoints
 62
     0
100
AcDbPoint
 10
-404.1271748330369
 20
1062.376290416007
 30
0.0
  0
POINT
  5
4AD2
330
4AC7
100
AcDbEntity
  8
Defpoints
 62
     0
100
AcDbPoint
 10
-567.5754993581909
 20
1062.376290416007
 30
0.0
  0
ENDBLK
  5
4AC9
330
4AC7
100
AcDbEntity
  8
0
100
AcDbBlockEnd
  0
BLOCK
  5
4AD7
330
4AD6
100
AcDbEntity
  8
0
100
AcDbBlockBegin
  2
*D18
 70
     1
 10
0.0
 20
0.0
 30
0.0
  3
*D18
  1
*D125
  0
LINE
  5
4AD9
330
4AD6
100
AcDbEntity
  8
Dim
  6
Continuous
 62
     0
370
    -2
100
AcDbLine
 10
-429.1271748330369
 20
1062.376290416007
 30
0.0
 11
-567.5754993581909
 21
1062.376290416007
 31
0.0
  0
LINE
  5
4ADA
330
4AD6
100
AcDbEntity
  8
Dim
  6
Continuous
 62
     0
370
    -2
100
AcDbLine
 10
-429.1271748330369
 20
782.3762904160067
 30
0.0
 11
-567.5754993581909
 21
782.3762904160067
 31
0.0
  0
LINE
  5
4ADB
330
4AD6
100
AcDbEntity
  8
Dim
  6
Continuous
 62
     0
370
    -2
100
AcDbLine
 10
-567.5754993581909
 20
1052.376900767569
 30
0.0
 11
-567.5754993581909
 21
792.3756800644442
 31
0.0
  0
INSERT
  5
4ADC
330
4AD6
100
AcDbEntity
  8
Dim
 62
     0
370
    -2
100
AcDbBlockReference
  2
_DOT
 10
-567.5754993581909
 20
1062.376290416007
 30
0.0
 41
9.999389648437498
 42
9.999389648437498
 43
9.999389648437498
 50
90.0
  0
INSERT
  5
4ADD
330
4AD6
100
AcDbEntity
  8
Dim
 62
     0
370
    -2
100
AcDbBlockReference
  2
_DOT
 10
-567.5754993581909
 20
782.3762904160067
 30
0.0
 41
9.999389648437498
 42
9.999389648437498
 43
9.999389648437498
 50
270.0
  0
MTEXT
  5
4ADE
330
4AD6
100
AcDbEntity
  8
Dim
 62
     0
100
AcDbMText
 10
-589.7918079519409
 20
922.3762904160068
 30
0.0
 40
24.4326171875
 41
0.0
 46
0.0
 71
     5
 72
     1
  1
\A1;280
  7
ＭＳ ゴシック
 11
0.0
 21
1.0
 31
0.0
 73
     1
 44
1.0
  0
POINT
  5
4ADF
330
4AD6
100
AcDbEntity
  8
Defpoints
 62
     0
100
AcDbPoint
 10
-404.1271748330369
 20
1062.376290416007
 30
0.0
  0
POINT
  5
4AE0
330
4AD6
100
AcDbEntity
  8
Defpoints
 62
     0
100
AcDbPoint
 10
-404.1271748330369
 20
782.3762904160067
 30
0.0
  0
POINT
  5
4AE1
330
4AD6
100
AcDbEntity
  8
Defpoints
 62
     0
100
AcDbPoint
 10
-567.5754993581909
 20
782.3762904160067
 30
0.0
  0
ENDBLK
  5
4AD8
330
4AD6
100
AcDbEntity
  8
0
100
AcDbBlockEnd
  0
BLOCK
  5
4B38
330
4B37
100
AcDbEntity
  8
0
100
AcDbBlockBegin
  2
*D19
 70
     1
 10
0.0
 20
0.0
 30
0.0
  3
*D19
  1
*D126
  0
LINE
  5
4B3A
330
4B37
100
AcDbEntity
  8
Dim
  6
Continuous
 62
     0
370
    -2
100
AcDbLine
 10
-399.5278795133779
 20
588.4574273253013
 30
0.0
 11
-399.5278795133779
 21
468.5429265465266
 31
0.0
  0
LINE
  5
4B3B
330
4B37
100
AcDbEntity
  8
Dim
  6
Continuous
 62
     0
370
    -2
100
AcDbLine
 10
-359.5278795133779
 20
727.7693281486352
 30
0.0
 11
-359.5278795133779
 21
468.5429265465266
 31
0.0
  0
LINE
  5
4B3C
330
4B37
100
AcDbEntity
  8
Dim
  6
Continuous
 62
     0
370
    -2
100
AcDbLine
 10
-389.5284898649404
 20
468.5429265465266
 30
0.0
 11
-369.5272691618154
 21
468.5429265465266
 31
0.0
  0
INSERT
  5
4B3D
330
4B37
100
AcDbEntity
  8
Dim
 62
     0
370
    -2
100
AcDbBlockReference
  2
_DOT
 10
-399.5278795133779
 20
468.5429265465266
 30
0.0
 41
9.999389648437498
 42
9.999389648437498
 43
9.999389648437498
 50
180.0
  0
INSERT
  5
4B3E
330
4B37
100
AcDbEntity
  8
Dim
 62
     0
370
    -2
100
AcDbBlockReference
  2
_DOT
 10
-359.5278795133779
 20
468.5429265465266
 30
0.0
 41
9.999389648437498
 42
9.999389648437498
 43
9.999389648437498
  0
MTEXT
  5
4B3F
330
4B37
100
AcDbEntity
  8
Dim
 62
     0
100
AcDbMText
 10
-379.5278795133779
 20
490.7592351402766
 30
0.0
 40
24.4326171875
 41
0.0
 46
0.0
 71
     5
 72
     1
  1
\A1;40
  7
ＭＳ ゴシック
 73
     1
 44
1.0
  0
POINT
  5
4B40
330
4B37
100
AcDbEntity
  8
Defpoints
 62
     0
100
AcDbPoint
 10
-399.5278795133779
 20
613.4574273253013
 30
0.0
  0
POINT
  5
4B41
330
4B37
100
AcDbEntity
  8
Defpoints
 62
     0
100
AcDbPoint
 10
-359.5278795133779
 20
752.7693281486352
 30
0.0
  0
POINT
  5
4B42
330
4B37
100
AcDbEntity
  8
Defpoints
 62
     0
100
AcDbPoint
 10
-359.5278795133779
 20
468.5429265465266
 30
0.0
  0
ENDBLK
  5
4B39
330
4B37
100
AcDbEntity
  8
0
100
AcDbBlockEnd
  0
BLOCK
  5
4B57
330
4B56
100
AcDbEntity
  8
0
100
AcDbBlockBegin
  2
*D20
 70
     1
 10
0.0
 20
0.0
 30
0.0
  3
*D20
  1
*D127
  0
LINE
  5
4B59
330
4B56
100
AcDbEntity
  8
Dim
  6
Continuous
 62
     0
370
    -2
100
AcDbLine
 10
-399.5278795133779
 20
1819.543848612269
 30
0.0
 11
-399.5278795133779
 21
1888.079216848494
 31
0.0
  0
LINE
  5
4B5A
330
4B56
100
AcDbEntity
  8
Dim
  6
Continuous
 62
     0
370
    -2
100
AcDbLine
 10
-219.5278795133779
 20
1281.679942898899
 30
0.0
 11
-219.5278795133779
 21
1888.079216848494
 31
0.0
  0
LINE
  5
4B5B
330
4B56
100
AcDbEntity
  8
Dim
  6
Continuous
 62
     0
370
    -2
100
AcDbLine
 10
-389.5284898649404
 20
1888.079216848494
 30
0.0
 11
-229.5272691618154
 21
1888.079216848494
 31
0.0
  0
INSERT
  5
4B5C
330
4B56
100
AcDbEntity
  8
Dim
 62
     0
370
    -2
100
AcDbBlockReference
  2
_DOT
 10
-399.5278795133779
 20
1888.079216848494
 30
0.0
 41
9.999389648437498
 42
9.999389648437498
 43
9.999389648437498
 50
180.0
  0
INSERT
  5
4B5D
330
4B56
100
AcDbEntity
  8
Dim
 62
     0
370
    -2
100
AcDbBlockReference
  2
_DOT
 10
-219.5278795133779
 20
1888.079216848494
 30
0.0
 41
9.999389648437498
 42
9.999389648437498
 43
9.999389648437498
  0
MTEXT
  5
4B5E
330
4B56
100
AcDbEntity
  8
Dim
 62
     0
100
AcDbMText
 10
-309.5278795133779
 20
1910.295525442244
 30
0.0
 40
24.4326171875
 41
0.0
 46
0.0
 71
     5
 72
     1
  1
\A1;180
  7
ＭＳ ゴシック
 73
     1
 44
1.0
  0
POINT
  5
4B5F
330
4B56
100
AcDbEntity
  8
Defpoints
 62
     0
100
AcDbPoint
 10
-399.5278795133779
 20
1794.543848612269
 30
0.0
  0
POINT
  5
4B60
330
4B56
100
AcDbEntity
  8
Defpoints
 62
     0
100
AcDbPoint
 10
-219.5278795133779
 20
1256.679942898899
 30
0.0
  0
POINT
  5
4B61
330
4B56
100
AcDbEntity
  8
Defpoints
 62
     0
100
AcDbPoint
 10
-219.5278795133779
 20
1888.079216848494
 30
0.0
  0
ENDBLK
  5
4B58
330
4B56
100
AcDbEntity
  8
0
100
AcDbBlockEnd
  0
BLOCK
  5
4B65
330
4B64
100
AcDbEntity
  8
0
100
AcDbBlockBegin
  2
*D21
 70
     1
 10
0.0
 20
0.0
 30
0.0
  3
*D21
  1
*D128
  0
LINE
  5
4B67
330
4B64
100
AcDbEntity
  8
Dim
  6
Continuous
 62
     0
370
    -2
100
AcDbLine
 10
-399.527893261298
 20
2131.466879214867
 30
0.0
 11
-399.527893261298
 21
2100.048289926181
 31
0.0
  0
LINE
  5
4B68
330
4B64
100
AcDbEntity
  8
Dim
  6
Continuous
 62
     0
370
    -2
100
AcDbLine
 10
-384.527893261298
 20
2131.466879214867
 30
0.0
 11
-384.527893261298
 21
2100.048289926181
 31
0.0
  0
LINE
  5
4B69
330
4B64
100
AcDbEntity
  8
Dim
  6
Continuous
 62
     0
370
    -2
100
AcDbLine
 10
-399.527893261298
 20
2100.048289926181
 30
0.0
 11
-466.304820995673
 21
2100.048289926181
 31
0.0
  0
LINE
  5
4B6A
330
4B64
100
AcDbEntity
  8
Dim
  6
Continuous
 62
     0
370
    -2
100
AcDbLine
 10
-389.5285036128605
 20
2100.048289926181
 30
0.0
 11
-394.5272829097355
 21
2100.048289926181
 31
0.0
  0
LINE
  5
4B6B
330
4B64
100
AcDbEntity
  8
Dim
  6
Continuous
 62
     0
370
    -2
100
AcDbLine
 10
-389.5285036128605
 20
2100.048289926181
 30
0.0
 11
-379.529113964423
 21
2100.048289926181
 31
0.0
  0
INSERT
  5
4B6C
330
4B64
100
AcDbEntity
  8
Dim
 62
     0
370
    -2
100
AcDbBlockReference
  2
_DOT
 10
-399.527893261298
 20
2100.048289926181
 30
0.0
 41
9.999389648437498
 42
9.999389648437498
 43
9.999389648437498
 50
180.0
  0
INSERT
  5
4B6D
330
4B64
100
AcDbEntity
  8
Dim
 62
     0
370
    -2
100
AcDbBlockReference
  2
_DOT
 10
-384.527893261298
 20
2100.048289926181
 30
0.0
 41
9.999389648437498
 42
9.999389648437498
 43
9.999389648437498
  0
MTEXT
  5
4B6E
330
4B64
100
AcDbEntity
  8
Dim
 62
     0
100
AcDbMText
 10
-442.915746776923
 20
2122.264598519931
 30
0.0
 40
24.4326171875
 41
0.0
 46
0.0
 71
     5
 72
     1
  1
\A1;15
  7
ＭＳ ゴシック
 73
     1
 44
1.0
  0
POINT
  5
4B6F
330
4B64
100
AcDbEntity
  8
Defpoints
 62
     0
100
AcDbPoint
 10
-399.527893261298
 20
2156.466879214867
 30
0.0
  0
POINT
  5
4B70
330
4B64
100
AcDbEntity
  8
Defpoints
 62
     0
100
AcDbPoint
 10
-384.527893261298
 20
2156.466879214867
 30
0.0
  0
POINT
  5
57B5
330
4B64
100
AcDbEntity
  8
Defpoints
 62
     0
100
AcDbPoint
 10
-384.527893261298
 20
2100.048289926181
 30
0.0
  0
ENDBLK
  5
4B66
330
4B64
100
AcDbEntity
  8
0
100
AcDbBlockEnd
  0
BLOCK
  5
4B75
330
4B74
100
AcDbEntity
  8
0
100
AcDbBlockBegin
  2
*D22
 70
     1
 10
0.0
 20
0.0
 30
0.0
  3
*D22
  1
*D129
  0
LINE
  5
4B77
330
4B74
100
AcDbEntity
  8
Dim
  6
Continuous
 62
     0
370
    -2
100
AcDbLine
 10
-384.527893261298
 20
2106.466879214867
 30
0.0
 11
-384.527893261298
 21
2100.048289926181
 31
0.0
  0
LINE
  5
4B78
330
4B74
100
AcDbEntity
  8
Dim
  6
Continuous
 62
     0
370
    -2
100
AcDbLine
 10
-309.527893261298
 20
2200.493723152403
 30
0.0
 11
-309.527893261298
 21
2100.048289926181
 31
0.0
  0
LINE
  5
4B79
330
4B74
100
AcDbEntity
  8
Dim
  6
Continuous
 62
     0
370
    -2
100
AcDbLine
 10
-374.5285036128605
 20
2100.048289926181
 30
0.0
 11
-319.5272829097355
 21
2100.048289926181
 31
0.0
  0
INSERT
  5
4B7A
330
4B74
100
AcDbEntity
  8
Dim
 62
     0
370
    -2
100
AcDbBlockReference
  2
_DOT
 10
-384.527893261298
 20
2100.048289926181
 30
0.0
 41
9.999389648437498
 42
9.999389648437498
 43
9.999389648437498
 50
180.0
  0
INSERT
  5
4B7B
330
4B74
100
AcDbEntity
  8
Dim
 62
     0
370
    -2
100
AcDbBlockReference
  2
_DOT
 10
-309.527893261298
 20
2100.048289926181
 30
0.0
 41
9.999389648437498
 42
9.999389648437498
 43
9.999389648437498
  0
MTEXT
  5
4B7C
330
4B74
100
AcDbEntity
  8
Dim
 62
     0
100
AcDbMText
 10
-347.027893261298
 20
2122.264598519931
 30
0.0
 40
24.4326171875
 41
0.0
 46
0.0
 71
     5
 72
     1
  1
\A1;75
  7
ＭＳ ゴシック
 73
     1
 44
1.0
  0
POINT
  5
4B7D
330
4B74
100
AcDbEntity
  8
Defpoints
 62
     0
100
AcDbPoint
 10
-384.527893261298
 20
2131.466879214867
 30
0.0
  0
POINT
  5
4B7E
330
4B74
100
AcDbEntity
  8
Defpoints
 62
     0
100
AcDbPoint
 10
-309.527893261298
 20
2225.493723152403
 30
0.0
  0
POINT
  5
4B7F
330
4B74
100
AcDbEntity
  8
Defpoints
 62
     0
100
AcDbPoint
 10
-309.527893261298
 20
2100.048289926181
 30
0.0
  0
ENDBLK
  5
4B76
330
4B74
100
AcDbEntity
  8
0
100
AcDbBlockEnd
  0
BLOCK
  5
4B82
330
4B81
100
AcDbEntity
  8
0
100
AcDbBlockBegin
  2
*D23
 70
     1
 10
0.0
 20
0.0
 30
0.0
  3
*D23
  1
*D130
  0
LINE
  5
4B84
330
4B81
100
AcDbEntity
  8
Dim
  6
Continuous
 62
     0
370
    -2
100
AcDbLine
 10
-309.527893261298
 20
2175.493723152403
 30
0.0
 11
-309.527893261298
 21
2100.048289926181
 31
0.0
  0
LINE
  5
4B85
330
4B81
100
AcDbEntity
  8
Dim
  6
Continuous
 62
     0
370
    -2
100
AcDbLine
 10
-219.527893261298
 20
2390.16798856993
 30
0.0
 11
-219.527893261298
 21
2100.048289926181
 31
0.0
  0
LINE
  5
4B86
330
4B81
100
AcDbEntity
  8
Dim
  6
Continuous
 62
     0
370
    -2
100
AcDbLine
 10
-299.5285036128605
 20
2100.048289926181
 30
0.0
 11
-229.5272829097355
 21
2100.048289926181
 31
0.0
  0
INSERT
  5
4B87
330
4B81
100
AcDbEntity
  8
Dim
 62
     0
370
    -2
100
AcDbBlockReference
  2
_DOT
 10
-309.527893261298
 20
2100.048289926181
 30
0.0
 41
9.999389648437498
 42
9.999389648437498
 43
9.999389648437498
 50
180.0
  0
INSERT
  5
4B88
330
4B81
100
AcDbEntity
  8
Dim
 62
     0
370
    -2
100
AcDbBlockReference
  2
_DOT
 10
-219.527893261298
 20
2100.048289926181
 30
0.0
 41
9.999389648437498
 42
9.999389648437498
 43
9.999389648437498
  0
MTEXT
  5
4B89
330
4B81
100
AcDbEntity
  8
Dim
 62
     0
100
AcDbMText
 10
-264.527893261298
 20
2122.264598519931
 30
0.0
 40
24.4326171875
 41
0.0
 46
0.0
 71
     5
 72
     1
  1
\A1;90
  7
ＭＳ ゴシック
 73
     1
 44
1.0
  0
POINT
  5
4B8A
330
4B81
100
AcDbEntity
  8
Defpoints
 62
     0
100
AcDbPoint
 10
-309.527893261298
 20
2200.493723152403
 30
0.0
  0
POINT
  5
4B8B
330
4B81
100
AcDbEntity
  8
Defpoints
 62
     0
100
AcDbPoint
 10
-219.527893261298
 20
2415.16798856993
 30
0.0
  0
POINT
  5
4B8C
330
4B81
100
AcDbEntity
  8
Defpoints
 62
     0
100
AcDbPoint
 10
-219.527893261298
 20
2100.048289926181
 30
0.0
  0
ENDBLK
  5
4B83
330
4B81
100
AcDbEntity
  8
0
100
AcDbBlockEnd
  0
BLOCK
  5
4BB8
330
4BB7
100
AcDbEntity
  8
0
100
AcDbBlockBegin
  2
*D24
 70
     1
 10
0.0
 20
0.0
 30
0.0
  3
*D24
  1
*D132
  0
LINE
  5
4BBA
330
4BB7
100
AcDbEntity
  8
Dim
  6
Continuous
 62
     0
370
    -2
100
AcDbLine
 10
-420.568905555976
 20
2674.48958603615
 30
0.0
 11
-480.299481355592
 21
2674.48958603615
 31
0.0
  0
LINE
  5
4BBB
330
4BB7
100
AcDbEntity
  8
Dim
  6
Continuous
 62
     0
370
    -2
100
AcDbLine
 10
-420.568905555976
 20
2609.48958603615
 30
0.0
 11
-480.299481355592
 21
2609.48958603615
 31
0.0
  0
LINE
  5
4BBC
330
4BB7
100
AcDbEntity
  8
Dim
  6
Continuous
 62
     0
370
    -2
100
AcDbLine
 10
-480.299481355592
 20
2664.490196387712
 30
0.0
 11
-480.299481355592
 21
2619.488975684587
 31
0.0
  0
INSERT
  5
4BBD
330
4BB7
100
AcDbEntity
  8
Dim
 62
     0
370
    -2
100
AcDbBlockReference
  2
_DOT
 10
-480.299481355592
 20
2674.48958603615
 30
0.0
 41
9.999389648437498
 42
9.999389648437498
 43
9.999389648437498
 50
90.0
  0
INSERT
  5
4BBE
330
4BB7
100
AcDbEntity
  8
Dim
 62
     0
370
    -2
100
AcDbBlockReference
  2
_DOT
 10
-480.299481355592
 20
2609.48958603615
 30
0.0
 41
9.999389648437498
 42
9.999389648437498
 43
9.999389648437498
 50
270.0
  0
MTEXT
  5
4BBF
330
4BB7
100
AcDbEntity
  8
Dim
 62
     0
100
AcDbMText
 10
-502.515789949342
 20
2641.98958603615
 30
0.0
 40
24.4326171875
 41
0.0
 46
0.0
 71
     5
 72
     1
  1
\A1;65
  7
ＭＳ ゴシック
 11
0.0
 21
1.0
 31
0.0
 73
     1
 44
1.0
  0
POINT
  5
4BC0
330
4BB7
100
AcDbEntity
  8
Defpoints
 62
     0
100
AcDbPoint
 10
-395.568905555976
 20
2674.48958603615
 30
0.0
  0
POINT
  5
4BC1
330
4BB7
100
AcDbEntity
  8
Defpoints
 62
     0
100
AcDbPoint
 10
-395.568905555976
 20
2609.48958603615
 30
0.0
  0
POINT
  5
4BC2
330
4BB7
100
AcDbEntity
  8
Defpoints
 62
     0
100
AcDbPoint
 10
-480.299481355592
 20
2609.48958603615
 30
0.0
  0
ENDBLK
  5
4BB9
330
4BB7
100
AcDbEntity
  8
0
100
AcDbBlockEnd
  0
BLOCK
  5
4C1C
330
4C1B
100
AcDbEntity
  8
0
100
AcDbBlockBegin
  2
*D25
 70
     1
 10
0.0
 20
0.0
 30
0.0
  3
*D25
  1
*D136
  0
LINE
  5
4C1E
330
4C1B
100
AcDbEntity
  8
Dim
  6
Continuous
 62
     0
370
    -2
100
AcDbLine
 10
-400.364810228026
 20
2448.667782285094
 30
0.0
 11
-572.7395094467764
 21
2448.667782285094
 31
0.0
  0
LINE
  5
4C1F
330
4C1B
100
AcDbEntity
  8
Dim
  6
Continuous
 62
     0
370
    -2
100
AcDbLine
 10
-280.5860968227475
 20
2448.667782285094
 30
0.0
 11
-390.3654205795885
 21
2448.667782285094
 31
0.0
  0
LINE
  5
4C20
330
4C1B
100
AcDbEntity
  8
Dim
  6
Continuous
 62
     0
370
    -2
100
AcDbLine
 10
-390.3654205795885
 20
2448.667782285094
 30
0.0
 11
-380.366030931151
 21
2448.667782285094
 31
0.0
  0
INSERT
  5
4C21
330
4C1B
100
AcDbEntity
  8
Dim
 62
     0
370
    -2
100
AcDbBlockReference
  2
_DOT
 10
-270.58670717431
 20
2448.667782285094
 30
0.0
 41
9.999389648437498
 42
9.999389648437498
 43
9.999389648437498
  0
INSERT
  5
4C22
330
4C1B
100
AcDbEntity
  8
Dim
 62
     0
370
    -2
100
AcDbBlockReference
  2
_DOT
 10
-400.364810228026
 20
2448.667782285094
 30
0.0
 41
9.999389648437498
 42
9.999389648437498
 43
9.999389648437498
 50
180.0
  0
MTEXT
  5
4C23
330
4C1B
100
AcDbEntity
  8
Dim
 62
     0
100
AcDbMText
 10
-496.5515494858389
 20
2473.046377499938
 30
0.0
 40
24.4326171875
 41
0.0
 46
0.0
 71
     5
 72
     1
  1
\A1;135(深さ)
  7
ＭＳ ゴシック
 73
     1
 44
1.0
  0
POINT
  5
4C24
330
4C1B
100
AcDbEntity
  8
Defpoints
 62
     0
100
AcDbPoint
 10
-270.58670717431
 20
2448.667782285094
 30
0.0
  0
POINT
  5
4C25
330
4C1B
100
AcDbEntity
  8
Defpoints
 62
     0
100
AcDbPoint
 10
-400.364810228026
 20
2448.667782285094
 30
0.0
  0
POINT
  5
57B6
330
4C1B
100
AcDbEntity
  8
Defpoints
 62
     0
100
AcDbPoint
 10
-400.364810228026
 20
2448.667782285094
 30
0.0
  0
ENDBLK
  5
4C1D
330
4C1B
100
AcDbEntity
  8
0
100
AcDbBlockEnd
  0
BLOCK
  5
5007
330
5006
100
AcDbEntity
  8
0
100
AcDbBlockBegin
  2
_None
 70
     0
 10
0.0
 20
0.0
 30
0.0
  3
_None
  1

  0
ENDBLK
  5
5008
330
5006
100
AcDbEntity
  8
0
100
AcDbBlockEnd
  0
BLOCK
  5
503A
330
5039
100
AcDbEntity
  8
0
100
AcDbBlockBegin
  2
.TD_SECTION_1
 70
     0
 10
225818116096.0
 20
0.0
 30
0.0
  3
.TD_SECTION_1
  1

  0
ENDBLK
  5
503B
330
5039
100
AcDbEntity
  8
0
100
AcDbBlockEnd
  0
BLOCK
  5
503E
330
503D
100
AcDbEntity
  8
0
100
AcDbBlockBegin
  2
.TD_SECTION_2
 70
     0
 10
225818181632.0
 20
0.0
 30
0.0
  3
.TD_SECTION_2
  1

  0
ENDBLK
  5
503F
330
503D
100
AcDbEntity
  8
0
100
AcDbBlockEnd
  0
BLOCK
  5
5180
330
517F
100
AcDbEntity
  8
0
100
AcDbBlockBegin
  2
*D29
 70
     1
 10
0.0
 20
0.0
 30
0.0
  3
*D29
  1

  0
LINE
  5
5181
330
517F
100
AcDbEntity
  8
Quote
 62
     0
370
    -2
100
AcDbLine
 10
127.5217876179813
 20
964.173769127036
 30
0.0
 11
91.27434875362093
 21
964.173769127036
 31
0.0
  0
LINE
  5
5182
330
517F
100
AcDbEntity
  8
Quote
 62
     0
370
    -2
100
AcDbLine
 10
127.5217876179813
 20
94.17376912703594
 30
0.0
 11
91.27434875362087
 21
94.17376912703594
 31
0.0
  0
LINE
  5
5183
330
517F
100
AcDbEntity
  8
Quote
 62
     0
370
    -2
100
AcDbLine
 10
91.27434875362093
 20
964.173769127036
 30
0.0
 11
91.27434875362087
 21
94.17376912703594
 31
0.0
  0
MTEXT
  5
5184
330
517F
100
AcDbEntity
  8
Quote
 62
     0
100
AcDbMText
 10
79.2743487536209
 20
529.1737691270359
 30
0.0
 40
20.0
 41
0.0
 46
0.0
 71
     5
 72
     1
  1
\A1;870
 11
6.533726305840000E-17
 21
1.0
 31
0.0
 73
     1
 44
1.0
  0
POINT
  5
5185
330
517F
100
AcDbEntity
  8
Defpoints
 62
     0
100
AcDbPoint
 10
132.5217876179813
 20
964.173769127036
 30
0.0
  0
POINT
  5
5186
330
517F
100
AcDbEntity
  8
Defpoints
 62
     0
100
AcDbPoint
 10
132.5217876179813
 20
94.17376912703594
 30
0.0
  0
POINT
  5
5187
330
517F
100
AcDbEntity
  8
Defpoints
 62
     0
100
AcDbPoint
 10
91.27434875362087
 20
94.17376912703594
 30
0.0
  0
ENDBLK
  5
5188
330
517F
100
AcDbEntity
  8
0
100
AcDbBlockEnd
  0
BLOCK
  5
5199
330
5198
100
AcDbEntity
  8
0
100
AcDbBlockBegin
  2
*D30
 70
     1
 10
0.0
 20
0.0
 30
0.0
  3
*D30
  1

  0
LINE
  5
519A
330
5198
100
AcDbEntity
  8
Quote
 62
     0
370
    -2
100
AcDbLine
 10
685.0890902669198
 20
627.2206967213256
 30
0.0
 11
685.0890902669198
 21
610.8932743453402
 31
0.0
  0
LINE
  5
519B
330
5198
100
AcDbEntity
  8
Quote
 62
     0
370
    -2
100
AcDbLine
 10
885.0890902669198
 20
627.2206967213256
 30
0.0
 11
885.0890902669198
 21
610.8932743453402
 31
0.0
  0
LINE
  5
519C
330
5198
100
AcDbEntity
  8
Quote
 62
     0
370
    -2
100
AcDbLine
 10
685.0890902669198
 20
610.8932743453402
 30
0.0
 11
885.0890902669198
 21
610.8932743453402
 31
0.0
  0
MTEXT
  5
519D
330
5198
100
AcDbEntity
  8
Quote
 62
     0
100
AcDbMText
 10
785.0890902669198
 20
598.8932743453402
 30
0.0
 40
20.0
 41
0.0
 46
0.0
 71
     5
 72
     1
  1
\A1;200
 73
     1
 44
1.0
  0
POINT
  5
519E
330
5198
100
AcDbEntity
  8
Defpoints
 62
     0
100
AcDbPoint
 10
685.0890902669198
 20
632.2206967213256
 30
0.0
  0
POINT
  5
519F
330
5198
100
AcDbEntity
  8
Defpoints
 62
     0
100
AcDbPoint
 10
885.0890902669198
 20
632.2206967213256
 30
0.0
  0
POINT
  5
51A0
330
5198
100
AcDbEntity
  8
Defpoints
 62
     0
100
AcDbPoint
 10
885.0890902669198
 20
610.8932743453402
 30
0.0
  0
ENDBLK
  5
51A1
330
5198
100
AcDbEntity
  8
0
100
AcDbBlockEnd
  0
BLOCK
  5
51A4
330
51A3
100
AcDbEntity
  8
0
100
AcDbBlockBegin
  2
*D31
 70
     1
 10
0.0
 20
0.0
 30
0.0
  3
*D31
  1

  0
LINE
  5
51A5
330
51A3
100
AcDbEntity
  8
Quote
 62
     0
370
    -2
100
AcDbLine
 10
633.4729277771694
 20
664.1737691270359
 30
0.0
 11
596.1464974737464
 21
664.1737691270359
 31
0.0
  0
LINE
  5
51A6
330
51A3
100
AcDbEntity
  8
Quote
 62
     0
370
    -2
100
AcDbLine
 10
633.4729277771694
 20
94.17376912703594
 30
0.0
 11
596.1464974737464
 21
94.17376912703594
 31
0.0
  0
LINE
  5
51A7
330
51A3
100
AcDbEntity
  8
Quote
 62
     0
370
    -2
100
AcDbLine
 10
596.1464974737464
 20
664.1737691270359
 30
0.0
 11
596.1464974737464
 21
94.17376912703594
 31
0.0
  0
MTEXT
  5
51A8
330
51A3
100
AcDbEntity
  8
Quote
 62
     0
100
AcDbMText
 10
584.1464974737464
 20
379.1737691270359
 30
0.0
 40
20.0
 41
0.0
 46
0.0
 71
     5
 72
     1
  1
\A1;570
 11
0.0
 21
1.0
 31
0.0
 73
     1
 44
1.0
  0
POINT
  5
51A9
330
51A3
100
AcDbEntity
  8
Defpoints
 62
     0
100
AcDbPoint
 10
638.4729277771694
 20
664.1737691270359
 30
0.0
  0
POINT
  5
51AA
330
51A3
100
AcDbEntity
  8
Defpoints
 62
     0
100
AcDbPoint
 10
638.4729277771694
 20
94.17376912703594
 30
0.0
  0
POINT
  5
51AB
330
51A3
100
AcDbEntity
  8
Defpoints
 62
     0
100
AcDbPoint
 10
596.1464974737464
 20
94.17376912703594
 30
0.0
  0
ENDBLK
  5
51AC
330
51A3
100
AcDbEntity
  8
0
100
AcDbBlockEnd
  0
BLOCK
  5
51AF
330
51AE
100
AcDbEntity
  8
0
100
AcDbBlockBegin
  2
*D32
 70
     1
 10
0.0
 20
0.0
 30
0.0
  3
*D32
  1

  0
LINE
  5
51B0
330
51AE
100
AcDbEntity
  8
Quote
 62
     0
370
    -2
100
AcDbLine
 10
504.9611348313483
 20
734.1737691270359
 30
0.0
 11
482.2199982251769
 21
734.1737691270359
 31
0.0
  0
LINE
  5
51B1
330
51AE
100
AcDbEntity
  8
Quote
 62
     0
370
    -2
100
AcDbLine
 10
504.9611348313483
 20
94.17376912703594
 30
0.0
 11
482.2199982251768
 21
94.17376912703594
 31
0.0
  0
LINE
  5
51B2
330
51AE
100
AcDbEntity
  8
Quote
 62
     0
370
    -2
100
AcDbLine
 10
482.2199982251769
 20
734.1737691270359
 30
0.0
 11
482.2199982251768
 21
94.17376912703594
 31
0.0
  0
MTEXT
  5
51B3
330
51AE
100
AcDbEntity
  8
Quote
 62
     0
100
AcDbMText
 10
470.2199982251768
 20
414.1737691270359
 30
0.0
 40
20.0
 41
0.0
 46
0.0
 71
     5
 72
     1
  1
\A1;640
 11
8.881784197001253E-17
 21
1.0
 31
0.0
 73
     1
 44
1.0
  0
POINT
  5
51B4
330
51AE
100
AcDbEntity
  8
Defpoints
 62
     0
100
AcDbPoint
 10
509.9611348313483
 20
734.1737691270359
 30
0.0
  0
POINT
  5
51B5
330
51AE
100
AcDbEntity
  8
Defpoints
 62
     0
100
AcDbPoint
 10
509.9611348313483
 20
94.17376912703594
 30
0.0
  0
POINT
  5
51B6
330
51AE
100
AcDbEntity
  8
Defpoints
 62
     0
100
AcDbPoint
 10
482.2199982251768
 20
94.17376912703594
 30
0.0
  0
ENDBLK
  5
51B7
330
51AE
100
AcDbEntity
  8
0
100
AcDbBlockEnd
  0
BLOCK
  5
51BB
330
51BA
100
AcDbEntity
  8
0
100
AcDbBlockBegin
  2
*D33
 70
     1
 10
0.0
 20
0.0
 30
0.0
  3
*D33
  1

  0
LINE
  5
51BC
330
51BA
100
AcDbEntity
  8
Quote
 62
     0
370
    -2
100
AcDbLine
 10
652.132117163128
 20
1874.375496669511
 30
0.0
 11
652.132117163128
 21
1883.114133616069
 31
0.0
  0
LINE
  5
51BD
330
51BA
100
AcDbEntity
  8
Quote
 62
     0
370
    -2
100
AcDbLine
 10
932.1321171631425
 20
1874.375496669511
 30
0.0
 11
932.1321171631425
 21
1883.114133616069
 31
0.0
  0
LINE
  5
51BE
330
51BA
100
AcDbEntity
  8
Quote
 62
     0
370
    -2
100
AcDbLine
 10
652.132117163128
 20
1883.114133616069
 30
0.0
 11
932.1321171631425
 21
1883.114133616069
 31
0.0
  0
MTEXT
  5
51BF
330
51BA
100
AcDbEntity
  8
Quote
 62
     0
100
AcDbMText
 10
792.1321171631353
 20
1895.114133616069
 30
0.0
 40
20.0
 41
0.0
 46
0.0
 71
     5
 72
     1
  1
\A1;280
 73
     1
 44
1.0
  0
POINT
  5
51C0
330
51BA
100
AcDbEntity
  8
Defpoints
 62
     0
100
AcDbPoint
 10
652.132117163128
 20
1869.375496669511
 30
0.0
  0
POINT
  5
51C1
330
51BA
100
AcDbEntity
  8
Defpoints
 62
     0
100
AcDbPoint
 10
932.1321171631425
 20
1869.375496669511
 30
0.0
  0
POINT
  5
51C2
330
51BA
100
AcDbEntity
  8
Defpoints
 62
     0
100
AcDbPoint
 10
932.1321171631425
 20
1883.114133616069
 30
0.0
  0
ENDBLK
  5
51C3
330
51BA
100
AcDbEntity
  8
0
100
AcDbBlockEnd
  0
BLOCK
  5
51C6
330
51C5
100
AcDbEntity
  8
0
100
AcDbBlockBegin
  2
*D34
 70
     1
 10
0.0
 20
0.0
 30
0.0
  3
*D34
  1

  0
LINE
  5
51C7
330
51C5
100
AcDbEntity
  8
Quote
 62
     0
370
    -2
100
AcDbLine
 10
332.1321171631425
 20
1874.375496669511
 30
0.0
 11
332.1321171631425
 21
1883.114133616069
 31
0.0
  0
LINE
  5
51C8
330
51C5
100
AcDbEntity
  8
Quote
 62
     0
370
    -2
100
AcDbLine
 10
652.132117163128
 20
1874.375496669511
 30
0.0
 11
652.132117163128
 21
1883.114133616069
 31
0.0
  0
LINE
  5
51C9
330
51C5
100
AcDbEntity
  8
Quote
 62
     0
370
    -2
100
AcDbLine
 10
332.1321171631425
 20
1883.114133616069
 30
0.0
 11
652.132117163128
 21
1883.114133616069
 31
0.0
  0
MTEXT
  5
51CA
330
51C5
100
AcDbEntity
  8
Quote
 62
     0
100
AcDbMText
 10
492.1321171631353
 20
1895.114133616069
 30
0.0
 40
20.0
 41
0.0
 46
0.0
 71
     5
 72
     1
  1
\A1;320
 73
     1
 44
1.0
  0
POINT
  5
51CB
330
51C5
100
AcDbEntity
  8
Defpoints
 62
     0
100
AcDbPoint
 10
332.1321171631425
 20
1869.375496669511
 30
0.0
  0
POINT
  5
51CC
330
51C5
100
AcDbEntity
  8
Defpoints
 62
     0
100
AcDbPoint
 10
652.132117163128
 20
1869.375496669511
 30
0.0
  0
POINT
  5
51CD
330
51C5
100
AcDbEntity
  8
Defpoints
 62
     0
100
AcDbPoint
 10
652.132117163128
 20
1883.114133616069
 30
0.0
  0
ENDBLK
  5
51CE
330
51C5
100
AcDbEntity
  8
0
100
AcDbBlockEnd
  0
BLOCK
  5
51D1
330
51D0
100
AcDbEntity
  8
0
100
AcDbBlockBegin
  2
*D35
 70
     1
 10
0.0
 20
0.0
 30
0.0
  3
*D35
  1

  0
LINE
  5
51D2
330
51D0
100
AcDbEntity
  8
Quote
 62
     0
370
    -2
100
AcDbLine
 10
932.1321171631425
 20
1874.375496669511
 30
0.0
 11
932.1321171631425
 21
1883.114133616069
 31
0.0
  0
LINE
  5
51D3
330
51D0
100
AcDbEntity
  8
Quote
 62
     0
370
    -2
100
AcDbLine
 10
1252.132117163128
 20
1874.375496669511
 30
0.0
 11
1252.132117163128
 21
1883.114133616069
 31
0.0
  0
LINE
  5
51D4
330
51D0
100
AcDbEntity
  8
Quote
 62
     0
370
    -2
100
AcDbLine
 10
932.1321171631425
 20
1883.114133616069
 30
0.0
 11
1252.132117163128
 21
1883.114133616069
 31
0.0
  0
MTEXT
  5
51D5
330
51D0
100
AcDbEntity
  8
Quote
 62
     0
100
AcDbMText
 10
1092.132117163135
 20
1895.114133616069
 30
0.0
 40
20.0
 41
0.0
 46
0.0
 71
     5
 72
     1
  1
\A1;320
 73
     1
 44
1.0
  0
POINT
  5
51D6
330
51D0
100
AcDbEntity
  8
Defpoints
 62
     0
100
AcDbPoint
 10
932.1321171631425
 20
1869.375496669511
 30
0.0
  0
POINT
  5
51D7
330
51D0
100
AcDbEntity
  8
Defpoints
 62
     0
100
AcDbPoint
 10
1252.132117163128
 20
1869.375496669511
 30
0.0
  0
POINT
  5
51D8
330
51D0
100
AcDbEntity
  8
Defpoints
 62
     0
100
AcDbPoint
 10
1252.132117163128
 20
1883.114133616069
 30
0.0
  0
ENDBLK
  5
51D9
330
51D0
100
AcDbEntity
  8
0
100
AcDbBlockEnd
  0
BLOCK
  5
51DC
330
51DB
100
AcDbEntity
  8
0
100
AcDbBlockBegin
  2
*D36
 70
     1
 10
0.0
 20
0.0
 30
0.0
  3
*D36
  1

  0
LINE
  5
51DD
330
51DB
100
AcDbEntity
  8
Quote
 62
     0
370
    -2
100
AcDbLine
 10
102.5263763946859
 20
1835.666432646183
 30
0.0
 11
76.50458740796603
 21
1835.666432646183
 31
0.0
  0
LINE
  5
51DE
330
51DB
100
AcDbEntity
  8
Quote
 62
     0
370
    -2
100
AcDbLine
 10
102.5263763946859
 20
1335.423858499467
 30
0.0
 11
76.50458740796603
 21
1335.423858499467
 31
0.0
  0
LINE
  5
51DF
330
51DB
100
AcDbEntity
  8
Quote
 62
     0
370
    -2
100
AcDbLine
 10
76.50458740796603
 20
1835.666432646183
 30
0.0
 11
76.50458740796603
 21
1335.423858499467
 31
0.0
  0
MTEXT
  5
51E0
330
51DB
100
AcDbEntity
  8
Quote
 62
     0
100
AcDbMText
 10
64.29458740796599
 20
1599.776263952544
 30
0.0
 40
20.0
 41
0.0
 46
0.0
 71
     5
 72
     1
  1
\A1;\fArial|b0|i0|c0|p0;500
 11
0.0
 21
1.0
 31
0.0
 73
     1
 44
1.0
  0
POINT
  5
51E1
330
51DB
100
AcDbEntity
  8
Defpoints
 62
     0
100
AcDbPoint
 10
107.5263763946859
 20
1835.666432646183
 30
0.0
  0
POINT
  5
51E2
330
51DB
100
AcDbEntity
  8
Defpoints
 62
     0
100
AcDbPoint
 10
107.5263763946859
 20
1335.423858499467
 30
0.0
  0
POINT
  5
51E3
330
51DB
100
AcDbEntity
  8
Defpoints
 62
     0
100
AcDbPoint
 10
76.50458740796603
 20
1335.423858499467
 30
0.0
  0
ENDBLK
  5
51E4
330
51DB
100
AcDbEntity
  8
0
100
AcDbBlockEnd
  0
BLOCK
  5
51E7
330
51E6
100
AcDbEntity
  8
0
100
AcDbBlockBegin
  2
*D37
 70
     1
 10
0.0
 20
0.0
 30
0.0
  3
*D37
  1

  0
LINE
  5
51E8
330
51E6
100
AcDbEntity
  8
Quote
 62
     0
370
    -2
100
AcDbLine
 10
167.1321171631134
 20
1203.915039719919
 30
0.0
 11
167.1321171631134
 21
1186.226767645864
 31
0.0
  0
LINE
  5
51E9
330
51E6
100
AcDbEntity
  8
Quote
 62
     0
370
    -2
100
AcDbLine
 10
1417.132117163113
 20
1203.915039719919
 30
0.0
 11
1417.132117163113
 21
1186.226767645864
 31
0.0
  0
LINE
  5
51EA
330
51E6
100
AcDbEntity
  8
Quote
 62
     0
370
    -2
100
AcDbLine
 10
167.1321171631134
 20
1186.226767645864
 30
0.0
 11
1417.132117163113
 21
1186.226767645864
 31
0.0
  0
MTEXT
  5
51EB
330
51E6
100
AcDbEntity
  8
Quote
 62
     0
100
AcDbMText
 10
792.1321171631134
 20
1174.226767645864
 30
0.0
 40
20.0
 41
0.0
 46
0.0
 71
     5
 72
     1
  1
\A1;1250
 73
     1
 44
1.0
  0
POINT
  5
51EC
330
51E6
100
AcDbEntity
  8
Defpoints
 62
     0
100
AcDbPoint
 10
167.1321171631134
 20
1208.915039719919
 30
0.0
  0
POINT
  5
51ED
330
51E6
100
AcDbEntity
  8
Defpoints
 62
     0
100
AcDbPoint
 10
1417.132117163113
 20
1208.915039719919
 30
0.0
  0
POINT
  5
51EE
330
51E6
100
AcDbEntity
  8
Defpoints
 62
     0
100
AcDbPoint
 10
1417.132117163113
 20
1186.226767645864
 30
0.0
  0
ENDBLK
  5
51EF
330
51E6
100
AcDbEntity
  8
0
100
AcDbBlockEnd
  0
BLOCK
  5
51F2
330
51F1
100
AcDbEntity
  8
0
100
AcDbBlockBegin
  2
*D38
 70
     1
 10
0.0
 20
0.0
 30
0.0
  3
*D38
  1

  0
LINE
  5
51F3
330
51F1
100
AcDbEntity
  8
tratteggio
  6
ByBlock
 62
     0
370
    -2
100
AcDbLine
 10
132.5849557942856
 20
1835.666432646183
 30
0.0
 11
119.6114312088467
 21
1835.666432646183
 31
0.0
  0
LINE
  5
51F4
330
51F1
100
AcDbEntity
  8
tratteggio
  6
ByBlock
 62
     0
370
    -2
100
AcDbLine
 10
132.5849557942856
 20
1375.754830267159
 30
0.0
 11
119.6114312088466
 21
1375.754830267159
 31
0.0
  0
LINE
  5
51F5
330
51F1
100
AcDbEntity
  8
tratteggio
  6
ByBlock
 62
     0
370
    -2
100
AcDbLine
 10
119.6114312088467
 20
1835.666432646183
 30
0.0
 11
119.6114312088466
 21
1375.754830267159
 31
0.0
  0
MTEXT
  5
51F6
330
51F1
100
AcDbEntity
  8
tratteggio
 62
     0
100
AcDbMText
 10
107.6114312088466
 20
1605.710631456671
 30
0.0
 40
20.0
 41
0.0
 46
0.0
 71
     5
 72
     1
  1
\A1;460
 11
6.179820053111206E-17
 21
1.0
 31
0.0
 73
     1
 44
1.0
  0
POINT
  5
51F7
330
51F1
100
AcDbEntity
  8
Defpoints
 62
     0
100
AcDbPoint
 10
137.5849557942856
 20
1835.666432646183
 30
0.0
  0
POINT
  5
51F8
330
51F1
100
AcDbEntity
  8
Defpoints
 62
     0
100
AcDbPoint
 10
137.5849557942856
 20
1375.754830267159
 30
0.0
  0
POINT
  5
51F9
330
51F1
100
AcDbEntity
  8
Defpoints
 62
     0
100
AcDbPoint
 10
119.6114312088466
 20
1375.754830267159
 30
0.0
  0
ENDBLK
  5
51FA
330
51F1
100
AcDbEntity
  8
0
100
AcDbBlockEnd
  0
BLOCK
  5
51FD
330
51FC
100
AcDbEntity
  8
0
100
AcDbBlockBegin
  2
*D39
 70
     1
 10
0.0
 20
0.0
 30
0.0
  3
*D39
  1

  0
LINE
  5
51FE
330
51FC
100
AcDbEntity
  8
tratteggio
  6
ByBlock
 62
     0
370
    -2
100
AcDbLine
 10
474.7477424910321
 20
1272.299771026488
 30
0.0
 11
474.7477424910321
 21
1261.233149817999
 31
0.0
  0
LINE
  5
51FF
330
51FC
100
AcDbEntity
  8
tratteggio
  6
ByBlock
 62
     0
370
    -2
100
AcDbLine
 10
1094.930438042808
 20
1272.299771026488
 30
0.0
 11
1094.930438042808
 21
1261.233149817999
 31
0.0
  0
LINE
  5
5200
330
51FC
100
AcDbEntity
  8
tratteggio
  6
ByBlock
 62
     0
370
    -2
100
AcDbLine
 10
474.7477424910321
 20
1261.233149817999
 30
0.0
 11
1094.930438042808
 21
1261.233149817999
 31
0.0
  0
MTEXT
  5
5201
330
51FC
100
AcDbEntity
  8
tratteggio
 62
     0
100
AcDbMText
 10
784.8390902669198
 20
1249.233149817999
 30
0.0
 40
20.0
 41
0.0
 46
0.0
 71
     5
 72
     1
  1
\A1;620
 73
     1
 44
1.0
  0
POINT
  5
5202
330
51FC
100
AcDbEntity
  8
Defpoints
 62
     0
100
AcDbPoint
 10
474.7477424910321
 20
1277.299771026488
 30
0.0
  0
POINT
  5
5203
330
51FC
100
AcDbEntity
  8
Defpoints
 62
     0
100
AcDbPoint
 10
1094.930438042808
 20
1277.299771026488
 30
0.0
  0
POINT
  5
5204
330
51FC
100
AcDbEntity
  8
Defpoints
 62
     0
100
AcDbPoint
 10
1094.930438042808
 20
1261.233149817999
 30
0.0
  0
ENDBLK
  5
5205
330
51FC
100
AcDbEntity
  8
0
100
AcDbBlockEnd
  0
BLOCK
  5
520B
330
520A
100
AcDbEntity
  8
0
100
AcDbBlockBegin
  2
*D40
 70
     1
 10
0.0
 20
0.0
 30
0.0
  3
*D40
  1

  0
LINE
  5
520C
330
520A
100
AcDbEntity
  8
Quote
 62
     0
370
    -2
100
AcDbLine
 10
1597.256343281115
 20
1835.666403074175
 30
0.0
 11
1584.322701757235
 21
1835.666403074175
 31
0.0
  0
LINE
  5
520D
330
520A
100
AcDbEntity
  8
Quote
 62
     0
370
    -2
100
AcDbLine
 10
1597.402779694603
 20
1608.666398680849
 30
0.0
 11
1584.322701757235
 21
1608.666398680849
 31
0.0
  0
LINE
  5
520E
330
520A
100
AcDbEntity
  8
Quote
 62
     0
370
    -2
100
AcDbLine
 10
1584.322701757235
 20
1835.666403074175
 30
0.0
 11
1584.322701757235
 21
1608.666398680849
 31
0.0
  0
MTEXT
  5
520F
330
520A
100
AcDbEntity
  8
Quote
 62
     0
100
AcDbMText
 10
1572.322701757235
 20
1722.166400877512
 30
0.0
 40
20.0
 41
0.0
 46
0.0
 71
     5
 72
     1
  1
\A1;230
 11
0.0
 21
1.0
 31
0.0
 73
     1
 44
1.0
  0
POINT
  5
5210
330
520A
100
AcDbEntity
  8
Defpoints
 62
     0
100
AcDbPoint
 10
1602.256343281115
 20
1835.666403074175
 30
0.0
  0
POINT
  5
5211
330
520A
100
AcDbEntity
  8
Defpoints
 62
     0
100
AcDbPoint
 10
1602.402779694603
 20
1608.666398680849
 30
0.0
  0
POINT
  5
5212
330
520A
100
AcDbEntity
  8
Defpoints
 62
     0
100
AcDbPoint
 10
1584.322701757235
 20
1608.666398680849
 30
0.0
  0
ENDBLK
  5
5213
330
520A
100
AcDbEntity
  8
0
100
AcDbBlockEnd
  0
BLOCK
  5
5216
330
5215
100
AcDbEntity
  8
0
100
AcDbBlockBegin
  2
*D41
 70
     1
 10
0.0
 20
0.0
 30
0.0
  3
*D41
  1

  0
LINE
  5
5217
330
5215
100
AcDbEntity
  8
Quote
 62
     0
370
    -2
100
AcDbLine
 10
1617.232940361937
 20
1876.478384109845
 30
0.0
 11
1617.232940361937
 21
1883.114133616069
 31
0.0
  0
LINE
  5
5218
330
5215
100
AcDbEntity
  8
Quote
 62
     0
370
    -2
100
AcDbLine
 10
1657.232940361937
 20
1876.478384109845
 30
0.0
 11
1657.232940361937
 21
1883.114133616069
 31
0.0
  0
LINE
  5
5219
330
5215
100
AcDbEntity
  8
Quote
 62
     0
370
    -2
100
AcDbLine
 10
1617.232940361937
 20
1883.114133616069
 30
0.0
 11
1657.232940361937
 21
1883.114133616069
 31
0.0
  0
MTEXT
  5
521A
330
5215
100
AcDbEntity
  8
Quote
 62
     0
100
AcDbMText
 10
1637.232940361937
 20
1895.114133616069
 30
0.0
 40
20.0
 41
0.0
 46
0.0
 71
     5
 72
     1
  1
\A1;40
 73
     1
 44
1.0
  0
POINT
  5
521B
330
5215
100
AcDbEntity
  8
Defpoints
 62
     0
100
AcDbPoint
 10
1617.232940361937
 20
1871.478384109845
 30
0.0
  0
POINT
  5
521C
330
5215
100
AcDbEntity
  8
Defpoints
 62
     0
100
AcDbPoint
 10
1657.232940361937
 20
1871.478384109845
 30
0.0
  0
POINT
  5
521D
330
5215
100
AcDbEntity
  8
Defpoints
 62
     0
100
AcDbPoint
 10
1657.232940361937
 20
1883.114133616069
 30
0.0
  0
ENDBLK
  5
521E
330
5215
100
AcDbEntity
  8
0
100
AcDbBlockEnd
  0
BLOCK
  5
5221
330
5220
100
AcDbEntity
  8
0
100
AcDbBlockBegin
  2
*D42
 70
     1
 10
0.0
 20
0.0
 30
0.0
  3
*D42
  1

  0
LINE
  5
5222
330
5220
100
AcDbEntity
  8
Quote
 62
     0
370
    -2
100
AcDbLine
 10
1657.232940361937
 20
1876.478384109845
 30
0.0
 11
1657.232940361937
 21
1883.114133616069
 31
0.0
  0
LINE
  5
5223
330
5220
100
AcDbEntity
  8
Quote
 62
     0
370
    -2
100
AcDbLine
 10
1787.232945309923
 20
1876.478384109845
 30
0.0
 11
1787.232945309923
 21
1883.114133616069
 31
0.0
  0
LINE
  5
5224
330
5220
100
AcDbEntity
  8
Quote
 62
     0
370
    -2
100
AcDbLine
 10
1657.232940361937
 20
1883.114133616069
 30
0.0
 11
1787.232945309923
 21
1883.114133616069
 31
0.0
  0
MTEXT
  5
5225
330
5220
100
AcDbEntity
  8
Quote
 62
     0
100
AcDbMText
 10
1722.23294283593
 20
1895.114133616069
 30
0.0
 40
20.0
 41
0.0
 46
0.0
 71
     5
 72
     1
  1
\A1;130
 73
     1
 44
1.0
  0
POINT
  5
5226
330
5220
100
AcDbEntity
  8
Defpoints
 62
     0
100
AcDbPoint
 10
1657.232940361937
 20
1871.478384109845
 30
0.0
  0
POINT
  5
5227
330
5220
100
AcDbEntity
  8
Defpoints
 62
     0
100
AcDbPoint
 10
1787.232945309923
 20
1871.478384109845
 30
0.0
  0
POINT
  5
5228
330
5220
100
AcDbEntity
  8
Defpoints
 62
     0
100
AcDbPoint
 10
1787.232945309923
 20
1883.114133616069
 30
0.0
  0
ENDBLK
  5
5229
330
5220
100
AcDbEntity
  8
0
100
AcDbBlockEnd
  0
BLOCK
  5
522C
330
522B
100
AcDbEntity
  8
0
100
AcDbBlockBegin
  2
*D43
 70
     1
 10
0.0
 20
0.0
 30
0.0
  3
*D43
  1

  0
LINE
  5
522D
330
522B
100
AcDbEntity
  8
Quote
 62
     0
370
    -2
100
AcDbLine
 10
1617.232926896642
 20
1276.737008487299
 30
0.0
 11
1617.232926896642
 21
1259.048736413245
 31
0.0
  0
LINE
  5
522E
330
522B
100
AcDbEntity
  8
Quote
 62
     0
370
    -2
100
AcDbLine
 10
1702.232928192869
 20
1276.737008487299
 30
0.0
 11
1702.232928192869
 21
1259.048736413245
 31
0.0
  0
LINE
  5
522F
330
522B
100
AcDbEntity
  8
Quote
 62
     0
370
    -2
100
AcDbLine
 10
1617.232926896642
 20
1259.048736413245
 30
0.0
 11
1702.232928192869
 21
1259.048736413245
 31
0.0
  0
MTEXT
  5
5230
330
522B
100
AcDbEntity
  8
Quote
 62
     0
100
AcDbMText
 10
1661.329279842481
 20
1247.048736413245
 30
0.0
 40
20.0
 41
0.0
 46
0.0
 71
     5
 72
     1
  1
\A1;85
 73
     1
 44
1.0
  0
POINT
  5
5231
330
522B
100
AcDbEntity
  8
Defpoints
 62
     0
100
AcDbPoint
 10
1617.232926896642
 20
1281.737008487299
 30
0.0
  0
POINT
  5
5232
330
522B
100
AcDbEntity
  8
Defpoints
 62
     0
100
AcDbPoint
 10
1702.232928192869
 20
1281.737008487299
 30
0.0
  0
POINT
  5
5233
330
522B
100
AcDbEntity
  8
Defpoints
 62
     0
100
AcDbPoint
 10
1702.232928192869
 20
1259.048736413245
 30
0.0
  0
ENDBLK
  5
5234
330
522B
100
AcDbEntity
  8
0
100
AcDbBlockEnd
  0
BLOCK
  5
5237
330
5236
100
AcDbEntity
  8
0
100
AcDbBlockBegin
  2
*D44
 70
     1
 10
0.0
 20
0.0
 30
0.0
  3
*D44
  1

  0
LINE
  5
5238
330
5236
100
AcDbEntity
  8
Quote
 62
     0
370
    -2
100
AcDbLine
 10
1702.232928192869
 20
1276.737008487299
 30
0.0
 11
1702.232928192869
 21
1259.048736413245
 31
0.0
  0
LINE
  5
5239
330
5236
100
AcDbEntity
  8
Quote
 62
     0
370
    -2
100
AcDbLine
 10
1787.232923812422
 20
1281.737008487299
 30
0.0
 11
1787.232923812422
 21
1259.048736413245
 31
0.0
  0
LINE
  5
523A
330
5236
100
AcDbEntity
  8
Quote
 62
     0
370
    -2
100
AcDbLine
 10
1702.232928192869
 20
1259.048736413245
 30
0.0
 11
1787.232923812422
 21
1259.048736413245
 31
0.0
  0
MTEXT
  5
523B
330
5236
100
AcDbEntity
  8
Quote
 62
     0
100
AcDbMText
 10
1736.476379118423
 20
1247.048736413245
 30
0.0
 40
20.0
 41
0.0
 46
0.0
 71
     5
 72
     1
  1
\A1;85
 73
     1
 44
1.0
  0
POINT
  5
523C
330
5236
100
AcDbEntity
  8
Defpoints
 62
     0
100
AcDbPoint
 10
1702.232928192869
 20
1281.737008487299
 30
0.0
  0
POINT
  5
523D
330
5236
100
AcDbEntity
  8
Defpoints
 62
     0
100
AcDbPoint
 10
1787.232923812422
 20
1286.737008487299
 30
0.0
  0
POINT
  5
523E
330
5236
100
AcDbEntity
  8
Defpoints
 62
     0
100
AcDbPoint
 10
1787.232923812422
 20
1259.048736413245
 30
0.0
  0
ENDBLK
  5
523F
330
5236
100
AcDbEntity
  8
0
100
AcDbBlockEnd
  0
BLOCK
  5
5242
330
5241
100
AcDbEntity
  8
0
100
AcDbBlockBegin
  2
*D45
 70
     1
 10
0.0
 20
0.0
 30
0.0
  3
*D45
  1

  0
LINE
  5
5243
330
5241
100
AcDbEntity
  8
Quote
 62
     0
370
    -2
100
AcDbLine
 10
1617.232926896628
 20
1211.569264581219
 30
0.0
 11
1617.232926896628
 21
1194.204892937183
 31
0.0
  0
LINE
  5
5244
330
5241
100
AcDbEntity
  8
Quote
 62
     0
370
    -2
100
AcDbLine
 10
1787.232923812422
 20
1216.569264581219
 30
0.0
 11
1787.232923812422
 21
1194.204892937183
 31
0.0
  0
LINE
  5
5245
330
5241
100
AcDbEntity
  8
Quote
 62
     0
370
    -2
100
AcDbLine
 10
1617.232926896628
 20
1194.204892937183
 30
0.0
 11
1787.232923812422
 21
1194.204892937183
 31
0.0
  0
MTEXT
  5
5246
330
5241
100
AcDbEntity
  8
Quote
 62
     0
100
AcDbMText
 10
1702.232925354525
 20
1182.204892937183
 30
0.0
 40
20.0
 41
0.0
 46
0.0
 71
     5
 72
     1
  1
\A1;170
 73
     1
 44
1.0
  0
POINT
  5
5247
330
5241
100
AcDbEntity
  8
Defpoints
 62
     0
100
AcDbPoint
 10
1617.232926896628
 20
1216.569264581219
 30
0.0
  0
POINT
  5
5248
330
5241
100
AcDbEntity
  8
Defpoints
 62
     0
100
AcDbPoint
 10
1787.232923812422
 20
1221.569264581219
 30
0.0
  0
POINT
  5
5249
330
5241
100
AcDbEntity
  8
Defpoints
 62
     0
100
AcDbPoint
 10
1787.232923812422
 20
1194.204892937183
 30
0.0
  0
ENDBLK
  5
524A
330
5241
100
AcDbEntity
  8
0
100
AcDbBlockEnd
  0
BLOCK
  5
524D
330
524C
100
AcDbEntity
  8
0
100
AcDbBlockBegin
  2
*D46
 70
     1
 10
0.0
 20
0.0
 30
0.0
  3
*D46
  1

  0
LINE
  5
524E
330
524C
100
AcDbEntity
  8
Quote
 62
     0
370
    -2
100
AcDbLine
 10
1451.292251664374
 20
1836.071007476615
 30
0.0
 11
1483.59020769567
 21
1836.071007476615
 31
0.0
  0
LINE
  5
524F
330
524C
100
AcDbEntity
  8
Quote
 62
     0
370
    -2
100
AcDbLine
 10
1451.292251664374
 20
1706.071007598078
 30
0.0
 11
1483.59020769567
 21
1706.071007598078
 31
0.0
  0
LINE
  5
5250
330
524C
100
AcDbEntity
  8
Quote
 62
     0
370
    -2
100
AcDbLine
 10
1483.59020769567
 20
1836.071007476615
 30
0.0
 11
1483.59020769567
 21
1706.071007598078
 31
0.0
  0
MTEXT
  5
5251
330
524C
100
AcDbEntity
  8
Quote
 62
     0
100
AcDbMText
 10
1495.59020769567
 20
1771.071007537347
 30
0.0
 40
20.0
 41
0.0
 46
0.0
 71
     5
 72
     1
  1
\A1;130
 11
0.0
 21
1.0
 31
0.0
 73
     1
 44
1.0
  0
POINT
  5
5252
330
524C
100
AcDbEntity
  8
Defpoints
 62
     0
100
AcDbPoint
 10
1446.292251664374
 20
1836.071007476615
 30
0.0
  0
POINT
  5
5253
330
524C
100
AcDbEntity
  8
Defpoints
 62
     0
100
AcDbPoint
 10
1446.292251664374
 20
1706.071007598078
 30
0.0
  0
POINT
  5
5254
330
524C
100
AcDbEntity
  8
Defpoints
 62
     0
100
AcDbPoint
 10
1483.59020769567
 20
1706.071007598078
 30
0.0
  0
ENDBLK
  5
5255
330
524C
100
AcDbEntity
  8
0
100
AcDbBlockEnd
  0
BLOCK
  5
5258
330
5257
100
AcDbEntity
  8
0
100
AcDbBlockBegin
  2
*D47
 70
     1
 10
0.0
 20
0.0
 30
0.0
  3
*D47
  1

  0
LINE
  5
5259
330
5257
100
AcDbEntity
  8
Quote
 62
     0
370
    -2
100
AcDbLine
 10
1456.292251664374
 20
1706.071007598078
 30
0.0
 11
1483.59020769567
 21
1706.071007598078
 31
0.0
  0
LINE
  5
525A
330
5257
100
AcDbEntity
  8
Quote
 62
     0
370
    -2
100
AcDbLine
 10
1456.292251664374
 20
1336.069177125915
 30
0.0
 11
1483.59020769567
 21
1336.069177125915
 31
0.0
  0
LINE
  5
525B
330
5257
100
AcDbEntity
  8
Quote
 62
     0
370
    -2
100
AcDbLine
 10
1483.59020769567
 20
1706.071007598078
 30
0.0
 11
1483.59020769567
 21
1336.069177125915
 31
0.0
  0
MTEXT
  5
525C
330
5257
100
AcDbEntity
  8
Quote
 62
     0
100
AcDbMText
 10
1495.59020769567
 20
1521.070092361997
 30
0.0
 40
20.0
 41
0.0
 46
0.0
 71
     5
 72
     1
  1
\A1;370
 11
0.0
 21
1.0
 31
0.0
 73
     1
 44
1.0
  0
POINT
  5
525D
330
5257
100
AcDbEntity
  8
Defpoints
 62
     0
100
AcDbPoint
 10
1451.292251664374
 20
1706.071007598078
 30
0.0
  0
POINT
  5
525E
330
5257
100
AcDbEntity
  8
Defpoints
 62
     0
100
AcDbPoint
 10
1451.292251664374
 20
1336.069177125915
 30
0.0
  0
POINT
  5
525F
330
5257
100
AcDbEntity
  8
Defpoints
 62
     0
100
AcDbPoint
 10
1483.59020769567
 20
1336.069177125915
 30
0.0
  0
ENDBLK
  5
5260
330
5257
100
AcDbEntity
  8
0
100
AcDbBlockEnd
  0
BLOCK
  5
5263
330
5262
100
AcDbEntity
  8
0
100
AcDbBlockBegin
  2
*D48
 70
     1
 10
0.0
 20
0.0
 30
0.0
  3
*D48
  1

  0
LINE
  5
5264
330
5262
100
AcDbEntity
  8
Quote
 62
     0
370
    -2
100
AcDbLine
 10
692.132117163128
 20
1911.703750617251
 30
0.0
 11
692.132117163128
 21
1926.208516279106
 31
0.0
  0
LINE
  5
5265
330
5262
100
AcDbEntity
  8
Quote
 62
     0
370
    -2
100
AcDbLine
 10
792.132117163128
 20
1911.703750617251
 30
0.0
 11
792.132117163128
 21
1926.208516279106
 31
0.0
  0
LINE
  5
5266
330
5262
100
AcDbEntity
  8
Quote
 62
     0
370
    -2
100
AcDbLine
 10
692.132117163128
 20
1926.208516279106
 30
0.0
 11
792.132117163128
 21
1926.208516279106
 31
0.0
  0
MTEXT
  5
5267
330
5262
100
AcDbEntity
  8
Quote
 62
     0
100
AcDbMText
 10
742.132117163128
 20
1938.208516279106
 30
0.0
 40
20.0
 41
0.0
 46
0.0
 71
     5
 72
     1
  1
\A1;100
 73
     1
 44
1.0
  0
POINT
  5
5268
330
5262
100
AcDbEntity
  8
Defpoints
 62
     0
100
AcDbPoint
 10
692.132117163128
 20
1906.703750617251
 30
0.0
  0
POINT
  5
5269
330
5262
100
AcDbEntity
  8
Defpoints
 62
     0
100
AcDbPoint
 10
792.132117163128
 20
1906.703750617251
 30
0.0
  0
POINT
  5
526A
330
5262
100
AcDbEntity
  8
Defpoints
 62
     0
100
AcDbPoint
 10
792.132117163128
 20
1926.208516279106
 30
0.0
  0
ENDBLK
  5
526B
330
5262
100
AcDbEntity
  8
0
100
AcDbBlockEnd
  0
BLOCK
  5
526E
330
526D
100
AcDbEntity
  8
0
100
AcDbBlockBegin
  2
*D49
 70
     1
 10
0.0
 20
0.0
 30
0.0
  3
*D49
  1

  0
LINE
  5
526F
330
526D
100
AcDbEntity
  8
Quote
 62
     0
370
    -2
100
AcDbLine
 10
792.132117163128
 20
1911.703750617251
 30
0.0
 11
792.132117163128
 21
1926.208516279106
 31
0.0
  0
LINE
  5
5270
330
526D
100
AcDbEntity
  8
Quote
 62
     0
370
    -2
100
AcDbLine
 10
892.132117163128
 20
1911.703750617251
 30
0.0
 11
892.132117163128
 21
1926.208516279106
 31
0.0
  0
LINE
  5
5271
330
526D
100
AcDbEntity
  8
Quote
 62
     0
370
    -2
100
AcDbLine
 10
792.132117163128
 20
1926.208516279106
 30
0.0
 11
892.132117163128
 21
1926.208516279106
 31
0.0
  0
MTEXT
  5
5272
330
526D
100
AcDbEntity
  8
Quote
 62
     0
100
AcDbMText
 10
842.132117163128
 20
1938.208516279106
 30
0.0
 40
20.0
 41
0.0
 46
0.0
 71
     5
 72
     1
  1
\A1;100
 73
     1
 44
1.0
  0
POINT
  5
5273
330
526D
100
AcDbEntity
  8
Defpoints
 62
     0
100
AcDbPoint
 10
792.132117163128
 20
1906.703750617251
 30
0.0
  0
POINT
  5
5274
330
526D
100
AcDbEntity
  8
Defpoints
 62
     0
100
AcDbPoint
 10
892.132117163128
 20
1906.703750617251
 30
0.0
  0
POINT
  5
5275
330
526D
100
AcDbEntity
  8
Defpoints
 62
     0
100
AcDbPoint
 10
892.132117163128
 20
1926.208516279106
 30
0.0
  0
ENDBLK
  5
5276
330
526D
100
AcDbEntity
  8
0
100
AcDbBlockEnd
  0
BLOCK
  5
53E4
330
53E3
100
AcDbEntity
  8
0
100
AcDbBlockBegin
  2
*D50
 70
     1
 10
0.0
 20
0.0
 30
0.0
  3
*D50
  1

  0
LINE
  5
53E6
330
53E3
100
AcDbEntity
  8
Quote
 62
     0
370
    -2
100
AcDbLine
 10
2898.542527581507
 20
1393.449783935547
 30
0.0
 11
2862.295088717147
 21
1393.449783935547
 31
0.0
  0
LINE
  5
53E7
330
53E3
100
AcDbEntity
  8
Quote
 62
     0
370
    -2
100
AcDbLine
 10
2898.542527581507
 20
523.4497839355465
 30
0.0
 11
2862.295088717147
 21
523.4497839355465
 31
0.0
  0
LINE
  5
53E8
330
53E3
100
AcDbEntity
  8
Quote
 62
     0
370
    -2
100
AcDbLine
 10
2862.295088717147
 20
1393.449783935547
 30
0.0
 11
2862.295088717147
 21
523.4497839355465
 31
0.0
  0
MTEXT
  5
53E9
330
53E3
100
AcDbEntity
  8
Quote
 62
     0
100
AcDbMText
 10
2850.295088717147
 20
958.4497839355466
 30
0.0
 40
20.0
 41
0.0
 46
0.0
 71
     5
 72
     1
  1
\A1;870
 11
0.0
 21
1.0
 31
0.0
 73
     1
 44
1.0
  0
POINT
  5
53EA
330
53E3
100
AcDbEntity
  8
Defpoints
 62
     0
100
AcDbPoint
 10
2903.542527581507
 20
1393.449783935547
 30
0.0
  0
POINT
  5
53EB
330
53E3
100
AcDbEntity
  8
Defpoints
 62
     0
100
AcDbPoint
 10
2903.542527581507
 20
523.4497839355465
 30
0.0
  0
POINT
  5
53EC
330
53E3
100
AcDbEntity
  8
Defpoints
 62
     0
100
AcDbPoint
 10
2862.295088717147
 20
523.4497839355465
 30
0.0
  0
ENDBLK
  5
53E5
330
53E3
100
AcDbEntity
  8
0
100
AcDbBlockEnd
  0
BLOCK
  5
53EE
330
53ED
100
AcDbEntity
  8
0
100
AcDbBlockBegin
  2
*D51
 70
     1
 10
0.0
 20
0.0
 30
0.0
  3
*D51
  1

  0
LINE
  5
53F0
330
53ED
100
AcDbEntity
  8
Quote
 62
     0
370
    -2
100
AcDbLine
 10
3456.109830230446
 20
1056.496711529836
 30
0.0
 11
3456.109830230446
 21
1040.169289153851
 31
0.0
  0
LINE
  5
53F1
330
53ED
100
AcDbEntity
  8
Quote
 62
     0
370
    -2
100
AcDbLine
 10
3656.109830230446
 20
1056.496711529836
 30
0.0
 11
3656.109830230446
 21
1040.169289153851
 31
0.0
  0
LINE
  5
53F2
330
53ED
100
AcDbEntity
  8
Quote
 62
     0
370
    -2
100
AcDbLine
 10
3456.109830230446
 20
1040.169289153851
 30
0.0
 11
3656.109830230446
 21
1040.169289153851
 31
0.0
  0
MTEXT
  5
53F3
330
53ED
100
AcDbEntity
  8
Quote
 62
     0
100
AcDbMText
 10
3556.109830230446
 20
1028.169289153851
 30
0.0
 40
20.0
 41
0.0
 46
0.0
 71
     5
 72
     1
  1
\A1;200
 73
     1
 44
1.0
  0
POINT
  5
53F4
330
53ED
100
AcDbEntity
  8
Defpoints
 62
     0
100
AcDbPoint
 10
3456.109830230446
 20
1061.496711529836
 30
0.0
  0
POINT
  5
53F5
330
53ED
100
AcDbEntity
  8
Defpoints
 62
     0
100
AcDbPoint
 10
3656.109830230446
 20
1061.496711529836
 30
0.0
  0
POINT
  5
53F6
330
53ED
100
AcDbEntity
  8
Defpoints
 62
     0
100
AcDbPoint
 10
3656.109830230446
 20
1040.169289153851
 30
0.0
  0
ENDBLK
  5
53EF
330
53ED
100
AcDbEntity
  8
0
100
AcDbBlockEnd
  0
BLOCK
  5
53F8
330
53F7
100
AcDbEntity
  8
0
100
AcDbBlockBegin
  2
*D52
 70
     1
 10
0.0
 20
0.0
 30
0.0
  3
*D52
  1

  0
LINE
  5
53FA
330
53F7
100
AcDbEntity
  8
Quote
 62
     0
370
    -2
100
AcDbLine
 10
3404.493667740695
 20
1093.449783935547
 30
0.0
 11
3367.167237437272
 21
1093.449783935547
 31
0.0
  0
LINE
  5
53FB
330
53F7
100
AcDbEntity
  8
Quote
 62
     0
370
    -2
100
AcDbLine
 10
3404.493667740695
 20
523.4497839355465
 30
0.0
 11
3367.167237437272
 21
523.4497839355465
 31
0.0
  0
LINE
  5
53FC
330
53F7
100
AcDbEntity
  8
Quote
 62
     0
370
    -2
100
AcDbLine
 10
3367.167237437272
 20
1093.449783935547
 30
0.0
 11
3367.167237437272
 21
523.4497839355465
 31
0.0
  0
MTEXT
  5
53FD
330
53F7
100
AcDbEntity
  8
Quote
 62
     0
100
AcDbMText
 10
3355.167237437272
 20
808.4497839355465
 30
0.0
 40
20.0
 41
0.0
 46
0.0
 71
     5
 72
     1
  1
\A1;570
 11
0.0
 21
1.0
 31
0.0
 73
     1
 44
1.0
  0
POINT
  5
53FE
330
53F7
100
AcDbEntity
  8
Defpoints
 62
     0
100
AcDbPoint
 10
3409.493667740695
 20
1093.449783935547
 30
0.0
  0
POINT
  5
53FF
330
53F7
100
AcDbEntity
  8
Defpoints
 62
     0
100
AcDbPoint
 10
3409.493667740695
 20
523.4497839355465
 30
0.0
  0
POINT
  5
5400
330
53F7
100
AcDbEntity
  8
Defpoints
 62
     0
100
AcDbPoint
 10
3367.167237437272
 20
523.4497839355465
 30
0.0
  0
ENDBLK
  5
53F9
330
53F7
100
AcDbEntity
  8
0
100
AcDbBlockEnd
  0
BLOCK
  5
5402
330
5401
100
AcDbEntity
  8
0
100
AcDbBlockBegin
  2
*D53
 70
     1
 10
0.0
 20
0.0
 30
0.0
  3
*D53
  1

  0
LINE
  5
5404
330
5401
100
AcDbEntity
  8
Quote
 62
     0
370
    -2
100
AcDbLine
 10
3275.981874794874
 20
1163.449783935547
 30
0.0
 11
3253.240738188703
 21
1163.449783935547
 31
0.0
  0
LINE
  5
5405
330
5401
100
AcDbEntity
  8
Quote
 62
     0
370
    -2
100
AcDbLine
 10
3275.981874794874
 20
523.4497839355465
 30
0.0
 11
3253.240738188703
 21
523.4497839355465
 31
0.0
  0
LINE
  5
5406
330
5401
100
AcDbEntity
  8
Quote
 62
     0
370
    -2
100
AcDbLine
 10
3253.240738188703
 20
1163.449783935547
 30
0.0
 11
3253.240738188703
 21
523.4497839355465
 31
0.0
  0
MTEXT
  5
5407
330
5401
100
AcDbEntity
  8
Quote
 62
     0
100
AcDbMText
 10
3241.240738188703
 20
843.4497839355465
 30
0.0
 40
20.0
 41
0.0
 46
0.0
 71
     5
 72
     1
  1
\A1;640
 11
0.0
 21
1.0
 31
0.0
 73
     1
 44
1.0
  0
POINT
  5
5408
330
5401
100
AcDbEntity
  8
Defpoints
 62
     0
100
AcDbPoint
 10
3280.981874794874
 20
1163.449783935547
 30
0.0
  0
POINT
  5
5409
330
5401
100
AcDbEntity
  8
Defpoints
 62
     0
100
AcDbPoint
 10
3280.981874794874
 20
523.4497839355465
 30
0.0
  0
POINT
  5
540A
330
5401
100
AcDbEntity
  8
Defpoints
 62
     0
100
AcDbPoint
 10
3253.240738188703
 20
523.4497839355465
 30
0.0
  0
ENDBLK
  5
5403
330
5401
100
AcDbEntity
  8
0
100
AcDbBlockEnd
  0
BLOCK
  5
540C
330
540B
100
AcDbEntity
  8
0
100
AcDbBlockBegin
  2
*D54
 70
     1
 10
0.0
 20
0.0
 30
0.0
  3
*D54
  1

  0
LINE
  5
540E
330
540B
100
AcDbEntity
  8
Dim
 62
     0
370
    -2
100
AcDbLine
 10
1544.906129007435
 20
1027.784259260839
 30
0.0
 11
1483.786792878248
 21
1027.784259260839
 31
0.0
  0
LINE
  5
540F
330
540B
100
AcDbEntity
  8
Dim
 62
     0
370
    -2
100
AcDbLine
 10
1544.906129007433
 20
1307.784259260853
 30
0.0
 11
1483.786792878247
 21
1307.784259260853
 31
0.0
  0
LINE
  5
5410
330
540B
100
AcDbEntity
  8
Dim
 62
     0
370
    -2
100
AcDbLine
 10
1483.786792878248
 20
1037.783648909276
 30
0.0
 11
1483.786792878247
 21
1297.784869612416
 31
0.0
  0
INSERT
  5
5411
330
540B
100
AcDbEntity
  8
Dim
 62
     0
370
    -2
100
AcDbBlockReference
  2
_DOT
 10
1483.786792878248
 20
1027.784259260839
 30
0.0
 41
9.999389648437498
 42
9.999389648437498
 43
9.999389648437498
 50
270.0000000000002
  0
INSERT
  5
5412
330
540B
100
AcDbEntity
  8
Dim
 62
     0
370
    -2
100
AcDbBlockReference
  2
_DOT
 10
1483.786792878247
 20
1307.784259260853
 30
0.0
 41
9.999389648437498
 42
9.999389648437498
 43
9.999389648437498
 50
90.0000000000003
  0
MTEXT
  5
5413
330
540B
100
AcDbEntity
  8
Dim
 62
     0
100
AcDbMText
 10
1461.570484284498
 20
1167.784259260846
 30
0.0
 40
24.4326171875
 41
0.0
 46
0.0
 71
     5
 72
     1
  1
\A1;280
  7
ＭＳ ゴシック
 11
-4.872293045211862E-15
 21
1.0
 31
0.0
 73
     1
 44
1.0
  0
POINT
  5
5414
330
540B
100
AcDbEntity
  8
Defpoints
 62
     0
100
AcDbPoint
 10
1569.906129007435
 20
1027.784259260839
 30
0.0
  0
POINT
  5
54B5
330
540B
100
AcDbEntity
  8
Defpoints
 62
     0
100
AcDbPoint
 10
1569.906129007433
 20
1307.784259260854
 30
0.0
  0
POINT
  5
54B6
330
540B
100
AcDbEntity
  8
Defpoints
 62
     0
100
AcDbPoint
 10
1483.786792878247
 20
1307.784259260853
 30
0.0
  0
ENDBLK
  5
540D
330
540B
100
AcDbEntity
  8
0
100
AcDbBlockEnd
  0
BLOCK
  5
5416
330
5415
100
AcDbEntity
  8
0
100
AcDbBlockBegin
  2
*D55
 70
     1
 10
0.0
 20
0.0
 30
0.0
  3
*D55
  1

  0
LINE
  5
5418
330
5415
100
AcDbEntity
  8
Dim
 62
     0
370
    -2
100
AcDbLine
 10
1544.906129007436
 20
707.7842592608534
 30
0.0
 11
1483.78679287825
 21
707.7842592608531
 31
0.0
  0
LINE
  5
5419
330
5415
100
AcDbEntity
  8
Dim
 62
     0
370
    -2
100
AcDbLine
 10
1544.906129007435
 20
1027.784259260839
 30
0.0
 11
1483.786792878249
 21
1027.784259260839
 31
0.0
  0
LINE
  5
541A
330
5415
100
AcDbEntity
  8
Dim
 62
     0
370
    -2
100
AcDbLine
 10
1483.78679287825
 20
717.7836489092906
 30
0.0
 11
1483.786792878249
 21
1017.784869612401
 31
0.0
  0
INSERT
  5
541B
330
5415
100
AcDbEntity
  8
Dim
 62
     0
370
    -2
100
AcDbBlockReference
  2
_DOT
 10
1483.78679287825
 20
707.7842592608531
 30
0.0
 41
9.999389648437498
 42
9.999389648437498
 43
9.999389648437498
 50
270.0000000000002
  0
INSERT
  5
541C
330
5415
100
AcDbEntity
  8
Dim
 62
     0
370
    -2
100
AcDbBlockReference
  2
_DOT
 10
1483.786792878249
 20
1027.784259260839
 30
0.0
 41
9.999389648437498
 42
9.999389648437498
 43
9.999389648437498
 50
90.00000000000024
  0
MTEXT
  5
541D
330
5415
100
AcDbEntity
  8
Dim
 62
     0
100
AcDbMText
 10
1461.5704842845
 20
867.7842592608457
 30
0.0
 40
24.4326171875
 41
0.0
 46
0.0
 71
     5
 72
     1
  1
\A1;320
  7
ＭＳ ゴシック
 11
-4.263256414560795E-15
 21
1.0
 31
0.0
 73
     1
 44
1.0
  0
POINT
  5
541E
330
5415
100
AcDbEntity
  8
Defpoints
 62
     0
100
AcDbPoint
 10
1569.906129007436
 20
707.7842592608536
 30
0.0
  0
POINT
  5
54B7
330
5415
100
AcDbEntity
  8
Defpoints
 62
     0
100
AcDbPoint
 10
1569.906129007435
 20
1027.784259260839
 30
0.0
  0
POINT
  5
54B8
330
5415
100
AcDbEntity
  8
Defpoints
 62
     0
100
AcDbPoint
 10
1483.786792878249
 20
1027.784259260839
 30
0.0
  0
ENDBLK
  5
5417
330
5415
100
AcDbEntity
  8
0
100
AcDbBlockEnd
  0
BLOCK
  5
5420
330
541F
100
AcDbEntity
  8
0
100
AcDbBlockBegin
  2
*D56
 70
     1
 10
0.0
 20
0.0
 30
0.0
  3
*D56
  1

  0
LINE
  5
5422
330
541F
100
AcDbEntity
  8
Dim
 62
     0
370
    -2
100
AcDbLine
 10
1544.906129007433
 20
1307.784259260853
 30
0.0
 11
1483.786792878248
 21
1307.784259260853
 31
0.0
  0
LINE
  5
5423
330
541F
100
AcDbEntity
  8
Dim
 62
     0
370
    -2
100
AcDbLine
 10
1544.906129007431
 20
1627.78425926084
 30
0.0
 11
1483.786792878246
 21
1627.784259260839
 31
0.0
  0
LINE
  5
5424
330
541F
100
AcDbEntity
  8
Dim
 62
     0
370
    -2
100
AcDbLine
 10
1483.786792878248
 20
1317.783648909291
 30
0.0
 11
1483.786792878246
 21
1617.784869612402
 31
0.0
  0
INSERT
  5
5425
330
541F
100
AcDbEntity
  8
Dim
 62
     0
370
    -2
100
AcDbBlockReference
  2
_DOT
 10
1483.786792878248
 20
1307.784259260853
 30
0.0
 41
9.999389648437498
 42
9.999389648437498
 43
9.999389648437498
 50
270.0000000000002
  0
INSERT
  5
5426
330
541F
100
AcDbEntity
  8
Dim
 62
     0
370
    -2
100
AcDbBlockReference
  2
_DOT
 10
1483.786792878246
 20
1627.784259260839
 30
0.0
 41
9.999389648437498
 42
9.999389648437498
 43
9.999389648437498
 50
90.00000000000024
  0
MTEXT
  5
5427
330
541F
100
AcDbEntity
  8
Dim
 62
     0
100
AcDbMText
 10
1461.570484284497
 20
1467.784259260846
 30
0.0
 40
24.4326171875
 41
0.0
 46
0.0
 71
     5
 72
     1
  1
\A1;320
  7
ＭＳ ゴシック
 11
-4.263256414560783E-15
 21
1.0
 31
0.0
 73
     1
 44
1.0
  0
POINT
  5
5428
330
541F
100
AcDbEntity
  8
Defpoints
 62
     0
100
AcDbPoint
 10
1569.906129007433
 20
1307.784259260854
 30
0.0
  0
POINT
  5
54B9
330
541F
100
AcDbEntity
  8
Defpoints
 62
     0
100
AcDbPoint
 10
1569.906129007431
 20
1627.78425926084
 30
0.0
  0
POINT
  5
54BA
330
541F
100
AcDbEntity
  8
Defpoints
 62
     0
100
AcDbPoint
 10
1483.786792878246
 20
1627.784259260839
 30
0.0
  0
ENDBLK
  5
5421
330
541F
100
AcDbEntity
  8
0
100
AcDbBlockEnd
  0
BLOCK
  5
542A
330
5429
100
AcDbEntity
  8
0
100
AcDbBlockBegin
  2
*D57
 70
     1
 10
0.0
 20
0.0
 30
0.0
  3
*D57
  1

  0
LINE
  5
542C
330
5429
100
AcDbEntity
  8
Dim
 62
     0
370
    -2
100
AcDbLine
 10
418.1676958879126
 20
1827.875350835891
 30
0.0
 11
418.1676958879133
 21
1944.275256767021
 31
0.0
  0
LINE
  5
542D
330
5429
100
AcDbEntity
  8
Dim
 62
     0
370
    -2
100
AcDbLine
 10
918.4102700346285
 20
1827.875350835888
 30
0.0
 11
918.4102700346292
 21
1944.275256767019
 31
0.0
  0
LINE
  5
542E
330
5429
100
AcDbEntity
  8
Dim
 62
     0
370
    -2
100
AcDbLine
 10
428.1670855363508
 20
1944.275256767021
 30
0.0
 11
908.4108803861917
 21
1944.275256767019
 31
0.0
  0
INSERT
  5
542F
330
5429
100
AcDbEntity
  8
Dim
 62
     0
370
    -2
100
AcDbBlockReference
  2
_DOT
 10
418.1676958879133
 20
1944.275256767021
 30
0.0
 41
9.999389648437498
 42
9.999389648437498
 43
9.999389648437498
 50
179.9999999999997
  0
INSERT
  5
5430
330
5429
100
AcDbEntity
  8
Dim
 62
     0
370
    -2
100
AcDbBlockReference
  2
_DOT
 10
918.4102700346292
 20
1944.275256767019
 30
0.0
 41
9.999389648437498
 42
9.999389648437498
 43
9.999389648437498
 50
359.9999999999997
  0
MTEXT
  5
5431
330
5429
100
AcDbEntity
  8
Dim
 62
     0
100
AcDbMText
 10
654.0578645815514
 20
1966.49156536077
 30
0.0
 40
24.4326171875
 41
0.0
 46
0.0
 71
     5
 72
     1
  1
\A1;500
  7
ＭＳ ゴシック
 73
     1
 44
1.0
  0
POINT
  5
5432
330
5429
100
AcDbEntity
  8
Defpoints
 62
     0
100
AcDbPoint
 10
418.1676958879125
 20
1802.875350835891
 30
0.0
  0
POINT
  5
54BB
330
5429
100
AcDbEntity
  8
Defpoints
 62
     0
100
AcDbPoint
 10
918.4102700346284
 20
1802.875350835888
 30
0.0
  0
POINT
  5
54BC
330
5429
100
AcDbEntity
  8
Defpoints
 62
     0
100
AcDbPoint
 10
918.4102700346292
 20
1944.275256767019
 30
0.0
  0
ENDBLK
  5
542B
330
5429
100
AcDbEntity
  8
0
100
AcDbBlockEnd
  0
BLOCK
  5
5434
330
5433
100
AcDbEntity
  8
0
100
AcDbBlockBegin
  2
*D58
 70
     1
 10
0.0
 20
0.0
 30
0.0
  3
*D58
  1

  0
LINE
  5
5436
330
5433
100
AcDbEntity
  8
Dim
 62
     0
370
    -2
100
AcDbLine
 10
389.3619094828673
 20
542.7842592608298
 30
0.0
 11
234.0917658027523
 21
542.784259260829
 31
0.0
  0
LINE
  5
5437
330
5433
100
AcDbEntity
  8
Dim
 62
     0
370
    -2
100
AcDbLine
 10
389.3619094828628
 20
1792.78425926083
 30
0.0
 11
234.0917658027465
 21
1792.784259260829
 31
0.0
  0
LINE
  5
5438
330
5433
100
AcDbEntity
  8
Dim
 62
     0
370
    -2
100
AcDbLine
 10
234.0917658027522
 20
552.7836489092665
 30
0.0
 11
234.0917658027466
 21
1782.784869612392
 31
0.0
  0
INSERT
  5
5439
330
5433
100
AcDbEntity
  8
Dim
 62
     0
370
    -2
100
AcDbBlockReference
  2
_DOT
 10
234.0917658027523
 20
542.784259260829
 30
0.0
 41
9.999389648437498
 42
9.999389648437498
 43
9.999389648437498
 50
270.0000000000002
  0
INSERT
  5
543A
330
5433
100
AcDbEntity
  8
Dim
 62
     0
370
    -2
100
AcDbBlockReference
  2
_DOT
 10
234.0917658027465
 20
1792.784259260829
 30
0.0
 41
9.999389648437498
 42
9.999389648437498
 43
9.999389648437498
 50
90.00000000000026
  0
MTEXT
  5
543B
330
5433
100
AcDbEntity
  8
Dim
 62
     0
100
AcDbMText
 10
211.8754572089994
 20
1167.784259260829
 30
0.0
 40
24.4326171875
 41
0.0
 46
0.0
 71
     5
 72
     1
  1
\A1;1250
  7
ＭＳ ゴシック
 11
-4.592948243953287E-15
 21
1.0
 31
0.0
 73
     1
 44
1.0
  0
POINT
  5
543C
330
5433
100
AcDbEntity
  8
Defpoints
 62
     0
100
AcDbPoint
 10
414.3619094828673
 20
542.7842592608299
 30
0.0
  0
POINT
  5
54BD
330
5433
100
AcDbEntity
  8
Defpoints
 62
     0
100
AcDbPoint
 10
414.3619094828628
 20
1792.78425926083
 30
0.0
  0
POINT
  5
54BE
330
5433
100
AcDbEntity
  8
Defpoints
 62
     0
100
AcDbPoint
 10
234.0917658027465
 20
1792.784259260829
 30
0.0
  0
ENDBLK
  5
5435
330
5433
100
AcDbEntity
  8
0
100
AcDbBlockEnd
  0
BLOCK
  5
543E
330
543D
100
AcDbEntity
  8
0
100
AcDbBlockBegin
  2
*D59
 70
     1
 10
0.0
 20
0.0
 30
0.0
  3
*D59
  1

  0
LINE
  5
5440
330
543D
100
AcDbEntity
  8
Dim
  6
ByBlock
 62
     0
370
    -2
100
AcDbLine
 10
5686.862521141256
 20
3068.858796681363
 30
0.0
 11
5735.583045789169
 21
3068.858796681363
 31
0.0
  0
LINE
  5
5441
330
543D
100
AcDbEntity
  8
Dim
  6
ByBlock
 62
     0
370
    -2
100
AcDbLine
 10
5686.862521141255
 20
2608.94719430234
 30
0.0
 11
5735.583045789166
 21
2608.947194302339
 31
0.0
  0
LINE
  5
5442
330
543D
100
AcDbEntity
  8
Dim
  6
ByBlock
 62
     0
370
    -2
100
AcDbLine
 10
5735.583045789169
 20
3058.859407032925
 30
0.0
 11
5735.583045789166
 21
2618.946583950777
 31
0.0
  0
INSERT
  5
5443
330
543D
100
AcDbEntity
  8
Dim
 62
     0
370
    -2
100
AcDbBlockReference
  2
_DOT
 10
5735.583045789169
 20
3068.858796681363
 30
0.0
 41
9.999389648437498
 42
9.999389648437498
 43
9.999389648437498
 50
89.99999999999969
  0
INSERT
  5
5444
330
543D
100
AcDbEntity
  8
Dim
 62
     0
370
    -2
100
AcDbBlockReference
  2
_DOT
 10
5735.583045789166
 20
2608.947194302339
 30
0.0
 41
9.999389648437498
 42
9.999389648437498
 43
9.999389648437498
 50
269.9999999999997
  0
MTEXT
  5
5445
330
543D
100
AcDbEntity
  8
Dim
 62
     0
100
AcDbMText
 10
5713.366737195418
 20
2838.902995491851
 30
0.0
 40
24.4326171875
 41
0.0
 46
0.0
 71
     5
 72
     1
  1
\A1;460
  7
ＭＳ ゴシック
 11
5.932627250986761E-15
 21
1.0
 31
0.0
 73
     1
 44
1.0
  0
POINT
  5
5446
330
543D
100
AcDbEntity
  8
Defpoints
 62
     0
100
AcDbPoint
 10
5661.862521141256
 20
3068.858796681363
 30
0.0
  0
POINT
  5
54D5
330
543D
100
AcDbEntity
  8
Defpoints
 62
     0
100
AcDbPoint
 10
5661.862521141255
 20
2608.94719430234
 30
0.0
  0
POINT
  5
54D6
330
543D
100
AcDbEntity
  8
Defpoints
 62
     0
100
AcDbPoint
 10
5735.583045789166
 20
2608.947194302339
 30
0.0
  0
ENDBLK
  5
543F
330
543D
100
AcDbEntity
  8
0
100
AcDbBlockEnd
  0
BLOCK
  5
5448
330
5447
100
AcDbEntity
  8
0
100
AcDbBlockBegin
  2
*D60
 70
     1
 10
0.0
 20
0.0
 30
0.0
  3
*D60
  1

  0
LINE
  5
544A
330
5447
100
AcDbEntity
  8
Dim
  6
ByBlock
 62
     0
370
    -2
100
AcDbLine
 10
4685.229502986723
 20
2528.865040107263
 30
0.0
 11
4685.229502986723
 21
2495.033707451033
 31
0.0
  0
LINE
  5
544B
330
5447
100
AcDbEntity
  8
Dim
  6
ByBlock
 62
     0
370
    -2
100
AcDbLine
 10
5305.412198538498
 20
2528.865040107267
 30
0.0
 11
5305.412198538498
 21
2495.033707451033
 31
0.0
  0
LINE
  5
544C
330
5447
100
AcDbEntity
  8
Dim
  6
ByBlock
 62
     0
370
    -2
100
AcDbLine
 10
4695.22889263516
 20
2495.033707451033
 30
0.0
 11
5295.412808890061
 21
2495.033707451033
 31
0.0
  0
INSERT
  5
544D
330
5447
100
AcDbEntity
  8
Dim
 62
     0
370
    -2
100
AcDbBlockReference
  2
_DOT
 10
4685.229502986723
 20
2495.033707451033
 30
0.0
 41
9.999389648437498
 42
9.999389648437498
 43
9.999389648437498
 50
180.0
  0
INSERT
  5
544E
330
5447
100
AcDbEntity
  8
Dim
 62
     0
370
    -2
100
AcDbBlockReference
  2
_DOT
 10
5305.412198538498
 20
2495.033707451033
 30
0.0
 41
9.999389648437498
 42
9.999389648437498
 43
9.999389648437498
  0
MTEXT
  5
544F
330
5447
100
AcDbEntity
  8
Dim
 62
     0
100
AcDbMText
 10
4995.32085076261
 20
2517.250016044783
 30
0.0
 40
24.4326171875
 41
0.0
 46
0.0
 71
     5
 72
     1
  1
\A1;620
  7
ＭＳ ゴシック
 73
     1
 44
1.0
  0
POINT
  5
5450
330
5447
100
AcDbEntity
  8
Defpoints
 62
     0
100
AcDbPoint
 10
4685.229502986723
 20
2553.865040107263
 30
0.0
  0
POINT
  5
54D7
330
5447
100
AcDbEntity
  8
Defpoints
 62
     0
100
AcDbPoint
 10
5305.412198538498
 20
2553.865040107267
 30
0.0
  0
POINT
  5
54D8
330
5447
100
AcDbEntity
  8
Defpoints
 62
     0
100
AcDbPoint
 10
5305.412198538498
 20
2495.033707451033
 30
0.0
  0
ENDBLK
  5
5449
330
5447
100
AcDbEntity
  8
0
100
AcDbBlockEnd
  0
BLOCK
  5
5452
330
5451
100
AcDbEntity
  8
0
100
AcDbBlockBegin
  2
*D61
 70
     1
 10
0.0
 20
0.0
 30
0.0
  3
*D61
  1

  0
LINE
  5
5454
330
5451
100
AcDbEntity
  8
Dim
 62
     0
370
    -2
100
AcDbLine
 10
1783.424850260591
 20
2634.853611449749
 30
0.0
 11
1884.062433847152
 21
2634.853611449749
 31
0.0
  0
LINE
  5
5455
330
5451
100
AcDbEntity
  8
Dim
 62
     0
370
    -2
100
AcDbLine
 10
1783.57128667408
 20
2407.853607056423
 30
0.0
 11
1884.062433847153
 21
2407.853607056423
 31
0.0
  0
LINE
  5
5456
330
5451
100
AcDbEntity
  8
Dim
 62
     0
370
    -2
100
AcDbLine
 10
1884.062433847152
 20
2624.854221801312
 30
0.0
 11
1884.062433847153
 21
2417.852996704861
 31
0.0
  0
INSERT
  5
5457
330
5451
100
AcDbEntity
  8
Dim
 62
     0
370
    -2
100
AcDbBlockReference
  2
_DOT
 10
1884.062433847152
 20
2634.853611449749
 30
0.0
 41
9.999389648437498
 42
9.999389648437498
 43
9.999389648437498
 50
90.0000000000003
  0
INSERT
  5
5458
330
5451
100
AcDbEntity
  8
Dim
 62
     0
370
    -2
100
AcDbBlockReference
  2
_DOT
 10
1884.062433847153
 20
2407.853607056423
 30
0.0
 41
9.999389648437498
 42
9.999389648437498
 43
9.999389648437498
 50
270.0000000000002
  0
MTEXT
  5
5459
330
5451
100
AcDbEntity
  8
Dim
 62
     0
100
AcDbMText
 10
1861.846125253403
 20
2521.353609253085
 30
0.0
 40
24.4326171875
 41
0.0
 46
0.0
 71
     5
 72
     1
  1
\A1;230
  7
ＭＳ ゴシック
 11
-5.008230639706478E-15
 21
1.0
 31
0.0
 73
     1
 44
1.0
  0
POINT
  5
545A
330
5451
100
AcDbEntity
  8
Defpoints
 62
     0
100
AcDbPoint
 10
1758.424850260591
 20
2634.853611449749
 30
0.0
  0
POINT
  5
54BF
330
5451
100
AcDbEntity
  8
Defpoints
 62
     0
100
AcDbPoint
 10
1758.57128667408
 20
2407.853607056423
 30
0.0
  0
POINT
  5
54C0
330
5451
100
AcDbEntity
  8
Defpoints
 62
     0
100
AcDbPoint
 10
1884.062433847153
 20
2407.853607056423
 30
0.0
  0
ENDBLK
  5
5453
330
5451
100
AcDbEntity
  8
0
100
AcDbBlockEnd
  0
BLOCK
  5
545C
330
545B
100
AcDbEntity
  8
0
100
AcDbBlockBegin
  2
*D62
 70
     1
 10
0.0
 20
0.0
 30
0.0
  3
*D62
  1

  0
LINE
  5
545E
330
545B
100
AcDbEntity
  8
Dim
 62
     0
370
    -2
100
AcDbLine
 10
1580.297730964522
 20
510.9054222726522
 30
0.0
 11
1580.297730964522
 21
435.7865022888477
 31
0.0
  0
LINE
  5
545F
330
545B
100
AcDbEntity
  8
Dim
 62
     0
370
    -2
100
AcDbLine
 10
1620.297730964522
 20
658.284769884704
 30
0.0
 11
1620.297730964522
 21
435.7865022888477
 31
0.0
  0
LINE
  5
5460
330
545B
100
AcDbEntity
  8
Dim
 62
     0
370
    -2
100
AcDbLine
 10
1590.29712061296
 20
435.7865022888477
 30
0.0
 11
1610.298341316085
 21
435.7865022888477
 31
0.0
  0
INSERT
  5
5461
330
545B
100
AcDbEntity
  8
Dim
 62
     0
370
    -2
100
AcDbBlockReference
  2
_DOT
 10
1580.297730964522
 20
435.7865022888477
 30
0.0
 41
9.999389648437498
 42
9.999389648437498
 43
9.999389648437498
 50
180.0
  0
INSERT
  5
5462
330
545B
100
AcDbEntity
  8
Dim
 62
     0
370
    -2
100
AcDbBlockReference
  2
_DOT
 10
1620.297730964522
 20
435.7865022888477
 30
0.0
 41
9.999389648437498
 42
9.999389648437498
 43
9.999389648437498
  0
MTEXT
  5
5463
330
545B
100
AcDbEntity
  8
Dim
 62
     0
100
AcDbMText
 10
1600.297730964525
 20
458.0028108825977
 30
0.0
 40
24.4326171875
 41
0.0
 46
0.0
 71
     5
 72
     1
  1
\A1;40
  7
ＭＳ ゴシック
 73
     1
 44
1.0
  0
POINT
  5
5464
330
545B
100
AcDbEntity
  8
Defpoints
 62
     0
100
AcDbPoint
 10
1580.297730964522
 20
535.9054222726522
 30
0.0
  0
POINT
  5
54C1
330
545B
100
AcDbEntity
  8
Defpoints
 62
     0
100
AcDbPoint
 10
1620.297730964522
 20
683.284769884704
 30
0.0
  0
POINT
  5
54C2
330
545B
100
AcDbEntity
  8
Defpoints
 62
     0
100
AcDbPoint
 10
1620.297730964522
 20
435.7865022888477
 30
0.0
  0
ENDBLK
  5
545D
330
545B
100
AcDbEntity
  8
0
100
AcDbBlockEnd
  0
BLOCK
  5
5466
330
5465
100
AcDbEntity
  8
0
100
AcDbBlockBegin
  2
*D63
 70
     1
 10
0.0
 20
0.0
 30
0.0
  3
*D63
  1

  0
LINE
  5
5468
330
5465
100
AcDbEntity
  8
Dim
 62
     0
370
    -2
100
AcDbLine
 10
4429.883807439547
 20
2737.300650196571
 30
0.0
 11
4429.883807439547
 21
2723.936399702795
 31
0.0
  0
LINE
  5
5469
330
5465
100
AcDbEntity
  8
Dim
 62
     0
370
    -2
100
AcDbLine
 10
4559.883812387533
 20
2737.300650196571
 30
0.0
 11
4559.883812387533
 21
2723.936399702795
 31
0.0
  0
LINE
  5
546A
330
5465
100
AcDbEntity
  8
Dim
 62
     0
370
    -2
100
AcDbLine
 10
4439.883197087985
 20
2723.936399702795
 30
0.0
 11
4549.884422739095
 21
2723.936399702795
 31
0.0
  0
INSERT
  5
546B
330
5465
100
AcDbEntity
  8
Dim
 62
     0
370
    -2
100
AcDbBlockReference
  2
_DOT
 10
4429.883807439547
 20
2723.936399702795
 30
0.0
 41
9.999389648437498
 42
9.999389648437498
 43
9.999389648437498
 50
180.0
  0
INSERT
  5
546C
330
5465
100
AcDbEntity
  8
Dim
 62
     0
370
    -2
100
AcDbBlockReference
  2
_DOT
 10
4559.883812387533
 20
2723.936399702795
 30
0.0
 41
9.999389648437498
 42
9.999389648437498
 43
9.999389648437498
  0
MTEXT
  5
546D
330
5465
100
AcDbEntity
  8
Dim
 62
     0
100
AcDbMText
 10
4494.88380991354
 20
2746.152708296545
 30
0.0
 40
24.4326171875
 41
0.0
 46
0.0
 71
     5
 72
     1
  1
\A1;130
  7
ＭＳ ゴシック
 73
     1
 44
1.0
  0
POINT
  5
546E
330
5465
100
AcDbEntity
  8
Defpoints
 62
     0
100
AcDbPoint
 10
4429.883807439547
 20
2712.300650196571
 30
0.0
  0
POINT
  5
54C5
330
5465
100
AcDbEntity
  8
Defpoints
 62
     0
100
AcDbPoint
 10
4559.883812387533
 20
2712.300650196571
 30
0.0
  0
POINT
  5
54C6
330
5465
100
AcDbEntity
  8
Defpoints
 62
     0
100
AcDbPoint
 10
4559.883812387533
 20
2723.936399702795
 30
0.0
  0
ENDBLK
  5
5467
330
5465
100
AcDbEntity
  8
0
100
AcDbBlockEnd
  0
BLOCK
  5
5470
330
546F
100
AcDbEntity
  8
0
100
AcDbBlockBegin
  2
*D64
 70
     1
 10
0.0
 20
0.0
 30
0.0
  3
*D64
  1

  0
LINE
  5
5472
330
546F
100
AcDbEntity
  8
Dim
 62
     0
370
    -2
100
AcDbLine
 10
1580.29771749922
 20
2097.097640388225
 30
0.0
 11
1580.29771749922
 21
2058.235944788817
 31
0.0
  0
LINE
  5
5473
330
546F
100
AcDbEntity
  8
Dim
 62
     0
370
    -2
100
AcDbLine
 10
1665.297718795447
 20
2097.097640388225
 30
0.0
 11
1665.297718795447
 21
2058.235944788817
 31
0.0
  0
LINE
  5
5474
330
546F
100
AcDbEntity
  8
Dim
 62
     0
370
    -2
100
AcDbLine
 10
1590.297107147658
 20
2058.235944788817
 30
0.0
 11
1655.298329147009
 21
2058.235944788817
 31
0.0
  0
INSERT
  5
5475
330
546F
100
AcDbEntity
  8
Dim
 62
     0
370
    -2
100
AcDbBlockReference
  2
_DOT
 10
1580.29771749922
 20
2058.235944788817
 30
0.0
 41
9.999389648437498
 42
9.999389648437498
 43
9.999389648437498
 50
180.0
  0
INSERT
  5
5476
330
546F
100
AcDbEntity
  8
Dim
 62
     0
370
    -2
100
AcDbBlockReference
  2
_DOT
 10
1665.297718795447
 20
2058.235944788817
 30
0.0
 41
9.999389648437498
 42
9.999389648437498
 43
9.999389648437498
  0
MTEXT
  5
5477
330
546F
100
AcDbEntity
  8
Dim
 62
     0
100
AcDbMText
 10
1624.394070445059
 20
2080.452253382567
 30
0.0
 40
24.4326171875
 41
0.0
 46
0.0
 71
     5
 72
     1
  1
\A1;85
  7
ＭＳ ゴシック
 73
     1
 44
1.0
  0
POINT
  5
5478
330
546F
100
AcDbEntity
  8
Defpoints
 62
     0
100
AcDbPoint
 10
1580.29771749922
 20
2122.097640388225
 30
0.0
  0
POINT
  5
54C7
330
546F
100
AcDbEntity
  8
Defpoints
 62
     0
100
AcDbPoint
 10
1665.297718795447
 20
2122.097640388225
 30
0.0
  0
POINT
  5
54C8
330
546F
100
AcDbEntity
  8
Defpoints
 62
     0
100
AcDbPoint
 10
1665.297718795447
 20
2058.235944788817
 30
0.0
  0
ENDBLK
  5
5471
330
546F
100
AcDbEntity
  8
0
100
AcDbBlockEnd
  0
BLOCK
  5
547A
330
5479
100
AcDbEntity
  8
0
100
AcDbBlockBegin
  2
*D65
 70
     1
 10
0.0
 20
0.0
 30
0.0
  3
*D65
  1

  0
LINE
  5
547C
330
5479
100
AcDbEntity
  8
Dim
 62
     0
370
    -2
100
AcDbLine
 10
1665.297718795447
 20
2097.097640388225
 30
0.0
 11
1665.297718795447
 21
2058.235944788818
 31
0.0
  0
LINE
  5
547D
330
5479
100
AcDbEntity
  8
Dim
 62
     0
370
    -2
100
AcDbLine
 10
1750.297714414999
 20
2193.649498576677
 30
0.0
 11
1750.297714414999
 21
2058.235944788818
 31
0.0
  0
LINE
  5
547E
330
5479
100
AcDbEntity
  8
Dim
 62
     0
370
    -2
100
AcDbLine
 10
1675.297108443884
 20
2058.235944788818
 30
0.0
 11
1740.298324766562
 21
2058.235944788818
 31
0.0
  0
INSERT
  5
547F
330
5479
100
AcDbEntity
  8
Dim
 62
     0
370
    -2
100
AcDbBlockReference
  2
_DOT
 10
1665.297718795447
 20
2058.235944788818
 30
0.0
 41
9.999389648437498
 42
9.999389648437498
 43
9.999389648437498
 50
180.0
  0
INSERT
  5
5480
330
5479
100
AcDbEntity
  8
Dim
 62
     0
370
    -2
100
AcDbBlockReference
  2
_DOT
 10
1750.297714414999
 20
2058.235944788818
 30
0.0
 41
9.999389648437498
 42
9.999389648437498
 43
9.999389648437498
  0
MTEXT
  5
5481
330
5479
100
AcDbEntity
  8
Dim
 62
     0
100
AcDbMText
 10
1699.541169721001
 20
2080.452253382568
 30
0.0
 40
24.4326171875
 41
0.0
 46
0.0
 71
     5
 72
     1
  1
\A1;85
  7
ＭＳ ゴシック
 73
     1
 44
1.0
  0
POINT
  5
5482
330
5479
100
AcDbEntity
  8
Defpoints
 62
     0
100
AcDbPoint
 10
1665.297718795447
 20
2122.097640388225
 30
0.0
  0
POINT
  5
54C9
330
5479
100
AcDbEntity
  8
Defpoints
 62
     0
100
AcDbPoint
 10
1750.297714414999
 20
2218.649498576677
 30
0.0
  0
POINT
  5
54CA
330
5479
100
AcDbEntity
  8
Defpoints
 62
     0
100
AcDbPoint
 10
1750.297714414999
 20
2058.235944788818
 30
0.0
  0
ENDBLK
  5
547B
330
5479
100
AcDbEntity
  8
0
100
AcDbBlockEnd
  0
BLOCK
  5
5484
330
5483
100
AcDbEntity
  8
0
100
AcDbBlockBegin
  2
*D66
 70
     1
 10
0.0
 20
0.0
 30
0.0
  3
*D66
  1

  0
LINE
  5
5486
330
5483
100
AcDbEntity
  8
Dim
 62
     0
370
    -2
100
AcDbLine
 10
1580.297717499207
 20
1828.606393929435
 30
0.0
 11
1580.297717499207
 21
1870.068060949928
 31
0.0
  0
LINE
  5
5487
330
5483
100
AcDbEntity
  8
Dim
 62
     0
370
    -2
100
AcDbLine
 10
1750.297714415002
 20
1470.767902895218
 30
0.0
 11
1750.297714415002
 21
1870.068060949928
 31
0.0
  0
LINE
  5
5488
330
5483
100
AcDbEntity
  8
Dim
 62
     0
370
    -2
100
AcDbLine
 10
1590.297107147645
 20
1870.068060949928
 30
0.0
 11
1740.298324766564
 21
1870.068060949928
 31
0.0
  0
INSERT
  5
5489
330
5483
100
AcDbEntity
  8
Dim
 62
     0
370
    -2
100
AcDbBlockReference
  2
_DOT
 10
1580.297717499207
 20
1870.068060949928
 30
0.0
 41
9.999389648437498
 42
9.999389648437498
 43
9.999389648437498
 50
180.0
  0
INSERT
  5
548A
330
5483
100
AcDbEntity
  8
Dim
 62
     0
370
    -2
100
AcDbBlockReference
  2
_DOT
 10
1750.297714415002
 20
1870.068060949928
 30
0.0
 41
9.999389648437498
 42
9.999389648437498
 43
9.999389648437498
  0
MTEXT
  5
548B
330
5483
100
AcDbEntity
  8
Dim
 62
     0
100
AcDbMText
 10
1665.297715957103
 20
1892.284369543678
 30
0.0
 40
24.4326171875
 41
0.0
 46
0.0
 71
     5
 72
     1
  1
\A1;170
  7
ＭＳ ゴシック
 73
     1
 44
1.0
  0
POINT
  5
548C
330
5483
100
AcDbEntity
  8
Defpoints
 62
     0
100
AcDbPoint
 10
1580.297717499207
 20
1803.606393929435
 30
0.0
  0
POINT
  5
54CB
330
5483
100
AcDbEntity
  8
Defpoints
 62
     0
100
AcDbPoint
 10
1750.297714415002
 20
1445.767902895218
 30
0.0
  0
POINT
  5
54CC
330
5483
100
AcDbEntity
  8
Defpoints
 62
     0
100
AcDbPoint
 10
1750.297714415002
 20
1870.068060949928
 30
0.0
  0
ENDBLK
  5
5485
330
5483
100
AcDbEntity
  8
0
100
AcDbBlockEnd
  0
BLOCK
  5
548E
330
548D
100
AcDbEntity
  8
0
100
AcDbBlockBegin
  2
*D67
 70
     1
 10
0.0
 20
0.0
 30
0.0
  3
*D67
  1

  0
LINE
  5
5490
330
548D
100
AcDbEntity
  8
Dim
 62
     0
370
    -2
100
AcDbLine
 10
5681.774012160061
 20
3069.263371511805
 30
0.0
 11
5694.071968191357
 21
3069.263371511805
 31
0.0
  0
LINE
  5
5491
330
548D
100
AcDbEntity
  8
Dim
 62
     0
370
    -2
100
AcDbLine
 10
5681.774012160062
 20
2939.263371633268
 30
0.0
 11
5694.071968191358
 21
2939.263371633268
 31
0.0
  0
LINE
  5
5492
330
548D
100
AcDbEntity
  8
Dim
 62
     0
370
    -2
100
AcDbLine
 10
5694.071968191357
 20
3059.263981863367
 30
0.0
 11
5694.071968191358
 21
2949.262761281705
 31
0.0
  0
INSERT
  5
5493
330
548D
100
AcDbEntity
  8
Dim
 62
     0
370
    -2
100
AcDbBlockReference
  2
_DOT
 10
5694.071968191357
 20
3069.263371511805
 30
0.0
 41
9.999389648437498
 42
9.999389648437498
 43
9.999389648437498
 50
90.0000000000004
  0
INSERT
  5
5494
330
548D
100
AcDbEntity
  8
Dim
 62
     0
370
    -2
100
AcDbBlockReference
  2
_DOT
 10
5694.071968191358
 20
2939.263371633268
 30
0.0
 41
9.999389648437498
 42
9.999389648437498
 43
9.999389648437498
 50
270.0000000000004
  0
MTEXT
  5
5495
330
548D
100
AcDbEntity
  8
Dim
 62
     0
100
AcDbMText
 10
5671.855659597608
 20
3004.263371572536
 30
0.0
 40
24.4326171875
 41
0.0
 46
0.0
 71
     5
 72
     1
  1
\A1;130
  7
ＭＳ ゴシック
 11
-6.996113097097671E-15
 21
1.0
 31
0.0
 73
     1
 44
1.0
  0
POINT
  5
5496
330
548D
100
AcDbEntity
  8
Defpoints
 62
     0
100
AcDbPoint
 10
5656.774012160061
 20
3069.263371511804
 30
0.0
  0
POINT
  5
54CD
330
548D
100
AcDbEntity
  8
Defpoints
 62
     0
100
AcDbPoint
 10
5656.774012160062
 20
2939.263371633267
 30
0.0
  0
POINT
  5
54CE
330
548D
100
AcDbEntity
  8
Defpoints
 62
     0
100
AcDbPoint
 10
5694.071968191358
 20
2939.263371633268
 30
0.0
  0
ENDBLK
  5
548F
330
548D
100
AcDbEntity
  8
0
100
AcDbBlockEnd
  0
BLOCK
  5
5498
330
5497
100
AcDbEntity
  8
0
100
AcDbBlockBegin
  2
*D68
 70
     1
 10
0.0
 20
0.0
 30
0.0
  3
*D68
  1

  0
LINE
  5
549A
330
5497
100
AcDbEntity
  8
Dim
 62
     0
370
    -2
100
AcDbLine
 10
5686.774012160062
 20
2939.263371633268
 30
0.0
 11
5694.071968191358
 21
2939.263371633268
 31
0.0
  0
LINE
  5
549B
330
5497
100
AcDbEntity
  8
Dim
 62
     0
370
    -2
100
AcDbLine
 10
5686.774012160064
 20
2569.261541161104
 30
0.0
 11
5694.07196819136
 21
2569.261541161104
 31
0.0
  0
LINE
  5
549C
330
5497
100
AcDbEntity
  8
Dim
 62
     0
370
    -2
100
AcDbLine
 10
5694.071968191358
 20
2929.26398198483
 30
0.0
 11
5694.07196819136
 21
2579.260930809541
 31
0.0
  0
INSERT
  5
549D
330
5497
100
AcDbEntity
  8
Dim
 62
     0
370
    -2
100
AcDbBlockReference
  2
_DOT
 10
5694.071968191358
 20
2939.263371633268
 30
0.0
 41
9.999389648437498
 42
9.999389648437498
 43
9.999389648437498
 50
90.0000000000003
  0
INSERT
  5
549E
330
5497
100
AcDbEntity
  8
Dim
 62
     0
370
    -2
100
AcDbBlockReference
  2
_DOT
 10
5694.07196819136
 20
2569.261541161104
 30
0.0
 41
9.999389648437498
 42
9.999389648437498
 43
9.999389648437498
 50
270.0000000000002
  0
MTEXT
  5
549F
330
5497
100
AcDbEntity
  8
Dim
 62
     0
100
AcDbMText
 10
5671.855659597609
 20
2754.262456397186
 30
0.0
 40
24.4326171875
 41
0.0
 46
0.0
 71
     5
 72
     1
  1
\A1;370
  7
ＭＳ ゴシック
 11
-4.916163255799631E-15
 21
1.0
 31
0.0
 73
     1
 44
1.0
  0
POINT
  5
54A0
330
5497
100
AcDbEntity
  8
Defpoints
 62
     0
100
AcDbPoint
 10
5661.774012160062
 20
2939.263371633267
 30
0.0
  0
POINT
  5
54CF
330
5497
100
AcDbEntity
  8
Defpoints
 62
     0
100
AcDbPoint
 10
5661.774012160064
 20
2569.261541161104
 30
0.0
  0
POINT
  5
54D0
330
5497
100
AcDbEntity
  8
Defpoints
 62
     0
100
AcDbPoint
 10
5694.07196819136
 20
2569.261541161104
 30
0.0
  0
ENDBLK
  5
5499
330
5497
100
AcDbEntity
  8
0
100
AcDbBlockEnd
  0
BLOCK
  5
54A2
330
54A1
100
AcDbEntity
  8
0
100
AcDbBlockBegin
  2
*D69
 70
     1
 10
0.0
 20
0.0
 30
0.0
  3
*D69
  1

  0
LINE
  5
54A4
330
54A1
100
AcDbEntity
  8
Dim
 62
     0
370
    -2
100
AcDbLine
 10
445.8374462207903
 20
1067.784259260841
 30
0.0
 11
335.970948197883
 21
1067.78425926084
 31
0.0
  0
LINE
  5
54A5
330
54A1
100
AcDbEntity
  8
Dim
 62
     0
370
    -2
100
AcDbLine
 10
445.8374462207903
 20
1167.784259260841
 30
0.0
 11
335.9709481978825
 21
1167.78425926084
 31
0.0
  0
LINE
  5
54A6
330
54A1
100
AcDbEntity
  8
Dim
 62
     0
370
    -2
100
AcDbLine
 10
335.9709481978829
 20
1077.783648909278
 30
0.0
 11
335.9709481978826
 21
1157.784869612403
 31
0.0
  0
INSERT
  5
54A7
330
54A1
100
AcDbEntity
  8
Dim
 62
     0
370
    -2
100
AcDbBlockReference
  2
_DOT
 10
335.970948197883
 20
1067.78425926084
 30
0.0
 41
9.999389648437498
 42
9.999389648437498
 43
9.999389648437498
 50
270.0000000000002
  0
INSERT
  5
54A8
330
54A1
100
AcDbEntity
  8
Dim
 62
     0
370
    -2
100
AcDbBlockReference
  2
_DOT
 10
335.9709481978825
 20
1167.78425926084
 30
0.0
 41
9.999389648437498
 42
9.999389648437498
 43
9.999389648437498
 50
90.00000000000026
  0
MTEXT
  5
54A9
330
54A1
100
AcDbEntity
  8
Dim
 62
     0
100
AcDbMText
 10
313.7546396041328
 20
1117.78425926084
 30
0.0
 40
24.4326171875
 41
0.0
 46
0.0
 71
     5
 72
     1
  1
\A1;100
  7
ＭＳ ゴシック
 11
-4.547473508864641E-15
 21
1.0
 31
0.0
 73
     1
 44
1.0
  0
POINT
  5
54AA
330
54A1
100
AcDbEntity
  8
Defpoints
 62
     0
100
AcDbPoint
 10
470.8374462207903
 20
1067.784259260841
 30
0.0
  0
POINT
  5
54D1
330
54A1
100
AcDbEntity
  8
Defpoints
 62
     0
100
AcDbPoint
 10
470.8374462207903
 20
1167.784259260841
 30
0.0
  0
POINT
  5
54D2
330
54A1
100
AcDbEntity
  8
Defpoints
 62
     0
100
AcDbPoint
 10
335.9709481978825
 20
1167.78425926084
 30
0.0
  0
ENDBLK
  5
54A3
330
54A1
100
AcDbEntity
  8
0
100
AcDbBlockEnd
  0
BLOCK
  5
54AC
330
54AB
100
AcDbEntity
  8
0
100
AcDbBlockBegin
  2
*D70
 70
     1
 10
0.0
 20
0.0
 30
0.0
  3
*D70
  1

  0
LINE
  5
54AE
330
54AB
100
AcDbEntity
  8
Dim
 62
     0
370
    -2
100
AcDbLine
 10
445.8374462207903
 20
1167.784259260841
 30
0.0
 11
335.970948197883
 21
1167.78425926084
 31
0.0
  0
LINE
  5
54AF
330
54AB
100
AcDbEntity
  8
Dim
 62
     0
370
    -2
100
AcDbLine
 10
445.8374462207903
 20
1267.784259260841
 30
0.0
 11
335.9709481978825
 21
1267.78425926084
 31
0.0
  0
LINE
  5
54B0
330
54AB
100
AcDbEntity
  8
Dim
 62
     0
370
    -2
100
AcDbLine
 10
335.9709481978829
 20
1177.783648909278
 30
0.0
 11
335.9709481978826
 21
1257.784869612403
 31
0.0
  0
INSERT
  5
54B1
330
54AB
100
AcDbEntity
  8
Dim
 62
     0
370
    -2
100
AcDbBlockReference
  2
_DOT
 10
335.970948197883
 20
1167.78425926084
 30
0.0
 41
9.999389648437498
 42
9.999389648437498
 43
9.999389648437498
 50
270.0000000000002
  0
INSERT
  5
54B2
330
54AB
100
AcDbEntity
  8
Dim
 62
     0
370
    -2
100
AcDbBlockReference
  2
_DOT
 10
335.9709481978825
 20
1267.78425926084
 30
0.0
 41
9.999389648437498
 42
9.999389648437498
 43
9.999389648437498
 50
90.00000000000026
  0
MTEXT
  5
54B3
330
54AB
100
AcDbEntity
  8
Dim
 62
     0
100
AcDbMText
 10
313.7546396041328
 20
1217.78425926084
 30
0.0
 40
24.4326171875
 41
0.0
 46
0.0
 71
     5
 72
     1
  1
\A1;100
  7
ＭＳ ゴシック
 11
-4.547473508864641E-15
 21
1.0
 31
0.0
 73
     1
 44
1.0
  0
POINT
  5
54B4
330
54AB
100
AcDbEntity
  8
Defpoints
 62
     0
100
AcDbPoint
 10
470.8374462207903
 20
1167.784259260841
 30
0.0
  0
POINT
  5
54D3
330
54AB
100
AcDbEntity
  8
Defpoints
 62
     0
100
AcDbPoint
 10
470.8374462207903
 20
1267.784259260841
 30
0.0
  0
POINT
  5
54D4
330
54AB
100
AcDbEntity
  8
Defpoints
 62
     0
100
AcDbPoint
 10
335.9709481978825
 20
1267.78425926084
 30
0.0
  0
ENDBLK
  5
54AD
330
54AB
100
AcDbEntity
  8
0
100
AcDbBlockEnd
  0
BLOCK
  5
54F2
330
54F1
100
AcDbEntity
  8
0
100
AcDbBlockBegin
  2
*D71
 70
     1
 10
0.0
 20
0.0
 30
0.0
  3
*D71
  1

  0
LINE
  5
54F4
330
54F1
100
AcDbEntity
  8
Dim
  6
Continuous
 62
     0
370
    -2
100
AcDbLine
 10
1558.297731095654
 20
2634.853612912797
 30
0.0
 11
1498.567155296039
 21
2634.853612912797
 31
0.0
  0
LINE
  5
54F5
330
54F1
100
AcDbEntity
  8
Dim
  6
Continuous
 62
     0
370
    -2
100
AcDbLine
 10
1558.297731095655
 20
2569.853612912797
 30
0.0
 11
1498.567155296039
 21
2569.853612912797
 31
0.0
  0
LINE
  5
54F6
330
54F1
100
AcDbEntity
  8
Dim
  6
Continuous
 62
     0
370
    -2
100
AcDbLine
 10
1498.567155296039
 20
2624.854223264359
 30
0.0
 11
1498.567155296039
 21
2579.853002561234
 31
0.0
  0
INSERT
  5
54F7
330
54F1
100
AcDbEntity
  8
Dim
 62
     0
370
    -2
100
AcDbBlockReference
  2
_DOT
 10
1498.567155296039
 20
2634.853612912797
 30
0.0
 41
9.999389648437498
 42
9.999389648437498
 43
9.999389648437498
 50
90.0000000000002
  0
INSERT
  5
54F8
330
54F1
100
AcDbEntity
  8
Dim
 62
     0
370
    -2
100
AcDbBlockReference
  2
_DOT
 10
1498.567155296039
 20
2569.853612912797
 30
0.0
 41
9.999389648437498
 42
9.999389648437498
 43
9.999389648437498
 50
270.0000000000002
  0
MTEXT
  5
54F9
330
54F1
100
AcDbEntity
  8
Dim
 62
     0
100
AcDbMText
 10
1476.350846702289
 20
2602.353612912797
 30
0.0
 40
24.4326171875
 41
0.0
 46
0.0
 71
     5
 72
     1
  1
\A1;65
  7
ＭＳ ゴシック
 11
-3.498056545280493E-15
 21
1.0
 31
0.0
 73
     1
 44
1.0
  0
POINT
  5
54FA
330
54F1
100
AcDbEntity
  8
Defpoints
 62
     0
100
AcDbPoint
 10
1583.297731095654
 20
2634.853612912797
 30
0.0
  0
POINT
  5
54FB
330
54F1
100
AcDbEntity
  8
Defpoints
 62
     0
100
AcDbPoint
 10
1583.297731095655
 20
2569.853612912797
 30
0.0
  0
POINT
  5
54FC
330
54F1
100
AcDbEntity
  8
Defpoints
 62
     0
100
AcDbPoint
 10
1498.567155296039
 20
2569.853612912797
 30
0.0
  0
ENDBLK
  5
54F3
330
54F1
100
AcDbEntity
  8
0
100
AcDbBlockEnd
  0
BLOCK
  5
5526
330
5525
100
AcDbEntity
  8
0
100
AcDbBlockBegin
  2
*D72
 70
     1
 10
0.0
 20
0.0
 30
0.0
  3
*D72
  1

  0
LINE
  5
5528
330
5525
100
AcDbEntity
  8
Dim
 62
     0
370
    -2
100
AcDbLine
 10
417.7631210574673
 20
511.2534665225126
 30
0.0
 11
417.7631210574673
 21
420.4975396489529
 31
0.0
  0
LINE
  5
5529
330
5525
100
AcDbEntity
  8
Dim
 62
     0
370
    -2
100
AcDbLine
 10
547.7631209360043
 20
774.5390141778266
 30
0.0
 11
547.7631209360043
 21
420.4975396489513
 31
0.0
  0
LINE
  5
552A
330
5525
100
AcDbEntity
  8
Dim
 62
     0
370
    -2
100
AcDbLine
 10
427.7625107059048
 20
420.4975396489527
 30
0.0
 11
537.7637312875668
 21
420.4975396489514
 31
0.0
  0
INSERT
  5
552B
330
5525
100
AcDbEntity
  8
Dim
 62
     0
370
    -2
100
AcDbBlockReference
  2
_DOT
 10
417.7631210574673
 20
420.4975396489529
 30
0.0
 41
9.999389648437498
 42
9.999389648437498
 43
9.999389648437498
 50
179.9999999999993
  0
INSERT
  5
552C
330
5525
100
AcDbEntity
  8
Dim
 62
     0
370
    -2
100
AcDbBlockReference
  2
_DOT
 10
547.7631209360043
 20
420.4975396489513
 30
0.0
 41
9.999389648437498
 42
9.999389648437498
 43
9.999389648437498
 50
359.9999999999993
  0
MTEXT
  5
552D
330
5525
100
AcDbEntity
  8
Dim
 62
     0
100
AcDbMText
 10
482.7631209967361
 20
442.7138482427021
 30
0.0
 40
24.4326171875
 41
0.0
 46
0.0
 71
     5
 72
     1
  1
\A1;130
  7
ＭＳ ゴシック
 73
     1
 44
1.0
  0
POINT
  5
552E
330
5525
100
AcDbEntity
  8
Defpoints
 62
     0
100
AcDbPoint
 10
417.7631210574673
 20
536.2534665225126
 30
0.0
  0
POINT
  5
552F
330
5525
100
AcDbEntity
  8
Defpoints
 62
     0
100
AcDbPoint
 10
547.7631209360043
 20
799.5390141778266
 30
0.0
  0
POINT
  5
5530
330
5525
100
AcDbEntity
  8
Defpoints
 62
     0
100
AcDbPoint
 10
547.7631209360043
 20
420.4975396489513
 30
0.0
  0
ENDBLK
  5
5527
330
5525
100
AcDbEntity
  8
0
100
AcDbBlockEnd
  0
BLOCK
  5
5532
330
5531
100
AcDbEntity
  8
0
100
AcDbBlockBegin
  2
*D73
 70
     1
 10
0.0
 20
0.0
 30
0.0
  3
*D73
  1

  0
LINE
  5
5534
330
5531
100
AcDbEntity
  8
Dim
 62
     0
370
    -2
100
AcDbLine
 10
4341.083084920486
 20
2939.263371633271
 30
0.0
 11
4255.327158046925
 21
2939.263371633272
 31
0.0
  0
LINE
  5
5535
330
5531
100
AcDbEntity
  8
Dim
 62
     0
370
    -2
100
AcDbLine
 10
4647.613877658818
 20
2575.813399511472
 30
0.0
 11
4255.327158046922
 21
2575.813399511476
 31
0.0
  0
LINE
  5
5536
330
5531
100
AcDbEntity
  8
Dim
 62
     0
370
    -2
100
AcDbLine
 10
4255.327158046925
 20
2929.263981984834
 30
0.0
 11
4255.327158046922
 21
2585.812789159913
 31
0.0
  0
INSERT
  5
5537
330
5531
100
AcDbEntity
  8
Dim
 62
     0
370
    -2
100
AcDbBlockReference
  2
_DOT
 10
4255.327158046925
 20
2939.263371633272
 30
0.0
 41
9.999389648437498
 42
9.999389648437498
 43
9.999389648437498
 50
89.99999999999943
  0
INSERT
  5
5538
330
5531
100
AcDbEntity
  8
Dim
 62
     0
370
    -2
100
AcDbBlockReference
  2
_DOT
 10
4255.327158046922
 20
2575.813399511476
 30
0.0
 41
9.999389648437498
 42
9.999389648437498
 43
9.999389648437498
 50
269.9999999999994
  0
MTEXT
  5
5539
330
5531
100
AcDbEntity
  8
Dim
 62
     0
100
AcDbMText
 10
4233.110849453174
 20
2757.538385572374
 30
0.0
 40
24.4326171875
 41
0.0
 46
0.0
 71
     5
 72
     1
  1
\A1;363.4
  7
ＭＳ ゴシック
 11
1.000957239273797E-14
 21
1.0
 31
0.0
 73
     1
 44
1.0
  0
POINT
  5
553A
330
5531
100
AcDbEntity
  8
Defpoints
 62
     0
100
AcDbPoint
 10
4366.083084920486
 20
2939.26337163327
 30
0.0
  0
POINT
  5
553B
330
5531
100
AcDbEntity
  8
Defpoints
 62
     0
100
AcDbPoint
 10
4672.613877658818
 20
2575.813399511471
 30
0.0
  0
POINT
  5
553C
330
5531
100
AcDbEntity
  8
Defpoints
 62
     0
100
AcDbPoint
 10
4255.327158046922
 20
2575.813399511476
 30
0.0
  0
ENDBLK
  5
5533
330
5531
100
AcDbEntity
  8
0
100
AcDbBlockEnd
  0
BLOCK
  5
5568
330
5567
100
AcDbEntity
  8
0
100
AcDbBlockBegin
  2
*D74
 70
     1
 10
0.0
 20
0.0
 30
0.0
  3
*D74
  1

  0
LINE
  5
556A
330
5567
100
AcDbEntity
  8
Dim
 62
     0
370
    -2
100
AcDbLine
 10
7535.48189081441
 20
3068.858796681363
 30
0.0
 11
7752.36338953628
 21
3068.858796681362
 31
0.0
  0
LINE
  5
556B
330
5567
100
AcDbEntity
  8
Dim
 62
     0
370
    -2
100
AcDbLine
 10
7535.481890814408
 20
2568.616222534647
 30
0.0
 11
7752.363389536278
 21
2568.616222534646
 31
0.0
  0
LINE
  5
556C
330
5567
100
AcDbEntity
  8
Dim
 62
     0
370
    -2
100
AcDbLine
 10
7752.36338953628
 20
3058.859407032925
 30
0.0
 11
7752.363389536278
 21
2578.615612183084
 31
0.0
  0
INSERT
  5
556D
330
5567
100
AcDbEntity
  8
Dim
 62
     0
370
    -2
100
AcDbBlockReference
  2
_DOT
 10
7752.36338953628
 20
3068.858796681362
 30
0.0
 41
9.999389648437498
 42
9.999389648437498
 43
9.999389648437498
 50
89.99999999999982
  0
INSERT
  5
556E
330
5567
100
AcDbEntity
  8
Dim
 62
     0
370
    -2
100
AcDbBlockReference
  2
_DOT
 10
7752.363389536278
 20
2568.616222534646
 30
0.0
 41
9.999389648437498
 42
9.999389648437498
 43
9.999389648437498
 50
269.9999999999998
  0
MTEXT
  5
556F
330
5567
100
AcDbEntity
  8
Dim
 62
     0
100
AcDbMText
 10
7730.147080942529
 20
2832.968627987724
 30
0.0
 40
24.4326171875
 41
0.0
 46
0.0
 71
     5
 72
     1
  1
\A1;500
  7
ＭＳ ゴシック
 11
3.636214703733645E-15
 21
1.0
 31
0.0
 73
     1
 44
1.0
  0
POINT
  5
5570
330
5567
100
AcDbEntity
  8
Defpoints
 62
     0
100
AcDbPoint
 10
7510.48189081441
 20
3068.858796681363
 30
0.0
  0
POINT
  5
5571
330
5567
100
AcDbEntity
  8
Defpoints
 62
     0
100
AcDbPoint
 10
7510.481890814408
 20
2568.616222534647
 30
0.0
  0
POINT
  5
5572
330
5567
100
AcDbEntity
  8
Defpoints
 62
     0
100
AcDbPoint
 10
7752.363389536278
 20
2568.616222534646
 30
0.0
  0
ENDBLK
  5
5569
330
5567
100
AcDbEntity
  8
0
100
AcDbBlockEnd
  0
BLOCK
  5
5574
330
5573
100
AcDbEntity
  8
0
100
AcDbBlockBegin
  2
*D75
 70
     1
 10
0.0
 20
0.0
 30
0.0
  3
*D75
  1

  0
LINE
  5
5576
330
5573
100
AcDbEntity
  8
Dim
 62
     0
370
    -2
100
AcDbLine
 10
6196.174667932358
 20
3097.664583086406
 30
0.0
 11
6196.174667932358
 21
3252.934726766529
 31
0.0
  0
LINE
  5
5577
330
5573
100
AcDbEntity
  8
Dim
 62
     0
370
    -2
100
AcDbLine
 10
7446.174667932358
 20
3097.664583086413
 30
0.0
 11
7446.174667932358
 21
3252.934726766529
 31
0.0
  0
LINE
  5
5578
330
5573
100
AcDbEntity
  8
Dim
 62
     0
370
    -2
100
AcDbLine
 10
6206.174057580795
 20
3252.934726766529
 30
0.0
 11
7436.17527828392
 21
3252.934726766529
 31
0.0
  0
INSERT
  5
5579
330
5573
100
AcDbEntity
  8
Dim
 62
     0
370
    -2
100
AcDbBlockReference
  2
_DOT
 10
6196.174667932358
 20
3252.934726766529
 30
0.0
 41
9.999389648437498
 42
9.999389648437498
 43
9.999389648437498
 50
180.0
  0
INSERT
  5
557A
330
5573
100
AcDbEntity
  8
Dim
 62
     0
370
    -2
100
AcDbBlockReference
  2
_DOT
 10
7446.174667932358
 20
3252.934726766529
 30
0.0
 41
9.999389648437498
 42
9.999389648437498
 43
9.999389648437498
  0
MTEXT
  5
557B
330
5573
100
AcDbEntity
  8
Dim
 62
     0
100
AcDbMText
 10
6821.174667932358
 20
3275.151035360279
 30
0.0
 40
24.4326171875
 41
0.0
 46
0.0
 71
     5
 72
     1
  1
\A1;1250
  7
ＭＳ ゴシック
 73
     1
 44
1.0
  0
POINT
  5
557C
330
5573
100
AcDbEntity
  8
Defpoints
 62
     0
100
AcDbPoint
 10
6196.174667932358
 20
3072.664583086406
 30
0.0
  0
POINT
  5
557D
330
5573
100
AcDbEntity
  8
Defpoints
 62
     0
100
AcDbPoint
 10
7446.174667932358
 20
3072.664583086413
 30
0.0
  0
POINT
  5
557E
330
5573
100
AcDbEntity
  8
Defpoints
 62
     0
100
AcDbPoint
 10
7446.174667932358
 20
3252.934726766529
 30
0.0
  0
ENDBLK
  5
5575
330
5573
100
AcDbEntity
  8
0
100
AcDbBlockEnd
  0
BLOCK
  5
5580
330
557F
100
AcDbEntity
  8
0
100
AcDbBlockBegin
  2
*D76
 70
     1
 10
0.0
 20
0.0
 30
0.0
  3
*D76
  1

  0
LINE
  5
5582
330
557F
100
AcDbEntity
  8
Dim
  6
ByBlock
 62
     0
370
    -2
100
AcDbLine
 10
6503.790293260276
 20
2485.49213506167
 30
0.0
 11
6503.790293260276
 21
2494.425513853185
 31
0.0
  0
LINE
  5
5583
330
557F
100
AcDbEntity
  8
Dim
  6
ByBlock
 62
     0
370
    -2
100
AcDbLine
 10
7123.972988812052
 20
2485.492135061674
 30
0.0
 11
7123.972988812052
 21
2494.425513853185
 31
0.0
  0
LINE
  5
5584
330
557F
100
AcDbEntity
  8
Dim
  6
ByBlock
 62
     0
370
    -2
100
AcDbLine
 10
6513.789682908714
 20
2494.425513853185
 30
0.0
 11
7113.973599163614
 21
2494.425513853185
 31
0.0
  0
INSERT
  5
5585
330
557F
100
AcDbEntity
  8
Dim
 62
     0
370
    -2
100
AcDbBlockReference
  2
_DOT
 10
6503.790293260276
 20
2494.425513853185
 30
0.0
 41
9.999389648437498
 42
9.999389648437498
 43
9.999389648437498
 50
180.0
  0
INSERT
  5
5586
330
557F
100
AcDbEntity
  8
Dim
 62
     0
370
    -2
100
AcDbBlockReference
  2
_DOT
 10
7123.972988812052
 20
2494.425513853185
 30
0.0
 41
9.999389648437498
 42
9.999389648437498
 43
9.999389648437498
  0
MTEXT
  5
5587
330
557F
100
AcDbEntity
  8
Dim
 62
     0
100
AcDbMText
 10
6813.881641036164
 20
2516.641822446935
 30
0.0
 40
24.4326171875
 41
0.0
 46
0.0
 71
     5
 72
     1
  1
\A1;620.2
  7
ＭＳ ゴシック
 73
     1
 44
1.0
  0
POINT
  5
5588
330
557F
100
AcDbEntity
  8
Defpoints
 62
     0
100
AcDbPoint
 10
6503.790293260276
 20
2510.49213506167
 30
0.0
  0
POINT
  5
5589
330
557F
100
AcDbEntity
  8
Defpoints
 62
     0
100
AcDbPoint
 10
7123.972988812052
 20
2510.492135061674
 30
0.0
  0
POINT
  5
558A
330
557F
100
AcDbEntity
  8
Defpoints
 62
     0
100
AcDbPoint
 10
7123.972988812052
 20
2494.425513853185
 30
0.0
  0
ENDBLK
  5
5581
330
557F
100
AcDbEntity
  8
0
100
AcDbBlockEnd
  0
BLOCK
  5
558C
330
558B
100
AcDbEntity
  8
0
100
AcDbBlockBegin
  2
*D77
 70
     1
 10
0.0
 20
0.0
 30
0.0
  3
*D77
  1

  0
LINE
  5
558E
330
558B
100
AcDbEntity
  8
Dim
 62
     0
370
    -2
100
AcDbLine
 10
6721.174667932369
 20
3041.189046348484
 30
0.0
 11
6721.174667932369
 21
3151.055544371392
 31
0.0
  0
LINE
  5
558F
330
558B
100
AcDbEntity
  8
Dim
 62
     0
370
    -2
100
AcDbLine
 10
6821.174667932369
 20
3041.189046348484
 30
0.0
 11
6821.174667932369
 21
3151.055544371392
 31
0.0
  0
LINE
  5
5590
330
558B
100
AcDbEntity
  8
Dim
 62
     0
370
    -2
100
AcDbLine
 10
6731.174057580806
 20
3151.055544371392
 30
0.0
 11
6811.175278283931
 21
3151.055544371392
 31
0.0
  0
INSERT
  5
5591
330
558B
100
AcDbEntity
  8
Dim
 62
     0
370
    -2
100
AcDbBlockReference
  2
_DOT
 10
6721.174667932369
 20
3151.055544371392
 30
0.0
 41
9.999389648437498
 42
9.999389648437498
 43
9.999389648437498
 50
180.0
  0
INSERT
  5
5592
330
558B
100
AcDbEntity
  8
Dim
 62
     0
370
    -2
100
AcDbBlockReference
  2
_DOT
 10
6821.174667932369
 20
3151.055544371392
 30
0.0
 41
9.999389648437498
 42
9.999389648437498
 43
9.999389648437498
  0
MTEXT
  5
5593
330
558B
100
AcDbEntity
  8
Dim
 62
     0
100
AcDbMText
 10
6771.174667932369
 20
3173.271852965142
 30
0.0
 40
24.4326171875
 41
0.0
 46
0.0
 71
     5
 72
     1
  1
\A1;100
  7
ＭＳ ゴシック
 73
     1
 44
1.0
  0
POINT
  5
5594
330
558B
100
AcDbEntity
  8
Defpoints
 62
     0
100
AcDbPoint
 10
6721.174667932369
 20
3016.189046348484
 30
0.0
  0
POINT
  5
5595
330
558B
100
AcDbEntity
  8
Defpoints
 62
     0
100
AcDbPoint
 10
6821.174667932369
 20
3016.189046348484
 30
0.0
  0
POINT
  5
5596
330
558B
100
AcDbEntity
  8
Defpoints
 62
     0
100
AcDbPoint
 10
6821.174667932369
 20
3151.055544371392
 30
0.0
  0
ENDBLK
  5
558D
330
558B
100
AcDbEntity
  8
0
100
AcDbBlockEnd
  0
BLOCK
  5
5598
330
5597
100
AcDbEntity
  8
0
100
AcDbBlockBegin
  2
*D78
 70
     1
 10
0.0
 20
0.0
 30
0.0
  3
*D78
  1

  0
LINE
  5
559A
330
5597
100
AcDbEntity
  8
Dim
 62
     0
370
    -2
100
AcDbLine
 10
6821.174667932369
 20
3041.189046348484
 30
0.0
 11
6821.174667932369
 21
3151.055544371393
 31
0.0
  0
LINE
  5
559B
330
5597
100
AcDbEntity
  8
Dim
 62
     0
370
    -2
100
AcDbLine
 10
6921.174667932369
 20
3041.189046348485
 30
0.0
 11
6921.174667932369
 21
3151.055544371393
 31
0.0
  0
LINE
  5
559C
330
5597
100
AcDbEntity
  8
Dim
 62
     0
370
    -2
100
AcDbLine
 10
6831.174057580806
 20
3151.055544371393
 30
0.0
 11
6911.175278283931
 21
3151.055544371393
 31
0.0
  0
INSERT
  5
559D
330
5597
100
AcDbEntity
  8
Dim
 62
     0
370
    -2
100
AcDbBlockReference
  2
_DOT
 10
6821.174667932369
 20
3151.055544371393
 30
0.0
 41
9.999389648437498
 42
9.999389648437498
 43
9.999389648437498
 50
180.0
  0
INSERT
  5
559E
330
5597
100
AcDbEntity
  8
Dim
 62
     0
370
    -2
100
AcDbBlockReference
  2
_DOT
 10
6921.174667932369
 20
3151.055544371393
 30
0.0
 41
9.999389648437498
 42
9.999389648437498
 43
9.999389648437498
  0
MTEXT
  5
559F
330
5597
100
AcDbEntity
  8
Dim
 62
     0
100
AcDbMText
 10
6871.174667932369
 20
3173.271852965143
 30
0.0
 40
24.4326171875
 41
0.0
 46
0.0
 71
     5
 72
     1
  1
\A1;100
  7
ＭＳ ゴシック
 73
     1
 44
1.0
  0
POINT
  5
55A0
330
5597
100
AcDbEntity
  8
Defpoints
 62
     0
100
AcDbPoint
 10
6821.174667932369
 20
3016.189046348484
 30
0.0
  0
POINT
  5
55A1
330
5597
100
AcDbEntity
  8
Defpoints
 62
     0
100
AcDbPoint
 10
6921.174667932369
 20
3016.189046348485
 30
0.0
  0
POINT
  5
55A2
330
5597
100
AcDbEntity
  8
Defpoints
 62
     0
100
AcDbPoint
 10
6921.174667932369
 20
3151.055544371393
 30
0.0
  0
ENDBLK
  5
5599
330
5597
100
AcDbEntity
  8
0
100
AcDbBlockEnd
  0
BLOCK
  5
55A4
330
55A3
100
AcDbEntity
  8
0
100
AcDbBlockBegin
  2
*D79
 70
     1
 10
0.0
 20
0.0
 30
0.0
  3
*D79
  1

  0
LINE
  5
55A6
330
55A3
100
AcDbEntity
  8
Dim
 62
     0
370
    -2
100
AcDbLine
 10
6164.64387519404
 20
3069.263371511807
 30
0.0
 11
6073.887948320481
 21
3069.263371511808
 31
0.0
  0
LINE
  5
55A7
330
55A3
100
AcDbEntity
  8
Dim
 62
     0
370
    -2
100
AcDbLine
 10
6427.929422849355
 20
2939.26337163327
 30
0.0
 11
6073.887948320479
 21
2939.263371633273
 31
0.0
  0
LINE
  5
55A8
330
55A3
100
AcDbEntity
  8
Dim
 62
     0
370
    -2
100
AcDbLine
 10
6073.887948320481
 20
3059.263981863371
 30
0.0
 11
6073.887948320479
 21
2949.262761281711
 31
0.0
  0
INSERT
  5
55A9
330
55A3
100
AcDbEntity
  8
Dim
 62
     0
370
    -2
100
AcDbBlockReference
  2
_DOT
 10
6073.887948320481
 20
3069.263371511808
 30
0.0
 41
9.999389648437498
 42
9.999389648437498
 43
9.999389648437498
 50
89.9999999999992
  0
INSERT
  5
55AA
330
55A3
100
AcDbEntity
  8
Dim
 62
     0
370
    -2
100
AcDbBlockReference
  2
_DOT
 10
6073.887948320479
 20
2939.263371633273
 30
0.0
 41
9.999389648437498
 42
9.999389648437498
 43
9.999389648437498
 50
269.9999999999992
  0
MTEXT
  5
55AB
330
55A3
100
AcDbEntity
  8
Dim
 62
     0
100
AcDbMText
 10
6051.67163972673
 20
3004.263371572541
 30
0.0
 40
24.4326171875
 41
0.0
 46
0.0
 71
     5
 72
     1
  1
\A1;130
  7
ＭＳ ゴシック
 11
1.399222619419559E-14
 21
1.0
 31
0.0
 73
     1
 44
1.0
  0
POINT
  5
55AC
330
55A3
100
AcDbEntity
  8
Defpoints
 62
     0
100
AcDbPoint
 10
6189.64387519404
 20
3069.263371511807
 30
0.0
  0
POINT
  5
55AD
330
55A3
100
AcDbEntity
  8
Defpoints
 62
     0
100
AcDbPoint
 10
6452.929422849355
 20
2939.263371633269
 30
0.0
  0
POINT
  5
55AE
330
55A3
100
AcDbEntity
  8
Defpoints
 62
     0
100
AcDbPoint
 10
6073.887948320479
 20
2939.263371633273
 30
0.0
  0
ENDBLK
  5
55A5
330
55A3
100
AcDbEntity
  8
0
100
AcDbBlockEnd
  0
BLOCK
  5
55B0
330
55AF
100
AcDbEntity
  8
0
100
AcDbBlockBegin
  2
*D80
 70
     1
 10
0.0
 20
0.0
 30
0.0
  3
*D80
  1

  0
LINE
  5
55B2
330
55AF
100
AcDbEntity
  8
Dim
 62
     0
370
    -2
100
AcDbLine
 10
6159.64387519404
 20
2939.26337163327
 30
0.0
 11
6073.887948320479
 21
2939.263371633271
 31
0.0
  0
LINE
  5
55B3
330
55AF
100
AcDbEntity
  8
Dim
 62
     0
370
    -2
100
AcDbLine
 10
6159.643875194036
 20
2569.261541161107
 30
0.0
 11
6073.887948320476
 21
2569.261541161108
 31
0.0
  0
LINE
  5
55B4
330
55AF
100
AcDbEntity
  8
Dim
 62
     0
370
    -2
100
AcDbLine
 10
6073.887948320479
 20
2929.263981984834
 30
0.0
 11
6073.887948320476
 21
2579.260930809545
 31
0.0
  0
INSERT
  5
55B5
330
55AF
100
AcDbEntity
  8
Dim
 62
     0
370
    -2
100
AcDbBlockReference
  2
_DOT
 10
6073.887948320479
 20
2939.263371633271
 30
0.0
 41
9.999389648437498
 42
9.999389648437498
 43
9.999389648437498
 50
89.99999999999945
  0
INSERT
  5
55B6
330
55AF
100
AcDbEntity
  8
Dim
 62
     0
370
    -2
100
AcDbBlockReference
  2
_DOT
 10
6073.887948320476
 20
2569.261541161108
 30
0.0
 41
9.999389648437498
 42
9.999389648437498
 43
9.999389648437498
 50
269.9999999999994
  0
MTEXT
  5
55B7
330
55AF
100
AcDbEntity
  8
Dim
 62
     0
100
AcDbMText
 10
6051.671639726727
 20
2754.262456397189
 30
0.0
 40
24.4326171875
 41
0.0
 46
0.0
 71
     5
 72
     1
  1
\A1;370
  7
ＭＳ ゴシック
 11
9.832326511599275E-15
 21
1.0
 31
0.0
 73
     1
 44
1.0
  0
POINT
  5
55B8
330
55AF
100
AcDbEntity
  8
Defpoints
 62
     0
100
AcDbPoint
 10
6184.64387519404
 20
2939.26337163327
 30
0.0
  0
POINT
  5
55B9
330
55AF
100
AcDbEntity
  8
Defpoints
 62
     0
100
AcDbPoint
 10
6184.643875194036
 20
2569.261541161106
 30
0.0
  0
POINT
  5
55BA
330
55AF
100
AcDbEntity
  8
Defpoints
 62
     0
100
AcDbPoint
 10
6073.887948320476
 20
2569.261541161108
 30
0.0
  0
ENDBLK
  5
55B1
330
55AF
100
AcDbEntity
  8
0
100
AcDbBlockEnd
  0
BLOCK
  5
55BF
330
55BE
100
AcDbEntity
  8
0
100
AcDbBlockBegin
  2
*D81
 70
     1
 10
0.0
 20
0.0
 30
0.0
  3
*D81
  1

  0
LINE
  5
55C1
330
55BE
100
AcDbEntity
  8
Dim
 62
     0
370
    -2
100
AcDbLine
 10
7148.972988812051
 20
2608.947194302345
 30
0.0
 11
7526.791871481568
 21
2608.947194302345
 31
0.0
  0
LINE
  5
55C2
330
55BE
100
AcDbEntity
  8
Dim
 62
     0
370
    -2
100
AcDbLine
 10
7148.972988812048
 20
3068.858765646323
 30
0.0
 11
7526.791871481568
 21
3068.858765646323
 31
0.0
  0
LINE
  5
55C3
330
55BE
100
AcDbEntity
  8
Dim
 62
     0
370
    -2
100
AcDbLine
 10
7526.791871481568
 20
2618.946583950782
 30
0.0
 11
7526.791871481568
 21
3058.859375997885
 31
0.0
  0
INSERT
  5
55C4
330
55BE
100
AcDbEntity
  8
Dim
 62
     0
370
    -2
100
AcDbBlockReference
  2
_DOT
 10
7526.791871481568
 20
2608.947194302345
 30
0.0
 41
9.999389648437498
 42
9.999389648437498
 43
9.999389648437498
 50
270.0
  0
INSERT
  5
55C5
330
55BE
100
AcDbEntity
  8
Dim
 62
     0
370
    -2
100
AcDbBlockReference
  2
_DOT
 10
7526.791871481568
 20
3068.858765646323
 30
0.0
 41
9.999389648437498
 42
9.999389648437498
 43
9.999389648437498
 50
90.0
  0
MTEXT
  5
55C6
330
55BE
100
AcDbEntity
  8
Dim
 62
     0
100
AcDbMText
 10
7504.575562887818
 20
2838.902979974334
 30
0.0
 40
24.4326171875
 41
0.0
 46
0.0
 71
     5
 72
     1
  1
\A1;459.9
  7
ＭＳ ゴシック
 11
0.0
 21
1.0
 31
0.0
 73
     1
 44
1.0
  0
POINT
  5
55C7
330
55BE
100
AcDbEntity
  8
Defpoints
 62
     0
100
AcDbPoint
 10
7123.972988812051
 20
2608.947194302345
 30
0.0
  0
POINT
  5
55C8
330
55BE
100
AcDbEntity
  8
Defpoints
 62
     0
100
AcDbPoint
 10
7123.972988812048
 20
3068.858765646323
 30
0.0
  0
POINT
  5
55C9
330
55BE
100
AcDbEntity
  8
Defpoints
 62
     0
100
AcDbPoint
 10
7526.791871481568
 20
3068.858765646323
 30
0.0
  0
ENDBLK
  5
55C0
330
55BE
100
AcDbEntity
  8
0
100
AcDbBlockEnd
  0
BLOCK
  5
55CF
330
55CE
100
AcDbEntity
  8
0
100
AcDbBlockBegin
  2
*D82
 70
     1
 10
0.0
 20
0.0
 30
0.0
  3
*D82
  1

  0
LINE
  5
55D1
330
55CE
100
AcDbEntity
  8
Dim
 62
     0
370
    -2
100
AcDbLine
 10
418.1677269229568
 20
2636.648609055295
 30
0.0
 11
418.1677269229568
 21
2672.11138157809
 31
0.0
  0
LINE
  5
55D2
330
55CE
100
AcDbEntity
  8
Dim
 62
     0
370
    -2
100
AcDbLine
 10
671.2927269229567
 20
2615.44590157408
 30
0.0
 11
671.2927269229568
 21
2672.11138157809
 31
0.0
  0
LINE
  5
55D3
330
55CE
100
AcDbEntity
  8
Dim
 62
     0
370
    -2
100
AcDbLine
 10
428.1671165713943
 20
2672.11138157809
 30
0.0
 11
661.2933372745193
 21
2672.11138157809
 31
0.0
  0
INSERT
  5
55D4
330
55CE
100
AcDbEntity
  8
Dim
 62
     0
370
    -2
100
AcDbBlockReference
  2
_DOT
 10
418.1677269229568
 20
2672.11138157809
 30
0.0
 41
9.999389648437498
 42
9.999389648437498
 43
9.999389648437498
 50
179.9999999999999
  0
INSERT
  5
55D5
330
55CE
100
AcDbEntity
  8
Dim
 62
     0
370
    -2
100
AcDbBlockReference
  2
_DOT
 10
671.2927269229568
 20
2672.11138157809
 30
0.0
 41
9.999389648437498
 42
9.999389648437498
 43
9.999389648437498
 50
359.9999999999998
  0
MTEXT
  5
55D6
330
55CE
100
AcDbEntity
  8
Dim
 62
     0
100
AcDbMText
 10
547.5427269229567
 20
2694.32769017184
 30
0.0
 40
24.4326171875
 41
0.0
 46
0.0
 71
     5
 72
     1
  1
\A1;460
  7
ＭＳ ゴシック
 73
     1
 44
1.0
  0
POINT
  5
55D7
330
55CE
100
AcDbEntity
  8
Defpoints
 62
     0
100
AcDbPoint
 10
418.1677269229567
 20
2611.648609055295
 30
0.0
  0
POINT
  5
55D8
330
55CE
100
AcDbEntity
  8
Defpoints
 62
     0
100
AcDbPoint
 10
671.2927269229567
 20
2590.44590157408
 30
0.0
  0
POINT
  5
55D9
330
55CE
100
AcDbEntity
  8
Defpoints
 62
     0
100
AcDbPoint
 10
671.2927269229568
 20
2672.11138157809
 30
0.0
  0
ENDBLK
  5
55D0
330
55CE
100
AcDbEntity
  8
0
100
AcDbBlockEnd
  0
BLOCK
  5
55DE
330
55DD
100
AcDbEntity
  8
0
100
AcDbBlockBegin
  2
*D83
 70
     1
 10
0.0
 20
0.0
 30
0.0
  3
*D83
  1

  0
LINE
  5
55E0
330
55DD
100
AcDbEntity
  8
Dim
 62
     0
370
    -2
100
AcDbLine
 10
7123.972988812051
 20
2583.947194302345
 30
0.0
 11
7123.972988812051
 21
2454.604771483858
 31
0.0
  0
LINE
  5
55E1
330
55DD
100
AcDbEntity
  8
Dim
 62
     0
370
    -2
100
AcDbLine
 10
6504.790293260276
 20
2583.947194302341
 30
0.0
 11
6504.790293260276
 21
2454.604771483858
 31
0.0
  0
LINE
  5
55E2
330
55DD
100
AcDbEntity
  8
Dim
 62
     0
370
    -2
100
AcDbLine
 10
7113.973599163613
 20
2454.604771483858
 30
0.0
 11
6514.789682908713
 21
2454.604771483858
 31
0.0
  0
INSERT
  5
55E3
330
55DD
100
AcDbEntity
  8
Dim
 62
     0
370
    -2
100
AcDbBlockReference
  2
_DOT
 10
7123.972988812051
 20
2454.604771483858
 30
0.0
 41
9.999389648437498
 42
9.999389648437498
 43
9.999389648437498
  0
INSERT
  5
55E4
330
55DD
100
AcDbEntity
  8
Dim
 62
     0
370
    -2
100
AcDbBlockReference
  2
_DOT
 10
6504.790293260276
 20
2454.604771483858
 30
0.0
 41
9.999389648437498
 42
9.999389648437498
 43
9.999389648437498
 50
180.0
  0
MTEXT
  5
55E5
330
55DD
100
AcDbEntity
  8
Dim
 62
     0
100
AcDbMText
 10
6814.381641036163
 20
2476.821080077608
 30
0.0
 40
24.4326171875
 41
0.0
 46
0.0
 71
     5
 72
     1
  1
\A1;619.2
  7
ＭＳ ゴシック
 73
     1
 44
1.0
  0
POINT
  5
55E6
330
55DD
100
AcDbEntity
  8
Defpoints
 62
     0
100
AcDbPoint
 10
7123.972988812051
 20
2608.947194302345
 30
0.0
  0
POINT
  5
55E7
330
55DD
100
AcDbEntity
  8
Defpoints
 62
     0
100
AcDbPoint
 10
6504.790293260276
 20
2608.947194302341
 30
0.0
  0
POINT
  5
55E8
330
55DD
100
AcDbEntity
  8
Defpoints
 62
     0
100
AcDbPoint
 10
6504.790293260276
 20
2454.604771483858
 30
0.0
  0
ENDBLK
  5
55DF
330
55DD
100
AcDbEntity
  8
0
100
AcDbBlockEnd
  0
BLOCK
  5
55ED
330
55EC
100
AcDbEntity
  8
0
100
AcDbBlockBegin
  2
*D84
 70
     1
 10
0.0
 20
0.0
 30
0.0
  3
*D84
  1

  0
LINE
  5
55EF
330
55EC
100
AcDbEntity
  8
Dim
 62
     0
370
    -2
100
AcDbLine
 10
6504.790293260276
 20
2583.947194302341
 30
0.0
 11
6504.790293260276
 21
2468.748110085682
 31
0.0
  0
LINE
  5
55F0
330
55EC
100
AcDbEntity
  8
Dim
 62
     0
370
    -2
100
AcDbLine
 10
7124.790293260276
 20
2583.947194302345
 30
0.0
 11
7124.790293260276
 21
2468.748110085682
 31
0.0
  0
LINE
  5
55F1
330
55EC
100
AcDbEntity
  8
Dim
 62
     0
370
    -2
100
AcDbLine
 10
6514.789682908713
 20
2468.748110085682
 30
0.0
 11
7114.790903611838
 21
2468.748110085682
 31
0.0
  0
INSERT
  5
55F2
330
55EC
100
AcDbEntity
  8
Dim
 62
     0
370
    -2
100
AcDbBlockReference
  2
_DOT
 10
6504.790293260276
 20
2468.748110085682
 30
0.0
 41
9.999389648437498
 42
9.999389648437498
 43
9.999389648437498
 50
180.0
  0
INSERT
  5
55F3
330
55EC
100
AcDbEntity
  8
Dim
 62
     0
370
    -2
100
AcDbBlockReference
  2
_DOT
 10
7124.790293260276
 20
2468.748110085682
 30
0.0
 41
9.999389648437498
 42
9.999389648437498
 43
9.999389648437498
  0
MTEXT
  5
55F4
330
55EC
100
AcDbEntity
  8
Dim
 62
     0
100
AcDbMText
 10
6814.790293260276
 20
2490.964418679432
 30
0.0
 40
24.4326171875
 41
0.0
 46
0.0
 71
     5
 72
     1
  1
\A1;620
  7
ＭＳ ゴシック
 73
     1
 44
1.0
  0
POINT
  5
55F5
330
55EC
100
AcDbEntity
  8
Defpoints
 62
     0
100
AcDbPoint
 10
6504.790293260276
 20
2608.947194302341
 30
0.0
  0
POINT
  5
55F6
330
55EC
100
AcDbEntity
  8
Defpoints
 62
     0
100
AcDbPoint
 10
7124.790293260276
 20
2608.947194302345
 30
0.0
  0
POINT
  5
55F7
330
55EC
100
AcDbEntity
  8
Defpoints
 62
     0
100
AcDbPoint
 10
7124.790293260276
 20
2468.748110085682
 30
0.0
  0
ENDBLK
  5
55EE
330
55EC
100
AcDbEntity
  8
0
100
AcDbBlockEnd
  0
BLOCK
  5
55FC
330
55FB
100
AcDbEntity
  8
0
100
AcDbBlockBegin
  2
*D85
 70
     1
 10
0.0
 20
0.0
 30
0.0
  3
*D85
  1

  0
LINE
  5
55FE
330
55FB
100
AcDbEntity
  8
Dim
 62
     0
370
    -2
100
AcDbLine
 10
6504.790293260276
 20
3104.885078631638
 30
0.0
 11
6504.790293260276
 21
3220.084162848298
 31
0.0
  0
LINE
  5
55FF
330
55FB
100
AcDbEntity
  8
Dim
 62
     0
370
    -2
100
AcDbLine
 10
7124.790293260276
 20
3104.885078631635
 30
0.0
 11
7124.790293260276
 21
3220.084162848298
 31
0.0
  0
LINE
  5
5600
330
55FB
100
AcDbEntity
  8
Dim
 62
     0
370
    -2
100
AcDbLine
 10
6514.789682908713
 20
3220.084162848298
 30
0.0
 11
7114.790903611838
 21
3220.084162848298
 31
0.0
  0
INSERT
  5
5601
330
55FB
100
AcDbEntity
  8
Dim
 62
     0
370
    -2
100
AcDbBlockReference
  2
_DOT
 10
6504.790293260276
 20
3220.084162848298
 30
0.0
 41
9.999389648437498
 42
9.999389648437498
 43
9.999389648437498
 50
180.0
  0
INSERT
  5
5602
330
55FB
100
AcDbEntity
  8
Dim
 62
     0
370
    -2
100
AcDbBlockReference
  2
_DOT
 10
7124.790293260276
 20
3220.084162848298
 30
0.0
 41
9.999389648437498
 42
9.999389648437498
 43
9.999389648437498
  0
MTEXT
  5
5603
330
55FB
100
AcDbEntity
  8
Dim
 62
     0
100
AcDbMText
 10
6814.790293260276
 20
3242.300471442048
 30
0.0
 40
24.4326171875
 41
0.0
 46
0.0
 71
     5
 72
     1
  1
\A1;620
  7
ＭＳ ゴシック
 73
     1
 44
1.0
  0
POINT
  5
5604
330
55FB
100
AcDbEntity
  8
Defpoints
 62
     0
100
AcDbPoint
 10
6504.790293260276
 20
3079.885078631638
 30
0.0
  0
POINT
  5
5605
330
55FB
100
AcDbEntity
  8
Defpoints
 62
     0
100
AcDbPoint
 10
7124.790293260276
 20
3079.885078631635
 30
0.0
  0
POINT
  5
5606
330
55FB
100
AcDbEntity
  8
Defpoints
 62
     0
100
AcDbPoint
 10
7124.790293260276
 20
3220.084162848298
 30
0.0
  0
ENDBLK
  5
55FD
330
55FB
100
AcDbEntity
  8
0
100
AcDbBlockEnd
  0
BLOCK
  5
564C
330
564B
100
AcDbEntity
  8
0
100
AcDbBlockBegin
  2
*D86
 70
     1
 10
0.0
 20
0.0
 30
0.0
  3
*D86
  1

  0
LINE
  5
564E
330
564B
100
AcDbEntity
  8
Dim
 62
     0
370
    -2
100
AcDbLine
 10
4652.613877658818
 20
2570.813399511471
 30
0.0
 11
4652.613877658818
 21
2471.343615292978
 31
0.0
  0
LINE
  5
564F
330
564B
100
AcDbEntity
  8
Dim
 62
     0
370
    -2
100
AcDbLine
 10
5352.613877658818
 20
2570.813399511475
 30
0.0
 11
5352.613877658818
 21
2471.343615292978
 31
0.0
  0
LINE
  5
5650
330
564B
100
AcDbEntity
  8
Dim
 62
     0
370
    -2
100
AcDbLine
 10
4662.613267307255
 20
2471.343615292978
 30
0.0
 11
5342.61448801038
 21
2471.343615292978
 31
0.0
  0
INSERT
  5
5651
330
564B
100
AcDbEntity
  8
Dim
 62
     0
370
    -2
100
AcDbBlockReference
  2
_DOT
 10
4652.613877658818
 20
2471.343615292978
 30
0.0
 41
9.999389648437498
 42
9.999389648437498
 43
9.999389648437498
 50
180.0
  0
INSERT
  5
5652
330
564B
100
AcDbEntity
  8
Dim
 62
     0
370
    -2
100
AcDbBlockReference
  2
_DOT
 10
5352.613877658818
 20
2471.343615292978
 30
0.0
 41
9.999389648437498
 42
9.999389648437498
 43
9.999389648437498
  0
MTEXT
  5
5653
330
564B
100
AcDbEntity
  8
Dim
 62
     0
100
AcDbMText
 10
5002.613877658818
 20
2493.559923886728
 30
0.0
 40
24.4326171875
 41
0.0
 46
0.0
 71
     5
 72
     1
  1
\A1;700
  7
ＭＳ ゴシック
 73
     1
 44
1.0
  0
POINT
  5
5654
330
564B
100
AcDbEntity
  8
Defpoints
 62
     0
100
AcDbPoint
 10
4652.613877658818
 20
2595.813399511471
 30
0.0
  0
POINT
  5
5655
330
564B
100
AcDbEntity
  8
Defpoints
 62
     0
100
AcDbPoint
 10
5352.613877658818
 20
2595.813399511475
 30
0.0
  0
POINT
  5
5656
330
564B
100
AcDbEntity
  8
Defpoints
 62
     0
100
AcDbPoint
 10
5352.613877658818
 20
2471.343615292978
 30
0.0
  0
ENDBLK
  5
564D
330
564B
100
AcDbEntity
  8
0
100
AcDbBlockEnd
  0
BLOCK
  5
565B
330
565A
100
AcDbEntity
  8
0
100
AcDbBlockBegin
  2
*D87
 70
     1
 10
0.0
 20
0.0
 30
0.0
  3
*D87
  1

  0
LINE
  5
565D
330
565A
100
AcDbEntity
  8
Dim
 62
     0
370
    -2
100
AcDbLine
 10
948.2797317443828
 20
817.7842592608426
 30
0.0
 11
1042.083775999701
 21
817.7842592608425
 31
0.0
  0
LINE
  5
565E
330
565A
100
AcDbEntity
  8
Dim
 62
     0
370
    -2
100
AcDbLine
 10
948.2797317443801
 20
1517.784259260843
 30
0.0
 11
1042.083775999702
 21
1517.784259260842
 31
0.0
  0
LINE
  5
565F
330
565A
100
AcDbEntity
  8
Dim
 62
     0
370
    -2
100
AcDbLine
 10
1042.083775999701
 20
827.78364890928
 30
0.0
 11
1042.083775999702
 21
1507.784869612405
 31
0.0
  0
INSERT
  5
5660
330
565A
100
AcDbEntity
  8
Dim
 62
     0
370
    -2
100
AcDbBlockReference
  2
_DOT
 10
1042.083775999701
 20
817.7842592608425
 30
0.0
 41
9.999389648437498
 42
9.999389648437498
 43
9.999389648437498
 50
269.9999999999999
  0
INSERT
  5
5661
330
565A
100
AcDbEntity
  8
Dim
 62
     0
370
    -2
100
AcDbBlockReference
  2
_DOT
 10
1042.083775999702
 20
1517.784259260842
 30
0.0
 41
9.999389648437498
 42
9.999389648437498
 43
9.999389648437498
 50
89.99999999999991
  0
MTEXT
  5
5662
330
565A
100
AcDbEntity
  8
Dim
 62
     0
100
AcDbMText
 10
1019.867467405952
 20
1167.784259260842
 30
0.0
 40
24.4326171875
 41
0.0
 46
0.0
 71
     5
 72
     1
  1
\A1;690
  7
ＭＳ ゴシック
 11
1.299278145389898E-15
 21
1.0
 31
0.0
 73
     1
 44
1.0
  0
POINT
  5
5663
330
565A
100
AcDbEntity
  8
Defpoints
 62
     0
100
AcDbPoint
 10
923.2797317443828
 20
817.7842592608426
 30
0.0
  0
POINT
  5
5664
330
565A
100
AcDbEntity
  8
Defpoints
 62
     0
100
AcDbPoint
 10
923.2797317443801
 20
1517.784259260843
 30
0.0
  0
POINT
  5
5665
330
565A
100
AcDbEntity
  8
Defpoints
 62
     0
100
AcDbPoint
 10
1042.083775999702
 20
1517.784259260842
 30
0.0
  0
ENDBLK
  5
565C
330
565A
100
AcDbEntity
  8
0
100
AcDbBlockEnd
  0
BLOCK
  5
566A
330
5669
100
AcDbEntity
  8
0
100
AcDbBlockBegin
  2
*D88
 70
     1
 10
0.0
 20
0.0
 30
0.0
  3
*D88
  1

  0
LINE
  5
566C
330
5669
100
AcDbEntity
  8
Dim
 62
     0
370
    -2
100
AcDbLine
 10
547.7631209360043
 20
774.5390141778266
 30
0.0
 11
547.7631209360038
 21
420.4975396489509
 31
0.0
  0
LINE
  5
566D
330
5669
100
AcDbEntity
  8
Dim
 62
     0
370
    -2
100
AcDbLine
 10
911.2130930578032
 20
812.7842592608426
 30
0.0
 11
911.2130930578028
 21
420.4975396489504
 31
0.0
  0
LINE
  5
566E
330
5669
100
AcDbEntity
  8
Dim
 62
     0
370
    -2
100
AcDbLine
 10
557.7625105844413
 20
420.4975396489509
 30
0.0
 11
901.2137034093653
 21
420.4975396489504
 31
0.0
  0
INSERT
  5
566F
330
5669
100
AcDbEntity
  8
Dim
 62
     0
370
    -2
100
AcDbBlockReference
  2
_DOT
 10
547.7631209360038
 20
420.4975396489509
 30
0.0
 41
9.999389648437498
 42
9.999389648437498
 43
9.999389648437498
 50
179.9999999999999
  0
INSERT
  5
5670
330
5669
100
AcDbEntity
  8
Dim
 62
     0
370
    -2
100
AcDbBlockReference
  2
_DOT
 10
911.2130930578028
 20
420.4975396489504
 30
0.0
 41
9.999389648437498
 42
9.999389648437498
 43
9.999389648437498
 50
359.9999999999998
  0
MTEXT
  5
5671
330
5669
100
AcDbEntity
  8
Dim
 62
     0
100
AcDbMText
 10
729.4881069969033
 20
442.7138482427006
 30
0.0
 40
24.4326171875
 41
0.0
 46
0.0
 71
     5
 72
     1
  1
\A1;355
  7
ＭＳ ゴシック
 73
     1
 44
1.0
  0
POINT
  5
5672
330
5669
100
AcDbEntity
  8
Defpoints
 62
     0
100
AcDbPoint
 10
547.7631209360043
 20
799.5390141778266
 30
0.0
  0
POINT
  5
5673
330
5669
100
AcDbEntity
  8
Defpoints
 62
     0
100
AcDbPoint
 10
911.2130930578032
 20
837.7842592608426
 30
0.0
  0
POINT
  5
5674
330
5669
100
AcDbEntity
  8
Defpoints
 62
     0
100
AcDbPoint
 10
911.2130930578028
 20
420.4975396489504
 30
0.0
  0
ENDBLK
  5
566B
330
5669
100
AcDbEntity
  8
0
100
AcDbBlockEnd
  0
BLOCK
  5
56A6
330
56A5
100
AcDbEntity
  8
0
100
AcDbBlockBegin
  2
*D89
 70
     1
 10
0.0
 20
0.0
 30
0.0
  3
*D89
  1
*D136
  0
LINE
  5
56A7
330
56A5
100
AcDbEntity
  8
Dim
  6
Continuous
 62
     0
370
    -2
100
AcDbLine
 10
172.3746992187498
 20
4.999694824218738
 30
0.0
 11
-0.00000000000054
 21
4.99969482421876
 31
0.0
  0
LINE
  5
56A8
330
56A5
100
AcDbEntity
  8
Dim
  6
Continuous
 62
     0
370
    -2
100
AcDbLine
 10
292.1534126240283
 20
4.999694824218723
 30
0.0
 11
182.3740888671873
 21
4.999694824218738
 31
0.0
  0
LINE
  5
56A9
330
56A5
100
AcDbEntity
  8
Dim
  6
Continuous
 62
     0
370
    -2
100
AcDbLine
 10
182.3740888671873
 20
4.999694824218738
 30
0.0
 11
192.3734785156248
 21
4.999694824218737
 31
0.0
  0
INSERT
  5
56AA
330
56A5
100
AcDbEntity
  8
Dim
 62
     0
370
    -2
100
AcDbBlockReference
  2
_DOT
 10
302.1528022724658
 20
4.999694824218722
 30
0.0
 41
9.999389648437498
 42
9.999389648437498
 43
9.999389648437498
 50
360.0
  0
INSERT
  5
56AB
330
56A5
100
AcDbEntity
  8
Dim
 62
     0
370
    -2
100
AcDbBlockReference
  2
_DOT
 10
172.3746992187498
 20
4.999694824218738
 30
0.0
 41
9.999389648437498
 42
9.999389648437498
 43
9.999389648437498
 50
180.0
  0
MTEXT
  5
56AC
330
56A5
100
AcDbEntity
  8
Dim
 62
     0
100
AcDbMText
 10
76.18795996093695
 20
29.3782900390625
 30
0.0
 40
24.4326171875
 41
0.0
 46
0.0
 71
     5
 72
     1
  1
\A1;135(深さ)
  7
ＭＳ ゴシック
 73
     1
 44
1.0
  0
POINT
  5
56AD
330
56A5
100
AcDbEntity
  8
Defpoints
 62
     0
100
AcDbPoint
 10
302.1528022724658
 20
4.99969482421875
 30
0.0
  0
POINT
  5
56AE
330
56A5
100
AcDbEntity
  8
Defpoints
 62
     0
100
AcDbPoint
 10
172.3746992187498
 20
4.99969482421875
 30
0.0
  0
POINT
  5
56B2
330
56A5
100
AcDbEntity
  8
Defpoints
 62
     0
100
AcDbPoint
 10
172.3746992187498
 20
4.999694824218738
 30
0.0
  0
ENDBLK
  5
56AF
330
56A5
100
AcDbEntity
  8
0
100
AcDbBlockEnd
  0
BLOCK
  5
56B6
330
56B5
100
AcDbEntity
  8
0
100
AcDbBlockBegin
  2
*D90
 70
     1
 10
0.0
 20
0.0
 30
0.0
  3
*D90
  1

  0
LINE
  5
56B8
330
56B5
100
AcDbEntity
  8
Dim
  6
Continuous
 62
     0
370
    -2
100
AcDbLine
 10
1580.297721217927
 20
2408.877622814963
 30
0.0
 11
1400.640458884212
 21
2408.877622814964
 31
0.0
  0
LINE
  5
56B9
330
56B5
100
AcDbEntity
  8
Dim
  6
Continuous
 62
     0
370
    -2
100
AcDbLine
 10
1692.793871508242
 20
2408.877622814962
 30
0.0
 11
1590.297110866364
 21
2408.877622814963
 31
0.0
  0
LINE
  5
56BA
330
56B5
100
AcDbEntity
  8
Dim
  6
Continuous
 62
     0
370
    -2
100
AcDbLine
 10
1590.297110866364
 20
2408.877622814963
 30
0.0
 11
1600.296500514802
 21
2408.877622814963
 31
0.0
  0
INSERT
  5
56BB
330
56B5
100
AcDbEntity
  8
Dim
 62
     0
370
    -2
100
AcDbBlockReference
  2
_DOT
 10
1702.793261156679
 20
2408.877622814962
 30
0.0
 41
9.999389648437498
 42
9.999389648437498
 43
9.999389648437498
 50
359.9999999999998
  0
INSERT
  5
56BC
330
56B5
100
AcDbEntity
  8
Dim
 62
     0
370
    -2
100
AcDbBlockReference
  2
_DOT
 10
1580.297721217927
 20
2408.877622814963
 30
0.0
 41
9.999389648437498
 42
9.999389648437498
 43
9.999389648437498
 50
179.9999999999998
  0
MTEXT
  5
56BD
330
56B5
100
AcDbEntity
  8
Dim
 62
     0
100
AcDbMText
 10
1476.828418845149
 20
2433.256218029807
 30
0.0
 40
24.4326171875
 41
0.0
 46
0.0
 71
     5
 72
     1
  1
\A1;120(深さ)
  7
ＭＳ ゴシック
 73
     1
 44
1.0
  0
POINT
  5
56BE
330
56B5
100
AcDbEntity
  8
Defpoints
 62
     0
100
AcDbPoint
 10
1702.793261156679
 20
2407.858922932298
 30
0.0
  0
POINT
  5
56BF
330
56B5
100
AcDbEntity
  8
Defpoints
 62
     0
100
AcDbPoint
 10
1580.297721217927
 20
2408.877622814963
 30
0.0
  0
POINT
  5
56C0
330
56B5
100
AcDbEntity
  8
Defpoints
 62
     0
100
AcDbPoint
 10
1580.297721217927
 20
2408.877622814963
 30
0.0
  0
ENDBLK
  5
56B7
330
56B5
100
AcDbEntity
  8
0
100
AcDbBlockEnd
  0
BLOCK
  5
5704
330
5703
100
AcDbEntity
  8
0
100
AcDbBlockBegin
  2
*D91
 70
     1
 10
0.0
 20
0.0
 30
0.0
  3
*D91
  1

  0
LINE
  5
5706
330
5703
100
AcDbEntity
  8
Dim
 62
     0
370
    -2
100
AcDbLine
 10
1774.687946331226
 20
907.7842592608454
 30
0.0
 11
1883.80728682583
 21
907.7842592608451
 31
0.0
  0
LINE
  5
5707
330
5703
100
AcDbEntity
  8
Dim
 62
     0
370
    -2
100
AcDbLine
 10
1774.687946331227
 20
1427.784259260845
 30
0.0
 11
1883.807286825831
 21
1427.784259260845
 31
0.0
  0
LINE
  5
5708
330
5703
100
AcDbEntity
  8
Dim
 62
     0
370
    -2
100
AcDbLine
 10
1883.80728682583
 20
917.7836489092826
 30
0.0
 11
1883.807286825831
 21
1417.784869612408
 31
0.0
  0
INSERT
  5
5709
330
5703
100
AcDbEntity
  8
Dim
 62
     0
370
    -2
100
AcDbBlockReference
  2
_DOT
 10
1883.80728682583
 20
907.7842592608451
 30
0.0
 41
9.999389648437498
 42
9.999389648437498
 43
9.999389648437498
 50
269.9999999999999
  0
INSERT
  5
570A
330
5703
100
AcDbEntity
  8
Dim
 62
     0
370
    -2
100
AcDbBlockReference
  2
_DOT
 10
1883.807286825831
 20
1427.784259260845
 30
0.0
 41
9.999389648437498
 42
9.999389648437498
 43
9.999389648437498
 50
89.99999999999991
  0
MTEXT
  5
570B
330
5703
100
AcDbEntity
  8
Dim
 62
     0
100
AcDbMText
 10
1861.59097823208
 20
1167.784259260844
 30
0.0
 40
24.4326171875
 41
0.0
 46
0.0
 71
     5
 72
     1
  1
\A1;520
  7
ＭＳ ゴシック
 11
1.311771204480185E-15
 21
1.0
 31
0.0
 73
     1
 44
1.0
  0
POINT
  5
570C
330
5703
100
AcDbEntity
  8
Defpoints
 62
     0
100
AcDbPoint
 10
1749.687946331226
 20
907.7842592608454
 30
0.0
  0
POINT
  5
570D
330
5703
100
AcDbEntity
  8
Defpoints
 62
     0
100
AcDbPoint
 10
1749.687946331227
 20
1427.784259260845
 30
0.0
  0
POINT
  5
570E
330
5703
100
AcDbEntity
  8
Defpoints
 62
     0
100
AcDbPoint
 10
1883.807286825831
 20
1427.784259260845
 30
0.0
  0
ENDBLK
  5
5705
330
5703
100
AcDbEntity
  8
0
100
AcDbBlockEnd
  0
BLOCK
  5
5720
330
571F
100
AcDbEntity
  8
0
100
AcDbBlockBegin
  2
*D92
 70
     1
 10
0.0
 20
0.0
 30
0.0
  3
*D92
  1

  0
LINE
  5
5722
330
571F
100
AcDbEntity
  8
Dim
 62
     0
370
    -2
100
AcDbLine
 10
1783.424850260591
 20
2634.853611449749
 30
0.0
 11
1965.157490625299
 21
2634.853611449748
 31
0.0
  0
LINE
  5
5723
330
571F
100
AcDbEntity
  8
Dim
 62
     0
370
    -2
100
AcDbLine
 10
1783.42485026059
 20
2229.853611449749
 30
0.0
 11
1965.157490625298
 21
2229.853611449748
 31
0.0
  0
LINE
  5
5724
330
571F
100
AcDbEntity
  8
Dim
 62
     0
370
    -2
100
AcDbLine
 10
1965.157490625299
 20
2624.854221801311
 30
0.0
 11
1965.157490625298
 21
2239.853001098186
 31
0.0
  0
INSERT
  5
5725
330
571F
100
AcDbEntity
  8
Dim
 62
     0
370
    -2
100
AcDbBlockReference
  2
_DOT
 10
1965.157490625299
 20
2634.853611449748
 30
0.0
 41
9.999389648437498
 42
9.999389648437498
 43
9.999389648437498
 50
89.99999999999994
  0
INSERT
  5
5726
330
571F
100
AcDbEntity
  8
Dim
 62
     0
370
    -2
100
AcDbBlockReference
  2
_DOT
 10
1965.157490625298
 20
2229.853611449748
 30
0.0
 41
9.999389648437498
 42
9.999389648437498
 43
9.999389648437498
 50
269.9999999999999
  0
MTEXT
  5
5727
330
571F
100
AcDbEntity
  8
Dim
 62
     0
100
AcDbMText
 10
1942.941182031548
 20
2432.353611449748
 30
0.0
 40
24.4326171875
 41
0.0
 46
0.0
 71
     5
 72
     1
  1
\A1;405
  7
ＭＳ ゴシック
 11
1.122832965151763E-15
 21
1.0
 31
0.0
 73
     1
 44
1.0
  0
POINT
  5
5728
330
571F
100
AcDbEntity
  8
Defpoints
 62
     0
100
AcDbPoint
 10
1758.424850260591
 20
2634.853611449749
 30
0.0
  0
POINT
  5
5729
330
571F
100
AcDbEntity
  8
Defpoints
 62
     0
100
AcDbPoint
 10
1758.42485026059
 20
2229.853611449749
 30
0.0
  0
POINT
  5
572A
330
571F
100
AcDbEntity
  8
Defpoints
 62
     0
100
AcDbPoint
 10
1965.157490625298
 20
2229.853611449748
 30
0.0
  0
ENDBLK
  5
5721
330
571F
100
AcDbEntity
  8
0
100
AcDbBlockEnd
  0
BLOCK
  5
573F
330
573E
100
AcDbEntity
  8
0
100
AcDbBlockBegin
  2
*D93
 70
     1
 10
0.0
 20
0.0
 30
0.0
  3
*D93
  1

  0
LINE
  5
5741
330
573E
100
AcDbEntity
  8
Dim
 62
     0
370
    -2
100
AcDbLine
 10
696.2927269229558
 20
2226.012889959926
 30
0.0
 11
813.1277323604758
 21
2226.012889959926
 31
0.0
  0
LINE
  5
5742
330
573E
100
AcDbEntity
  8
Dim
 62
     0
370
    -2
100
AcDbLine
 10
696.2927269229567
 20
2591.637889959926
 30
0.0
 11
813.1277323604764
 21
2591.637889959926
 31
0.0
  0
LINE
  5
5743
330
573E
100
AcDbEntity
  8
Dim
 62
     0
370
    -2
100
AcDbLine
 10
813.1277323604758
 20
2236.012279608363
 30
0.0
 11
813.1277323604764
 21
2581.638500311488
 31
0.0
  0
INSERT
  5
5744
330
573E
100
AcDbEntity
  8
Dim
 62
     0
370
    -2
100
AcDbBlockReference
  2
_DOT
 10
813.1277323604758
 20
2226.012889959926
 30
0.0
 41
9.999389648437498
 42
9.999389648437498
 43
9.999389648437498
 50
269.9999999999999
  0
INSERT
  5
5745
330
573E
100
AcDbEntity
  8
Dim
 62
     0
370
    -2
100
AcDbBlockReference
  2
_DOT
 10
813.1277323604764
 20
2591.637889959926
 30
0.0
 41
9.999389648437498
 42
9.999389648437498
 43
9.999389648437498
 50
89.99999999999991
  0
MTEXT
  5
5746
330
573E
100
AcDbEntity
  8
Dim
 62
     0
100
AcDbMText
 10
790.9114237667261
 20
2408.825389959926
 30
0.0
 40
24.4326171875
 41
0.0
 46
0.0
 71
     5
 72
     1
  1
\A1;650
  7
ＭＳ ゴシック
 11
1.554691797902443E-15
 21
1.0
 31
0.0
 73
     1
 44
1.0
  0
POINT
  5
5747
330
573E
100
AcDbEntity
  8
Defpoints
 62
     0
100
AcDbPoint
 10
671.2927269229558
 20
2226.012889959926
 30
0.0
  0
POINT
  5
5748
330
573E
100
AcDbEntity
  8
Defpoints
 62
     0
100
AcDbPoint
 10
671.2927269229567
 20
2591.637889959926
 30
0.0
  0
POINT
  5
5749
330
573E
100
AcDbEntity
  8
Defpoints
 62
     0
100
AcDbPoint
 10
813.1277323604764
 20
2591.637889959925
 30
0.0
  0
ENDBLK
  5
5740
330
573E
100
AcDbEntity
  8
0
100
AcDbBlockEnd
  0
BLOCK
  5
575A
330
5759
100
AcDbEntity
  8
0
100
AcDbBlockBegin
  2
*D94
 70
     1
 10
0.0
 20
0.0
 30
0.0
  3
*D94
  1

  0
LINE
  5
575C
330
5759
100
AcDbEntity
  8
Dim
 62
     0
370
    -2
100
AcDbLine
 10
575.6677269229554
 20
2201.012889959927
 30
0.0
 11
575.6677269229552
 21
2139.484337263103
 31
0.0
  0
LINE
  5
575D
330
5759
100
AcDbEntity
  8
Dim
 62
     0
370
    -2
100
AcDbLine
 10
418.1677269229558
 20
2198.910336438631
 30
0.0
 11
418.1677269229557
 21
2139.484337263103
 31
0.0
  0
LINE
  5
575E
330
5759
100
AcDbEntity
  8
Dim
 62
     0
370
    -2
100
AcDbLine
 10
565.6683372745177
 20
2139.484337263103
 30
0.0
 11
428.1671165713932
 21
2139.484337263103
 31
0.0
  0
INSERT
  5
575F
330
5759
100
AcDbEntity
  8
Dim
 62
     0
370
    -2
100
AcDbBlockReference
  2
_DOT
 10
575.6677269229552
 20
2139.484337263103
 30
0.0
 41
9.999389648437498
 42
9.999389648437498
 43
9.999389648437498
 50
359.9999999999998
  0
INSERT
  5
5760
330
5759
100
AcDbEntity
  8
Dim
 62
     0
370
    -2
100
AcDbBlockReference
  2
_DOT
 10
418.1677269229557
 20
2139.484337263103
 30
0.0
 41
9.999389648437498
 42
9.999389648437498
 43
9.999389648437498
 50
179.9999999999998
  0
MTEXT
  5
5761
330
5759
100
AcDbEntity
  8
Dim
 62
     0
100
AcDbMText
 10
496.9177269229555
 20
2161.700645856853
 30
0.0
 40
24.4326171875
 41
0.0
 46
0.0
 71
     5
 72
     1
  1
\A1;280
  7
ＭＳ ゴシック
 73
     1
 44
1.0
  0
POINT
  5
5762
330
5759
100
AcDbEntity
  8
Defpoints
 62
     0
100
AcDbPoint
 10
575.6677269229554
 20
2226.012889959927
 30
0.0
  0
POINT
  5
5763
330
5759
100
AcDbEntity
  8
Defpoints
 62
     0
100
AcDbPoint
 10
418.1677269229558
 20
2223.910336438631
 30
0.0
  0
POINT
  5
5764
330
5759
100
AcDbEntity
  8
Defpoints
 62
     0
100
AcDbPoint
 10
418.1677269229557
 20
2139.484337263103
 30
0.0
  0
ENDBLK
  5
575B
330
5759
100
AcDbEntity
  8
0
100
AcDbBlockEnd
  0
BLOCK
  5
5769
330
5768
100
AcDbEntity
  8
0
100
AcDbBlockBegin
  2
*D95
 70
     1
 10
0.0
 20
0.0
 30
0.0
  3
*D95
  1

  0
LINE
  5
576B
330
5768
100
AcDbEntity
  8
Dim
 62
     0
370
    -2
100
AcDbLine
 10
720.6337444962829
 20
2507.262889959927
 30
0.0
 11
762.8790556997446
 21
2507.262889959927
 31
0.0
  0
LINE
  5
576C
330
5768
100
AcDbEntity
  8
Dim
 62
     0
370
    -2
100
AcDbLine
 10
720.6337444962822
 20
2310.387889959927
 30
0.0
 11
762.8790556997443
 21
2310.387889959927
 31
0.0
  0
LINE
  5
576D
330
5768
100
AcDbEntity
  8
Dim
 62
     0
370
    -2
100
AcDbLine
 10
762.8790556997446
 20
2497.263500311489
 30
0.0
 11
762.8790556997443
 21
2320.387279608364
 31
0.0
  0
INSERT
  5
576E
330
5768
100
AcDbEntity
  8
Dim
 62
     0
370
    -2
100
AcDbBlockReference
  2
_DOT
 10
762.8790556997446
 20
2507.262889959927
 30
0.0
 41
9.999389648437498
 42
9.999389648437498
 43
9.999389648437498
 50
89.9999999999999
  0
INSERT
  5
576F
330
5768
100
AcDbEntity
  8
Dim
 62
     0
370
    -2
100
AcDbBlockReference
  2
_DOT
 10
762.8790556997443
 20
2310.387889959927
 30
0.0
 41
9.999389648437498
 42
9.999389648437498
 43
9.999389648437498
 50
269.9999999999999
  0
MTEXT
  5
5770
330
5768
100
AcDbEntity
  8
Dim
 62
     0
100
AcDbMText
 10
740.6627471059945
 20
2408.825389959928
 30
0.0
 40
24.4326171875
 41
0.0
 46
0.0
 71
     5
 72
     1
  1
\A1;350
  7
ＭＳ ゴシック
 11
1.732370860519863E-15
 21
1.0
 31
0.0
 73
     1
 44
1.0
  0
POINT
  5
5771
330
5768
100
AcDbEntity
  8
Defpoints
 62
     0
100
AcDbPoint
 10
695.6337444962829
 20
2507.262889959927
 30
0.0
  0
POINT
  5
5772
330
5768
100
AcDbEntity
  8
Defpoints
 62
     0
100
AcDbPoint
 10
695.6337444962822
 20
2310.387889959927
 30
0.0
  0
POINT
  5
5773
330
5768
100
AcDbEntity
  8
Defpoints
 62
     0
100
AcDbPoint
 10
762.8790556997443
 20
2310.387889959927
 30
0.0
  0
ENDBLK
  5
576A
330
5768
100
AcDbEntity
  8
0
100
AcDbBlockEnd
  0
BLOCK
  5
5827
330
5826
100
AcDbEntity
  8
0
100
AcDbBlockBegin
  2
*D96
 70
     1
 10
0.0
 20
0.0
 30
0.0
  3
*D96
  1

  0
LINE
  5
5829
330
5826
100
AcDbEntity
  8
Dim
 62
     0
370
    -2
100
AcDbLine
 10
1745.29772226189
 20
2360.853620041537
 30
0.0
 11
1745.29772226189
 21
2330.637138858357
 31
0.0
  0
LINE
  5
582A
330
5826
100
AcDbEntity
  8
Dim
 62
     0
370
    -2
100
AcDbLine
 10
1750.29772226189
 20
2360.85361973539
 30
0.0
 11
1750.29772226189
 21
2330.637138858357
 31
0.0
  0
LINE
  5
582B
330
5826
100
AcDbEntity
  8
Dim
 62
     0
370
    -2
100
AcDbLine
 10
1750.29772226189
 20
2330.637138858357
 30
0.0
 11
1813.033017496283
 21
2330.637138858357
 31
0.0
  0
LINE
  5
582C
330
5826
100
AcDbEntity
  8
Dim
 62
     0
370
    -2
100
AcDbLine
 10
1755.297111910328
 20
2330.637138858357
 30
0.0
 11
1740.298332613453
 21
2330.637138858357
 31
0.0
  0
LINE
  5
582D
330
5826
100
AcDbEntity
  8
Dim
 62
     0
370
    -2
100
AcDbLine
 10
1740.298332613453
 20
2330.637138858357
 30
0.0
 11
1730.298942965015
 21
2330.637138858357
 31
0.0
  0
INSERT
  5
582E
330
5826
100
AcDbEntity
  8
Dim
 62
     0
370
    -2
100
AcDbBlockReference
  2
_DOT
 10
1745.29772226189
 20
2330.637138858357
 30
0.0
 41
9.999389648437498
 42
9.999389648437498
 43
9.999389648437498
 50
180.0
  0
INSERT
  5
582F
330
5826
100
AcDbEntity
  8
Dim
 62
     0
370
    -2
100
AcDbBlockReference
  2
_DOT
 10
1750.29772226189
 20
2330.637138858357
 30
0.0
 41
9.999389648437498
 42
9.999389648437498
 43
9.999389648437498
  0
MTEXT
  5
5830
330
5826
100
AcDbEntity
  8
Dim
 62
     0
100
AcDbMText
 10
1796.717185953315
 20
2352.853447452107
 30
0.0
 40
24.4326171875
 41
0.0
 46
0.0
 71
     5
 72
     1
  1
\A1;5
  7
ＭＳ ゴシック
 73
     1
 44
1.0
  0
POINT
  5
5831
330
5826
100
AcDbEntity
  8
Defpoints
 62
     0
100
AcDbPoint
 10
1745.29772226189
 20
2385.853620041537
 30
0.0
  0
POINT
  5
5832
330
5826
100
AcDbEntity
  8
Defpoints
 62
     0
100
AcDbPoint
 10
1750.29772226189
 20
2385.85361973539
 30
0.0
  0
POINT
  5
5833
330
5826
100
AcDbEntity
  8
Defpoints
 62
     0
100
AcDbPoint
 10
1750.29772226189
 20
2330.637138858357
 30
0.0
  0
ENDBLK
  5
5828
330
5826
100
AcDbEntity
  8
0
100
AcDbBlockEnd
  0
BLOCK
  5
583F
330
583E
100
AcDbEntity
  8
0
100
AcDbBlockBegin
  2
*D97
 70
     1
 10
0.0
 20
0.0
 30
0.0
  3
*D97
  1

  0
LINE
  5
5841
330
583E
100
AcDbEntity
  8
Dim
 62
     0
370
    -2
100
AcDbLine
 10
761.1100765909132
 20
2591.637889959926
 30
0.0
 11
1109.2752607667
 21
2591.637889959926
 31
0.0
  0
LINE
  5
5842
330
583E
100
AcDbEntity
  8
Dim
 62
     0
370
    -2
100
AcDbLine
 10
761.1100765909125
 20
2226.012889959926
 30
0.0
 11
1109.2752607667
 21
2226.012889959926
 31
0.0
  0
LINE
  5
5843
330
583E
100
AcDbEntity
  8
Dim
 62
     0
370
    -2
100
AcDbLine
 10
1109.2752607667
 20
2581.638500311488
 30
0.0
 11
1109.2752607667
 21
2236.012279608363
 31
0.0
  0
INSERT
  5
5844
330
583E
100
AcDbEntity
  8
Dim
 62
     0
370
    -2
100
AcDbBlockReference
  2
_DOT
 10
1109.2752607667
 20
2591.637889959926
 30
0.0
 41
9.999389648437498
 42
9.999389648437498
 43
9.999389648437498
 50
90.0
  0
INSERT
  5
5845
330
583E
100
AcDbEntity
  8
Dim
 62
     0
370
    -2
100
AcDbBlockReference
  2
_DOT
 10
1109.2752607667
 20
2226.012889959926
 30
0.0
 41
9.999389648437498
 42
9.999389648437498
 43
9.999389648437498
 50
270.0
  0
MTEXT
  5
5846
330
583E
100
AcDbEntity
  8
Dim
 62
     0
100
AcDbMText
 10
1087.05895217295
 20
2408.825389959926
 30
0.0
 40
24.4326171875
 41
0.0
 46
0.0
 71
     5
 72
     1
  1
\A1;365.625
  7
ＭＳ ゴシック
 11
0.0
 21
1.0
 31
0.0
 73
     1
 44
1.0
  0
POINT
  5
5847
330
583E
100
AcDbEntity
  8
Defpoints
 62
     0
100
AcDbPoint
 10
736.1100765909132
 20
2591.637889959926
 30
0.0
  0
POINT
  5
5848
330
583E
100
AcDbEntity
  8
Defpoints
 62
     0
100
AcDbPoint
 10
736.1100765909125
 20
2226.012889959926
 30
0.0
  0
POINT
  5
5849
330
583E
100
AcDbEntity
  8
Defpoints
 62
     0
100
AcDbPoint
 10
1109.2752607667
 20
2226.012889959926
 30
0.0
  0
ENDBLK
  5
5840
330
583E
100
AcDbEntity
  8
0
100
AcDbBlockEnd
  0
BLOCK
  5
5884
330
5883
100
AcDbEntity
  8
0
100
AcDbBlockBegin
  2
*D99
 70
     1
 10
0.0
 20
0.0
 30
0.0
  3
*D99
  1

  0
LINE
  5
5886
330
5883
100
AcDbEntity
  8
Dim
 62
     0
370
    -2
100
AcDbLine
 10
418.1677269229558
 20
2186.16598161194
 30
0.0
 11
418.1677269229558
 21
2129.096902151757
 31
0.0
  0
LINE
  5
5887
330
5883
100
AcDbEntity
  8
Dim
 62
     0
370
    -2
100
AcDbLine
 10
558.7927269229557
 20
2176.510795793095
 30
0.0
 11
558.7927269229557
 21
2129.096902151757
 31
0.0
  0
LINE
  5
5888
330
5883
100
AcDbEntity
  8
Dim
 62
     0
370
    -2
100
AcDbLine
 10
428.1671165713933
 20
2129.096902151757
 30
0.0
 11
548.7933372745182
 21
2129.096902151757
 31
0.0
  0
INSERT
  5
5889
330
5883
100
AcDbEntity
  8
Dim
 62
     0
370
    -2
100
AcDbBlockReference
  2
_DOT
 10
418.1677269229558
 20
2129.096902151757
 30
0.0
 41
9.999389648437498
 42
9.999389648437498
 43
9.999389648437498
 50
180.0
  0
INSERT
  5
588A
330
5883
100
AcDbEntity
  8
Dim
 62
     0
370
    -2
100
AcDbBlockReference
  2
_DOT
 10
558.7927269229557
 20
2129.096902151757
 30
0.0
 41
9.999389648437498
 42
9.999389648437498
 43
9.999389648437498
  0
MTEXT
  5
588B
330
5883
100
AcDbEntity
  8
Dim
 62
     0
100
AcDbMText
 10
488.4802269229557
 20
2151.313210745507
 30
0.0
 40
24.4326171875
 41
0.0
 46
0.0
 71
     5
 72
     1
  1
\A1;140.625
  7
ＭＳ ゴシック
 73
     1
 44
1.0
  0
POINT
  5
588C
330
5883
100
AcDbEntity
  8
Defpoints
 62
     0
100
AcDbPoint
 10
418.1677269229558
 20
2211.16598161194
 30
0.0
  0
POINT
  5
588D
330
5883
100
AcDbEntity
  8
Defpoints
 62
     0
100
AcDbPoint
 10
558.7927269229557
 20
2201.510795793095
 30
0.0
  0
POINT
  5
588E
330
5883
100
AcDbEntity
  8
Defpoints
 62
     0
100
AcDbPoint
 10
558.7927269229557
 20
2129.096902151757
 30
0.0
  0
ENDBLK
  5
5885
330
5883
100
AcDbEntity
  8
0
100
AcDbBlockEnd
  0
ENDSEC
  0
SECTION
  2
ENTITIES
  0
MTEXT
  5
177
330
A
100
AcDbEntity
  8
template
390
1D
100
AcDbMText
 10
82.00000000048226
 20
348.023957835319
 30
0.0
 40
16.28841145833333
 41
0.0
 46
0.0
 71
     1
 72
     1
  1
品名
  7
ＭＳ ゴシック
 73
     1
 44
0.7828267384257843
  0
MTEXT
  5
178
330
A
100
AcDbEntity
  8
template
390
1D
100
AcDbMText
 10
82.00000000048226
 20
263.0239578353188
 30
0.0
 40
16.28841145833333
 41
0.0
 46
0.0
 71
     1
 72
     1
  1
仕様
  7
ＭＳ ゴシック
 73
     1
 44
0.7828267384257843
  0
LINE
  5
179
330
A
100
AcDbEntity
  8
template
390
1D
100
AcDbLine
 10
2025.0
 20
271.4388797103189
 30
0.0
 11
75.00000000000023
 21
271.4388797103189
 31
0.0
  0
LWPOLYLINE
  5
17A
330
A
100
AcDbEntity
  8
template
390
1D
100
AcDbPolyline
 90
        5
 70
   128
 43
0.0
 10
2025.0
 20
2901.438879710319
 10
75.00000000000023
 20
2901.438879710319
 10
75.00000000000023
 20
101.4388797103188
 10
2025.0
 20
101.4388797103188
 10
2025.0
 20
2901.438879710319
  0
LINE
  5
17B
330
A
100
AcDbEntity
  8
template
390
1D
100
AcDbLine
 10
2025.0
 20
356.4388797103188
 30
0.0
 11
75.00000000000023
 21
356.4388797103188
 31
0.0
  0
LINE
  5
17C
330
A
100
AcDbEntity
  8
template
390
1D
100
AcDbLine
 10
2025.000000000482
 20
186.4388797103189
 30
0.0
 11
1272.000000000482
 21
186.4388797103189
 31
0.0
  0
MTEXT
  5
17E
330
A
100
AcDbEntity
  8
template
390
1D
100
AcDbMText
 10
1301.871406252743
 20
156.5284852370108
 30
0.0
 40
24.4326171875
 41
0.0
 46
0.0
 71
     1
 72
     1
  1
大洋金物株式会社 ティーフォルム事業部
  7
ＭＳ ゴシック
 73
     1
 44
0.7828267384257843
  0
MTEXT
  5
180
330
A
100
AcDbEntity
  8
template
390
1D
100
AcDbMText
 10
1834.000000000742
 20
234.4414968978188
 30
0.0
 40
24.4326171875
 41
0.0
 46
0.0
 71
     1
 72
     1
  1
1:10
  7
ＭＳ ゴシック
 73
     1
 44
0.7828267384257843
  0
MTEXT
  5
181
330
A
100
AcDbEntity
  8
template
390
1D
100
AcDbMText
 10
1781.000000000742
 20
263.0239578353188
 30
0.0
 40
16.28841145833333
 41
0.0
 46
0.0
 71
     1
 72
     1
  1
縮尺
  7
ＭＳ ゴシック
 73
     1
 44
0.7828267384257843
  0
LINE
  5
182
330
A
100
AcDbEntity
  8
template
390
1D
100
AcDbLine
 10
1774.000000000742
 20
186.4388797103189
 30
0.0
 11
1774.000000000742
 21
271.4388797103189
 31
0.0
  0
MTEXT
  5
183
330
A
100
AcDbEntity
  8
template
390
1D
100
AcDbMText
 10
1530.000000000742
 20
263.0239578353188
 30
0.0
 40
16.28841145833333
 41
0.0
 46
0.0
 71
     1
 72
     1
  1
容量
  7
ＭＳ ゴシック
 73
     1
 44
0.7828267384257843
  0
LINE
  5
184
330
A
100
AcDbEntity
  8
template
390
1D
100
AcDbLine
 10
1523.000000000742
 20
186.4388797103189
 30
0.0
 11
1523.000000000742
 21
271.4388797103189
 31
0.0
  0
MTEXT
  5
185
330
A
100
AcDbEntity
  8
template
390
1D
100
AcDbMText
 10
1279.000000000742
 20
348.023957835319
 30
0.0
 40
16.28841145833333
 41
0.0
 46
0.0
 71
     1
 72
     1
  1
品番
  7
ＭＳ ゴシック
 73
     1
 44
0.7828267384257843
  0
MTEXT
  5
186
330
A
100
AcDbEntity
  8
template
390
1D
100
AcDbMText
 10
1279.000000000742
 20
263.0239578353188
 30
0.0
 40
16.28841145833333
 41
0.0
 46
0.0
 71
     1
 72
     1
  1
重量
  7
ＭＳ ゴシック
 73
     1
 44
0.7828267384257843
  0
MTEXT
  5
187
330
A
100
AcDbEntity
  8
template
390
1D
100
AcDbMText
 10
1332.000000000742
 20
319.4414968978188
 30
0.0
 40
24.4326171875
 41
0.0
 46
24.4326171875
 71
     1
 72
     1
  1
{ADF70-3004}
  7
ＭＳ ゴシック
 73
     1
 44
0.7828267384257843
1001
ACAD
1000
ACAD_MTEXT_DEFINED_HEIGHT_BEGIN
1070
    46
1040
24.4326171875
1000
ACAD_MTEXT_DEFINED_HEIGHT_END
  0
LINE
  5
188
330
A
100
AcDbEntity
  8
template
390
1D
100
AcDbLine
 10
1272.000000000742
 20
101.4388797103188
 30
0.0
 11
1272.000000000742
 21
356.4388797103188
 31
0.0
  0
MTEXT
  5
189
330
A
100
AcDbEntity
  8
template
390
1D
100
AcDbMText
 10
135.0000000004822
 20
319.4414968978188
 30
0.0
 40
24.4326171875
 41
0.0
 46
27.5355595703125
 71
     1
 72
     1
  1
{洗面器 -CATALANO, New Zero-}
  7
ＭＳ ゴシック
 73
     1
 44
0.7828267384257843
1001
ACAD
1000
ACAD_MTEXT_DEFINED_HEIGHT_BEGIN
1070
    46
1040
27.5355595703125
1000
ACAD_MTEXT_DEFINED_HEIGHT_END
  0
MTEXT
  5
18A
330
A
100
AcDbEntity
  8
template
 62
     1
390
1D
100
AcDbMText
 10
135.0000000004822
 20
234.4414968978188
 30
0.0
 40
24.4326171875
 41
0.0
 46
68.99651757812501
 71
     1
 72
     1
  1
{{\C256;壁掛け,カウンター置き,半埋め込み/オーバーフロー付き/壁取付ボルト付属/\P陶器/ホワイト}}
  7
ＭＳ ゴシック
 73
     1
 44
0.9822934569727008
1001
ACAD
1000
ACAD_MTEXT_DEFINED_HEIGHT_BEGIN
1070
    46
1040
68.99651757812501
1000
ACAD_MTEXT_DEFINED_HEIGHT_END
  0
MTEXT
  5
1A6
330
A
100
AcDbEntity
  8
template
390
1D
100
AcDbMText
 10
1332.000000000742
 20
234.4414968978188
 30
0.0
 40
24.4326171875
 41
0.0
 46
28.390701171875
 71
     1
 72
     1
  1
{39kg}
  7
ＭＳ ゴシック
 73
     1
 44
0.7828267384257843
1001
ACAD
1000
ACAD_MTEXT_DEFINED_HEIGHT_BEGIN
1070
    46
1040
28.390701171875
1000
ACAD_MTEXT_DEFINED_HEIGHT_END
  0
MTEXT
  5
374
330
A
100
AcDbEntity
  8
template
390
1D
100
AcDbMText
 10
1581.992122669024
 20
234.4414968978188
 30
0.0
 40
24.4326171875
 41
0.0
 46
24.4326171875
 71
     1
 72
     1
  1
{10L}
  7
ＭＳ ゴシック
 73
     1
 44
0.7828267384257843
1001
ACAD
1000
ACAD_MTEXT_DEFINED_HEIGHT_BEGIN
1070
    46
1040
24.4326171875
1000
ACAD_MTEXT_DEFINED_HEIGHT_END
  0
INSERT
  5
3D0
330
A
100
AcDbEntity
  8
template
100
AcDbBlockReference
  2
名称未設定-1
 10
1873.559250554905
 20
30.23897196054438
 30
0.0
 41
0.7619999999999999
 42
0.7619999999999999
 43
0.7619999999999999
  0
MTEXT
  5
BDB
102
{ACAD_XDICTIONARY
360
BDC
102
}
330
A
100
AcDbEntity
  8
template
  6
Continuous
100
AcDbMText
 10
78.95663872901252
 20
86.10730750352229
 30
0.0
 40
23.0
 41
0.0
 46
23.0
 71
     1
 72
     1
  1
{20181212N}
  7
ＭＳ ゴシック
 73
     1
 44
1.0
1001
ACAD
1000
ACAD_MTEXT_DEFINED_HEIGHT_BEGIN
1070
    46
1040
23.0
1000
ACAD_MTEXT_DEFINED_HEIGHT_END
  0
LWPOLYLINE
  5
BEE
330
A
100
AcDbEntity
  8
PRINT BORDER
100
AcDbPolyline
 90
        4
 70
     1
 43
0.0
 10
0.0
 20
0.0
 10
0.0
 20
2970.0
 10
2100.0
 20
2970.0
 10
2100.0
 20
0.0
  0
INSERT
  5
1273
330
A
100
AcDbEntity
  8
0
 62
     7
100
AcDbBlockReference
  2
BLOCK_2
 10
591.2037060744204
 20
943.564364962162
 30
0.0
  0
INSERT
  5
127B
330
A
100
AcDbEntity
  8
0
 62
     7
100
AcDbBlockReference
  2
BLOCK_2
 10
1291.863324028138
 20
1038.76992320659
 30
0.0
  0
INSERT
  5
127C
330
A
100
AcDbEntity
  8
0
 62
     7
100
AcDbBlockReference
  2
BLOCK_2
 10
652.1648429406905
 20
1595.641631888467
 30
0.0
  0
INSERT
  5
3B99
330
A
100
AcDbEntity
  8
retino
100
AcDbBlockReference
  2
mobile_latù
 10
-92101.31485198285
 20
1730.415535296608
 30
0.0
  0
INSERT
  5
467E
330
A
100
AcDbEntity
  8
retino
100
AcDbBlockReference
  2
mobile_latù
 10
-100894.893236163
 20
1696.039721945452
 30
0.0
  0
INSERT
  5
527B
330
A
100
AcDbEntity
  8
retino
100
AcDbBlockReference
  2
mobile_latù
 10
-89900.42748460227
 20
2057.97116653715
 30
0.0
  0
INSERT
  5
527C
330
A
100
AcDbEntity
  8
0
100
AcDbBlockReference
  2
.TD_SECTION_1
 10
225818104807.5758
 20
2467.422636311911
 30
0.0
  0
INSERT
  5
527D
330
A
100
AcDbEntity
  8
0
100
AcDbBlockReference
  2
.TD_SECTION_2
 10
225818170343.5758
 20
2467.422636311911
 30
0.0
  0
INSERT
  5
527E
330
A
100
AcDbEntity
  8
0
  6
Continuous
 62
     0
370
     0
100
AcDbBlockReference
  2
.TD_SECTION_1
 10
-8769.816836312122
 20
2681.893749185237
 30
0.0
  0
INSERT
  5
527F
330
A
100
AcDbEntity
  8
0
  6
Continuous
 62
     0
370
     0
100
AcDbBlockReference
  2
.TD_SECTION_2
 10
-9327.194994881458
 20
2989.447269387873
 30
0.0
  0
INSERT
  5
5280
330
A
100
AcDbEntity
  8
0
  6
Continuous
 62
     0
370
     0
100
AcDbBlockReference
  2
.TD_SECTION_1
 10
-11193.31175928566
 20
763.8992218647024
 30
0.0
  0
INSERT
  5
5281
330
A
100
AcDbEntity
  8
0
  6
Continuous
 62
     0
370
     0
100
AcDbBlockReference
  2
.TD_SECTION_2
 10
-10905.35097055885
 20
465.7910675678274
 30
0.0
  0
INSERT
  5
5282
330
A
100
AcDbEntity
  8
0
  6
Continuous
 62
     0
370
     0
100
AcDbBlockReference
  2
.TD_SECTION_1
 10
-11064.96092844183
 20
698.0103962023752
 30
0.0
  0
INSERT
  5
5283
330
A
100
AcDbEntity
  8
0
  6
Continuous
 62
     0
370
     0
100
AcDbBlockReference
  2
.TD_SECTION_2
 10
-10776.90956354314
 20
399.8117572863596
 30
0.0
  0
INSERT
  5
5284
330
A
100
AcDbEntity
  8
0
  6
Continuous
 62
     0
370
     0
100
AcDbBlockReference
  2
.TD_SECTION_1
 10
-1462.487522281953
 20
1958.724372419401
 30
0.0
  0
INSERT
  5
5285
330
A
100
AcDbEntity
  8
0
  6
Continuous
 62
     0
370
     0
100
AcDbBlockReference
  2
.TD_SECTION_2
 10
-1135.18037048752
 20
1672.677238019987
 30
0.0
  0
INSERT
  5
5286
330
A
100
AcDbEntity
  8
0
  6
Continuous
 62
     0
370
     0
100
AcDbBlockReference
  2
.TD_SECTION_1
 10
704.608903935718
 20
-713.9911611042783
 30
0.0
  0
INSERT
  5
5287
330
A
100
AcDbEntity
  8
0
  6
Continuous
 62
     0
370
     0
100
AcDbBlockReference
  2
.TD_SECTION_2
 10
1319.461252263355
 20
-1311.565746065216
 30
0.0
  0
LINE
  5
5288
330
A
100
AcDbEntity
  8
0
100
AcDbLine
 10
1580.297725533331
 20
2507.60259196243
 30
0.0
 11
1580.297709465122
 21
2140.004716722754
 31
0.0
  0
LINE
  5
5289
102
{ACAD_REACTORS
330
5825
102
}
330
A
100
AcDbEntity
  8
0
100
AcDbLine
 10
1750.297715095403
 20
2268.810394682771
 30
0.0
 11
1750.297735912483
 21
2608.795401666774
 31
0.0
  0
LINE
  5
528A
330
A
100
AcDbEntity
  8
0
100
AcDbLine
 10
1665.297709675673
 20
2144.821874735273
 30
0.0
 11
1665.297728332604
 21
2634.853610064891
 31
0.0
  0
LINE
  5
5290
102
{ACAD_REACTORS
330
5825
102
}
330
A
100
AcDbEntity
  8
HIDDEN
 48
0.5
100
AcDbLine
 10
1745.29772226189
 20
2385.853620041537
 30
0.0
 11
1745.297724185187
 21
2429.85359112737
 31
0.0
  0
LINE
  5
5294
330
A
100
AcDbEntity
  8
0
100
AcDbLine
 10
1580.297709375759
 20
2137.960203985313
 30
0.0
 11
1580.297709465122
 21
2140.004716722761
 31
0.0
  0
LINE
  5
5295
330
A
100
AcDbEntity
  8
0
100
AcDbLine
 10
1580.297725533345
 20
2507.602591962438
 30
0.0
 11
1580.297730964527
 21
2631.853613043944
 31
0.0
  0
LINE
  5
5297
330
A
100
AcDbEntity
  8
0
100
AcDbLine
 10
1679.257203754045
 20
2207.988364987506
 30
0.0
 11
1746.349834364162
 21
2232.408082146982
 31
0.0
  0
LINE
  5
5298
330
A
100
AcDbEntity
  8
0
100
AcDbLine
 10
1665.297727915218
 20
2197.062202550188
 30
0.0
 11
1676.249529014523
 21
2206.251883342304
 31
0.0
  0
LINE
  5
5299
330
A
100
AcDbEntity
  8
0
100
AcDbLine
 10
1750.29771375066
 20
2238.04623769913
 30
0.0
 11
1750.297715079323
 21
2268.442567960323
 31
0.0
  0
LINE
  5
529B
330
A
100
AcDbEntity
  8
0
100
AcDbLine
 10
1665.297709538551
 20
2141.684629834498
 30
0.0
 11
1665.297709675688
 21
2144.82187473527
 31
0.0
  0
LINE
  5
529C
330
A
100
AcDbEntity
  8
0
100
AcDbLine
 10
1661.437307350622
 20
2137.687066695166
 30
0.0
 11
1583.402407734809
 21
2134.962031368543
 31
0.0
  0
ARC
  5
529E
330
A
100
AcDbEntity
  8
0
100
AcDbCircle
 10
1583.297709375759
 20
2137.960203854186
 30
0.0
 40
3.0
100
AcDbArc
 50
179.9999974960698
 51
271.999997495729
  0
ARC
  5
529F
330
A
100
AcDbEntity
  8
0
100
AcDbCircle
 10
1661.297709538551
 20
2141.684630009353
 30
0.0
 40
4.0
100
AcDbArc
 50
271.9999974965634
 51
359.9999974959742
  0
ARC
  5
52A0
330
A
100
AcDbEntity
  8
0
100
AcDbCircle
 10
1744.29771375066
 20
2238.046237961398
 30
0.0
 40
6.0
100
AcDbArc
 50
289.9999974947766
 51
359.9999974949841
  0
ARC
  5
52A2
330
A
100
AcDbEntity
  8
0
100
AcDbCircle
 10
1682.677404776543
 20
2198.591438630153
 30
0.0
 40
10.0
100
AcDbArc
 50
109.9999974956579
 51
129.9999974955162
  0
LINE
  5
52BA
330
A
100
AcDbEntity
  8
0
100
AcDbLine
 10
1583.297731095654
 20
2634.853612912797
 30
0.0
 11
1658.297731095654
 21
2634.853610071565
 31
0.0
  0
ARC
  5
52BB
330
A
100
AcDbEntity
  8
0
100
AcDbCircle
 10
1583.297730964512
 20
2631.853612912797
 30
0.0
 40
3.0
100
AcDbArc
 50
89.99999749620874
 51
179.9999974956008
  0
LINE
  5
52C0
330
A
100
AcDbEntity
  8
0
100
AcDbLine
 10
1658.297731095654
 20
2634.853610071565
 30
0.0
 11
1747.297736916318
 21
2634.853609986714
 31
0.0
  0
ARC
  5
52C5
330
A
100
AcDbEntity
  8
0
100
AcDbCircle
 10
1747.297736913742
 20
2631.853609986714
 30
0.0
 40
3.0
100
AcDbArc
 50
359.9999974960524
 51
89.99999995080796
  0
LINE
  5
52C7
330
A
100
AcDbEntity
  8
0
100
AcDbLine
 10
1750.297735912483
 20
2608.795401666818
 30
0.0
 11
1750.297735912483
 21
2631.853609855587
 31
0.0
  0
ARC
  5
52E1
330
A
100
AcDbEntity
  8
0
100
AcDbCircle
 10
1583.297709463798
 20
2140.004716591626
 30
0.0
 40
3.0
100
AcDbArc
 50
129.9999607489673
 51
179.9999974955313
  0
LINE
  5
52F7
330
A
100
AcDbEntity
  8
HIDDEN
 48
0.5
100
AcDbLine
 10
1713.118360024317
 20
2385.233091625437
 30
0.0
 11
1713.118363979411
 21
2430.474125958726
 31
0.0
  0
LINE
  5
5304
330
A
100
AcDbEntity
  8
HIDDEN
 48
0.5
100
AcDbLine
 10
1702.788802666626
 20
2442.784403001898
 30
0.0
 11
1702.797719646733
 21
2372.933442862698
 31
0.0
  0
LINE
  5
5306
330
A
100
AcDbEntity
  8
0
100
AcDbLine
 10
1663.667604733599
 20
1780.326762793274
 30
0.0
 11
1663.667604733599
 21
1778.327067402957
 31
0.0
  0
LINE
  5
5307
330
A
100
AcDbEntity
  8
0
100
AcDbLine
 10
1663.667604733605
 20
543.1553973263167
 30
0.0
 11
1663.667604733605
 21
541.1557019359993
 31
0.0
  0
LINE
  5
5308
330
A
100
AcDbEntity
  8
0
100
AcDbLine
 10
1663.667604733599
 20
1778.327067402957
 30
0.0
 11
1663.667604733605
 21
543.1553973263167
 31
0.0
  0
LINE
  5
5309
330
A
100
AcDbEntity
  8
0
100
AcDbLine
 10
1581.719961952911
 20
1785.687953271184
 30
0.0
 11
1659.73741435935
 21
1784.326153573894
 31
0.0
  0
LINE
  5
530A
330
A
100
AcDbEntity
  8
0
100
AcDbLine
 10
1659.737414359354
 20
537.1563111553792
 30
0.0
 11
1581.719961952916
 21
535.7945114580884
 31
0.0
  0
LINE
  5
530B
330
A
100
AcDbEntity
  8
0
100
AcDbLine
 10
1578.667604733599
 20
1779.688867100246
 30
0.0
 11
1578.667604733599
 21
1782.688410185722
 31
0.0
  0
LINE
  5
530C
330
A
100
AcDbEntity
  8
0
100
AcDbLine
 10
1578.667604733605
 20
541.793597629026
 30
0.0
 11
1578.667604733599
 21
1779.688867100246
 31
0.0
  0
LINE
  5
530D
330
A
100
AcDbEntity
  8
0
100
AcDbLine
 10
1578.667604733605
 20
538.7940545435499
 30
0.0
 11
1578.667604733605
 21
541.793597629026
 31
0.0
  0
ARC
  5
530E
330
A
100
AcDbEntity
  8
0
100
AcDbCircle
 10
1659.6676047336
 20
1780.326762793274
 30
0.0
 40
4.0
100
AcDbArc
 50
0.0
 51
89.00000000002433
  0
ARC
  5
530F
330
A
100
AcDbEntity
  8
0
100
AcDbCircle
 10
1659.667604733605
 20
541.1557019359993
 30
0.0
 40
4.0
100
AcDbArc
 50
270.9999999999887
 51
0.0
  0
ARC
  5
5310
330
A
100
AcDbEntity
  8
0
100
AcDbCircle
 10
1581.6676047336
 20
1782.688410185723
 30
0.0
 40
3.0
100
AcDbArc
 50
89.00000000005903
 51
180.0000000000173
  0
ARC
  5
5311
330
A
100
AcDbEntity
  8
0
100
AcDbCircle
 10
1581.667604733605
 20
538.7940545435499
 30
0.0
 40
3.0
100
AcDbArc
 50
180.0
 51
270.9999999999757
  0
SPLINE
  5
5312
330
A
100
AcDbEntity
  8
0
100
AcDbSpline
210
0.0
220
0.0
230
1.0
 70
     8
 71
     3
 72
    10
 73
     6
 74
     0
 42
0.000000001
 43
0.0000000001
 40
0.0
 40
0.0
 40
0.0
 40
0.0
 40
0.5
 40
0.5
 40
1.0
 40
1.0
 40
1.0
 40
1.0
 10
1674.514245827344
 20
875.5012260839671
 30
0.0
 10
1674.959912418978
 20
875.8751847566405
 30
0.0
 10
1675.438288767476
 20
876.2101474819597
 30
0.0
 10
1676.445955080941
 20
876.7919238992858
 30
0.0
 10
1676.975229484638
 20
877.0387286069986
 30
0.0
 10
1677.521920490951
 20
877.2377078606464
 30
0.0
  0
SPLINE
  5
5314
330
A
100
AcDbEntity
  8
0
100
AcDbSpline
210
0.0
220
0.0
230
1.0
 70
     8
 71
     3
 72
    22
 73
    18
 74
     0
 42
0.000000001
 43
0.0000000001
 40
0.0
 40
0.0
 40
0.0
 40
0.0
 40
0.125
 40
0.125
 40
0.25
 40
0.25
 40
0.375
 40
0.375
 40
0.5
 40
0.5
 40
0.625
 40
0.625
 40
0.75
 40
0.75
 40
0.875
 40
0.875
 40
1.0
 40
1.0
 40
1.0
 40
1.0
 10
1744.719725593557
 20
901.6957087260039
 30
0.0
 10
1745.006738371872
 20
901.8001728341719
 30
0.0
 10
1745.28575639789
 20
901.9265942570296
 30
0.0
 10
1745.82131829635
 20
902.2204135759334
 30
0.0
 10
1746.077857319059
 20
902.3878088113074
 30
0.0
 10
1746.562489296251
 20
902.7596800066481
 30
0.0
 10
1746.790577862193
 20
902.964152599156
 30
0.0
 10
1747.21299914973
 20
903.4054196329039
 30
0.0
 10
1747.407328046129
 20
903.6422100782897
 30
0.0
 10
1747.757705952546
 20
904.1426015869461
 30
0.0
 10
1747.913751789748
 20
904.4061981189684
 30
0.0
 10
1748.18393057585
 20
904.954066499859
 30
0.0
 10
1748.298061078172
 20
905.2383333875573
 30
0.0
 10
1748.481751798014
 20
905.8209259198434
 30
0.0
 10
1748.55131035214
 20
906.1192462888234
 30
0.0
 10
1748.64423724068
 20
906.7230019783406
 30
0.0
 10
1748.667604733603
 20
907.0284318316212
 30
0.0
 10
1748.667604733603
 20
907.3338644507262
 30
0.0
  0
SPLINE
  5
531A
330
A
100
AcDbEntity
  8
0
100
AcDbSpline
210
0.0
220
0.0
230
1.0
 70
     8
 71
     3
 72
    15
 73
    11
 74
     0
 42
0.000000001
 43
0.0000000001
 40
0.0
 40
0.0
 40
0.0
 40
0.0
 40
0.5000000000000002
 40
0.5000000000000002
 40
0.7500000000000003
 40
0.8750000000000004
 40
0.9374999999999988
 40
0.9687499999999994
 40
0.9687499999999994
 40
1.0
 40
1.0
 40
1.0
 40
1.0
 10
1677.473695818436
 20
877.2467555362914
 30
0.0
 10
1677.468456888281
 20
877.2357609241685
 30
0.0
 10
1677.470163710343
 20
877.2297379613542
 30
0.0
 10
1677.482438246788
 20
877.2276383284138
 30
0.0
 10
1677.491005753642
 20
877.2283234236334
 30
0.0
 10
1677.505116096592
 20
877.2320561551119
 30
0.0
 10
1677.513183821786
 20
877.2346438359332
 30
0.0
 10
1677.516856681928
 20
877.235906133918
 30
0.0
 10
1677.519352904221
 20
877.2367815910497
 30
0.0
 10
1677.520628304414
 20
877.2372375594955
 30
0.0
 10
1677.521920490951
 20
877.2377078606464
 30
0.0
  0
SPLINE
  5
531B
330
A
100
AcDbEntity
  8
0
100
AcDbSpline
210
0.0
220
0.0
230
1.0
 70
    24
 71
     3
 72
     8
 73
     4
 74
     0
 42
0.000000001
 43
0.0000000001
 40
0.0
 40
0.0
 40
0.0
 40
0.0
 40
1.0
 40
1.0
 40
1.0
 40
1.0
 10
1677.52192049095
 20
877.2377078606464
 30
0.0
 10
1699.921188858464
 20
885.3903748157559
 30
0.0
 10
1722.320457226041
 20
893.5430417708944
 30
0.0
 10
1744.719725593561
 20
901.6957087260039
 30
0.0
  0
SPLINE
  5
531D
330
A
100
AcDbEntity
  8
0
100
AcDbSpline
210
0.0
220
0.0
230
1.0
 70
     8
 71
     3
 72
    10
 73
     6
 74
     0
 42
0.000000001
 43
0.0000000001
 40
0.0
 40
0.0
 40
0.0
 40
0.0
 40
0.5
 40
0.5
 40
1.0
 40
1.0
 40
1.0
 40
1.0
 10
1674.589644655236
 20
875.5644932126547
 30
0.0
 10
1675.017873028395
 20
875.9238194826271
 30
0.0
 10
1675.476729894132
 20
876.246632356701
 30
0.0
 10
1676.442666356897
 20
876.8100615146345
 30
0.0
 10
1676.949732870122
 20
877.0506701667423
 30
0.0
 10
1677.473695818436
 20
877.2467555362914
 30
0.0
  0
SPLINE
  5
531E
330
A
100
AcDbEntity
  8
0
100
AcDbSpline
210
0.0
220
0.0
230
1.0
 70
    24
 71
     3
 72
     8
 73
     4
 74
     0
 42
0.000000001
 43
0.0000000001
 40
0.0
 40
0.0
 40
0.0
 40
0.0
 40
1.0
 40
1.0
 40
1.0
 40
1.0
 10
1663.66768940302
 20
866.3998845887786
 30
0.0
 10
1667.308341153757
 20
869.4547541300658
 30
0.0
 10
1670.948992904488
 20
872.509623671353
 30
0.0
 10
1674.589644655234
 20
875.5644932126402
 30
0.0
  0
LINE
  5
5320
330
A
100
AcDbEntity
  8
0
100
AcDbLine
 10
551.3253502139687
 20
1155.875661723292
 30
0.0
 11
551.2097954043984
 21
1155.800222270167
 31
0.0
  0
LINE
  5
5321
330
A
100
AcDbEntity
  8
0
100
AcDbLine
 10
551.2097954043984
 20
1155.800222270167
 30
0.0
 11
551.0935539493203
 21
1155.874853007471
 31
0.0
  0
CIRCLE
  5
5322
330
A
100
AcDbEntity
  8
0
  6
HIDDEN2
100
AcDbCircle
 10
487.2258704231717
 20
1167.784244002053
 30
0.0
 40
17.5
  0
CIRCLE
  5
5323
330
A
100
AcDbEntity
  8
0
  6
HIDDEN2
100
AcDbCircle
 10
487.2258704231726
 20
1067.784244002053
 30
0.0
 40
16.0
  0
CIRCLE
  5
5324
330
A
100
AcDbEntity
  8
0
  6
HIDDEN2
100
AcDbCircle
 10
487.2258704231717
 20
1267.784244002053
 30
0.0
 40
16.0
  0
LINE
  5
5325
330
A
100
AcDbEntity
  8
0
100
AcDbLine
 10
418.1677269229567
 20
545.7838023463023
 30
0.0
 11
418.1677269229513
 21
1789.784716175379
 31
0.0
  0
LINE
  5
5326
330
A
100
AcDbEntity
  8
0
100
AcDbLine
 10
912.1153616585707
 20
542.7842592608426
 30
0.0
 11
421.1677269229567
 21
542.7842592608408
 31
0.0
  0
LINE
  5
5327
330
A
100
AcDbEntity
  8
0
100
AcDbLine
 10
918.1144478295028
 20
1786.785173089905
 30
0.0
 11
918.1144478295082
 21
548.7833454317802
 31
0.0
  0
LINE
  5
5328
330
A
100
AcDbEntity
  8
0
100
AcDbLine
 10
421.1677269229513
 20
1792.784259260841
 30
0.0
 11
912.1153616585652
 21
1792.784259260843
 31
0.0
  0
ELLIPSE
  5
5329
330
A
100
AcDbEntity
  8
0
100
AcDbEllipse
 10
421.1677269229567
 20
545.7838023463023
 30
0.0
 11
-2.999999999999999
 21
4.414317634247313E-8
 31
0.0
210
0.0
220
0.0
230
1.0
 40
0.999847695158678
 41
0.0000000147166379
 42
1.570796341507052
  0
ELLIPSE
  5
532A
330
A
100
AcDbEntity
  8
0
100
AcDbEllipse
 10
912.1144477598973
 20
1786.784259191241
 30
0.0
 11
-4.242640883924745
 21
-4.242640883924783
 31
0.0
210
0.0
220
0.0
230
1.0
 40
0.9999999536149665
 41
2.356346783440933
 42
3.926838523738048
  0
ELLIPSE
  5
532B
330
A
100
AcDbEntity
  8
0
100
AcDbEllipse
 10
912.1144477599082
 20
548.7842593304445
 30
0.0
 11
-4.242640883921941
 21
4.242640883921903
 31
0.0
210
0.0
220
0.0
230
1.0
 40
0.9999999536129324
 41
2.356346783439537
 42
3.926838523742096
  0
ELLIPSE
  5
532C
330
A
100
AcDbEntity
  8
0
100
AcDbEllipse
 10
421.1677269229513
 20
1789.784716175379
 30
0.0
 11
-2.999999999999999
 21
-4.414361864384891E-8
 31
0.0
210
0.0
220
0.0
230
1.0
 40
0.999847695158678
 41
4.712388965672396
 42
6.28318529246281
  0
CIRCLE
  5
532D
330
A
100
AcDbEntity
  8
0
100
AcDbCircle
 10
645.1677269229531
 20
1167.784259260842
 30
0.0
 40
22.0
  0
CIRCLE
  5
532E
330
A
100
AcDbEntity
  8
0
100
AcDbCircle
 10
645.1677269229531
 20
1167.784259260842
 30
0.0
 40
38.44689109742895
  0
LINE
  5
532F
330
A
100
AcDbEntity
  8
0
100
AcDbLine
 10
911.2130930578005
 20
1497.784259260843
 30
0.0
 11
911.2130930578032
 21
837.7842592608426
 31
0.0
  0
LINE
  5
5330
330
A
100
AcDbEntity
  8
0
100
AcDbLine
 10
891.2130930578041
 20
817.7842592608426
 30
0.0
 11
567.7631209360134
 21
817.7842592608408
 31
0.0
  0
LINE
  5
5331
330
A
100
AcDbEntity
  8
0
100
AcDbLine
 10
547.7631209360106
 20
1497.784259260842
 30
0.0
 11
547.7631209360134
 21
837.7842592608417
 31
0.0
  0
ARC
  5
5332
330
A
100
AcDbEntity
  8
0
100
AcDbCircle
 10
567.7631209360134
 20
837.7842592608408
 30
0.0
 40
20.0
100
AcDbArc
 50
179.9999999999974
 51
269.9999999997812
  0
ARC
  5
5333
330
A
100
AcDbEntity
  8
0
100
AcDbCircle
 10
891.2130930578032
 20
837.7842592608426
 30
0.0
 40
20.0
100
AcDbArc
 50
270.0000000002215
 51
0.0
  0
LINE
  5
5334
330
A
100
AcDbEntity
  8
0
100
AcDbLine
 10
891.2130930578005
 20
1517.784259260843
 30
0.0
 11
567.7631209360097
 21
1517.784259260841
 31
0.0
  0
ARC
  5
5335
330
A
100
AcDbEntity
  8
0
100
AcDbCircle
 10
567.7631209360106
 20
1497.784259260841
 30
0.0
 40
20.0
100
AcDbArc
 50
90.00000000022146
 51
179.9999999999974
  0
ARC
  5
5336
330
A
100
AcDbEntity
  8
0
100
AcDbCircle
 10
891.2130930578005
 20
1497.784259260843
 30
0.0
 40
20.0
100
AcDbArc
 50
0.0
 51
89.99999999978114
  0
ELLIPSE
  5
5337
330
A
100
AcDbEntity
  8
0
100
AcDbEllipse
 10
551.2087345188593
 20
1167.784259260841
 30
0.0
 11
5.486741028260382E-14
 21
-11.98287221885403
 31
0.0
210
0.0
220
0.0
230
1.0
 40
0.086521914256924
 41
0.0
 42
6.283185307179586
  0
DIMENSION
  5
53CF
330
A
100
AcDbEntity
  8
Dim
100
AcDbDimension
  2
*D54
 10
1483.786792878247
 20
1307.784259260853
 30
0.0
 11
1461.570484284498
 21
1167.784259260846
 31
0.0
 70
    32
 71
     5
 42
280.0000000000146
 73
     0
 74
     0
 75
     0
 52
-270.0
  3
tform線あり
100
AcDbAlignedDimension
 13
1569.906129007435
 23
1027.784259260839
 33
0.0
 14
1569.906129007433
 24
1307.784259260854
 34
0.0
 50
90.00000000000026
100
AcDbRotatedDimension
  0
DIMENSION
  5
53D0
330
A
100
AcDbEntity
  8
Dim
100
AcDbDimension
  2
*D55
 10
1483.786792878249
 20
1027.784259260839
 30
0.0
 11
1461.5704842845
 21
867.7842592608457
 31
0.0
 70
    32
 71
     5
 42
319.9999999999854
 73
     0
 74
     0
 75
     0
 52
-270.0
  3
tform線あり
100
AcDbAlignedDimension
 13
1569.906129007436
 23
707.7842592608536
 33
0.0
 14
1569.906129007435
 24
1027.784259260839
 34
0.0
 50
90.00000000000026
100
AcDbRotatedDimension
  0
DIMENSION
  5
53D1
330
A
100
AcDbEntity
  8
Dim
100
AcDbDimension
  2
*D56
 10
1483.786792878246
 20
1627.784259260839
 30
0.0
 11
1461.570484284497
 21
1467.784259260846
 31
0.0
 70
    32
 71
     5
 42
319.9999999999864
 73
     0
 74
     0
 75
     0
 52
-270.0
  3
tform線あり
100
AcDbAlignedDimension
 13
1569.906129007433
 23
1307.784259260854
 33
0.0
 14
1569.906129007431
 24
1627.78425926084
 34
0.0
 50
90.00000000000026
100
AcDbRotatedDimension
  0
DIMENSION
  5
53D2
330
A
100
AcDbEntity
  8
Dim
100
AcDbDimension
  2
*D57
 10
918.4102700346292
 20
1944.275256767019
 30
0.0
 11
654.0578645815513
 21
1944.27525676702
 31
0.0
 70
   161
 71
     5
 42
500.2425741467159
 73
     0
 74
     0
 75
     0
  3
tform線あり
100
AcDbAlignedDimension
 13
418.1676958879125
 23
1802.875350835891
 33
0.0
 14
918.4102700346284
 24
1802.875350835888
 34
0.0
1001
ACAD
1000
DSTYLE
1002
{
1070
   271
1070
     0
1002
}
  0
DIMENSION
  5
53D3
330
A
100
AcDbEntity
  8
Dim
100
AcDbDimension
  2
*D58
 10
234.0917658027465
 20
1792.784259260829
 30
0.0
 11
211.8754572089994
 21
1167.784259260829
 31
0.0
 70
    32
 71
     5
 42
1250.0
 73
     0
 74
     0
 75
     0
 52
-270.0
  3
tform線あり
100
AcDbAlignedDimension
 13
414.3619094828673
 23
542.7842592608299
 33
0.0
 14
414.3619094828628
 24
1792.78425926083
 34
0.0
 50
90.00000000000026
100
AcDbRotatedDimension
  0
DIMENSION
  5
53D9
330
A
100
AcDbEntity
  8
Dim
100
AcDbDimension
  2
*D61
 10
1884.062433847153
 20
2407.853607056423
 30
0.0
 11
1884.062433847153
 21
2521.353609253085
 31
0.0
 70
   160
  1
230
 71
     5
 42
227.000004393326
 73
     0
 74
     0
 75
     0
 52
-270.0
  3
tform線あり
100
AcDbAlignedDimension
 13
1758.424850260591
 23
2634.853611449749
 33
0.0
 14
1758.57128667408
 24
2407.853607056423
 34
0.0
 50
90.00000000000026
100
AcDbRotatedDimension
  0
DIMENSION
  5
53DA
330
A
100
AcDbEntity
  8
Dim
100
AcDbDimension
  2
*D62
 10
1620.297730964522
 20
435.7865022888477
 30
0.0
 11
1600.297730964525
 21
435.7865022888477
 31
0.0
 70
   160
 71
     5
 42
40.00000000000069
 73
     0
 74
     0
 75
     0
  3
tform線あり
100
AcDbAlignedDimension
 13
1580.297730964522
 23
535.9054222726522
 33
0.0
 14
1620.297730964522
 24
683.284769884704
 34
0.0
 50
0.0000000000002672
100
AcDbRotatedDimension
  0
DIMENSION
  5
53DC
330
A
100
AcDbEntity
  8
Dim
100
AcDbDimension
  2
*D64
 10
1665.297718795447
 20
2058.235944788817
 30
0.0
 11
1624.394070445059
 21
2058.235944788817
 31
0.0
 70
   160
 71
     5
 42
85.0000012962264
 73
     0
 74
     0
 75
     0
  3
tform線あり
100
AcDbAlignedDimension
 13
1580.29771749922
 23
2122.097640388225
 33
0.0
 14
1665.297718795447
 24
2122.097640388225
 34
0.0
 50
0.0000000000002672
100
AcDbRotatedDimension
  0
DIMENSION
  5
53DD
330
A
100
AcDbEntity
  8
Dim
100
AcDbDimension
  2
*D65
 10
1750.297714414999
 20
2058.235944788818
 30
0.0
 11
1699.541169721001
 21
2058.235944788818
 31
0.0
 70
   160
 71
     5
 42
84.99999561955292
 73
     0
 74
     0
 75
     0
  3
tform線あり
100
AcDbAlignedDimension
 13
1665.297718795447
 23
2122.097640388225
 33
0.0
 14
1750.297714414999
 24
2218.649498576677
 34
0.0
 50
0.0000000000002672
100
AcDbRotatedDimension
  0
DIMENSION
  5
53DE
330
A
100
AcDbEntity
  8
Dim
100
AcDbDimension
  2
*D66
 10
1750.297714415002
 20
1870.068060949928
 30
0.0
 11
1665.297715957103
 21
1870.068060949928
 31
0.0
 70
   160
 71
     5
 42
169.9999969157927
 73
     0
 74
     0
 75
     0
  3
tform線あり
100
AcDbAlignedDimension
 13
1580.297717499207
 23
1803.606393929435
 33
0.0
 14
1750.297714415002
 24
1445.767902895218
 34
0.0
 50
0.0000000000002672
100
AcDbRotatedDimension
  0
DIMENSION
  5
53E1
330
A
100
AcDbEntity
  8
Dim
100
AcDbDimension
  2
*D69
 10
335.9709481978825
 20
1167.78425926084
 30
0.0
 11
313.7546396041328
 21
1117.78425926084
 31
0.0
 70
    32
 71
     5
 42
100.0
 73
     0
 74
     0
 75
     0
 52
-270.0
  3
tform線あり
100
AcDbAlignedDimension
 13
470.8374462207903
 23
1067.784259260841
 33
0.0
 14
470.8374462207903
 24
1167.784259260841
 34
0.0
 50
90.00000000000026
100
AcDbRotatedDimension
  0
DIMENSION
  5
53E2
330
A
100
AcDbEntity
  8
Dim
100
AcDbDimension
  2
*D70
 10
335.9709481978825
 20
1267.78425926084
 30
0.0
 11
313.7546396041328
 21
1217.78425926084
 31
0.0
 70
    32
 71
     5
 42
100.0
 73
     0
 74
     0
 75
     0
 52
-270.0
  3
tform線あり
100
AcDbAlignedDimension
 13
470.8374462207903
 23
1167.784259260841
 33
0.0
 14
470.8374462207903
 24
1267.784259260841
 34
0.0
 50
90.00000000000026
100
AcDbRotatedDimension
  0
LINE
  5
54DE
330
A
100
AcDbEntity
  8
HIDDEN
  6
CENTER
 48
0.15
100
AcDbLine
 10
1595.798241588365
 20
707.784259260859
 30
0.0
 11
1644.797220340677
 21
707.7842592608599
 31
0.0
  0
LINE
  5
54DF
330
A
100
AcDbEntity
  8
HIDDEN
  6
CENTER
 48
0.15
100
AcDbLine
 10
1620.297730964522
 20
732.283748637014
 30
0.0
 11
1620.297730964522
 21
683.284769884704
 31
0.0
  0
CIRCLE
  5
54E0
330
A
100
AcDbEntity
  8
HIDDEN
  6
CENTER
 48
0.15
100
AcDbCircle
 10
1620.297730964522
 20
707.7842592608599
 30
0.0
 40
14.99999999998556
  0
LINE
  5
54E2
330
A
100
AcDbEntity
  8
HIDDEN
  6
CENTER
 48
0.15
100
AcDbLine
 10
1595.798241588363
 20
1027.784259260844
 30
0.0
 11
1644.797220340675
 21
1027.784259260845
 31
0.0
  0
LINE
  5
54E3
330
A
100
AcDbEntity
  8
HIDDEN
  6
CENTER
 48
0.15
100
AcDbLine
 10
1620.297730964521
 20
1052.283748636999
 30
0.0
 11
1620.297730964521
 21
1003.284769884689
 31
0.0
  0
CIRCLE
  5
54E4
330
A
100
AcDbEntity
  8
HIDDEN
  6
CENTER
 48
0.15
100
AcDbCircle
 10
1620.297730964521
 20
1027.784259260845
 30
0.0
 40
14.99999999998556
  0
LINE
  5
54E5
330
A
100
AcDbEntity
  8
HIDDEN
  6
CENTER
 48
0.15
100
AcDbLine
 10
1595.798241588361
 20
1613.698205468414
 30
0.0
 11
1644.797220340673
 21
1613.698205468414
 31
0.0
  0
LINE
  5
54E6
330
A
100
AcDbEntity
  8
HIDDEN
  6
CENTER
 48
0.15
100
AcDbLine
 10
1620.297730964518
 20
1589.198716092259
 30
0.0
 11
1620.297730964518
 21
1638.197694844569
 31
0.0
  0
CIRCLE
  5
54E7
330
A
100
AcDbEntity
  8
HIDDEN
  6
CENTER
 48
0.15
100
AcDbCircle
 10
1620.297730964518
 20
1613.698205468414
 30
0.0
 40
14.99999999998556
  0
LINE
  5
54E8
330
A
100
AcDbEntity
  8
HIDDEN
  6
CENTER
 48
0.15
100
AcDbLine
 10
1595.798241588363
 20
1293.698205468428
 30
0.0
 11
1644.797220340674
 21
1293.698205468429
 31
0.0
  0
LINE
  5
54E9
330
A
100
AcDbEntity
  8
HIDDEN
  6
CENTER
 48
0.15
100
AcDbLine
 10
1620.297730964519
 20
1269.198716092273
 30
0.0
 11
1620.297730964519
 21
1318.197694844583
 31
0.0
  0
CIRCLE
  5
54EA
330
A
100
AcDbEntity
  8
HIDDEN
  6
CENTER
 48
0.15
100
AcDbCircle
 10
1620.297730964519
 20
1293.698205468429
 30
0.0
 40
14.99999999998556
  0
DIMENSION
  5
54EE
102
{ACAD_XDICTIONARY
360
54EF
102
}
330
A
100
AcDbEntity
  8
Dim
  6
Continuous
 62
     3
100
AcDbDimension
  2
*D71
 10
1498.567155296039
 20
2569.853612912797
 30
0.0
 11
1476.350846702289
 21
2602.353612912797
 31
0.0
 70
    32
 71
     5
 42
65.0
 73
     0
 74
     0
 75
     0
 52
-270.0
  3
tform線あり
100
AcDbAlignedDimension
 13
1583.297731095654
 23
2634.853612912797
 33
0.0
 14
1583.297731095655
 24
2569.853612912797
 34
0.0
 50
90.00000000000026
100
AcDbRotatedDimension
  0
SPLINE
  5
5500
330
A
100
AcDbEntity
  8
HIDDEN
 48
0.5
100
AcDbSpline
210
0.0
220
0.0
230
1.0
 70
  1064
 71
     3
 72
    31
 73
    27
 74
    25
 42
0.000000001
 43
0.0000000001
 44
0.0
 40
0.0
 40
0.0
 40
0.0
 40
0.0
 40
1.469641098992677
 40
2.20830819340032
 40
3.556423196937294
 40
5.031789848198977
 40
8.110482904650961
 40
60.85472679668041
 40
87.12667946722594
 40
96.87356250448956
 40
112.0249097393886
 40
125.3884224987668
 40
136.5581101036724
 40
146.0849467303471
 40
153.7757557382681
 40
156.1842806783278
 40
160.4464322201801
 40
166.2511286433805
 40
171.0672245383301
 40
173.6582253952543
 40
175.6428883012289
 40
178.7800454209247
 40
194.8703482110164
 40
200.5179182096303
 40
204.0006553464644
 40
204.9338919136516
 40
204.9338919136516
 40
204.9338919136516
 40
204.9338919136516
 10
1580.297725533345
 20
2507.602591962438
 30
0.0
 10
1580.367965795531
 20
2507.106535970282
 30
0.0
 10
1580.473510031194
 20
2506.361153636723
 30
0.0
 10
1581.186204653169
 20
2505.390888651466
 30
0.0
 10
1582.197304345884
 20
2504.673325705322
 30
0.0
 10
1584.198280602604
 20
2504.520341174445
 30
0.0
 10
1603.106517625183
 20
2502.809132863526
 30
0.0
 10
1630.354217504412
 20
2500.061283784952
 30
0.0
 10
1660.095666447558
 20
2498.139678958298
 30
0.0
 10
1676.346677910115
 20
2492.681692001996
 30
0.0
 10
1687.131133386111
 20
2485.241217426945
 30
0.0
 10
1694.578816543394
 20
2474.066885153642
 30
0.0
 10
1698.903340287439
 20
2463.545760350654
 30
0.0
 10
1701.363468507615
 20
2454.360934509612
 30
0.0
 10
1702.128793116563
 20
2447.877145736174
 30
0.0
 10
1702.986812782259
 20
2443.132479790936
 30
0.0
 10
1705.265490663939
 20
2439.540278049971
 30
0.0
 10
1708.696362236107
 20
2435.924442252711
 30
0.0
 10
1711.229966642101
 20
2432.44274373665
 30
0.0
 10
1713.751905275669
 20
2430.187479169447
 30
0.0
 10
1716.427307648808
 20
2430.523957294515
 30
0.0
 10
1723.413487469033
 20
2430.092033538816
 30
0.0
 10
1731.767750992698
 20
2430.218478938766
 30
0.0
 10
1740.161065085681
 20
2429.957962552076
 30
0.0
 10
1743.521019908379
 20
2430.009088675875
 30
0.0
 10
1744.987755925176
 20
2429.880719617561
 30
0.0
 10
1745.297724185187
 20
2429.85359112737
 30
0.0
 11
1580.297725533345
 21
2507.602591962438
 31
0.0
 11
1580.657699631024
 21
2506.177718771993
 31
0.0
 11
1581.08589278115
 21
2505.575822017935
 31
0.0
 11
1582.196701502409
 21
2504.811938487849
 31
0.0
 11
1583.650400494554
 21
2504.560013904111
 31
0.0
 11
1586.717385999685
 21
2504.291777353352
 31
0.0
 11
1639.251778108642
 21
2499.591467843943
 31
0.0
 11
1665.297723051864
 21
2496.15282724946
 31
0.0
 11
1674.493965608642
 21
2492.923144327097
 31
0.0
 11
1686.876778108642
 21
2484.192206369333
 31
0.0
 11
1694.548653108642
 21
2473.250277505808
 31
0.0
 11
1698.868965608642
 21
2462.949946390085
 31
0.0
 11
1701.271309358642
 21
2453.730978952341
 31
0.0
 11
1702.456298812678
 21
2446.132009075434
 31
0.0
 11
1702.982954158042
 21
2443.781769399552
 31
0.0
 11
1705.070120746859
 21
2440.065632777166
 31
0.0
 11
1708.801306713845
 21
2435.618976522711
 31
0.0
 11
1711.897032675857
 21
2431.929632348271
 31
0.0
 11
1714.029676947765
 21
2430.458199763991
 31
0.0
 11
1716.014053201949
 21
2430.424469478167
 31
0.0
 11
1719.150716553157
 21
2430.368811461256
 31
0.0
 11
1735.238568699924
 21
2430.087996254041
 31
0.0
 11
1740.885278541964
 21
2429.989432320216
 31
0.0
 11
1744.367478084011
 21
2429.928241523095
 31
0.0
 11
1745.297724185187
 21
2429.85359112737
 31
0.0
  0
SPLINE
  5
5501
330
A
100
AcDbEntity
  8
HIDDEN
 48
0.5
100
AcDbSpline
210
0.0
220
0.0
230
1.0
 70
  1064
 71
     3
 72
    46
 73
    42
 74
    40
 42
0.000000001
 43
0.0000000001
 44
0.0
 40
0.0
 40
0.0
 40
0.0
 40
0.0
 40
1.298638622559668
 40
2.139104232172848
 40
4.040697726549185
 40
6.56225974635527
 40
61.52892086399264
 40
85.95644816265282
 40
108.9402914380129
 40
116.0599962130784
 40
125.9535822204252
 40
134.8719697809447
 40
142.7960447147607
 40
151.2671135045639
 40
164.6105540527838
 40
179.2037796045619
 40
192.4218241869267
 40
221.3940425628419
 40
244.4552538791068
 40
261.4322361636491
 40
275.4052071327604
 40
280.7775620920696
 40
284.164484609768
 40
289.9858568231589
 40
292.6028992613931
 40
295.8072290365715
 40
296.6559399486795
 40
297.7556990940983
 40
299.6670271896527
 40
301.7042455590829
 40
304.6352944839039
 40
306.7149703422068
 40
308.9681816378319
 40
312.3477609818611
 40
316.2012607261553
 40
319.3157586758765
 40
322.8375592883705
 40
325.8251674007495
 40
327.766413578313
 40
328.4281753132105
 40
328.774889373948
 40
328.774889373948
 40
328.774889373948
 40
328.774889373948
 10
1580.297709465122
 20
2140.004716722761
 30
0.0
 10
1580.3513499516
 20
2140.442092277402
 30
0.0
 10
1580.439706011284
 20
2141.162532809301
 30
0.0
 10
1581.222430619865
 20
2142.296523063934
 30
0.0
 10
1582.656860788574
 20
2143.33036736002
 30
0.0
 10
1597.579042216919
 20
2156.307248716539
 30
0.0
 10
1618.77021544063
 20
2173.572104809663
 30
0.0
 10
1644.821905711682
 20
2195.607287224253
 30
0.0
 10
1658.833608992531
 20
2207.189897838928
 30
0.0
 10
1668.910726185195
 20
2215.919496523086
 30
0.0
 10
1675.111591645374
 20
2221.961782413174
 30
0.0
 10
1680.665611733623
 20
2228.976809008355
 30
0.0
 10
1684.755870325532
 20
2236.400787162162
 30
0.0
 10
1688.092450892496
 20
2245.770971905833
 30
0.0
 10
1690.479681492324
 20
2257.70936472729
 30
0.0
 10
1691.882531526665
 20
2271.357633482547
 30
0.0
 10
1693.920284548221
 20
2290.174016698214
 30
0.0
 10
1696.236965582648
 20
2311.808135311084
 30
0.0
 10
1698.688221314805
 20
2334.658253692322
 30
0.0
 10
1700.605841300687
 20
2352.615100796062
 30
0.0
 10
1701.926761765985
 20
2364.521344457004
 30
0.0
 10
1702.693044799408
 20
2372.249481805165
 30
0.0
 10
1705.474208454595
 20
2376.342335352886
 30
0.0
 10
1708.098379676131
 20
2379.254142980979
 30
0.0
 10
1710.627325023741
 20
2382.214642876407
 30
0.0
 10
1711.923235916996
 20
2383.995326559063
 30
0.0
 10
1713.232688383787
 20
2385.189308122034
 30
0.0
 10
1714.575506916153
 20
2385.283422143981
 30
0.0
 10
1716.23128428649
 20
2385.278831124475
 30
0.0
 10
1718.53386341901
 20
2385.331212183942
 30
0.0
 10
1720.879365436336
 20
2385.367824564606
 30
0.0
 10
1723.301056097665
 20
2385.411033491958
 30
0.0
 10
1725.871275355102
 20
2385.455623548305
 30
0.0
 10
1729.032973421601
 20
2385.510965238191
 30
0.0
 10
1732.481630651898
 20
2385.570936561518
 30
0.0
 10
1735.977643611628
 20
2385.632585015948
 30
0.0
 10
1739.18535226583
 20
2385.686227168916
 30
0.0
 10
1742.001136187942
 20
2385.742232205738
 30
0.0
 10
1743.865709754671
 20
2385.761334185191
 30
0.0
 10
1744.846084297921
 20
2385.842058606657
 30
0.0
 10
1745.182174442716
 20
2385.850662144519
 30
0.0
 10
1745.29772226189
 20
2385.853620041537
 30
0.0
 11
1580.297709465122
 21
2140.004716722761
 31
0.0
 11
1580.578786564676
 21
2141.272572367584
 31
0.0
 11
1581.037180874743
 21
2141.977027545321
 31
0.0
 11
1582.470528108644
 21
2143.226656900339
 31
0.0
 11
1584.402600851875
 21
2144.846956235213
 31
0.0
 11
1626.509590608643
 21
2180.178744302683
 31
0.0
 11
1645.220528108643
 21
2195.8824033603
 31
0.0
 11
1662.822090608643
 21
2210.66218851655
 31
0.0
 11
1668.173653108643
 21
2215.358035074167
 31
0.0
 11
1675.181465608643
 21
2222.341845498972
 31
0.0
 11
1680.65421806317
 21
2229.383622068212
 31
0.0
 11
1684.478340608643
 21
2236.323870645456
 31
0.0
 11
1687.392403108643
 21
2244.277941690378
 31
0.0
 11
1690.197090608643
 21
2257.323290811472
 31
0.0
 11
1691.943184358643
 21
2271.811678872995
 31
0.0
 11
1693.353340608643
 21
2284.954287515573
 31
0.0
 11
1696.447090608643
 21
2313.760851846628
 31
0.0
 11
1698.904121858643
 21
2336.690798746042
 31
0.0
 11
1700.720528108643
 21
2353.570330606394
 31
0.0
 11
1702.212715608643
 21
2367.463397012644
 31
0.0
 11
1703.277406996131
 21
2372.729195153308
 31
0.0
 11
1705.048679951524
 21
2375.616033607116
 31
0.0
 11
1708.790585296883
 21
2380.075463933202
 31
0.0
 11
1710.47278748731
 21
2382.080234971012
 31
0.0
 11
1712.532490642254
 21
2384.534894259306
 31
0.0
 11
1713.203557317762
 21
2385.054489995772
 31
0.0
 11
1714.285165128811
 21
2385.25347421879
 31
0.0
 11
1716.196202121297
 21
2385.286831410015
 31
0.0
 11
1718.233110214056
 21
2385.322385683964
 31
0.0
 11
1721.163712728165
 21
2385.373539412988
 31
0.0
 11
1723.243071843348
 21
2385.409834670433
 31
0.0
 11
1725.495939965698
 21
2385.449158531278
 31
0.0
 11
1728.875004586002
 21
2385.508140175873
 31
0.0
 11
1732.72791742656
 21
2385.575392851201
 31
0.0
 11
1735.841941025534
 21
2385.629748199148
 31
0.0
 11
1739.363205253423
 21
2385.69121194091
 31
0.0
 11
1742.350358340895
 21
2385.743352761391
 31
0.0
 11
1744.290766736386
 21
2385.800378901111
 31
0.0
 11
1744.951186534922
 21
2385.842501145543
 31
0.0
 11
1745.29772226189
 21
2385.853620041537
 31
0.0
  0
SPLINE
  5
550F
330
A
100
AcDbEntity
  8
HIDDEN
 48
0.5
100
AcDbSpline
210
0.0
220
0.0
230
1.0
 70
  1064
 71
     3
 72
    12
 73
     8
 74
     6
 42
0.000000001
 43
0.0000000001
 44
0.0
 40
0.0
 40
0.0
 40
0.0
 40
0.0
 40
58.35902478928721
 40
127.9273039367482
 40
189.8449429277113
 40
245.583358710551
 40
371.0596162966772
 40
371.0596162966772
 40
371.0596162966772
 40
371.0596162966772
 10
1578.6676047336
 20
1517.784259260844
 30
0.0
 10
1593.504297581306
 20
1505.342302606181
 30
0.0
 10
1626.027426989271
 20
1478.06861226821
 30
0.0
 10
1673.965231407277
 20
1434.225991807205
 30
0.0
 10
1692.759000454764
 20
1372.618004431295
 30
0.0
 10
1699.859650502974
 20
1292.091284534335
 30
0.0
 10
1701.595669362626
 20
1231.641064795034
 30
0.0
 10
1702.797719646737
 20
1189.784259260845
 30
0.0
 11
1578.6676047336
 21
1517.784259260844
 31
0.0
 11
1623.131864703317
 21
1479.986040259123
 31
0.0
 11
1670.297508418253
 21
1428.847527213721
 31
0.0
 11
1691.060020003097
 21
1370.514756570587
 31
0.0
 11
1697.48651168412
 21
1315.148059011003
 31
0.0
 11
1702.797719646737
 21
1189.784259260845
 31
0.0
  0
LINE
  5
5516
330
A
100
AcDbEntity
  8
HIDDEN
 48
0.5
100
AcDbLine
 10
1702.797719646737
 20
1189.784259260845
 30
0.0
 11
1702.797719646737
 21
1145.784259260845
 31
0.0
  0
SPLINE
  5
5518
330
A
100
AcDbEntity
  8
HIDDEN
 48
0.5
100
AcDbSpline
210
0.0
220
0.0
230
1.0
 70
  1064
 71
     3
 72
    12
 73
     8
 74
     6
 42
0.000000001
 43
0.0000000001
 44
0.0
 40
0.0
 40
0.0
 40
0.0
 40
0.0
 40
58.35902478928652
 40
127.9273039367478
 40
189.8449429277111
 40
245.5833587105509
 40
371.059616296676
 40
371.059616296676
 40
371.059616296676
 40
371.059616296676
 10
1578.6676047336
 20
817.7842592608463
 30
0.0
 10
1593.504297581305
 20
830.2262159155099
 30
0.0
 10
1626.02742698927
 20
857.4999062534816
 30
0.0
 10
1673.965231407276
 20
901.342526714486
 30
0.0
 10
1692.759000454764
 20
962.950514090396
 30
0.0
 10
1699.859650502971
 20
1043.477233987355
 30
0.0
 10
1701.595669362626
 20
1103.927453726656
 30
0.0
 10
1702.797719646737
 20
1145.784259260845
 30
0.0
 11
1578.6676047336
 21
817.7842592608463
 31
0.0
 11
1623.131864703316
 21
855.5824782625673
 31
0.0
 11
1670.297508418252
 21
906.72099130797
 31
0.0
 11
1691.060020003097
 21
965.0537619511038
 31
0.0
 11
1697.486511684119
 21
1020.420459510688
 31
0.0
 11
1702.797719646737
 21
1145.784259260845
 31
0.0
  0
LINE
  5
5519
330
A
100
AcDbEntity
  8
HIDDEN
 48
0.5
100
AcDbLine
 10
1712.993891038646
 20
1189.784259260845
 30
0.0
 11
1702.321550456121
 21
1206.23115035827
 31
0.0
  0
LINE
  5
551B
330
A
100
AcDbEntity
  8
HIDDEN
 48
0.5
100
AcDbLine
 10
1712.993891038646
 20
1189.784259260845
 30
0.0
 11
1743.667604733604
 21
1189.784259260845
 31
0.0
  0
LINE
  5
551C
330
A
100
AcDbEntity
  8
HIDDEN
 48
0.5
100
AcDbLine
 10
1712.993891038646
 20
1145.784259260845
 30
0.0
 11
1743.667604733604
 21
1145.784259260845
 31
0.0
  0
LINE
  5
551D
330
A
100
AcDbEntity
  8
HIDDEN
 48
0.5
100
AcDbLine
 10
1712.993891038646
 20
1145.784259260845
 30
0.0
 11
1702.321550456121
 21
1129.337368163421
 31
0.0
  0
LINE
  5
551E
330
A
100
AcDbEntity
  8
HIDDEN
 48
0.5
100
AcDbLine
 10
1712.993891038646
 20
1189.784259260845
 30
0.0
 11
1712.993891038646
 21
1145.784259260845
 31
0.0
  0
DIMENSION
  5
5523
330
A
100
AcDbEntity
  8
Dim
100
AcDbDimension
  2
*D72
 10
547.7631209360043
 20
420.4975396489513
 30
0.0
 11
482.7631209967361
 21
442.7138482427021
 31
0.0
 70
    32
 71
     5
 42
129.9999998785338
 73
     0
 74
     0
 75
     0
 52
-90.00000000000001
  3
tform線あり
100
AcDbAlignedDimension
 13
417.7631210574673
 23
536.2534665225126
 33
0.0
 14
547.7631209360043
 24
799.5390141778266
 34
0.0
 50
179.9999999999993
100
AcDbRotatedDimension
  0
CIRCLE
  5
553F
330
A
100
AcDbEntity
  8
HIDDEN
  6
HIDDEN
 48
0.5
100
AcDbCircle
 10
457.0129326418282
 20
2408.82538137686
 30
0.0
 40
9.84375
  0
CIRCLE
  5
5540
330
A
100
AcDbEntity
  8
HIDDEN
  6
HIDDEN
 48
0.5
100
AcDbCircle
 10
457.0129326418291
 20
2352.57538137686
 30
0.0
 40
9.0
  0
CIRCLE
  5
5541
330
A
100
AcDbEntity
  8
HIDDEN
  6
HIDDEN
 48
0.5
100
AcDbCircle
 10
457.0129326418282
 20
2465.07538137686
 30
0.0
 40
9.0
  0
LINE
  5
5543
330
A
100
AcDbEntity
  8
HIDDEN
  6
HIDDEN
100
AcDbLine
 10
696.0132714617403
 20
2057.26288995993
 30
0.0
 11
419.8552269229576
 21
2057.262889959928
 31
0.0
  0
LINE
  5
5544
330
A
100
AcDbEntity
  8
HIDDEN
  6
HIDDEN
100
AcDbLine
 10
699.3877574328899
 20
2757.013403988777
 30
0.0
 11
699.3877574328935
 21
2060.637375931081
 31
0.0
  0
LINE
  5
5545
330
A
100
AcDbEntity
  8
HIDDEN
  6
HIDDEN
100
AcDbLine
 10
419.855226922954
 20
2760.387889959929
 30
0.0
 11
696.0132714617375
 21
2760.38788995993
 31
0.0
  0
ELLIPSE
  5
5546
330
A
100
AcDbEntity
  8
HIDDEN
  6
HIDDEN
100
AcDbEllipse
 10
419.8552269229576
 20
2058.9501329455
 30
0.0
 11
-1.687499999999999
 21
2.483053669264113E-8
 31
0.0
210
0.0
220
0.0
230
1.0
 40
0.9998476951586781
 41
0.0000000147166379
 42
1.570796341507052
  0
ELLIPSE
  5
5547
330
A
100
AcDbEntity
  8
HIDDEN
  6
HIDDEN
100
AcDbEllipse
 10
696.012757393737
 20
2757.012889920778
 30
0.0
 11
-2.386485497207668
 21
-2.386485497207691
 31
0.0
210
0.0
220
0.0
230
1.0
 40
0.9999999536149663
 41
2.356346783440933
 42
3.926838523738048
  0
ELLIPSE
  5
5548
330
A
100
AcDbEntity
  8
HIDDEN
  6
HIDDEN
100
AcDbEllipse
 10
696.0127573937434
 20
2060.63788999908
 30
0.0
 11
-2.386485497206091
 21
2.386485497206069
 31
0.0
210
0.0
220
0.0
230
1.0
 40
0.9999999536129325
 41
2.356346783439537
 42
3.926838523742096
  0
ELLIPSE
  5
5549
330
A
100
AcDbEntity
  8
HIDDEN
  6
HIDDEN
100
AcDbEllipse
 10
419.855226922954
 20
2758.700646974357
 30
0.0
 11
-1.687499999999999
 21
-2.483078548716501E-8
 31
0.0
210
0.0
220
0.0
230
1.0
 40
0.9998476951586781
 41
4.712388965672396
 42
6.28318529246281
  0
CIRCLE
  5
554A
330
A
100
AcDbEntity
  8
HIDDEN
  6
HIDDEN
 48
0.75
100
AcDbCircle
 10
545.8552269229558
 20
2408.825389959929
 30
0.0
 40
12.375
  0
LINE
  5
554C
330
A
100
AcDbEntity
  8
HIDDEN
  6
HIDDEN
100
AcDbLine
 10
695.5057453738073
 20
2594.45038995993
 30
0.0
 11
695.5057453738091
 21
2223.20038995993
 31
0.0
  0
LINE
  5
554D
330
A
100
AcDbEntity
  8
HIDDEN
  6
HIDDEN
100
AcDbLine
 10
684.2557453738091
 20
2211.95038995993
 30
0.0
 11
502.315136055302
 21
2211.950389959929
 31
0.0
  0
LINE
  5
554E
330
A
100
AcDbEntity
  8
HIDDEN
  6
HIDDEN
100
AcDbLine
 10
491.0651360553002
 20
2594.450389959928
 30
0.0
 11
491.065136055302
 21
2223.200389959929
 31
0.0
  0
ARC
  5
554F
330
A
100
AcDbEntity
  8
HIDDEN
  6
HIDDEN
100
AcDbCircle
 10
502.315136055302
 20
2223.200389959929
 30
0.0
 40
11.25
100
AcDbArc
 50
180.0
 51
269.9999999997777
  0
ARC
  5
5550
330
A
100
AcDbEntity
  8
HIDDEN
  6
HIDDEN
100
AcDbCircle
 10
684.2557453738091
 20
2223.20038995993
 30
0.0
 40
11.25
100
AcDbArc
 50
270.0000000002223
 51
0.0
  0
LINE
  5
5551
330
A
100
AcDbEntity
  8
HIDDEN
  6
HIDDEN
100
AcDbLine
 10
684.2557453738073
 20
2605.70038995993
 30
0.0
 11
502.3151360553002
 21
2605.700389959928
 31
0.0
  0
ARC
  5
5552
330
A
100
AcDbEntity
  8
HIDDEN
  6
HIDDEN
100
AcDbCircle
 10
502.3151360553002
 20
2594.450389959928
 30
0.0
 40
11.25
100
AcDbArc
 50
90.00000000022234
 51
180.0
  0
ARC
  5
5553
330
A
100
AcDbEntity
  8
HIDDEN
  6
HIDDEN
100
AcDbCircle
 10
684.2557453738073
 20
2594.45038995993
 30
0.0
 40
11.25
100
AcDbArc
 50
0.0
 51
89.99999999978229
  0
DIMENSION
  5
55CD
330
A
100
AcDbEntity
  8
Dim
100
AcDbDimension
  2
*D82
 10
671.2927269229568
 20
2672.11138157809
 30
0.0
 11
547.5427269229567
 21
2672.11138157809
 31
0.0
 70
   160
  1
460
 71
     5
 42
253.125
 73
     0
 74
     0
 75
     0
 52
-270.0
  3
tform線あり
100
AcDbAlignedDimension
 13
418.1677269229567
 23
2611.648609055295
 33
0.0
 14
671.2927269229567
 24
2590.44590157408
 34
0.0
 50
179.9999999999999
100
AcDbRotatedDimension
1001
ACAD
1000
DSTYLE
1002
{
1070
   144
1040
1.0
1002
}
  0
MTEXT
  5
5642
330
A
100
AcDbEntity
  8
Dim
390
1D
100
AcDbMText
 10
151.2656429468043
 20
2147.747241655026
 30
34.99521132346015
 40
24.0
 41
1169.771715461011
 46
26.568
 71
     1
 72
     1
  1
{カウンター切込寸法 （Not To Scale）}
  7
ＭＳ ゴシック
 11
1.883358689166497E-15
 21
1.0
 31
0.0
 73
     1
 44
1.174240107638677
1001
ACAD
1000
ACAD_MTEXT_DEFINED_HEIGHT_BEGIN
1070
    46
1040
26.568
1000
ACAD_MTEXT_DEFINED_HEIGHT_END
  0
MTEXT
  5
5643
330
A
100
AcDbEntity
  8
Dim
390
1D
100
AcDbMText
 10
1363.481182775387
 20
1730.48339455472
 30
34.99521132346015
 40
24.0
 41
1169.771715461011
 46
26.808
 71
     1
 72
     1
  1
{壁取付ボルト穴(4ヶ所)}
  7
ＭＳ ゴシック
 11
1.883358689166497E-15
 21
1.0
 31
0.0
 73
     1
 44
1.174240107638677
1001
ACAD
1000
ACAD_MTEXT_DEFINED_HEIGHT_BEGIN
1070
    46
1040
26.808
1000
ACAD_MTEXT_DEFINED_HEIGHT_END
  0
LINE
  5
5644
330
A
100
AcDbEntity
  8
Dim
100
AcDbLine
 10
1403.918700507909
 20
1722.306776925536
 30
0.0
 11
1606.891724417611
 21
1620.427171842521
 31
0.0
  0
DIMENSION
  5
5657
330
A
100
AcDbEntity
  8
Dim
100
AcDbDimension
  2
*D87
 10
1042.083775999702
 20
1517.784259260842
 30
0.0
 11
1019.867467405952
 21
1167.784259260842
 31
0.0
 70
    32
  1
690
 71
     5
 42
700.0
 73
     0
 74
     0
 75
     0
  3
tform線あり
100
AcDbAlignedDimension
 13
923.2797317443828
 23
817.7842592608426
 33
0.0
 14
923.2797317443801
 24
1517.784259260843
 34
0.0
 50
89.99999999999991
100
AcDbRotatedDimension
1001
ACAD
1000
DSTYLE
1002
{
1070
   144
1040
1.0
1002
}
  0
DIMENSION
  5
5666
102
{ACAD_REACTORS
330
5668
102
}
102
{ACAD_XDICTIONARY
360
5667
102
}
330
A
100
AcDbEntity
  8
Dim
100
AcDbDimension
  2
*D88
 10
911.2130930578028
 20
420.4975396489504
 30
0.0
 11
729.4881069969033
 21
442.7138482427006
 31
0.0
 70
    32
  1
355
 71
     5
 42
363.4499721217989
 73
     0
 74
     0
 75
     0
 52
-270.0
  3
tform線あり
100
AcDbAlignedDimension
 13
547.7631209360043
 23
799.5390141778266
 33
0.0
 14
911.2130930578032
 24
837.7842592608426
 34
0.0
 50
179.9999999999999
100
AcDbRotatedDimension
1001
ACAD
1000
DSTYLE
1002
{
1070
   144
1040
1.0
1002
}
  0
DIMENSION
  5
56B4
330
A
100
AcDbEntity
  8
Dim
  6
Continuous
 62
     3
100
AcDbDimension
  2
*D90
 10
1580.297721217927
 20
2408.877622814963
 30
0.0
 11
1476.828418845149
 21
2408.877622814963
 31
0.0
 70
   160
  1
120(深さ)
 71
     5
 42
122.4955399387527
 73
     0
 74
     1
 75
     1
 52
-270.0
  3
tform線あり
100
AcDbAlignedDimension
 13
1702.793261156679
 23
2407.858922932298
 33
0.0
 14
1580.297721217927
 24
2408.877622814963
 34
0.0
 50
179.9999999999999
100
AcDbRotatedDimension
1001
ACAD
1000
DSTYLE
1002
{
1070
   271
1070
     0
1070
    76
1070
     1
1070
    75
1070
     1
1002
}
  0
CIRCLE
  5
56C9
330
A
100
AcDbEntity
  8
HIDDEN
 48
0.6
100
AcDbCircle
 10
1611.317330931116
 20
1167.78425926084
 30
0.0
 40
11.98287221885312
  0
MTEXT
  5
5700
330
A
100
AcDbEntity
  8
Dim
390
1D
100
AcDbMText
 10
1149.17890539512
 20
801.6070554797002
 30
34.99521132346015
 40
24.4326171875
 41
833.929798641839
 46
0.0
 71
     1
 72
     1
  1
＝φ30もしくはφ35の水栓取付用穴あけ加工を承ります。\P  必要な場合、ご注文の際にご指示ください。
  7
ＭＳ ゴシック
 11
2.067055709038600E-15
 21
1.0
 31
0.0
 73
     1
 44
0.9822934569727008
  0
CIRCLE
  5
5701
330
A
100
AcDbEntity
  8
HIDDEN
 48
0.58
390
1D
100
AcDbCircle
 10
1163.767729851403
 20
770.2400257816121
 30
34.99521132346015
 40
17.5
  0
DIMENSION
  5
5702
330
A
100
AcDbEntity
  8
Dim
100
AcDbDimension
  2
*D91
 10
1883.807286825831
 20
1427.784259260845
 30
0.0
 11
1883.80728682583
 21
1167.784259260844
 31
0.0
 70
   160
 71
     5
 42
520.0
 73
     0
 74
     0
 75
     0
  3
tform線あり
100
AcDbAlignedDimension
 13
1749.687946331226
 23
907.7842592608454
 33
0.0
 14
1749.687946331227
 24
1427.784259260845
 34
0.0
 50
89.99999999999991
100
AcDbRotatedDimension
1001
ACAD
1000
DSTYLE
1002
{
1070
   144
1040
1.0
1002
}
  0
LINE
  5
5711
330
A
100
AcDbEntity
  8
MODEL
100
AcDbLine
 10
1748.667604733603
 20
907.333956379613
 30
0.0
 11
1748.667604733604
 21
1167.784259260845
 31
0.0
  0
LINE
  5
5712
330
A
100
AcDbEntity
  8
MODEL
100
AcDbLine
 10
1748.667604733604
 20
1428.234562142078
 30
0.0
 11
1748.667604733604
 21
1167.784259260845
 31
0.0
  0
SPLINE
  5
5713
330
A
100
AcDbEntity
  8
0
100
AcDbSpline
210
0.0
220
0.0
230
1.0
 70
    24
 71
     3
 72
     8
 73
     4
 74
     0
 42
0.000000001
 43
0.0000000001
 40
0.0
 40
0.0
 40
0.0
 40
0.0
 40
1.0
 40
1.0
 40
1.0
 40
1.0
 10
1677.521920490951
 20
1458.330810661044
 30
0.0
 10
1699.921188858465
 20
1450.178143705935
 30
0.0
 10
1722.320457226042
 20
1442.025476750796
 30
0.0
 10
1744.719725593562
 20
1433.872809795687
 30
0.0
  0
SPLINE
  5
5714
330
A
100
AcDbEntity
  8
0
100
AcDbSpline
210
0.0
220
0.0
230
1.0
 70
     8
 71
     3
 72
    22
 73
    18
 74
     0
 42
0.000000001
 43
0.0000000001
 40
0.0
 40
0.0
 40
0.0
 40
0.0
 40
0.125
 40
0.125
 40
0.25
 40
0.25
 40
0.375
 40
0.375
 40
0.5
 40
0.5
 40
0.625
 40
0.625
 40
0.75
 40
0.75
 40
0.875
 40
0.875
 40
1.0
 40
1.0
 40
1.0
 40
1.0
 10
1744.719725593558
 20
1433.872809795687
 30
0.0
 10
1745.006738371873
 20
1433.768345687519
 30
0.0
 10
1745.285756397891
 20
1433.641924264661
 30
0.0
 10
1745.821318296351
 20
1433.348104945757
 30
0.0
 10
1746.07785731906
 20
1433.180709710383
 30
0.0
 10
1746.562489296252
 20
1432.808838515043
 30
0.0
 10
1746.790577862194
 20
1432.604365922535
 30
0.0
 10
1747.212999149731
 20
1432.163098888787
 30
0.0
 10
1747.40732804613
 20
1431.926308443401
 30
0.0
 10
1747.757705952547
 20
1431.425916934745
 30
0.0
 10
1747.913751789749
 20
1431.162320402722
 30
0.0
 10
1748.183930575851
 20
1430.614452021832
 30
0.0
 10
1748.298061078173
 20
1430.330185134133
 30
0.0
 10
1748.481751798015
 20
1429.747592601847
 30
0.0
 10
1748.551310352141
 20
1429.449272232867
 30
0.0
 10
1748.644237240681
 20
1428.84551654335
 30
0.0
 10
1748.667604733604
 20
1428.54008669007
 30
0.0
 10
1748.667604733604
 20
1428.234654070965
 30
0.0
  0
SPLINE
  5
5715
330
A
100
AcDbEntity
  8
0
100
AcDbSpline
210
0.0
220
0.0
230
1.0
 70
     8
 71
     3
 72
    10
 73
     6
 74
     0
 42
0.000000001
 43
0.0000000001
 40
0.0
 40
0.0
 40
0.0
 40
0.0
 40
0.5
 40
0.5
 40
1.0
 40
1.0
 40
1.0
 40
1.0
 10
1674.514245827345
 20
1460.067292437724
 30
0.0
 10
1674.959912418979
 20
1459.69333376505
 30
0.0
 10
1675.438288767477
 20
1459.358371039731
 30
0.0
 10
1676.445955080942
 20
1458.776594622405
 30
0.0
 10
1676.975229484639
 20
1458.529789914692
 30
0.0
 10
1677.521920490952
 20
1458.330810661044
 30
0.0
  0
SPLINE
  5
5716
330
A
100
AcDbEntity
  8
0
100
AcDbSpline
210
0.0
220
0.0
230
1.0
 70
     8
 71
     3
 72
    15
 73
    11
 74
     0
 42
0.000000001
 43
0.0000000001
 40
0.0
 40
0.0
 40
0.0
 40
0.0
 40
0.5000000000000002
 40
0.5000000000000002
 40
0.7500000000000003
 40
0.8750000000000004
 40
0.9374999999999988
 40
0.9687499999999994
 40
0.9687499999999994
 40
1.0
 40
1.0
 40
1.0
 40
1.0
 10
1677.473695818437
 20
1458.321762985399
 30
0.0
 10
1677.468456888282
 20
1458.332757597522
 30
0.0
 10
1677.470163710344
 20
1458.338780560337
 30
0.0
 10
1677.482438246789
 20
1458.340880193277
 30
0.0
 10
1677.491005753643
 20
1458.340195098057
 30
0.0
 10
1677.505116096593
 20
1458.336462366579
 30
0.0
 10
1677.513183821787
 20
1458.333874685758
 30
0.0
 10
1677.516856681929
 20
1458.332612387773
 30
0.0
 10
1677.519352904222
 20
1458.331736930641
 30
0.0
 10
1677.520628304414
 20
1458.331280962195
 30
0.0
 10
1677.521920490952
 20
1458.330810661044
 30
0.0
  0
SPLINE
  5
5717
330
A
100
AcDbEntity
  8
0
100
AcDbSpline
210
0.0
220
0.0
230
1.0
 70
     8
 71
     3
 72
    10
 73
     6
 74
     0
 42
0.000000001
 43
0.0000000001
 40
0.0
 40
0.0
 40
0.0
 40
0.0
 40
0.5
 40
0.5
 40
1.0
 40
1.0
 40
1.0
 40
1.0
 10
1674.589644655237
 20
1460.004025309036
 30
0.0
 10
1675.017873028396
 20
1459.644699039064
 30
0.0
 10
1675.476729894133
 20
1459.32188616499
 30
0.0
 10
1676.442666356897
 20
1458.758457007056
 30
0.0
 10
1676.949732870123
 20
1458.517848354948
 30
0.0
 10
1677.473695818437
 20
1458.321762985399
 30
0.0
  0
SPLINE
  5
5718
330
A
100
AcDbEntity
  8
0
100
AcDbSpline
210
0.0
220
0.0
230
1.0
 70
    24
 71
     3
 72
     8
 73
     4
 74
     0
 42
0.000000001
 43
0.0000000001
 40
0.0
 40
0.0
 40
0.0
 40
0.0
 40
1.0
 40
1.0
 40
1.0
 40
1.0
 10
1663.667689403021
 20
1469.168633932912
 30
0.0
 10
1667.308341153758
 20
1466.113764391625
 30
0.0
 10
1670.948992904488
 20
1463.058894850338
 30
0.0
 10
1674.589644655235
 20
1460.004025309051
 30
0.0
  0
DIMENSION
  5
571C
102
{ACAD_REACTORS
330
571E
102
}
102
{ACAD_XDICTIONARY
360
571D
102
}
330
A
100
AcDbEntity
  8
Dim
100
AcDbDimension
  2
*D92
 10
1965.157490625298
 20
2229.853611449748
 30
0.0
 11
1942.941182031548
 21
2432.353611449748
 31
0.0
 70
    32
 71
     5
 42
405.0
 73
     0
 74
     0
 75
     0
  3
tform線あり
100
AcDbAlignedDimension
 13
1758.424850260591
 23
2634.853611449749
 33
0.0
 14
1758.42485026059
 24
2229.853611449749
 34
0.0
 50
89.99999999999991
100
AcDbRotatedDimension
1001
ACAD
1000
DSTYLE
1002
{
1070
   144
1040
1.0
1002
}
  0
LINE
  5
5735
330
A
100
AcDbEntity
  8
Dim
100
AcDbLine
 10
418.1677269229567
 20
2816.551323090627
 30
0.0
 11
418.1677269229549
 21
2001.09945682923
 31
0.0
  0
LINE
  5
5736
330
A
100
AcDbEntity
  8
Dim
100
AcDbLine
 10
418.1677269229576
 20
2794.79643865533
 30
0.0
 11
380.7880422776861
 21
2823.988289529494
 31
0.0
  0
LINE
  5
5737
330
A
100
AcDbEntity
  8
Dim
100
AcDbLine
 10
418.1677269229576
 20
2769.677869298489
 30
0.0
 11
380.7880422776861
 21
2798.869720172655
 31
0.0
  0
LINE
  5
5738
330
A
100
AcDbEntity
  8
Dim
100
AcDbLine
 10
418.1677269229576
 20
2743.201539435876
 30
0.0
 11
380.7880422776861
 21
2772.39339031004
 31
0.0
  0
MTEXT
  5
5739
330
A
100
AcDbEntity
  8
Dim
390
1D
100
AcDbMText
 10
235.3796199109529
 20
2232.908997822804
 30
34.99521132346015
 40
24.0
 41
1169.771715461011
 46
25.704
 71
     1
 72
     1
  1
{半埋め込み}
  7
ＭＳ ゴシック
 11
1.883358689166497E-15
 21
1.0
 31
0.0
 73
     1
 44
1.174240107638677
1001
ACAD
1000
ACAD_MTEXT_DEFINED_HEIGHT_BEGIN
1070
    46
1040
25.704
1000
ACAD_MTEXT_DEFINED_HEIGHT_END
  0
MTEXT
  5
573A
330
A
100
AcDbEntity
  8
Dim
390
1D
100
AcDbMText
 10
313.7525735498584
 20
2312.639711967485
 30
34.99521132346015
 40
24.0
 41
1169.771715461011
 46
25.824
 71
     1
 72
     1
  1
{カウンター置き}
  7
ＭＳ ゴシック
 11
1.883358689166497E-15
 21
1.0
 31
0.0
 73
     1
 44
1.174240107638677
1001
ACAD
1000
ACAD_MTEXT_DEFINED_HEIGHT_BEGIN
1070
    46
1040
25.824
1000
ACAD_MTEXT_DEFINED_HEIGHT_END
  0
DIMENSION
  5
573B
102
{ACAD_XDICTIONARY
360
573C
102
}
330
A
100
AcDbEntity
  8
Dim
100
AcDbDimension
  2
*D93
 10
813.1277323604764
 20
2591.637889959926
 30
0.0
 11
813.1277323604761
 21
2408.825389959926
 31
0.0
 70
   160
  1
650
 71
     5
 42
365.625
 73
     0
 74
     0
 75
     0
  3
tform線あり
100
AcDbAlignedDimension
 13
671.2927269229558
 23
2226.012889959926
 33
0.0
 14
671.2927269229567
 24
2591.637889959926
 34
0.0
 50
89.99999999999991
100
AcDbRotatedDimension
1001
ACAD
1000
DSTYLE
1002
{
1070
   144
1040
1.0
1002
}
  0
LINE
  5
574A
102
{ACAD_REACTORS
330
58A0
330
58A8
102
}
330
A
100
AcDbEntity
  8
MODEL
100
AcDbLine
 10
418.1677269229559
 20
2310.387889959928
 30
0.0
 11
575.6677269229555
 21
2310.387889959929
 31
0.0
  0
LINE
  5
574B
102
{ACAD_REACTORS
330
58A0
330
58A8
102
}
330
A
100
AcDbEntity
  8
MODEL
100
AcDbLine
 10
575.6677269229555
 20
2310.387889959929
 30
0.0
 11
575.6677269229561
 21
2507.262889959929
 31
0.0
  0
LINE
  5
574C
102
{ACAD_REACTORS
330
58A0
330
58A8
102
}
330
A
100
AcDbEntity
  8
MODEL
100
AcDbLine
 10
575.6677269229561
 20
2507.262889959929
 30
0.0
 11
418.1677269229566
 21
2507.262889959928
 31
0.0
  0
LINE
  5
574D
102
{ACAD_REACTORS
330
58A8
102
}
330
A
100
AcDbEntity
  8
MODEL
100
AcDbLine
 10
418.1677269229566
 20
2507.262889959928
 30
0.0
 11
418.1677269229559
 21
2310.387889959928
 31
0.0
  0
LINE
  5
574E
330
A
100
AcDbEntity
  8
Dim
100
AcDbLine
 10
416.9240729763669
 20
2323.965343090196
 30
0.0
 11
360.1741999250371
 21
2323.965343090196
 31
0.0
  0
LINE
  5
5750
102
{ACAD_REACTORS
330
58A0
102
}
330
A
100
AcDbEntity
  8
MODEL
100
AcDbLine
 10
418.1677269229558
 20
2226.012889959929
 30
0.0
 11
671.2927269229558
 21
2226.012889959926
 31
0.0
  0
LINE
  5
5751
102
{ACAD_REACTORS
330
58A0
102
}
330
A
100
AcDbEntity
  8
MODEL
100
AcDbLine
 10
671.2927269229558
 20
2226.012889959926
 30
0.0
 11
671.2927269229567
 21
2591.637889959926
 31
0.0
  0
LINE
  5
5752
102
{ACAD_REACTORS
330
58A0
102
}
330
A
100
AcDbEntity
  8
MODEL
100
AcDbLine
 10
671.2927269229567
 20
2591.637889959926
 30
0.0
 11
418.1677269229567
 21
2591.637889959927
 31
0.0
  0
LINE
  5
5753
330
A
100
AcDbEntity
  8
MODEL
100
AcDbLine
 10
418.1677269229567
 20
2591.637889959927
 30
0.0
 11
418.1677269229558
 21
2226.012889959929
 31
0.0
  0
LINE
  5
5755
330
A
100
AcDbEntity
  8
Dim
100
AcDbLine
 10
280.971503754824
 20
2250.810919618151
 30
0.0
 11
418.1677269229558
 21
2250.810919618151
 31
0.0
  0
DIMENSION
  5
5756
102
{ACAD_XDICTIONARY
360
5757
102
}
330
A
100
AcDbEntity
  8
Dim
100
AcDbDimension
  2
*D94
 10
418.1677269229557
 20
2139.484337263103
 30
0.0
 11
496.9177269229555
 21
2161.700645856853
 31
0.0
 70
    32
  1
280
 71
     5
 42
157.4999999999995
 73
     0
 74
     0
 75
     0
 52
-270.0
  3
tform線あり
100
AcDbAlignedDimension
 13
575.6677269229554
 23
2226.012889959927
 33
0.0
 14
418.1677269229558
 24
2223.910336438631
 34
0.0
 50
179.9999999999999
100
AcDbRotatedDimension
1001
ACAD
1000
DSTYLE
1002
{
1070
   144
1040
1.0
1002
}
  0
DIMENSION
  5
5765
102
{ACAD_XDICTIONARY
360
5766
102
}
330
A
100
AcDbEntity
  8
Dim
100
AcDbDimension
  2
*D95
 10
762.8790556997443
 20
2310.387889959927
 30
0.0
 11
762.8790556997445
 21
2408.825389959928
 31
0.0
 70
   160
  1
350
 71
     5
 42
196.875
 73
     0
 74
     0
 75
     0
  3
tform線あり
100
AcDbAlignedDimension
 13
695.6337444962829
 23
2507.262889959927
 33
0.0
 14
695.6337444962822
 24
2310.387889959927
 34
0.0
 50
89.99999999999991
100
AcDbRotatedDimension
1001
ACAD
1000
DSTYLE
1002
{
1070
   144
1040
1.0
1002
}
  0
MTEXT
  5
57AD
330
A
100
AcDbEntity
  8
Dim
390
1D
100
AcDbMText
 10
863.1115572733579
 20
2098.789585013647
 30
34.99521132346015
 40
24.0
 41
1169.771715461011
 46
177.5543690294172
 71
     1
 72
     1
  1
{※陶器製品には寸法公差があります。\P　洗面器の収め方をご確認の上、必ず現物を合わせて\P  カウンターに切込を行ってください。\P※カウンター置きの場合も壁固定が必要です。}
  7
ＭＳ ゴシック
 11
1.883358689166497E-15
 21
1.0
 31
0.0
 73
     1
 44
1.0
1001
ACAD
1000
ACAD_MTEXT_DEFINED_HEIGHT_BEGIN
1070
    46
1040
177.5543690294172
1000
ACAD_MTEXT_DEFINED_HEIGHT_END
  0
LINE
  5
57C1
330
A
100
AcDbEntity
  8
Dim
100
AcDbLine
 10
1663.667604733605
 20
520.1207441647655
 30
0.0
 11
1663.667604733605
 21
464.5068738482183
 31
0.0
  0
LINE
  5
57C4
330
A
100
AcDbEntity
  8
Dim
100
AcDbLine
 10
1663.667604733605
 20
477.6379265618474
 30
0.0
 11
1812.646226540937
 21
477.6379265618475
 31
0.0
  0
LINE
  5
57C5
330
A
100
AcDbEntity
  8
Dim
100
AcDbLine
 10
1748.667604733603
 20
879.1729668030634
 30
0.0
 11
1748.667604733603
 21
823.5590964865163
 31
0.0
  0
LINE
  5
57C6
330
A
100
AcDbEntity
  8
Dim
100
AcDbLine
 10
1748.667604733603
 20
836.6901492001454
 30
0.0
 11
1912.569561999175
 21
836.6901492001454
 31
0.0
  0
MTEXT
  5
57FB
330
A
100
AcDbEntity
  8
Dim
390
1D
100
AcDbMText
 10
1833.366865828962
 20
467.6508555165952
 30
34.99521132346015
 40
24.0
 41
1169.771715461011
 46
25.704
 71
     1
 72
     1
  1
{半埋め込み}
  7
ＭＳ ゴシック
 11
1.883358689166497E-15
 21
1.0
 31
0.0
 73
     1
 44
1.174240107638677
1001
ACAD
1000
ACAD_MTEXT_DEFINED_HEIGHT_BEGIN
1070
    46
1040
25.704
1000
ACAD_MTEXT_DEFINED_HEIGHT_END
  0
MTEXT
  5
57FC
330
A
100
AcDbEntity
  8
Dim
390
1D
100
AcDbMText
 10
1932.483382750543
 20
824.5910062570206
 30
34.99521132346015
 40
24.0
 41
1169.771715461011
 46
25.824
 71
     1
 72
     1
  1
{カウンター置き}
  7
ＭＳ ゴシック
 11
1.883358689166497E-15
 21
1.0
 31
0.0
 73
     1
 44
1.174240107638677
1001
ACAD
1000
ACAD_MTEXT_DEFINED_HEIGHT_BEGIN
1070
    46
1040
25.824
1000
ACAD_MTEXT_DEFINED_HEIGHT_END
  0
LINE
  5
5822
330
A
100
AcDbEntity
  8
HIDDEN
 48
0.5
100
AcDbLine
 10
1743.667604733604
 20
1145.784259260845
 30
0.0
 11
1743.667604733604
 21
1189.784259260845
 31
0.0
  0
DIMENSION
  5
5823
102
{ACAD_REACTORS
330
5825
102
}
102
{ACAD_XDICTIONARY
360
5824
102
}
330
A
100
AcDbEntity
  8
Dim
100
AcDbDimension
  2
*D96
 10
1750.29772226189
 20
2330.637138858357
 30
0.0
 11
1796.717185953315
 21
2330.637138858357
 31
0.0
 70
   160
 71
     5
 42
5.0
 73
     0
 74
     1
 75
     1
  3
tform線あり
100
AcDbAlignedDimension
 13
1745.29772226189
 23
2385.853620041537
 33
0.0
 14
1750.29772226189
 24
2385.85361973539
 34
0.0
100
AcDbRotatedDimension
1001
ACAD
1000
DSTYLE
1002
{
1070
   144
1040
1.0
1002
}
  0
LINE
  5
5893
102
{ACAD_REACTORS
330
58A0
102
}
330
A
100
AcDbEntity
  8
MODEL
100
AcDbLine
 10
418.1677269229567
 20
2591.637889959927
 30
0.0
 11
418.1677269229566
 21
2507.262889959928
 31
0.0
  0
LINE
  5
5894
102
{ACAD_REACTORS
330
58A0
102
}
330
A
100
AcDbEntity
  8
MODEL
100
AcDbLine
 10
418.1677269229559
 20
2310.387889959928
 30
0.0
 11
418.1677269229558
 21
2226.012889959929
 31
0.0
  0
HATCH
  5
58A0
330
A
100
AcDbEntity
  8
Dim
100
AcDbHatch
 10
0.0
 20
0.0
 30
0.0
210
0.0
220
0.0
230
1.0
  2
ANSI31
 70
     0
 71
     1
 91
        1
 92
        1
 93
        8
 72
     1
 10
671.2927269229567
 20
2591.637889959926
 11
418.1677269229567
 21
2591.637889959927
 72
     1
 10
418.1677269229567
 20
2591.637889959927
 11
418.1677269229566
 21
2507.262889959928
 72
     1
 10
418.1677269229566
 20
2507.262889959928
 11
575.6677269229561
 21
2507.262889959929
 72
     1
 10
575.6677269229561
 20
2507.262889959929
 11
575.6677269229555
 21
2310.387889959929
 72
     1
 10
575.6677269229555
 20
2310.387889959929
 11
418.1677269229559
 21
2310.387889959928
 72
     1
 10
418.1677269229559
 20
2310.387889959928
 11
418.1677269229558
 21
2226.012889959929
 72
     1
 10
418.1677269229558
 20
2226.012889959929
 11
671.2927269229558
 21
2226.012889959926
 72
     1
 10
671.2927269229558
 20
2226.012889959926
 11
671.2927269229567
 21
2591.637889959926
 97
        8
330
5752
330
5893
330
5751
330
574C
330
574B
330
574A
330
5750
330
5894
 75
     0
 76
     1
 52
0.0
 41
8.0
 77
     0
 78
     1
 53
45.0
 43
0.0
 44
0.0
 45
-17.96051224213831
 46
17.96051224213831
 79
     0
 98
        1
 10
0.0
 20
0.0
1001
ACAD
1010
0.0
1020
0.0
1030
0.0
  0
HATCH
  5
58A8
330
A
100
AcDbEntity
  8
Dim
100
AcDbHatch
 10
0.0
 20
0.0
 30
0.0
210
0.0
220
0.0
230
1.0
  2
ANSI31
 70
     0
 71
     1
 91
        1
 92
        1
 93
        4
 72
     1
 10
418.1677269229566
 20
2507.262889959928
 11
418.1677269229559
 21
2310.387889959928
 72
     1
 10
418.1677269229559
 20
2310.387889959928
 11
575.6677269229555
 21
2310.387889959929
 72
     1
 10
575.6677269229555
 20
2310.387889959929
 11
575.6677269229561
 21
2507.262889959929
 72
     1
 10
575.6677269229561
 20
2507.262889959929
 11
418.1677269229566
 21
2507.262889959928
 97
        4
330
574D
330
574C
330
574B
330
574A
 75
     0
 76
     1
 52
0.0
 41
4.0
 77
     0
 78
     1
 53
45.0
 43
0.0
 44
0.0
 45
-8.980256121069154
 46
8.980256121069154
 79
     0
 98
        1
 10
0.0
 20
0.0
1001
ACAD
1010
0.0
1020
0.0
1030
0.0
  0
VIEWPORT
  5
349
330
B
100
AcDbEntity
 67
     1
  8
0
100
AcDbViewport
 10
202.5
 20
128.5
 30
0.0
 40
486.0
 41
308.4
 68
     1
 69
     1
 12
202.5
 22
128.5
 13
0.0
 23
0.0
 14
0.5
 24
0.5
 15
0.0
 25
0.0
 16
0.0
 26
0.0
 36
1.0
 17
0.0
 27
0.0
 37
0.0
 42
50.0
 43
0.0
 44
0.0
 45
308.4
 50
0.0
 51
0.0
 72
   100
 90
   557152
  1

281
     0
 71
     1
 74
     0
110
0.0
120
0.0
130
0.0
111
1.0
121
0.0
131
0.0
112
0.0
122
1.0
132
0.0
 79
     0
146
0.0
170
     0
 61
     5
348
26C
292
     1
282
     1
141
0.0
142
0.0
 63
   256
  0
VIEWPORT
  5
34A
330
B
100
AcDbEntity
 67
     1
  8
0
100
AcDbViewport
 10
202.5
 20
128.5
 30
0.0
 40
324.0
 41
205.6
 68
     2
 69
     2
 12
986.6781359294573
 22
1427.077061889956
 13
0.0
 23
0.0
 14
0.5
 24
0.5
 15
0.0
 25
0.0
 16
0.0
 26
0.0
 36
1.0
 17
0.0
 27
0.0
 37
0.0
 42
50.0
 43
0.0
 44
0.0
 45
2890.021615685494
 50
0.0
 51
0.0
 72
   100
 90
   557152
  1

281
     0
 71
     1
 74
     0
110
0.0
120
0.0
130
0.0
111
1.0
121
0.0
131
0.0
112
0.0
122
1.0
132
0.0
 79
     0
146
0.0
170
     0
 61
     5
348
26C
292
     1
282
     1
141
0.0
142
0.0
 63
   256
  0
ENDSEC
  0
SECTION
  2
OBJECTS
  0
DICTIONARY
  5
19
330
0
100
AcDbDictionary
281
     1
  3
ACAD_COLOR
350
38F
  3
ACAD_DETAILVIEWSTYLE
350
8CF
  3
ACAD_FIELDLIST
350
BA6
  3
ACAD_GROUP
350
1A
  3
ACAD_IMAGE_VARS
350
27B
  3
ACAD_LAYOUT
350
1E
  3
ACAD_MATERIAL
350
263
  3
ACAD_MLEADERSTYLE
350
336
  3
ACAD_MLINESTYLE
350
1B
  3
ACAD_PLOTSETTINGS
350
22
  3
ACAD_PLOTSTYLENAME
350
1F
  3
ACAD_SCALELIST
350
241
  3
ACAD_SECTIONVIEWSTYLE
350
8D0
  3
ACAD_TABLESTYLE
350
278
  3
ACAD_VISUALSTYLE
350
267
  3
ACDB_RECOMPOSE_DATA
350
58BA
  3
AcDbVariableDictionary
350
330
  3
APPDATA
350
27A
  3
DimOffsetDictionary
350
C08
  0
SUN
  5
8C2
330
15
100
AcDbSun
 90
        1
290
     0
 63
     7
421
 16777215
 40
1.0
291
     1
 91
  2455826
 92
 54000000
292
     0
 70
     2
 71
   256
280
     1
  0
DICTIONARY
  5
2E1
330
2
100
AcDbDictionary
280
     1
281
     1
  3
ACAD_LAYERSTATES
360
2E2
  3
ACLYDICTIONARY
360
BFE
  0
DICTIONARY
  5
4FF8
330
4FF7
100
AcDbDictionary
280
     1
281
     1
  3
ADSK_XREC_LAYER_RECONCILED
360
4FF9
  0
DICTIONARY
  5
4FFB
330
4FFA
100
AcDbDictionary
280
     1
281
     1
  3
ADSK_XREC_LAYER_RECONCILED
360
4FFC
  0
DICTIONARY
  5
560A
330
A
100
AcDbDictionary
280
     1
281
     1
  3
ACAD_SORTENTS
360
560B
  0
DICTIONARY
  5
BDC
330
BDB
100
AcDbDictionary
280
     1
281
     1
  3
ACAD_FIELD
360
57B7
  0
DICTIONARY
  5
54EF
330
54EE
100
AcDbDictionary
280
     1
281
     1
  3
ACAD_DIMASSOC
360
54F0
  0
DICTIONARY
  5
5667
330
5666
100
AcDbDictionary
280
     1
281
     1
  3
ACAD_DIMASSOC
360
5668
  0
DICTIONARY
  5
571D
330
571C
100
AcDbDictionary
280
     1
281
     1
  3
ACAD_DIMASSOC
360
571E
  0
DICTIONARY
  5
573C
330
573B
100
AcDbDictionary
280
     1
281
     1
  3
ACAD_DIMASSOC
360
573D
  0
DICTIONARY
  5
5757
330
5756
100
AcDbDictionary
280
     1
281
     1
  0
DICTIONARY
  5
5766
330
5765
100
AcDbDictionary
280
     1
281
     1
  0
DICTIONARY
  5
5824
330
5823
100
AcDbDictionary
280
     1
281
     1
  3
ACAD_DIMASSOC
360
5825
  0
DICTIONARY
  5
38F
102
{ACAD_REACTORS
330
19
102
}
330
19
100
AcDbDictionary
281
     1
  0
DICTIONARY
  5
8CF
102
{ACAD_REACTORS
330
19
102
}
330
19
100
AcDbDictionary
281
     1
  0
FIELDLIST
  5
BA6
102
{ACAD_REACTORS
330
19
102
}
330
19
100
AcDbIdSet
 90
        2
330
BDF
330
BDE
100
AcDbFieldList
  0
DICTIONARY
  5
1A
102
{ACAD_REACTORS
330
19
102
}
330
19
100
AcDbDictionary
281
     1
  0
RASTERVARIABLES
  5
27B
102
{ACAD_REACTORS
330
19
102
}
330
19
100
AcDbRasterVariables
 90
        0
 70
     1
 71
     1
 72
     1
  0
DICTIONARY
  5
1E
102
{ACAD_REACTORS
330
19
102
}
330
19
100
AcDbDictionary
281
     1
  3
Layout1
350
21
  3
Model
350
20
  0
DICTIONARY
  5
263
102
{ACAD_REACTORS
330
19
102
}
330
19
100
AcDbDictionary
281
     1
  3
ByBlock
350
4FEC
  3
ByLayer
350
264
  3
Global
350
266
  0
DICTIONARY
  5
336
102
{ACAD_REACTORS
330
19
102
}
330
19
100
AcDbDictionary
281
     1
  3
Standard
350
8D1
  0
DICTIONARY
  5
1B
102
{ACAD_REACTORS
330
19
102
}
330
19
100
AcDbDictionary
281
     1
  3
Standard
350
1C
  0
DICTIONARY
  5
22
102
{ACAD_REACTORS
330
19
102
}
330
19
100
AcDbDictionary
281
     1
  0
ACDBDICTIONARYWDFLT
  5
1F
102
{ACAD_REACTORS
330
19
102
}
330
19
100
AcDbDictionary
281
     1
  3
Normal
350
1D
100
AcDbDictionaryWithDefault
340
1D
  0
DICTIONARY
  5
241
102
{ACAD_REACTORS
330
19
102
}
330
19
100
AcDbDictionary
281
     1
  3
A0
350
242
  3
A1
350
243
  3
A2
350
244
  3
A3
350
245
  3
A4
350
246
  3
A5
350
247
  3
A6
350
248
  3
A7
350
249
  3
A8
350
24A
  3
A9
350
24B
  3
B0
350
24C
  3
B1
350
24D
  3
B2
350
24E
  3
B3
350
24F
  3
B4
350
250
  3
B5
350
251
  3
B6
350
252
  3
B7
350
253
  3
B8
350
254
  3
B9
350
255
  3
C0
350
256
  3
C1
350
257
  3
C2
350
258
  3
C3
350
259
  3
C4
350
25A
  3
C5
350
25B
  3
C6
350
25C
  3
C7
350
25D
  3
C8
350
25E
  3
C9
350
25F
  3
D0
350
260
  3
D1
350
261
  3
D2
350
262
  0
DICTIONARY
  5
8D0
102
{ACAD_REACTORS
330
19
102
}
330
19
100
AcDbDictionary
281
     1
  0
DICTIONARY
  5
278
102
{ACAD_REACTORS
330
19
102
}
330
19
100
AcDbDictionary
281
     1
  3
Standard
350
279
  0
DICTIONARY
  5
267
102
{ACAD_REACTORS
330
19
102
}
330
19
100
AcDbDictionary
281
     1
  3
2dWireframe
350
26C
  3
3D Hidden
350
26E
  3
3dWireframe
350
26D
  3
Basic
350
26F
  3
Brighten
350
273
  3
ColorChange
350
277
  3
Conceptual
350
271
  3
Dim
350
272
  3
EdgeColorOff
350
8BC
  3
Facepattern
350
276
  3
Flat
350
268
  3
FlatWithEdges
350
269
  3
Gouraud
350
26A
  3
GouraudWithEdges
350
26B
  3
Hidden
350
8B9
  3
JitterOff
350
8BA
  3
Linepattern
350
275
  3
OverhangOff
350
8BB
  3
Realistic
350
270
  3
Shaded
350
8C1
  3
Shaded with edges
350
8C0
  3
Shades of Gray
350
8BD
  3
Sketchy
350
8BE
  3
Thicken
350
274
  3
Wireframe
350
8B8
  3
X-Ray
350
8BF
  0
XRECORD
  5
58BA
102
{ACAD_REACTORS
330
19
102
}
330
19
100
AcDbXrecord
280
     1
 90
        1
330
279
  0
DICTIONARY
  5
330
102
{ACAD_REACTORS
330
19
102
}
330
19
100
AcDbDictionary
281
     1
  3
CANNOSCALE
350
331
  3
CMLEADERSTYLE
350
8DA
  3
CTABLESTYLE
350
335
  3
HPTRANSPARENCY
350
C07
  3
XCLIPFRAME
350
64A
  0
DICTIONARY
  5
27A
102
{ACAD_REACTORS
330
19
102
}
330
19
100
AcDbDictionary
281
     1
  0
DICTIONARY
  5
C08
102
{ACAD_REACTORS
330
19
102
}
330
19
100
AcDbDictionary
281
     1
  3
DIMRAILANGLE
350
4342
  3
DIMRAILFIRSTOFFSET
350
4340
  3
DIMRAILOFFSET
350
4341
  3
DIMRAILSENABLED
350
4343
  0
DICTIONARY
  5
2E2
102
{ACAD_REACTORS
330
2E1
102
}
330
2E1
100
AcDbDictionary
281
     1
  0
DICTIONARY
  5
BFE
102
{ACAD_REACTORS
330
2E1
102
}
330
2E1
100
AcDbDictionary
281
     1
1001
ACAD
1000
<All
  0
XRECORD
  5
4FF9
102
{ACAD_REACTORS
330
4FF8
102
}
330
4FF8
100
AcDbXrecord
280
     1
290
     1
  0
XRECORD
  5
4FFC
102
{ACAD_REACTORS
330
4FFB
102
}
330
4FFB
100
AcDbXrecord
280
     1
290
     1
  0
SORTENTSTABLE
  5
560B
102
{ACAD_REACTORS
330
560A
102
}
330
560A
100
AcDbSortentsTable
330
A
331
177
  5
185
331
178
  5
186
331
179
  5
187
331
17A
  5
188
331
17B
  5
189
331
17C
  5
18A
331
17E
  5
1A6
331
180
  5
374
331
181
  5
3D0
331
182
  5
BDB
331
183
  5
BEE
331
184
  5
1273
331
185
  5
127B
331
186
  5
127C
331
187
  5
3B99
331
188
  5
467E
331
189
  5
527B
331
18A
  5
527C
331
1A6
  5
527D
331
374
  5
527E
331
3D0
  5
527F
331
BDB
  5
5280
331
BEE
  5
5281
331
1273
  5
5282
331
127B
  5
5283
331
127C
  5
5284
331
3B99
  5
5285
331
467E
  5
5286
331
527B
  5
5287
331
527C
  5
5288
331
527D
  5
5289
331
527E
  5
528A
331
527F
  5
5290
331
5280
  5
5294
331
5281
  5
5295
331
5282
  5
5297
331
5283
  5
5298
331
5284
  5
5299
331
5285
  5
529B
331
5286
  5
529C
331
5287
  5
529E
331
5288
  5
529F
331
5289
  5
52A0
331
528A
  5
52A2
331
5290
  5
52BA
331
5294
  5
52BB
331
5295
  5
52C0
331
5297
  5
52C5
331
5298
  5
52C7
331
5299
  5
52E1
331
529B
  5
52F7
331
529C
  5
5304
331
529E
  5
5306
331
529F
  5
5307
331
52A0
  5
5308
331
52A2
  5
5309
331
52BA
  5
530A
331
52BB
  5
530B
331
52C0
  5
530C
331
52C5
  5
530D
331
52C7
  5
530E
331
52E1
  5
530F
331
52F7
  5
5310
331
5304
  5
5311
331
5306
  5
5312
331
5307
  5
5314
331
5308
  5
531A
331
5309
  5
531B
331
530A
  5
531D
331
530B
  5
531E
331
530C
  5
5320
331
530D
  5
5321
331
530E
  5
5322
331
530F
  5
5323
331
5310
  5
5324
331
5311
  5
5325
331
5312
  5
5326
331
5314
  5
5327
331
531A
  5
5328
331
531B
  5
5329
331
531D
  5
532A
331
531E
  5
532B
331
5320
  5
532C
331
5321
  5
532D
331
5322
  5
532E
331
5323
  5
532F
331
5324
  5
5330
331
5325
  5
5331
331
5326
  5
5332
331
5327
  5
5333
331
5328
  5
5334
331
5329
  5
5335
331
532A
  5
5336
331
532B
  5
5337
331
532C
  5
53CF
331
532D
  5
53D0
331
532E
  5
53D1
331
532F
  5
53D2
331
5330
  5
53D3
331
5331
  5
53D9
331
5332
  5
53DA
331
5333
  5
53DC
331
5334
  5
53DD
331
5335
  5
53DE
331
5336
  5
53E1
331
5337
  5
53E2
331
53CF
  5
54DE
331
53D0
  5
54DF
331
53D1
  5
54E0
331
53D2
  5
54E2
331
53D3
  5
54E3
331
53D9
  5
54E4
331
53DA
  5
54E5
331
53DC
  5
54E6
331
53DD
  5
54E7
331
53DE
  5
54E8
331
53E1
  5
54E9
331
53E2
  5
54EA
331
54DE
  5
54EE
331
54DF
  5
5500
331
54E0
  5
5501
331
54E2
  5
550F
331
54E3
  5
5516
331
54E4
  5
5518
331
54E5
  5
5519
331
54E6
  5
551B
331
54E7
  5
551C
331
54E8
  5
551D
331
54E9
  5
551E
331
54EA
  5
5523
331
54EE
  5
553F
331
5500
  5
5540
331
5501
  5
5541
331
550F
  5
5543
331
5516
  5
5544
331
5518
  5
5545
331
5519
  5
5546
331
551B
  5
5547
331
551C
  5
5548
331
551D
  5
5549
331
551E
  5
554A
331
5523
  5
554C
331
553F
  5
554D
331
5540
  5
554E
331
5541
  5
554F
331
5543
  5
5550
331
5544
  5
5551
331
5545
  5
5552
331
5546
  5
5553
331
5547
  5
5607
331
5548
  5
5642
331
5549
  5
5643
331
554A
  5
5644
331
554C
  5
5657
331
554D
  5
5666
331
554E
  5
56B4
331
554F
  5
56C9
331
5550
  5
5700
331
5551
  5
5701
331
5552
  5
5702
331
5553
  5
5711
331
55CD
  5
5712
331
5642
  5
5713
331
5643
  5
5714
331
5644
  5
5715
331
5657
  5
5716
331
5666
  5
5717
331
56B4
  5
5718
331
56C9
  5
571C
331
5700
  5
5735
331
5701
  5
5736
331
5702
  5
5737
331
5711
  5
5738
331
5712
  5
5739
331
5713
  5
573A
331
5714
  5
573B
331
5715
  5
574A
331
5716
  5
574B
331
5717
  5
574C
331
5718
  5
574D
331
571C
  5
574E
331
5735
  5
5750
331
5736
  5
5751
331
5737
  5
5752
331
5738
  5
5753
331
5739
  5
5755
331
573A
  5
5756
331
573B
  5
5765
331
574A
  5
57C4
331
574B
  5
57C6
331
574C
  5
57FC
331
574D
  5
5821
331
574E
  5
5822
331
5750
  5
17A
331
5751
  5
181
331
5752
  5
183
331
5753
  5
184
331
5755
  5
5823
331
5756
  5
583B
331
5765
  5
584A
331
57AD
  5
584B
331
57C1
  5
584C
331
57C4
  5
584D
331
57C5
  5
5880
331
57C6
  5
5893
331
57FB
  5
5894
331
57FC
  5
5898
331
0
  5
5899
331
5822
  5
589A
331
5823
  5
589B
331
0
  5
589C
331
0
  5
589D
331
0
  5
589E
331
0
  5
589F
331
0
  5
58A0
331
0
  5
58A4
331
5893
  5
58A5
331
5894
  5
58A6
331
0
  5
58A7
331
0
  5
182
331
0
  5
17B
331
0
  5
17C
331
0
  5
17E
331
0
  5
180
331
0
  5
177
331
0
  5
178
331
58A0
  5
179
331
0
  5
58A8
331
0
  5
57FB
331
0
  5
57C5
331
0
  5
57AD
331
58A8
  5
57C1
  0
DICTIONARY
  5
57B7
102
{ACAD_REACTORS
330
BDC
102
}
330
BDC
100
AcDbDictionary
280
     1
281
     1
  3
TEXT
360
BDE
  0
DIMASSOC
  5
54F0
102
{ACAD_REACTORS
330
54EF
102
}
330
54EF
100
AcDbDimAssoc
330
54EE
 90
        0
 70
     0
 71
     1
  0
DIMASSOC
  5
5668
102
{ACAD_REACTORS
330
5667
102
}
330
5667
100
AcDbDimAssoc
330
5666
 90
        0
 70
     0
 71
     1
  0
DIMASSOC
  5
571E
102
{ACAD_REACTORS
330
571D
102
}
330
571D
100
AcDbDimAssoc
330
571C
 90
        0
 70
     0
 71
     1
  0
DIMASSOC
  5
573D
102
{ACAD_REACTORS
330
573C
102
}
330
573C
100
AcDbDimAssoc
330
573B
 90
        0
 70
     0
 71
     1
  0
DIMASSOC
  5
5825
102
{ACAD_REACTORS
330
5824
102
}
330
5824
100
AcDbDimAssoc
330
5823
 90
        3
 70
     0
 71
     1
  1
AcDbOsnapPointRef
 72
    13
331
5290
 73
     0
 91
        0
 40
0.0
 10
0.0
 20
0.0
 30
0.0
 75
     0
  1
AcDbOsnapPointRef
 72
     8
331
5289
 73
     0
 91
        0
 40
0.3442599604344501
 10
0.0
 20
0.0
 30
0.0
 75
     1
  1
AcDbOsnapPointRef
 72
    13
331
5290
 73
     0
 91
        0
 40
0.0
 10
0.0
 20
0.0
 30
0.0
 75
     0
  0
LAYOUT
  5
21
102
{ACAD_REACTORS
330
1E
102
}
330
1E
100
AcDbPlotSettings
  1

  2
none_device
  4
ISO_A3_(420.00_x_297.00_MM)
  6

 40
7.5
 41
20.0
 42
7.5
 43
20.0
 44
420.0
 45
297.0
 46
0.0
 47
0.0
 48
0.0
 49
0.0
140
0.0
141
0.0
142
1.0
143
1.0
 70
     0
 72
     1
 73
     0
 74
     0
  7

 75
     0
 76
     0
 77
     2
 78
   300
147
1.0
148
0.0
149
0.0
100
AcDbLayout
  1
Layout1
 70
     0
 71
     0
 10
0.0
 20
0.0
 11
0.0
 21
0.0
 12
0.0
 22
0.0
 32
0.0
 14
0.0
 24
0.0
 34
0.0
 15
0.0
 25
0.0
 35
0.0
146
0.0
 13
0.0
 23
0.0
 33
0.0
 16
0.0
 26
0.0
 36
0.0
 17
0.0
 27
0.0
 37
0.0
 76
     0
330
B
331
349
  0
LAYOUT
  5
20
102
{ACAD_REACTORS
330
1E
102
}
330
1E
100
AcDbPlotSettings
  1

  2
none_device
  4
ISO_A3_(420.00_x_297.00_MM)
  6

 40
7.5
 41
20.0
 42
7.5
 43
20.0
 44
420.0
 45
297.0
 46
0.0
 47
0.0
 48
0.0
 49
0.0
140
0.0
141
0.0
142
1.0
143
1.0
 70
  1024
 72
     1
 73
     0
 74
     0
  7

 75
     0
 76
     0
 77
     2
 78
   300
147
1.0
148
0.0
149
0.0
100
AcDbLayout
  1
Model
 70
     0
 71
     1
 10
0.0
 20
0.0
 11
2100.0
 21
2970.0
 12
0.0
 22
0.0
 32
0.0
 14
0.0
 24
0.0
 34
0.0
 15
2100.0
 25
2970.0
 35
34.99521132346015
146
0.0
 13
0.0
 23
0.0
 33
0.0
 16
0.0
 26
0.0
 36
0.0
 17
0.0
 27
0.0
 37
0.0
 76
     0
330
A
331
15
  0
MATERIAL
  5
4FEC
102
{ACAD_REACTORS
330
263
102
}
330
263
100
AcDbMaterial
  1
ByBlock
 72
     1
 94
      127
  0
MATERIAL
  5
264
102
{ACAD_REACTORS
330
263
102
}
330
263
100
AcDbMaterial
  1
ByLayer
 72
     1
 94
      127
  0
MATERIAL
  5
266
102
{ACAD_REACTORS
330
263
102
}
330
263
100
AcDbMaterial
  1
Global
 72
     1
 94
      127
  0
MLEADERSTYLE
  5
8D1
102
{ACAD_REACTORS
330
336
102
}
330
336
100
AcDbMLeaderStyle
170
     2
171
     1
172
     0
 90
        2
 40
0.0
 41
0.0
173
     1
 91
-1056964608
340
11
 92
       -2
290
     1
 42
2.0
291
     1
 43
8.0
  3
Standard
341
0
 44
4.0
300

342
17
174
     1
178
     6
175
     1
176
     0
 93
-1056964608
 45
4.0
292
     0
297
     0
 46
4.0
343
0
 94
-1056964608
 47
1.0
 49
1.0
140
1.0
293
     1
141
0.0
294
     1
177
     0
142
1.0
295
     0
296
     0
143
3.75
1001
ACAD_MLEADERVER
1070
     2
  0
MLINESTYLE
  5
1C
102
{ACAD_REACTORS
330
1B
102
}
330
1B
100
AcDbMlineStyle
  2
Standard
 70
     0
  3

 62
     0
 51
90.0
 52
90.0
 71
     2
 49
0.5
 62
   256
  6
BYLAYER
 49
-0.5
 62
   256
  6
BYLAYER
  0
ACDBPLACEHOLDER
  5
1D
102
{ACAD_REACTORS
330
1F
102
}
330
1F
  0
SCALE
  5
242
102
{ACAD_REACTORS
330
241
102
}
330
241
100
AcDbScale
 70
     0
300
1:1
140
1.0
141
1.0
290
     1
  0
SCALE
  5
243
102
{ACAD_REACTORS
330
241
102
}
330
241
100
AcDbScale
 70
     0
300
1:2
140
1.0
141
2.0
290
     0
  0
SCALE
  5
244
102
{ACAD_REACTORS
330
241
102
}
330
241
100
AcDbScale
 70
     0
300
1:4
140
1.0
141
4.0
290
     0
  0
SCALE
  5
245
102
{ACAD_REACTORS
330
241
102
}
330
241
100
AcDbScale
 70
     0
300
1:5
140
1.0
141
5.0
290
     0
  0
SCALE
  5
246
102
{ACAD_REACTORS
330
241
102
}
330
241
100
AcDbScale
 70
     0
300
1:8
140
1.0
141
8.0
290
     0
  0
SCALE
  5
247
102
{ACAD_REACTORS
330
241
102
}
330
241
100
AcDbScale
 70
     0
300
1:10
140
1.0
141
10.0
290
     0
  0
SCALE
  5
248
102
{ACAD_REACTORS
330
241
102
}
330
241
100
AcDbScale
 70
     0
300
1:16
140
1.0
141
16.0
290
     0
  0
SCALE
  5
249
102
{ACAD_REACTORS
330
241
102
}
330
241
100
AcDbScale
 70
     0
300
1:20
140
1.0
141
20.0
290
     0
  0
SCALE
  5
24A
102
{ACAD_REACTORS
330
241
102
}
330
241
100
AcDbScale
 70
     0
300
1:30
140
1.0
141
30.0
290
     0
  0
SCALE
  5
24B
102
{ACAD_REACTORS
330
241
102
}
330
241
100
AcDbScale
 70
     0
300
1:40
140
1.0
141
40.0
290
     0
  0
SCALE
  5
24C
102
{ACAD_REACTORS
330
241
102
}
330
241
100
AcDbScale
 70
     0
300
1:50
140
1.0
141
50.0
290
     0
  0
SCALE
  5
24D
102
{ACAD_REACTORS
330
241
102
}
330
241
100
AcDbScale
 70
     0
300
1:100
140
1.0
141
100.0
290
     0
  0
SCALE
  5
24E
102
{ACAD_REACTORS
330
241
102
}
330
241
100
AcDbScale
 70
     0
300
2:1
140
2.0
141
1.0
290
     0
  0
SCALE
  5
24F
102
{ACAD_REACTORS
330
241
102
}
330
241
100
AcDbScale
 70
     0
300
4:1
140
4.0
141
1.0
290
     0
  0
SCALE
  5
250
102
{ACAD_REACTORS
330
241
102
}
330
241
100
AcDbScale
 70
     0
300
8:1
140
8.0
141
1.0
290
     0
  0
SCALE
  5
251
102
{ACAD_REACTORS
330
241
102
}
330
241
100
AcDbScale
 70
     0
300
10:1
140
10.0
141
1.0
290
     0
  0
SCALE
  5
252
102
{ACAD_REACTORS
330
241
102
}
330
241
100
AcDbScale
 70
     0
300
100:1
140
100.0
141
1.0
290
     0
  0
SCALE
  5
253
102
{ACAD_REACTORS
330
241
102
}
330
241
100
AcDbScale
 70
     0
300
1/128" = 1'-0"
140
0.0078125
141
12.0
290
     0
  0
SCALE
  5
254
102
{ACAD_REACTORS
330
241
102
}
330
241
100
AcDbScale
 70
     0
300
1/64" = 1'-0"
140
0.015625
141
12.0
290
     0
  0
SCALE
  5
255
102
{ACAD_REACTORS
330
241
102
}
330
241
100
AcDbScale
 70
     0
300
1/32" = 1'-0"
140
0.03125
141
12.0
290
     0
  0
SCALE
  5
256
102
{ACAD_REACTORS
330
241
102
}
330
241
100
AcDbScale
 70
     0
300
1/16" = 1'-0"
140
0.0625
141
12.0
290
     0
  0
SCALE
  5
257
102
{ACAD_REACTORS
330
241
102
}
330
241
100
AcDbScale
 70
     0
300
3/32" = 1'-0"
140
0.09375
141
12.0
290
     0
  0
SCALE
  5
258
102
{ACAD_REACTORS
330
241
102
}
330
241
100
AcDbScale
 70
     0
300
1/8" = 1'-0"
140
0.125
141
12.0
290
     0
  0
SCALE
  5
259
102
{ACAD_REACTORS
330
241
102
}
330
241
100
AcDbScale
 70
     0
300
3/16" = 1'-0"
140
0.1875
141
12.0
290
     0
  0
SCALE
  5
25A
102
{ACAD_REACTORS
330
241
102
}
330
241
100
AcDbScale
 70
     0
300
1/4" = 1'-0"
140
0.25
141
12.0
290
     0
  0
SCALE
  5
25B
102
{ACAD_REACTORS
330
241
102
}
330
241
100
AcDbScale
 70
     0
300
3/8" = 1'-0"
140
0.375
141
12.0
290
     0
  0
SCALE
  5
25C
102
{ACAD_REACTORS
330
241
102
}
330
241
100
AcDbScale
 70
     0
300
1/2" = 1'-0"
140
0.5
141
12.0
290
     0
  0
SCALE
  5
25D
102
{ACAD_REACTORS
330
241
102
}
330
241
100
AcDbScale
 70
     0
300
3/4" = 1'-0"
140
0.75
141
12.0
290
     0
  0
SCALE
  5
25E
102
{ACAD_REACTORS
330
241
102
}
330
241
100
AcDbScale
 70
     0
300
1" = 1'-0"
140
1.0
141
12.0
290
     0
  0
SCALE
  5
25F
102
{ACAD_REACTORS
330
241
102
}
330
241
100
AcDbScale
 70
     0
300
1-1/2" = 1'-0"
140
1.5
141
12.0
290
     0
  0
SCALE
  5
260
102
{ACAD_REACTORS
330
241
102
}
330
241
100
AcDbScale
 70
     0
300
3" = 1'-0"
140
3.0
141
12.0
290
     0
  0
SCALE
  5
261
102
{ACAD_REACTORS
330
241
102
}
330
241
100
AcDbScale
 70
     0
300
6" = 1'-0"
140
6.0
141
12.0
290
     0
  0
SCALE
  5
262
102
{ACAD_REACTORS
330
241
102
}
330
241
100
AcDbScale
 70
     0
300
1'-0" = 1'-0"
140
12.0
141
12.0
290
     0
  0
TABLESTYLE
  5
279
102
{ACAD_REACTORS
330
278
102
}
102
{ACAD_XDICTIONARY
360
58B8
102
}
330
278
100
AcDbTableStyle
  3
Standard
 70
     0
 71
     0
 40
0.06
 41
0.06
280
     0
281
     0
  7
Standard
140
4.5
170
     2
 62
     0
 63
   257
283
     0
 90
        4
 91
        0
  1

274
    -2
284
     1
 64
     0
275
    -2
285
     1
 65
     0
276
    -2
286
     1
 66
     0
277
    -2
287
     1
 67
     0
278
    -2
288
     1
 68
     0
279
    -2
289
     1
 69
     0
  7
Standard
140
6.0
170
     5
 62
     0
 63
   257
283
     0
 90
        4
 91
        0
  1

274
    -2
284
     1
 64
     0
275
    -2
285
     1
 65
     0
276
    -2
286
     1
 66
     0
277
    -2
287
     1
 67
     0
278
    -2
288
     1
 68
     0
279
    -2
289
     1
 69
     0
  7
Standard
140
4.5
170
     5
 62
     0
 63
   257
283
     0
 90
        4
 91
        0
  1

274
    -2
284
     1
 64
     0
275
    -2
285
     1
 65
     0
276
    -2
286
     1
 66
     0
277
    -2
287
     1
 67
     0
278
    -2
288
     1
 68
     0
279
    -2
289
     1
 69
     0
  0
VISUALSTYLE
  5
26C
102
{ACAD_REACTORS
330
267
102
}
330
267
100
AcDbVisualStyle
  2
2dWireframe
 70
     4
 71
     0
 72
     2
 73
     0
 90
        0
 40
-0.6
 41
-30.0
 62
     5
 63
     7
421
 16777215
 74
     1
 91
        4
 64
     7
 65
   257
 75
     1
175
     1
 42
1.0
 92
        0
 66
   257
 43
1.0
 76
     1
 77
     6
 78
     2
 67
     7
 79
     5
170
     0
171
     0
290
     0
174
     0
 93
        1
 44
0.0
173
     0
291
     0
 45
0.0
  0
VISUALSTYLE
  5
26E
102
{ACAD_REACTORS
330
267
102
}
330
267
100
AcDbVisualStyle
  2
3D Hidden
 70
     6
 71
     1
 72
     2
 73
     2
 90
        0
 40
-0.6
 41
-30.0
 62
     5
 63
     7
421
 16777215
 74
     2
 91
        2
 64
     7
 65
   257
 75
     2
175
     1
 42
40.0
 92
        0
 66
   257
 43
1.0
 76
     1
 77
     6
 78
     2
 67
     7
 79
     3
170
     0
171
     0
290
     0
174
     0
 93
        1
 44
0.0
173
     0
291
     0
 45
0.0
  0
VISUALSTYLE
  5
26D
102
{ACAD_REACTORS
330
267
102
}
330
267
100
AcDbVisualStyle
  2
3dWireframe
 70
     5
 71
     0
 72
     2
 73
     0
 90
        0
 40
-0.6
 41
-30.0
 62
     5
 63
     7
421
 16777215
 74
     1
 91
        4
 64
     7
 65
   257
 75
     1
175
     1
 42
1.0
 92
        0
 66
   257
 43
1.0
 76
     1
 77
     6
 78
     2
 67
     7
 79
     5
170
     0
171
     0
290
     0
174
     0
 93
        1
 44
0.0
173
     0
291
     0
 45
0.0
  0
VISUALSTYLE
  5
26F
102
{ACAD_REACTORS
330
267
102
}
330
267
100
AcDbVisualStyle
  2
Basic
 70
     7
 71
     1
 72
     0
 73
     1
 90
        0
 40
-0.6
 41
-30.0
 62
     5
 63
     7
421
 16777215
 74
     0
 91
        4
 64
     7
 65
   257
 75
     1
175
     1
 42
1.0
 92
        8
 66
     7
 43
1.0
 76
     1
 77
     6
 78
     2
 67
     7
 79
     5
170
     0
171
     0
290
     0
174
     0
 93
        1
 44
0.0
173
     0
291
     1
 45
0.0
  0
VISUALSTYLE
  5
273
102
{ACAD_REACTORS
330
267
102
}
330
267
100
AcDbVisualStyle
  2
Brighten
 70
    12
 71
     2
 72
     2
 73
     0
 90
        0
 40
-0.6
 41
-30.0
 62
     5
 63
     7
421
 16777215
 74
     1
 91
        4
 64
     7
 65
   257
 75
     1
175
     1
 42
1.0
 92
        8
 66
     7
 43
1.0
 76
     1
 77
     6
 78
     2
 67
     7
 79
     5
170
     0
171
     0
290
     0
174
     0
 93
        1
 44
50.0
173
     0
291
     1
 45
0.0
  0
VISUALSTYLE
  5
277
102
{ACAD_REACTORS
330
267
102
}
330
267
100
AcDbVisualStyle
  2
ColorChange
 70
    16
 71
     2
 72
     2
 73
     3
 90
        0
 40
-0.6
 41
-30.0
 62
     5
 63
     8
421
  8421504
 74
     1
 91
        4
 64
     7
 65
   257
 75
     1
175
     1
 42
1.0
 92
        8
 66
     8
424
  8421504
 43
1.0
 76
     1
 77
     6
 78
     2
 67
     7
 79
     5
170
     0
171
     0
290
     0
174
     0
 93
        1
 44
0.0
173
     0
291
     1
 45
0.0
  0
VISUALSTYLE
  5
271
102
{ACAD_REACTORS
330
267
102
}
330
267
100
AcDbVisualStyle
  2
Conceptual
 70
     9
 71
     3
 72
     2
 73
     0
 90
        0
 40
-0.6
 41
-30.0
 62
     5
 63
     7
421
 16777215
 74
     2
 91
        2
 64
     7
 65
   257
 75
     1
175
     1
 42
40.0
 92
        8
 66
     7
 43
1.0
 76
     1
 77
     6
 78
     2
 67
     7
 79
     3
170
     0
171
     0
290
     0
174
     0
 93
        1
 44
0.0
173
     0
291
     0
 45
0.0
  0
VISUALSTYLE
  5
272
102
{ACAD_REACTORS
330
267
102
}
330
267
100
AcDbVisualStyle
  2
Dim
 70
    11
 71
     2
 72
     2
 73
     0
 90
        0
 40
-0.6
 41
-30.0
 62
     5
 63
     7
421
 16777215
 74
     1
 91
        4
 64
     7
 65
   257
 75
     1
175
     1
 42
1.0
 92
        8
 66
     7
 43
1.0
 76
     1
 77
     6
 78
     2
 67
     7
 79
     5
170
     0
171
     0
290
     0
174
     0
 93
        1
 44
-50.0
173
     0
291
     1
 45
0.0
  0
VISUALSTYLE
  5
8BC
102
{ACAD_REACTORS
330
267
102
}
330
267
100
AcDbVisualStyle
  2
EdgeColorOff
 70
    22
 71
     2
 72
     2
 73
     0
 90
        0
 40
0.6
 41
30.0
 62
     5
 63
     7
421
 16777215
 74
     1
 91
        4
 64
     7
 65
   257
 75
     1
175
     1
 42
1.0
 92
        8
 66
     7
 43
1.0
 76
     1
 77
     6
 78
     2
 67
     7
 79
     5
170
     0
171
     0
290
     0
174
     0
 93
        1
 44
0.0
173
     0
291
     1
 45
0.0
  0
VISUALSTYLE
  5
276
102
{ACAD_REACTORS
330
267
102
}
330
267
100
AcDbVisualStyle
  2
Facepattern
 70
    15
 71
     2
 72
     2
 73
     0
 90
        0
 40
-0.6
 41
-30.0
 62
     5
 63
     7
421
 16777215
 74
     1
 91
        4
 64
     7
 65
   257
 75
     1
175
     1
 42
1.0
 92
        8
 66
     7
 43
1.0
 76
     1
 77
     6
 78
     2
 67
     7
 79
     5
170
     0
171
     0
290
     0
174
     0
 93
        1
 44
0.0
173
     0
291
     1
 45
0.0
  0
VISUALSTYLE
  5
268
102
{ACAD_REACTORS
330
267
102
}
330
267
100
AcDbVisualStyle
  2
Flat
 70
     0
 71
     2
 72
     1
 73
     1
 90
        2
 40
-0.6
 41
30.0
 62
     5
 63
     7
421
 16777215
 74
     0
 91
        4
 64
     7
 65
   257
 75
     1
175
     1
 42
1.0
 92
        8
 66
     7
 43
1.0
 76
     1
 77
     6
 78
     2
 67
     7
 79
     5
170
     0
171
     0
290
     0
174
     0
 93
       13
 44
0.0
173
     0
291
     1
 45
0.0
  0
VISUALSTYLE
  5
269
102
{ACAD_REACTORS
330
267
102
}
330
267
100
AcDbVisualStyle
  2
FlatWithEdges
 70
     1
 71
     2
 72
     1
 73
     1
 90
        2
 40
-0.6
 41
30.0
 62
     5
 63
     7
421
 16777215
 74
     1
 91
        4
 64
     7
 65
   257
 75
     1
175
     1
 42
1.0
 92
        0
 66
   257
 43
1.0
 76
     1
 77
     6
 78
     2
 67
     7
 79
     5
170
     0
171
     0
290
     0
174
     0
 93
       13
 44
0.0
173
     0
291
     1
 45
0.0
  0
VISUALSTYLE
  5
26A
102
{ACAD_REACTORS
330
267
102
}
330
267
100
AcDbVisualStyle
  2
Gouraud
 70
     2
 71
     2
 72
     2
 73
     1
 90
        2
 40
-0.6
 41
30.0
 62
     5
 63
     7
421
 16777215
 74
     0
 91
        4
 64
     7
 65
   257
 75
     1
175
     1
 42
1.0
 92
        0
 66
     7
 43
1.0
 76
     1
 77
     6
 78
     2
 67
     7
 79
     5
170
     0
171
     0
290
     0
174
     0
 93
       13
 44
0.0
173
     0
291
     1
 45
0.0
  0
VISUALSTYLE
  5
26B
102
{ACAD_REACTORS
330
267
102
}
330
267
100
AcDbVisualStyle
  2
GouraudWithEdges
 70
     3
 71
     2
 72
     2
 73
     1
 90
        2
 40
-0.6
 41
30.0
 62
     5
 63
     7
421
 16777215
 74
     1
 91
        4
 64
     7
 65
   257
 75
     1
175
     1
 42
1.0
 92
        0
 66
   257
 43
1.0
 76
     1
 77
     6
 78
     2
 67
     7
 79
     5
170
     0
171
     0
290
     0
174
     0
 93
       13
 44
0.0
173
     0
291
     1
 45
0.0
  0
VISUALSTYLE
  5
8B9
102
{ACAD_REACTORS
330
267
102
}
330
267
100
AcDbVisualStyle
  2
Hidden
 70
     6
 71
     1
 72
     2
 73
     2
 90
        0
 40
0.6
 41
30.0
 62
     5
 63
     7
421
 16777215
 74
     2
 91
        2
 64
     7
 65
   257
 75
     2
175
     1
 42
40.0
 92
        0
 66
   257
 43
1.0
 76
     1
 77
     6
 78
     2
 67
     7
 79
     3
170
     0
171
     0
290
     0
174
     0
 93
        1
 44
0.0
173
     0
291
     0
 45
0.0
  0
VISUALSTYLE
  5
8BA
102
{ACAD_REACTORS
330
267
102
}
330
267
100
AcDbVisualStyle
  2
JitterOff
 70
    20
 71
     2
 72
     2
 73
     0
 90
        0
 40
0.6
 41
30.0
 62
     5
 63
     7
421
 16777215
 74
     1
 91
        4
 64
     7
 65
   257
 75
     1
175
     1
 42
1.0
 92
       10
 66
     7
 43
1.0
 76
     1
 77
     6
 78
     2
 67
     7
 79
     5
170
     0
171
     0
290
     0
174
     0
 93
        1
 44
0.0
173
     0
291
     1
 45
0.0
  0
VISUALSTYLE
  5
275
102
{ACAD_REACTORS
330
267
102
}
330
267
100
AcDbVisualStyle
  2
Linepattern
 70
    14
 71
     2
 72
     2
 73
     0
 90
        0
 40
-0.6
 41
-30.0
 62
     5
 63
     7
421
 16777215
 74
     1
 91
        4
 64
     7
 65
   257
 75
     7
175
     7
 42
1.0
 92
        8
 66
     7
 43
1.0
 76
     1
 77
     6
 78
     2
 67
     7
 79
     5
170
     0
171
     0
290
     0
174
     0
 93
        1
 44
0.0
173
     0
291
     1
 45
0.0
  0
VISUALSTYLE
  5
8BB
102
{ACAD_REACTORS
330
267
102
}
330
267
100
AcDbVisualStyle
  2
OverhangOff
 70
    21
 71
     2
 72
     2
 73
     0
 90
        0
 40
0.6
 41
30.0
 62
     5
 63
     7
421
 16777215
 74
     1
 91
        4
 64
     7
 65
   257
 75
     1
175
     1
 42
1.0
 92
        9
 66
     7
 43
1.0
 76
     1
 77
     6
 78
     2
 67
     7
 79
     5
170
     0
171
     0
290
     0
174
     0
 93
        1
 44
0.0
173
     0
291
     1
 45
0.0
  0
VISUALSTYLE
  5
270
102
{ACAD_REACTORS
330
267
102
}
330
267
100
AcDbVisualStyle
  2
Realistic
 70
     8
 71
     2
 72
     2
 73
     0
 90
        0
 40
-0.6
 41
-30.0
 62
     5
 63
     7
421
 16777215
 74
     1
 91
        0
 64
     7
 65
   257
 75
     1
175
     1
 42
1.0
 92
        8
 66
     8
424
  7895160
 43
1.0
 76
     1
 77
     6
 78
     2
 67
     7
 79
     5
170
     0
171
     0
290
     0
174
     0
 93
       13
 44
0.0
173
     0
291
     0
 45
0.0
  0
VISUALSTYLE
  5
8C1
102
{ACAD_REACTORS
330
267
102
}
330
267
100
AcDbVisualStyle
  2
Shaded
 70
    27
 71
     2
 72
     2
 73
     1
 90
        2
 40
0.6
 41
30.0
 62
     5
 63
     7
421
 16777215
 74
     0
 91
        4
 64
     7
 65
   257
 75
     1
175
     1
 42
1.0
 92
        8
 66
   257
 43
1.0
 76
     1
 77
     6
 78
     2
 67
     8
425
  7895160
 79
     3
170
     0
171
     0
290
     0
174
     0
 93
        5
 44
0.0
173
     0
291
     0
 45
0.0
  0
VISUALSTYLE
  5
8C0
102
{ACAD_REACTORS
330
267
102
}
330
267
100
AcDbVisualStyle
  2
Shaded with edges
 70
    26
 71
     2
 72
     2
 73
     1
 90
        2
 40
0.6
 41
30.0
 62
     5
 63
     7
421
 16777215
 74
     1
 91
       10
 64
     7
 65
   257
 75
     2
175
     1
 42
1.0
 92
        8
 66
   257
 43
1.0
 76
     1
 77
     6
 78
     2
 67
     7
 79
     3
170
     0
171
     0
290
     0
174
     0
 93
        5
 44
0.0
173
     0
291
     0
 45
0.0
  0
VISUALSTYLE
  5
8BD
102
{ACAD_REACTORS
330
267
102
}
330
267
100
AcDbVisualStyle
  2
Shades of Gray
 70
    23
 71
     2
 72
     2
 73
     3
 90
        0
 40
0.6
 41
30.0
 62
     5
 63
     7
421
 16777215
 74
     2
 91
        2
 64
     7
 65
     7
 75
     1
175
     1
 42
40.0
 92
        8
 66
     7
 43
1.0
 76
     1
 77
     6
 78
     2
 67
     7
 79
     3
170
     0
171
     0
290
     0
174
     0
 93
        1
 44
0.0
173
     0
291
     0
 45
0.0
  0
VISUALSTYLE
  5
8BE
102
{ACAD_REACTORS
330
267
102
}
330
267
100
AcDbVisualStyle
  2
Sketchy
 70
    24
 71
     1
 72
     2
 73
     2
 90
        0
 40
0.6
 41
30.0
 62
     5
 63
     7
421
 16777215
 74
     2
 91
        2
 64
     7
 65
     7
 75
     1
175
     1
 42
40.0
 92
       11
 66
     7
 43
1.0
 76
     1
 77
     6
 78
     2
 67
     7
 79
     6
170
     0
171
     0
290
     0
174
     0
 93
        1
 44
0.0
173
     0
291
     0
 45
0.0
  0
VISUALSTYLE
  5
274
102
{ACAD_REACTORS
330
267
102
}
330
267
100
AcDbVisualStyle
  2
Thicken
 70
    13
 71
     2
 72
     2
 73
     0
 90
        0
 40
-0.6
 41
-30.0
 62
     5
 63
     7
421
 16777215
 74
     1
 91
        4
 64
     7
 65
   257
 75
     1
175
     1
 42
1.0
 92
       12
 66
     7
 43
1.0
 76
     1
 77
     6
 78
     2
 67
     7
 79
     5
170
     0
171
     0
290
     0
174
     0
 93
        1
 44
0.0
173
     0
291
     1
 45
0.0
  0
VISUALSTYLE
  5
8B8
102
{ACAD_REACTORS
330
267
102
}
330
267
100
AcDbVisualStyle
  2
Wireframe
 70
     5
 71
     0
 72
     2
 73
     0
 90
        0
 40
0.6
 41
30.0
 62
     5
 63
     7
421
 16777215
 74
     1
 91
        4
 64
     7
 65
   257
 75
     1
175
     1
 42
1.0
 92
        0
 66
   257
 43
1.0
 76
     1
 77
     6
 78
     2
 67
     7
 79
     3
170
     0
171
     0
290
     0
174
     0
 93
        1
 44
0.0
173
     0
291
     0
 45
0.0
  0
VISUALSTYLE
  5
8BF
102
{ACAD_REACTORS
330
267
102
}
330
267
100
AcDbVisualStyle
  2
X-Ray
 70
    25
 71
     2
 72
     2
 73
     1
 90
        1
 40
0.5
 41
30.0
 62
     5
 63
     7
421
 16777215
 74
     1
 91
        0
 64
     7
 65
   257
 75
     1
175
     1
 42
1.0
 92
        8
 66
     7
 43
1.0
 76
     1
 77
     6
 78
     2
 67
     7
 79
     3
170
     0
171
     0
290
     0
174
     0
 93
       13
 44
0.0
173
     0
291
     0
 45
0.0
  0
DICTIONARYVAR
  5
331
102
{ACAD_REACTORS
330
330
102
}
330
330
100
DictionaryVariables
280
     0
  1
1:1
  0
DICTIONARYVAR
  5
8DA
102
{ACAD_REACTORS
330
330
102
}
330
330
100
DictionaryVariables
280
     0
  1
Standard
  0
DICTIONARYVAR
  5
335
102
{ACAD_REACTORS
330
330
102
}
330
330
100
DictionaryVariables
280
     0
  1
Standard
  0
DICTIONARYVAR
  5
C07
102
{ACAD_REACTORS
330
330
102
}
330
330
100
DictionaryVariables
280
     0
  1
ByLayer
  0
DICTIONARYVAR
  5
64A
102
{ACAD_REACTORS
330
330
102
}
330
330
100
DictionaryVariables
280
     0
  1
0
  0
DICTIONARYVAR
  5
4342
102
{ACAD_REACTORS
330
C08
102
}
330
C08
100
DictionaryVariables
280
     0
  1
0.261799
  0
DICTIONARYVAR
  5
4340
102
{ACAD_REACTORS
330
C08
102
}
330
C08
100
DictionaryVariables
280
     0
  1
0.400000
  0
DICTIONARYVAR
  5
4341
102
{ACAD_REACTORS
330
C08
102
}
330
C08
100
DictionaryVariables
280
     0
  1
0.250000
  0
DICTIONARYVAR
  5
4343
102
{ACAD_REACTORS
330
C08
102
}
330
C08
100
DictionaryVariables
280
     0
  1
1
  0
FIELD
  5
BDE
102
{ACAD_REACTORS
330
57B7
102
}
330
57B7
100
AcDbField
  1
_text
  2
{%<\_FldIdx 0>%N}
 90
        1
360
BDF
 97
        0
 91
       63
 92
        0
 94
       11
 95
        2
 96
        0
300

 93
        1
  6
ACFD_FIELDTEXT_CHECKSUM
 93
        2
 90
        2
140
4484.0
 94
        0
300

302

304
ACVALUE_END
  7
ACFD_FIELD_VALUE
 93
        6
 90
        4
  1
{20181212N}
 94
        0
300

302

304
ACVALUE_END
301
{20181212N}
 98
       11
  0
DICTIONARY
  5
58B8
330
279
100
AcDbDictionary
280
     1
281
     1
  3
ACAD_ROUNDTRIP_2008_TABLESTYLE_CELLSTYLEMAP
360
58B9
  0
FIELD
  5
BDF
330
BDE
100
AcDbField
  1
AcVar
  2
\AcVar Date \f "yyyyMMdd"
 90
        0
 97
        0
 91
       63
 92
        0
 94
        8
 95
       64
 96
        0
300
Variable not supported
 93
        1
  6
Variable
 93
        2
 90
        4
  1
Date
 94
        0
300

302

304
ACVALUE_END
  7
ACFD_FIELD_VALUE
 93
        6
 90
        8
 92
       16
310
E2070C0000000B0012001E003B000000
 94
        0
300
yyyyMMdd
302

304
ACVALUE_END
301
20181212
 98
        8
  0
CELLSTYLEMAP
  5
58B9
102
{ACAD_REACTORS
330
58B8
102
}
330
58B8
100
AcDbCellStyleMap
 90
        3
300
CELLSTYLE
  1
TABLEFORMAT_BEGIN
 90
        5
170
     1
 91
        0
 92
    32768
 62
   257
 93
        1
300
CONTENTFORMAT
  1
CONTENTFORMAT_BEGIN
 90
        0
 91
        0
 92
        4
 93
        0
300

 40
0.0
140
1.0
 94
        5
 62
     0
340
17
144
6.0
309
CONTENTFORMAT_END
171
     1
301
MARGIN
  1
CELLMARGIN_BEGIN
 40
0.06
 40
0.06
 40
0.06
 40
0.06
 40
0.18
 40
0.18
309
CELLMARGIN_END
 94
        6
 95
        1
302
GRIDFORMAT
  1
GRIDFORMAT_BEGIN
 90
        0
 91
        1
 62
     0
 92
       -2
340
0
 93
        0
 40
0.045
309
GRIDFORMAT_END
 95
        2
302
GRIDFORMAT
  1
GRIDFORMAT_BEGIN
 90
        0
 91
        1
 62
     0
 92
       -2
340
0
 93
        0
 40
0.045
309
GRIDFORMAT_END
 95
        4
302
GRIDFORMAT
  1
GRIDFORMAT_BEGIN
 90
        0
 91
        1
 62
     0
 92
       -2
340
0
 93
        0
 40
0.045
309
GRIDFORMAT_END
 95
        8
302
GRIDFORMAT
  1
GRIDFORMAT_BEGIN
 90
        0
 91
        1
 62
     0
 92
       -2
340
0
 93
        0
 40
0.045
309
GRIDFORMAT_END
 95
       16
302
GRIDFORMAT
  1
GRIDFORMAT_BEGIN
 90
        0
 91
        1
 62
     0
 92
       -2
340
0
 93
        0
 40
0.045
309
GRIDFORMAT_END
 95
       32
302
GRIDFORMAT
  1
GRIDFORMAT_BEGIN
 90
        0
 91
        1
 62
     0
 92
       -2
340
0
 93
        0
 40
0.045
309
GRIDFORMAT_END
309
TABLEFORMAT_END
  1
CELLSTYLE_BEGIN
 90
        1
 91
        1
300
_TITLE
309
CELLSTYLE_END
300
CELLSTYLE
  1
TABLEFORMAT_BEGIN
 90
        5
170
     1
 91
        0
 92
        0
 62
   257
 93
        1
300
CONTENTFORMAT
  1
CONTENTFORMAT_BEGIN
 90
        0
 91
        0
 92
        4
 93
        0
300

 40
0.0
140
1.0
 94
        5
 62
     0
340
17
144
4.5
309
CONTENTFORMAT_END
171
     1
301
MARGIN
  1
CELLMARGIN_BEGIN
 40
0.06
 40
0.06
 40
0.06
 40
0.06
 40
0.18
 40
0.18
309
CELLMARGIN_END
 94
        6
 95
        1
302
GRIDFORMAT
  1
GRIDFORMAT_BEGIN
 90
        0
 91
        1
 62
     0
 92
       -2
340
0
 93
        0
 40
0.045
309
GRIDFORMAT_END
 95
        2
302
GRIDFORMAT
  1
GRIDFORMAT_BEGIN
 90
        0
 91
        1
 62
     0
 92
       -2
340
0
 93
        0
 40
0.045
309
GRIDFORMAT_END
 95
        4
302
GRIDFORMAT
  1
GRIDFORMAT_BEGIN
 90
        0
 91
        1
 62
     0
 92
       -2
340
0
 93
        0
 40
0.045
309
GRIDFORMAT_END
 95
        8
302
GRIDFORMAT
  1
GRIDFORMAT_BEGIN
 90
        0
 91
        1
 62
     0
 92
       -2
340
0
 93
        0
 40
0.045
309
GRIDFORMAT_END
 95
       16
302
GRIDFORMAT
  1
GRIDFORMAT_BEGIN
 90
        0
 91
        1
 62
     0
 92
       -2
340
0
 93
        0
 40
0.045
309
GRIDFORMAT_END
 95
       32
302
GRIDFORMAT
  1
GRIDFORMAT_BEGIN
 90
        0
 91
        1
 62
     0
 92
       -2
340
0
 93
        0
 40
0.045
309
GRIDFORMAT_END
309
TABLEFORMAT_END
  1
CELLSTYLE_BEGIN
 90
        2
 91
        1
300
_HEADER
309
CELLSTYLE_END
300
CELLSTYLE
  1
TABLEFORMAT_BEGIN
 90
        5
170
     1
 91
        0
 92
        0
 62
   257
 93
        1
300
CONTENTFORMAT
  1
CONTENTFORMAT_BEGIN
 90
        0
 91
        0
 92
        4
 93
        0
300

 40
0.0
140
1.0
 94
        2
 62
     0
340
17
144
4.5
309
CONTENTFORMAT_END
171
     1
301
MARGIN
  1
CELLMARGIN_BEGIN
 40
0.06
 40
0.06
 40
0.06
 40
0.06
 40
0.18
 40
0.18
309
CELLMARGIN_END
 94
        6
 95
        1
302
GRIDFORMAT
  1
GRIDFORMAT_BEGIN
 90
        0
 91
        1
 62
     0
 92
       -2
340
0
 93
        0
 40
0.045
309
GRIDFORMAT_END
 95
        2
302
GRIDFORMAT
  1
GRIDFORMAT_BEGIN
 90
        0
 91
        1
 62
     0
 92
       -2
340
0
 93
        0
 40
0.045
309
GRIDFORMAT_END
 95
        4
302
GRIDFORMAT
  1
GRIDFORMAT_BEGIN
 90
        0
 91
        1
 62
     0
 92
       -2
340
0
 93
        0
 40
0.045
309
GRIDFORMAT_END
 95
        8
302
GRIDFORMAT
  1
GRIDFORMAT_BEGIN
 90
        0
 91
        1
 62
     0
 92
       -2
340
0
 93
        0
 40
0.045
309
GRIDFORMAT_END
 95
       16
302
GRIDFORMAT
  1
GRIDFORMAT_BEGIN
 90
        0
 91
        1
 62
     0
 92
       -2
340
0
 93
        0
 40
0.045
309
GRIDFORMAT_END
 95
       32
302
GRIDFORMAT
  1
GRIDFORMAT_BEGIN
 90
        0
 91
        1
 62
     0
 92
       -2
340
0
 93
        0
 40
0.045
309
GRIDFORMAT_END
309
TABLEFORMAT_END
  1
CELLSTYLE_BEGIN
 90
        3
 91
        2
300
_DATA
309
CELLSTYLE_END
  0
ENDSEC
  0
EOF
