  0
SECTION
  2
HEADER
  9
$ACADVER
  1
AC1021
  9
$ACADMAINTVER
 70
    25
  9
$DWGCODEPAGE
  3
ANSI_932
  9
$LASTSAVEDBY
  1
howeNelson
  9
$INSBASE
 10
0.0
 20
0.0
 30
0.0
  9
$EXTMIN
 10
0.0
 20
0.0
 30
0.0
  9
$EXTMAX
 10
2100.0
 20
2970.0
 30
34.99521132346015
  9
$LIMMIN
 10
0.0
 20
0.0
  9
$LIMMAX
 10
2100.0
 20
2970.0
  9
$ORTHOMODE
 70
     0
  9
$REGENMODE
 70
     1
  9
$FILLMODE
 70
     1
  9
$QTEXTMODE
 70
     0
  9
$MIRRTEXT
 70
     1
  9
$LTSCALE
 40
5.0
  9
$ATTMODE
 70
     1
  9
$TEXTSIZE
 40
533.0403732820173
  9
$TRACEWID
 40
1.0
  9
$TEXTSTYLE
  7
Standard
  9
$CLAYER
  8
MODEL
  9
$CELTYPE
  6
ByLayer
  9
$CECOLOR
 62
   256
  9
$CELTSCALE
 40
1.0
  9
$DISPSILH
 70
     0
  9
$DIMSCALE
 40
1.0
  9
$DIMASZ
 40
9.999389648437498
  9
$DIMEXO
 40
25.0
  9
$DIMDLI
 40
0.9999999999999999
  9
$DIMRND
 40
0.0
  9
$DIMDLE
 40
0.0
  9
$DIMEXE
 40
0.0
  9
$DIMTP
 40
0.0
  9
$DIMTM
 40
0.0
  9
$DIMTXT
 40
24.4326171875
  9
$DIMCEN
 40
0.0
  9
$DIMTSZ
 40
0.0
  9
$DIMTOL
 70
     0
  9
$DIMLIM
 70
     0
  9
$DIMTIH
 70
     0
  9
$DIMTOH
 70
     0
  9
$DIMSE1
 70
     0
  9
$DIMSE2
 70
     0
  9
$DIMTAD
 70
     1
  9
$DIMZIN
 70
    11
  9
$DIMBLK
  1
DOT
  9
$DIMASO
 70
     1
  9
$DIMSHO
 70
     1
  9
$DIMPOST
  1
<>
  9
$DIMAPOST
  1
[]
  9
$DIMALT
 70
     0
  9
$DIMALTD
 70
     1
  9
$DIMALTF
 40
1.0
  9
$DIMLFAC
 40
1.0
  9
$DIMTOFL
 70
     1
  9
$DIMTVP
 40
0.0
  9
$DIMTIX
 70
     1
  9
$DIMSOXD
 70
     0
  9
$DIMSAH
 70
     0
  9
$DIMBLK1
  1

  9
$DIMBLK2
  1

  9
$DIMSTYLE
  2
tform線あり
  9
$DIMCLRD
 70
     0
  9
$DIMCLRE
 70
     0
  9
$DIMCLRT
 70
     0
  9
$DIMTFAC
 40
0.8
  9
$DIMGAP
 40
10.0
  9
$DIMJUST
 70
     0
  9
$DIMSD1
 70
     0
  9
$DIMSD2
 70
     0
  9
$DIMTOLJ
 70
     1
  9
$DIMTZIN
 70
    11
  9
$DIMALTZ
 70
    11
  9
$DIMALTTZ
 70
    11
  9
$DIMUPT
 70
     0
  9
$DIMDEC
 70
     1
  9
$DIMTDEC
 70
     1
  9
$DIMALTU
 70
     2
  9
$DIMALTTD
 70
     2
  9
$DIMTXSTY
  7
ＭＳ ゴシック
  9
$DIMAUNIT
 70
     0
  9
$DIMADEC
 70
     2
  9
$DIMALTRND
 40
0.0
  9
$DIMAZIN
 70
     0
  9
$DIMDSEP
 70
    46
  9
$DIMATFIT
 70
     0
  9
$DIMFRAC
 70
     2
  9
$DIMLDRBLK
  1
DOT
  9
$DIMLUNIT
 70
     2
  9
$DIMLWD
 70
    -2
  9
$DIMLWE
 70
    -2
  9
$DIMTMOVE
 70
     0
  9
$DIMFXL
 40
1.0
  9
$DIMFXLON
 70
     0
  9
$DIMJOGANG
 40
0.7853981633974483
  9
$DIMTFILL
 70
     0
  9
$DIMTFILLCLR
 70
     0
  9
$DIMARCSYM
 70
     0
  9
$DIMLTYPE
  6

  9
$DIMLTEX1
  6

  9
$DIMLTEX2
  6

  9
$LUNITS
 70
     2
  9
$LUPREC
 70
     0
  9
$SKETCHINC
 40
0.1
  9
$FILLETRAD
 40
0.0
  9
$AUNITS
 70
     0
  9
$AUPREC
 70
     0
  9
$MENU
  1
acad
  9
$ELEVATION
 40
0.0
  9
$PELEVATION
 40
0.0
  9
$THICKNESS
 40
0.0
  9
$LIMCHECK
 70
     0
  9
$CHAMFERA
 40
0.0
  9
$CHAMFERB
 40
0.0
  9
$CHAMFERC
 40
0.0
  9
$CHAMFERD
 40
0.0
  9
$SKPOLY
 70
     0
  9
$TDCREATE
 40
2447893.375
  9
$TDUCREATE
 40
0.0
  9
$TDUPDATE
 40
2458579.76248235
  9
$TDUUPDATE
 40
2458579.38748235
  9
$TDINDWG
 40
0.0
  9
$TDUSRTIMER
 40
0.0
  9
$USRTIMER
 70
     1
  9
$ANGBASE
 50
0.0
  9
$ANGDIR
 70
     0
  9
$PDMODE
 70
     1
  9
$PDSIZE
 40
-2.0
  9
$PLINEWID
 40
0.0
  9
$SPLFRAME
 70
     0
  9
$SPLINETYPE
 70
     6
  9
$SPLINESEGS
 70
     8
  9
$HANDSEED
  5
5F1C
  9
$SURFTAB1
 70
     6
  9
$SURFTAB2
 70
     6
  9
$SURFTYPE
 70
     6
  9
$SURFU
 70
     6
  9
$SURFV
 70
     6
  9
$UCSBASE
  2

  9
$UCSNAME
  2

  9
$UCSORG
 10
0.0
 20
0.0
 30
0.0
  9
$UCSXDIR
 10
1.0
 20
0.0
 30
0.0
  9
$UCSYDIR
 10
0.0
 20
1.0
 30
0.0
  9
$UCSORTHOREF
  2

  9
$UCSORTHOVIEW
 70
     0
  9
$UCSORGTOP
 10
0.0
 20
0.0
 30
0.0
  9
$UCSORGBOTTOM
 10
0.0
 20
0.0
 30
0.0
  9
$UCSORGLEFT
 10
0.0
 20
0.0
 30
0.0
  9
$UCSORGRIGHT
 10
0.0
 20
0.0
 30
0.0
  9
$UCSORGFRONT
 10
0.0
 20
0.0
 30
0.0
  9
$UCSORGBACK
 10
0.0
 20
0.0
 30
0.0
  9
$PUCSBASE
  2

  9
$PUCSNAME
  2

  9
$PUCSORG
 10
0.0
 20
0.0
 30
0.0
  9
$PUCSXDIR
 10
1.0
 20
0.0
 30
0.0
  9
$PUCSYDIR
 10
0.0
 20
1.0
 30
0.0
  9
$PUCSORTHOREF
  2

  9
$PUCSORTHOVIEW
 70
     0
  9
$PUCSORGTOP
 10
0.0
 20
0.0
 30
0.0
  9
$PUCSORGBOTTOM
 10
0.0
 20
0.0
 30
0.0
  9
$PUCSORGLEFT
 10
0.0
 20
0.0
 30
0.0
  9
$PUCSORGRIGHT
 10
0.0
 20
0.0
 30
0.0
  9
$PUCSORGFRONT
 10
0.0
 20
0.0
 30
0.0
  9
$PUCSORGBACK
 10
0.0
 20
0.0
 30
0.0
  9
$USERI1
 70
     0
  9
$USERI2
 70
     0
  9
$USERI3
 70
     0
  9
$USERI4
 70
     0
  9
$USERI5
 70
     0
  9
$USERR1
 40
0.0
  9
$USERR2
 40
0.0
  9
$USERR3
 40
0.0
  9
$USERR4
 40
0.0
  9
$USERR5
 40
0.0
  9
$WORLDVIEW
 70
     1
  9
$SHADEDGE
 70
     3
  9
$SHADEDIF
 70
    70
  9
$TILEMODE
 70
     1
  9
$MAXACTVP
 70
    64
  9
$PINSBASE
 10
0.0
 20
0.0
 30
0.0
  9
$PLIMCHECK
 70
     0
  9
$PEXTMIN
 10
0.0
 20
0.0
 30
0.0
  9
$PEXTMAX
 10
0.0
 20
0.0
 30
0.0
  9
$PLIMMIN
 10
-7.5
 20
-20.0
  9
$PLIMMAX
 10
412.5
 20
277.0
  9
$UNITMODE
 70
     0
  9
$VISRETAIN
 70
     0
  9
$PLINEGEN
 70
     1
  9
$PSLTSCALE
 70
     0
  9
$TREEDEPTH
 70
  3020
  9
$CMLSTYLE
  2
Standard
  9
$CMLJUST
 70
     0
  9
$CMLSCALE
 40
1.0
  9
$PROXYGRAPHICS
 70
     0
  9
$MEASUREMENT
 70
     1
  9
$CELWEIGHT
370
    -1
  9
$ENDCAPS
280
     0
  9
$JOINSTYLE
280
     0
  9
$LWDISPLAY
290
     1
  9
$INSUNITS
 70
     4
  9
$HYPERLINKBASE
  1

  9
$STYLESHEET
  1

  9
$XEDIT
290
     1
  9
$CEPSNTYPE
380
     0
  9
$PSTYLEMODE
290
     1
  9
$FINGERPRINTGUID
  2

  9
$VERSIONGUID
  2

  9
$EXTNAMES
290
     1
  9
$PSVPSCALE
 40
0.0
  9
$OLESTARTUP
290
     0
  9
$SORTENTS
280
   127
  9
$INDEXCTL
280
     0
  9
$HIDETEXT
280
     1
  9
$XCLIPFRAME
290
     0
  9
$HALOGAP
280
     0
  9
$OBSCOLOR
 70
   257
  9
$OBSLTYPE
280
     0
  9
$INTERSECTIONDISPLAY
280
     0
  9
$INTERSECTIONCOLOR
 70
   257
  9
$DIMASSOC
280
     2
  9
$PROJECTNAME
  1

  9
$CAMERADISPLAY
290
     0
  9
$LENSLENGTH
 40
50.0
  9
$CAMERAHEIGHT
 40
0.0
  9
$STEPSPERSEC
 40
2.0
  9
$STEPSIZE
 40
6.0
  9
$3DDWFPREC
 40
2.0
  9
$PSOLWIDTH
 40
0.25
  9
$PSOLHEIGHT
 40
4.0
  9
$LOFTANG1
 40
1.570796326794897
  9
$LOFTANG2
 40
1.570796326794897
  9
$LOFTMAG1
 40
0.0
  9
$LOFTMAG2
 40
0.0
  9
$LOFTPARAM
 70
     7
  9
$LOFTNORMALS
280
     1
  9
$LATITUDE
 40
37.795
  9
$LONGITUDE
 40
-122.394
  9
$NORTHDIRECTION
 40
0.0
  9
$TIMEZONE
 70
 -8000
  9
$LIGHTGLYPHDISPLAY
280
     1
  9
$TILEMODELIGHTSYNCH
280
     1
  9
$SOLIDHIST
280
     1
  9
$SHOWHIST
280
     1
  9
$DWFFRAME
280
     2
  9
$DGNFRAME
280
     2
  9
$REALWORLDSCALE
290
     1
  9
$INTERFERECOLOR
 62
   256
  9
$CSHADOW
280
     0
  9
$SHADOWPLANELOCATION
 40
0.0
  0
ENDSEC
  0
SECTION
  2
CLASSES
  0
CLASS
  1
LWPOLYLINE
  2
AcDbPolyline
  3
ObjectDBX Classes
 90
        0
 91
        1
280
     0
281
     1
  0
CLASS
  1
IMAGE
  2
AcDbRasterImage
  3
ISM
 90
      127
 91
       17
280
     0
281
     1
  0
CLASS
  1
OLE2FRAME
  2
AcDbOle2Frame
  3
ObjectDBX Classes
 90
        0
 91
        1
280
     0
281
     1
  0
CLASS
  1
HATCH
  2
AcDbHatch
  3
ObjectDBX Classes
 90
        0
 91
        1
280
     0
281
     1
  0
CLASS
  1
DICTIONARYVAR
  2
AcDbDictionaryVar
  3
ObjectDBX Classes
 90
        0
 91
       16
280
     0
281
     0
  0
CLASS
  1
RASTERVARIABLES
  2
AcDbRasterVariables
  3
ISM
 90
        0
 91
       16
280
     0
281
     0
  0
CLASS
  1
IMAGEDEF
  2
AcDbRasterImageDef
  3
ISM
 90
        0
 91
       16
280
     0
281
     0
  0
CLASS
  1
IMAGEDEF_REACTOR
  2
AcDbRasterImageDefReactor
  3
ISM
 90
        1
 91
       16
280
     0
281
     0
  0
CLASS
  1
IDBUFFER
  2
AcDbIdBuffer
  3
ObjectDBX Classes
 90
        0
 91
       16
280
     0
281
     0
  0
CLASS
  1
SPATIAL_FILTER
  2
AcDbSpatialFilter
  3
ObjectDBX Classes
 90
        0
 91
       16
280
     0
281
     0
  0
CLASS
  1
XRECORD
  2
AcDbXrecord
  3
ObjectDBX Classes
 90
        0
 91
        1
280
     0
281
     0
  0
CLASS
  1
SORTENTSTABLE
  2
AcDbSortentsTable
  3
ObjectDBX Classes
 90
        0
 91
       16
280
     0
281
     0
  0
CLASS
  1
LAYER_INDEX
  2
AcDbLayerIndex
  3
ObjectDBX Classes
 90
        0
 91
       16
280
     0
281
     0
  0
CLASS
  1
SPATIAL_INDEX
  2
AcDbSpatialIndex
  3
AutoCAD 2000
 90
        0
 91
       16
280
     0
281
     0
  0
CLASS
  1
OBJECT_PTR
  2
CAseDLPNTableRecord
  3
ASE-LPNTableRecord
 90
        1
 91
       16
280
     0
281
     0
  0
CLASS
  1
LAYOUT
  2
AcDbLayout
  3
ObjectDBX Classes
 90
        0
 91
        1
280
     0
281
     0
  0
CLASS
  1
PLOTSETTINGS
  2
AcDbPlotSettings
  3
ObjectDBX Classes
 90
        0
 91
       16
280
     0
281
     0
  0
CLASS
  1
ACDBDICTIONARYWDFLT
  2
AcDbDictionaryWithDefault
  3
ObjectDBX Classes
 90
        0
 91
       16
280
     0
281
     0
  0
CLASS
  1
ACDBPLACEHOLDER
  2
AcDbPlaceHolder
  3
ObjectDBX Classes
 90
        0
 91
        1
280
     0
281
     0
  0
CLASS
  1
SCALE
  2
AcDbScale
  3
ObjectDBX Classes
 90
     1153
 91
       16
280
     0
281
     0
  0
CLASS
  1
MATERIAL
  2
AcDbMaterial
  3
ObjectDBX Classes
 90
     1153
 91
       16
280
     0
281
     0
  0
CLASS
  1
VISUALSTYLE
  2
AcDbVisualStyle
  3
ObjectDBX Classes
 90
     4095
 91
       16
280
     0
281
     0
  0
CLASS
  1
TABLESTYLE
  2
AcDbTableStyle
  3
ObjectDBX Classes
 90
     4095
 91
       16
280
     0
281
     0
  0
CLASS
  1
DIMASSOC
  2
AcDbDimAssoc
  3
"AcDbDimAssoc|Product Desc:     AcDim ARX App For Dimension|Company:          Autodesk, Inc.|WEB Address:      www.autodesk.com"
 90
        0
 91
       16
280
     0
281
     0
  0
CLASS
  1
CELLSTYLEMAP
  2
AcDbCellStyleMap
  3
ObjectDBX Classes
 90
     1152
 91
       16
280
     0
281
     0
  0
CLASS
  1
SUN
  2
AcDbSun
  3
SCENEOE
 90
     1153
 91
       16
280
     0
281
     0
  0
CLASS
  1
MLEADERSTYLE
  2
AcDbMLeaderStyle
  3
ACDB_MLEADERSTYLE_CLASS
 90
     4095
 91
       16
280
     0
281
     0
  0
CLASS
  1
FIELD
  2
AcDbField
  3
ObjectDBX Classes
 90
     1152
 91
       16
280
     0
281
     0
  0
CLASS
  1
FIELDLIST
  2
AcDbFieldList
  3
ObjectDBX Classes
 90
     1152
 91
       16
280
     0
281
     0
  0
CLASS
  1
ACDB_ALDIMOBJECTCONTEXTDATA_CLASS
  2
AcDbAlignedDimensionObjectContextData
  3
ObjectDBX Classes
 90
     1153
 91
       16
280
     0
281
     0
  0
ENDSEC
  0
SECTION
  2
TABLES
  0
TABLE
  2
VPORT
  5
7
330
0
100
AcDbSymbolTable
 70
     1
  0
VPORT
  5
15
330
7
100
AcDbSymbolTableRecord
100
AcDbViewportTableRecord
  2
*ACTIVE
 70
     0
 10
0.0
 20
0.0
 11
1.0
 21
1.0
 12
672.9525617540367
 22
1782.612370234514
 13
0.0
 23
0.0
 14
1.0
 24
1.0
 15
0.0
 25
0.0
 16
0.0
 26
0.0
 36
1.0
 17
377.0474382459633
 27
-297.6123702345144
 37
0.0
 40
3029.4
 41
2.341176470588235
 42
50.0
 43
0.0
 44
0.0
 50
0.0
 51
0.0
 71
    16
 72
  2000
 73
     1
 74
     1
 75
     0
 76
     0
 77
     0
 78
     0
281
     0
 65
     1
110
0.0
120
0.0
130
0.0
111
1.0
121
0.0
131
0.0
112
0.0
122
1.0
132
0.0
 79
     0
146
0.0
348
26C
 60
     3
 61
     5
292
     1
282
     1
141
0.0
142
0.0
 63
   256
361
8C2
  0
ENDTAB
  0
TABLE
  2
LTYPE
  5
4
330
0
100
AcDbSymbolTable
 70
     5
  0
LTYPE
  5
11
330
4
100
AcDbSymbolTableRecord
100
AcDbLinetypeTableRecord
  2
ByBlock
 70
     0
  3

 72
    65
 73
     0
 40
0.0
  0
LTYPE
  5
12
330
4
100
AcDbSymbolTableRecord
100
AcDbLinetypeTableRecord
  2
ByLayer
 70
     0
  3

 72
    65
 73
     0
 40
0.0
  0
LTYPE
  5
13
330
4
100
AcDbSymbolTableRecord
100
AcDbLinetypeTableRecord
  2
Continuous
 70
     0
  3
Solid line
 72
    65
 73
     0
 40
0.0
  0
LTYPE
  5
8D4
330
4
100
AcDbSymbolTableRecord
100
AcDbLinetypeTableRecord
  2
HIDDEN
 70
     0
  3
Hidden _ _ _ _ _ _ _ _ _ _ _ _ _ _ _ _ _ _ _ _ 
 72
    65
 73
     2
 40
9.524999999999999
 49
6.35
 74
     0
 49
-3.175
 74
     0
  0
LTYPE
  5
BF2
330
4
100
AcDbSymbolTableRecord
100
AcDbLinetypeTableRecord
  2
BORDER
 70
     0
  3
Border __  __  . __  __  . __  __  . __  __  . 
 72
    65
 73
     6
 40
44.45
 49
12.7
 74
     0
 49
-6.35
 74
     0
 49
12.7
 74
     0
 49
-6.35
 74
     0
 49
0.0
 74
     0
 49
-6.35
 74
     0
  0
LTYPE
  5
4115
330
4
100
AcDbSymbolTableRecord
100
AcDbLinetypeTableRecord
  2
CENTER
 70
     0
  3
 Center _____  _  _____  _  _____  _  _____  _ 
 72
    65
 73
     4
 40
50.8
 49
31.75
 74
     0
 49
-6.35
 74
     0
 49
6.35
 74
     0
 49
-6.35
 74
     0
  0
LTYPE
  5
4FFD
330
4
100
AcDbSymbolTableRecord
100
AcDbLinetypeTableRecord
  2
HIDDEN2
 70
     0
  3
Hidden (.5x) _ _ _ _ _ _ _ _ _ _ _ _ _ _ _ _ _ 
 72
    65
 73
     2
 40
4.762499999999999
 49
3.175
 74
     0
 49
-1.5875
 74
     0
  0
ENDTAB
  0
TABLE
  2
LAYER
  5
2
102
{ACAD_XDICTIONARY
360
2E1
102
}
330
0
100
AcDbSymbolTable
 70
     9
  0
LAYER
  5
14
330
2
100
AcDbSymbolTableRecord
100
AcDbLayerTableRecord
  2
0
 70
     0
 62
     7
  6
Continuous
370
    -3
390
1D
347
266
  0
LAYER
  5
4A
330
2
100
AcDbSymbolTableRecord
100
AcDbLayerTableRecord
  2
Defpoints
 70
     0
 62
     7
  6
Continuous
290
     0
370
    20
390
1D
347
266
  0
LAYER
  5
4B
330
2
100
AcDbSymbolTableRecord
100
AcDbLayerTableRecord
  2
template
 70
     0
 62
     7
  6
Continuous
370
    20
390
1D
347
266
  0
LAYER
  5
4D
330
2
100
AcDbSymbolTableRecord
100
AcDbLayerTableRecord
  2
MODEL
 70
     0
 62
     7
  6
Continuous
370
    20
390
1D
347
266
  0
LAYER
  5
382
330
2
100
AcDbSymbolTableRecord
100
AcDbLayerTableRecord
  2
レイヤー 1
 70
     0
 62
     7
  6
Continuous
370
    -3
390
1D
347
266
  0
LAYER
  5
5C4
330
2
100
AcDbSymbolTableRecord
100
AcDbLayerTableRecord
  2
HIDDEN
 70
     0
 62
   253
  6
HIDDEN
370
    20
390
1D
347
266
1001
AcAecLayerStandard
1000

1000

  0
LAYER
  5
5EB
330
2
100
AcDbSymbolTableRecord
100
AcDbLayerTableRecord
  2
Dim
 70
     0
 62
     3
  6
Continuous
370
    13
390
1D
347
266
1001
AcAecLayerStandard
1000

1000

  0
LAYER
  5
BF1
330
2
100
AcDbSymbolTableRecord
100
AcDbLayerTableRecord
  2
PRINT BORDER
 70
     0
 62
     4
  6
BORDER
290
     0
370
    20
390
1D
347
266
1001
AcAecLayerStandard
1000

1000

  0
LAYER
  5
1BD2
330
2
100
AcDbSymbolTableRecord
100
AcDbLayerTableRecord
  2
retino
 70
     0
 62
   253
  6
Continuous
370
     0
390
1D
347
266
  0
ENDTAB
  0
TABLE
  2
STYLE
  5
3
330
0
100
AcDbSymbolTable
 70
     2
  0
STYLE
  5
17
330
3
100
AcDbSymbolTableRecord
100
AcDbTextStyleTableRecord
  2
Standard
 70
     0
 40
0.0
 41
1.0
 50
0.0
 71
     0
 42
533.0403732820173
  3
txt
  4
BIGFONT.SHX
  0
STYLE
  5
39
330
3
100
AcDbSymbolTableRecord
100
AcDbTextStyleTableRecord
  2
ＭＳ ゴシック
 70
     0
 40
0.0
 41
1.0
 50
0.0
 71
     0
 42
533.0403732820173
  3
msgothic.ttc
  4
ＭＳ ゴシック
1001
ACAD
1000
ＭＳ ゴシック
1071
        0
  0
ENDTAB
  0
TABLE
  2
VIEW
  5
5
330
0
100
AcDbSymbolTable
 70
     0
  0
ENDTAB
  0
TABLE
  2
UCS
  5
6
330
0
100
AcDbSymbolTable
 70
     0
  0
ENDTAB
  0
TABLE
  2
APPID
  5
8
330
0
100
AcDbSymbolTable
 70
    15
  0
APPID
  5
16
330
8
100
AcDbSymbolTableRecord
100
AcDbRegAppTableRecord
  2
ACAD
 70
     0
  0
APPID
  5
5C5
330
8
100
AcDbSymbolTableRecord
100
AcDbRegAppTableRecord
  2
AcAecLayerStandard
 70
     0
  0
APPID
  5
913
330
8
100
AcDbSymbolTableRecord
100
AcDbRegAppTableRecord
  2
ACAD_DSTYLE_DIMBREAK
 70
     0
  0
APPID
  5
914
330
8
100
AcDbSymbolTableRecord
100
AcDbRegAppTableRecord
  2
ACAD_DSTYLE_DIMJAG
 70
     0
  0
APPID
  5
915
330
8
100
AcDbSymbolTableRecord
100
AcDbRegAppTableRecord
  2
ACAD_DSTYLE_DIMTALN
 70
     0
  0
APPID
  5
E4F
330
8
100
AcDbSymbolTableRecord
100
AcDbRegAppTableRecord
  2
ACAD_MLEADERVER
 70
     0
  0
APPID
  5
E79
330
8
100
AcDbSymbolTableRecord
100
AcDbRegAppTableRecord
  2
ACAD_PSEXT
 70
     0
  0
APPID
  5
E7A
330
8
100
AcDbSymbolTableRecord
100
AcDbRegAppTableRecord
  2
ACAD_NAV_VCDISPLAY
 70
     0
  0
APPID
  5
166E
330
8
100
AcDbSymbolTableRecord
100
AcDbRegAppTableRecord
  2
AcadAnnotative
 70
     0
  0
APPID
  5
166F
330
8
100
AcDbSymbolTableRecord
100
AcDbRegAppTableRecord
  2
GradientColor1ACI
 70
     0
  0
APPID
  5
1670
330
8
100
AcDbSymbolTableRecord
100
AcDbRegAppTableRecord
  2
GradientColor2ACI
 70
     0
  0
APPID
  5
20FE
330
8
100
AcDbSymbolTableRecord
100
AcDbRegAppTableRecord
  2
AcLayerTools
 70
     0
  0
APPID
  5
27AB
330
8
100
AcDbSymbolTableRecord
100
AcDbRegAppTableRecord
  2
ACAD_DSTYLE_DIMRADIAL_EXTENSION
 70
     0
  0
APPID
  5
4377
330
8
100
AcDbSymbolTableRecord
100
AcDbRegAppTableRecord
  2
RAK
 70
     0
  0
APPID
  5
500B
330
8
100
AcDbSymbolTableRecord
100
AcDbRegAppTableRecord
  2
AcadAnnoAV
 70
     0
  0
ENDTAB
  0
TABLE
  2
DIMSTYLE
  5
9
330
0
100
AcDbSymbolTable
 70
     2
100
AcDbDimStyleTable
  0
DIMSTYLE
105
18
330
9
100
AcDbSymbolTableRecord
100
AcDbDimStyleTableRecord
  2
Standard
 70
     0
178
     0
340
17
  0
DIMSTYLE
105
56
102
{ACAD_REACTORS
330
59E7
330
59E9
330
5A6C
330
5A6D
330
5A6F
330
5A70
330
5A72
330
5A74
330
5A75
330
5B2C
330
5B4A
330
5C2A
330
5C46
330
5C61
330
5C6F
330
5C82
330
5C8F
330
5CDD
330
5DCE
330
5DF3
330
5E02
330
5EDC
102
}
330
9
100
AcDbSymbolTableRecord
100
AcDbDimStyleTableRecord
  2
tform線あり
 70
     0
  3
<>
  4
[]
 41
9.999389648437498
 42
25.0
 43
0.9999999999999999
 44
0.0
 73
     0
 74
     0
 77
     1
 78
    11
140
24.4326171875
141
0.0
143
1.0
146
0.8
147
10.0
171
     1
172
     1
174
     1
178
     0
179
     2
271
     1
272
     1
276
     2
284
    11
285
    11
286
    11
289
     0
340
39
341
4E
342
4E
  0
ENDTAB
  0
TABLE
  2
BLOCK_RECORD
  5
1
330
0
100
AcDbSymbolTable
 70
    33
  0
BLOCK_RECORD
  5
A
102
{ACAD_XDICTIONARY
360
560A
102
}
330
1
100
AcDbSymbolTableRecord
100
AcDbBlockTableRecord
  2
*MODEL_SPACE
340
20
 70
     0
280
     1
281
     0
  0
BLOCK_RECORD
  5
B
330
1
100
AcDbSymbolTableRecord
100
AcDbBlockTableRecord
  2
*PAPER_SPACE
340
21
 70
     0
280
     1
281
     0
  0
BLOCK_RECORD
  5
4E
330
1
100
AcDbSymbolTableRecord
100
AcDbBlockTableRecord
  2
_DOT
340
0
102
{BLKREFS
331
5A7C
331
5A7D
331
5A90
331
5A91
331
5AAE
331
5AAF
331
5AB8
331
5AB9
331
5AC2
331
5AC3
331
5ACC
331
5ACD
331
5AD6
331
5AD7
331
5AEA
331
5AEB
331
5AFE
331
5AFF
331
5B08
331
5B09
331
5B35
331
5B36
331
5B51
331
5B52
331
5C33
331
5C34
331
5C4D
331
5C4E
331
5C68
331
5C69
331
5C78
331
5C79
331
5C89
331
5C8A
331
5C98
331
5C99
331
5CE4
331
5CE5
331
5DD5
331
5DD6
331
5DFC
331
5DFD
331
5E0B
331
5E0C
331
5EE7
331
5EE8
102
}
 70
     0
280
     1
281
     0
  0
BLOCK_RECORD
  5
3A5
330
1
100
AcDbSymbolTableRecord
100
AcDbBlockTableRecord
  2
名称未設定-1
340
0
102
{BLKREFS
331
3D0
102
}
 70
     1
280
     1
281
     0
  0
BLOCK_RECORD
  5
3A8
330
1
100
AcDbSymbolTableRecord
100
AcDbBlockTableRecord
  2
block 2
340
0
102
{BLKREFS
331
3A7
102
}
 70
     0
280
     1
281
     0
  0
BLOCK_RECORD
  5
3AB
330
1
100
AcDbSymbolTableRecord
100
AcDbBlockTableRecord
  2
block 3
340
0
102
{BLKREFS
331
3AA
102
}
 70
     0
280
     1
281
     0
  0
BLOCK_RECORD
  5
3AE
330
1
100
AcDbSymbolTableRecord
100
AcDbBlockTableRecord
  2
block 4
340
0
102
{BLKREFS
331
3AD
102
}
 70
     0
280
     1
281
     0
  0
BLOCK_RECORD
  5
3BD
330
1
100
AcDbSymbolTableRecord
100
AcDbBlockTableRecord
  2
block 5
340
0
102
{BLKREFS
331
3BC
102
}
 70
     0
280
     1
281
     0
  0
BLOCK_RECORD
  5
11F0
330
1
100
AcDbSymbolTableRecord
100
AcDbBlockTableRecord
  2
BLOCK_2
340
0
102
{BLKREFS
331
1273
331
127B
331
127C
102
}
 70
     0
280
     1
281
     0
  0
BLOCK_RECORD
  5
38B6
330
1
100
AcDbSymbolTableRecord
100
AcDbBlockTableRecord
  2
mobile_latù
340
0
310
2800000020000000200000000100080000000000000400000000000000000000000000000000000000000000000080000080000000808000800000008000800080800000C0C0C000C0DCC000F0CAA6000020400000206000002080000020A0000020C0000020E00000400000004020000040400000406000004080000040A0
310
000040C0000040E00000600000006020000060400000606000006080000060A0000060C0000060E00000800000008020000080400000806000008080000080A0000080C0000080E00000A0000000A0200000A0400000A0600000A0800000A0A00000A0C00000A0E00000C0000000C0200000C0400000C0600000C0800000C0
310
A00000C0C00000C0E00000E0000000E0200000E0400000E0600000E0800000E0A00000E0C00000E0E00040000000400020004000400040006000400080004000A0004000C0004000E00040200000402020004020400040206000402080004020A0004020C0004020E000404000004040200040404000404060004040800040
310
40A0004040C0004040E00040600000406020004060400040606000406080004060A0004060C0004060E00040800000408020004080400040806000408080004080A0004080C0004080E00040A0000040A0200040A0400040A0600040A0800040A0A00040A0C00040A0E00040C0000040C0200040C0400040C0600040C08000
310
40C0A00040C0C00040C0E00040E0000040E0200040E0400040E0600040E0800040E0A00040E0C00040E0E00080000000800020008000400080006000800080008000A0008000C0008000E00080200000802020008020400080206000802080008020A0008020C0008020E00080400000804020008040400080406000804080
310
008040A0008040C0008040E00080600000806020008060400080606000806080008060A0008060C0008060E00080800000808020008080400080806000808080008080A0008080C0008080E00080A0000080A0200080A0400080A0600080A0800080A0A00080A0C00080A0E00080C0000080C0200080C0400080C0600080C0
310
800080C0A00080C0C00080C0E00080E0000080E0200080E0400080E0600080E0800080E0A00080E0C00080E0E000C0000000C0002000C0004000C0006000C0008000C000A000C000C000C000E000C0200000C0202000C0204000C0206000C0208000C020A000C020C000C020E000C0400000C0402000C0404000C0406000C0
310
408000C040A000C040C000C040E000C0600000C0602000C0604000C0606000C0608000C060A000C060C000C060E000C0800000C0802000C0804000C0806000C0808000C080A000C080C000C080E000C0A00000C0A02000C0A04000C0A06000C0A08000C0A0A000C0A0C000C0A0E000C0C00000C0C02000C0C04000C0C06000
310
C0C08000C0C0A000F0FBFF00A4A0A000808080000000FF0000FF000000FFFF00FF000000FF00FF00FFFF0000FFFFFF0049494949494949494949494949494949494949494949494949494949494949494949494949494949494949494949494949494949494949494949494949494949494949494949494949494949494949
310
49494949494949494949494949494949494949494949494949494949494949494949494949494949494949494949494949494949494949494949494949494949494949494949494949494949494949494949FAFAFAFAFAFAFAFAFAFAFAFAFAFAFAFAFAFAFAFAFAFAFAFAFAFAFAFAFAFA4949FAFA4949494949494949494949
310
494949494949494949494949494949FAFA4949FAFA4949494949494949494949494949494949494949494949494949FAFA4949FAFA4949494949494949494949494949494949494949494949494949FAFA4949FAFA4949494949494949494949494949494949494949494949494949FAFA4949FAFA49494949494949494949
310
49494949494949494949494949494949FAFA4949FAFA4949494949494949494949494949494949494949494949494949FAFA4949FAFA4949494949494949494949494949494949494949494949494949FAFA4949FAFA4949494949494949494949494949494949494949494949494949FAFA4949FAFA494949494949494949
310
4949494949494949494949494949494949FAFA4949FAFA4949494949494949494949494949494949494949494949494949FAFA4949FAFA4949494949494949494949494949494949494949494949494949FAFA4949FAFA4949494949494949494949494949494949494949494949494949FAFA4949FAFA4949494949494949
310
494949494949494949494949494949494949FAFA4949FAFA4949494949494949494949494949494949494949494949494949FAFA4949FAFA4949494949494949494949494949494949494949494949494949FAFA4949FAFA4949494949494949494949494949494949494949494949494949FAFA4949FAFA49494949494949
310
49494949494949494949494949494949494949FAFA4949FAFAFAFAFAFAFAFAFAFAFAFAFAFAFAFAFAFAFAFAFAFAFAFAFAFAFAFAFAFA4949FAFAFAFAFAFAFAFAFAFAFAFAFAFAFAFAFAFAFAFAFAFAFAFAFAFAFAFAFAFA4949FAFA4949494949494949494949494949494949494949494949494949FAFA4949FAFAFAFAFAFAFAFA
310
FAFAFAFAFAFAFAFAFAFAFAFAFAFAFAFAFAFAFAFAFAFA494949494949494949494949494949494949494949494949494949494949494949494949494949494949494949494949494949494949494949494949494949494949494949494949494949494949494949494949494949494949494949494949494949494949494949
310
4949494949494949494949494949494949494949494949494949494949494949494949494949494949494949494949494949494949494949
102
{BLKREFS
331
3B99
331
467E
331
527B
102
}
 70
     4
280
     1
281
     0
  0
BLOCK_RECORD
  5
5039
330
1
100
AcDbSymbolTableRecord
100
AcDbBlockTableRecord
  2
.TD_SECTION_1
340
0
102
{BLKREFS
331
527C
331
527E
331
5280
331
5282
331
5284
331
5286
102
}
 70
     0
280
     1
281
     0
  0
BLOCK_RECORD
  5
503D
330
1
100
AcDbSymbolTableRecord
100
AcDbBlockTableRecord
  2
.TD_SECTION_2
340
0
102
{BLKREFS
331
527D
331
527F
331
5281
331
5283
331
5285
331
5287
102
}
 70
     0
280
     1
281
     0
  0
BLOCK_RECORD
  5
5A76
330
1
100
AcDbSymbolTableRecord
100
AcDbBlockTableRecord
  2
*D10
340
0
 70
     0
280
     1
281
     0
  0
BLOCK_RECORD
  5
5A8A
330
1
100
AcDbSymbolTableRecord
100
AcDbBlockTableRecord
  2
*D11
340
0
 70
     0
280
     1
281
     0
  0
BLOCK_RECORD
  5
5AA8
330
1
100
AcDbSymbolTableRecord
100
AcDbBlockTableRecord
  2
*D12
340
0
 70
     0
280
     1
281
     0
  0
BLOCK_RECORD
  5
5AB2
330
1
100
AcDbSymbolTableRecord
100
AcDbBlockTableRecord
  2
*D13
340
0
 70
     0
280
     1
281
     0
  0
BLOCK_RECORD
  5
5ABC
330
1
100
AcDbSymbolTableRecord
100
AcDbBlockTableRecord
  2
*D14
340
0
 70
     0
280
     1
281
     0
  0
BLOCK_RECORD
  5
5AC6
330
1
100
AcDbSymbolTableRecord
100
AcDbBlockTableRecord
  2
*D15
340
0
 70
     0
280
     1
281
     0
  0
BLOCK_RECORD
  5
5AD0
330
1
100
AcDbSymbolTableRecord
100
AcDbBlockTableRecord
  2
*D16
340
0
 70
     0
280
     1
281
     0
  0
BLOCK_RECORD
  5
5AE4
330
1
100
AcDbSymbolTableRecord
100
AcDbBlockTableRecord
  2
*D17
340
0
 70
     0
280
     1
281
     0
  0
BLOCK_RECORD
  5
5AF8
330
1
100
AcDbSymbolTableRecord
100
AcDbBlockTableRecord
  2
*D18
340
0
 70
     0
280
     1
281
     0
  0
BLOCK_RECORD
  5
5B02
330
1
100
AcDbSymbolTableRecord
100
AcDbBlockTableRecord
  2
*D19
340
0
 70
     0
280
     1
281
     0
  0
BLOCK_RECORD
  5
5B2F
330
1
100
AcDbSymbolTableRecord
100
AcDbBlockTableRecord
  2
*D20
340
0
 70
     0
280
     1
281
     0
  0
BLOCK_RECORD
  5
5B4B
330
1
100
AcDbSymbolTableRecord
100
AcDbBlockTableRecord
  2
*D21
340
0
 70
     0
280
     1
281
     0
  0
BLOCK_RECORD
  5
5C2D
330
1
100
AcDbSymbolTableRecord
100
AcDbBlockTableRecord
  2
*D22
340
0
 70
     0
280
     1
281
     0
  0
BLOCK_RECORD
  5
5C47
330
1
100
AcDbSymbolTableRecord
100
AcDbBlockTableRecord
  2
*D23
340
0
 70
     0
280
     1
281
     0
  0
BLOCK_RECORD
  5
5C62
330
1
100
AcDbSymbolTableRecord
100
AcDbBlockTableRecord
  2
*D24
340
0
 70
     0
280
     1
281
     0
  0
BLOCK_RECORD
  5
5C72
330
1
100
AcDbSymbolTableRecord
100
AcDbBlockTableRecord
  2
*D25
340
0
 70
     0
280
     1
281
     0
  0
BLOCK_RECORD
  5
5C83
330
1
100
AcDbSymbolTableRecord
100
AcDbBlockTableRecord
  2
*D26
340
0
 70
     0
280
     1
281
     0
  0
BLOCK_RECORD
  5
5C92
330
1
100
AcDbSymbolTableRecord
100
AcDbBlockTableRecord
  2
*D27
340
0
 70
     0
280
     1
281
     0
  0
BLOCK_RECORD
  5
5CDE
330
1
100
AcDbSymbolTableRecord
100
AcDbBlockTableRecord
  2
*D28
340
0
 70
     0
280
     1
281
     0
  0
BLOCK_RECORD
  5
5DCF
330
1
100
AcDbSymbolTableRecord
100
AcDbBlockTableRecord
  2
*D29
340
0
 70
     0
280
     1
281
     0
  0
BLOCK_RECORD
  5
5DF6
330
1
100
AcDbSymbolTableRecord
100
AcDbBlockTableRecord
  2
*D30
340
0
 70
     0
280
     1
281
     0
  0
BLOCK_RECORD
  5
5E05
330
1
100
AcDbSymbolTableRecord
100
AcDbBlockTableRecord
  2
*D31
340
0
 70
     0
280
     1
281
     0
  0
BLOCK_RECORD
  5
5EDF
330
1
100
AcDbSymbolTableRecord
100
AcDbBlockTableRecord
  2
*D32
340
0
 70
     0
280
     1
281
     0
  0
ENDTAB
  0
ENDSEC
  0
SECTION
  2
BLOCKS
  0
BLOCK
  5
D
330
A
100
AcDbEntity
  8
0
390
1D
100
AcDbBlockBegin
  2
*MODEL_SPACE
 70
     0
 10
0.0
 20
0.0
 30
0.0
  3
*MODEL_SPACE
  1
*MODEL_SPACE
  0
ENDBLK
  5
E
330
A
100
AcDbEntity
  8
0
390
1D
100
AcDbBlockEnd
  0
BLOCK
  5
F
330
B
100
AcDbEntity
 67
     1
  8
0
390
1D
100
AcDbBlockBegin
  2
*PAPER_SPACE
 70
     0
 10
0.0
 20
0.0
 30
0.0
  3
*PAPER_SPACE
  1
*PAPER_SPACE
  0
ENDBLK
  5
10
330
B
100
AcDbEntity
 67
     1
  8
0
390
1D
100
AcDbBlockEnd
  0
BLOCK
  5
2C14
330
4E
100
AcDbEntity
  8
0
390
1D
100
AcDbBlockBegin
  2
_DOT
 70
     0
 10
0.0
 20
0.0
 30
0.0
  3
_DOT
  1
_DOT
  0
POLYLINE
  5
2C16
330
4E
100
AcDbEntity
  8
0
  6
ByBlock
 62
     0
370
    -2
390
1D
100
AcDb2dPolyline
 66
     1
 10
0.0
 20
0.0
 30
0.0
 70
     1
 40
0.5
 41
0.5
  0
VERTEX
  5
2C17
330
2C16
100
AcDbEntity
  8
0
  6
ByBlock
 62
     0
370
    -2
390
1D
100
AcDbVertex
100
AcDb2dVertex
 10
-0.25
 20
0.0
 30
0.0
 42
1.0
  0
VERTEX
  5
2C18
330
2C16
100
AcDbEntity
  8
0
  6
ByBlock
 62
     0
370
    -2
390
1D
100
AcDbVertex
100
AcDb2dVertex
 10
0.25
 20
0.0
 30
0.0
 42
1.0
  0
SEQEND
  5
2C19
330
2C16
100
AcDbEntity
  8
0
390
1D
  0
LINE
  5
2C1A
330
4E
100
AcDbEntity
  8
0
  6
ByBlock
 62
     0
370
    -2
390
1D
100
AcDbLine
 10
-0.5
 20
0.0
 30
0.0
 11
-1.0
 21
0.0
 31
0.0
  0
ENDBLK
  5
2C1B
330
4E
100
AcDbEntity
  8
0
390
1D
100
AcDbBlockEnd
  0
BLOCK
  5
3A6
330
3A5
100
AcDbEntity
  8
0
100
AcDbBlockBegin
  2
名称未設定-1
 70
     0
 10
0.0
 20
0.0
 30
0.0
  3
名称未設定-1
  1
名称未設定-1
  0
INSERT
  5
3A7
330
3A5
100
AcDbEntity
  8
レイヤー 1
100
AcDbBlockReference
  2
block 2
 10
0.0
 20
0.0
 30
0.0
  0
ENDBLK
  5
3CC
330
3A5
100
AcDbEntity
  8
0
100
AcDbBlockEnd
  0
BLOCK
  5
3A9
330
3A8
100
AcDbEntity
  8
0
100
AcDbBlockBegin
  2
block 2
 70
     0
 10
0.0
 20
0.0
 30
0.0
  3
block 2
  1
block 2
  0
INSERT
  5
3AA
330
3A8
100
AcDbEntity
  8
レイヤー 1
100
AcDbBlockReference
  2
block 3
 10
0.0
 20
0.0
 30
0.0
  0
ENDBLK
  5
3CB
330
3A8
100
AcDbEntity
  8
0
100
AcDbBlockEnd
  0
BLOCK
  5
3AC
330
3AB
100
AcDbEntity
  8
0
100
AcDbBlockBegin
  2
block 3
 70
     0
 10
0.0
 20
0.0
 30
0.0
  3
block 3
  1
block 3
  0
INSERT
  5
3AD
330
3AB
100
AcDbEntity
  8
レイヤー 1
100
AcDbBlockReference
  2
block 4
 10
0.0
 20
0.0
 30
0.0
  0
ENDBLK
  5
3CA
330
3AB
100
AcDbEntity
  8
0
100
AcDbBlockEnd
  0
BLOCK
  5
3AF
330
3AE
100
AcDbEntity
  8
0
100
AcDbBlockBegin
  2
block 4
 70
     0
 10
0.0
 20
0.0
 30
0.0
  3
block 4
  1
block 4
  0
POLYLINE
  5
3B0
330
3AE
100
AcDbEntity
  8
レイヤー 1
370
     0
100
AcDb2dPolyline
 66
     1
 10
0.0
 20
0.0
 30
0.0
  0
VERTEX
  5
3B1
330
3B0
100
AcDbEntity
  8
レイヤー 1
370
     0
100
AcDbVertex
100
AcDb2dVertex
 10
83.79545727667795
 20
167.6444858234922
 30
0.0
  0
VERTEX
  5
3B2
330
3B0
100
AcDbEntity
  8
レイヤー 1
370
     0
100
AcDbVertex
100
AcDb2dVertex
 10
83.79545727667795
 20
159.7968976406313
 30
0.0
  0
VERTEX
  5
3B3
330
3B0
100
AcDbEntity
  8
レイヤー 1
370
     0
100
AcDbVertex
100
AcDb2dVertex
 10
71.3631329975216
 20
159.7968976406313
 30
0.0
  0
VERTEX
  5
3B4
330
3B0
100
AcDbEntity
  8
レイヤー 1
370
     0
100
AcDbVertex
100
AcDb2dVertex
 10
71.3631329975216
 20
127.8027915271048
 30
0.0
  0
VERTEX
  5
3B5
330
3B0
100
AcDbEntity
  8
レイヤー 1
370
     0
100
AcDbVertex
100
AcDb2dVertex
 10
60.43011526263018
 20
127.8027915271048
 30
0.0
  0
VERTEX
  5
3B6
330
3B0
100
AcDbEntity
  8
レイヤー 1
370
     0
100
AcDbVertex
100
AcDb2dVertex
 10
60.43011526263018
 20
159.7968976406313
 30
0.0
  0
VERTEX
  5
3B7
330
3B0
100
AcDbEntity
  8
レイヤー 1
370
     0
100
AcDbVertex
100
AcDb2dVertex
 10
48.21793273020759
 20
159.7968976406313
 30
0.0
  0
VERTEX
  5
3B8
330
3B0
100
AcDbEntity
  8
レイヤー 1
370
     0
100
AcDbVertex
100
AcDb2dVertex
 10
48.21793273020759
 20
167.6444858234922
 30
0.0
  0
VERTEX
  5
3B9
330
3B0
100
AcDbEntity
  8
レイヤー 1
370
     0
100
AcDbVertex
100
AcDb2dVertex
 10
83.79545727667795
 20
167.6444858234922
 30
0.0
  0
SEQEND
  5
3BA
330
3B0
100
AcDbEntity
  8
レイヤー 1
370
     0
  0
HATCH
  5
3BB
330
3AE
100
AcDbEntity
  8
レイヤー 1
 62
   250
420
  2234388
100
AcDbHatch
 10
0.0
 20
0.0
 30
0.0
210
0.0
220
0.0
230
1.0
  2
SOLID
 70
     1
 71
     0
 91
        1
 92
        1
 93
        8
 72
     1
 10
83.79545727667795
 20
167.6444858234922
 11
83.79545727667795
 21
159.7968976406313
 72
     1
 10
83.79545727667795
 20
159.7968976406313
 11
71.3631329975216
 21
159.7968976406313
 72
     1
 10
71.3631329975216
 20
159.7968976406313
 11
71.3631329975216
 21
127.8027915271048
 72
     1
 10
71.3631329975216
 20
127.8027915271048
 11
60.43011526263018
 21
127.8027915271048
 72
     1
 10
60.43011526263018
 20
127.8027915271048
 11
60.43011526263018
 21
159.7968976406313
 72
     1
 10
60.43011526263018
 20
159.7968976406313
 11
48.21793273020759
 21
159.7968976406313
 72
     1
 10
48.21793273020759
 20
159.7968976406313
 11
48.21793273020759
 21
167.6444858234922
 72
     1
 10
48.21793273020759
 20
167.6444858234922
 11
83.79545727667795
 21
167.6444858234922
 97
        0
 75
     2
 76
     1
 98
        0
  0
INSERT
  5
3BC
330
3AE
100
AcDbEntity
  8
レイヤー 1
100
AcDbBlockReference
  2
block 5
 10
0.0
 20
0.0
 30
0.0
  0
ENDBLK
  5
3C9
330
3AE
100
AcDbEntity
  8
0
100
AcDbBlockEnd
  0
BLOCK
  5
3BE
330
3BD
100
AcDbEntity
  8
0
100
AcDbBlockBegin
  2
block 5
 70
     0
 10
0.0
 20
0.0
 30
0.0
  3
block 5
  1
block 5
  0
SPLINE
  5
3BF
330
3BD
100
AcDbEntity
  8
レイヤー 1
370
     0
100
AcDbSpline
210
0.0
220
0.0
230
1.0
 70
    11
 71
     3
 72
    56
 73
    52
 74
     0
 42
0.000000001
 43
0.0000000001
 40
0.0
 40
0.0
 40
0.0
 40
0.0
 40
1.0
 40
1.0
 40
1.0
 40
2.0
 40
2.0
 40
2.0
 40
3.0
 40
3.0
 40
3.0
 40
4.0
 40
4.0
 40
4.0
 40
5.0
 40
5.0
 40
5.0
 40
6.0
 40
6.0
 40
6.0
 40
7.0
 40
7.0
 40
7.0
 40
8.0
 40
8.0
 40
8.0
 40
9.0
 40
9.0
 40
9.0
 40
10.0
 40
10.0
 40
10.0
 40
11.0
 40
11.0
 40
11.0
 40
12.0
 40
12.0
 40
12.0
 40
13.0
 40
13.0
 40
13.0
 40
14.0
 40
14.0
 40
14.0
 40
15.0
 40
15.0
 40
15.0
 40
16.0
 40
16.0
 40
16.0
 40
17.0
 40
17.0
 40
17.0
 40
17.0
 10
100.4504378777679
 20
166.69157178364
 30
0.0
 10
101.9848844191641
 20
167.1313385124438
 30
0.0
 10
103.9637485713373
 20
166.7649523658846
 30
0.0
 10
103.9637485713373
 20
166.7649523658846
 30
0.0
 10
103.9637485713373
 20
166.7649523658846
 30
0.0
 10
103.0132460999156
 20
163.911205638077
 30
0.0
 10
103.0132460999156
 20
163.911205638077
 30
0.0
 10
103.0132460999156
 20
163.911205638077
 30
0.0
 10
101.0674548862189
 20
164.3601018759394
 30
0.0
 10
99.57090442016032
 20
163.1805004036133
 30
0.0
 10
98.40508333886608
 20
162.258247733807
 30
0.0
 10
97.65301849830304
 20
159.804132345923
 30
0.0
 10
97.3598406791005
 20
158.8699940888517
 30
0.0
 10
97.3598406791005
 20
158.8699940888517
 30
0.0
 10
96.07137411762282
 20
154.9119212747295
 30
0.0
 10
96.07137411762282
 20
154.9119212747295
 30
0.0
 10
96.07137411762282
 20
154.9119212747295
 30
0.0
 10
100.3012651448482
 20
154.9119212747295
 30
0.0
 10
100.3012651448482
 20
154.9119212747295
 30
0.0
 10
100.3012651448482
 20
154.9119212747295
 30
0.0
 10
99.64152892419852
 20
152.4199098115079
 30
0.0
 10
99.64152892419852
 20
152.4199098115079
 30
0.0
 10
99.64152892419852
 20
152.4199098115079
 30
0.0
 10
95.38097652692731
 20
152.4199098115079
 30
0.0
 10
95.38097652692731
 20
152.4199098115079
 30
0.0
 10
95.38097652692731
 20
152.4199098115079
 30
0.0
 10
87.75353009080013
 20
127.8027915271048
 30
0.0
 10
87.75353009080013
 20
127.8027915271048
 30
0.0
 10
87.75353009080013
 20
127.8027915271048
 30
0.0
 10
85.36538832498108
 20
127.8027915271048
 30
0.0
 10
85.36538832498108
 20
127.8027915271048
 30
0.0
 10
85.36538832498108
 20
127.8027915271048
 30
0.0
 10
93.00006946639998
 20
152.4199098115079
 30
0.0
 10
93.00006946639998
 20
152.4199098115079
 30
0.0
 10
93.00006946639998
 20
152.4199098115079
 30
0.0
 10
89.85297266450198
 20
152.4199098115079
 30
0.0
 10
89.85297266450198
 20
152.4199098115079
 30
0.0
 10
89.85297266450198
 20
152.4199098115079
 30
0.0
 10
90.51270888515164
 20
154.9119212747295
 30
0.0
 10
90.51270888515164
 20
154.9119212747295
 30
0.0
 10
90.51270888515164
 20
154.9119212747295
 30
0.0
 10
93.6904670570955
 20
154.9119212747295
 30
0.0
 10
93.6904670570955
 20
154.9119212747295
 30
0.0
 10
93.6904670570955
 20
154.9119212747295
 30
0.0
 10
94.81598049462158
 20
158.3616699146644
 30
0.0
 10
94.81598049462158
 20
158.3616699146644
 30
0.0
 10
95.7237637538445
 20
161.2605474231013
 30
0.0
 10
96.4968436907311
 20
162.8139420021662
 30
0.0
 10
97.15657991138076
 20
163.9844139654337
 30
0.0
 10
97.81183750494507
 20
165.1523021053827
 30
0.0
 10
99.1047826935081
 20
166.3084769129547
 30
0.0
 10
100.4504378777679
 20
166.69157178364
 30
0.0
  0
HATCH
  5
3C0
330
3BD
100
AcDbEntity
  8
レイヤー 1
 62
   250
420
  2234388
100
AcDbHatch
 10
0.0
 20
0.0
 30
0.0
210
0.0
220
0.0
230
1.0
  2
SOLID
 70
     1
 71
     0
 91
        1
 92
        1
 93
        1
 72
     4
 94
        3
 73
     0
 74
     1
 95
       56
 96
       52
 40
0.0
 40
0.0
 40
0.0
 40
0.0
 40
1.0
 40
1.0
 40
1.0
 40
2.0
 40
2.0
 40
2.0
 40
3.0
 40
3.0
 40
3.0
 40
4.0
 40
4.0
 40
4.0
 40
5.0
 40
5.0
 40
5.0
 40
6.0
 40
6.0
 40
6.0
 40
7.0
 40
7.0
 40
7.0
 40
8.0
 40
8.0
 40
8.0
 40
9.0
 40
9.0
 40
9.0
 40
10.0
 40
10.0
 40
10.0
 40
11.0
 40
11.0
 40
11.0
 40
12.0
 40
12.0
 40
12.0
 40
13.0
 40
13.0
 40
13.0
 40
14.0
 40
14.0
 40
14.0
 40
15.0
 40
15.0
 40
15.0
 40
16.0
 40
16.0
 40
16.0
 40
17.0
 40
17.0
 40
17.0
 40
17.0
 10
100.4504378777679
 20
166.69157178364
 10
101.9848844191641
 20
167.1313385124438
 10
103.9637485713373
 20
166.7649523658846
 10
103.9637485713373
 20
166.7649523658846
 10
103.9637485713373
 20
166.7649523658846
 10
103.0132460999156
 20
163.911205638077
 10
103.0132460999156
 20
163.911205638077
 10
103.0132460999156
 20
163.911205638077
 10
101.0674548862189
 20
164.3601018759394
 10
99.57090442016032
 20
163.1805004036133
 10
98.40508333886608
 20
162.258247733807
 10
97.65301849830304
 20
159.804132345923
 10
97.3598406791005
 20
158.8699940888517
 10
97.3598406791005
 20
158.8699940888517
 10
96.07137411762282
 20
154.9119212747295
 10
96.07137411762282
 20
154.9119212747295
 10
96.07137411762282
 20
154.9119212747295
 10
100.3012651448482
 20
154.9119212747295
 10
100.3012651448482
 20
154.9119212747295
 10
100.3012651448482
 20
154.9119212747295
 10
99.64152892419852
 20
152.4199098115079
 10
99.64152892419852
 20
152.4199098115079
 10
99.64152892419852
 20
152.4199098115079
 10
95.38097652692731
 20
152.4199098115079
 10
95.38097652692731
 20
152.4199098115079
 10
95.38097652692731
 20
152.4199098115079
 10
87.75353009080013
 20
127.8027915271048
 10
87.75353009080013
 20
127.8027915271048
 10
87.75353009080013
 20
127.8027915271048
 10
85.36538832498108
 20
127.8027915271048
 10
85.36538832498108
 20
127.8027915271048
 10
85.36538832498108
 20
127.8027915271048
 10
93.00006946639998
 20
152.4199098115079
 10
93.00006946639998
 20
152.4199098115079
 10
93.00006946639998
 20
152.4199098115079
 10
89.85297266450198
 20
152.4199098115079
 10
89.85297266450198
 20
152.4199098115079
 10
89.85297266450198
 20
152.4199098115079
 10
90.51270888515164
 20
154.9119212747295
 10
90.51270888515164
 20
154.9119212747295
 10
90.51270888515164
 20
154.9119212747295
 10
93.6904670570955
 20
154.9119212747295
 10
93.6904670570955
 20
154.9119212747295
 10
93.6904670570955
 20
154.9119212747295
 10
94.81598049462158
 20
158.3616699146644
 10
94.81598049462158
 20
158.3616699146644
 10
95.7237637538445
 20
161.2605474231013
 10
96.4968436907311
 20
162.8139420021662
 10
97.15657991138076
 20
163.9844139654337
 10
97.81183750494507
 20
165.1523021053827
 10
99.1047826935081
 20
166.3084769129547
 10
100.4504378777679
 20
166.69157178364
 97
        0
 75
     2
 76
     1
 98
        0
  0
SPLINE
  5
3C1
330
3BD
100
AcDbEntity
  8
レイヤー 1
370
     0
100
AcDbSpline
210
0.0
220
0.0
230
1.0
 70
    11
 71
     3
 72
    38
 73
    34
 74
     0
 42
0.000000001
 43
0.0000000001
 40
0.0
 40
0.0
 40
0.0
 40
0.0
 40
1.0
 40
1.0
 40
1.0
 40
2.0
 40
2.0
 40
2.0
 40
3.0
 40
3.0
 40
3.0
 40
4.0
 40
4.0
 40
4.0
 40
5.0
 40
5.0
 40
5.0
 40
6.0
 40
6.0
 40
6.0
 40
7.0
 40
7.0
 40
7.0
 40
8.0
 40
8.0
 40
8.0
 40
9.0
 40
9.0
 40
9.0
 40
10.0
 40
10.0
 40
10.0
 40
11.0
 40
11.0
 40
11.0
 40
11.0
 10
126.377554584636
 20
154.8151140277308
 30
0.0
 10
126.377554584636
 20
154.8151140277308
 30
0.0
 10
128.8311532078563
 20
154.8151140277308
 30
0.0
 10
128.8311532078563
 20
154.8151140277308
 30
0.0
 10
128.8311532078563
 20
154.8151140277308
 30
0.0
 10
127.7345785914971
 20
151.3062819612468
 30
0.0
 10
127.7345785914971
 20
151.3062819612468
 30
0.0
 10
128.571392836906
 20
152.2922689395754
 30
0.0
 10
129.8860421413442
 20
153.604506675583
 30
0.0
 10
131.0163787157314
 20
154.2664822097754
 30
0.0
 10
132.7044766171327
 20
155.2500576196734
 30
0.0
 10
133.6642808525008
 20
155.3847609420097
 30
0.0
 10
134.7284715499351
 20
155.3565111403944
 30
0.0
 10
134.7284715499351
 20
155.3565111403944
 30
0.0
 10
133.6877075172549
 20
152.0345756272799
 30
0.0
 10
133.6877075172549
 20
152.0345756272799
 30
0.0
 10
133.011434827367
 20
152.3184516825359
 30
0.0
 10
130.930940291334
 20
151.7768823149844
 30
0.0
 10
129.739280976855
 20
150.9162968950455
 30
0.0
 10
128.66613302525
 20
150.1454562717016
 30
0.0
 10
127.9192358313239
 20
149.4857200510519
 30
0.0
 10
127.0393578639405
 20
147.8282835196966
 30
0.0
 10
126.164647543194
 20
146.1699857139017
 30
0.0
 10
125.4742499524985
 20
143.5262176944419
 30
0.0
 10
124.2822461282437
 20
139.6959580071401
 30
0.0
 10
124.2822461282437
 20
139.6959580071401
 30
0.0
 10
120.5753209406769
 20
127.8027915271048
 30
0.0
 10
120.5753209406769
 20
127.8027915271048
 30
0.0
 10
120.5753209406769
 20
127.8027915271048
 30
0.0
 10
118.1964809388044
 20
127.8027915271048
 30
0.0
 10
118.1964809388044
 20
127.8027915271048
 30
0.0
 10
118.1964809388044
 20
127.8027915271048
 30
0.0
 10
126.377554584636
 20
154.8151140277308
 30
0.0
 10
126.377554584636
 20
154.8151140277308
 30
0.0
  0
HATCH
  5
3C2
330
3BD
100
AcDbEntity
  8
レイヤー 1
 62
   250
420
  2234388
100
AcDbHatch
 10
0.0
 20
0.0
 30
0.0
210
0.0
220
0.0
230
1.0
  2
SOLID
 70
     1
 71
     0
 91
        1
 92
        1
 93
        1
 72
     4
 94
        3
 73
     0
 74
     1
 95
       38
 96
       34
 40
0.0
 40
0.0
 40
0.0
 40
0.0
 40
1.0
 40
1.0
 40
1.0
 40
2.0
 40
2.0
 40
2.0
 40
3.0
 40
3.0
 40
3.0
 40
4.0
 40
4.0
 40
4.0
 40
5.0
 40
5.0
 40
5.0
 40
6.0
 40
6.0
 40
6.0
 40
7.0
 40
7.0
 40
7.0
 40
8.0
 40
8.0
 40
8.0
 40
9.0
 40
9.0
 40
9.0
 40
10.0
 40
10.0
 40
10.0
 40
11.0
 40
11.0
 40
11.0
 40
11.0
 10
126.377554584636
 20
154.8151140277308
 10
126.377554584636
 20
154.8151140277308
 10
128.8311532078563
 20
154.8151140277308
 10
128.8311532078563
 20
154.8151140277308
 10
128.8311532078563
 20
154.8151140277308
 10
127.7345785914971
 20
151.3062819612468
 10
127.7345785914971
 20
151.3062819612468
 10
128.571392836906
 20
152.2922689395754
 10
129.8860421413442
 20
153.604506675583
 10
131.0163787157314
 20
154.2664822097754
 10
132.7044766171327
 20
155.2500576196734
 10
133.6642808525008
 20
155.3847609420097
 10
134.7284715499351
 20
155.3565111403944
 10
134.7284715499351
 20
155.3565111403944
 10
133.6877075172549
 20
152.0345756272799
 10
133.6877075172549
 20
152.0345756272799
 10
133.011434827367
 20
152.3184516825359
 10
130.930940291334
 20
151.7768823149844
 10
129.739280976855
 20
150.9162968950455
 10
128.66613302525
 20
150.1454562717016
 10
127.9192358313239
 20
149.4857200510519
 10
127.0393578639405
 20
147.8282835196966
 10
126.164647543194
 20
146.1699857139017
 10
125.4742499524985
 20
143.5262176944419
 10
124.2822461282437
 20
139.6959580071401
 10
124.2822461282437
 20
139.6959580071401
 10
120.5753209406769
 20
127.8027915271048
 10
120.5753209406769
 20
127.8027915271048
 10
120.5753209406769
 20
127.8027915271048
 10
118.1964809388044
 20
127.8027915271048
 10
118.1964809388044
 20
127.8027915271048
 10
118.1964809388044
 20
127.8027915271048
 10
126.377554584636
 20
154.8151140277308
 10
126.377554584636
 20
154.8151140277308
 97
        0
 75
     2
 76
     1
 98
        0
  0
SPLINE
  5
3C3
330
3BD
100
AcDbEntity
  8
レイヤー 1
370
     0
100
AcDbSpline
210
0.0
220
0.0
230
1.0
 70
    11
 71
     3
 72
   104
 73
   100
 74
     0
 42
0.000000001
 43
0.0000000001
 40
0.0
 40
0.0
 40
0.0
 40
0.0
 40
1.0
 40
1.0
 40
1.0
 40
2.0
 40
2.0
 40
2.0
 40
3.0
 40
3.0
 40
3.0
 40
4.0
 40
4.0
 40
4.0
 40
5.0
 40
5.0
 40
5.0
 40
6.0
 40
6.0
 40
6.0
 40
7.0
 40
7.0
 40
7.0
 40
8.0
 40
8.0
 40
8.0
 40
9.0
 40
9.0
 40
9.0
 40
10.0
 40
10.0
 40
10.0
 40
11.0
 40
11.0
 40
11.0
 40
12.0
 40
12.0
 40
12.0
 40
13.0
 40
13.0
 40
13.0
 40
14.0
 40
14.0
 40
14.0
 40
15.0
 40
15.0
 40
15.0
 40
16.0
 40
16.0
 40
16.0
 40
17.0
 40
17.0
 40
17.0
 40
18.0
 40
18.0
 40
18.0
 40
19.0
 40
19.0
 40
19.0
 40
20.0
 40
20.0
 40
20.0
 40
21.0
 40
21.0
 40
21.0
 40
22.0
 40
22.0
 40
22.0
 40
23.0
 40
23.0
 40
23.0
 40
24.0
 40
24.0
 40
24.0
 40
25.0
 40
25.0
 40
25.0
 40
26.0
 40
26.0
 40
26.0
 40
27.0
 40
27.0
 40
27.0
 40
28.0
 40
28.0
 40
28.0
 40
29.0
 40
29.0
 40
29.0
 40
30.0
 40
30.0
 40
30.0
 40
31.0
 40
31.0
 40
31.0
 40
32.0
 40
32.0
 40
32.0
 40
33.0
 40
33.0
 40
33.0
 40
33.0
 10
139.8926730891197
 20
154.8294111834263
 30
0.0
 10
139.8926730891197
 20
154.8294111834263
 30
0.0
 10
142.0344903652445
 20
154.8294111834263
 30
0.0
 10
142.0344903652445
 20
154.8294111834263
 30
0.0
 10
142.0344903652445
 20
154.8294111834263
 30
0.0
 10
140.9516961399171
 20
151.3157559800812
 30
0.0
 10
140.9516961399171
 20
151.3157559800812
 30
0.0
 10
141.8928968473923
 20
152.7887075264977
 30
0.0
 10
142.7341897198865
 20
153.4484437471474
 30
0.0
 10
143.8552245303272
 20
154.2926649527359
 30
0.0
 10
144.9803934580775
 20
155.1296514530327
 30
0.0
 10
146.3139908001845
 20
155.3044901642492
 30
0.0
 10
147.241066606852
 20
155.3044901642492
 30
0.0
 10
148.3855280820469
 20
155.3044901642492
 30
0.0
 10
149.4969166187653
 20
155.0752189084569
 30
0.0
 10
150.0784491203092
 20
153.8172414621372
 30
0.0
 10
150.5228667310863
 20
152.833838307127
 30
0.0
 10
150.5414702589793
 20
152.7201500811143
 30
0.0
 10
150.4140016419347
 20
150.7765981809602
 30
0.0
 10
151.5818897818837
 20
152.7699317437168
 30
0.0
 10
152.4424752018226
 20
153.6256940267945
 30
0.0
 10
153.9038856707499
 20
154.4507949398263
 30
0.0
 10
155.4455669174378
 20
155.3044901642492
 30
0.0
 10
156.339225275853
 20
155.3659851592288
 30
0.0
 10
157.3748216618963
 20
155.2147453676543
 30
0.0
 10
158.911679771723
 20
154.9877134254046
 30
0.0
 10
159.8859534176746
 20
154.4390816074493
 30
0.0
 10
160.3965169054045
 20
152.7816450760939
 30
0.0
 10
160.9070803931344
 20
151.1219692311958
 30
0.0
 10
160.6328506116007
 20
150.2303779314354
 30
0.0
 10
159.9992971339115
 20
147.597634224801
 30
0.0
 10
159.7105979417943
 20
146.4014962832367
 30
0.0
 10
159.2947746424084
 20
144.9400858143094
 30
0.0
 10
158.7463150793409
 20
143.2092687007094
 30
0.0
 10
158.7463150793409
 20
143.2092687007094
 30
0.0
 10
153.9038856707499
 20
127.8027915271048
 30
0.0
 10
153.9038856707499
 20
127.8027915271048
 30
0.0
 10
153.9038856707499
 20
127.8027915271048
 30
0.0
 10
151.3882752878863
 20
127.8027915271048
 30
0.0
 10
151.3882752878863
 20
127.8027915271048
 30
0.0
 10
151.3882752878863
 20
127.8027915271048
 30
0.0
 10
155.6250565106276
 20
141.2751908193897
 30
0.0
 10
155.6250565106276
 20
141.2751908193897
 30
0.0
 10
156.5094131050963
 20
144.0936252951782
 30
0.0
 10
157.109893644309
 20
146.1506931664571
 30
0.0
 10
157.4220195011804
 20
147.4415712963654
 30
0.0
 10
157.8095929989511
 20
149.0530157726519
 30
0.0
 10
157.9656559273867
 20
149.5826995529385
 30
0.0
 10
157.7816877071116
 20
150.7529992613181
 30
0.0
 10
157.6111553680925
 20
151.8430281919372
 30
0.0
 10
157.0582171779396
 20
152.5547853887321
 30
0.0
 10
156.1170164704645
 20
152.5547853887321
 30
0.0
 10
155.1096698860365
 20
152.5547853887321
 30
0.0
 10
154.2962823053817
 20
152.4412694176073
 30
0.0
 10
153.156643967048
 20
151.2945686288697
 30
0.0
 10
152.0170056287143
 20
150.1476955852443
 30
0.0
 10
151.076149431015
 20
148.7930831468137
 30
0.0
 10
150.3337308641742
 20
147.2290087646991
 30
0.0
 10
149.5957909244188
 20
145.6683794803425
 30
0.0
 10
148.8530278478023
 20
143.6822806228776
 30
0.0
 10
148.0964843801539
 20
141.2751908193897
 30
0.0
 10
148.0964843801539
 20
141.2751908193897
 30
0.0
 10
143.8552245303272
 20
127.8027915271048
 30
0.0
 10
143.8552245303272
 20
127.8027915271048
 30
0.0
 10
143.8552245303272
 20
127.8027915271048
 30
0.0
 10
141.486030802177
 20
127.8027915271048
 30
0.0
 10
141.486030802177
 20
127.8027915271048
 30
0.0
 10
141.486030802177
 20
127.8027915271048
 30
0.0
 10
146.3329388378533
 20
143.2092687007094
 30
0.0
 10
146.3329388378533
 20
143.2092687007094
 30
0.0
 10
146.8483254624444
 20
144.8408669988801
 30
0.0
 10
147.2314203331297
 20
146.1837661049335
 30
0.0
 10
147.4867020769946
 20
147.224185627838
 30
0.0
 10
147.9169947869641
 20
149.0197705792876
 30
0.0
 10
148.0306830129768
 20
150.2400242051577
 30
0.0
 10
147.709255392159
 20
151.3157559800812
 30
0.0
 10
147.3874832615654
 20
152.3916600098926
 30
0.0
 10
146.8245542879144
 20
152.6683013598569
 30
0.0
 10
145.8840425999909
 20
152.6683013598569
 30
0.0
 10
145.0989048209514
 20
152.6683013598569
 30
0.0
 10
144.3282364524954
 20
152.3275811915945
 30
0.0
 10
143.4531816219731
 20
151.6538923250251
 30
0.0
 10
142.34627171234
 20
150.8074318058939
 30
0.0
 10
141.901854101563
 20
150.1097995099067
 30
0.0
 10
141.3578731655808
 20
149.289521733736
 30
0.0
 10
140.6299240093235
 20
148.192602607601
 30
0.0
 10
140.2850697237515
 20
147.455696197173
 30
0.0
 10
139.6652966370942
 20
145.8385673095858
 30
0.0
 10
139.0506911970739
 20
144.2214384219986
 30
0.0
 10
138.463991048893
 20
142.3252566160164
 30
0.0
 10
138.0571250036777
 20
141.0154304484394
 30
0.0
 10
138.0571250036777
 20
141.0154304484394
 30
0.0
 10
133.9009590684727
 20
127.8027915271048
 30
0.0
 10
133.9009590684727
 20
127.8027915271048
 30
0.0
 10
133.9009590684727
 20
127.8027915271048
 30
0.0
 10
131.4180771143097
 20
127.8027915271048
 30
0.0
 10
131.4180771143097
 20
127.8027915271048
 30
0.0
 10
131.4180771143097
 20
127.8027915271048
 30
0.0
 10
139.8926730891197
 20
154.8294111834263
 30
0.0
 10
139.8926730891197
 20
154.8294111834263
 30
0.0
  0
HATCH
  5
3C4
330
3BD
100
AcDbEntity
  8
レイヤー 1
 62
   250
420
  2234388
100
AcDbHatch
 10
0.0
 20
0.0
 30
0.0
210
0.0
220
0.0
230
1.0
  2
SOLID
 70
     1
 71
     0
 91
        1
 92
        1
 93
        1
 72
     4
 94
        3
 73
     0
 74
     1
 95
      104
 96
      100
 40
0.0
 40
0.0
 40
0.0
 40
0.0
 40
1.0
 40
1.0
 40
1.0
 40
2.0
 40
2.0
 40
2.0
 40
3.0
 40
3.0
 40
3.0
 40
4.0
 40
4.0
 40
4.0
 40
5.0
 40
5.0
 40
5.0
 40
6.0
 40
6.0
 40
6.0
 40
7.0
 40
7.0
 40
7.0
 40
8.0
 40
8.0
 40
8.0
 40
9.0
 40
9.0
 40
9.0
 40
10.0
 40
10.0
 40
10.0
 40
11.0
 40
11.0
 40
11.0
 40
12.0
 40
12.0
 40
12.0
 40
13.0
 40
13.0
 40
13.0
 40
14.0
 40
14.0
 40
14.0
 40
15.0
 40
15.0
 40
15.0
 40
16.0
 40
16.0
 40
16.0
 40
17.0
 40
17.0
 40
17.0
 40
18.0
 40
18.0
 40
18.0
 40
19.0
 40
19.0
 40
19.0
 40
20.0
 40
20.0
 40
20.0
 40
21.0
 40
21.0
 40
21.0
 40
22.0
 40
22.0
 40
22.0
 40
23.0
 40
23.0
 40
23.0
 40
24.0
 40
24.0
 40
24.0
 40
25.0
 40
25.0
 40
25.0
 40
26.0
 40
26.0
 40
26.0
 40
27.0
 40
27.0
 40
27.0
 40
28.0
 40
28.0
 40
28.0
 40
29.0
 40
29.0
 40
29.0
 40
30.0
 40
30.0
 40
30.0
 40
31.0
 40
31.0
 40
31.0
 40
32.0
 40
32.0
 40
32.0
 40
33.0
 40
33.0
 40
33.0
 40
33.0
 10
139.8926730891197
 20
154.8294111834263
 10
139.8926730891197
 20
154.8294111834263
 10
142.0344903652445
 20
154.8294111834263
 10
142.0344903652445
 20
154.8294111834263
 10
142.0344903652445
 20
154.8294111834263
 10
140.9516961399171
 20
151.3157559800812
 10
140.9516961399171
 20
151.3157559800812
 10
141.8928968473923
 20
152.7887075264977
 10
142.7341897198865
 20
153.4484437471474
 10
143.8552245303272
 20
154.2926649527359
 10
144.9803934580775
 20
155.1296514530327
 10
146.3139908001845
 20
155.3044901642492
 10
147.241066606852
 20
155.3044901642492
 10
148.3855280820469
 20
155.3044901642492
 10
149.4969166187653
 20
155.0752189084569
 10
150.0784491203092
 20
153.8172414621372
 10
150.5228667310863
 20
152.833838307127
 10
150.5414702589793
 20
152.7201500811143
 10
150.4140016419347
 20
150.7765981809602
 10
151.5818897818837
 20
152.7699317437168
 10
152.4424752018226
 20
153.6256940267945
 10
153.9038856707499
 20
154.4507949398263
 10
155.4455669174378
 20
155.3044901642492
 10
156.339225275853
 20
155.3659851592288
 10
157.3748216618963
 20
155.2147453676543
 10
158.911679771723
 20
154.9877134254046
 10
159.8859534176746
 20
154.4390816074493
 10
160.3965169054045
 20
152.7816450760939
 10
160.9070803931344
 20
151.1219692311958
 10
160.6328506116007
 20
150.2303779314354
 10
159.9992971339115
 20
147.597634224801
 10
159.7105979417943
 20
146.4014962832367
 10
159.2947746424084
 20
144.9400858143094
 10
158.7463150793409
 20
143.2092687007094
 10
158.7463150793409
 20
143.2092687007094
 10
153.9038856707499
 20
127.8027915271048
 10
153.9038856707499
 20
127.8027915271048
 10
153.9038856707499
 20
127.8027915271048
 10
151.3882752878863
 20
127.8027915271048
 10
151.3882752878863
 20
127.8027915271048
 10
151.3882752878863
 20
127.8027915271048
 10
155.6250565106276
 20
141.2751908193897
 10
155.6250565106276
 20
141.2751908193897
 10
156.5094131050963
 20
144.0936252951782
 10
157.109893644309
 20
146.1506931664571
 10
157.4220195011804
 20
147.4415712963654
 10
157.8095929989511
 20
149.0530157726519
 10
157.9656559273867
 20
149.5826995529385
 10
157.7816877071116
 20
150.7529992613181
 10
157.6111553680925
 20
151.8430281919372
 10
157.0582171779396
 20
152.5547853887321
 10
156.1170164704645
 20
152.5547853887321
 10
155.1096698860365
 20
152.5547853887321
 10
154.2962823053817
 20
152.4412694176073
 10
153.156643967048
 20
151.2945686288697
 10
152.0170056287143
 20
150.1476955852443
 10
151.076149431015
 20
148.7930831468137
 10
150.3337308641742
 20
147.2290087646991
 10
149.5957909244188
 20
145.6683794803425
 10
148.8530278478023
 20
143.6822806228776
 10
148.0964843801539
 20
141.2751908193897
 10
148.0964843801539
 20
141.2751908193897
 10
143.8552245303272
 20
127.8027915271048
 10
143.8552245303272
 20
127.8027915271048
 10
143.8552245303272
 20
127.8027915271048
 10
141.486030802177
 20
127.8027915271048
 10
141.486030802177
 20
127.8027915271048
 10
141.486030802177
 20
127.8027915271048
 10
146.3329388378533
 20
143.2092687007094
 10
146.3329388378533
 20
143.2092687007094
 10
146.8483254624444
 20
144.8408669988801
 10
147.2314203331297
 20
146.1837661049335
 10
147.4867020769946
 20
147.224185627838
 10
147.9169947869641
 20
149.0197705792876
 10
148.0306830129768
 20
150.2400242051577
 10
147.709255392159
 20
151.3157559800812
 10
147.3874832615654
 20
152.3916600098926
 10
146.8245542879144
 20
152.6683013598569
 10
145.8840425999909
 20
152.6683013598569
 10
145.0989048209514
 20
152.6683013598569
 10
144.3282364524954
 20
152.3275811915945
 10
143.4531816219731
 20
151.6538923250251
 10
142.34627171234
 20
150.8074318058939
 10
141.901854101563
 20
150.1097995099067
 10
141.3578731655808
 20
149.289521733736
 10
140.6299240093235
 20
148.192602607601
 10
140.2850697237515
 20
147.455696197173
 10
139.6652966370942
 20
145.8385673095858
 10
139.0506911970739
 20
144.2214384219986
 10
138.463991048893
 20
142.3252566160164
 10
138.0571250036777
 20
141.0154304484394
 10
138.0571250036777
 20
141.0154304484394
 10
133.9009590684727
 20
127.8027915271048
 10
133.9009590684727
 20
127.8027915271048
 10
133.9009590684727
 20
127.8027915271048
 10
131.4180771143097
 20
127.8027915271048
 10
131.4180771143097
 20
127.8027915271048
 10
131.4180771143097
 20
127.8027915271048
 10
139.8926730891197
 20
154.8294111834263
 10
139.8926730891197
 20
154.8294111834263
 97
        0
 75
     2
 76
     1
 98
        0
  0
SPLINE
  5
3C5
330
3BD
100
AcDbEntity
  8
レイヤー 1
370
     0
100
AcDbSpline
210
0.0
220
0.0
230
1.0
 70
    11
 71
     3
 72
    29
 73
    25
 74
     0
 42
0.000000001
 43
0.0000000001
 40
0.0
 40
0.0
 40
0.0
 40
0.0
 40
1.0
 40
1.0
 40
1.0
 40
2.0
 40
2.0
 40
2.0
 40
3.0
 40
3.0
 40
3.0
 40
4.0
 40
4.0
 40
4.0
 40
5.0
 40
5.0
 40
5.0
 40
6.0
 40
6.0
 40
6.0
 40
7.0
 40
7.0
 40
7.0
 40
8.0
 40
8.0
 40
8.0
 40
8.0
 10
101.6420971922469
 20
132.8388354296931
 30
0.0
 10
101.630039350094
 20
134.7164137077823
 30
0.0
 10
102.2236296937908
 20
138.0598810818841
 30
0.0
 10
103.7487744712405
 20
142.5378191476827
 30
0.0
 10
105.819967243327
 20
148.5896501242061
 30
0.0
 10
107.0602024361932
 20
150.8074318058939
 30
0.0
 10
108.1522984254671
 20
151.8833358357054
 30
0.0
 10
109.741177511439
 20
153.4532668840085
 30
0.0
 10
111.8740375333931
 20
153.5290590346837
 30
0.0
 10
112.5075910110823
 20
153.4532668840085
 30
0.0
 10
113.4012493694975
 20
153.3490526768302
 30
0.0
 10
114.6683563248758
 20
152.7580461564518
 30
0.0
 10
114.7493161221879
 20
150.7838328862519
 30
0.0
 10
114.8106388622796
 20
149.0909118479895
 30
0.0
 10
114.3186789024427
 20
145.9191825971221
 30
0.0
 10
112.6164561002338
 20
140.9489400617108
 30
0.0
 10
110.6444821435766
 20
135.1746117095912
 30
0.0
 10
109.4669477299053
 20
132.8960240524753
 30
0.0
 10
108.5212683953448
 20
131.9072809959403
 30
0.0
 10
106.7346406980658
 20
130.0538184021569
 30
0.0
 10
104.8222669326213
 20
130.2336525051225
 30
0.0
 10
104.5408024457958
 20
130.2336525051225
 30
0.0
 10
104.1721769856939
 20
130.2336525051225
 30
0.0
 10
101.6465758193322
 20
130.6305277668397
 30
0.0
 10
101.6420971922469
 20
132.8388354296931
 30
0.0
  0
SPLINE
  5
3C6
330
3BD
100
AcDbEntity
  8
レイヤー 1
370
     0
100
AcDbSpline
210
0.0
220
0.0
230
1.0
 70
    11
 71
     3
 72
    32
 73
    28
 74
     0
 42
0.000000001
 43
0.0000000001
 40
0.0
 40
0.0
 40
0.0
 40
0.0
 40
1.0
 40
1.0
 40
1.0
 40
2.0
 40
2.0
 40
2.0
 40
3.0
 40
3.0
 40
3.0
 40
4.0
 40
4.0
 40
4.0
 40
5.0
 40
5.0
 40
5.0
 40
6.0
 40
6.0
 40
6.0
 40
7.0
 40
7.0
 40
7.0
 40
8.0
 40
8.0
 40
8.0
 40
9.0
 40
9.0
 40
9.0
 40
9.0
 10
106.2595617172429
 20
153.4105476718098
 30
0.0
 10
104.8222669326213
 20
151.5474388043041
 30
0.0
 10
103.7177685914188
 20
149.8758773721411
 30
0.0
 10
101.9232171692965
 20
144.6141795664062
 30
0.0
 10
100.2754269116635
 20
139.7999999594306
 30
0.0
 10
99.22777268346732
 20
136.3052927937542
 30
0.0
 10
99.06964269637689
 20
132.039572749846
 30
0.0
 10
98.94665270641765
 20
128.8673267343149
 30
0.0
 10
100.8807305877373
 20
127.8027915271048
 30
0.0
 10
103.7129454545577
 20
127.8027915271048
 30
0.0
 10
104.9352661390825
 20
127.8027915271048
 30
0.0
 10
108.0151835347002
 20
127.8827177950895
 30
0.0
 10
110.2045431598849
 20
130.5926316915021
 30
0.0
 10
111.7417457794874
 20
132.4984597712065
 30
0.0
 10
113.155269389579
 20
134.475256864725
 30
0.0
 10
115.0562743324223
 20
140.9489400617108
 30
0.0
 10
116.6361961642235
 20
146.3680788349845
 30
0.0
 10
117.7282921534974
 20
149.8639917848761
 30
0.0
 10
117.6480213757369
 20
151.8595646611754
 30
0.0
 10
117.6480213757369
 20
151.8595646611754
 30
0.0
 10
117.6480213757369
 20
151.8595646611754
 30
0.0
 10
117.6480213757369
 20
151.8595646611754
 30
0.0
 10
117.13229024137
 20
155.18150017429
 30
0.0
 10
114.7162431837115
 20
155.886194920681
 30
0.0
 10
113.3351034925446
 20
155.886194920681
 30
0.0
 10
111.9829026225447
 20
155.886194920681
 30
0.0
 10
108.3414342923792
 20
156.1251124501957
 30
0.0
 10
106.2595617172429
 20
153.4105476718098
 30
0.0
  0
HATCH
  5
3C7
330
3BD
100
AcDbEntity
  8
レイヤー 1
 62
   250
420
  2234388
100
AcDbHatch
 10
0.0
 20
0.0
 30
0.0
210
0.0
220
0.0
230
1.0
  2
SOLID
 70
     1
 71
     0
 91
        2
 92
        1
 93
        1
 72
     4
 94
        3
 73
     0
 74
     1
 95
       29
 96
       25
 40
0.0
 40
0.0
 40
0.0
 40
0.0
 40
1.0
 40
1.0
 40
1.0
 40
2.0
 40
2.0
 40
2.0
 40
3.0
 40
3.0
 40
3.0
 40
4.0
 40
4.0
 40
4.0
 40
5.0
 40
5.0
 40
5.0
 40
6.0
 40
6.0
 40
6.0
 40
7.0
 40
7.0
 40
7.0
 40
8.0
 40
8.0
 40
8.0
 40
8.0
 10
101.6420971922469
 20
132.8388354296931
 10
101.630039350094
 20
134.7164137077823
 10
102.2236296937908
 20
138.0598810818841
 10
103.7487744712405
 20
142.5378191476827
 10
105.819967243327
 20
148.5896501242061
 10
107.0602024361932
 20
150.8074318058939
 10
108.1522984254671
 20
151.8833358357054
 10
109.741177511439
 20
153.4532668840085
 10
111.8740375333931
 20
153.5290590346837
 10
112.5075910110823
 20
153.4532668840085
 10
113.4012493694975
 20
153.3490526768302
 10
114.6683563248758
 20
152.7580461564518
 10
114.7493161221879
 20
150.7838328862519
 10
114.8106388622796
 20
149.0909118479895
 10
114.3186789024427
 20
145.9191825971221
 10
112.6164561002338
 20
140.9489400617108
 10
110.6444821435766
 20
135.1746117095912
 10
109.4669477299053
 20
132.8960240524753
 10
108.5212683953448
 20
131.9072809959403
 10
106.7346406980658
 20
130.0538184021569
 10
104.8222669326213
 20
130.2336525051225
 10
104.5408024457958
 20
130.2336525051225
 10
104.1721769856939
 20
130.2336525051225
 10
101.6465758193322
 20
130.6305277668397
 10
101.6420971922469
 20
132.8388354296931
 97
        0
 92
        1
 93
        1
 72
     4
 94
        3
 73
     0
 74
     1
 95
       32
 96
       28
 40
0.0
 40
0.0
 40
0.0
 40
0.0
 40
1.0
 40
1.0
 40
1.0
 40
2.0
 40
2.0
 40
2.0
 40
3.0
 40
3.0
 40
3.0
 40
4.0
 40
4.0
 40
4.0
 40
5.0
 40
5.0
 40
5.0
 40
6.0
 40
6.0
 40
6.0
 40
7.0
 40
7.0
 40
7.0
 40
8.0
 40
8.0
 40
8.0
 40
9.0
 40
9.0
 40
9.0
 40
9.0
 10
106.2595617172429
 20
153.4105476718098
 10
104.8222669326213
 20
151.5474388043041
 10
103.7177685914188
 20
149.8758773721411
 10
101.9232171692965
 20
144.6141795664062
 10
100.2754269116635
 20
139.7999999594306
 10
99.22777268346732
 20
136.3052927937542
 10
99.06964269637689
 20
132.039572749846
 10
98.94665270641765
 20
128.8673267343149
 10
100.8807305877373
 20
127.8027915271048
 10
103.7129454545577
 20
127.8027915271048
 10
104.9352661390825
 20
127.8027915271048
 10
108.0151835347002
 20
127.8827177950895
 10
110.2045431598849
 20
130.5926316915021
 10
111.7417457794874
 20
132.4984597712065
 10
113.155269389579
 20
134.475256864725
 10
115.0562743324223
 20
140.9489400617108
 10
116.6361961642235
 20
146.3680788349845
 10
117.7282921534974
 20
149.8639917848761
 10
117.6480213757369
 20
151.8595646611754
 10
117.6480213757369
 20
151.8595646611754
 10
117.6480213757369
 20
151.8595646611754
 10
117.6480213757369
 20
151.8595646611754
 10
117.13229024137
 20
155.18150017429
 10
114.7162431837115
 20
155.886194920681
 10
113.3351034925446
 20
155.886194920681
 10
111.9829026225447
 20
155.886194920681
 10
108.3414342923792
 20
156.1251124501957
 10
106.2595617172429
 20
153.4105476718098
 97
        0
 75
     2
 76
     1
 98
        0
  0
ENDBLK
  5
3C8
330
3BD
100
AcDbEntity
  8
0
100
AcDbBlockEnd
  0
BLOCK
  5
11F1
330
11F0
100
AcDbEntity
  8
0
100
AcDbBlockBegin
  2
BLOCK_2
 70
     0
 10
0.0
 20
0.0
 30
0.0
  3
BLOCK_2
  1
BLOCK_2
  0
ENDBLK
  5
11F2
330
11F0
100
AcDbEntity
  8
0
100
AcDbBlockEnd
  0
BLOCK
  5
38B7
330
38B6
100
AcDbEntity
  8
0
100
AcDbBlockBegin
  2
mobile_latù
 70
     0
 10
0.0
 20
0.0
 30
0.0
  3
mobile_latù
  1
mobile_latù
  0
ENDBLK
  5
38B8
330
38B6
100
AcDbEntity
  8
0
100
AcDbBlockEnd
  0
BLOCK
  5
503A
330
5039
100
AcDbEntity
  8
0
100
AcDbBlockBegin
  2
.TD_SECTION_1
 70
     0
 10
225818116096.0
 20
0.0
 30
0.0
  3
.TD_SECTION_1
  1

  0
ENDBLK
  5
503B
330
5039
100
AcDbEntity
  8
0
100
AcDbBlockEnd
  0
BLOCK
  5
503E
330
503D
100
AcDbEntity
  8
0
100
AcDbBlockBegin
  2
.TD_SECTION_2
 70
     0
 10
225818181632.0
 20
0.0
 30
0.0
  3
.TD_SECTION_2
  1

  0
ENDBLK
  5
503F
330
503D
100
AcDbEntity
  8
0
100
AcDbBlockEnd
  0
BLOCK
  5
5A77
330
5A76
100
AcDbEntity
  8
0
100
AcDbBlockBegin
  2
*D10
 70
     1
 10
0.0
 20
0.0
 30
0.0
  3
*D10
  1

  0
LINE
  5
5A79
330
5A76
100
AcDbEntity
  8
Dim
 62
     0
370
    -2
100
AcDbLine
 10
1512.771861559886
 20
843.8129072979559
 30
0.0
 11
1459.419696966503
 21
843.8129072979559
 31
0.0
  0
LINE
  5
5A7A
330
5A76
100
AcDbEntity
  8
Dim
 62
     0
370
    -2
100
AcDbLine
 10
1512.771861559886
 20
1123.812911112697
 30
0.0
 11
1459.419696966503
 21
1123.812911112697
 31
0.0
  0
LINE
  5
5A7B
330
5A76
100
AcDbEntity
  8
Dim
 62
     0
370
    -2
100
AcDbLine
 10
1459.419696966503
 20
853.8122969463934
 30
0.0
 11
1459.419696966503
 21
1113.813521464259
 31
0.0
  0
INSERT
  5
5A7C
330
5A76
100
AcDbEntity
  8
Dim
 62
     0
370
    -2
100
AcDbBlockReference
  2
_DOT
 10
1459.419696966503
 20
843.8129072979559
 30
0.0
 41
9.999389648437498
 42
9.999389648437498
 43
9.999389648437498
 50
270.0
  0
INSERT
  5
5A7D
330
5A76
100
AcDbEntity
  8
Dim
 62
     0
370
    -2
100
AcDbBlockReference
  2
_DOT
 10
1459.419696966503
 20
1123.812911112697
 30
0.0
 41
9.999389648437498
 42
9.999389648437498
 43
9.999389648437498
 50
90.0
  0
MTEXT
  5
5A7E
330
5A76
100
AcDbEntity
  8
Dim
 62
     0
100
AcDbMText
 10
1437.203388372753
 20
983.8129092053264
 30
0.0
 40
24.4326171875
 41
0.0
 46
0.0
 71
     5
 72
     1
  1
\A1;280
  7
ＭＳ ゴシック
 11
0.0
 21
1.0
 31
0.0
 73
     1
 44
1.0
  0
POINT
  5
5A7F
330
5A76
100
AcDbEntity
  8
Defpoints
 62
     0
100
AcDbPoint
 10
1537.771861559886
 20
843.8129072979559
 30
0.0
  0
POINT
  5
5B0C
330
5A76
100
AcDbEntity
  8
Defpoints
 62
     0
100
AcDbPoint
 10
1537.771861559886
 20
1123.812911112697
 30
0.0
  0
POINT
  5
5B0D
330
5A76
100
AcDbEntity
  8
Defpoints
 62
     0
100
AcDbPoint
 10
1459.419696966503
 20
1123.812911112697
 30
0.0
  0
ENDBLK
  5
5A78
330
5A76
100
AcDbEntity
  8
0
100
AcDbBlockEnd
  0
BLOCK
  5
5A8B
330
5A8A
100
AcDbEntity
  8
0
100
AcDbBlockBegin
  2
*D11
 70
     1
 10
0.0
 20
0.0
 30
0.0
  3
*D11
  1

  0
LINE
  5
5A8D
330
5A8A
100
AcDbEntity
  8
Dim
 62
     0
370
    -2
100
AcDbLine
 10
356.3413503314068
 20
608.8110655031396
 30
0.0
 11
263.3384762297282
 21
608.8110655031396
 31
0.0
  0
LINE
  5
5A8E
330
5A8A
100
AcDbEntity
  8
Dim
 62
     0
370
    -2
100
AcDbLine
 10
356.3413503314073
 20
1358.814726204544
 30
0.0
 11
263.3384762297283
 21
1358.814726204544
 31
0.0
  0
LINE
  5
5A8F
330
5A8A
100
AcDbEntity
  8
Dim
 62
     0
370
    -2
100
AcDbLine
 10
263.3384762297282
 20
618.8104551515771
 30
0.0
 11
263.3384762297283
 21
1348.815336556107
 31
0.0
  0
INSERT
  5
5A90
330
5A8A
100
AcDbEntity
  8
Dim
 62
     0
370
    -2
100
AcDbBlockReference
  2
_DOT
 10
263.3384762297282
 20
608.8110655031396
 30
0.0
 41
9.999389648437498
 42
9.999389648437498
 43
9.999389648437498
 50
270.0
  0
INSERT
  5
5A91
330
5A8A
100
AcDbEntity
  8
Dim
 62
     0
370
    -2
100
AcDbBlockReference
  2
_DOT
 10
263.3384762297283
 20
1358.814726204544
 30
0.0
 41
9.999389648437498
 42
9.999389648437498
 43
9.999389648437498
 50
90.0
  0
MTEXT
  5
5A92
330
5A8A
100
AcDbEntity
  8
Dim
 62
     0
100
AcDbMText
 10
241.1221676359783
 20
983.8128958538418
 30
0.0
 40
24.4326171875
 41
0.0
 46
0.0
 71
     5
 72
     1
  1
\A1;750
  7
ＭＳ ゴシック
 11
7.579085521749051E-17
 21
1.0
 31
0.0
 73
     1
 44
1.0
  0
POINT
  5
5A93
330
5A8A
100
AcDbEntity
  8
Defpoints
 62
     0
100
AcDbPoint
 10
381.3413503314068
 20
608.8110655031396
 30
0.0
  0
POINT
  5
5B10
330
5A8A
100
AcDbEntity
  8
Defpoints
 62
     0
100
AcDbPoint
 10
381.3413503314073
 20
1358.814726204544
 30
0.0
  0
POINT
  5
5B11
330
5A8A
100
AcDbEntity
  8
Defpoints
 62
     0
100
AcDbPoint
 10
263.3384762297283
 20
1358.814726204544
 30
0.0
  0
ENDBLK
  5
5A8C
330
5A8A
100
AcDbEntity
  8
0
100
AcDbBlockEnd
  0
BLOCK
  5
5AA9
330
5AA8
100
AcDbEntity
  8
0
100
AcDbBlockBegin
  2
*D12
 70
     1
 10
0.0
 20
0.0
 30
0.0
  3
*D12
  1

  0
LINE
  5
5AAB
330
5AA8
100
AcDbEntity
  8
Dim
 62
     0
370
    -2
100
AcDbLine
 10
1745.531084966301
 20
2549.13022491148
 30
0.0
 11
1833.433233480216
 21
2549.13022491148
 31
0.0
  0
LINE
  5
5AAC
330
5AA8
100
AcDbEntity
  8
Dim
 62
     0
370
    -2
100
AcDbLine
 10
1745.67752137979
 20
2322.130220518155
 30
0.0
 11
1833.433233480216
 21
2322.130220518155
 31
0.0
  0
LINE
  5
5AAD
330
5AA8
100
AcDbEntity
  8
Dim
 62
     0
370
    -2
100
AcDbLine
 10
1833.433233480216
 20
2539.130835263042
 30
0.0
 11
1833.433233480216
 21
2332.129610166592
 31
0.0
  0
INSERT
  5
5AAE
330
5AA8
100
AcDbEntity
  8
Dim
 62
     0
370
    -2
100
AcDbBlockReference
  2
_DOT
 10
1833.433233480216
 20
2549.13022491148
 30
0.0
 41
9.999389648437498
 42
9.999389648437498
 43
9.999389648437498
 50
90.0
  0
INSERT
  5
5AAF
330
5AA8
100
AcDbEntity
  8
Dim
 62
     0
370
    -2
100
AcDbBlockReference
  2
_DOT
 10
1833.433233480216
 20
2322.130220518155
 30
0.0
 41
9.999389648437498
 42
9.999389648437498
 43
9.999389648437498
 50
270.0
  0
MTEXT
  5
5AB0
330
5AA8
100
AcDbEntity
  8
Dim
 62
     0
100
AcDbMText
 10
1811.216924886466
 20
2435.630222714818
 30
0.0
 40
24.4326171875
 41
0.0
 46
0.0
 71
     5
 72
     1
  1
\A1;230
  7
ＭＳ ゴシック
 11
0.0
 21
1.0
 31
0.0
 73
     1
 44
1.0
  0
POINT
  5
5AB1
330
5AA8
100
AcDbEntity
  8
Defpoints
 62
     0
100
AcDbPoint
 10
1720.531084966301
 20
2549.13022491148
 30
0.0
  0
POINT
  5
5B16
330
5AA8
100
AcDbEntity
  8
Defpoints
 62
     0
100
AcDbPoint
 10
1720.67752137979
 20
2322.130220518155
 30
0.0
  0
POINT
  5
5B17
330
5AA8
100
AcDbEntity
  8
Defpoints
 62
     0
100
AcDbPoint
 10
1833.433233480216
 20
2322.130220518155
 30
0.0
  0
ENDBLK
  5
5AAA
330
5AA8
100
AcDbEntity
  8
0
100
AcDbBlockEnd
  0
BLOCK
  5
5AB3
330
5AB2
100
AcDbEntity
  8
0
100
AcDbBlockBegin
  2
*D13
 70
     1
 10
0.0
 20
0.0
 30
0.0
  3
*D13
  1

  0
LINE
  5
5AB5
330
5AB2
100
AcDbEntity
  8
Dim
 62
     0
370
    -2
100
AcDbLine
 10
1550.701390983294
 20
574.0185755520147
 30
0.0
 11
1550.701390983294
 21
490.5291018239999
 31
0.0
  0
LINE
  5
5AB6
330
5AB2
100
AcDbEntity
  8
Dim
 62
     0
370
    -2
100
AcDbLine
 10
1590.701390983294
 20
574.0185755520147
 30
0.0
 11
1590.701390983294
 21
490.5291018239999
 31
0.0
  0
LINE
  5
5AB7
330
5AB2
100
AcDbEntity
  8
Dim
 62
     0
370
    -2
100
AcDbLine
 10
1560.700780631731
 20
490.5291018239999
 30
0.0
 11
1580.702001334856
 21
490.5291018239999
 31
0.0
  0
INSERT
  5
5AB8
330
5AB2
100
AcDbEntity
  8
Dim
 62
     0
370
    -2
100
AcDbBlockReference
  2
_DOT
 10
1550.701390983294
 20
490.5291018239999
 30
0.0
 41
9.999389648437498
 42
9.999389648437498
 43
9.999389648437498
 50
180.0
  0
INSERT
  5
5AB9
330
5AB2
100
AcDbEntity
  8
Dim
 62
     0
370
    -2
100
AcDbBlockReference
  2
_DOT
 10
1590.701390983294
 20
490.5291018239999
 30
0.0
 41
9.999389648437498
 42
9.999389648437498
 43
9.999389648437498
  0
MTEXT
  5
5ABA
330
5AB2
100
AcDbEntity
  8
Dim
 62
     0
100
AcDbMText
 10
1570.701390983294
 20
512.7454104177499
 30
0.0
 40
24.4326171875
 41
0.0
 46
0.0
 71
     5
 72
     1
  1
\A1;40
  7
ＭＳ ゴシック
 73
     1
 44
1.0
  0
POINT
  5
5ABB
330
5AB2
100
AcDbEntity
  8
Defpoints
 62
     0
100
AcDbPoint
 10
1550.701390983294
 20
599.0185755520147
 30
0.0
  0
POINT
  5
5B18
330
5AB2
100
AcDbEntity
  8
Defpoints
 62
     0
100
AcDbPoint
 10
1590.701390983294
 20
599.0185755520147
 30
0.0
  0
POINT
  5
5B19
330
5AB2
100
AcDbEntity
  8
Defpoints
 62
     0
100
AcDbPoint
 10
1590.701390983294
 20
490.5291018239999
 30
0.0
  0
ENDBLK
  5
5AB4
330
5AB2
100
AcDbEntity
  8
0
100
AcDbBlockEnd
  0
BLOCK
  5
5ABD
330
5ABC
100
AcDbEntity
  8
0
100
AcDbBlockBegin
  2
*D14
 70
     1
 10
0.0
 20
0.0
 30
0.0
  3
*D14
  1

  0
LINE
  5
5ABF
330
5ABC
100
AcDbEntity
  8
Dim
 62
     0
370
    -2
100
AcDbLine
 10
1636.601390983294
 20
787.2318438504749
 30
0.0
 11
1636.601390983294
 21
490.5291018239999
 31
0.0
  0
LINE
  5
5AC0
330
5ABC
100
AcDbEntity
  8
Dim
 62
     0
370
    -2
100
AcDbLine
 10
1766.60139593128
 20
666.3765513501644
 30
0.0
 11
1766.60139593128
 21
490.5291018239999
 31
0.0
  0
LINE
  5
5AC1
330
5ABC
100
AcDbEntity
  8
Dim
 62
     0
370
    -2
100
AcDbLine
 10
1646.600780631732
 20
490.5291018239999
 30
0.0
 11
1756.602006282842
 21
490.5291018239999
 31
0.0
  0
INSERT
  5
5AC2
330
5ABC
100
AcDbEntity
  8
Dim
 62
     0
370
    -2
100
AcDbBlockReference
  2
_DOT
 10
1636.601390983294
 20
490.5291018239999
 30
0.0
 41
9.999389648437498
 42
9.999389648437498
 43
9.999389648437498
 50
180.0
  0
INSERT
  5
5AC3
330
5ABC
100
AcDbEntity
  8
Dim
 62
     0
370
    -2
100
AcDbBlockReference
  2
_DOT
 10
1766.60139593128
 20
490.5291018239999
 30
0.0
 41
9.999389648437498
 42
9.999389648437498
 43
9.999389648437498
  0
MTEXT
  5
5AC4
330
5ABC
100
AcDbEntity
  8
Dim
 62
     0
100
AcDbMText
 10
1701.601393457287
 20
512.7454104177499
 30
0.0
 40
24.4326171875
 41
0.0
 46
0.0
 71
     5
 72
     1
  1
\A1;130
  7
ＭＳ ゴシック
 73
     1
 44
1.0
  0
POINT
  5
5AC5
330
5ABC
100
AcDbEntity
  8
Defpoints
 62
     0
100
AcDbPoint
 10
1636.601390983294
 20
812.2318438504749
 30
0.0
  0
POINT
  5
5B1C
330
5ABC
100
AcDbEntity
  8
Defpoints
 62
     0
100
AcDbPoint
 10
1766.60139593128
 20
691.3765513501644
 30
0.0
  0
POINT
  5
5B1D
330
5ABC
100
AcDbEntity
  8
Defpoints
 62
     0
100
AcDbPoint
 10
1766.60139593128
 20
490.5291018239999
 30
0.0
  0
ENDBLK
  5
5ABE
330
5ABC
100
AcDbEntity
  8
0
100
AcDbBlockEnd
  0
BLOCK
  5
5AC7
330
5AC6
100
AcDbEntity
  8
0
100
AcDbBlockBegin
  2
*D15
 70
     1
 10
0.0
 20
0.0
 30
0.0
  3
*D15
  1

  0
LINE
  5
5AC9
330
5AC6
100
AcDbEntity
  8
Dim
 62
     0
370
    -2
100
AcDbLine
 10
1550.701377517999
 20
2013.53071515579
 30
0.0
 11
1550.701377517999
 21
1959.087466629262
 31
0.0
  0
LINE
  5
5ACA
330
5AC6
100
AcDbEntity
  8
Dim
 62
     0
370
    -2
100
AcDbLine
 10
1635.701378814224
 20
2013.53071515579
 30
0.0
 11
1635.701378814224
 21
1959.087466629262
 31
0.0
  0
LINE
  5
5ACB
330
5AC6
100
AcDbEntity
  8
Dim
 62
     0
370
    -2
100
AcDbLine
 10
1560.700767166436
 20
1959.087466629262
 30
0.0
 11
1625.701989165787
 21
1959.087466629262
 31
0.0
  0
INSERT
  5
5ACC
330
5AC6
100
AcDbEntity
  8
Dim
 62
     0
370
    -2
100
AcDbBlockReference
  2
_DOT
 10
1550.701377517999
 20
1959.087466629262
 30
0.0
 41
9.999389648437498
 42
9.999389648437498
 43
9.999389648437498
 50
180.0
  0
INSERT
  5
5ACD
330
5AC6
100
AcDbEntity
  8
Dim
 62
     0
370
    -2
100
AcDbBlockReference
  2
_DOT
 10
1635.701378814224
 20
1959.087466629262
 30
0.0
 41
9.999389648437498
 42
9.999389648437498
 43
9.999389648437498
  0
MTEXT
  5
5ACE
330
5AC6
100
AcDbEntity
  8
Dim
 62
     0
100
AcDbMText
 10
1594.797730463837
 20
1981.303775223012
 30
0.0
 40
24.4326171875
 41
0.0
 46
0.0
 71
     5
 72
     1
  1
\A1;85
  7
ＭＳ ゴシック
 73
     1
 44
1.0
  0
POINT
  5
5ACF
330
5AC6
100
AcDbEntity
  8
Defpoints
 62
     0
100
AcDbPoint
 10
1550.701377517999
 20
2038.53071515579
 30
0.0
  0
POINT
  5
5B1E
330
5AC6
100
AcDbEntity
  8
Defpoints
 62
     0
100
AcDbPoint
 10
1635.701378814224
 20
2038.53071515579
 30
0.0
  0
POINT
  5
5B1F
330
5AC6
100
AcDbEntity
  8
Defpoints
 62
     0
100
AcDbPoint
 10
1635.701378814224
 20
1959.087466629262
 30
0.0
  0
ENDBLK
  5
5AC8
330
5AC6
100
AcDbEntity
  8
0
100
AcDbBlockEnd
  0
BLOCK
  5
5AD1
330
5AD0
100
AcDbEntity
  8
0
100
AcDbBlockBegin
  2
*D16
 70
     1
 10
0.0
 20
0.0
 30
0.0
  3
*D16
  1

  0
LINE
  5
5AD3
330
5AD0
100
AcDbEntity
  8
Dim
 62
     0
370
    -2
100
AcDbLine
 10
1635.701378814224
 20
2013.53071515579
 30
0.0
 11
1635.701378814224
 21
1959.087466629262
 31
0.0
  0
LINE
  5
5AD4
330
5AD0
100
AcDbEntity
  8
Dim
 62
     0
370
    -2
100
AcDbLine
 10
1720.701374433778
 20
2106.070464027438
 30
0.0
 11
1720.701374433778
 21
1959.087466629262
 31
0.0
  0
LINE
  5
5AD5
330
5AD0
100
AcDbEntity
  8
Dim
 62
     0
370
    -2
100
AcDbLine
 10
1645.700768462662
 20
1959.087466629262
 30
0.0
 11
1710.70198478534
 21
1959.087466629262
 31
0.0
  0
INSERT
  5
5AD6
330
5AD0
100
AcDbEntity
  8
Dim
 62
     0
370
    -2
100
AcDbBlockReference
  2
_DOT
 10
1635.701378814224
 20
1959.087466629262
 30
0.0
 41
9.999389648437498
 42
9.999389648437498
 43
9.999389648437498
 50
180.0
  0
INSERT
  5
5AD7
330
5AD0
100
AcDbEntity
  8
Dim
 62
     0
370
    -2
100
AcDbBlockReference
  2
_DOT
 10
1720.701374433778
 20
1959.087466629262
 30
0.0
 41
9.999389648437498
 42
9.999389648437498
 43
9.999389648437498
  0
MTEXT
  5
5AD8
330
5AD0
100
AcDbEntity
  8
Dim
 62
     0
100
AcDbMText
 10
1678.201376624001
 20
1981.303775223012
 30
0.0
 40
24.4326171875
 41
0.0
 46
0.0
 71
     5
 72
     1
  1
\A1;85
  7
ＭＳ ゴシック
 73
     1
 44
1.0
  0
POINT
  5
5AD9
330
5AD0
100
AcDbEntity
  8
Defpoints
 62
     0
100
AcDbPoint
 10
1635.701378814224
 20
2038.53071515579
 30
0.0
  0
POINT
  5
5B20
330
5AD0
100
AcDbEntity
  8
Defpoints
 62
     0
100
AcDbPoint
 10
1720.701374433778
 20
2131.070464027438
 30
0.0
  0
POINT
  5
5B21
330
5AD0
100
AcDbEntity
  8
Defpoints
 62
     0
100
AcDbPoint
 10
1720.701374433778
 20
1959.087466629262
 30
0.0
  0
ENDBLK
  5
5AD2
330
5AD0
100
AcDbEntity
  8
0
100
AcDbBlockEnd
  0
BLOCK
  5
5AE5
330
5AE4
100
AcDbEntity
  8
0
100
AcDbBlockBegin
  2
*D17
 70
     1
 10
0.0
 20
0.0
 30
0.0
  3
*D17
  1

  0
LINE
  5
5AE7
330
5AE4
100
AcDbEntity
  8
Dim
 62
     0
370
    -2
100
AcDbLine
 10
390.6991698384068
 20
579.2710258112711
 30
0.0
 11
390.6991698384068
 21
496.6396658000816
 31
0.0
  0
LINE
  5
5AE8
330
5AE4
100
AcDbEntity
  8
Dim
 62
     0
370
    -2
100
AcDbLine
 10
520.6991697169437
 20
579.2710258112711
 30
0.0
 11
520.6991697169437
 21
496.6396658000817
 31
0.0
  0
LINE
  5
5AE9
330
5AE4
100
AcDbEntity
  8
Dim
 62
     0
370
    -2
100
AcDbLine
 10
400.6985594868443
 20
496.6396658000816
 30
0.0
 11
510.6997800685062
 21
496.6396658000817
 31
0.0
  0
INSERT
  5
5AEA
330
5AE4
100
AcDbEntity
  8
Dim
 62
     0
370
    -2
100
AcDbBlockReference
  2
_DOT
 10
390.6991698384068
 20
496.6396658000816
 30
0.0
 41
9.999389648437498
 42
9.999389648437498
 43
9.999389648437498
 50
180.0000000000001
  0
INSERT
  5
5AEB
330
5AE4
100
AcDbEntity
  8
Dim
 62
     0
370
    -2
100
AcDbBlockReference
  2
_DOT
 10
520.6991697169437
 20
496.6396658000817
 30
0.0
 41
9.999389648437498
 42
9.999389648437498
 43
9.999389648437498
 50
0.0000000000000752
  0
MTEXT
  5
5AEC
330
5AE4
100
AcDbEntity
  8
Dim
 62
     0
100
AcDbMText
 10
455.6991697776752
 20
518.8559743938316
 30
0.0
 40
24.4326171875
 41
0.0
 46
0.0
 71
     5
 72
     1
  1
\A1;130
  7
ＭＳ ゴシック
 73
     1
 44
1.0
  0
POINT
  5
5AED
330
5AE4
100
AcDbEntity
  8
Defpoints
 62
     0
100
AcDbPoint
 10
390.6991698384068
 20
604.2710258112711
 30
0.0
  0
POINT
  5
5B24
330
5AE4
100
AcDbEntity
  8
Defpoints
 62
     0
100
AcDbPoint
 10
520.6991697169437
 20
604.2710258112711
 30
0.0
  0
POINT
  5
5B25
330
5AE4
100
AcDbEntity
  8
Defpoints
 62
     0
100
AcDbPoint
 10
520.6991697169437
 20
496.6396658000817
 30
0.0
  0
ENDBLK
  5
5AE6
330
5AE4
100
AcDbEntity
  8
0
100
AcDbBlockEnd
  0
BLOCK
  5
5AF9
330
5AF8
100
AcDbEntity
  8
0
100
AcDbBlockBegin
  2
*D18
 70
     1
 10
0.0
 20
0.0
 30
0.0
  3
*D18
  1

  0
LINE
  5
5AFB
330
5AF8
100
AcDbEntity
  8
Dim
 62
     0
370
    -2
100
AcDbLine
 10
415.2848048132719
 20
883.8128958538491
 30
0.0
 11
330.872918053436
 21
883.8128958538491
 31
0.0
  0
LINE
  5
5AFC
330
5AF8
100
AcDbEntity
  8
Dim
 62
     0
370
    -2
100
AcDbLine
 10
415.2848048132719
 20
983.8128958538491
 30
0.0
 11
330.872918053436
 21
983.8128958538491
 31
0.0
  0
LINE
  5
5AFD
330
5AF8
100
AcDbEntity
  8
Dim
 62
     0
370
    -2
100
AcDbLine
 10
330.872918053436
 20
893.8122855022866
 30
0.0
 11
330.872918053436
 21
973.8135062054116
 31
0.0
  0
INSERT
  5
5AFE
330
5AF8
100
AcDbEntity
  8
Dim
 62
     0
370
    -2
100
AcDbBlockReference
  2
_DOT
 10
330.872918053436
 20
883.8128958538491
 30
0.0
 41
9.999389648437498
 42
9.999389648437498
 43
9.999389648437498
 50
270.0
  0
INSERT
  5
5AFF
330
5AF8
100
AcDbEntity
  8
Dim
 62
     0
370
    -2
100
AcDbBlockReference
  2
_DOT
 10
330.872918053436
 20
983.8128958538491
 30
0.0
 41
9.999389648437498
 42
9.999389648437498
 43
9.999389648437498
 50
90.0
  0
MTEXT
  5
5B00
330
5AF8
100
AcDbEntity
  8
Dim
 62
     0
100
AcDbMText
 10
308.656609459686
 20
933.8128958538491
 30
0.0
 40
24.4326171875
 41
0.0
 46
0.0
 71
     5
 72
     1
  1
\A1;100
  7
ＭＳ ゴシック
 11
0.0
 21
1.0
 31
0.0
 73
     1
 44
1.0
  0
POINT
  5
5B01
330
5AF8
100
AcDbEntity
  8
Defpoints
 62
     0
100
AcDbPoint
 10
440.2848048132719
 20
883.8128958538491
 30
0.0
  0
POINT
  5
5B28
330
5AF8
100
AcDbEntity
  8
Defpoints
 62
     0
100
AcDbPoint
 10
440.2848048132719
 20
983.8128958538491
 30
0.0
  0
POINT
  5
5B29
330
5AF8
100
AcDbEntity
  8
Defpoints
 62
     0
100
AcDbPoint
 10
330.872918053436
 20
983.8128958538491
 30
0.0
  0
ENDBLK
  5
5AFA
330
5AF8
100
AcDbEntity
  8
0
100
AcDbBlockEnd
  0
BLOCK
  5
5B03
330
5B02
100
AcDbEntity
  8
0
100
AcDbBlockBegin
  2
*D19
 70
     1
 10
0.0
 20
0.0
 30
0.0
  3
*D19
  1

  0
LINE
  5
5B05
330
5B02
100
AcDbEntity
  8
Dim
 62
     0
370
    -2
100
AcDbLine
 10
415.2848048132719
 20
983.8128958538491
 30
0.0
 11
330.8729180534365
 21
983.8128958538491
 31
0.0
  0
LINE
  5
5B06
330
5B02
100
AcDbEntity
  8
Dim
 62
     0
370
    -2
100
AcDbLine
 10
415.2848048132723
 20
1083.812895853849
 30
0.0
 11
330.8729180534365
 21
1083.812895853849
 31
0.0
  0
LINE
  5
5B07
330
5B02
100
AcDbEntity
  8
Dim
 62
     0
370
    -2
100
AcDbLine
 10
330.8729180534365
 20
993.8122855022866
 30
0.0
 11
330.8729180534365
 21
1073.813506205412
 31
0.0
  0
INSERT
  5
5B08
330
5B02
100
AcDbEntity
  8
Dim
 62
     0
370
    -2
100
AcDbBlockReference
  2
_DOT
 10
330.8729180534365
 20
983.8128958538491
 30
0.0
 41
9.999389648437498
 42
9.999389648437498
 43
9.999389648437498
 50
270.0
  0
INSERT
  5
5B09
330
5B02
100
AcDbEntity
  8
Dim
 62
     0
370
    -2
100
AcDbBlockReference
  2
_DOT
 10
330.8729180534365
 20
1083.812895853849
 30
0.0
 41
9.999389648437498
 42
9.999389648437498
 43
9.999389648437498
 50
90.0
  0
MTEXT
  5
5B0A
330
5B02
100
AcDbEntity
  8
Dim
 62
     0
100
AcDbMText
 10
308.6566094596865
 20
1033.812895853849
 30
0.0
 40
24.4326171875
 41
0.0
 46
0.0
 71
     5
 72
     1
  1
\A1;100
  7
ＭＳ ゴシック
 11
0.0
 21
1.0
 31
0.0
 73
     1
 44
1.0
  0
POINT
  5
5B0B
330
5B02
100
AcDbEntity
  8
Defpoints
 62
     0
100
AcDbPoint
 10
440.2848048132719
 20
983.8128958538491
 30
0.0
  0
POINT
  5
5B2A
330
5B02
100
AcDbEntity
  8
Defpoints
 62
     0
100
AcDbPoint
 10
440.2848048132723
 20
1083.812895853849
 30
0.0
  0
POINT
  5
5B2B
330
5B02
100
AcDbEntity
  8
Defpoints
 62
     0
100
AcDbPoint
 10
330.8729180534365
 20
1083.812895853849
 30
0.0
  0
ENDBLK
  5
5B04
330
5B02
100
AcDbEntity
  8
0
100
AcDbBlockEnd
  0
BLOCK
  5
5B30
330
5B2F
100
AcDbEntity
  8
0
100
AcDbBlockBegin
  2
*D20
 70
     1
 10
0.0
 20
0.0
 30
0.0
  3
*D20
  1

  0
LINE
  5
5B32
330
5B2F
100
AcDbEntity
  8
Dim
 62
     0
370
    -2
100
AcDbLine
 10
1549.57124264541
 20
1385.342486585965
 30
0.0
 11
1549.57124264541
 21
1475.374973595827
 31
0.0
  0
LINE
  5
5B33
330
5B2F
100
AcDbEntity
  8
Dim
 62
     0
370
    -2
100
AcDbLine
 10
1719.57124178219
 20
1287.282005337222
 30
0.0
 11
1719.57124178219
 21
1475.374973595827
 31
0.0
  0
LINE
  5
5B34
330
5B2F
100
AcDbEntity
  8
Dim
 62
     0
370
    -2
100
AcDbLine
 10
1559.570632293847
 20
1475.374973595827
 30
0.0
 11
1709.571852133753
 21
1475.374973595827
 31
0.0
  0
INSERT
  5
5B35
330
5B2F
100
AcDbEntity
  8
Dim
 62
     0
370
    -2
100
AcDbBlockReference
  2
_DOT
 10
1549.57124264541
 20
1475.374973595827
 30
0.0
 41
9.999389648437498
 42
9.999389648437498
 43
9.999389648437498
 50
180.0
  0
INSERT
  5
5B36
330
5B2F
100
AcDbEntity
  8
Dim
 62
     0
370
    -2
100
AcDbBlockReference
  2
_DOT
 10
1719.57124178219
 20
1475.374973595827
 30
0.0
 41
9.999389648437498
 42
9.999389648437498
 43
9.999389648437498
  0
MTEXT
  5
5B37
330
5B2F
100
AcDbEntity
  8
Dim
 62
     0
100
AcDbMText
 10
1634.5712422138
 20
1497.591282189577
 30
0.0
 40
24.4326171875
 41
0.0
 46
0.0
 71
     5
 72
     1
  1
\A1;170
  7
ＭＳ ゴシック
 73
     1
 44
1.0
  0
POINT
  5
5B38
330
5B2F
100
AcDbEntity
  8
Defpoints
 62
     0
100
AcDbPoint
 10
1549.57124264541
 20
1360.342486585965
 30
0.0
  0
POINT
  5
5B39
330
5B2F
100
AcDbEntity
  8
Defpoints
 62
     0
100
AcDbPoint
 10
1719.57124178219
 20
1262.282005337222
 30
0.0
  0
POINT
  5
5B3A
330
5B2F
100
AcDbEntity
  8
Defpoints
 62
     0
100
AcDbPoint
 10
1719.57124178219
 20
1475.374973595827
 30
0.0
  0
ENDBLK
  5
5B31
330
5B2F
100
AcDbEntity
  8
0
100
AcDbBlockEnd
  0
BLOCK
  5
5B4C
330
5B4B
100
AcDbEntity
  8
0
100
AcDbBlockBegin
  2
*D21
 70
     1
 10
0.0
 20
0.0
 30
0.0
  3
*D21
  1

  0
LINE
  5
5B4E
330
5B4B
100
AcDbEntity
  8
Dim
 62
     0
370
    -2
100
AcDbLine
 10
390.6991698384072
 20
1397.691808403423
 30
0.0
 11
390.6991698384072
 21
1436.960261637616
 31
0.0
  0
LINE
  5
5B4F
330
5B4B
100
AcDbEntity
  8
Dim
 62
     0
370
    -2
100
AcDbLine
 10
890.6991698384068
 20
1397.691808403423
 30
0.0
 11
890.6991698384068
 21
1436.960261637616
 31
0.0
  0
LINE
  5
5B50
330
5B4B
100
AcDbEntity
  8
Dim
 62
     0
370
    -2
100
AcDbLine
 10
400.6985594868447
 20
1436.960261637616
 30
0.0
 11
880.6997801899693
 21
1436.960261637616
 31
0.0
  0
INSERT
  5
5B51
330
5B4B
100
AcDbEntity
  8
Dim
 62
     0
370
    -2
100
AcDbBlockReference
  2
_DOT
 10
390.6991698384072
 20
1436.960261637616
 30
0.0
 41
9.999389648437498
 42
9.999389648437498
 43
9.999389648437498
 50
180.0
  0
INSERT
  5
5B52
330
5B4B
100
AcDbEntity
  8
Dim
 62
     0
370
    -2
100
AcDbBlockReference
  2
_DOT
 10
890.6991698384068
 20
1436.960261637616
 30
0.0
 41
9.999389648437498
 42
9.999389648437498
 43
9.999389648437498
  0
MTEXT
  5
5B53
330
5B4B
100
AcDbEntity
  8
Dim
 62
     0
100
AcDbMText
 10
640.6991698384072
 20
1459.176570231366
 30
0.0
 40
24.4326171875
 41
0.0
 46
0.0
 71
     5
 72
     1
  1
\A1;500
  7
ＭＳ ゴシック
 73
     1
 44
1.0
  0
POINT
  5
5B54
330
5B4B
100
AcDbEntity
  8
Defpoints
 62
     0
100
AcDbPoint
 10
390.6991698384072
 20
1372.691808403423
 30
0.0
  0
POINT
  5
5B55
330
5B4B
100
AcDbEntity
  8
Defpoints
 62
     0
100
AcDbPoint
 10
890.6991698384068
 20
1372.691808403423
 30
0.0
  0
POINT
  5
5B56
330
5B4B
100
AcDbEntity
  8
Defpoints
 62
     0
100
AcDbPoint
 10
890.6991698384068
 20
1436.960261637616
 30
0.0
  0
ENDBLK
  5
5B4D
330
5B4B
100
AcDbEntity
  8
0
100
AcDbBlockEnd
  0
BLOCK
  5
5C2E
330
5C2D
100
AcDbEntity
  8
0
100
AcDbBlockBegin
  2
*D22
 70
     1
 10
0.0
 20
0.0
 30
0.0
  3
*D22
  1

  0
LINE
  5
5C30
330
5C2D
100
AcDbEntity
  8
Dim
 62
     0
370
    -2
100
AcDbLine
 10
875.6107411823859
 20
1887.786691690341
 30
0.0
 11
1066.9191072
 21
1887.786691690341
 31
0.0
  0
LINE
  5
5C31
330
5C2D
100
AcDbEntity
  8
Dim
 62
     0
370
    -2
100
AcDbLine
 10
876.0153470478631
 20
2557.786691690341
 30
0.0
 11
1066.9191072
 21
2557.786691690341
 31
0.0
  0
LINE
  5
5C32
330
5C2D
100
AcDbEntity
  8
Dim
 62
     0
370
    -2
100
AcDbLine
 10
1066.9191072
 20
1897.786081338778
 30
0.0
 11
1066.9191072
 21
2547.787302041903
 31
0.0
  0
INSERT
  5
5C33
330
5C2D
100
AcDbEntity
  8
Dim
 62
     0
370
    -2
100
AcDbBlockReference
  2
_DOT
 10
1066.9191072
 20
1887.786691690341
 30
0.0
 41
9.999389648437498
 42
9.999389648437498
 43
9.999389648437498
 50
270.0
  0
INSERT
  5
5C34
330
5C2D
100
AcDbEntity
  8
Dim
 62
     0
370
    -2
100
AcDbBlockReference
  2
_DOT
 10
1066.9191072
 20
2557.786691690341
 30
0.0
 41
9.999389648437498
 42
9.999389648437498
 43
9.999389648437498
 50
90.0
  0
MTEXT
  5
5C35
330
5C2D
100
AcDbEntity
  8
Dim
 62
     0
100
AcDbMText
 10
1044.70279860625
 20
2222.786691690341
 30
0.0
 40
24.4326171875
 41
0.0
 46
0.0
 71
     5
 72
     1
  1
\A1;670
  7
ＭＳ ゴシック
 11
0.0
 21
1.0
 31
0.0
 73
     1
 44
1.0
  0
POINT
  5
5C36
330
5C2D
100
AcDbEntity
  8
Defpoints
 62
     0
100
AcDbPoint
 10
850.6107411823859
 20
1887.786691690341
 30
0.0
  0
POINT
  5
5C37
330
5C2D
100
AcDbEntity
  8
Defpoints
 62
     0
100
AcDbPoint
 10
851.0153470478631
 20
2557.786691690341
 30
0.0
  0
POINT
  5
5C38
330
5C2D
100
AcDbEntity
  8
Defpoints
 62
     0
100
AcDbPoint
 10
1066.9191072
 20
2557.786691690341
 30
0.0
  0
ENDBLK
  5
5C2F
330
5C2D
100
AcDbEntity
  8
0
100
AcDbBlockEnd
  0
BLOCK
  5
5C48
330
5C47
100
AcDbEntity
  8
0
100
AcDbBlockBegin
  2
*D23
 70
     1
 10
0.0
 20
0.0
 30
0.0
  3
*D23
  1

  0
LINE
  5
5C4A
330
5C47
100
AcDbEntity
  8
Dim
 62
     0
370
    -2
100
AcDbLine
 10
390.6991698384081
 20
2715.7859037893
 30
0.0
 11
390.6991698384081
 21
2756.767001472
 31
0.0
  0
LINE
  5
5C4B
330
5C47
100
AcDbEntity
  8
Dim
 62
     0
370
    -2
100
AcDbLine
 10
850.6991698384081
 20
2595.265390650555
 30
0.0
 11
850.6991698384081
 21
2756.767001472
 31
0.0
  0
LINE
  5
5C4C
330
5C47
100
AcDbEntity
  8
Dim
 62
     0
370
    -2
100
AcDbLine
 10
400.6985594868456
 20
2756.767001472
 30
0.0
 11
840.6997801899706
 21
2756.767001472
 31
0.0
  0
INSERT
  5
5C4D
330
5C47
100
AcDbEntity
  8
Dim
 62
     0
370
    -2
100
AcDbBlockReference
  2
_DOT
 10
390.6991698384081
 20
2756.767001472
 30
0.0
 41
9.999389648437498
 42
9.999389648437498
 43
9.999389648437498
 50
180.0
  0
INSERT
  5
5C4E
330
5C47
100
AcDbEntity
  8
Dim
 62
     0
370
    -2
100
AcDbBlockReference
  2
_DOT
 10
850.6991698384081
 20
2756.767001472
 30
0.0
 41
9.999389648437498
 42
9.999389648437498
 43
9.999389648437498
  0
MTEXT
  5
5C4F
330
5C47
100
AcDbEntity
  8
Dim
 62
     0
100
AcDbMText
 10
620.699169838408
 20
2778.98331006575
 30
0.0
 40
24.4326171875
 41
0.0
 46
0.0
 71
     5
 72
     1
  1
\A1;460
  7
ＭＳ ゴシック
 73
     1
 44
1.0
  0
POINT
  5
5C50
330
5C47
100
AcDbEntity
  8
Defpoints
 62
     0
100
AcDbPoint
 10
390.6991698384081
 20
2690.7859037893
 30
0.0
  0
POINT
  5
5C51
330
5C47
100
AcDbEntity
  8
Defpoints
 62
     0
100
AcDbPoint
 10
850.6991698384081
 20
2570.265390650555
 30
0.0
  0
POINT
  5
5C52
330
5C47
100
AcDbEntity
  8
Defpoints
 62
     0
100
AcDbPoint
 10
850.6991698384081
 20
2756.767001472
 30
0.0
  0
ENDBLK
  5
5C49
330
5C47
100
AcDbEntity
  8
0
100
AcDbBlockEnd
  0
BLOCK
  5
5C63
330
5C62
100
AcDbEntity
  8
0
100
AcDbBlockBegin
  2
*D24
 70
     1
 10
0.0
 20
0.0
 30
0.0
  3
*D24
  1

  0
LINE
  5
5C65
330
5C62
100
AcDbEntity
  8
Dim
 62
     0
370
    -2
100
AcDbLine
 10
932.8992025803755
 20
624.5346440988851
 30
0.0
 11
990.7262760067983
 21
624.5346440988851
 31
0.0
  0
LINE
  5
5C66
330
5C62
100
AcDbEntity
  8
Dim
 62
     0
370
    -2
100
AcDbLine
 10
932.8992025803745
 20
1344.534644098885
 30
0.0
 11
990.7262760067983
 21
1344.534644098885
 31
0.0
  0
LINE
  5
5C67
330
5C62
100
AcDbEntity
  8
Dim
 62
     0
370
    -2
100
AcDbLine
 10
990.7262760067983
 20
634.5340337473226
 30
0.0
 11
990.7262760067983
 21
1334.535254450448
 31
0.0
  0
INSERT
  5
5C68
330
5C62
100
AcDbEntity
  8
Dim
 62
     0
370
    -2
100
AcDbBlockReference
  2
_DOT
 10
990.7262760067983
 20
624.5346440988851
 30
0.0
 41
9.999389648437498
 42
9.999389648437498
 43
9.999389648437498
 50
270.0
  0
INSERT
  5
5C69
330
5C62
100
AcDbEntity
  8
Dim
 62
     0
370
    -2
100
AcDbBlockReference
  2
_DOT
 10
990.7262760067983
 20
1344.534644098885
 30
0.0
 41
9.999389648437498
 42
9.999389648437498
 43
9.999389648437498
 50
90.0
  0
MTEXT
  5
5C6A
330
5C62
100
AcDbEntity
  8
Dim
 62
     0
100
AcDbMText
 10
968.5099674130483
 20
984.5346440988851
 30
0.0
 40
24.4326171875
 41
0.0
 46
0.0
 71
     5
 72
     1
  1
\A1;720
  7
ＭＳ ゴシック
 11
0.0
 21
1.0
 31
0.0
 73
     1
 44
1.0
  0
POINT
  5
5C6B
330
5C62
100
AcDbEntity
  8
Defpoints
 62
     0
100
AcDbPoint
 10
907.8992025803755
 20
624.5346440988851
 30
0.0
  0
POINT
  5
5C6C
330
5C62
100
AcDbEntity
  8
Defpoints
 62
     0
100
AcDbPoint
 10
907.8992025803745
 20
1344.534644098885
 30
0.0
  0
POINT
  5
5C6D
330
5C62
100
AcDbEntity
  8
Defpoints
 62
     0
100
AcDbPoint
 10
990.7262760067983
 20
1344.534644098885
 30
0.0
  0
ENDBLK
  5
5C64
330
5C62
100
AcDbEntity
  8
0
100
AcDbBlockEnd
  0
BLOCK
  5
5C73
330
5C72
100
AcDbEntity
  8
0
100
AcDbBlockBegin
  2
*D25
 70
     1
 10
0.0
 20
0.0
 30
0.0
  3
*D25
  1

  0
LINE
  5
5C75
330
5C72
100
AcDbEntity
  8
Dim
 62
     0
370
    -2
100
AcDbLine
 10
520.6991697169437
 20
579.2710258112711
 30
0.0
 11
520.6991697169437
 21
496.6396658000818
 31
0.0
  0
LINE
  5
5C76
330
5C72
100
AcDbEntity
  8
Dim
 62
     0
370
    -2
100
AcDbLine
 10
875.6991697169437
 20
579.2710258112711
 30
0.0
 11
875.6991697169437
 21
496.6396658000817
 31
0.0
  0
LINE
  5
5C77
330
5C72
100
AcDbEntity
  8
Dim
 62
     0
370
    -2
100
AcDbLine
 10
530.6985593653812
 20
496.6396658000818
 30
0.0
 11
865.6997800685062
 21
496.6396658000817
 31
0.0
  0
INSERT
  5
5C78
330
5C72
100
AcDbEntity
  8
Dim
 62
     0
370
    -2
100
AcDbBlockReference
  2
_DOT
 10
520.6991697169437
 20
496.6396658000818
 30
0.0
 41
9.999389648437498
 42
9.999389648437498
 43
9.999389648437498
 50
180.0
  0
INSERT
  5
5C79
330
5C72
100
AcDbEntity
  8
Dim
 62
     0
370
    -2
100
AcDbBlockReference
  2
_DOT
 10
875.6991697169437
 20
496.6396658000817
 30
0.0
 41
9.999389648437498
 42
9.999389648437498
 43
9.999389648437498
 50
360.0
  0
MTEXT
  5
5C7A
330
5C72
100
AcDbEntity
  8
Dim
 62
     0
100
AcDbMText
 10
698.1991697169437
 20
518.8559743938317
 30
0.0
 40
24.4326171875
 41
0.0
 46
0.0
 71
     5
 72
     1
  1
\A1;355
  7
ＭＳ ゴシック
 73
     1
 44
1.0
  0
POINT
  5
5C7B
330
5C72
100
AcDbEntity
  8
Defpoints
 62
     0
100
AcDbPoint
 10
520.6991697169437
 20
604.2710258112711
 30
0.0
  0
POINT
  5
5C7C
330
5C72
100
AcDbEntity
  8
Defpoints
 62
     0
100
AcDbPoint
 10
875.6991697169437
 20
604.2710258112711
 30
0.0
  0
POINT
  5
5C7D
330
5C72
100
AcDbEntity
  8
Defpoints
 62
     0
100
AcDbPoint
 10
875.6991697169437
 20
496.6396658000817
 30
0.0
  0
ENDBLK
  5
5C74
330
5C72
100
AcDbEntity
  8
0
100
AcDbBlockEnd
  0
BLOCK
  5
5C84
330
5C83
100
AcDbEntity
  8
0
100
AcDbBlockBegin
  2
*D26
 70
     1
 10
0.0
 20
0.0
 30
0.0
  3
*D26
  1

  0
LINE
  5
5C86
330
5C83
100
AcDbEntity
  8
Dim
 62
     0
370
    -2
100
AcDbLine
 10
1534.528991776994
 20
2549.130218768765
 30
0.0
 11
1495.461813198556
 21
2549.130218768765
 31
0.0
  0
LINE
  5
5C87
330
5C83
100
AcDbEntity
  8
Dim
 62
     0
370
    -2
100
AcDbLine
 10
1534.528991776994
 20
2484.130218768765
 30
0.0
 11
1495.461813198556
 21
2484.130218768765
 31
0.0
  0
LINE
  5
5C88
330
5C83
100
AcDbEntity
  8
Dim
 62
     0
370
    -2
100
AcDbLine
 10
1495.461813198556
 20
2539.130829120328
 30
0.0
 11
1495.461813198556
 21
2494.129608417203
 31
0.0
  0
INSERT
  5
5C89
330
5C83
100
AcDbEntity
  8
Dim
 62
     0
370
    -2
100
AcDbBlockReference
  2
_DOT
 10
1495.461813198556
 20
2549.130218768765
 30
0.0
 41
9.999389648437498
 42
9.999389648437498
 43
9.999389648437498
 50
90.0
  0
INSERT
  5
5C8A
330
5C83
100
AcDbEntity
  8
Dim
 62
     0
370
    -2
100
AcDbBlockReference
  2
_DOT
 10
1495.461813198556
 20
2484.130218768765
 30
0.0
 41
9.999389648437498
 42
9.999389648437498
 43
9.999389648437498
 50
270.0
  0
MTEXT
  5
5C8B
330
5C83
100
AcDbEntity
  8
Dim
 62
     0
100
AcDbMText
 10
1473.245504604806
 20
2516.630218768765
 30
0.0
 40
24.4326171875
 41
0.0
 46
0.0
 71
     5
 72
     1
  1
\A1;65
  7
ＭＳ ゴシック
 11
0.0
 21
1.0
 31
0.0
 73
     1
 44
1.0
  0
POINT
  5
5C8C
330
5C83
100
AcDbEntity
  8
Defpoints
 62
     0
100
AcDbPoint
 10
1559.528991776994
 20
2549.130218768765
 30
0.0
  0
POINT
  5
5C8D
330
5C83
100
AcDbEntity
  8
Defpoints
 62
     0
100
AcDbPoint
 10
1559.528991776994
 20
2484.130218768765
 30
0.0
  0
POINT
  5
5C8E
330
5C83
100
AcDbEntity
  8
Defpoints
 62
     0
100
AcDbPoint
 10
1495.461813198556
 20
2484.130218768765
 30
0.0
  0
ENDBLK
  5
5C85
330
5C83
100
AcDbEntity
  8
0
100
AcDbBlockEnd
  0
BLOCK
  5
5C93
330
5C92
100
AcDbEntity
  8
0
100
AcDbBlockBegin
  2
*D27
 70
     1
 10
0.0
 20
0.0
 30
0.0
  3
*D27
  1

  0
LINE
  5
5C95
330
5C92
100
AcDbEntity
  8
Dim
 62
     0
370
    -2
100
AcDbLine
 10
1770.531084966301
 20
2549.13022491148
 30
0.0
 11
1911.001609198328
 21
2549.13022491148
 31
0.0
  0
LINE
  5
5C96
330
5C92
100
AcDbEntity
  8
Dim
 62
     0
370
    -2
100
AcDbLine
 10
1770.531084966301
 20
2149.13022491148
 30
0.0
 11
1911.001609198328
 21
2149.13022491148
 31
0.0
  0
LINE
  5
5C97
330
5C92
100
AcDbEntity
  8
Dim
 62
     0
370
    -2
100
AcDbLine
 10
1911.001609198328
 20
2539.130835263042
 30
0.0
 11
1911.001609198328
 21
2159.129614559917
 31
0.0
  0
INSERT
  5
5C98
330
5C92
100
AcDbEntity
  8
Dim
 62
     0
370
    -2
100
AcDbBlockReference
  2
_DOT
 10
1911.001609198328
 20
2549.13022491148
 30
0.0
 41
9.999389648437498
 42
9.999389648437498
 43
9.999389648437498
 50
90.0
  0
INSERT
  5
5C99
330
5C92
100
AcDbEntity
  8
Dim
 62
     0
370
    -2
100
AcDbBlockReference
  2
_DOT
 10
1911.001609198328
 20
2149.13022491148
 30
0.0
 41
9.999389648437498
 42
9.999389648437498
 43
9.999389648437498
 50
270.0
  0
MTEXT
  5
5C9A
330
5C92
100
AcDbEntity
  8
Dim
 62
     0
100
AcDbMText
 10
1888.785300604578
 20
2349.13022491148
 30
0.0
 40
24.4326171875
 41
0.0
 46
0.0
 71
     5
 72
     1
  1
\A1;400
  7
ＭＳ ゴシック
 11
0.0
 21
1.0
 31
0.0
 73
     1
 44
1.0
  0
POINT
  5
5C9B
330
5C92
100
AcDbEntity
  8
Defpoints
 62
     0
100
AcDbPoint
 10
1745.531084966301
 20
2549.13022491148
 30
0.0
  0
POINT
  5
5C9C
330
5C92
100
AcDbEntity
  8
Defpoints
 62
     0
100
AcDbPoint
 10
1745.531084966301
 20
2149.13022491148
 30
0.0
  0
POINT
  5
5C9D
330
5C92
100
AcDbEntity
  8
Defpoints
 62
     0
100
AcDbPoint
 10
1911.001609198328
 20
2149.13022491148
 30
0.0
  0
ENDBLK
  5
5C94
330
5C92
100
AcDbEntity
  8
0
100
AcDbBlockEnd
  0
BLOCK
  5
5CDF
330
5CDE
100
AcDbEntity
  8
0
100
AcDbBlockBegin
  2
*D28
 70
     1
 10
0.0
 20
0.0
 30
0.0
  3
*D28
  1

  0
LINE
  5
5CE1
330
5CDE
100
AcDbEntity
  8
Dim
  6
Continuous
 62
     0
370
    -2
100
AcDbLine
 10
1550.701381236721
 20
2322.13553639403
 30
0.0
 11
1371.044118903006
 21
2322.135536394031
 31
0.0
  0
LINE
  5
5CE2
330
5CDE
100
AcDbEntity
  8
Dim
  6
Continuous
 62
     0
370
    -2
100
AcDbLine
 10
1663.197531527036
 20
2322.135536394029
 30
0.0
 11
1560.700770885158
 21
2322.13553639403
 31
0.0
  0
LINE
  5
5CE3
330
5CDE
100
AcDbEntity
  8
Dim
  6
Continuous
 62
     0
370
    -2
100
AcDbLine
 10
1560.700770885158
 20
2322.13553639403
 30
0.0
 11
1570.700160533596
 21
2322.13553639403
 31
0.0
  0
INSERT
  5
5CE4
330
5CDE
100
AcDbEntity
  8
Dim
 62
     0
370
    -2
100
AcDbBlockReference
  2
_DOT
 10
1673.196921175474
 20
2322.135536394029
 30
0.0
 41
9.999389648437498
 42
9.999389648437498
 43
9.999389648437498
 50
359.9999999999998
  0
INSERT
  5
5CE5
330
5CDE
100
AcDbEntity
  8
Dim
 62
     0
370
    -2
100
AcDbBlockReference
  2
_DOT
 10
1550.701381236721
 20
2322.13553639403
 30
0.0
 41
9.999389648437498
 42
9.999389648437498
 43
9.999389648437498
 50
179.9999999999998
  0
MTEXT
  5
5CE6
330
5CDE
100
AcDbEntity
  8
Dim
 62
     0
100
AcDbMText
 10
1447.232078863943
 20
2346.514131608874
 30
0.0
 40
24.4326171875
 41
0.0
 46
0.0
 71
     5
 72
     1
  1
\A1;120(深さ)
  7
ＭＳ ゴシック
 73
     1
 44
1.0
  0
POINT
  5
5CE7
330
5CDE
100
AcDbEntity
  8
Defpoints
 62
     0
100
AcDbPoint
 10
1673.196921175474
 20
2321.116836511365
 30
0.0
  0
POINT
  5
5CE8
330
5CDE
100
AcDbEntity
  8
Defpoints
 62
     0
100
AcDbPoint
 10
1550.701381236721
 20
2322.13553639403
 30
0.0
  0
POINT
  5
5CE9
330
5CDE
100
AcDbEntity
  8
Defpoints
 62
     0
100
AcDbPoint
 10
1550.701381236721
 20
2322.13553639403
 30
0.0
  0
ENDBLK
  5
5CE0
330
5CDE
100
AcDbEntity
  8
0
100
AcDbBlockEnd
  0
BLOCK
  5
5DD0
330
5DCF
100
AcDbEntity
  8
0
100
AcDbBlockBegin
  2
*D29
 70
     1
 10
0.0
 20
0.0
 30
0.0
  3
*D29
  1

  0
LINE
  5
5DD2
330
5DCF
100
AcDbEntity
  8
Dim
 62
     0
370
    -2
100
AcDbLine
 10
1741.926543294624
 20
708.8129254732762
 30
0.0
 11
1821.021515404046
 21
708.8129254732762
 31
0.0
  0
LINE
  5
5DD3
330
5DCF
100
AcDbEntity
  8
Dim
 62
     0
370
    -2
100
AcDbLine
 10
1741.926543294624
 20
1258.812925473276
 30
0.0
 11
1821.021515404046
 21
1258.812925473276
 31
0.0
  0
LINE
  5
5DD4
330
5DCF
100
AcDbEntity
  8
Dim
 62
     0
370
    -2
100
AcDbLine
 10
1821.021515404046
 20
718.8123151217137
 30
0.0
 11
1821.021515404046
 21
1248.813535824839
 31
0.0
  0
INSERT
  5
5DD5
330
5DCF
100
AcDbEntity
  8
Dim
 62
     0
370
    -2
100
AcDbBlockReference
  2
_DOT
 10
1821.021515404046
 20
708.8129254732762
 30
0.0
 41
9.999389648437498
 42
9.999389648437498
 43
9.999389648437498
 50
270.0
  0
INSERT
  5
5DD6
330
5DCF
100
AcDbEntity
  8
Dim
 62
     0
370
    -2
100
AcDbBlockReference
  2
_DOT
 10
1821.021515404046
 20
1258.812925473276
 30
0.0
 41
9.999389648437498
 42
9.999389648437498
 43
9.999389648437498
 50
90.0
  0
MTEXT
  5
5DD7
330
5DCF
100
AcDbEntity
  8
Dim
 62
     0
100
AcDbMText
 10
1798.805206810296
 20
983.8129254732762
 30
0.0
 40
24.4326171875
 41
0.0
 46
0.0
 71
     5
 72
     1
  1
\A1;550
  7
ＭＳ ゴシック
 11
0.0
 21
1.0
 31
0.0
 73
     1
 44
1.0
  0
POINT
  5
5DD8
330
5DCF
100
AcDbEntity
  8
Defpoints
 62
     0
100
AcDbPoint
 10
1716.926543294624
 20
708.8129254732762
 30
0.0
  0
POINT
  5
5DD9
330
5DCF
100
AcDbEntity
  8
Defpoints
 62
     0
100
AcDbPoint
 10
1716.926543294624
 20
1258.812925473276
 30
0.0
  0
POINT
  5
5DDA
330
5DCF
100
AcDbEntity
  8
Defpoints
 62
     0
100
AcDbPoint
 10
1821.021515404046
 20
1258.812925473276
 30
0.0
  0
ENDBLK
  5
5DD1
330
5DCF
100
AcDbEntity
  8
0
100
AcDbBlockEnd
  0
BLOCK
  5
5DF7
330
5DF6
100
AcDbEntity
  8
0
100
AcDbBlockBegin
  2
*D30
 70
     1
 10
0.0
 20
0.0
 30
0.0
  3
*D30
  1

  0
LINE
  5
5DF9
330
5DF6
100
AcDbEntity
  8
Dim
 62
     0
370
    -2
100
AcDbLine
 10
390.6991698384072
 20
2474.534829850205
 30
0.0
 11
390.6991698384072
 21
2647.647323136
 31
0.0
  0
LINE
  5
5DFA
330
5DF6
100
AcDbEntity
  8
Dim
 62
     0
370
    -2
100
AcDbLine
 10
670.6991698384077
 20
2474.534829850205
 30
0.0
 11
670.6991698384077
 21
2647.647323136
 31
0.0
  0
LINE
  5
5DFB
330
5DF6
100
AcDbEntity
  8
Dim
 62
     0
370
    -2
100
AcDbLine
 10
400.6985594868447
 20
2647.647323136
 30
0.0
 11
660.6997801899702
 21
2647.647323136
 31
0.0
  0
INSERT
  5
5DFC
330
5DF6
100
AcDbEntity
  8
Dim
 62
     0
370
    -2
100
AcDbBlockReference
  2
_DOT
 10
390.6991698384072
 20
2647.647323136
 30
0.0
 41
9.999389648437498
 42
9.999389648437498
 43
9.999389648437498
 50
180.0
  0
INSERT
  5
5DFD
330
5DF6
100
AcDbEntity
  8
Dim
 62
     0
370
    -2
100
AcDbBlockReference
  2
_DOT
 10
670.6991698384077
 20
2647.647323136
 30
0.0
 41
9.999389648437498
 42
9.999389648437498
 43
9.999389648437498
  0
MTEXT
  5
5DFE
330
5DF6
100
AcDbEntity
  8
Dim
 62
     0
100
AcDbMText
 10
530.6991698384074
 20
2669.86363172975
 30
0.0
 40
24.4326171875
 41
0.0
 46
0.0
 71
     5
 72
     1
  1
\A1;280
  7
ＭＳ ゴシック
 73
     1
 44
1.0
  0
POINT
  5
5DFF
330
5DF6
100
AcDbEntity
  8
Defpoints
 62
     0
100
AcDbPoint
 10
390.6991698384072
 20
2449.534829850205
 30
0.0
  0
POINT
  5
5E00
330
5DF6
100
AcDbEntity
  8
Defpoints
 62
     0
100
AcDbPoint
 10
670.6991698384077
 20
2449.534829850205
 30
0.0
  0
POINT
  5
5E01
330
5DF6
100
AcDbEntity
  8
Defpoints
 62
     0
100
AcDbPoint
 10
670.6991698384077
 20
2647.647323136
 30
0.0
  0
ENDBLK
  5
5DF8
330
5DF6
100
AcDbEntity
  8
0
100
AcDbBlockEnd
  0
BLOCK
  5
5E06
330
5E05
100
AcDbEntity
  8
0
100
AcDbBlockBegin
  2
*D31
 70
     1
 10
0.0
 20
0.0
 30
0.0
  3
*D31
  1

  0
LINE
  5
5E08
330
5E05
100
AcDbEntity
  8
Dim
 62
     0
370
    -2
100
AcDbLine
 10
695.6991698384077
 20
2046.815418650204
 30
0.0
 11
996.0876959999998
 21
2046.815418650204
 31
0.0
  0
LINE
  5
5E09
330
5E05
100
AcDbEntity
  8
Dim
 62
     0
370
    -2
100
AcDbLine
 10
695.6991698384077
 20
2396.815418650204
 30
0.0
 11
996.0876959999998
 21
2396.815418650204
 31
0.0
  0
LINE
  5
5E0A
330
5E05
100
AcDbEntity
  8
Dim
 62
     0
370
    -2
100
AcDbLine
 10
996.0876959999998
 20
2056.814808298641
 30
0.0
 11
996.0876959999998
 21
2386.816029001766
 31
0.0
  0
INSERT
  5
5E0B
330
5E05
100
AcDbEntity
  8
Dim
 62
     0
370
    -2
100
AcDbBlockReference
  2
_DOT
 10
996.0876959999998
 20
2046.815418650204
 30
0.0
 41
9.999389648437498
 42
9.999389648437498
 43
9.999389648437498
 50
270.0
  0
INSERT
  5
5E0C
330
5E05
100
AcDbEntity
  8
Dim
 62
     0
370
    -2
100
AcDbBlockReference
  2
_DOT
 10
996.0876959999998
 20
2396.815418650204
 30
0.0
 41
9.999389648437498
 42
9.999389648437498
 43
9.999389648437498
 50
90.0
  0
MTEXT
  5
5E0D
330
5E05
100
AcDbEntity
  8
Dim
 62
     0
100
AcDbMText
 10
973.8713874062498
 20
2221.815418650204
 30
0.0
 40
24.4326171875
 41
0.0
 46
0.0
 71
     5
 72
     1
  1
\A1;350
  7
ＭＳ ゴシック
 11
0.0
 21
1.0
 31
0.0
 73
     1
 44
1.0
  0
POINT
  5
5E0E
330
5E05
100
AcDbEntity
  8
Defpoints
 62
     0
100
AcDbPoint
 10
670.6991698384077
 20
2046.815418650204
 30
0.0
  0
POINT
  5
5E0F
330
5E05
100
AcDbEntity
  8
Defpoints
 62
     0
100
AcDbPoint
 10
670.6991698384077
 20
2396.815418650204
 30
0.0
  0
POINT
  5
5E10
330
5E05
100
AcDbEntity
  8
Defpoints
 62
     0
100
AcDbPoint
 10
996.0876959999998
 20
2396.815418650204
 30
0.0
  0
ENDBLK
  5
5E07
330
5E05
100
AcDbEntity
  8
0
100
AcDbBlockEnd
  0
BLOCK
  5
5EE0
330
5EDF
100
AcDbEntity
  8
0
100
AcDbBlockBegin
  2
*D32
 70
     1
 10
0.0
 20
0.0
 30
0.0
  3
*D32
  1

  0
LINE
  5
5EE2
330
5EDF
100
AcDbEntity
  8
Dim
 62
     0
370
    -2
100
AcDbLine
 10
1714.571251085951
 20
2275.130236835826
 30
0.0
 11
1714.571251085951
 21
2246.496448425474
 31
0.0
  0
LINE
  5
5EE3
330
5EDF
100
AcDbEntity
  8
Dim
 62
     0
370
    -2
100
AcDbLine
 10
1719.57125077463
 20
2275.130236765071
 30
0.0
 11
1719.57125077463
 21
2246.496448425474
 31
0.0
  0
LINE
  5
5EE4
330
5EDF
100
AcDbEntity
  8
Dim
 62
     0
370
    -2
100
AcDbLine
 10
1719.57125077463
 20
2246.496448425474
 30
0.0
 11
1780.897066471864
 21
2246.496448425474
 31
0.0
  0
LINE
  5
5EE5
330
5EDF
100
AcDbEntity
  8
Dim
 62
     0
370
    -2
100
AcDbLine
 10
1724.570640734388
 20
2246.496448425474
 30
0.0
 11
1709.571861126193
 21
2246.496448425474
 31
0.0
  0
LINE
  5
5EE6
330
5EDF
100
AcDbEntity
  8
Dim
 62
     0
370
    -2
100
AcDbLine
 10
1709.571861126193
 20
2246.496448425474
 30
0.0
 11
1699.572471477755
 21
2246.496448425474
 31
0.0
  0
INSERT
  5
5EE7
330
5EDF
100
AcDbEntity
  8
Dim
 62
     0
370
    -2
100
AcDbBlockReference
  2
_DOT
 10
1714.571251085951
 20
2246.496448425474
 30
0.0
 41
9.999389648437498
 42
9.999389648437498
 43
9.999389648437498
 50
180.0
  0
INSERT
  5
5EE8
330
5EDF
100
AcDbEntity
  8
Dim
 62
     0
370
    -2
100
AcDbBlockReference
  2
_DOT
 10
1719.57125077463
 20
2246.496448425474
 30
0.0
 41
9.999389648437498
 42
9.999389648437498
 43
9.999389648437498
  0
MTEXT
  5
5EE9
330
5EDF
100
AcDbEntity
  8
Dim
 62
     0
100
AcDbMText
 10
1764.581234928896
 20
2268.712757019224
 30
0.0
 40
24.4326171875
 41
0.0
 46
0.0
 71
     5
 72
     1
  1
\A1;5
  7
ＭＳ ゴシック
 73
     1
 44
1.0
  0
POINT
  5
5EEA
330
5EDF
100
AcDbEntity
  8
Defpoints
 62
     0
100
AcDbPoint
 10
1714.571251085951
 20
2300.130236835826
 30
0.0
  0
POINT
  5
5EEB
330
5EDF
100
AcDbEntity
  8
Defpoints
 62
     0
100
AcDbPoint
 10
1719.57125077463
 20
2300.130236765071
 30
0.0
  0
POINT
  5
5EEC
330
5EDF
100
AcDbEntity
  8
Defpoints
 62
     0
100
AcDbPoint
 10
1719.57125077463
 20
2246.496448425474
 30
0.0
  0
ENDBLK
  5
5EE1
330
5EDF
100
AcDbEntity
  8
0
100
AcDbBlockEnd
  0
ENDSEC
  0
SECTION
  2
ENTITIES
  0
MTEXT
  5
177
330
A
100
AcDbEntity
  8
template
390
1D
100
AcDbMText
 10
82.00000000048226
 20
348.023957835319
 30
0.0
 40
16.28841145833333
 41
0.0
 46
0.0
 71
     1
 72
     1
  1
品名
  7
ＭＳ ゴシック
 73
     1
 44
0.7828267384257843
  0
MTEXT
  5
178
330
A
100
AcDbEntity
  8
template
390
1D
100
AcDbMText
 10
82.00000000048226
 20
263.0239578353188
 30
0.0
 40
16.28841145833333
 41
0.0
 46
0.0
 71
     1
 72
     1
  1
仕様
  7
ＭＳ ゴシック
 73
     1
 44
0.7828267384257843
  0
LINE
  5
179
330
A
100
AcDbEntity
  8
template
390
1D
100
AcDbLine
 10
2025.0
 20
271.4388797103189
 30
0.0
 11
75.00000000000023
 21
271.4388797103189
 31
0.0
  0
LWPOLYLINE
  5
17A
330
A
100
AcDbEntity
  8
template
390
1D
100
AcDbPolyline
 90
        5
 70
   128
 43
0.0
 10
2025.0
 20
2901.438879710319
 10
75.00000000000023
 20
2901.438879710319
 10
75.00000000000023
 20
101.4388797103188
 10
2025.0
 20
101.4388797103188
 10
2025.0
 20
2901.438879710319
  0
LINE
  5
17B
330
A
100
AcDbEntity
  8
template
390
1D
100
AcDbLine
 10
2025.0
 20
356.4388797103188
 30
0.0
 11
75.00000000000023
 21
356.4388797103188
 31
0.0
  0
LINE
  5
17C
330
A
100
AcDbEntity
  8
template
390
1D
100
AcDbLine
 10
2025.000000000482
 20
186.4388797103189
 30
0.0
 11
1272.000000000482
 21
186.4388797103189
 31
0.0
  0
MTEXT
  5
17E
330
A
100
AcDbEntity
  8
template
390
1D
100
AcDbMText
 10
1301.871406252743
 20
156.5284852370108
 30
0.0
 40
24.4326171875
 41
0.0
 46
0.0
 71
     1
 72
     1
  1
大洋金物株式会社 ティーフォルム事業部
  7
ＭＳ ゴシック
 73
     1
 44
0.7828267384257843
  0
MTEXT
  5
180
330
A
100
AcDbEntity
  8
template
390
1D
100
AcDbMText
 10
1834.000000000742
 20
234.4414968978188
 30
0.0
 40
24.4326171875
 41
0.0
 46
0.0
 71
     1
 72
     1
  1
1:10
  7
ＭＳ ゴシック
 73
     1
 44
0.7828267384257843
  0
MTEXT
  5
181
330
A
100
AcDbEntity
  8
template
390
1D
100
AcDbMText
 10
1781.000000000742
 20
263.0239578353188
 30
0.0
 40
16.28841145833333
 41
0.0
 46
0.0
 71
     1
 72
     1
  1
縮尺
  7
ＭＳ ゴシック
 73
     1
 44
0.7828267384257843
  0
LINE
  5
182
330
A
100
AcDbEntity
  8
template
390
1D
100
AcDbLine
 10
1774.000000000742
 20
186.4388797103189
 30
0.0
 11
1774.000000000742
 21
271.4388797103189
 31
0.0
  0
MTEXT
  5
183
330
A
100
AcDbEntity
  8
template
390
1D
100
AcDbMText
 10
1530.000000000742
 20
263.0239578353188
 30
0.0
 40
16.28841145833333
 41
0.0
 46
0.0
 71
     1
 72
     1
  1
容量
  7
ＭＳ ゴシック
 73
     1
 44
0.7828267384257843
  0
LINE
  5
184
330
A
100
AcDbEntity
  8
template
390
1D
100
AcDbLine
 10
1523.000000000742
 20
186.4388797103189
 30
0.0
 11
1523.000000000742
 21
271.4388797103189
 31
0.0
  0
MTEXT
  5
185
330
A
100
AcDbEntity
  8
template
390
1D
100
AcDbMText
 10
1279.000000000742
 20
348.023957835319
 30
0.0
 40
16.28841145833333
 41
0.0
 46
0.0
 71
     1
 72
     1
  1
品番
  7
ＭＳ ゴシック
 73
     1
 44
0.7828267384257843
  0
MTEXT
  5
186
330
A
100
AcDbEntity
  8
template
390
1D
100
AcDbMText
 10
1279.000000000742
 20
263.0239578353188
 30
0.0
 40
16.28841145833333
 41
0.0
 46
0.0
 71
     1
 72
     1
  1
重量
  7
ＭＳ ゴシック
 73
     1
 44
0.7828267384257843
  0
MTEXT
  5
187
330
A
100
AcDbEntity
  8
template
390
1D
100
AcDbMText
 10
1332.000000000742
 20
319.4414968978188
 30
0.0
 40
24.4326171875
 41
0.0
 46
24.4326171875
 71
     1
 72
     1
  1
{ADF70-3010}
  7
ＭＳ ゴシック
 73
     1
 44
0.7828267384257843
1001
ACAD
1000
ACAD_MTEXT_DEFINED_HEIGHT_BEGIN
1070
    46
1040
24.4326171875
1000
ACAD_MTEXT_DEFINED_HEIGHT_END
  0
LINE
  5
188
330
A
100
AcDbEntity
  8
template
390
1D
100
AcDbLine
 10
1272.000000000742
 20
101.4388797103188
 30
0.0
 11
1272.000000000742
 21
356.4388797103188
 31
0.0
  0
MTEXT
  5
189
330
A
100
AcDbEntity
  8
template
390
1D
100
AcDbMText
 10
135.0000000004822
 20
319.4414968978188
 30
0.0
 40
24.4326171875
 41
0.0
 46
27.5355595703125
 71
     1
 72
     1
  1
{洗面器 -CATALANO, New Zero-}
  7
ＭＳ ゴシック
 73
     1
 44
0.7828267384257843
1001
ACAD
1000
ACAD_MTEXT_DEFINED_HEIGHT_BEGIN
1070
    46
1040
27.5355595703125
1000
ACAD_MTEXT_DEFINED_HEIGHT_END
  0
MTEXT
  5
18A
330
A
100
AcDbEntity
  8
template
 62
     1
390
1D
100
AcDbMText
 10
135.0000000004822
 20
234.4414968978188
 30
0.0
 40
24.4326171875
 41
0.0
 46
68.99651757812501
 71
     1
 72
     1
  1
{{\C256;壁掛け,カウンター置き,半埋め込み/オーバーフロー付き/壁取付ボルト付属/\P陶器/ホワイト}}
  7
ＭＳ ゴシック
 73
     1
 44
0.9822934569727008
1001
ACAD
1000
ACAD_MTEXT_DEFINED_HEIGHT_BEGIN
1070
    46
1040
68.99651757812501
1000
ACAD_MTEXT_DEFINED_HEIGHT_END
  0
MTEXT
  5
1A6
330
A
100
AcDbEntity
  8
template
390
1D
100
AcDbMText
 10
1332.000000000742
 20
234.4414968978188
 30
0.0
 40
24.4326171875
 41
0.0
 46
28.390701171875
 71
     1
 72
     1
  1
{24kg}
  7
ＭＳ ゴシック
 73
     1
 44
0.7828267384257843
1001
ACAD
1000
ACAD_MTEXT_DEFINED_HEIGHT_BEGIN
1070
    46
1040
28.390701171875
1000
ACAD_MTEXT_DEFINED_HEIGHT_END
  0
MTEXT
  5
374
330
A
100
AcDbEntity
  8
template
390
1D
100
AcDbMText
 10
1581.992122669024
 20
234.4414968978188
 30
0.0
 40
24.4326171875
 41
0.0
 46
24.4326171875
 71
     1
 72
     1
  1
{10L}
  7
ＭＳ ゴシック
 73
     1
 44
0.7828267384257843
1001
ACAD
1000
ACAD_MTEXT_DEFINED_HEIGHT_BEGIN
1070
    46
1040
24.4326171875
1000
ACAD_MTEXT_DEFINED_HEIGHT_END
  0
INSERT
  5
3D0
330
A
100
AcDbEntity
  8
template
100
AcDbBlockReference
  2
名称未設定-1
 10
1873.559250554905
 20
30.23897196054438
 30
0.0
 41
0.7619999999999999
 42
0.7619999999999999
 43
0.7619999999999999
  0
MTEXT
  5
BDB
102
{ACAD_XDICTIONARY
360
BDC
102
}
330
A
100
AcDbEntity
  8
template
  6
Continuous
100
AcDbMText
 10
78.95663872901252
 20
86.10730750352229
 30
0.0
 40
23.0
 41
0.0
 46
23.0
 71
     1
 72
     1
  1
{20190406N}
  7
ＭＳ ゴシック
 73
     1
 44
1.0
1001
ACAD
1000
ACAD_MTEXT_DEFINED_HEIGHT_BEGIN
1070
    46
1040
23.0
1000
ACAD_MTEXT_DEFINED_HEIGHT_END
  0
LWPOLYLINE
  5
BEE
330
A
100
AcDbEntity
  8
PRINT BORDER
100
AcDbPolyline
 90
        4
 70
     1
 43
0.0
 10
0.0
 20
0.0
 10
0.0
 20
2970.0
 10
2100.0
 20
2970.0
 10
2100.0
 20
0.0
  0
INSERT
  5
1273
330
A
100
AcDbEntity
  8
0
 62
     7
100
AcDbBlockReference
  2
BLOCK_2
 10
591.2037060744204
 20
943.564364962162
 30
0.0
  0
INSERT
  5
127B
330
A
100
AcDbEntity
  8
0
 62
     7
100
AcDbBlockReference
  2
BLOCK_2
 10
1291.863324028138
 20
1038.76992320659
 30
0.0
  0
INSERT
  5
127C
330
A
100
AcDbEntity
  8
0
 62
     7
100
AcDbBlockReference
  2
BLOCK_2
 10
652.1648429406905
 20
1595.641631888467
 30
0.0
  0
INSERT
  5
3B99
330
A
100
AcDbEntity
  8
retino
100
AcDbBlockReference
  2
mobile_latù
 10
-92101.31485198285
 20
1730.415535296608
 30
0.0
  0
INSERT
  5
467E
330
A
100
AcDbEntity
  8
retino
100
AcDbBlockReference
  2
mobile_latù
 10
-100894.893236163
 20
1696.039721945452
 30
0.0
  0
INSERT
  5
527B
330
A
100
AcDbEntity
  8
retino
100
AcDbBlockReference
  2
mobile_latù
 10
-89900.42748460227
 20
2057.97116653715
 30
0.0
  0
INSERT
  5
527C
330
A
100
AcDbEntity
  8
0
100
AcDbBlockReference
  2
.TD_SECTION_1
 10
225818104807.5758
 20
2467.422636311911
 30
0.0
  0
INSERT
  5
527D
330
A
100
AcDbEntity
  8
0
100
AcDbBlockReference
  2
.TD_SECTION_2
 10
225818170343.5758
 20
2467.422636311911
 30
0.0
  0
INSERT
  5
527E
330
A
100
AcDbEntity
  8
0
  6
Continuous
 62
     0
370
     0
100
AcDbBlockReference
  2
.TD_SECTION_1
 10
-8769.816836312122
 20
2681.893749185237
 30
0.0
  0
INSERT
  5
527F
330
A
100
AcDbEntity
  8
0
  6
Continuous
 62
     0
370
     0
100
AcDbBlockReference
  2
.TD_SECTION_2
 10
-9327.194994881458
 20
2989.447269387873
 30
0.0
  0
INSERT
  5
5280
330
A
100
AcDbEntity
  8
0
  6
Continuous
 62
     0
370
     0
100
AcDbBlockReference
  2
.TD_SECTION_1
 10
-11193.31175928566
 20
763.8992218647024
 30
0.0
  0
INSERT
  5
5281
330
A
100
AcDbEntity
  8
0
  6
Continuous
 62
     0
370
     0
100
AcDbBlockReference
  2
.TD_SECTION_2
 10
-10905.35097055885
 20
465.7910675678274
 30
0.0
  0
INSERT
  5
5282
330
A
100
AcDbEntity
  8
0
  6
Continuous
 62
     0
370
     0
100
AcDbBlockReference
  2
.TD_SECTION_1
 10
-11064.96092844183
 20
698.0103962023752
 30
0.0
  0
INSERT
  5
5283
330
A
100
AcDbEntity
  8
0
  6
Continuous
 62
     0
370
     0
100
AcDbBlockReference
  2
.TD_SECTION_2
 10
-10776.90956354314
 20
399.8117572863596
 30
0.0
  0
INSERT
  5
5284
330
A
100
AcDbEntity
  8
0
  6
Continuous
 62
     0
370
     0
100
AcDbBlockReference
  2
.TD_SECTION_1
 10
-1462.487522281953
 20
1958.724372419401
 30
0.0
  0
INSERT
  5
5285
330
A
100
AcDbEntity
  8
0
  6
Continuous
 62
     0
370
     0
100
AcDbBlockReference
  2
.TD_SECTION_2
 10
-1135.18037048752
 20
1672.677238019987
 30
0.0
  0
INSERT
  5
5286
330
A
100
AcDbEntity
  8
0
  6
Continuous
 62
     0
370
     0
100
AcDbBlockReference
  2
.TD_SECTION_1
 10
704.608903935718
 20
-713.9911611042783
 30
0.0
  0
INSERT
  5
5287
330
A
100
AcDbEntity
  8
0
  6
Continuous
 62
     0
370
     0
100
AcDbBlockReference
  2
.TD_SECTION_2
 10
1319.461252263355
 20
-1311.565746065216
 30
0.0
  0
LWPOLYLINE
  5
59B3
330
A
100
AcDbEntity
  8
MODEL
100
AcDbPolyline
 90
       17
 70
     0
 43
0.0
 10
524.7769587576586
 20
983.8141057972007
 10
524.7767413199149
 20
983.0641057972007
 10
524.7739327490526
 20
982.3141057972007
 10
524.7663605749808
 20
981.5641057972007
 10
524.7518513739305
 20
980.8141057972007
 10
524.7282326758109
 20
980.0719182972007
 10
524.6937010824877
 20
979.3297307972007
 10
524.6508982718187
 20
978.5875432972007
 10
524.6053994238578
 20
977.8453557972007
 10
524.5628321707445
 20
977.1031682972007
 10
524.5288270056449
 20
976.3453557972007
 10
524.5088074743949
 20
975.5797307972007
 10
524.4944041311937
 20
974.8062932972007
 10
524.4548342764579
 20
974.0406682972007
 10
524.3572648108211
 20
973.2906682972007
 10
524.1688626349169
 20
972.5719182972007
 10
523.8567927420336
 20
971.9078557972007
  0
LINE
  5
59B4
330
A
100
AcDbEntity
  8
MODEL
100
AcDbLine
 10
523.8567931294219
 20
971.9045401409585
 30
0.0
 11
523.7412383198516
 21
971.8291006878335
 31
0.0
  0
LINE
  5
59B5
330
A
100
AcDbEntity
  8
MODEL
100
AcDbLine
 10
523.7412383198516
 20
971.8291006878335
 30
0.0
 11
523.6249968647735
 21
971.9037314251382
 31
0.0
  0
LWPOLYLINE
  5
59B6
330
A
100
AcDbEntity
  8
MODEL
100
AcDbPolyline
 90
       17
 70
     0
 43
0.0
 10
523.624996477386
 20
971.9000432972007
 10
523.3115971625048
 20
972.5719182972007
 10
523.1226618826586
 20
973.2906682972007
 10
523.0251143515306
 20
974.0406682972007
 10
522.9858782828051
 20
974.8062932972007
 10
522.9718783438411
 20
975.5797307972007
 10
522.952108675262
 20
976.3453557972007
 10
522.9181521475521
 20
977.1031682972007
 10
522.8754942953788
 20
977.8453557972007
 10
522.8298228323656
 20
978.5875432972007
 10
522.786831194182
 20
979.3297307972007
 10
522.7521536886888
 20
980.0719182972007
 10
522.728460603972
 20
980.8141057972007
 10
522.7139323294359
 20
981.5641057972007
 10
522.7063754141527
 20
982.3141057972007
 10
522.7035944998461
 20
983.0641057972007
 10
522.7033961355887
 20
983.8141057972007
  0
LWPOLYLINE
  5
59B7
330
A
100
AcDbEntity
  8
MODEL
100
AcDbPolyline
 90
       17
 70
     0
 43
0.0
 10
524.7769587576586
 20
983.8141057972007
 10
524.7767413199149
 20
984.5641057972007
 10
524.7739327490526
 20
985.3141057972007
 10
524.7663605749808
 20
986.0641057972007
 10
524.7518513739305
 20
986.8062932972007
 10
524.7282326758109
 20
987.5562932972007
 10
524.6937010824877
 20
988.2984807972007
 10
524.6508982718187
 20
989.0328557972007
 10
524.6053994238578
 20
989.7750432972007
 10
524.5628331244188
 20
990.5250432972007
 10
524.5288270056449
 20
991.2750432972007
 10
524.5088074743949
 20
992.0406682972007
 10
524.4944031775199
 20
992.8141057972007
 10
524.454833322784
 20
993.5875432972007
 10
524.3572638571459
 20
994.3375432972007
 10
524.1688616812426
 20
995.0484807972007
 10
523.8567927420336
 20
995.7203557972007
  0
LINE
  5
59B8
330
A
100
AcDbEntity
  8
MODEL
100
AcDbLine
 10
523.8567931294219
 20
995.7212515667397
 30
0.0
 11
523.7412383198516
 21
995.7966910198647
 31
0.0
  0
LINE
  5
59B9
330
A
100
AcDbEntity
  8
MODEL
100
AcDbLine
 10
523.7412383198516
 20
995.7966910198647
 30
0.0
 11
523.6249968647735
 21
995.72206028256
 31
0.0
  0
LWPOLYLINE
  5
59BA
330
A
100
AcDbEntity
  8
MODEL
100
AcDbPolyline
 90
       17
 70
     0
 43
0.0
 10
523.624996477386
 20
995.7203557972007
 10
523.3115962088309
 20
995.0562932972007
 10
523.12265997531
 20
994.3375432972007
 10
523.025112444182
 20
993.5875432972007
 10
522.9858782828051
 20
992.8141057972007
 10
522.9718783438411
 20
992.0406682972007
 10
522.952108675262
 20
991.2750432972007
 10
522.9181521475521
 20
990.5250432972007
 10
522.8754942953788
 20
989.7750432972007
 10
522.8298228323656
 20
989.0328557972007
 10
522.786831194182
 20
988.2984807972007
 10
522.7521536886888
 20
987.5562932972007
 10
522.728460603972
 20
986.8062932972007
 10
522.7139323294359
 20
986.0641057972007
 10
522.7063754141527
 20
985.3141057972007
 10
522.7035944998461
 20
984.5641057972007
 10
522.7033961355887
 20
983.8141057972007
  0
LINE
  5
59BB
330
A
100
AcDbEntity
  8
MODEL
100
AcDbLine
 10
390.6991698384068
 20
611.8110655031546
 30
0.0
 11
390.6991698384072
 21
1355.814726204544
 31
0.0
  0
ELLIPSE
  5
59BC
330
A
100
AcDbEntity
  8
MODEL
100
AcDbEllipse
 10
393.6991698384072
 20
1355.814726204544
 30
0.0
 11
2.999999999999985
 21
-1.836970198721021E-16
 31
0.0
210
0.0
220
0.0
230
-1.0
 40
0.9993908270190958
 41
3.141592653589867
 42
3.166639785363391
  0
ARC
  5
59BD
330
A
100
AcDbEntity
  8
MODEL
100
AcDbCircle
 10
393.6992015489982
 20
1355.814694493956
 30
0.0
 40
3.000031710759218
100
AcDbArc
 50
90.00060562128337
 51
179.9993943785082
  0
ARC
  5
59BE
330
A
100
AcDbEntity
  8
MODEL
100
AcDbCircle
 10
393.6992015489968
 20
611.8110972137424
 30
0.0
 40
3.000031710759281
100
AcDbArc
 50
180.0006056214918
 51
269.9993943782824
  0
LINE
  5
59BF
330
A
100
AcDbEntity
  8
MODEL
100
AcDbLine
 10
884.7010001891072
 20
608.8110655031546
 30
0.0
 11
393.6991698384068
 21
608.8110655031546
 31
0.0
  0
LINE
  5
59C0
330
A
100
AcDbEntity
  8
MODEL
100
AcDbLine
 10
890.7010001891072
 20
1352.814726204544
 30
0.0
 11
890.7010001891072
 21
614.8110655031546
 31
0.0
  0
LINE
  5
59C1
330
A
100
AcDbEntity
  8
MODEL
100
AcDbLine
 10
393.6991698284073
 20
1358.814726204544
 30
0.0
 11
884.7010001891072
 21
1358.814726204544
 31
0.0
  0
CIRCLE
  5
59C2
330
A
100
AcDbEntity
  8
MODEL
100
AcDbCircle
 10
618.1037757038848
 20
983.8128958538491
 30
0.0
 40
22.0
  0
CIRCLE
  5
59C3
330
A
100
AcDbEntity
  8
MODEL
100
AcDbCircle
 10
618.1037757038848
 20
983.8128958538491
 30
0.0
 40
38.44689109742895
  0
ARC
  5
59C4
330
A
100
AcDbEntity
  8
MODEL
100
AcDbCircle
 10
884.7010001891072
 20
1352.814726204544
 30
0.0
 40
6.0
100
AcDbArc
 50
0.0
 51
89.99999999978289
  0
ARC
  5
59C5
330
A
100
AcDbEntity
  8
MODEL
100
AcDbCircle
 10
884.7010001891072
 20
614.8110655031546
 30
0.0
 40
6.0
100
AcDbArc
 50
270.0000000002171
 51
0.0
  0
LINE
  5
59C6
330
A
100
AcDbEntity
  8
MODEL
100
AcDbLine
 10
884.1491418387341
 20
1332.262867854201
 30
0.0
 11
884.1491418387341
 21
635.3629238534977
 31
0.0
  0
LINE
  5
59C7
330
A
100
AcDbEntity
  8
MODEL
100
AcDbLine
 10
864.1491418387341
 20
615.3629238534977
 30
0.0
 11
540.6991697169437
 21
615.3629238534977
 31
0.0
  0
LINE
  5
59C8
330
A
100
AcDbEntity
  8
MODEL
100
AcDbLine
 10
520.6991697169442
 20
1332.262867854201
 30
0.0
 11
520.6991697169437
 21
635.3629238534977
 31
0.0
  0
LINE
  5
59C9
330
A
100
AcDbEntity
  8
MODEL
100
AcDbLine
 10
864.1491418387341
 20
1352.262867854201
 30
0.0
 11
540.6991697169442
 21
1352.262867854201
 31
0.0
  0
ARC
  5
59CA
330
A
100
AcDbEntity
  8
MODEL
100
AcDbCircle
 10
540.6991697169437
 20
635.3629238534977
 30
0.0
 40
20.0
100
AcDbArc
 50
180.0
 51
269.9999999997785
  0
ARC
  5
59CB
330
A
100
AcDbEntity
  8
MODEL
100
AcDbCircle
 10
540.6991697169442
 20
1332.262867854201
 30
0.0
 40
20.0
100
AcDbArc
 50
90.00000000022146
 51
180.0
  0
ARC
  5
59CC
330
A
100
AcDbEntity
  8
MODEL
100
AcDbCircle
 10
864.1491418387341
 20
1332.262867854201
 30
0.0
 40
20.0
100
AcDbArc
 50
0.0
 51
90.0
  0
ARC
  5
59CD
330
A
100
AcDbEntity
  8
MODEL
100
AcDbCircle
 10
864.1491418387341
 20
635.3629238534977
 30
0.0
 40
20.0
100
AcDbArc
 50
270.0000000002215
 51
0.0
  0
LINE
  5
59CE
330
A
100
AcDbEntity
  8
MODEL
100
AcDbLine
 10
1549.571277515757
 20
613.3629535694404
 30
0.0
 11
1549.57124187201
 21
1355.706334628346
 31
0.0
  0
LINE
  5
59CF
330
A
100
AcDbEntity
  8
MODEL
100
AcDbLine
 10
1719.57124286778
 20
711.8260916467175
 30
0.0
 11
1719.571241752963
 21
1255.799731258891
 31
0.0
  0
LINE
  5
59D0
330
A
100
AcDbEntity
  8
MODEL
100
AcDbLine
 10
1647.81864102874
 20
1286.116786947218
 30
0.0
 11
1715.623362581825
 21
1261.437886982624
 31
0.0
  0
ARC
  5
59D1
330
A
100
AcDbEntity
  8
MODEL
100
AcDbCircle
 10
1713.571241752963
 20
1255.799731246595
 30
0.0
 40
6.0
100
AcDbArc
 50
0.0000001167268657
 51
70.00000031500106
  0
LINE
  5
59D2
330
A
100
AcDbEntity
  8
MODEL
100
AcDbLine
 10
1634.571277515757
 20
1353.344687043012
 30
0.0
 11
1634.571277515757
 21
614.2811639035413
 31
0.0
  0
LINE
  5
59D3
330
A
100
AcDbEntity
  8
MODEL
100
AcDbLine
 10
1647.818291672895
 20
681.5089081229294
 30
0.0
 11
1715.623363696643
 21
706.1879356484192
 31
0.0
  0
ARC
  5
59D4
330
A
100
AcDbEntity
  8
MODEL
100
AcDbCircle
 10
1713.57124286778
 20
711.8260913844488
 30
0.0
 40
6.0
100
AcDbArc
 50
289.999999683418
 51
0.0000025037912692
  0
LINE
  5
59D5
330
A
100
AcDbEntity
  8
MODEL
100
AcDbLine
 10
1644.64997752903
 20
679.6347116649035
 30
0.0
 11
1634.57124203481
 21
670.8076093601762
 31
0.0
  0
ARC
  5
59D6
330
A
100
AcDbEntity
  8
MODEL
100
AcDbCircle
 10
1651.238493054333
 20
672.1119818962093
 30
0.0
 40
10.0
100
AcDbArc
 50
109.9999996837768
 51
131.2123443687873
  0
LINE
  5
59D7
330
A
100
AcDbEntity
  8
MODEL
100
AcDbLine
 10
1644.664405227627
 20
1287.978676629055
 30
0.0
 11
1634.57124203481
 21
1296.785119303785
 31
0.0
  0
ARC
  5
59D8
330
A
100
AcDbEntity
  8
MODEL
100
AcDbCircle
 10
1651.238842410179
 20
1295.513713173938
 30
0.0
 40
10.0
100
AcDbArc
 50
228.8947936182436
 51
250.0000003158904
  0
CIRCLE
  5
59D9
330
A
100
AcDbEntity
  8
MODEL
  6
HIDDEN2
100
AcDbCircle
 10
459.7573133386259
 20
983.8128958538491
 30
0.0
 40
17.5
  0
CIRCLE
  5
59DA
330
A
100
AcDbEntity
  8
MODEL
  6
HIDDEN2
100
AcDbCircle
 10
459.7573133386259
 20
883.8128958538491
 30
0.0
 40
16.0
  0
CIRCLE
  5
59DB
330
A
100
AcDbEntity
  8
MODEL
  6
HIDDEN2
100
AcDbCircle
 10
459.7573133386263
 20
1083.812895853849
 30
0.0
 40
16.0
  0
ARC
  5
59DC
330
A
100
AcDbEntity
  8
MODEL
100
AcDbCircle
 10
1552.571277515757
 20
1355.706334628346
 30
0.0
 40
3.0
100
AcDbArc
 50
89.00000000000692
 51
179.9999999991662
  0
LINE
  5
59DD
330
A
100
AcDbEntity
  8
MODEL
100
AcDbLine
 10
1552.623634735068
 20
1358.705877713807
 30
0.0
 11
1630.641087141506
 21
1357.344078016518
 31
0.0
  0
ARC
  5
59DE
330
A
100
AcDbEntity
  8
MODEL
100
AcDbCircle
 10
1630.571277515757
 20
1353.344687235897
 30
0.0
 40
4.0
100
AcDbArc
 50
0.0
 51
88.99999999999824
  0
LINE
  5
59DF
330
A
100
AcDbEntity
  8
MODEL
100
AcDbLine
 10
1549.571277515757
 20
611.9195165110928
 30
0.0
 11
1549.571277515757
 21
613.3629535694404
 31
0.0
  0
ARC
  5
59E0
330
A
100
AcDbEntity
  8
MODEL
100
AcDbCircle
 10
1552.571277515757
 20
611.9195165110928
 30
0.0
 40
3.0
100
AcDbArc
 50
180.0000000016676
 51
271.0000000000104
  0
LINE
  5
59E1
330
A
100
AcDbEntity
  8
MODEL
100
AcDbLine
 10
1552.623634735068
 20
608.9199734256313
 30
0.0
 11
1630.641087141506
 21
610.2817731229211
 31
0.0
  0
ARC
  5
59E2
330
A
100
AcDbEntity
  8
MODEL
100
AcDbCircle
 10
1630.571277515757
 20
614.2811639035413
 30
0.0
 40
4.0
100
AcDbArc
 50
271.0000000000018
 51
0.0
  0
DIMENSION
  5
59E7
330
A
100
AcDbEntity
  8
Dim
100
AcDbDimension
  2
*D10
 10
1459.419696966503
 20
1123.812911112697
 30
0.0
 11
1459.419696966503
 21
983.8129092053264
 31
0.0
 70
   160
 71
     5
 42
280.0000038147409
 73
     0
 74
     0
 75
     0
  3
tform線あり
100
AcDbAlignedDimension
 13
1537.771861559886
 23
843.8129072979559
 33
0.0
 14
1537.771861559886
 24
1123.812911112697
 34
0.0
 50
90.0
100
AcDbRotatedDimension
  0
DIMENSION
  5
59E9
330
A
100
AcDbEntity
  8
Dim
100
AcDbDimension
  2
*D11
 10
263.3384762297283
 20
1358.814726204544
 30
0.0
 11
241.1221676359783
 21
983.8128958538418
 31
0.0
 70
    32
 71
     5
 42
750.0036607014044
 73
     0
 74
     0
 75
     0
  3
tform線あり
100
AcDbAlignedDimension
 13
381.3413503314068
 23
608.8110655031396
 33
0.0
 14
381.3413503314073
 24
1358.814726204544
 34
0.0
 50
90.0
100
AcDbRotatedDimension
  0
LINE
  5
59F0
330
A
100
AcDbEntity
  8
MODEL
100
AcDbLine
 10
1634.571249112665
 20
2059.098484552799
 30
0.0
 11
1634.571249530049
 21
2549.13021618444
 31
0.0
  0
LINE
  5
59F1
102
{ACAD_REACTORS
330
5EDE
102
}
330
A
100
AcDbEntity
  8
MODEL
100
AcDbLine
 10
1719.571249112666
 20
2182.684736359412
 30
0.0
 11
1719.571253929466
 21
2523.072007786365
 31
0.0
  0
LINE
  5
59F3
330
A
100
AcDbEntity
  8
HIDDEN
 48
0.5
100
AcDbLine
 10
1714.571251085951
 20
2344.130207921664
 30
0.0
 11
1714.571251085951
 21
2300.130236835826
 31
0.0
  0
LINE
  5
59F7
330
A
100
AcDbEntity
  8
HIDDEN
 48
0.5
100
AcDbLine
 10
1705.502824558706
 20
2344.367042420474
 30
0.0
 11
1714.571251085951
 21
2344.130207921664
 31
0.0
  0
LINE
  5
5A03
330
A
100
AcDbEntity
  8
MODEL
100
AcDbLine
 10
1549.571249112665
 20
2546.130219145997
 30
0.0
 11
1549.571249112665
 21
2422.795582482546
 31
0.0
  0
LINE
  5
5A04
330
A
100
AcDbEntity
  8
MODEL
100
AcDbLine
 10
1549.571249112665
 20
2053.815017136613
 30
0.0
 11
1549.571249112665
 21
2052.23681008737
 31
0.0
  0
LINE
  5
5A05
330
A
100
AcDbEntity
  8
MODEL
100
AcDbLine
 10
1552.675947602769
 20
2049.238637606306
 30
0.0
 11
1630.710847099476
 21
2051.963676343947
 31
0.0
  0
LINE
  5
5A06
330
A
100
AcDbEntity
  8
MODEL
100
AcDbLine
 10
1634.571249112665
 20
2055.961239652023
 30
0.0
 11
1634.571249112665
 21
2059.098484552799
 31
0.0
  0
LINE
  5
5A08
330
A
100
AcDbEntity
  8
MODEL
100
AcDbLine
 10
1634.571249112665
 20
2111.338828323757
 30
0.0
 11
1645.523065766309
 21
2120.528493638541
 31
0.0
  0
LINE
  5
5A09
330
A
100
AcDbEntity
  8
MODEL
100
AcDbLine
 10
1648.530740429912
 20
2122.264975415221
 30
0.0
 11
1715.623369972604
 21
2146.684695507369
 31
0.0
  0
LINE
  5
5A0A
330
A
100
AcDbEntity
  8
MODEL
100
AcDbLine
 10
1719.571249112666
 20
2152.322851232077
 30
0.0
 11
1719.571249112666
 21
2182.684736359412
 31
0.0
  0
LINE
  5
5A0E
102
{ACAD_REACTORS
330
5EDE
102
}
330
A
100
AcDbEntity
  8
HIDDEN
100
AcDbLine
 10
1714.571251085951
 20
2300.130236835826
 30
0.0
 11
1683.522022074907
 21
2299.509719536988
 31
0.0
  0
ARC
  5
5A13
330
A
100
AcDbEntity
  8
MODEL
100
AcDbCircle
 10
1552.571249112665
 20
2052.23681008737
 30
0.0
 40
3.0
100
AcDbArc
 50
180.0
 51
272.0000000001949
  0
ARC
  5
5A14
330
A
100
AcDbEntity
  8
MODEL
100
AcDbCircle
 10
1630.571249112665
 20
2055.961239652023
 30
0.0
 40
4.0
100
AcDbArc
 50
272.0000000010335
 51
0.0000000004168817
  0
ARC
  5
5A18
330
A
100
AcDbEntity
  8
MODEL
100
AcDbCircle
 10
1651.950941863167
 20
2112.86804920736
 30
0.0
 40
10.0
100
AcDbArc
 50
109.9999999995294
 51
129.9999999999442
  0
ARC
  5
5A19
330
A
100
AcDbEntity
  8
MODEL
100
AcDbCircle
 10
1713.571249112666
 20
2152.322851232077
 30
0.0
 40
6.000000000000001
100
AcDbArc
 50
290.0000000005346
 51
0.0000000005558422
  0
LINE
  5
5A22
330
A
100
AcDbEntity
  8
HIDDEN
100
AcDbLine
 10
1673.19246268542
 20
2357.06101646363
 30
0.0
 11
1673.201379665527
 21
2287.21005632443
 31
0.0
  0
LINE
  5
5A25
330
A
100
AcDbEntity
  8
HIDDEN
100
AcDbLine
 10
1683.522022074907
 20
2344.750718755006
 30
0.0
 11
1691.059523131208
 21
2344.619151184669
 31
0.0
  0
ARC
  5
5A26
330
A
100
AcDbEntity
  8
MODEL
100
AcDbCircle
 10
1553.571249114572
 20
2053.815017136613
 30
0.0
 40
4.0
100
AcDbArc
 50
130.0000074546662
 51
180.0
  0
LINE
  5
5A28
330
A
100
AcDbEntity
  8
MODEL
100
AcDbLine
 10
1552.571249112636
 20
2549.130219032346
 30
0.0
 11
1627.571249112636
 21
2549.130216191114
 31
0.0
  0
ARC
  5
5A29
330
A
100
AcDbEntity
  8
MODEL
100
AcDbCircle
 10
1552.571248981494
 20
2546.130219032346
 30
0.0
 40
3.0
100
AcDbArc
 50
89.99999749537496
 51
179.9999974950971
  0
LINE
  5
5A2E
330
A
100
AcDbEntity
  8
MODEL
100
AcDbLine
 10
1627.571249112636
 20
2549.130216191114
 30
0.0
 11
1716.571254933301
 21
2549.130216106262
 31
0.0
  0
ARC
  5
5A33
330
A
100
AcDbEntity
  8
MODEL
100
AcDbCircle
 10
1716.571254930725
 20
2546.130216106262
 30
0.0
 40
3.0
100
AcDbArc
 50
359.9999974959308
 51
89.9999999499742
  0
LINE
  5
5A34
330
A
100
AcDbEntity
  8
MODEL
100
AcDbLine
 10
1719.571253929466
 20
2523.072007786365
 30
0.0
 11
1719.571253929466
 21
2546.130215975134
 31
0.0
  0
ARC
  5
5A53
330
A
100
AcDbEntity
  8
HIDDEN
100
AcDbCircle
 10
1699.187270182422
 20
2396.403320528987
 30
0.0
 40
52.4181310868377
100
AcDbArc
 50
261.0799544596106
 51
276.9200455136609
  0
LINE
  5
5A67
330
A
100
AcDbEntity
  8
MODEL
100
AcDbLine
 10
1549.571249112665
 20
2422.795582482546
 30
0.0
 11
1549.571249114572
 21
2053.815017136613
 31
0.0
  0
DIMENSION
  5
5A6C
330
A
100
AcDbEntity
  8
Dim
100
AcDbDimension
  2
*D12
 10
1833.433233480216
 20
2322.130220518155
 30
0.0
 11
1833.433233480216
 21
2435.630222714818
 31
0.0
 70
   160
  1
230
 71
     5
 42
227.0000043933251
 73
     0
 74
     0
 75
     0
  3
tform線あり
100
AcDbAlignedDimension
 13
1720.531084966301
 23
2549.13022491148
 33
0.0
 14
1720.67752137979
 24
2322.130220518155
 34
0.0
 50
89.99999999999999
100
AcDbRotatedDimension
  0
DIMENSION
  5
5A6D
330
A
100
AcDbEntity
  8
Dim
100
AcDbDimension
  2
*D13
 10
1590.701390983294
 20
490.5291018239999
 30
0.0
 11
1570.701390983294
 21
512.7454104177499
 31
0.0
 70
    32
 71
     5
 42
40.0
 73
     0
 74
     1
 75
     1
  3
tform線あり
100
AcDbAlignedDimension
 13
1550.701390983294
 23
599.0185755520147
 33
0.0
 14
1590.701390983294
 24
599.0185755520147
 34
0.0
 50
-0.0000000000000254
100
AcDbRotatedDimension
  0
DIMENSION
  5
5A6F
330
A
100
AcDbEntity
  8
Dim
100
AcDbDimension
  2
*D15
 10
1635.701378814224
 20
1959.087466629262
 30
0.0
 11
1594.797730463837
 21
1959.087466629262
 31
0.0
 70
   160
 71
     5
 42
85.00000129622549
 73
     0
 74
     0
 75
     0
  3
tform線あり
100
AcDbAlignedDimension
 13
1550.701377517999
 23
2038.53071515579
 33
0.0
 14
1635.701378814224
 24
2038.53071515579
 34
0.0
 50
-0.0000000000000254
100
AcDbRotatedDimension
  0
DIMENSION
  5
5A70
330
A
100
AcDbEntity
  8
Dim
100
AcDbDimension
  2
*D16
 10
1720.701374433778
 20
1959.087466629262
 30
0.0
 11
1678.201376624001
 21
1959.087466629262
 31
0.0
 70
   160
 71
     5
 42
84.99999561955333
 73
     0
 74
     0
 75
     0
  3
tform線あり
100
AcDbAlignedDimension
 13
1635.701378814224
 23
2038.53071515579
 33
0.0
 14
1720.701374433778
 24
2131.070464027438
 34
0.0
 50
-0.0000000000000254
100
AcDbRotatedDimension
  0
DIMENSION
  5
5A72
330
A
100
AcDbEntity
  8
Dim
100
AcDbDimension
  2
*D17
 10
520.6991697169437
 20
496.6396658000817
 30
0.0
 11
455.6991697776752
 21
518.8559743938316
 31
0.0
 70
    32
 71
     5
 42
129.999999878537
 73
     0
 74
     0
 75
     0
 52
270.0
  3
tform線あり
100
AcDbAlignedDimension
 13
390.6991698384068
 23
604.2710258112711
 33
0.0
 14
520.6991697169437
 24
604.2710258112711
 34
0.0
 50
-179.9999999999999
100
AcDbRotatedDimension
  0
DIMENSION
  5
5A74
330
A
100
AcDbEntity
  8
Dim
100
AcDbDimension
  2
*D18
 10
330.872918053436
 20
983.8128958538491
 30
0.0
 11
308.656609459686
 21
933.8128958538491
 31
0.0
 70
    32
 71
     5
 42
100.0
 73
     0
 74
     0
 75
     0
  3
tform線あり
100
AcDbAlignedDimension
 13
440.2848048132719
 23
883.8128958538491
 33
0.0
 14
440.2848048132719
 24
983.8128958538491
 34
0.0
 50
90.0
100
AcDbRotatedDimension
  0
DIMENSION
  5
5A75
330
A
100
AcDbEntity
  8
Dim
100
AcDbDimension
  2
*D19
 10
330.8729180534365
 20
1083.812895853849
 30
0.0
 11
308.6566094596865
 21
1033.812895853849
 31
0.0
 70
    32
 71
     5
 42
100.0
 73
     0
 74
     0
 75
     0
  3
tform線あり
100
AcDbAlignedDimension
 13
440.2848048132719
 23
983.8128958538491
 33
0.0
 14
440.2848048132723
 24
1083.812895853849
 34
0.0
 50
90.0
100
AcDbRotatedDimension
  0
DIMENSION
  5
5B2C
330
A
100
AcDbEntity
  8
Dim
100
AcDbDimension
  2
*D20
 10
1719.57124178219
 20
1475.374973595827
 30
0.0
 11
1634.5712422138
 21
1497.591282189577
 31
0.0
 70
    32
 71
     5
 42
169.9999991367804
 73
     0
 74
     0
 75
     0
 52
-270.0
  3
tform線あり
100
AcDbAlignedDimension
 13
1549.57124264541
 23
1360.342486585965
 33
0.0
 14
1719.57124178219
 24
1262.282005337222
 34
0.0
 50
180.0
100
AcDbRotatedDimension
1001
ACAD
1000
DSTYLE
1002
{
1070
   144
1040
1.0
1002
}
  0
LINE
  5
5B3F
330
A
100
AcDbEntity
  8
HIDDEN
  6
CENTER
 48
0.15
100
AcDbLine
 10
1590.701390983294
 20
819.3134179217982
 30
0.0
 11
1590.701390983293
 21
868.31239667411
 31
0.0
  0
LINE
  5
5B40
330
A
100
AcDbEntity
  8
HIDDEN
  6
CENTER
 48
0.15
100
AcDbLine
 10
1566.201901607139
 20
843.8129072979559
 30
0.0
 11
1615.200880359449
 21
843.8129072979559
 31
0.0
  0
CIRCLE
  5
5B41
330
A
100
AcDbEntity
  8
HIDDEN
  6
CENTER
 48
0.15
100
AcDbCircle
 10
1590.701390983293
 20
843.8129072979559
 30
0.0
 40
14.99999999998556
  0
LINE
  5
5B42
330
A
100
AcDbEntity
  8
HIDDEN
  6
CENTER
 48
0.15
100
AcDbLine
 10
1590.701390983294
 20
1099.313421736539
 30
0.0
 11
1590.701390983293
 21
1148.312400488851
 31
0.0
  0
LINE
  5
5B43
330
A
100
AcDbEntity
  8
HIDDEN
  6
CENTER
 48
0.15
100
AcDbLine
 10
1566.201901607139
 20
1123.812911112697
 30
0.0
 11
1615.200880359449
 21
1123.812911112697
 31
0.0
  0
CIRCLE
  5
5B44
330
A
100
AcDbEntity
  8
HIDDEN
  6
CENTER
 48
0.15
100
AcDbCircle
 10
1590.701390983293
 20
1123.812911112697
 30
0.0
 40
14.99999999998556
  0
CIRCLE
  5
5B45
330
A
100
AcDbEntity
  8
HIDDEN
 48
0.6
100
AcDbCircle
 10
1577.469429829726
 20
984.5346440988928
 30
0.0
 40
11.98287221885312
  0
DIMENSION
  5
5B4A
330
A
100
AcDbEntity
  8
Dim
100
AcDbDimension
  2
*D21
 10
890.6991698384068
 20
1436.960261637616
 30
0.0
 11
640.6991698384072
 21
1436.960261637616
 31
0.0
 70
   160
 71
     5
 42
499.9999999999995
 73
     0
 74
     0
 75
     0
 52
-270.0
  3
tform線あり
100
AcDbAlignedDimension
 13
390.6991698384072
 23
1372.691808403423
 33
0.0
 14
890.6991698384068
 24
1372.691808403423
 34
0.0
 50
180.0
100
AcDbRotatedDimension
1001
ACAD
1000
DSTYLE
1002
{
1070
   144
1040
1.0
1002
}
  0
LWPOLYLINE
  5
5B57
102
{ACAD_REACTORS
330
5C59
102
}
330
A
100
AcDbEntity
  8
MODEL
  6
HIDDEN
100
AcDbPolyline
 90
       17
 70
     0
 43
0.0
 10
524.776958757659
 20
2221.816628593555
 10
524.7767413199153
 20
2221.066628593555
 10
524.7739327490531
 20
2220.316628593555
 10
524.7663605749813
 20
2219.566628593555
 10
524.751851373931
 20
2218.816628593555
 10
524.7282326758113
 20
2218.074441093555
 10
524.6937010824881
 20
2217.332253593555
 10
524.6508982718192
 20
2216.590066093555
 10
524.6053994238582
 20
2215.847878593555
 10
524.562832170745
 20
2215.105691093555
 10
524.5288270056453
 20
2214.347878593555
 10
524.5088074743953
 20
2213.582253593555
 10
524.4944041311942
 20
2212.808816093555
 10
524.4548342764583
 20
2212.043191093555
 10
524.3572648108216
 20
2211.293191093555
 10
524.1688626349173
 20
2210.574441093555
 10
523.856792742034
 20
2209.910378593555
  0
LINE
  5
5B58
102
{ACAD_REACTORS
330
5C59
102
}
330
A
100
AcDbEntity
  8
MODEL
  6
HIDDEN
100
AcDbLine
 10
523.8567931294224
 20
2209.907062937313
 30
0.0
 11
523.7412383198521
 21
2209.831623484188
 31
0.0
  0
LINE
  5
5B59
102
{ACAD_REACTORS
330
5C59
102
}
330
A
100
AcDbEntity
  8
MODEL
  6
HIDDEN
100
AcDbLine
 10
523.7412383198521
 20
2209.831623484188
 30
0.0
 11
523.624996864774
 21
2209.906254221493
 31
0.0
  0
LWPOLYLINE
  5
5B5A
102
{ACAD_REACTORS
330
5C59
102
}
330
A
100
AcDbEntity
  8
MODEL
  6
HIDDEN
100
AcDbPolyline
 90
       17
 70
     0
 43
0.0
 10
523.6249964773865
 20
2209.902566093555
 10
523.3115971625052
 20
2210.574441093555
 10
523.122661882659
 20
2211.293191093555
 10
523.0251143515311
 20
2212.043191093555
 10
522.9858782828055
 20
2212.808816093555
 10
522.9718783438416
 20
2213.582253593555
 10
522.9521086752625
 20
2214.347878593555
 10
522.9181521475525
 20
2215.105691093555
 10
522.8754942953792
 20
2215.847878593555
 10
522.8298228323661
 20
2216.590066093555
 10
522.7868311941825
 20
2217.332253593555
 10
522.7521536886893
 20
2218.074441093555
 10
522.7284606039725
 20
2218.816628593555
 10
522.7139323294364
 20
2219.566628593555
 10
522.7063754141532
 20
2220.316628593555
 10
522.7035944998465
 20
2221.066628593555
 10
522.7033961355892
 20
2221.816628593555
  0
LWPOLYLINE
  5
5B5B
102
{ACAD_REACTORS
330
5C59
102
}
330
A
100
AcDbEntity
  8
MODEL
  6
HIDDEN
100
AcDbPolyline
 90
       17
 70
     0
 43
0.0
 10
524.776958757659
 20
2221.816628593555
 10
524.7767413199153
 20
2222.566628593555
 10
524.7739327490531
 20
2223.316628593555
 10
524.7663605749813
 20
2224.066628593555
 10
524.751851373931
 20
2224.808816093555
 10
524.7282326758113
 20
2225.558816093555
 10
524.6937010824881
 20
2226.301003593555
 10
524.6508982718192
 20
2227.035378593555
 10
524.6053994238582
 20
2227.777566093555
 10
524.5628331244193
 20
2228.527566093555
 10
524.5288270056453
 20
2229.277566093555
 10
524.5088074743953
 20
2230.043191093555
 10
524.4944031775203
 20
2230.816628593555
 10
524.4548333227845
 20
2231.590066093555
 10
524.3572638571463
 20
2232.340066093555
 10
524.168861681243
 20
2233.051003593555
 10
523.856792742034
 20
2233.722878593555
  0
LINE
  5
5B5C
102
{ACAD_REACTORS
330
5C59
102
}
330
A
100
AcDbEntity
  8
MODEL
  6
HIDDEN
100
AcDbLine
 10
523.8567931294224
 20
2233.723774363094
 30
0.0
 11
523.7412383198521
 21
2233.799213816219
 31
0.0
  0
LINE
  5
5B5D
102
{ACAD_REACTORS
330
5C59
102
}
330
A
100
AcDbEntity
  8
MODEL
  6
HIDDEN
100
AcDbLine
 10
523.7412383198521
 20
2233.799213816219
 30
0.0
 11
523.624996864774
 21
2233.724583078915
 31
0.0
  0
LWPOLYLINE
  5
5B5E
102
{ACAD_REACTORS
330
5C59
102
}
330
A
100
AcDbEntity
  8
MODEL
  6
HIDDEN
100
AcDbPolyline
 90
       17
 70
     0
 43
0.0
 10
523.6249964773865
 20
2233.722878593555
 10
523.3115962088314
 20
2233.058816093555
 10
523.1226599753104
 20
2232.340066093555
 10
523.0251124441825
 20
2231.590066093555
 10
522.9858782828055
 20
2230.816628593555
 10
522.9718783438416
 20
2230.043191093555
 10
522.9521086752625
 20
2229.277566093555
 10
522.9181521475525
 20
2228.527566093555
 10
522.8754942953792
 20
2227.777566093555
 10
522.8298228323661
 20
2227.035378593555
 10
522.7868311941825
 20
2226.301003593555
 10
522.7521536886893
 20
2225.558816093555
 10
522.7284606039725
 20
2224.808816093555
 10
522.7139323294364
 20
2224.066628593555
 10
522.7063754141532
 20
2223.316628593555
 10
522.7035944998465
 20
2222.566628593555
 10
522.7033961355892
 20
2221.816628593555
  0
LINE
  5
5B5F
102
{ACAD_REACTORS
330
5C59
102
}
330
A
100
AcDbEntity
  8
MODEL
  6
HIDDEN
100
AcDbLine
 10
390.6991698384072
 20
1849.813588299509
 30
0.0
 11
390.6991698384072
 21
2593.817249000899
 31
0.0
  0
ELLIPSE
  5
5B60
102
{ACAD_REACTORS
330
5C59
102
}
330
A
100
AcDbEntity
  8
MODEL
  6
HIDDEN
100
AcDbEllipse
 10
393.6991698384072
 20
2593.817249000899
 30
0.0
 11
2.999999999999985
 21
-1.836970198721021E-16
 31
0.0
210
0.0
220
0.0
230
-1.0
 40
0.9993908270190958
 41
3.141592653589867
 42
3.166639785363391
  0
ARC
  5
5B61
102
{ACAD_REACTORS
330
5C59
102
}
330
A
100
AcDbEntity
  8
MODEL
  6
HIDDEN
100
AcDbCircle
 10
393.6992015489982
 20
2593.817217290311
 30
0.0
 40
3.000031710759218
100
AcDbArc
 50
90.00060562128337
 51
179.9993943785082
  0
ARC
  5
5B62
102
{ACAD_REACTORS
330
5C59
102
}
330
A
100
AcDbEntity
  8
MODEL
  6
HIDDEN
100
AcDbCircle
 10
393.6992015489973
 20
1849.813620010096
 30
0.0
 40
3.000031710759281
100
AcDbArc
 50
180.0006056214918
 51
269.9993943782824
  0
LINE
  5
5B63
102
{ACAD_REACTORS
330
5C59
102
}
330
A
100
AcDbEntity
  8
MODEL
  6
HIDDEN
100
AcDbLine
 10
884.7010001891072
 20
1846.813588299509
 30
0.0
 11
393.6991698384072
 21
1846.813588299509
 31
0.0
  0
LINE
  5
5B64
102
{ACAD_REACTORS
330
5C59
102
}
330
A
100
AcDbEntity
  8
MODEL
  6
HIDDEN
100
AcDbLine
 10
890.7010001891072
 20
2590.817249000899
 30
0.0
 11
890.7010001891072
 21
1852.813588299509
 31
0.0
  0
LINE
  5
5B65
102
{ACAD_REACTORS
330
5C59
102
}
330
A
100
AcDbEntity
  8
MODEL
  6
HIDDEN
100
AcDbLine
 10
393.6991698284073
 20
2596.817249000899
 30
0.0
 11
884.7010001891072
 21
2596.817249000899
 31
0.0
  0
CIRCLE
  5
5B66
102
{ACAD_REACTORS
330
5C59
102
}
330
A
100
AcDbEntity
  8
MODEL
  6
HIDDEN
100
AcDbCircle
 10
618.1037757038853
 20
2221.815418650204
 30
0.0
 40
22.0
  0
ARC
  5
5B68
102
{ACAD_REACTORS
330
5C59
102
}
330
A
100
AcDbEntity
  8
MODEL
  6
HIDDEN
100
AcDbCircle
 10
884.7010001891072
 20
2590.817249000899
 30
0.0
 40
6.0
100
AcDbArc
 50
0.0
 51
89.99999999978289
  0
ARC
  5
5B69
102
{ACAD_REACTORS
330
5C59
102
}
330
A
100
AcDbEntity
  8
MODEL
  6
HIDDEN
100
AcDbCircle
 10
884.7010001891072
 20
1852.813588299509
 30
0.0
 40
6.0
100
AcDbArc
 50
270.0000000002171
 51
0.0
  0
LINE
  5
5B6A
102
{ACAD_REACTORS
330
5C59
102
}
330
A
100
AcDbEntity
  8
MODEL
  6
HIDDEN
100
AcDbLine
 10
884.1491418387341
 20
2570.265390650555
 30
0.0
 11
884.1491418387341
 21
1873.365446649851
 31
0.0
  0
LINE
  5
5B6B
102
{ACAD_REACTORS
330
5C59
102
}
330
A
100
AcDbEntity
  8
MODEL
  6
HIDDEN
100
AcDbLine
 10
864.1491418387341
 20
1853.365446649851
 30
0.0
 11
540.6991697169442
 21
1853.365446649851
 31
0.0
  0
LINE
  5
5B6C
102
{ACAD_REACTORS
330
5C59
102
}
330
A
100
AcDbEntity
  8
MODEL
  6
HIDDEN
100
AcDbLine
 10
520.6991697169442
 20
2570.265390650555
 30
0.0
 11
520.6991697169442
 21
1873.365446649851
 31
0.0
  0
LINE
  5
5B6D
102
{ACAD_REACTORS
330
5C59
102
}
330
A
100
AcDbEntity
  8
MODEL
  6
HIDDEN
100
AcDbLine
 10
864.1491418387341
 20
2590.265390650555
 30
0.0
 11
540.6991697169442
 21
2590.265390650555
 31
0.0
  0
ARC
  5
5B6E
102
{ACAD_REACTORS
330
5C59
102
}
330
A
100
AcDbEntity
  8
MODEL
  6
HIDDEN
100
AcDbCircle
 10
540.6991697169442
 20
1873.365446649851
 30
0.0
 40
20.0
100
AcDbArc
 50
180.0
 51
269.9999999997785
  0
ARC
  5
5B6F
102
{ACAD_REACTORS
330
5C59
102
}
330
A
100
AcDbEntity
  8
MODEL
  6
HIDDEN
100
AcDbCircle
 10
540.6991697169442
 20
2570.265390650555
 30
0.0
 40
20.0
100
AcDbArc
 50
90.00000000022146
 51
180.0
  0
ARC
  5
5B70
102
{ACAD_REACTORS
330
5C59
102
}
330
A
100
AcDbEntity
  8
MODEL
  6
HIDDEN
100
AcDbCircle
 10
864.1491418387341
 20
2570.265390650555
 30
0.0
 40
20.0
100
AcDbArc
 50
0.0
 51
90.0
  0
ARC
  5
5B71
102
{ACAD_REACTORS
330
5C59
102
}
330
A
100
AcDbEntity
  8
MODEL
  6
HIDDEN
100
AcDbCircle
 10
864.1491418387341
 20
1873.365446649851
 30
0.0
 40
20.0
100
AcDbArc
 50
270.0000000002215
 51
0.0
  0
CIRCLE
  5
5B72
102
{ACAD_REACTORS
330
5C59
102
}
330
A
100
AcDbEntity
  8
MODEL
  6
HIDDEN
100
AcDbCircle
 10
459.7573133386263
 20
2221.815418650204
 30
0.0
 40
17.5
  0
CIRCLE
  5
5B73
102
{ACAD_REACTORS
330
5C59
102
}
330
A
100
AcDbEntity
  8
MODEL
  6
HIDDEN
100
AcDbCircle
 10
459.7573133386263
 20
2121.815418650204
 30
0.0
 40
16.0
  0
CIRCLE
  5
5B74
102
{ACAD_REACTORS
330
5C59
102
}
330
A
100
AcDbEntity
  8
MODEL
  6
HIDDEN
100
AcDbCircle
 10
459.7573133386263
 20
2321.815418650204
 30
0.0
 40
16.0
  0
LINE
  5
5C16
330
A
100
AcDbEntity
  8
Dim
100
AcDbLine
 10
390.6991698384081
 20
2690.7859037893
 30
0.0
 11
390.6991698384054
 21
1786.277535920412
 31
0.0
  0
LINE
  5
5C17
330
A
100
AcDbEntity
  8
Dim
100
AcDbLine
 10
390.6991698384095
 20
2665.615125556621
 30
0.0
 11
353.3194851931371
 21
2694.806976430784
 31
0.0
  0
LINE
  5
5C18
330
A
100
AcDbEntity
  8
Dim
100
AcDbLine
 10
390.6991698384095
 20
2640.49655619978
 30
0.0
 11
353.3194851931371
 21
2669.688407073946
 31
0.0
  0
LINE
  5
5C19
330
A
100
AcDbEntity
  8
Dim
100
AcDbLine
 10
390.6991698384095
 20
2614.020226337167
 30
0.0
 11
353.3194851931371
 21
2643.212077211331
 31
0.0
  0
DIMENSION
  5
5C2A
330
A
100
AcDbEntity
  8
Dim
100
AcDbDimension
  2
*D22
 10
1066.9191072
 20
2557.786691690341
 30
0.0
 11
1066.9191072
 21
2222.786691690341
 31
0.0
 70
   160
 71
     5
 42
670.0
 73
     0
 74
     0
 75
     0
  3
tform線あり
100
AcDbAlignedDimension
 13
850.6107411823859
 23
1887.786691690341
 33
0.0
 14
851.0153470478631
 24
2557.786691690341
 34
0.0
 50
90.0
100
AcDbRotatedDimension
1001
ACAD
1000
DSTYLE
1002
{
1070
   144
1040
1.0
1002
}
  0
DIMENSION
  5
5C46
330
A
100
AcDbEntity
  8
Dim
100
AcDbDimension
  2
*D23
 10
850.6991698384081
 20
2756.767001472
 30
0.0
 11
620.699169838408
 21
2756.767001472
 31
0.0
 70
   160
 71
     5
 42
460.0
 73
     0
 74
     0
 75
     0
 52
-270.0
  3
tform線あり
100
AcDbAlignedDimension
 13
390.6991698384081
 23
2690.7859037893
 33
0.0
 14
850.6991698384081
 24
2570.265390650555
 34
0.0
 50
180.0
100
AcDbRotatedDimension
1001
ACAD
1000
DSTYLE
1002
{
1070
   144
1040
1.0
1002
}
  0
DIMENSION
  5
5C61
330
A
100
AcDbEntity
  8
Dim
100
AcDbDimension
  2
*D24
 10
990.7262760067983
 20
1344.534644098885
 30
0.0
 11
968.5099674130483
 21
984.5346440988851
 31
0.0
 70
    32
 71
     5
 42
720.0
 73
     0
 74
     0
 75
     0
  3
tform線あり
100
AcDbAlignedDimension
 13
907.8992025803755
 23
624.5346440988851
 33
0.0
 14
907.8992025803745
 24
1344.534644098885
 34
0.0
 50
90.0
100
AcDbRotatedDimension
1001
ACAD
1000
DSTYLE
1002
{
1070
   144
1040
1.0
1002
}
  0
DIMENSION
  5
5C6F
102
{ACAD_REACTORS
330
5C71
102
}
102
{ACAD_XDICTIONARY
360
5C70
102
}
330
A
100
AcDbEntity
  8
Dim
100
AcDbDimension
  2
*D25
 10
875.6991697169437
 20
496.6396658000817
 30
0.0
 11
698.1991697169437
 21
518.8559743938317
 31
0.0
 70
    32
 71
     5
 42
355.0
 73
     0
 74
     0
 75
     0
 52
-270.0
  3
tform線あり
100
AcDbAlignedDimension
 13
520.6991697169437
 23
604.2710258112711
 33
0.0
 14
875.6991697169437
 24
604.2710258112711
 34
0.0
 50
180.0
100
AcDbRotatedDimension
1001
ACAD
1000
DSTYLE
1002
{
1070
   144
1040
1.0
1002
}
  0
DIMENSION
  5
5C82
330
A
100
AcDbEntity
  8
Dim
100
AcDbDimension
  2
*D26
 10
1495.461813198556
 20
2484.130218768765
 30
0.0
 11
1473.245504604806
 21
2516.630218768765
 31
0.0
 70
    32
 71
     5
 42
65.0
 73
     0
 74
     0
 75
     0
  3
tform線あり
100
AcDbAlignedDimension
 13
1559.528991776994
 23
2549.130218768765
 33
0.0
 14
1559.528991776994
 24
2484.130218768765
 34
0.0
 50
90.0
100
AcDbRotatedDimension
1001
ACAD
1000
DSTYLE
1002
{
1070
   144
1040
1.0
1002
}
  0
DIMENSION
  5
5C8F
330
A
100
AcDbEntity
  8
Dim
100
AcDbDimension
  2
*D27
 10
1911.001609198328
 20
2149.13022491148
 30
0.0
 11
1888.785300604578
 21
2349.13022491148
 31
0.0
 70
    32
 71
     5
 42
400.0
 73
     0
 74
     0
 75
     0
  3
tform線あり
100
AcDbAlignedDimension
 13
1745.531084966301
 23
2549.13022491148
 33
0.0
 14
1745.531084966301
 24
2149.13022491148
 34
0.0
 50
90.0
100
AcDbRotatedDimension
1001
ACAD
1000
DSTYLE
1002
{
1070
   144
1040
1.0
1002
}
  0
DIMENSION
  5
5CDD
330
A
100
AcDbEntity
  8
Dim
  6
Continuous
 62
     3
100
AcDbDimension
  2
*D28
 10
1550.701381236721
 20
2322.13553639403
 30
0.0
 11
1447.232078863943
 21
2322.13553639403
 31
0.0
 70
   160
  1
120(深さ)
 71
     5
 42
122.4955399387527
 73
     0
 74
     1
 75
     1
 52
-270.0
  3
tform線あり
100
AcDbAlignedDimension
 13
1673.196921175474
 23
2321.116836511365
 33
0.0
 14
1550.701381236721
 24
2322.13553639403
 34
0.0
 50
179.9999999999999
100
AcDbRotatedDimension
1001
ACAD
1000
DSTYLE
1002
{
1070
   271
1070
     0
1070
    76
1070
     1
1070
    75
1070
     1
1002
}
  0
MTEXT
  5
5D1E
330
A
100
AcDbEntity
  8
Dim
390
1D
100
AcDbMText
 10
1338.166738323879
 20
1245.775039844413
 30
34.99521132346015
 40
24.0
 41
1169.771715461011
 46
26.808
 71
     1
 72
     1
  1
{壁取付ボルト穴(2ヶ所)}
  7
ＭＳ ゴシック
 11
2.128288048995967E-15
 21
1.0
 31
0.0
 73
     1
 44
1.174240107638677
1001
ACAD
1000
ACAD_MTEXT_DEFINED_HEIGHT_BEGIN
1070
    46
1040
26.808
1000
ACAD_MTEXT_DEFINED_HEIGHT_END
  0
LINE
  5
5D1F
330
A
100
AcDbEntity
  8
Dim
100
AcDbLine
 10
1378.604256056401
 20
1237.598422215229
 30
0.0
 11
1581.577279966103
 21
1135.718817132214
 31
0.0
  0
MTEXT
  5
5D56
330
A
100
AcDbEntity
  8
Dim
390
1D
100
AcDbMText
 10
1134.020578145333
 20
585.268834667168
 30
34.99521132346015
 40
24.4326171875
 41
833.929798641839
 46
0.0
 71
     1
 72
     1
  1
＝φ30もしくはφ35の水栓取付用穴あけ加工を承ります。\P  必要な場合、ご注文の際にご指示ください。
  7
ＭＳ ゴシック
 11
2.311985068868071E-15
 21
1.0
 31
0.0
 73
     1
 44
0.9822934569727008
  0
CIRCLE
  5
5D57
330
A
100
AcDbEntity
  8
HIDDEN
 48
0.58
390
1D
100
AcDbCircle
 10
1148.609402601616
 20
553.9018049690799
 30
34.99521132346015
 40
17.5
  0
MTEXT
  5
5D8B
330
A
100
AcDbEntity
  8
Dim
390
1D
100
AcDbMText
 10
1131.343785580342
 20
1895.948643874852
 30
34.99521132346015
 40
24.0
 41
1169.771715461011
 46
177.5543690294172
 71
     1
 72
     1
  1
{※陶器製品には寸法公差があります。\P　洗面器の収め方をご確認の上、必ず現物を合わせて\P  カウンターに切込を行ってください。\P※カウンター置きの場合も壁固定が必要です。}
  7
ＭＳ ゴシック
 11
-8.529852987405536E-15
 21
1.0
 31
0.0
 73
     1
 44
1.0
1001
ACAD
1000
ACAD_MTEXT_DEFINED_HEIGHT_BEGIN
1070
    46
1040
177.5543690294172
1000
ACAD_MTEXT_DEFINED_HEIGHT_END
  0
MTEXT
  5
5DC3
330
A
100
AcDbEntity
  8
Dim
390
1D
100
AcDbMText
 10
122.4084690332265
 20
2081.551602683365
 30
34.99521132346015
 40
24.0
 41
1169.771715461011
 46
26.928
 71
     1
 72
     1
  1
{カウンター切込寸法 }
  7
ＭＳ ゴシック
 11
2.128288048995967E-15
 21
1.0
 31
0.0
 73
     1
 44
1.174240107638677
1001
ACAD
1000
ACAD_MTEXT_DEFINED_HEIGHT_BEGIN
1070
    46
1040
26.928
1000
ACAD_MTEXT_DEFINED_HEIGHT_END
  0
MTEXT
  5
5DC4
330
A
100
AcDbEntity
  8
Dim
390
1D
100
AcDbMText
 10
206.5224459973747
 20
1952.48892349552
 30
34.99521132346015
 40
24.0
 41
1169.771715461011
 46
25.704
 71
     1
 72
     1
  1
{半埋め込み}
  7
ＭＳ ゴシック
 11
2.128288048995967E-15
 21
1.0
 31
0.0
 73
     1
 44
1.174240107638677
1001
ACAD
1000
ACAD_MTEXT_DEFINED_HEIGHT_BEGIN
1070
    46
1040
25.704
1000
ACAD_MTEXT_DEFINED_HEIGHT_END
  0
MTEXT
  5
5DC5
330
A
100
AcDbEntity
  8
Dim
390
1D
100
AcDbMText
 10
284.8953996362802
 20
2032.219637640201
 30
34.99521132346015
 40
24.0
 41
1169.771715461011
 46
25.824
 71
     1
 72
     1
  1
{カウンター置き}
  7
ＭＳ ゴシック
 11
2.128288048995967E-15
 21
1.0
 31
0.0
 73
     1
 44
1.174240107638677
1001
ACAD
1000
ACAD_MTEXT_DEFINED_HEIGHT_BEGIN
1070
    46
1040
25.824
1000
ACAD_MTEXT_DEFINED_HEIGHT_END
  0
LINE
  5
5DC6
330
A
100
AcDbEntity
  8
Dim
100
AcDbLine
 10
252.1143298412458
 20
1970.390845290867
 30
0.0
 11
389.3105530093785
 21
1970.390845290867
 31
0.0
  0
LINE
  5
5DC7
330
A
100
AcDbEntity
  8
Dim
100
AcDbLine
 10
388.0668990627887
 20
2043.545268762912
 30
0.0
 11
331.3170260114589
 21
2043.545268762912
 31
0.0
  0
DIMENSION
  5
5DCE
330
A
100
AcDbEntity
  8
Dim
100
AcDbDimension
  2
*D29
 10
1821.021515404046
 20
1258.812925473276
 30
0.0
 11
1798.805206810296
 21
983.8129254732762
 31
0.0
 70
    32
 71
     5
 42
550.0
 73
     0
 74
     0
 75
     0
  3
tform線あり
100
AcDbAlignedDimension
 13
1716.926543294624
 23
708.8129254732762
 33
0.0
 14
1716.926543294624
 24
1258.812925473276
 34
0.0
 50
90.0
100
AcDbRotatedDimension
1001
ACAD
1000
DSTYLE
1002
{
1070
   144
1040
1.0
1002
}
  0
LINE
  5
5DED
102
{ACAD_REACTORS
330
5E2C
102
}
330
A
100
AcDbEntity
  8
MODEL
100
AcDbLine
 10
670.6991698384077
 20
2046.815418650204
 30
0.0
 11
670.6991698384077
 21
2396.815418650204
 31
0.0
  0
LINE
  5
5DEE
102
{ACAD_REACTORS
330
5E04
330
5E2C
102
}
330
A
100
AcDbEntity
  8
MODEL
100
AcDbLine
 10
670.6991698384077
 20
2396.815418650204
 30
0.0
 11
390.6991698384077
 21
2396.815418650204
 31
0.0
  0
LINE
  5
5DF0
102
{ACAD_REACTORS
330
5E2C
102
}
330
A
100
AcDbEntity
  8
MODEL
100
AcDbLine
 10
390.6991698384077
 20
2396.815418650204
 30
0.0
 11
390.6991698384072
 21
2046.815418650204
 31
0.0
  0
LINE
  5
5DF1
102
{ACAD_REACTORS
330
5E04
330
5E2C
102
}
330
A
100
AcDbEntity
  8
MODEL
100
AcDbLine
 10
390.6991698384072
 20
2046.815418650204
 30
0.0
 11
670.6991698384077
 21
2046.815418650204
 31
0.0
  0
DIMENSION
  5
5DF3
330
A
100
AcDbEntity
  8
Dim
100
AcDbDimension
  2
*D30
 10
670.6991698384077
 20
2647.647323136
 30
0.0
 11
530.6991698384074
 21
2647.647323136
 31
0.0
 70
   160
 71
     5
 42
280.0000000000005
 73
     0
 74
     0
 75
     0
 52
-270.0
  3
tform線あり
100
AcDbAlignedDimension
 13
390.6991698384072
 23
2449.534829850205
 33
0.0
 14
670.6991698384077
 24
2449.534829850205
 34
0.0
 50
180.0
100
AcDbRotatedDimension
1001
ACAD
1000
DSTYLE
1002
{
1070
   144
1040
1.0
1002
}
  0
DIMENSION
  5
5E02
102
{ACAD_REACTORS
330
5E04
102
}
102
{ACAD_XDICTIONARY
360
5E03
102
}
330
A
100
AcDbEntity
  8
Dim
100
AcDbDimension
  2
*D31
 10
996.0876959999998
 20
2396.815418650204
 30
0.0
 11
996.0876959999998
 21
2221.815418650204
 31
0.0
 70
   160
 71
     5
 42
349.9999999999998
 73
     0
 74
     0
 75
     0
  3
tform線あり
100
AcDbAlignedDimension
 13
670.6991698384077
 23
2046.815418650204
 33
0.0
 14
670.6991698384077
 24
2396.815418650204
 34
0.0
 50
90.0
100
AcDbRotatedDimension
1001
ACAD
1000
DSTYLE
1002
{
1070
   144
1040
1.0
1002
}
  0
LWPOLYLINE
  5
5E25
102
{ACAD_REACTORS
330
5E27
102
}
330
A
100
AcDbEntity
  8
Dim
100
AcDbPolyline
 90
        9
 70
   128
 43
0.0
 10
390.6991698384072
 20
1996.815418650204
 10
390.6991698384072
 20
1887.786691690341
 10
850.6107411823859
 20
1887.786691690341
 10
850.610741182385
 20
2557.287642100139
 10
390.6991698384072
 20
2557.287642100139
 10
390.6991698384077
 20
2396.815418650204
 10
670.6991698384077
 20
2396.815418650204
 10
670.6991698384077
 20
2046.815418650204
 10
390.6991698384072
 20
2046.815418650204
  0
HATCH
  5
5E27
330
A
100
AcDbEntity
  8
Dim
100
AcDbHatch
 10
0.0
 20
0.0
 30
0.0
210
0.0
220
0.0
230
1.0
  2
ANSI31
 70
     0
 71
     1
 91
        1
 92
        1
 93
        8
 72
     1
 10
390.6991698384072
 20
1996.815418650204
 11
390.6991698384072
 21
1887.786691690341
 72
     1
 10
390.6991698384072
 20
1887.786691690341
 11
850.6107411823859
 21
1887.786691690341
 72
     1
 10
850.6107411823859
 20
1887.786691690341
 11
850.610741182385
 21
2557.287642100139
 72
     1
 10
850.610741182385
 20
2557.287642100139
 11
390.6991698384072
 21
2557.287642100139
 72
     1
 10
390.6991698384072
 20
2557.287642100139
 11
390.6991698384077
 21
2396.815418650204
 72
     1
 10
390.6991698384077
 20
2396.815418650204
 11
670.6991698384077
 21
2396.815418650204
 72
     1
 10
670.6991698384077
 20
2396.815418650204
 11
670.6991698384077
 21
2046.815418650204
 72
     1
 10
670.6991698384077
 20
2046.815418650204
 11
390.6991698384072
 21
2046.815418650204
 97
        1
330
5E25
 75
     0
 76
     1
 52
0.0
 41
8.0
 77
     0
 78
     1
 53
45.0
 43
0.0
 44
0.0
 45
-17.96051224213831
 46
17.96051224213831
 79
     0
 98
        1
 10
0.0
 20
0.0
1001
ACAD
1010
0.0
1020
0.0
1030
0.0
  0
HATCH
  5
5E2C
330
A
100
AcDbEntity
  8
Dim
100
AcDbHatch
 10
0.0
 20
0.0
 30
0.0
210
0.0
220
0.0
230
1.0
  2
ANSI31
 70
     0
 71
     1
 91
        1
 92
        1
 93
        4
 72
     1
 10
670.6991698384077
 20
2046.815418650204
 11
670.6991698384077
 21
2396.815418650204
 72
     1
 10
670.6991698384077
 20
2396.815418650204
 11
390.6991698384077
 21
2396.815418650204
 72
     1
 10
390.6991698384077
 20
2396.815418650204
 11
390.6991698384072
 21
2046.815418650204
 72
     1
 10
390.6991698384072
 20
2046.815418650204
 11
670.6991698384077
 21
2046.815418650204
 97
        4
330
5DED
330
5DEE
330
5DF0
330
5DF1
 75
     0
 76
     1
 52
0.0
 41
4.0
 77
     0
 78
     1
 53
45.0
 43
0.0
 44
0.0
 45
-8.980256121069154
 46
8.980256121069154
 79
     0
 98
        1
 10
0.0
 20
0.0
1001
ACAD
1010
0.0
1020
0.0
1030
0.0
  0
SPLINE
  5
5E36
330
A
100
AcDbEntity
  8
HIDDEN
100
AcDbSpline
210
0.0
220
0.0
230
1.0
 70
  1064
 71
     3
 72
    66
 73
    62
 74
    60
 42
0.000000001
 43
0.0000000001
 44
0.0
 40
0.0
 40
0.0
 40
0.0
 40
0.0
 40
1.629864225944335
 40
4.229507171280128
 40
8.04925218035765
 40
15.66698417524686
 40
30.89646384371035
 40
72.30061266234206
 40
94.37074879264433
 40
109.6294530622141
 40
122.5307630326302
 40
135.7968031480187
 40
142.7230802962889
 40
162.0728607224287
 40
178.5978446303731
 40
191.3916361267868
 40
211.5170137190635
 40
232.7809097500187
 40
254.2795827225904
 40
270.9487962253254
 40
278.8732781728211
 40
284.6408347263534
 40
287.2123231308185
 40
292.1788345672416
 40
297.0312622115623
 40
298.0859565899184
 40
298.1744072929425
 40
310.046074738688
 40
310.2952225960661
 40
316.063298949357
 40
339.3291165505194
 40
339.526087147393
 40
342.4330124769286
 40
343.8258602137517
 40
343.9705325963809
 40
346.6091338225373
 40
348.2457415828668
 40
350.0116589892511
 40
352.2041443909203
 40
353.8911677266003
 40
355.3890942247872
 40
357.4318309430839
 40
359.0477398240625
 40
362.3317169241827
 40
365.6574662837138
 40
370.5545493652708
 40
374.2030307289857
 40
384.1044177477061
 40
396.9291241370601
 40
413.5744440599638
 40
433.7579084807797
 40
452.6781031495853
 40
472.1164214486576
 40
493.9820061001222
 40
504.6005401916797
 40
510.5018826225193
 40
512.840790265392
 40
514.622948114891
 40
515.6744051335143
 40
517.5688180214781
 40
518.6673070053055
 40
518.6673070053055
 40
518.6673070053055
 40
518.6673070053055
 10
1549.571249112665
 20
2053.025913611992
 30
0.0
 10
1549.555055876826
 20
2053.579229850431
 30
0.0
 10
1549.51303433539
 20
2055.01508871598
 30
0.0
 10
1551.19416441794
 20
2057.331092717418
 30
0.0
 10
1554.976648343757
 20
2060.025366272987
 30
0.0
 10
1561.654327794869
 20
2065.947848448019
 30
0.0
 10
1578.163350064113
 20
2079.549246505818
 30
0.0
 10
1598.213051818674
 20
2096.494316662216
 30
0.0
 10
1618.301081018573
 20
2113.378904695081
 30
0.0
 10
1631.174482830841
 20
2124.085149746933
 30
0.0
 10
1641.585394262168
 20
2133.161849777402
 30
0.0
 10
1648.874088050331
 20
2141.555804505071
 30
0.0
 10
1655.44899707648
 20
2153.035781326729
 30
0.0
 10
1659.149099307357
 20
2167.04751207413
 30
0.0
 10
1660.917733991062
 20
2183.148389698253
 30
0.0
 10
1662.69700021629
 20
2199.538691609075
 30
0.0
 10
1664.6431193822
 20
2217.49402718866
 30
0.0
 10
1666.91784063624
 20
2238.326925642072
 30
0.0
 10
1669.023899471047
 20
2258.048449520429
 30
0.0
 10
1670.759478552651
 20
2273.256637924165
 30
0.0
 10
1671.714641278043
 20
2283.431091758085
 30
0.0
 10
1674.213802663368
 20
2288.382806580057
 30
0.0
 10
1677.018595029474
 20
2291.802950959615
 30
0.0
 10
1679.896854874037
 20
2294.884935827541
 30
0.0
 10
1681.56417660746
 20
2297.898203666464
 30
0.0
 10
1683.532760139179
 20
2299.185383171961
 30
0.0
 10
1683.419195665921
 20
2303.542955798686
 30
0.0
 10
1683.472755143622
 20
2315.630647425957
 30
0.0
 10
1683.566873614644
 20
2309.237116782236
 30
0.0
 10
1683.359761867165
 20
2330.331724426455
 30
0.0
 10
1684.135172745224
 20
2332.560437052234
 30
0.0
 10
1683.452024551413
 20
2341.355030788466
 30
0.0
 10
1683.260685636222
 20
2342.75223219241
 30
0.0
 10
1683.808279071594
 20
2344.438923393266
 30
0.0
 10
1682.866409733148
 20
2345.487966137808
 30
0.0
 10
1681.955281438019
 20
2346.629785173904
 30
0.0
 10
1680.651486069108
 20
2348.168890741003
 30
0.0
 10
1679.455229708203
 20
2349.598592307988
 30
0.0
 10
1678.244144344087
 20
2351.039209505973
 30
0.0
 10
1677.094264132781
 20
2352.414316713839
 30
0.0
 10
1675.966692418094
 20
2353.742475640146
 30
0.0
 10
1674.896090817734
 20
2355.090090048298
 30
0.0
 10
1673.647085367265
 20
2357.041339060305
 30
0.0
 10
1672.428203441274
 20
2359.509149791917
 30
0.0
 10
1671.263079249082
 20
2363.179942068635
 30
0.0
 10
1670.706616240217
 20
2367.1066247868
 30
0.0
 10
1669.402699457663
 20
2373.115541038222
 30
0.0
 10
1666.96855878208
 20
2381.591470312815
 30
0.0
 10
1661.188232882189
 20
2393.455916053718
 30
0.0
 10
1649.52015691608
 20
2405.985206515359
 30
0.0
 10
1631.174526838611
 20
2411.629480220083
 30
0.0
 10
1611.834023447291
 20
2413.538984339574
 30
0.0
 10
1591.823732769097
 20
2415.463767278335
 30
0.0
 10
1574.60839529527
 20
2416.963060365917
 30
0.0
 10
1561.817125049051
 20
2418.020742899374
 30
0.0
 10
1555.619470356638
 20
2418.659607491699
 30
0.0
 10
1552.20468758707
 20
2418.827642451242
 30
0.0
 10
1550.729244747743
 20
2419.863281259583
 30
0.0
 10
1549.808082283397
 20
2421.162646897045
 30
0.0
 10
1549.532368061194
 20
2422.533477153119
 30
0.0
 10
1549.560810020379
 20
2423.528768341517
 30
0.0
 10
1549.571249112665
 20
2423.894071466373
 30
0.0
 11
1549.571249112665
 21
2053.025913611992
 31
0.0
 11
1549.660086915668
 21
2054.653354928836
 31
0.0
 11
1551.003145293962
 21
2056.879189072641
 31
0.0
 11
1553.928926543962
 21
2059.334847031625
 31
0.0
 11
1559.764864043962
 21
2064.230934678109
 31
0.0
 11
1571.428926543962
 21
2074.023109971078
 31
0.0
 11
1603.148964990927
 21
2100.634060730464
 31
0.0
 11
1620.053926543962
 21
2114.822548447641
 31
0.0
 11
1631.737520293962
 21
2124.636910019906
 31
0.0
 11
1641.296114043962
 21
2133.301613389048
 31
0.0
 11
1649.800020293962
 21
2143.48352867225
 31
0.0
 11
1653.237520293962
 21
2149.496590195688
 31
0.0
 11
1658.870332793962
 21
2168.008354722055
 31
0.0
 11
1661.050020293962
 21
2184.388954697641
 31
0.0
 11
1662.432832793962
 21
2197.107796250375
 31
0.0
 11
1664.604707793962
 21
2217.115639267954
 31
0.0
 11
1666.901582793962
 21
2238.255119858774
 31
0.0
 11
1669.221895293962
 21
2259.628212510141
 31
0.0
 11
1671.018770293962
 21
2276.200295029672
 31
0.0
 11
1672.342989043962
 21
2284.013351975473
 31
0.0
 11
1674.932832793962
 21
2289.166740952523
 31
0.0
 11
1676.532586671536
 21
2291.180031827058
 31
0.0
 11
1679.724998021022
 21
2294.984600872797
 31
0.0
 11
1682.844077737759
 21
2298.701776650724
 31
0.0
 11
1683.522022074907
 21
2299.509719536988
 31
0.0
 11
1683.522022074907
 21
2299.598170240012
 31
0.0
 11
1683.533908954068
 21
2311.469831734701
 31
0.0
 11
1683.537709745679
 21
2311.220712869861
 31
0.0
 11
1683.522022074907
 21
2316.988767889916
 31
0.0
 11
1683.537451898632
 21
2340.25458037457
 31
0.0
 11
1683.522022074907
 21
2340.450945688647
 31
0.0
 11
1683.522022074907
 21
2343.357871018183
 31
0.0
 11
1683.522022074907
 21
2344.750718755006
 31
0.0
 11
1683.429028479266
 21
2344.861544246051
 31
0.0
 11
1681.732968657601
 21
2346.882830349503
 31
0.0
 11
1680.68097768655
 21
2348.136544813804
 31
0.0
 11
1679.545868094522
 21
2349.48931622844
 31
0.0
 11
1678.13656593757
 21
2351.168857733418
 31
0.0
 11
1677.052168466101
 21
2352.461192774729
 31
0.0
 11
1676.089320073476
 21
2353.608671213215
 31
0.0
 11
1674.839082793962
 21
2355.224121628793
 31
0.0
 11
1673.964082793962
 21
2356.582626877817
 31
0.0
 11
1672.510957793962
 21
2359.527611313852
 31
0.0
 11
1671.495332793962
 21
2362.694489060434
 31
0.0
 11
1670.581270293962
 21
2367.505508957895
 31
0.0
 11
1669.823457793962
 21
2371.074421463998
 31
0.0
 11
1667.003145293962
 21
2380.56564384559
 31
0.0
 11
1661.257051543962
 21
2392.031048356088
 31
0.0
 11
1649.643770293962
 21
2403.955744324716
 31
0.0
 11
1630.745332793962
 21
2411.042442856821
 31
0.0
 11
1611.987520293962
 21
2413.515949784311
 31
0.0
 11
1592.636676065602
 21
2415.357972027877
 31
0.0
 11
1570.854707793962
 21
2417.268377839121
 31
0.0
 11
1560.276582793962
 21
2418.193871079477
 31
0.0
 11
1554.397676543962
 21
2418.707975922616
 31
0.0
 11
1552.08862611353
 21
2419.080501185665
 31
0.0
 11
1550.622158887744
 21
2420.093200783881
 31
0.0
 11
1550.019849136425
 21
2420.95505043752
 31
0.0
 11
1549.571249112665
 21
2422.795582482546
 31
0.0
 11
1549.571249112665
 21
2423.894071466373
 31
0.0
  0
SPLINE
  5
5E57
330
A
100
AcDbEntity
  8
HIDDEN
100
AcDbSpline
210
0.0
220
0.0
230
1.0
 70
  1064
 71
     3
 72
    33
 73
    29
 74
    27
 42
0.000000001
 43
0.0000000001
 44
0.0
 40
0.0
 40
0.0
 40
0.0
 40
0.0
 40
2.252949374989336
 40
8.444851214002988
 40
25.25681817945895
 40
35.15110622899505
 40
49.65944032421866
 40
70.5849205054845
 40
96.9489080080514
 40
119.6082213994484
 40
134.9623150450342
 40
156.6762825165681
 40
179.7443299396646
 40
203.2038864457302
 40
258.3976134962854
 40
323.2997895125004
 40
372.0212690632369
 40
377.6772421179501
 40
382.1912000318181
 40
386.6565832867361
 40
390.2274354426945
 40
394.3218582179455
 40
397.2170373553834
 40
397.7131538903355
 40
414.0966272750105
 40
419.3452559813625
 40
425.4013660271515
 40
428.8801571129335
 40
428.8801571129335
 40
428.8801571129335
 40
428.8801571129335
 10
1549.643189631066
 20
1352.464448323875
 30
0.0
 10
1550.116554221506
 20
1351.879559364973
 30
0.0
 10
1551.890892154096
 20
1349.687188648849
 30
0.0
 10
1558.675935297798
 20
1344.592434166385
 30
0.0
 10
1566.962953821763
 20
1337.458945469318
 30
0.0
 10
1577.300297543917
 20
1328.398645968738
 30
0.0
 10
1588.961722589878
 20
1318.791995576198
 30
0.0
 10
1604.559558650056
 20
1305.337289815308
 30
0.0
 10
1622.413450181795
 20
1290.327347813025
 30
0.0
 10
1639.032246480308
 20
1276.78957235504
 30
0.0
 10
1652.328141450077
 20
1261.583199722528
 30
0.0
 10
1658.296912991038
 20
1241.943543077365
 30
0.0
 10
1661.405135075584
 20
1219.461522431882
 30
0.0
 10
1662.850119354322
 20
1185.538724107741
 30
0.0
 10
1665.763612675853
 20
1137.780989559884
 30
0.0
 10
1668.547004682469
 20
1081.658852114203
 30
0.0
 10
1671.446300956836
 20
1041.801414112874
 30
0.0
 10
1671.845582975757
 20
1022.331325264658
 30
0.0
 10
1672.30082291014
 20
1017.304205311601
 30
0.0
 10
1675.097005900008
 20
1014.014129197765
 30
0.0
 10
1677.823828506445
 20
1011.012564798517
 30
0.0
 10
1680.153247196368
 20
1008.577734913153
 30
0.0
 10
1682.093724103848
 20
1006.515530498597
 30
0.0
 10
1688.761873879913
 20
1006.800124345999
 30
0.0
 10
1696.06786724177
 20
1006.539724410731
 30
0.0
 10
1705.307165915673
 20
1006.576286945876
 30
0.0
 10
1710.233383825464
 20
1006.570784625543
 30
0.0
 10
1713.411829236132
 20
1006.570384923623
 30
0.0
 10
1714.571479179923
 20
1006.570239093115
 30
0.0
 11
1549.643189631066
 21
1352.464448323875
 31
0.0
 11
1551.098464800256
 21
1350.744577669377
 31
0.0
 11
1555.79503466446
 21
1346.709496518442
 31
0.0
 11
1568.694064573189
 21
1335.92723049217
 31
0.0
 11
1576.16888703312
 21
1329.444641102142
 31
0.0
 11
1587.281897416025
 21
1320.117650245061
 31
0.0
 11
1603.213181250615
 21
1306.550413378319
 31
0.0
 11
1623.400214736583
 21
1289.593305250106
 31
0.0
 11
1640.438070998739
 21
1274.65490047049
 31
0.0
 11
1650.127847072004
 21
1262.74455071377
 31
0.0
 11
1657.597049461811
 21
1242.355646892943
 31
0.0
 11
1661.028845154426
 21
1219.5442990538
 31
0.0
 11
1662.441937498444
 21
1196.127340210078
 31
0.0
 11
1665.469992521339
 21
1141.016738793386
 31
0.0
 11
1669.103658548813
 21
1076.216361303432
 31
0.0
 11
1671.727972901988
 21
1027.56561060225
 31
0.0
 11
1671.929843236848
 21
1021.913241226179
 31
0.0
 11
1672.737324576287
 21
1017.472093859267
 31
0.0
 11
1675.301239325272
 21
1013.816141346824
 31
0.0
 11
1677.699135910869
 21
1011.170186493752
 31
0.0
 11
1680.510462942259
 21
1008.193487284045
 31
0.0
 11
1682.908359527856
 21
1006.571095776844
 31
0.0
 11
1683.404476062808
 21
1006.571095776844
 31
0.0
 11
1699.787949447483
 21
1006.571095776844
 31
0.0
 11
1705.036578153835
 21
1006.571095776844
 31
0.0
 11
1711.092688199624
 21
1006.571095776844
 31
0.0
 11
1714.571479179923
 21
1006.570239093115
 31
0.0
  0
SPLINE
  5
5E58
330
A
100
AcDbEntity
  8
HIDDEN
100
AcDbSpline
210
0.0
220
0.0
230
1.0
 70
  1064
 71
     3
 72
    33
 73
    29
 74
    27
 42
0.000000001
 43
0.0000000001
 44
0.0
 40
0.0
 40
0.0
 40
0.0
 40
0.0
 40
2.252949374988642
 40
8.444851214002737
 40
25.25681817945841
 40
35.15110622899466
 40
49.65944032421826
 40
70.5849205054844
 40
96.94890800805015
 40
119.6082213994477
 40
134.962315045034
 40
156.6762825165681
 40
179.7443299396643
 40
203.2038864457302
 40
258.3976134962845
 40
323.2997895125004
 40
372.021269063236
 40
377.677242117949
 40
382.1912000318179
 40
386.6565832867352
 40
390.2274354426942
 40
394.3218582179449
 40
397.2170373553825
 40
397.7131538903346
 40
414.0966272750096
 40
419.3452559813616
 40
425.4013660271506
 40
428.8801988786955
 40
428.8801988786955
 40
428.8801988786955
 40
428.8801988786955
 10
1549.643189631066
 20
615.1613745817338
 30
0.0
 10
1550.116554221506
 20
615.7462635406351
 30
0.0
 10
1551.890892154096
 20
617.9386342567594
 30
0.0
 10
1558.675935297797
 20
623.0333887392245
 30
0.0
 10
1566.962953821763
 20
630.1668774362898
 30
0.0
 10
1577.300297543917
 20
639.2271769368706
 30
0.0
 10
1588.961722589878
 20
648.8338273294099
 30
0.0
 10
1604.559558650056
 20
662.2885330903009
 30
0.0
 10
1622.413450181794
 20
677.2984750925834
 30
0.0
 10
1639.032246480309
 20
690.8362505505677
 30
0.0
 10
1652.328141450077
 20
706.0426231830807
 30
0.0
 10
1658.296912991038
 20
725.6822798282432
 30
0.0
 10
1661.405135075584
 20
748.164300473727
 30
0.0
 10
1662.850119354322
 20
782.0870987978672
 30
0.0
 10
1665.763612675853
 20
829.8448333457246
 30
0.0
 10
1668.547004682469
 20
885.9669707914047
 30
0.0
 10
1671.446300956837
 20
925.8244087927351
 30
0.0
 10
1671.845582975756
 20
945.2944976409502
 30
0.0
 10
1672.300822910141
 20
950.3216175940074
 30
0.0
 10
1675.097005900008
 20
953.611693707843
 30
0.0
 10
1677.823828506446
 20
956.6132581070915
 30
0.0
 10
1680.153247196368
 20
959.0480879924559
 30
0.0
 10
1682.093724103848
 20
961.1102924070107
 30
0.0
 10
1688.761873879911
 20
960.8256985596094
 30
0.0
 10
1696.067867242232
 20
961.0860984948453
 30
0.0
 10
1705.307165915163
 20
961.0495359597662
 30
0.0
 10
1710.233397744686
 20
961.055038295484
 30
0.0
 10
1713.411857078958
 20
961.0554379856387
 30
0.0
 10
1714.571520945687
 20
961.0555838129658
 30
0.0
 11
1549.643189631066
 21
615.1613745817338
 31
0.0
 11
1551.098464800256
 21
616.881245236231
 31
0.0
 11
1555.79503466446
 21
620.9163263871667
 31
0.0
 11
1568.694064573189
 21
631.6985924134381
 31
0.0
 11
1576.16888703312
 21
638.1811818034664
 31
0.0
 11
1587.281897416025
 21
647.5081726605474
 31
0.0
 11
1603.213181250615
 21
661.0754095272898
 31
0.0
 11
1623.400214736582
 21
678.0325176555023
 31
0.0
 11
1640.438070998739
 21
692.9709224351179
 31
0.0
 11
1650.127847072004
 21
704.8812721918387
 31
0.0
 11
1657.597049461811
 21
725.2701760126658
 31
0.0
 11
1661.028845154426
 21
748.0815238518087
 31
0.0
 11
1662.441937498444
 21
771.4984826955308
 31
0.0
 11
1665.469992521339
 21
826.609084112222
 31
0.0
 11
1669.103658548813
 21
891.4094616021769
 31
0.0
 11
1671.727972901988
 21
940.060212303358
 31
0.0
 11
1671.929843236848
 21
945.7125816794288
 31
0.0
 11
1672.737324576287
 21
950.1537290463417
 31
0.0
 11
1675.301239325272
 21
953.8096815587838
 31
0.0
 11
1677.699135910869
 21
956.4556364118567
 31
0.0
 11
1680.510462942259
 21
959.4323356215633
 31
0.0
 11
1682.908359527856
 21
961.0547271287638
 31
0.0
 11
1683.404476062808
 21
961.0547271287638
 31
0.0
 11
1699.787949447483
 21
961.0547271287638
 31
0.0
 11
1705.036578153835
 21
961.0547271287638
 31
0.0
 11
1711.092688199624
 21
961.0547271287638
 31
0.0
 11
1714.571520945687
 21
961.0555838129658
 31
0.0
  0
LINE
  5
5E5A
330
A
100
AcDbEntity
  8
HIDDEN
100
AcDbLine
 10
1672.128104151795
 20
1019.791185543476
 30
0.0
 11
1671.862416395209
 21
944.4169570111903
 31
0.0
  0
LINE
  5
5E5D
330
A
100
AcDbEntity
  8
HIDDEN
100
AcDbLine
 10
1683.802474298522
 20
1006.586479183097
 30
0.0
 11
1683.802474298522
 21
961.0393437225111
 31
0.0
  0
LINE
  5
5EBA
330
A
100
AcDbEntity
  8
Dim
100
AcDbLine
 10
1634.571277515756
 20
526.1516630370816
 30
0.0
 11
1783.549899323089
 21
526.1516630370817
 31
0.0
  0
MTEXT
  5
5EBB
330
A
100
AcDbEntity
  8
Dim
390
1D
100
AcDbMText
 10
1804.270538611114
 20
447.0985608878294
 30
34.99521132346015
 40
24.0
 41
1169.771715461011
 46
25.704
 71
     1
 72
     1
  1
{半埋め込み}
  7
ＭＳ ゴシック
 11
1.883358689166497E-15
 21
1.0
 31
0.0
 73
     1
 44
1.174240107638677
1001
ACAD
1000
ACAD_MTEXT_DEFINED_HEIGHT_BEGIN
1070
    46
1040
25.704
1000
ACAD_MTEXT_DEFINED_HEIGHT_END
  0
LINE
  5
5EBC
330
A
100
AcDbEntity
  8
Dim
100
AcDbLine
 10
1634.571277515757
 20
595.3464299519999
 30
0.0
 11
1634.571277515756
 21
513.0206103234524
 31
0.0
  0
LINE
  5
5EBD
330
A
100
AcDbEntity
  8
Dim
100
AcDbLine
 10
1719.571277515755
 20
639.6073652273798
 30
0.0
 11
1883.473234781326
 21
639.6073652273798
 31
0.0
  0
MTEXT
  5
5EBE
330
A
100
AcDbEntity
  8
Dim
390
1D
100
AcDbMText
 10
1903.387055532694
 20
627.508222284255
 30
34.99521132346015
 40
24.0
 41
1169.771715461011
 46
25.824
 71
     1
 72
     1
  1
{カウンター置き}
  7
ＭＳ ゴシック
 11
1.883358689166497E-15
 21
1.0
 31
0.0
 73
     1
 44
1.174240107638677
1001
ACAD
1000
ACAD_MTEXT_DEFINED_HEIGHT_BEGIN
1070
    46
1040
25.824
1000
ACAD_MTEXT_DEFINED_HEIGHT_END
  0
LINE
  5
5EBF
330
A
100
AcDbEntity
  8
Dim
100
AcDbLine
 10
1719.571277515755
 20
682.0901828302979
 30
0.0
 11
1719.571277515755
 21
626.4763125137507
 31
0.0
  0
DIMENSION
  5
5EDC
102
{ACAD_REACTORS
330
5EDE
102
}
102
{ACAD_XDICTIONARY
360
5EDD
102
}
330
A
100
AcDbEntity
  8
Dim
100
AcDbDimension
  2
*D32
 10
1719.57125077463
 20
2246.496448425474
 30
0.0
 11
1764.581234928896
 21
2246.496448425474
 31
0.0
 70
   160
 71
     5
 42
4.999999688679509
 73
     0
 74
     1
 75
     1
  3
tform線あり
100
AcDbAlignedDimension
 13
1714.571251085951
 23
2300.130236835826
 33
0.0
 14
1719.57125077463
 24
2300.130236765071
 34
0.0
100
AcDbRotatedDimension
1001
ACAD
1000
DSTYLE
1002
{
1070
   144
1040
1.0
1002
}
  0
LINE
  5
5EEF
330
A
100
AcDbEntity
  8
HIDDEN
 48
0.5
100
AcDbLine
 10
1714.571520945687
 20
961.0555838129658
 30
0.0
 11
1714.571479179923
 21
1006.570239093115
 31
0.0
  0
VIEWPORT
  5
349
330
B
100
AcDbEntity
 67
     1
  8
0
100
AcDbViewport
 10
202.5
 20
128.5
 30
0.0
 40
486.0
 41
308.4
 68
     1
 69
     1
 12
202.5
 22
128.5
 13
0.0
 23
0.0
 14
0.5
 24
0.5
 15
0.0
 25
0.0
 16
0.0
 26
0.0
 36
1.0
 17
0.0
 27
0.0
 37
0.0
 42
50.0
 43
0.0
 44
0.0
 45
308.4
 50
0.0
 51
0.0
 72
   100
 90
   557152
  1

281
     0
 71
     1
 74
     0
110
0.0
120
0.0
130
0.0
111
1.0
121
0.0
131
0.0
112
0.0
122
1.0
132
0.0
 79
     0
146
0.0
170
     0
 61
     5
348
26C
292
     1
282
     1
141
0.0
142
0.0
 63
   256
  0
VIEWPORT
  5
34A
330
B
100
AcDbEntity
 67
     1
  8
0
100
AcDbViewport
 10
202.5
 20
128.5
 30
0.0
 40
324.0
 41
205.6
 68
     2
 69
     2
 12
986.6781359294573
 22
1427.077061889956
 13
0.0
 23
0.0
 14
0.5
 24
0.5
 15
0.0
 25
0.0
 16
0.0
 26
0.0
 36
1.0
 17
0.0
 27
0.0
 37
0.0
 42
50.0
 43
0.0
 44
0.0
 45
2890.021615685494
 50
0.0
 51
0.0
 72
   100
 90
   557152
  1

281
     0
 71
     1
 74
     0
110
0.0
120
0.0
130
0.0
111
1.0
121
0.0
131
0.0
112
0.0
122
1.0
132
0.0
 79
     0
146
0.0
170
     0
 61
     5
348
26C
292
     1
282
     1
141
0.0
142
0.0
 63
   256
  0
ENDSEC
  0
SECTION
  2
OBJECTS
  0
DICTIONARY
  5
19
330
0
100
AcDbDictionary
281
     1
  3
ACAD_COLOR
350
38F
  3
ACAD_DETAILVIEWSTYLE
350
8CF
  3
ACAD_FIELDLIST
350
BA6
  3
ACAD_GROUP
350
1A
  3
ACAD_IMAGE_DICT
350
5E43
  3
ACAD_IMAGE_VARS
350
27B
  3
ACAD_LAYOUT
350
1E
  3
ACAD_MATERIAL
350
263
  3
ACAD_MLEADERSTYLE
350
336
  3
ACAD_MLINESTYLE
350
1B
  3
ACAD_PLOTSETTINGS
350
22
  3
ACAD_PLOTSTYLENAME
350
1F
  3
ACAD_SCALELIST
350
241
  3
ACAD_SECTIONVIEWSTYLE
350
8D0
  3
ACAD_TABLESTYLE
350
278
  3
ACAD_VISUALSTYLE
350
267
  3
ACDB_RECOMPOSE_DATA
350
5F1B
  3
AcDbVariableDictionary
350
330
  3
APPDATA
350
27A
  3
DimOffsetDictionary
350
C08
  0
SUN
  5
8C2
330
15
100
AcDbSun
 90
        1
290
     0
 63
     7
421
 16777215
 40
1.0
291
     1
 91
  2455826
 92
 54000000
292
     0
 70
     2
 71
   256
280
     1
  0
DICTIONARY
  5
2E1
330
2
100
AcDbDictionary
280
     1
281
     1
  3
ACAD_LAYERSTATES
360
2E2
  3
ACLYDICTIONARY
360
BFE
  0
DICTIONARY
  5
560A
330
A
100
AcDbDictionary
280
     1
281
     1
  3
ACAD_SORTENTS
360
560B
  0
DICTIONARY
  5
BDC
330
BDB
100
AcDbDictionary
280
     1
281
     1
  3
ACAD_FIELD
360
5F0F
  0
DICTIONARY
  5
5C70
330
5C6F
100
AcDbDictionary
280
     1
281
     1
  3
ACAD_DIMASSOC
360
5C71
  0
DICTIONARY
  5
5E03
330
5E02
100
AcDbDictionary
280
     1
281
     1
  3
ACAD_DIMASSOC
360
5E04
  0
DICTIONARY
  5
5EDD
330
5EDC
100
AcDbDictionary
280
     1
281
     1
  3
ACAD_DIMASSOC
360
5EDE
  0
DICTIONARY
  5
38F
102
{ACAD_REACTORS
330
19
102
}
330
19
100
AcDbDictionary
281
     1
  0
DICTIONARY
  5
8CF
102
{ACAD_REACTORS
330
19
102
}
330
19
100
AcDbDictionary
281
     1
  0
FIELDLIST
  5
BA6
102
{ACAD_REACTORS
330
19
102
}
330
19
100
AcDbIdSet
 90
        2
330
BDF
330
BDE
100
AcDbFieldList
  0
DICTIONARY
  5
1A
102
{ACAD_REACTORS
330
19
102
}
330
19
100
AcDbDictionary
281
     1
  3
*A1
350
5C59
  0
DICTIONARY
  5
5E43
102
{ACAD_REACTORS
330
19
102
}
330
19
100
AcDbDictionary
281
     1
  3
Untitled
350
5E44
  0
RASTERVARIABLES
  5
27B
102
{ACAD_REACTORS
330
19
102
}
330
19
100
AcDbRasterVariables
 90
        0
 70
     1
 71
     1
 72
     1
  0
DICTIONARY
  5
1E
102
{ACAD_REACTORS
330
19
102
}
330
19
100
AcDbDictionary
281
     1
  3
Layout1
350
21
  3
Model
350
20
  0
DICTIONARY
  5
263
102
{ACAD_REACTORS
330
19
102
}
330
19
100
AcDbDictionary
281
     1
  3
ByBlock
350
4FEC
  3
ByLayer
350
264
  3
Global
350
266
  0
DICTIONARY
  5
336
102
{ACAD_REACTORS
330
19
102
}
330
19
100
AcDbDictionary
281
     1
  3
Standard
350
8D1
  0
DICTIONARY
  5
1B
102
{ACAD_REACTORS
330
19
102
}
330
19
100
AcDbDictionary
281
     1
  3
Standard
350
1C
  0
DICTIONARY
  5
22
102
{ACAD_REACTORS
330
19
102
}
330
19
100
AcDbDictionary
281
     1
  0
ACDBDICTIONARYWDFLT
  5
1F
102
{ACAD_REACTORS
330
19
102
}
330
19
100
AcDbDictionary
281
     1
  3
Normal
350
1D
100
AcDbDictionaryWithDefault
340
1D
  0
DICTIONARY
  5
241
102
{ACAD_REACTORS
330
19
102
}
330
19
100
AcDbDictionary
281
     1
  3
A0
350
242
  3
A1
350
243
  3
A2
350
244
  3
A3
350
245
  3
A4
350
246
  3
A5
350
247
  3
A6
350
248
  3
A7
350
249
  3
A8
350
24A
  3
A9
350
24B
  3
B0
350
24C
  3
B1
350
24D
  3
B2
350
24E
  3
B3
350
24F
  3
B4
350
250
  3
B5
350
251
  3
B6
350
252
  3
B7
350
253
  3
B8
350
254
  3
B9
350
255
  3
C0
350
256
  3
C1
350
257
  3
C2
350
258
  3
C3
350
259
  3
C4
350
25A
  3
C5
350
25B
  3
C6
350
25C
  3
C7
350
25D
  3
C8
350
25E
  3
C9
350
25F
  3
D0
350
260
  3
D1
350
261
  3
D2
350
262
  0
DICTIONARY
  5
8D0
102
{ACAD_REACTORS
330
19
102
}
330
19
100
AcDbDictionary
281
     1
  0
DICTIONARY
  5
278
102
{ACAD_REACTORS
330
19
102
}
330
19
100
AcDbDictionary
281
     1
  3
Standard
350
279
  0
DICTIONARY
  5
267
102
{ACAD_REACTORS
330
19
102
}
330
19
100
AcDbDictionary
281
     1
  3
2dWireframe
350
26C
  3
3D Hidden
350
26E
  3
3dWireframe
350
26D
  3
Basic
350
26F
  3
Brighten
350
273
  3
ColorChange
350
277
  3
Conceptual
350
271
  3
Dim
350
272
  3
EdgeColorOff
350
8BC
  3
Facepattern
350
276
  3
Flat
350
268
  3
FlatWithEdges
350
269
  3
Gouraud
350
26A
  3
GouraudWithEdges
350
26B
  3
Hidden
350
8B9
  3
JitterOff
350
8BA
  3
Linepattern
350
275
  3
OverhangOff
350
8BB
  3
Realistic
350
270
  3
Shaded
350
8C1
  3
Shaded with edges
350
8C0
  3
Shades of Gray
350
8BD
  3
Sketchy
350
8BE
  3
Thicken
350
274
  3
Wireframe
350
8B8
  3
X-Ray
350
8BF
  0
XRECORD
  5
5F1B
102
{ACAD_REACTORS
330
19
102
}
330
19
100
AcDbXrecord
280
     1
 90
        1
330
279
  0
DICTIONARY
  5
330
102
{ACAD_REACTORS
330
19
102
}
330
19
100
AcDbDictionary
281
     1
  3
CANNOSCALE
350
331
  3
CMLEADERSTYLE
350
8DA
  3
CTABLESTYLE
350
335
  3
HPTRANSPARENCY
350
C07
  3
XCLIPFRAME
350
64A
  0
DICTIONARY
  5
27A
102
{ACAD_REACTORS
330
19
102
}
330
19
100
AcDbDictionary
281
     1
  0
DICTIONARY
  5
C08
102
{ACAD_REACTORS
330
19
102
}
330
19
100
AcDbDictionary
281
     1
  3
DIMRAILANGLE
350
4342
  3
DIMRAILFIRSTOFFSET
350
4340
  3
DIMRAILOFFSET
350
4341
  3
DIMRAILSENABLED
350
4343
  0
DICTIONARY
  5
2E2
102
{ACAD_REACTORS
330
2E1
102
}
330
2E1
100
AcDbDictionary
281
     1
  0
DICTIONARY
  5
BFE
102
{ACAD_REACTORS
330
2E1
102
}
330
2E1
100
AcDbDictionary
281
     1
1001
ACAD
1000
<All
  0
SORTENTSTABLE
  5
560B
102
{ACAD_REACTORS
330
560A
102
}
330
560A
100
AcDbSortentsTable
330
A
331
177
  5
178
331
178
  5
179
331
179
  5
17A
331
17A
  5
17B
331
17B
  5
17C
331
17C
  5
17E
331
17E
  5
180
331
180
  5
181
331
181
  5
182
331
182
  5
183
331
183
  5
184
331
184
  5
185
331
185
  5
186
331
186
  5
187
331
187
  5
188
331
188
  5
189
331
189
  5
18A
331
18A
  5
1A6
331
1A6
  5
374
331
374
  5
3D0
331
3D0
  5
BDB
331
BDB
  5
BEE
331
BEE
  5
1273
331
1273
  5
127B
331
127B
  5
127C
331
127C
  5
3B99
331
3B99
  5
467E
331
467E
  5
527B
331
527B
  5
527C
331
527C
  5
527D
331
527D
  5
527E
331
527E
  5
527F
331
527F
  5
5280
331
5280
  5
5281
331
5281
  5
5282
331
5282
  5
5283
331
5283
  5
5284
331
5284
  5
5285
331
5285
  5
5286
331
5286
  5
5287
331
5287
  5
59B3
331
59B3
  5
59B4
331
59B4
  5
59B5
331
59B5
  5
59B6
331
59B6
  5
59B7
331
59B7
  5
59B8
331
59B8
  5
59B9
331
59B9
  5
59BA
331
59BA
  5
59BB
331
59BB
  5
59BC
331
59BC
  5
59BD
331
59BD
  5
59BE
331
59BE
  5
59BF
331
59BF
  5
59C0
331
59C0
  5
59C1
331
59C1
  5
59C2
331
59C2
  5
59C3
331
59C3
  5
59C4
331
59C4
  5
59C5
331
59C5
  5
59C6
331
59C6
  5
59C7
331
59C7
  5
59C8
331
59C8
  5
59C9
331
59C9
  5
59CA
331
59CA
  5
59CB
331
59CB
  5
59CC
331
59CC
  5
59CD
331
59CD
  5
59CE
331
59CE
  5
59CF
331
59CF
  5
59D0
331
59D0
  5
59D1
331
59D1
  5
59D2
331
59D2
  5
59D3
331
59D3
  5
59D4
331
59D4
  5
59D5
331
59D5
  5
59D6
331
59D6
  5
59D7
331
59D7
  5
59D8
331
59D8
  5
59D9
331
59D9
  5
59DA
331
59DA
  5
59DB
331
59DB
  5
59DC
331
59DC
  5
59DD
331
59DD
  5
59DE
331
59DE
  5
59DF
331
59DF
  5
59E0
331
59E0
  5
59E1
331
59E1
  5
59E2
331
59E2
  5
59E7
331
59E7
  5
59E9
331
59E9
  5
59F0
331
59F0
  5
59F1
331
59F1
  5
59F3
331
59F3
  5
59F7
331
59F7
  5
5A03
331
5A03
  5
5A04
331
5A04
  5
5A05
331
5A05
  5
5A06
331
5A06
  5
5A08
331
5A08
  5
5A09
331
5A09
  5
5A0A
331
5A0A
  5
5A0E
331
5A0E
  5
5A13
331
5A13
  5
5A14
331
5A14
  5
5A18
331
5A18
  5
5A19
331
5A19
  5
5A22
331
5A22
  5
5A25
331
5A25
  5
5A26
331
5A26
  5
5A28
331
5A28
  5
5A29
331
5A29
  5
5A2E
331
5A2E
  5
5A33
331
5A33
  5
5A34
331
5A34
  5
5A53
331
5A53
  5
5A67
331
5A67
  5
5A6C
331
5A6C
  5
5A6D
331
5A6D
  5
5A6F
331
5A6F
  5
5A70
331
5A70
  5
5A72
331
5A72
  5
5A74
331
5A74
  5
5A75
331
5A75
  5
5B2C
331
5B2C
  5
5B3F
331
5B3F
  5
5B40
331
5B40
  5
5B41
331
5B41
  5
5B42
331
5B42
  5
5B43
331
5B43
  5
5B44
331
5B44
  5
5B45
331
5B45
  5
5B4A
331
5B4A
  5
5B57
331
5B57
  5
5B58
331
5B58
  5
5B59
331
5B59
  5
5B5A
331
5B5A
  5
5B5B
331
5B5B
  5
5B5C
331
5B5C
  5
5B5D
331
5B5D
  5
5B5E
331
5B5E
  5
5B5F
331
5B5F
  5
5B60
331
5B60
  5
5B61
331
5B61
  5
5B62
331
5B62
  5
5B63
331
5B63
  5
5B64
331
5B64
  5
5B65
331
5B65
  5
5B66
331
5B66
  5
5B68
331
5B68
  5
5B69
331
5B69
  5
5B6A
331
5B6A
  5
5B6B
331
5B6B
  5
5B6C
331
5B6C
  5
5B6D
331
5B6D
  5
5B6E
331
5B6E
  5
5B6F
331
5B6F
  5
5B70
331
5B70
  5
5B71
331
5B71
  5
5B72
331
5B72
  5
5B73
331
5B73
  5
5B74
331
5B74
  5
5C18
331
5C16
  5
5C19
331
5C17
  5
5C2A
331
5C18
  5
5C46
331
5C19
  5
5C5D
331
5C2A
  5
5C5F
331
5C46
  5
5C61
331
5C61
  5
5C6F
331
5C6F
  5
5C82
331
5C82
  5
5C8F
331
5C8F
  5
5CDD
331
5CDD
  5
5D1E
331
5D1E
  5
5D1F
331
5D1F
  5
5D56
331
5D56
  5
5D57
331
5D57
  5
5D8B
331
5D8B
  5
5DC3
331
5DC3
  5
5DC4
331
5DC4
  5
5DC5
331
5DC5
  5
5DC6
331
5DC6
  5
5DC7
331
5DC7
  5
5DCE
331
5DCE
  5
5DF0
331
5DED
  5
5DF3
331
5DEE
  5
5E17
331
5DF0
  5
5E18
331
5DF1
  5
5E25
331
5DF3
  5
5E26
331
5E02
  5
5E2B
331
5E25
  5
177
331
5E27
  5
5E2C
331
5E2C
  5
5DF1
  0
DICTIONARY
  5
5F0F
102
{ACAD_REACTORS
330
BDC
102
}
330
BDC
100
AcDbDictionary
280
     1
281
     1
  3
TEXT
360
BDE
  0
DIMASSOC
  5
5C71
102
{ACAD_REACTORS
330
5C70
102
}
330
5C70
100
AcDbDimAssoc
330
5C6F
 90
        0
 70
     0
 71
     1
  0
DIMASSOC
  5
5E04
102
{ACAD_REACTORS
330
5E03
102
}
330
5E03
100
AcDbDimAssoc
330
5E02
 90
        3
 70
     0
 71
     1
  1
AcDbOsnapPointRef
 72
     1
331
5DF1
 73
     0
 91
        0
 40
0.0
 10
0.0
 20
0.0
 30
0.0
 75
     0
  1
AcDbOsnapPointRef
 72
    13
331
5DEE
 73
     0
 91
        0
 40
0.0
 10
0.0
 20
0.0
 30
0.0
 75
     0
  0
DIMASSOC
  5
5EDE
102
{ACAD_REACTORS
330
5EDD
102
}
330
5EDD
100
AcDbDimAssoc
330
5EDC
 90
        3
 70
     0
 71
     1
  1
AcDbOsnapPointRef
 72
    13
331
5A0E
 73
     0
 91
        0
 40
0.0
 10
0.0
 20
0.0
 30
0.0
 75
     0
  1
AcDbOsnapPointRef
 72
     8
331
59F1
 73
     0
 91
        0
 40
0.3450349359813322
 10
0.0
 20
0.0
 30
0.0
 75
     1
  1
AcDbOsnapPointRef
 72
    13
331
5A0E
 73
     0
 91
        0
 40
0.0
 10
0.0
 20
0.0
 30
0.0
 75
     0
  0
GROUP
  5
5C59
102
{ACAD_REACTORS
330
1A
102
}
330
1A
100
AcDbGroup
300

 70
     1
 71
     1
340
5B57
340
5B58
340
5B59
340
5B5A
340
5B5B
340
5B5C
340
5B5D
340
5B5E
340
5B5F
340
5B60
340
5B61
340
5B62
340
5B63
340
5B64
340
5B65
340
5B66
340
5B68
340
5B69
340
5B6A
340
5B6B
340
5B6C
340
5B6D
340
5B6E
340
5B6F
340
5B70
340
5B71
340
5B72
340
5B73
340
5B74
  0
IMAGEDEF
  5
5E44
102
{ACAD_REACTORS
330
5E43
102
}
330
5E43
100
AcDbRasterImageDef
 90
        0
  1
K:/DESKTOP/Untitled.png
 10
1035.0
 20
588.0
 11
0.2646202699126753
 21
0.2646202699126753
280
     1
281
     3
  0
LAYOUT
  5
21
102
{ACAD_REACTORS
330
1E
102
}
330
1E
100
AcDbPlotSettings
  1

  2
none_device
  4
ISO_A3_(420.00_x_297.00_MM)
  6

 40
7.5
 41
20.0
 42
7.5
 43
20.0
 44
420.0
 45
297.0
 46
0.0
 47
0.0
 48
0.0
 49
0.0
140
0.0
141
0.0
142
1.0
143
1.0
 70
     0
 72
     1
 73
     0
 74
     0
  7

 75
     0
 76
     0
 77
     2
 78
   300
147
1.0
148
0.0
149
0.0
100
AcDbLayout
  1
Layout1
 70
     0
 71
     0
 10
0.0
 20
0.0
 11
0.0
 21
0.0
 12
0.0
 22
0.0
 32
0.0
 14
0.0
 24
0.0
 34
0.0
 15
0.0
 25
0.0
 35
0.0
146
0.0
 13
0.0
 23
0.0
 33
0.0
 16
0.0
 26
0.0
 36
0.0
 17
0.0
 27
0.0
 37
0.0
 76
     0
330
B
331
349
  0
LAYOUT
  5
20
102
{ACAD_REACTORS
330
1E
102
}
330
1E
100
AcDbPlotSettings
  1

  2
none_device
  4
ISO_A3_(420.00_x_297.00_MM)
  6

 40
7.5
 41
20.0
 42
7.5
 43
20.0
 44
420.0
 45
297.0
 46
0.0
 47
0.0
 48
0.0
 49
0.0
140
0.0
141
0.0
142
1.0
143
1.0
 70
  1024
 72
     1
 73
     0
 74
     0
  7

 75
     0
 76
     0
 77
     2
 78
   300
147
1.0
148
0.0
149
0.0
100
AcDbLayout
  1
Model
 70
     0
 71
     1
 10
0.0
 20
0.0
 11
2100.0
 21
2970.0
 12
0.0
 22
0.0
 32
0.0
 14
0.0
 24
0.0
 34
0.0
 15
2100.0
 25
2970.0
 35
34.99521132346015
146
0.0
 13
0.0
 23
0.0
 33
0.0
 16
0.0
 26
0.0
 36
0.0
 17
0.0
 27
0.0
 37
0.0
 76
     0
330
A
331
15
  0
MATERIAL
  5
4FEC
102
{ACAD_REACTORS
330
263
102
}
330
263
100
AcDbMaterial
  1
ByBlock
 72
     1
 94
      127
  0
MATERIAL
  5
264
102
{ACAD_REACTORS
330
263
102
}
330
263
100
AcDbMaterial
  1
ByLayer
 72
     1
 94
      127
  0
MATERIAL
  5
266
102
{ACAD_REACTORS
330
263
102
}
330
263
100
AcDbMaterial
  1
Global
 72
     1
 94
      127
  0
MLEADERSTYLE
  5
8D1
102
{ACAD_REACTORS
330
336
102
}
330
336
100
AcDbMLeaderStyle
170
     2
171
     1
172
     0
 90
        2
 40
0.0
 41
0.0
173
     1
 91
-1056964608
340
11
 92
       -2
290
     1
 42
2.0
291
     1
 43
8.0
  3
Standard
341
0
 44
4.0
300

342
17
174
     1
178
     6
175
     1
176
     0
 93
-1056964608
 45
4.0
292
     0
297
     0
 46
4.0
343
0
 94
-1056964608
 47
1.0
 49
1.0
140
1.0
293
     1
141
0.0
294
     1
177
     0
142
1.0
295
     0
296
     0
143
3.75
1001
ACAD_MLEADERVER
1070
     2
  0
MLINESTYLE
  5
1C
102
{ACAD_REACTORS
330
1B
102
}
330
1B
100
AcDbMlineStyle
  2
Standard
 70
     0
  3

 62
     0
 51
90.0
 52
90.0
 71
     2
 49
0.5
 62
   256
  6
BYLAYER
 49
-0.5
 62
   256
  6
BYLAYER
  0
ACDBPLACEHOLDER
  5
1D
102
{ACAD_REACTORS
330
1F
102
}
330
1F
  0
SCALE
  5
242
102
{ACAD_REACTORS
330
241
102
}
330
241
100
AcDbScale
 70
     0
300
1:1
140
1.0
141
1.0
290
     1
  0
SCALE
  5
243
102
{ACAD_REACTORS
330
241
102
}
330
241
100
AcDbScale
 70
     0
300
1:2
140
1.0
141
2.0
290
     0
  0
SCALE
  5
244
102
{ACAD_REACTORS
330
241
102
}
330
241
100
AcDbScale
 70
     0
300
1:4
140
1.0
141
4.0
290
     0
  0
SCALE
  5
245
102
{ACAD_REACTORS
330
241
102
}
330
241
100
AcDbScale
 70
     0
300
1:5
140
1.0
141
5.0
290
     0
  0
SCALE
  5
246
102
{ACAD_REACTORS
330
241
102
}
330
241
100
AcDbScale
 70
     0
300
1:8
140
1.0
141
8.0
290
     0
  0
SCALE
  5
247
102
{ACAD_REACTORS
330
241
102
}
330
241
100
AcDbScale
 70
     0
300
1:10
140
1.0
141
10.0
290
     0
  0
SCALE
  5
248
102
{ACAD_REACTORS
330
241
102
}
330
241
100
AcDbScale
 70
     0
300
1:16
140
1.0
141
16.0
290
     0
  0
SCALE
  5
249
102
{ACAD_REACTORS
330
241
102
}
330
241
100
AcDbScale
 70
     0
300
1:20
140
1.0
141
20.0
290
     0
  0
SCALE
  5
24A
102
{ACAD_REACTORS
330
241
102
}
330
241
100
AcDbScale
 70
     0
300
1:30
140
1.0
141
30.0
290
     0
  0
SCALE
  5
24B
102
{ACAD_REACTORS
330
241
102
}
330
241
100
AcDbScale
 70
     0
300
1:40
140
1.0
141
40.0
290
     0
  0
SCALE
  5
24C
102
{ACAD_REACTORS
330
241
102
}
330
241
100
AcDbScale
 70
     0
300
1:50
140
1.0
141
50.0
290
     0
  0
SCALE
  5
24D
102
{ACAD_REACTORS
330
241
102
}
330
241
100
AcDbScale
 70
     0
300
1:100
140
1.0
141
100.0
290
     0
  0
SCALE
  5
24E
102
{ACAD_REACTORS
330
241
102
}
330
241
100
AcDbScale
 70
     0
300
2:1
140
2.0
141
1.0
290
     0
  0
SCALE
  5
24F
102
{ACAD_REACTORS
330
241
102
}
330
241
100
AcDbScale
 70
     0
300
4:1
140
4.0
141
1.0
290
     0
  0
SCALE
  5
250
102
{ACAD_REACTORS
330
241
102
}
330
241
100
AcDbScale
 70
     0
300
8:1
140
8.0
141
1.0
290
     0
  0
SCALE
  5
251
102
{ACAD_REACTORS
330
241
102
}
330
241
100
AcDbScale
 70
     0
300
10:1
140
10.0
141
1.0
290
     0
  0
SCALE
  5
252
102
{ACAD_REACTORS
330
241
102
}
330
241
100
AcDbScale
 70
     0
300
100:1
140
100.0
141
1.0
290
     0
  0
SCALE
  5
253
102
{ACAD_REACTORS
330
241
102
}
330
241
100
AcDbScale
 70
     0
300
1/128" = 1'-0"
140
0.0078125
141
12.0
290
     0
  0
SCALE
  5
254
102
{ACAD_REACTORS
330
241
102
}
330
241
100
AcDbScale
 70
     0
300
1/64" = 1'-0"
140
0.015625
141
12.0
290
     0
  0
SCALE
  5
255
102
{ACAD_REACTORS
330
241
102
}
330
241
100
AcDbScale
 70
     0
300
1/32" = 1'-0"
140
0.03125
141
12.0
290
     0
  0
SCALE
  5
256
102
{ACAD_REACTORS
330
241
102
}
330
241
100
AcDbScale
 70
     0
300
1/16" = 1'-0"
140
0.0625
141
12.0
290
     0
  0
SCALE
  5
257
102
{ACAD_REACTORS
330
241
102
}
330
241
100
AcDbScale
 70
     0
300
3/32" = 1'-0"
140
0.09375
141
12.0
290
     0
  0
SCALE
  5
258
102
{ACAD_REACTORS
330
241
102
}
330
241
100
AcDbScale
 70
     0
300
1/8" = 1'-0"
140
0.125
141
12.0
290
     0
  0
SCALE
  5
259
102
{ACAD_REACTORS
330
241
102
}
330
241
100
AcDbScale
 70
     0
300
3/16" = 1'-0"
140
0.1875
141
12.0
290
     0
  0
SCALE
  5
25A
102
{ACAD_REACTORS
330
241
102
}
330
241
100
AcDbScale
 70
     0
300
1/4" = 1'-0"
140
0.25
141
12.0
290
     0
  0
SCALE
  5
25B
102
{ACAD_REACTORS
330
241
102
}
330
241
100
AcDbScale
 70
     0
300
3/8" = 1'-0"
140
0.375
141
12.0
290
     0
  0
SCALE
  5
25C
102
{ACAD_REACTORS
330
241
102
}
330
241
100
AcDbScale
 70
     0
300
1/2" = 1'-0"
140
0.5
141
12.0
290
     0
  0
SCALE
  5
25D
102
{ACAD_REACTORS
330
241
102
}
330
241
100
AcDbScale
 70
     0
300
3/4" = 1'-0"
140
0.75
141
12.0
290
     0
  0
SCALE
  5
25E
102
{ACAD_REACTORS
330
241
102
}
330
241
100
AcDbScale
 70
     0
300
1" = 1'-0"
140
1.0
141
12.0
290
     0
  0
SCALE
  5
25F
102
{ACAD_REACTORS
330
241
102
}
330
241
100
AcDbScale
 70
     0
300
1-1/2" = 1'-0"
140
1.5
141
12.0
290
     0
  0
SCALE
  5
260
102
{ACAD_REACTORS
330
241
102
}
330
241
100
AcDbScale
 70
     0
300
3" = 1'-0"
140
3.0
141
12.0
290
     0
  0
SCALE
  5
261
102
{ACAD_REACTORS
330
241
102
}
330
241
100
AcDbScale
 70
     0
300
6" = 1'-0"
140
6.0
141
12.0
290
     0
  0
SCALE
  5
262
102
{ACAD_REACTORS
330
241
102
}
330
241
100
AcDbScale
 70
     0
300
1'-0" = 1'-0"
140
12.0
141
12.0
290
     0
  0
TABLESTYLE
  5
279
102
{ACAD_REACTORS
330
278
102
}
102
{ACAD_XDICTIONARY
360
5F19
102
}
330
278
100
AcDbTableStyle
  3
Standard
 70
     0
 71
     0
 40
0.06
 41
0.06
280
     0
281
     0
  7
Standard
140
4.5
170
     2
 62
     0
 63
   257
283
     0
 90
        4
 91
        0
  1

274
    -2
284
     1
 64
     0
275
    -2
285
     1
 65
     0
276
    -2
286
     1
 66
     0
277
    -2
287
     1
 67
     0
278
    -2
288
     1
 68
     0
279
    -2
289
     1
 69
     0
  7
Standard
140
6.0
170
     5
 62
     0
 63
   257
283
     0
 90
        4
 91
        0
  1

274
    -2
284
     1
 64
     0
275
    -2
285
     1
 65
     0
276
    -2
286
     1
 66
     0
277
    -2
287
     1
 67
     0
278
    -2
288
     1
 68
     0
279
    -2
289
     1
 69
     0
  7
Standard
140
4.5
170
     5
 62
     0
 63
   257
283
     0
 90
        4
 91
        0
  1

274
    -2
284
     1
 64
     0
275
    -2
285
     1
 65
     0
276
    -2
286
     1
 66
     0
277
    -2
287
     1
 67
     0
278
    -2
288
     1
 68
     0
279
    -2
289
     1
 69
     0
  0
VISUALSTYLE
  5
26C
102
{ACAD_REACTORS
330
267
102
}
330
267
100
AcDbVisualStyle
  2
2dWireframe
 70
     4
 71
     0
 72
     2
 73
     0
 90
        0
 40
-0.6
 41
-30.0
 62
     5
 63
     7
421
 16777215
 74
     1
 91
        4
 64
     7
 65
   257
 75
     1
175
     1
 42
1.0
 92
        0
 66
   257
 43
1.0
 76
     1
 77
     6
 78
     2
 67
     7
 79
     5
170
     0
171
     0
290
     0
174
     0
 93
        1
 44
0.0
173
     0
291
     0
 45
0.0
  0
VISUALSTYLE
  5
26E
102
{ACAD_REACTORS
330
267
102
}
330
267
100
AcDbVisualStyle
  2
3D Hidden
 70
     6
 71
     1
 72
     2
 73
     2
 90
        0
 40
-0.6
 41
-30.0
 62
     5
 63
     7
421
 16777215
 74
     2
 91
        2
 64
     7
 65
   257
 75
     2
175
     1
 42
40.0
 92
        0
 66
   257
 43
1.0
 76
     1
 77
     6
 78
     2
 67
     7
 79
     3
170
     0
171
     0
290
     0
174
     0
 93
        1
 44
0.0
173
     0
291
     0
 45
0.0
  0
VISUALSTYLE
  5
26D
102
{ACAD_REACTORS
330
267
102
}
330
267
100
AcDbVisualStyle
  2
3dWireframe
 70
     5
 71
     0
 72
     2
 73
     0
 90
        0
 40
-0.6
 41
-30.0
 62
     5
 63
     7
421
 16777215
 74
     1
 91
        4
 64
     7
 65
   257
 75
     1
175
     1
 42
1.0
 92
        0
 66
   257
 43
1.0
 76
     1
 77
     6
 78
     2
 67
     7
 79
     5
170
     0
171
     0
290
     0
174
     0
 93
        1
 44
0.0
173
     0
291
     0
 45
0.0
  0
VISUALSTYLE
  5
26F
102
{ACAD_REACTORS
330
267
102
}
330
267
100
AcDbVisualStyle
  2
Basic
 70
     7
 71
     1
 72
     0
 73
     1
 90
        0
 40
-0.6
 41
-30.0
 62
     5
 63
     7
421
 16777215
 74
     0
 91
        4
 64
     7
 65
   257
 75
     1
175
     1
 42
1.0
 92
        8
 66
     7
 43
1.0
 76
     1
 77
     6
 78
     2
 67
     7
 79
     5
170
     0
171
     0
290
     0
174
     0
 93
        1
 44
0.0
173
     0
291
     1
 45
0.0
  0
VISUALSTYLE
  5
273
102
{ACAD_REACTORS
330
267
102
}
330
267
100
AcDbVisualStyle
  2
Brighten
 70
    12
 71
     2
 72
     2
 73
     0
 90
        0
 40
-0.6
 41
-30.0
 62
     5
 63
     7
421
 16777215
 74
     1
 91
        4
 64
     7
 65
   257
 75
     1
175
     1
 42
1.0
 92
        8
 66
     7
 43
1.0
 76
     1
 77
     6
 78
     2
 67
     7
 79
     5
170
     0
171
     0
290
     0
174
     0
 93
        1
 44
50.0
173
     0
291
     1
 45
0.0
  0
VISUALSTYLE
  5
277
102
{ACAD_REACTORS
330
267
102
}
330
267
100
AcDbVisualStyle
  2
ColorChange
 70
    16
 71
     2
 72
     2
 73
     3
 90
        0
 40
-0.6
 41
-30.0
 62
     5
 63
     8
421
  8421504
 74
     1
 91
        4
 64
     7
 65
   257
 75
     1
175
     1
 42
1.0
 92
        8
 66
     8
424
  8421504
 43
1.0
 76
     1
 77
     6
 78
     2
 67
     7
 79
     5
170
     0
171
     0
290
     0
174
     0
 93
        1
 44
0.0
173
     0
291
     1
 45
0.0
  0
VISUALSTYLE
  5
271
102
{ACAD_REACTORS
330
267
102
}
330
267
100
AcDbVisualStyle
  2
Conceptual
 70
     9
 71
     3
 72
     2
 73
     0
 90
        0
 40
-0.6
 41
-30.0
 62
     5
 63
     7
421
 16777215
 74
     2
 91
        2
 64
     7
 65
   257
 75
     1
175
     1
 42
40.0
 92
        8
 66
     7
 43
1.0
 76
     1
 77
     6
 78
     2
 67
     7
 79
     3
170
     0
171
     0
290
     0
174
     0
 93
        1
 44
0.0
173
     0
291
     0
 45
0.0
  0
VISUALSTYLE
  5
272
102
{ACAD_REACTORS
330
267
102
}
330
267
100
AcDbVisualStyle
  2
Dim
 70
    11
 71
     2
 72
     2
 73
     0
 90
        0
 40
-0.6
 41
-30.0
 62
     5
 63
     7
421
 16777215
 74
     1
 91
        4
 64
     7
 65
   257
 75
     1
175
     1
 42
1.0
 92
        8
 66
     7
 43
1.0
 76
     1
 77
     6
 78
     2
 67
     7
 79
     5
170
     0
171
     0
290
     0
174
     0
 93
        1
 44
-50.0
173
     0
291
     1
 45
0.0
  0
VISUALSTYLE
  5
8BC
102
{ACAD_REACTORS
330
267
102
}
330
267
100
AcDbVisualStyle
  2
EdgeColorOff
 70
    22
 71
     2
 72
     2
 73
     0
 90
        0
 40
0.6
 41
30.0
 62
     5
 63
     7
421
 16777215
 74
     1
 91
        4
 64
     7
 65
   257
 75
     1
175
     1
 42
1.0
 92
        8
 66
     7
 43
1.0
 76
     1
 77
     6
 78
     2
 67
     7
 79
     5
170
     0
171
     0
290
     0
174
     0
 93
        1
 44
0.0
173
     0
291
     1
 45
0.0
  0
VISUALSTYLE
  5
276
102
{ACAD_REACTORS
330
267
102
}
330
267
100
AcDbVisualStyle
  2
Facepattern
 70
    15
 71
     2
 72
     2
 73
     0
 90
        0
 40
-0.6
 41
-30.0
 62
     5
 63
     7
421
 16777215
 74
     1
 91
        4
 64
     7
 65
   257
 75
     1
175
     1
 42
1.0
 92
        8
 66
     7
 43
1.0
 76
     1
 77
     6
 78
     2
 67
     7
 79
     5
170
     0
171
     0
290
     0
174
     0
 93
        1
 44
0.0
173
     0
291
     1
 45
0.0
  0
VISUALSTYLE
  5
268
102
{ACAD_REACTORS
330
267
102
}
330
267
100
AcDbVisualStyle
  2
Flat
 70
     0
 71
     2
 72
     1
 73
     1
 90
        2
 40
-0.6
 41
30.0
 62
     5
 63
     7
421
 16777215
 74
     0
 91
        4
 64
     7
 65
   257
 75
     1
175
     1
 42
1.0
 92
        8
 66
     7
 43
1.0
 76
     1
 77
     6
 78
     2
 67
     7
 79
     5
170
     0
171
     0
290
     0
174
     0
 93
       13
 44
0.0
173
     0
291
     1
 45
0.0
  0
VISUALSTYLE
  5
269
102
{ACAD_REACTORS
330
267
102
}
330
267
100
AcDbVisualStyle
  2
FlatWithEdges
 70
     1
 71
     2
 72
     1
 73
     1
 90
        2
 40
-0.6
 41
30.0
 62
     5
 63
     7
421
 16777215
 74
     1
 91
        4
 64
     7
 65
   257
 75
     1
175
     1
 42
1.0
 92
        0
 66
   257
 43
1.0
 76
     1
 77
     6
 78
     2
 67
     7
 79
     5
170
     0
171
     0
290
     0
174
     0
 93
       13
 44
0.0
173
     0
291
     1
 45
0.0
  0
VISUALSTYLE
  5
26A
102
{ACAD_REACTORS
330
267
102
}
330
267
100
AcDbVisualStyle
  2
Gouraud
 70
     2
 71
     2
 72
     2
 73
     1
 90
        2
 40
-0.6
 41
30.0
 62
     5
 63
     7
421
 16777215
 74
     0
 91
        4
 64
     7
 65
   257
 75
     1
175
     1
 42
1.0
 92
        0
 66
     7
 43
1.0
 76
     1
 77
     6
 78
     2
 67
     7
 79
     5
170
     0
171
     0
290
     0
174
     0
 93
       13
 44
0.0
173
     0
291
     1
 45
0.0
  0
VISUALSTYLE
  5
26B
102
{ACAD_REACTORS
330
267
102
}
330
267
100
AcDbVisualStyle
  2
GouraudWithEdges
 70
     3
 71
     2
 72
     2
 73
     1
 90
        2
 40
-0.6
 41
30.0
 62
     5
 63
     7
421
 16777215
 74
     1
 91
        4
 64
     7
 65
   257
 75
     1
175
     1
 42
1.0
 92
        0
 66
   257
 43
1.0
 76
     1
 77
     6
 78
     2
 67
     7
 79
     5
170
     0
171
     0
290
     0
174
     0
 93
       13
 44
0.0
173
     0
291
     1
 45
0.0
  0
VISUALSTYLE
  5
8B9
102
{ACAD_REACTORS
330
267
102
}
330
267
100
AcDbVisualStyle
  2
Hidden
 70
     6
 71
     1
 72
     2
 73
     2
 90
        0
 40
0.6
 41
30.0
 62
     5
 63
     7
421
 16777215
 74
     2
 91
        2
 64
     7
 65
   257
 75
     2
175
     1
 42
40.0
 92
        0
 66
   257
 43
1.0
 76
     1
 77
     6
 78
     2
 67
     7
 79
     3
170
     0
171
     0
290
     0
174
     0
 93
        1
 44
0.0
173
     0
291
     0
 45
0.0
  0
VISUALSTYLE
  5
8BA
102
{ACAD_REACTORS
330
267
102
}
330
267
100
AcDbVisualStyle
  2
JitterOff
 70
    20
 71
     2
 72
     2
 73
     0
 90
        0
 40
0.6
 41
30.0
 62
     5
 63
     7
421
 16777215
 74
     1
 91
        4
 64
     7
 65
   257
 75
     1
175
     1
 42
1.0
 92
       10
 66
     7
 43
1.0
 76
     1
 77
     6
 78
     2
 67
     7
 79
     5
170
     0
171
     0
290
     0
174
     0
 93
        1
 44
0.0
173
     0
291
     1
 45
0.0
  0
VISUALSTYLE
  5
275
102
{ACAD_REACTORS
330
267
102
}
330
267
100
AcDbVisualStyle
  2
Linepattern
 70
    14
 71
     2
 72
     2
 73
     0
 90
        0
 40
-0.6
 41
-30.0
 62
     5
 63
     7
421
 16777215
 74
     1
 91
        4
 64
     7
 65
   257
 75
     7
175
     7
 42
1.0
 92
        8
 66
     7
 43
1.0
 76
     1
 77
     6
 78
     2
 67
     7
 79
     5
170
     0
171
     0
290
     0
174
     0
 93
        1
 44
0.0
173
     0
291
     1
 45
0.0
  0
VISUALSTYLE
  5
8BB
102
{ACAD_REACTORS
330
267
102
}
330
267
100
AcDbVisualStyle
  2
OverhangOff
 70
    21
 71
     2
 72
     2
 73
     0
 90
        0
 40
0.6
 41
30.0
 62
     5
 63
     7
421
 16777215
 74
     1
 91
        4
 64
     7
 65
   257
 75
     1
175
     1
 42
1.0
 92
        9
 66
     7
 43
1.0
 76
     1
 77
     6
 78
     2
 67
     7
 79
     5
170
     0
171
     0
290
     0
174
     0
 93
        1
 44
0.0
173
     0
291
     1
 45
0.0
  0
VISUALSTYLE
  5
270
102
{ACAD_REACTORS
330
267
102
}
330
267
100
AcDbVisualStyle
  2
Realistic
 70
     8
 71
     2
 72
     2
 73
     0
 90
        0
 40
-0.6
 41
-30.0
 62
     5
 63
     7
421
 16777215
 74
     1
 91
        0
 64
     7
 65
   257
 75
     1
175
     1
 42
1.0
 92
        8
 66
     8
424
  7895160
 43
1.0
 76
     1
 77
     6
 78
     2
 67
     7
 79
     5
170
     0
171
     0
290
     0
174
     0
 93
       13
 44
0.0
173
     0
291
     0
 45
0.0
  0
VISUALSTYLE
  5
8C1
102
{ACAD_REACTORS
330
267
102
}
330
267
100
AcDbVisualStyle
  2
Shaded
 70
    27
 71
     2
 72
     2
 73
     1
 90
        2
 40
0.6
 41
30.0
 62
     5
 63
     7
421
 16777215
 74
     0
 91
        4
 64
     7
 65
   257
 75
     1
175
     1
 42
1.0
 92
        8
 66
   257
 43
1.0
 76
     1
 77
     6
 78
     2
 67
     8
425
  7895160
 79
     3
170
     0
171
     0
290
     0
174
     0
 93
        5
 44
0.0
173
     0
291
     0
 45
0.0
  0
VISUALSTYLE
  5
8C0
102
{ACAD_REACTORS
330
267
102
}
330
267
100
AcDbVisualStyle
  2
Shaded with edges
 70
    26
 71
     2
 72
     2
 73
     1
 90
        2
 40
0.6
 41
30.0
 62
     5
 63
     7
421
 16777215
 74
     1
 91
       10
 64
     7
 65
   257
 75
     2
175
     1
 42
1.0
 92
        8
 66
   257
 43
1.0
 76
     1
 77
     6
 78
     2
 67
     7
 79
     3
170
     0
171
     0
290
     0
174
     0
 93
        5
 44
0.0
173
     0
291
     0
 45
0.0
  0
VISUALSTYLE
  5
8BD
102
{ACAD_REACTORS
330
267
102
}
330
267
100
AcDbVisualStyle
  2
Shades of Gray
 70
    23
 71
     2
 72
     2
 73
     3
 90
        0
 40
0.6
 41
30.0
 62
     5
 63
     7
421
 16777215
 74
     2
 91
        2
 64
     7
 65
     7
 75
     1
175
     1
 42
40.0
 92
        8
 66
     7
 43
1.0
 76
     1
 77
     6
 78
     2
 67
     7
 79
     3
170
     0
171
     0
290
     0
174
     0
 93
        1
 44
0.0
173
     0
291
     0
 45
0.0
  0
VISUALSTYLE
  5
8BE
102
{ACAD_REACTORS
330
267
102
}
330
267
100
AcDbVisualStyle
  2
Sketchy
 70
    24
 71
     1
 72
     2
 73
     2
 90
        0
 40
0.6
 41
30.0
 62
     5
 63
     7
421
 16777215
 74
     2
 91
        2
 64
     7
 65
     7
 75
     1
175
     1
 42
40.0
 92
       11
 66
     7
 43
1.0
 76
     1
 77
     6
 78
     2
 67
     7
 79
     6
170
     0
171
     0
290
     0
174
     0
 93
        1
 44
0.0
173
     0
291
     0
 45
0.0
  0
VISUALSTYLE
  5
274
102
{ACAD_REACTORS
330
267
102
}
330
267
100
AcDbVisualStyle
  2
Thicken
 70
    13
 71
     2
 72
     2
 73
     0
 90
        0
 40
-0.6
 41
-30.0
 62
     5
 63
     7
421
 16777215
 74
     1
 91
        4
 64
     7
 65
   257
 75
     1
175
     1
 42
1.0
 92
       12
 66
     7
 43
1.0
 76
     1
 77
     6
 78
     2
 67
     7
 79
     5
170
     0
171
     0
290
     0
174
     0
 93
        1
 44
0.0
173
     0
291
     1
 45
0.0
  0
VISUALSTYLE
  5
8B8
102
{ACAD_REACTORS
330
267
102
}
330
267
100
AcDbVisualStyle
  2
Wireframe
 70
     5
 71
     0
 72
     2
 73
     0
 90
        0
 40
0.6
 41
30.0
 62
     5
 63
     7
421
 16777215
 74
     1
 91
        4
 64
     7
 65
   257
 75
     1
175
     1
 42
1.0
 92
        0
 66
   257
 43
1.0
 76
     1
 77
     6
 78
     2
 67
     7
 79
     3
170
     0
171
     0
290
     0
174
     0
 93
        1
 44
0.0
173
     0
291
     0
 45
0.0
  0
VISUALSTYLE
  5
8BF
102
{ACAD_REACTORS
330
267
102
}
330
267
100
AcDbVisualStyle
  2
X-Ray
 70
    25
 71
     2
 72
     2
 73
     1
 90
        1
 40
0.5
 41
30.0
 62
     5
 63
     7
421
 16777215
 74
     1
 91
        0
 64
     7
 65
   257
 75
     1
175
     1
 42
1.0
 92
        8
 66
     7
 43
1.0
 76
     1
 77
     6
 78
     2
 67
     7
 79
     3
170
     0
171
     0
290
     0
174
     0
 93
       13
 44
0.0
173
     0
291
     0
 45
0.0
  0
DICTIONARYVAR
  5
331
102
{ACAD_REACTORS
330
330
102
}
330
330
100
DictionaryVariables
280
     0
  1
1:1
  0
DICTIONARYVAR
  5
8DA
102
{ACAD_REACTORS
330
330
102
}
330
330
100
DictionaryVariables
280
     0
  1
Standard
  0
DICTIONARYVAR
  5
335
102
{ACAD_REACTORS
330
330
102
}
330
330
100
DictionaryVariables
280
     0
  1
Standard
  0
DICTIONARYVAR
  5
C07
102
{ACAD_REACTORS
330
330
102
}
330
330
100
DictionaryVariables
280
     0
  1
ByLayer
  0
DICTIONARYVAR
  5
64A
102
{ACAD_REACTORS
330
330
102
}
330
330
100
DictionaryVariables
280
     0
  1
0
  0
DICTIONARYVAR
  5
4342
102
{ACAD_REACTORS
330
C08
102
}
330
C08
100
DictionaryVariables
280
     0
  1
0.261799
  0
DICTIONARYVAR
  5
4340
102
{ACAD_REACTORS
330
C08
102
}
330
C08
100
DictionaryVariables
280
     0
  1
0.400000
  0
DICTIONARYVAR
  5
4341
102
{ACAD_REACTORS
330
C08
102
}
330
C08
100
DictionaryVariables
280
     0
  1
0.250000
  0
DICTIONARYVAR
  5
4343
102
{ACAD_REACTORS
330
C08
102
}
330
C08
100
DictionaryVariables
280
     0
  1
1
  0
FIELD
  5
BDE
102
{ACAD_REACTORS
330
5F08
330
5F0F
102
}
330
5F0F
100
AcDbField
  1
_text
  2
{%<\_FldIdx 0>%N}
 90
        1
360
BDF
 97
        0
 91
       63
 92
        0
 94
       11
 95
        2
 96
        0
300

 93
        1
  6
ACFD_FIELDTEXT_CHECKSUM
 93
        2
 90
        2
140
4525.0
 94
        0
300

302

304
ACVALUE_END
  7
ACFD_FIELD_VALUE
 93
        6
 90
        4
  1
{20190406N}
 94
        0
300

302

304
ACVALUE_END
301
{20190406N}
 98
       11
  0
DICTIONARY
  5
5F19
330
279
100
AcDbDictionary
280
     1
281
     1
  3
ACAD_ROUNDTRIP_2008_TABLESTYLE_CELLSTYLEMAP
360
5F1A
  0
FIELD
  5
BDF
330
BDE
100
AcDbField
  1
AcVar
  2
\AcVar Date \f "yyyyMMdd"
 90
        0
 97
        0
 91
       63
 92
        0
 94
        8
 95
       64
 96
        0
300
Variable not supported
 93
        1
  6
Variable
 93
        2
 90
        4
  1
Date
 94
        0
300

302

304
ACVALUE_END
  7
ACFD_FIELD_VALUE
 93
        6
 90
        8
 92
       16
310
E3070400000005001100150013000000
 94
        0
300
yyyyMMdd
302

304
ACVALUE_END
301
20190406
 98
        8
  0
CELLSTYLEMAP
  5
5F1A
102
{ACAD_REACTORS
330
5F19
102
}
330
5F19
100
AcDbCellStyleMap
 90
        3
300
CELLSTYLE
  1
TABLEFORMAT_BEGIN
 90
        5
170
     1
 91
        0
 92
    32768
 62
   257
 93
        1
300
CONTENTFORMAT
  1
CONTENTFORMAT_BEGIN
 90
        0
 91
        0
 92
        4
 93
        0
300

 40
0.0
140
1.0
 94
        5
 62
     0
340
17
144
6.0
309
CONTENTFORMAT_END
171
     1
301
MARGIN
  1
CELLMARGIN_BEGIN
 40
0.06
 40
0.06
 40
0.06
 40
0.06
 40
0.18
 40
0.18
309
CELLMARGIN_END
 94
        6
 95
        1
302
GRIDFORMAT
  1
GRIDFORMAT_BEGIN
 90
        0
 91
        1
 62
     0
 92
       -2
340
0
 93
        0
 40
0.045
309
GRIDFORMAT_END
 95
        2
302
GRIDFORMAT
  1
GRIDFORMAT_BEGIN
 90
        0
 91
        1
 62
     0
 92
       -2
340
0
 93
        0
 40
0.045
309
GRIDFORMAT_END
 95
        4
302
GRIDFORMAT
  1
GRIDFORMAT_BEGIN
 90
        0
 91
        1
 62
     0
 92
       -2
340
0
 93
        0
 40
0.045
309
GRIDFORMAT_END
 95
        8
302
GRIDFORMAT
  1
GRIDFORMAT_BEGIN
 90
        0
 91
        1
 62
     0
 92
       -2
340
0
 93
        0
 40
0.045
309
GRIDFORMAT_END
 95
       16
302
GRIDFORMAT
  1
GRIDFORMAT_BEGIN
 90
        0
 91
        1
 62
     0
 92
       -2
340
0
 93
        0
 40
0.045
309
GRIDFORMAT_END
 95
       32
302
GRIDFORMAT
  1
GRIDFORMAT_BEGIN
 90
        0
 91
        1
 62
     0
 92
       -2
340
0
 93
        0
 40
0.045
309
GRIDFORMAT_END
309
TABLEFORMAT_END
  1
CELLSTYLE_BEGIN
 90
        1
 91
        1
300
_TITLE
309
CELLSTYLE_END
300
CELLSTYLE
  1
TABLEFORMAT_BEGIN
 90
        5
170
     1
 91
        0
 92
        0
 62
   257
 93
        1
300
CONTENTFORMAT
  1
CONTENTFORMAT_BEGIN
 90
        0
 91
        0
 92
        4
 93
        0
300

 40
0.0
140
1.0
 94
        5
 62
     0
340
17
144
4.5
309
CONTENTFORMAT_END
171
     1
301
MARGIN
  1
CELLMARGIN_BEGIN
 40
0.06
 40
0.06
 40
0.06
 40
0.06
 40
0.18
 40
0.18
309
CELLMARGIN_END
 94
        6
 95
        1
302
GRIDFORMAT
  1
GRIDFORMAT_BEGIN
 90
        0
 91
        1
 62
     0
 92
       -2
340
0
 93
        0
 40
0.045
309
GRIDFORMAT_END
 95
        2
302
GRIDFORMAT
  1
GRIDFORMAT_BEGIN
 90
        0
 91
        1
 62
     0
 92
       -2
340
0
 93
        0
 40
0.045
309
GRIDFORMAT_END
 95
        4
302
GRIDFORMAT
  1
GRIDFORMAT_BEGIN
 90
        0
 91
        1
 62
     0
 92
       -2
340
0
 93
        0
 40
0.045
309
GRIDFORMAT_END
 95
        8
302
GRIDFORMAT
  1
GRIDFORMAT_BEGIN
 90
        0
 91
        1
 62
     0
 92
       -2
340
0
 93
        0
 40
0.045
309
GRIDFORMAT_END
 95
       16
302
GRIDFORMAT
  1
GRIDFORMAT_BEGIN
 90
        0
 91
        1
 62
     0
 92
       -2
340
0
 93
        0
 40
0.045
309
GRIDFORMAT_END
 95
       32
302
GRIDFORMAT
  1
GRIDFORMAT_BEGIN
 90
        0
 91
        1
 62
     0
 92
       -2
340
0
 93
        0
 40
0.045
309
GRIDFORMAT_END
309
TABLEFORMAT_END
  1
CELLSTYLE_BEGIN
 90
        2
 91
        1
300
_HEADER
309
CELLSTYLE_END
300
CELLSTYLE
  1
TABLEFORMAT_BEGIN
 90
        5
170
     1
 91
        0
 92
        0
 62
   257
 93
        1
300
CONTENTFORMAT
  1
CONTENTFORMAT_BEGIN
 90
        0
 91
        0
 92
        4
 93
        0
300

 40
0.0
140
1.0
 94
        2
 62
     0
340
17
144
4.5
309
CONTENTFORMAT_END
171
     1
301
MARGIN
  1
CELLMARGIN_BEGIN
 40
0.06
 40
0.06
 40
0.06
 40
0.06
 40
0.18
 40
0.18
309
CELLMARGIN_END
 94
        6
 95
        1
302
GRIDFORMAT
  1
GRIDFORMAT_BEGIN
 90
        0
 91
        1
 62
     0
 92
       -2
340
0
 93
        0
 40
0.045
309
GRIDFORMAT_END
 95
        2
302
GRIDFORMAT
  1
GRIDFORMAT_BEGIN
 90
        0
 91
        1
 62
     0
 92
       -2
340
0
 93
        0
 40
0.045
309
GRIDFORMAT_END
 95
        4
302
GRIDFORMAT
  1
GRIDFORMAT_BEGIN
 90
        0
 91
        1
 62
     0
 92
       -2
340
0
 93
        0
 40
0.045
309
GRIDFORMAT_END
 95
        8
302
GRIDFORMAT
  1
GRIDFORMAT_BEGIN
 90
        0
 91
        1
 62
     0
 92
       -2
340
0
 93
        0
 40
0.045
309
GRIDFORMAT_END
 95
       16
302
GRIDFORMAT
  1
GRIDFORMAT_BEGIN
 90
        0
 91
        1
 62
     0
 92
       -2
340
0
 93
        0
 40
0.045
309
GRIDFORMAT_END
 95
       32
302
GRIDFORMAT
  1
GRIDFORMAT_BEGIN
 90
        0
 91
        1
 62
     0
 92
       -2
340
0
 93
        0
 40
0.045
309
GRIDFORMAT_END
309
TABLEFORMAT_END
  1
CELLSTYLE_BEGIN
 90
        3
 91
        2
300
_DATA
309
CELLSTYLE_END
  0
ENDSEC
  0
EOF
