  0
SECTION
  2
HEADER
  9
$ACADVER
  1
AC1021
  9
$ACADMAINTVER
 70
    25
  9
$DWGCODEPAGE
  3
ANSI_932
  9
$LASTSAVEDBY
  1
howeNelson
  9
$INSBASE
 10
0.0
 20
0.0
 30
0.0
  9
$EXTMIN
 10
0.0
 20
0.0
 30
0.0
  9
$EXTMAX
 10
2100.0
 20
2970.0
 30
69.9904226469203
  9
$LIMMIN
 10
0.0
 20
0.0
  9
$LIMMAX
 10
2100.0
 20
2970.0
  9
$ORTHOMODE
 70
     0
  9
$REGENMODE
 70
     1
  9
$FILLMODE
 70
     1
  9
$QTEXTMODE
 70
     0
  9
$MIRRTEXT
 70
     1
  9
$LTSCALE
 40
5.0
  9
$ATTMODE
 70
     1
  9
$TEXTSIZE
 40
533.0403732820173
  9
$TRACEWID
 40
1.0
  9
$TEXTSTYLE
  7
Standard
  9
$CLAYER
  8
MODEL
  9
$CELTYPE
  6
ByLayer
  9
$CECOLOR
 62
   256
  9
$CELTSCALE
 40
1.0
  9
$DISPSILH
 70
     0
  9
$DIMSCALE
 40
1.0
  9
$DIMASZ
 40
9.999389648437498
  9
$DIMEXO
 40
25.0
  9
$DIMDLI
 40
0.9999999999999999
  9
$DIMRND
 40
0.0
  9
$DIMDLE
 40
0.0
  9
$DIMEXE
 40
0.0
  9
$DIMTP
 40
0.0
  9
$DIMTM
 40
0.0
  9
$DIMTXT
 40
24.4326171875
  9
$DIMCEN
 40
0.0
  9
$DIMTSZ
 40
0.0
  9
$DIMTOL
 70
     0
  9
$DIMLIM
 70
     0
  9
$DIMTIH
 70
     0
  9
$DIMTOH
 70
     0
  9
$DIMSE1
 70
     0
  9
$DIMSE2
 70
     0
  9
$DIMTAD
 70
     1
  9
$DIMZIN
 70
    11
  9
$DIMBLK
  1
DOT
  9
$DIMASO
 70
     1
  9
$DIMSHO
 70
     1
  9
$DIMPOST
  1
<>
  9
$DIMAPOST
  1
[]
  9
$DIMALT
 70
     0
  9
$DIMALTD
 70
     1
  9
$DIMALTF
 40
1.0
  9
$DIMLFAC
 40
1.0
  9
$DIMTOFL
 70
     1
  9
$DIMTVP
 40
0.0
  9
$DIMTIX
 70
     1
  9
$DIMSOXD
 70
     0
  9
$DIMSAH
 70
     0
  9
$DIMBLK1
  1

  9
$DIMBLK2
  1

  9
$DIMSTYLE
  2
tform線あり
  9
$DIMCLRD
 70
     0
  9
$DIMCLRE
 70
     0
  9
$DIMCLRT
 70
     0
  9
$DIMTFAC
 40
0.8
  9
$DIMGAP
 40
10.0
  9
$DIMJUST
 70
     0
  9
$DIMSD1
 70
     0
  9
$DIMSD2
 70
     0
  9
$DIMTOLJ
 70
     1
  9
$DIMTZIN
 70
    11
  9
$DIMALTZ
 70
    11
  9
$DIMALTTZ
 70
    11
  9
$DIMUPT
 70
     0
  9
$DIMDEC
 70
     1
  9
$DIMTDEC
 70
     1
  9
$DIMALTU
 70
     2
  9
$DIMALTTD
 70
     2
  9
$DIMTXSTY
  7
ＭＳ ゴシック
  9
$DIMAUNIT
 70
     0
  9
$DIMADEC
 70
     2
  9
$DIMALTRND
 40
0.0
  9
$DIMAZIN
 70
     0
  9
$DIMDSEP
 70
    46
  9
$DIMATFIT
 70
     0
  9
$DIMFRAC
 70
     2
  9
$DIMLDRBLK
  1
DOT
  9
$DIMLUNIT
 70
     2
  9
$DIMLWD
 70
    -2
  9
$DIMLWE
 70
    -2
  9
$DIMTMOVE
 70
     0
  9
$DIMFXL
 40
1.0
  9
$DIMFXLON
 70
     0
  9
$DIMJOGANG
 40
0.7853981633974483
  9
$DIMTFILL
 70
     0
  9
$DIMTFILLCLR
 70
     0
  9
$DIMARCSYM
 70
     0
  9
$DIMLTYPE
  6

  9
$DIMLTEX1
  6

  9
$DIMLTEX2
  6

  9
$LUNITS
 70
     2
  9
$LUPREC
 70
     0
  9
$SKETCHINC
 40
0.1
  9
$FILLETRAD
 40
0.0
  9
$AUNITS
 70
     0
  9
$AUPREC
 70
     0
  9
$MENU
  1
acad
  9
$ELEVATION
 40
0.0
  9
$PELEVATION
 40
0.0
  9
$THICKNESS
 40
0.0
  9
$LIMCHECK
 70
     0
  9
$CHAMFERA
 40
0.0
  9
$CHAMFERB
 40
0.0
  9
$CHAMFERC
 40
0.0
  9
$CHAMFERD
 40
0.0
  9
$SKPOLY
 70
     0
  9
$TDCREATE
 40
2447893.375
  9
$TDUCREATE
 40
0.0
  9
$TDUPDATE
 40
2458579.762492558
  9
$TDUUPDATE
 40
2458579.387492558
  9
$TDINDWG
 40
0.0820898495
  9
$TDUSRTIMER
 40
0.0002635417
  9
$USRTIMER
 70
     1
  9
$ANGBASE
 50
0.0
  9
$ANGDIR
 70
     0
  9
$PDMODE
 70
     1
  9
$PDSIZE
 40
-2.0
  9
$PLINEWID
 40
0.0
  9
$SPLFRAME
 70
     0
  9
$SPLINETYPE
 70
     6
  9
$SPLINESEGS
 70
     8
  9
$HANDSEED
  5
6190
  9
$SURFTAB1
 70
     6
  9
$SURFTAB2
 70
     6
  9
$SURFTYPE
 70
     6
  9
$SURFU
 70
     6
  9
$SURFV
 70
     6
  9
$UCSBASE
  2

  9
$UCSNAME
  2

  9
$UCSORG
 10
0.0
 20
0.0
 30
0.0
  9
$UCSXDIR
 10
1.0
 20
0.0
 30
0.0
  9
$UCSYDIR
 10
0.0
 20
1.0
 30
0.0
  9
$UCSORTHOREF
  2

  9
$UCSORTHOVIEW
 70
     0
  9
$UCSORGTOP
 10
0.0
 20
0.0
 30
0.0
  9
$UCSORGBOTTOM
 10
0.0
 20
0.0
 30
0.0
  9
$UCSORGLEFT
 10
0.0
 20
0.0
 30
0.0
  9
$UCSORGRIGHT
 10
0.0
 20
0.0
 30
0.0
  9
$UCSORGFRONT
 10
0.0
 20
0.0
 30
0.0
  9
$UCSORGBACK
 10
0.0
 20
0.0
 30
0.0
  9
$PUCSBASE
  2

  9
$PUCSNAME
  2

  9
$PUCSORG
 10
0.0
 20
0.0
 30
0.0
  9
$PUCSXDIR
 10
1.0
 20
0.0
 30
0.0
  9
$PUCSYDIR
 10
0.0
 20
1.0
 30
0.0
  9
$PUCSORTHOREF
  2

  9
$PUCSORTHOVIEW
 70
     0
  9
$PUCSORGTOP
 10
0.0
 20
0.0
 30
0.0
  9
$PUCSORGBOTTOM
 10
0.0
 20
0.0
 30
0.0
  9
$PUCSORGLEFT
 10
0.0
 20
0.0
 30
0.0
  9
$PUCSORGRIGHT
 10
0.0
 20
0.0
 30
0.0
  9
$PUCSORGFRONT
 10
0.0
 20
0.0
 30
0.0
  9
$PUCSORGBACK
 10
0.0
 20
0.0
 30
0.0
  9
$USERI1
 70
     0
  9
$USERI2
 70
     0
  9
$USERI3
 70
     0
  9
$USERI4
 70
     0
  9
$USERI5
 70
     0
  9
$USERR1
 40
0.0
  9
$USERR2
 40
0.0
  9
$USERR3
 40
0.0
  9
$USERR4
 40
0.0
  9
$USERR5
 40
0.0
  9
$WORLDVIEW
 70
     1
  9
$SHADEDGE
 70
     3
  9
$SHADEDIF
 70
    70
  9
$TILEMODE
 70
     1
  9
$MAXACTVP
 70
    64
  9
$PINSBASE
 10
0.0
 20
0.0
 30
0.0
  9
$PLIMCHECK
 70
     0
  9
$PEXTMIN
 10
0.0
 20
0.0
 30
0.0
  9
$PEXTMAX
 10
0.0
 20
0.0
 30
0.0
  9
$PLIMMIN
 10
-7.5
 20
-20.0
  9
$PLIMMAX
 10
412.5
 20
277.0
  9
$UNITMODE
 70
     0
  9
$VISRETAIN
 70
     0
  9
$PLINEGEN
 70
     1
  9
$PSLTSCALE
 70
     0
  9
$TREEDEPTH
 70
  3020
  9
$CMLSTYLE
  2
Standard
  9
$CMLJUST
 70
     0
  9
$CMLSCALE
 40
1.0
  9
$PROXYGRAPHICS
 70
     0
  9
$MEASUREMENT
 70
     1
  9
$CELWEIGHT
370
    -1
  9
$ENDCAPS
280
     0
  9
$JOINSTYLE
280
     0
  9
$LWDISPLAY
290
     1
  9
$INSUNITS
 70
     4
  9
$HYPERLINKBASE
  1

  9
$STYLESHEET
  1

  9
$XEDIT
290
     1
  9
$CEPSNTYPE
380
     0
  9
$PSTYLEMODE
290
     1
  9
$FINGERPRINTGUID
  2

  9
$VERSIONGUID
  2

  9
$EXTNAMES
290
     1
  9
$PSVPSCALE
 40
0.0
  9
$OLESTARTUP
290
     0
  9
$SORTENTS
280
   127
  9
$INDEXCTL
280
     0
  9
$HIDETEXT
280
     1
  9
$XCLIPFRAME
290
     0
  9
$HALOGAP
280
     0
  9
$OBSCOLOR
 70
   257
  9
$OBSLTYPE
280
     0
  9
$INTERSECTIONDISPLAY
280
     0
  9
$INTERSECTIONCOLOR
 70
   257
  9
$DIMASSOC
280
     2
  9
$PROJECTNAME
  1

  9
$CAMERADISPLAY
290
     0
  9
$LENSLENGTH
 40
50.0
  9
$CAMERAHEIGHT
 40
0.0
  9
$STEPSPERSEC
 40
2.0
  9
$STEPSIZE
 40
6.0
  9
$3DDWFPREC
 40
2.0
  9
$PSOLWIDTH
 40
0.25
  9
$PSOLHEIGHT
 40
4.0
  9
$LOFTANG1
 40
1.570796326794897
  9
$LOFTANG2
 40
1.570796326794897
  9
$LOFTMAG1
 40
0.0
  9
$LOFTMAG2
 40
0.0
  9
$LOFTPARAM
 70
     7
  9
$LOFTNORMALS
280
     1
  9
$LATITUDE
 40
37.795
  9
$LONGITUDE
 40
-122.394
  9
$NORTHDIRECTION
 40
0.0
  9
$TIMEZONE
 70
 -8000
  9
$LIGHTGLYPHDISPLAY
280
     1
  9
$TILEMODELIGHTSYNCH
280
     1
  9
$SOLIDHIST
280
     1
  9
$SHOWHIST
280
     1
  9
$DWFFRAME
280
     2
  9
$DGNFRAME
280
     2
  9
$REALWORLDSCALE
290
     1
  9
$INTERFERECOLOR
 62
   256
  9
$CSHADOW
280
     0
  9
$SHADOWPLANELOCATION
 40
0.0
  0
ENDSEC
  0
SECTION
  2
CLASSES
  0
CLASS
  1
LWPOLYLINE
  2
AcDbPolyline
  3
ObjectDBX Classes
 90
        0
 91
        1
280
     0
281
     1
  0
CLASS
  1
IMAGE
  2
AcDbRasterImage
  3
ISM
 90
      127
 91
       17
280
     0
281
     1
  0
CLASS
  1
OLE2FRAME
  2
AcDbOle2Frame
  3
ObjectDBX Classes
 90
        0
 91
        1
280
     0
281
     1
  0
CLASS
  1
HATCH
  2
AcDbHatch
  3
ObjectDBX Classes
 90
        0
 91
        1
280
     0
281
     1
  0
CLASS
  1
DICTIONARYVAR
  2
AcDbDictionaryVar
  3
ObjectDBX Classes
 90
        0
 91
       16
280
     0
281
     0
  0
CLASS
  1
RASTERVARIABLES
  2
AcDbRasterVariables
  3
ISM
 90
        0
 91
       16
280
     0
281
     0
  0
CLASS
  1
IMAGEDEF
  2
AcDbRasterImageDef
  3
ISM
 90
        0
 91
       16
280
     0
281
     0
  0
CLASS
  1
IMAGEDEF_REACTOR
  2
AcDbRasterImageDefReactor
  3
ISM
 90
        1
 91
       16
280
     0
281
     0
  0
CLASS
  1
IDBUFFER
  2
AcDbIdBuffer
  3
ObjectDBX Classes
 90
        0
 91
       16
280
     0
281
     0
  0
CLASS
  1
SPATIAL_FILTER
  2
AcDbSpatialFilter
  3
ObjectDBX Classes
 90
        0
 91
       16
280
     0
281
     0
  0
CLASS
  1
XRECORD
  2
AcDbXrecord
  3
ObjectDBX Classes
 90
        0
 91
        1
280
     0
281
     0
  0
CLASS
  1
SORTENTSTABLE
  2
AcDbSortentsTable
  3
ObjectDBX Classes
 90
        0
 91
       16
280
     0
281
     0
  0
CLASS
  1
LAYER_INDEX
  2
AcDbLayerIndex
  3
ObjectDBX Classes
 90
        0
 91
       16
280
     0
281
     0
  0
CLASS
  1
SPATIAL_INDEX
  2
AcDbSpatialIndex
  3
AutoCAD 2000
 90
        0
 91
       16
280
     0
281
     0
  0
CLASS
  1
OBJECT_PTR
  2
CAseDLPNTableRecord
  3
ASE-LPNTableRecord
 90
        1
 91
       16
280
     0
281
     0
  0
CLASS
  1
LAYOUT
  2
AcDbLayout
  3
ObjectDBX Classes
 90
        0
 91
        1
280
     0
281
     0
  0
CLASS
  1
PLOTSETTINGS
  2
AcDbPlotSettings
  3
ObjectDBX Classes
 90
        0
 91
       16
280
     0
281
     0
  0
CLASS
  1
ACDBDICTIONARYWDFLT
  2
AcDbDictionaryWithDefault
  3
ObjectDBX Classes
 90
        0
 91
       16
280
     0
281
     0
  0
CLASS
  1
ACDBPLACEHOLDER
  2
AcDbPlaceHolder
  3
ObjectDBX Classes
 90
        0
 91
        1
280
     0
281
     0
  0
CLASS
  1
SCALE
  2
AcDbScale
  3
ObjectDBX Classes
 90
     1153
 91
       16
280
     0
281
     0
  0
CLASS
  1
MATERIAL
  2
AcDbMaterial
  3
ObjectDBX Classes
 90
     1153
 91
       16
280
     0
281
     0
  0
CLASS
  1
VISUALSTYLE
  2
AcDbVisualStyle
  3
ObjectDBX Classes
 90
     4095
 91
       16
280
     0
281
     0
  0
CLASS
  1
TABLESTYLE
  2
AcDbTableStyle
  3
ObjectDBX Classes
 90
     4095
 91
       16
280
     0
281
     0
  0
CLASS
  1
DIMASSOC
  2
AcDbDimAssoc
  3
"AcDbDimAssoc|Product Desc:     AcDim ARX App For Dimension|Company:          Autodesk, Inc.|WEB Address:      www.autodesk.com"
 90
        0
 91
       16
280
     0
281
     0
  0
CLASS
  1
CELLSTYLEMAP
  2
AcDbCellStyleMap
  3
ObjectDBX Classes
 90
     1152
 91
       16
280
     0
281
     0
  0
CLASS
  1
SUN
  2
AcDbSun
  3
SCENEOE
 90
     1153
 91
       16
280
     0
281
     0
  0
CLASS
  1
MLEADERSTYLE
  2
AcDbMLeaderStyle
  3
ACDB_MLEADERSTYLE_CLASS
 90
     4095
 91
       16
280
     0
281
     0
  0
CLASS
  1
FIELD
  2
AcDbField
  3
ObjectDBX Classes
 90
     1152
 91
       16
280
     0
281
     0
  0
CLASS
  1
FIELDLIST
  2
AcDbFieldList
  3
ObjectDBX Classes
 90
     1152
 91
       16
280
     0
281
     0
  0
CLASS
  1
ACDB_ALDIMOBJECTCONTEXTDATA_CLASS
  2
AcDbAlignedDimensionObjectContextData
  3
ObjectDBX Classes
 90
     1153
 91
       16
280
     0
281
     0
  0
ENDSEC
  0
SECTION
  2
TABLES
  0
TABLE
  2
VPORT
  5
7
330
0
100
AcDbSymbolTable
 70
     1
  0
VPORT
  5
15
330
7
100
AcDbSymbolTableRecord
100
AcDbViewportTableRecord
  2
*ACTIVE
 70
     0
 10
0.0
 20
0.0
 11
1.0
 21
1.0
 12
672.9525617540367
 22
1782.612370234516
 13
0.0
 23
0.0
 14
1.0
 24
1.0
 15
0.0
 25
0.0
 16
0.0
 26
0.0
 36
1.0
 17
377.0474382459633
 27
-297.6123702345162
 37
0.0
 40
3029.4
 41
2.341176470588235
 42
50.0
 43
0.0
 44
0.0
 50
0.0
 51
0.0
 71
    16
 72
  2000
 73
     1
 74
     1
 75
     0
 76
     0
 77
     0
 78
     0
281
     0
 65
     1
110
0.0
120
0.0
130
0.0
111
1.0
121
0.0
131
0.0
112
0.0
122
1.0
132
0.0
 79
     0
146
0.0
348
26C
 60
     3
 61
     5
292
     1
282
     1
141
0.0
142
0.0
 63
   256
361
8C2
  0
ENDTAB
  0
TABLE
  2
LTYPE
  5
4
330
0
100
AcDbSymbolTable
 70
     5
  0
LTYPE
  5
11
330
4
100
AcDbSymbolTableRecord
100
AcDbLinetypeTableRecord
  2
ByBlock
 70
     0
  3

 72
    65
 73
     0
 40
0.0
  0
LTYPE
  5
12
330
4
100
AcDbSymbolTableRecord
100
AcDbLinetypeTableRecord
  2
ByLayer
 70
     0
  3

 72
    65
 73
     0
 40
0.0
  0
LTYPE
  5
13
330
4
100
AcDbSymbolTableRecord
100
AcDbLinetypeTableRecord
  2
Continuous
 70
     0
  3
Solid line
 72
    65
 73
     0
 40
0.0
  0
LTYPE
  5
8D4
330
4
100
AcDbSymbolTableRecord
100
AcDbLinetypeTableRecord
  2
HIDDEN
 70
     0
  3
Hidden _ _ _ _ _ _ _ _ _ _ _ _ _ _ _ _ _ _ _ _ 
 72
    65
 73
     2
 40
9.524999999999999
 49
6.35
 74
     0
 49
-3.175
 74
     0
  0
LTYPE
  5
BF2
330
4
100
AcDbSymbolTableRecord
100
AcDbLinetypeTableRecord
  2
BORDER
 70
     0
  3
Border __  __  . __  __  . __  __  . __  __  . 
 72
    65
 73
     6
 40
44.45
 49
12.7
 74
     0
 49
-6.35
 74
     0
 49
12.7
 74
     0
 49
-6.35
 74
     0
 49
0.0
 74
     0
 49
-6.35
 74
     0
  0
LTYPE
  5
4115
330
4
100
AcDbSymbolTableRecord
100
AcDbLinetypeTableRecord
  2
CENTER
 70
     0
  3
 Center _____  _  _____  _  _____  _  _____  _ 
 72
    65
 73
     4
 40
50.8
 49
31.75
 74
     0
 49
-6.35
 74
     0
 49
6.35
 74
     0
 49
-6.35
 74
     0
  0
LTYPE
  5
4FFD
330
4
100
AcDbSymbolTableRecord
100
AcDbLinetypeTableRecord
  2
HIDDEN2
 70
     0
  3
Hidden (.5x) _ _ _ _ _ _ _ _ _ _ _ _ _ _ _ _ _ 
 72
    65
 73
     2
 40
4.762499999999999
 49
3.175
 74
     0
 49
-1.5875
 74
     0
  0
ENDTAB
  0
TABLE
  2
LAYER
  5
2
102
{ACAD_XDICTIONARY
360
2E1
102
}
330
0
100
AcDbSymbolTable
 70
    13
  0
LAYER
  5
14
330
2
100
AcDbSymbolTableRecord
100
AcDbLayerTableRecord
  2
0
 70
     0
 62
     7
  6
Continuous
370
    -3
390
1D
347
266
  0
LAYER
  5
4A
330
2
100
AcDbSymbolTableRecord
100
AcDbLayerTableRecord
  2
Defpoints
 70
     0
 62
     7
  6
Continuous
290
     0
370
    20
390
1D
347
266
  0
LAYER
  5
4B
330
2
100
AcDbSymbolTableRecord
100
AcDbLayerTableRecord
  2
template
 70
     0
 62
     7
  6
Continuous
370
    20
390
1D
347
266
  0
LAYER
  5
4D
330
2
100
AcDbSymbolTableRecord
100
AcDbLayerTableRecord
  2
MODEL
 70
     0
 62
     7
  6
Continuous
370
    20
390
1D
347
266
  0
LAYER
  5
382
330
2
100
AcDbSymbolTableRecord
100
AcDbLayerTableRecord
  2
レイヤー 1
 70
     0
 62
     7
  6
Continuous
370
    -3
390
1D
347
266
  0
LAYER
  5
5C4
330
2
100
AcDbSymbolTableRecord
100
AcDbLayerTableRecord
  2
HIDDEN
 70
     0
 62
   253
  6
HIDDEN
370
    20
390
1D
347
266
1001
AcAecLayerStandard
1000

1000

  0
LAYER
  5
5EB
330
2
100
AcDbSymbolTableRecord
100
AcDbLayerTableRecord
  2
Dim
 70
     0
 62
     3
  6
Continuous
370
    13
390
1D
347
266
1001
AcAecLayerStandard
1000

1000

  0
LAYER
  5
BF1
330
2
100
AcDbSymbolTableRecord
100
AcDbLayerTableRecord
  2
PRINT BORDER
 70
     0
 62
     4
  6
BORDER
290
     0
370
    20
390
1D
347
266
1001
AcAecLayerStandard
1000

1000

  0
LAYER
  5
1BD2
330
2
100
AcDbSymbolTableRecord
100
AcDbLayerTableRecord
  2
retino
 70
     0
 62
   253
  6
Continuous
370
     0
390
1D
347
266
  0
ENDTAB
  0
TABLE
  2
STYLE
  5
3
330
0
100
AcDbSymbolTable
 70
     3
  0
STYLE
  5
17
330
3
100
AcDbSymbolTableRecord
100
AcDbTextStyleTableRecord
  2
Standard
 70
     0
 40
0.0
 41
1.0
 50
0.0
 71
     0
 42
533.0403732820173
  3
txt
  4
BIGFONT.SHX
  0
STYLE
  5
39
330
3
100
AcDbSymbolTableRecord
100
AcDbTextStyleTableRecord
  2
ＭＳ ゴシック
 70
     0
 40
0.0
 41
1.0
 50
0.0
 71
     0
 42
533.0403732820173
  3
msgothic.ttc
  4
ＭＳ ゴシック
1001
ACAD
1000
ＭＳ ゴシック
1071
        0
  0
ENDTAB
  0
TABLE
  2
VIEW
  5
5
330
0
100
AcDbSymbolTable
 70
     0
  0
ENDTAB
  0
TABLE
  2
UCS
  5
6
330
0
100
AcDbSymbolTable
 70
     0
  0
ENDTAB
  0
TABLE
  2
APPID
  5
8
330
0
100
AcDbSymbolTable
 70
    15
  0
APPID
  5
16
330
8
100
AcDbSymbolTableRecord
100
AcDbRegAppTableRecord
  2
ACAD
 70
     0
  0
APPID
  5
5C5
330
8
100
AcDbSymbolTableRecord
100
AcDbRegAppTableRecord
  2
AcAecLayerStandard
 70
     0
  0
APPID
  5
913
330
8
100
AcDbSymbolTableRecord
100
AcDbRegAppTableRecord
  2
ACAD_DSTYLE_DIMBREAK
 70
     0
  0
APPID
  5
914
330
8
100
AcDbSymbolTableRecord
100
AcDbRegAppTableRecord
  2
ACAD_DSTYLE_DIMJAG
 70
     0
  0
APPID
  5
915
330
8
100
AcDbSymbolTableRecord
100
AcDbRegAppTableRecord
  2
ACAD_DSTYLE_DIMTALN
 70
     0
  0
APPID
  5
E4F
330
8
100
AcDbSymbolTableRecord
100
AcDbRegAppTableRecord
  2
ACAD_MLEADERVER
 70
     0
  0
APPID
  5
E79
330
8
100
AcDbSymbolTableRecord
100
AcDbRegAppTableRecord
  2
ACAD_PSEXT
 70
     0
  0
APPID
  5
E7A
330
8
100
AcDbSymbolTableRecord
100
AcDbRegAppTableRecord
  2
ACAD_NAV_VCDISPLAY
 70
     0
  0
APPID
  5
166E
330
8
100
AcDbSymbolTableRecord
100
AcDbRegAppTableRecord
  2
AcadAnnotative
 70
     0
  0
APPID
  5
166F
330
8
100
AcDbSymbolTableRecord
100
AcDbRegAppTableRecord
  2
GradientColor1ACI
 70
     0
  0
APPID
  5
1670
330
8
100
AcDbSymbolTableRecord
100
AcDbRegAppTableRecord
  2
GradientColor2ACI
 70
     0
  0
APPID
  5
20FE
330
8
100
AcDbSymbolTableRecord
100
AcDbRegAppTableRecord
  2
AcLayerTools
 70
     0
  0
APPID
  5
27AB
330
8
100
AcDbSymbolTableRecord
100
AcDbRegAppTableRecord
  2
ACAD_DSTYLE_DIMRADIAL_EXTENSION
 70
     0
  0
APPID
  5
4377
330
8
100
AcDbSymbolTableRecord
100
AcDbRegAppTableRecord
  2
RAK
 70
     0
  0
APPID
  5
500B
330
8
100
AcDbSymbolTableRecord
100
AcDbRegAppTableRecord
  2
AcadAnnoAV
 70
     0
  0
ENDTAB
  0
TABLE
  2
DIMSTYLE
  5
9
330
0
100
AcDbSymbolTable
 70
     4
100
AcDbDimStyleTable
  0
DIMSTYLE
105
18
330
9
100
AcDbSymbolTableRecord
100
AcDbDimStyleTableRecord
  2
Standard
 70
     0
178
     0
340
17
  0
DIMSTYLE
105
56
102
{ACAD_REACTORS
330
5AD2
330
5AD6
330
5AE4
330
5AE5
330
5AE6
330
5AE7
330
5CC1
330
5CDD
330
5CEA
330
5CF9
330
5D9E
330
5D9F
330
5DA0
330
5DA1
330
5DA2
330
5DA9
330
5DB8
330
5DBA
330
5DC0
330
5DC1
330
5DC2
330
5EA2
330
5EB4
330
5F35
330
5FC2
330
5FD3
330
5FE8
330
6049
330
6057
330
6065
330
6074
330
60EF
330
60FF
330
610D
330
6120
330
612E
330
613F
330
616F
102
}
330
9
100
AcDbSymbolTableRecord
100
AcDbDimStyleTableRecord
  2
tform線あり
 70
     0
  3
<>
  4
[]
 41
9.999389648437498
 42
25.0
 43
0.9999999999999999
 44
0.0
 73
     0
 74
     0
 77
     1
 78
    11
140
24.4326171875
141
0.0
143
1.0
146
0.8
147
10.0
171
     1
172
     1
174
     1
178
     0
179
     2
271
     1
272
     1
276
     2
284
    11
285
    11
286
    11
289
     0
340
39
341
4E
342
4E
  0
ENDTAB
  0
TABLE
  2
BLOCK_RECORD
  5
1
330
0
100
AcDbSymbolTable
 70
   194
  0
BLOCK_RECORD
  5
A
102
{ACAD_XDICTIONARY
360
560A
102
}
330
1
100
AcDbSymbolTableRecord
100
AcDbBlockTableRecord
  2
*MODEL_SPACE
340
20
 70
     0
280
     1
281
     0
  0
BLOCK_RECORD
  5
B
330
1
100
AcDbSymbolTableRecord
100
AcDbBlockTableRecord
  2
*PAPER_SPACE
340
21
 70
     0
280
     1
281
     0
  0
BLOCK_RECORD
  5
4E
330
1
100
AcDbSymbolTableRecord
100
AcDbBlockTableRecord
  2
_DOT
340
0
102
{BLKREFS
331
48C9
331
48CA
331
4951
331
4952
331
495E
331
495F
331
496B
331
496C
331
4994
331
4995
331
4A57
331
4A58
331
4A69
331
4A6A
331
4A78
331
4A79
331
4ABE
331
4ABF
331
4ACD
331
4ACE
331
4ADC
331
4ADD
331
4B3D
331
4B3E
331
4B5C
331
4B5D
331
4B6C
331
4B6D
331
4B7A
331
4B7B
331
4B87
331
4B88
331
4BBD
331
4BBE
331
4C21
331
4C22
331
5411
331
5412
331
541B
331
541C
331
5425
331
5426
331
542F
331
5430
331
5439
331
543A
331
5443
331
5444
331
544D
331
544E
331
5457
331
5458
331
5461
331
5462
331
546B
331
546C
331
5475
331
5476
331
547F
331
5480
331
5489
331
548A
331
5493
331
5494
331
549D
331
549E
331
54A7
331
54A8
331
54B1
331
54B2
331
54F7
331
54F8
331
552B
331
552C
331
5537
331
5538
331
556D
331
556E
331
5579
331
557A
331
5585
331
5586
331
5591
331
5592
331
559D
331
559E
331
55A9
331
55AA
331
55B5
331
55B6
331
55C4
331
55C5
331
55D4
331
55D5
331
55E3
331
55E4
331
55F2
331
55F3
331
5601
331
5602
331
5651
331
5652
331
5660
331
5661
331
566F
331
5670
331
56AA
331
56AB
331
56BB
331
56BC
331
5709
331
570A
331
5725
331
5726
331
5744
331
5745
331
575F
331
5760
331
576E
331
576F
331
5AEF
331
5AF0
331
5AF9
331
5AFA
331
5B03
331
5B04
331
5B0D
331
5B0E
331
5B17
331
5B18
331
5B21
331
5B22
331
5B3F
331
5B40
331
5B4B
331
5B4C
331
5B53
331
5B54
331
5B5D
331
5B5E
331
5B67
331
5B68
331
5B71
331
5B72
331
5B7B
331
5B7C
331
5B85
331
5B86
331
5B8F
331
5B90
331
5B99
331
5B9A
331
0
331
0
331
5BAD
331
5BAE
331
5C44
331
5C45
331
5C50
331
5C51
331
5C5C
331
5C5D
331
5C7C
331
5C7D
331
5C88
331
5C89
331
5C94
331
5C95
331
5CA0
331
5CA1
331
5CAC
331
5CAD
331
5CB8
331
5CB9
331
5CCB
331
5CCC
331
5CD7
331
5CD8
331
5CE4
331
5CE5
331
5CF3
331
5CF4
331
5D02
331
5D03
331
5DDC
331
5DDD
331
5DE8
331
5DE9
331
5DF4
331
5DF5
331
5E00
331
5E01
331
5E0C
331
5E0D
331
5E18
331
5E19
331
5E24
331
5E25
331
5E30
331
5E31
331
5E3C
331
5E3D
331
5E48
331
5E49
331
5E54
331
5E55
331
5E66
331
5E67
331
5E75
331
5E76
331
5E8D
331
5E8E
331
5EAB
331
5EAC
331
5EBD
331
5EBE
331
5EDA
331
5EDB
331
5EE6
331
5EE7
331
5EFD
331
5EFE
331
5F09
331
5F0A
331
5F3C
331
5F3D
331
5FCC
331
5FCB
331
0
331
0
331
5BA3
331
5BA4
331
5FDD
331
5FDC
331
5FF0
331
5FEF
331
60B6
331
60B7
331
60C2
331
60C3
331
60CE
331
60CF
331
60DA
331
60DB
331
60EA
331
60E9
331
60F7
331
60F8
331
6107
331
6108
331
0
331
0
331
6137
331
6138
331
617B
331
0
331
617A
102
}
 70
     0
280
     1
281
     0
  0
BLOCK_RECORD
  5
3A5
330
1
100
AcDbSymbolTableRecord
100
AcDbBlockTableRecord
  2
名称未設定-1
340
0
102
{BLKREFS
331
3D0
102
}
 70
     1
280
     1
281
     0
  0
BLOCK_RECORD
  5
3A8
330
1
100
AcDbSymbolTableRecord
100
AcDbBlockTableRecord
  2
block 2
340
0
102
{BLKREFS
331
3A7
102
}
 70
     0
280
     1
281
     0
  0
BLOCK_RECORD
  5
3AB
330
1
100
AcDbSymbolTableRecord
100
AcDbBlockTableRecord
  2
block 3
340
0
102
{BLKREFS
331
3AA
102
}
 70
     0
280
     1
281
     0
  0
BLOCK_RECORD
  5
3AE
330
1
100
AcDbSymbolTableRecord
100
AcDbBlockTableRecord
  2
block 4
340
0
102
{BLKREFS
331
3AD
102
}
 70
     0
280
     1
281
     0
  0
BLOCK_RECORD
  5
3BD
330
1
100
AcDbSymbolTableRecord
100
AcDbBlockTableRecord
  2
block 5
340
0
102
{BLKREFS
331
3BC
102
}
 70
     0
280
     1
281
     0
  0
BLOCK_RECORD
  5
11F0
330
1
100
AcDbSymbolTableRecord
100
AcDbBlockTableRecord
  2
BLOCK_2
340
0
102
{BLKREFS
331
1273
331
127B
331
127C
102
}
 70
     0
280
     1
281
     0
  0
BLOCK_RECORD
  5
38B6
330
1
100
AcDbSymbolTableRecord
100
AcDbBlockTableRecord
  2
mobile_latù
340
0
310
2800000020000000200000000100080000000000000400000000000000000000000000000000000000000000000080000080000000808000800000008000800080800000C0C0C000C0DCC000F0CAA6000020400000206000002080000020A0000020C0000020E00000400000004020000040400000406000004080000040A0
310
000040C0000040E00000600000006020000060400000606000006080000060A0000060C0000060E00000800000008020000080400000806000008080000080A0000080C0000080E00000A0000000A0200000A0400000A0600000A0800000A0A00000A0C00000A0E00000C0000000C0200000C0400000C0600000C0800000C0
310
A00000C0C00000C0E00000E0000000E0200000E0400000E0600000E0800000E0A00000E0C00000E0E00040000000400020004000400040006000400080004000A0004000C0004000E00040200000402020004020400040206000402080004020A0004020C0004020E000404000004040200040404000404060004040800040
310
40A0004040C0004040E00040600000406020004060400040606000406080004060A0004060C0004060E00040800000408020004080400040806000408080004080A0004080C0004080E00040A0000040A0200040A0400040A0600040A0800040A0A00040A0C00040A0E00040C0000040C0200040C0400040C0600040C08000
310
40C0A00040C0C00040C0E00040E0000040E0200040E0400040E0600040E0800040E0A00040E0C00040E0E00080000000800020008000400080006000800080008000A0008000C0008000E00080200000802020008020400080206000802080008020A0008020C0008020E00080400000804020008040400080406000804080
310
008040A0008040C0008040E00080600000806020008060400080606000806080008060A0008060C0008060E00080800000808020008080400080806000808080008080A0008080C0008080E00080A0000080A0200080A0400080A0600080A0800080A0A00080A0C00080A0E00080C0000080C0200080C0400080C0600080C0
310
800080C0A00080C0C00080C0E00080E0000080E0200080E0400080E0600080E0800080E0A00080E0C00080E0E000C0000000C0002000C0004000C0006000C0008000C000A000C000C000C000E000C0200000C0202000C0204000C0206000C0208000C020A000C020C000C020E000C0400000C0402000C0404000C0406000C0
310
408000C040A000C040C000C040E000C0600000C0602000C0604000C0606000C0608000C060A000C060C000C060E000C0800000C0802000C0804000C0806000C0808000C080A000C080C000C080E000C0A00000C0A02000C0A04000C0A06000C0A08000C0A0A000C0A0C000C0A0E000C0C00000C0C02000C0C04000C0C06000
310
C0C08000C0C0A000F0FBFF00A4A0A000808080000000FF0000FF000000FFFF00FF000000FF00FF00FFFF0000FFFFFF0049494949494949494949494949494949494949494949494949494949494949494949494949494949494949494949494949494949494949494949494949494949494949494949494949494949494949
310
49494949494949494949494949494949494949494949494949494949494949494949494949494949494949494949494949494949494949494949494949494949494949494949494949494949494949494949FAFAFAFAFAFAFAFAFAFAFAFAFAFAFAFAFAFAFAFAFAFAFAFAFAFAFAFAFAFA4949FAFA4949494949494949494949
310
494949494949494949494949494949FAFA4949FAFA4949494949494949494949494949494949494949494949494949FAFA4949FAFA4949494949494949494949494949494949494949494949494949FAFA4949FAFA4949494949494949494949494949494949494949494949494949FAFA4949FAFA49494949494949494949
310
49494949494949494949494949494949FAFA4949FAFA4949494949494949494949494949494949494949494949494949FAFA4949FAFA4949494949494949494949494949494949494949494949494949FAFA4949FAFA4949494949494949494949494949494949494949494949494949FAFA4949FAFA494949494949494949
310
4949494949494949494949494949494949FAFA4949FAFA4949494949494949494949494949494949494949494949494949FAFA4949FAFA4949494949494949494949494949494949494949494949494949FAFA4949FAFA4949494949494949494949494949494949494949494949494949FAFA4949FAFA4949494949494949
310
494949494949494949494949494949494949FAFA4949FAFA4949494949494949494949494949494949494949494949494949FAFA4949FAFA4949494949494949494949494949494949494949494949494949FAFA4949FAFA4949494949494949494949494949494949494949494949494949FAFA4949FAFA49494949494949
310
49494949494949494949494949494949494949FAFA4949FAFAFAFAFAFAFAFAFAFAFAFAFAFAFAFAFAFAFAFAFAFAFAFAFAFAFAFAFAFA4949FAFAFAFAFAFAFAFAFAFAFAFAFAFAFAFAFAFAFAFAFAFAFAFAFAFAFAFAFAFA4949FAFA4949494949494949494949494949494949494949494949494949FAFA4949FAFAFAFAFAFAFAFA
310
FAFAFAFAFAFAFAFAFAFAFAFAFAFAFAFAFAFAFAFAFAFA494949494949494949494949494949494949494949494949494949494949494949494949494949494949494949494949494949494949494949494949494949494949494949494949494949494949494949494949494949494949494949494949494949494949494949
310
4949494949494949494949494949494949494949494949494949494949494949494949494949494949494949494949494949494949494949
102
{BLKREFS
331
3B99
331
467E
331
527B
102
}
 70
     4
280
     1
281
     0
  0
BLOCK_RECORD
  5
5039
330
1
100
AcDbSymbolTableRecord
100
AcDbBlockTableRecord
  2
.TD_SECTION_1
340
0
102
{BLKREFS
331
527C
331
527E
331
5280
331
5282
331
5284
331
5286
102
}
 70
     0
280
     1
281
     0
  0
BLOCK_RECORD
  5
503D
330
1
100
AcDbSymbolTableRecord
100
AcDbBlockTableRecord
  2
.TD_SECTION_2
340
0
102
{BLKREFS
331
527D
331
527F
331
5281
331
5283
331
5285
331
5287
102
}
 70
     0
280
     1
281
     0
  0
BLOCK_RECORD
  5
5AF3
330
1
100
AcDbSymbolTableRecord
100
AcDbBlockTableRecord
  2
*D117
340
0
 70
     0
280
     1
281
     0
  0
BLOCK_RECORD
  5
5B1B
330
1
100
AcDbSymbolTableRecord
100
AcDbBlockTableRecord
  2
*D121
340
0
 70
     0
280
     1
281
     0
  0
BLOCK_RECORD
  5
5B89
330
1
100
AcDbSymbolTableRecord
100
AcDbBlockTableRecord
  2
*D132
340
0
 70
     0
280
     1
281
     0
  0
BLOCK_RECORD
  5
5B93
330
1
100
AcDbSymbolTableRecord
100
AcDbBlockTableRecord
  2
*D133
340
0
 70
     0
280
     1
281
     0
  0
BLOCK_RECORD
  5
5B9D
330
1
100
AcDbSymbolTableRecord
100
AcDbBlockTableRecord
  2
*D134
340
0
 70
     0
280
     1
281
     0
  0
BLOCK_RECORD
  5
5BA7
330
1
100
AcDbSymbolTableRecord
100
AcDbBlockTableRecord
  2
*D135
340
0
 70
     0
280
     1
281
     0
  0
BLOCK_RECORD
  5
5CC5
330
1
100
AcDbSymbolTableRecord
100
AcDbBlockTableRecord
  2
*D148
340
0
 70
     0
280
     1
281
     0
  0
BLOCK_RECORD
  5
5CDE
330
1
100
AcDbSymbolTableRecord
100
AcDbBlockTableRecord
  2
*D150
340
0
 70
     0
280
     1
281
     0
  0
BLOCK_RECORD
  5
5CED
330
1
100
AcDbSymbolTableRecord
100
AcDbBlockTableRecord
  2
*D151
340
0
 70
     0
280
     1
281
     0
  0
BLOCK_RECORD
  5
5CFC
330
1
100
AcDbSymbolTableRecord
100
AcDbBlockTableRecord
  2
*D152
340
0
 70
     0
280
     1
281
     0
  0
BLOCK_RECORD
  5
5DD6
330
1
100
AcDbSymbolTableRecord
100
AcDbBlockTableRecord
  2
*D153
340
0
 70
     0
280
     1
281
     0
  0
BLOCK_RECORD
  5
5DE2
330
1
100
AcDbSymbolTableRecord
100
AcDbBlockTableRecord
  2
*D154
340
0
 70
     0
280
     1
281
     0
  0
BLOCK_RECORD
  5
5DEE
330
1
100
AcDbSymbolTableRecord
100
AcDbBlockTableRecord
  2
*D155
340
0
 70
     0
280
     1
281
     0
  0
BLOCK_RECORD
  5
5DFA
330
1
100
AcDbSymbolTableRecord
100
AcDbBlockTableRecord
  2
*D156
340
0
 70
     0
280
     1
281
     0
  0
BLOCK_RECORD
  5
5E06
330
1
100
AcDbSymbolTableRecord
100
AcDbBlockTableRecord
  2
*D157
340
0
 70
     0
280
     1
281
     0
  0
BLOCK_RECORD
  5
5E12
330
1
100
AcDbSymbolTableRecord
100
AcDbBlockTableRecord
  2
*D158
340
0
 70
     0
280
     1
281
     0
  0
BLOCK_RECORD
  5
5E1E
330
1
100
AcDbSymbolTableRecord
100
AcDbBlockTableRecord
  2
*D159
340
0
 70
     0
280
     1
281
     0
  0
BLOCK_RECORD
  5
5E2A
330
1
100
AcDbSymbolTableRecord
100
AcDbBlockTableRecord
  2
*D160
340
0
 70
     0
280
     1
281
     0
  0
BLOCK_RECORD
  5
5E36
330
1
100
AcDbSymbolTableRecord
100
AcDbBlockTableRecord
  2
*D161
340
0
 70
     0
280
     1
281
     0
  0
BLOCK_RECORD
  5
5E42
330
1
100
AcDbSymbolTableRecord
100
AcDbBlockTableRecord
  2
*D162
340
0
 70
     0
280
     1
281
     0
  0
BLOCK_RECORD
  5
5E4E
330
1
100
AcDbSymbolTableRecord
100
AcDbBlockTableRecord
  2
*D163
340
0
 70
     0
280
     1
281
     0
  0
BLOCK_RECORD
  5
5EA5
330
1
100
AcDbSymbolTableRecord
100
AcDbBlockTableRecord
  2
*D167
340
0
 70
     0
280
     1
281
     0
  0
BLOCK_RECORD
  5
5EB7
330
1
100
AcDbSymbolTableRecord
100
AcDbBlockTableRecord
  2
*D168
340
0
 70
     0
280
     1
281
     0
  0
BLOCK_RECORD
  5
5F36
330
1
100
AcDbSymbolTableRecord
100
AcDbBlockTableRecord
  2
*D173
340
0
 70
     0
280
     1
281
     0
  0
BLOCK_RECORD
  5
5FC5
330
1
100
AcDbSymbolTableRecord
100
AcDbBlockTableRecord
  2
*D174
340
0
 70
     0
280
     1
281
     0
  0
BLOCK_RECORD
  5
5FD6
330
1
100
AcDbSymbolTableRecord
100
AcDbBlockTableRecord
  2
*D175
340
0
 70
     0
280
     1
281
     0
  0
BLOCK_RECORD
  5
5FE9
330
1
100
AcDbSymbolTableRecord
100
AcDbBlockTableRecord
  2
*D176
340
0
 70
     0
280
     1
281
     0
  0
BLOCK_RECORD
  5
60F1
330
1
100
AcDbSymbolTableRecord
100
AcDbBlockTableRecord
  2
*D187
340
0
 70
     0
280
     1
281
     0
  0
BLOCK_RECORD
  5
6101
330
1
100
AcDbSymbolTableRecord
100
AcDbBlockTableRecord
  2
*D188
340
0
 70
     0
280
     1
281
     0
  0
BLOCK_RECORD
  5
610F
330
1
100
AcDbSymbolTableRecord
100
AcDbBlockTableRecord
  2
*D189
340
0
 70
     0
280
     1
281
     0
  0
BLOCK_RECORD
  5
6122
330
1
100
AcDbSymbolTableRecord
100
AcDbBlockTableRecord
  2
*D190
340
0
 70
     0
280
     1
281
     0
  0
BLOCK_RECORD
  5
6131
330
1
100
AcDbSymbolTableRecord
100
AcDbBlockTableRecord
  2
*D191
340
0
 70
     0
280
     1
281
     0
  0
BLOCK_RECORD
  5
6142
330
1
100
AcDbSymbolTableRecord
100
AcDbBlockTableRecord
  2
*D192
340
0
 70
     0
280
     1
281
     0
  0
BLOCK_RECORD
  5
6172
330
1
100
AcDbSymbolTableRecord
100
AcDbBlockTableRecord
  2
*D193
340
0
 70
     0
280
     1
281
     0
  0
ENDTAB
  0
ENDSEC
  0
SECTION
  2
BLOCKS
  0
BLOCK
  5
D
330
A
100
AcDbEntity
  8
0
390
1D
100
AcDbBlockBegin
  2
*MODEL_SPACE
 70
     0
 10
0.0
 20
0.0
 30
0.0
  3
*MODEL_SPACE
  1
*MODEL_SPACE
  0
ENDBLK
  5
E
330
A
100
AcDbEntity
  8
0
390
1D
100
AcDbBlockEnd
  0
BLOCK
  5
F
330
B
100
AcDbEntity
 67
     1
  8
0
390
1D
100
AcDbBlockBegin
  2
*PAPER_SPACE
 70
     0
 10
0.0
 20
0.0
 30
0.0
  3
*PAPER_SPACE
  1
*PAPER_SPACE
  0
ENDBLK
  5
10
330
B
100
AcDbEntity
 67
     1
  8
0
390
1D
100
AcDbBlockEnd
  0
BLOCK
  5
2C14
330
4E
100
AcDbEntity
  8
0
390
1D
100
AcDbBlockBegin
  2
_DOT
 70
     0
 10
0.0
 20
0.0
 30
0.0
  3
_DOT
  1
_DOT
  0
POLYLINE
  5
2C16
330
4E
100
AcDbEntity
  8
0
  6
ByBlock
 62
     0
370
    -2
390
1D
100
AcDb2dPolyline
 66
     1
 10
0.0
 20
0.0
 30
0.0
 70
     1
 40
0.5
 41
0.5
  0
VERTEX
  5
2C17
330
2C16
100
AcDbEntity
  8
0
  6
ByBlock
 62
     0
370
    -2
390
1D
100
AcDbVertex
100
AcDb2dVertex
 10
-0.25
 20
0.0
 30
0.0
 42
1.0
  0
VERTEX
  5
2C18
330
2C16
100
AcDbEntity
  8
0
  6
ByBlock
 62
     0
370
    -2
390
1D
100
AcDbVertex
100
AcDb2dVertex
 10
0.25
 20
0.0
 30
0.0
 42
1.0
  0
SEQEND
  5
2C19
330
2C16
100
AcDbEntity
  8
0
390
1D
  0
LINE
  5
2C1A
330
4E
100
AcDbEntity
  8
0
  6
ByBlock
 62
     0
370
    -2
390
1D
100
AcDbLine
 10
-0.5
 20
0.0
 30
0.0
 11
-1.0
 21
0.0
 31
0.0
  0
ENDBLK
  5
2C1B
330
4E
100
AcDbEntity
  8
0
390
1D
100
AcDbBlockEnd
  0
BLOCK
  5
3A6
330
3A5
100
AcDbEntity
  8
0
100
AcDbBlockBegin
  2
名称未設定-1
 70
     0
 10
0.0
 20
0.0
 30
0.0
  3
名称未設定-1
  1
名称未設定-1
  0
INSERT
  5
3A7
330
3A5
100
AcDbEntity
  8
レイヤー 1
100
AcDbBlockReference
  2
block 2
 10
0.0
 20
0.0
 30
0.0
  0
ENDBLK
  5
3CC
330
3A5
100
AcDbEntity
  8
0
100
AcDbBlockEnd
  0
BLOCK
  5
3A9
330
3A8
100
AcDbEntity
  8
0
100
AcDbBlockBegin
  2
block 2
 70
     0
 10
0.0
 20
0.0
 30
0.0
  3
block 2
  1
block 2
  0
INSERT
  5
3AA
330
3A8
100
AcDbEntity
  8
レイヤー 1
100
AcDbBlockReference
  2
block 3
 10
0.0
 20
0.0
 30
0.0
  0
ENDBLK
  5
3CB
330
3A8
100
AcDbEntity
  8
0
100
AcDbBlockEnd
  0
BLOCK
  5
3AC
330
3AB
100
AcDbEntity
  8
0
100
AcDbBlockBegin
  2
block 3
 70
     0
 10
0.0
 20
0.0
 30
0.0
  3
block 3
  1
block 3
  0
INSERT
  5
3AD
330
3AB
100
AcDbEntity
  8
レイヤー 1
100
AcDbBlockReference
  2
block 4
 10
0.0
 20
0.0
 30
0.0
  0
ENDBLK
  5
3CA
330
3AB
100
AcDbEntity
  8
0
100
AcDbBlockEnd
  0
BLOCK
  5
3AF
330
3AE
100
AcDbEntity
  8
0
100
AcDbBlockBegin
  2
block 4
 70
     0
 10
0.0
 20
0.0
 30
0.0
  3
block 4
  1
block 4
  0
POLYLINE
  5
3B0
330
3AE
100
AcDbEntity
  8
レイヤー 1
370
     0
100
AcDb2dPolyline
 66
     1
 10
0.0
 20
0.0
 30
0.0
  0
VERTEX
  5
3B1
330
3B0
100
AcDbEntity
  8
レイヤー 1
370
     0
100
AcDbVertex
100
AcDb2dVertex
 10
83.79545727667795
 20
167.6444858234922
 30
0.0
  0
VERTEX
  5
3B2
330
3B0
100
AcDbEntity
  8
レイヤー 1
370
     0
100
AcDbVertex
100
AcDb2dVertex
 10
83.79545727667795
 20
159.7968976406313
 30
0.0
  0
VERTEX
  5
3B3
330
3B0
100
AcDbEntity
  8
レイヤー 1
370
     0
100
AcDbVertex
100
AcDb2dVertex
 10
71.3631329975216
 20
159.7968976406313
 30
0.0
  0
VERTEX
  5
3B4
330
3B0
100
AcDbEntity
  8
レイヤー 1
370
     0
100
AcDbVertex
100
AcDb2dVertex
 10
71.3631329975216
 20
127.8027915271048
 30
0.0
  0
VERTEX
  5
3B5
330
3B0
100
AcDbEntity
  8
レイヤー 1
370
     0
100
AcDbVertex
100
AcDb2dVertex
 10
60.43011526263018
 20
127.8027915271048
 30
0.0
  0
VERTEX
  5
3B6
330
3B0
100
AcDbEntity
  8
レイヤー 1
370
     0
100
AcDbVertex
100
AcDb2dVertex
 10
60.43011526263018
 20
159.7968976406313
 30
0.0
  0
VERTEX
  5
3B7
330
3B0
100
AcDbEntity
  8
レイヤー 1
370
     0
100
AcDbVertex
100
AcDb2dVertex
 10
48.21793273020759
 20
159.7968976406313
 30
0.0
  0
VERTEX
  5
3B8
330
3B0
100
AcDbEntity
  8
レイヤー 1
370
     0
100
AcDbVertex
100
AcDb2dVertex
 10
48.21793273020759
 20
167.6444858234922
 30
0.0
  0
VERTEX
  5
3B9
330
3B0
100
AcDbEntity
  8
レイヤー 1
370
     0
100
AcDbVertex
100
AcDb2dVertex
 10
83.79545727667795
 20
167.6444858234922
 30
0.0
  0
SEQEND
  5
3BA
330
3B0
100
AcDbEntity
  8
レイヤー 1
370
     0
  0
HATCH
  5
3BB
330
3AE
100
AcDbEntity
  8
レイヤー 1
 62
   250
420
  2234388
100
AcDbHatch
 10
0.0
 20
0.0
 30
0.0
210
0.0
220
0.0
230
1.0
  2
SOLID
 70
     1
 71
     0
 91
        1
 92
        1
 93
        8
 72
     1
 10
83.79545727667795
 20
167.6444858234922
 11
83.79545727667795
 21
159.7968976406313
 72
     1
 10
83.79545727667795
 20
159.7968976406313
 11
71.3631329975216
 21
159.7968976406313
 72
     1
 10
71.3631329975216
 20
159.7968976406313
 11
71.3631329975216
 21
127.8027915271048
 72
     1
 10
71.3631329975216
 20
127.8027915271048
 11
60.43011526263018
 21
127.8027915271048
 72
     1
 10
60.43011526263018
 20
127.8027915271048
 11
60.43011526263018
 21
159.7968976406313
 72
     1
 10
60.43011526263018
 20
159.7968976406313
 11
48.21793273020759
 21
159.7968976406313
 72
     1
 10
48.21793273020759
 20
159.7968976406313
 11
48.21793273020759
 21
167.6444858234922
 72
     1
 10
48.21793273020759
 20
167.6444858234922
 11
83.79545727667795
 21
167.6444858234922
 97
        0
 75
     2
 76
     1
 98
        0
  0
INSERT
  5
3BC
330
3AE
100
AcDbEntity
  8
レイヤー 1
100
AcDbBlockReference
  2
block 5
 10
0.0
 20
0.0
 30
0.0
  0
ENDBLK
  5
3C9
330
3AE
100
AcDbEntity
  8
0
100
AcDbBlockEnd
  0
BLOCK
  5
3BE
330
3BD
100
AcDbEntity
  8
0
100
AcDbBlockBegin
  2
block 5
 70
     0
 10
0.0
 20
0.0
 30
0.0
  3
block 5
  1
block 5
  0
SPLINE
  5
3BF
330
3BD
100
AcDbEntity
  8
レイヤー 1
370
     0
100
AcDbSpline
210
0.0
220
0.0
230
1.0
 70
    11
 71
     3
 72
    56
 73
    52
 74
     0
 42
0.000000001
 43
0.0000000001
 40
0.0
 40
0.0
 40
0.0
 40
0.0
 40
1.0
 40
1.0
 40
1.0
 40
2.0
 40
2.0
 40
2.0
 40
3.0
 40
3.0
 40
3.0
 40
4.0
 40
4.0
 40
4.0
 40
5.0
 40
5.0
 40
5.0
 40
6.0
 40
6.0
 40
6.0
 40
7.0
 40
7.0
 40
7.0
 40
8.0
 40
8.0
 40
8.0
 40
9.0
 40
9.0
 40
9.0
 40
10.0
 40
10.0
 40
10.0
 40
11.0
 40
11.0
 40
11.0
 40
12.0
 40
12.0
 40
12.0
 40
13.0
 40
13.0
 40
13.0
 40
14.0
 40
14.0
 40
14.0
 40
15.0
 40
15.0
 40
15.0
 40
16.0
 40
16.0
 40
16.0
 40
17.0
 40
17.0
 40
17.0
 40
17.0
 10
100.4504378777679
 20
166.69157178364
 30
0.0
 10
101.9848844191641
 20
167.1313385124438
 30
0.0
 10
103.9637485713373
 20
166.7649523658846
 30
0.0
 10
103.9637485713373
 20
166.7649523658846
 30
0.0
 10
103.9637485713373
 20
166.7649523658846
 30
0.0
 10
103.0132460999156
 20
163.911205638077
 30
0.0
 10
103.0132460999156
 20
163.911205638077
 30
0.0
 10
103.0132460999156
 20
163.911205638077
 30
0.0
 10
101.0674548862189
 20
164.3601018759394
 30
0.0
 10
99.57090442016032
 20
163.1805004036133
 30
0.0
 10
98.40508333886608
 20
162.258247733807
 30
0.0
 10
97.65301849830304
 20
159.804132345923
 30
0.0
 10
97.3598406791005
 20
158.8699940888517
 30
0.0
 10
97.3598406791005
 20
158.8699940888517
 30
0.0
 10
96.07137411762282
 20
154.9119212747295
 30
0.0
 10
96.07137411762282
 20
154.9119212747295
 30
0.0
 10
96.07137411762282
 20
154.9119212747295
 30
0.0
 10
100.3012651448482
 20
154.9119212747295
 30
0.0
 10
100.3012651448482
 20
154.9119212747295
 30
0.0
 10
100.3012651448482
 20
154.9119212747295
 30
0.0
 10
99.64152892419852
 20
152.4199098115079
 30
0.0
 10
99.64152892419852
 20
152.4199098115079
 30
0.0
 10
99.64152892419852
 20
152.4199098115079
 30
0.0
 10
95.38097652692731
 20
152.4199098115079
 30
0.0
 10
95.38097652692731
 20
152.4199098115079
 30
0.0
 10
95.38097652692731
 20
152.4199098115079
 30
0.0
 10
87.75353009080013
 20
127.8027915271048
 30
0.0
 10
87.75353009080013
 20
127.8027915271048
 30
0.0
 10
87.75353009080013
 20
127.8027915271048
 30
0.0
 10
85.36538832498108
 20
127.8027915271048
 30
0.0
 10
85.36538832498108
 20
127.8027915271048
 30
0.0
 10
85.36538832498108
 20
127.8027915271048
 30
0.0
 10
93.00006946639998
 20
152.4199098115079
 30
0.0
 10
93.00006946639998
 20
152.4199098115079
 30
0.0
 10
93.00006946639998
 20
152.4199098115079
 30
0.0
 10
89.85297266450198
 20
152.4199098115079
 30
0.0
 10
89.85297266450198
 20
152.4199098115079
 30
0.0
 10
89.85297266450198
 20
152.4199098115079
 30
0.0
 10
90.51270888515164
 20
154.9119212747295
 30
0.0
 10
90.51270888515164
 20
154.9119212747295
 30
0.0
 10
90.51270888515164
 20
154.9119212747295
 30
0.0
 10
93.6904670570955
 20
154.9119212747295
 30
0.0
 10
93.6904670570955
 20
154.9119212747295
 30
0.0
 10
93.6904670570955
 20
154.9119212747295
 30
0.0
 10
94.81598049462158
 20
158.3616699146644
 30
0.0
 10
94.81598049462158
 20
158.3616699146644
 30
0.0
 10
95.7237637538445
 20
161.2605474231013
 30
0.0
 10
96.4968436907311
 20
162.8139420021662
 30
0.0
 10
97.15657991138076
 20
163.9844139654337
 30
0.0
 10
97.81183750494507
 20
165.1523021053827
 30
0.0
 10
99.1047826935081
 20
166.3084769129547
 30
0.0
 10
100.4504378777679
 20
166.69157178364
 30
0.0
  0
HATCH
  5
3C0
330
3BD
100
AcDbEntity
  8
レイヤー 1
 62
   250
420
  2234388
100
AcDbHatch
 10
0.0
 20
0.0
 30
0.0
210
0.0
220
0.0
230
1.0
  2
SOLID
 70
     1
 71
     0
 91
        1
 92
        1
 93
        1
 72
     4
 94
        3
 73
     0
 74
     1
 95
       56
 96
       52
 40
0.0
 40
0.0
 40
0.0
 40
0.0
 40
1.0
 40
1.0
 40
1.0
 40
2.0
 40
2.0
 40
2.0
 40
3.0
 40
3.0
 40
3.0
 40
4.0
 40
4.0
 40
4.0
 40
5.0
 40
5.0
 40
5.0
 40
6.0
 40
6.0
 40
6.0
 40
7.0
 40
7.0
 40
7.0
 40
8.0
 40
8.0
 40
8.0
 40
9.0
 40
9.0
 40
9.0
 40
10.0
 40
10.0
 40
10.0
 40
11.0
 40
11.0
 40
11.0
 40
12.0
 40
12.0
 40
12.0
 40
13.0
 40
13.0
 40
13.0
 40
14.0
 40
14.0
 40
14.0
 40
15.0
 40
15.0
 40
15.0
 40
16.0
 40
16.0
 40
16.0
 40
17.0
 40
17.0
 40
17.0
 40
17.0
 10
100.4504378777679
 20
166.69157178364
 10
101.9848844191641
 20
167.1313385124438
 10
103.9637485713373
 20
166.7649523658846
 10
103.9637485713373
 20
166.7649523658846
 10
103.9637485713373
 20
166.7649523658846
 10
103.0132460999156
 20
163.911205638077
 10
103.0132460999156
 20
163.911205638077
 10
103.0132460999156
 20
163.911205638077
 10
101.0674548862189
 20
164.3601018759394
 10
99.57090442016032
 20
163.1805004036133
 10
98.40508333886608
 20
162.258247733807
 10
97.65301849830304
 20
159.804132345923
 10
97.3598406791005
 20
158.8699940888517
 10
97.3598406791005
 20
158.8699940888517
 10
96.07137411762282
 20
154.9119212747295
 10
96.07137411762282
 20
154.9119212747295
 10
96.07137411762282
 20
154.9119212747295
 10
100.3012651448482
 20
154.9119212747295
 10
100.3012651448482
 20
154.9119212747295
 10
100.3012651448482
 20
154.9119212747295
 10
99.64152892419852
 20
152.4199098115079
 10
99.64152892419852
 20
152.4199098115079
 10
99.64152892419852
 20
152.4199098115079
 10
95.38097652692731
 20
152.4199098115079
 10
95.38097652692731
 20
152.4199098115079
 10
95.38097652692731
 20
152.4199098115079
 10
87.75353009080013
 20
127.8027915271048
 10
87.75353009080013
 20
127.8027915271048
 10
87.75353009080013
 20
127.8027915271048
 10
85.36538832498108
 20
127.8027915271048
 10
85.36538832498108
 20
127.8027915271048
 10
85.36538832498108
 20
127.8027915271048
 10
93.00006946639998
 20
152.4199098115079
 10
93.00006946639998
 20
152.4199098115079
 10
93.00006946639998
 20
152.4199098115079
 10
89.85297266450198
 20
152.4199098115079
 10
89.85297266450198
 20
152.4199098115079
 10
89.85297266450198
 20
152.4199098115079
 10
90.51270888515164
 20
154.9119212747295
 10
90.51270888515164
 20
154.9119212747295
 10
90.51270888515164
 20
154.9119212747295
 10
93.6904670570955
 20
154.9119212747295
 10
93.6904670570955
 20
154.9119212747295
 10
93.6904670570955
 20
154.9119212747295
 10
94.81598049462158
 20
158.3616699146644
 10
94.81598049462158
 20
158.3616699146644
 10
95.7237637538445
 20
161.2605474231013
 10
96.4968436907311
 20
162.8139420021662
 10
97.15657991138076
 20
163.9844139654337
 10
97.81183750494507
 20
165.1523021053827
 10
99.1047826935081
 20
166.3084769129547
 10
100.4504378777679
 20
166.69157178364
 97
        0
 75
     2
 76
     1
 98
        0
  0
SPLINE
  5
3C1
330
3BD
100
AcDbEntity
  8
レイヤー 1
370
     0
100
AcDbSpline
210
0.0
220
0.0
230
1.0
 70
    11
 71
     3
 72
    38
 73
    34
 74
     0
 42
0.000000001
 43
0.0000000001
 40
0.0
 40
0.0
 40
0.0
 40
0.0
 40
1.0
 40
1.0
 40
1.0
 40
2.0
 40
2.0
 40
2.0
 40
3.0
 40
3.0
 40
3.0
 40
4.0
 40
4.0
 40
4.0
 40
5.0
 40
5.0
 40
5.0
 40
6.0
 40
6.0
 40
6.0
 40
7.0
 40
7.0
 40
7.0
 40
8.0
 40
8.0
 40
8.0
 40
9.0
 40
9.0
 40
9.0
 40
10.0
 40
10.0
 40
10.0
 40
11.0
 40
11.0
 40
11.0
 40
11.0
 10
126.377554584636
 20
154.8151140277308
 30
0.0
 10
126.377554584636
 20
154.8151140277308
 30
0.0
 10
128.8311532078563
 20
154.8151140277308
 30
0.0
 10
128.8311532078563
 20
154.8151140277308
 30
0.0
 10
128.8311532078563
 20
154.8151140277308
 30
0.0
 10
127.7345785914971
 20
151.3062819612468
 30
0.0
 10
127.7345785914971
 20
151.3062819612468
 30
0.0
 10
128.571392836906
 20
152.2922689395754
 30
0.0
 10
129.8860421413442
 20
153.604506675583
 30
0.0
 10
131.0163787157314
 20
154.2664822097754
 30
0.0
 10
132.7044766171327
 20
155.2500576196734
 30
0.0
 10
133.6642808525008
 20
155.3847609420097
 30
0.0
 10
134.7284715499351
 20
155.3565111403944
 30
0.0
 10
134.7284715499351
 20
155.3565111403944
 30
0.0
 10
133.6877075172549
 20
152.0345756272799
 30
0.0
 10
133.6877075172549
 20
152.0345756272799
 30
0.0
 10
133.011434827367
 20
152.3184516825359
 30
0.0
 10
130.930940291334
 20
151.7768823149844
 30
0.0
 10
129.739280976855
 20
150.9162968950455
 30
0.0
 10
128.66613302525
 20
150.1454562717016
 30
0.0
 10
127.9192358313239
 20
149.4857200510519
 30
0.0
 10
127.0393578639405
 20
147.8282835196966
 30
0.0
 10
126.164647543194
 20
146.1699857139017
 30
0.0
 10
125.4742499524985
 20
143.5262176944419
 30
0.0
 10
124.2822461282437
 20
139.6959580071401
 30
0.0
 10
124.2822461282437
 20
139.6959580071401
 30
0.0
 10
120.5753209406769
 20
127.8027915271048
 30
0.0
 10
120.5753209406769
 20
127.8027915271048
 30
0.0
 10
120.5753209406769
 20
127.8027915271048
 30
0.0
 10
118.1964809388044
 20
127.8027915271048
 30
0.0
 10
118.1964809388044
 20
127.8027915271048
 30
0.0
 10
118.1964809388044
 20
127.8027915271048
 30
0.0
 10
126.377554584636
 20
154.8151140277308
 30
0.0
 10
126.377554584636
 20
154.8151140277308
 30
0.0
  0
HATCH
  5
3C2
330
3BD
100
AcDbEntity
  8
レイヤー 1
 62
   250
420
  2234388
100
AcDbHatch
 10
0.0
 20
0.0
 30
0.0
210
0.0
220
0.0
230
1.0
  2
SOLID
 70
     1
 71
     0
 91
        1
 92
        1
 93
        1
 72
     4
 94
        3
 73
     0
 74
     1
 95
       38
 96
       34
 40
0.0
 40
0.0
 40
0.0
 40
0.0
 40
1.0
 40
1.0
 40
1.0
 40
2.0
 40
2.0
 40
2.0
 40
3.0
 40
3.0
 40
3.0
 40
4.0
 40
4.0
 40
4.0
 40
5.0
 40
5.0
 40
5.0
 40
6.0
 40
6.0
 40
6.0
 40
7.0
 40
7.0
 40
7.0
 40
8.0
 40
8.0
 40
8.0
 40
9.0
 40
9.0
 40
9.0
 40
10.0
 40
10.0
 40
10.0
 40
11.0
 40
11.0
 40
11.0
 40
11.0
 10
126.377554584636
 20
154.8151140277308
 10
126.377554584636
 20
154.8151140277308
 10
128.8311532078563
 20
154.8151140277308
 10
128.8311532078563
 20
154.8151140277308
 10
128.8311532078563
 20
154.8151140277308
 10
127.7345785914971
 20
151.3062819612468
 10
127.7345785914971
 20
151.3062819612468
 10
128.571392836906
 20
152.2922689395754
 10
129.8860421413442
 20
153.604506675583
 10
131.0163787157314
 20
154.2664822097754
 10
132.7044766171327
 20
155.2500576196734
 10
133.6642808525008
 20
155.3847609420097
 10
134.7284715499351
 20
155.3565111403944
 10
134.7284715499351
 20
155.3565111403944
 10
133.6877075172549
 20
152.0345756272799
 10
133.6877075172549
 20
152.0345756272799
 10
133.011434827367
 20
152.3184516825359
 10
130.930940291334
 20
151.7768823149844
 10
129.739280976855
 20
150.9162968950455
 10
128.66613302525
 20
150.1454562717016
 10
127.9192358313239
 20
149.4857200510519
 10
127.0393578639405
 20
147.8282835196966
 10
126.164647543194
 20
146.1699857139017
 10
125.4742499524985
 20
143.5262176944419
 10
124.2822461282437
 20
139.6959580071401
 10
124.2822461282437
 20
139.6959580071401
 10
120.5753209406769
 20
127.8027915271048
 10
120.5753209406769
 20
127.8027915271048
 10
120.5753209406769
 20
127.8027915271048
 10
118.1964809388044
 20
127.8027915271048
 10
118.1964809388044
 20
127.8027915271048
 10
118.1964809388044
 20
127.8027915271048
 10
126.377554584636
 20
154.8151140277308
 10
126.377554584636
 20
154.8151140277308
 97
        0
 75
     2
 76
     1
 98
        0
  0
SPLINE
  5
3C3
330
3BD
100
AcDbEntity
  8
レイヤー 1
370
     0
100
AcDbSpline
210
0.0
220
0.0
230
1.0
 70
    11
 71
     3
 72
   104
 73
   100
 74
     0
 42
0.000000001
 43
0.0000000001
 40
0.0
 40
0.0
 40
0.0
 40
0.0
 40
1.0
 40
1.0
 40
1.0
 40
2.0
 40
2.0
 40
2.0
 40
3.0
 40
3.0
 40
3.0
 40
4.0
 40
4.0
 40
4.0
 40
5.0
 40
5.0
 40
5.0
 40
6.0
 40
6.0
 40
6.0
 40
7.0
 40
7.0
 40
7.0
 40
8.0
 40
8.0
 40
8.0
 40
9.0
 40
9.0
 40
9.0
 40
10.0
 40
10.0
 40
10.0
 40
11.0
 40
11.0
 40
11.0
 40
12.0
 40
12.0
 40
12.0
 40
13.0
 40
13.0
 40
13.0
 40
14.0
 40
14.0
 40
14.0
 40
15.0
 40
15.0
 40
15.0
 40
16.0
 40
16.0
 40
16.0
 40
17.0
 40
17.0
 40
17.0
 40
18.0
 40
18.0
 40
18.0
 40
19.0
 40
19.0
 40
19.0
 40
20.0
 40
20.0
 40
20.0
 40
21.0
 40
21.0
 40
21.0
 40
22.0
 40
22.0
 40
22.0
 40
23.0
 40
23.0
 40
23.0
 40
24.0
 40
24.0
 40
24.0
 40
25.0
 40
25.0
 40
25.0
 40
26.0
 40
26.0
 40
26.0
 40
27.0
 40
27.0
 40
27.0
 40
28.0
 40
28.0
 40
28.0
 40
29.0
 40
29.0
 40
29.0
 40
30.0
 40
30.0
 40
30.0
 40
31.0
 40
31.0
 40
31.0
 40
32.0
 40
32.0
 40
32.0
 40
33.0
 40
33.0
 40
33.0
 40
33.0
 10
139.8926730891197
 20
154.8294111834263
 30
0.0
 10
139.8926730891197
 20
154.8294111834263
 30
0.0
 10
142.0344903652445
 20
154.8294111834263
 30
0.0
 10
142.0344903652445
 20
154.8294111834263
 30
0.0
 10
142.0344903652445
 20
154.8294111834263
 30
0.0
 10
140.9516961399171
 20
151.3157559800812
 30
0.0
 10
140.9516961399171
 20
151.3157559800812
 30
0.0
 10
141.8928968473923
 20
152.7887075264977
 30
0.0
 10
142.7341897198865
 20
153.4484437471474
 30
0.0
 10
143.8552245303272
 20
154.2926649527359
 30
0.0
 10
144.9803934580775
 20
155.1296514530327
 30
0.0
 10
146.3139908001845
 20
155.3044901642492
 30
0.0
 10
147.241066606852
 20
155.3044901642492
 30
0.0
 10
148.3855280820469
 20
155.3044901642492
 30
0.0
 10
149.4969166187653
 20
155.0752189084569
 30
0.0
 10
150.0784491203092
 20
153.8172414621372
 30
0.0
 10
150.5228667310863
 20
152.833838307127
 30
0.0
 10
150.5414702589793
 20
152.7201500811143
 30
0.0
 10
150.4140016419347
 20
150.7765981809602
 30
0.0
 10
151.5818897818837
 20
152.7699317437168
 30
0.0
 10
152.4424752018226
 20
153.6256940267945
 30
0.0
 10
153.9038856707499
 20
154.4507949398263
 30
0.0
 10
155.4455669174378
 20
155.3044901642492
 30
0.0
 10
156.339225275853
 20
155.3659851592288
 30
0.0
 10
157.3748216618963
 20
155.2147453676543
 30
0.0
 10
158.911679771723
 20
154.9877134254046
 30
0.0
 10
159.8859534176746
 20
154.4390816074493
 30
0.0
 10
160.3965169054045
 20
152.7816450760939
 30
0.0
 10
160.9070803931344
 20
151.1219692311958
 30
0.0
 10
160.6328506116007
 20
150.2303779314354
 30
0.0
 10
159.9992971339115
 20
147.597634224801
 30
0.0
 10
159.7105979417943
 20
146.4014962832367
 30
0.0
 10
159.2947746424084
 20
144.9400858143094
 30
0.0
 10
158.7463150793409
 20
143.2092687007094
 30
0.0
 10
158.7463150793409
 20
143.2092687007094
 30
0.0
 10
153.9038856707499
 20
127.8027915271048
 30
0.0
 10
153.9038856707499
 20
127.8027915271048
 30
0.0
 10
153.9038856707499
 20
127.8027915271048
 30
0.0
 10
151.3882752878863
 20
127.8027915271048
 30
0.0
 10
151.3882752878863
 20
127.8027915271048
 30
0.0
 10
151.3882752878863
 20
127.8027915271048
 30
0.0
 10
155.6250565106276
 20
141.2751908193897
 30
0.0
 10
155.6250565106276
 20
141.2751908193897
 30
0.0
 10
156.5094131050963
 20
144.0936252951782
 30
0.0
 10
157.109893644309
 20
146.1506931664571
 30
0.0
 10
157.4220195011804
 20
147.4415712963654
 30
0.0
 10
157.8095929989511
 20
149.0530157726519
 30
0.0
 10
157.9656559273867
 20
149.5826995529385
 30
0.0
 10
157.7816877071116
 20
150.7529992613181
 30
0.0
 10
157.6111553680925
 20
151.8430281919372
 30
0.0
 10
157.0582171779396
 20
152.5547853887321
 30
0.0
 10
156.1170164704645
 20
152.5547853887321
 30
0.0
 10
155.1096698860365
 20
152.5547853887321
 30
0.0
 10
154.2962823053817
 20
152.4412694176073
 30
0.0
 10
153.156643967048
 20
151.2945686288697
 30
0.0
 10
152.0170056287143
 20
150.1476955852443
 30
0.0
 10
151.076149431015
 20
148.7930831468137
 30
0.0
 10
150.3337308641742
 20
147.2290087646991
 30
0.0
 10
149.5957909244188
 20
145.6683794803425
 30
0.0
 10
148.8530278478023
 20
143.6822806228776
 30
0.0
 10
148.0964843801539
 20
141.2751908193897
 30
0.0
 10
148.0964843801539
 20
141.2751908193897
 30
0.0
 10
143.8552245303272
 20
127.8027915271048
 30
0.0
 10
143.8552245303272
 20
127.8027915271048
 30
0.0
 10
143.8552245303272
 20
127.8027915271048
 30
0.0
 10
141.486030802177
 20
127.8027915271048
 30
0.0
 10
141.486030802177
 20
127.8027915271048
 30
0.0
 10
141.486030802177
 20
127.8027915271048
 30
0.0
 10
146.3329388378533
 20
143.2092687007094
 30
0.0
 10
146.3329388378533
 20
143.2092687007094
 30
0.0
 10
146.8483254624444
 20
144.8408669988801
 30
0.0
 10
147.2314203331297
 20
146.1837661049335
 30
0.0
 10
147.4867020769946
 20
147.224185627838
 30
0.0
 10
147.9169947869641
 20
149.0197705792876
 30
0.0
 10
148.0306830129768
 20
150.2400242051577
 30
0.0
 10
147.709255392159
 20
151.3157559800812
 30
0.0
 10
147.3874832615654
 20
152.3916600098926
 30
0.0
 10
146.8245542879144
 20
152.6683013598569
 30
0.0
 10
145.8840425999909
 20
152.6683013598569
 30
0.0
 10
145.0989048209514
 20
152.6683013598569
 30
0.0
 10
144.3282364524954
 20
152.3275811915945
 30
0.0
 10
143.4531816219731
 20
151.6538923250251
 30
0.0
 10
142.34627171234
 20
150.8074318058939
 30
0.0
 10
141.901854101563
 20
150.1097995099067
 30
0.0
 10
141.3578731655808
 20
149.289521733736
 30
0.0
 10
140.6299240093235
 20
148.192602607601
 30
0.0
 10
140.2850697237515
 20
147.455696197173
 30
0.0
 10
139.6652966370942
 20
145.8385673095858
 30
0.0
 10
139.0506911970739
 20
144.2214384219986
 30
0.0
 10
138.463991048893
 20
142.3252566160164
 30
0.0
 10
138.0571250036777
 20
141.0154304484394
 30
0.0
 10
138.0571250036777
 20
141.0154304484394
 30
0.0
 10
133.9009590684727
 20
127.8027915271048
 30
0.0
 10
133.9009590684727
 20
127.8027915271048
 30
0.0
 10
133.9009590684727
 20
127.8027915271048
 30
0.0
 10
131.4180771143097
 20
127.8027915271048
 30
0.0
 10
131.4180771143097
 20
127.8027915271048
 30
0.0
 10
131.4180771143097
 20
127.8027915271048
 30
0.0
 10
139.8926730891197
 20
154.8294111834263
 30
0.0
 10
139.8926730891197
 20
154.8294111834263
 30
0.0
  0
HATCH
  5
3C4
330
3BD
100
AcDbEntity
  8
レイヤー 1
 62
   250
420
  2234388
100
AcDbHatch
 10
0.0
 20
0.0
 30
0.0
210
0.0
220
0.0
230
1.0
  2
SOLID
 70
     1
 71
     0
 91
        1
 92
        1
 93
        1
 72
     4
 94
        3
 73
     0
 74
     1
 95
      104
 96
      100
 40
0.0
 40
0.0
 40
0.0
 40
0.0
 40
1.0
 40
1.0
 40
1.0
 40
2.0
 40
2.0
 40
2.0
 40
3.0
 40
3.0
 40
3.0
 40
4.0
 40
4.0
 40
4.0
 40
5.0
 40
5.0
 40
5.0
 40
6.0
 40
6.0
 40
6.0
 40
7.0
 40
7.0
 40
7.0
 40
8.0
 40
8.0
 40
8.0
 40
9.0
 40
9.0
 40
9.0
 40
10.0
 40
10.0
 40
10.0
 40
11.0
 40
11.0
 40
11.0
 40
12.0
 40
12.0
 40
12.0
 40
13.0
 40
13.0
 40
13.0
 40
14.0
 40
14.0
 40
14.0
 40
15.0
 40
15.0
 40
15.0
 40
16.0
 40
16.0
 40
16.0
 40
17.0
 40
17.0
 40
17.0
 40
18.0
 40
18.0
 40
18.0
 40
19.0
 40
19.0
 40
19.0
 40
20.0
 40
20.0
 40
20.0
 40
21.0
 40
21.0
 40
21.0
 40
22.0
 40
22.0
 40
22.0
 40
23.0
 40
23.0
 40
23.0
 40
24.0
 40
24.0
 40
24.0
 40
25.0
 40
25.0
 40
25.0
 40
26.0
 40
26.0
 40
26.0
 40
27.0
 40
27.0
 40
27.0
 40
28.0
 40
28.0
 40
28.0
 40
29.0
 40
29.0
 40
29.0
 40
30.0
 40
30.0
 40
30.0
 40
31.0
 40
31.0
 40
31.0
 40
32.0
 40
32.0
 40
32.0
 40
33.0
 40
33.0
 40
33.0
 40
33.0
 10
139.8926730891197
 20
154.8294111834263
 10
139.8926730891197
 20
154.8294111834263
 10
142.0344903652445
 20
154.8294111834263
 10
142.0344903652445
 20
154.8294111834263
 10
142.0344903652445
 20
154.8294111834263
 10
140.9516961399171
 20
151.3157559800812
 10
140.9516961399171
 20
151.3157559800812
 10
141.8928968473923
 20
152.7887075264977
 10
142.7341897198865
 20
153.4484437471474
 10
143.8552245303272
 20
154.2926649527359
 10
144.9803934580775
 20
155.1296514530327
 10
146.3139908001845
 20
155.3044901642492
 10
147.241066606852
 20
155.3044901642492
 10
148.3855280820469
 20
155.3044901642492
 10
149.4969166187653
 20
155.0752189084569
 10
150.0784491203092
 20
153.8172414621372
 10
150.5228667310863
 20
152.833838307127
 10
150.5414702589793
 20
152.7201500811143
 10
150.4140016419347
 20
150.7765981809602
 10
151.5818897818837
 20
152.7699317437168
 10
152.4424752018226
 20
153.6256940267945
 10
153.9038856707499
 20
154.4507949398263
 10
155.4455669174378
 20
155.3044901642492
 10
156.339225275853
 20
155.3659851592288
 10
157.3748216618963
 20
155.2147453676543
 10
158.911679771723
 20
154.9877134254046
 10
159.8859534176746
 20
154.4390816074493
 10
160.3965169054045
 20
152.7816450760939
 10
160.9070803931344
 20
151.1219692311958
 10
160.6328506116007
 20
150.2303779314354
 10
159.9992971339115
 20
147.597634224801
 10
159.7105979417943
 20
146.4014962832367
 10
159.2947746424084
 20
144.9400858143094
 10
158.7463150793409
 20
143.2092687007094
 10
158.7463150793409
 20
143.2092687007094
 10
153.9038856707499
 20
127.8027915271048
 10
153.9038856707499
 20
127.8027915271048
 10
153.9038856707499
 20
127.8027915271048
 10
151.3882752878863
 20
127.8027915271048
 10
151.3882752878863
 20
127.8027915271048
 10
151.3882752878863
 20
127.8027915271048
 10
155.6250565106276
 20
141.2751908193897
 10
155.6250565106276
 20
141.2751908193897
 10
156.5094131050963
 20
144.0936252951782
 10
157.109893644309
 20
146.1506931664571
 10
157.4220195011804
 20
147.4415712963654
 10
157.8095929989511
 20
149.0530157726519
 10
157.9656559273867
 20
149.5826995529385
 10
157.7816877071116
 20
150.7529992613181
 10
157.6111553680925
 20
151.8430281919372
 10
157.0582171779396
 20
152.5547853887321
 10
156.1170164704645
 20
152.5547853887321
 10
155.1096698860365
 20
152.5547853887321
 10
154.2962823053817
 20
152.4412694176073
 10
153.156643967048
 20
151.2945686288697
 10
152.0170056287143
 20
150.1476955852443
 10
151.076149431015
 20
148.7930831468137
 10
150.3337308641742
 20
147.2290087646991
 10
149.5957909244188
 20
145.6683794803425
 10
148.8530278478023
 20
143.6822806228776
 10
148.0964843801539
 20
141.2751908193897
 10
148.0964843801539
 20
141.2751908193897
 10
143.8552245303272
 20
127.8027915271048
 10
143.8552245303272
 20
127.8027915271048
 10
143.8552245303272
 20
127.8027915271048
 10
141.486030802177
 20
127.8027915271048
 10
141.486030802177
 20
127.8027915271048
 10
141.486030802177
 20
127.8027915271048
 10
146.3329388378533
 20
143.2092687007094
 10
146.3329388378533
 20
143.2092687007094
 10
146.8483254624444
 20
144.8408669988801
 10
147.2314203331297
 20
146.1837661049335
 10
147.4867020769946
 20
147.224185627838
 10
147.9169947869641
 20
149.0197705792876
 10
148.0306830129768
 20
150.2400242051577
 10
147.709255392159
 20
151.3157559800812
 10
147.3874832615654
 20
152.3916600098926
 10
146.8245542879144
 20
152.6683013598569
 10
145.8840425999909
 20
152.6683013598569
 10
145.0989048209514
 20
152.6683013598569
 10
144.3282364524954
 20
152.3275811915945
 10
143.4531816219731
 20
151.6538923250251
 10
142.34627171234
 20
150.8074318058939
 10
141.901854101563
 20
150.1097995099067
 10
141.3578731655808
 20
149.289521733736
 10
140.6299240093235
 20
148.192602607601
 10
140.2850697237515
 20
147.455696197173
 10
139.6652966370942
 20
145.8385673095858
 10
139.0506911970739
 20
144.2214384219986
 10
138.463991048893
 20
142.3252566160164
 10
138.0571250036777
 20
141.0154304484394
 10
138.0571250036777
 20
141.0154304484394
 10
133.9009590684727
 20
127.8027915271048
 10
133.9009590684727
 20
127.8027915271048
 10
133.9009590684727
 20
127.8027915271048
 10
131.4180771143097
 20
127.8027915271048
 10
131.4180771143097
 20
127.8027915271048
 10
131.4180771143097
 20
127.8027915271048
 10
139.8926730891197
 20
154.8294111834263
 10
139.8926730891197
 20
154.8294111834263
 97
        0
 75
     2
 76
     1
 98
        0
  0
SPLINE
  5
3C5
330
3BD
100
AcDbEntity
  8
レイヤー 1
370
     0
100
AcDbSpline
210
0.0
220
0.0
230
1.0
 70
    11
 71
     3
 72
    29
 73
    25
 74
     0
 42
0.000000001
 43
0.0000000001
 40
0.0
 40
0.0
 40
0.0
 40
0.0
 40
1.0
 40
1.0
 40
1.0
 40
2.0
 40
2.0
 40
2.0
 40
3.0
 40
3.0
 40
3.0
 40
4.0
 40
4.0
 40
4.0
 40
5.0
 40
5.0
 40
5.0
 40
6.0
 40
6.0
 40
6.0
 40
7.0
 40
7.0
 40
7.0
 40
8.0
 40
8.0
 40
8.0
 40
8.0
 10
101.6420971922469
 20
132.8388354296931
 30
0.0
 10
101.630039350094
 20
134.7164137077823
 30
0.0
 10
102.2236296937908
 20
138.0598810818841
 30
0.0
 10
103.7487744712405
 20
142.5378191476827
 30
0.0
 10
105.819967243327
 20
148.5896501242061
 30
0.0
 10
107.0602024361932
 20
150.8074318058939
 30
0.0
 10
108.1522984254671
 20
151.8833358357054
 30
0.0
 10
109.741177511439
 20
153.4532668840085
 30
0.0
 10
111.8740375333931
 20
153.5290590346837
 30
0.0
 10
112.5075910110823
 20
153.4532668840085
 30
0.0
 10
113.4012493694975
 20
153.3490526768302
 30
0.0
 10
114.6683563248758
 20
152.7580461564518
 30
0.0
 10
114.7493161221879
 20
150.7838328862519
 30
0.0
 10
114.8106388622796
 20
149.0909118479895
 30
0.0
 10
114.3186789024427
 20
145.9191825971221
 30
0.0
 10
112.6164561002338
 20
140.9489400617108
 30
0.0
 10
110.6444821435766
 20
135.1746117095912
 30
0.0
 10
109.4669477299053
 20
132.8960240524753
 30
0.0
 10
108.5212683953448
 20
131.9072809959403
 30
0.0
 10
106.7346406980658
 20
130.0538184021569
 30
0.0
 10
104.8222669326213
 20
130.2336525051225
 30
0.0
 10
104.5408024457958
 20
130.2336525051225
 30
0.0
 10
104.1721769856939
 20
130.2336525051225
 30
0.0
 10
101.6465758193322
 20
130.6305277668397
 30
0.0
 10
101.6420971922469
 20
132.8388354296931
 30
0.0
  0
SPLINE
  5
3C6
330
3BD
100
AcDbEntity
  8
レイヤー 1
370
     0
100
AcDbSpline
210
0.0
220
0.0
230
1.0
 70
    11
 71
     3
 72
    32
 73
    28
 74
     0
 42
0.000000001
 43
0.0000000001
 40
0.0
 40
0.0
 40
0.0
 40
0.0
 40
1.0
 40
1.0
 40
1.0
 40
2.0
 40
2.0
 40
2.0
 40
3.0
 40
3.0
 40
3.0
 40
4.0
 40
4.0
 40
4.0
 40
5.0
 40
5.0
 40
5.0
 40
6.0
 40
6.0
 40
6.0
 40
7.0
 40
7.0
 40
7.0
 40
8.0
 40
8.0
 40
8.0
 40
9.0
 40
9.0
 40
9.0
 40
9.0
 10
106.2595617172429
 20
153.4105476718098
 30
0.0
 10
104.8222669326213
 20
151.5474388043041
 30
0.0
 10
103.7177685914188
 20
149.8758773721411
 30
0.0
 10
101.9232171692965
 20
144.6141795664062
 30
0.0
 10
100.2754269116635
 20
139.7999999594306
 30
0.0
 10
99.22777268346732
 20
136.3052927937542
 30
0.0
 10
99.06964269637689
 20
132.039572749846
 30
0.0
 10
98.94665270641765
 20
128.8673267343149
 30
0.0
 10
100.8807305877373
 20
127.8027915271048
 30
0.0
 10
103.7129454545577
 20
127.8027915271048
 30
0.0
 10
104.9352661390825
 20
127.8027915271048
 30
0.0
 10
108.0151835347002
 20
127.8827177950895
 30
0.0
 10
110.2045431598849
 20
130.5926316915021
 30
0.0
 10
111.7417457794874
 20
132.4984597712065
 30
0.0
 10
113.155269389579
 20
134.475256864725
 30
0.0
 10
115.0562743324223
 20
140.9489400617108
 30
0.0
 10
116.6361961642235
 20
146.3680788349845
 30
0.0
 10
117.7282921534974
 20
149.8639917848761
 30
0.0
 10
117.6480213757369
 20
151.8595646611754
 30
0.0
 10
117.6480213757369
 20
151.8595646611754
 30
0.0
 10
117.6480213757369
 20
151.8595646611754
 30
0.0
 10
117.6480213757369
 20
151.8595646611754
 30
0.0
 10
117.13229024137
 20
155.18150017429
 30
0.0
 10
114.7162431837115
 20
155.886194920681
 30
0.0
 10
113.3351034925446
 20
155.886194920681
 30
0.0
 10
111.9829026225447
 20
155.886194920681
 30
0.0
 10
108.3414342923792
 20
156.1251124501957
 30
0.0
 10
106.2595617172429
 20
153.4105476718098
 30
0.0
  0
HATCH
  5
3C7
330
3BD
100
AcDbEntity
  8
レイヤー 1
 62
   250
420
  2234388
100
AcDbHatch
 10
0.0
 20
0.0
 30
0.0
210
0.0
220
0.0
230
1.0
  2
SOLID
 70
     1
 71
     0
 91
        2
 92
        1
 93
        1
 72
     4
 94
        3
 73
     0
 74
     1
 95
       29
 96
       25
 40
0.0
 40
0.0
 40
0.0
 40
0.0
 40
1.0
 40
1.0
 40
1.0
 40
2.0
 40
2.0
 40
2.0
 40
3.0
 40
3.0
 40
3.0
 40
4.0
 40
4.0
 40
4.0
 40
5.0
 40
5.0
 40
5.0
 40
6.0
 40
6.0
 40
6.0
 40
7.0
 40
7.0
 40
7.0
 40
8.0
 40
8.0
 40
8.0
 40
8.0
 10
101.6420971922469
 20
132.8388354296931
 10
101.630039350094
 20
134.7164137077823
 10
102.2236296937908
 20
138.0598810818841
 10
103.7487744712405
 20
142.5378191476827
 10
105.819967243327
 20
148.5896501242061
 10
107.0602024361932
 20
150.8074318058939
 10
108.1522984254671
 20
151.8833358357054
 10
109.741177511439
 20
153.4532668840085
 10
111.8740375333931
 20
153.5290590346837
 10
112.5075910110823
 20
153.4532668840085
 10
113.4012493694975
 20
153.3490526768302
 10
114.6683563248758
 20
152.7580461564518
 10
114.7493161221879
 20
150.7838328862519
 10
114.8106388622796
 20
149.0909118479895
 10
114.3186789024427
 20
145.9191825971221
 10
112.6164561002338
 20
140.9489400617108
 10
110.6444821435766
 20
135.1746117095912
 10
109.4669477299053
 20
132.8960240524753
 10
108.5212683953448
 20
131.9072809959403
 10
106.7346406980658
 20
130.0538184021569
 10
104.8222669326213
 20
130.2336525051225
 10
104.5408024457958
 20
130.2336525051225
 10
104.1721769856939
 20
130.2336525051225
 10
101.6465758193322
 20
130.6305277668397
 10
101.6420971922469
 20
132.8388354296931
 97
        0
 92
        1
 93
        1
 72
     4
 94
        3
 73
     0
 74
     1
 95
       32
 96
       28
 40
0.0
 40
0.0
 40
0.0
 40
0.0
 40
1.0
 40
1.0
 40
1.0
 40
2.0
 40
2.0
 40
2.0
 40
3.0
 40
3.0
 40
3.0
 40
4.0
 40
4.0
 40
4.0
 40
5.0
 40
5.0
 40
5.0
 40
6.0
 40
6.0
 40
6.0
 40
7.0
 40
7.0
 40
7.0
 40
8.0
 40
8.0
 40
8.0
 40
9.0
 40
9.0
 40
9.0
 40
9.0
 10
106.2595617172429
 20
153.4105476718098
 10
104.8222669326213
 20
151.5474388043041
 10
103.7177685914188
 20
149.8758773721411
 10
101.9232171692965
 20
144.6141795664062
 10
100.2754269116635
 20
139.7999999594306
 10
99.22777268346732
 20
136.3052927937542
 10
99.06964269637689
 20
132.039572749846
 10
98.94665270641765
 20
128.8673267343149
 10
100.8807305877373
 20
127.8027915271048
 10
103.7129454545577
 20
127.8027915271048
 10
104.9352661390825
 20
127.8027915271048
 10
108.0151835347002
 20
127.8827177950895
 10
110.2045431598849
 20
130.5926316915021
 10
111.7417457794874
 20
132.4984597712065
 10
113.155269389579
 20
134.475256864725
 10
115.0562743324223
 20
140.9489400617108
 10
116.6361961642235
 20
146.3680788349845
 10
117.7282921534974
 20
149.8639917848761
 10
117.6480213757369
 20
151.8595646611754
 10
117.6480213757369
 20
151.8595646611754
 10
117.6480213757369
 20
151.8595646611754
 10
117.6480213757369
 20
151.8595646611754
 10
117.13229024137
 20
155.18150017429
 10
114.7162431837115
 20
155.886194920681
 10
113.3351034925446
 20
155.886194920681
 10
111.9829026225447
 20
155.886194920681
 10
108.3414342923792
 20
156.1251124501957
 10
106.2595617172429
 20
153.4105476718098
 97
        0
 75
     2
 76
     1
 98
        0
  0
ENDBLK
  5
3C8
330
3BD
100
AcDbEntity
  8
0
100
AcDbBlockEnd
  0
BLOCK
  5
11F1
330
11F0
100
AcDbEntity
  8
0
100
AcDbBlockBegin
  2
BLOCK_2
 70
     0
 10
0.0
 20
0.0
 30
0.0
  3
BLOCK_2
  1
BLOCK_2
  0
ENDBLK
  5
11F2
330
11F0
100
AcDbEntity
  8
0
100
AcDbBlockEnd
  0
BLOCK
  5
38B7
330
38B6
100
AcDbEntity
  8
0
100
AcDbBlockBegin
  2
mobile_latù
 70
     0
 10
0.0
 20
0.0
 30
0.0
  3
mobile_latù
  1
mobile_latù
  0
ENDBLK
  5
38B8
330
38B6
100
AcDbEntity
  8
0
100
AcDbBlockEnd
  0
BLOCK
  5
503A
330
5039
100
AcDbEntity
  8
0
100
AcDbBlockBegin
  2
.TD_SECTION_1
 70
     0
 10
225818116096.0
 20
0.0
 30
0.0
  3
.TD_SECTION_1
  1

  0
ENDBLK
  5
503B
330
5039
100
AcDbEntity
  8
0
100
AcDbBlockEnd
  0
BLOCK
  5
503E
330
503D
100
AcDbEntity
  8
0
100
AcDbBlockBegin
  2
.TD_SECTION_2
 70
     0
 10
225818181632.0
 20
0.0
 30
0.0
  3
.TD_SECTION_2
  1

  0
ENDBLK
  5
503F
330
503D
100
AcDbEntity
  8
0
100
AcDbBlockEnd
  0
BLOCK
  5
5AF4
330
5AF3
100
AcDbEntity
  8
0
100
AcDbBlockBegin
  2
*D117
 70
     1
 10
0.0
 20
0.0
 30
0.0
  3
*D117
  1

  0
LINE
  5
5AF6
330
5AF3
100
AcDbEntity
  8
Dim
 62
     0
370
    -2
100
AcDbLine
 10
326.7580133789443
 20
1442.784259260894
 30
0.0
 11
290.8739970844827
 21
1442.784259260894
 31
0.0
  0
LINE
  5
5AF7
330
5AF3
100
AcDbEntity
  8
Dim
 62
     0
370
    -2
100
AcDbLine
 10
398.4052919035144
 20
892.7842592607765
 30
0.0
 11
290.8739970844827
 21
892.7842592607765
 31
0.0
  0
LINE
  5
5AF8
330
5AF3
100
AcDbEntity
  8
Dim
 62
     0
370
    -2
100
AcDbLine
 10
290.8739970844827
 20
1432.784869612457
 30
0.0
 11
290.8739970844827
 21
902.783648909214
 31
0.0
  0
INSERT
  5
5AF9
330
5AF3
100
AcDbEntity
  8
Dim
 62
     0
370
    -2
100
AcDbBlockReference
  2
_DOT
 10
290.8739970844827
 20
1442.784259260894
 30
0.0
 41
9.999389648437498
 42
9.999389648437498
 43
9.999389648437498
 50
90.0
  0
INSERT
  5
5AFA
330
5AF3
100
AcDbEntity
  8
Dim
 62
     0
370
    -2
100
AcDbBlockReference
  2
_DOT
 10
290.8739970844827
 20
892.7842592607765
 30
0.0
 41
9.999389648437498
 42
9.999389648437498
 43
9.999389648437498
 50
270.0
  0
MTEXT
  5
5AFB
330
5AF3
100
AcDbEntity
  8
Dim
 62
     0
100
AcDbMText
 10
268.6576884907327
 20
1167.784259260835
 30
0.0
 40
24.4326171875
 41
0.0
 46
0.0
 71
     5
 72
     1
  1
\A1;550
  7
ＭＳ ゴシック
 11
1.033516706559925E-16
 21
1.0
 31
0.0
 73
     1
 44
1.0
  0
POINT
  5
5AFC
330
5AF3
100
AcDbEntity
  8
Defpoints
 62
     0
100
AcDbPoint
 10
351.7580133789443
 20
1442.784259260894
 30
0.0
  0
POINT
  5
5BB4
330
5AF3
100
AcDbEntity
  8
Defpoints
 62
     0
100
AcDbPoint
 10
423.4052919035144
 20
892.7842592607765
 30
0.0
  0
POINT
  5
5BB5
330
5AF3
100
AcDbEntity
  8
Defpoints
 62
     0
100
AcDbPoint
 10
290.8739970844827
 20
892.7842592607765
 30
0.0
  0
ENDBLK
  5
5AF5
330
5AF3
100
AcDbEntity
  8
0
100
AcDbBlockEnd
  0
BLOCK
  5
5B1C
330
5B1B
100
AcDbEntity
  8
0
100
AcDbBlockBegin
  2
*D121
 70
     1
 10
0.0
 20
0.0
 30
0.0
  3
*D121
  1

  0
LINE
  5
5B1E
330
5B1B
100
AcDbEntity
  8
Dim
 62
     0
370
    -2
100
AcDbLine
 10
341.5413309632072
 20
542.7842592608201
 30
0.0
 11
151.6588165869105
 21
542.7842592608201
 31
0.0
  0
LINE
  5
5B1F
330
5B1B
100
AcDbEntity
  8
Dim
 62
     0
370
    -2
100
AcDbLine
 10
341.5413309632072
 20
1792.784259260821
 30
0.0
 11
151.6588165869105
 21
1792.784259260821
 31
0.0
  0
LINE
  5
5B20
330
5B1B
100
AcDbEntity
  8
Dim
 62
     0
370
    -2
100
AcDbLine
 10
151.6588165869105
 20
552.7836489092576
 30
0.0
 11
151.6588165869105
 21
1782.784869612384
 31
0.0
  0
INSERT
  5
5B21
330
5B1B
100
AcDbEntity
  8
Dim
 62
     0
370
    -2
100
AcDbBlockReference
  2
_DOT
 10
151.6588165869105
 20
542.7842592608201
 30
0.0
 41
9.999389648437498
 42
9.999389648437498
 43
9.999389648437498
 50
270.0
  0
INSERT
  5
5B22
330
5B1B
100
AcDbEntity
  8
Dim
 62
     0
370
    -2
100
AcDbBlockReference
  2
_DOT
 10
151.6588165869105
 20
1792.784259260821
 30
0.0
 41
9.999389648437498
 42
9.999389648437498
 43
9.999389648437498
 50
90.0
  0
MTEXT
  5
5B23
330
5B1B
100
AcDbEntity
  8
Dim
 62
     0
100
AcDbMText
 10
129.4425079931605
 20
1167.176901292777
 30
0.0
 40
24.4326171875
 41
0.0
 46
0.0
 71
     5
 72
     1
  1
\A1;1250
  7
ＭＳ ゴシック
 11
6.821210263296956E-17
 21
1.0
 31
0.0
 73
     1
 44
1.0
  0
POINT
  5
5B24
330
5B1B
100
AcDbEntity
  8
Defpoints
 62
     0
100
AcDbPoint
 10
366.5413309632072
 20
542.7842592608201
 30
0.0
  0
POINT
  5
5BBC
330
5B1B
100
AcDbEntity
  8
Defpoints
 62
     0
100
AcDbPoint
 10
366.5413309632072
 20
1792.784259260821
 30
0.0
  0
POINT
  5
5BBD
330
5B1B
100
AcDbEntity
  8
Defpoints
 62
     0
100
AcDbPoint
 10
151.6588165869105
 20
1792.784259260821
 30
0.0
  0
ENDBLK
  5
5B1D
330
5B1B
100
AcDbEntity
  8
0
100
AcDbBlockEnd
  0
BLOCK
  5
5B8A
330
5B89
100
AcDbEntity
  8
0
100
AcDbBlockBegin
  2
*D132
 70
     1
 10
0.0
 20
0.0
 30
0.0
  3
*D132
  1

  0
LINE
  5
5B8C
330
5B89
100
AcDbEntity
  8
Dim
 62
     0
370
    -2
100
AcDbLine
 10
398.4052919035144
 20
692.7842592607765
 30
0.0
 11
290.8739970844827
 21
692.7842592607765
 31
0.0
  0
LINE
  5
5B8D
330
5B89
100
AcDbEntity
  8
Dim
 62
     0
370
    -2
100
AcDbLine
 10
398.4052919035144
 20
792.7842592607765
 30
0.0
 11
290.8739970844827
 21
792.7842592607765
 31
0.0
  0
LINE
  5
5B8E
330
5B89
100
AcDbEntity
  8
Dim
 62
     0
370
    -2
100
AcDbLine
 10
290.8739970844827
 20
702.783648909214
 30
0.0
 11
290.8739970844827
 21
782.784869612339
 31
0.0
  0
INSERT
  5
5B8F
330
5B89
100
AcDbEntity
  8
Dim
 62
     0
370
    -2
100
AcDbBlockReference
  2
_DOT
 10
290.8739970844827
 20
692.7842592607765
 30
0.0
 41
9.999389648437498
 42
9.999389648437498
 43
9.999389648437498
 50
270.0
  0
INSERT
  5
5B90
330
5B89
100
AcDbEntity
  8
Dim
 62
     0
370
    -2
100
AcDbBlockReference
  2
_DOT
 10
290.8739970844827
 20
792.7842592607765
 30
0.0
 41
9.999389648437498
 42
9.999389648437498
 43
9.999389648437498
 50
90.0
  0
MTEXT
  5
5B91
330
5B89
100
AcDbEntity
  8
Dim
 62
     0
100
AcDbMText
 10
268.6576884907327
 20
742.7842592607765
 30
0.0
 40
24.4326171875
 41
0.0
 46
0.0
 71
     5
 72
     1
  1
\A1;100
  7
ＭＳ ゴシック
 11
0.0
 21
1.0
 31
0.0
 73
     1
 44
1.0
  0
POINT
  5
5B92
330
5B89
100
AcDbEntity
  8
Defpoints
 62
     0
100
AcDbPoint
 10
423.4052919035144
 20
692.7842592607765
 30
0.0
  0
POINT
  5
5BD0
330
5B89
100
AcDbEntity
  8
Defpoints
 62
     0
100
AcDbPoint
 10
423.4052919035144
 20
792.7842592607765
 30
0.0
  0
POINT
  5
5BD1
330
5B89
100
AcDbEntity
  8
Defpoints
 62
     0
100
AcDbPoint
 10
290.8739970844827
 20
792.7842592607765
 30
0.0
  0
ENDBLK
  5
5B8B
330
5B89
100
AcDbEntity
  8
0
100
AcDbBlockEnd
  0
BLOCK
  5
5B94
330
5B93
100
AcDbEntity
  8
0
100
AcDbBlockBegin
  2
*D133
 70
     1
 10
0.0
 20
0.0
 30
0.0
  3
*D133
  1

  0
LINE
  5
5B96
330
5B93
100
AcDbEntity
  8
Dim
 62
     0
370
    -2
100
AcDbLine
 10
398.4052919035144
 20
792.7842592607765
 30
0.0
 11
290.8739970844827
 21
792.7842592607765
 31
0.0
  0
LINE
  5
5B97
330
5B93
100
AcDbEntity
  8
Dim
 62
     0
370
    -2
100
AcDbLine
 10
398.4052919035144
 20
892.7842592607765
 30
0.0
 11
290.8739970844827
 21
892.7842592607765
 31
0.0
  0
LINE
  5
5B98
330
5B93
100
AcDbEntity
  8
Dim
 62
     0
370
    -2
100
AcDbLine
 10
290.8739970844827
 20
802.783648909214
 30
0.0
 11
290.8739970844827
 21
882.784869612339
 31
0.0
  0
INSERT
  5
5B99
330
5B93
100
AcDbEntity
  8
Dim
 62
     0
370
    -2
100
AcDbBlockReference
  2
_DOT
 10
290.8739970844827
 20
792.7842592607765
 30
0.0
 41
9.999389648437498
 42
9.999389648437498
 43
9.999389648437498
 50
270.0
  0
INSERT
  5
5B9A
330
5B93
100
AcDbEntity
  8
Dim
 62
     0
370
    -2
100
AcDbBlockReference
  2
_DOT
 10
290.8739970844827
 20
892.7842592607765
 30
0.0
 41
9.999389648437498
 42
9.999389648437498
 43
9.999389648437498
 50
90.0
  0
MTEXT
  5
5B9B
330
5B93
100
AcDbEntity
  8
Dim
 62
     0
100
AcDbMText
 10
268.6576884907327
 20
842.7842592607765
 30
0.0
 40
24.4326171875
 41
0.0
 46
0.0
 71
     5
 72
     1
  1
\A1;100
  7
ＭＳ ゴシック
 11
0.0
 21
1.0
 31
0.0
 73
     1
 44
1.0
  0
POINT
  5
5B9C
330
5B93
100
AcDbEntity
  8
Defpoints
 62
     0
100
AcDbPoint
 10
423.4052919035144
 20
792.7842592607765
 30
0.0
  0
POINT
  5
5BD2
330
5B93
100
AcDbEntity
  8
Defpoints
 62
     0
100
AcDbPoint
 10
423.4052919035144
 20
892.7842592607765
 30
0.0
  0
POINT
  5
5BD3
330
5B93
100
AcDbEntity
  8
Defpoints
 62
     0
100
AcDbPoint
 10
290.8739970844827
 20
892.7842592607765
 30
0.0
  0
ENDBLK
  5
5B95
330
5B93
100
AcDbEntity
  8
0
100
AcDbBlockEnd
  0
BLOCK
  5
5B9E
330
5B9D
100
AcDbEntity
  8
0
100
AcDbBlockBegin
  2
*D134
 70
     1
 10
0.0
 20
0.0
 30
0.0
  3
*D134
  1

  0
LINE
  5
5BA0
330
5B9D
100
AcDbEntity
  8
Dim
 62
     0
370
    -2
100
AcDbLine
 10
398.4052919035144
 20
1642.784259260893
 30
0.0
 11
290.8739970844828
 21
1642.784259260893
 31
0.0
  0
LINE
  5
5BA1
330
5B9D
100
AcDbEntity
  8
Dim
 62
     0
370
    -2
100
AcDbLine
 10
398.4052919035144
 20
1542.784259260893
 30
0.0
 11
290.8739970844827
 21
1542.784259260893
 31
0.0
  0
LINE
  5
5BA2
330
5B9D
100
AcDbEntity
  8
Dim
 62
     0
370
    -2
100
AcDbLine
 10
290.8739970844828
 20
1632.784869612455
 30
0.0
 11
290.8739970844827
 21
1552.78364890933
 31
0.0
  0
INSERT
  5
5BA3
330
5B9D
100
AcDbEntity
  8
Dim
 62
     0
370
    -2
100
AcDbBlockReference
  2
_DOT
 10
290.8739970844828
 20
1642.784259260893
 30
0.0
 41
9.999389648437498
 42
9.999389648437498
 43
9.999389648437498
 50
89.99999999999997
  0
INSERT
  5
5BA4
330
5B9D
100
AcDbEntity
  8
Dim
 62
     0
370
    -2
100
AcDbBlockReference
  2
_DOT
 10
290.8739970844827
 20
1542.784259260893
 30
0.0
 41
9.999389648437498
 42
9.999389648437498
 43
9.999389648437498
 50
269.9999999999999
  0
MTEXT
  5
5BA5
330
5B9D
100
AcDbEntity
  8
Dim
 62
     0
100
AcDbMText
 10
268.6576884907328
 20
1592.784259260893
 30
0.0
 40
24.4326171875
 41
0.0
 46
0.0
 71
     5
 72
     1
  1
\A1;100
  7
ＭＳ ゴシック
 11
5.684341886080802E-16
 21
1.0
 31
0.0
 73
     1
 44
1.0
  0
POINT
  5
5BA6
330
5B9D
100
AcDbEntity
  8
Defpoints
 62
     0
100
AcDbPoint
 10
423.4052919035144
 20
1642.784259260893
 30
0.0
  0
POINT
  5
5BD4
330
5B9D
100
AcDbEntity
  8
Defpoints
 62
     0
100
AcDbPoint
 10
423.4052919035144
 20
1542.784259260893
 30
0.0
  0
POINT
  5
5BD5
330
5B9D
100
AcDbEntity
  8
Defpoints
 62
     0
100
AcDbPoint
 10
290.8739970844827
 20
1542.784259260893
 30
0.0
  0
ENDBLK
  5
5B9F
330
5B9D
100
AcDbEntity
  8
0
100
AcDbBlockEnd
  0
BLOCK
  5
5BA8
330
5BA7
100
AcDbEntity
  8
0
100
AcDbBlockBegin
  2
*D135
 70
     1
 10
0.0
 20
0.0
 30
0.0
  3
*D135
  1

  0
LINE
  5
5BAA
330
5BA7
100
AcDbEntity
  8
Dim
 62
     0
370
    -2
100
AcDbLine
 10
398.4052919035144
 20
1542.784259260893
 30
0.0
 11
290.8739970844827
 21
1542.784259260893
 31
0.0
  0
LINE
  5
5BAB
330
5BA7
100
AcDbEntity
  8
Dim
 62
     0
370
    -2
100
AcDbLine
 10
398.4052919035144
 20
1442.784259260893
 30
0.0
 11
290.8739970844827
 21
1442.784259260893
 31
0.0
  0
LINE
  5
5BAC
330
5BA7
100
AcDbEntity
  8
Dim
 62
     0
370
    -2
100
AcDbLine
 10
290.8739970844827
 20
1532.784869612455
 30
0.0
 11
290.8739970844827
 21
1452.78364890933
 31
0.0
  0
INSERT
  5
5BAD
330
5BA7
100
AcDbEntity
  8
Dim
 62
     0
370
    -2
100
AcDbBlockReference
  2
_DOT
 10
290.8739970844827
 20
1542.784259260893
 30
0.0
 41
9.999389648437498
 42
9.999389648437498
 43
9.999389648437498
 50
89.99999999999997
  0
INSERT
  5
5BAE
330
5BA7
100
AcDbEntity
  8
Dim
 62
     0
370
    -2
100
AcDbBlockReference
  2
_DOT
 10
290.8739970844827
 20
1442.784259260893
 30
0.0
 41
9.999389648437498
 42
9.999389648437498
 43
9.999389648437498
 50
269.9999999999999
  0
MTEXT
  5
5BAF
330
5BA7
100
AcDbEntity
  8
Dim
 62
     0
100
AcDbMText
 10
268.6576884907327
 20
1492.784259260893
 30
0.0
 40
24.4326171875
 41
0.0
 46
0.0
 71
     5
 72
     1
  1
\A1;100
  7
ＭＳ ゴシック
 11
5.684341886080802E-16
 21
1.0
 31
0.0
 73
     1
 44
1.0
  0
POINT
  5
5BB0
330
5BA7
100
AcDbEntity
  8
Defpoints
 62
     0
100
AcDbPoint
 10
423.4052919035144
 20
1542.784259260893
 30
0.0
  0
POINT
  5
5BD6
330
5BA7
100
AcDbEntity
  8
Defpoints
 62
     0
100
AcDbPoint
 10
423.4052919035144
 20
1442.784259260893
 30
0.0
  0
POINT
  5
5BD7
330
5BA7
100
AcDbEntity
  8
Defpoints
 62
     0
100
AcDbPoint
 10
290.8739970844827
 20
1442.784259260893
 30
0.0
  0
ENDBLK
  5
5BA9
330
5BA7
100
AcDbEntity
  8
0
100
AcDbBlockEnd
  0
BLOCK
  5
5CC6
330
5CC5
100
AcDbEntity
  8
0
100
AcDbBlockBegin
  2
*D148
 70
     1
 10
0.0
 20
0.0
 30
0.0
  3
*D148
  1

  0
LINE
  5
5CC8
330
5CC5
100
AcDbEntity
  8
Dim
 62
     0
370
    -2
100
AcDbLine
 10
370.3471484032962
 20
530.7201166650625
 30
0.0
 11
370.3471484032962
 21
439.9641897915029
 31
0.0
  0
LINE
  5
5CC9
330
5CC5
100
AcDbEntity
  8
Dim
 62
     0
370
    -2
100
AcDbLine
 10
500.3471482818331
 20
517.7842592608347
 30
0.0
 11
500.3471482818331
 21
439.9641897915013
 31
0.0
  0
LINE
  5
5CCA
330
5CC5
100
AcDbEntity
  8
Dim
 62
     0
370
    -2
100
AcDbLine
 10
380.3465380517337
 20
439.9641897915028
 30
0.0
 11
490.3477586333956
 21
439.9641897915014
 31
0.0
  0
INSERT
  5
5CCB
330
5CC5
100
AcDbEntity
  8
Dim
 62
     0
370
    -2
100
AcDbBlockReference
  2
_DOT
 10
370.3471484032962
 20
439.9641897915029
 30
0.0
 41
9.999389648437498
 42
9.999389648437498
 43
9.999389648437498
 50
179.9999999999993
  0
INSERT
  5
5CCC
330
5CC5
100
AcDbEntity
  8
Dim
 62
     0
370
    -2
100
AcDbBlockReference
  2
_DOT
 10
500.3471482818331
 20
439.9641897915013
 30
0.0
 41
9.999389648437498
 42
9.999389648437498
 43
9.999389648437498
 50
359.9999999999993
  0
MTEXT
  5
5CCD
330
5CC5
100
AcDbEntity
  8
Dim
 62
     0
100
AcDbMText
 10
435.3471483425649
 20
462.1804983852521
 30
0.0
 40
24.4326171875
 41
0.0
 46
0.0
 71
     5
 72
     1
  1
\A1;130
  7
ＭＳ ゴシック
 73
     1
 44
1.0
  0
POINT
  5
5CCE
330
5CC5
100
AcDbEntity
  8
Defpoints
 62
     0
100
AcDbPoint
 10
370.3471484032962
 20
555.7201166650625
 30
0.0
  0
POINT
  5
5CCF
330
5CC5
100
AcDbEntity
  8
Defpoints
 62
     0
100
AcDbPoint
 10
500.3471482818331
 20
542.7842592608347
 30
0.0
  0
POINT
  5
5CD0
330
5CC5
100
AcDbEntity
  8
Defpoints
 62
     0
100
AcDbPoint
 10
500.3471482818331
 20
439.9641897915013
 30
0.0
  0
ENDBLK
  5
5CC7
330
5CC5
100
AcDbEntity
  8
0
100
AcDbBlockEnd
  0
BLOCK
  5
5CDF
330
5CDE
100
AcDbEntity
  8
0
100
AcDbBlockBegin
  2
*D150
 70
     1
 10
0.0
 20
0.0
 30
0.0
  3
*D150
  1

  0
LINE
  5
5CE1
330
5CDE
100
AcDbEntity
  8
Dim
 62
     0
370
    -2
100
AcDbLine
 10
913.9491037220082
 20
1783.784259260835
 30
0.0
 11
1005.982982290074
 21
1783.784259260835
 31
0.0
  0
LINE
  5
5CE2
330
5CDE
100
AcDbEntity
  8
Dim
 62
     0
370
    -2
100
AcDbLine
 10
913.9491037220073
 20
1298.784259260835
 30
0.0
 11
1005.982982290074
 21
1298.784259260835
 31
0.0
  0
LINE
  5
5CE3
330
5CDE
100
AcDbEntity
  8
Dim
 62
     0
370
    -2
100
AcDbLine
 10
1005.982982290074
 20
1773.784869612398
 30
0.0
 11
1005.982982290074
 21
1308.783648909273
 31
0.0
  0
INSERT
  5
5CE4
330
5CDE
100
AcDbEntity
  8
Dim
 62
     0
370
    -2
100
AcDbBlockReference
  2
_DOT
 10
1005.982982290074
 20
1783.784259260835
 30
0.0
 41
9.999389648437498
 42
9.999389648437498
 43
9.999389648437498
 50
90.0
  0
INSERT
  5
5CE5
330
5CDE
100
AcDbEntity
  8
Dim
 62
     0
370
    -2
100
AcDbBlockReference
  2
_DOT
 10
1005.982982290074
 20
1298.784259260835
 30
0.0
 41
9.999389648437498
 42
9.999389648437498
 43
9.999389648437498
 50
270.0
  0
MTEXT
  5
5CE6
330
5CDE
100
AcDbEntity
  8
Dim
 62
     0
100
AcDbMText
 10
983.7666736963242
 20
1541.284259260835
 30
0.0
 40
24.4326171875
 41
0.0
 46
0.0
 71
     5
 72
     1
  1
\A1;485
  7
ＭＳ ゴシック
 11
0.0
 21
1.0
 31
0.0
 73
     1
 44
1.0
  0
POINT
  5
5CE7
330
5CDE
100
AcDbEntity
  8
Defpoints
 62
     0
100
AcDbPoint
 10
888.9491037220082
 20
1783.784259260835
 30
0.0
  0
POINT
  5
5CE8
330
5CDE
100
AcDbEntity
  8
Defpoints
 62
     0
100
AcDbPoint
 10
888.9491037220073
 20
1298.784259260835
 30
0.0
  0
POINT
  5
5CE9
330
5CDE
100
AcDbEntity
  8
Defpoints
 62
     0
100
AcDbPoint
 10
1005.982982290074
 20
1298.784259260835
 30
0.0
  0
ENDBLK
  5
5CE0
330
5CDE
100
AcDbEntity
  8
0
100
AcDbBlockEnd
  0
BLOCK
  5
5CEE
330
5CED
100
AcDbEntity
  8
0
100
AcDbBlockBegin
  2
*D151
 70
     1
 10
0.0
 20
0.0
 30
0.0
  3
*D151
  1

  0
LINE
  5
5CF0
330
5CED
100
AcDbEntity
  8
Dim
 62
     0
370
    -2
100
AcDbLine
 10
913.9491037220073
 20
1298.784259260835
 30
0.0
 11
1005.982982290074
 21
1298.784259260835
 31
0.0
  0
LINE
  5
5CF1
330
5CED
100
AcDbEntity
  8
Dim
 62
     0
370
    -2
100
AcDbLine
 10
913.9491037220073
 20
1038.784259260835
 30
0.0
 11
1005.982982290074
 21
1038.784259260835
 31
0.0
  0
LINE
  5
5CF2
330
5CED
100
AcDbEntity
  8
Dim
 62
     0
370
    -2
100
AcDbLine
 10
1005.982982290074
 20
1288.784869612398
 30
0.0
 11
1005.982982290074
 21
1048.783648909273
 31
0.0
  0
INSERT
  5
5CF3
330
5CED
100
AcDbEntity
  8
Dim
 62
     0
370
    -2
100
AcDbBlockReference
  2
_DOT
 10
1005.982982290074
 20
1298.784259260835
 30
0.0
 41
9.999389648437498
 42
9.999389648437498
 43
9.999389648437498
 50
90.0
  0
INSERT
  5
5CF4
330
5CED
100
AcDbEntity
  8
Dim
 62
     0
370
    -2
100
AcDbBlockReference
  2
_DOT
 10
1005.982982290074
 20
1038.784259260835
 30
0.0
 41
9.999389648437498
 42
9.999389648437498
 43
9.999389648437498
 50
270.0
  0
MTEXT
  5
5CF5
330
5CED
100
AcDbEntity
  8
Dim
 62
     0
100
AcDbMText
 10
983.7666736963242
 20
1168.784259260835
 30
0.0
 40
24.4326171875
 41
0.0
 46
0.0
 71
     5
 72
     1
  1
\A1;260
  7
ＭＳ ゴシック
 11
0.0
 21
1.0
 31
0.0
 73
     1
 44
1.0
  0
POINT
  5
5CF6
330
5CED
100
AcDbEntity
  8
Defpoints
 62
     0
100
AcDbPoint
 10
888.9491037220073
 20
1298.784259260835
 30
0.0
  0
POINT
  5
5CF7
330
5CED
100
AcDbEntity
  8
Defpoints
 62
     0
100
AcDbPoint
 10
888.9491037220073
 20
1038.784259260835
 30
0.0
  0
POINT
  5
5CF8
330
5CED
100
AcDbEntity
  8
Defpoints
 62
     0
100
AcDbPoint
 10
1005.982982290074
 20
1038.784259260835
 30
0.0
  0
ENDBLK
  5
5CEF
330
5CED
100
AcDbEntity
  8
0
100
AcDbBlockEnd
  0
BLOCK
  5
5CFD
330
5CFC
100
AcDbEntity
  8
0
100
AcDbBlockBegin
  2
*D152
 70
     1
 10
0.0
 20
0.0
 30
0.0
  3
*D152
  1

  0
LINE
  5
5CFF
330
5CFC
100
AcDbEntity
  8
Dim
 62
     0
370
    -2
100
AcDbLine
 10
913.9491037220073
 20
1038.784259260835
 30
0.0
 11
1005.982982290074
 21
1038.784259260835
 31
0.0
  0
LINE
  5
5D00
330
5CFC
100
AcDbEntity
  8
Dim
 62
     0
370
    -2
100
AcDbLine
 10
913.9491037220073
 20
553.7842592608351
 30
0.0
 11
1005.982982290074
 21
553.7842592608351
 31
0.0
  0
LINE
  5
5D01
330
5CFC
100
AcDbEntity
  8
Dim
 62
     0
370
    -2
100
AcDbLine
 10
1005.982982290074
 20
1028.784869612398
 30
0.0
 11
1005.982982290074
 21
563.7836489092726
 31
0.0
  0
INSERT
  5
5D02
330
5CFC
100
AcDbEntity
  8
Dim
 62
     0
370
    -2
100
AcDbBlockReference
  2
_DOT
 10
1005.982982290074
 20
1038.784259260835
 30
0.0
 41
9.999389648437498
 42
9.999389648437498
 43
9.999389648437498
 50
90.0
  0
INSERT
  5
5D03
330
5CFC
100
AcDbEntity
  8
Dim
 62
     0
370
    -2
100
AcDbBlockReference
  2
_DOT
 10
1005.982982290074
 20
553.7842592608351
 30
0.0
 41
9.999389648437498
 42
9.999389648437498
 43
9.999389648437498
 50
270.0
  0
MTEXT
  5
5D04
330
5CFC
100
AcDbEntity
  8
Dim
 62
     0
100
AcDbMText
 10
983.7666736963242
 20
796.2842592608351
 30
0.0
 40
24.4326171875
 41
0.0
 46
0.0
 71
     5
 72
     1
  1
\A1;485
  7
ＭＳ ゴシック
 11
0.0
 21
1.0
 31
0.0
 73
     1
 44
1.0
  0
POINT
  5
5D05
330
5CFC
100
AcDbEntity
  8
Defpoints
 62
     0
100
AcDbPoint
 10
888.9491037220073
 20
1038.784259260835
 30
0.0
  0
POINT
  5
5D06
330
5CFC
100
AcDbEntity
  8
Defpoints
 62
     0
100
AcDbPoint
 10
888.9491037220073
 20
553.7842592608351
 30
0.0
  0
POINT
  5
5D07
330
5CFC
100
AcDbEntity
  8
Defpoints
 62
     0
100
AcDbPoint
 10
1005.982982290074
 20
553.7842592608351
 30
0.0
  0
ENDBLK
  5
5CFE
330
5CFC
100
AcDbEntity
  8
0
100
AcDbBlockEnd
  0
BLOCK
  5
5DD7
330
5DD6
100
AcDbEntity
  8
0
100
AcDbBlockBegin
  2
*D153
 70
     1
 10
0.0
 20
0.0
 30
0.0
  3
*D153
  1

  0
LINE
  5
5DD9
330
5DD6
100
AcDbEntity
  8
Dim
 62
     0
370
    -2
100
AcDbLine
 10
1796.085716521989
 20
2634.85361144975
 30
0.0
 11
1896.72330010855
 21
2634.85361144975
 31
0.0
  0
LINE
  5
5DDA
330
5DD6
100
AcDbEntity
  8
Dim
 62
     0
370
    -2
100
AcDbLine
 10
1796.232152935478
 20
2407.853607056423
 30
0.0
 11
1896.723300108551
 21
2407.853607056424
 31
0.0
  0
LINE
  5
5DDB
330
5DD6
100
AcDbEntity
  8
Dim
 62
     0
370
    -2
100
AcDbLine
 10
1896.72330010855
 20
2624.854221801313
 30
0.0
 11
1896.723300108551
 21
2417.852996704861
 31
0.0
  0
INSERT
  5
5DDC
330
5DD6
100
AcDbEntity
  8
Dim
 62
     0
370
    -2
100
AcDbBlockReference
  2
_DOT
 10
1896.72330010855
 20
2634.85361144975
 30
0.0
 41
9.999389648437498
 42
9.999389648437498
 43
9.999389648437498
 50
90.00000000000021
  0
INSERT
  5
5DDD
330
5DD6
100
AcDbEntity
  8
Dim
 62
     0
370
    -2
100
AcDbBlockReference
  2
_DOT
 10
1896.723300108551
 20
2407.853607056424
 30
0.0
 41
9.999389648437498
 42
9.999389648437498
 43
9.999389648437498
 50
270.0000000000002
  0
MTEXT
  5
5DDE
330
5DD6
100
AcDbEntity
  8
Dim
 62
     0
100
AcDbMText
 10
1874.506991514801
 20
2521.353609253085
 30
0.0
 40
24.4326171875
 41
0.0
 46
0.0
 71
     5
 72
     1
  1
\A1;230
  7
ＭＳ ゴシック
 11
-4.006584511765175E-15
 21
1.0
 31
0.0
 73
     1
 44
1.0
  0
POINT
  5
5DDF
330
5DD6
100
AcDbEntity
  8
Defpoints
 62
     0
100
AcDbPoint
 10
1771.085716521989
 20
2634.85361144975
 30
0.0
  0
POINT
  5
5DE0
330
5DD6
100
AcDbEntity
  8
Defpoints
 62
     0
100
AcDbPoint
 10
1771.232152935478
 20
2407.853607056423
 30
0.0
  0
POINT
  5
5DE1
330
5DD6
100
AcDbEntity
  8
Defpoints
 62
     0
100
AcDbPoint
 10
1896.723300108551
 20
2407.853607056424
 30
0.0
  0
ENDBLK
  5
5DD8
330
5DD6
100
AcDbEntity
  8
0
100
AcDbBlockEnd
  0
BLOCK
  5
5DE3
330
5DE2
100
AcDbEntity
  8
0
100
AcDbBlockBegin
  2
*D154
 70
     1
 10
0.0
 20
0.0
 30
0.0
  3
*D154
  1

  0
LINE
  5
5DE5
330
5DE2
100
AcDbEntity
  8
Dim
 62
     0
370
    -2
100
AcDbLine
 10
1592.95859722592
 20
510.9054222726527
 30
0.0
 11
1592.95859722592
 21
435.7865022888482
 31
0.0
  0
LINE
  5
5DE6
330
5DE2
100
AcDbEntity
  8
Dim
 62
     0
370
    -2
100
AcDbLine
 10
1632.95859722592
 20
658.2847698847045
 30
0.0
 11
1632.95859722592
 21
435.7865022888482
 31
0.0
  0
LINE
  5
5DE7
330
5DE2
100
AcDbEntity
  8
Dim
 62
     0
370
    -2
100
AcDbLine
 10
1602.957986874357
 20
435.7865022888482
 30
0.0
 11
1622.959207577482
 21
435.7865022888482
 31
0.0
  0
INSERT
  5
5DE8
330
5DE2
100
AcDbEntity
  8
Dim
 62
     0
370
    -2
100
AcDbBlockReference
  2
_DOT
 10
1592.95859722592
 20
435.7865022888482
 30
0.0
 41
9.999389648437498
 42
9.999389648437498
 43
9.999389648437498
 50
180.0
  0
INSERT
  5
5DE9
330
5DE2
100
AcDbEntity
  8
Dim
 62
     0
370
    -2
100
AcDbBlockReference
  2
_DOT
 10
1632.95859722592
 20
435.7865022888482
 30
0.0
 41
9.999389648437498
 42
9.999389648437498
 43
9.999389648437498
  0
MTEXT
  5
5DEA
330
5DE2
100
AcDbEntity
  8
Dim
 62
     0
100
AcDbMText
 10
1612.958597225922
 20
458.0028108825982
 30
0.0
 40
24.4326171875
 41
0.0
 46
0.0
 71
     5
 72
     1
  1
\A1;40
  7
ＭＳ ゴシック
 73
     1
 44
1.0
  0
POINT
  5
5DEB
330
5DE2
100
AcDbEntity
  8
Defpoints
 62
     0
100
AcDbPoint
 10
1592.95859722592
 20
535.9054222726527
 30
0.0
  0
POINT
  5
5DEC
330
5DE2
100
AcDbEntity
  8
Defpoints
 62
     0
100
AcDbPoint
 10
1632.95859722592
 20
683.2847698847045
 30
0.0
  0
POINT
  5
5DED
330
5DE2
100
AcDbEntity
  8
Defpoints
 62
     0
100
AcDbPoint
 10
1632.95859722592
 20
435.7865022888482
 30
0.0
  0
ENDBLK
  5
5DE4
330
5DE2
100
AcDbEntity
  8
0
100
AcDbBlockEnd
  0
BLOCK
  5
5DEF
330
5DEE
100
AcDbEntity
  8
0
100
AcDbBlockBegin
  2
*D155
 70
     1
 10
0.0
 20
0.0
 30
0.0
  3
*D155
  1

  0
LINE
  5
5DF1
330
5DEE
100
AcDbEntity
  8
Dim
 62
     0
370
    -2
100
AcDbLine
 10
1592.958583760618
 20
2097.097640388225
 30
0.0
 11
1592.958583760618
 21
2058.235944788818
 31
0.0
  0
LINE
  5
5DF2
330
5DEE
100
AcDbEntity
  8
Dim
 62
     0
370
    -2
100
AcDbLine
 10
1677.958585056845
 20
2097.097640388225
 30
0.0
 11
1677.958585056845
 21
2058.235944788818
 31
0.0
  0
LINE
  5
5DF3
330
5DEE
100
AcDbEntity
  8
Dim
 62
     0
370
    -2
100
AcDbLine
 10
1602.957973409055
 20
2058.235944788818
 30
0.0
 11
1667.959195408407
 21
2058.235944788818
 31
0.0
  0
INSERT
  5
5DF4
330
5DEE
100
AcDbEntity
  8
Dim
 62
     0
370
    -2
100
AcDbBlockReference
  2
_DOT
 10
1592.958583760618
 20
2058.235944788818
 30
0.0
 41
9.999389648437498
 42
9.999389648437498
 43
9.999389648437498
 50
180.0
  0
INSERT
  5
5DF5
330
5DEE
100
AcDbEntity
  8
Dim
 62
     0
370
    -2
100
AcDbBlockReference
  2
_DOT
 10
1677.958585056845
 20
2058.235944788818
 30
0.0
 41
9.999389648437498
 42
9.999389648437498
 43
9.999389648437498
  0
MTEXT
  5
5DF6
330
5DEE
100
AcDbEntity
  8
Dim
 62
     0
100
AcDbMText
 10
1637.054936706456
 20
2080.452253382568
 30
0.0
 40
24.4326171875
 41
0.0
 46
0.0
 71
     5
 72
     1
  1
\A1;85
  7
ＭＳ ゴシック
 73
     1
 44
1.0
  0
POINT
  5
5DF7
330
5DEE
100
AcDbEntity
  8
Defpoints
 62
     0
100
AcDbPoint
 10
1592.958583760618
 20
2122.097640388225
 30
0.0
  0
POINT
  5
5DF8
330
5DEE
100
AcDbEntity
  8
Defpoints
 62
     0
100
AcDbPoint
 10
1677.958585056845
 20
2122.097640388225
 30
0.0
  0
POINT
  5
5DF9
330
5DEE
100
AcDbEntity
  8
Defpoints
 62
     0
100
AcDbPoint
 10
1677.958585056845
 20
2058.235944788818
 30
0.0
  0
ENDBLK
  5
5DF0
330
5DEE
100
AcDbEntity
  8
0
100
AcDbBlockEnd
  0
BLOCK
  5
5DFB
330
5DFA
100
AcDbEntity
  8
0
100
AcDbBlockBegin
  2
*D156
 70
     1
 10
0.0
 20
0.0
 30
0.0
  3
*D156
  1

  0
LINE
  5
5DFD
330
5DFA
100
AcDbEntity
  8
Dim
 62
     0
370
    -2
100
AcDbLine
 10
1677.958585056845
 20
2097.097640388225
 30
0.0
 11
1677.958585056845
 21
2058.235944788818
 31
0.0
  0
LINE
  5
5DFE
330
5DFA
100
AcDbEntity
  8
Dim
 62
     0
370
    -2
100
AcDbLine
 10
1762.958580676397
 20
2193.649498576678
 30
0.0
 11
1762.958580676397
 21
2058.235944788818
 31
0.0
  0
LINE
  5
5DFF
330
5DFA
100
AcDbEntity
  8
Dim
 62
     0
370
    -2
100
AcDbLine
 10
1687.957974705283
 20
2058.235944788818
 30
0.0
 11
1752.95919102796
 21
2058.235944788818
 31
0.0
  0
INSERT
  5
5E00
330
5DFA
100
AcDbEntity
  8
Dim
 62
     0
370
    -2
100
AcDbBlockReference
  2
_DOT
 10
1677.958585056845
 20
2058.235944788818
 30
0.0
 41
9.999389648437498
 42
9.999389648437498
 43
9.999389648437498
 50
180.0
  0
INSERT
  5
5E01
330
5DFA
100
AcDbEntity
  8
Dim
 62
     0
370
    -2
100
AcDbBlockReference
  2
_DOT
 10
1762.958580676397
 20
2058.235944788818
 30
0.0
 41
9.999389648437498
 42
9.999389648437498
 43
9.999389648437498
  0
MTEXT
  5
5E02
330
5DFA
100
AcDbEntity
  8
Dim
 62
     0
100
AcDbMText
 10
1720.45858286662
 20
2080.452253382568
 30
0.0
 40
24.4326171875
 41
0.0
 46
0.0
 71
     5
 72
     1
  1
\A1;85
  7
ＭＳ ゴシック
 73
     1
 44
1.0
  0
POINT
  5
5E03
330
5DFA
100
AcDbEntity
  8
Defpoints
 62
     0
100
AcDbPoint
 10
1677.958585056845
 20
2122.097640388225
 30
0.0
  0
POINT
  5
5E04
330
5DFA
100
AcDbEntity
  8
Defpoints
 62
     0
100
AcDbPoint
 10
1762.958580676397
 20
2218.649498576678
 30
0.0
  0
POINT
  5
5E05
330
5DFA
100
AcDbEntity
  8
Defpoints
 62
     0
100
AcDbPoint
 10
1762.958580676397
 20
2058.235944788818
 30
0.0
  0
ENDBLK
  5
5DFC
330
5DFA
100
AcDbEntity
  8
0
100
AcDbBlockEnd
  0
BLOCK
  5
5E07
330
5E06
100
AcDbEntity
  8
0
100
AcDbBlockBegin
  2
*D157
 70
     1
 10
0.0
 20
0.0
 30
0.0
  3
*D157
  1

  0
LINE
  5
5E09
330
5E06
100
AcDbEntity
  8
Dim
 62
     0
370
    -2
100
AcDbLine
 10
1592.958583760605
 20
1828.606393929435
 30
0.0
 11
1592.958583760605
 21
1870.068060949928
 31
0.0
  0
LINE
  5
5E0A
330
5E06
100
AcDbEntity
  8
Dim
 62
     0
370
    -2
100
AcDbLine
 10
1762.9585806764
 20
1736.1893248
 30
0.0
 11
1762.9585806764
 21
1870.068060949928
 31
0.0
  0
LINE
  5
5E0B
330
5E06
100
AcDbEntity
  8
Dim
 62
     0
370
    -2
100
AcDbLine
 10
1602.957973409043
 20
1870.068060949928
 30
0.0
 11
1752.959191027963
 21
1870.068060949928
 31
0.0
  0
INSERT
  5
5E0C
330
5E06
100
AcDbEntity
  8
Dim
 62
     0
370
    -2
100
AcDbBlockReference
  2
_DOT
 10
1592.958583760605
 20
1870.068060949928
 30
0.0
 41
9.999389648437498
 42
9.999389648437498
 43
9.999389648437498
 50
180.0
  0
INSERT
  5
5E0D
330
5E06
100
AcDbEntity
  8
Dim
 62
     0
370
    -2
100
AcDbBlockReference
  2
_DOT
 10
1762.9585806764
 20
1870.068060949928
 30
0.0
 41
9.999389648437498
 42
9.999389648437498
 43
9.999389648437498
  0
MTEXT
  5
5E0E
330
5E06
100
AcDbEntity
  8
Dim
 62
     0
100
AcDbMText
 10
1677.9585822185
 20
1892.284369543678
 30
0.0
 40
24.4326171875
 41
0.0
 46
0.0
 71
     5
 72
     1
  1
\A1;170
  7
ＭＳ ゴシック
 73
     1
 44
1.0
  0
POINT
  5
5E0F
330
5E06
100
AcDbEntity
  8
Defpoints
 62
     0
100
AcDbPoint
 10
1592.958583760605
 20
1803.606393929435
 30
0.0
  0
POINT
  5
5E10
330
5E06
100
AcDbEntity
  8
Defpoints
 62
     0
100
AcDbPoint
 10
1762.9585806764
 20
1711.1893248
 30
0.0
  0
POINT
  5
5E11
330
5E06
100
AcDbEntity
  8
Defpoints
 62
     0
100
AcDbPoint
 10
1762.9585806764
 20
1870.068060949928
 30
0.0
  0
ENDBLK
  5
5E08
330
5E06
100
AcDbEntity
  8
0
100
AcDbBlockEnd
  0
BLOCK
  5
5E13
330
5E12
100
AcDbEntity
  8
0
100
AcDbBlockBegin
  2
*D158
 70
     1
 10
0.0
 20
0.0
 30
0.0
  3
*D158
  1

  0
LINE
  5
5E15
330
5E12
100
AcDbEntity
  8
Dim
  6
Continuous
 62
     0
370
    -2
100
AcDbLine
 10
1570.958597357052
 20
2634.853612912797
 30
0.0
 11
1511.228021557436
 21
2634.853612912797
 31
0.0
  0
LINE
  5
5E16
330
5E12
100
AcDbEntity
  8
Dim
  6
Continuous
 62
     0
370
    -2
100
AcDbLine
 10
1570.958597357052
 20
2569.853612912797
 30
0.0
 11
1511.228021557436
 21
2569.853612912797
 31
0.0
  0
LINE
  5
5E17
330
5E12
100
AcDbEntity
  8
Dim
  6
Continuous
 62
     0
370
    -2
100
AcDbLine
 10
1511.228021557436
 20
2624.854223264359
 30
0.0
 11
1511.228021557436
 21
2579.853002561234
 31
0.0
  0
INSERT
  5
5E18
330
5E12
100
AcDbEntity
  8
Dim
 62
     0
370
    -2
100
AcDbBlockReference
  2
_DOT
 10
1511.228021557436
 20
2634.853612912797
 30
0.0
 41
9.999389648437498
 42
9.999389648437498
 43
9.999389648437498
 50
90.0000000000002
  0
INSERT
  5
5E19
330
5E12
100
AcDbEntity
  8
Dim
 62
     0
370
    -2
100
AcDbBlockReference
  2
_DOT
 10
1511.228021557436
 20
2569.853612912797
 30
0.0
 41
9.999389648437498
 42
9.999389648437498
 43
9.999389648437498
 50
270.0000000000002
  0
MTEXT
  5
5E1A
330
5E12
100
AcDbEntity
  8
Dim
 62
     0
100
AcDbMText
 10
1489.011712963686
 20
2602.353612912797
 30
0.0
 40
24.4326171875
 41
0.0
 46
0.0
 71
     5
 72
     1
  1
\A1;65
  7
ＭＳ ゴシック
 11
-3.498056545280493E-15
 21
1.0
 31
0.0
 73
     1
 44
1.0
  0
POINT
  5
5E1B
330
5E12
100
AcDbEntity
  8
Defpoints
 62
     0
100
AcDbPoint
 10
1595.958597357052
 20
2634.853612912797
 30
0.0
  0
POINT
  5
5E1C
330
5E12
100
AcDbEntity
  8
Defpoints
 62
     0
100
AcDbPoint
 10
1595.958597357052
 20
2569.853612912797
 30
0.0
  0
POINT
  5
5E1D
330
5E12
100
AcDbEntity
  8
Defpoints
 62
     0
100
AcDbPoint
 10
1511.228021557436
 20
2569.853612912797
 30
0.0
  0
ENDBLK
  5
5E14
330
5E12
100
AcDbEntity
  8
0
100
AcDbBlockEnd
  0
BLOCK
  5
5E1F
330
5E1E
100
AcDbEntity
  8
0
100
AcDbBlockBegin
  2
*D159
 70
     1
 10
0.0
 20
0.0
 30
0.0
  3
*D159
  1

  0
LINE
  5
5E21
330
5E1E
100
AcDbEntity
  8
Dim
  6
Continuous
 62
     0
370
    -2
100
AcDbLine
 10
1592.958587479324
 20
2408.877622814963
 30
0.0
 11
1413.301325145609
 21
2408.877622814964
 31
0.0
  0
LINE
  5
5E22
330
5E1E
100
AcDbEntity
  8
Dim
  6
Continuous
 62
     0
370
    -2
100
AcDbLine
 10
1705.454737769639
 20
2408.877622814963
 30
0.0
 11
1602.957977127762
 21
2408.877622814963
 31
0.0
  0
LINE
  5
5E23
330
5E1E
100
AcDbEntity
  8
Dim
  6
Continuous
 62
     0
370
    -2
100
AcDbLine
 10
1602.957977127762
 20
2408.877622814963
 30
0.0
 11
1612.957366776199
 21
2408.877622814963
 31
0.0
  0
INSERT
  5
5E24
330
5E1E
100
AcDbEntity
  8
Dim
 62
     0
370
    -2
100
AcDbBlockReference
  2
_DOT
 10
1715.454127418076
 20
2408.877622814963
 30
0.0
 41
9.999389648437498
 42
9.999389648437498
 43
9.999389648437498
 50
359.9999999999998
  0
INSERT
  5
5E25
330
5E1E
100
AcDbEntity
  8
Dim
 62
     0
370
    -2
100
AcDbBlockReference
  2
_DOT
 10
1592.958587479324
 20
2408.877622814963
 30
0.0
 41
9.999389648437498
 42
9.999389648437498
 43
9.999389648437498
 50
179.9999999999998
  0
MTEXT
  5
5E26
330
5E1E
100
AcDbEntity
  8
Dim
 62
     0
100
AcDbMText
 10
1489.489285106547
 20
2433.256218029807
 30
0.0
 40
24.4326171875
 41
0.0
 46
0.0
 71
     5
 72
     1
  1
\A1;120(深さ)
  7
ＭＳ ゴシック
 73
     1
 44
1.0
  0
POINT
  5
5E27
330
5E1E
100
AcDbEntity
  8
Defpoints
 62
     0
100
AcDbPoint
 10
1715.454127418076
 20
2407.858922932298
 30
0.0
  0
POINT
  5
5E28
330
5E1E
100
AcDbEntity
  8
Defpoints
 62
     0
100
AcDbPoint
 10
1592.958587479324
 20
2408.877622814964
 30
0.0
  0
POINT
  5
5E29
330
5E1E
100
AcDbEntity
  8
Defpoints
 62
     0
100
AcDbPoint
 10
1592.958587479324
 20
2408.877622814963
 30
0.0
  0
ENDBLK
  5
5E20
330
5E1E
100
AcDbEntity
  8
0
100
AcDbBlockEnd
  0
BLOCK
  5
5E2B
330
5E2A
100
AcDbEntity
  8
0
100
AcDbBlockBegin
  2
*D160
 70
     1
 10
0.0
 20
0.0
 30
0.0
  3
*D160
  1

  0
LINE
  5
5E2D
330
5E2A
100
AcDbEntity
  8
Dim
 62
     0
370
    -2
100
AcDbLine
 10
1796.085716521989
 20
2634.85361144975
 30
0.0
 11
1977.818356886696
 21
2634.853611449749
 31
0.0
  0
LINE
  5
5E2E
330
5E2A
100
AcDbEntity
  8
Dim
 62
     0
370
    -2
100
AcDbLine
 10
1796.085716521987
 20
2229.85361144975
 30
0.0
 11
1977.818356886696
 21
2229.853611449749
 31
0.0
  0
LINE
  5
5E2F
330
5E2A
100
AcDbEntity
  8
Dim
 62
     0
370
    -2
100
AcDbLine
 10
1977.818356886696
 20
2624.854221801312
 30
0.0
 11
1977.818356886696
 21
2239.853001098187
 31
0.0
  0
INSERT
  5
5E30
330
5E2A
100
AcDbEntity
  8
Dim
 62
     0
370
    -2
100
AcDbBlockReference
  2
_DOT
 10
1977.818356886696
 20
2634.853611449749
 30
0.0
 41
9.999389648437498
 42
9.999389648437498
 43
9.999389648437498
 50
89.99999999999991
  0
INSERT
  5
5E31
330
5E2A
100
AcDbEntity
  8
Dim
 62
     0
370
    -2
100
AcDbBlockReference
  2
_DOT
 10
1977.818356886696
 20
2229.853611449749
 30
0.0
 41
9.999389648437498
 42
9.999389648437498
 43
9.999389648437498
 50
269.9999999999999
  0
MTEXT
  5
5E32
330
5E2A
100
AcDbEntity
  8
Dim
 62
     0
100
AcDbMText
 10
1955.602048292946
 20
2432.353611449749
 30
0.0
 40
24.4326171875
 41
0.0
 46
0.0
 71
     5
 72
     1
  1
\A1;405
  7
ＭＳ ゴシック
 11
1.684249447727645E-15
 21
1.0
 31
0.0
 73
     1
 44
1.0
  0
POINT
  5
5E33
330
5E2A
100
AcDbEntity
  8
Defpoints
 62
     0
100
AcDbPoint
 10
1771.085716521989
 20
2634.85361144975
 30
0.0
  0
POINT
  5
5E34
330
5E2A
100
AcDbEntity
  8
Defpoints
 62
     0
100
AcDbPoint
 10
1771.085716521987
 20
2229.85361144975
 30
0.0
  0
POINT
  5
5E35
330
5E2A
100
AcDbEntity
  8
Defpoints
 62
     0
100
AcDbPoint
 10
1977.818356886696
 20
2229.853611449749
 30
0.0
  0
ENDBLK
  5
5E2C
330
5E2A
100
AcDbEntity
  8
0
100
AcDbBlockEnd
  0
BLOCK
  5
5E37
330
5E36
100
AcDbEntity
  8
0
100
AcDbBlockBegin
  2
*D161
 70
     1
 10
0.0
 20
0.0
 30
0.0
  3
*D161
  1

  0
LINE
  5
5E39
330
5E36
100
AcDbEntity
  8
Dim
 62
     0
370
    -2
100
AcDbLine
 10
1574.81423618375
 20
1007.784259260849
 30
0.0
 11
1519.259434838624
 21
1007.784259260849
 31
0.0
  0
LINE
  5
5E3A
330
5E36
100
AcDbEntity
  8
Dim
 62
     0
370
    -2
100
AcDbLine
 10
1574.81423618375
 20
1327.784259260864
 30
0.0
 11
1519.259434838624
 21
1327.784259260864
 31
0.0
  0
LINE
  5
5E3B
330
5E36
100
AcDbEntity
  8
Dim
 62
     0
370
    -2
100
AcDbLine
 10
1519.259434838624
 20
1017.783648909287
 30
0.0
 11
1519.259434838624
 21
1317.784869612427
 31
0.0
  0
INSERT
  5
5E3C
330
5E36
100
AcDbEntity
  8
Dim
 62
     0
370
    -2
100
AcDbBlockReference
  2
_DOT
 10
1519.259434838624
 20
1007.784259260849
 30
0.0
 41
9.999389648437498
 42
9.999389648437498
 43
9.999389648437498
 50
270.0
  0
INSERT
  5
5E3D
330
5E36
100
AcDbEntity
  8
Dim
 62
     0
370
    -2
100
AcDbBlockReference
  2
_DOT
 10
1519.259434838624
 20
1327.784259260864
 30
0.0
 41
9.999389648437498
 42
9.999389648437498
 43
9.999389648437498
 50
90.0
  0
MTEXT
  5
5E3E
330
5E36
100
AcDbEntity
  8
Dim
 62
     0
100
AcDbMText
 10
1497.043126244874
 20
1167.784259260857
 30
0.0
 40
24.4326171875
 41
0.0
 46
0.0
 71
     5
 72
     1
  1
\A1;320
  7
ＭＳ ゴシック
 11
0.0
 21
1.0
 31
0.0
 73
     1
 44
1.0
  0
POINT
  5
5E3F
330
5E36
100
AcDbEntity
  8
Defpoints
 62
     0
100
AcDbPoint
 10
1599.81423618375
 20
1007.784259260849
 30
0.0
  0
POINT
  5
5E40
330
5E36
100
AcDbEntity
  8
Defpoints
 62
     0
100
AcDbPoint
 10
1599.81423618375
 20
1327.784259260864
 30
0.0
  0
POINT
  5
5E41
330
5E36
100
AcDbEntity
  8
Defpoints
 62
     0
100
AcDbPoint
 10
1519.259434838624
 20
1327.784259260864
 30
0.0
  0
ENDBLK
  5
5E38
330
5E36
100
AcDbEntity
  8
0
100
AcDbBlockEnd
  0
BLOCK
  5
5E43
330
5E42
100
AcDbEntity
  8
0
100
AcDbBlockBegin
  2
*D162
 70
     1
 10
0.0
 20
0.0
 30
0.0
  3
*D162
  1

  0
LINE
  5
5E45
330
5E42
100
AcDbEntity
  8
Dim
 62
     0
370
    -2
100
AcDbLine
 10
1574.81423618375
 20
727.7842592608492
 30
0.0
 11
1519.259434838624
 21
727.7842592608492
 31
0.0
  0
LINE
  5
5E46
330
5E42
100
AcDbEntity
  8
Dim
 62
     0
370
    -2
100
AcDbLine
 10
1574.81423618375
 20
1007.784259260849
 30
0.0
 11
1519.259434838624
 21
1007.784259260849
 31
0.0
  0
LINE
  5
5E47
330
5E42
100
AcDbEntity
  8
Dim
 62
     0
370
    -2
100
AcDbLine
 10
1519.259434838624
 20
737.7836489092867
 30
0.0
 11
1519.259434838624
 21
997.7848696124117
 31
0.0
  0
INSERT
  5
5E48
330
5E42
100
AcDbEntity
  8
Dim
 62
     0
370
    -2
100
AcDbBlockReference
  2
_DOT
 10
1519.259434838624
 20
727.7842592608492
 30
0.0
 41
9.999389648437498
 42
9.999389648437498
 43
9.999389648437498
 50
270.0
  0
INSERT
  5
5E49
330
5E42
100
AcDbEntity
  8
Dim
 62
     0
370
    -2
100
AcDbBlockReference
  2
_DOT
 10
1519.259434838624
 20
1007.784259260849
 30
0.0
 41
9.999389648437498
 42
9.999389648437498
 43
9.999389648437498
 50
90.0
  0
MTEXT
  5
5E4A
330
5E42
100
AcDbEntity
  8
Dim
 62
     0
100
AcDbMText
 10
1497.043126244874
 20
867.7842592608492
 30
0.0
 40
24.4326171875
 41
0.0
 46
0.0
 71
     5
 72
     1
  1
\A1;280
  7
ＭＳ ゴシック
 11
0.0
 21
1.0
 31
0.0
 73
     1
 44
1.0
  0
POINT
  5
5E4B
330
5E42
100
AcDbEntity
  8
Defpoints
 62
     0
100
AcDbPoint
 10
1599.81423618375
 20
727.7842592608492
 30
0.0
  0
POINT
  5
5E4C
330
5E42
100
AcDbEntity
  8
Defpoints
 62
     0
100
AcDbPoint
 10
1599.81423618375
 20
1007.784259260849
 30
0.0
  0
POINT
  5
5E4D
330
5E42
100
AcDbEntity
  8
Defpoints
 62
     0
100
AcDbPoint
 10
1519.259434838624
 20
1007.784259260849
 30
0.0
  0
ENDBLK
  5
5E44
330
5E42
100
AcDbEntity
  8
0
100
AcDbBlockEnd
  0
BLOCK
  5
5E4F
330
5E4E
100
AcDbEntity
  8
0
100
AcDbBlockBegin
  2
*D163
 70
     1
 10
0.0
 20
0.0
 30
0.0
  3
*D163
  1

  0
LINE
  5
5E51
330
5E4E
100
AcDbEntity
  8
Dim
 62
     0
370
    -2
100
AcDbLine
 10
1574.81423618375
 20
1327.784259260864
 30
0.0
 11
1519.259434838624
 21
1327.784259260864
 31
0.0
  0
LINE
  5
5E52
330
5E4E
100
AcDbEntity
  8
Dim
 62
     0
370
    -2
100
AcDbLine
 10
1574.81423618375
 20
1607.784259260864
 30
0.0
 11
1519.259434838624
 21
1607.784259260864
 31
0.0
  0
LINE
  5
5E53
330
5E4E
100
AcDbEntity
  8
Dim
 62
     0
370
    -2
100
AcDbLine
 10
1519.259434838624
 20
1337.783648909302
 30
0.0
 11
1519.259434838624
 21
1597.784869612427
 31
0.0
  0
INSERT
  5
5E54
330
5E4E
100
AcDbEntity
  8
Dim
 62
     0
370
    -2
100
AcDbBlockReference
  2
_DOT
 10
1519.259434838624
 20
1327.784259260864
 30
0.0
 41
9.999389648437498
 42
9.999389648437498
 43
9.999389648437498
 50
270.0
  0
INSERT
  5
5E55
330
5E4E
100
AcDbEntity
  8
Dim
 62
     0
370
    -2
100
AcDbBlockReference
  2
_DOT
 10
1519.259434838624
 20
1607.784259260864
 30
0.0
 41
9.999389648437498
 42
9.999389648437498
 43
9.999389648437498
 50
90.0
  0
MTEXT
  5
5E56
330
5E4E
100
AcDbEntity
  8
Dim
 62
     0
100
AcDbMText
 10
1497.043126244874
 20
1467.784259260864
 30
0.0
 40
24.4326171875
 41
0.0
 46
0.0
 71
     5
 72
     1
  1
\A1;280
  7
ＭＳ ゴシック
 11
0.0
 21
1.0
 31
0.0
 73
     1
 44
1.0
  0
POINT
  5
5E57
330
5E4E
100
AcDbEntity
  8
Defpoints
 62
     0
100
AcDbPoint
 10
1599.81423618375
 20
1327.784259260864
 30
0.0
  0
POINT
  5
5E58
330
5E4E
100
AcDbEntity
  8
Defpoints
 62
     0
100
AcDbPoint
 10
1599.81423618375
 20
1607.784259260864
 30
0.0
  0
POINT
  5
5E59
330
5E4E
100
AcDbEntity
  8
Defpoints
 62
     0
100
AcDbPoint
 10
1519.259434838624
 20
1607.784259260864
 30
0.0
  0
ENDBLK
  5
5E50
330
5E4E
100
AcDbEntity
  8
0
100
AcDbBlockEnd
  0
BLOCK
  5
5EA6
330
5EA5
100
AcDbEntity
  8
0
100
AcDbBlockBegin
  2
*D167
 70
     1
 10
0.0
 20
0.0
 30
0.0
  3
*D167
  1

  0
LINE
  5
5EA8
330
5EA5
100
AcDbEntity
  8
Dim
 62
     0
370
    -2
100
AcDbLine
 10
370.3471484032957
 20
2745.599910237369
 30
0.0
 11
370.3471484032957
 21
2842.97551488
 31
0.0
  0
LINE
  5
5EA9
330
5EA5
100
AcDbEntity
  8
Dim
 62
     0
370
    -2
100
AcDbLine
 10
629.0474072842835
 20
2745.599910237369
 30
0.0
 11
629.0474072842835
 21
2842.97551488
 31
0.0
  0
LINE
  5
5EAA
330
5EA5
100
AcDbEntity
  8
Dim
 62
     0
370
    -2
100
AcDbLine
 10
380.3465380517332
 20
2842.97551488
 30
0.0
 11
619.048017635846
 21
2842.97551488
 31
0.0
  0
INSERT
  5
5EAB
330
5EA5
100
AcDbEntity
  8
Dim
 62
     0
370
    -2
100
AcDbBlockReference
  2
_DOT
 10
370.3471484032957
 20
2842.97551488
 30
0.0
 41
9.999389648437498
 42
9.999389648437498
 43
9.999389648437498
 50
180.0
  0
INSERT
  5
5EAC
330
5EA5
100
AcDbEntity
  8
Dim
 62
     0
370
    -2
100
AcDbBlockReference
  2
_DOT
 10
629.0474072842835
 20
2842.97551488
 30
0.0
 41
9.999389648437498
 42
9.999389648437498
 43
9.999389648437498
  0
MTEXT
  5
5EAD
330
5EA5
100
AcDbEntity
  8
Dim
 62
     0
100
AcDbMText
 10
499.6972778437896
 20
2865.19182347375
 30
0.0
 40
24.4326171875
 41
0.0
 46
0.0
 71
     5
 72
     1
  1
\A1;460
  7
ＭＳ ゴシック
 73
     1
 44
1.0
  0
POINT
  5
5EAE
330
5EA5
100
AcDbEntity
  8
Defpoints
 62
     0
100
AcDbPoint
 10
370.3471484032957
 20
2720.599910237369
 30
0.0
  0
POINT
  5
5EAF
330
5EA5
100
AcDbEntity
  8
Defpoints
 62
     0
100
AcDbPoint
 10
629.0474072842835
 20
2720.599910237369
 30
0.0
  0
POINT
  5
5EB0
330
5EA5
100
AcDbEntity
  8
Defpoints
 62
     0
100
AcDbPoint
 10
629.0474072842835
 20
2842.97551488
 30
0.0
  0
ENDBLK
  5
5EA7
330
5EA5
100
AcDbEntity
  8
0
100
AcDbBlockEnd
  0
BLOCK
  5
5EB8
330
5EB7
100
AcDbEntity
  8
0
100
AcDbBlockBegin
  2
*D168
 70
     1
 10
0.0
 20
0.0
 30
0.0
  3
*D168
  1

  0
LINE
  5
5EBA
330
5EB7
100
AcDbEntity
  8
Dim
 62
     0
370
    -2
100
AcDbLine
 10
762.8294896982225
 20
2720.599910237369
 30
0.0
 11
797.7250545784068
 21
2720.599910237369
 31
0.0
  0
LINE
  5
5EBB
330
5EB7
100
AcDbEntity
  8
Dim
 62
     0
370
    -2
100
AcDbLine
 10
762.1075451222224
 20
2062.518444150558
 30
0.0
 11
797.7250545784068
 21
2062.518444150558
 31
0.0
  0
LINE
  5
5EBC
330
5EB7
100
AcDbEntity
  8
Dim
 62
     0
370
    -2
100
AcDbLine
 10
797.7250545784068
 20
2710.600520588931
 30
0.0
 11
797.7250545784068
 21
2072.517833798996
 31
0.0
  0
INSERT
  5
5EBD
330
5EB7
100
AcDbEntity
  8
Dim
 62
     0
370
    -2
100
AcDbBlockReference
  2
_DOT
 10
797.7250545784068
 20
2720.599910237369
 30
0.0
 41
9.999389648437498
 42
9.999389648437498
 43
9.999389648437498
 50
90.0
  0
INSERT
  5
5EBE
330
5EB7
100
AcDbEntity
  8
Dim
 62
     0
370
    -2
100
AcDbBlockReference
  2
_DOT
 10
797.7250545784068
 20
2062.518444150558
 30
0.0
 41
9.999389648437498
 42
9.999389648437498
 43
9.999389648437498
 50
270.0
  0
MTEXT
  5
5EBF
330
5EB7
100
AcDbEntity
  8
Dim
 62
     0
100
AcDbMText
 10
775.5087459846568
 20
2391.559177193964
 30
0.0
 40
24.4326171875
 41
0.0
 46
0.0
 71
     5
 72
     1
  1
\A1;1170
  7
ＭＳ ゴシック
 11
0.0
 21
1.0
 31
0.0
 73
     1
 44
1.0
  0
POINT
  5
5EC0
330
5EB7
100
AcDbEntity
  8
Defpoints
 62
     0
100
AcDbPoint
 10
737.8294896982225
 20
2720.599910237369
 30
0.0
  0
POINT
  5
5EC1
330
5EB7
100
AcDbEntity
  8
Defpoints
 62
     0
100
AcDbPoint
 10
737.1075451222224
 20
2062.518444150558
 30
0.0
  0
POINT
  5
5EC2
330
5EB7
100
AcDbEntity
  8
Defpoints
 62
     0
100
AcDbPoint
 10
797.7250545784068
 20
2062.518444150558
 30
0.0
  0
ENDBLK
  5
5EB9
330
5EB7
100
AcDbEntity
  8
0
100
AcDbBlockEnd
  0
BLOCK
  5
5F37
330
5F36
100
AcDbEntity
  8
0
100
AcDbBlockBegin
  2
*D173
 70
     1
 10
0.0
 20
0.0
 30
0.0
  3
*D173
  1

  0
LINE
  5
5F39
330
5F36
100
AcDbEntity
  8
Dim
 62
     0
370
    -2
100
AcDbLine
 10
1784.648352108326
 20
645.2842592608356
 30
0.0
 11
1889.295622625044
 21
645.2842592608356
 31
0.0
  0
LINE
  5
5F3A
330
5F36
100
AcDbEntity
  8
Dim
 62
     0
370
    -2
100
AcDbLine
 10
1784.648352108326
 20
1690.284259260836
 30
0.0
 11
1889.295622625044
 21
1690.284259260836
 31
0.0
  0
LINE
  5
5F3B
330
5F36
100
AcDbEntity
  8
Dim
 62
     0
370
    -2
100
AcDbLine
 10
1889.295622625044
 20
655.2836489092731
 30
0.0
 11
1889.295622625044
 21
1680.284869612398
 31
0.0
  0
INSERT
  5
5F3C
330
5F36
100
AcDbEntity
  8
Dim
 62
     0
370
    -2
100
AcDbBlockReference
  2
_DOT
 10
1889.295622625044
 20
645.2842592608356
 30
0.0
 41
9.999389648437498
 42
9.999389648437498
 43
9.999389648437498
 50
270.0
  0
INSERT
  5
5F3D
330
5F36
100
AcDbEntity
  8
Dim
 62
     0
370
    -2
100
AcDbBlockReference
  2
_DOT
 10
1889.295622625044
 20
1690.284259260836
 30
0.0
 41
9.999389648437498
 42
9.999389648437498
 43
9.999389648437498
 50
90.0
  0
MTEXT
  5
5F3E
330
5F36
100
AcDbEntity
  8
Dim
 62
     0
100
AcDbMText
 10
1867.079314031294
 20
1167.784259260836
 30
0.0
 40
24.4326171875
 41
0.0
 46
0.0
 71
     5
 72
     1
  1
\A1;1045
  7
ＭＳ ゴシック
 11
0.0
 21
1.0
 31
0.0
 73
     1
 44
1.0
  0
POINT
  5
5F3F
330
5F36
100
AcDbEntity
  8
Defpoints
 62
     0
100
AcDbPoint
 10
1759.648352108326
 20
645.2842592608356
 30
0.0
  0
POINT
  5
5F40
330
5F36
100
AcDbEntity
  8
Defpoints
 62
     0
100
AcDbPoint
 10
1759.648352108326
 20
1690.284259260836
 30
0.0
  0
POINT
  5
5F41
330
5F36
100
AcDbEntity
  8
Defpoints
 62
     0
100
AcDbPoint
 10
1889.295622625044
 20
1690.284259260836
 30
0.0
  0
ENDBLK
  5
5F38
330
5F36
100
AcDbEntity
  8
0
100
AcDbBlockEnd
  0
BLOCK
  5
5FC6
330
5FC5
100
AcDbEntity
  8
0
100
AcDbBlockBegin
  2
*D174
 70
     1
 10
0.0
 20
0.0
 30
0.0
  3
*D174
  1

  0
LINE
  5
5FC8
330
5FC5
100
AcDbEntity
  8
Dim
 62
     0
370
    -2
100
AcDbLine
 10
500.3471482818331
 20
492.7842592608347
 30
0.0
 11
500.3471482818331
 21
439.9641897915015
 31
0.0
  0
LINE
  5
5FC9
330
5FC5
100
AcDbEntity
  8
Dim
 62
     0
370
    -2
100
AcDbLine
 10
860.3471482818333
 20
514.3261558937596
 30
0.0
 11
860.3471482818333
 21
439.9641897915015
 31
0.0
  0
LINE
  5
5FCA
330
5FC5
100
AcDbEntity
  8
Dim
 62
     0
370
    -2
100
AcDbLine
 10
510.3465379302706
 20
439.9641897915015
 30
0.0
 11
850.3477586333958
 21
439.9641897915015
 31
0.0
  0
INSERT
  5
5FCB
330
5FC5
100
AcDbEntity
  8
Dim
 62
     0
370
    -2
100
AcDbBlockReference
  2
_DOT
 10
500.3471482818331
 20
439.9641897915015
 30
0.0
 41
9.999389648437498
 42
9.999389648437498
 43
9.999389648437498
 50
180.0
  0
INSERT
  5
5FCC
330
5FC5
100
AcDbEntity
  8
Dim
 62
     0
370
    -2
100
AcDbBlockReference
  2
_DOT
 10
860.3471482818333
 20
439.9641897915015
 30
0.0
 41
9.999389648437498
 42
9.999389648437498
 43
9.999389648437498
  0
MTEXT
  5
5FCD
330
5FC5
100
AcDbEntity
  8
Dim
 62
     0
100
AcDbMText
 10
680.3471482818331
 20
462.1804983852515
 30
0.0
 40
24.4326171875
 41
0.0
 46
0.0
 71
     5
 72
     1
  1
\A1;360
  7
ＭＳ ゴシック
 73
     1
 44
1.0
  0
POINT
  5
5FCE
330
5FC5
100
AcDbEntity
  8
Defpoints
 62
     0
100
AcDbPoint
 10
500.3471482818331
 20
517.7842592608347
 30
0.0
  0
POINT
  5
5FCF
330
5FC5
100
AcDbEntity
  8
Defpoints
 62
     0
100
AcDbPoint
 10
860.3471482818333
 20
539.3261558937596
 30
0.0
  0
POINT
  5
5FD0
330
5FC5
100
AcDbEntity
  8
Defpoints
 62
     0
100
AcDbPoint
 10
860.3471482818333
 20
439.9641897915015
 30
0.0
  0
ENDBLK
  5
5FC7
330
5FC5
100
AcDbEntity
  8
0
100
AcDbBlockEnd
  0
BLOCK
  5
5FD7
330
5FD6
100
AcDbEntity
  8
0
100
AcDbBlockBegin
  2
*D175
 70
     1
 10
0.0
 20
0.0
 30
0.0
  3
*D175
  1

  0
LINE
  5
5FD9
330
5FD6
100
AcDbEntity
  8
Dim
 62
     0
370
    -2
100
AcDbLine
 10
319.6396444939985
 20
792.7842592607765
 30
0.0
 11
222.761860794758
 21
792.7842592607765
 31
0.0
  0
LINE
  5
5FDA
330
5FD6
100
AcDbEntity
  8
Dim
 62
     0
370
    -2
100
AcDbLine
 10
319.639644493999
 20
542.7842592607765
 30
0.0
 11
222.7618607947579
 21
542.7842592607765
 31
0.0
  0
LINE
  5
5FDB
330
5FD6
100
AcDbEntity
  8
Dim
 62
     0
370
    -2
100
AcDbLine
 10
222.761860794758
 20
782.784869612339
 30
0.0
 11
222.7618607947579
 21
552.783648909214
 31
0.0
  0
INSERT
  5
5FDC
330
5FD6
100
AcDbEntity
  8
Dim
 62
     0
370
    -2
100
AcDbBlockReference
  2
_DOT
 10
222.761860794758
 20
792.7842592607765
 30
0.0
 41
9.999389648437498
 42
9.999389648437498
 43
9.999389648437498
 50
90.0
  0
INSERT
  5
5FDD
330
5FD6
100
AcDbEntity
  8
Dim
 62
     0
370
    -2
100
AcDbBlockReference
  2
_DOT
 10
222.7618607947579
 20
542.7842592607765
 30
0.0
 41
9.999389648437498
 42
9.999389648437498
 43
9.999389648437498
 50
270.0
  0
MTEXT
  5
5FDE
330
5FD6
100
AcDbEntity
  8
Dim
 62
     0
100
AcDbMText
 10
200.5455522010079
 20
667.7842592607765
 30
0.0
 40
24.4326171875
 41
0.0
 46
0.0
 71
     5
 72
     1
  1
\A1;250
  7
ＭＳ ゴシック
 11
1.136868377216160E-16
 21
1.0
 31
0.0
 73
     1
 44
1.0
  0
POINT
  5
5FDF
330
5FD6
100
AcDbEntity
  8
Defpoints
 62
     0
100
AcDbPoint
 10
344.6396444939985
 20
792.7842592607765
 30
0.0
  0
POINT
  5
5FE0
330
5FD6
100
AcDbEntity
  8
Defpoints
 62
     0
100
AcDbPoint
 10
344.639644493999
 20
542.7842592607765
 30
0.0
  0
POINT
  5
5FE1
330
5FD6
100
AcDbEntity
  8
Defpoints
 62
     0
100
AcDbPoint
 10
222.7618607947579
 20
542.7842592607765
 30
0.0
  0
ENDBLK
  5
5FD8
330
5FD6
100
AcDbEntity
  8
0
100
AcDbBlockEnd
  0
BLOCK
  5
5FEA
330
5FE9
100
AcDbEntity
  8
0
100
AcDbBlockBegin
  2
*D176
 70
     1
 10
0.0
 20
0.0
 30
0.0
  3
*D176
  1

  0
LINE
  5
5FEC
330
5FE9
100
AcDbEntity
  8
Dim
 62
     0
370
    -2
100
AcDbLine
 10
370.3471484032957
 20
1807.895855912398
 30
0.0
 11
370.3471484032957
 21
1866.063871067598
 31
0.0
  0
LINE
  5
5FED
330
5FE9
100
AcDbEntity
  8
Dim
 62
     0
370
    -2
100
AcDbLine
 10
870.3471484032957
 20
1807.895855912398
 30
0.0
 11
870.3471484032957
 21
1866.063871067598
 31
0.0
  0
LINE
  5
5FEE
330
5FE9
100
AcDbEntity
  8
Dim
 62
     0
370
    -2
100
AcDbLine
 10
380.3465380517332
 20
1866.063871067598
 30
0.0
 11
860.3477587548582
 21
1866.063871067598
 31
0.0
  0
INSERT
  5
5FEF
330
5FE9
100
AcDbEntity
  8
Dim
 62
     0
370
    -2
100
AcDbBlockReference
  2
_DOT
 10
370.3471484032957
 20
1866.063871067598
 30
0.0
 41
9.999389648437498
 42
9.999389648437498
 43
9.999389648437498
 50
180.0
  0
INSERT
  5
5FF0
330
5FE9
100
AcDbEntity
  8
Dim
 62
     0
370
    -2
100
AcDbBlockReference
  2
_DOT
 10
870.3471484032957
 20
1866.063871067598
 30
0.0
 41
9.999389648437498
 42
9.999389648437498
 43
9.999389648437498
  0
MTEXT
  5
5FF1
330
5FE9
100
AcDbEntity
  8
Dim
 62
     0
100
AcDbMText
 10
620.3471484032957
 20
1888.280179661348
 30
0.0
 40
24.4326171875
 41
0.0
 46
0.0
 71
     5
 72
     1
  1
\A1;500
  7
ＭＳ ゴシック
 73
     1
 44
1.0
  0
POINT
  5
5FF2
330
5FE9
100
AcDbEntity
  8
Defpoints
 62
     0
100
AcDbPoint
 10
370.3471484032957
 20
1782.895855912398
 30
0.0
  0
POINT
  5
5FF3
330
5FE9
100
AcDbEntity
  8
Defpoints
 62
     0
100
AcDbPoint
 10
870.3471484032957
 20
1782.895855912398
 30
0.0
  0
POINT
  5
5FF4
330
5FE9
100
AcDbEntity
  8
Defpoints
 62
     0
100
AcDbPoint
 10
870.3471484032957
 20
1866.063871067598
 30
0.0
  0
ENDBLK
  5
5FEB
330
5FE9
100
AcDbEntity
  8
0
100
AcDbBlockEnd
  0
BLOCK
  5
60F2
330
60F1
100
AcDbEntity
  8
0
100
AcDbBlockBegin
  2
*D187
 70
     1
 10
0.0
 20
0.0
 30
0.0
  3
*D187
  1

  0
LINE
  5
60F4
330
60F1
100
AcDbEntity
  8
Dim
 62
     0
370
    -2
100
AcDbLine
 10
527.8471484032957
 20
2035.041020319571
 30
0.0
 11
527.8471484032956
 21
1973.512467622747
 31
0.0
  0
LINE
  5
60F5
330
60F1
100
AcDbEntity
  8
Dim
 62
     0
370
    -2
100
AcDbLine
 10
370.3471484032961
 20
2032.938466798275
 30
0.0
 11
370.347148403296
 21
1973.512467622747
 31
0.0
  0
LINE
  5
60F6
330
60F1
100
AcDbEntity
  8
Dim
 62
     0
370
    -2
100
AcDbLine
 10
517.8477587548581
 20
1973.512467622747
 30
0.0
 11
380.3465380517335
 21
1973.512467622747
 31
0.0
  0
INSERT
  5
60F7
330
60F1
100
AcDbEntity
  8
Dim
 62
     0
370
    -2
100
AcDbBlockReference
  2
_DOT
 10
527.8471484032956
 20
1973.512467622747
 30
0.0
 41
9.999389648437498
 42
9.999389648437498
 43
9.999389648437498
 50
359.9999999999999
  0
INSERT
  5
60F8
330
60F1
100
AcDbEntity
  8
Dim
 62
     0
370
    -2
100
AcDbBlockReference
  2
_DOT
 10
370.347148403296
 20
1973.512467622747
 30
0.0
 41
9.999389648437498
 42
9.999389648437498
 43
9.999389648437498
 50
179.9999999999999
  0
MTEXT
  5
60F9
330
60F1
100
AcDbEntity
  8
Dim
 62
     0
100
AcDbMText
 10
449.0971484032959
 20
1995.728776216497
 30
0.0
 40
24.4326171875
 41
0.0
 46
0.0
 71
     5
 72
     1
  1
\A1;280
  7
ＭＳ ゴシック
 73
     1
 44
1.0
  0
POINT
  5
60FA
330
60F1
100
AcDbEntity
  8
Defpoints
 62
     0
100
AcDbPoint
 10
527.8471484032957
 20
2060.041020319571
 30
0.0
  0
POINT
  5
60FB
330
60F1
100
AcDbEntity
  8
Defpoints
 62
     0
100
AcDbPoint
 10
370.3471484032962
 20
2057.938466798275
 30
0.0
  0
POINT
  5
60FC
330
60F1
100
AcDbEntity
  8
Defpoints
 62
     0
100
AcDbPoint
 10
370.347148403296
 20
1973.512467622747
 30
0.0
  0
ENDBLK
  5
60F3
330
60F1
100
AcDbEntity
  8
0
100
AcDbBlockEnd
  0
BLOCK
  5
6102
330
6101
100
AcDbEntity
  8
0
100
AcDbBlockBegin
  2
*D188
 70
     1
 10
0.0
 20
0.0
 30
0.0
  3
*D188
  1

  0
LINE
  5
6104
330
6101
100
AcDbEntity
  8
Dim
 62
     0
370
    -2
100
AcDbLine
 10
684.2727479609632
 20
2700.934185777061
 30
0.0
 11
726.5180591644249
 21
2700.934185777061
 31
0.0
  0
LINE
  5
6105
330
6101
100
AcDbEntity
  8
Dim
 62
     0
370
    -2
100
AcDbLine
 10
684.2727479609625
 20
2504.059185777061
 30
0.0
 11
726.5180591644246
 21
2504.059185777061
 31
0.0
  0
LINE
  5
6106
330
6101
100
AcDbEntity
  8
Dim
 62
     0
370
    -2
100
AcDbLine
 10
726.5180591644249
 20
2690.934796128624
 30
0.0
 11
726.5180591644246
 21
2514.058575425499
 31
0.0
  0
INSERT
  5
6107
330
6101
100
AcDbEntity
  8
Dim
 62
     0
370
    -2
100
AcDbBlockReference
  2
_DOT
 10
726.5180591644249
 20
2700.934185777061
 30
0.0
 41
9.999389648437498
 42
9.999389648437498
 43
9.999389648437498
 50
89.9999999999999
  0
INSERT
  5
6108
330
6101
100
AcDbEntity
  8
Dim
 62
     0
370
    -2
100
AcDbBlockReference
  2
_DOT
 10
726.5180591644246
 20
2504.059185777061
 30
0.0
 41
9.999389648437498
 42
9.999389648437498
 43
9.999389648437498
 50
269.9999999999999
  0
MTEXT
  5
6109
330
6101
100
AcDbEntity
  8
Dim
 62
     0
100
AcDbMText
 10
704.3017505706748
 20
2602.496685777063
 30
0.0
 40
24.4326171875
 41
0.0
 46
0.0
 71
     5
 72
     1
  1
\A1;350
  7
ＭＳ ゴシック
 11
1.732370860519863E-15
 21
1.0
 31
0.0
 73
     1
 44
1.0
  0
POINT
  5
610A
330
6101
100
AcDbEntity
  8
Defpoints
 62
     0
100
AcDbPoint
 10
659.2727479609632
 20
2700.934185777061
 30
0.0
  0
POINT
  5
610B
330
6101
100
AcDbEntity
  8
Defpoints
 62
     0
100
AcDbPoint
 10
659.2727479609625
 20
2504.059185777061
 30
0.0
  0
POINT
  5
610C
330
6101
100
AcDbEntity
  8
Defpoints
 62
     0
100
AcDbPoint
 10
726.5180591644246
 20
2504.059185777061
 30
0.0
  0
ENDBLK
  5
6103
330
6101
100
AcDbEntity
  8
0
100
AcDbBlockEnd
  0
BLOCK
  5
6110
330
610F
100
AcDbEntity
  8
0
100
AcDbBlockBegin
  2
*D189
 70
     1
 10
0.0
 20
0.0
 30
0.0
  3
*D189
  1

  0
LINE
  5
6112
330
610F
100
AcDbEntity
  8
Dim
 62
     0
370
    -2
100
AcDbLine
 10
684.2727479609632
 20
2082.184168610866
 30
0.0
 11
726.5180591644249
 21
2082.184168610866
 31
0.0
  0
LINE
  5
6113
330
610F
100
AcDbEntity
  8
Dim
 62
     0
370
    -2
100
AcDbLine
 10
684.2727479609625
 20
2279.059168610866
 30
0.0
 11
726.5180591644246
 21
2279.059168610866
 31
0.0
  0
LINE
  5
6114
330
610F
100
AcDbEntity
  8
Dim
 62
     0
370
    -2
100
AcDbLine
 10
726.5180591644249
 20
2092.183558259304
 30
0.0
 11
726.5180591644246
 21
2269.059778962429
 31
0.0
  0
INSERT
  5
6115
330
610F
100
AcDbEntity
  8
Dim
 62
     0
370
    -2
100
AcDbBlockReference
  2
_DOT
 10
726.5180591644249
 20
2082.184168610866
 30
0.0
 41
9.999389648437498
 42
9.999389648437498
 43
9.999389648437498
 50
270.0000000000001
  0
INSERT
  5
6116
330
610F
100
AcDbEntity
  8
Dim
 62
     0
370
    -2
100
AcDbBlockReference
  2
_DOT
 10
726.5180591644246
 20
2279.059168610866
 30
0.0
 41
9.999389648437498
 42
9.999389648437498
 43
9.999389648437498
 50
90.0000000000001
  0
MTEXT
  5
6117
330
610F
100
AcDbEntity
  8
Dim
 62
     0
100
AcDbMText
 10
704.3017505706748
 20
2180.621668610865
 30
0.0
 40
24.4326171875
 41
0.0
 46
0.0
 71
     5
 72
     1
  1
\A1;350
  7
ＭＳ ゴシック
 11
-1.732370860519863E-15
 21
1.0
 31
0.0
 73
     1
 44
1.0
  0
POINT
  5
6118
330
610F
100
AcDbEntity
  8
Defpoints
 62
     0
100
AcDbPoint
 10
659.2727479609632
 20
2082.184168610866
 30
0.0
  0
POINT
  5
6119
330
610F
100
AcDbEntity
  8
Defpoints
 62
     0
100
AcDbPoint
 10
659.2727479609625
 20
2279.059168610866
 30
0.0
  0
POINT
  5
611A
330
610F
100
AcDbEntity
  8
Defpoints
 62
     0
100
AcDbPoint
 10
726.5180591644246
 20
2279.059168610866
 30
0.0
  0
ENDBLK
  5
6111
330
610F
100
AcDbEntity
  8
0
100
AcDbBlockEnd
  0
BLOCK
  5
6123
330
6122
100
AcDbEntity
  8
0
100
AcDbBlockBegin
  2
*D190
 70
     1
 10
0.0
 20
0.0
 30
0.0
  3
*D190
  1

  0
LINE
  5
6125
330
6122
100
AcDbEntity
  8
Dim
 62
     0
370
    -2
100
AcDbLine
 10
527.8471484032957
 20
2748.077334068356
 30
0.0
 11
527.8471484032957
 21
2779.646738459045
 31
0.0
  0
LINE
  5
6126
330
6122
100
AcDbEntity
  8
Dim
 62
     0
370
    -2
100
AcDbLine
 10
370.3471484032962
 20
2750.179887589652
 30
0.0
 11
370.3471484032962
 21
2779.646738459044
 31
0.0
  0
LINE
  5
6127
330
6122
100
AcDbEntity
  8
Dim
 62
     0
370
    -2
100
AcDbLine
 10
517.8477587548582
 20
2779.646738459045
 30
0.0
 11
380.3465380517337
 21
2779.646738459044
 31
0.0
  0
INSERT
  5
6128
330
6122
100
AcDbEntity
  8
Dim
 62
     0
370
    -2
100
AcDbBlockReference
  2
_DOT
 10
527.8471484032957
 20
2779.646738459045
 30
0.0
 41
9.999389648437498
 42
9.999389648437498
 43
9.999389648437498
 50
0.0000000000001654
  0
INSERT
  5
6129
330
6122
100
AcDbEntity
  8
Dim
 62
     0
370
    -2
100
AcDbBlockReference
  2
_DOT
 10
370.3471484032962
 20
2779.646738459044
 30
0.0
 41
9.999389648437498
 42
9.999389648437498
 43
9.999389648437498
 50
180.0000000000002
  0
MTEXT
  5
612A
330
6122
100
AcDbEntity
  8
Dim
 62
     0
100
AcDbMText
 10
449.0971484032959
 20
2801.863047052794
 30
0.0
 40
24.4326171875
 41
0.0
 46
0.0
 71
     5
 72
     1
  1
\A1;280
  7
ＭＳ ゴシック
 73
     1
 44
1.0
  0
POINT
  5
612B
330
6122
100
AcDbEntity
  8
Defpoints
 62
     0
100
AcDbPoint
 10
527.8471484032957
 20
2723.077334068356
 30
0.0
  0
POINT
  5
612C
330
6122
100
AcDbEntity
  8
Defpoints
 62
     0
100
AcDbPoint
 10
370.3471484032962
 20
2725.179887589652
 30
0.0
  0
POINT
  5
612D
330
6122
100
AcDbEntity
  8
Defpoints
 62
     0
100
AcDbPoint
 10
370.3471484032962
 20
2779.646738459044
 30
0.0
  0
ENDBLK
  5
6124
330
6122
100
AcDbEntity
  8
0
100
AcDbBlockEnd
  0
BLOCK
  5
6132
330
6131
100
AcDbEntity
  8
0
100
AcDbBlockBegin
  2
*D191
 70
     1
 10
0.0
 20
0.0
 30
0.0
  3
*D191
  1

  0
LINE
  5
6134
330
6131
100
AcDbEntity
  8
Dim
 62
     0
370
    -2
100
AcDbLine
 10
684.2727479609632
 20
2082.184168610866
 30
0.0
 11
726.5180591644249
 21
2082.184168610866
 31
0.0
  0
LINE
  5
6135
330
6131
100
AcDbEntity
  8
Dim
 62
     0
370
    -2
100
AcDbLine
 10
667.7734538582224
 20
2039.996677193964
 30
0.0
 11
726.5180591644249
 21
2039.996677193964
 31
0.0
  0
LINE
  5
6136
330
6131
100
AcDbEntity
  8
Dim
 62
     0
370
    -2
100
AcDbLine
 10
726.5180591644249
 20
2072.184778962429
 30
0.0
 11
726.5180591644249
 21
2049.996066842401
 31
0.0
  0
INSERT
  5
6137
330
6131
100
AcDbEntity
  8
Dim
 62
     0
370
    -2
100
AcDbBlockReference
  2
_DOT
 10
726.5180591644249
 20
2082.184168610866
 30
0.0
 41
9.999389648437498
 42
9.999389648437498
 43
9.999389648437498
 50
90.0
  0
INSERT
  5
6138
330
6131
100
AcDbEntity
  8
Dim
 62
     0
370
    -2
100
AcDbBlockReference
  2
_DOT
 10
726.5180591644249
 20
2039.996677193964
 30
0.0
 41
9.999389648437498
 42
9.999389648437498
 43
9.999389648437498
 50
270.0
  0
MTEXT
  5
6139
330
6131
100
AcDbEntity
  8
Dim
 62
     0
100
AcDbMText
 10
704.3017505706749
 20
2061.090422902415
 30
0.0
 40
24.4326171875
 41
0.0
 46
0.0
 71
     5
 72
     1
  1
\A1;75
  7
ＭＳ ゴシック
 11
0.0
 21
1.0
 31
0.0
 73
     1
 44
1.0
  0
POINT
  5
613A
330
6131
100
AcDbEntity
  8
Defpoints
 62
     0
100
AcDbPoint
 10
659.2727479609632
 20
2082.184168610866
 30
0.0
  0
POINT
  5
613B
330
6131
100
AcDbEntity
  8
Defpoints
 62
     0
100
AcDbPoint
 10
642.7734538582224
 20
2039.996677193964
 30
0.0
  0
POINT
  5
613C
330
6131
100
AcDbEntity
  8
Defpoints
 62
     0
100
AcDbPoint
 10
726.5180591644249
 20
2039.996677193964
 30
0.0
  0
ENDBLK
  5
6133
330
6131
100
AcDbEntity
  8
0
100
AcDbBlockEnd
  0
BLOCK
  5
6143
330
6142
100
AcDbEntity
  8
0
100
AcDbBlockBegin
  2
*D192
 70
     1
 10
0.0
 20
0.0
 30
0.0
  3
*D192
  1

  0
LINE
  5
6145
330
6142
100
AcDbEntity
  8
Dim
 62
     0
370
    -2
100
AcDbLine
 10
684.2727479609632
 20
2700.934185777061
 30
0.0
 11
726.5180591644249
 21
2700.934185777061
 31
0.0
  0
LINE
  5
6146
330
6142
100
AcDbEntity
  8
Dim
 62
     0
370
    -2
100
AcDbLine
 10
667.7734538582224
 20
2743.121677193963
 30
0.0
 11
726.5180591644249
 21
2743.121677193963
 31
0.0
  0
LINE
  5
6147
330
6142
100
AcDbEntity
  8
Dim
 62
     0
370
    -2
100
AcDbLine
 10
726.5180591644249
 20
2710.933575425499
 30
0.0
 11
726.5180591644249
 21
2733.122287545526
 31
0.0
  0
INSERT
  5
6148
330
6142
100
AcDbEntity
  8
Dim
 62
     0
370
    -2
100
AcDbBlockReference
  2
_DOT
 10
726.5180591644249
 20
2700.934185777061
 30
0.0
 41
9.999389648437498
 42
9.999389648437498
 43
9.999389648437498
 50
270.0
  0
INSERT
  5
6149
330
6142
100
AcDbEntity
  8
Dim
 62
     0
370
    -2
100
AcDbBlockReference
  2
_DOT
 10
726.5180591644249
 20
2743.121677193963
 30
0.0
 41
9.999389648437498
 42
9.999389648437498
 43
9.999389648437498
 50
90.0
  0
MTEXT
  5
614A
330
6142
100
AcDbEntity
  8
Dim
 62
     0
100
AcDbMText
 10
704.3017505706749
 20
2722.027931485512
 30
0.0
 40
24.4326171875
 41
0.0
 46
0.0
 71
     5
 72
     1
  1
\A1;75
  7
ＭＳ ゴシック
 11
0.0
 21
1.0
 31
0.0
 73
     1
 44
1.0
  0
POINT
  5
614B
330
6142
100
AcDbEntity
  8
Defpoints
 62
     0
100
AcDbPoint
 10
659.2727479609632
 20
2700.934185777061
 30
0.0
  0
POINT
  5
614C
330
6142
100
AcDbEntity
  8
Defpoints
 62
     0
100
AcDbPoint
 10
642.7734538582224
 20
2743.121677193963
 30
0.0
  0
POINT
  5
614D
330
6142
100
AcDbEntity
  8
Defpoints
 62
     0
100
AcDbPoint
 10
726.5180591644249
 20
2743.121677193963
 30
0.0
  0
ENDBLK
  5
6144
330
6142
100
AcDbEntity
  8
0
100
AcDbBlockEnd
  0
BLOCK
  5
6173
330
6172
100
AcDbEntity
  8
0
100
AcDbBlockBegin
  2
*D193
 70
     1
 10
0.0
 20
0.0
 30
0.0
  3
*D193
  1

  0
LINE
  5
6175
330
6172
100
AcDbEntity
  8
Dim
 62
     0
370
    -2
100
AcDbLine
 10
1757.958588523288
 20
2360.853620041537
 30
0.0
 11
1757.958588523288
 21
2337.778243755612
 31
0.0
  0
LINE
  5
6176
330
6172
100
AcDbEntity
  8
Dim
 62
     0
370
    -2
100
AcDbLine
 10
1762.958588523288
 20
2360.85361973539
 30
0.0
 11
1762.958588523288
 21
2337.778243755612
 31
0.0
  0
LINE
  5
6177
330
6172
100
AcDbEntity
  8
Dim
 62
     0
370
    -2
100
AcDbLine
 10
1762.958588523288
 20
2337.778243755612
 30
0.0
 11
1815.589030906101
 21
2337.778243755612
 31
0.0
  0
LINE
  5
6178
330
6172
100
AcDbEntity
  8
Dim
 62
     0
370
    -2
100
AcDbLine
 10
1767.957978171726
 20
2337.778243755612
 30
0.0
 11
1752.959198874851
 21
2337.778243755612
 31
0.0
  0
LINE
  5
6179
330
6172
100
AcDbEntity
  8
Dim
 62
     0
370
    -2
100
AcDbLine
 10
1752.959198874851
 20
2337.778243755612
 30
0.0
 11
1742.959809226413
 21
2337.778243755612
 31
0.0
  0
INSERT
  5
617A
330
6172
100
AcDbEntity
  8
Dim
 62
     0
370
    -2
100
AcDbBlockReference
  2
_DOT
 10
1757.958588523288
 20
2337.778243755612
 30
0.0
 41
9.999389648437498
 42
9.999389648437498
 43
9.999389648437498
 50
180.0
  0
INSERT
  5
617B
330
6172
100
AcDbEntity
  8
Dim
 62
     0
370
    -2
100
AcDbBlockReference
  2
_DOT
 10
1762.958588523288
 20
2337.778243755612
 30
0.0
 41
9.999389648437498
 42
9.999389648437498
 43
9.999389648437498
  0
MTEXT
  5
617C
330
6172
100
AcDbEntity
  8
Dim
 62
     0
100
AcDbMText
 10
1799.273199363132
 20
2359.994552349362
 30
0.0
 40
24.4326171875
 41
0.0
 46
0.0
 71
     5
 72
     1
  1
\A1;5
  7
ＭＳ ゴシック
 73
     1
 44
1.0
  0
POINT
  5
617D
330
6172
100
AcDbEntity
  8
Defpoints
 62
     0
100
AcDbPoint
 10
1757.958588523288
 20
2385.853620041537
 30
0.0
  0
POINT
  5
617E
330
6172
100
AcDbEntity
  8
Defpoints
 62
     0
100
AcDbPoint
 10
1762.958588523288
 20
2385.85361973539
 30
0.0
  0
POINT
  5
617F
330
6172
100
AcDbEntity
  8
Defpoints
 62
     0
100
AcDbPoint
 10
1762.958588523288
 20
2337.778243755612
 30
0.0
  0
ENDBLK
  5
6174
330
6172
100
AcDbEntity
  8
0
100
AcDbBlockEnd
  0
ENDSEC
  0
SECTION
  2
ENTITIES
  0
MTEXT
  5
177
330
A
100
AcDbEntity
  8
template
390
1D
100
AcDbMText
 10
82.00000000048226
 20
348.023957835319
 30
0.0
 40
16.28841145833333
 41
0.0
 46
0.0
 71
     1
 72
     1
  1
品名
  7
ＭＳ ゴシック
 73
     1
 44
0.7828267384257843
  0
MTEXT
  5
178
330
A
100
AcDbEntity
  8
template
390
1D
100
AcDbMText
 10
82.00000000048226
 20
263.0239578353188
 30
0.0
 40
16.28841145833333
 41
0.0
 46
0.0
 71
     1
 72
     1
  1
仕様
  7
ＭＳ ゴシック
 73
     1
 44
0.7828267384257843
  0
LINE
  5
179
330
A
100
AcDbEntity
  8
template
390
1D
100
AcDbLine
 10
2025.0
 20
271.4388797103189
 30
0.0
 11
75.00000000000023
 21
271.4388797103189
 31
0.0
  0
LWPOLYLINE
  5
17A
330
A
100
AcDbEntity
  8
template
390
1D
100
AcDbPolyline
 90
        5
 70
   128
 43
0.0
 10
2025.0
 20
2901.438879710319
 10
75.00000000000023
 20
2901.438879710319
 10
75.00000000000023
 20
101.4388797103188
 10
2025.0
 20
101.4388797103188
 10
2025.0
 20
2901.438879710319
  0
LINE
  5
17B
330
A
100
AcDbEntity
  8
template
390
1D
100
AcDbLine
 10
2025.0
 20
356.4388797103188
 30
0.0
 11
75.00000000000023
 21
356.4388797103188
 31
0.0
  0
LINE
  5
17C
330
A
100
AcDbEntity
  8
template
390
1D
100
AcDbLine
 10
2025.000000000482
 20
186.4388797103189
 30
0.0
 11
1272.000000000482
 21
186.4388797103189
 31
0.0
  0
MTEXT
  5
17E
330
A
100
AcDbEntity
  8
template
390
1D
100
AcDbMText
 10
1301.871406252743
 20
156.5284852370108
 30
0.0
 40
24.4326171875
 41
0.0
 46
0.0
 71
     1
 72
     1
  1
大洋金物株式会社 ティーフォルム事業部
  7
ＭＳ ゴシック
 73
     1
 44
0.7828267384257843
  0
MTEXT
  5
180
330
A
100
AcDbEntity
  8
template
390
1D
100
AcDbMText
 10
1834.000000000742
 20
234.4414968978188
 30
0.0
 40
24.4326171875
 41
0.0
 46
0.0
 71
     1
 72
     1
  1
1:10
  7
ＭＳ ゴシック
 73
     1
 44
0.7828267384257843
  0
MTEXT
  5
181
330
A
100
AcDbEntity
  8
template
390
1D
100
AcDbMText
 10
1781.000000000742
 20
263.0239578353188
 30
0.0
 40
16.28841145833333
 41
0.0
 46
0.0
 71
     1
 72
     1
  1
縮尺
  7
ＭＳ ゴシック
 73
     1
 44
0.7828267384257843
  0
LINE
  5
182
330
A
100
AcDbEntity
  8
template
390
1D
100
AcDbLine
 10
1774.000000000742
 20
186.4388797103189
 30
0.0
 11
1774.000000000742
 21
271.4388797103189
 31
0.0
  0
MTEXT
  5
183
330
A
100
AcDbEntity
  8
template
390
1D
100
AcDbMText
 10
1530.000000000742
 20
263.0239578353188
 30
0.0
 40
16.28841145833333
 41
0.0
 46
0.0
 71
     1
 72
     1
  1
容量
  7
ＭＳ ゴシック
 73
     1
 44
0.7828267384257843
  0
LINE
  5
184
330
A
100
AcDbEntity
  8
template
390
1D
100
AcDbLine
 10
1523.000000000742
 20
186.4388797103189
 30
0.0
 11
1523.000000000742
 21
271.4388797103189
 31
0.0
  0
MTEXT
  5
185
330
A
100
AcDbEntity
  8
template
390
1D
100
AcDbMText
 10
1279.000000000742
 20
348.023957835319
 30
0.0
 40
16.28841145833333
 41
0.0
 46
0.0
 71
     1
 72
     1
  1
品番
  7
ＭＳ ゴシック
 73
     1
 44
0.7828267384257843
  0
MTEXT
  5
186
330
A
100
AcDbEntity
  8
template
390
1D
100
AcDbMText
 10
1279.000000000742
 20
263.0239578353188
 30
0.0
 40
16.28841145833333
 41
0.0
 46
0.0
 71
     1
 72
     1
  1
重量
  7
ＭＳ ゴシック
 73
     1
 44
0.7828267384257843
  0
MTEXT
  5
187
330
A
100
AcDbEntity
  8
template
390
1D
100
AcDbMText
 10
1332.000000000742
 20
319.4414968978188
 30
0.0
 40
24.4326171875
 41
0.0
 46
24.4326171875
 71
     1
 72
     1
  1
{ADF70-3011}
  7
ＭＳ ゴシック
 73
     1
 44
0.7828267384257843
1001
ACAD
1000
ACAD_MTEXT_DEFINED_HEIGHT_BEGIN
1070
    46
1040
24.4326171875
1000
ACAD_MTEXT_DEFINED_HEIGHT_END
  0
LINE
  5
188
330
A
100
AcDbEntity
  8
template
390
1D
100
AcDbLine
 10
1272.000000000742
 20
101.4388797103188
 30
0.0
 11
1272.000000000742
 21
356.4388797103188
 31
0.0
  0
MTEXT
  5
189
330
A
100
AcDbEntity
  8
template
390
1D
100
AcDbMText
 10
135.0000000004822
 20
319.4414968978188
 30
0.0
 40
24.4326171875
 41
0.0
 46
27.5355595703125
 71
     1
 72
     1
  1
{洗面器 -CATALANO, New Zero-}
  7
ＭＳ ゴシック
 73
     1
 44
0.7828267384257843
1001
ACAD
1000
ACAD_MTEXT_DEFINED_HEIGHT_BEGIN
1070
    46
1040
27.5355595703125
1000
ACAD_MTEXT_DEFINED_HEIGHT_END
  0
MTEXT
  5
18A
330
A
100
AcDbEntity
  8
template
 62
     1
390
1D
100
AcDbMText
 10
135.0000000004822
 20
234.4414968978188
 30
0.0
 40
24.4326171875
 41
0.0
 46
68.99651757812501
 71
     1
 72
     1
  1
{{\C256;壁掛け,カウンター置き,半埋め込み/オーバーフロー付き/壁取付ボルト付属/\P陶器/ホワイト}}
  7
ＭＳ ゴシック
 73
     1
 44
0.9822934569727008
1001
ACAD
1000
ACAD_MTEXT_DEFINED_HEIGHT_BEGIN
1070
    46
1040
68.99651757812501
1000
ACAD_MTEXT_DEFINED_HEIGHT_END
  0
MTEXT
  5
1A6
330
A
100
AcDbEntity
  8
template
390
1D
100
AcDbMText
 10
1332.000000000742
 20
234.4414968978188
 30
0.0
 40
24.4326171875
 41
0.0
 46
28.390701171875
 71
     1
 72
     1
  1
{41kg}
  7
ＭＳ ゴシック
 73
     1
 44
0.7828267384257843
1001
ACAD
1000
ACAD_MTEXT_DEFINED_HEIGHT_BEGIN
1070
    46
1040
28.390701171875
1000
ACAD_MTEXT_DEFINED_HEIGHT_END
  0
MTEXT
  5
374
330
A
100
AcDbEntity
  8
template
390
1D
100
AcDbMText
 10
1581.992122669024
 20
234.4414968978188
 30
0.0
 40
24.4326171875
 41
0.0
 46
25.80084375
 71
     1
 72
     1
  1
{7L/1ボウル}
  7
ＭＳ ゴシック
 73
     1
 44
0.7828267384257843
1001
ACAD
1000
ACAD_MTEXT_DEFINED_HEIGHT_BEGIN
1070
    46
1040
25.80084375
1000
ACAD_MTEXT_DEFINED_HEIGHT_END
  0
INSERT
  5
3D0
330
A
100
AcDbEntity
  8
template
100
AcDbBlockReference
  2
名称未設定-1
 10
1873.559250554905
 20
30.23897196054438
 30
0.0
 41
0.7619999999999999
 42
0.7619999999999999
 43
0.7619999999999999
  0
MTEXT
  5
BDB
102
{ACAD_XDICTIONARY
360
BDC
102
}
330
A
100
AcDbEntity
  8
template
  6
Continuous
100
AcDbMText
 10
78.95663872901252
 20
86.10730750352229
 30
0.0
 40
23.0
 41
0.0
 46
23.0
 71
     1
 72
     1
  1
{20190330N}
  7
ＭＳ ゴシック
 73
     1
 44
1.0
1001
ACAD
1000
ACAD_MTEXT_DEFINED_HEIGHT_BEGIN
1070
    46
1040
23.0
1000
ACAD_MTEXT_DEFINED_HEIGHT_END
  0
LWPOLYLINE
  5
BEE
330
A
100
AcDbEntity
  8
PRINT BORDER
100
AcDbPolyline
 90
        4
 70
     1
 43
0.0
 10
0.0
 20
0.0
 10
0.0
 20
2970.0
 10
2100.0
 20
2970.0
 10
2100.0
 20
0.0
  0
INSERT
  5
1273
330
A
100
AcDbEntity
  8
0
 62
     7
100
AcDbBlockReference
  2
BLOCK_2
 10
591.2037060744204
 20
943.564364962162
 30
0.0
  0
INSERT
  5
127B
330
A
100
AcDbEntity
  8
0
 62
     7
100
AcDbBlockReference
  2
BLOCK_2
 10
1291.863324028138
 20
1038.76992320659
 30
0.0
  0
INSERT
  5
127C
330
A
100
AcDbEntity
  8
0
 62
     7
100
AcDbBlockReference
  2
BLOCK_2
 10
652.1648429406905
 20
1595.641631888467
 30
0.0
  0
INSERT
  5
3B99
330
A
100
AcDbEntity
  8
retino
100
AcDbBlockReference
  2
mobile_latù
 10
-92101.31485198285
 20
1730.415535296608
 30
0.0
  0
INSERT
  5
467E
330
A
100
AcDbEntity
  8
retino
100
AcDbBlockReference
  2
mobile_latù
 10
-100894.893236163
 20
1696.039721945452
 30
0.0
  0
INSERT
  5
527B
330
A
100
AcDbEntity
  8
retino
100
AcDbBlockReference
  2
mobile_latù
 10
-89900.42748460227
 20
2057.97116653715
 30
0.0
  0
INSERT
  5
527C
330
A
100
AcDbEntity
  8
0
100
AcDbBlockReference
  2
.TD_SECTION_1
 10
225818104807.5758
 20
2467.422636311911
 30
0.0
  0
INSERT
  5
527D
330
A
100
AcDbEntity
  8
0
100
AcDbBlockReference
  2
.TD_SECTION_2
 10
225818170343.5758
 20
2467.422636311911
 30
0.0
  0
INSERT
  5
527E
330
A
100
AcDbEntity
  8
0
  6
Continuous
 62
     0
370
     0
100
AcDbBlockReference
  2
.TD_SECTION_1
 10
-8769.816836312122
 20
2681.893749185237
 30
0.0
  0
INSERT
  5
527F
330
A
100
AcDbEntity
  8
0
  6
Continuous
 62
     0
370
     0
100
AcDbBlockReference
  2
.TD_SECTION_2
 10
-9327.194994881458
 20
2989.447269387873
 30
0.0
  0
INSERT
  5
5280
330
A
100
AcDbEntity
  8
0
  6
Continuous
 62
     0
370
     0
100
AcDbBlockReference
  2
.TD_SECTION_1
 10
-11193.31175928566
 20
763.8992218647024
 30
0.0
  0
INSERT
  5
5281
330
A
100
AcDbEntity
  8
0
  6
Continuous
 62
     0
370
     0
100
AcDbBlockReference
  2
.TD_SECTION_2
 10
-10905.35097055885
 20
465.7910675678274
 30
0.0
  0
INSERT
  5
5282
330
A
100
AcDbEntity
  8
0
  6
Continuous
 62
     0
370
     0
100
AcDbBlockReference
  2
.TD_SECTION_1
 10
-11064.96092844183
 20
698.0103962023752
 30
0.0
  0
INSERT
  5
5283
330
A
100
AcDbEntity
  8
0
  6
Continuous
 62
     0
370
     0
100
AcDbBlockReference
  2
.TD_SECTION_2
 10
-10776.90956354314
 20
399.8117572863596
 30
0.0
  0
INSERT
  5
5284
330
A
100
AcDbEntity
  8
0
  6
Continuous
 62
     0
370
     0
100
AcDbBlockReference
  2
.TD_SECTION_1
 10
-1462.487522281953
 20
1958.724372419401
 30
0.0
  0
INSERT
  5
5285
330
A
100
AcDbEntity
  8
0
  6
Continuous
 62
     0
370
     0
100
AcDbBlockReference
  2
.TD_SECTION_2
 10
-1135.18037048752
 20
1672.677238019987
 30
0.0
  0
INSERT
  5
5286
330
A
100
AcDbEntity
  8
0
  6
Continuous
 62
     0
370
     0
100
AcDbBlockReference
  2
.TD_SECTION_1
 10
704.608903935718
 20
-713.9911611042783
 30
0.0
  0
INSERT
  5
5287
330
A
100
AcDbEntity
  8
0
  6
Continuous
 62
     0
370
     0
100
AcDbBlockReference
  2
.TD_SECTION_2
 10
1319.461252263355
 20
-1311.565746065216
 30
0.0
  0
MTEXT
  5
57AD
330
A
100
AcDbEntity
  8
Dim
390
1D
100
AcDbMText
 10
1116.328882501321
 20
2098.789585013647
 30
34.99521132346015
 40
24.0
 41
1169.771715461011
 46
177.5543690294172
 71
     1
 72
     1
  1
{※陶器製品には寸法公差があります。\P　洗面器の収め方をご確認の上、必ず現物を合わせて\P  カウンターに切込を行ってください。\P※カウンター置きの場合も壁固定が必要です。}
  7
ＭＳ ゴシック
 11
1.883358689166497E-15
 21
1.0
 31
0.0
 73
     1
 44
1.0
1001
ACAD
1000
ACAD_MTEXT_DEFINED_HEIGHT_BEGIN
1070
    46
1040
177.5543690294172
1000
ACAD_MTEXT_DEFINED_HEIGHT_END
  0
LINE
  5
5A81
330
A
100
AcDbEntity
  8
0
100
AcDbLine
 10
503.5047716943113
 20
780.8756617232273
 30
0.0
 11
503.389216884741
 21
780.8002222701023
 31
0.0
  0
LINE
  5
5A82
330
A
100
AcDbEntity
  8
0
100
AcDbLine
 10
503.389216884741
 20
780.8002222701023
 30
0.0
 11
503.2729754296629
 21
780.874853007407
 31
0.0
  0
CIRCLE
  5
5A83
330
A
100
AcDbEntity
  8
0
  6
HIDDEN2
100
AcDbCircle
 10
439.4052919035144
 20
792.7842592607765
 30
0.0
 40
17.5
  0
CIRCLE
  5
5A84
330
A
100
AcDbEntity
  8
0
  6
HIDDEN2
100
AcDbCircle
 10
439.4052919035144
 20
692.7842592607765
 30
0.0
 40
16.0
  0
CIRCLE
  5
5A85
330
A
100
AcDbEntity
  8
0
  6
HIDDEN2
100
AcDbCircle
 10
439.4052919035144
 20
892.7842592607765
 30
0.0
 40
16.0
  0
LINE
  5
5A86
330
A
100
AcDbEntity
  8
0
100
AcDbLine
 10
370.3471484032957
 20
545.7838023462962
 30
0.0
 11
370.3471484032957
 21
1789.784716175374
 31
0.0
  0
LINE
  5
5A87
330
A
100
AcDbEntity
  8
0
100
AcDbLine
 10
864.2947831389106
 20
542.7842592608347
 30
0.0
 11
373.3471484032957
 21
542.7842592608347
 31
0.0
  0
LINE
  5
5A88
330
A
100
AcDbEntity
  8
0
100
AcDbLine
 10
870.293869309849
 20
1786.785173089898
 30
0.0
 11
870.293869309849
 21
548.7833454317722
 31
0.0
  0
ELLIPSE
  5
5A89
330
A
100
AcDbEntity
  8
0
100
AcDbEllipse
 10
373.3471484032957
 20
545.7838023462962
 30
0.0
 11
-2.999999999999998
 21
4.414319026262897E-8
 31
0.0
210
0.0
220
0.0
230
1.0
 40
0.999847695158678
 41
0.0000000147166379
 42
1.570796341507051
  0
ELLIPSE
  5
5A8A
330
A
100
AcDbEntity
  8
0
100
AcDbEllipse
 10
864.2938692402481
 20
548.7842593304365
 30
0.0
 11
-4.242640883921921
 21
4.242640883921922
 31
0.0
210
0.0
220
0.0
230
1.0
 40
0.9999999536129324
 41
2.356346783439536
 42
3.926838523742094
  0
CIRCLE
  5
5A8B
330
A
100
AcDbEntity
  8
0
100
AcDbCircle
 10
597.3471484032957
 20
792.7842592607765
 30
0.0
 40
22.0
  0
CIRCLE
  5
5A8C
330
A
100
AcDbEntity
  8
0
100
AcDbCircle
 10
597.3471484032957
 20
792.7842592607765
 30
0.0
 40
38.44689109742895
  0
LINE
  5
5A8D
330
A
100
AcDbEntity
  8
0
100
AcDbLine
 10
499.9425424163542
 20
1016.784259260835
 30
0.0
 11
499.9425424163542
 21
568.7842592608347
 31
0.0
  0
ELLIPSE
  5
5A8E
330
A
100
AcDbEntity
  8
0
100
AcDbEllipse
 10
503.3881559992028
 20
792.7842592607765
 30
0.0
 11
-7.337393053705664E-16
 21
-11.98287221885403
 31
0.0
210
0.0
220
0.0
230
1.0
 40
0.086521914256924
 41
0.0
 42
6.283185307179586
  0
LINE
  5
5A9E
330
A
100
AcDbEntity
  8
0
100
AcDbLine
 10
844.293869309849
 20
548.7842592608347
 30
0.0
 11
519.9425424163542
 21
548.7842592608347
 31
0.0
  0
LINE
  5
5A9F
330
A
100
AcDbEntity
  8
0
100
AcDbLine
 10
864.293869309849
 20
1016.784259260835
 30
0.0
 11
864.293869309849
 21
568.7842592608347
 31
0.0
  0
ARC
  5
5AA0
330
A
100
AcDbEntity
  8
0
100
AcDbCircle
 10
519.9425424163542
 20
568.7842592608347
 30
0.0
 40
20.0
100
AcDbArc
 50
180.0
 51
270.0
  0
ARC
  5
5AA1
330
A
100
AcDbEntity
  8
0
100
AcDbCircle
 10
844.293869309849
 20
568.7842592608347
 30
0.0
 40
20.0
100
AcDbArc
 50
270.0000000002215
 51
0.0
  0
LINE
  5
5AA2
330
A
100
AcDbEntity
  8
0
100
AcDbLine
 10
844.293869309849
 20
1036.784259260835
 30
0.0
 11
519.9425424163542
 21
1036.784259260835
 31
0.0
  0
ARC
  5
5AA3
330
A
100
AcDbEntity
  8
0
100
AcDbCircle
 10
519.9425424163542
 20
1016.784259260835
 30
0.0
 40
20.0
100
AcDbArc
 50
90.00000000022146
 51
180.0
  0
ARC
  5
5AA4
330
A
100
AcDbEntity
  8
0
100
AcDbCircle
 10
844.293869309849
 20
1016.784259260835
 30
0.0
 40
20.0
100
AcDbArc
 50
0.0
 51
90.0
  0
LINE
  5
5AA5
330
A
100
AcDbEntity
  8
0
100
AcDbLine
 10
503.5047716943113
 20
1554.692856798443
 30
0.0
 11
503.389216884741
 21
1554.768296251568
 31
0.0
  0
LINE
  5
5AA6
330
A
100
AcDbEntity
  8
0
100
AcDbLine
 10
503.389216884741
 20
1554.768296251568
 30
0.0
 11
503.2729754296629
 21
1554.693665514263
 31
0.0
  0
CIRCLE
  5
5AA7
330
A
100
AcDbEntity
  8
0
  6
HIDDEN2
100
AcDbCircle
 10
439.4052919035144
 20
1542.784259260893
 30
0.0
 40
17.5
  0
CIRCLE
  5
5AA8
330
A
100
AcDbEntity
  8
0
  6
HIDDEN2
100
AcDbCircle
 10
439.4052919035144
 20
1642.784259260893
 30
0.0
 40
16.0
  0
CIRCLE
  5
5AA9
330
A
100
AcDbEntity
  8
0
  6
HIDDEN2
100
AcDbCircle
 10
439.4052919035144
 20
1442.784259260893
 30
0.0
 40
16.0
  0
LINE
  5
5AAA
330
A
100
AcDbEntity
  8
0
100
AcDbLine
 10
864.2947831389106
 20
1792.784259260835
 30
0.0
 11
373.3471484032957
 21
1792.784259260835
 31
0.0
  0
ELLIPSE
  5
5AAB
330
A
100
AcDbEntity
  8
0
100
AcDbEllipse
 10
373.3471484032957
 20
1789.784716175374
 30
0.0
 11
-2.999999999999998
 21
-4.414318989523492E-8
 31
0.0
210
0.0
220
0.0
230
-1.0
 40
0.999847695158678
 41
0.0000000147166379
 42
1.570796341507051
  0
ELLIPSE
  5
5AAC
330
A
100
AcDbEntity
  8
0
100
AcDbEllipse
 10
864.2938692402481
 20
1786.784259191233
 30
0.0
 11
-4.242640883921921
 21
-4.242640883921922
 31
0.0
210
0.0
220
0.0
230
-1.0
 40
0.9999999536129324
 41
2.356346783439536
 42
3.926838523742094
  0
CIRCLE
  5
5AAD
330
A
100
AcDbEntity
  8
0
100
AcDbCircle
 10
597.3471484032957
 20
1542.784259260893
 30
0.0
 40
22.0
  0
CIRCLE
  5
5AAE
330
A
100
AcDbEntity
  8
0
100
AcDbCircle
 10
597.3471484032957
 20
1542.784259260893
 30
0.0
 40
38.44689109742895
  0
LINE
  5
5AAF
330
A
100
AcDbEntity
  8
0
100
AcDbLine
 10
499.9425424163542
 20
1318.784259260835
 30
0.0
 11
499.9425424163542
 21
1766.784259260835
 31
0.0
  0
ELLIPSE
  5
5AB0
330
A
100
AcDbEntity
  8
0
100
AcDbEllipse
 10
503.3881559992028
 20
1542.784259260893
 30
0.0
 11
7.337393053705664E-16
 21
11.98287221885403
 31
0.0
210
0.0
220
0.0
230
-1.0
 40
0.086521914256924
 41
0.0
 42
6.283185307179586
  0
LINE
  5
5AB1
330
A
100
AcDbEntity
  8
0
100
AcDbLine
 10
844.293869309849
 20
1786.784259260835
 30
0.0
 11
519.9425424163542
 21
1786.784259260835
 31
0.0
  0
LINE
  5
5AB2
330
A
100
AcDbEntity
  8
0
100
AcDbLine
 10
864.293869309849
 20
1318.784259260835
 30
0.0
 11
864.293869309849
 21
1766.784259260835
 31
0.0
  0
ARC
  5
5AB3
330
A
100
AcDbEntity
  8
0
100
AcDbCircle
 10
519.9425424163542
 20
1766.784259260835
 30
0.0
 40
20.0
100
AcDbArc
 50
90.0
 51
180.0
  0
ARC
  5
5AB4
330
A
100
AcDbEntity
  8
0
100
AcDbCircle
 10
844.293869309849
 20
1766.784259260835
 30
0.0
 40
20.0
100
AcDbArc
 50
0.0
 51
89.99999999977852
  0
LINE
  5
5AB5
330
A
100
AcDbEntity
  8
0
100
AcDbLine
 10
844.293869309849
 20
1298.784259260835
 30
0.0
 11
519.9425424163542
 21
1298.784259260835
 31
0.0
  0
ARC
  5
5AB6
330
A
100
AcDbEntity
  8
0
100
AcDbCircle
 10
519.9425424163542
 20
1318.784259260835
 30
0.0
 40
20.0
100
AcDbArc
 50
180.0
 51
269.9999999997785
  0
ARC
  5
5AB7
330
A
100
AcDbEntity
  8
0
100
AcDbCircle
 10
844.293869309849
 20
1318.784259260835
 30
0.0
 40
20.0
100
AcDbArc
 50
270.0
 51
0.0
  0
DIMENSION
  5
5AD2
330
A
100
AcDbEntity
  8
Dim
100
AcDbDimension
  2
*D117
 10
290.8739970844827
 20
892.7842592607765
 30
0.0
 11
268.6576884907327
 21
1167.784259260835
 31
0.0
 70
    32
 71
     5
 42
550.0000000001176
 73
     0
 74
     0
 75
     0
  3
tform線あり
100
AcDbAlignedDimension
 13
351.7580133789443
 23
1442.784259260894
 33
0.0
 14
423.4052919035144
 24
892.7842592607765
 34
0.0
 50
90.0
100
AcDbRotatedDimension
  0
DIMENSION
  5
5AD6
330
A
100
AcDbEntity
  8
Dim
100
AcDbDimension
  2
*D121
 10
151.6588165869105
 20
1792.784259260821
 30
0.0
 11
151.6588165869105
 21
1167.176901292777
 31
0.0
 70
   160
 71
     5
 42
1250.000000000001
 73
     0
 74
     0
 75
     0
  3
tform線あり
100
AcDbAlignedDimension
 13
366.5413309632072
 23
542.7842592608201
 33
0.0
 14
366.5413309632072
 24
1792.784259260821
 34
0.0
 50
90.0
100
AcDbRotatedDimension
  0
DIMENSION
  5
5AE4
330
A
100
AcDbEntity
  8
Dim
100
AcDbDimension
  2
*D132
 10
290.8739970844827
 20
792.7842592607765
 30
0.0
 11
268.6576884907327
 21
742.7842592607765
 31
0.0
 70
    32
 71
     5
 42
100.0
 73
     0
 74
     0
 75
     0
  3
tform線あり
100
AcDbAlignedDimension
 13
423.4052919035144
 23
692.7842592607765
 33
0.0
 14
423.4052919035144
 24
792.7842592607765
 34
0.0
 50
90.0
100
AcDbRotatedDimension
  0
DIMENSION
  5
5AE5
330
A
100
AcDbEntity
  8
Dim
100
AcDbDimension
  2
*D133
 10
290.8739970844827
 20
892.7842592607765
 30
0.0
 11
268.6576884907327
 21
842.7842592607765
 31
0.0
 70
    32
 71
     5
 42
100.0
 73
     0
 74
     0
 75
     0
  3
tform線あり
100
AcDbAlignedDimension
 13
423.4052919035144
 23
792.7842592607765
 33
0.0
 14
423.4052919035144
 24
892.7842592607765
 34
0.0
 50
90.0
100
AcDbRotatedDimension
  0
DIMENSION
  5
5AE6
330
A
100
AcDbEntity
  8
Dim
100
AcDbDimension
  2
*D134
 10
290.8739970844827
 20
1542.784259260893
 30
0.0
 11
268.6576884907328
 21
1592.784259260893
 31
0.0
 70
    32
 71
     5
 42
100.0
 73
     0
 74
     0
 75
     0
  3
tform線あり
100
AcDbAlignedDimension
 13
423.4052919035144
 23
1642.784259260893
 33
0.0
 14
423.4052919035144
 24
1542.784259260893
 34
0.0
 50
-90.00000000000001
100
AcDbRotatedDimension
  0
DIMENSION
  5
5AE7
330
A
100
AcDbEntity
  8
Dim
100
AcDbDimension
  2
*D135
 10
290.8739970844827
 20
1442.784259260893
 30
0.0
 11
268.6576884907327
 21
1492.784259260893
 31
0.0
 70
    32
 71
     5
 42
100.0
 73
     0
 74
     0
 75
     0
  3
tform線あり
100
AcDbAlignedDimension
 13
423.4052919035144
 23
1542.784259260893
 33
0.0
 14
423.4052919035144
 24
1442.784259260893
 34
0.0
 50
-90.00000000000001
100
AcDbRotatedDimension
  0
LINE
  5
5C08
330
A
100
AcDbEntity
  8
HIDDEN
100
AcDbLine
 10
445.248311504492
 20
2173.92309107906
 30
0.0
 11
445.1833119241087
 21
2173.880656386677
 31
0.0
  0
LINE
  5
5C09
330
A
100
AcDbEntity
  8
HIDDEN
100
AcDbLine
 10
445.1833119241087
 20
2173.880656386677
 30
0.0
 11
445.1179261056272
 21
2173.922636176411
 31
0.0
  0
CIRCLE
  5
5C0A
330
A
100
AcDbEntity
  8
HIDDEN
100
AcDbCircle
 10
409.1923541221686
 20
2180.621677193931
 30
0.0
 40
9.84375
  0
CIRCLE
  5
5C0B
330
A
100
AcDbEntity
  8
HIDDEN
100
AcDbCircle
 10
409.1923541221686
 20
2124.371677193931
 30
0.0
 40
9.0
  0
CIRCLE
  5
5C0C
330
A
100
AcDbEntity
  8
HIDDEN
100
AcDbCircle
 10
409.1923541221686
 20
2236.871677193931
 30
0.0
 40
9.0
  0
LINE
  5
5C0D
330
A
100
AcDbEntity
  8
0
100
AcDbLine
 10
370.3471484032957
 20
2041.683920179536
 30
0.0
 11
370.3471484032957
 21
2741.434434208392
 31
0.0
  0
LINE
  5
5C0E
102
{ACAD_REACTORS
330
6130
102
}
330
A
100
AcDbEntity
  8
HIDDEN
100
AcDbLine
 10
648.1926929420792
 20
2039.996677193964
 30
0.0
 11
372.0346484032957
 21
2039.996677193964
 31
0.0
  0
LINE
  5
5C0F
330
A
100
AcDbEntity
  8
HIDDEN
100
AcDbLine
 10
651.5671789132316
 20
2739.747191222812
 30
0.0
 11
651.5671789132316
 21
2043.371163165116
 31
0.0
  0
ELLIPSE
  5
5C10
330
A
100
AcDbEntity
  8
0
100
AcDbEllipse
 10
372.0346484032957
 20
2041.683920179536
 30
0.0
 11
-1.687499999999999
 21
2.483054452272879E-8
 31
0.0
210
0.0
220
0.0
230
1.0
 40
0.9998476951586779
 41
0.0000000147166379
 42
1.570796341507051
  0
ELLIPSE
  5
5C11
330
A
100
AcDbEntity
  8
HIDDEN
100
AcDbEllipse
 10
648.1921788740815
 20
2043.371677233115
 30
0.0
 11
-2.386485497206081
 21
2.386485497206081
 31
0.0
210
0.0
220
0.0
230
1.0
 40
0.9999999536129325
 41
2.356346783439536
 42
3.926838523742094
  0
CIRCLE
  5
5C12
330
A
100
AcDbEntity
  8
HIDDEN
100
AcDbCircle
 10
498.0346484032957
 20
2180.621677193931
 30
0.0
 40
12.375
  0
LINE
  5
5C14
330
A
100
AcDbEntity
  8
HIDDEN
100
AcDbLine
 10
443.244557535641
 20
2306.621677193964
 30
0.0
 11
443.244557535641
 21
2054.621677193964
 31
0.0
  0
ELLIPSE
  5
5C15
330
A
100
AcDbEntity
  8
HIDDEN
100
AcDbEllipse
 10
445.1827151759931
 20
2180.621677193931
 30
0.0
 11
-4.127283592709435E-16
 21
-6.74036562310539
 31
0.0
210
0.0
220
0.0
230
1.0
 40
0.086521914256924
 41
0.0
 42
6.283185307179586
  0
LINE
  5
5C16
330
A
100
AcDbEntity
  8
HIDDEN
100
AcDbLine
 10
636.9421789132316
 20
2043.371677193964
 30
0.0
 11
454.494557535641
 21
2043.371677193964
 31
0.0
  0
LINE
  5
5C17
330
A
100
AcDbEntity
  8
HIDDEN
100
AcDbLine
 10
648.1921789132316
 20
2306.621677193964
 30
0.0
 11
648.1921789132316
 21
2054.621677193964
 31
0.0
  0
ARC
  5
5C18
330
A
100
AcDbEntity
  8
HIDDEN
100
AcDbCircle
 10
454.494557535641
 20
2054.621677193964
 30
0.0
 40
11.25
100
AcDbArc
 50
180.0
 51
270.0
  0
ARC
  5
5C19
330
A
100
AcDbEntity
  8
HIDDEN
100
AcDbCircle
 10
636.9421789132316
 20
2054.621677193964
 30
0.0
 40
11.25
100
AcDbArc
 50
270.0000000002223
 51
0.0
  0
LINE
  5
5C1A
330
A
100
AcDbEntity
  8
HIDDEN
100
AcDbLine
 10
636.9421789132316
 20
2317.871677193964
 30
0.0
 11
454.494557535641
 21
2317.871677193964
 31
0.0
  0
ARC
  5
5C1B
330
A
100
AcDbEntity
  8
HIDDEN
100
AcDbCircle
 10
454.494557535641
 20
2306.621677193964
 30
0.0
 40
11.25
100
AcDbArc
 50
90.00000000022234
 51
180.0
  0
ARC
  5
5C1C
330
A
100
AcDbEntity
  8
HIDDEN
100
AcDbCircle
 10
636.9421789132316
 20
2306.621677193964
 30
0.0
 40
11.25
100
AcDbArc
 50
0.0
 51
90.0
  0
LINE
  5
5C1D
330
A
100
AcDbEntity
  8
HIDDEN
100
AcDbLine
 10
445.248311504492
 20
2609.195263308868
 30
0.0
 11
445.1833119241087
 21
2609.237698001251
 31
0.0
  0
LINE
  5
5C1E
330
A
100
AcDbEntity
  8
HIDDEN
100
AcDbLine
 10
445.1833119241087
 20
2609.237698001251
 30
0.0
 11
445.1179261056272
 21
2609.195718211517
 31
0.0
  0
CIRCLE
  5
5C1F
330
A
100
AcDbEntity
  8
HIDDEN
100
AcDbCircle
 10
409.1923541221686
 20
2602.496677193997
 30
0.0
 40
9.84375
  0
CIRCLE
  5
5C20
330
A
100
AcDbEntity
  8
HIDDEN
100
AcDbCircle
 10
409.1923541221686
 20
2658.746677193997
 30
0.0
 40
9.0
  0
CIRCLE
  5
5C21
330
A
100
AcDbEntity
  8
HIDDEN
100
AcDbCircle
 10
409.1923541221686
 20
2546.246677193997
 30
0.0
 40
9.0
  0
LINE
  5
5C22
330
A
100
AcDbEntity
  8
HIDDEN
100
AcDbLine
 10
648.1926929420792
 20
2743.121677193964
 30
0.0
 11
372.0346484032957
 21
2743.121677193964
 31
0.0
  0
ELLIPSE
  5
5C23
330
A
100
AcDbEntity
  8
0
100
AcDbEllipse
 10
372.0346484032957
 20
2741.434434208392
 30
0.0
 11
-1.687499999999999
 21
-2.483054431606965E-8
 31
0.0
210
0.0
220
0.0
230
-1.0
 40
0.9998476951586779
 41
0.0000000147166379
 42
1.570796341507051
  0
ELLIPSE
  5
5C24
330
A
100
AcDbEntity
  8
HIDDEN
100
AcDbEllipse
 10
648.1921788740815
 20
2739.746677154813
 30
0.0
 11
-2.386485497206081
 21
-2.386485497206081
 31
0.0
210
0.0
220
0.0
230
-1.0
 40
0.9999999536129325
 41
2.356346783439536
 42
3.926838523742094
  0
CIRCLE
  5
5C25
330
A
100
AcDbEntity
  8
HIDDEN
100
AcDbCircle
 10
498.0346484032957
 20
2602.496677193997
 30
0.0
 40
12.375
  0
LINE
  5
5C27
330
A
100
AcDbEntity
  8
HIDDEN
100
AcDbLine
 10
443.244557535641
 20
2476.496677193964
 30
0.0
 11
443.244557535641
 21
2728.496677193964
 31
0.0
  0
ELLIPSE
  5
5C28
330
A
100
AcDbEntity
  8
HIDDEN
100
AcDbEllipse
 10
445.1827151759931
 20
2602.496677193997
 30
0.0
 11
4.127283592709435E-16
 21
6.74036562310539
 31
0.0
210
0.0
220
0.0
230
-1.0
 40
0.086521914256924
 41
0.0
 42
6.283185307179586
  0
LINE
  5
5C29
330
A
100
AcDbEntity
  8
HIDDEN
100
AcDbLine
 10
636.9421789132316
 20
2739.746677193964
 30
0.0
 11
454.494557535641
 21
2739.746677193964
 31
0.0
  0
LINE
  5
5C2A
330
A
100
AcDbEntity
  8
HIDDEN
100
AcDbLine
 10
648.1921789132316
 20
2476.496677193964
 30
0.0
 11
648.1921789132316
 21
2728.496677193964
 31
0.0
  0
ARC
  5
5C2B
330
A
100
AcDbEntity
  8
HIDDEN
100
AcDbCircle
 10
454.494557535641
 20
2728.496677193964
 30
0.0
 40
11.25
100
AcDbArc
 50
90.0
 51
180.0
  0
ARC
  5
5C2C
330
A
100
AcDbEntity
  8
HIDDEN
100
AcDbCircle
 10
636.9421789132316
 20
2728.496677193964
 30
0.0
 40
11.25
100
AcDbArc
 50
0.0
 51
89.99999999977767
  0
LINE
  5
5C2D
330
A
100
AcDbEntity
  8
HIDDEN
100
AcDbLine
 10
636.9421789132316
 20
2465.246677193964
 30
0.0
 11
454.494557535641
 21
2465.246677193964
 31
0.0
  0
ARC
  5
5C2E
330
A
100
AcDbEntity
  8
HIDDEN
100
AcDbCircle
 10
454.494557535641
 20
2476.496677193964
 30
0.0
 40
11.25
100
AcDbArc
 50
180.0
 51
269.9999999997777
  0
ARC
  5
5C2F
330
A
100
AcDbEntity
  8
HIDDEN
100
AcDbCircle
 10
636.9421789132316
 20
2476.496677193964
 30
0.0
 40
11.25
100
AcDbArc
 50
270.0
 51
0.0
  0
LINE
  5
5C35
330
A
100
AcDbEntity
  8
MODEL
100
AcDbLine
 10
370.3471484032957
 20
2062.518444150558
 30
0.0
 11
629.0474072842835
 21
2062.518444150558
 31
0.0
  0
LINE
  5
5C36
102
{ACAD_REACTORS
330
5EA4
102
}
330
A
100
AcDbEntity
  8
MODEL
100
AcDbLine
 10
370.3471484032957
 20
2720.599910237369
 30
0.0
 11
629.0474072842835
 21
2720.599910237369
 31
0.0
  0
LINE
  5
5C37
102
{ACAD_REACTORS
330
5EA4
102
}
330
A
100
AcDbEntity
  8
MODEL
100
AcDbLine
 10
629.0474072842835
 20
2720.599910237369
 30
0.0
 11
629.0474072842835
 21
2062.518444150558
 31
0.0
  0
DIMENSION
  5
5CC1
330
A
100
AcDbEntity
  8
Dim
100
AcDbDimension
  2
*D148
 10
500.3471482818331
 20
439.9641897915013
 30
0.0
 11
435.3471483425649
 21
462.1804983852521
 31
0.0
 70
    32
 71
     5
 42
129.9999998785372
 73
     0
 74
     0
 75
     0
 52
-90.00000000000001
  3
tform線あり
100
AcDbAlignedDimension
 13
370.3471484032962
 23
555.7201166650625
 33
0.0
 14
500.3471482818331
 24
542.7842592608347
 34
0.0
 50
179.9999999999993
100
AcDbRotatedDimension
  0
DIMENSION
  5
5CDD
330
A
100
AcDbEntity
  8
Dim
100
AcDbDimension
  2
*D150
 10
1005.982982290074
 20
1298.784259260835
 30
0.0
 11
983.7666736963242
 21
1541.284259260835
 31
0.0
 70
    32
 71
     5
 42
485.0
 73
     0
 74
     0
 75
     0
  3
tform線あり
100
AcDbAlignedDimension
 13
888.9491037220082
 23
1783.784259260835
 33
0.0
 14
888.9491037220073
 24
1298.784259260835
 34
0.0
 50
90.0
100
AcDbRotatedDimension
1001
ACAD
1000
DSTYLE
1002
{
1070
   144
1040
1.0
1002
}
  0
DIMENSION
  5
5CEA
102
{ACAD_REACTORS
330
5CEC
102
}
102
{ACAD_XDICTIONARY
360
5CEB
102
}
330
A
100
AcDbEntity
  8
Dim
100
AcDbDimension
  2
*D151
 10
1005.982982290074
 20
1038.784259260835
 30
0.0
 11
983.7666736963242
 21
1168.784259260835
 31
0.0
 70
    32
 71
     5
 42
260.0
 73
     0
 74
     0
 75
     0
  3
tform線あり
100
AcDbAlignedDimension
 13
888.9491037220073
 23
1298.784259260835
 33
0.0
 14
888.9491037220073
 24
1038.784259260835
 34
0.0
 50
90.0
100
AcDbRotatedDimension
1001
ACAD
1000
DSTYLE
1002
{
1070
   144
1040
1.0
1002
}
  0
DIMENSION
  5
5CF9
102
{ACAD_REACTORS
330
5CFB
102
}
102
{ACAD_XDICTIONARY
360
5CFA
102
}
330
A
100
AcDbEntity
  8
Dim
100
AcDbDimension
  2
*D152
 10
1005.982982290074
 20
553.7842592608351
 30
0.0
 11
983.7666736963242
 21
796.2842592608351
 31
0.0
 70
    32
 71
     5
 42
485.0
 73
     0
 74
     0
 75
     0
  3
tform線あり
100
AcDbAlignedDimension
 13
888.9491037220073
 23
1038.784259260835
 33
0.0
 14
888.9491037220073
 24
553.7842592608351
 34
0.0
 50
90.0
100
AcDbRotatedDimension
1001
ACAD
1000
DSTYLE
1002
{
1070
   144
1040
1.0
1002
}
  0
LINE
  5
5D7B
330
A
100
AcDbEntity
  8
0
100
AcDbLine
 10
1592.958591794728
 20
2507.60259196243
 30
0.0
 11
1592.958575726519
 21
2140.004716722754
 31
0.0
  0
LINE
  5
5D7C
102
{ACAD_REACTORS
330
6171
102
}
330
A
100
AcDbEntity
  8
0
100
AcDbLine
 10
1762.958581356801
 20
2268.810394682771
 30
0.0
 11
1762.958602173881
 21
2608.795401666775
 31
0.0
  0
LINE
  5
5D7D
330
A
100
AcDbEntity
  8
0
100
AcDbLine
 10
1677.958575937071
 20
2144.821874735273
 30
0.0
 11
1677.958594594002
 21
2634.853610064892
 31
0.0
  0
LINE
  5
5D7E
102
{ACAD_REACTORS
330
6171
102
}
330
A
100
AcDbEntity
  8
HIDDEN
 48
0.5
100
AcDbLine
 10
1757.958588523288
 20
2385.853620041537
 30
0.0
 11
1757.958590446585
 21
2429.85359112737
 31
0.0
  0
LINE
  5
5D7F
330
A
100
AcDbEntity
  8
0
100
AcDbLine
 10
1592.958575637157
 20
2137.960203985313
 30
0.0
 11
1592.958575726519
 21
2140.004716722761
 31
0.0
  0
LINE
  5
5D80
330
A
100
AcDbEntity
  8
0
100
AcDbLine
 10
1592.958591794743
 20
2507.602591962439
 30
0.0
 11
1592.958597225925
 21
2631.853613043944
 31
0.0
  0
LINE
  5
5D81
330
A
100
AcDbEntity
  8
0
100
AcDbLine
 10
1691.918070015442
 20
2207.988364987506
 30
0.0
 11
1759.01070062556
 21
2232.408082146982
 31
0.0
  0
LINE
  5
5D82
330
A
100
AcDbEntity
  8
0
100
AcDbLine
 10
1677.958594176616
 20
2197.062202550188
 30
0.0
 11
1688.910395275921
 21
2206.251883342305
 31
0.0
  0
LINE
  5
5D83
330
A
100
AcDbEntity
  8
0
100
AcDbLine
 10
1762.958580012058
 20
2238.04623769913
 30
0.0
 11
1762.958581340721
 21
2268.442567960323
 31
0.0
  0
LINE
  5
5D84
330
A
100
AcDbEntity
  8
0
100
AcDbLine
 10
1677.958575799949
 20
2141.684629834499
 30
0.0
 11
1677.958575937086
 21
2144.82187473527
 31
0.0
  0
LINE
  5
5D85
330
A
100
AcDbEntity
  8
0
100
AcDbLine
 10
1674.09817361202
 20
2137.687066695166
 30
0.0
 11
1596.063273996207
 21
2134.962031368544
 31
0.0
  0
ARC
  5
5D86
330
A
100
AcDbEntity
  8
0
100
AcDbCircle
 10
1595.958575637157
 20
2137.960203854187
 30
0.0
 40
3.0
100
AcDbArc
 50
179.9999974960698
 51
271.999997495729
  0
ARC
  5
5D87
330
A
100
AcDbEntity
  8
0
100
AcDbCircle
 10
1673.958575799949
 20
2141.684630009353
 30
0.0
 40
4.0
100
AcDbArc
 50
271.9999974965634
 51
359.9999974959742
  0
ARC
  5
5D88
330
A
100
AcDbEntity
  8
0
100
AcDbCircle
 10
1756.958580012058
 20
2238.046237961399
 30
0.0
 40
6.0
100
AcDbArc
 50
289.9999974947766
 51
359.9999974949841
  0
ARC
  5
5D89
330
A
100
AcDbEntity
  8
0
100
AcDbCircle
 10
1695.338271037941
 20
2198.591438630153
 30
0.0
 40
10.0
100
AcDbArc
 50
109.9999974956579
 51
129.9999974955162
  0
LINE
  5
5D8A
330
A
100
AcDbEntity
  8
0
100
AcDbLine
 10
1595.958597357052
 20
2634.853612912797
 30
0.0
 11
1670.958597357052
 21
2634.853610071566
 31
0.0
  0
ARC
  5
5D8B
330
A
100
AcDbEntity
  8
0
100
AcDbCircle
 10
1595.95859722591
 20
2631.853612912797
 30
0.0
 40
3.0
100
AcDbArc
 50
89.99999749620874
 51
179.9999974956008
  0
LINE
  5
5D8C
330
A
100
AcDbEntity
  8
0
100
AcDbLine
 10
1670.958597357052
 20
2634.853610071566
 30
0.0
 11
1759.958603177716
 21
2634.853609986715
 31
0.0
  0
ARC
  5
5D8D
330
A
100
AcDbEntity
  8
0
100
AcDbCircle
 10
1759.95860317514
 20
2631.853609986715
 30
0.0
 40
3.0
100
AcDbArc
 50
359.9999974960524
 51
89.99999995080796
  0
LINE
  5
5D8E
330
A
100
AcDbEntity
  8
0
100
AcDbLine
 10
1762.958602173881
 20
2608.795401666819
 30
0.0
 11
1762.958602173881
 21
2631.853609855587
 31
0.0
  0
ARC
  5
5D8F
330
A
100
AcDbEntity
  8
0
100
AcDbCircle
 10
1595.958575725196
 20
2140.004716591627
 30
0.0
 40
3.0
100
AcDbArc
 50
129.9999607489673
 51
179.9999974955313
  0
LINE
  5
5D90
330
A
100
AcDbEntity
  8
HIDDEN
 48
0.5
100
AcDbLine
 10
1725.779226285715
 20
2385.233091625437
 30
0.0
 11
1725.779230240808
 21
2430.474125958726
 31
0.0
  0
LINE
  5
5D91
330
A
100
AcDbEntity
  8
HIDDEN
 48
0.5
100
AcDbLine
 10
1715.449668928024
 20
2442.784403001899
 30
0.0
 11
1715.45858590813
 21
2372.933442862698
 31
0.0
  0
LINE
  5
5D92
330
A
100
AcDbEntity
  8
0
100
AcDbLine
 10
1676.328470994997
 20
1780.326762793274
 30
0.0
 11
1676.328470994997
 21
1778.327067402957
 31
0.0
  0
LINE
  5
5D93
330
A
100
AcDbEntity
  8
0
100
AcDbLine
 10
1676.328470995003
 20
543.1553973263171
 30
0.0
 11
1676.328470995003
 21
541.1557019359998
 31
0.0
  0
LINE
  5
5D94
330
A
100
AcDbEntity
  8
0
100
AcDbLine
 10
1676.328470994997
 20
1778.327067402957
 30
0.0
 11
1676.328470995003
 21
543.1553973263171
 31
0.0
  0
LINE
  5
5D95
330
A
100
AcDbEntity
  8
0
100
AcDbLine
 10
1594.380828214309
 20
1785.687953271184
 30
0.0
 11
1672.398280620747
 21
1784.326153573895
 31
0.0
  0
LINE
  5
5D96
330
A
100
AcDbEntity
  8
0
100
AcDbLine
 10
1672.398280620752
 20
537.1563111553796
 30
0.0
 11
1594.380828214314
 21
535.7945114580889
 31
0.0
  0
LINE
  5
5D97
330
A
100
AcDbEntity
  8
0
100
AcDbLine
 10
1591.328470994997
 20
1779.688867100246
 30
0.0
 11
1591.328470994997
 21
1782.688410185722
 31
0.0
  0
LINE
  5
5D98
330
A
100
AcDbEntity
  8
0
100
AcDbLine
 10
1591.328470995003
 20
541.7935976290264
 30
0.0
 11
1591.328470994997
 21
1779.688867100246
 31
0.0
  0
LINE
  5
5D99
330
A
100
AcDbEntity
  8
0
100
AcDbLine
 10
1591.328470995003
 20
538.7940545435504
 30
0.0
 11
1591.328470995003
 21
541.7935976290264
 31
0.0
  0
ARC
  5
5D9A
330
A
100
AcDbEntity
  8
0
100
AcDbCircle
 10
1672.328470994998
 20
1780.326762793274
 30
0.0
 40
4.0
100
AcDbArc
 50
0.0
 51
89.00000000002433
  0
ARC
  5
5D9B
330
A
100
AcDbEntity
  8
0
100
AcDbCircle
 10
1672.328470995003
 20
541.1557019359998
 30
0.0
 40
4.0
100
AcDbArc
 50
270.9999999999887
 51
0.0
  0
ARC
  5
5D9C
330
A
100
AcDbEntity
  8
0
100
AcDbCircle
 10
1594.328470994998
 20
1782.688410185723
 30
0.0
 40
3.0
100
AcDbArc
 50
89.00000000005903
 51
180.0000000000173
  0
ARC
  5
5D9D
330
A
100
AcDbEntity
  8
0
100
AcDbCircle
 10
1594.328470995003
 20
538.7940545435504
 30
0.0
 40
3.0
100
AcDbArc
 50
180.0
 51
270.9999999999757
  0
DIMENSION
  5
5D9E
330
A
100
AcDbEntity
  8
Dim
100
AcDbDimension
  2
*D153
 10
1896.723300108551
 20
2407.853607056424
 30
0.0
 11
1896.723300108551
 21
2521.353609253085
 31
0.0
 70
   160
  1
230
 71
     5
 42
227.0000043933264
 73
     0
 74
     0
 75
     0
 52
-270.0
  3
tform線あり
100
AcDbAlignedDimension
 13
1771.085716521989
 23
2634.85361144975
 33
0.0
 14
1771.232152935478
 24
2407.853607056423
 34
0.0
 50
90.00000000000026
100
AcDbRotatedDimension
  0
DIMENSION
  5
5D9F
330
A
100
AcDbEntity
  8
Dim
100
AcDbDimension
  2
*D154
 10
1632.95859722592
 20
435.7865022888482
 30
0.0
 11
1612.958597225922
 21
435.7865022888482
 31
0.0
 70
   160
 71
     5
 42
40.00000000000069
 73
     0
 74
     0
 75
     0
  3
tform線あり
100
AcDbAlignedDimension
 13
1592.95859722592
 23
535.9054222726527
 33
0.0
 14
1632.95859722592
 24
683.2847698847045
 34
0.0
 50
0.0000000000002672
100
AcDbRotatedDimension
  0
DIMENSION
  5
5DA0
330
A
100
AcDbEntity
  8
Dim
100
AcDbDimension
  2
*D155
 10
1677.958585056845
 20
2058.235944788818
 30
0.0
 11
1637.054936706456
 21
2058.235944788818
 31
0.0
 70
   160
 71
     5
 42
85.00000129622686
 73
     0
 74
     0
 75
     0
  3
tform線あり
100
AcDbAlignedDimension
 13
1592.958583760618
 23
2122.097640388225
 33
0.0
 14
1677.958585056845
 24
2122.097640388225
 34
0.0
 50
0.0000000000002672
100
AcDbRotatedDimension
  0
DIMENSION
  5
5DA1
330
A
100
AcDbEntity
  8
Dim
100
AcDbDimension
  2
*D156
 10
1762.958580676397
 20
2058.235944788818
 30
0.0
 11
1720.45858286662
 21
2058.235944788818
 31
0.0
 70
   160
 71
     5
 42
84.99999561955246
 73
     0
 74
     0
 75
     0
  3
tform線あり
100
AcDbAlignedDimension
 13
1677.958585056845
 23
2122.097640388225
 33
0.0
 14
1762.958580676397
 24
2218.649498576678
 34
0.0
 50
0.0000000000002672
100
AcDbRotatedDimension
  0
DIMENSION
  5
5DA2
330
A
100
AcDbEntity
  8
Dim
100
AcDbDimension
  2
*D157
 10
1762.9585806764
 20
1870.068060949928
 30
0.0
 11
1677.9585822185
 21
1870.068060949928
 31
0.0
 70
   160
 71
     5
 42
169.9999969157946
 73
     0
 74
     0
 75
     0
  3
tform線あり
100
AcDbAlignedDimension
 13
1592.958583760605
 23
1803.606393929435
 33
0.0
 14
1762.9585806764
 24
1711.1893248
 34
0.0
 50
0.0000000000002672
100
AcDbRotatedDimension
  0
LINE
  5
5DA3
330
A
100
AcDbEntity
  8
HIDDEN
  6
CENTER
 48
0.15
100
AcDbLine
 10
1608.459107849758
 20
1607.784259260864
 30
0.0
 11
1657.458086602071
 21
1607.784259260864
 31
0.0
  0
LINE
  5
5DA4
330
A
100
AcDbEntity
  8
HIDDEN
  6
CENTER
 48
0.15
100
AcDbLine
 10
1632.958597225916
 20
1583.284769884709
 30
0.0
 11
1632.958597225916
 21
1632.283748637019
 31
0.0
  0
CIRCLE
  5
5DA5
330
A
100
AcDbEntity
  8
HIDDEN
  6
CENTER
 48
0.15
100
AcDbCircle
 10
1632.958597225916
 20
1607.784259260864
 30
0.0
 40
14.99999999998556
  0
LINE
  5
5DA6
330
A
100
AcDbEntity
  8
HIDDEN
  6
CENTER
 48
0.15
100
AcDbLine
 10
1608.459107849761
 20
1327.784259260863
 30
0.0
 11
1657.458086602071
 21
1327.784259260864
 31
0.0
  0
LINE
  5
5DA7
330
A
100
AcDbEntity
  8
HIDDEN
  6
CENTER
 48
0.15
100
AcDbLine
 10
1632.958597225916
 20
1303.284769884708
 30
0.0
 11
1632.958597225916
 21
1352.283748637018
 31
0.0
  0
CIRCLE
  5
5DA8
330
A
100
AcDbEntity
  8
HIDDEN
  6
CENTER
 48
0.15
100
AcDbCircle
 10
1632.958597225916
 20
1327.784259260864
 30
0.0
 40
14.99999999998556
  0
DIMENSION
  5
5DA9
102
{ACAD_XDICTIONARY
360
5DAA
102
}
330
A
100
AcDbEntity
  8
Dim
  6
Continuous
 62
     3
100
AcDbDimension
  2
*D158
 10
1511.228021557436
 20
2569.853612912797
 30
0.0
 11
1489.011712963686
 21
2602.353612912797
 31
0.0
 70
    32
 71
     5
 42
65.0
 73
     0
 74
     0
 75
     0
 52
-270.0
  3
tform線あり
100
AcDbAlignedDimension
 13
1595.958597357052
 23
2634.853612912797
 33
0.0
 14
1595.958597357052
 24
2569.853612912797
 34
0.0
 50
90.00000000000026
100
AcDbRotatedDimension
  0
SPLINE
  5
5DAC
330
A
100
AcDbEntity
  8
HIDDEN
 48
0.5
100
AcDbSpline
210
0.0
220
0.0
230
1.0
 70
  1064
 71
     3
 72
    31
 73
    27
 74
    25
 42
0.000000001
 43
0.0000000001
 44
0.0
 40
0.0
 40
0.0
 40
0.0
 40
0.0
 40
1.469641098992733
 40
2.208308193401117
 40
3.556423196937575
 40
5.031789848199034
 40
8.110482904650418
 40
60.85472679667978
 40
87.12667946722621
 40
96.87356250448927
 40
112.0249097393883
 40
125.3884224987665
 40
136.5581101036713
 40
146.084946730346
 40
153.775755738268
 40
156.1842806783268
 40
160.44643222018
 40
166.2511286433804
 40
171.06722453833
 40
173.6582253952537
 40
175.642888301228
 40
178.780045420924
 40
194.8703482110157
 40
200.5179182096296
 40
203.223203448084
 40
204.9330508861087
 40
204.9330508861087
 40
204.9330508861087
 40
204.9330508861087
 10
1592.958591794743
 20
2507.602591962439
 30
0.0
 10
1593.028832056928
 20
2507.106535970283
 30
0.0
 10
1593.134376292592
 20
2506.361153636725
 30
0.0
 10
1593.847070914568
 20
2505.390888651466
 30
0.0
 10
1594.858170607282
 20
2504.673325705323
 30
0.0
 10
1596.859146864002
 20
2504.520341174446
 30
0.0
 10
1615.767383886575
 20
2502.809132863509
 30
0.0
 10
1643.01508376582
 20
2500.061283785135
 30
0.0
 10
1672.756532708943
 20
2498.139678958074
 30
0.0
 10
1689.007544171532
 20
2492.68169200234
 30
0.0
 10
1699.791999647389
 20
2485.241217424864
 30
0.0
 10
1707.239682805147
 20
2474.066885159864
 30
0.0
 10
1711.564206547809
 20
2463.545760332741
 30
0.0
 10
1714.024334771981
 20
2454.36093456142
 30
0.0
 10
1714.789659371677
 20
2447.877145626506
 30
0.0
 10
1715.647679052118
 20
2443.132479938603
 30
0.0
 10
1717.926356852538
 20
2439.540276779279
 30
0.0
 10
1721.35722884531
 20
2435.92444832361
 30
0.0
 10
1723.890832059908
 20
2432.442729011841
 30
0.0
 10
1726.412772978445
 20
2430.187504328595
 30
0.0
 10
1729.088168875353
 20
2430.52386941154
 30
0.0
 10
1736.074443066504
 20
2430.093592893521
 30
0.0
 10
1744.42727630013
 20
2430.195072683779
 30
0.0
 10
1752.564436560631
 20
2429.987601956293
 30
0.0
 10
1755.920168047886
 20
2429.972827234754
 30
0.0
 10
1757.389545118948
 20
2429.886877039963
 30
0.0
 10
1757.958590446585
 20
2429.85359112737
 30
0.0
 11
1592.958591794743
 21
2507.602591962439
 31
0.0
 11
1593.318565892422
 21
2506.177718771994
 31
0.0
 11
1593.746759042548
 21
2505.575822017935
 31
0.0
 11
1594.857567763807
 21
2504.81193848785
 31
0.0
 11
1596.311266755952
 21
2504.560013904112
 31
0.0
 11
1599.378252261082
 21
2504.291777353352
 31
0.0
 11
1651.912644370039
 21
2499.591467843944
 31
0.0
 11
1677.958589313262
 21
2496.152827249461
 31
0.0
 11
1687.154831870039
 21
2492.923144327097
 31
0.0
 11
1699.537644370039
 21
2484.192206369333
 31
0.0
 11
1707.209519370039
 21
2473.250277505808
 31
0.0
 11
1711.529831870039
 21
2462.949946390086
 31
0.0
 11
1713.932175620039
 21
2453.730978952342
 31
0.0
 11
1715.117165074076
 21
2446.132009075434
 31
0.0
 11
1715.64382041944
 21
2443.781769399553
 31
0.0
 11
1717.730987008257
 21
2440.065632777166
 31
0.0
 11
1721.462172975243
 21
2435.618976522711
 31
0.0
 11
1724.557898937255
 21
2431.929632348271
 31
0.0
 11
1726.690543209163
 21
2430.458199763992
 31
0.0
 11
1728.674919463347
 21
2430.424469478167
 31
0.0
 11
1731.811582814555
 21
2430.368811461256
 31
0.0
 11
1747.899434961322
 21
2430.087996254042
 31
0.0
 11
1753.546144803362
 21
2429.989432320217
 31
0.0
 11
1756.251005915379
 21
2429.941530482071
 31
0.0
 11
1757.958590446585
 21
2429.85359112737
 31
0.0
  0
SPLINE
  5
5DAD
330
A
100
AcDbEntity
  8
HIDDEN
 48
0.5
100
AcDbSpline
210
0.0
220
0.0
230
1.0
 70
  1064
 71
     3
 72
    46
 73
    42
 74
    40
 42
0.000000001
 43
0.0000000001
 44
0.0
 40
0.0
 40
0.0
 40
0.0
 40
0.0
 40
1.298638622559865
 40
2.139104232173807
 40
4.040697726550144
 40
6.562259746355646
 40
61.52892086399301
 40
85.95644816265319
 40
108.9402914380132
 40
116.0599962130794
 40
125.9535822204255
 40
134.871969780945
 40
142.796044714761
 40
151.2671135045651
 40
164.610554052784
 40
179.2037796045622
 40
192.421824186927
 40
221.3940425628431
 40
244.455253879108
 40
261.4322361636493
 40
275.4052071327607
 40
280.7775620920698
 40
284.1644846097684
 40
289.9858568231596
 40
292.602899261393
 40
295.8072290365712
 40
296.6559399486798
 40
297.7556990940995
 40
299.667027189653
 40
301.7042455590841
 40
304.6352944839042
 40
306.7149703422079
 40
308.9681816378331
 40
312.3477609818624
 40
316.2012607261566
 40
319.3157586758769
 40
322.8375592883715
 40
325.8251674007498
 40
327.9434099919885
 40
328.4738391084417
 40
328.7797141286046
 40
328.7797141286046
 40
328.7797141286046
 40
328.7797141286046
 10
1592.958575726519
 20
2140.004716722761
 30
0.0
 10
1593.012216212999
 20
2140.442092277402
 30
0.0
 10
1593.100572272682
 20
2141.162532809302
 30
0.0
 10
1593.883296881264
 20
2142.296523063935
 30
0.0
 10
1595.317727049971
 20
2143.330367360021
 30
0.0
 10
1610.23990847832
 20
2156.307248716536
 30
0.0
 10
1631.431081702028
 20
2173.572104809663
 30
0.0
 10
1657.482771973079
 20
2195.607287224254
 30
0.0
 10
1671.494475253929
 20
2207.189897838927
 30
0.0
 10
1681.571592446593
 20
2215.919496523088
 30
0.0
 10
1687.772457906772
 20
2221.961782413174
 30
0.0
 10
1693.326477995021
 20
2228.976809008355
 30
0.0
 10
1697.41673658693
 20
2236.400787162162
 30
0.0
 10
1700.753317153893
 20
2245.770971905833
 30
0.0
 10
1703.140547753723
 20
2257.709364727291
 30
0.0
 10
1704.543397788063
 20
2271.357633482547
 30
0.0
 10
1706.581150809619
 20
2290.174016698214
 30
0.0
 10
1708.897831844046
 20
2311.808135311084
 30
0.0
 10
1711.349087576203
 20
2334.658253692326
 30
0.0
 10
1713.266707562087
 20
2352.615100796051
 30
0.0
 10
1714.587628027379
 20
2364.521344457029
 30
0.0
 10
1715.35391106081
 20
2372.249481805136
 30
0.0
 10
1718.135074715982
 20
2376.342335352972
 30
0.0
 10
1720.759245937578
 20
2379.254142980528
 30
0.0
 10
1723.288191285055
 20
2382.214642877157
 30
0.0
 10
1724.584102178669
 20
2383.995326556594
 30
0.0
 10
1725.893554644919
 20
2385.189308124412
 30
0.0
 10
1727.236373179376
 20
2385.28342212764
 30
0.0
 10
1728.892150535034
 20
2385.27883123956
 30
0.0
 10
1731.19472974041
 20
2385.33121164676
 30
0.0
 10
1733.540231405995
 20
2385.367827176442
 30
0.0
 10
1735.961923120824
 20
2385.41102667218
 30
0.0
 10
1738.532137805567
 20
2385.455657666202
 30
0.0
 10
1741.693863328497
 20
2385.510753548688
 30
0.0
 10
1745.142404548946
 20
2385.571763465749
 30
0.0
 10
1748.638795327374
 20
2385.630029447582
 30
0.0
 10
1751.845067722654
 20
2385.696529901377
 30
0.0
 10
1754.724111610895
 20
2385.715352868392
 30
0.0
 10
1756.59528310812
 20
2385.811809816561
 30
0.0
 10
1757.587888474469
 20
2385.760061376875
 30
0.0
 10
1757.859315231323
 20
2385.828565076849
 30
0.0
 10
1757.958588523288
 20
2385.853620041537
 30
0.0
 11
1592.958575726519
 21
2140.004716722761
 31
0.0
 11
1593.239652826074
 21
2141.272572367584
 31
0.0
 11
1593.698047136141
 21
2141.977027545322
 31
0.0
 11
1595.131394370042
 21
2143.22665690034
 31
0.0
 11
1597.063467113273
 21
2144.846956235213
 31
0.0
 11
1639.170456870041
 21
2180.178744302683
 31
0.0
 11
1657.881394370041
 21
2195.8824033603
 31
0.0
 11
1675.482956870041
 21
2210.66218851655
 31
0.0
 11
1680.834519370041
 21
2215.358035074168
 31
0.0
 11
1687.842331870041
 21
2222.341845498972
 31
0.0
 11
1693.315084324568
 21
2229.383622068212
 31
0.0
 11
1697.139206870041
 21
2236.323870645456
 31
0.0
 11
1700.053269370041
 21
2244.277941690379
 31
0.0
 11
1702.857956870041
 21
2257.323290811472
 31
0.0
 11
1704.604050620041
 21
2271.811678872995
 31
0.0
 11
1706.014206870041
 21
2284.954287515573
 31
0.0
 11
1709.107956870041
 21
2313.760851846629
 31
0.0
 11
1711.564988120041
 21
2336.690798746043
 31
0.0
 11
1713.381394370041
 21
2353.570330606394
 31
0.0
 11
1714.873581870041
 21
2367.463397012644
 31
0.0
 11
1715.938273257529
 21
2372.729195153308
 31
0.0
 11
1717.709546212921
 21
2375.616033607117
 31
0.0
 11
1721.45145155828
 21
2380.075463933203
 31
0.0
 11
1723.133653748707
 21
2382.080234971012
 31
0.0
 11
1725.193356903651
 21
2384.534894259306
 31
0.0
 11
1725.864423579159
 21
2385.054489995773
 31
0.0
 11
1726.946031390209
 21
2385.25347421879
 31
0.0
 11
1728.857068382694
 21
2385.286831410016
 31
0.0
 11
1730.893976475454
 21
2385.322385683965
 31
0.0
 11
1733.824578989562
 21
2385.373539412989
 31
0.0
 11
1735.903938104746
 21
2385.409834670434
 31
0.0
 11
1738.156806227096
 21
2385.449158531278
 31
0.0
 11
1741.5358708474
 21
2385.508140175873
 31
0.0
 11
1745.388783687958
 21
2385.575392851201
 31
0.0
 11
1748.502807286931
 21
2385.629748199148
 31
0.0
 11
1752.024071514821
 21
2385.69121194091
 31
0.0
 11
1755.011224602292
 21
2385.743352761392
 31
0.0
 11
1757.12914457654
 21
2385.780321099448
 31
0.0
 11
1757.659492906553
 21
2385.789578336303
 31
0.0
 11
1757.958588523288
 21
2385.853620041537
 31
0.0
  0
MTEXT
  5
5DB6
330
A
100
AcDbEntity
  8
Dim
390
1D
100
AcDbMText
 10
1376.142049036785
 20
1724.56944834717
 30
34.99521132346015
 40
24.0
 41
1169.771715461011
 46
26.808
 71
     1
 72
     1
  1
{壁取付ボルト穴(4ヶ所)}
  7
ＭＳ ゴシック
 11
1.883358689166497E-15
 21
1.0
 31
0.0
 73
     1
 44
1.174240107638677
1001
ACAD
1000
ACAD_MTEXT_DEFINED_HEIGHT_BEGIN
1070
    46
1040
26.808
1000
ACAD_MTEXT_DEFINED_HEIGHT_END
  0
LINE
  5
5DB7
330
A
100
AcDbEntity
  8
Dim
100
AcDbLine
 10
1416.579566769307
 20
1716.392830717986
 30
0.0
 11
1619.552590679009
 21
1614.513225634971
 31
0.0
  0
DIMENSION
  5
5DB8
330
A
100
AcDbEntity
  8
Dim
  6
Continuous
 62
     3
100
AcDbDimension
  2
*D159
 10
1592.958587479324
 20
2408.877622814963
 30
0.0
 11
1489.489285106547
 21
2408.877622814964
 31
0.0
 70
   160
  1
120(深さ)
 71
     5
 42
122.4955399387522
 73
     0
 74
     1
 75
     1
 52
-270.0
  3
tform線あり
100
AcDbAlignedDimension
 13
1715.454127418076
 23
2407.858922932298
 33
0.0
 14
1592.958587479324
 24
2408.877622814964
 34
0.0
 50
179.9999999999999
100
AcDbRotatedDimension
1001
ACAD
1000
DSTYLE
1002
{
1070
   271
1070
     0
1070
    76
1070
     1
1070
    75
1070
     1
1002
}
  0
CIRCLE
  5
5DB9
330
A
100
AcDbEntity
  8
HIDDEN
 48
0.6
100
AcDbCircle
 10
1623.978197192514
 20
1542.784259260893
 30
0.0
 40
11.98287221885312
  0
DIMENSION
  5
5DBA
102
{ACAD_XDICTIONARY
360
5DBB
102
}
330
A
100
AcDbEntity
  8
Dim
100
AcDbDimension
  2
*D160
 10
1977.818356886696
 20
2229.853611449749
 30
0.0
 11
1955.602048292946
 21
2432.353611449749
 31
0.0
 70
    32
 71
     5
 42
405.0
 73
     0
 74
     0
 75
     0
  3
tform線あり
100
AcDbAlignedDimension
 13
1771.085716521989
 23
2634.85361144975
 33
0.0
 14
1771.085716521987
 24
2229.85361144975
 34
0.0
 50
89.99999999999991
100
AcDbRotatedDimension
1001
ACAD
1000
DSTYLE
1002
{
1070
   144
1040
1.0
1002
}
  0
LINE
  5
5DBD
330
A
100
AcDbEntity
  8
Dim
100
AcDbLine
 10
1676.328470995003
 20
520.1207441647659
 30
0.0
 11
1676.328470995003
 21
464.5068738482187
 31
0.0
  0
LINE
  5
5DBE
330
A
100
AcDbEntity
  8
Dim
100
AcDbLine
 10
1676.328470995003
 20
477.6379265618478
 30
0.0
 11
1825.307092802335
 21
477.637926561848
 31
0.0
  0
MTEXT
  5
5DBF
330
A
100
AcDbEntity
  8
Dim
390
1D
100
AcDbMText
 10
1846.02773209036
 20
391.0411047567173
 30
34.99521132346015
 40
24.0
 41
1169.771715461011
 46
25.704
 71
     1
 72
     1
  1
{半埋め込み}
  7
ＭＳ ゴシック
 11
1.883358689166497E-15
 21
1.0
 31
0.0
 73
     1
 44
1.174240107638677
1001
ACAD
1000
ACAD_MTEXT_DEFINED_HEIGHT_BEGIN
1070
    46
1040
25.704
1000
ACAD_MTEXT_DEFINED_HEIGHT_END
  0
DIMENSION
  5
5DC0
330
A
100
AcDbEntity
  8
Dim
100
AcDbDimension
  2
*D161
 10
1519.259434838624
 20
1327.784259260864
 30
0.0
 11
1497.043126244874
 21
1167.784259260857
 31
0.0
 70
    32
 71
     5
 42
320.000000000015
 73
     0
 74
     0
 75
     0
  3
tform線あり
100
AcDbAlignedDimension
 13
1599.81423618375
 23
1007.784259260849
 33
0.0
 14
1599.81423618375
 24
1327.784259260864
 34
0.0
 50
90.0
100
AcDbRotatedDimension
  0
DIMENSION
  5
5DC1
330
A
100
AcDbEntity
  8
Dim
100
AcDbDimension
  2
*D162
 10
1519.259434838624
 20
1007.784259260849
 30
0.0
 11
1497.043126244874
 21
867.7842592608492
 31
0.0
 70
    32
 71
     5
 42
280.0
 73
     0
 74
     0
 75
     0
  3
tform線あり
100
AcDbAlignedDimension
 13
1599.81423618375
 23
727.7842592608492
 33
0.0
 14
1599.81423618375
 24
1007.784259260849
 34
0.0
 50
90.0
100
AcDbRotatedDimension
  0
DIMENSION
  5
5DC2
330
A
100
AcDbEntity
  8
Dim
100
AcDbDimension
  2
*D163
 10
1519.259434838624
 20
1607.784259260864
 30
0.0
 11
1497.043126244874
 21
1467.784259260864
 31
0.0
 70
    32
 71
     5
 42
280.0
 73
     0
 74
     0
 75
     0
  3
tform線あり
100
AcDbAlignedDimension
 13
1599.81423618375
 23
1327.784259260864
 33
0.0
 14
1599.81423618375
 24
1607.784259260864
 34
0.0
 50
90.0
100
AcDbRotatedDimension
  0
LINE
  5
5DC3
330
A
100
AcDbEntity
  8
HIDDEN
  6
CENTER
 48
0.15
100
AcDbLine
 10
1608.459107849759
 20
727.7842592608204
 30
0.0
 11
1657.458086602071
 21
727.7842592608206
 31
0.0
  0
LINE
  5
5DC4
330
A
100
AcDbEntity
  8
HIDDEN
  6
CENTER
 48
0.15
100
AcDbLine
 10
1632.958597225916
 20
752.2837486369756
 30
0.0
 11
1632.958597225916
 21
703.2847698846656
 31
0.0
  0
CIRCLE
  5
5DC5
330
A
100
AcDbEntity
  8
HIDDEN
  6
CENTER
 48
0.15
100
AcDbCircle
 10
1632.958597225916
 20
727.7842592608206
 30
0.0
 40
14.99999999998556
  0
LINE
  5
5DC6
330
A
100
AcDbEntity
  8
HIDDEN
  6
CENTER
 48
0.15
100
AcDbLine
 10
1632.958597225917
 20
1032.283748636977
 30
0.0
 11
1632.958597225917
 21
983.2847698846665
 31
0.0
  0
CIRCLE
  5
5DC7
330
A
100
AcDbEntity
  8
HIDDEN
  6
CENTER
 48
0.15
100
AcDbCircle
 10
1632.958597225917
 20
1007.784259260821
 30
0.0
 40
14.99999999998556
  0
LINE
  5
5DC8
330
A
100
AcDbEntity
  8
HIDDEN
  6
CENTER
 48
0.15
100
AcDbLine
 10
1608.459107849761
 20
1007.784259260821
 30
0.0
 11
1657.458086602072
 21
1007.784259260821
 31
0.0
  0
MTEXT
  5
5DC9
330
A
100
AcDbEntity
  8
Dim
390
1D
100
AcDbMText
 10
1946.317225754411
 20
579.8838216832545
 30
34.99521132346015
 40
24.0
 41
1169.771715461011
 46
25.824
 71
     1
 72
     1
  1
{カウンター置き}
  7
ＭＳ ゴシック
 11
1.883358689166497E-15
 21
1.0
 31
0.0
 73
     1
 44
1.174240107638677
1001
ACAD
1000
ACAD_MTEXT_DEFINED_HEIGHT_BEGIN
1070
    46
1040
25.824
1000
ACAD_MTEXT_DEFINED_HEIGHT_END
  0
LINE
  5
5DCA
330
A
100
AcDbEntity
  8
Dim
100
AcDbLine
 10
1762.50144773747
 20
591.9829646263793
 30
0.0
 11
1926.403405003043
 21
591.9829646263793
 31
0.0
  0
LINE
  5
5DCB
330
A
100
AcDbEntity
  8
0
100
AcDbLine
 10
1761.328470994993
 20
1690.191581449777
 30
0.0
 11
1761.328470994992
 21
645.3769370718942
 31
0.0
  0
LWPOLYLINE
  5
5DCC
330
A
100
AcDbEntity
  8
0
100
AcDbPolyline
 90
        2
 70
     0
 43
0.0
 10
1687.175100664993
 20
613.5438194281155
 10
1676.328543047806
 20
604.4422569281155
  0
LWPOLYLINE
  5
5DCD
330
A
100
AcDbEntity
  8
0
100
AcDbPolyline
 90
        2
 70
     0
 43
0.0
 10
1757.380606036087
 20
639.7391319281155
 10
1690.182791094681
 20
615.2781944281155
  0
ARC
  5
5DCE
330
A
100
AcDbEntity
  8
0
100
AcDbCircle
 10
1693.602988185409
 20
605.8838085488528
 30
0.0
 40
10.0
100
AcDbArc
 50
110.0000000001284
 51
129.9999999996741
  0
ARC
  5
5DCF
330
A
100
AcDbEntity
  8
0
100
AcDbCircle
 10
1755.328470995
 20
645.3769274973306
 30
0.0
 40
6.0
100
AcDbArc
 50
290.000000000082
 51
0.000091430486375
  0
LWPOLYLINE
  5
5DD0
330
A
100
AcDbEntity
  8
0
100
AcDbPolyline
 90
        2
 70
     0
 43
0.0
 10
1687.175100664993
 20
1722.020381928116
 10
1676.328543047806
 20
1731.121944428116
  0
LWPOLYLINE
  5
5DD1
330
A
100
AcDbEntity
  8
0
100
AcDbPolyline
 90
        2
 70
     0
 43
0.0
 10
1757.380606036087
 20
1695.832881928116
 10
1690.182791094681
 20
1720.286006928116
  0
ARC
  5
5DD2
330
A
100
AcDbEntity
  8
0
100
AcDbCircle
 10
1693.602988185409
 20
1729.684709972818
 30
0.0
 40
10.0
100
AcDbArc
 50
230.0000000003259
 51
249.9999999998718
  0
ARC
  5
5DD3
330
A
100
AcDbEntity
  8
0
100
AcDbCircle
 10
1755.328470995
 20
1690.191591024341
 30
0.0
 40
6.0
100
AcDbArc
 50
359.9999085695136
 51
69.99999999990911
  0
LINE
  5
5DD4
330
A
100
AcDbEntity
  8
Dim
100
AcDbLine
 10
1762.50144773747
 20
634.4657822292974
 30
0.0
 11
1762.50144773747
 21
578.8519119127502
 31
0.0
  0
MTEXT
  5
5E5A
330
A
100
AcDbEntity
  8
Dim
390
1D
100
AcDbMText
 10
1116.951245820652
 20
801.6070554797006
 30
34.99521132346015
 40
24.4326171875
 41
833.929798641839
 46
0.0
 71
     1
 72
     1
  1
＝φ30もしくはφ35の水栓取付用穴あけ加工を承ります。\P  必要な場合、ご注文の際にご指示ください。
  7
ＭＳ ゴシック
 11
2.067055709038600E-15
 21
1.0
 31
0.0
 73
     1
 44
0.9822934569727008
  0
CIRCLE
  5
5E5B
330
A
100
AcDbEntity
  8
HIDDEN
 48
0.58
390
1D
100
AcDbCircle
 10
1131.540070276935
 20
770.2400257816125
 30
34.99521132346015
 40
17.5
  0
MTEXT
  5
5E7B
330
A
100
AcDbEntity
  8
Dim
390
1D
100
AcDbMText
 10
112.8453844271442
 20
2130.481028889061
 30
34.99521132346015
 40
24.0
 41
1169.771715461011
 46
26.568
 71
     1
 72
     1
  1
{カウンター切込寸法 （Not To Scale）}
  7
ＭＳ ゴシック
 11
1.883358689166497E-15
 21
1.0
 31
0.0
 73
     1
 44
1.174240107638677
1001
ACAD
1000
ACAD_MTEXT_DEFINED_HEIGHT_BEGIN
1070
    46
1040
26.568
1000
ACAD_MTEXT_DEFINED_HEIGHT_END
  0
MTEXT
  5
5E7C
330
A
100
AcDbEntity
  8
Dim
390
1D
100
AcDbMText
 10
292.3417783627701
 20
2341.501682118127
 30
69.9904226469203
 40
24.0
 41
1169.771715461011
 46
25.704
 71
     1
 72
     1
  1
{半埋め込み}
  7
ＭＳ ゴシック
 11
1.883358689166497E-15
 21
1.0
 31
0.0
 73
     1
 44
1.174240107638677
1001
ACAD
1000
ACAD_MTEXT_DEFINED_HEIGHT_BEGIN
1070
    46
1040
25.704
1000
ACAD_MTEXT_DEFINED_HEIGHT_END
  0
MTEXT
  5
5E7D
330
A
100
AcDbEntity
  8
Dim
390
1D
100
AcDbMText
 10
199.5525925256379
 20
2505.07206620456
 30
34.99521132346015
 40
24.0
 41
1169.771715461011
 46
25.824
 71
     1
 72
     1
  1
{カウンター置き}
  7
ＭＳ ゴシック
 11
1.883358689166497E-15
 21
1.0
 31
0.0
 73
     1
 44
1.174240107638677
1001
ACAD
1000
ACAD_MTEXT_DEFINED_HEIGHT_BEGIN
1070
    46
1040
25.824
1000
ACAD_MTEXT_DEFINED_HEIGHT_END
  0
LINE
  5
5E7E
330
A
100
AcDbEntity
  8
Dim
100
AcDbLine
 10
370.3471484032957
 20
2519.414942895659
 30
0.0
 11
247.2289777815181
 21
2519.414942895659
 31
0.0
  0
LINE
  5
5E7F
330
A
100
AcDbEntity
  8
Dim
100
AcDbLine
 10
326.685537855225
 20
2334.62243339322
 30
0.0
 11
370.3471484032957
 21
2334.62243339322
 31
0.0
  0
LINE
  5
5E80
330
A
100
AcDbEntity
  8
Dim
100
AcDbLine
 10
370.3471484032966
 20
2799.285110324663
 30
0.0
 11
370.3471484032962
 21
2032.938466798275
 31
0.0
  0
LINE
  5
5E81
330
A
100
AcDbEntity
  8
Dim
100
AcDbLine
 10
370.3471484032975
 20
2777.530225889365
 30
0.0
 11
332.967463758026
 21
2806.722076763529
 31
0.0
  0
LINE
  5
5E82
330
A
100
AcDbEntity
  8
Dim
100
AcDbLine
 10
370.3471484032975
 20
2752.411656532524
 30
0.0
 11
332.967463758026
 21
2781.60350740669
 31
0.0
  0
LINE
  5
5E83
330
A
100
AcDbEntity
  8
Dim
100
AcDbLine
 10
370.3471484032975
 20
2725.935326669911
 30
0.0
 11
332.967463758026
 21
2755.127177544075
 31
0.0
  0
DIMENSION
  5
5EA2
102
{ACAD_REACTORS
330
5EA4
102
}
102
{ACAD_XDICTIONARY
360
5EA3
102
}
330
A
100
AcDbEntity
  8
Dim
100
AcDbDimension
  2
*D167
 10
629.0474072842835
 20
2842.97551488
 30
0.0
 11
499.6972778437896
 21
2865.19182347375
 31
0.0
 70
    32
  1
460
 71
     5
 42
258.7002588809878
 73
     0
 74
     0
 75
     0
  3
tform線あり
100
AcDbAlignedDimension
 13
370.3471484032957
 23
2720.599910237369
 33
0.0
 14
629.0474072842835
 24
2720.599910237369
 34
0.0
100
AcDbRotatedDimension
1001
ACAD
1000
DSTYLE
1002
{
1070
   144
1040
1.0
1002
}
  0
DIMENSION
  5
5EB4
102
{ACAD_XDICTIONARY
360
5EB5
102
}
330
A
100
AcDbEntity
  8
Dim
100
AcDbDimension
  2
*D168
 10
797.7250545784068
 20
2062.518444150558
 30
0.0
 11
797.7250545784068
 21
2391.559177193964
 31
0.0
 70
   160
  1
1170
 71
     5
 42
658.0814660868109
 73
     0
 74
     0
 75
     0
  3
tform線あり
100
AcDbAlignedDimension
 13
737.8294896982225
 23
2720.599910237369
 33
0.0
 14
737.1075451222224
 24
2062.518444150558
 34
0.0
 50
90.0
100
AcDbRotatedDimension
1001
ACAD
1000
DSTYLE
1002
{
1070
   144
1040
1.0
1002
}
  0
LINE
  5
5F17
330
A
100
AcDbEntity
  8
Dim
100
AcDbLine
 10
370.3471484032957
 20
2255.405955661617
 30
0.0
 11
247.2289777815181
 21
2255.405955661617
 31
0.0
  0
LINE
  5
5F18
330
A
100
AcDbEntity
  8
Dim
100
AcDbLine
 10
247.2289777815181
 20
2255.405955661617
 30
0.0
 11
247.2289777815181
 21
2717.370966220475
 31
0.0
  0
LINE
  5
5F19
330
A
100
AcDbEntity
  8
Dim
100
AcDbLine
 10
326.685537855225
 20
2334.62243339322
 30
0.0
 11
326.685537855225
 21
2497.112039728075
 31
0.0
  0
DIMENSION
  5
5F35
330
A
100
AcDbEntity
  8
Dim
100
AcDbDimension
  2
*D173
 10
1889.295622625044
 20
1690.284259260836
 30
0.0
 11
1867.079314031294
 21
1167.784259260836
 31
0.0
 70
    32
 71
     5
 42
1045.0
 73
     0
 74
     0
 75
     0
  3
tform線あり
100
AcDbAlignedDimension
 13
1759.648352108326
 23
645.2842592608356
 33
0.0
 14
1759.648352108326
 24
1690.284259260836
 34
0.0
 50
90.0
100
AcDbRotatedDimension
1001
ACAD
1000
DSTYLE
1002
{
1070
   144
1040
1.0
1002
}
  0
SPLINE
  5
5F98
330
A
100
AcDbEntity
  8
HIDDEN
 48
0.5
100
AcDbSpline
210
0.0
220
0.0
230
1.0
 70
  1064
 71
     3
 72
    33
 73
    29
 74
    27
 42
0.000000001
 43
0.0000000001
 44
0.0
 40
0.0
 40
0.0
 40
0.0
 40
0.0
 40
2.252949374987146
 40
8.44485121400208
 40
25.25681817945819
 40
35.15110622899574
 40
49.65944032421861
 40
70.5849205054846
 40
96.94890800805007
 40
119.6082213994471
 40
134.9623150450337
 40
156.676282516569
 40
173.1501186868859
 40
179.7926119732187
 40
214.4539274508354
 40
237.4116265010566
 40
255.9950140124126
 40
259.3421400970527
 40
263.856098010922
 40
268.3214812658389
 40
271.8923334217972
 40
275.9867561970484
 40
278.8819353344858
 40
279.3780518694376
 40
295.7615252541117
 40
301.0101539604638
 40
307.0662640062536
 40
310.4832713032961
 40
310.4832713032961
 40
310.4832713032961
 40
310.4832713032961
 10
1592.269675942445
 20
1782.109240915132
 30
0.0
 10
1592.743040581043
 20
1781.524351654213
 30
0.0
 10
1594.517378694149
 20
1779.331979806021
 30
0.0
 10
1601.302416306662
 20
1774.23726001111
 30
0.0
 10
1609.589486383793
 20
1767.103448010424
 30
0.0
 10
1619.926672363111
 20
1758.044137757175
 30
0.0
 10
1631.588984124468
 20
1748.431926536235
 30
0.0
 10
1647.181270400793
 20
1735.012024947976
 30
0.0
 10
1665.06125899019
 20
1719.838421346608
 30
0.0
 10
1681.600980797691
 20
1706.796543081906
 30
0.0
 10
1695.118569309518
 20
1690.199871202882
 30
0.0
 10
1699.450130248806
 20
1678.876609689463
 30
0.0
 10
1704.345845195206
 20
1648.452631443493
 30
0.0
 10
1700.240867658677
 20
1678.320934606573
 30
0.0
 10
1708.350746634157
 20
1625.335184703027
 30
0.0
 10
1711.640385177169
 20
1608.264603934086
 30
0.0
 10
1713.227662733805
 20
1592.029740180323
 30
0.0
 10
1713.690488832141
 20
1583.336438169634
 30
0.0
 10
1714.053302595513
 20
1579.0833770342
 30
0.0
 10
1716.855218082037
 20
1575.798590610661
 30
0.0
 10
1719.58077587136
 20
1572.795855937302
 30
0.0
 10
1721.910533133504
 20
1570.361350803183
 30
0.0
 10
1723.850951494925
 20
1568.299066086391
 30
0.0
 10
1730.519107451944
 20
1568.583795276924
 30
0.0
 10
1737.825297583653
 20
1568.310023501216
 30
0.0
 10
1747.064171648138
 20
1568.374444536435
 30
0.0
 10
1751.970848377205
 20
1568.300457166416
 30
0.0
 10
1755.126889728672
 20
1568.417897463906
 30
0.0
 10
1756.265291791842
 20
1568.460258847068
 30
0.0
 11
1592.269675942445
 21
1782.109240915132
 31
0.0
 11
1593.724951111633
 21
1780.389370260635
 31
0.0
 11
1598.421520975838
 21
1776.354289109699
 31
0.0
 11
1611.320550884567
 21
1765.572023083427
 31
0.0
 11
1618.795373344499
 21
1759.089433693398
 31
0.0
 11
1629.908383727404
 21
1749.762442836318
 31
0.0
 11
1645.839667561994
 21
1736.195205969576
 31
0.0
 11
1666.026701047961
 21
1719.238097841364
 31
0.0
 11
1683.064557310118
 21
1704.299693061749
 31
0.0
 11
1692.754333383383
 21
1692.389343305028
 31
0.0
 11
1700.223535773191
 21
1672.0004394842
 31
0.0
 11
1703.303295320954
 21
1655.817041840491
 31
0.0
 11
1702.442255702682
 21
1662.403492161775
 31
0.0
 11
1708.096478832717
 21
1628.206466685359
 31
0.0
 11
1711.730144860193
 21
1605.538153627672
 31
0.0
 11
1713.485201633249
 21
1587.037827492153
 31
0.0
 11
1713.687071968109
 21
1583.69679450902
 31
0.0
 11
1714.494553307549
 21
1579.255647142107
 31
0.0
 11
1717.058468056535
 21
1575.599694629666
 31
0.0
 11
1719.456364642131
 21
1572.953739776593
 31
0.0
 11
1722.267691673521
 21
1569.977040566886
 31
0.0
 11
1724.665588259118
 21
1568.354649059686
 31
0.0
 11
1725.16170479407
 21
1568.354649059686
 31
0.0
 11
1741.545178178744
 21
1568.354649059686
 31
0.0
 11
1746.793806885096
 21
1568.354649059686
 31
0.0
 11
1752.849916930886
 21
1568.354649059686
 31
0.0
 11
1756.265291791842
 21
1568.460258847068
 31
0.0
  0
LINE
  5
5F99
330
A
100
AcDbEntity
  8
HIDDEN
100
AcDbLine
 10
1713.885332883057
 20
1580.471373527035
 30
0.0
 11
1713.619645126471
 21
1505.097144994749
 31
0.0
  0
LINE
  5
5F9A
330
A
100
AcDbEntity
  8
HIDDEN
100
AcDbLine
 10
1725.559703029784
 20
1567.266667166655
 30
0.0
 11
1725.559703029784
 21
1521.71953170607
 31
0.0
  0
SPLINE
  5
5F9E
330
A
100
AcDbEntity
  8
HIDDEN
 48
0.5
100
AcDbSpline
210
0.0
220
0.0
230
1.0
 70
  1064
 71
     3
 72
    33
 73
    29
 74
    27
 42
0.000000001
 43
0.0000000001
 44
0.0
 40
0.0
 40
0.0
 40
0.0
 40
0.0
 40
2.252949374987146
 40
8.444851214002227
 40
25.25681817945819
 40
35.15110622899574
 40
49.65944032421876
 40
70.5849205054846
 40
96.94890800805007
 40
119.6082213994479
 40
134.9623150450344
 40
156.6762825165686
 40
173.1501186868865
 40
179.7926119732191
 40
214.4539274508346
 40
237.4116265010561
 40
255.9950140124119
 40
259.3421400970522
 40
263.8560980109213
 40
268.3214812658391
 40
271.8923334217974
 40
275.9867561970477
 40
278.8819353344857
 40
279.3780518694376
 40
295.7615252541116
 40
301.0101539604637
 40
307.0662640062536
 40
310.4728023182994
 40
310.4728023182994
 40
310.4728023182994
 40
310.4728023182994
 10
1592.269675942445
 20
1303.459277606653
 30
0.0
 10
1592.743040581043
 20
1304.044166867571
 30
0.0
 10
1594.517378694149
 20
1306.236538715765
 30
0.0
 10
1601.302416306663
 20
1311.331258510674
 30
0.0
 10
1609.589486383793
 20
1318.465070511361
 30
0.0
 10
1619.926672363111
 20
1327.52438076461
 30
0.0
 10
1631.588984124469
 20
1337.13659198555
 30
0.0
 10
1647.181270400792
 20
1350.556493573808
 30
0.0
 10
1665.06125899019
 20
1365.730097175177
 30
0.0
 10
1681.60098079769
 20
1378.771975439879
 30
0.0
 10
1695.118569309518
 20
1395.368647318904
 30
0.0
 10
1699.450130248807
 20
1406.691908832322
 30
0.0
 10
1704.345845195205
 20
1437.115887078294
 30
0.0
 10
1700.240867658678
 20
1407.24758391521
 30
0.0
 10
1708.350746634158
 20
1460.233333818824
 30
0.0
 10
1711.640385177166
 20
1477.30391458756
 30
0.0
 10
1713.22766273381
 20
1493.538778341736
 30
0.0
 10
1713.690488832138
 20
1502.232080351972
 30
0.0
 10
1714.053302595536
 20
1506.485141488569
 30
0.0
 10
1716.855218081959
 20
1509.769927907825
 30
0.0
 10
1719.580775871603
 20
1512.772662594669
 30
0.0
 10
1721.910533132574
 20
1515.207167679567
 30
0.0
 10
1723.850951496483
 20
1517.269452500746
 30
0.0
 10
1730.519107441224
 20
1516.984722795459
 30
0.0
 10
1737.825298857113
 20
1517.258548386176
 30
0.0
 10
1747.064170244884
 20
1517.194015180631
 30
0.0
 10
1751.967364296972
 20
1517.268225592177
 30
0.0
 10
1755.119907962508
 20
1517.150623961851
 30
0.0
 10
1756.254818652511
 20
1517.108287562556
 30
0.0
 11
1592.269675942445
 21
1303.459277606653
 31
0.0
 11
1593.724951111633
 21
1305.17914826115
 31
0.0
 11
1598.421520975838
 21
1309.214229412086
 31
0.0
 11
1611.320550884567
 21
1319.996495438358
 31
0.0
 11
1618.795373344499
 21
1326.479084828387
 31
0.0
 11
1629.908383727404
 21
1335.806075685467
 31
0.0
 11
1645.839667561994
 21
1349.373312552209
 31
0.0
 11
1666.026701047961
 21
1366.330420680421
 31
0.0
 11
1683.064557310118
 21
1381.268825460037
 31
0.0
 11
1692.754333383383
 21
1393.179175216758
 31
0.0
 11
1700.223535773191
 21
1413.568079037585
 31
0.0
 11
1703.303295320954
 21
1429.751476681295
 31
0.0
 11
1702.442255702682
 21
1423.165026360011
 31
0.0
 11
1708.096478832717
 21
1457.362051836426
 31
0.0
 11
1711.730144860193
 21
1480.030364894113
 31
0.0
 11
1713.485201633249
 21
1498.530691029632
 31
0.0
 11
1713.687071968109
 21
1501.871724012765
 31
0.0
 11
1714.494553307549
 21
1506.312871379678
 31
0.0
 11
1717.058468056535
 21
1509.96882389212
 31
0.0
 11
1719.456364642131
 21
1512.614778745193
 31
0.0
 11
1722.267691673521
 21
1515.591477954899
 31
0.0
 11
1724.665588259118
 21
1517.2138694621
 31
0.0
 11
1725.16170479407
 21
1517.2138694621
 31
0.0
 11
1741.545178178744
 21
1517.2138694621
 31
0.0
 11
1746.793806885096
 21
1517.2138694621
 31
0.0
 11
1752.849916930886
 21
1517.2138694621
 31
0.0
 11
1756.254818652511
 21
1517.108287562556
 31
0.0
  0
CIRCLE
  5
5F9F
330
A
100
AcDbEntity
  8
HIDDEN
 48
0.6
100
AcDbCircle
 10
1623.978197192518
 20
792.7842592607774
 30
0.0
 40
11.98287221885312
  0
SPLINE
  5
5FA0
330
A
100
AcDbEntity
  8
HIDDEN
 48
0.5
100
AcDbSpline
210
0.0
220
0.0
230
1.0
 70
  1064
 71
     3
 72
    33
 73
    29
 74
    27
 42
0.000000001
 43
0.0000000001
 44
0.0
 40
0.0
 40
0.0
 40
0.0
 40
0.0
 40
2.25294937498712
 40
8.444851214002348
 40
25.25681817945831
 40
35.15110622899554
 40
49.65944032421871
 40
70.5849205054847
 40
96.94890800805031
 40
119.6082213994471
 40
134.962315045034
 40
156.6762825165685
 40
173.1501186868861
 40
179.7926119732189
 40
214.4539274508349
 40
237.4116265010565
 40
255.9950140124127
 40
259.3421400970526
 40
263.8560980109219
 40
268.3214812658389
 40
271.8923334217974
 40
275.9867561970481
 40
278.8819353344857
 40
279.3780518694378
 40
295.7615252541128
 40
301.0101539604637
 40
307.0662640062538
 40
310.4832713032876
 40
310.4832713032876
 40
310.4832713032876
 40
310.4832713032876
 10
1592.269675942451
 20
553.4592776065376
 30
0.0
 10
1592.743040581049
 20
554.0441668674562
 30
0.0
 10
1594.517378694155
 20
556.2365387156492
 30
0.0
 10
1601.302416306668
 20
561.3312585105588
 30
0.0
 10
1609.589486383799
 20
568.4650705112454
 30
0.0
 10
1619.926672363117
 20
577.5243807644948
 30
0.0
 10
1631.588984124474
 20
587.1365919854351
 30
0.0
 10
1647.181270400798
 20
600.5564935736934
 30
0.0
 10
1665.061258990196
 20
615.7300971750623
 30
0.0
 10
1681.600980797696
 20
628.7719754397647
 30
0.0
 10
1695.118569309522
 20
645.3686473187888
 30
0.0
 10
1699.450130248812
 20
656.6919088322077
 30
0.0
 10
1704.345845195211
 20
687.1158870781788
 30
0.0
 10
1700.240867658683
 20
657.2475839150975
 30
0.0
 10
1708.350746634161
 20
710.2333338186434
 30
0.0
 10
1711.640385177176
 20
727.3039145875845
 30
0.0
 10
1713.227662733805
 20
743.5387783413482
 30
0.0
 10
1713.690488832148
 20
752.2320803520369
 30
0.0
 10
1714.053302595516
 20
756.4851414874707
 30
0.0
 10
1716.855218082042
 20
759.7699279110097
 30
0.0
 10
1719.580775871364
 20
762.7726625843698
 30
0.0
 10
1721.910533133509
 20
765.2071677184883
 30
0.0
 10
1723.850951494927
 20
767.2694524352801
 30
0.0
 10
1730.519107451954
 20
766.9847232447463
 30
0.0
 10
1737.825297583657
 20
767.2584950204555
 30
0.0
 10
1747.064171648142
 20
767.1940739852362
 30
0.0
 10
1751.970848377206
 20
767.2680613552557
 30
0.0
 10
1755.126889728671
 20
767.1506210577656
 30
0.0
 10
1756.265291791837
 20
767.1082596746046
 30
0.0
 11
1592.269675942451
 21
553.4592776065376
 31
0.0
 11
1593.724951111639
 21
555.1791482610345
 31
0.0
 11
1598.421520975844
 21
559.2142294119708
 31
0.0
 11
1611.320550884573
 21
569.9964954382426
 31
0.0
 11
1618.795373344505
 21
576.4790848282714
 31
0.0
 11
1629.90838372741
 21
585.8060756853517
 31
0.0
 11
1645.839667562
 21
599.3733125520939
 31
0.0
 11
1666.026701047967
 21
616.3304206803061
 31
0.0
 11
1683.064557310123
 21
631.2688254599218
 31
0.0
 11
1692.754333383388
 21
643.1791752166432
 31
0.0
 11
1700.223535773196
 21
663.5680790374704
 31
0.0
 11
1703.303295320959
 21
679.7514766811801
 31
0.0
 11
1702.442255702687
 21
673.165026359896
 31
0.0
 11
1708.096478832722
 21
707.3620518363114
 31
0.0
 11
1711.730144860197
 21
730.0303648939987
 31
0.0
 11
1713.485201633253
 21
748.530691029518
 31
0.0
 11
1713.687071968114
 21
751.8717240126507
 31
0.0
 11
1714.494553307553
 21
756.3128713795641
 31
0.0
 11
1717.058468056539
 21
759.9688238920053
 31
0.0
 11
1719.456364642135
 21
762.6147787450782
 31
0.0
 11
1722.267691673525
 21
765.5914779547848
 31
0.0
 11
1724.665588259122
 21
767.2138694619853
 31
0.0
 11
1725.161704794074
 21
767.2138694619853
 31
0.0
 11
1741.545178178749
 21
767.2138694619855
 31
0.0
 11
1746.7938068851
 21
767.2138694619855
 31
0.0
 11
1752.84991693089
 21
767.2138694619855
 31
0.0
 11
1756.265291791837
 21
767.1082596746046
 31
0.0
  0
LINE
  5
5FA1
330
A
100
AcDbEntity
  8
HIDDEN
100
AcDbLine
 10
1713.885332883061
 20
755.0971449946355
 30
0.0
 11
1713.619645126474
 21
830.4713735269215
 31
0.0
  0
LINE
  5
5FA2
330
A
100
AcDbEntity
  8
HIDDEN
100
AcDbLine
 10
1725.559703029788
 20
768.301851355016
 30
0.0
 11
1725.559703029788
 21
813.8489868156012
 31
0.0
  0
SPLINE
  5
5FA3
330
A
100
AcDbEntity
  8
HIDDEN
 48
0.5
100
AcDbSpline
210
0.0
220
0.0
230
1.0
 70
  1064
 71
     3
 72
    33
 73
    29
 74
    27
 42
0.000000001
 43
0.0000000001
 44
0.0
 40
0.0
 40
0.0
 40
0.0
 40
0.0
 40
2.252949374987293
 40
8.444851214001634
 40
25.25681817945767
 40
35.15110622899591
 40
49.65944032421886
 40
70.58492050548456
 40
96.9489080080497
 40
119.6082213994474
 40
134.9623150450339
 40
156.6762825165683
 40
173.1501186868861
 40
179.7926119732189
 40
214.4539274508348
 40
237.4116265010561
 40
255.9950140124123
 40
259.3421400970523
 40
263.8560980109218
 40
268.3214812658383
 40
271.8923334217973
 40
275.986756197048
 40
278.8819353344849
 40
279.3780518694379
 40
295.7615252541119
 40
301.0101539604628
 40
307.0662640062538
 40
310.4728023182918
 40
310.4728023182918
 40
310.4728023182918
 40
310.4728023182918
 10
1592.269675942446
 20
1032.109240915016
 30
0.0
 10
1592.743040581045
 20
1031.524351654097
 30
0.0
 10
1594.517378694149
 20
1029.331979805904
 30
0.0
 10
1601.302416306665
 20
1024.237260010997
 30
0.0
 10
1609.589486383793
 20
1017.103448010309
 30
0.0
 10
1619.926672363114
 20
1008.04413775706
 30
0.0
 10
1631.58898412447
 20
998.4319265361198
 30
0.0
 10
1647.181270400795
 20
985.0120249478618
 30
0.0
 10
1665.061258990192
 20
969.8384213464931
 30
0.0
 10
1681.600980797693
 20
956.7965430817912
 30
0.0
 10
1695.118569309519
 20
940.1998712027673
 30
0.0
 10
1699.450130248809
 20
928.8766096893492
 30
0.0
 10
1704.345845195208
 20
898.4526314433763
 30
0.0
 10
1700.240867658682
 20
928.3209346064623
 30
0.0
 10
1708.35074663416
 20
875.3351847028462
 30
0.0
 10
1711.640385177172
 20
858.2646039341125
 30
0.0
 10
1713.227662733811
 20
842.0297401799323
 30
0.0
 10
1713.690488832142
 20
833.336438169699
 30
0.0
 10
1714.05330259554
 20
829.0833770331021
 30
0.0
 10
1716.855218081962
 20
825.7985906138454
 30
0.0
 10
1719.580775871607
 20
822.7958559270037
 30
0.0
 10
1721.910533132577
 20
820.3613508421031
 30
0.0
 10
1723.850951496487
 20
818.2990660209259
 30
0.0
 10
1730.519107441228
 20
818.5837957262103
 30
0.0
 10
1737.825298857118
 20
818.3099701354959
 30
0.0
 10
1747.064170244887
 20
818.374503341041
 30
0.0
 10
1751.967364296973
 20
818.3002929294939
 30
0.0
 10
1755.119907962506
 20
818.4178945598209
 30
0.0
 10
1756.254818652507
 20
818.4602309591163
 30
0.0
 11
1592.269675942446
 21
1032.109240915016
 31
0.0
 11
1593.724951111634
 21
1030.389370260519
 31
0.0
 11
1598.421520975839
 21
1026.354289109584
 31
0.0
 11
1611.320550884568
 21
1015.572023083312
 31
0.0
 11
1618.795373344501
 21
1009.089433693283
 31
0.0
 11
1629.908383727406
 21
999.762442836203
 31
0.0
 11
1645.839667561996
 21
986.1952059694613
 31
0.0
 11
1666.026701047963
 21
969.2380978412496
 31
0.0
 11
1683.06455731012
 21
954.2996930616339
 31
0.0
 11
1692.754333383385
 21
942.3893433049129
 31
0.0
 11
1700.223535773193
 21
922.0004394840857
 31
0.0
 11
1703.303295320957
 21
905.8170418403761
 31
0.0
 11
1702.442255702685
 21
912.4034921616601
 31
0.0
 11
1708.09647883272
 21
878.2064666852448
 31
0.0
 11
1711.730144860196
 21
855.5381536275579
 31
0.0
 11
1713.485201633252
 21
837.0378274920386
 31
0.0
 11
1713.687071968113
 21
833.6967945089059
 31
0.0
 11
1714.494553307553
 21
829.2556471419925
 31
0.0
 11
1717.058468056538
 21
825.5996946295513
 31
0.0
 11
1719.456364642135
 21
822.9537397764784
 31
0.0
 11
1722.267691673525
 21
819.9770405667718
 31
0.0
 11
1724.665588259121
 21
818.3546490595713
 31
0.0
 11
1725.161704794074
 21
818.3546490595713
 31
0.0
 11
1741.545178178748
 21
818.3546490595716
 31
0.0
 11
1746.793806885099
 21
818.3546490595716
 31
0.0
 11
1752.84991693089
 21
818.3546490595716
 31
0.0
 11
1756.254818652507
 21
818.4602309591163
 31
0.0
  0
DIMENSION
  5
5FC2
102
{ACAD_XDICTIONARY
360
5FC3
102
}
330
A
100
AcDbEntity
  8
Dim
100
AcDbDimension
  2
*D174
 10
860.3471482818333
 20
439.9641897915015
 30
0.0
 11
680.3471482818331
 21
462.1804983852515
 31
0.0
 70
    32
 71
     5
 42
360.0000000000002
 73
     0
 74
     0
 75
     0
  3
tform線あり
100
AcDbAlignedDimension
 13
500.3471482818331
 23
517.7842592608347
 33
0.0
 14
860.3471482818333
 24
539.3261558937596
 34
0.0
100
AcDbRotatedDimension
1001
ACAD
1000
DSTYLE
1002
{
1070
   144
1040
1.0
1002
}
  0
DIMENSION
  5
5FD3
102
{ACAD_XDICTIONARY
360
5FD4
102
}
330
A
100
AcDbEntity
  8
Dim
100
AcDbDimension
  2
*D175
 10
222.7618607947579
 20
542.7842592607765
 30
0.0
 11
200.5455522010079
 21
667.7842592607765
 31
0.0
 70
    32
 71
     5
 42
250.0
 73
     0
 74
     0
 75
     0
  3
tform線あり
100
AcDbAlignedDimension
 13
344.6396444939985
 23
792.7842592607765
 33
0.0
 14
344.639644493999
 24
542.7842592607765
 34
0.0
 50
90.0
100
AcDbRotatedDimension
1001
ACAD
1000
DSTYLE
1002
{
1070
   144
1040
1.0
1002
}
  0
DIMENSION
  5
5FE8
330
A
100
AcDbEntity
  8
Dim
100
AcDbDimension
  2
*D176
 10
870.3471484032957
 20
1866.063871067598
 30
0.0
 11
620.3471484032957
 21
1888.280179661348
 31
0.0
 70
    32
 71
     5
 42
500.0
 73
     0
 74
     0
 75
     0
  3
tform線あり
100
AcDbAlignedDimension
 13
370.3471484032957
 23
1782.895855912398
 33
0.0
 14
870.3471484032957
 24
1782.895855912398
 34
0.0
100
AcDbRotatedDimension
1001
ACAD
1000
DSTYLE
1002
{
1070
   144
1040
1.0
1002
}
  0
HATCH
  5
60A4
330
A
100
AcDbEntity
  8
Dim
100
AcDbHatch
 10
0.0
 20
0.0
 30
0.0
210
0.0
220
0.0
230
1.0
  2
ANSI31
 70
     0
 71
     0
 91
        1
 92
        1
 93
        4
 72
     1
 10
370.3471484032968
 20
2700.934185777061
 11
370.3471484032962
 21
2504.059185777061
 72
     1
 10
370.3471484032962
 20
2504.059185777061
 11
527.8471484032957
 21
2504.059185777062
 72
     1
 10
527.8471484032957
 20
2504.059185777062
 11
527.8471484032964
 21
2700.934185777062
 72
     1
 10
527.8471484032964
 20
2700.934185777062
 11
370.3471484032968
 21
2700.934185777061
 97
        0
 75
     0
 76
     1
 52
0.0
 41
4.0
 77
     0
 78
     1
 53
45.0
 43
-47.82057851965976
 44
193.6712958171333
 45
-8.980256121069154
 46
8.980256121069154
 79
     0
 98
        1
 10
-47.82057851965976
 20
193.6712958171333
1001
ACAD
1010
0.0
1020
0.0
1030
0.0
  0
LINE
  5
60A5
102
{ACAD_REACTORS
330
60A4
330
6168
102
}
330
A
100
AcDbEntity
  8
MODEL
100
AcDbLine
 10
370.3471484032962
 20
2504.059185777061
 30
0.0
 11
527.8471484032957
 21
2504.059185777062
 31
0.0
  0
LINE
  5
60A6
102
{ACAD_REACTORS
330
60A4
330
6168
102
}
330
A
100
AcDbEntity
  8
MODEL
100
AcDbLine
 10
527.8471484032957
 20
2504.059185777062
 30
0.0
 11
527.8471484032964
 21
2700.934185777062
 31
0.0
  0
LINE
  5
60AF
102
{ACAD_REACTORS
330
6168
102
}
330
A
100
AcDbEntity
  8
MODEL
100
AcDbLine
 10
527.8471484032964
 20
2700.934185777062
 30
0.0
 11
370.3471484032968
 21
2700.934185777061
 31
0.0
  0
DIMENSION
  5
60EF
102
{ACAD_XDICTIONARY
360
60F0
102
}
330
A
100
AcDbEntity
  8
Dim
100
AcDbDimension
  2
*D187
 10
370.347148403296
 20
1973.512467622747
 30
0.0
 11
449.0971484032959
 21
1995.728776216497
 31
0.0
 70
    32
  1
280
 71
     5
 42
157.4999999999995
 73
     0
 74
     0
 75
     0
 52
-270.0
  3
tform線あり
100
AcDbAlignedDimension
 13
527.8471484032957
 23
2060.041020319571
 33
0.0
 14
370.3471484032962
 24
2057.938466798275
 34
0.0
 50
179.9999999999999
100
AcDbRotatedDimension
1001
ACAD
1000
DSTYLE
1002
{
1070
   144
1040
1.0
1002
}
  0
DIMENSION
  5
60FF
102
{ACAD_XDICTIONARY
360
6100
102
}
330
A
100
AcDbEntity
  8
Dim
100
AcDbDimension
  2
*D188
 10
726.5180591644246
 20
2504.059185777061
 30
0.0
 11
726.5180591644248
 21
2602.496685777063
 31
0.0
 70
   160
  1
350
 71
     5
 42
196.875
 73
     0
 74
     0
 75
     0
  3
tform線あり
100
AcDbAlignedDimension
 13
659.2727479609632
 23
2700.934185777061
 33
0.0
 14
659.2727479609625
 24
2504.059185777061
 34
0.0
 50
89.99999999999991
100
AcDbRotatedDimension
1001
ACAD
1000
DSTYLE
1002
{
1070
   144
1040
1.0
1002
}
  0
DIMENSION
  5
610D
102
{ACAD_XDICTIONARY
360
610E
102
}
330
A
100
AcDbEntity
  8
Dim
100
AcDbDimension
  2
*D189
 10
726.5180591644246
 20
2279.059168610866
 30
0.0
 11
726.5180591644248
 21
2180.621668610865
 31
0.0
 70
   160
  1
350
 71
     5
 42
196.875
 73
     0
 74
     0
 75
     0
 52
-89.99999999999999
  3
tform線あり
100
AcDbAlignedDimension
 13
659.2727479609632
 23
2082.184168610866
 33
0.0
 14
659.2727479609625
 24
2279.059168610866
 34
0.0
 50
-89.99999999999991
100
AcDbRotatedDimension
1001
ACAD
1000
DSTYLE
1002
{
1070
   144
1040
1.0
1002
}
  0
LINE
  5
611B
330
A
100
AcDbEntity
  8
MODEL
100
AcDbLine
 10
370.3471484032968
 20
2700.934185777061
 30
0.0
 11
370.3471484032962
 21
2504.059185777061
 31
0.0
  0
HATCH
  5
611C
330
A
100
AcDbEntity
  8
Dim
100
AcDbHatch
 10
0.0
 20
0.0
 30
0.0
210
0.0
220
0.0
230
1.0
  2
ANSI31
 70
     0
 71
     0
 91
        1
 92
        1
 93
        4
 72
     1
 10
370.3471484032968
 20
2279.059185776996
 11
370.3471484032961
 21
2082.184185776996
 72
     1
 10
370.3471484032961
 20
2082.184185776996
 11
527.8471484032957
 21
2082.184185776997
 72
     1
 10
527.8471484032957
 20
2082.184185776997
 11
527.8471484032964
 21
2279.059185776997
 72
     1
 10
527.8471484032964
 20
2279.059185776997
 11
370.3471484032968
 21
2279.059185776996
 97
        0
 75
     0
 76
     1
 52
0.0
 41
4.0
 77
     0
 78
     1
 53
45.0
 43
-47.82057851965982
 44
-228.2037041829317
 45
-8.980256121069154
 46
8.980256121069154
 79
     0
 98
        1
 10
-47.82057851965982
 20
-228.2037041829317
1001
ACAD
1010
0.0
1020
0.0
1030
0.0
  0
LINE
  5
611D
102
{ACAD_REACTORS
330
611C
330
6168
102
}
330
A
100
AcDbEntity
  8
MODEL
100
AcDbLine
 10
370.3471484032961
 20
2082.184185776996
 30
0.0
 11
527.8471484032957
 21
2082.184185776997
 31
0.0
  0
LINE
  5
611E
102
{ACAD_REACTORS
330
611C
330
6168
102
}
330
A
100
AcDbEntity
  8
MODEL
100
AcDbLine
 10
527.8471484032957
 20
2082.184185776997
 30
0.0
 11
527.8471484032964
 21
2279.059185776997
 31
0.0
  0
LINE
  5
611F
102
{ACAD_REACTORS
330
6168
102
}
330
A
100
AcDbEntity
  8
MODEL
100
AcDbLine
 10
527.8471484032964
 20
2279.059185776997
 30
0.0
 11
370.3471484032968
 21
2279.059185776996
 31
0.0
  0
DIMENSION
  5
6120
102
{ACAD_XDICTIONARY
360
6121
102
}
330
A
100
AcDbEntity
  8
Dim
100
AcDbDimension
  2
*D190
 10
370.3471484032962
 20
2779.646738459044
 30
0.0
 11
449.0971484032959
 21
2801.863047052794
 31
0.0
 70
    32
  1
280
 71
     5
 42
157.4999999999995
 73
     0
 74
     0
 75
     0
 52
270.0
  3
tform線あり
100
AcDbAlignedDimension
 13
527.8471484032957
 23
2723.077334068356
 33
0.0
 14
370.3471484032962
 24
2725.179887589652
 34
0.0
 50
-179.9999999999999
100
AcDbRotatedDimension
1001
ACAD
1000
DSTYLE
1002
{
1070
   144
1040
1.0
1002
}
  0
DIMENSION
  5
612E
102
{ACAD_REACTORS
330
6130
102
}
102
{ACAD_XDICTIONARY
360
612F
102
}
330
A
100
AcDbEntity
  8
Dim
100
AcDbDimension
  2
*D191
 10
726.5180591644249
 20
2039.996677193964
 30
0.0
 11
704.3017505706749
 21
2061.090422902415
 31
0.0
 70
    32
  1
75
 71
     5
 42
42.18749141690228
 73
     0
 74
     1
 75
     1
  3
tform線あり
100
AcDbAlignedDimension
 13
659.2727479609632
 23
2082.184168610866
 33
0.0
 14
642.7734538582224
 24
2039.996677193964
 34
0.0
 50
90.0
100
AcDbRotatedDimension
1001
ACAD
1000
DSTYLE
1002
{
1070
   144
1040
1.0
1002
}
  0
DIMENSION
  5
613F
102
{ACAD_XDICTIONARY
360
6140
102
}
330
A
100
AcDbEntity
  8
Dim
100
AcDbDimension
  2
*D192
 10
726.5180591644249
 20
2743.121677193963
 30
0.0
 11
704.3017505706749
 21
2722.027931485512
 31
0.0
 70
    32
  1
75
 71
     5
 42
42.18749141690205
 73
     0
 74
     1
 75
     1
 52
-90.0
  3
tform線あり
100
AcDbAlignedDimension
 13
659.2727479609632
 23
2700.934185777061
 33
0.0
 14
642.7734538582224
 24
2743.121677193963
 34
0.0
 50
-90.0
100
AcDbRotatedDimension
1001
ACAD
1000
DSTYLE
1002
{
1070
   144
1040
1.0
1002
}
  0
LINE
  5
6151
102
{ACAD_REACTORS
330
6168
102
}
330
A
100
AcDbEntity
  8
MODEL
100
AcDbLine
 10
629.0474072842835
 20
2062.518444150558
 30
0.0
 11
629.0474072842835
 21
2720.599910237369
 31
0.0
  0
LINE
  5
6152
102
{ACAD_REACTORS
330
6168
102
}
330
A
100
AcDbEntity
  8
MODEL
100
AcDbLine
 10
629.0474072842835
 20
2720.599910237369
 30
0.0
 11
370.3471484032957
 21
2720.599910237369
 31
0.0
  0
LINE
  5
6153
102
{ACAD_REACTORS
330
6168
102
}
330
A
100
AcDbEntity
  8
MODEL
100
AcDbLine
 10
370.3471484032962
 20
2504.059185777061
 30
0.0
 11
370.3471484032968
 21
2279.059185776996
 31
0.0
  0
LINE
  5
6154
102
{ACAD_REACTORS
330
6168
102
}
330
A
100
AcDbEntity
  8
MODEL
100
AcDbLine
 10
370.3471484032957
 20
2062.518444150558
 30
0.0
 11
629.0474072842835
 21
2062.518444150558
 31
0.0
  0
LINE
  5
6155
102
{ACAD_REACTORS
330
6168
102
}
330
A
100
AcDbEntity
  8
MODEL
100
AcDbLine
 10
370.3471484032968
 20
2700.934185777061
 30
0.0
 11
370.3471484032957
 21
2720.599910237369
 31
0.0
  0
LINE
  5
615A
330
A
100
AcDbEntity
  8
MODEL
100
AcDbLine
 10
370.3471484032961
 20
2082.184185776996
 30
0.0
 11
370.3471484032968
 21
2279.059185776996
 31
0.0
  0
LINE
  5
615B
102
{ACAD_REACTORS
330
6168
102
}
330
A
100
AcDbEntity
  8
MODEL
100
AcDbLine
 10
370.3471484032961
 20
2082.184185776996
 30
0.0
 11
370.3471484032957
 21
2062.518444150558
 31
0.0
  0
HATCH
  5
6168
330
A
100
AcDbEntity
  8
Dim
100
AcDbHatch
 10
0.0
 20
0.0
 30
0.0
210
0.0
220
0.0
230
1.0
  2
ANSI31
 70
     0
 71
     1
 91
        1
 92
        1
 93
       12
 72
     1
 10
629.0474072842835
 20
2720.599910237369
 11
370.3471484032957
 21
2720.599910237369
 72
     1
 10
370.3471484032957
 20
2720.599910237369
 11
370.3471484032968
 21
2700.934185777061
 72
     1
 10
370.3471484032968
 20
2700.934185777061
 11
527.8471484032964
 21
2700.934185777062
 72
     1
 10
527.8471484032964
 20
2700.934185777062
 11
527.8471484032957
 21
2504.059185777062
 72
     1
 10
527.8471484032957
 20
2504.059185777062
 11
370.3471484032962
 21
2504.059185777061
 72
     1
 10
370.3471484032962
 20
2504.059185777061
 11
370.3471484032968
 21
2279.059185776996
 72
     1
 10
370.3471484032968
 20
2279.059185776996
 11
527.8471484032964
 21
2279.059185776997
 72
     1
 10
527.8471484032964
 20
2279.059185776997
 11
527.8471484032957
 21
2082.184185776997
 72
     1
 10
527.8471484032957
 20
2082.184185776997
 11
370.3471484032961
 21
2082.184185776996
 72
     1
 10
370.3471484032961
 20
2082.184185776996
 11
370.3471484032957
 21
2062.518444150558
 72
     1
 10
370.3471484032957
 20
2062.518444150558
 11
629.0474072842835
 21
2062.518444150558
 72
     1
 10
629.0474072842835
 20
2062.518444150558
 11
629.0474072842835
 21
2720.599910237369
 97
       12
330
6152
330
6155
330
6151
330
6154
330
615B
330
611D
330
611E
330
611F
330
6153
330
60A5
330
60A6
330
60AF
 75
     0
 76
     1
 52
0.0
 41
8.0
 77
     0
 78
     1
 53
45.0
 43
0.0
 44
0.0
 45
-17.96051224213831
 46
17.96051224213831
 79
     0
 98
        1
 10
0.0
 20
0.0
1001
ACAD
1010
0.0
1020
0.0
1030
0.0
  0
DIMENSION
  5
616F
102
{ACAD_REACTORS
330
6171
102
}
102
{ACAD_XDICTIONARY
360
6170
102
}
330
A
100
AcDbEntity
  8
Dim
100
AcDbDimension
  2
*D193
 10
1762.958588523288
 20
2337.778243755612
 30
0.0
 11
1799.273199363132
 21
2337.778243755612
 31
0.0
 70
   160
 71
     5
 42
5.0
 73
     0
 74
     1
 75
     1
  3
tform線あり
100
AcDbAlignedDimension
 13
1757.958588523288
 23
2385.853620041537
 33
0.0
 14
1762.958588523288
 24
2385.85361973539
 34
0.0
100
AcDbRotatedDimension
1001
ACAD
1000
DSTYLE
1002
{
1070
   144
1040
1.0
1002
}
  0
LINE
  5
6185
330
A
100
AcDbEntity
  8
HIDDEN
100
AcDbLine
 10
1756.265291791837
 20
767.1082596746046
 30
0.0
 11
1756.254818652507
 21
818.4602309591163
 31
0.0
  0
LINE
  5
6186
330
A
100
AcDbEntity
  8
HIDDEN
100
AcDbLine
 10
1756.265291791842
 20
1568.460258847068
 30
0.0
 11
1756.254818652511
 21
1517.108287562556
 31
0.0
  0
VIEWPORT
  5
349
330
B
100
AcDbEntity
 67
     1
  8
0
100
AcDbViewport
 10
202.5
 20
128.5
 30
0.0
 40
486.0
 41
308.4
 68
     1
 69
     1
 12
202.5
 22
128.5
 13
0.0
 23
0.0
 14
0.5
 24
0.5
 15
0.0
 25
0.0
 16
0.0
 26
0.0
 36
1.0
 17
0.0
 27
0.0
 37
0.0
 42
50.0
 43
0.0
 44
0.0
 45
308.4
 50
0.0
 51
0.0
 72
   100
 90
   557152
  1

281
     0
 71
     1
 74
     0
110
0.0
120
0.0
130
0.0
111
1.0
121
0.0
131
0.0
112
0.0
122
1.0
132
0.0
 79
     0
146
0.0
170
     0
 61
     5
348
26C
292
     1
282
     1
141
0.0
142
0.0
 63
   256
  0
VIEWPORT
  5
34A
330
B
100
AcDbEntity
 67
     1
  8
0
100
AcDbViewport
 10
202.5
 20
128.5
 30
0.0
 40
324.0
 41
205.6
 68
     2
 69
     2
 12
986.6781359294573
 22
1427.077061889956
 13
0.0
 23
0.0
 14
0.5
 24
0.5
 15
0.0
 25
0.0
 16
0.0
 26
0.0
 36
1.0
 17
0.0
 27
0.0
 37
0.0
 42
50.0
 43
0.0
 44
0.0
 45
2890.021615685494
 50
0.0
 51
0.0
 72
   100
 90
   557152
  1

281
     0
 71
     1
 74
     0
110
0.0
120
0.0
130
0.0
111
1.0
121
0.0
131
0.0
112
0.0
122
1.0
132
0.0
 79
     0
146
0.0
170
     0
 61
     5
348
26C
292
     1
282
     1
141
0.0
142
0.0
 63
   256
  0
ENDSEC
  0
SECTION
  2
OBJECTS
  0
DICTIONARY
  5
19
330
0
100
AcDbDictionary
281
     1
  3
ACAD_COLOR
350
38F
  3
ACAD_DETAILVIEWSTYLE
350
8CF
  3
ACAD_FIELDLIST
350
BA6
  3
ACAD_GROUP
350
1A
  3
ACAD_IMAGE_VARS
350
27B
  3
ACAD_LAYOUT
350
1E
  3
ACAD_MATERIAL
350
263
  3
ACAD_MLEADERSTYLE
350
336
  3
ACAD_MLINESTYLE
350
1B
  3
ACAD_PLOTSETTINGS
350
22
  3
ACAD_PLOTSTYLENAME
350
1F
  3
ACAD_SCALELIST
350
241
  3
ACAD_SECTIONVIEWSTYLE
350
8D0
  3
ACAD_TABLESTYLE
350
278
  3
ACAD_VISUALSTYLE
350
267
  3
ACDB_RECOMPOSE_DATA
350
618F
  3
AcDbVariableDictionary
350
330
  3
APPDATA
350
27A
  3
DimOffsetDictionary
350
C08
  0
SUN
  5
8C2
330
15
100
AcDbSun
 90
        1
290
     0
 63
     7
421
 16777215
 40
1.0
291
     1
 91
  2455826
 92
 54000000
292
     0
 70
     2
 71
   256
280
     1
  0
DICTIONARY
  5
2E1
330
2
100
AcDbDictionary
280
     1
281
     1
  3
ACAD_LAYERSTATES
360
2E2
  3
ACLYDICTIONARY
360
BFE
  0
DICTIONARY
  5
560A
330
A
100
AcDbDictionary
280
     1
281
     1
  3
ACAD_SORTENTS
360
560B
  0
DICTIONARY
  5
BDC
330
BDB
100
AcDbDictionary
280
     1
281
     1
  3
ACAD_FIELD
360
5825
  0
DICTIONARY
  5
5CEB
330
5CEA
100
AcDbDictionary
280
     1
281
     1
  3
ACAD_DIMASSOC
360
5CEC
  0
DICTIONARY
  5
5CFA
330
5CF9
100
AcDbDictionary
280
     1
281
     1
  3
ACAD_DIMASSOC
360
5CFB
  0
DICTIONARY
  5
5DAA
330
5DA9
100
AcDbDictionary
280
     1
281
     1
  3
ACAD_DIMASSOC
360
5DAB
  0
DICTIONARY
  5
5DBB
330
5DBA
100
AcDbDictionary
280
     1
281
     1
  3
ACAD_DIMASSOC
360
5DBC
  0
DICTIONARY
  5
5EA3
330
5EA2
100
AcDbDictionary
280
     1
281
     1
  3
ACAD_DIMASSOC
360
5EA4
  0
DICTIONARY
  5
5EB5
330
5EB4
100
AcDbDictionary
280
     1
281
     1
  0
DICTIONARY
  5
5FC3
330
5FC2
100
AcDbDictionary
280
     1
281
     1
  0
DICTIONARY
  5
5FD4
330
5FD3
100
AcDbDictionary
280
     1
281
     1
  0
DICTIONARY
  5
60F0
330
60EF
100
AcDbDictionary
280
     1
281
     1
  0
DICTIONARY
  5
6100
330
60FF
100
AcDbDictionary
280
     1
281
     1
  0
DICTIONARY
  5
610E
330
610D
100
AcDbDictionary
280
     1
281
     1
  0
DICTIONARY
  5
6121
330
6120
100
AcDbDictionary
280
     1
281
     1
  0
DICTIONARY
  5
612F
330
612E
100
AcDbDictionary
280
     1
281
     1
  3
ACAD_DIMASSOC
360
6130
  0
DICTIONARY
  5
6140
330
613F
100
AcDbDictionary
280
     1
281
     1
  3
ACAD_DIMASSOC
360
6141
  0
DICTIONARY
  5
6170
330
616F
100
AcDbDictionary
280
     1
281
     1
  3
ACAD_DIMASSOC
360
6171
  0
DICTIONARY
  5
38F
102
{ACAD_REACTORS
330
19
102
}
330
19
100
AcDbDictionary
281
     1
  0
DICTIONARY
  5
8CF
102
{ACAD_REACTORS
330
19
102
}
330
19
100
AcDbDictionary
281
     1
  0
FIELDLIST
  5
BA6
102
{ACAD_REACTORS
330
19
102
}
330
19
100
AcDbIdSet
 90
        2
330
BDF
330
BDE
100
AcDbFieldList
  0
DICTIONARY
  5
1A
102
{ACAD_REACTORS
330
19
102
}
330
19
100
AcDbDictionary
281
     1
  0
RASTERVARIABLES
  5
27B
102
{ACAD_REACTORS
330
19
102
}
330
19
100
AcDbRasterVariables
 90
        0
 70
     1
 71
     1
 72
     1
  0
DICTIONARY
  5
1E
102
{ACAD_REACTORS
330
19
102
}
330
19
100
AcDbDictionary
281
     1
  3
Layout1
350
21
  3
Model
350
20
  0
DICTIONARY
  5
263
102
{ACAD_REACTORS
330
19
102
}
330
19
100
AcDbDictionary
281
     1
  3
ByBlock
350
4FEC
  3
ByLayer
350
264
  3
Global
350
266
  0
DICTIONARY
  5
336
102
{ACAD_REACTORS
330
19
102
}
330
19
100
AcDbDictionary
281
     1
  3
Standard
350
8D1
  0
DICTIONARY
  5
1B
102
{ACAD_REACTORS
330
19
102
}
330
19
100
AcDbDictionary
281
     1
  3
Standard
350
1C
  0
DICTIONARY
  5
22
102
{ACAD_REACTORS
330
19
102
}
330
19
100
AcDbDictionary
281
     1
  0
ACDBDICTIONARYWDFLT
  5
1F
102
{ACAD_REACTORS
330
19
102
}
330
19
100
AcDbDictionary
281
     1
  3
Normal
350
1D
100
AcDbDictionaryWithDefault
340
1D
  0
DICTIONARY
  5
241
102
{ACAD_REACTORS
330
19
102
}
330
19
100
AcDbDictionary
281
     1
  3
A0
350
242
  3
A1
350
243
  3
A2
350
244
  3
A3
350
245
  3
A4
350
246
  3
A5
350
247
  3
A6
350
248
  3
A7
350
249
  3
A8
350
24A
  3
A9
350
24B
  3
B0
350
24C
  3
B1
350
24D
  3
B2
350
24E
  3
B3
350
24F
  3
B4
350
250
  3
B5
350
251
  3
B6
350
252
  3
B7
350
253
  3
B8
350
254
  3
B9
350
255
  3
C0
350
256
  3
C1
350
257
  3
C2
350
258
  3
C3
350
259
  3
C4
350
25A
  3
C5
350
25B
  3
C6
350
25C
  3
C7
350
25D
  3
C8
350
25E
  3
C9
350
25F
  3
D0
350
260
  3
D1
350
261
  3
D2
350
262
  0
DICTIONARY
  5
8D0
102
{ACAD_REACTORS
330
19
102
}
330
19
100
AcDbDictionary
281
     1
  0
DICTIONARY
  5
278
102
{ACAD_REACTORS
330
19
102
}
330
19
100
AcDbDictionary
281
     1
  3
Standard
350
279
  0
DICTIONARY
  5
267
102
{ACAD_REACTORS
330
19
102
}
330
19
100
AcDbDictionary
281
     1
  3
2dWireframe
350
26C
  3
3D Hidden
350
26E
  3
3dWireframe
350
26D
  3
Basic
350
26F
  3
Brighten
350
273
  3
ColorChange
350
277
  3
Conceptual
350
271
  3
Dim
350
272
  3
EdgeColorOff
350
8BC
  3
Facepattern
350
276
  3
Flat
350
268
  3
FlatWithEdges
350
269
  3
Gouraud
350
26A
  3
GouraudWithEdges
350
26B
  3
Hidden
350
8B9
  3
JitterOff
350
8BA
  3
Linepattern
350
275
  3
OverhangOff
350
8BB
  3
Realistic
350
270
  3
Shaded
350
8C1
  3
Shaded with edges
350
8C0
  3
Shades of Gray
350
8BD
  3
Sketchy
350
8BE
  3
Thicken
350
274
  3
Wireframe
350
8B8
  3
X-Ray
350
8BF
  0
XRECORD
  5
618F
102
{ACAD_REACTORS
330
19
102
}
330
19
100
AcDbXrecord
280
     1
 90
        1
330
279
  0
DICTIONARY
  5
330
102
{ACAD_REACTORS
330
19
102
}
330
19
100
AcDbDictionary
281
     1
  3
CANNOSCALE
350
331
  3
CMLEADERSTYLE
350
8DA
  3
CTABLESTYLE
350
335
  3
HPTRANSPARENCY
350
C07
  3
XCLIPFRAME
350
64A
  0
DICTIONARY
  5
27A
102
{ACAD_REACTORS
330
19
102
}
330
19
100
AcDbDictionary
281
     1
  0
DICTIONARY
  5
C08
102
{ACAD_REACTORS
330
19
102
}
330
19
100
AcDbDictionary
281
     1
  3
DIMRAILANGLE
350
4342
  3
DIMRAILFIRSTOFFSET
350
4340
  3
DIMRAILOFFSET
350
4341
  3
DIMRAILSENABLED
350
4343
  0
DICTIONARY
  5
2E2
102
{ACAD_REACTORS
330
2E1
102
}
330
2E1
100
AcDbDictionary
281
     1
  0
DICTIONARY
  5
BFE
102
{ACAD_REACTORS
330
2E1
102
}
330
2E1
100
AcDbDictionary
281
     1
1001
ACAD
1000
<All
  0
SORTENTSTABLE
  5
560B
102
{ACAD_REACTORS
330
560A
102
}
330
560A
100
AcDbSortentsTable
330
A
331
0
  5
5ED2
331
0
  5
5EEC
331
0
  5
5EEF
331
0
  5
5EF2
331
0
  5
5EF3
331
0
  5
5EF4
331
0
  5
5EF5
331
0
  5
5F0F
331
0
  5
5F10
331
0
  5
5F17
331
5F17
  5
5F1A
331
5F18
  5
5F1B
331
5F19
  5
5F1C
331
0
  5
5F22
331
0
  5
5F21
331
0
  5
5ED1
331
60A5
  5
60AB
331
60A6
  5
60AE
331
0
  5
60AF
331
0
  5
60E0
331
0
  5
60EF
331
0
  5
60FD
331
60AF
  5
60FE
331
0
  5
60FF
331
60EF
  5
610D
331
0
  5
611B
331
0
  5
611C
331
60FF
  5
611D
331
610D
  5
611E
331
611B
  5
611F
331
611C
  5
6120
331
611D
  5
6153
331
611E
  5
6154
331
611F
  5
6155
331
6120
  5
615A
331
612E
  5
615B
331
613F
  5
615C
331
6151
  5
6160
331
6152
  5
6162
331
6153
  5
6163
331
6154
  5
6164
331
6155
  5
6165
331
615A
  5
6166
331
615B
  5
6167
331
0
  5
6168
331
0
  5
6161
331
0
  5
615D
331
0
  5
615E
331
0
  5
615F
331
0
  5
612E
331
0
  5
613F
331
0
  5
6151
331
0
  5
6152
331
0
  5
60A5
331
0
  5
60A6
331
0
  5
60A7
331
6168
  5
60A9
  0
DICTIONARY
  5
5825
102
{ACAD_REACTORS
330
BDC
102
}
330
BDC
100
AcDbDictionary
280
     1
281
     1
  3
TEXT
360
BDE
  0
DIMASSOC
  5
5CEC
102
{ACAD_REACTORS
330
5CEB
102
}
330
5CEB
100
AcDbDimAssoc
330
5CEA
 90
        0
 70
     0
 71
     1
  0
DIMASSOC
  5
5CFB
102
{ACAD_REACTORS
330
5CFA
102
}
330
5CFA
100
AcDbDimAssoc
330
5CF9
 90
        0
 70
     0
 71
     1
  0
DIMASSOC
  5
5DAB
102
{ACAD_REACTORS
330
5DAA
102
}
330
5DAA
100
AcDbDimAssoc
330
5DA9
 90
        0
 70
     0
 71
     1
  0
DIMASSOC
  5
5DBC
102
{ACAD_REACTORS
330
5DBB
102
}
330
5DBB
100
AcDbDimAssoc
330
5DBA
 90
        0
 70
     0
 71
     1
  0
DIMASSOC
  5
5EA4
102
{ACAD_REACTORS
330
5EA3
102
}
330
5EA3
100
AcDbDimAssoc
330
5EA2
 90
        3
 70
     0
 71
     1
  1
AcDbOsnapPointRef
 72
    13
331
5C36
 73
     0
 91
        0
 40
0.0
 10
0.0
 20
0.0
 30
0.0
 75
     0
  1
AcDbOsnapPointRef
 72
    13
331
5C37
 73
     0
 91
        0
 40
0.0
 10
0.0
 20
0.0
 30
0.0
 75
     0
  0
DIMASSOC
  5
6130
102
{ACAD_REACTORS
330
612F
102
}
330
612F
100
AcDbDimAssoc
330
612E
 90
        2
 70
     0
 71
     1
  1
AcDbOsnapPointRef
 72
    10
331
5C0E
 73
     0
 91
        0
 40
0.019623687200232
 10
0.0
 20
0.0
 30
0.0
 75
     0
  0
DIMASSOC
  5
6141
102
{ACAD_REACTORS
330
6140
102
}
330
6140
100
AcDbDimAssoc
330
613F
 90
        0
 70
     0
 71
     1
  0
DIMASSOC
  5
6171
102
{ACAD_REACTORS
330
6170
102
}
330
6170
100
AcDbDimAssoc
330
616F
 90
        3
 70
     0
 71
     1
  1
AcDbOsnapPointRef
 72
    13
331
5D7E
 73
     0
 91
        0
 40
0.0
 10
0.0
 20
0.0
 30
0.0
 75
     0
  1
AcDbOsnapPointRef
 72
     8
331
5D7C
 73
     0
 91
        0
 40
0.3442599604344492
 10
0.0
 20
0.0
 30
0.0
 75
     1
  1
AcDbOsnapPointRef
 72
    13
331
5D7E
 73
     0
 91
        0
 40
0.0
 10
0.0
 20
0.0
 30
0.0
 75
     0
  0
LAYOUT
  5
21
102
{ACAD_REACTORS
330
1E
102
}
330
1E
100
AcDbPlotSettings
  1

  2
none_device
  4
ISO_A3_(420.00_x_297.00_MM)
  6

 40
7.5
 41
20.0
 42
7.5
 43
20.0
 44
420.0
 45
297.0
 46
0.0
 47
0.0
 48
0.0
 49
0.0
140
0.0
141
0.0
142
1.0
143
1.0
 70
     0
 72
     1
 73
     0
 74
     0
  7

 75
     0
 76
     0
 77
     2
 78
   300
147
1.0
148
0.0
149
0.0
100
AcDbLayout
  1
Layout1
 70
     0
 71
     0
 10
0.0
 20
0.0
 11
0.0
 21
0.0
 12
0.0
 22
0.0
 32
0.0
 14
0.0
 24
0.0
 34
0.0
 15
0.0
 25
0.0
 35
0.0
146
0.0
 13
0.0
 23
0.0
 33
0.0
 16
0.0
 26
0.0
 36
0.0
 17
0.0
 27
0.0
 37
0.0
 76
     0
330
B
331
349
  0
LAYOUT
  5
20
102
{ACAD_REACTORS
330
1E
102
}
330
1E
100
AcDbPlotSettings
  1

  2
none_device
  4
ISO_A3_(420.00_x_297.00_MM)
  6

 40
7.5
 41
20.0
 42
7.5
 43
20.0
 44
420.0
 45
297.0
 46
0.0
 47
0.0
 48
0.0
 49
0.0
140
0.0
141
0.0
142
1.0
143
1.0
 70
  1024
 72
     1
 73
     0
 74
     0
  7

 75
     0
 76
     0
 77
     2
 78
   300
147
1.0
148
0.0
149
0.0
100
AcDbLayout
  1
Model
 70
     0
 71
     1
 10
0.0
 20
0.0
 11
2100.0
 21
2970.0
 12
0.0
 22
0.0
 32
0.0
 14
0.0
 24
0.0
 34
0.0
 15
2100.0
 25
2970.0
 35
69.9904226469203
146
0.0
 13
0.0
 23
0.0
 33
0.0
 16
0.0
 26
0.0
 36
0.0
 17
0.0
 27
0.0
 37
0.0
 76
     0
330
A
331
15
  0
MATERIAL
  5
4FEC
102
{ACAD_REACTORS
330
263
102
}
330
263
100
AcDbMaterial
  1
ByBlock
 72
     1
 94
      127
  0
MATERIAL
  5
264
102
{ACAD_REACTORS
330
263
102
}
330
263
100
AcDbMaterial
  1
ByLayer
 72
     1
 94
      127
  0
MATERIAL
  5
266
102
{ACAD_REACTORS
330
263
102
}
330
263
100
AcDbMaterial
  1
Global
 72
     1
 94
      127
  0
MLEADERSTYLE
  5
8D1
102
{ACAD_REACTORS
330
336
102
}
330
336
100
AcDbMLeaderStyle
170
     2
171
     1
172
     0
 90
        2
 40
0.0
 41
0.0
173
     1
 91
-1056964608
340
11
 92
       -2
290
     1
 42
2.0
291
     1
 43
8.0
  3
Standard
341
0
 44
4.0
300

342
17
174
     1
178
     6
175
     1
176
     0
 93
-1056964608
 45
4.0
292
     0
297
     0
 46
4.0
343
0
 94
-1056964608
 47
1.0
 49
1.0
140
1.0
293
     1
141
0.0
294
     1
177
     0
142
1.0
295
     0
296
     0
143
3.75
1001
ACAD_MLEADERVER
1070
     2
  0
MLINESTYLE
  5
1C
102
{ACAD_REACTORS
330
1B
102
}
330
1B
100
AcDbMlineStyle
  2
Standard
 70
     0
  3

 62
     0
 51
90.0
 52
90.0
 71
     2
 49
0.5
 62
   256
  6
BYLAYER
 49
-0.5
 62
   256
  6
BYLAYER
  0
ACDBPLACEHOLDER
  5
1D
102
{ACAD_REACTORS
330
1F
102
}
330
1F
  0
SCALE
  5
242
102
{ACAD_REACTORS
330
241
102
}
330
241
100
AcDbScale
 70
     0
300
1:1
140
1.0
141
1.0
290
     1
  0
SCALE
  5
243
102
{ACAD_REACTORS
330
241
102
}
330
241
100
AcDbScale
 70
     0
300
1:2
140
1.0
141
2.0
290
     0
  0
SCALE
  5
244
102
{ACAD_REACTORS
330
241
102
}
330
241
100
AcDbScale
 70
     0
300
1:4
140
1.0
141
4.0
290
     0
  0
SCALE
  5
245
102
{ACAD_REACTORS
330
241
102
}
330
241
100
AcDbScale
 70
     0
300
1:5
140
1.0
141
5.0
290
     0
  0
SCALE
  5
246
102
{ACAD_REACTORS
330
241
102
}
330
241
100
AcDbScale
 70
     0
300
1:8
140
1.0
141
8.0
290
     0
  0
SCALE
  5
247
102
{ACAD_REACTORS
330
241
102
}
330
241
100
AcDbScale
 70
     0
300
1:10
140
1.0
141
10.0
290
     0
  0
SCALE
  5
248
102
{ACAD_REACTORS
330
241
102
}
330
241
100
AcDbScale
 70
     0
300
1:16
140
1.0
141
16.0
290
     0
  0
SCALE
  5
249
102
{ACAD_REACTORS
330
241
102
}
330
241
100
AcDbScale
 70
     0
300
1:20
140
1.0
141
20.0
290
     0
  0
SCALE
  5
24A
102
{ACAD_REACTORS
330
241
102
}
330
241
100
AcDbScale
 70
     0
300
1:30
140
1.0
141
30.0
290
     0
  0
SCALE
  5
24B
102
{ACAD_REACTORS
330
241
102
}
330
241
100
AcDbScale
 70
     0
300
1:40
140
1.0
141
40.0
290
     0
  0
SCALE
  5
24C
102
{ACAD_REACTORS
330
241
102
}
330
241
100
AcDbScale
 70
     0
300
1:50
140
1.0
141
50.0
290
     0
  0
SCALE
  5
24D
102
{ACAD_REACTORS
330
241
102
}
330
241
100
AcDbScale
 70
     0
300
1:100
140
1.0
141
100.0
290
     0
  0
SCALE
  5
24E
102
{ACAD_REACTORS
330
241
102
}
330
241
100
AcDbScale
 70
     0
300
2:1
140
2.0
141
1.0
290
     0
  0
SCALE
  5
24F
102
{ACAD_REACTORS
330
241
102
}
330
241
100
AcDbScale
 70
     0
300
4:1
140
4.0
141
1.0
290
     0
  0
SCALE
  5
250
102
{ACAD_REACTORS
330
241
102
}
330
241
100
AcDbScale
 70
     0
300
8:1
140
8.0
141
1.0
290
     0
  0
SCALE
  5
251
102
{ACAD_REACTORS
330
241
102
}
330
241
100
AcDbScale
 70
     0
300
10:1
140
10.0
141
1.0
290
     0
  0
SCALE
  5
252
102
{ACAD_REACTORS
330
241
102
}
330
241
100
AcDbScale
 70
     0
300
100:1
140
100.0
141
1.0
290
     0
  0
SCALE
  5
253
102
{ACAD_REACTORS
330
241
102
}
330
241
100
AcDbScale
 70
     0
300
1/128" = 1'-0"
140
0.0078125
141
12.0
290
     0
  0
SCALE
  5
254
102
{ACAD_REACTORS
330
241
102
}
330
241
100
AcDbScale
 70
     0
300
1/64" = 1'-0"
140
0.015625
141
12.0
290
     0
  0
SCALE
  5
255
102
{ACAD_REACTORS
330
241
102
}
330
241
100
AcDbScale
 70
     0
300
1/32" = 1'-0"
140
0.03125
141
12.0
290
     0
  0
SCALE
  5
256
102
{ACAD_REACTORS
330
241
102
}
330
241
100
AcDbScale
 70
     0
300
1/16" = 1'-0"
140
0.0625
141
12.0
290
     0
  0
SCALE
  5
257
102
{ACAD_REACTORS
330
241
102
}
330
241
100
AcDbScale
 70
     0
300
3/32" = 1'-0"
140
0.09375
141
12.0
290
     0
  0
SCALE
  5
258
102
{ACAD_REACTORS
330
241
102
}
330
241
100
AcDbScale
 70
     0
300
1/8" = 1'-0"
140
0.125
141
12.0
290
     0
  0
SCALE
  5
259
102
{ACAD_REACTORS
330
241
102
}
330
241
100
AcDbScale
 70
     0
300
3/16" = 1'-0"
140
0.1875
141
12.0
290
     0
  0
SCALE
  5
25A
102
{ACAD_REACTORS
330
241
102
}
330
241
100
AcDbScale
 70
     0
300
1/4" = 1'-0"
140
0.25
141
12.0
290
     0
  0
SCALE
  5
25B
102
{ACAD_REACTORS
330
241
102
}
330
241
100
AcDbScale
 70
     0
300
3/8" = 1'-0"
140
0.375
141
12.0
290
     0
  0
SCALE
  5
25C
102
{ACAD_REACTORS
330
241
102
}
330
241
100
AcDbScale
 70
     0
300
1/2" = 1'-0"
140
0.5
141
12.0
290
     0
  0
SCALE
  5
25D
102
{ACAD_REACTORS
330
241
102
}
330
241
100
AcDbScale
 70
     0
300
3/4" = 1'-0"
140
0.75
141
12.0
290
     0
  0
SCALE
  5
25E
102
{ACAD_REACTORS
330
241
102
}
330
241
100
AcDbScale
 70
     0
300
1" = 1'-0"
140
1.0
141
12.0
290
     0
  0
SCALE
  5
25F
102
{ACAD_REACTORS
330
241
102
}
330
241
100
AcDbScale
 70
     0
300
1-1/2" = 1'-0"
140
1.5
141
12.0
290
     0
  0
SCALE
  5
260
102
{ACAD_REACTORS
330
241
102
}
330
241
100
AcDbScale
 70
     0
300
3" = 1'-0"
140
3.0
141
12.0
290
     0
  0
SCALE
  5
261
102
{ACAD_REACTORS
330
241
102
}
330
241
100
AcDbScale
 70
     0
300
6" = 1'-0"
140
6.0
141
12.0
290
     0
  0
SCALE
  5
262
102
{ACAD_REACTORS
330
241
102
}
330
241
100
AcDbScale
 70
     0
300
1'-0" = 1'-0"
140
12.0
141
12.0
290
     0
  0
TABLESTYLE
  5
279
102
{ACAD_REACTORS
330
278
102
}
102
{ACAD_XDICTIONARY
360
618D
102
}
330
278
100
AcDbTableStyle
  3
Standard
 70
     0
 71
     0
 40
0.06
 41
0.06
280
     0
281
     0
  7
Standard
140
4.5
170
     2
 62
     0
 63
   257
283
     0
 90
        4
 91
        0
  1

274
    -2
284
     1
 64
     0
275
    -2
285
     1
 65
     0
276
    -2
286
     1
 66
     0
277
    -2
287
     1
 67
     0
278
    -2
288
     1
 68
     0
279
    -2
289
     1
 69
     0
  7
Standard
140
6.0
170
     5
 62
     0
 63
   257
283
     0
 90
        4
 91
        0
  1

274
    -2
284
     1
 64
     0
275
    -2
285
     1
 65
     0
276
    -2
286
     1
 66
     0
277
    -2
287
     1
 67
     0
278
    -2
288
     1
 68
     0
279
    -2
289
     1
 69
     0
  7
Standard
140
4.5
170
     5
 62
     0
 63
   257
283
     0
 90
        4
 91
        0
  1

274
    -2
284
     1
 64
     0
275
    -2
285
     1
 65
     0
276
    -2
286
     1
 66
     0
277
    -2
287
     1
 67
     0
278
    -2
288
     1
 68
     0
279
    -2
289
     1
 69
     0
  0
VISUALSTYLE
  5
26C
102
{ACAD_REACTORS
330
267
102
}
330
267
100
AcDbVisualStyle
  2
2dWireframe
 70
     4
 71
     0
 72
     2
 73
     0
 90
        0
 40
-0.6
 41
-30.0
 62
     5
 63
     7
421
 16777215
 74
     1
 91
        4
 64
     7
 65
   257
 75
     1
175
     1
 42
1.0
 92
        0
 66
   257
 43
1.0
 76
     1
 77
     6
 78
     2
 67
     7
 79
     5
170
     0
171
     0
290
     0
174
     0
 93
        1
 44
0.0
173
     0
291
     0
 45
0.0
  0
VISUALSTYLE
  5
26E
102
{ACAD_REACTORS
330
267
102
}
330
267
100
AcDbVisualStyle
  2
3D Hidden
 70
     6
 71
     1
 72
     2
 73
     2
 90
        0
 40
-0.6
 41
-30.0
 62
     5
 63
     7
421
 16777215
 74
     2
 91
        2
 64
     7
 65
   257
 75
     2
175
     1
 42
40.0
 92
        0
 66
   257
 43
1.0
 76
     1
 77
     6
 78
     2
 67
     7
 79
     3
170
     0
171
     0
290
     0
174
     0
 93
        1
 44
0.0
173
     0
291
     0
 45
0.0
  0
VISUALSTYLE
  5
26D
102
{ACAD_REACTORS
330
267
102
}
330
267
100
AcDbVisualStyle
  2
3dWireframe
 70
     5
 71
     0
 72
     2
 73
     0
 90
        0
 40
-0.6
 41
-30.0
 62
     5
 63
     7
421
 16777215
 74
     1
 91
        4
 64
     7
 65
   257
 75
     1
175
     1
 42
1.0
 92
        0
 66
   257
 43
1.0
 76
     1
 77
     6
 78
     2
 67
     7
 79
     5
170
     0
171
     0
290
     0
174
     0
 93
        1
 44
0.0
173
     0
291
     0
 45
0.0
  0
VISUALSTYLE
  5
26F
102
{ACAD_REACTORS
330
267
102
}
330
267
100
AcDbVisualStyle
  2
Basic
 70
     7
 71
     1
 72
     0
 73
     1
 90
        0
 40
-0.6
 41
-30.0
 62
     5
 63
     7
421
 16777215
 74
     0
 91
        4
 64
     7
 65
   257
 75
     1
175
     1
 42
1.0
 92
        8
 66
     7
 43
1.0
 76
     1
 77
     6
 78
     2
 67
     7
 79
     5
170
     0
171
     0
290
     0
174
     0
 93
        1
 44
0.0
173
     0
291
     1
 45
0.0
  0
VISUALSTYLE
  5
273
102
{ACAD_REACTORS
330
267
102
}
330
267
100
AcDbVisualStyle
  2
Brighten
 70
    12
 71
     2
 72
     2
 73
     0
 90
        0
 40
-0.6
 41
-30.0
 62
     5
 63
     7
421
 16777215
 74
     1
 91
        4
 64
     7
 65
   257
 75
     1
175
     1
 42
1.0
 92
        8
 66
     7
 43
1.0
 76
     1
 77
     6
 78
     2
 67
     7
 79
     5
170
     0
171
     0
290
     0
174
     0
 93
        1
 44
50.0
173
     0
291
     1
 45
0.0
  0
VISUALSTYLE
  5
277
102
{ACAD_REACTORS
330
267
102
}
330
267
100
AcDbVisualStyle
  2
ColorChange
 70
    16
 71
     2
 72
     2
 73
     3
 90
        0
 40
-0.6
 41
-30.0
 62
     5
 63
     8
421
  8421504
 74
     1
 91
        4
 64
     7
 65
   257
 75
     1
175
     1
 42
1.0
 92
        8
 66
     8
424
  8421504
 43
1.0
 76
     1
 77
     6
 78
     2
 67
     7
 79
     5
170
     0
171
     0
290
     0
174
     0
 93
        1
 44
0.0
173
     0
291
     1
 45
0.0
  0
VISUALSTYLE
  5
271
102
{ACAD_REACTORS
330
267
102
}
330
267
100
AcDbVisualStyle
  2
Conceptual
 70
     9
 71
     3
 72
     2
 73
     0
 90
        0
 40
-0.6
 41
-30.0
 62
     5
 63
     7
421
 16777215
 74
     2
 91
        2
 64
     7
 65
   257
 75
     1
175
     1
 42
40.0
 92
        8
 66
     7
 43
1.0
 76
     1
 77
     6
 78
     2
 67
     7
 79
     3
170
     0
171
     0
290
     0
174
     0
 93
        1
 44
0.0
173
     0
291
     0
 45
0.0
  0
VISUALSTYLE
  5
272
102
{ACAD_REACTORS
330
267
102
}
330
267
100
AcDbVisualStyle
  2
Dim
 70
    11
 71
     2
 72
     2
 73
     0
 90
        0
 40
-0.6
 41
-30.0
 62
     5
 63
     7
421
 16777215
 74
     1
 91
        4
 64
     7
 65
   257
 75
     1
175
     1
 42
1.0
 92
        8
 66
     7
 43
1.0
 76
     1
 77
     6
 78
     2
 67
     7
 79
     5
170
     0
171
     0
290
     0
174
     0
 93
        1
 44
-50.0
173
     0
291
     1
 45
0.0
  0
VISUALSTYLE
  5
8BC
102
{ACAD_REACTORS
330
267
102
}
330
267
100
AcDbVisualStyle
  2
EdgeColorOff
 70
    22
 71
     2
 72
     2
 73
     0
 90
        0
 40
0.6
 41
30.0
 62
     5
 63
     7
421
 16777215
 74
     1
 91
        4
 64
     7
 65
   257
 75
     1
175
     1
 42
1.0
 92
        8
 66
     7
 43
1.0
 76
     1
 77
     6
 78
     2
 67
     7
 79
     5
170
     0
171
     0
290
     0
174
     0
 93
        1
 44
0.0
173
     0
291
     1
 45
0.0
  0
VISUALSTYLE
  5
276
102
{ACAD_REACTORS
330
267
102
}
330
267
100
AcDbVisualStyle
  2
Facepattern
 70
    15
 71
     2
 72
     2
 73
     0
 90
        0
 40
-0.6
 41
-30.0
 62
     5
 63
     7
421
 16777215
 74
     1
 91
        4
 64
     7
 65
   257
 75
     1
175
     1
 42
1.0
 92
        8
 66
     7
 43
1.0
 76
     1
 77
     6
 78
     2
 67
     7
 79
     5
170
     0
171
     0
290
     0
174
     0
 93
        1
 44
0.0
173
     0
291
     1
 45
0.0
  0
VISUALSTYLE
  5
268
102
{ACAD_REACTORS
330
267
102
}
330
267
100
AcDbVisualStyle
  2
Flat
 70
     0
 71
     2
 72
     1
 73
     1
 90
        2
 40
-0.6
 41
30.0
 62
     5
 63
     7
421
 16777215
 74
     0
 91
        4
 64
     7
 65
   257
 75
     1
175
     1
 42
1.0
 92
        8
 66
     7
 43
1.0
 76
     1
 77
     6
 78
     2
 67
     7
 79
     5
170
     0
171
     0
290
     0
174
     0
 93
       13
 44
0.0
173
     0
291
     1
 45
0.0
  0
VISUALSTYLE
  5
269
102
{ACAD_REACTORS
330
267
102
}
330
267
100
AcDbVisualStyle
  2
FlatWithEdges
 70
     1
 71
     2
 72
     1
 73
     1
 90
        2
 40
-0.6
 41
30.0
 62
     5
 63
     7
421
 16777215
 74
     1
 91
        4
 64
     7
 65
   257
 75
     1
175
     1
 42
1.0
 92
        0
 66
   257
 43
1.0
 76
     1
 77
     6
 78
     2
 67
     7
 79
     5
170
     0
171
     0
290
     0
174
     0
 93
       13
 44
0.0
173
     0
291
     1
 45
0.0
  0
VISUALSTYLE
  5
26A
102
{ACAD_REACTORS
330
267
102
}
330
267
100
AcDbVisualStyle
  2
Gouraud
 70
     2
 71
     2
 72
     2
 73
     1
 90
        2
 40
-0.6
 41
30.0
 62
     5
 63
     7
421
 16777215
 74
     0
 91
        4
 64
     7
 65
   257
 75
     1
175
     1
 42
1.0
 92
        0
 66
     7
 43
1.0
 76
     1
 77
     6
 78
     2
 67
     7
 79
     5
170
     0
171
     0
290
     0
174
     0
 93
       13
 44
0.0
173
     0
291
     1
 45
0.0
  0
VISUALSTYLE
  5
26B
102
{ACAD_REACTORS
330
267
102
}
330
267
100
AcDbVisualStyle
  2
GouraudWithEdges
 70
     3
 71
     2
 72
     2
 73
     1
 90
        2
 40
-0.6
 41
30.0
 62
     5
 63
     7
421
 16777215
 74
     1
 91
        4
 64
     7
 65
   257
 75
     1
175
     1
 42
1.0
 92
        0
 66
   257
 43
1.0
 76
     1
 77
     6
 78
     2
 67
     7
 79
     5
170
     0
171
     0
290
     0
174
     0
 93
       13
 44
0.0
173
     0
291
     1
 45
0.0
  0
VISUALSTYLE
  5
8B9
102
{ACAD_REACTORS
330
267
102
}
330
267
100
AcDbVisualStyle
  2
Hidden
 70
     6
 71
     1
 72
     2
 73
     2
 90
        0
 40
0.6
 41
30.0
 62
     5
 63
     7
421
 16777215
 74
     2
 91
        2
 64
     7
 65
   257
 75
     2
175
     1
 42
40.0
 92
        0
 66
   257
 43
1.0
 76
     1
 77
     6
 78
     2
 67
     7
 79
     3
170
     0
171
     0
290
     0
174
     0
 93
        1
 44
0.0
173
     0
291
     0
 45
0.0
  0
VISUALSTYLE
  5
8BA
102
{ACAD_REACTORS
330
267
102
}
330
267
100
AcDbVisualStyle
  2
JitterOff
 70
    20
 71
     2
 72
     2
 73
     0
 90
        0
 40
0.6
 41
30.0
 62
     5
 63
     7
421
 16777215
 74
     1
 91
        4
 64
     7
 65
   257
 75
     1
175
     1
 42
1.0
 92
       10
 66
     7
 43
1.0
 76
     1
 77
     6
 78
     2
 67
     7
 79
     5
170
     0
171
     0
290
     0
174
     0
 93
        1
 44
0.0
173
     0
291
     1
 45
0.0
  0
VISUALSTYLE
  5
275
102
{ACAD_REACTORS
330
267
102
}
330
267
100
AcDbVisualStyle
  2
Linepattern
 70
    14
 71
     2
 72
     2
 73
     0
 90
        0
 40
-0.6
 41
-30.0
 62
     5
 63
     7
421
 16777215
 74
     1
 91
        4
 64
     7
 65
   257
 75
     7
175
     7
 42
1.0
 92
        8
 66
     7
 43
1.0
 76
     1
 77
     6
 78
     2
 67
     7
 79
     5
170
     0
171
     0
290
     0
174
     0
 93
        1
 44
0.0
173
     0
291
     1
 45
0.0
  0
VISUALSTYLE
  5
8BB
102
{ACAD_REACTORS
330
267
102
}
330
267
100
AcDbVisualStyle
  2
OverhangOff
 70
    21
 71
     2
 72
     2
 73
     0
 90
        0
 40
0.6
 41
30.0
 62
     5
 63
     7
421
 16777215
 74
     1
 91
        4
 64
     7
 65
   257
 75
     1
175
     1
 42
1.0
 92
        9
 66
     7
 43
1.0
 76
     1
 77
     6
 78
     2
 67
     7
 79
     5
170
     0
171
     0
290
     0
174
     0
 93
        1
 44
0.0
173
     0
291
     1
 45
0.0
  0
VISUALSTYLE
  5
270
102
{ACAD_REACTORS
330
267
102
}
330
267
100
AcDbVisualStyle
  2
Realistic
 70
     8
 71
     2
 72
     2
 73
     0
 90
        0
 40
-0.6
 41
-30.0
 62
     5
 63
     7
421
 16777215
 74
     1
 91
        0
 64
     7
 65
   257
 75
     1
175
     1
 42
1.0
 92
        8
 66
     8
424
  7895160
 43
1.0
 76
     1
 77
     6
 78
     2
 67
     7
 79
     5
170
     0
171
     0
290
     0
174
     0
 93
       13
 44
0.0
173
     0
291
     0
 45
0.0
  0
VISUALSTYLE
  5
8C1
102
{ACAD_REACTORS
330
267
102
}
330
267
100
AcDbVisualStyle
  2
Shaded
 70
    27
 71
     2
 72
     2
 73
     1
 90
        2
 40
0.6
 41
30.0
 62
     5
 63
     7
421
 16777215
 74
     0
 91
        4
 64
     7
 65
   257
 75
     1
175
     1
 42
1.0
 92
        8
 66
   257
 43
1.0
 76
     1
 77
     6
 78
     2
 67
     8
425
  7895160
 79
     3
170
     0
171
     0
290
     0
174
     0
 93
        5
 44
0.0
173
     0
291
     0
 45
0.0
  0
VISUALSTYLE
  5
8C0
102
{ACAD_REACTORS
330
267
102
}
330
267
100
AcDbVisualStyle
  2
Shaded with edges
 70
    26
 71
     2
 72
     2
 73
     1
 90
        2
 40
0.6
 41
30.0
 62
     5
 63
     7
421
 16777215
 74
     1
 91
       10
 64
     7
 65
   257
 75
     2
175
     1
 42
1.0
 92
        8
 66
   257
 43
1.0
 76
     1
 77
     6
 78
     2
 67
     7
 79
     3
170
     0
171
     0
290
     0
174
     0
 93
        5
 44
0.0
173
     0
291
     0
 45
0.0
  0
VISUALSTYLE
  5
8BD
102
{ACAD_REACTORS
330
267
102
}
330
267
100
AcDbVisualStyle
  2
Shades of Gray
 70
    23
 71
     2
 72
     2
 73
     3
 90
        0
 40
0.6
 41
30.0
 62
     5
 63
     7
421
 16777215
 74
     2
 91
        2
 64
     7
 65
     7
 75
     1
175
     1
 42
40.0
 92
        8
 66
     7
 43
1.0
 76
     1
 77
     6
 78
     2
 67
     7
 79
     3
170
     0
171
     0
290
     0
174
     0
 93
        1
 44
0.0
173
     0
291
     0
 45
0.0
  0
VISUALSTYLE
  5
8BE
102
{ACAD_REACTORS
330
267
102
}
330
267
100
AcDbVisualStyle
  2
Sketchy
 70
    24
 71
     1
 72
     2
 73
     2
 90
        0
 40
0.6
 41
30.0
 62
     5
 63
     7
421
 16777215
 74
     2
 91
        2
 64
     7
 65
     7
 75
     1
175
     1
 42
40.0
 92
       11
 66
     7
 43
1.0
 76
     1
 77
     6
 78
     2
 67
     7
 79
     6
170
     0
171
     0
290
     0
174
     0
 93
        1
 44
0.0
173
     0
291
     0
 45
0.0
  0
VISUALSTYLE
  5
274
102
{ACAD_REACTORS
330
267
102
}
330
267
100
AcDbVisualStyle
  2
Thicken
 70
    13
 71
     2
 72
     2
 73
     0
 90
        0
 40
-0.6
 41
-30.0
 62
     5
 63
     7
421
 16777215
 74
     1
 91
        4
 64
     7
 65
   257
 75
     1
175
     1
 42
1.0
 92
       12
 66
     7
 43
1.0
 76
     1
 77
     6
 78
     2
 67
     7
 79
     5
170
     0
171
     0
290
     0
174
     0
 93
        1
 44
0.0
173
     0
291
     1
 45
0.0
  0
VISUALSTYLE
  5
8B8
102
{ACAD_REACTORS
330
267
102
}
330
267
100
AcDbVisualStyle
  2
Wireframe
 70
     5
 71
     0
 72
     2
 73
     0
 90
        0
 40
0.6
 41
30.0
 62
     5
 63
     7
421
 16777215
 74
     1
 91
        4
 64
     7
 65
   257
 75
     1
175
     1
 42
1.0
 92
        0
 66
   257
 43
1.0
 76
     1
 77
     6
 78
     2
 67
     7
 79
     3
170
     0
171
     0
290
     0
174
     0
 93
        1
 44
0.0
173
     0
291
     0
 45
0.0
  0
VISUALSTYLE
  5
8BF
102
{ACAD_REACTORS
330
267
102
}
330
267
100
AcDbVisualStyle
  2
X-Ray
 70
    25
 71
     2
 72
     2
 73
     1
 90
        1
 40
0.5
 41
30.0
 62
     5
 63
     7
421
 16777215
 74
     1
 91
        0
 64
     7
 65
   257
 75
     1
175
     1
 42
1.0
 92
        8
 66
     7
 43
1.0
 76
     1
 77
     6
 78
     2
 67
     7
 79
     3
170
     0
171
     0
290
     0
174
     0
 93
       13
 44
0.0
173
     0
291
     0
 45
0.0
  0
DICTIONARYVAR
  5
331
102
{ACAD_REACTORS
330
330
102
}
330
330
100
DictionaryVariables
280
     0
  1
1:1
  0
DICTIONARYVAR
  5
8DA
102
{ACAD_REACTORS
330
330
102
}
330
330
100
DictionaryVariables
280
     0
  1
Standard
  0
DICTIONARYVAR
  5
335
102
{ACAD_REACTORS
330
330
102
}
330
330
100
DictionaryVariables
280
     0
  1
Standard
  0
DICTIONARYVAR
  5
C07
102
{ACAD_REACTORS
330
330
102
}
330
330
100
DictionaryVariables
280
     0
  1
ByLayer
  0
DICTIONARYVAR
  5
64A
102
{ACAD_REACTORS
330
330
102
}
330
330
100
DictionaryVariables
280
     0
  1
0
  0
DICTIONARYVAR
  5
4342
102
{ACAD_REACTORS
330
C08
102
}
330
C08
100
DictionaryVariables
280
     0
  1
0.261799
  0
DICTIONARYVAR
  5
4340
102
{ACAD_REACTORS
330
C08
102
}
330
C08
100
DictionaryVariables
280
     0
  1
0.400000
  0
DICTIONARYVAR
  5
4341
102
{ACAD_REACTORS
330
C08
102
}
330
C08
100
DictionaryVariables
280
     0
  1
0.250000
  0
DICTIONARYVAR
  5
4343
102
{ACAD_REACTORS
330
C08
102
}
330
C08
100
DictionaryVariables
280
     0
  1
1
  0
FIELD
  5
BDE
102
{ACAD_REACTORS
330
5825
102
}
330
5825
100
AcDbField
  1
_text
  2
{%<\_FldIdx 0>%N}
 90
        1
360
BDF
 97
        0
 91
       63
 92
        0
 94
       11
 95
        2
 96
        0
300

 93
        1
  6
ACFD_FIELDTEXT_CHECKSUM
 93
        2
 90
        2
140
4488.0
 94
        0
300

302

304
ACVALUE_END
  7
ACFD_FIELD_VALUE
 93
        6
 90
        4
  1
{20190330N}
 94
        0
300

302

304
ACVALUE_END
301
{20190330N}
 98
       11
  0
DICTIONARY
  5
618D
330
279
100
AcDbDictionary
280
     1
281
     1
  3
ACAD_ROUNDTRIP_2008_TABLESTYLE_CELLSTYLEMAP
360
618E
  0
FIELD
  5
BDF
330
BDE
100
AcDbField
  1
AcVar
  2
\AcVar Date \f "yyyyMMdd"
 90
        0
 97
        0
 91
       63
 92
        0
 94
        8
 95
       64
 96
        0
300
Variable not supported
 93
        1
  6
Variable
 93
        2
 90
        4
  1
Date
 94
        0
300

302

304
ACVALUE_END
  7
ACFD_FIELD_VALUE
 93
        6
 90
        8
 92
       16
310
E307030000001E000B0033001C000000
 94
        0
300
yyyyMMdd
302

304
ACVALUE_END
301
20190330
 98
        8
  0
CELLSTYLEMAP
  5
618E
102
{ACAD_REACTORS
330
618D
102
}
330
618D
100
AcDbCellStyleMap
 90
        3
300
CELLSTYLE
  1
TABLEFORMAT_BEGIN
 90
        5
170
     1
 91
        0
 92
    32768
 62
   257
 93
        1
300
CONTENTFORMAT
  1
CONTENTFORMAT_BEGIN
 90
        0
 91
        0
 92
        4
 93
        0
300

 40
0.0
140
1.0
 94
        5
 62
     0
340
17
144
6.0
309
CONTENTFORMAT_END
171
     1
301
MARGIN
  1
CELLMARGIN_BEGIN
 40
0.06
 40
0.06
 40
0.06
 40
0.06
 40
0.18
 40
0.18
309
CELLMARGIN_END
 94
        6
 95
        1
302
GRIDFORMAT
  1
GRIDFORMAT_BEGIN
 90
        0
 91
        1
 62
     0
 92
       -2
340
0
 93
        0
 40
0.045
309
GRIDFORMAT_END
 95
        2
302
GRIDFORMAT
  1
GRIDFORMAT_BEGIN
 90
        0
 91
        1
 62
     0
 92
       -2
340
0
 93
        0
 40
0.045
309
GRIDFORMAT_END
 95
        4
302
GRIDFORMAT
  1
GRIDFORMAT_BEGIN
 90
        0
 91
        1
 62
     0
 92
       -2
340
0
 93
        0
 40
0.045
309
GRIDFORMAT_END
 95
        8
302
GRIDFORMAT
  1
GRIDFORMAT_BEGIN
 90
        0
 91
        1
 62
     0
 92
       -2
340
0
 93
        0
 40
0.045
309
GRIDFORMAT_END
 95
       16
302
GRIDFORMAT
  1
GRIDFORMAT_BEGIN
 90
        0
 91
        1
 62
     0
 92
       -2
340
0
 93
        0
 40
0.045
309
GRIDFORMAT_END
 95
       32
302
GRIDFORMAT
  1
GRIDFORMAT_BEGIN
 90
        0
 91
        1
 62
     0
 92
       -2
340
0
 93
        0
 40
0.045
309
GRIDFORMAT_END
309
TABLEFORMAT_END
  1
CELLSTYLE_BEGIN
 90
        1
 91
        1
300
_TITLE
309
CELLSTYLE_END
300
CELLSTYLE
  1
TABLEFORMAT_BEGIN
 90
        5
170
     1
 91
        0
 92
        0
 62
   257
 93
        1
300
CONTENTFORMAT
  1
CONTENTFORMAT_BEGIN
 90
        0
 91
        0
 92
        4
 93
        0
300

 40
0.0
140
1.0
 94
        5
 62
     0
340
17
144
4.5
309
CONTENTFORMAT_END
171
     1
301
MARGIN
  1
CELLMARGIN_BEGIN
 40
0.06
 40
0.06
 40
0.06
 40
0.06
 40
0.18
 40
0.18
309
CELLMARGIN_END
 94
        6
 95
        1
302
GRIDFORMAT
  1
GRIDFORMAT_BEGIN
 90
        0
 91
        1
 62
     0
 92
       -2
340
0
 93
        0
 40
0.045
309
GRIDFORMAT_END
 95
        2
302
GRIDFORMAT
  1
GRIDFORMAT_BEGIN
 90
        0
 91
        1
 62
     0
 92
       -2
340
0
 93
        0
 40
0.045
309
GRIDFORMAT_END
 95
        4
302
GRIDFORMAT
  1
GRIDFORMAT_BEGIN
 90
        0
 91
        1
 62
     0
 92
       -2
340
0
 93
        0
 40
0.045
309
GRIDFORMAT_END
 95
        8
302
GRIDFORMAT
  1
GRIDFORMAT_BEGIN
 90
        0
 91
        1
 62
     0
 92
       -2
340
0
 93
        0
 40
0.045
309
GRIDFORMAT_END
 95
       16
302
GRIDFORMAT
  1
GRIDFORMAT_BEGIN
 90
        0
 91
        1
 62
     0
 92
       -2
340
0
 93
        0
 40
0.045
309
GRIDFORMAT_END
 95
       32
302
GRIDFORMAT
  1
GRIDFORMAT_BEGIN
 90
        0
 91
        1
 62
     0
 92
       -2
340
0
 93
        0
 40
0.045
309
GRIDFORMAT_END
309
TABLEFORMAT_END
  1
CELLSTYLE_BEGIN
 90
        2
 91
        1
300
_HEADER
309
CELLSTYLE_END
300
CELLSTYLE
  1
TABLEFORMAT_BEGIN
 90
        5
170
     1
 91
        0
 92
        0
 62
   257
 93
        1
300
CONTENTFORMAT
  1
CONTENTFORMAT_BEGIN
 90
        0
 91
        0
 92
        4
 93
        0
300

 40
0.0
140
1.0
 94
        2
 62
     0
340
17
144
4.5
309
CONTENTFORMAT_END
171
     1
301
MARGIN
  1
CELLMARGIN_BEGIN
 40
0.06
 40
0.06
 40
0.06
 40
0.06
 40
0.18
 40
0.18
309
CELLMARGIN_END
 94
        6
 95
        1
302
GRIDFORMAT
  1
GRIDFORMAT_BEGIN
 90
        0
 91
        1
 62
     0
 92
       -2
340
0
 93
        0
 40
0.045
309
GRIDFORMAT_END
 95
        2
302
GRIDFORMAT
  1
GRIDFORMAT_BEGIN
 90
        0
 91
        1
 62
     0
 92
       -2
340
0
 93
        0
 40
0.045
309
GRIDFORMAT_END
 95
        4
302
GRIDFORMAT
  1
GRIDFORMAT_BEGIN
 90
        0
 91
        1
 62
     0
 92
       -2
340
0
 93
        0
 40
0.045
309
GRIDFORMAT_END
 95
        8
302
GRIDFORMAT
  1
GRIDFORMAT_BEGIN
 90
        0
 91
        1
 62
     0
 92
       -2
340
0
 93
        0
 40
0.045
309
GRIDFORMAT_END
 95
       16
302
GRIDFORMAT
  1
GRIDFORMAT_BEGIN
 90
        0
 91
        1
 62
     0
 92
       -2
340
0
 93
        0
 40
0.045
309
GRIDFORMAT_END
 95
       32
302
GRIDFORMAT
  1
GRIDFORMAT_BEGIN
 90
        0
 91
        1
 62
     0
 92
       -2
340
0
 93
        0
 40
0.045
309
GRIDFORMAT_END
309
TABLEFORMAT_END
  1
CELLSTYLE_BEGIN
 90
        3
 91
        2
300
_DATA
309
CELLSTYLE_END
  0
ENDSEC
  0
EOF
