  0
SECTION
  2
HEADER
  9
$ACADVER
  1
AC1021
  9
$ACADMAINTVER
 70
    25
  9
$DWGCODEPAGE
  3
ANSI_932
  9
$LASTSAVEDBY
  1
howeNelson
  9
$INSBASE
 10
0.0
 20
0.0
 30
0.0
  9
$EXTMIN
 10
0.0
 20
0.0
 30
0.0
  9
$EXTMAX
 10
2100.0
 20
2970.0
 30
34.99521132346015
  9
$LIMMIN
 10
0.0
 20
0.0
  9
$LIMMAX
 10
2100.0
 20
2970.0
  9
$ORTHOMODE
 70
     0
  9
$REGENMODE
 70
     1
  9
$FILLMODE
 70
     1
  9
$QTEXTMODE
 70
     0
  9
$MIRRTEXT
 70
     1
  9
$LTSCALE
 40
5.0
  9
$ATTMODE
 70
     1
  9
$TEXTSIZE
 40
533.0403732820173
  9
$TRACEWID
 40
1.0
  9
$TEXTSTYLE
  7
Standard
  9
$CLAYER
  8
Dim
  9
$CELTYPE
  6
ByLayer
  9
$CECOLOR
 62
   256
  9
$CELTSCALE
 40
1.0
  9
$DISPSILH
 70
     0
  9
$DIMSCALE
 40
1.0
  9
$DIMASZ
 40
9.999389648437498
  9
$DIMEXO
 40
25.0
  9
$DIMDLI
 40
0.9999999999999999
  9
$DIMRND
 40
0.0
  9
$DIMDLE
 40
0.0
  9
$DIMEXE
 40
0.0
  9
$DIMTP
 40
0.0
  9
$DIMTM
 40
0.0
  9
$DIMTXT
 40
24.4326171875
  9
$DIMCEN
 40
0.0
  9
$DIMTSZ
 40
0.0
  9
$DIMTOL
 70
     0
  9
$DIMLIM
 70
     0
  9
$DIMTIH
 70
     0
  9
$DIMTOH
 70
     0
  9
$DIMSE1
 70
     0
  9
$DIMSE2
 70
     0
  9
$DIMTAD
 70
     1
  9
$DIMZIN
 70
    11
  9
$DIMBLK
  1
DOT
  9
$DIMASO
 70
     1
  9
$DIMSHO
 70
     1
  9
$DIMPOST
  1
<>
  9
$DIMAPOST
  1
[]
  9
$DIMALT
 70
     0
  9
$DIMALTD
 70
     1
  9
$DIMALTF
 40
1.0
  9
$DIMLFAC
 40
1.0
  9
$DIMTOFL
 70
     1
  9
$DIMTVP
 40
0.0
  9
$DIMTIX
 70
     1
  9
$DIMSOXD
 70
     0
  9
$DIMSAH
 70
     0
  9
$DIMBLK1
  1

  9
$DIMBLK2
  1

  9
$DIMSTYLE
  2
tform線あり
  9
$DIMCLRD
 70
     0
  9
$DIMCLRE
 70
     0
  9
$DIMCLRT
 70
     0
  9
$DIMTFAC
 40
0.8
  9
$DIMGAP
 40
10.0
  9
$DIMJUST
 70
     0
  9
$DIMSD1
 70
     0
  9
$DIMSD2
 70
     0
  9
$DIMTOLJ
 70
     1
  9
$DIMTZIN
 70
    11
  9
$DIMALTZ
 70
    11
  9
$DIMALTTZ
 70
    11
  9
$DIMUPT
 70
     0
  9
$DIMDEC
 70
     1
  9
$DIMTDEC
 70
     1
  9
$DIMALTU
 70
     2
  9
$DIMALTTD
 70
     2
  9
$DIMTXSTY
  7
ＭＳ ゴシック
  9
$DIMAUNIT
 70
     0
  9
$DIMADEC
 70
     2
  9
$DIMALTRND
 40
0.0
  9
$DIMAZIN
 70
     0
  9
$DIMDSEP
 70
    46
  9
$DIMATFIT
 70
     0
  9
$DIMFRAC
 70
     2
  9
$DIMLDRBLK
  1
DOT
  9
$DIMLUNIT
 70
     2
  9
$DIMLWD
 70
    -2
  9
$DIMLWE
 70
    -2
  9
$DIMTMOVE
 70
     0
  9
$DIMFXL
 40
1.0
  9
$DIMFXLON
 70
     0
  9
$DIMJOGANG
 40
0.7853981633974483
  9
$DIMTFILL
 70
     0
  9
$DIMTFILLCLR
 70
     0
  9
$DIMARCSYM
 70
     0
  9
$DIMLTYPE
  6

  9
$DIMLTEX1
  6

  9
$DIMLTEX2
  6

  9
$LUNITS
 70
     2
  9
$LUPREC
 70
     0
  9
$SKETCHINC
 40
0.1
  9
$FILLETRAD
 40
0.0
  9
$AUNITS
 70
     0
  9
$AUPREC
 70
     0
  9
$MENU
  1
acad
  9
$ELEVATION
 40
0.0
  9
$PELEVATION
 40
0.0
  9
$THICKNESS
 40
0.0
  9
$LIMCHECK
 70
     0
  9
$CHAMFERA
 40
0.0
  9
$CHAMFERB
 40
0.0
  9
$CHAMFERC
 40
0.0
  9
$CHAMFERD
 40
0.0
  9
$SKPOLY
 70
     0
  9
$TDCREATE
 40
2447893.375
  9
$TDUCREATE
 40
0.0
  9
$TDUPDATE
 40
2458579.762491181
  9
$TDUUPDATE
 40
2458579.387491181
  9
$TDINDWG
 40
0.0
  9
$TDUSRTIMER
 40
0.0
  9
$USRTIMER
 70
     1
  9
$ANGBASE
 50
0.0
  9
$ANGDIR
 70
     0
  9
$PDMODE
 70
     1
  9
$PDSIZE
 40
-2.0
  9
$PLINEWID
 40
0.0
  9
$SPLFRAME
 70
     0
  9
$SPLINETYPE
 70
     6
  9
$SPLINESEGS
 70
     8
  9
$HANDSEED
  5
646F
  9
$SURFTAB1
 70
     6
  9
$SURFTAB2
 70
     6
  9
$SURFTYPE
 70
     6
  9
$SURFU
 70
     6
  9
$SURFV
 70
     6
  9
$UCSBASE
  2

  9
$UCSNAME
  2

  9
$UCSORG
 10
0.0
 20
0.0
 30
0.0
  9
$UCSXDIR
 10
1.0
 20
0.0
 30
0.0
  9
$UCSYDIR
 10
0.0
 20
1.0
 30
0.0
  9
$UCSORTHOREF
  2

  9
$UCSORTHOVIEW
 70
     0
  9
$UCSORGTOP
 10
0.0
 20
0.0
 30
0.0
  9
$UCSORGBOTTOM
 10
0.0
 20
0.0
 30
0.0
  9
$UCSORGLEFT
 10
0.0
 20
0.0
 30
0.0
  9
$UCSORGRIGHT
 10
0.0
 20
0.0
 30
0.0
  9
$UCSORGFRONT
 10
0.0
 20
0.0
 30
0.0
  9
$UCSORGBACK
 10
0.0
 20
0.0
 30
0.0
  9
$PUCSBASE
  2

  9
$PUCSNAME
  2

  9
$PUCSORG
 10
0.0
 20
0.0
 30
0.0
  9
$PUCSXDIR
 10
1.0
 20
0.0
 30
0.0
  9
$PUCSYDIR
 10
0.0
 20
1.0
 30
0.0
  9
$PUCSORTHOREF
  2

  9
$PUCSORTHOVIEW
 70
     0
  9
$PUCSORGTOP
 10
0.0
 20
0.0
 30
0.0
  9
$PUCSORGBOTTOM
 10
0.0
 20
0.0
 30
0.0
  9
$PUCSORGLEFT
 10
0.0
 20
0.0
 30
0.0
  9
$PUCSORGRIGHT
 10
0.0
 20
0.0
 30
0.0
  9
$PUCSORGFRONT
 10
0.0
 20
0.0
 30
0.0
  9
$PUCSORGBACK
 10
0.0
 20
0.0
 30
0.0
  9
$USERI1
 70
     0
  9
$USERI2
 70
     0
  9
$USERI3
 70
     0
  9
$USERI4
 70
     0
  9
$USERI5
 70
     0
  9
$USERR1
 40
0.0
  9
$USERR2
 40
0.0
  9
$USERR3
 40
0.0
  9
$USERR4
 40
0.0
  9
$USERR5
 40
0.0
  9
$WORLDVIEW
 70
     1
  9
$SHADEDGE
 70
     3
  9
$SHADEDIF
 70
    70
  9
$TILEMODE
 70
     1
  9
$MAXACTVP
 70
    64
  9
$PINSBASE
 10
0.0
 20
0.0
 30
0.0
  9
$PLIMCHECK
 70
     0
  9
$PEXTMIN
 10
0.0
 20
0.0
 30
0.0
  9
$PEXTMAX
 10
0.0
 20
0.0
 30
0.0
  9
$PLIMMIN
 10
-7.5
 20
-20.0
  9
$PLIMMAX
 10
412.5
 20
277.0
  9
$UNITMODE
 70
     0
  9
$VISRETAIN
 70
     0
  9
$PLINEGEN
 70
     1
  9
$PSLTSCALE
 70
     0
  9
$TREEDEPTH
 70
  3020
  9
$CMLSTYLE
  2
Standard
  9
$CMLJUST
 70
     0
  9
$CMLSCALE
 40
1.0
  9
$PROXYGRAPHICS
 70
     0
  9
$MEASUREMENT
 70
     1
  9
$CELWEIGHT
370
    -1
  9
$ENDCAPS
280
     0
  9
$JOINSTYLE
280
     0
  9
$LWDISPLAY
290
     1
  9
$INSUNITS
 70
     4
  9
$HYPERLINKBASE
  1

  9
$STYLESHEET
  1

  9
$XEDIT
290
     1
  9
$CEPSNTYPE
380
     0
  9
$PSTYLEMODE
290
     1
  9
$FINGERPRINTGUID
  2

  9
$VERSIONGUID
  2

  9
$EXTNAMES
290
     1
  9
$PSVPSCALE
 40
0.0
  9
$OLESTARTUP
290
     0
  9
$SORTENTS
280
   127
  9
$INDEXCTL
280
     0
  9
$HIDETEXT
280
     1
  9
$XCLIPFRAME
290
     0
  9
$HALOGAP
280
     0
  9
$OBSCOLOR
 70
   257
  9
$OBSLTYPE
280
     0
  9
$INTERSECTIONDISPLAY
280
     0
  9
$INTERSECTIONCOLOR
 70
   257
  9
$DIMASSOC
280
     2
  9
$PROJECTNAME
  1

  9
$CAMERADISPLAY
290
     0
  9
$LENSLENGTH
 40
50.0
  9
$CAMERAHEIGHT
 40
0.0
  9
$STEPSPERSEC
 40
2.0
  9
$STEPSIZE
 40
6.0
  9
$3DDWFPREC
 40
2.0
  9
$PSOLWIDTH
 40
0.25
  9
$PSOLHEIGHT
 40
4.0
  9
$LOFTANG1
 40
1.570796326794897
  9
$LOFTANG2
 40
1.570796326794897
  9
$LOFTMAG1
 40
0.0
  9
$LOFTMAG2
 40
0.0
  9
$LOFTPARAM
 70
     7
  9
$LOFTNORMALS
280
     1
  9
$LATITUDE
 40
37.795
  9
$LONGITUDE
 40
-122.394
  9
$NORTHDIRECTION
 40
0.0
  9
$TIMEZONE
 70
 -8000
  9
$LIGHTGLYPHDISPLAY
280
     1
  9
$TILEMODELIGHTSYNCH
280
     1
  9
$SOLIDHIST
280
     1
  9
$SHOWHIST
280
     1
  9
$DWFFRAME
280
     2
  9
$DGNFRAME
280
     2
  9
$REALWORLDSCALE
290
     1
  9
$INTERFERECOLOR
 62
   256
  9
$CSHADOW
280
     0
  9
$SHADOWPLANELOCATION
 40
0.0
  0
ENDSEC
  0
SECTION
  2
CLASSES
  0
CLASS
  1
LWPOLYLINE
  2
AcDbPolyline
  3
ObjectDBX Classes
 90
        0
 91
        1
280
     0
281
     1
  0
CLASS
  1
IMAGE
  2
AcDbRasterImage
  3
ISM
 90
      127
 91
       17
280
     0
281
     1
  0
CLASS
  1
OLE2FRAME
  2
AcDbOle2Frame
  3
ObjectDBX Classes
 90
        0
 91
        1
280
     0
281
     1
  0
CLASS
  1
HATCH
  2
AcDbHatch
  3
ObjectDBX Classes
 90
        0
 91
        1
280
     0
281
     1
  0
CLASS
  1
DICTIONARYVAR
  2
AcDbDictionaryVar
  3
ObjectDBX Classes
 90
        0
 91
       16
280
     0
281
     0
  0
CLASS
  1
RASTERVARIABLES
  2
AcDbRasterVariables
  3
ISM
 90
        0
 91
       16
280
     0
281
     0
  0
CLASS
  1
IMAGEDEF
  2
AcDbRasterImageDef
  3
ISM
 90
        0
 91
       16
280
     0
281
     0
  0
CLASS
  1
IMAGEDEF_REACTOR
  2
AcDbRasterImageDefReactor
  3
ISM
 90
        1
 91
       16
280
     0
281
     0
  0
CLASS
  1
IDBUFFER
  2
AcDbIdBuffer
  3
ObjectDBX Classes
 90
        0
 91
       16
280
     0
281
     0
  0
CLASS
  1
SPATIAL_FILTER
  2
AcDbSpatialFilter
  3
ObjectDBX Classes
 90
        0
 91
       16
280
     0
281
     0
  0
CLASS
  1
XRECORD
  2
AcDbXrecord
  3
ObjectDBX Classes
 90
        0
 91
        1
280
     0
281
     0
  0
CLASS
  1
SORTENTSTABLE
  2
AcDbSortentsTable
  3
ObjectDBX Classes
 90
        0
 91
       16
280
     0
281
     0
  0
CLASS
  1
LAYER_INDEX
  2
AcDbLayerIndex
  3
ObjectDBX Classes
 90
        0
 91
       16
280
     0
281
     0
  0
CLASS
  1
SPATIAL_INDEX
  2
AcDbSpatialIndex
  3
AutoCAD 2000
 90
        0
 91
       16
280
     0
281
     0
  0
CLASS
  1
OBJECT_PTR
  2
CAseDLPNTableRecord
  3
ASE-LPNTableRecord
 90
        1
 91
       16
280
     0
281
     0
  0
CLASS
  1
LAYOUT
  2
AcDbLayout
  3
ObjectDBX Classes
 90
        0
 91
        1
280
     0
281
     0
  0
CLASS
  1
PLOTSETTINGS
  2
AcDbPlotSettings
  3
ObjectDBX Classes
 90
        0
 91
       16
280
     0
281
     0
  0
CLASS
  1
ACDBDICTIONARYWDFLT
  2
AcDbDictionaryWithDefault
  3
ObjectDBX Classes
 90
        0
 91
       16
280
     0
281
     0
  0
CLASS
  1
ACDBPLACEHOLDER
  2
AcDbPlaceHolder
  3
ObjectDBX Classes
 90
        0
 91
        1
280
     0
281
     0
  0
CLASS
  1
SCALE
  2
AcDbScale
  3
ObjectDBX Classes
 90
     1153
 91
       16
280
     0
281
     0
  0
CLASS
  1
MATERIAL
  2
AcDbMaterial
  3
ObjectDBX Classes
 90
     1153
 91
       16
280
     0
281
     0
  0
CLASS
  1
VISUALSTYLE
  2
AcDbVisualStyle
  3
ObjectDBX Classes
 90
     4095
 91
       16
280
     0
281
     0
  0
CLASS
  1
TABLESTYLE
  2
AcDbTableStyle
  3
ObjectDBX Classes
 90
     4095
 91
       16
280
     0
281
     0
  0
CLASS
  1
DIMASSOC
  2
AcDbDimAssoc
  3
"AcDbDimAssoc|Product Desc:     AcDim ARX App For Dimension|Company:          Autodesk, Inc.|WEB Address:      www.autodesk.com"
 90
        0
 91
       16
280
     0
281
     0
  0
CLASS
  1
CELLSTYLEMAP
  2
AcDbCellStyleMap
  3
ObjectDBX Classes
 90
     1152
 91
       16
280
     0
281
     0
  0
CLASS
  1
SUN
  2
AcDbSun
  3
SCENEOE
 90
     1153
 91
       16
280
     0
281
     0
  0
CLASS
  1
MLEADERSTYLE
  2
AcDbMLeaderStyle
  3
ACDB_MLEADERSTYLE_CLASS
 90
     4095
 91
       16
280
     0
281
     0
  0
CLASS
  1
FIELD
  2
AcDbField
  3
ObjectDBX Classes
 90
     1152
 91
       16
280
     0
281
     0
  0
CLASS
  1
FIELDLIST
  2
AcDbFieldList
  3
ObjectDBX Classes
 90
     1152
 91
       16
280
     0
281
     0
  0
CLASS
  1
ACDB_ALDIMOBJECTCONTEXTDATA_CLASS
  2
AcDbAlignedDimensionObjectContextData
  3
ObjectDBX Classes
 90
     1153
 91
       16
280
     0
281
     0
  0
ENDSEC
  0
SECTION
  2
TABLES
  0
TABLE
  2
VPORT
  5
7
330
0
100
AcDbSymbolTable
 70
     1
  0
VPORT
  5
15
330
7
100
AcDbSymbolTableRecord
100
AcDbViewportTableRecord
  2
*ACTIVE
 70
     0
 10
0.0
 20
0.0
 11
1.0
 21
1.0
 12
672.9525617540367
 22
1782.612370234514
 13
0.0
 23
0.0
 14
1.0
 24
1.0
 15
0.0
 25
0.0
 16
0.0
 26
0.0
 36
1.0
 17
377.0474382459633
 27
-297.6123702345144
 37
0.0
 40
3029.4
 41
2.341176470588235
 42
50.0
 43
0.0
 44
0.0
 50
0.0
 51
0.0
 71
    16
 72
  2000
 73
     1
 74
     1
 75
     0
 76
     0
 77
     0
 78
     0
281
     0
 65
     1
110
0.0
120
0.0
130
0.0
111
1.0
121
0.0
131
0.0
112
0.0
122
1.0
132
0.0
 79
     0
146
0.0
348
26C
 60
     3
 61
     5
292
     1
282
     1
141
0.0
142
0.0
 63
   256
361
8C2
  0
ENDTAB
  0
TABLE
  2
LTYPE
  5
4
330
0
100
AcDbSymbolTable
 70
     5
  0
LTYPE
  5
11
330
4
100
AcDbSymbolTableRecord
100
AcDbLinetypeTableRecord
  2
ByBlock
 70
     0
  3

 72
    65
 73
     0
 40
0.0
  0
LTYPE
  5
12
330
4
100
AcDbSymbolTableRecord
100
AcDbLinetypeTableRecord
  2
ByLayer
 70
     0
  3

 72
    65
 73
     0
 40
0.0
  0
LTYPE
  5
13
330
4
100
AcDbSymbolTableRecord
100
AcDbLinetypeTableRecord
  2
Continuous
 70
     0
  3
Solid line
 72
    65
 73
     0
 40
0.0
  0
LTYPE
  5
8D4
330
4
100
AcDbSymbolTableRecord
100
AcDbLinetypeTableRecord
  2
HIDDEN
 70
     0
  3
Hidden _ _ _ _ _ _ _ _ _ _ _ _ _ _ _ _ _ _ _ _ 
 72
    65
 73
     2
 40
9.524999999999999
 49
6.35
 74
     0
 49
-3.175
 74
     0
  0
LTYPE
  5
BF2
330
4
100
AcDbSymbolTableRecord
100
AcDbLinetypeTableRecord
  2
BORDER
 70
     0
  3
Border __  __  . __  __  . __  __  . __  __  . 
 72
    65
 73
     6
 40
44.45
 49
12.7
 74
     0
 49
-6.35
 74
     0
 49
12.7
 74
     0
 49
-6.35
 74
     0
 49
0.0
 74
     0
 49
-6.35
 74
     0
  0
LTYPE
  5
4115
330
4
100
AcDbSymbolTableRecord
100
AcDbLinetypeTableRecord
  2
CENTER
 70
     0
  3
 Center _____  _  _____  _  _____  _  _____  _ 
 72
    65
 73
     4
 40
50.8
 49
31.75
 74
     0
 49
-6.35
 74
     0
 49
6.35
 74
     0
 49
-6.35
 74
     0
  0
LTYPE
  5
4FFD
330
4
100
AcDbSymbolTableRecord
100
AcDbLinetypeTableRecord
  2
HIDDEN2
 70
     0
  3
Hidden (.5x) _ _ _ _ _ _ _ _ _ _ _ _ _ _ _ _ _ 
 72
    65
 73
     2
 40
4.762499999999999
 49
3.175
 74
     0
 49
-1.5875
 74
     0
  0
ENDTAB
  0
TABLE
  2
LAYER
  5
2
102
{ACAD_XDICTIONARY
360
2E1
102
}
330
0
100
AcDbSymbolTable
 70
    10
  0
LAYER
  5
14
330
2
100
AcDbSymbolTableRecord
100
AcDbLayerTableRecord
  2
0
 70
     0
 62
     7
  6
Continuous
370
    -3
390
1D
347
266
  0
LAYER
  5
4A
330
2
100
AcDbSymbolTableRecord
100
AcDbLayerTableRecord
  2
Defpoints
 70
     0
 62
     7
  6
Continuous
290
     0
370
    20
390
1D
347
266
  0
LAYER
  5
4B
330
2
100
AcDbSymbolTableRecord
100
AcDbLayerTableRecord
  2
template
 70
     0
 62
     7
  6
Continuous
370
    20
390
1D
347
266
  0
LAYER
  5
4D
330
2
100
AcDbSymbolTableRecord
100
AcDbLayerTableRecord
  2
MODEL
 70
     0
 62
     7
  6
Continuous
370
    20
390
1D
347
266
  0
LAYER
  5
382
330
2
100
AcDbSymbolTableRecord
100
AcDbLayerTableRecord
  2
レイヤー 1
 70
     0
 62
     7
  6
Continuous
370
    -3
390
1D
347
266
  0
LAYER
  5
5C4
330
2
100
AcDbSymbolTableRecord
100
AcDbLayerTableRecord
  2
HIDDEN
 70
     0
 62
   253
  6
HIDDEN
370
    20
390
1D
347
266
1001
AcAecLayerStandard
1000

1000

  0
LAYER
  5
5EB
330
2
100
AcDbSymbolTableRecord
100
AcDbLayerTableRecord
  2
Dim
 70
     0
 62
     3
  6
Continuous
370
    13
390
1D
347
266
1001
AcAecLayerStandard
1000

1000

  0
LAYER
  5
BF1
330
2
100
AcDbSymbolTableRecord
100
AcDbLayerTableRecord
  2
PRINT BORDER
 70
     0
 62
     4
  6
BORDER
290
     0
370
    20
390
1D
347
266
1001
AcAecLayerStandard
1000

1000

  0
LAYER
  5
1BD2
330
2
100
AcDbSymbolTableRecord
100
AcDbLayerTableRecord
  2
retino
 70
     0
 62
   253
  6
Continuous
370
     0
390
1D
347
266
  0
LAYER
  5
5EE3
330
2
100
AcDbSymbolTableRecord
100
AcDbLayerTableRecord
  2
QUOTE
 70
     0
 62
    52
  6
Continuous
370
    15
390
1D
347
266
1001
AcAecLayerStandard
1000

1000

  0
ENDTAB
  0
TABLE
  2
STYLE
  5
3
330
0
100
AcDbSymbolTable
 70
     2
  0
STYLE
  5
17
330
3
100
AcDbSymbolTableRecord
100
AcDbTextStyleTableRecord
  2
Standard
 70
     0
 40
0.0
 41
1.0
 50
0.0
 71
     0
 42
533.0403732820173
  3
txt
  4
BIGFONT.SHX
  0
STYLE
  5
39
330
3
100
AcDbSymbolTableRecord
100
AcDbTextStyleTableRecord
  2
ＭＳ ゴシック
 70
     0
 40
0.0
 41
1.0
 50
0.0
 71
     0
 42
533.0403732820173
  3
msgothic.ttc
  4
ＭＳ ゴシック
1001
ACAD
1000
ＭＳ ゴシック
1071
        0
  0
ENDTAB
  0
TABLE
  2
VIEW
  5
5
330
0
100
AcDbSymbolTable
 70
     0
  0
ENDTAB
  0
TABLE
  2
UCS
  5
6
330
0
100
AcDbSymbolTable
 70
     0
  0
ENDTAB
  0
TABLE
  2
APPID
  5
8
330
0
100
AcDbSymbolTable
 70
    16
  0
APPID
  5
16
330
8
100
AcDbSymbolTableRecord
100
AcDbRegAppTableRecord
  2
ACAD
 70
     0
  0
APPID
  5
5C5
330
8
100
AcDbSymbolTableRecord
100
AcDbRegAppTableRecord
  2
AcAecLayerStandard
 70
     0
  0
APPID
  5
913
330
8
100
AcDbSymbolTableRecord
100
AcDbRegAppTableRecord
  2
ACAD_DSTYLE_DIMBREAK
 70
     0
  0
APPID
  5
914
330
8
100
AcDbSymbolTableRecord
100
AcDbRegAppTableRecord
  2
ACAD_DSTYLE_DIMJAG
 70
     0
  0
APPID
  5
915
330
8
100
AcDbSymbolTableRecord
100
AcDbRegAppTableRecord
  2
ACAD_DSTYLE_DIMTALN
 70
     0
  0
APPID
  5
E4F
330
8
100
AcDbSymbolTableRecord
100
AcDbRegAppTableRecord
  2
ACAD_MLEADERVER
 70
     0
  0
APPID
  5
E79
330
8
100
AcDbSymbolTableRecord
100
AcDbRegAppTableRecord
  2
ACAD_PSEXT
 70
     0
  0
APPID
  5
E7A
330
8
100
AcDbSymbolTableRecord
100
AcDbRegAppTableRecord
  2
ACAD_NAV_VCDISPLAY
 70
     0
  0
APPID
  5
166E
330
8
100
AcDbSymbolTableRecord
100
AcDbRegAppTableRecord
  2
AcadAnnotative
 70
     0
  0
APPID
  5
166F
330
8
100
AcDbSymbolTableRecord
100
AcDbRegAppTableRecord
  2
GradientColor1ACI
 70
     0
  0
APPID
  5
1670
330
8
100
AcDbSymbolTableRecord
100
AcDbRegAppTableRecord
  2
GradientColor2ACI
 70
     0
  0
APPID
  5
20FE
330
8
100
AcDbSymbolTableRecord
100
AcDbRegAppTableRecord
  2
AcLayerTools
 70
     0
  0
APPID
  5
27AB
330
8
100
AcDbSymbolTableRecord
100
AcDbRegAppTableRecord
  2
ACAD_DSTYLE_DIMRADIAL_EXTENSION
 70
     0
  0
APPID
  5
4377
330
8
100
AcDbSymbolTableRecord
100
AcDbRegAppTableRecord
  2
RAK
 70
     0
  0
APPID
  5
500B
330
8
100
AcDbSymbolTableRecord
100
AcDbRegAppTableRecord
  2
AcadAnnoAV
 70
     0
  0
APPID
  5
5EE7
330
8
100
AcDbSymbolTableRecord
100
AcDbRegAppTableRecord
  2
AcCmTransparency
 70
     0
  0
ENDTAB
  0
TABLE
  2
DIMSTYLE
  5
9
330
0
100
AcDbSymbolTable
 70
     4
100
AcDbDimStyleTable
  0
DIMSTYLE
105
18
330
9
100
AcDbSymbolTableRecord
100
AcDbDimStyleTableRecord
  2
Standard
 70
     0
178
     0
340
17
  0
DIMSTYLE
105
56
102
{ACAD_REACTORS
330
6085
330
6086
330
6087
330
6088
330
61B5
330
61C2
330
61D1
330
620C
330
6219
330
6226
330
6233
330
624B
330
625B
330
62AD
330
62BF
330
6415
330
6437
102
}
330
9
100
AcDbSymbolTableRecord
100
AcDbDimStyleTableRecord
  2
tform線あり
 70
     0
  3
<>
  4
[]
 41
9.999389648437498
 42
25.0
 43
0.9999999999999999
 44
0.0
 73
     0
 74
     0
 77
     1
 78
    11
140
24.4326171875
141
0.0
143
1.0
146
0.8
147
10.0
171
     1
172
     1
174
     1
178
     0
179
     2
271
     1
272
     1
276
     2
284
    11
285
    11
286
    11
289
     0
340
39
341
4E
342
4E
  0
DIMSTYLE
105
5EE9
330
9
100
AcDbSymbolTableRecord
100
AcDbDimStyleTableRecord
  2
TEST
 70
     0
 41
0.0
 42
20.0
 43
2.0
 44
0.0
 73
     0
 74
     0
 77
     2
 78
     8
140
15.0
141
2.5
143
0.03937007874016
147
2.0
171
     3
172
     1
175
     1
178
     0
271
     0
272
     0
274
     3
278
    44
283
     0
284
     8
340
17
341
5EEB
342
5EEB
1001
ACAD_DSTYLE_DIMJAG
1070
   388
1040
1.5
1001
ACAD_DSTYLE_DIMTALN
1070
   392
1070
     0
  0
DIMSTYLE
105
5EF0
330
9
100
AcDbSymbolTableRecord
100
AcDbDimStyleTableRecord
  2
Standard1
 70
     0
 41
0.0
 42
5.0
 44
0.0
 73
     0
 74
     0
 77
     2
140
20.0
141
0.0
147
2.0
178
     0
271
     0
272
     0
340
17
341
5EEB
342
5EEB
1001
ACAD_DSTYLE_DIMJAG
1070
   388
1040
1.5
1001
ACAD_DSTYLE_DIMTALN
1070
   392
1070
     0
  0
ENDTAB
  0
TABLE
  2
BLOCK_RECORD
  5
1
330
0
100
AcDbSymbolTable
 70
    81
  0
BLOCK_RECORD
  5
A
102
{ACAD_XDICTIONARY
360
560A
102
}
330
1
100
AcDbSymbolTableRecord
100
AcDbBlockTableRecord
  2
*MODEL_SPACE
340
20
 70
     0
280
     1
281
     0
  0
BLOCK_RECORD
  5
B
330
1
100
AcDbSymbolTableRecord
100
AcDbBlockTableRecord
  2
*PAPER_SPACE
340
21
 70
     0
280
     1
281
     0
  0
BLOCK_RECORD
  5
4E
330
1
100
AcDbSymbolTableRecord
100
AcDbBlockTableRecord
  2
_DOT
340
0
102
{BLKREFS
331
5A7C
331
5A7D
331
5A90
331
5A91
331
5AAE
331
5AAF
331
5AB8
331
5AB9
331
5AC2
331
5AC3
331
5ACC
331
5ACD
331
5AD6
331
5AD7
331
5AEA
331
5AEB
331
5AFE
331
5AFF
331
5B08
331
5B09
331
5B35
331
5B36
331
5B51
331
5B52
331
5C33
331
5C34
331
5C4D
331
5C4E
331
5C68
331
5C69
331
5C78
331
5C79
331
5C89
331
5C8A
331
5C98
331
5C99
331
5CE4
331
5CE5
331
5DD5
331
5DD6
331
5DFC
331
5DFD
331
5E0B
331
5E0C
331
6096
331
6097
331
60A0
331
60A1
331
60AA
331
60AB
331
60B6
331
60B7
331
60BE
331
60BF
331
60C8
331
60C9
331
60D2
331
60D3
331
60DC
331
60DD
331
60E6
331
60E7
331
60F0
331
60F1
331
60FA
331
60FB
331
6124
331
6125
331
612E
331
612F
331
6138
331
6139
331
6142
331
6143
331
614E
331
614F
331
6158
331
6159
331
6160
331
6161
331
61AC
331
61AD
331
61BC
331
61BD
331
61CB
331
61CC
331
61D8
331
61D9
331
61E8
331
61E9
331
61F7
331
61F8
331
6206
331
6207
331
6213
331
6214
331
6220
331
6221
331
622D
331
622E
331
623C
331
623D
331
6252
331
6253
331
6262
331
6263
331
62B8
331
62B9
331
62C6
331
62C7
331
63D8
331
63D9
331
641C
331
641D
331
6431
331
6432
331
643E
331
643F
102
}
 70
     0
280
     1
281
     0
  0
BLOCK_RECORD
  5
3A5
330
1
100
AcDbSymbolTableRecord
100
AcDbBlockTableRecord
  2
名称未設定-1
340
0
102
{BLKREFS
331
3D0
102
}
 70
     1
280
     1
281
     0
  0
BLOCK_RECORD
  5
3A8
330
1
100
AcDbSymbolTableRecord
100
AcDbBlockTableRecord
  2
block 2
340
0
102
{BLKREFS
331
3A7
102
}
 70
     0
280
     1
281
     0
  0
BLOCK_RECORD
  5
3AB
330
1
100
AcDbSymbolTableRecord
100
AcDbBlockTableRecord
  2
block 3
340
0
102
{BLKREFS
331
3AA
102
}
 70
     0
280
     1
281
     0
  0
BLOCK_RECORD
  5
3AE
330
1
100
AcDbSymbolTableRecord
100
AcDbBlockTableRecord
  2
block 4
340
0
102
{BLKREFS
331
3AD
102
}
 70
     0
280
     1
281
     0
  0
BLOCK_RECORD
  5
3BD
330
1
100
AcDbSymbolTableRecord
100
AcDbBlockTableRecord
  2
block 5
340
0
102
{BLKREFS
331
3BC
102
}
 70
     0
280
     1
281
     0
  0
BLOCK_RECORD
  5
11F0
330
1
100
AcDbSymbolTableRecord
100
AcDbBlockTableRecord
  2
BLOCK_2
340
0
102
{BLKREFS
331
1273
331
127B
331
127C
102
}
 70
     0
280
     1
281
     0
  0
BLOCK_RECORD
  5
38B6
330
1
100
AcDbSymbolTableRecord
100
AcDbBlockTableRecord
  2
mobile_latù
340
0
310
2800000020000000200000000100080000000000000400000000000000000000000000000000000000000000000080000080000000808000800000008000800080800000C0C0C000C0DCC000F0CAA6000020400000206000002080000020A0000020C0000020E00000400000004020000040400000406000004080000040A0
310
000040C0000040E00000600000006020000060400000606000006080000060A0000060C0000060E00000800000008020000080400000806000008080000080A0000080C0000080E00000A0000000A0200000A0400000A0600000A0800000A0A00000A0C00000A0E00000C0000000C0200000C0400000C0600000C0800000C0
310
A00000C0C00000C0E00000E0000000E0200000E0400000E0600000E0800000E0A00000E0C00000E0E00040000000400020004000400040006000400080004000A0004000C0004000E00040200000402020004020400040206000402080004020A0004020C0004020E000404000004040200040404000404060004040800040
310
40A0004040C0004040E00040600000406020004060400040606000406080004060A0004060C0004060E00040800000408020004080400040806000408080004080A0004080C0004080E00040A0000040A0200040A0400040A0600040A0800040A0A00040A0C00040A0E00040C0000040C0200040C0400040C0600040C08000
310
40C0A00040C0C00040C0E00040E0000040E0200040E0400040E0600040E0800040E0A00040E0C00040E0E00080000000800020008000400080006000800080008000A0008000C0008000E00080200000802020008020400080206000802080008020A0008020C0008020E00080400000804020008040400080406000804080
310
008040A0008040C0008040E00080600000806020008060400080606000806080008060A0008060C0008060E00080800000808020008080400080806000808080008080A0008080C0008080E00080A0000080A0200080A0400080A0600080A0800080A0A00080A0C00080A0E00080C0000080C0200080C0400080C0600080C0
310
800080C0A00080C0C00080C0E00080E0000080E0200080E0400080E0600080E0800080E0A00080E0C00080E0E000C0000000C0002000C0004000C0006000C0008000C000A000C000C000C000E000C0200000C0202000C0204000C0206000C0208000C020A000C020C000C020E000C0400000C0402000C0404000C0406000C0
310
408000C040A000C040C000C040E000C0600000C0602000C0604000C0606000C0608000C060A000C060C000C060E000C0800000C0802000C0804000C0806000C0808000C080A000C080C000C080E000C0A00000C0A02000C0A04000C0A06000C0A08000C0A0A000C0A0C000C0A0E000C0C00000C0C02000C0C04000C0C06000
310
C0C08000C0C0A000F0FBFF00A4A0A000808080000000FF0000FF000000FFFF00FF000000FF00FF00FFFF0000FFFFFF0049494949494949494949494949494949494949494949494949494949494949494949494949494949494949494949494949494949494949494949494949494949494949494949494949494949494949
310
49494949494949494949494949494949494949494949494949494949494949494949494949494949494949494949494949494949494949494949494949494949494949494949494949494949494949494949FAFAFAFAFAFAFAFAFAFAFAFAFAFAFAFAFAFAFAFAFAFAFAFAFAFAFAFAFAFA4949FAFA4949494949494949494949
310
494949494949494949494949494949FAFA4949FAFA4949494949494949494949494949494949494949494949494949FAFA4949FAFA4949494949494949494949494949494949494949494949494949FAFA4949FAFA4949494949494949494949494949494949494949494949494949FAFA4949FAFA49494949494949494949
310
49494949494949494949494949494949FAFA4949FAFA4949494949494949494949494949494949494949494949494949FAFA4949FAFA4949494949494949494949494949494949494949494949494949FAFA4949FAFA4949494949494949494949494949494949494949494949494949FAFA4949FAFA494949494949494949
310
4949494949494949494949494949494949FAFA4949FAFA4949494949494949494949494949494949494949494949494949FAFA4949FAFA4949494949494949494949494949494949494949494949494949FAFA4949FAFA4949494949494949494949494949494949494949494949494949FAFA4949FAFA4949494949494949
310
494949494949494949494949494949494949FAFA4949FAFA4949494949494949494949494949494949494949494949494949FAFA4949FAFA4949494949494949494949494949494949494949494949494949FAFA4949FAFA4949494949494949494949494949494949494949494949494949FAFA4949FAFA49494949494949
310
49494949494949494949494949494949494949FAFA4949FAFAFAFAFAFAFAFAFAFAFAFAFAFAFAFAFAFAFAFAFAFAFAFAFAFAFAFAFAFA4949FAFAFAFAFAFAFAFAFAFAFAFAFAFAFAFAFAFAFAFAFAFAFAFAFAFAFAFAFAFA4949FAFA4949494949494949494949494949494949494949494949494949FAFA4949FAFAFAFAFAFAFAFA
310
FAFAFAFAFAFAFAFAFAFAFAFAFAFAFAFAFAFAFAFAFAFA494949494949494949494949494949494949494949494949494949494949494949494949494949494949494949494949494949494949494949494949494949494949494949494949494949494949494949494949494949494949494949494949494949494949494949
310
4949494949494949494949494949494949494949494949494949494949494949494949494949494949494949494949494949494949494949
102
{BLKREFS
331
3B99
331
467E
331
527B
102
}
 70
     4
280
     1
281
     0
  0
BLOCK_RECORD
  5
5039
330
1
100
AcDbSymbolTableRecord
100
AcDbBlockTableRecord
  2
.TD_SECTION_1
340
0
102
{BLKREFS
331
527C
331
527E
331
5280
331
5282
331
5284
331
5286
102
}
 70
     0
280
     1
281
     0
  0
BLOCK_RECORD
  5
503D
330
1
100
AcDbSymbolTableRecord
100
AcDbBlockTableRecord
  2
.TD_SECTION_2
340
0
102
{BLKREFS
331
527D
331
527F
331
5281
331
5283
331
5285
331
5287
102
}
 70
     0
280
     1
281
     0
  0
BLOCK_RECORD
  5
5A76
330
1
100
AcDbSymbolTableRecord
100
AcDbBlockTableRecord
  2
*D10
340
0
 70
     0
280
     1
281
     0
  0
BLOCK_RECORD
  5
5A8A
330
1
100
AcDbSymbolTableRecord
100
AcDbBlockTableRecord
  2
*D11
340
0
 70
     0
280
     1
281
     0
  0
BLOCK_RECORD
  5
5AA8
330
1
100
AcDbSymbolTableRecord
100
AcDbBlockTableRecord
  2
*D12
340
0
 70
     0
280
     1
281
     0
  0
BLOCK_RECORD
  5
5AB2
330
1
100
AcDbSymbolTableRecord
100
AcDbBlockTableRecord
  2
*D13
340
0
 70
     0
280
     1
281
     0
  0
BLOCK_RECORD
  5
5ABC
330
1
100
AcDbSymbolTableRecord
100
AcDbBlockTableRecord
  2
*D14
340
0
 70
     0
280
     1
281
     0
  0
BLOCK_RECORD
  5
5AC6
330
1
100
AcDbSymbolTableRecord
100
AcDbBlockTableRecord
  2
*D15
340
0
 70
     0
280
     1
281
     0
  0
BLOCK_RECORD
  5
5AD0
330
1
100
AcDbSymbolTableRecord
100
AcDbBlockTableRecord
  2
*D16
340
0
 70
     0
280
     1
281
     0
  0
BLOCK_RECORD
  5
5AE4
330
1
100
AcDbSymbolTableRecord
100
AcDbBlockTableRecord
  2
*D17
340
0
 70
     0
280
     1
281
     0
  0
BLOCK_RECORD
  5
5AF8
330
1
100
AcDbSymbolTableRecord
100
AcDbBlockTableRecord
  2
*D18
340
0
 70
     0
280
     1
281
     0
  0
BLOCK_RECORD
  5
5B02
330
1
100
AcDbSymbolTableRecord
100
AcDbBlockTableRecord
  2
*D19
340
0
 70
     0
280
     1
281
     0
  0
BLOCK_RECORD
  5
5B2F
330
1
100
AcDbSymbolTableRecord
100
AcDbBlockTableRecord
  2
*D20
340
0
 70
     0
280
     1
281
     0
  0
BLOCK_RECORD
  5
5B4B
330
1
100
AcDbSymbolTableRecord
100
AcDbBlockTableRecord
  2
*D21
340
0
 70
     0
280
     1
281
     0
  0
BLOCK_RECORD
  5
5C2D
330
1
100
AcDbSymbolTableRecord
100
AcDbBlockTableRecord
  2
*D22
340
0
 70
     0
280
     1
281
     0
  0
BLOCK_RECORD
  5
5C47
330
1
100
AcDbSymbolTableRecord
100
AcDbBlockTableRecord
  2
*D23
340
0
 70
     0
280
     1
281
     0
  0
BLOCK_RECORD
  5
5C62
330
1
100
AcDbSymbolTableRecord
100
AcDbBlockTableRecord
  2
*D24
340
0
 70
     0
280
     1
281
     0
  0
BLOCK_RECORD
  5
5C72
330
1
100
AcDbSymbolTableRecord
100
AcDbBlockTableRecord
  2
*D25
340
0
 70
     0
280
     1
281
     0
  0
BLOCK_RECORD
  5
5C83
330
1
100
AcDbSymbolTableRecord
100
AcDbBlockTableRecord
  2
*D26
340
0
 70
     0
280
     1
281
     0
  0
BLOCK_RECORD
  5
5C92
330
1
100
AcDbSymbolTableRecord
100
AcDbBlockTableRecord
  2
*D27
340
0
 70
     0
280
     1
281
     0
  0
BLOCK_RECORD
  5
5CDE
330
1
100
AcDbSymbolTableRecord
100
AcDbBlockTableRecord
  2
*D28
340
0
 70
     0
280
     1
281
     0
  0
BLOCK_RECORD
  5
5DCF
330
1
100
AcDbSymbolTableRecord
100
AcDbBlockTableRecord
  2
*D29
340
0
 70
     0
280
     1
281
     0
  0
BLOCK_RECORD
  5
5DF6
330
1
100
AcDbSymbolTableRecord
100
AcDbBlockTableRecord
  2
*D30
340
0
 70
     0
280
     1
281
     0
  0
BLOCK_RECORD
  5
5E05
330
1
100
AcDbSymbolTableRecord
100
AcDbBlockTableRecord
  2
*D31
340
0
 70
     0
280
     1
281
     0
  0
BLOCK_RECORD
  5
5EEB
330
1
100
AcDbSymbolTableRecord
100
AcDbBlockTableRecord
  2
_None
340
0
 70
     0
280
     1
281
     0
  0
BLOCK_RECORD
  5
5F8C
330
1
100
AcDbSymbolTableRecord
100
AcDbBlockTableRecord
  2
*D33
340
0
 70
     0
280
     1
281
     0
  0
BLOCK_RECORD
  5
5F97
330
1
100
AcDbSymbolTableRecord
100
AcDbBlockTableRecord
  2
*D34
340
0
 70
     0
280
     1
281
     0
  0
BLOCK_RECORD
  5
5FA2
330
1
100
AcDbSymbolTableRecord
100
AcDbBlockTableRecord
  2
*D35
340
0
 70
     0
280
     1
281
     0
  0
BLOCK_RECORD
  5
5FAD
330
1
100
AcDbSymbolTableRecord
100
AcDbBlockTableRecord
  2
*D36
340
0
 70
     0
280
     1
281
     0
  0
BLOCK_RECORD
  5
5FB8
330
1
100
AcDbSymbolTableRecord
100
AcDbBlockTableRecord
  2
*D37
340
0
 70
     0
280
     1
281
     0
  0
BLOCK_RECORD
  5
5FC3
330
1
100
AcDbSymbolTableRecord
100
AcDbBlockTableRecord
  2
*D38
340
0
 70
     0
280
     1
281
     0
  0
BLOCK_RECORD
  5
5FCE
330
1
100
AcDbSymbolTableRecord
100
AcDbBlockTableRecord
  2
*D39
340
0
 70
     0
280
     1
281
     0
  0
BLOCK_RECORD
  5
5FD9
330
1
100
AcDbSymbolTableRecord
100
AcDbBlockTableRecord
  2
*D40
340
0
 70
     0
280
     1
281
     0
  0
BLOCK_RECORD
  5
5FE4
330
1
100
AcDbSymbolTableRecord
100
AcDbBlockTableRecord
  2
*D41
340
0
 70
     0
280
     1
281
     0
  0
BLOCK_RECORD
  5
5FEF
330
1
100
AcDbSymbolTableRecord
100
AcDbBlockTableRecord
  2
*D42
340
0
 70
     0
280
     1
281
     0
  0
BLOCK_RECORD
  5
5FFA
330
1
100
AcDbSymbolTableRecord
100
AcDbBlockTableRecord
  2
*D43
340
0
 70
     0
280
     1
281
     0
  0
BLOCK_RECORD
  5
6090
330
1
100
AcDbSymbolTableRecord
100
AcDbBlockTableRecord
  2
*D44
340
0
 70
     0
280
     1
281
     0
  0
BLOCK_RECORD
  5
609A
330
1
100
AcDbSymbolTableRecord
100
AcDbBlockTableRecord
  2
*D45
340
0
 70
     0
280
     1
281
     0
  0
BLOCK_RECORD
  5
60A4
330
1
100
AcDbSymbolTableRecord
100
AcDbBlockTableRecord
  2
*D46
340
0
 70
     0
280
     1
281
     0
  0
BLOCK_RECORD
  5
60AE
330
1
100
AcDbSymbolTableRecord
100
AcDbBlockTableRecord
  2
*D47
340
0
 70
     0
280
     1
281
     0
  0
BLOCK_RECORD
  5
60B8
330
1
100
AcDbSymbolTableRecord
100
AcDbBlockTableRecord
  2
*D48
340
0
 70
     0
280
     1
281
     0
  0
BLOCK_RECORD
  5
60C2
330
1
100
AcDbSymbolTableRecord
100
AcDbBlockTableRecord
  2
*D49
340
0
 70
     0
280
     1
281
     0
  0
BLOCK_RECORD
  5
60CC
330
1
100
AcDbSymbolTableRecord
100
AcDbBlockTableRecord
  2
*D50
340
0
 70
     0
280
     1
281
     0
  0
BLOCK_RECORD
  5
60D6
330
1
100
AcDbSymbolTableRecord
100
AcDbBlockTableRecord
  2
*D51
340
0
 70
     0
280
     1
281
     0
  0
BLOCK_RECORD
  5
60E0
330
1
100
AcDbSymbolTableRecord
100
AcDbBlockTableRecord
  2
*D52
340
0
 70
     0
280
     1
281
     0
  0
BLOCK_RECORD
  5
60EA
330
1
100
AcDbSymbolTableRecord
100
AcDbBlockTableRecord
  2
*D53
340
0
 70
     0
280
     1
281
     0
  0
BLOCK_RECORD
  5
60F4
330
1
100
AcDbSymbolTableRecord
100
AcDbBlockTableRecord
  2
*D54
340
0
 70
     0
280
     1
281
     0
  0
BLOCK_RECORD
  5
611E
330
1
100
AcDbSymbolTableRecord
100
AcDbBlockTableRecord
  2
*D55
340
0
 70
     0
280
     1
281
     0
  0
BLOCK_RECORD
  5
6128
330
1
100
AcDbSymbolTableRecord
100
AcDbBlockTableRecord
  2
*D56
340
0
 70
     0
280
     1
281
     0
  0
BLOCK_RECORD
  5
6132
330
1
100
AcDbSymbolTableRecord
100
AcDbBlockTableRecord
  2
*D57
340
0
 70
     0
280
     1
281
     0
  0
BLOCK_RECORD
  5
613C
330
1
100
AcDbSymbolTableRecord
100
AcDbBlockTableRecord
  2
*D58
340
0
 70
     0
280
     1
281
     0
  0
BLOCK_RECORD
  5
6146
330
1
100
AcDbSymbolTableRecord
100
AcDbBlockTableRecord
  2
*D59
340
0
 70
     0
280
     1
281
     0
  0
BLOCK_RECORD
  5
6150
330
1
100
AcDbSymbolTableRecord
100
AcDbBlockTableRecord
  2
*D60
340
0
 70
     0
280
     1
281
     0
  0
BLOCK_RECORD
  5
615A
330
1
100
AcDbSymbolTableRecord
100
AcDbBlockTableRecord
  2
*D61
340
0
 70
     0
280
     1
281
     0
  0
BLOCK_RECORD
  5
61A4
330
1
100
AcDbSymbolTableRecord
100
AcDbBlockTableRecord
  2
*D62
340
0
 70
     0
280
     1
281
     0
  0
BLOCK_RECORD
  5
61B6
330
1
100
AcDbSymbolTableRecord
100
AcDbBlockTableRecord
  2
*D63
340
0
 70
     0
280
     1
281
     0
  0
BLOCK_RECORD
  5
61C5
330
1
100
AcDbSymbolTableRecord
100
AcDbBlockTableRecord
  2
*D64
340
0
 70
     0
280
     1
281
     0
  0
BLOCK_RECORD
  5
61D2
330
1
100
AcDbSymbolTableRecord
100
AcDbBlockTableRecord
  2
*D65
340
0
 70
     0
280
     1
281
     0
  0
BLOCK_RECORD
  5
61E2
330
1
100
AcDbSymbolTableRecord
100
AcDbBlockTableRecord
  2
*D66
340
0
 70
     0
280
     1
281
     0
  0
BLOCK_RECORD
  5
61F1
330
1
100
AcDbSymbolTableRecord
100
AcDbBlockTableRecord
  2
*D67
340
0
 70
     0
280
     1
281
     0
  0
BLOCK_RECORD
  5
6200
330
1
100
AcDbSymbolTableRecord
100
AcDbBlockTableRecord
  2
*D68
340
0
 70
     0
280
     1
281
     0
  0
BLOCK_RECORD
  5
620D
330
1
100
AcDbSymbolTableRecord
100
AcDbBlockTableRecord
  2
*D69
340
0
 70
     0
280
     1
281
     0
  0
BLOCK_RECORD
  5
621A
330
1
100
AcDbSymbolTableRecord
100
AcDbBlockTableRecord
  2
*D70
340
0
 70
     0
280
     1
281
     0
  0
BLOCK_RECORD
  5
6227
330
1
100
AcDbSymbolTableRecord
100
AcDbBlockTableRecord
  2
*D71
340
0
 70
     0
280
     1
281
     0
  0
BLOCK_RECORD
  5
6236
330
1
100
AcDbSymbolTableRecord
100
AcDbBlockTableRecord
  2
*D72
340
0
 70
     0
280
     1
281
     0
  0
BLOCK_RECORD
  5
624C
330
1
100
AcDbSymbolTableRecord
100
AcDbBlockTableRecord
  2
*D73
340
0
 70
     0
280
     1
281
     0
  0
BLOCK_RECORD
  5
625C
330
1
100
AcDbSymbolTableRecord
100
AcDbBlockTableRecord
  2
*D74
340
0
 70
     0
280
     1
281
     0
  0
BLOCK_RECORD
  5
62B0
330
1
100
AcDbSymbolTableRecord
100
AcDbBlockTableRecord
  2
*D75
340
0
 70
     0
280
     1
281
     0
  0
BLOCK_RECORD
  5
62C0
330
1
100
AcDbSymbolTableRecord
100
AcDbBlockTableRecord
  2
*D76
340
0
 70
     0
280
     1
281
     0
  0
BLOCK_RECORD
  5
63D2
330
1
100
AcDbSymbolTableRecord
100
AcDbBlockTableRecord
  2
*D77
340
0
 70
     0
280
     1
281
     0
  0
BLOCK_RECORD
  5
6416
330
1
100
AcDbSymbolTableRecord
100
AcDbBlockTableRecord
  2
*D78
340
0
 70
     0
280
     1
281
     0
  0
BLOCK_RECORD
  5
642B
330
1
100
AcDbSymbolTableRecord
100
AcDbBlockTableRecord
  2
*D79
340
0
 70
     0
280
     1
281
     0
  0
BLOCK_RECORD
  5
6438
330
1
100
AcDbSymbolTableRecord
100
AcDbBlockTableRecord
  2
*D80
340
0
 70
     0
280
     1
281
     0
  0
ENDTAB
  0
ENDSEC
  0
SECTION
  2
BLOCKS
  0
BLOCK
  5
D
330
A
100
AcDbEntity
  8
0
390
1D
100
AcDbBlockBegin
  2
*MODEL_SPACE
 70
     0
 10
0.0
 20
0.0
 30
0.0
  3
*MODEL_SPACE
  1
*MODEL_SPACE
  0
ENDBLK
  5
E
330
A
100
AcDbEntity
  8
0
390
1D
100
AcDbBlockEnd
  0
BLOCK
  5
F
330
B
100
AcDbEntity
 67
     1
  8
0
390
1D
100
AcDbBlockBegin
  2
*PAPER_SPACE
 70
     0
 10
0.0
 20
0.0
 30
0.0
  3
*PAPER_SPACE
  1
*PAPER_SPACE
  0
ENDBLK
  5
10
330
B
100
AcDbEntity
 67
     1
  8
0
390
1D
100
AcDbBlockEnd
  0
BLOCK
  5
2C14
330
4E
100
AcDbEntity
  8
0
390
1D
100
AcDbBlockBegin
  2
_DOT
 70
     0
 10
0.0
 20
0.0
 30
0.0
  3
_DOT
  1
_DOT
  0
POLYLINE
  5
2C16
330
4E
100
AcDbEntity
  8
0
  6
ByBlock
 62
     0
370
    -2
390
1D
100
AcDb2dPolyline
 66
     1
 10
0.0
 20
0.0
 30
0.0
 70
     1
 40
0.5
 41
0.5
  0
VERTEX
  5
2C17
330
2C16
100
AcDbEntity
  8
0
  6
ByBlock
 62
     0
370
    -2
390
1D
100
AcDbVertex
100
AcDb2dVertex
 10
-0.25
 20
0.0
 30
0.0
 42
1.0
  0
VERTEX
  5
2C18
330
2C16
100
AcDbEntity
  8
0
  6
ByBlock
 62
     0
370
    -2
390
1D
100
AcDbVertex
100
AcDb2dVertex
 10
0.25
 20
0.0
 30
0.0
 42
1.0
  0
SEQEND
  5
2C19
330
2C16
100
AcDbEntity
  8
0
390
1D
  0
LINE
  5
2C1A
330
4E
100
AcDbEntity
  8
0
  6
ByBlock
 62
     0
370
    -2
390
1D
100
AcDbLine
 10
-0.5
 20
0.0
 30
0.0
 11
-1.0
 21
0.0
 31
0.0
  0
ENDBLK
  5
2C1B
330
4E
100
AcDbEntity
  8
0
390
1D
100
AcDbBlockEnd
  0
BLOCK
  5
3A6
330
3A5
100
AcDbEntity
  8
0
100
AcDbBlockBegin
  2
名称未設定-1
 70
     0
 10
0.0
 20
0.0
 30
0.0
  3
名称未設定-1
  1
名称未設定-1
  0
INSERT
  5
3A7
330
3A5
100
AcDbEntity
  8
レイヤー 1
100
AcDbBlockReference
  2
block 2
 10
0.0
 20
0.0
 30
0.0
  0
ENDBLK
  5
3CC
330
3A5
100
AcDbEntity
  8
0
100
AcDbBlockEnd
  0
BLOCK
  5
3A9
330
3A8
100
AcDbEntity
  8
0
100
AcDbBlockBegin
  2
block 2
 70
     0
 10
0.0
 20
0.0
 30
0.0
  3
block 2
  1
block 2
  0
INSERT
  5
3AA
330
3A8
100
AcDbEntity
  8
レイヤー 1
100
AcDbBlockReference
  2
block 3
 10
0.0
 20
0.0
 30
0.0
  0
ENDBLK
  5
3CB
330
3A8
100
AcDbEntity
  8
0
100
AcDbBlockEnd
  0
BLOCK
  5
3AC
330
3AB
100
AcDbEntity
  8
0
100
AcDbBlockBegin
  2
block 3
 70
     0
 10
0.0
 20
0.0
 30
0.0
  3
block 3
  1
block 3
  0
INSERT
  5
3AD
330
3AB
100
AcDbEntity
  8
レイヤー 1
100
AcDbBlockReference
  2
block 4
 10
0.0
 20
0.0
 30
0.0
  0
ENDBLK
  5
3CA
330
3AB
100
AcDbEntity
  8
0
100
AcDbBlockEnd
  0
BLOCK
  5
3AF
330
3AE
100
AcDbEntity
  8
0
100
AcDbBlockBegin
  2
block 4
 70
     0
 10
0.0
 20
0.0
 30
0.0
  3
block 4
  1
block 4
  0
POLYLINE
  5
3B0
330
3AE
100
AcDbEntity
  8
レイヤー 1
370
     0
100
AcDb2dPolyline
 66
     1
 10
0.0
 20
0.0
 30
0.0
  0
VERTEX
  5
3B1
330
3B0
100
AcDbEntity
  8
レイヤー 1
370
     0
100
AcDbVertex
100
AcDb2dVertex
 10
83.79545727667795
 20
167.6444858234922
 30
0.0
  0
VERTEX
  5
3B2
330
3B0
100
AcDbEntity
  8
レイヤー 1
370
     0
100
AcDbVertex
100
AcDb2dVertex
 10
83.79545727667795
 20
159.7968976406313
 30
0.0
  0
VERTEX
  5
3B3
330
3B0
100
AcDbEntity
  8
レイヤー 1
370
     0
100
AcDbVertex
100
AcDb2dVertex
 10
71.3631329975216
 20
159.7968976406313
 30
0.0
  0
VERTEX
  5
3B4
330
3B0
100
AcDbEntity
  8
レイヤー 1
370
     0
100
AcDbVertex
100
AcDb2dVertex
 10
71.3631329975216
 20
127.8027915271048
 30
0.0
  0
VERTEX
  5
3B5
330
3B0
100
AcDbEntity
  8
レイヤー 1
370
     0
100
AcDbVertex
100
AcDb2dVertex
 10
60.43011526263018
 20
127.8027915271048
 30
0.0
  0
VERTEX
  5
3B6
330
3B0
100
AcDbEntity
  8
レイヤー 1
370
     0
100
AcDbVertex
100
AcDb2dVertex
 10
60.43011526263018
 20
159.7968976406313
 30
0.0
  0
VERTEX
  5
3B7
330
3B0
100
AcDbEntity
  8
レイヤー 1
370
     0
100
AcDbVertex
100
AcDb2dVertex
 10
48.21793273020759
 20
159.7968976406313
 30
0.0
  0
VERTEX
  5
3B8
330
3B0
100
AcDbEntity
  8
レイヤー 1
370
     0
100
AcDbVertex
100
AcDb2dVertex
 10
48.21793273020759
 20
167.6444858234922
 30
0.0
  0
VERTEX
  5
3B9
330
3B0
100
AcDbEntity
  8
レイヤー 1
370
     0
100
AcDbVertex
100
AcDb2dVertex
 10
83.79545727667795
 20
167.6444858234922
 30
0.0
  0
SEQEND
  5
3BA
330
3B0
100
AcDbEntity
  8
レイヤー 1
370
     0
  0
HATCH
  5
3BB
330
3AE
100
AcDbEntity
  8
レイヤー 1
 62
   250
420
  2234388
100
AcDbHatch
 10
0.0
 20
0.0
 30
0.0
210
0.0
220
0.0
230
1.0
  2
SOLID
 70
     1
 71
     0
 91
        1
 92
        1
 93
        8
 72
     1
 10
83.79545727667795
 20
167.6444858234922
 11
83.79545727667795
 21
159.7968976406313
 72
     1
 10
83.79545727667795
 20
159.7968976406313
 11
71.3631329975216
 21
159.7968976406313
 72
     1
 10
71.3631329975216
 20
159.7968976406313
 11
71.3631329975216
 21
127.8027915271048
 72
     1
 10
71.3631329975216
 20
127.8027915271048
 11
60.43011526263018
 21
127.8027915271048
 72
     1
 10
60.43011526263018
 20
127.8027915271048
 11
60.43011526263018
 21
159.7968976406313
 72
     1
 10
60.43011526263018
 20
159.7968976406313
 11
48.21793273020759
 21
159.7968976406313
 72
     1
 10
48.21793273020759
 20
159.7968976406313
 11
48.21793273020759
 21
167.6444858234922
 72
     1
 10
48.21793273020759
 20
167.6444858234922
 11
83.79545727667795
 21
167.6444858234922
 97
        0
 75
     2
 76
     1
 98
        0
  0
INSERT
  5
3BC
330
3AE
100
AcDbEntity
  8
レイヤー 1
100
AcDbBlockReference
  2
block 5
 10
0.0
 20
0.0
 30
0.0
  0
ENDBLK
  5
3C9
330
3AE
100
AcDbEntity
  8
0
100
AcDbBlockEnd
  0
BLOCK
  5
3BE
330
3BD
100
AcDbEntity
  8
0
100
AcDbBlockBegin
  2
block 5
 70
     0
 10
0.0
 20
0.0
 30
0.0
  3
block 5
  1
block 5
  0
SPLINE
  5
3BF
330
3BD
100
AcDbEntity
  8
レイヤー 1
370
     0
100
AcDbSpline
210
0.0
220
0.0
230
1.0
 70
    11
 71
     3
 72
    56
 73
    52
 74
     0
 42
0.000000001
 43
0.0000000001
 40
0.0
 40
0.0
 40
0.0
 40
0.0
 40
1.0
 40
1.0
 40
1.0
 40
2.0
 40
2.0
 40
2.0
 40
3.0
 40
3.0
 40
3.0
 40
4.0
 40
4.0
 40
4.0
 40
5.0
 40
5.0
 40
5.0
 40
6.0
 40
6.0
 40
6.0
 40
7.0
 40
7.0
 40
7.0
 40
8.0
 40
8.0
 40
8.0
 40
9.0
 40
9.0
 40
9.0
 40
10.0
 40
10.0
 40
10.0
 40
11.0
 40
11.0
 40
11.0
 40
12.0
 40
12.0
 40
12.0
 40
13.0
 40
13.0
 40
13.0
 40
14.0
 40
14.0
 40
14.0
 40
15.0
 40
15.0
 40
15.0
 40
16.0
 40
16.0
 40
16.0
 40
17.0
 40
17.0
 40
17.0
 40
17.0
 10
100.4504378777679
 20
166.69157178364
 30
0.0
 10
101.9848844191641
 20
167.1313385124438
 30
0.0
 10
103.9637485713373
 20
166.7649523658846
 30
0.0
 10
103.9637485713373
 20
166.7649523658846
 30
0.0
 10
103.9637485713373
 20
166.7649523658846
 30
0.0
 10
103.0132460999156
 20
163.911205638077
 30
0.0
 10
103.0132460999156
 20
163.911205638077
 30
0.0
 10
103.0132460999156
 20
163.911205638077
 30
0.0
 10
101.0674548862189
 20
164.3601018759394
 30
0.0
 10
99.57090442016032
 20
163.1805004036133
 30
0.0
 10
98.40508333886608
 20
162.258247733807
 30
0.0
 10
97.65301849830304
 20
159.804132345923
 30
0.0
 10
97.3598406791005
 20
158.8699940888517
 30
0.0
 10
97.3598406791005
 20
158.8699940888517
 30
0.0
 10
96.07137411762282
 20
154.9119212747295
 30
0.0
 10
96.07137411762282
 20
154.9119212747295
 30
0.0
 10
96.07137411762282
 20
154.9119212747295
 30
0.0
 10
100.3012651448482
 20
154.9119212747295
 30
0.0
 10
100.3012651448482
 20
154.9119212747295
 30
0.0
 10
100.3012651448482
 20
154.9119212747295
 30
0.0
 10
99.64152892419852
 20
152.4199098115079
 30
0.0
 10
99.64152892419852
 20
152.4199098115079
 30
0.0
 10
99.64152892419852
 20
152.4199098115079
 30
0.0
 10
95.38097652692731
 20
152.4199098115079
 30
0.0
 10
95.38097652692731
 20
152.4199098115079
 30
0.0
 10
95.38097652692731
 20
152.4199098115079
 30
0.0
 10
87.75353009080013
 20
127.8027915271048
 30
0.0
 10
87.75353009080013
 20
127.8027915271048
 30
0.0
 10
87.75353009080013
 20
127.8027915271048
 30
0.0
 10
85.36538832498108
 20
127.8027915271048
 30
0.0
 10
85.36538832498108
 20
127.8027915271048
 30
0.0
 10
85.36538832498108
 20
127.8027915271048
 30
0.0
 10
93.00006946639998
 20
152.4199098115079
 30
0.0
 10
93.00006946639998
 20
152.4199098115079
 30
0.0
 10
93.00006946639998
 20
152.4199098115079
 30
0.0
 10
89.85297266450198
 20
152.4199098115079
 30
0.0
 10
89.85297266450198
 20
152.4199098115079
 30
0.0
 10
89.85297266450198
 20
152.4199098115079
 30
0.0
 10
90.51270888515164
 20
154.9119212747295
 30
0.0
 10
90.51270888515164
 20
154.9119212747295
 30
0.0
 10
90.51270888515164
 20
154.9119212747295
 30
0.0
 10
93.6904670570955
 20
154.9119212747295
 30
0.0
 10
93.6904670570955
 20
154.9119212747295
 30
0.0
 10
93.6904670570955
 20
154.9119212747295
 30
0.0
 10
94.81598049462158
 20
158.3616699146644
 30
0.0
 10
94.81598049462158
 20
158.3616699146644
 30
0.0
 10
95.7237637538445
 20
161.2605474231013
 30
0.0
 10
96.4968436907311
 20
162.8139420021662
 30
0.0
 10
97.15657991138076
 20
163.9844139654337
 30
0.0
 10
97.81183750494507
 20
165.1523021053827
 30
0.0
 10
99.1047826935081
 20
166.3084769129547
 30
0.0
 10
100.4504378777679
 20
166.69157178364
 30
0.0
  0
HATCH
  5
3C0
330
3BD
100
AcDbEntity
  8
レイヤー 1
 62
   250
420
  2234388
100
AcDbHatch
 10
0.0
 20
0.0
 30
0.0
210
0.0
220
0.0
230
1.0
  2
SOLID
 70
     1
 71
     0
 91
        1
 92
        1
 93
        1
 72
     4
 94
        3
 73
     0
 74
     1
 95
       56
 96
       52
 40
0.0
 40
0.0
 40
0.0
 40
0.0
 40
1.0
 40
1.0
 40
1.0
 40
2.0
 40
2.0
 40
2.0
 40
3.0
 40
3.0
 40
3.0
 40
4.0
 40
4.0
 40
4.0
 40
5.0
 40
5.0
 40
5.0
 40
6.0
 40
6.0
 40
6.0
 40
7.0
 40
7.0
 40
7.0
 40
8.0
 40
8.0
 40
8.0
 40
9.0
 40
9.0
 40
9.0
 40
10.0
 40
10.0
 40
10.0
 40
11.0
 40
11.0
 40
11.0
 40
12.0
 40
12.0
 40
12.0
 40
13.0
 40
13.0
 40
13.0
 40
14.0
 40
14.0
 40
14.0
 40
15.0
 40
15.0
 40
15.0
 40
16.0
 40
16.0
 40
16.0
 40
17.0
 40
17.0
 40
17.0
 40
17.0
 10
100.4504378777679
 20
166.69157178364
 10
101.9848844191641
 20
167.1313385124438
 10
103.9637485713373
 20
166.7649523658846
 10
103.9637485713373
 20
166.7649523658846
 10
103.9637485713373
 20
166.7649523658846
 10
103.0132460999156
 20
163.911205638077
 10
103.0132460999156
 20
163.911205638077
 10
103.0132460999156
 20
163.911205638077
 10
101.0674548862189
 20
164.3601018759394
 10
99.57090442016032
 20
163.1805004036133
 10
98.40508333886608
 20
162.258247733807
 10
97.65301849830304
 20
159.804132345923
 10
97.3598406791005
 20
158.8699940888517
 10
97.3598406791005
 20
158.8699940888517
 10
96.07137411762282
 20
154.9119212747295
 10
96.07137411762282
 20
154.9119212747295
 10
96.07137411762282
 20
154.9119212747295
 10
100.3012651448482
 20
154.9119212747295
 10
100.3012651448482
 20
154.9119212747295
 10
100.3012651448482
 20
154.9119212747295
 10
99.64152892419852
 20
152.4199098115079
 10
99.64152892419852
 20
152.4199098115079
 10
99.64152892419852
 20
152.4199098115079
 10
95.38097652692731
 20
152.4199098115079
 10
95.38097652692731
 20
152.4199098115079
 10
95.38097652692731
 20
152.4199098115079
 10
87.75353009080013
 20
127.8027915271048
 10
87.75353009080013
 20
127.8027915271048
 10
87.75353009080013
 20
127.8027915271048
 10
85.36538832498108
 20
127.8027915271048
 10
85.36538832498108
 20
127.8027915271048
 10
85.36538832498108
 20
127.8027915271048
 10
93.00006946639998
 20
152.4199098115079
 10
93.00006946639998
 20
152.4199098115079
 10
93.00006946639998
 20
152.4199098115079
 10
89.85297266450198
 20
152.4199098115079
 10
89.85297266450198
 20
152.4199098115079
 10
89.85297266450198
 20
152.4199098115079
 10
90.51270888515164
 20
154.9119212747295
 10
90.51270888515164
 20
154.9119212747295
 10
90.51270888515164
 20
154.9119212747295
 10
93.6904670570955
 20
154.9119212747295
 10
93.6904670570955
 20
154.9119212747295
 10
93.6904670570955
 20
154.9119212747295
 10
94.81598049462158
 20
158.3616699146644
 10
94.81598049462158
 20
158.3616699146644
 10
95.7237637538445
 20
161.2605474231013
 10
96.4968436907311
 20
162.8139420021662
 10
97.15657991138076
 20
163.9844139654337
 10
97.81183750494507
 20
165.1523021053827
 10
99.1047826935081
 20
166.3084769129547
 10
100.4504378777679
 20
166.69157178364
 97
        0
 75
     2
 76
     1
 98
        0
  0
SPLINE
  5
3C1
330
3BD
100
AcDbEntity
  8
レイヤー 1
370
     0
100
AcDbSpline
210
0.0
220
0.0
230
1.0
 70
    11
 71
     3
 72
    38
 73
    34
 74
     0
 42
0.000000001
 43
0.0000000001
 40
0.0
 40
0.0
 40
0.0
 40
0.0
 40
1.0
 40
1.0
 40
1.0
 40
2.0
 40
2.0
 40
2.0
 40
3.0
 40
3.0
 40
3.0
 40
4.0
 40
4.0
 40
4.0
 40
5.0
 40
5.0
 40
5.0
 40
6.0
 40
6.0
 40
6.0
 40
7.0
 40
7.0
 40
7.0
 40
8.0
 40
8.0
 40
8.0
 40
9.0
 40
9.0
 40
9.0
 40
10.0
 40
10.0
 40
10.0
 40
11.0
 40
11.0
 40
11.0
 40
11.0
 10
126.377554584636
 20
154.8151140277308
 30
0.0
 10
126.377554584636
 20
154.8151140277308
 30
0.0
 10
128.8311532078563
 20
154.8151140277308
 30
0.0
 10
128.8311532078563
 20
154.8151140277308
 30
0.0
 10
128.8311532078563
 20
154.8151140277308
 30
0.0
 10
127.7345785914971
 20
151.3062819612468
 30
0.0
 10
127.7345785914971
 20
151.3062819612468
 30
0.0
 10
128.571392836906
 20
152.2922689395754
 30
0.0
 10
129.8860421413442
 20
153.604506675583
 30
0.0
 10
131.0163787157314
 20
154.2664822097754
 30
0.0
 10
132.7044766171327
 20
155.2500576196734
 30
0.0
 10
133.6642808525008
 20
155.3847609420097
 30
0.0
 10
134.7284715499351
 20
155.3565111403944
 30
0.0
 10
134.7284715499351
 20
155.3565111403944
 30
0.0
 10
133.6877075172549
 20
152.0345756272799
 30
0.0
 10
133.6877075172549
 20
152.0345756272799
 30
0.0
 10
133.011434827367
 20
152.3184516825359
 30
0.0
 10
130.930940291334
 20
151.7768823149844
 30
0.0
 10
129.739280976855
 20
150.9162968950455
 30
0.0
 10
128.66613302525
 20
150.1454562717016
 30
0.0
 10
127.9192358313239
 20
149.4857200510519
 30
0.0
 10
127.0393578639405
 20
147.8282835196966
 30
0.0
 10
126.164647543194
 20
146.1699857139017
 30
0.0
 10
125.4742499524985
 20
143.5262176944419
 30
0.0
 10
124.2822461282437
 20
139.6959580071401
 30
0.0
 10
124.2822461282437
 20
139.6959580071401
 30
0.0
 10
120.5753209406769
 20
127.8027915271048
 30
0.0
 10
120.5753209406769
 20
127.8027915271048
 30
0.0
 10
120.5753209406769
 20
127.8027915271048
 30
0.0
 10
118.1964809388044
 20
127.8027915271048
 30
0.0
 10
118.1964809388044
 20
127.8027915271048
 30
0.0
 10
118.1964809388044
 20
127.8027915271048
 30
0.0
 10
126.377554584636
 20
154.8151140277308
 30
0.0
 10
126.377554584636
 20
154.8151140277308
 30
0.0
  0
HATCH
  5
3C2
330
3BD
100
AcDbEntity
  8
レイヤー 1
 62
   250
420
  2234388
100
AcDbHatch
 10
0.0
 20
0.0
 30
0.0
210
0.0
220
0.0
230
1.0
  2
SOLID
 70
     1
 71
     0
 91
        1
 92
        1
 93
        1
 72
     4
 94
        3
 73
     0
 74
     1
 95
       38
 96
       34
 40
0.0
 40
0.0
 40
0.0
 40
0.0
 40
1.0
 40
1.0
 40
1.0
 40
2.0
 40
2.0
 40
2.0
 40
3.0
 40
3.0
 40
3.0
 40
4.0
 40
4.0
 40
4.0
 40
5.0
 40
5.0
 40
5.0
 40
6.0
 40
6.0
 40
6.0
 40
7.0
 40
7.0
 40
7.0
 40
8.0
 40
8.0
 40
8.0
 40
9.0
 40
9.0
 40
9.0
 40
10.0
 40
10.0
 40
10.0
 40
11.0
 40
11.0
 40
11.0
 40
11.0
 10
126.377554584636
 20
154.8151140277308
 10
126.377554584636
 20
154.8151140277308
 10
128.8311532078563
 20
154.8151140277308
 10
128.8311532078563
 20
154.8151140277308
 10
128.8311532078563
 20
154.8151140277308
 10
127.7345785914971
 20
151.3062819612468
 10
127.7345785914971
 20
151.3062819612468
 10
128.571392836906
 20
152.2922689395754
 10
129.8860421413442
 20
153.604506675583
 10
131.0163787157314
 20
154.2664822097754
 10
132.7044766171327
 20
155.2500576196734
 10
133.6642808525008
 20
155.3847609420097
 10
134.7284715499351
 20
155.3565111403944
 10
134.7284715499351
 20
155.3565111403944
 10
133.6877075172549
 20
152.0345756272799
 10
133.6877075172549
 20
152.0345756272799
 10
133.011434827367
 20
152.3184516825359
 10
130.930940291334
 20
151.7768823149844
 10
129.739280976855
 20
150.9162968950455
 10
128.66613302525
 20
150.1454562717016
 10
127.9192358313239
 20
149.4857200510519
 10
127.0393578639405
 20
147.8282835196966
 10
126.164647543194
 20
146.1699857139017
 10
125.4742499524985
 20
143.5262176944419
 10
124.2822461282437
 20
139.6959580071401
 10
124.2822461282437
 20
139.6959580071401
 10
120.5753209406769
 20
127.8027915271048
 10
120.5753209406769
 20
127.8027915271048
 10
120.5753209406769
 20
127.8027915271048
 10
118.1964809388044
 20
127.8027915271048
 10
118.1964809388044
 20
127.8027915271048
 10
118.1964809388044
 20
127.8027915271048
 10
126.377554584636
 20
154.8151140277308
 10
126.377554584636
 20
154.8151140277308
 97
        0
 75
     2
 76
     1
 98
        0
  0
SPLINE
  5
3C3
330
3BD
100
AcDbEntity
  8
レイヤー 1
370
     0
100
AcDbSpline
210
0.0
220
0.0
230
1.0
 70
    11
 71
     3
 72
   104
 73
   100
 74
     0
 42
0.000000001
 43
0.0000000001
 40
0.0
 40
0.0
 40
0.0
 40
0.0
 40
1.0
 40
1.0
 40
1.0
 40
2.0
 40
2.0
 40
2.0
 40
3.0
 40
3.0
 40
3.0
 40
4.0
 40
4.0
 40
4.0
 40
5.0
 40
5.0
 40
5.0
 40
6.0
 40
6.0
 40
6.0
 40
7.0
 40
7.0
 40
7.0
 40
8.0
 40
8.0
 40
8.0
 40
9.0
 40
9.0
 40
9.0
 40
10.0
 40
10.0
 40
10.0
 40
11.0
 40
11.0
 40
11.0
 40
12.0
 40
12.0
 40
12.0
 40
13.0
 40
13.0
 40
13.0
 40
14.0
 40
14.0
 40
14.0
 40
15.0
 40
15.0
 40
15.0
 40
16.0
 40
16.0
 40
16.0
 40
17.0
 40
17.0
 40
17.0
 40
18.0
 40
18.0
 40
18.0
 40
19.0
 40
19.0
 40
19.0
 40
20.0
 40
20.0
 40
20.0
 40
21.0
 40
21.0
 40
21.0
 40
22.0
 40
22.0
 40
22.0
 40
23.0
 40
23.0
 40
23.0
 40
24.0
 40
24.0
 40
24.0
 40
25.0
 40
25.0
 40
25.0
 40
26.0
 40
26.0
 40
26.0
 40
27.0
 40
27.0
 40
27.0
 40
28.0
 40
28.0
 40
28.0
 40
29.0
 40
29.0
 40
29.0
 40
30.0
 40
30.0
 40
30.0
 40
31.0
 40
31.0
 40
31.0
 40
32.0
 40
32.0
 40
32.0
 40
33.0
 40
33.0
 40
33.0
 40
33.0
 10
139.8926730891197
 20
154.8294111834263
 30
0.0
 10
139.8926730891197
 20
154.8294111834263
 30
0.0
 10
142.0344903652445
 20
154.8294111834263
 30
0.0
 10
142.0344903652445
 20
154.8294111834263
 30
0.0
 10
142.0344903652445
 20
154.8294111834263
 30
0.0
 10
140.9516961399171
 20
151.3157559800812
 30
0.0
 10
140.9516961399171
 20
151.3157559800812
 30
0.0
 10
141.8928968473923
 20
152.7887075264977
 30
0.0
 10
142.7341897198865
 20
153.4484437471474
 30
0.0
 10
143.8552245303272
 20
154.2926649527359
 30
0.0
 10
144.9803934580775
 20
155.1296514530327
 30
0.0
 10
146.3139908001845
 20
155.3044901642492
 30
0.0
 10
147.241066606852
 20
155.3044901642492
 30
0.0
 10
148.3855280820469
 20
155.3044901642492
 30
0.0
 10
149.4969166187653
 20
155.0752189084569
 30
0.0
 10
150.0784491203092
 20
153.8172414621372
 30
0.0
 10
150.5228667310863
 20
152.833838307127
 30
0.0
 10
150.5414702589793
 20
152.7201500811143
 30
0.0
 10
150.4140016419347
 20
150.7765981809602
 30
0.0
 10
151.5818897818837
 20
152.7699317437168
 30
0.0
 10
152.4424752018226
 20
153.6256940267945
 30
0.0
 10
153.9038856707499
 20
154.4507949398263
 30
0.0
 10
155.4455669174378
 20
155.3044901642492
 30
0.0
 10
156.339225275853
 20
155.3659851592288
 30
0.0
 10
157.3748216618963
 20
155.2147453676543
 30
0.0
 10
158.911679771723
 20
154.9877134254046
 30
0.0
 10
159.8859534176746
 20
154.4390816074493
 30
0.0
 10
160.3965169054045
 20
152.7816450760939
 30
0.0
 10
160.9070803931344
 20
151.1219692311958
 30
0.0
 10
160.6328506116007
 20
150.2303779314354
 30
0.0
 10
159.9992971339115
 20
147.597634224801
 30
0.0
 10
159.7105979417943
 20
146.4014962832367
 30
0.0
 10
159.2947746424084
 20
144.9400858143094
 30
0.0
 10
158.7463150793409
 20
143.2092687007094
 30
0.0
 10
158.7463150793409
 20
143.2092687007094
 30
0.0
 10
153.9038856707499
 20
127.8027915271048
 30
0.0
 10
153.9038856707499
 20
127.8027915271048
 30
0.0
 10
153.9038856707499
 20
127.8027915271048
 30
0.0
 10
151.3882752878863
 20
127.8027915271048
 30
0.0
 10
151.3882752878863
 20
127.8027915271048
 30
0.0
 10
151.3882752878863
 20
127.8027915271048
 30
0.0
 10
155.6250565106276
 20
141.2751908193897
 30
0.0
 10
155.6250565106276
 20
141.2751908193897
 30
0.0
 10
156.5094131050963
 20
144.0936252951782
 30
0.0
 10
157.109893644309
 20
146.1506931664571
 30
0.0
 10
157.4220195011804
 20
147.4415712963654
 30
0.0
 10
157.8095929989511
 20
149.0530157726519
 30
0.0
 10
157.9656559273867
 20
149.5826995529385
 30
0.0
 10
157.7816877071116
 20
150.7529992613181
 30
0.0
 10
157.6111553680925
 20
151.8430281919372
 30
0.0
 10
157.0582171779396
 20
152.5547853887321
 30
0.0
 10
156.1170164704645
 20
152.5547853887321
 30
0.0
 10
155.1096698860365
 20
152.5547853887321
 30
0.0
 10
154.2962823053817
 20
152.4412694176073
 30
0.0
 10
153.156643967048
 20
151.2945686288697
 30
0.0
 10
152.0170056287143
 20
150.1476955852443
 30
0.0
 10
151.076149431015
 20
148.7930831468137
 30
0.0
 10
150.3337308641742
 20
147.2290087646991
 30
0.0
 10
149.5957909244188
 20
145.6683794803425
 30
0.0
 10
148.8530278478023
 20
143.6822806228776
 30
0.0
 10
148.0964843801539
 20
141.2751908193897
 30
0.0
 10
148.0964843801539
 20
141.2751908193897
 30
0.0
 10
143.8552245303272
 20
127.8027915271048
 30
0.0
 10
143.8552245303272
 20
127.8027915271048
 30
0.0
 10
143.8552245303272
 20
127.8027915271048
 30
0.0
 10
141.486030802177
 20
127.8027915271048
 30
0.0
 10
141.486030802177
 20
127.8027915271048
 30
0.0
 10
141.486030802177
 20
127.8027915271048
 30
0.0
 10
146.3329388378533
 20
143.2092687007094
 30
0.0
 10
146.3329388378533
 20
143.2092687007094
 30
0.0
 10
146.8483254624444
 20
144.8408669988801
 30
0.0
 10
147.2314203331297
 20
146.1837661049335
 30
0.0
 10
147.4867020769946
 20
147.224185627838
 30
0.0
 10
147.9169947869641
 20
149.0197705792876
 30
0.0
 10
148.0306830129768
 20
150.2400242051577
 30
0.0
 10
147.709255392159
 20
151.3157559800812
 30
0.0
 10
147.3874832615654
 20
152.3916600098926
 30
0.0
 10
146.8245542879144
 20
152.6683013598569
 30
0.0
 10
145.8840425999909
 20
152.6683013598569
 30
0.0
 10
145.0989048209514
 20
152.6683013598569
 30
0.0
 10
144.3282364524954
 20
152.3275811915945
 30
0.0
 10
143.4531816219731
 20
151.6538923250251
 30
0.0
 10
142.34627171234
 20
150.8074318058939
 30
0.0
 10
141.901854101563
 20
150.1097995099067
 30
0.0
 10
141.3578731655808
 20
149.289521733736
 30
0.0
 10
140.6299240093235
 20
148.192602607601
 30
0.0
 10
140.2850697237515
 20
147.455696197173
 30
0.0
 10
139.6652966370942
 20
145.8385673095858
 30
0.0
 10
139.0506911970739
 20
144.2214384219986
 30
0.0
 10
138.463991048893
 20
142.3252566160164
 30
0.0
 10
138.0571250036777
 20
141.0154304484394
 30
0.0
 10
138.0571250036777
 20
141.0154304484394
 30
0.0
 10
133.9009590684727
 20
127.8027915271048
 30
0.0
 10
133.9009590684727
 20
127.8027915271048
 30
0.0
 10
133.9009590684727
 20
127.8027915271048
 30
0.0
 10
131.4180771143097
 20
127.8027915271048
 30
0.0
 10
131.4180771143097
 20
127.8027915271048
 30
0.0
 10
131.4180771143097
 20
127.8027915271048
 30
0.0
 10
139.8926730891197
 20
154.8294111834263
 30
0.0
 10
139.8926730891197
 20
154.8294111834263
 30
0.0
  0
HATCH
  5
3C4
330
3BD
100
AcDbEntity
  8
レイヤー 1
 62
   250
420
  2234388
100
AcDbHatch
 10
0.0
 20
0.0
 30
0.0
210
0.0
220
0.0
230
1.0
  2
SOLID
 70
     1
 71
     0
 91
        1
 92
        1
 93
        1
 72
     4
 94
        3
 73
     0
 74
     1
 95
      104
 96
      100
 40
0.0
 40
0.0
 40
0.0
 40
0.0
 40
1.0
 40
1.0
 40
1.0
 40
2.0
 40
2.0
 40
2.0
 40
3.0
 40
3.0
 40
3.0
 40
4.0
 40
4.0
 40
4.0
 40
5.0
 40
5.0
 40
5.0
 40
6.0
 40
6.0
 40
6.0
 40
7.0
 40
7.0
 40
7.0
 40
8.0
 40
8.0
 40
8.0
 40
9.0
 40
9.0
 40
9.0
 40
10.0
 40
10.0
 40
10.0
 40
11.0
 40
11.0
 40
11.0
 40
12.0
 40
12.0
 40
12.0
 40
13.0
 40
13.0
 40
13.0
 40
14.0
 40
14.0
 40
14.0
 40
15.0
 40
15.0
 40
15.0
 40
16.0
 40
16.0
 40
16.0
 40
17.0
 40
17.0
 40
17.0
 40
18.0
 40
18.0
 40
18.0
 40
19.0
 40
19.0
 40
19.0
 40
20.0
 40
20.0
 40
20.0
 40
21.0
 40
21.0
 40
21.0
 40
22.0
 40
22.0
 40
22.0
 40
23.0
 40
23.0
 40
23.0
 40
24.0
 40
24.0
 40
24.0
 40
25.0
 40
25.0
 40
25.0
 40
26.0
 40
26.0
 40
26.0
 40
27.0
 40
27.0
 40
27.0
 40
28.0
 40
28.0
 40
28.0
 40
29.0
 40
29.0
 40
29.0
 40
30.0
 40
30.0
 40
30.0
 40
31.0
 40
31.0
 40
31.0
 40
32.0
 40
32.0
 40
32.0
 40
33.0
 40
33.0
 40
33.0
 40
33.0
 10
139.8926730891197
 20
154.8294111834263
 10
139.8926730891197
 20
154.8294111834263
 10
142.0344903652445
 20
154.8294111834263
 10
142.0344903652445
 20
154.8294111834263
 10
142.0344903652445
 20
154.8294111834263
 10
140.9516961399171
 20
151.3157559800812
 10
140.9516961399171
 20
151.3157559800812
 10
141.8928968473923
 20
152.7887075264977
 10
142.7341897198865
 20
153.4484437471474
 10
143.8552245303272
 20
154.2926649527359
 10
144.9803934580775
 20
155.1296514530327
 10
146.3139908001845
 20
155.3044901642492
 10
147.241066606852
 20
155.3044901642492
 10
148.3855280820469
 20
155.3044901642492
 10
149.4969166187653
 20
155.0752189084569
 10
150.0784491203092
 20
153.8172414621372
 10
150.5228667310863
 20
152.833838307127
 10
150.5414702589793
 20
152.7201500811143
 10
150.4140016419347
 20
150.7765981809602
 10
151.5818897818837
 20
152.7699317437168
 10
152.4424752018226
 20
153.6256940267945
 10
153.9038856707499
 20
154.4507949398263
 10
155.4455669174378
 20
155.3044901642492
 10
156.339225275853
 20
155.3659851592288
 10
157.3748216618963
 20
155.2147453676543
 10
158.911679771723
 20
154.9877134254046
 10
159.8859534176746
 20
154.4390816074493
 10
160.3965169054045
 20
152.7816450760939
 10
160.9070803931344
 20
151.1219692311958
 10
160.6328506116007
 20
150.2303779314354
 10
159.9992971339115
 20
147.597634224801
 10
159.7105979417943
 20
146.4014962832367
 10
159.2947746424084
 20
144.9400858143094
 10
158.7463150793409
 20
143.2092687007094
 10
158.7463150793409
 20
143.2092687007094
 10
153.9038856707499
 20
127.8027915271048
 10
153.9038856707499
 20
127.8027915271048
 10
153.9038856707499
 20
127.8027915271048
 10
151.3882752878863
 20
127.8027915271048
 10
151.3882752878863
 20
127.8027915271048
 10
151.3882752878863
 20
127.8027915271048
 10
155.6250565106276
 20
141.2751908193897
 10
155.6250565106276
 20
141.2751908193897
 10
156.5094131050963
 20
144.0936252951782
 10
157.109893644309
 20
146.1506931664571
 10
157.4220195011804
 20
147.4415712963654
 10
157.8095929989511
 20
149.0530157726519
 10
157.9656559273867
 20
149.5826995529385
 10
157.7816877071116
 20
150.7529992613181
 10
157.6111553680925
 20
151.8430281919372
 10
157.0582171779396
 20
152.5547853887321
 10
156.1170164704645
 20
152.5547853887321
 10
155.1096698860365
 20
152.5547853887321
 10
154.2962823053817
 20
152.4412694176073
 10
153.156643967048
 20
151.2945686288697
 10
152.0170056287143
 20
150.1476955852443
 10
151.076149431015
 20
148.7930831468137
 10
150.3337308641742
 20
147.2290087646991
 10
149.5957909244188
 20
145.6683794803425
 10
148.8530278478023
 20
143.6822806228776
 10
148.0964843801539
 20
141.2751908193897
 10
148.0964843801539
 20
141.2751908193897
 10
143.8552245303272
 20
127.8027915271048
 10
143.8552245303272
 20
127.8027915271048
 10
143.8552245303272
 20
127.8027915271048
 10
141.486030802177
 20
127.8027915271048
 10
141.486030802177
 20
127.8027915271048
 10
141.486030802177
 20
127.8027915271048
 10
146.3329388378533
 20
143.2092687007094
 10
146.3329388378533
 20
143.2092687007094
 10
146.8483254624444
 20
144.8408669988801
 10
147.2314203331297
 20
146.1837661049335
 10
147.4867020769946
 20
147.224185627838
 10
147.9169947869641
 20
149.0197705792876
 10
148.0306830129768
 20
150.2400242051577
 10
147.709255392159
 20
151.3157559800812
 10
147.3874832615654
 20
152.3916600098926
 10
146.8245542879144
 20
152.6683013598569
 10
145.8840425999909
 20
152.6683013598569
 10
145.0989048209514
 20
152.6683013598569
 10
144.3282364524954
 20
152.3275811915945
 10
143.4531816219731
 20
151.6538923250251
 10
142.34627171234
 20
150.8074318058939
 10
141.901854101563
 20
150.1097995099067
 10
141.3578731655808
 20
149.289521733736
 10
140.6299240093235
 20
148.192602607601
 10
140.2850697237515
 20
147.455696197173
 10
139.6652966370942
 20
145.8385673095858
 10
139.0506911970739
 20
144.2214384219986
 10
138.463991048893
 20
142.3252566160164
 10
138.0571250036777
 20
141.0154304484394
 10
138.0571250036777
 20
141.0154304484394
 10
133.9009590684727
 20
127.8027915271048
 10
133.9009590684727
 20
127.8027915271048
 10
133.9009590684727
 20
127.8027915271048
 10
131.4180771143097
 20
127.8027915271048
 10
131.4180771143097
 20
127.8027915271048
 10
131.4180771143097
 20
127.8027915271048
 10
139.8926730891197
 20
154.8294111834263
 10
139.8926730891197
 20
154.8294111834263
 97
        0
 75
     2
 76
     1
 98
        0
  0
SPLINE
  5
3C5
330
3BD
100
AcDbEntity
  8
レイヤー 1
370
     0
100
AcDbSpline
210
0.0
220
0.0
230
1.0
 70
    11
 71
     3
 72
    29
 73
    25
 74
     0
 42
0.000000001
 43
0.0000000001
 40
0.0
 40
0.0
 40
0.0
 40
0.0
 40
1.0
 40
1.0
 40
1.0
 40
2.0
 40
2.0
 40
2.0
 40
3.0
 40
3.0
 40
3.0
 40
4.0
 40
4.0
 40
4.0
 40
5.0
 40
5.0
 40
5.0
 40
6.0
 40
6.0
 40
6.0
 40
7.0
 40
7.0
 40
7.0
 40
8.0
 40
8.0
 40
8.0
 40
8.0
 10
101.6420971922469
 20
132.8388354296931
 30
0.0
 10
101.630039350094
 20
134.7164137077823
 30
0.0
 10
102.2236296937908
 20
138.0598810818841
 30
0.0
 10
103.7487744712405
 20
142.5378191476827
 30
0.0
 10
105.819967243327
 20
148.5896501242061
 30
0.0
 10
107.0602024361932
 20
150.8074318058939
 30
0.0
 10
108.1522984254671
 20
151.8833358357054
 30
0.0
 10
109.741177511439
 20
153.4532668840085
 30
0.0
 10
111.8740375333931
 20
153.5290590346837
 30
0.0
 10
112.5075910110823
 20
153.4532668840085
 30
0.0
 10
113.4012493694975
 20
153.3490526768302
 30
0.0
 10
114.6683563248758
 20
152.7580461564518
 30
0.0
 10
114.7493161221879
 20
150.7838328862519
 30
0.0
 10
114.8106388622796
 20
149.0909118479895
 30
0.0
 10
114.3186789024427
 20
145.9191825971221
 30
0.0
 10
112.6164561002338
 20
140.9489400617108
 30
0.0
 10
110.6444821435766
 20
135.1746117095912
 30
0.0
 10
109.4669477299053
 20
132.8960240524753
 30
0.0
 10
108.5212683953448
 20
131.9072809959403
 30
0.0
 10
106.7346406980658
 20
130.0538184021569
 30
0.0
 10
104.8222669326213
 20
130.2336525051225
 30
0.0
 10
104.5408024457958
 20
130.2336525051225
 30
0.0
 10
104.1721769856939
 20
130.2336525051225
 30
0.0
 10
101.6465758193322
 20
130.6305277668397
 30
0.0
 10
101.6420971922469
 20
132.8388354296931
 30
0.0
  0
SPLINE
  5
3C6
330
3BD
100
AcDbEntity
  8
レイヤー 1
370
     0
100
AcDbSpline
210
0.0
220
0.0
230
1.0
 70
    11
 71
     3
 72
    32
 73
    28
 74
     0
 42
0.000000001
 43
0.0000000001
 40
0.0
 40
0.0
 40
0.0
 40
0.0
 40
1.0
 40
1.0
 40
1.0
 40
2.0
 40
2.0
 40
2.0
 40
3.0
 40
3.0
 40
3.0
 40
4.0
 40
4.0
 40
4.0
 40
5.0
 40
5.0
 40
5.0
 40
6.0
 40
6.0
 40
6.0
 40
7.0
 40
7.0
 40
7.0
 40
8.0
 40
8.0
 40
8.0
 40
9.0
 40
9.0
 40
9.0
 40
9.0
 10
106.2595617172429
 20
153.4105476718098
 30
0.0
 10
104.8222669326213
 20
151.5474388043041
 30
0.0
 10
103.7177685914188
 20
149.8758773721411
 30
0.0
 10
101.9232171692965
 20
144.6141795664062
 30
0.0
 10
100.2754269116635
 20
139.7999999594306
 30
0.0
 10
99.22777268346732
 20
136.3052927937542
 30
0.0
 10
99.06964269637689
 20
132.039572749846
 30
0.0
 10
98.94665270641765
 20
128.8673267343149
 30
0.0
 10
100.8807305877373
 20
127.8027915271048
 30
0.0
 10
103.7129454545577
 20
127.8027915271048
 30
0.0
 10
104.9352661390825
 20
127.8027915271048
 30
0.0
 10
108.0151835347002
 20
127.8827177950895
 30
0.0
 10
110.2045431598849
 20
130.5926316915021
 30
0.0
 10
111.7417457794874
 20
132.4984597712065
 30
0.0
 10
113.155269389579
 20
134.475256864725
 30
0.0
 10
115.0562743324223
 20
140.9489400617108
 30
0.0
 10
116.6361961642235
 20
146.3680788349845
 30
0.0
 10
117.7282921534974
 20
149.8639917848761
 30
0.0
 10
117.6480213757369
 20
151.8595646611754
 30
0.0
 10
117.6480213757369
 20
151.8595646611754
 30
0.0
 10
117.6480213757369
 20
151.8595646611754
 30
0.0
 10
117.6480213757369
 20
151.8595646611754
 30
0.0
 10
117.13229024137
 20
155.18150017429
 30
0.0
 10
114.7162431837115
 20
155.886194920681
 30
0.0
 10
113.3351034925446
 20
155.886194920681
 30
0.0
 10
111.9829026225447
 20
155.886194920681
 30
0.0
 10
108.3414342923792
 20
156.1251124501957
 30
0.0
 10
106.2595617172429
 20
153.4105476718098
 30
0.0
  0
HATCH
  5
3C7
330
3BD
100
AcDbEntity
  8
レイヤー 1
 62
   250
420
  2234388
100
AcDbHatch
 10
0.0
 20
0.0
 30
0.0
210
0.0
220
0.0
230
1.0
  2
SOLID
 70
     1
 71
     0
 91
        2
 92
        1
 93
        1
 72
     4
 94
        3
 73
     0
 74
     1
 95
       29
 96
       25
 40
0.0
 40
0.0
 40
0.0
 40
0.0
 40
1.0
 40
1.0
 40
1.0
 40
2.0
 40
2.0
 40
2.0
 40
3.0
 40
3.0
 40
3.0
 40
4.0
 40
4.0
 40
4.0
 40
5.0
 40
5.0
 40
5.0
 40
6.0
 40
6.0
 40
6.0
 40
7.0
 40
7.0
 40
7.0
 40
8.0
 40
8.0
 40
8.0
 40
8.0
 10
101.6420971922469
 20
132.8388354296931
 10
101.630039350094
 20
134.7164137077823
 10
102.2236296937908
 20
138.0598810818841
 10
103.7487744712405
 20
142.5378191476827
 10
105.819967243327
 20
148.5896501242061
 10
107.0602024361932
 20
150.8074318058939
 10
108.1522984254671
 20
151.8833358357054
 10
109.741177511439
 20
153.4532668840085
 10
111.8740375333931
 20
153.5290590346837
 10
112.5075910110823
 20
153.4532668840085
 10
113.4012493694975
 20
153.3490526768302
 10
114.6683563248758
 20
152.7580461564518
 10
114.7493161221879
 20
150.7838328862519
 10
114.8106388622796
 20
149.0909118479895
 10
114.3186789024427
 20
145.9191825971221
 10
112.6164561002338
 20
140.9489400617108
 10
110.6444821435766
 20
135.1746117095912
 10
109.4669477299053
 20
132.8960240524753
 10
108.5212683953448
 20
131.9072809959403
 10
106.7346406980658
 20
130.0538184021569
 10
104.8222669326213
 20
130.2336525051225
 10
104.5408024457958
 20
130.2336525051225
 10
104.1721769856939
 20
130.2336525051225
 10
101.6465758193322
 20
130.6305277668397
 10
101.6420971922469
 20
132.8388354296931
 97
        0
 92
        1
 93
        1
 72
     4
 94
        3
 73
     0
 74
     1
 95
       32
 96
       28
 40
0.0
 40
0.0
 40
0.0
 40
0.0
 40
1.0
 40
1.0
 40
1.0
 40
2.0
 40
2.0
 40
2.0
 40
3.0
 40
3.0
 40
3.0
 40
4.0
 40
4.0
 40
4.0
 40
5.0
 40
5.0
 40
5.0
 40
6.0
 40
6.0
 40
6.0
 40
7.0
 40
7.0
 40
7.0
 40
8.0
 40
8.0
 40
8.0
 40
9.0
 40
9.0
 40
9.0
 40
9.0
 10
106.2595617172429
 20
153.4105476718098
 10
104.8222669326213
 20
151.5474388043041
 10
103.7177685914188
 20
149.8758773721411
 10
101.9232171692965
 20
144.6141795664062
 10
100.2754269116635
 20
139.7999999594306
 10
99.22777268346732
 20
136.3052927937542
 10
99.06964269637689
 20
132.039572749846
 10
98.94665270641765
 20
128.8673267343149
 10
100.8807305877373
 20
127.8027915271048
 10
103.7129454545577
 20
127.8027915271048
 10
104.9352661390825
 20
127.8027915271048
 10
108.0151835347002
 20
127.8827177950895
 10
110.2045431598849
 20
130.5926316915021
 10
111.7417457794874
 20
132.4984597712065
 10
113.155269389579
 20
134.475256864725
 10
115.0562743324223
 20
140.9489400617108
 10
116.6361961642235
 20
146.3680788349845
 10
117.7282921534974
 20
149.8639917848761
 10
117.6480213757369
 20
151.8595646611754
 10
117.6480213757369
 20
151.8595646611754
 10
117.6480213757369
 20
151.8595646611754
 10
117.6480213757369
 20
151.8595646611754
 10
117.13229024137
 20
155.18150017429
 10
114.7162431837115
 20
155.886194920681
 10
113.3351034925446
 20
155.886194920681
 10
111.9829026225447
 20
155.886194920681
 10
108.3414342923792
 20
156.1251124501957
 10
106.2595617172429
 20
153.4105476718098
 97
        0
 75
     2
 76
     1
 98
        0
  0
ENDBLK
  5
3C8
330
3BD
100
AcDbEntity
  8
0
100
AcDbBlockEnd
  0
BLOCK
  5
11F1
330
11F0
100
AcDbEntity
  8
0
100
AcDbBlockBegin
  2
BLOCK_2
 70
     0
 10
0.0
 20
0.0
 30
0.0
  3
BLOCK_2
  1
BLOCK_2
  0
ENDBLK
  5
11F2
330
11F0
100
AcDbEntity
  8
0
100
AcDbBlockEnd
  0
BLOCK
  5
38B7
330
38B6
100
AcDbEntity
  8
0
100
AcDbBlockBegin
  2
mobile_latù
 70
     0
 10
0.0
 20
0.0
 30
0.0
  3
mobile_latù
  1
mobile_latù
  0
ENDBLK
  5
38B8
330
38B6
100
AcDbEntity
  8
0
100
AcDbBlockEnd
  0
BLOCK
  5
503A
330
5039
100
AcDbEntity
  8
0
100
AcDbBlockBegin
  2
.TD_SECTION_1
 70
     0
 10
225818116096.0
 20
0.0
 30
0.0
  3
.TD_SECTION_1
  1

  0
ENDBLK
  5
503B
330
5039
100
AcDbEntity
  8
0
100
AcDbBlockEnd
  0
BLOCK
  5
503E
330
503D
100
AcDbEntity
  8
0
100
AcDbBlockBegin
  2
.TD_SECTION_2
 70
     0
 10
225818181632.0
 20
0.0
 30
0.0
  3
.TD_SECTION_2
  1

  0
ENDBLK
  5
503F
330
503D
100
AcDbEntity
  8
0
100
AcDbBlockEnd
  0
BLOCK
  5
5A77
330
5A76
100
AcDbEntity
  8
0
100
AcDbBlockBegin
  2
*D10
 70
     1
 10
0.0
 20
0.0
 30
0.0
  3
*D10
  1

  0
LINE
  5
5A79
330
5A76
100
AcDbEntity
  8
Dim
 62
     0
370
    -2
100
AcDbLine
 10
1512.771861559886
 20
843.8129072979559
 30
0.0
 11
1459.419696966503
 21
843.8129072979559
 31
0.0
  0
LINE
  5
5A7A
330
5A76
100
AcDbEntity
  8
Dim
 62
     0
370
    -2
100
AcDbLine
 10
1512.771861559886
 20
1123.812911112697
 30
0.0
 11
1459.419696966503
 21
1123.812911112697
 31
0.0
  0
LINE
  5
5A7B
330
5A76
100
AcDbEntity
  8
Dim
 62
     0
370
    -2
100
AcDbLine
 10
1459.419696966503
 20
853.8122969463934
 30
0.0
 11
1459.419696966503
 21
1113.813521464259
 31
0.0
  0
INSERT
  5
5A7C
330
5A76
100
AcDbEntity
  8
Dim
 62
     0
370
    -2
100
AcDbBlockReference
  2
_DOT
 10
1459.419696966503
 20
843.8129072979559
 30
0.0
 41
9.999389648437498
 42
9.999389648437498
 43
9.999389648437498
 50
270.0
  0
INSERT
  5
5A7D
330
5A76
100
AcDbEntity
  8
Dim
 62
     0
370
    -2
100
AcDbBlockReference
  2
_DOT
 10
1459.419696966503
 20
1123.812911112697
 30
0.0
 41
9.999389648437498
 42
9.999389648437498
 43
9.999389648437498
 50
90.0
  0
MTEXT
  5
5A7E
330
5A76
100
AcDbEntity
  8
Dim
 62
     0
100
AcDbMText
 10
1437.203388372753
 20
983.8129092053264
 30
0.0
 40
24.4326171875
 41
0.0
 46
0.0
 71
     5
 72
     1
  1
\A1;280
  7
ＭＳ ゴシック
 11
0.0
 21
1.0
 31
0.0
 73
     1
 44
1.0
  0
POINT
  5
5A7F
330
5A76
100
AcDbEntity
  8
Defpoints
 62
     0
100
AcDbPoint
 10
1537.771861559886
 20
843.8129072979559
 30
0.0
  0
POINT
  5
5B0C
330
5A76
100
AcDbEntity
  8
Defpoints
 62
     0
100
AcDbPoint
 10
1537.771861559886
 20
1123.812911112697
 30
0.0
  0
POINT
  5
5B0D
330
5A76
100
AcDbEntity
  8
Defpoints
 62
     0
100
AcDbPoint
 10
1459.419696966503
 20
1123.812911112697
 30
0.0
  0
ENDBLK
  5
5A78
330
5A76
100
AcDbEntity
  8
0
100
AcDbBlockEnd
  0
BLOCK
  5
5A8B
330
5A8A
100
AcDbEntity
  8
0
100
AcDbBlockBegin
  2
*D11
 70
     1
 10
0.0
 20
0.0
 30
0.0
  3
*D11
  1

  0
LINE
  5
5A8D
330
5A8A
100
AcDbEntity
  8
Dim
 62
     0
370
    -2
100
AcDbLine
 10
356.3413503314068
 20
608.8110655031396
 30
0.0
 11
263.3384762297282
 21
608.8110655031396
 31
0.0
  0
LINE
  5
5A8E
330
5A8A
100
AcDbEntity
  8
Dim
 62
     0
370
    -2
100
AcDbLine
 10
356.3413503314073
 20
1358.814726204544
 30
0.0
 11
263.3384762297283
 21
1358.814726204544
 31
0.0
  0
LINE
  5
5A8F
330
5A8A
100
AcDbEntity
  8
Dim
 62
     0
370
    -2
100
AcDbLine
 10
263.3384762297282
 20
618.8104551515771
 30
0.0
 11
263.3384762297283
 21
1348.815336556107
 31
0.0
  0
INSERT
  5
5A90
330
5A8A
100
AcDbEntity
  8
Dim
 62
     0
370
    -2
100
AcDbBlockReference
  2
_DOT
 10
263.3384762297282
 20
608.8110655031396
 30
0.0
 41
9.999389648437498
 42
9.999389648437498
 43
9.999389648437498
 50
270.0
  0
INSERT
  5
5A91
330
5A8A
100
AcDbEntity
  8
Dim
 62
     0
370
    -2
100
AcDbBlockReference
  2
_DOT
 10
263.3384762297283
 20
1358.814726204544
 30
0.0
 41
9.999389648437498
 42
9.999389648437498
 43
9.999389648437498
 50
90.0
  0
MTEXT
  5
5A92
330
5A8A
100
AcDbEntity
  8
Dim
 62
     0
100
AcDbMText
 10
241.1221676359783
 20
983.8128958538418
 30
0.0
 40
24.4326171875
 41
0.0
 46
0.0
 71
     5
 72
     1
  1
\A1;750
  7
ＭＳ ゴシック
 11
7.579085521749051E-17
 21
1.0
 31
0.0
 73
     1
 44
1.0
  0
POINT
  5
5A93
330
5A8A
100
AcDbEntity
  8
Defpoints
 62
     0
100
AcDbPoint
 10
381.3413503314068
 20
608.8110655031396
 30
0.0
  0
POINT
  5
5B10
330
5A8A
100
AcDbEntity
  8
Defpoints
 62
     0
100
AcDbPoint
 10
381.3413503314073
 20
1358.814726204544
 30
0.0
  0
POINT
  5
5B11
330
5A8A
100
AcDbEntity
  8
Defpoints
 62
     0
100
AcDbPoint
 10
263.3384762297283
 20
1358.814726204544
 30
0.0
  0
ENDBLK
  5
5A8C
330
5A8A
100
AcDbEntity
  8
0
100
AcDbBlockEnd
  0
BLOCK
  5
5AA9
330
5AA8
100
AcDbEntity
  8
0
100
AcDbBlockBegin
  2
*D12
 70
     1
 10
0.0
 20
0.0
 30
0.0
  3
*D12
  1

  0
LINE
  5
5AAB
330
5AA8
100
AcDbEntity
  8
Dim
 62
     0
370
    -2
100
AcDbLine
 10
1745.531084966301
 20
2549.13022491148
 30
0.0
 11
1833.433233480216
 21
2549.13022491148
 31
0.0
  0
LINE
  5
5AAC
330
5AA8
100
AcDbEntity
  8
Dim
 62
     0
370
    -2
100
AcDbLine
 10
1745.67752137979
 20
2322.130220518155
 30
0.0
 11
1833.433233480216
 21
2322.130220518155
 31
0.0
  0
LINE
  5
5AAD
330
5AA8
100
AcDbEntity
  8
Dim
 62
     0
370
    -2
100
AcDbLine
 10
1833.433233480216
 20
2539.130835263042
 30
0.0
 11
1833.433233480216
 21
2332.129610166592
 31
0.0
  0
INSERT
  5
5AAE
330
5AA8
100
AcDbEntity
  8
Dim
 62
     0
370
    -2
100
AcDbBlockReference
  2
_DOT
 10
1833.433233480216
 20
2549.13022491148
 30
0.0
 41
9.999389648437498
 42
9.999389648437498
 43
9.999389648437498
 50
90.0
  0
INSERT
  5
5AAF
330
5AA8
100
AcDbEntity
  8
Dim
 62
     0
370
    -2
100
AcDbBlockReference
  2
_DOT
 10
1833.433233480216
 20
2322.130220518155
 30
0.0
 41
9.999389648437498
 42
9.999389648437498
 43
9.999389648437498
 50
270.0
  0
MTEXT
  5
5AB0
330
5AA8
100
AcDbEntity
  8
Dim
 62
     0
100
AcDbMText
 10
1811.216924886466
 20
2435.630222714818
 30
0.0
 40
24.4326171875
 41
0.0
 46
0.0
 71
     5
 72
     1
  1
\A1;230
  7
ＭＳ ゴシック
 11
0.0
 21
1.0
 31
0.0
 73
     1
 44
1.0
  0
POINT
  5
5AB1
330
5AA8
100
AcDbEntity
  8
Defpoints
 62
     0
100
AcDbPoint
 10
1720.531084966301
 20
2549.13022491148
 30
0.0
  0
POINT
  5
5B16
330
5AA8
100
AcDbEntity
  8
Defpoints
 62
     0
100
AcDbPoint
 10
1720.67752137979
 20
2322.130220518155
 30
0.0
  0
POINT
  5
5B17
330
5AA8
100
AcDbEntity
  8
Defpoints
 62
     0
100
AcDbPoint
 10
1833.433233480216
 20
2322.130220518155
 30
0.0
  0
ENDBLK
  5
5AAA
330
5AA8
100
AcDbEntity
  8
0
100
AcDbBlockEnd
  0
BLOCK
  5
5AB3
330
5AB2
100
AcDbEntity
  8
0
100
AcDbBlockBegin
  2
*D13
 70
     1
 10
0.0
 20
0.0
 30
0.0
  3
*D13
  1

  0
LINE
  5
5AB5
330
5AB2
100
AcDbEntity
  8
Dim
 62
     0
370
    -2
100
AcDbLine
 10
1550.701390983294
 20
574.0185755520147
 30
0.0
 11
1550.701390983294
 21
490.5291018239999
 31
0.0
  0
LINE
  5
5AB6
330
5AB2
100
AcDbEntity
  8
Dim
 62
     0
370
    -2
100
AcDbLine
 10
1590.701390983294
 20
574.0185755520147
 30
0.0
 11
1590.701390983294
 21
490.5291018239999
 31
0.0
  0
LINE
  5
5AB7
330
5AB2
100
AcDbEntity
  8
Dim
 62
     0
370
    -2
100
AcDbLine
 10
1560.700780631731
 20
490.5291018239999
 30
0.0
 11
1580.702001334856
 21
490.5291018239999
 31
0.0
  0
INSERT
  5
5AB8
330
5AB2
100
AcDbEntity
  8
Dim
 62
     0
370
    -2
100
AcDbBlockReference
  2
_DOT
 10
1550.701390983294
 20
490.5291018239999
 30
0.0
 41
9.999389648437498
 42
9.999389648437498
 43
9.999389648437498
 50
180.0
  0
INSERT
  5
5AB9
330
5AB2
100
AcDbEntity
  8
Dim
 62
     0
370
    -2
100
AcDbBlockReference
  2
_DOT
 10
1590.701390983294
 20
490.5291018239999
 30
0.0
 41
9.999389648437498
 42
9.999389648437498
 43
9.999389648437498
  0
MTEXT
  5
5ABA
330
5AB2
100
AcDbEntity
  8
Dim
 62
     0
100
AcDbMText
 10
1570.701390983294
 20
512.7454104177499
 30
0.0
 40
24.4326171875
 41
0.0
 46
0.0
 71
     5
 72
     1
  1
\A1;40
  7
ＭＳ ゴシック
 73
     1
 44
1.0
  0
POINT
  5
5ABB
330
5AB2
100
AcDbEntity
  8
Defpoints
 62
     0
100
AcDbPoint
 10
1550.701390983294
 20
599.0185755520147
 30
0.0
  0
POINT
  5
5B18
330
5AB2
100
AcDbEntity
  8
Defpoints
 62
     0
100
AcDbPoint
 10
1590.701390983294
 20
599.0185755520147
 30
0.0
  0
POINT
  5
5B19
330
5AB2
100
AcDbEntity
  8
Defpoints
 62
     0
100
AcDbPoint
 10
1590.701390983294
 20
490.5291018239999
 30
0.0
  0
ENDBLK
  5
5AB4
330
5AB2
100
AcDbEntity
  8
0
100
AcDbBlockEnd
  0
BLOCK
  5
5ABD
330
5ABC
100
AcDbEntity
  8
0
100
AcDbBlockBegin
  2
*D14
 70
     1
 10
0.0
 20
0.0
 30
0.0
  3
*D14
  1

  0
LINE
  5
5ABF
330
5ABC
100
AcDbEntity
  8
Dim
 62
     0
370
    -2
100
AcDbLine
 10
1636.601390983294
 20
787.2318438504749
 30
0.0
 11
1636.601390983294
 21
490.5291018239999
 31
0.0
  0
LINE
  5
5AC0
330
5ABC
100
AcDbEntity
  8
Dim
 62
     0
370
    -2
100
AcDbLine
 10
1766.60139593128
 20
666.3765513501644
 30
0.0
 11
1766.60139593128
 21
490.5291018239999
 31
0.0
  0
LINE
  5
5AC1
330
5ABC
100
AcDbEntity
  8
Dim
 62
     0
370
    -2
100
AcDbLine
 10
1646.600780631732
 20
490.5291018239999
 30
0.0
 11
1756.602006282842
 21
490.5291018239999
 31
0.0
  0
INSERT
  5
5AC2
330
5ABC
100
AcDbEntity
  8
Dim
 62
     0
370
    -2
100
AcDbBlockReference
  2
_DOT
 10
1636.601390983294
 20
490.5291018239999
 30
0.0
 41
9.999389648437498
 42
9.999389648437498
 43
9.999389648437498
 50
180.0
  0
INSERT
  5
5AC3
330
5ABC
100
AcDbEntity
  8
Dim
 62
     0
370
    -2
100
AcDbBlockReference
  2
_DOT
 10
1766.60139593128
 20
490.5291018239999
 30
0.0
 41
9.999389648437498
 42
9.999389648437498
 43
9.999389648437498
  0
MTEXT
  5
5AC4
330
5ABC
100
AcDbEntity
  8
Dim
 62
     0
100
AcDbMText
 10
1701.601393457287
 20
512.7454104177499
 30
0.0
 40
24.4326171875
 41
0.0
 46
0.0
 71
     5
 72
     1
  1
\A1;130
  7
ＭＳ ゴシック
 73
     1
 44
1.0
  0
POINT
  5
5AC5
330
5ABC
100
AcDbEntity
  8
Defpoints
 62
     0
100
AcDbPoint
 10
1636.601390983294
 20
812.2318438504749
 30
0.0
  0
POINT
  5
5B1C
330
5ABC
100
AcDbEntity
  8
Defpoints
 62
     0
100
AcDbPoint
 10
1766.60139593128
 20
691.3765513501644
 30
0.0
  0
POINT
  5
5B1D
330
5ABC
100
AcDbEntity
  8
Defpoints
 62
     0
100
AcDbPoint
 10
1766.60139593128
 20
490.5291018239999
 30
0.0
  0
ENDBLK
  5
5ABE
330
5ABC
100
AcDbEntity
  8
0
100
AcDbBlockEnd
  0
BLOCK
  5
5AC7
330
5AC6
100
AcDbEntity
  8
0
100
AcDbBlockBegin
  2
*D15
 70
     1
 10
0.0
 20
0.0
 30
0.0
  3
*D15
  1

  0
LINE
  5
5AC9
330
5AC6
100
AcDbEntity
  8
Dim
 62
     0
370
    -2
100
AcDbLine
 10
1550.701377517999
 20
2013.53071515579
 30
0.0
 11
1550.701377517999
 21
1959.087466629262
 31
0.0
  0
LINE
  5
5ACA
330
5AC6
100
AcDbEntity
  8
Dim
 62
     0
370
    -2
100
AcDbLine
 10
1635.701378814224
 20
2013.53071515579
 30
0.0
 11
1635.701378814224
 21
1959.087466629262
 31
0.0
  0
LINE
  5
5ACB
330
5AC6
100
AcDbEntity
  8
Dim
 62
     0
370
    -2
100
AcDbLine
 10
1560.700767166436
 20
1959.087466629262
 30
0.0
 11
1625.701989165787
 21
1959.087466629262
 31
0.0
  0
INSERT
  5
5ACC
330
5AC6
100
AcDbEntity
  8
Dim
 62
     0
370
    -2
100
AcDbBlockReference
  2
_DOT
 10
1550.701377517999
 20
1959.087466629262
 30
0.0
 41
9.999389648437498
 42
9.999389648437498
 43
9.999389648437498
 50
180.0
  0
INSERT
  5
5ACD
330
5AC6
100
AcDbEntity
  8
Dim
 62
     0
370
    -2
100
AcDbBlockReference
  2
_DOT
 10
1635.701378814224
 20
1959.087466629262
 30
0.0
 41
9.999389648437498
 42
9.999389648437498
 43
9.999389648437498
  0
MTEXT
  5
5ACE
330
5AC6
100
AcDbEntity
  8
Dim
 62
     0
100
AcDbMText
 10
1594.797730463837
 20
1981.303775223012
 30
0.0
 40
24.4326171875
 41
0.0
 46
0.0
 71
     5
 72
     1
  1
\A1;85
  7
ＭＳ ゴシック
 73
     1
 44
1.0
  0
POINT
  5
5ACF
330
5AC6
100
AcDbEntity
  8
Defpoints
 62
     0
100
AcDbPoint
 10
1550.701377517999
 20
2038.53071515579
 30
0.0
  0
POINT
  5
5B1E
330
5AC6
100
AcDbEntity
  8
Defpoints
 62
     0
100
AcDbPoint
 10
1635.701378814224
 20
2038.53071515579
 30
0.0
  0
POINT
  5
5B1F
330
5AC6
100
AcDbEntity
  8
Defpoints
 62
     0
100
AcDbPoint
 10
1635.701378814224
 20
1959.087466629262
 30
0.0
  0
ENDBLK
  5
5AC8
330
5AC6
100
AcDbEntity
  8
0
100
AcDbBlockEnd
  0
BLOCK
  5
5AD1
330
5AD0
100
AcDbEntity
  8
0
100
AcDbBlockBegin
  2
*D16
 70
     1
 10
0.0
 20
0.0
 30
0.0
  3
*D16
  1

  0
LINE
  5
5AD3
330
5AD0
100
AcDbEntity
  8
Dim
 62
     0
370
    -2
100
AcDbLine
 10
1635.701378814224
 20
2013.53071515579
 30
0.0
 11
1635.701378814224
 21
1959.087466629262
 31
0.0
  0
LINE
  5
5AD4
330
5AD0
100
AcDbEntity
  8
Dim
 62
     0
370
    -2
100
AcDbLine
 10
1720.701374433778
 20
2106.070464027438
 30
0.0
 11
1720.701374433778
 21
1959.087466629262
 31
0.0
  0
LINE
  5
5AD5
330
5AD0
100
AcDbEntity
  8
Dim
 62
     0
370
    -2
100
AcDbLine
 10
1645.700768462662
 20
1959.087466629262
 30
0.0
 11
1710.70198478534
 21
1959.087466629262
 31
0.0
  0
INSERT
  5
5AD6
330
5AD0
100
AcDbEntity
  8
Dim
 62
     0
370
    -2
100
AcDbBlockReference
  2
_DOT
 10
1635.701378814224
 20
1959.087466629262
 30
0.0
 41
9.999389648437498
 42
9.999389648437498
 43
9.999389648437498
 50
180.0
  0
INSERT
  5
5AD7
330
5AD0
100
AcDbEntity
  8
Dim
 62
     0
370
    -2
100
AcDbBlockReference
  2
_DOT
 10
1720.701374433778
 20
1959.087466629262
 30
0.0
 41
9.999389648437498
 42
9.999389648437498
 43
9.999389648437498
  0
MTEXT
  5
5AD8
330
5AD0
100
AcDbEntity
  8
Dim
 62
     0
100
AcDbMText
 10
1678.201376624001
 20
1981.303775223012
 30
0.0
 40
24.4326171875
 41
0.0
 46
0.0
 71
     5
 72
     1
  1
\A1;85
  7
ＭＳ ゴシック
 73
     1
 44
1.0
  0
POINT
  5
5AD9
330
5AD0
100
AcDbEntity
  8
Defpoints
 62
     0
100
AcDbPoint
 10
1635.701378814224
 20
2038.53071515579
 30
0.0
  0
POINT
  5
5B20
330
5AD0
100
AcDbEntity
  8
Defpoints
 62
     0
100
AcDbPoint
 10
1720.701374433778
 20
2131.070464027438
 30
0.0
  0
POINT
  5
5B21
330
5AD0
100
AcDbEntity
  8
Defpoints
 62
     0
100
AcDbPoint
 10
1720.701374433778
 20
1959.087466629262
 30
0.0
  0
ENDBLK
  5
5AD2
330
5AD0
100
AcDbEntity
  8
0
100
AcDbBlockEnd
  0
BLOCK
  5
5AE5
330
5AE4
100
AcDbEntity
  8
0
100
AcDbBlockBegin
  2
*D17
 70
     1
 10
0.0
 20
0.0
 30
0.0
  3
*D17
  1

  0
LINE
  5
5AE7
330
5AE4
100
AcDbEntity
  8
Dim
 62
     0
370
    -2
100
AcDbLine
 10
390.6991698384068
 20
579.2710258112711
 30
0.0
 11
390.6991698384068
 21
496.6396658000816
 31
0.0
  0
LINE
  5
5AE8
330
5AE4
100
AcDbEntity
  8
Dim
 62
     0
370
    -2
100
AcDbLine
 10
520.6991697169437
 20
579.2710258112711
 30
0.0
 11
520.6991697169437
 21
496.6396658000817
 31
0.0
  0
LINE
  5
5AE9
330
5AE4
100
AcDbEntity
  8
Dim
 62
     0
370
    -2
100
AcDbLine
 10
400.6985594868443
 20
496.6396658000816
 30
0.0
 11
510.6997800685062
 21
496.6396658000817
 31
0.0
  0
INSERT
  5
5AEA
330
5AE4
100
AcDbEntity
  8
Dim
 62
     0
370
    -2
100
AcDbBlockReference
  2
_DOT
 10
390.6991698384068
 20
496.6396658000816
 30
0.0
 41
9.999389648437498
 42
9.999389648437498
 43
9.999389648437498
 50
180.0000000000001
  0
INSERT
  5
5AEB
330
5AE4
100
AcDbEntity
  8
Dim
 62
     0
370
    -2
100
AcDbBlockReference
  2
_DOT
 10
520.6991697169437
 20
496.6396658000817
 30
0.0
 41
9.999389648437498
 42
9.999389648437498
 43
9.999389648437498
 50
0.0000000000000752
  0
MTEXT
  5
5AEC
330
5AE4
100
AcDbEntity
  8
Dim
 62
     0
100
AcDbMText
 10
455.6991697776752
 20
518.8559743938316
 30
0.0
 40
24.4326171875
 41
0.0
 46
0.0
 71
     5
 72
     1
  1
\A1;130
  7
ＭＳ ゴシック
 73
     1
 44
1.0
  0
POINT
  5
5AED
330
5AE4
100
AcDbEntity
  8
Defpoints
 62
     0
100
AcDbPoint
 10
390.6991698384068
 20
604.2710258112711
 30
0.0
  0
POINT
  5
5B24
330
5AE4
100
AcDbEntity
  8
Defpoints
 62
     0
100
AcDbPoint
 10
520.6991697169437
 20
604.2710258112711
 30
0.0
  0
POINT
  5
5B25
330
5AE4
100
AcDbEntity
  8
Defpoints
 62
     0
100
AcDbPoint
 10
520.6991697169437
 20
496.6396658000817
 30
0.0
  0
ENDBLK
  5
5AE6
330
5AE4
100
AcDbEntity
  8
0
100
AcDbBlockEnd
  0
BLOCK
  5
5AF9
330
5AF8
100
AcDbEntity
  8
0
100
AcDbBlockBegin
  2
*D18
 70
     1
 10
0.0
 20
0.0
 30
0.0
  3
*D18
  1

  0
LINE
  5
5AFB
330
5AF8
100
AcDbEntity
  8
Dim
 62
     0
370
    -2
100
AcDbLine
 10
415.2848048132719
 20
883.8128958538491
 30
0.0
 11
330.872918053436
 21
883.8128958538491
 31
0.0
  0
LINE
  5
5AFC
330
5AF8
100
AcDbEntity
  8
Dim
 62
     0
370
    -2
100
AcDbLine
 10
415.2848048132719
 20
983.8128958538491
 30
0.0
 11
330.872918053436
 21
983.8128958538491
 31
0.0
  0
LINE
  5
5AFD
330
5AF8
100
AcDbEntity
  8
Dim
 62
     0
370
    -2
100
AcDbLine
 10
330.872918053436
 20
893.8122855022866
 30
0.0
 11
330.872918053436
 21
973.8135062054116
 31
0.0
  0
INSERT
  5
5AFE
330
5AF8
100
AcDbEntity
  8
Dim
 62
     0
370
    -2
100
AcDbBlockReference
  2
_DOT
 10
330.872918053436
 20
883.8128958538491
 30
0.0
 41
9.999389648437498
 42
9.999389648437498
 43
9.999389648437498
 50
270.0
  0
INSERT
  5
5AFF
330
5AF8
100
AcDbEntity
  8
Dim
 62
     0
370
    -2
100
AcDbBlockReference
  2
_DOT
 10
330.872918053436
 20
983.8128958538491
 30
0.0
 41
9.999389648437498
 42
9.999389648437498
 43
9.999389648437498
 50
90.0
  0
MTEXT
  5
5B00
330
5AF8
100
AcDbEntity
  8
Dim
 62
     0
100
AcDbMText
 10
308.656609459686
 20
933.8128958538491
 30
0.0
 40
24.4326171875
 41
0.0
 46
0.0
 71
     5
 72
     1
  1
\A1;100
  7
ＭＳ ゴシック
 11
0.0
 21
1.0
 31
0.0
 73
     1
 44
1.0
  0
POINT
  5
5B01
330
5AF8
100
AcDbEntity
  8
Defpoints
 62
     0
100
AcDbPoint
 10
440.2848048132719
 20
883.8128958538491
 30
0.0
  0
POINT
  5
5B28
330
5AF8
100
AcDbEntity
  8
Defpoints
 62
     0
100
AcDbPoint
 10
440.2848048132719
 20
983.8128958538491
 30
0.0
  0
POINT
  5
5B29
330
5AF8
100
AcDbEntity
  8
Defpoints
 62
     0
100
AcDbPoint
 10
330.872918053436
 20
983.8128958538491
 30
0.0
  0
ENDBLK
  5
5AFA
330
5AF8
100
AcDbEntity
  8
0
100
AcDbBlockEnd
  0
BLOCK
  5
5B03
330
5B02
100
AcDbEntity
  8
0
100
AcDbBlockBegin
  2
*D19
 70
     1
 10
0.0
 20
0.0
 30
0.0
  3
*D19
  1

  0
LINE
  5
5B05
330
5B02
100
AcDbEntity
  8
Dim
 62
     0
370
    -2
100
AcDbLine
 10
415.2848048132719
 20
983.8128958538491
 30
0.0
 11
330.8729180534365
 21
983.8128958538491
 31
0.0
  0
LINE
  5
5B06
330
5B02
100
AcDbEntity
  8
Dim
 62
     0
370
    -2
100
AcDbLine
 10
415.2848048132723
 20
1083.812895853849
 30
0.0
 11
330.8729180534365
 21
1083.812895853849
 31
0.0
  0
LINE
  5
5B07
330
5B02
100
AcDbEntity
  8
Dim
 62
     0
370
    -2
100
AcDbLine
 10
330.8729180534365
 20
993.8122855022866
 30
0.0
 11
330.8729180534365
 21
1073.813506205412
 31
0.0
  0
INSERT
  5
5B08
330
5B02
100
AcDbEntity
  8
Dim
 62
     0
370
    -2
100
AcDbBlockReference
  2
_DOT
 10
330.8729180534365
 20
983.8128958538491
 30
0.0
 41
9.999389648437498
 42
9.999389648437498
 43
9.999389648437498
 50
270.0
  0
INSERT
  5
5B09
330
5B02
100
AcDbEntity
  8
Dim
 62
     0
370
    -2
100
AcDbBlockReference
  2
_DOT
 10
330.8729180534365
 20
1083.812895853849
 30
0.0
 41
9.999389648437498
 42
9.999389648437498
 43
9.999389648437498
 50
90.0
  0
MTEXT
  5
5B0A
330
5B02
100
AcDbEntity
  8
Dim
 62
     0
100
AcDbMText
 10
308.6566094596865
 20
1033.812895853849
 30
0.0
 40
24.4326171875
 41
0.0
 46
0.0
 71
     5
 72
     1
  1
\A1;100
  7
ＭＳ ゴシック
 11
0.0
 21
1.0
 31
0.0
 73
     1
 44
1.0
  0
POINT
  5
5B0B
330
5B02
100
AcDbEntity
  8
Defpoints
 62
     0
100
AcDbPoint
 10
440.2848048132719
 20
983.8128958538491
 30
0.0
  0
POINT
  5
5B2A
330
5B02
100
AcDbEntity
  8
Defpoints
 62
     0
100
AcDbPoint
 10
440.2848048132723
 20
1083.812895853849
 30
0.0
  0
POINT
  5
5B2B
330
5B02
100
AcDbEntity
  8
Defpoints
 62
     0
100
AcDbPoint
 10
330.8729180534365
 20
1083.812895853849
 30
0.0
  0
ENDBLK
  5
5B04
330
5B02
100
AcDbEntity
  8
0
100
AcDbBlockEnd
  0
BLOCK
  5
5B30
330
5B2F
100
AcDbEntity
  8
0
100
AcDbBlockBegin
  2
*D20
 70
     1
 10
0.0
 20
0.0
 30
0.0
  3
*D20
  1

  0
LINE
  5
5B32
330
5B2F
100
AcDbEntity
  8
Dim
 62
     0
370
    -2
100
AcDbLine
 10
1549.57124264541
 20
1385.342486585965
 30
0.0
 11
1549.57124264541
 21
1475.374973595827
 31
0.0
  0
LINE
  5
5B33
330
5B2F
100
AcDbEntity
  8
Dim
 62
     0
370
    -2
100
AcDbLine
 10
1719.57124178219
 20
1287.282005337222
 30
0.0
 11
1719.57124178219
 21
1475.374973595827
 31
0.0
  0
LINE
  5
5B34
330
5B2F
100
AcDbEntity
  8
Dim
 62
     0
370
    -2
100
AcDbLine
 10
1559.570632293847
 20
1475.374973595827
 30
0.0
 11
1709.571852133753
 21
1475.374973595827
 31
0.0
  0
INSERT
  5
5B35
330
5B2F
100
AcDbEntity
  8
Dim
 62
     0
370
    -2
100
AcDbBlockReference
  2
_DOT
 10
1549.57124264541
 20
1475.374973595827
 30
0.0
 41
9.999389648437498
 42
9.999389648437498
 43
9.999389648437498
 50
180.0
  0
INSERT
  5
5B36
330
5B2F
100
AcDbEntity
  8
Dim
 62
     0
370
    -2
100
AcDbBlockReference
  2
_DOT
 10
1719.57124178219
 20
1475.374973595827
 30
0.0
 41
9.999389648437498
 42
9.999389648437498
 43
9.999389648437498
  0
MTEXT
  5
5B37
330
5B2F
100
AcDbEntity
  8
Dim
 62
     0
100
AcDbMText
 10
1634.5712422138
 20
1497.591282189577
 30
0.0
 40
24.4326171875
 41
0.0
 46
0.0
 71
     5
 72
     1
  1
\A1;170
  7
ＭＳ ゴシック
 73
     1
 44
1.0
  0
POINT
  5
5B38
330
5B2F
100
AcDbEntity
  8
Defpoints
 62
     0
100
AcDbPoint
 10
1549.57124264541
 20
1360.342486585965
 30
0.0
  0
POINT
  5
5B39
330
5B2F
100
AcDbEntity
  8
Defpoints
 62
     0
100
AcDbPoint
 10
1719.57124178219
 20
1262.282005337222
 30
0.0
  0
POINT
  5
5B3A
330
5B2F
100
AcDbEntity
  8
Defpoints
 62
     0
100
AcDbPoint
 10
1719.57124178219
 20
1475.374973595827
 30
0.0
  0
ENDBLK
  5
5B31
330
5B2F
100
AcDbEntity
  8
0
100
AcDbBlockEnd
  0
BLOCK
  5
5B4C
330
5B4B
100
AcDbEntity
  8
0
100
AcDbBlockBegin
  2
*D21
 70
     1
 10
0.0
 20
0.0
 30
0.0
  3
*D21
  1

  0
LINE
  5
5B4E
330
5B4B
100
AcDbEntity
  8
Dim
 62
     0
370
    -2
100
AcDbLine
 10
390.6991698384072
 20
1397.691808403423
 30
0.0
 11
390.6991698384072
 21
1436.960261637616
 31
0.0
  0
LINE
  5
5B4F
330
5B4B
100
AcDbEntity
  8
Dim
 62
     0
370
    -2
100
AcDbLine
 10
890.6991698384068
 20
1397.691808403423
 30
0.0
 11
890.6991698384068
 21
1436.960261637616
 31
0.0
  0
LINE
  5
5B50
330
5B4B
100
AcDbEntity
  8
Dim
 62
     0
370
    -2
100
AcDbLine
 10
400.6985594868447
 20
1436.960261637616
 30
0.0
 11
880.6997801899693
 21
1436.960261637616
 31
0.0
  0
INSERT
  5
5B51
330
5B4B
100
AcDbEntity
  8
Dim
 62
     0
370
    -2
100
AcDbBlockReference
  2
_DOT
 10
390.6991698384072
 20
1436.960261637616
 30
0.0
 41
9.999389648437498
 42
9.999389648437498
 43
9.999389648437498
 50
180.0
  0
INSERT
  5
5B52
330
5B4B
100
AcDbEntity
  8
Dim
 62
     0
370
    -2
100
AcDbBlockReference
  2
_DOT
 10
890.6991698384068
 20
1436.960261637616
 30
0.0
 41
9.999389648437498
 42
9.999389648437498
 43
9.999389648437498
  0
MTEXT
  5
5B53
330
5B4B
100
AcDbEntity
  8
Dim
 62
     0
100
AcDbMText
 10
640.6991698384072
 20
1459.176570231366
 30
0.0
 40
24.4326171875
 41
0.0
 46
0.0
 71
     5
 72
     1
  1
\A1;500
  7
ＭＳ ゴシック
 73
     1
 44
1.0
  0
POINT
  5
5B54
330
5B4B
100
AcDbEntity
  8
Defpoints
 62
     0
100
AcDbPoint
 10
390.6991698384072
 20
1372.691808403423
 30
0.0
  0
POINT
  5
5B55
330
5B4B
100
AcDbEntity
  8
Defpoints
 62
     0
100
AcDbPoint
 10
890.6991698384068
 20
1372.691808403423
 30
0.0
  0
POINT
  5
5B56
330
5B4B
100
AcDbEntity
  8
Defpoints
 62
     0
100
AcDbPoint
 10
890.6991698384068
 20
1436.960261637616
 30
0.0
  0
ENDBLK
  5
5B4D
330
5B4B
100
AcDbEntity
  8
0
100
AcDbBlockEnd
  0
BLOCK
  5
5C2E
330
5C2D
100
AcDbEntity
  8
0
100
AcDbBlockBegin
  2
*D22
 70
     1
 10
0.0
 20
0.0
 30
0.0
  3
*D22
  1

  0
LINE
  5
5C30
330
5C2D
100
AcDbEntity
  8
Dim
 62
     0
370
    -2
100
AcDbLine
 10
875.6107411823859
 20
1887.786691690341
 30
0.0
 11
1066.9191072
 21
1887.786691690341
 31
0.0
  0
LINE
  5
5C31
330
5C2D
100
AcDbEntity
  8
Dim
 62
     0
370
    -2
100
AcDbLine
 10
876.0153470478631
 20
2557.786691690341
 30
0.0
 11
1066.9191072
 21
2557.786691690341
 31
0.0
  0
LINE
  5
5C32
330
5C2D
100
AcDbEntity
  8
Dim
 62
     0
370
    -2
100
AcDbLine
 10
1066.9191072
 20
1897.786081338778
 30
0.0
 11
1066.9191072
 21
2547.787302041903
 31
0.0
  0
INSERT
  5
5C33
330
5C2D
100
AcDbEntity
  8
Dim
 62
     0
370
    -2
100
AcDbBlockReference
  2
_DOT
 10
1066.9191072
 20
1887.786691690341
 30
0.0
 41
9.999389648437498
 42
9.999389648437498
 43
9.999389648437498
 50
270.0
  0
INSERT
  5
5C34
330
5C2D
100
AcDbEntity
  8
Dim
 62
     0
370
    -2
100
AcDbBlockReference
  2
_DOT
 10
1066.9191072
 20
2557.786691690341
 30
0.0
 41
9.999389648437498
 42
9.999389648437498
 43
9.999389648437498
 50
90.0
  0
MTEXT
  5
5C35
330
5C2D
100
AcDbEntity
  8
Dim
 62
     0
100
AcDbMText
 10
1044.70279860625
 20
2222.786691690341
 30
0.0
 40
24.4326171875
 41
0.0
 46
0.0
 71
     5
 72
     1
  1
\A1;670
  7
ＭＳ ゴシック
 11
0.0
 21
1.0
 31
0.0
 73
     1
 44
1.0
  0
POINT
  5
5C36
330
5C2D
100
AcDbEntity
  8
Defpoints
 62
     0
100
AcDbPoint
 10
850.6107411823859
 20
1887.786691690341
 30
0.0
  0
POINT
  5
5C37
330
5C2D
100
AcDbEntity
  8
Defpoints
 62
     0
100
AcDbPoint
 10
851.0153470478631
 20
2557.786691690341
 30
0.0
  0
POINT
  5
5C38
330
5C2D
100
AcDbEntity
  8
Defpoints
 62
     0
100
AcDbPoint
 10
1066.9191072
 20
2557.786691690341
 30
0.0
  0
ENDBLK
  5
5C2F
330
5C2D
100
AcDbEntity
  8
0
100
AcDbBlockEnd
  0
BLOCK
  5
5C48
330
5C47
100
AcDbEntity
  8
0
100
AcDbBlockBegin
  2
*D23
 70
     1
 10
0.0
 20
0.0
 30
0.0
  3
*D23
  1

  0
LINE
  5
5C4A
330
5C47
100
AcDbEntity
  8
Dim
 62
     0
370
    -2
100
AcDbLine
 10
390.6991698384081
 20
2715.7859037893
 30
0.0
 11
390.6991698384081
 21
2756.767001472
 31
0.0
  0
LINE
  5
5C4B
330
5C47
100
AcDbEntity
  8
Dim
 62
     0
370
    -2
100
AcDbLine
 10
850.6991698384081
 20
2595.265390650555
 30
0.0
 11
850.6991698384081
 21
2756.767001472
 31
0.0
  0
LINE
  5
5C4C
330
5C47
100
AcDbEntity
  8
Dim
 62
     0
370
    -2
100
AcDbLine
 10
400.6985594868456
 20
2756.767001472
 30
0.0
 11
840.6997801899706
 21
2756.767001472
 31
0.0
  0
INSERT
  5
5C4D
330
5C47
100
AcDbEntity
  8
Dim
 62
     0
370
    -2
100
AcDbBlockReference
  2
_DOT
 10
390.6991698384081
 20
2756.767001472
 30
0.0
 41
9.999389648437498
 42
9.999389648437498
 43
9.999389648437498
 50
180.0
  0
INSERT
  5
5C4E
330
5C47
100
AcDbEntity
  8
Dim
 62
     0
370
    -2
100
AcDbBlockReference
  2
_DOT
 10
850.6991698384081
 20
2756.767001472
 30
0.0
 41
9.999389648437498
 42
9.999389648437498
 43
9.999389648437498
  0
MTEXT
  5
5C4F
330
5C47
100
AcDbEntity
  8
Dim
 62
     0
100
AcDbMText
 10
620.699169838408
 20
2778.98331006575
 30
0.0
 40
24.4326171875
 41
0.0
 46
0.0
 71
     5
 72
     1
  1
\A1;460
  7
ＭＳ ゴシック
 73
     1
 44
1.0
  0
POINT
  5
5C50
330
5C47
100
AcDbEntity
  8
Defpoints
 62
     0
100
AcDbPoint
 10
390.6991698384081
 20
2690.7859037893
 30
0.0
  0
POINT
  5
5C51
330
5C47
100
AcDbEntity
  8
Defpoints
 62
     0
100
AcDbPoint
 10
850.6991698384081
 20
2570.265390650555
 30
0.0
  0
POINT
  5
5C52
330
5C47
100
AcDbEntity
  8
Defpoints
 62
     0
100
AcDbPoint
 10
850.6991698384081
 20
2756.767001472
 30
0.0
  0
ENDBLK
  5
5C49
330
5C47
100
AcDbEntity
  8
0
100
AcDbBlockEnd
  0
BLOCK
  5
5C63
330
5C62
100
AcDbEntity
  8
0
100
AcDbBlockBegin
  2
*D24
 70
     1
 10
0.0
 20
0.0
 30
0.0
  3
*D24
  1

  0
LINE
  5
5C65
330
5C62
100
AcDbEntity
  8
Dim
 62
     0
370
    -2
100
AcDbLine
 10
932.8992025803755
 20
624.5346440988851
 30
0.0
 11
990.7262760067983
 21
624.5346440988851
 31
0.0
  0
LINE
  5
5C66
330
5C62
100
AcDbEntity
  8
Dim
 62
     0
370
    -2
100
AcDbLine
 10
932.8992025803745
 20
1344.534644098885
 30
0.0
 11
990.7262760067983
 21
1344.534644098885
 31
0.0
  0
LINE
  5
5C67
330
5C62
100
AcDbEntity
  8
Dim
 62
     0
370
    -2
100
AcDbLine
 10
990.7262760067983
 20
634.5340337473226
 30
0.0
 11
990.7262760067983
 21
1334.535254450448
 31
0.0
  0
INSERT
  5
5C68
330
5C62
100
AcDbEntity
  8
Dim
 62
     0
370
    -2
100
AcDbBlockReference
  2
_DOT
 10
990.7262760067983
 20
624.5346440988851
 30
0.0
 41
9.999389648437498
 42
9.999389648437498
 43
9.999389648437498
 50
270.0
  0
INSERT
  5
5C69
330
5C62
100
AcDbEntity
  8
Dim
 62
     0
370
    -2
100
AcDbBlockReference
  2
_DOT
 10
990.7262760067983
 20
1344.534644098885
 30
0.0
 41
9.999389648437498
 42
9.999389648437498
 43
9.999389648437498
 50
90.0
  0
MTEXT
  5
5C6A
330
5C62
100
AcDbEntity
  8
Dim
 62
     0
100
AcDbMText
 10
968.5099674130483
 20
984.5346440988851
 30
0.0
 40
24.4326171875
 41
0.0
 46
0.0
 71
     5
 72
     1
  1
\A1;720
  7
ＭＳ ゴシック
 11
0.0
 21
1.0
 31
0.0
 73
     1
 44
1.0
  0
POINT
  5
5C6B
330
5C62
100
AcDbEntity
  8
Defpoints
 62
     0
100
AcDbPoint
 10
907.8992025803755
 20
624.5346440988851
 30
0.0
  0
POINT
  5
5C6C
330
5C62
100
AcDbEntity
  8
Defpoints
 62
     0
100
AcDbPoint
 10
907.8992025803745
 20
1344.534644098885
 30
0.0
  0
POINT
  5
5C6D
330
5C62
100
AcDbEntity
  8
Defpoints
 62
     0
100
AcDbPoint
 10
990.7262760067983
 20
1344.534644098885
 30
0.0
  0
ENDBLK
  5
5C64
330
5C62
100
AcDbEntity
  8
0
100
AcDbBlockEnd
  0
BLOCK
  5
5C73
330
5C72
100
AcDbEntity
  8
0
100
AcDbBlockBegin
  2
*D25
 70
     1
 10
0.0
 20
0.0
 30
0.0
  3
*D25
  1

  0
LINE
  5
5C75
330
5C72
100
AcDbEntity
  8
Dim
 62
     0
370
    -2
100
AcDbLine
 10
520.6991697169437
 20
579.2710258112711
 30
0.0
 11
520.6991697169437
 21
496.6396658000818
 31
0.0
  0
LINE
  5
5C76
330
5C72
100
AcDbEntity
  8
Dim
 62
     0
370
    -2
100
AcDbLine
 10
875.6991697169437
 20
579.2710258112711
 30
0.0
 11
875.6991697169437
 21
496.6396658000817
 31
0.0
  0
LINE
  5
5C77
330
5C72
100
AcDbEntity
  8
Dim
 62
     0
370
    -2
100
AcDbLine
 10
530.6985593653812
 20
496.6396658000818
 30
0.0
 11
865.6997800685062
 21
496.6396658000817
 31
0.0
  0
INSERT
  5
5C78
330
5C72
100
AcDbEntity
  8
Dim
 62
     0
370
    -2
100
AcDbBlockReference
  2
_DOT
 10
520.6991697169437
 20
496.6396658000818
 30
0.0
 41
9.999389648437498
 42
9.999389648437498
 43
9.999389648437498
 50
180.0
  0
INSERT
  5
5C79
330
5C72
100
AcDbEntity
  8
Dim
 62
     0
370
    -2
100
AcDbBlockReference
  2
_DOT
 10
875.6991697169437
 20
496.6396658000817
 30
0.0
 41
9.999389648437498
 42
9.999389648437498
 43
9.999389648437498
 50
360.0
  0
MTEXT
  5
5C7A
330
5C72
100
AcDbEntity
  8
Dim
 62
     0
100
AcDbMText
 10
698.1991697169437
 20
518.8559743938317
 30
0.0
 40
24.4326171875
 41
0.0
 46
0.0
 71
     5
 72
     1
  1
\A1;355
  7
ＭＳ ゴシック
 73
     1
 44
1.0
  0
POINT
  5
5C7B
330
5C72
100
AcDbEntity
  8
Defpoints
 62
     0
100
AcDbPoint
 10
520.6991697169437
 20
604.2710258112711
 30
0.0
  0
POINT
  5
5C7C
330
5C72
100
AcDbEntity
  8
Defpoints
 62
     0
100
AcDbPoint
 10
875.6991697169437
 20
604.2710258112711
 30
0.0
  0
POINT
  5
5C7D
330
5C72
100
AcDbEntity
  8
Defpoints
 62
     0
100
AcDbPoint
 10
875.6991697169437
 20
496.6396658000817
 30
0.0
  0
ENDBLK
  5
5C74
330
5C72
100
AcDbEntity
  8
0
100
AcDbBlockEnd
  0
BLOCK
  5
5C84
330
5C83
100
AcDbEntity
  8
0
100
AcDbBlockBegin
  2
*D26
 70
     1
 10
0.0
 20
0.0
 30
0.0
  3
*D26
  1

  0
LINE
  5
5C86
330
5C83
100
AcDbEntity
  8
Dim
 62
     0
370
    -2
100
AcDbLine
 10
1534.528991776994
 20
2549.130218768765
 30
0.0
 11
1495.461813198556
 21
2549.130218768765
 31
0.0
  0
LINE
  5
5C87
330
5C83
100
AcDbEntity
  8
Dim
 62
     0
370
    -2
100
AcDbLine
 10
1534.528991776994
 20
2484.130218768765
 30
0.0
 11
1495.461813198556
 21
2484.130218768765
 31
0.0
  0
LINE
  5
5C88
330
5C83
100
AcDbEntity
  8
Dim
 62
     0
370
    -2
100
AcDbLine
 10
1495.461813198556
 20
2539.130829120328
 30
0.0
 11
1495.461813198556
 21
2494.129608417203
 31
0.0
  0
INSERT
  5
5C89
330
5C83
100
AcDbEntity
  8
Dim
 62
     0
370
    -2
100
AcDbBlockReference
  2
_DOT
 10
1495.461813198556
 20
2549.130218768765
 30
0.0
 41
9.999389648437498
 42
9.999389648437498
 43
9.999389648437498
 50
90.0
  0
INSERT
  5
5C8A
330
5C83
100
AcDbEntity
  8
Dim
 62
     0
370
    -2
100
AcDbBlockReference
  2
_DOT
 10
1495.461813198556
 20
2484.130218768765
 30
0.0
 41
9.999389648437498
 42
9.999389648437498
 43
9.999389648437498
 50
270.0
  0
MTEXT
  5
5C8B
330
5C83
100
AcDbEntity
  8
Dim
 62
     0
100
AcDbMText
 10
1473.245504604806
 20
2516.630218768765
 30
0.0
 40
24.4326171875
 41
0.0
 46
0.0
 71
     5
 72
     1
  1
\A1;65
  7
ＭＳ ゴシック
 11
0.0
 21
1.0
 31
0.0
 73
     1
 44
1.0
  0
POINT
  5
5C8C
330
5C83
100
AcDbEntity
  8
Defpoints
 62
     0
100
AcDbPoint
 10
1559.528991776994
 20
2549.130218768765
 30
0.0
  0
POINT
  5
5C8D
330
5C83
100
AcDbEntity
  8
Defpoints
 62
     0
100
AcDbPoint
 10
1559.528991776994
 20
2484.130218768765
 30
0.0
  0
POINT
  5
5C8E
330
5C83
100
AcDbEntity
  8
Defpoints
 62
     0
100
AcDbPoint
 10
1495.461813198556
 20
2484.130218768765
 30
0.0
  0
ENDBLK
  5
5C85
330
5C83
100
AcDbEntity
  8
0
100
AcDbBlockEnd
  0
BLOCK
  5
5C93
330
5C92
100
AcDbEntity
  8
0
100
AcDbBlockBegin
  2
*D27
 70
     1
 10
0.0
 20
0.0
 30
0.0
  3
*D27
  1

  0
LINE
  5
5C95
330
5C92
100
AcDbEntity
  8
Dim
 62
     0
370
    -2
100
AcDbLine
 10
1770.531084966301
 20
2549.13022491148
 30
0.0
 11
1911.001609198328
 21
2549.13022491148
 31
0.0
  0
LINE
  5
5C96
330
5C92
100
AcDbEntity
  8
Dim
 62
     0
370
    -2
100
AcDbLine
 10
1770.531084966301
 20
2149.13022491148
 30
0.0
 11
1911.001609198328
 21
2149.13022491148
 31
0.0
  0
LINE
  5
5C97
330
5C92
100
AcDbEntity
  8
Dim
 62
     0
370
    -2
100
AcDbLine
 10
1911.001609198328
 20
2539.130835263042
 30
0.0
 11
1911.001609198328
 21
2159.129614559917
 31
0.0
  0
INSERT
  5
5C98
330
5C92
100
AcDbEntity
  8
Dim
 62
     0
370
    -2
100
AcDbBlockReference
  2
_DOT
 10
1911.001609198328
 20
2549.13022491148
 30
0.0
 41
9.999389648437498
 42
9.999389648437498
 43
9.999389648437498
 50
90.0
  0
INSERT
  5
5C99
330
5C92
100
AcDbEntity
  8
Dim
 62
     0
370
    -2
100
AcDbBlockReference
  2
_DOT
 10
1911.001609198328
 20
2149.13022491148
 30
0.0
 41
9.999389648437498
 42
9.999389648437498
 43
9.999389648437498
 50
270.0
  0
MTEXT
  5
5C9A
330
5C92
100
AcDbEntity
  8
Dim
 62
     0
100
AcDbMText
 10
1888.785300604578
 20
2349.13022491148
 30
0.0
 40
24.4326171875
 41
0.0
 46
0.0
 71
     5
 72
     1
  1
\A1;400
  7
ＭＳ ゴシック
 11
0.0
 21
1.0
 31
0.0
 73
     1
 44
1.0
  0
POINT
  5
5C9B
330
5C92
100
AcDbEntity
  8
Defpoints
 62
     0
100
AcDbPoint
 10
1745.531084966301
 20
2549.13022491148
 30
0.0
  0
POINT
  5
5C9C
330
5C92
100
AcDbEntity
  8
Defpoints
 62
     0
100
AcDbPoint
 10
1745.531084966301
 20
2149.13022491148
 30
0.0
  0
POINT
  5
5C9D
330
5C92
100
AcDbEntity
  8
Defpoints
 62
     0
100
AcDbPoint
 10
1911.001609198328
 20
2149.13022491148
 30
0.0
  0
ENDBLK
  5
5C94
330
5C92
100
AcDbEntity
  8
0
100
AcDbBlockEnd
  0
BLOCK
  5
5CDF
330
5CDE
100
AcDbEntity
  8
0
100
AcDbBlockBegin
  2
*D28
 70
     1
 10
0.0
 20
0.0
 30
0.0
  3
*D28
  1

  0
LINE
  5
5CE1
330
5CDE
100
AcDbEntity
  8
Dim
  6
Continuous
 62
     0
370
    -2
100
AcDbLine
 10
1550.701381236721
 20
2322.13553639403
 30
0.0
 11
1371.044118903006
 21
2322.135536394031
 31
0.0
  0
LINE
  5
5CE2
330
5CDE
100
AcDbEntity
  8
Dim
  6
Continuous
 62
     0
370
    -2
100
AcDbLine
 10
1663.197531527036
 20
2322.135536394029
 30
0.0
 11
1560.700770885158
 21
2322.13553639403
 31
0.0
  0
LINE
  5
5CE3
330
5CDE
100
AcDbEntity
  8
Dim
  6
Continuous
 62
     0
370
    -2
100
AcDbLine
 10
1560.700770885158
 20
2322.13553639403
 30
0.0
 11
1570.700160533596
 21
2322.13553639403
 31
0.0
  0
INSERT
  5
5CE4
330
5CDE
100
AcDbEntity
  8
Dim
 62
     0
370
    -2
100
AcDbBlockReference
  2
_DOT
 10
1673.196921175474
 20
2322.135536394029
 30
0.0
 41
9.999389648437498
 42
9.999389648437498
 43
9.999389648437498
 50
359.9999999999998
  0
INSERT
  5
5CE5
330
5CDE
100
AcDbEntity
  8
Dim
 62
     0
370
    -2
100
AcDbBlockReference
  2
_DOT
 10
1550.701381236721
 20
2322.13553639403
 30
0.0
 41
9.999389648437498
 42
9.999389648437498
 43
9.999389648437498
 50
179.9999999999998
  0
MTEXT
  5
5CE6
330
5CDE
100
AcDbEntity
  8
Dim
 62
     0
100
AcDbMText
 10
1447.232078863943
 20
2346.514131608874
 30
0.0
 40
24.4326171875
 41
0.0
 46
0.0
 71
     5
 72
     1
  1
\A1;120(深さ)
  7
ＭＳ ゴシック
 73
     1
 44
1.0
  0
POINT
  5
5CE7
330
5CDE
100
AcDbEntity
  8
Defpoints
 62
     0
100
AcDbPoint
 10
1673.196921175474
 20
2321.116836511365
 30
0.0
  0
POINT
  5
5CE8
330
5CDE
100
AcDbEntity
  8
Defpoints
 62
     0
100
AcDbPoint
 10
1550.701381236721
 20
2322.13553639403
 30
0.0
  0
POINT
  5
5CE9
330
5CDE
100
AcDbEntity
  8
Defpoints
 62
     0
100
AcDbPoint
 10
1550.701381236721
 20
2322.13553639403
 30
0.0
  0
ENDBLK
  5
5CE0
330
5CDE
100
AcDbEntity
  8
0
100
AcDbBlockEnd
  0
BLOCK
  5
5DD0
330
5DCF
100
AcDbEntity
  8
0
100
AcDbBlockBegin
  2
*D29
 70
     1
 10
0.0
 20
0.0
 30
0.0
  3
*D29
  1

  0
LINE
  5
5DD2
330
5DCF
100
AcDbEntity
  8
Dim
 62
     0
370
    -2
100
AcDbLine
 10
1741.926543294624
 20
708.8129254732762
 30
0.0
 11
1821.021515404046
 21
708.8129254732762
 31
0.0
  0
LINE
  5
5DD3
330
5DCF
100
AcDbEntity
  8
Dim
 62
     0
370
    -2
100
AcDbLine
 10
1741.926543294624
 20
1258.812925473276
 30
0.0
 11
1821.021515404046
 21
1258.812925473276
 31
0.0
  0
LINE
  5
5DD4
330
5DCF
100
AcDbEntity
  8
Dim
 62
     0
370
    -2
100
AcDbLine
 10
1821.021515404046
 20
718.8123151217137
 30
0.0
 11
1821.021515404046
 21
1248.813535824839
 31
0.0
  0
INSERT
  5
5DD5
330
5DCF
100
AcDbEntity
  8
Dim
 62
     0
370
    -2
100
AcDbBlockReference
  2
_DOT
 10
1821.021515404046
 20
708.8129254732762
 30
0.0
 41
9.999389648437498
 42
9.999389648437498
 43
9.999389648437498
 50
270.0
  0
INSERT
  5
5DD6
330
5DCF
100
AcDbEntity
  8
Dim
 62
     0
370
    -2
100
AcDbBlockReference
  2
_DOT
 10
1821.021515404046
 20
1258.812925473276
 30
0.0
 41
9.999389648437498
 42
9.999389648437498
 43
9.999389648437498
 50
90.0
  0
MTEXT
  5
5DD7
330
5DCF
100
AcDbEntity
  8
Dim
 62
     0
100
AcDbMText
 10
1798.805206810296
 20
983.8129254732762
 30
0.0
 40
24.4326171875
 41
0.0
 46
0.0
 71
     5
 72
     1
  1
\A1;550
  7
ＭＳ ゴシック
 11
0.0
 21
1.0
 31
0.0
 73
     1
 44
1.0
  0
POINT
  5
5DD8
330
5DCF
100
AcDbEntity
  8
Defpoints
 62
     0
100
AcDbPoint
 10
1716.926543294624
 20
708.8129254732762
 30
0.0
  0
POINT
  5
5DD9
330
5DCF
100
AcDbEntity
  8
Defpoints
 62
     0
100
AcDbPoint
 10
1716.926543294624
 20
1258.812925473276
 30
0.0
  0
POINT
  5
5DDA
330
5DCF
100
AcDbEntity
  8
Defpoints
 62
     0
100
AcDbPoint
 10
1821.021515404046
 20
1258.812925473276
 30
0.0
  0
ENDBLK
  5
5DD1
330
5DCF
100
AcDbEntity
  8
0
100
AcDbBlockEnd
  0
BLOCK
  5
5DF7
330
5DF6
100
AcDbEntity
  8
0
100
AcDbBlockBegin
  2
*D30
 70
     1
 10
0.0
 20
0.0
 30
0.0
  3
*D30
  1

  0
LINE
  5
5DF9
330
5DF6
100
AcDbEntity
  8
Dim
 62
     0
370
    -2
100
AcDbLine
 10
390.6991698384072
 20
2474.534829850205
 30
0.0
 11
390.6991698384072
 21
2647.647323136
 31
0.0
  0
LINE
  5
5DFA
330
5DF6
100
AcDbEntity
  8
Dim
 62
     0
370
    -2
100
AcDbLine
 10
640.6991698384077
 20
2474.534829850205
 30
0.0
 11
640.6991698384077
 21
2647.647323136
 31
0.0
  0
LINE
  5
5DFB
330
5DF6
100
AcDbEntity
  8
Dim
 62
     0
370
    -2
100
AcDbLine
 10
400.6985594868447
 20
2647.647323136
 30
0.0
 11
630.6997801899702
 21
2647.647323136
 31
0.0
  0
INSERT
  5
5DFC
330
5DF6
100
AcDbEntity
  8
Dim
 62
     0
370
    -2
100
AcDbBlockReference
  2
_DOT
 10
390.6991698384072
 20
2647.647323136
 30
0.0
 41
9.999389648437498
 42
9.999389648437498
 43
9.999389648437498
 50
180.0
  0
INSERT
  5
5DFD
330
5DF6
100
AcDbEntity
  8
Dim
 62
     0
370
    -2
100
AcDbBlockReference
  2
_DOT
 10
640.6991698384077
 20
2647.647323136
 30
0.0
 41
9.999389648437498
 42
9.999389648437498
 43
9.999389648437498
  0
MTEXT
  5
5DFE
330
5DF6
100
AcDbEntity
  8
Dim
 62
     0
100
AcDbMText
 10
515.6991698384073
 20
2669.86363172975
 30
0.0
 40
24.4326171875
 41
0.0
 46
0.0
 71
     5
 72
     1
  1
\A1;250
  7
ＭＳ ゴシック
 73
     1
 44
1.0
  0
POINT
  5
5DFF
330
5DF6
100
AcDbEntity
  8
Defpoints
 62
     0
100
AcDbPoint
 10
390.6991698384072
 20
2449.534829850205
 30
0.0
  0
POINT
  5
5E00
330
5DF6
100
AcDbEntity
  8
Defpoints
 62
     0
100
AcDbPoint
 10
640.6991698384077
 20
2449.534829850205
 30
0.0
  0
POINT
  5
5E01
330
5DF6
100
AcDbEntity
  8
Defpoints
 62
     0
100
AcDbPoint
 10
640.6991698384077
 20
2647.647323136
 30
0.0
  0
ENDBLK
  5
5DF8
330
5DF6
100
AcDbEntity
  8
0
100
AcDbBlockEnd
  0
BLOCK
  5
5E06
330
5E05
100
AcDbEntity
  8
0
100
AcDbBlockBegin
  2
*D31
 70
     1
 10
0.0
 20
0.0
 30
0.0
  3
*D31
  1

  0
LINE
  5
5E08
330
5E05
100
AcDbEntity
  8
Dim
 62
     0
370
    -2
100
AcDbLine
 10
665.6991698384077
 20
1996.815418650204
 30
0.0
 11
990.7262760067983
 21
1996.815418650204
 31
0.0
  0
LINE
  5
5E09
330
5E05
100
AcDbEntity
  8
Dim
 62
     0
370
    -2
100
AcDbLine
 10
665.6991698384077
 20
2446.815418650204
 30
0.0
 11
990.7262760067983
 21
2446.815418650204
 31
0.0
  0
LINE
  5
5E0A
330
5E05
100
AcDbEntity
  8
Dim
 62
     0
370
    -2
100
AcDbLine
 10
990.7262760067983
 20
2006.814808298641
 30
0.0
 11
990.7262760067983
 21
2436.816029001766
 31
0.0
  0
INSERT
  5
5E0B
330
5E05
100
AcDbEntity
  8
Dim
 62
     0
370
    -2
100
AcDbBlockReference
  2
_DOT
 10
990.7262760067983
 20
1996.815418650204
 30
0.0
 41
9.999389648437498
 42
9.999389648437498
 43
9.999389648437498
 50
270.0
  0
INSERT
  5
5E0C
330
5E05
100
AcDbEntity
  8
Dim
 62
     0
370
    -2
100
AcDbBlockReference
  2
_DOT
 10
990.7262760067983
 20
2446.815418650204
 30
0.0
 41
9.999389648437498
 42
9.999389648437498
 43
9.999389648437498
 50
90.0
  0
MTEXT
  5
5E0D
330
5E05
100
AcDbEntity
  8
Dim
 62
     0
100
AcDbMText
 10
968.5099674130483
 20
2221.815418650204
 30
0.0
 40
24.4326171875
 41
0.0
 46
0.0
 71
     5
 72
     1
  1
\A1;450
  7
ＭＳ ゴシック
 11
0.0
 21
1.0
 31
0.0
 73
     1
 44
1.0
  0
POINT
  5
5E0E
330
5E05
100
AcDbEntity
  8
Defpoints
 62
     0
100
AcDbPoint
 10
640.6991698384077
 20
1996.815418650204
 30
0.0
  0
POINT
  5
5E0F
330
5E05
100
AcDbEntity
  8
Defpoints
 62
     0
100
AcDbPoint
 10
640.6991698384077
 20
2446.815418650204
 30
0.0
  0
POINT
  5
5E10
330
5E05
100
AcDbEntity
  8
Defpoints
 62
     0
100
AcDbPoint
 10
990.7262760067983
 20
2446.815418650204
 30
0.0
  0
ENDBLK
  5
5E07
330
5E05
100
AcDbEntity
  8
0
100
AcDbBlockEnd
  0
BLOCK
  5
5EEC
330
5EEB
100
AcDbEntity
  8
0
100
AcDbBlockBegin
  2
_None
 70
     0
 10
0.0
 20
0.0
 30
0.0
  3
_None
  1

  0
ENDBLK
  5
5EED
330
5EEB
100
AcDbEntity
  8
0
100
AcDbBlockEnd
  0
BLOCK
  5
5F8D
330
5F8C
100
AcDbEntity
  8
0
100
AcDbBlockBegin
  2
*D33
 70
     1
 10
0.0
 20
0.0
 30
0.0
  3
*D33
  1

  0
LINE
  5
5F8E
330
5F8C
100
AcDbEntity
  8
QUOTE
 62
     0
370
    -2
100
AcDbLine
 10
35.47917553018488
 20
663.6750995864521
 30
0.0
 11
22.46828103682856
 21
663.6750995864517
 31
0.0
  0
LINE
  5
5F8F
330
5F8C
100
AcDbEntity
  8
QUOTE
 62
     0
370
    -2
100
AcDbLine
 10
35.47917553019215
 20
433.7454982107172
 30
0.0
 11
22.46828103683583
 21
433.7454982107168
 31
0.0
  0
LINE
  5
5F90
330
5F8C
100
AcDbEntity
  8
QUOTE
 62
     0
370
    -2
100
AcDbLine
 10
22.46828103682856
 20
663.6750995864517
 30
0.0
 11
22.46828103683583
 21
433.7454982107168
 31
0.0
  0
MTEXT
  5
5F91
330
5F8C
100
AcDbEntity
  8
QUOTE
 62
     0
100
AcDbMText
 10
10.25828103683216
 20
548.7102988985849
 30
0.0
 40
20.0
 41
0.0
 46
0.0
 71
     5
 72
     1
  1
\A1;\fArial|b0|i0|c0|p0;230
 11
-3.164428403584959E-14
 21
1.0
 31
0.0
 73
     1
 44
1.0
  0
POINT
  5
5F92
330
5F8C
100
AcDbEntity
  8
Defpoints
 62
     0
100
AcDbPoint
 10
40.47917553018488
 20
663.6750995864522
 30
0.0
  0
POINT
  5
5F93
330
5F8C
100
AcDbEntity
  8
Defpoints
 62
     0
100
AcDbPoint
 10
40.47917553019215
 20
433.7454982107174
 30
0.0
  0
POINT
  5
5F94
330
5F8C
100
AcDbEntity
  8
Defpoints
 62
     0
100
AcDbPoint
 10
22.46828103683219
 20
433.7454982107168
 30
0.0
  0
ENDBLK
  5
5F95
330
5F8C
100
AcDbEntity
  8
0
100
AcDbBlockEnd
  0
BLOCK
  5
5F98
330
5F97
100
AcDbEntity
  8
0
100
AcDbBlockBegin
  2
*D34
 70
     1
 10
0.0
 20
0.0
 30
0.0
  3
*D34
  1

  0
LINE
  5
5F99
330
5F97
100
AcDbEntity
  8
QUOTE
 62
     0
370
    -2
100
AcDbLine
 10
68.84571731367032
 20
399.5052732714266
 30
0.0
 11
68.84571731367032
 21
381.8170011973707
 31
0.0
  0
LINE
  5
5F9A
330
5F97
100
AcDbEntity
  8
QUOTE
 62
     0
370
    -2
100
AcDbLine
 10
468.7048581698982
 20
399.5052732714257
 30
0.0
 11
468.7048581698982
 21
381.8170011973707
 31
0.0
  0
LINE
  5
5F9B
330
5F97
100
AcDbEntity
  8
QUOTE
 62
     0
370
    -2
100
AcDbLine
 10
68.84571731367032
 20
381.8170011973707
 30
0.0
 11
468.7048581698982
 21
381.8170011973707
 31
0.0
  0
MTEXT
  5
5F9C
330
5F97
100
AcDbEntity
  8
QUOTE
 62
     0
100
AcDbMText
 10
268.7752877417843
 20
369.8170011973707
 30
0.0
 40
20.0
 41
0.0
 46
0.0
 71
     5
 72
     1
  1
\A1;400
 73
     1
 44
1.0
  0
POINT
  5
5F9D
330
5F97
100
AcDbEntity
  8
Defpoints
 62
     0
100
AcDbPoint
 10
68.84571731367032
 20
404.5052732714266
 30
0.0
  0
POINT
  5
5F9E
330
5F97
100
AcDbEntity
  8
Defpoints
 62
     0
100
AcDbPoint
 10
468.7048581698982
 20
404.5052732714257
 30
0.0
  0
POINT
  5
5F9F
330
5F97
100
AcDbEntity
  8
Defpoints
 62
     0
100
AcDbPoint
 10
468.7048581698982
 20
381.8170011973707
 30
0.0
  0
ENDBLK
  5
5FA0
330
5F97
100
AcDbEntity
  8
0
100
AcDbBlockEnd
  0
BLOCK
  5
5FA3
330
5FA2
100
AcDbEntity
  8
0
100
AcDbBlockBegin
  2
*D35
 70
     1
 10
0.0
 20
0.0
 30
0.0
  3
*D35
  1

  0
LINE
  5
5FA4
330
5FA2
100
AcDbEntity
  8
QUOTE
 62
     0
370
    -2
100
AcDbLine
 10
492.7912450434742
 20
664.0796744168847
 30
0.0
 11
509.0064556666766
 21
664.0796744168847
 31
0.0
  0
LINE
  5
5FA5
330
5FA2
100
AcDbEntity
  8
QUOTE
 62
     0
370
    -2
100
AcDbLine
 10
492.7912450434742
 20
613.67507858317
 30
0.0
 11
509.0064556666766
 21
613.67507858317
 31
0.0
  0
LINE
  5
5FA6
330
5FA2
100
AcDbEntity
  8
QUOTE
 62
     0
370
    -2
100
AcDbLine
 10
509.0064556666766
 20
664.0796744168847
 30
0.0
 11
509.0064556666766
 21
613.67507858317
 31
0.0
  0
MTEXT
  5
5FA7
330
5FA2
100
AcDbEntity
  8
QUOTE
 62
     0
100
AcDbMText
 10
521.0064556666766
 20
638.877376500036
 30
0.0
 40
20.0
 41
0.0
 46
0.0
 71
     5
 72
     1
  1
\A1;50
 11
0.0
 21
1.0
 31
0.0
 73
     1
 44
1.0
  0
POINT
  5
5FA8
330
5FA2
100
AcDbEntity
  8
Defpoints
 62
     0
100
AcDbPoint
 10
487.7912450434742
 20
664.0796744168847
 30
0.0
  0
POINT
  5
5FA9
330
5FA2
100
AcDbEntity
  8
Defpoints
 62
     0
100
AcDbPoint
 10
487.7912450434742
 20
613.67507858317
 30
0.0
  0
POINT
  5
5FAA
330
5FA2
100
AcDbEntity
  8
Defpoints
 62
     0
100
AcDbPoint
 10
509.0064556666766
 20
613.67507858317
 30
0.0
  0
ENDBLK
  5
5FAB
330
5FA2
100
AcDbEntity
  8
0
100
AcDbBlockEnd
  0
BLOCK
  5
5FAE
330
5FAD
100
AcDbEntity
  8
0
100
AcDbBlockBegin
  2
*D36
 70
     1
 10
0.0
 20
0.0
 30
0.0
  3
*D36
  1

  0
LINE
  5
5FAF
330
5FAD
100
AcDbEntity
  8
QUOTE
 62
     0
370
    -2
100
AcDbLine
 10
507.7912450434742
 20
613.67507858317
 30
0.0
 11
509.0064556666766
 21
613.67507858317
 31
0.0
  0
LINE
  5
5FB0
330
5FAD
100
AcDbEntity
  8
QUOTE
 62
     0
370
    -2
100
AcDbLine
 10
492.6414711877514
 20
433.7454982107174
 30
0.0
 11
509.0064556666766
 21
433.7454982107174
 31
0.0
  0
LINE
  5
5FB1
330
5FAD
100
AcDbEntity
  8
QUOTE
 62
     0
370
    -2
100
AcDbLine
 10
509.0064556666766
 20
613.67507858317
 30
0.0
 11
509.0064556666766
 21
433.7454982107174
 31
0.0
  0
MTEXT
  5
5FB2
330
5FAD
100
AcDbEntity
  8
QUOTE
 62
     0
100
AcDbMText
 10
518.5064556666766
 20
523.7102883969437
 30
0.0
 40
15.0
 41
0.0
 46
0.0
 71
     5
 72
     1
  1
180
 11
0.0
 21
1.0
 31
0.0
 73
     1
 44
1.0
  0
POINT
  5
5FB3
330
5FAD
100
AcDbEntity
  8
Defpoints
 62
     0
100
AcDbPoint
 10
487.7912450434742
 20
613.67507858317
 30
0.0
  0
POINT
  5
5FB4
330
5FAD
100
AcDbEntity
  8
Defpoints
 62
     0
100
AcDbPoint
 10
472.6414711877514
 20
433.7454982107174
 30
0.0
  0
POINT
  5
5FB5
330
5FAD
100
AcDbEntity
  8
Defpoints
 62
     0
100
AcDbPoint
 10
509.0064556666766
 20
433.7454982107174
 30
0.0
  0
ENDBLK
  5
5FB6
330
5FAD
100
AcDbEntity
  8
0
100
AcDbBlockEnd
  0
BLOCK
  5
5FB9
330
5FB8
100
AcDbEntity
  8
0
100
AcDbBlockBegin
  2
*D37
 70
     1
 10
0.0
 20
0.0
 30
0.0
  3
*D37
  1

  0
LINE
  5
5FBA
330
5FB8
100
AcDbEntity
  8
QUOTE
 62
     0
370
    -2
100
AcDbLine
 10
1036.780477131528
 20
120.000002328612
 30
0.0
 11
1043.416226637746
 21
120.000002328612
 31
0.0
  0
LINE
  5
5FBB
330
5FB8
100
AcDbEntity
  8
QUOTE
 62
     0
370
    -2
100
AcDbLine
 10
1036.78047713152
 20
0.0000064753330654
 30
0.0
 11
1043.416226637746
 21
0.0000064753330643
 31
0.0
  0
LINE
  5
5FBC
330
5FB8
100
AcDbEntity
  8
QUOTE
 62
     0
370
    -2
100
AcDbLine
 10
1043.416226637746
 20
120.000002328612
 30
0.0
 11
1043.416226637746
 21
0.0000064753330643
 31
0.0
  0
MTEXT
  5
5FBD
330
5FB8
100
AcDbEntity
  8
QUOTE
 62
     0
100
AcDbMText
 10
1055.416226637746
 20
60.00000440197255
 30
0.0
 40
20.0
 41
0.0
 46
0.0
 71
     5
 72
     1
  1
\A1;120
 11
0.0
 21
1.0
 31
0.0
 73
     1
 44
1.0
  0
POINT
  5
5FBE
330
5FB8
100
AcDbEntity
  8
Defpoints
 62
     0
100
AcDbPoint
 10
1031.780477131528
 20
120.000002328612
 30
0.0
  0
POINT
  5
5FBF
330
5FB8
100
AcDbEntity
  8
Defpoints
 62
     0
100
AcDbPoint
 10
1031.78047713152
 20
0.0000064753330662
 30
0.0
  0
POINT
  5
5FC0
330
5FB8
100
AcDbEntity
  8
Defpoints
 62
     0
100
AcDbPoint
 10
1043.416226637746
 20
0.0000064753330643
 30
0.0
  0
ENDBLK
  5
5FC1
330
5FB8
100
AcDbEntity
  8
0
100
AcDbBlockEnd
  0
BLOCK
  5
5FC4
330
5FC3
100
AcDbEntity
  8
0
100
AcDbBlockBegin
  2
*D38
 70
     1
 10
0.0
 20
0.0
 30
0.0
  3
*D38
  1

  0
LINE
  5
5FC5
330
5FC3
100
AcDbEntity
  8
QUOTE
 62
     0
370
    -2
100
AcDbLine
 10
761.0341429066684
 20
119.9999988049531
 30
0.0
 11
743.3458708326143
 21
119.9999988049531
 31
0.0
  0
LINE
  5
5FC6
330
5FC3
100
AcDbEntity
  8
QUOTE
 62
     0
370
    -2
100
AcDbLine
 10
761.0341429066684
 20
50.00000232985622
 30
0.0
 11
743.3458708326143
 21
50.00000232985622
 31
0.0
  0
LINE
  5
5FC7
330
5FC3
100
AcDbEntity
  8
QUOTE
 62
     0
370
    -2
100
AcDbLine
 10
743.3458708326143
 20
119.9999988049531
 30
0.0
 11
743.3458708326143
 21
50.00000232985622
 31
0.0
  0
MTEXT
  5
5FC8
330
5FC3
100
AcDbEntity
  8
QUOTE
 62
     0
100
AcDbMText
 10
731.3458708326143
 20
85.00000056740828
 30
0.0
 40
20.0
 41
0.0
 46
0.0
 71
     5
 72
     1
  1
\A1;70
 11
0.0
 21
1.0
 31
0.0
 73
     1
 44
1.0
  0
POINT
  5
5FC9
330
5FC3
100
AcDbEntity
  8
Defpoints
 62
     0
100
AcDbPoint
 10
766.0341429066684
 20
119.9999988049531
 30
0.0
  0
POINT
  5
5FCA
330
5FC3
100
AcDbEntity
  8
Defpoints
 62
     0
100
AcDbPoint
 10
766.0341429066684
 20
50.00000232985622
 30
0.0
  0
POINT
  5
5FCB
330
5FC3
100
AcDbEntity
  8
Defpoints
 62
     0
100
AcDbPoint
 10
743.3458708326143
 20
50.00000232985622
 30
0.0
  0
ENDBLK
  5
5FCC
330
5FC3
100
AcDbEntity
  8
0
100
AcDbBlockEnd
  0
BLOCK
  5
5FCF
330
5FCE
100
AcDbEntity
  8
0
100
AcDbBlockBegin
  2
*D39
 70
     1
 10
0.0
 20
0.0
 30
0.0
  3
*D39
  1

  0
LINE
  5
5FD0
330
5FCE
100
AcDbEntity
  8
QUOTE
 62
     0
370
    -2
100
AcDbLine
 10
761.0341429066684
 20
50.00000232985622
 30
0.0
 11
743.3458708326143
 21
50.00000232985622
 31
0.0
  0
LINE
  5
5FD1
330
5FCE
100
AcDbEntity
  8
QUOTE
 62
     0
370
    -2
100
AcDbLine
 10
766.0341429066684
 20
0.0000064753403434
 30
0.0
 11
743.3458708326143
 21
0.0000064753403493
 31
0.0
  0
LINE
  5
5FD2
330
5FCE
100
AcDbEntity
  8
QUOTE
 62
     0
370
    -2
100
AcDbLine
 10
743.3458708326143
 20
50.00000232985622
 30
0.0
 11
743.3458708326143
 21
0.0000064753403493
 31
0.0
  0
MTEXT
  5
5FD3
330
5FCE
100
AcDbEntity
  8
QUOTE
 62
     0
100
AcDbMText
 10
731.3458708326143
 20
25.00000440259464
 30
0.0
 40
20.0
 41
0.0
 46
0.0
 71
     5
 72
     1
  1
\A1;50
 11
0.0
 21
1.0
 31
0.0
 73
     1
 44
1.0
  0
POINT
  5
5FD4
330
5FCE
100
AcDbEntity
  8
Defpoints
 62
     0
100
AcDbPoint
 10
766.0341429066684
 20
50.00000232985622
 30
0.0
  0
POINT
  5
5FD5
330
5FCE
100
AcDbEntity
  8
Defpoints
 62
     0
100
AcDbPoint
 10
771.0341429066684
 20
0.0000064753403421
 30
0.0
  0
POINT
  5
5FD6
330
5FCE
100
AcDbEntity
  8
Defpoints
 62
     0
100
AcDbPoint
 10
743.3458708326143
 20
0.0000064753403466
 30
0.0
  0
ENDBLK
  5
5FD7
330
5FCE
100
AcDbEntity
  8
0
100
AcDbBlockEnd
  0
BLOCK
  5
5FDA
330
5FD9
100
AcDbEntity
  8
0
100
AcDbBlockBegin
  2
*D40
 70
     1
 10
0.0
 20
0.0
 30
0.0
  3
*D40
  1

  0
LINE
  5
5FDB
330
5FD9
100
AcDbEntity
  8
QUOTE
 62
     0
370
    -2
100
AcDbLine
 10
928.6359061851763
 20
140.0000006388218
 30
0.0
 11
928.6359061851763
 21
148.4861040083342
 31
0.0
  0
LINE
  5
5FDC
330
5FD9
100
AcDbEntity
  8
QUOTE
 62
     0
370
    -2
100
AcDbLine
 10
1018.061976637029
 20
138.0000064753403
 30
0.0
 11
1018.061976637029
 21
148.4861040083342
 31
0.0
  0
LINE
  5
5FDD
330
5FD9
100
AcDbEntity
  8
QUOTE
 62
     0
370
    -2
100
AcDbLine
 10
928.6359061851763
 20
148.4861040083342
 30
0.0
 11
1018.061976637029
 21
148.4861040083342
 31
0.0
  0
MTEXT
  5
5FDE
330
5FD9
100
AcDbEntity
  8
QUOTE
 62
     0
100
AcDbMText
 10
973.3489414111027
 20
157.9861040083342
 30
0.0
 40
15.0
 41
0.0
 46
0.0
 71
     5
 72
     1
  1
90
 73
     1
 44
1.0
  0
POINT
  5
5FDF
330
5FD9
100
AcDbEntity
  8
Defpoints
 62
     0
100
AcDbPoint
 10
928.6359061851763
 20
120.0000006388218
 30
0.0
  0
POINT
  5
5FE0
330
5FD9
100
AcDbEntity
  8
Defpoints
 62
     0
100
AcDbPoint
 10
1018.061976637029
 20
118.0000064753403
 30
0.0
  0
POINT
  5
5FE1
330
5FD9
100
AcDbEntity
  8
Defpoints
 62
     0
100
AcDbPoint
 10
1018.061976637029
 20
148.4861040083342
 30
0.0
  0
ENDBLK
  5
5FE2
330
5FD9
100
AcDbEntity
  8
0
100
AcDbBlockEnd
  0
BLOCK
  5
5FE5
330
5FE4
100
AcDbEntity
  8
0
100
AcDbBlockBegin
  2
*D41
 70
     1
 10
0.0
 20
0.0
 30
0.0
  3
*D41
  1

  0
LINE
  5
5FE6
330
5FE4
100
AcDbEntity
  8
QUOTE
 62
     0
370
    -2
100
AcDbLine
 10
423.659495784239
 20
687.3041817724225
 30
0.0
 11
423.659495784239
 21
703.2143008882749
 31
0.0
  0
LINE
  5
5FE7
330
5FE4
100
AcDbEntity
  8
QUOTE
 62
     0
370
    -2
100
AcDbLine
 10
468.7048581698982
 20
687.3041817724225
 30
0.0
 11
468.7048581698982
 21
703.2143008882749
 31
0.0
  0
LINE
  5
5FE8
330
5FE4
100
AcDbEntity
  8
QUOTE
 62
     0
370
    -2
100
AcDbLine
 10
423.659495784239
 20
703.2143008882749
 30
0.0
 11
468.7048581698982
 21
703.2143008882749
 31
0.0
  0
MTEXT
  5
5FE9
330
5FE4
100
AcDbEntity
  8
QUOTE
 62
     0
100
AcDbMText
 10
446.1821769770686
 20
712.7143008882749
 30
0.0
 40
15.0
 41
0.0
 46
0.0
 71
     5
 72
     1
  1
45
 73
     1
 44
1.0
  0
POINT
  5
5FEA
330
5FE4
100
AcDbEntity
  8
Defpoints
 62
     0
100
AcDbPoint
 10
423.659495784239
 20
667.3041817724225
 30
0.0
  0
POINT
  5
5FEB
330
5FE4
100
AcDbEntity
  8
Defpoints
 62
     0
100
AcDbPoint
 10
468.7048581698982
 20
667.3041817724225
 30
0.0
  0
POINT
  5
5FEC
330
5FE4
100
AcDbEntity
  8
Defpoints
 62
     0
100
AcDbPoint
 10
468.7048581698982
 20
703.2143008882749
 30
0.0
  0
ENDBLK
  5
5FED
330
5FE4
100
AcDbEntity
  8
0
100
AcDbBlockEnd
  0
BLOCK
  5
5FF0
330
5FEF
100
AcDbEntity
  8
0
100
AcDbBlockBegin
  2
*D42
 70
     1
 10
0.0
 20
0.0
 30
0.0
  3
*D42
  1

  0
LINE
  5
5FF1
330
5FEF
100
AcDbEntity
  8
QUOTE
 62
     0
370
    -2
100
AcDbLine
 10
113.8910796993368
 20
687.3041817724225
 30
0.0
 11
113.8910796993368
 21
703.2143008882749
 31
0.0
  0
LINE
  5
5FF2
330
5FEF
100
AcDbEntity
  8
QUOTE
 62
     0
370
    -2
100
AcDbLine
 10
68.8457173136776
 20
687.3041817724225
 30
0.0
 11
68.8457173136776
 21
703.2143008882749
 31
0.0
  0
LINE
  5
5FF3
330
5FEF
100
AcDbEntity
  8
QUOTE
 62
     0
370
    -2
100
AcDbLine
 10
113.8910796993368
 20
703.2143008882749
 30
0.0
 11
68.8457173136776
 21
703.2143008882749
 31
0.0
  0
MTEXT
  5
5FF4
330
5FEF
100
AcDbEntity
  8
QUOTE
 62
     0
100
AcDbMText
 10
91.36839850650722
 20
712.7143008882749
 30
0.0
 40
15.0
 41
0.0
 46
0.0
 71
     5
 72
     1
  1
45
 73
     1
 44
1.0
  0
POINT
  5
5FF5
330
5FEF
100
AcDbEntity
  8
Defpoints
 62
     0
100
AcDbPoint
 10
113.8910796993368
 20
667.3041817724225
 30
0.0
  0
POINT
  5
5FF6
330
5FEF
100
AcDbEntity
  8
Defpoints
 62
     0
100
AcDbPoint
 10
68.8457173136776
 20
667.3041817724225
 30
0.0
  0
POINT
  5
5FF7
330
5FEF
100
AcDbEntity
  8
Defpoints
 62
     0
100
AcDbPoint
 10
68.8457173136776
 20
703.2143008882749
 30
0.0
  0
ENDBLK
  5
5FF8
330
5FEF
100
AcDbEntity
  8
0
100
AcDbBlockEnd
  0
BLOCK
  5
5FFB
330
5FFA
100
AcDbEntity
  8
0
100
AcDbBlockBegin
  2
*D43
 70
     1
 10
0.0
 20
0.0
 30
0.0
  3
*D43
  1

  0
LINE
  5
5FFC
330
5FFA
100
AcDbEntity
  8
QUOTE
 62
     0
370
    -2
100
AcDbLine
 10
128.7752877417806
 20
687.3041817724234
 30
0.0
 11
128.7752877417806
 21
703.2143008882749
 31
0.0
  0
LINE
  5
5FFD
330
5FFA
100
AcDbEntity
  8
QUOTE
 62
     0
370
    -2
100
AcDbLine
 10
408.7752877417806
 20
687.3041817724225
 30
0.0
 11
408.7752877417806
 21
703.2143008882749
 31
0.0
  0
LINE
  5
5FFE
330
5FFA
100
AcDbEntity
  8
QUOTE
 62
     0
370
    -2
100
AcDbLine
 10
128.7752877417806
 20
703.2143008882749
 30
0.0
 11
408.7752877417806
 21
703.2143008882749
 31
0.0
  0
MTEXT
  5
5FFF
330
5FFA
100
AcDbEntity
  8
QUOTE
 62
     0
100
AcDbMText
 10
268.7752877417806
 20
712.7143008882749
 30
0.0
 40
15.0
 41
0.0
 46
0.0
 71
     5
 72
     1
  1
280
 73
     1
 44
1.0
  0
POINT
  5
6000
330
5FFA
100
AcDbEntity
  8
Defpoints
 62
     0
100
AcDbPoint
 10
128.7752877417806
 20
667.3041817724234
 30
0.0
  0
POINT
  5
6001
330
5FFA
100
AcDbEntity
  8
Defpoints
 62
     0
100
AcDbPoint
 10
408.7752877417806
 20
667.3041817724225
 30
0.0
  0
POINT
  5
6002
330
5FFA
100
AcDbEntity
  8
Defpoints
 62
     0
100
AcDbPoint
 10
408.7752877417806
 20
703.2143008882749
 30
0.0
  0
ENDBLK
  5
6003
330
5FFA
100
AcDbEntity
  8
0
100
AcDbBlockEnd
  0
BLOCK
  5
6091
330
6090
100
AcDbEntity
  8
0
100
AcDbBlockBegin
  2
*D44
 70
     1
 10
0.0
 20
0.0
 30
0.0
  3
*D44
  1

  0
LINE
  5
6093
330
6090
100
AcDbEntity
  8
Dim
 62
     0
370
    -2
100
AcDbLine
 10
2850.989175530185
 20
1735.575099586451
 30
0.0
 11
2713.627876162553
 21
1735.575099586447
 31
0.0
  0
LINE
  5
6094
330
6090
100
AcDbEntity
  8
Dim
 62
     0
370
    -2
100
AcDbLine
 10
2850.989175530192
 20
1505.645498210716
 30
0.0
 11
2713.62787616256
 21
1505.645498210712
 31
0.0
  0
LINE
  5
6095
330
6090
100
AcDbEntity
  8
Dim
 62
     0
370
    -2
100
AcDbLine
 10
2713.627876162553
 20
1725.575709938009
 30
0.0
 11
2713.627876162559
 21
1515.64488785915
 31
0.0
  0
INSERT
  5
6096
330
6090
100
AcDbEntity
  8
Dim
 62
     0
370
    -2
100
AcDbBlockReference
  2
_DOT
 10
2713.627876162553
 20
1735.575099586447
 30
0.0
 41
9.999389648437498
 42
9.999389648437498
 43
9.999389648437498
 50
90.0000000000018
  0
INSERT
  5
6097
330
6090
100
AcDbEntity
  8
Dim
 62
     0
370
    -2
100
AcDbBlockReference
  2
_DOT
 10
2713.62787616256
 20
1505.645498210712
 30
0.0
 41
9.999389648437498
 42
9.999389648437498
 43
9.999389648437498
 50
270.0000000000018
  0
MTEXT
  5
6098
330
6090
100
AcDbEntity
  8
Dim
 62
     0
100
AcDbMText
 10
2691.155025088337
 20
1620.610298898584
 30
0.0
 40
24.4326171875
 41
0.0
 46
0.0
 71
     5
 72
     1
  1
\A1;\fArial|b0|i0|c0|p0;229.9
  7
ＭＳ ゴシック
 11
-3.164428403584959E-14
 21
1.0
 31
0.0
 73
     1
 44
1.0
  0
POINT
  5
6099
330
6090
100
AcDbEntity
  8
Defpoints
 62
     0
100
AcDbPoint
 10
2875.989175530185
 20
1735.575099586452
 30
0.0
  0
POINT
  5
6164
330
6090
100
AcDbEntity
  8
Defpoints
 62
     0
100
AcDbPoint
 10
2875.989175530192
 20
1505.645498210717
 30
0.0
  0
POINT
  5
6165
330
6090
100
AcDbEntity
  8
Defpoints
 62
     0
100
AcDbPoint
 10
2713.62787616256
 20
1505.645498210712
 30
0.0
  0
ENDBLK
  5
6092
330
6090
100
AcDbEntity
  8
0
100
AcDbBlockEnd
  0
BLOCK
  5
609B
330
609A
100
AcDbEntity
  8
0
100
AcDbBlockBegin
  2
*D45
 70
     1
 10
0.0
 20
0.0
 30
0.0
  3
*D45
  1

  0
LINE
  5
609D
330
609A
100
AcDbEntity
  8
Dim
 62
     0
370
    -2
100
AcDbLine
 10
2904.35571731367
 20
1451.405273271426
 30
0.0
 11
2904.35571731367
 21
1387.81006566912
 31
0.0
  0
LINE
  5
609E
330
609A
100
AcDbEntity
  8
Dim
 62
     0
370
    -2
100
AcDbLine
 10
3304.214858169898
 20
1451.405273271426
 30
0.0
 11
3304.214858169898
 21
1387.81006566912
 31
0.0
  0
LINE
  5
609F
330
609A
100
AcDbEntity
  8
Dim
 62
     0
370
    -2
100
AcDbLine
 10
2914.355106962108
 20
1387.81006566912
 30
0.0
 11
3294.21546852146
 21
1387.81006566912
 31
0.0
  0
INSERT
  5
60A0
330
609A
100
AcDbEntity
  8
Dim
 62
     0
370
    -2
100
AcDbBlockReference
  2
_DOT
 10
2904.35571731367
 20
1387.81006566912
 30
0.0
 41
9.999389648437498
 42
9.999389648437498
 43
9.999389648437498
 50
180.0
  0
INSERT
  5
60A1
330
609A
100
AcDbEntity
  8
Dim
 62
     0
370
    -2
100
AcDbBlockReference
  2
_DOT
 10
3304.214858169898
 20
1387.81006566912
 30
0.0
 41
9.999389648437498
 42
9.999389648437498
 43
9.999389648437498
  0
MTEXT
  5
60A2
330
609A
100
AcDbEntity
  8
Dim
 62
     0
100
AcDbMText
 10
3104.285287741784
 20
1410.02637426287
 30
0.0
 40
24.4326171875
 41
0.0
 46
0.0
 71
     5
 72
     1
  1
\A1;399.9
  7
ＭＳ ゴシック
 73
     1
 44
1.0
  0
POINT
  5
60A3
330
609A
100
AcDbEntity
  8
Defpoints
 62
     0
100
AcDbPoint
 10
2904.35571731367
 20
1476.405273271426
 30
0.0
  0
POINT
  5
6166
330
609A
100
AcDbEntity
  8
Defpoints
 62
     0
100
AcDbPoint
 10
3304.214858169898
 20
1476.405273271426
 30
0.0
  0
POINT
  5
6167
330
609A
100
AcDbEntity
  8
Defpoints
 62
     0
100
AcDbPoint
 10
3304.214858169898
 20
1387.81006566912
 30
0.0
  0
ENDBLK
  5
609C
330
609A
100
AcDbEntity
  8
0
100
AcDbBlockEnd
  0
BLOCK
  5
60A5
330
60A4
100
AcDbEntity
  8
0
100
AcDbBlockBegin
  2
*D46
 70
     1
 10
0.0
 20
0.0
 30
0.0
  3
*D46
  1

  0
LINE
  5
60A7
330
60A4
100
AcDbEntity
  8
Dim
 62
     0
370
    -2
100
AcDbLine
 10
2790.244782093074
 20
1735.979674416885
 30
0.0
 11
2786.031349723884
 21
1735.979674416885
 31
0.0
  0
LINE
  5
60A8
330
60A4
100
AcDbEntity
  8
Dim
 62
     0
370
    -2
100
AcDbLine
 10
2790.244782093074
 20
1685.57507858317
 30
0.0
 11
2786.031349723884
 21
1685.57507858317
 31
0.0
  0
LINE
  5
60A9
330
60A4
100
AcDbEntity
  8
Dim
 62
     0
370
    -2
100
AcDbLine
 10
2786.031349723884
 20
1725.980284768447
 30
0.0
 11
2786.031349723884
 21
1695.574468231608
 31
0.0
  0
INSERT
  5
60AA
330
60A4
100
AcDbEntity
  8
Dim
 62
     0
370
    -2
100
AcDbBlockReference
  2
_DOT
 10
2786.031349723884
 20
1735.979674416885
 30
0.0
 41
9.999389648437498
 42
9.999389648437498
 43
9.999389648437498
 50
90.0
  0
INSERT
  5
60AB
330
60A4
100
AcDbEntity
  8
Dim
 62
     0
370
    -2
100
AcDbBlockReference
  2
_DOT
 10
2786.031349723884
 20
1685.57507858317
 30
0.0
 41
9.999389648437498
 42
9.999389648437498
 43
9.999389648437498
 50
270.0
  0
MTEXT
  5
60AC
330
60A4
100
AcDbEntity
  8
Dim
 62
     0
100
AcDbMText
 10
2763.815041130134
 20
1710.777376500036
 30
0.0
 40
24.4326171875
 41
0.0
 46
0.0
 71
     5
 72
     1
  1
\A1;50.4
  7
ＭＳ ゴシック
 11
0.0
 21
1.0
 31
0.0
 73
     1
 44
1.0
  0
POINT
  5
60AD
330
60A4
100
AcDbEntity
  8
Defpoints
 62
     0
100
AcDbPoint
 10
2815.244782093074
 20
1735.979674416885
 30
0.0
  0
POINT
  5
6168
330
60A4
100
AcDbEntity
  8
Defpoints
 62
     0
100
AcDbPoint
 10
2815.244782093074
 20
1685.57507858317
 30
0.0
  0
POINT
  5
6169
330
60A4
100
AcDbEntity
  8
Defpoints
 62
     0
100
AcDbPoint
 10
2786.031349723884
 20
1685.57507858317
 30
0.0
  0
ENDBLK
  5
60A6
330
60A4
100
AcDbEntity
  8
0
100
AcDbBlockEnd
  0
BLOCK
  5
60AF
330
60AE
100
AcDbEntity
  8
0
100
AcDbBlockBegin
  2
*D47
 70
     1
 10
0.0
 20
0.0
 30
0.0
  3
*D47
  1

  0
LINE
  5
60B1
330
60AE
100
AcDbEntity
  8
Dim
 62
     0
370
    -2
100
AcDbLine
 10
2790.244782093074
 20
1685.57507858317
 30
0.0
 11
2778.330607579884
 21
1685.57507858317
 31
0.0
  0
LINE
  5
60B2
330
60AE
100
AcDbEntity
  8
Dim
 62
     0
370
    -2
100
AcDbLine
 10
2775.095008237352
 20
1505.645498210718
 30
0.0
 11
2778.330607579884
 21
1505.645498210718
 31
0.0
  0
LINE
  5
60B3
330
60AE
100
AcDbEntity
  8
Dim
 62
     0
370
    -2
100
AcDbLine
 10
2778.330607579884
 20
1685.57507858317
 30
0.0
 11
2778.330607579884
 21
1505.645498210718
 31
0.0
  0
LINE
  5
60B4
330
60AE
100
AcDbEntity
  8
Dim
 62
     0
370
    -2
100
AcDbLine
 10
2778.330607579884
 20
1695.574468231608
 30
0.0
 11
2778.330607579884
 21
1705.573857880045
 31
0.0
  0
LINE
  5
60B5
330
60AE
100
AcDbEntity
  8
Dim
 62
     0
370
    -2
100
AcDbLine
 10
2778.330607579884
 20
1495.64610856228
 30
0.0
 11
2778.330607579884
 21
1485.646718913843
 31
0.0
  0
INSERT
  5
60B6
330
60AE
100
AcDbEntity
  8
Dim
 62
     0
370
    -2
100
AcDbBlockReference
  2
_DOT
 10
2778.330607579884
 20
1685.57507858317
 30
0.0
 41
9.999389648437498
 42
9.999389648437498
 43
9.999389648437498
 50
270.0
  0
INSERT
  5
60B7
330
60AE
100
AcDbEntity
  8
Dim
 62
     0
370
    -2
100
AcDbBlockReference
  2
_DOT
 10
2778.330607579884
 20
1505.645498210718
 30
0.0
 41
9.999389648437498
 42
9.999389648437498
 43
9.999389648437498
 50
90.0
  0
MTEXT
  5
616A
330
60AE
100
AcDbEntity
  8
Dim
 62
     0
100
AcDbMText
 10
2756.114298986134
 20
1595.610288396944
 30
0.0
 40
24.4326171875
 41
0.0
 46
0.0
 71
     5
 72
     1
  1
\A1;179.9
  7
ＭＳ ゴシック
 11
0.0
 21
1.0
 31
0.0
 73
     1
 44
1.0
  0
POINT
  5
616B
330
60AE
100
AcDbEntity
  8
Defpoints
 62
     0
100
AcDbPoint
 10
2815.244782093074
 20
1685.57507858317
 30
0.0
  0
POINT
  5
6193
330
60AE
100
AcDbEntity
  8
Defpoints
 62
     0
100
AcDbPoint
 10
2800.095008237352
 20
1505.645498210718
 30
0.0
  0
POINT
  5
6194
330
60AE
100
AcDbEntity
  8
Defpoints
 62
     0
100
AcDbPoint
 10
2778.330607579884
 20
1505.645498210718
 30
0.0
  0
ENDBLK
  5
60B0
330
60AE
100
AcDbEntity
  8
0
100
AcDbBlockEnd
  0
BLOCK
  5
60B9
330
60B8
100
AcDbEntity
  8
0
100
AcDbBlockBegin
  2
*D48
 70
     1
 10
0.0
 20
0.0
 30
0.0
  3
*D48
  1

  0
LINE
  5
60BB
330
60B8
100
AcDbEntity
  8
Dim
 62
     0
370
    -2
100
AcDbLine
 10
832.4974224443363
 20
1191.900002328612
 30
0.0
 11
919.9185087556425
 21
1191.900002328612
 31
0.0
  0
LINE
  5
60BC
330
60B8
100
AcDbEntity
  8
Dim
 62
     0
370
    -2
100
AcDbLine
 10
674.4684446583633
 20
1071.900006475333
 30
0.0
 11
919.9185087556425
 21
1071.900006475333
 31
0.0
  0
LINE
  5
60BD
330
60B8
100
AcDbEntity
  8
Dim
 62
     0
370
    -2
100
AcDbLine
 10
919.9185087556425
 20
1181.900612680174
 30
0.0
 11
919.9185087556425
 21
1081.89939612377
 31
0.0
  0
INSERT
  5
60BE
330
60B8
100
AcDbEntity
  8
Dim
 62
     0
370
    -2
100
AcDbBlockReference
  2
_DOT
 10
919.9185087556425
 20
1191.900002328612
 30
0.0
 41
9.999389648437498
 42
9.999389648437498
 43
9.999389648437498
 50
90.0
  0
INSERT
  5
60BF
330
60B8
100
AcDbEntity
  8
Dim
 62
     0
370
    -2
100
AcDbBlockReference
  2
_DOT
 10
919.9185087556425
 20
1071.900006475333
 30
0.0
 41
9.999389648437498
 42
9.999389648437498
 43
9.999389648437498
 50
270.0
  0
MTEXT
  5
60C0
330
60B8
100
AcDbEntity
  8
Dim
 62
     0
100
AcDbMText
 10
897.7022001618925
 20
1131.900004401972
 30
0.0
 40
24.4326171875
 41
0.0
 46
0.0
 71
     5
 72
     1
  1
\A1;120
  7
ＭＳ ゴシック
 11
0.0
 21
1.0
 31
0.0
 73
     1
 44
1.0
  0
POINT
  5
60C1
330
60B8
100
AcDbEntity
  8
Defpoints
 62
     0
100
AcDbPoint
 10
807.4974224443363
 20
1191.900002328612
 30
0.0
  0
POINT
  5
616C
330
60B8
100
AcDbEntity
  8
Defpoints
 62
     0
100
AcDbPoint
 10
649.4684446583633
 20
1071.900006475333
 30
0.0
  0
POINT
  5
616D
330
60B8
100
AcDbEntity
  8
Defpoints
 62
     0
100
AcDbPoint
 10
919.9185087556425
 20
1071.900006475333
 30
0.0
  0
ENDBLK
  5
60BA
330
60B8
100
AcDbEntity
  8
0
100
AcDbBlockEnd
  0
BLOCK
  5
60C3
330
60C2
100
AcDbEntity
  8
0
100
AcDbBlockBegin
  2
*D49
 70
     1
 10
0.0
 20
0.0
 30
0.0
  3
*D49
  1

  0
LINE
  5
60C5
330
60C2
100
AcDbEntity
  8
Dim
 62
     0
370
    -2
100
AcDbLine
 10
1431.117809810394
 20
1191.899998804953
 30
0.0
 11
1393.186720338239
 21
1191.899998804953
 31
0.0
  0
LINE
  5
60C6
330
60C2
100
AcDbEntity
  8
Dim
 62
     0
370
    -2
100
AcDbLine
 10
1431.117809810394
 20
1121.900002329856
 30
0.0
 11
1393.186720338239
 21
1121.900002329856
 31
0.0
  0
LINE
  5
60C7
330
60C2
100
AcDbEntity
  8
Dim
 62
     0
370
    -2
100
AcDbLine
 10
1393.186720338239
 20
1181.900609156515
 30
0.0
 11
1393.186720338239
 21
1131.899391978294
 31
0.0
  0
INSERT
  5
60C8
330
60C2
100
AcDbEntity
  8
Dim
 62
     0
370
    -2
100
AcDbBlockReference
  2
_DOT
 10
1393.186720338239
 20
1191.899998804953
 30
0.0
 41
9.999389648437498
 42
9.999389648437498
 43
9.999389648437498
 50
90.0
  0
INSERT
  5
60C9
330
60C2
100
AcDbEntity
  8
Dim
 62
     0
370
    -2
100
AcDbBlockReference
  2
_DOT
 10
1393.186720338239
 20
1121.900002329856
 30
0.0
 41
9.999389648437498
 42
9.999389648437498
 43
9.999389648437498
 50
270.0
  0
MTEXT
  5
60CA
330
60C2
100
AcDbEntity
  8
Dim
 62
     0
100
AcDbMText
 10
1370.970411744489
 20
1156.900000567408
 30
0.0
 40
24.4326171875
 41
0.0
 46
0.0
 71
     5
 72
     1
  1
\A1;70
  7
ＭＳ ゴシック
 11
0.0
 21
1.0
 31
0.0
 73
     1
 44
1.0
  0
POINT
  5
60CB
330
60C2
100
AcDbEntity
  8
Defpoints
 62
     0
100
AcDbPoint
 10
1456.117809810394
 20
1191.899998804953
 30
0.0
  0
POINT
  5
616E
330
60C2
100
AcDbEntity
  8
Defpoints
 62
     0
100
AcDbPoint
 10
1456.117809810394
 20
1121.900002329856
 30
0.0
  0
POINT
  5
616F
330
60C2
100
AcDbEntity
  8
Defpoints
 62
     0
100
AcDbPoint
 10
1393.186720338239
 20
1121.900002329856
 30
0.0
  0
ENDBLK
  5
60C4
330
60C2
100
AcDbEntity
  8
0
100
AcDbBlockEnd
  0
BLOCK
  5
60CD
330
60CC
100
AcDbEntity
  8
0
100
AcDbBlockBegin
  2
*D50
 70
     1
 10
0.0
 20
0.0
 30
0.0
  3
*D50
  1

  0
LINE
  5
60CF
330
60CC
100
AcDbEntity
  8
Dim
 62
     0
370
    -2
100
AcDbLine
 10
1431.117809810394
 20
1121.900002329856
 30
0.0
 11
1393.186720338239
 21
1121.900002329856
 31
0.0
  0
LINE
  5
60D0
330
60CC
100
AcDbEntity
  8
Dim
 62
     0
370
    -2
100
AcDbLine
 10
1537.668731650459
 20
1071.90000647534
 30
0.0
 11
1393.186720338239
 21
1071.90000647534
 31
0.0
  0
LINE
  5
60D1
330
60CC
100
AcDbEntity
  8
Dim
 62
     0
370
    -2
100
AcDbLine
 10
1393.186720338239
 20
1111.900612681419
 30
0.0
 11
1393.186720338239
 21
1081.899396123777
 31
0.0
  0
INSERT
  5
60D2
330
60CC
100
AcDbEntity
  8
Dim
 62
     0
370
    -2
100
AcDbBlockReference
  2
_DOT
 10
1393.186720338239
 20
1121.900002329856
 30
0.0
 41
9.999389648437498
 42
9.999389648437498
 43
9.999389648437498
 50
90.0
  0
INSERT
  5
60D3
330
60CC
100
AcDbEntity
  8
Dim
 62
     0
370
    -2
100
AcDbBlockReference
  2
_DOT
 10
1393.186720338239
 20
1071.90000647534
 30
0.0
 41
9.999389648437498
 42
9.999389648437498
 43
9.999389648437498
 50
270.0
  0
MTEXT
  5
60D4
330
60CC
100
AcDbEntity
  8
Dim
 62
     0
100
AcDbMText
 10
1370.970411744489
 20
1096.900004402595
 30
0.0
 40
24.4326171875
 41
0.0
 46
0.0
 71
     5
 72
     1
  1
\A1;50
  7
ＭＳ ゴシック
 11
0.0
 21
1.0
 31
0.0
 73
     1
 44
1.0
  0
POINT
  5
60D5
330
60CC
100
AcDbEntity
  8
Defpoints
 62
     0
100
AcDbPoint
 10
1456.117809810394
 20
1121.900002329856
 30
0.0
  0
POINT
  5
6170
330
60CC
100
AcDbEntity
  8
Defpoints
 62
     0
100
AcDbPoint
 10
1562.668731650459
 20
1071.90000647534
 30
0.0
  0
POINT
  5
6171
330
60CC
100
AcDbEntity
  8
Defpoints
 62
     0
100
AcDbPoint
 10
1393.186720338239
 20
1071.90000647534
 30
0.0
  0
ENDBLK
  5
60CE
330
60CC
100
AcDbEntity
  8
0
100
AcDbBlockEnd
  0
BLOCK
  5
60D7
330
60D6
100
AcDbEntity
  8
0
100
AcDbBlockBegin
  2
*D51
 70
     1
 10
0.0
 20
0.0
 30
0.0
  3
*D51
  1

  0
LINE
  5
60D9
330
60D6
100
AcDbEntity
  8
Dim
 62
     0
370
    -2
100
AcDbLine
 10
1597.773554457222
 20
1052.216096638822
 30
0.0
 11
1597.773554457222
 21
991.4845646606732
 31
0.0
  0
LINE
  5
60DA
330
60D6
100
AcDbEntity
  8
Dim
 62
     0
370
    -2
100
AcDbLine
 10
1687.199624909074
 20
1065.617782493633
 30
0.0
 11
1687.199624909074
 21
991.4845646606732
 31
0.0
  0
LINE
  5
60DB
330
60D6
100
AcDbEntity
  8
Dim
 62
     0
370
    -2
100
AcDbLine
 10
1607.772944105659
 20
991.4845646606732
 30
0.0
 11
1677.200235260636
 21
991.4845646606732
 31
0.0
  0
INSERT
  5
60DC
330
60D6
100
AcDbEntity
  8
Dim
 62
     0
370
    -2
100
AcDbBlockReference
  2
_DOT
 10
1597.773554457222
 20
991.4845646606732
 30
0.0
 41
9.999389648437498
 42
9.999389648437498
 43
9.999389648437498
 50
180.0
  0
INSERT
  5
60DD
330
60D6
100
AcDbEntity
  8
Dim
 62
     0
370
    -2
100
AcDbBlockReference
  2
_DOT
 10
1687.199624909074
 20
991.4845646606732
 30
0.0
 41
9.999389648437498
 42
9.999389648437498
 43
9.999389648437498
  0
MTEXT
  5
60DE
330
60D6
100
AcDbEntity
  8
Dim
 62
     0
100
AcDbMText
 10
1642.486589683148
 20
1013.700873254423
 30
0.0
 40
24.4326171875
 41
0.0
 46
0.0
 71
     5
 72
     1
  1
\A1;90
  7
ＭＳ ゴシック
 73
     1
 44
1.0
  0
POINT
  5
60DF
330
60D6
100
AcDbEntity
  8
Defpoints
 62
     0
100
AcDbPoint
 10
1597.773554457222
 20
1077.216096638822
 30
0.0
  0
POINT
  5
6172
330
60D6
100
AcDbEntity
  8
Defpoints
 62
     0
100
AcDbPoint
 10
1687.199624909074
 20
1090.617782493633
 30
0.0
  0
POINT
  5
6173
330
60D6
100
AcDbEntity
  8
Defpoints
 62
     0
100
AcDbPoint
 10
1687.199624909074
 20
991.4845646606732
 30
0.0
  0
ENDBLK
  5
60D8
330
60D6
100
AcDbEntity
  8
0
100
AcDbBlockEnd
  0
BLOCK
  5
60E1
330
60E0
100
AcDbEntity
  8
0
100
AcDbBlockBegin
  2
*D52
 70
     1
 10
0.0
 20
0.0
 30
0.0
  3
*D52
  1

  0
LINE
  5
60E3
330
60E0
100
AcDbEntity
  8
Dim
 62
     0
370
    -2
100
AcDbLine
 10
3259.169495784239
 20
1764.204181772422
 30
0.0
 11
3259.169495784239
 21
1811.35088358912
 31
0.0
  0
LINE
  5
60E4
330
60E0
100
AcDbEntity
  8
Dim
 62
     0
370
    -2
100
AcDbLine
 10
3304.214858169898
 20
1764.204181772422
 30
0.0
 11
3304.214858169898
 21
1811.35088358912
 31
0.0
  0
LINE
  5
60E5
330
60E0
100
AcDbEntity
  8
Dim
 62
     0
370
    -2
100
AcDbLine
 10
3269.168885432676
 20
1811.35088358912
 30
0.0
 11
3294.21546852146
 21
1811.35088358912
 31
0.0
  0
INSERT
  5
60E6
330
60E0
100
AcDbEntity
  8
Dim
 62
     0
370
    -2
100
AcDbBlockReference
  2
_DOT
 10
3259.169495784239
 20
1811.35088358912
 30
0.0
 41
9.999389648437498
 42
9.999389648437498
 43
9.999389648437498
 50
180.0
  0
INSERT
  5
60E7
330
60E0
100
AcDbEntity
  8
Dim
 62
     0
370
    -2
100
AcDbBlockReference
  2
_DOT
 10
3304.214858169898
 20
1811.35088358912
 30
0.0
 41
9.999389648437498
 42
9.999389648437498
 43
9.999389648437498
  0
MTEXT
  5
60E8
330
60E0
100
AcDbEntity
  8
Dim
 62
     0
100
AcDbMText
 10
3281.692176977068
 20
1833.56719218287
 30
0.0
 40
24.4326171875
 41
0.0
 46
0.0
 71
     5
 72
     1
  1
\A1;45
  7
ＭＳ ゴシック
 73
     1
 44
1.0
  0
POINT
  5
60E9
330
60E0
100
AcDbEntity
  8
Defpoints
 62
     0
100
AcDbPoint
 10
3259.169495784239
 20
1739.204181772422
 30
0.0
  0
POINT
  5
6174
330
60E0
100
AcDbEntity
  8
Defpoints
 62
     0
100
AcDbPoint
 10
3304.214858169898
 20
1739.204181772422
 30
0.0
  0
POINT
  5
6175
330
60E0
100
AcDbEntity
  8
Defpoints
 62
     0
100
AcDbPoint
 10
3304.214858169898
 20
1811.35088358912
 30
0.0
  0
ENDBLK
  5
60E2
330
60E0
100
AcDbEntity
  8
0
100
AcDbBlockEnd
  0
BLOCK
  5
60EB
330
60EA
100
AcDbEntity
  8
0
100
AcDbBlockBegin
  2
*D53
 70
     1
 10
0.0
 20
0.0
 30
0.0
  3
*D53
  1

  0
LINE
  5
60ED
330
60EA
100
AcDbEntity
  8
Dim
 62
     0
370
    -2
100
AcDbLine
 10
2949.401079699337
 20
1764.204181772422
 30
0.0
 11
2949.401079699337
 21
1811.35088358912
 31
0.0
  0
LINE
  5
60EE
330
60EA
100
AcDbEntity
  8
Dim
 62
     0
370
    -2
100
AcDbLine
 10
2904.355717313677
 20
1764.204181772422
 30
0.0
 11
2904.355717313677
 21
1811.35088358912
 31
0.0
  0
LINE
  5
60EF
330
60EA
100
AcDbEntity
  8
Dim
 62
     0
370
    -2
100
AcDbLine
 10
2939.401690050899
 20
1811.35088358912
 30
0.0
 11
2914.355106962115
 21
1811.35088358912
 31
0.0
  0
INSERT
  5
60F0
330
60EA
100
AcDbEntity
  8
Dim
 62
     0
370
    -2
100
AcDbBlockReference
  2
_DOT
 10
2949.401079699337
 20
1811.35088358912
 30
0.0
 41
9.999389648437498
 42
9.999389648437498
 43
9.999389648437498
  0
INSERT
  5
60F1
330
60EA
100
AcDbEntity
  8
Dim
 62
     0
370
    -2
100
AcDbBlockReference
  2
_DOT
 10
2904.355717313677
 20
1811.35088358912
 30
0.0
 41
9.999389648437498
 42
9.999389648437498
 43
9.999389648437498
 50
180.0
  0
MTEXT
  5
60F2
330
60EA
100
AcDbEntity
  8
Dim
 62
     0
100
AcDbMText
 10
2926.878398506507
 20
1833.56719218287
 30
0.0
 40
24.4326171875
 41
0.0
 46
0.0
 71
     5
 72
     1
  1
\A1;45
  7
ＭＳ ゴシック
 73
     1
 44
1.0
  0
POINT
  5
60F3
330
60EA
100
AcDbEntity
  8
Defpoints
 62
     0
100
AcDbPoint
 10
2949.401079699337
 20
1739.204181772422
 30
0.0
  0
POINT
  5
6178
330
60EA
100
AcDbEntity
  8
Defpoints
 62
     0
100
AcDbPoint
 10
2904.355717313677
 20
1739.204181772422
 30
0.0
  0
POINT
  5
6179
330
60EA
100
AcDbEntity
  8
Defpoints
 62
     0
100
AcDbPoint
 10
2904.355717313677
 20
1811.35088358912
 30
0.0
  0
ENDBLK
  5
60EC
330
60EA
100
AcDbEntity
  8
0
100
AcDbBlockEnd
  0
BLOCK
  5
60F5
330
60F4
100
AcDbEntity
  8
0
100
AcDbBlockBegin
  2
*D54
 70
     1
 10
0.0
 20
0.0
 30
0.0
  3
*D54
  1

  0
LINE
  5
60F7
330
60F4
100
AcDbEntity
  8
Dim
 62
     0
370
    -2
100
AcDbLine
 10
2964.28528774178
 20
1175.573448865207
 30
0.0
 11
2964.28528774178
 21
1264.768941049895
 31
0.0
  0
LINE
  5
60F8
330
60F4
100
AcDbEntity
  8
Dim
 62
     0
370
    -2
100
AcDbLine
 10
3244.28528774178
 20
1175.573448865206
 30
0.0
 11
3244.28528774178
 21
1264.768941049895
 31
0.0
  0
LINE
  5
60F9
330
60F4
100
AcDbEntity
  8
Dim
 62
     0
370
    -2
100
AcDbLine
 10
2974.284677390218
 20
1264.768941049895
 30
0.0
 11
3234.285898093343
 21
1264.768941049895
 31
0.0
  0
INSERT
  5
60FA
330
60F4
100
AcDbEntity
  8
Dim
 62
     0
370
    -2
100
AcDbBlockReference
  2
_DOT
 10
2964.28528774178
 20
1264.768941049895
 30
0.0
 41
9.999389648437498
 42
9.999389648437498
 43
9.999389648437498
 50
180.0
  0
INSERT
  5
60FB
330
60F4
100
AcDbEntity
  8
Dim
 62
     0
370
    -2
100
AcDbBlockReference
  2
_DOT
 10
3244.28528774178
 20
1264.768941049895
 30
0.0
 41
9.999389648437498
 42
9.999389648437498
 43
9.999389648437498
  0
MTEXT
  5
60FC
330
60F4
100
AcDbEntity
  8
Dim
 62
     0
100
AcDbMText
 10
3104.28528774178
 20
1286.985249643645
 30
0.0
 40
24.4326171875
 41
0.0
 46
0.0
 71
     5
 72
     1
  1
\A1;280
  7
ＭＳ ゴシック
 73
     1
 44
1.0
  0
POINT
  5
60FD
330
60F4
100
AcDbEntity
  8
Defpoints
 62
     0
100
AcDbPoint
 10
2964.28528774178
 20
1150.573448865207
 30
0.0
  0
POINT
  5
617C
330
60F4
100
AcDbEntity
  8
Defpoints
 62
     0
100
AcDbPoint
 10
3244.28528774178
 20
1150.573448865206
 30
0.0
  0
POINT
  5
617D
330
60F4
100
AcDbEntity
  8
Defpoints
 62
     0
100
AcDbPoint
 10
3244.28528774178
 20
1264.768941049895
 30
0.0
  0
ENDBLK
  5
60F6
330
60F4
100
AcDbEntity
  8
0
100
AcDbBlockEnd
  0
BLOCK
  5
611F
330
611E
100
AcDbEntity
  8
0
100
AcDbBlockBegin
  2
*D55
 70
     1
 10
0.0
 20
0.0
 30
0.0
  3
*D55
  1

  0
LINE
  5
6121
330
611E
100
AcDbEntity
  8
Dim
 62
     0
370
    -2
100
AcDbLine
 10
3484.570743530184
 20
1735.575099586451
 30
0.0
 11
3491.559849036828
 21
1735.575099586451
 31
0.0
  0
LINE
  5
6122
330
611E
100
AcDbEntity
  8
Dim
 62
     0
370
    -2
100
AcDbLine
 10
3484.570743530192
 20
1505.645498210716
 30
0.0
 11
3491.559849036835
 21
1505.645498210717
 31
0.0
  0
LINE
  5
6123
330
611E
100
AcDbEntity
  8
Dim
 62
     0
370
    -2
100
AcDbLine
 10
3491.559849036828
 20
1725.575709938014
 30
0.0
 11
3491.559849036835
 21
1515.644887859154
 31
0.0
  0
INSERT
  5
6124
330
611E
100
AcDbEntity
  8
Dim
 62
     0
370
    -2
100
AcDbBlockReference
  2
_DOT
 10
3491.559849036828
 20
1735.575099586451
 30
0.0
 41
9.999389648437498
 42
9.999389648437498
 43
9.999389648437498
 50
90.0000000000018
  0
INSERT
  5
6125
330
611E
100
AcDbEntity
  8
Dim
 62
     0
370
    -2
100
AcDbBlockReference
  2
_DOT
 10
3491.559849036835
 20
1505.645498210717
 30
0.0
 41
9.999389648437498
 42
9.999389648437498
 43
9.999389648437498
 50
270.0000000000018
  0
MTEXT
  5
6126
330
611E
100
AcDbEntity
  8
Dim
 62
     0
100
AcDbMText
 10
3469.086997962613
 20
1620.610298898584
 30
0.0
 40
24.4326171875
 41
0.0
 46
0.0
 71
     5
 72
     1
  1
\A1;\fArial|b0|i0|c0|p0;229.9
  7
ＭＳ ゴシック
 11
-3.164428403584959E-14
 21
1.0
 31
0.0
 73
     1
 44
1.0
  0
POINT
  5
6127
330
611E
100
AcDbEntity
  8
Defpoints
 62
     0
100
AcDbPoint
 10
3509.570743530184
 20
1735.575099586452
 30
0.0
  0
POINT
  5
617E
330
611E
100
AcDbEntity
  8
Defpoints
 62
     0
100
AcDbPoint
 10
3509.570743530192
 20
1505.645498210717
 30
0.0
  0
POINT
  5
617F
330
611E
100
AcDbEntity
  8
Defpoints
 62
     0
100
AcDbPoint
 10
3491.559849036835
 20
1505.645498210717
 30
0.0
  0
ENDBLK
  5
6120
330
611E
100
AcDbEntity
  8
0
100
AcDbBlockEnd
  0
BLOCK
  5
6129
330
6128
100
AcDbEntity
  8
0
100
AcDbBlockBegin
  2
*D56
 70
     1
 10
0.0
 20
0.0
 30
0.0
  3
*D56
  1

  0
LINE
  5
612B
330
6128
100
AcDbEntity
  8
Dim
 62
     0
370
    -2
100
AcDbLine
 10
3537.93728531367
 20
1451.405273271426
 30
0.0
 11
3537.93728531367
 21
1453.717001197371
 31
0.0
  0
LINE
  5
612C
330
6128
100
AcDbEntity
  8
Dim
 62
     0
370
    -2
100
AcDbLine
 10
3937.796426169898
 20
1451.405273271426
 30
0.0
 11
3937.796426169898
 21
1453.717001197371
 31
0.0
  0
LINE
  5
612D
330
6128
100
AcDbEntity
  8
Dim
 62
     0
370
    -2
100
AcDbLine
 10
3547.936674962107
 20
1453.717001197371
 30
0.0
 11
3927.79703652146
 21
1453.717001197371
 31
0.0
  0
INSERT
  5
612E
330
6128
100
AcDbEntity
  8
Dim
 62
     0
370
    -2
100
AcDbBlockReference
  2
_DOT
 10
3537.93728531367
 20
1453.717001197371
 30
0.0
 41
9.999389648437498
 42
9.999389648437498
 43
9.999389648437498
 50
180.0
  0
INSERT
  5
612F
330
6128
100
AcDbEntity
  8
Dim
 62
     0
370
    -2
100
AcDbBlockReference
  2
_DOT
 10
3937.796426169898
 20
1453.717001197371
 30
0.0
 41
9.999389648437498
 42
9.999389648437498
 43
9.999389648437498
  0
MTEXT
  5
6130
330
6128
100
AcDbEntity
  8
Dim
 62
     0
100
AcDbMText
 10
3737.866855741784
 20
1475.933309791121
 30
0.0
 40
24.4326171875
 41
0.0
 46
0.0
 71
     5
 72
     1
  1
\A1;399.9
  7
ＭＳ ゴシック
 73
     1
 44
1.0
  0
POINT
  5
6131
330
6128
100
AcDbEntity
  8
Defpoints
 62
     0
100
AcDbPoint
 10
3537.93728531367
 20
1476.405273271426
 30
0.0
  0
POINT
  5
6180
330
6128
100
AcDbEntity
  8
Defpoints
 62
     0
100
AcDbPoint
 10
3937.796426169898
 20
1476.405273271426
 30
0.0
  0
POINT
  5
6181
330
6128
100
AcDbEntity
  8
Defpoints
 62
     0
100
AcDbPoint
 10
3937.796426169898
 20
1453.717001197371
 30
0.0
  0
ENDBLK
  5
612A
330
6128
100
AcDbEntity
  8
0
100
AcDbBlockEnd
  0
BLOCK
  5
6133
330
6132
100
AcDbEntity
  8
0
100
AcDbBlockBegin
  2
*D57
 70
     1
 10
0.0
 20
0.0
 30
0.0
  3
*D57
  1

  0
LINE
  5
6135
330
6132
100
AcDbEntity
  8
Dim
 62
     0
370
    -2
100
AcDbLine
 10
3981.882813043474
 20
1735.979674416885
 30
0.0
 11
3978.098023666676
 21
1735.979674416885
 31
0.0
  0
LINE
  5
6136
330
6132
100
AcDbEntity
  8
Dim
 62
     0
370
    -2
100
AcDbLine
 10
3981.882813043474
 20
1685.57507858317
 30
0.0
 11
3978.098023666676
 21
1685.57507858317
 31
0.0
  0
LINE
  5
6137
330
6132
100
AcDbEntity
  8
Dim
 62
     0
370
    -2
100
AcDbLine
 10
3978.098023666676
 20
1725.980284768447
 30
0.0
 11
3978.098023666676
 21
1695.574468231607
 31
0.0
  0
INSERT
  5
6138
330
6132
100
AcDbEntity
  8
Dim
 62
     0
370
    -2
100
AcDbBlockReference
  2
_DOT
 10
3978.098023666676
 20
1735.979674416885
 30
0.0
 41
9.999389648437498
 42
9.999389648437498
 43
9.999389648437498
 50
90.0
  0
INSERT
  5
6139
330
6132
100
AcDbEntity
  8
Dim
 62
     0
370
    -2
100
AcDbBlockReference
  2
_DOT
 10
3978.098023666676
 20
1685.57507858317
 30
0.0
 41
9.999389648437498
 42
9.999389648437498
 43
9.999389648437498
 50
270.0
  0
MTEXT
  5
613A
330
6132
100
AcDbEntity
  8
Dim
 62
     0
100
AcDbMText
 10
3955.881715072926
 20
1710.777376500036
 30
0.0
 40
24.4326171875
 41
0.0
 46
0.0
 71
     5
 72
     1
  1
\A1;50.4
  7
ＭＳ ゴシック
 11
0.0
 21
1.0
 31
0.0
 73
     1
 44
1.0
  0
POINT
  5
613B
330
6132
100
AcDbEntity
  8
Defpoints
 62
     0
100
AcDbPoint
 10
3956.882813043474
 20
1735.979674416885
 30
0.0
  0
POINT
  5
6182
330
6132
100
AcDbEntity
  8
Defpoints
 62
     0
100
AcDbPoint
 10
3956.882813043474
 20
1685.57507858317
 30
0.0
  0
POINT
  5
6183
330
6132
100
AcDbEntity
  8
Defpoints
 62
     0
100
AcDbPoint
 10
3978.098023666676
 20
1685.57507858317
 30
0.0
  0
ENDBLK
  5
6134
330
6132
100
AcDbEntity
  8
0
100
AcDbBlockEnd
  0
BLOCK
  5
613D
330
613C
100
AcDbEntity
  8
0
100
AcDbBlockBegin
  2
*D58
 70
     1
 10
0.0
 20
0.0
 30
0.0
  3
*D58
  1

  0
LINE
  5
613F
330
613C
100
AcDbEntity
  8
Dim
 62
     0
370
    -2
100
AcDbLine
 10
3981.882813043474
 20
1685.57507858317
 30
0.0
 11
3978.098023666676
 21
1685.57507858317
 31
0.0
  0
LINE
  5
6140
330
613C
100
AcDbEntity
  8
Dim
 62
     0
370
    -2
100
AcDbLine
 10
3966.733039187751
 20
1505.645498210717
 30
0.0
 11
3978.098023666676
 21
1505.645498210717
 31
0.0
  0
LINE
  5
6141
330
613C
100
AcDbEntity
  8
Dim
 62
     0
370
    -2
100
AcDbLine
 10
3978.098023666676
 20
1675.575688934732
 30
0.0
 11
3978.098023666676
 21
1515.644887859155
 31
0.0
  0
INSERT
  5
6142
330
613C
100
AcDbEntity
  8
Dim
 62
     0
370
    -2
100
AcDbBlockReference
  2
_DOT
 10
3978.098023666676
 20
1685.57507858317
 30
0.0
 41
9.999389648437498
 42
9.999389648437498
 43
9.999389648437498
 50
90.0
  0
INSERT
  5
6143
330
613C
100
AcDbEntity
  8
Dim
 62
     0
370
    -2
100
AcDbBlockReference
  2
_DOT
 10
3978.098023666676
 20
1505.645498210717
 30
0.0
 41
9.999389648437498
 42
9.999389648437498
 43
9.999389648437498
 50
270.0
  0
MTEXT
  5
6144
330
613C
100
AcDbEntity
  8
Dim
 62
     0
100
AcDbMText
 10
3955.881715072926
 20
1595.610288396944
 30
0.0
 40
24.4326171875
 41
0.0
 46
0.0
 71
     5
 72
     1
  1
\A1;179.9
  7
ＭＳ ゴシック
 11
0.0
 21
1.0
 31
0.0
 73
     1
 44
1.0
  0
POINT
  5
6145
330
613C
100
AcDbEntity
  8
Defpoints
 62
     0
100
AcDbPoint
 10
3956.882813043474
 20
1685.57507858317
 30
0.0
  0
POINT
  5
6184
330
613C
100
AcDbEntity
  8
Defpoints
 62
     0
100
AcDbPoint
 10
3941.733039187751
 20
1505.645498210717
 30
0.0
  0
POINT
  5
6185
330
613C
100
AcDbEntity
  8
Defpoints
 62
     0
100
AcDbPoint
 10
3978.098023666676
 20
1505.645498210717
 30
0.0
  0
ENDBLK
  5
613E
330
613C
100
AcDbEntity
  8
0
100
AcDbBlockEnd
  0
BLOCK
  5
6147
330
6146
100
AcDbEntity
  8
0
100
AcDbBlockBegin
  2
*D59
 70
     1
 10
0.0
 20
0.0
 30
0.0
  3
*D59
  1

  0
LINE
  5
6149
330
6146
100
AcDbEntity
  8
Dim
 62
     0
370
    -2
100
AcDbLine
 10
3892.751063784238
 20
1764.204181772422
 30
0.0
 11
3892.751063784238
 21
1775.114300888275
 31
0.0
  0
LINE
  5
614A
330
6146
100
AcDbEntity
  8
Dim
 62
     0
370
    -2
100
AcDbLine
 10
3937.796426169898
 20
1764.204181772422
 30
0.0
 11
3937.796426169898
 21
1775.114300888275
 31
0.0
  0
LINE
  5
614B
330
6146
100
AcDbEntity
  8
Dim
 62
     0
370
    -2
100
AcDbLine
 10
3892.751063784238
 20
1775.114300888275
 30
0.0
 11
3937.796426169898
 21
1775.114300888275
 31
0.0
  0
LINE
  5
614C
330
6146
100
AcDbEntity
  8
Dim
 62
     0
370
    -2
100
AcDbLine
 10
3882.751674135801
 20
1775.114300888275
 30
0.0
 11
3872.752284487363
 21
1775.114300888275
 31
0.0
  0
LINE
  5
614D
330
6146
100
AcDbEntity
  8
Dim
 62
     0
370
    -2
100
AcDbLine
 10
3947.795815818335
 20
1775.114300888275
 30
0.0
 11
3957.795205466773
 21
1775.114300888275
 31
0.0
  0
INSERT
  5
614E
330
6146
100
AcDbEntity
  8
Dim
 62
     0
370
    -2
100
AcDbBlockReference
  2
_DOT
 10
3892.751063784238
 20
1775.114300888275
 30
0.0
 41
9.999389648437498
 42
9.999389648437498
 43
9.999389648437498
  0
INSERT
  5
614F
330
6146
100
AcDbEntity
  8
Dim
 62
     0
370
    -2
100
AcDbBlockReference
  2
_DOT
 10
3937.796426169898
 20
1775.114300888275
 30
0.0
 41
9.999389648437498
 42
9.999389648437498
 43
9.999389648437498
 50
180.0
  0
MTEXT
  5
6186
330
6146
100
AcDbEntity
  8
Dim
 62
     0
100
AcDbMText
 10
3915.273744977068
 20
1797.330609482025
 30
0.0
 40
24.4326171875
 41
0.0
 46
0.0
 71
     5
 72
     1
  1
\A1;45
  7
ＭＳ ゴシック
 73
     1
 44
1.0
  0
POINT
  5
6187
330
6146
100
AcDbEntity
  8
Defpoints
 62
     0
100
AcDbPoint
 10
3892.751063784238
 20
1739.204181772422
 30
0.0
  0
POINT
  5
6188
330
6146
100
AcDbEntity
  8
Defpoints
 62
     0
100
AcDbPoint
 10
3937.796426169898
 20
1739.204181772422
 30
0.0
  0
POINT
  5
6189
330
6146
100
AcDbEntity
  8
Defpoints
 62
     0
100
AcDbPoint
 10
3937.796426169898
 20
1775.114300888275
 30
0.0
  0
ENDBLK
  5
6148
330
6146
100
AcDbEntity
  8
0
100
AcDbBlockEnd
  0
BLOCK
  5
6151
330
6150
100
AcDbEntity
  8
0
100
AcDbBlockBegin
  2
*D60
 70
     1
 10
0.0
 20
0.0
 30
0.0
  3
*D60
  1

  0
LINE
  5
6153
330
6150
100
AcDbEntity
  8
Dim
 62
     0
370
    -2
100
AcDbLine
 10
3582.982647699336
 20
1764.204181772422
 30
0.0
 11
3582.982647699336
 21
1775.114300888275
 31
0.0
  0
LINE
  5
6154
330
6150
100
AcDbEntity
  8
Dim
 62
     0
370
    -2
100
AcDbLine
 10
3537.937285313677
 20
1764.204181772422
 30
0.0
 11
3537.937285313677
 21
1775.114300888275
 31
0.0
  0
LINE
  5
6155
330
6150
100
AcDbEntity
  8
Dim
 62
     0
370
    -2
100
AcDbLine
 10
3582.982647699336
 20
1775.114300888275
 30
0.0
 11
3537.937285313677
 21
1775.114300888275
 31
0.0
  0
LINE
  5
6156
330
6150
100
AcDbEntity
  8
Dim
 62
     0
370
    -2
100
AcDbLine
 10
3592.982037347774
 20
1775.114300888275
 30
0.0
 11
3602.981426996211
 21
1775.114300888275
 31
0.0
  0
LINE
  5
6157
330
6150
100
AcDbEntity
  8
Dim
 62
     0
370
    -2
100
AcDbLine
 10
3527.937895665239
 20
1775.114300888275
 30
0.0
 11
3517.938506016802
 21
1775.114300888275
 31
0.0
  0
INSERT
  5
6158
330
6150
100
AcDbEntity
  8
Dim
 62
     0
370
    -2
100
AcDbBlockReference
  2
_DOT
 10
3582.982647699336
 20
1775.114300888275
 30
0.0
 41
9.999389648437498
 42
9.999389648437498
 43
9.999389648437498
 50
180.0
  0
INSERT
  5
6159
330
6150
100
AcDbEntity
  8
Dim
 62
     0
370
    -2
100
AcDbBlockReference
  2
_DOT
 10
3537.937285313677
 20
1775.114300888275
 30
0.0
 41
9.999389648437498
 42
9.999389648437498
 43
9.999389648437498
  0
MTEXT
  5
618A
330
6150
100
AcDbEntity
  8
Dim
 62
     0
100
AcDbMText
 10
3560.459966506507
 20
1797.330609482025
 30
0.0
 40
24.4326171875
 41
0.0
 46
0.0
 71
     5
 72
     1
  1
\A1;45
  7
ＭＳ ゴシック
 73
     1
 44
1.0
  0
POINT
  5
618B
330
6150
100
AcDbEntity
  8
Defpoints
 62
     0
100
AcDbPoint
 10
3582.982647699336
 20
1739.204181772422
 30
0.0
  0
POINT
  5
618C
330
6150
100
AcDbEntity
  8
Defpoints
 62
     0
100
AcDbPoint
 10
3537.937285313677
 20
1739.204181772422
 30
0.0
  0
POINT
  5
618D
330
6150
100
AcDbEntity
  8
Defpoints
 62
     0
100
AcDbPoint
 10
3537.937285313677
 20
1775.114300888275
 30
0.0
  0
ENDBLK
  5
6152
330
6150
100
AcDbEntity
  8
0
100
AcDbBlockEnd
  0
BLOCK
  5
615B
330
615A
100
AcDbEntity
  8
0
100
AcDbBlockBegin
  2
*D61
 70
     1
 10
0.0
 20
0.0
 30
0.0
  3
*D61
  1

  0
LINE
  5
615D
330
615A
100
AcDbEntity
  8
Dim
 62
     0
370
    -2
100
AcDbLine
 10
3597.86685574178
 20
1764.204181772423
 30
0.0
 11
3597.86685574178
 21
1775.114300888275
 31
0.0
  0
LINE
  5
615E
330
615A
100
AcDbEntity
  8
Dim
 62
     0
370
    -2
100
AcDbLine
 10
3877.86685574178
 20
1764.204181772422
 30
0.0
 11
3877.86685574178
 21
1775.114300888275
 31
0.0
  0
LINE
  5
615F
330
615A
100
AcDbEntity
  8
Dim
 62
     0
370
    -2
100
AcDbLine
 10
3607.866245390218
 20
1775.114300888275
 30
0.0
 11
3867.867466093343
 21
1775.114300888275
 31
0.0
  0
INSERT
  5
6160
330
615A
100
AcDbEntity
  8
Dim
 62
     0
370
    -2
100
AcDbBlockReference
  2
_DOT
 10
3597.86685574178
 20
1775.114300888275
 30
0.0
 41
9.999389648437498
 42
9.999389648437498
 43
9.999389648437498
 50
180.0
  0
INSERT
  5
6161
330
615A
100
AcDbEntity
  8
Dim
 62
     0
370
    -2
100
AcDbBlockReference
  2
_DOT
 10
3877.86685574178
 20
1775.114300888275
 30
0.0
 41
9.999389648437498
 42
9.999389648437498
 43
9.999389648437498
  0
MTEXT
  5
6162
330
615A
100
AcDbEntity
  8
Dim
 62
     0
100
AcDbMText
 10
3737.86685574178
 20
1797.330609482025
 30
0.0
 40
24.4326171875
 41
0.0
 46
0.0
 71
     5
 72
     1
  1
\A1;280
  7
ＭＳ ゴシック
 73
     1
 44
1.0
  0
POINT
  5
6163
330
615A
100
AcDbEntity
  8
Defpoints
 62
     0
100
AcDbPoint
 10
3597.86685574178
 20
1739.204181772423
 30
0.0
  0
POINT
  5
618E
330
615A
100
AcDbEntity
  8
Defpoints
 62
     0
100
AcDbPoint
 10
3877.86685574178
 20
1739.204181772422
 30
0.0
  0
POINT
  5
618F
330
615A
100
AcDbEntity
  8
Defpoints
 62
     0
100
AcDbPoint
 10
3877.86685574178
 20
1775.114300888275
 30
0.0
  0
ENDBLK
  5
615C
330
615A
100
AcDbEntity
  8
0
100
AcDbBlockEnd
  0
BLOCK
  5
61A5
330
61A4
100
AcDbEntity
  8
0
100
AcDbBlockBegin
  2
*D62
 70
     1
 10
0.0
 20
0.0
 30
0.0
  3
*D62
  1

  0
LINE
  5
61A7
330
61A4
100
AcDbEntity
  8
Dim
 62
     0
370
    -2
100
AcDbLine
 10
1528.298394788488
 20
1081.90000647534
 30
0.0
 11
1393.186720338239
 21
1081.90000647534
 31
0.0
  0
LINE
  5
61A8
330
61A4
100
AcDbEntity
  8
Dim
 62
     0
370
    -2
100
AcDbLine
 10
1538.340576536161
 20
1071.90000647534
 30
0.0
 11
1393.186720338239
 21
1071.90000647534
 31
0.0
  0
LINE
  5
61A9
330
61A4
100
AcDbEntity
  8
Dim
 62
     0
370
    -2
100
AcDbLine
 10
1393.186720338239
 20
1071.90000647534
 30
0.0
 11
1393.186720338239
 21
1004.48783069409
 31
0.0
  0
LINE
  5
61AA
330
61A4
100
AcDbEntity
  8
Dim
 62
     0
370
    -2
100
AcDbLine
 10
1393.186720338239
 20
1071.900616826902
 30
0.0
 11
1393.186720338239
 21
1081.899396123777
 31
0.0
  0
LINE
  5
61AB
330
61A4
100
AcDbEntity
  8
Dim
 62
     0
370
    -2
100
AcDbLine
 10
1393.186720338239
 20
1081.899396123777
 30
0.0
 11
1393.186720338239
 21
1091.898785772215
 31
0.0
  0
INSERT
  5
61AC
330
61A4
100
AcDbEntity
  8
Dim
 62
     0
370
    -2
100
AcDbBlockReference
  2
_DOT
 10
1393.186720338239
 20
1081.90000647534
 30
0.0
 41
9.999389648437498
 42
9.999389648437498
 43
9.999389648437498
 50
90.0
  0
INSERT
  5
61AD
330
61A4
100
AcDbEntity
  8
Dim
 62
     0
370
    -2
100
AcDbBlockReference
  2
_DOT
 10
1393.186720338239
 20
1071.90000647534
 30
0.0
 41
9.999389648437498
 42
9.999389648437498
 43
9.999389648437498
 50
270.0
  0
MTEXT
  5
61AE
330
61A4
100
AcDbEntity
  8
Dim
 62
     0
100
AcDbMText
 10
1370.970411744489
 20
1028.194528936277
 30
0.0
 40
24.4326171875
 41
0.0
 46
0.0
 71
     5
 72
     1
  1
\A1;10
  7
ＭＳ ゴシック
 11
0.0
 21
1.0
 31
0.0
 73
     1
 44
1.0
  0
POINT
  5
61AF
330
61A4
100
AcDbEntity
  8
Defpoints
 62
     0
100
AcDbPoint
 10
1553.298394788488
 20
1081.90000647534
 30
0.0
  0
POINT
  5
61B2
330
61A4
100
AcDbEntity
  8
Defpoints
 62
     0
100
AcDbPoint
 10
1563.340576536161
 20
1071.90000647534
 30
0.0
  0
POINT
  5
61B3
330
61A4
100
AcDbEntity
  8
Defpoints
 62
     0
100
AcDbPoint
 10
1393.186720338239
 20
1071.90000647534
 30
0.0
  0
ENDBLK
  5
61A6
330
61A4
100
AcDbEntity
  8
0
100
AcDbBlockEnd
  0
BLOCK
  5
61B7
330
61B6
100
AcDbEntity
  8
0
100
AcDbBlockBegin
  2
*D63
 70
     1
 10
0.0
 20
0.0
 30
0.0
  3
*D63
  1

  0
LINE
  5
61B9
330
61B6
100
AcDbEntity
  8
Dim
 62
     0
370
    -2
100
AcDbLine
 10
833.4285440241474
 20
2105.712668638828
 30
0.0
 11
941.1021114949353
 21
2105.712668638828
 31
0.0
  0
LINE
  5
61BA
330
61B6
100
AcDbEntity
  8
Dim
 62
     0
370
    -2
100
AcDbLine
 10
833.4285440241474
 20
1875.712668638828
 30
0.0
 11
941.1021114949353
 21
1875.712668638828
 31
0.0
  0
LINE
  5
61BB
330
61B6
100
AcDbEntity
  8
Dim
 62
     0
370
    -2
100
AcDbLine
 10
941.1021114949353
 20
2095.71327899039
 30
0.0
 11
941.1021114949353
 21
1885.712058287265
 31
0.0
  0
INSERT
  5
61BC
330
61B6
100
AcDbEntity
  8
Dim
 62
     0
370
    -2
100
AcDbBlockReference
  2
_DOT
 10
941.1021114949353
 20
2105.712668638828
 30
0.0
 41
9.999389648437498
 42
9.999389648437498
 43
9.999389648437498
 50
90.0
  0
INSERT
  5
61BD
330
61B6
100
AcDbEntity
  8
Dim
 62
     0
370
    -2
100
AcDbBlockReference
  2
_DOT
 10
941.1021114949353
 20
1875.712668638828
 30
0.0
 41
9.999389648437498
 42
9.999389648437498
 43
9.999389648437498
 50
270.0
  0
MTEXT
  5
61BE
330
61B6
100
AcDbEntity
  8
Dim
 62
     0
100
AcDbMText
 10
918.8858029011853
 20
1990.712668638828
 30
0.0
 40
24.4326171875
 41
0.0
 46
0.0
 71
     5
 72
     1
  1
\A1;230
  7
ＭＳ ゴシック
 11
0.0
 21
1.0
 31
0.0
 73
     1
 44
1.0
  0
POINT
  5
61BF
330
61B6
100
AcDbEntity
  8
Defpoints
 62
     0
100
AcDbPoint
 10
808.4285440241474
 20
2105.712668638828
 30
0.0
  0
POINT
  5
61C0
330
61B6
100
AcDbEntity
  8
Defpoints
 62
     0
100
AcDbPoint
 10
808.4285440241474
 20
1875.712668638828
 30
0.0
  0
POINT
  5
61C1
330
61B6
100
AcDbEntity
  8
Defpoints
 62
     0
100
AcDbPoint
 10
941.1021114949353
 20
1875.712668638828
 30
0.0
  0
ENDBLK
  5
61B8
330
61B6
100
AcDbEntity
  8
0
100
AcDbBlockEnd
  0
BLOCK
  5
61C6
330
61C5
100
AcDbEntity
  8
0
100
AcDbBlockBegin
  2
*D64
 70
     1
 10
0.0
 20
0.0
 30
0.0
  3
*D64
  1

  0
LINE
  5
61C8
330
61C5
100
AcDbEntity
  8
Dim
 62
     0
370
    -2
100
AcDbLine
 10
412.5694031679263
 20
2155.674707161535
 30
0.0
 11
412.5694031679263
 21
2215.502030826231
 31
0.0
  0
LINE
  5
61C9
330
61C5
100
AcDbEntity
  8
Dim
 62
     0
370
    -2
100
AcDbLine
 10
812.5694031679263
 20
2155.674707161535
 30
0.0
 11
812.5694031679263
 21
2215.502030826231
 31
0.0
  0
LINE
  5
61CA
330
61C5
100
AcDbEntity
  8
Dim
 62
     0
370
    -2
100
AcDbLine
 10
422.5687928163638
 20
2215.502030826231
 30
0.0
 11
802.5700135194888
 21
2215.502030826231
 31
0.0
  0
INSERT
  5
61CB
330
61C5
100
AcDbEntity
  8
Dim
 62
     0
370
    -2
100
AcDbBlockReference
  2
_DOT
 10
412.5694031679263
 20
2215.502030826231
 30
0.0
 41
9.999389648437498
 42
9.999389648437498
 43
9.999389648437498
 50
180.0
  0
INSERT
  5
61CC
330
61C5
100
AcDbEntity
  8
Dim
 62
     0
370
    -2
100
AcDbBlockReference
  2
_DOT
 10
812.5694031679263
 20
2215.502030826231
 30
0.0
 41
9.999389648437498
 42
9.999389648437498
 43
9.999389648437498
  0
MTEXT
  5
61CD
330
61C5
100
AcDbEntity
  8
Dim
 62
     0
100
AcDbMText
 10
612.5694031679263
 20
2237.718339419981
 30
0.0
 40
24.4326171875
 41
0.0
 46
0.0
 71
     5
 72
     1
  1
\A1;400
  7
ＭＳ ゴシック
 73
     1
 44
1.0
  0
POINT
  5
61CE
330
61C5
100
AcDbEntity
  8
Defpoints
 62
     0
100
AcDbPoint
 10
412.5694031679263
 20
2130.674707161535
 30
0.0
  0
POINT
  5
61CF
330
61C5
100
AcDbEntity
  8
Defpoints
 62
     0
100
AcDbPoint
 10
812.5694031679263
 20
2130.674707161535
 30
0.0
  0
POINT
  5
61D0
330
61C5
100
AcDbEntity
  8
Defpoints
 62
     0
100
AcDbPoint
 10
812.5694031679263
 20
2215.502030826231
 30
0.0
  0
ENDBLK
  5
61C7
330
61C5
100
AcDbEntity
  8
0
100
AcDbBlockEnd
  0
BLOCK
  5
61D3
330
61D2
100
AcDbEntity
  8
0
100
AcDbBlockBegin
  2
*D65
 70
     1
 10
0.0
 20
0.0
 30
0.0
  3
*D65
  1

  0
LINE
  5
61D5
330
61D2
100
AcDbEntity
  8
Dim
 62
     0
370
    -2
100
AcDbLine
 10
812.4285440241474
 20
2127.817741478942
 30
0.0
 11
812.4285440241474
 21
2154.136741866231
 31
0.0
  0
LINE
  5
61D6
330
61D2
100
AcDbEntity
  8
Dim
 62
     0
370
    -2
100
AcDbLine
 10
767.4739064097566
 20
2098.21267858317
 30
0.0
 11
767.4739064097566
 21
2154.136741866231
 31
0.0
  0
LINE
  5
61D7
330
61D2
100
AcDbEntity
  8
Dim
 62
     0
370
    -2
100
AcDbLine
 10
802.4291543757099
 20
2154.136741866231
 30
0.0
 11
777.4732960581941
 21
2154.136741866231
 31
0.0
  0
INSERT
  5
61D8
330
61D2
100
AcDbEntity
  8
Dim
 62
     0
370
    -2
100
AcDbBlockReference
  2
_DOT
 10
812.4285440241474
 20
2154.136741866231
 30
0.0
 41
9.999389648437498
 42
9.999389648437498
 43
9.999389648437498
  0
INSERT
  5
61D9
330
61D2
100
AcDbEntity
  8
Dim
 62
     0
370
    -2
100
AcDbBlockReference
  2
_DOT
 10
767.4739064097566
 20
2154.136741866231
 30
0.0
 41
9.999389648437498
 42
9.999389648437498
 43
9.999389648437498
 50
180.0
  0
MTEXT
  5
61DA
330
61D2
100
AcDbEntity
  8
Dim
 62
     0
100
AcDbMText
 10
789.9285440241474
 20
2176.353050459981
 30
0.0
 40
24.4326171875
 41
0.0
 46
0.0
 71
     5
 72
     1
  1
\A1;45
  7
ＭＳ ゴシック
 73
     1
 44
1.0
  0
POINT
  5
61DB
330
61D2
100
AcDbEntity
  8
Defpoints
 62
     0
100
AcDbPoint
 10
812.4285440241474
 20
2102.817741478942
 30
0.0
  0
POINT
  5
61DC
330
61D2
100
AcDbEntity
  8
Defpoints
 62
     0
100
AcDbPoint
 10
767.4739064097566
 20
2073.21267858317
 30
0.0
  0
POINT
  5
61DD
330
61D2
100
AcDbEntity
  8
Defpoints
 62
     0
100
AcDbPoint
 10
767.4739064097566
 20
2154.136741866231
 30
0.0
  0
ENDBLK
  5
61D4
330
61D2
100
AcDbEntity
  8
0
100
AcDbBlockEnd
  0
BLOCK
  5
61E3
330
61E2
100
AcDbEntity
  8
0
100
AcDbBlockBegin
  2
*D66
 70
     1
 10
0.0
 20
0.0
 30
0.0
  3
*D66
  1

  0
LINE
  5
61E5
330
61E2
100
AcDbEntity
  8
Dim
 62
     0
370
    -2
100
AcDbLine
 10
2883.35571731367
 20
1735.575068551406
 30
0.0
 11
2829.155505730284
 21
1735.575068551406
 31
0.0
  0
LINE
  5
61E6
330
61E2
100
AcDbEntity
  8
Dim
 62
     0
370
    -2
100
AcDbLine
 10
2883.35571731367
 20
1685.575068551406
 30
0.0
 11
2829.155505730284
 21
1685.575068551406
 31
0.0
  0
LINE
  5
61E7
330
61E2
100
AcDbEntity
  8
Dim
 62
     0
370
    -2
100
AcDbLine
 10
2829.155505730284
 20
1725.575678902969
 30
0.0
 11
2829.155505730284
 21
1695.574458199844
 31
0.0
  0
INSERT
  5
61E8
330
61E2
100
AcDbEntity
  8
Dim
 62
     0
370
    -2
100
AcDbBlockReference
  2
_DOT
 10
2829.155505730284
 20
1735.575068551406
 30
0.0
 41
9.999389648437498
 42
9.999389648437498
 43
9.999389648437498
 50
90.0
  0
INSERT
  5
61E9
330
61E2
100
AcDbEntity
  8
Dim
 62
     0
370
    -2
100
AcDbBlockReference
  2
_DOT
 10
2829.155505730284
 20
1685.575068551406
 30
0.0
 41
9.999389648437498
 42
9.999389648437498
 43
9.999389648437498
 50
270.0
  0
MTEXT
  5
61EA
330
61E2
100
AcDbEntity
  8
Dim
 62
     0
100
AcDbMText
 10
2806.939197136534
 20
1710.575068551406
 30
0.0
 40
24.4326171875
 41
0.0
 46
0.0
 71
     5
 72
     1
  1
\A1;50
  7
ＭＳ ゴシック
 11
0.0
 21
1.0
 31
0.0
 73
     1
 44
1.0
  0
POINT
  5
61EB
330
61E2
100
AcDbEntity
  8
Defpoints
 62
     0
100
AcDbPoint
 10
2908.35571731367
 20
1735.575068551406
 30
0.0
  0
POINT
  5
61EC
330
61E2
100
AcDbEntity
  8
Defpoints
 62
     0
100
AcDbPoint
 10
2908.35571731367
 20
1685.575068551406
 30
0.0
  0
POINT
  5
61ED
330
61E2
100
AcDbEntity
  8
Defpoints
 62
     0
100
AcDbPoint
 10
2829.155505730284
 20
1685.575068551406
 30
0.0
  0
ENDBLK
  5
61E4
330
61E2
100
AcDbEntity
  8
0
100
AcDbBlockEnd
  0
BLOCK
  5
61F2
330
61F1
100
AcDbEntity
  8
0
100
AcDbBlockBegin
  2
*D67
 70
     1
 10
0.0
 20
0.0
 30
0.0
  3
*D67
  1

  0
LINE
  5
61F4
330
61F1
100
AcDbEntity
  8
Dim
 62
     0
370
    -2
100
AcDbLine
 10
2858.35571731367
 20
1685.575068551406
 30
0.0
 11
2829.155505730284
 21
1685.575068551406
 31
0.0
  0
LINE
  5
61F5
330
61F1
100
AcDbEntity
  8
Dim
 62
     0
370
    -2
100
AcDbLine
 10
2881.162927170284
 20
1505.575068551406
 30
0.0
 11
2829.155505730284
 21
1505.575068551406
 31
0.0
  0
LINE
  5
61F6
330
61F1
100
AcDbEntity
  8
Dim
 62
     0
370
    -2
100
AcDbLine
 10
2829.155505730284
 20
1675.575678902969
 30
0.0
 11
2829.155505730284
 21
1515.574458199844
 31
0.0
  0
INSERT
  5
61F7
330
61F1
100
AcDbEntity
  8
Dim
 62
     0
370
    -2
100
AcDbBlockReference
  2
_DOT
 10
2829.155505730284
 20
1685.575068551406
 30
0.0
 41
9.999389648437498
 42
9.999389648437498
 43
9.999389648437498
 50
90.0
  0
INSERT
  5
61F8
330
61F1
100
AcDbEntity
  8
Dim
 62
     0
370
    -2
100
AcDbBlockReference
  2
_DOT
 10
2829.155505730284
 20
1505.575068551406
 30
0.0
 41
9.999389648437498
 42
9.999389648437498
 43
9.999389648437498
 50
270.0
  0
MTEXT
  5
61F9
330
61F1
100
AcDbEntity
  8
Dim
 62
     0
100
AcDbMText
 10
2806.939197136534
 20
1595.575068551406
 30
0.0
 40
24.4326171875
 41
0.0
 46
0.0
 71
     5
 72
     1
  1
\A1;180
  7
ＭＳ ゴシック
 11
0.0
 21
1.0
 31
0.0
 73
     1
 44
1.0
  0
POINT
  5
61FA
330
61F1
100
AcDbEntity
  8
Defpoints
 62
     0
100
AcDbPoint
 10
2883.35571731367
 20
1685.575068551406
 30
0.0
  0
POINT
  5
61FB
330
61F1
100
AcDbEntity
  8
Defpoints
 62
     0
100
AcDbPoint
 10
2906.162927170284
 20
1505.575068551406
 30
0.0
  0
POINT
  5
61FC
330
61F1
100
AcDbEntity
  8
Defpoints
 62
     0
100
AcDbPoint
 10
2829.155505730284
 20
1505.575068551406
 30
0.0
  0
ENDBLK
  5
61F3
330
61F1
100
AcDbEntity
  8
0
100
AcDbBlockEnd
  0
BLOCK
  5
6201
330
6200
100
AcDbEntity
  8
0
100
AcDbBlockBegin
  2
*D68
 70
     1
 10
0.0
 20
0.0
 30
0.0
  3
*D68
  1

  0
LINE
  5
6203
330
6200
100
AcDbEntity
  8
Dim
 62
     0
370
    -2
100
AcDbLine
 10
2904.355717313671
 20
2127.817741478942
 30
0.0
 11
2904.355717313671
 21
2154.136741866231
 31
0.0
  0
LINE
  5
6204
330
6200
100
AcDbEntity
  8
Dim
 62
     0
370
    -2
100
AcDbLine
 10
2949.40107969928
 20
2098.21267858317
 30
0.0
 11
2949.40107969928
 21
2154.136741866231
 31
0.0
  0
LINE
  5
6205
330
6200
100
AcDbEntity
  8
Dim
 62
     0
370
    -2
100
AcDbLine
 10
2914.355106962108
 20
2154.136741866231
 30
0.0
 11
2939.401690050843
 21
2154.136741866231
 31
0.0
  0
INSERT
  5
6206
330
6200
100
AcDbEntity
  8
Dim
 62
     0
370
    -2
100
AcDbBlockReference
  2
_DOT
 10
2904.355717313671
 20
2154.136741866231
 30
0.0
 41
9.999389648437498
 42
9.999389648437498
 43
9.999389648437498
 50
180.0
  0
INSERT
  5
6207
330
6200
100
AcDbEntity
  8
Dim
 62
     0
370
    -2
100
AcDbBlockReference
  2
_DOT
 10
2949.40107969928
 20
2154.136741866231
 30
0.0
 41
9.999389648437498
 42
9.999389648437498
 43
9.999389648437498
  0
MTEXT
  5
6208
330
6200
100
AcDbEntity
  8
Dim
 62
     0
100
AcDbMText
 10
2926.855717313671
 20
2176.353050459981
 30
0.0
 40
24.4326171875
 41
0.0
 46
0.0
 71
     5
 72
     1
  1
\A1;45
  7
ＭＳ ゴシック
 73
     1
 44
1.0
  0
POINT
  5
6209
330
6200
100
AcDbEntity
  8
Defpoints
 62
     0
100
AcDbPoint
 10
2904.355717313671
 20
2102.817741478942
 30
0.0
  0
POINT
  5
620A
330
6200
100
AcDbEntity
  8
Defpoints
 62
     0
100
AcDbPoint
 10
2949.40107969928
 20
2073.21267858317
 30
0.0
  0
POINT
  5
620B
330
6200
100
AcDbEntity
  8
Defpoints
 62
     0
100
AcDbPoint
 10
2949.40107969928
 20
2154.136741866231
 30
0.0
  0
ENDBLK
  5
6202
330
6200
100
AcDbEntity
  8
0
100
AcDbBlockEnd
  0
BLOCK
  5
620E
330
620D
100
AcDbEntity
  8
0
100
AcDbBlockBegin
  2
*D69
 70
     1
 10
0.0
 20
0.0
 30
0.0
  3
*D69
  1

  0
LINE
  5
6210
330
620D
100
AcDbEntity
  8
Dim
 62
     0
370
    -2
100
AcDbLine
 10
430.0486867078866
 20
1848.540874667538
 30
0.0
 11
430.0486867078866
 21
1771.537693343236
 31
0.0
  0
LINE
  5
6211
330
620D
100
AcDbEntity
  8
Dim
 62
     0
370
    -2
100
AcDbLine
 10
795.0486867078866
 20
1848.540874667538
 30
0.0
 11
795.0486867078866
 21
1771.537693343236
 31
0.0
  0
LINE
  5
6212
330
620D
100
AcDbEntity
  8
Dim
 62
     0
370
    -2
100
AcDbLine
 10
440.0480763563241
 20
1771.537693343236
 30
0.0
 11
785.0492970594491
 21
1771.537693343236
 31
0.0
  0
INSERT
  5
6213
330
620D
100
AcDbEntity
  8
Dim
 62
     0
370
    -2
100
AcDbBlockReference
  2
_DOT
 10
430.0486867078866
 20
1771.537693343236
 30
0.0
 41
9.999389648437498
 42
9.999389648437498
 43
9.999389648437498
 50
180.0
  0
INSERT
  5
6214
330
620D
100
AcDbEntity
  8
Dim
 62
     0
370
    -2
100
AcDbBlockReference
  2
_DOT
 10
795.0486867078866
 20
1771.537693343236
 30
0.0
 41
9.999389648437498
 42
9.999389648437498
 43
9.999389648437498
  0
MTEXT
  5
6215
330
620D
100
AcDbEntity
  8
Dim
 62
     0
100
AcDbMText
 10
612.5486867078866
 20
1793.754001936986
 30
0.0
 40
24.4326171875
 41
0.0
 46
0.0
 71
     5
 72
     1
  1
\A1;365
  7
ＭＳ ゴシック
 73
     1
 44
1.0
  0
POINT
  5
6216
330
620D
100
AcDbEntity
  8
Defpoints
 62
     0
100
AcDbPoint
 10
430.0486867078866
 20
1873.540874667538
 30
0.0
  0
POINT
  5
6217
330
620D
100
AcDbEntity
  8
Defpoints
 62
     0
100
AcDbPoint
 10
795.0486867078866
 20
1873.540874667538
 30
0.0
  0
POINT
  5
6218
330
620D
100
AcDbEntity
  8
Defpoints
 62
     0
100
AcDbPoint
 10
795.0486867078866
 20
1771.537693343236
 30
0.0
  0
ENDBLK
  5
620F
330
620D
100
AcDbEntity
  8
0
100
AcDbBlockEnd
  0
BLOCK
  5
621B
330
621A
100
AcDbEntity
  8
0
100
AcDbBlockBegin
  2
*D70
 70
     1
 10
0.0
 20
0.0
 30
0.0
  3
*D70
  1

  0
LINE
  5
621D
330
621A
100
AcDbEntity
  8
Dim
 62
     0
370
    -2
100
AcDbLine
 10
502.0166984720454
 20
2096.453863281594
 30
0.0
 11
352.1785559871723
 21
2096.453863281594
 31
0.0
  0
LINE
  5
621E
330
621A
100
AcDbEntity
  8
Dim
 62
     0
370
    -2
100
AcDbLine
 10
412.5694031679195
 20
1886.453863281594
 30
0.0
 11
352.1785559871723
 21
1886.453863281594
 31
0.0
  0
LINE
  5
621F
330
621A
100
AcDbEntity
  8
Dim
 62
     0
370
    -2
100
AcDbLine
 10
352.1785559871723
 20
2086.454473633156
 30
0.0
 11
352.1785559871723
 21
1896.453252930031
 31
0.0
  0
INSERT
  5
6220
330
621A
100
AcDbEntity
  8
Dim
 62
     0
370
    -2
100
AcDbBlockReference
  2
_DOT
 10
352.1785559871723
 20
2096.453863281594
 30
0.0
 41
9.999389648437498
 42
9.999389648437498
 43
9.999389648437498
 50
90.0
  0
INSERT
  5
6221
330
621A
100
AcDbEntity
  8
Dim
 62
     0
370
    -2
100
AcDbBlockReference
  2
_DOT
 10
352.1785559871723
 20
1886.453863281594
 30
0.0
 41
9.999389648437498
 42
9.999389648437498
 43
9.999389648437498
 50
270.0
  0
MTEXT
  5
6222
330
621A
100
AcDbEntity
  8
Dim
 62
     0
100
AcDbMText
 10
329.9622473934223
 20
1991.453863281594
 30
0.0
 40
24.4326171875
 41
0.0
 46
0.0
 71
     5
 72
     1
  1
\A1;210
  7
ＭＳ ゴシック
 11
0.0
 21
1.0
 31
0.0
 73
     1
 44
1.0
  0
POINT
  5
6223
330
621A
100
AcDbEntity
  8
Defpoints
 62
     0
100
AcDbPoint
 10
527.0166984720454
 20
2096.453863281594
 30
0.0
  0
POINT
  5
6224
330
621A
100
AcDbEntity
  8
Defpoints
 62
     0
100
AcDbPoint
 10
437.5694031679195
 20
1886.453863281594
 30
0.0
  0
POINT
  5
6225
330
621A
100
AcDbEntity
  8
Defpoints
 62
     0
100
AcDbPoint
 10
352.1785559871723
 20
1886.453863281594
 30
0.0
  0
ENDBLK
  5
621C
330
621A
100
AcDbEntity
  8
0
100
AcDbBlockEnd
  0
BLOCK
  5
6228
330
6227
100
AcDbEntity
  8
0
100
AcDbBlockBegin
  2
*D71
 70
     1
 10
0.0
 20
0.0
 30
0.0
  3
*D71
  1

  0
LINE
  5
622A
330
6227
100
AcDbEntity
  8
Dim
 62
     0
370
    -2
100
AcDbLine
 10
833.4285440241474
 20
2105.712668551401
 30
0.0
 11
887.6287556075324
 21
2105.7126685514
 31
0.0
  0
LINE
  5
622B
330
6227
100
AcDbEntity
  8
Dim
 62
     0
370
    -2
100
AcDbLine
 10
833.4285440241465
 20
2055.712668551401
 30
0.0
 11
887.6287556075313
 21
2055.7126685514
 31
0.0
  0
LINE
  5
622C
330
6227
100
AcDbEntity
  8
Dim
 62
     0
370
    -2
100
AcDbLine
 10
887.6287556075322
 20
2095.713278902962
 30
0.0
 11
887.6287556075315
 21
2065.712058199837
 31
0.0
  0
INSERT
  5
622D
330
6227
100
AcDbEntity
  8
Dim
 62
     0
370
    -2
100
AcDbBlockReference
  2
_DOT
 10
887.6287556075324
 20
2105.7126685514
 30
0.0
 41
9.999389648437498
 42
9.999389648437498
 43
9.999389648437498
 50
89.9999999999987
  0
INSERT
  5
622E
330
6227
100
AcDbEntity
  8
Dim
 62
     0
370
    -2
100
AcDbBlockReference
  2
_DOT
 10
887.6287556075313
 20
2055.7126685514
 30
0.0
 41
9.999389648437498
 42
9.999389648437498
 43
9.999389648437498
 50
269.9999999999987
  0
MTEXT
  5
622F
330
6227
100
AcDbEntity
  8
Dim
 62
     0
100
AcDbMText
 10
865.4124470137818
 20
2080.7126685514
 30
0.0
 40
24.4326171875
 41
0.0
 46
0.0
 71
     5
 72
     1
  1
\A1;50
  7
ＭＳ ゴシック
 11
2.273736754432321E-14
 21
1.0
 31
0.0
 73
     1
 44
1.0
  0
POINT
  5
6230
330
6227
100
AcDbEntity
  8
Defpoints
 62
     0
100
AcDbPoint
 10
808.4285440241474
 20
2105.712668551402
 30
0.0
  0
POINT
  5
6231
330
6227
100
AcDbEntity
  8
Defpoints
 62
     0
100
AcDbPoint
 10
808.4285440241465
 20
2055.712668551402
 30
0.0
  0
POINT
  5
6232
330
6227
100
AcDbEntity
  8
Defpoints
 62
     0
100
AcDbPoint
 10
887.6287556075313
 20
2055.7126685514
 30
0.0
  0
ENDBLK
  5
6229
330
6227
100
AcDbEntity
  8
0
100
AcDbBlockEnd
  0
BLOCK
  5
6237
330
6236
100
AcDbEntity
  8
0
100
AcDbBlockBegin
  2
*D72
 70
     1
 10
0.0
 20
0.0
 30
0.0
  3
*D72
  1

  0
LINE
  5
6239
330
6236
100
AcDbEntity
  8
Dim
 62
     0
370
    -2
100
AcDbLine
 10
387.5694031679195
 20
2096.453863281594
 30
0.0
 11
352.1785559871723
 21
2096.453863281594
 31
0.0
  0
LINE
  5
623A
330
6236
100
AcDbEntity
  8
Dim
 62
     0
370
    -2
100
AcDbLine
 10
387.5694031679195
 20
2106.453863281594
 30
0.0
 11
352.1785559871723
 21
2106.453863281594
 31
0.0
  0
LINE
  5
623B
330
6236
100
AcDbEntity
  8
Dim
 62
     0
370
    -2
100
AcDbLine
 10
352.1785559871723
 20
2106.453252930031
 30
0.0
 11
352.1785559871723
 21
2096.454473633156
 31
0.0
  0
INSERT
  5
623C
330
6236
100
AcDbEntity
  8
Dim
 62
     0
370
    -2
100
AcDbBlockReference
  2
_DOT
 10
352.1785559871723
 20
2096.453863281594
 30
0.0
 41
9.999389648437498
 42
9.999389648437498
 43
9.999389648437498
 50
270.0
  0
INSERT
  5
623D
330
6236
100
AcDbEntity
  8
Dim
 62
     0
370
    -2
100
AcDbBlockReference
  2
_DOT
 10
352.1785559871723
 20
2106.453863281594
 30
0.0
 41
9.999389648437498
 42
9.999389648437498
 43
9.999389648437498
 50
90.0
  0
MTEXT
  5
623E
330
6236
100
AcDbEntity
  8
Dim
 62
     0
100
AcDbMText
 10
329.9622473934223
 20
2103.953710693704
 30
0.0
 40
24.4326171875
 41
0.0
 46
0.0
 71
     5
 72
     1
  1
\A1;10
  7
ＭＳ ゴシック
 11
0.0
 21
1.0
 31
0.0
 73
     1
 44
1.0
  0
POINT
  5
623F
330
6236
100
AcDbEntity
  8
Defpoints
 62
     0
100
AcDbPoint
 10
412.5694031679195
 20
2096.453863281594
 30
0.0
  0
POINT
  5
6240
330
6236
100
AcDbEntity
  8
Defpoints
 62
     0
100
AcDbPoint
 10
412.5694031679195
 20
2106.453863281594
 30
0.0
  0
POINT
  5
6241
330
6236
100
AcDbEntity
  8
Defpoints
 62
     0
100
AcDbPoint
 10
352.1785559871723
 20
2106.453863281594
 30
0.0
  0
ENDBLK
  5
6238
330
6236
100
AcDbEntity
  8
0
100
AcDbBlockEnd
  0
BLOCK
  5
624D
330
624C
100
AcDbEntity
  8
0
100
AcDbBlockBegin
  2
*D73
 70
     1
 10
0.0
 20
0.0
 30
0.0
  3
*D73
  1

  0
LINE
  5
624F
330
624C
100
AcDbEntity
  8
Dim
 62
     0
370
    -2
100
AcDbLine
 10
472.4989888548262
 20
1206.261278213023
 30
0.0
 11
472.4989888548262
 21
1261.523331743237
 31
0.0
  0
LINE
  5
6250
330
624C
100
AcDbEntity
  8
Dim
 62
     0
370
    -2
100
AcDbLine
 10
752.4623905632062
 20
1205.657421043446
 30
0.0
 11
752.4623905632062
 21
1261.523331743237
 31
0.0
  0
LINE
  5
6251
330
624C
100
AcDbEntity
  8
Dim
 62
     0
370
    -2
100
AcDbLine
 10
482.4983785032637
 20
1261.523331743237
 30
0.0
 11
742.4630009147687
 21
1261.523331743237
 31
0.0
  0
INSERT
  5
6252
330
624C
100
AcDbEntity
  8
Dim
 62
     0
370
    -2
100
AcDbBlockReference
  2
_DOT
 10
472.4989888548262
 20
1261.523331743237
 30
0.0
 41
9.999389648437498
 42
9.999389648437498
 43
9.999389648437498
 50
180.0
  0
INSERT
  5
6253
330
624C
100
AcDbEntity
  8
Dim
 62
     0
370
    -2
100
AcDbBlockReference
  2
_DOT
 10
752.4623905632062
 20
1261.523331743237
 30
0.0
 41
9.999389648437498
 42
9.999389648437498
 43
9.999389648437498
  0
MTEXT
  5
6254
330
624C
100
AcDbEntity
  8
Dim
 62
     0
100
AcDbMText
 10
612.4806897090162
 20
1283.739640336987
 30
0.0
 40
24.4326171875
 41
0.0
 46
0.0
 71
     5
 72
     1
  1
\A1;280
  7
ＭＳ ゴシック
 73
     1
 44
1.0
  0
POINT
  5
6255
330
624C
100
AcDbEntity
  8
Defpoints
 62
     0
100
AcDbPoint
 10
472.4989888548262
 20
1181.261278213023
 30
0.0
  0
POINT
  5
6256
330
624C
100
AcDbEntity
  8
Defpoints
 62
     0
100
AcDbPoint
 10
752.4623905632062
 20
1180.657421043446
 30
0.0
  0
POINT
  5
6257
330
624C
100
AcDbEntity
  8
Defpoints
 62
     0
100
AcDbPoint
 10
752.4623905632062
 20
1261.523331743237
 30
0.0
  0
ENDBLK
  5
624E
330
624C
100
AcDbEntity
  8
0
100
AcDbBlockEnd
  0
BLOCK
  5
625D
330
625C
100
AcDbEntity
  8
0
100
AcDbBlockBegin
  2
*D74
 70
     1
 10
0.0
 20
0.0
 30
0.0
  3
*D74
  1

  0
LINE
  5
625F
330
625C
100
AcDbEntity
  8
Dim
 62
     0
370
    -2
100
AcDbLine
 10
429.0534902227005
 20
1156.900003363934
 30
0.0
 11
359.2982646227006
 21
1156.900003363934
 31
0.0
  0
LINE
  5
6260
330
625C
100
AcDbEntity
  8
Dim
 62
     0
370
    -2
100
AcDbLine
 10
388.1620461812531
 20
1191.900003363934
 30
0.0
 11
359.2982646227006
 21
1191.900003363934
 31
0.0
  0
LINE
  5
6261
330
625C
100
AcDbEntity
  8
Dim
 62
     0
370
    -2
100
AcDbLine
 10
359.2982646227006
 20
1166.899393012372
 30
0.0
 11
359.2982646227006
 21
1181.900613715497
 31
0.0
  0
INSERT
  5
6262
330
625C
100
AcDbEntity
  8
Dim
 62
     0
370
    -2
100
AcDbBlockReference
  2
_DOT
 10
359.2982646227006
 20
1156.900003363934
 30
0.0
 41
9.999389648437498
 42
9.999389648437498
 43
9.999389648437498
 50
270.0
  0
INSERT
  5
6263
330
625C
100
AcDbEntity
  8
Dim
 62
     0
370
    -2
100
AcDbBlockReference
  2
_DOT
 10
359.2982646227006
 20
1191.900003363934
 30
0.0
 41
9.999389648437498
 42
9.999389648437498
 43
9.999389648437498
 50
90.0
  0
MTEXT
  5
6264
330
625C
100
AcDbEntity
  8
Dim
 62
     0
100
AcDbMText
 10
337.0819560289506
 20
1174.400003363934
 30
0.0
 40
24.4326171875
 41
0.0
 46
0.0
 71
     5
 72
     1
  1
\A1;35
  7
ＭＳ ゴシック
 11
0.0
 21
1.0
 31
0.0
 73
     1
 44
1.0
  0
POINT
  5
6265
330
625C
100
AcDbEntity
  8
Defpoints
 62
     0
100
AcDbPoint
 10
454.0534902227005
 20
1156.900003363934
 30
0.0
  0
POINT
  5
6266
330
625C
100
AcDbEntity
  8
Defpoints
 62
     0
100
AcDbPoint
 10
413.1620461812531
 20
1191.900003363934
 30
0.0
  0
POINT
  5
6267
330
625C
100
AcDbEntity
  8
Defpoints
 62
     0
100
AcDbPoint
 10
359.2982646227006
 20
1191.900003363934
 30
0.0
  0
ENDBLK
  5
625E
330
625C
100
AcDbEntity
  8
0
100
AcDbBlockEnd
  0
BLOCK
  5
62B1
330
62B0
100
AcDbEntity
  8
0
100
AcDbBlockBegin
  2
*D75
 70
     1
 10
0.0
 20
0.0
 30
0.0
  3
*D75
  1

  0
LINE
  5
62B3
330
62B0
100
AcDbEntity
  8
Dim
 62
     0
370
    -2
100
AcDbLine
 10
1622.773554457222
 20
1095.34405935872
 30
0.0
 11
1598.778244164233
 21
1095.34405935872
 31
0.0
  0
LINE
  5
62B4
330
62B0
100
AcDbEntity
  8
Dim
 62
     0
370
    -2
100
AcDbLine
 10
1618.387724649875
 20
1191.900000589353
 30
0.0
 11
1598.778244164233
 21
1191.900000589353
 31
0.0
  0
LINE
  5
62B5
330
62B0
100
AcDbEntity
  8
Dim
 62
     0
370
    -2
100
AcDbLine
 10
1598.778244164233
 20
1191.900000589353
 30
0.0
 11
1598.778244164233
 21
1349.883888284666
 31
0.0
  0
LINE
  5
62B6
330
62B0
100
AcDbEntity
  8
Dim
 62
     0
370
    -2
100
AcDbLine
 10
1598.778244164233
 20
1105.343449007157
 30
0.0
 11
1598.778244164233
 21
1181.900610940916
 31
0.0
  0
LINE
  5
62B7
330
62B0
100
AcDbEntity
  8
Dim
 62
     0
370
    -2
100
AcDbLine
 10
1598.778244164233
 20
1181.900610940916
 30
0.0
 11
1598.778244164233
 21
1171.901221292478
 31
0.0
  0
INSERT
  5
62B8
330
62B0
100
AcDbEntity
  8
Dim
 62
     0
370
    -2
100
AcDbBlockReference
  2
_DOT
 10
1598.778244164233
 20
1095.34405935872
 30
0.0
 41
9.999389648437498
 42
9.999389648437498
 43
9.999389648437498
 50
270.0
  0
INSERT
  5
62B9
330
62B0
100
AcDbEntity
  8
Dim
 62
     0
370
    -2
100
AcDbBlockReference
  2
_DOT
 10
1598.778244164233
 20
1191.900000589353
 30
0.0
 41
9.999389648437498
 42
9.999389648437498
 43
9.999389648437498
 50
90.0
  0
MTEXT
  5
62BA
330
62B0
100
AcDbEntity
  8
Dim
 62
     0
100
AcDbMText
 10
1574.39964894939
 20
1280.891334085447
 30
0.0
 40
24.4326171875
 41
0.0
 46
0.0
 71
     5
 72
     1
  1
\A1;90(深さ)
  7
ＭＳ ゴシック
 11
0.0
 21
1.0
 31
0.0
 73
     1
 44
1.0
  0
POINT
  5
62BB
330
62B0
100
AcDbEntity
  8
Defpoints
 62
     0
100
AcDbPoint
 10
1597.773554457222
 20
1095.34405935872
 30
0.0
  0
POINT
  5
62BC
330
62B0
100
AcDbEntity
  8
Defpoints
 62
     0
100
AcDbPoint
 10
1593.387724649875
 20
1191.900000589353
 30
0.0
  0
POINT
  5
62BD
330
62B0
100
AcDbEntity
  8
Defpoints
 62
     0
100
AcDbPoint
 10
1598.778244164233
 20
1191.900000589353
 30
0.0
  0
ENDBLK
  5
62B2
330
62B0
100
AcDbEntity
  8
0
100
AcDbBlockEnd
  0
BLOCK
  5
62C1
330
62C0
100
AcDbEntity
  8
0
100
AcDbBlockBegin
  2
*D76
 70
     1
 10
0.0
 20
0.0
 30
0.0
  3
*D76
  1

  0
LINE
  5
62C3
330
62C0
100
AcDbEntity
  8
Dim
 62
     0
370
    -2
100
AcDbLine
 10
527.5486867078871
 20
2129.373874274808
 30
0.0
 11
527.5486867078871
 21
2154.018507159933
 31
0.0
  0
LINE
  5
62C4
330
62C0
100
AcDbEntity
  8
Dim
 62
     0
370
    -2
100
AcDbLine
 10
697.5486867078871
 20
2129.373874274808
 30
0.0
 11
697.5486867078871
 21
2154.018507159933
 31
0.0
  0
LINE
  5
62C5
330
62C0
100
AcDbEntity
  8
Dim
 62
     0
370
    -2
100
AcDbLine
 10
537.5480763563246
 20
2154.018507159933
 30
0.0
 11
687.5492970594496
 21
2154.018507159933
 31
0.0
  0
INSERT
  5
62C6
330
62C0
100
AcDbEntity
  8
Dim
 62
     0
370
    -2
100
AcDbBlockReference
  2
_DOT
 10
527.5486867078871
 20
2154.018507159933
 30
0.0
 41
9.999389648437498
 42
9.999389648437498
 43
9.999389648437498
 50
180.0
  0
INSERT
  5
62C7
330
62C0
100
AcDbEntity
  8
Dim
 62
     0
370
    -2
100
AcDbBlockReference
  2
_DOT
 10
697.5486867078871
 20
2154.018507159933
 30
0.0
 41
9.999389648437498
 42
9.999389648437498
 43
9.999389648437498
  0
MTEXT
  5
62C8
330
62C0
100
AcDbEntity
  8
Dim
 62
     0
100
AcDbMText
 10
612.5486867078871
 20
2176.234815753683
 30
0.0
 40
24.4326171875
 41
0.0
 46
0.0
 71
     5
 72
     1
  1
\A1;170
  7
ＭＳ ゴシック
 73
     1
 44
1.0
  0
POINT
  5
62C9
330
62C0
100
AcDbEntity
  8
Defpoints
 62
     0
100
AcDbPoint
 10
527.5486867078871
 20
2104.373874274808
 30
0.0
  0
POINT
  5
62CA
330
62C0
100
AcDbEntity
  8
Defpoints
 62
     0
100
AcDbPoint
 10
697.5486867078871
 20
2104.373874274808
 30
0.0
  0
POINT
  5
62CB
330
62C0
100
AcDbEntity
  8
Defpoints
 62
     0
100
AcDbPoint
 10
697.5486867078871
 20
2154.018507159933
 30
0.0
  0
ENDBLK
  5
62C2
330
62C0
100
AcDbEntity
  8
0
100
AcDbBlockEnd
  0
BLOCK
  5
63D3
330
63D2
100
AcDbEntity
  8
0
100
AcDbBlockBegin
  2
*D77
 70
     1
 10
0.0
 20
0.0
 30
0.0
  3
*D77
  1

  0
LINE
  5
63D5
330
63D2
100
AcDbEntity
  8
Dim
 62
     0
370
    -2
100
AcDbLine
 10
3746.013068162936
 20
2105.712668551406
 30
0.0
 11
3667.380934502806
 21
2105.712668551406
 31
0.0
  0
LINE
  5
63D6
330
63D2
100
AcDbEntity
  8
Dim
 62
     0
370
    -2
100
AcDbLine
 10
3733.874717401336
 20
1880.392561379085
 30
0.0
 11
3667.380934502806
 21
1880.392561379085
 31
0.0
  0
LINE
  5
63D7
330
63D2
100
AcDbEntity
  8
Dim
 62
     0
370
    -2
100
AcDbLine
 10
3667.380934502806
 20
2095.713278902968
 30
0.0
 11
3667.380934502806
 21
1890.391951027523
 31
0.0
  0
INSERT
  5
63D8
330
63D2
100
AcDbEntity
  8
Dim
 62
     0
370
    -2
100
AcDbBlockReference
  2
_DOT
 10
3667.380934502806
 20
2105.712668551406
 30
0.0
 41
9.999389648437498
 42
9.999389648437498
 43
9.999389648437498
 50
90.0
  0
INSERT
  5
63D9
330
63D2
100
AcDbEntity
  8
Dim
 62
     0
370
    -2
100
AcDbBlockReference
  2
_DOT
 10
3667.380934502806
 20
1880.392561379085
 30
0.0
 41
9.999389648437498
 42
9.999389648437498
 43
9.999389648437498
 50
270.0
  0
MTEXT
  5
63DA
330
63D2
100
AcDbEntity
  8
Dim
 62
     0
100
AcDbMText
 10
3645.164625909056
 20
1993.052614965246
 30
0.0
 40
24.4326171875
 41
0.0
 46
0.0
 71
     5
 72
     1
  1
\A1;225.3
  7
ＭＳ ゴシック
 11
0.0
 21
1.0
 31
0.0
 73
     1
 44
1.0
  0
POINT
  5
63DB
330
63D2
100
AcDbEntity
  8
Defpoints
 62
     0
100
AcDbPoint
 10
3771.013068162936
 20
2105.712668551406
 30
0.0
  0
POINT
  5
63DC
330
63D2
100
AcDbEntity
  8
Defpoints
 62
     0
100
AcDbPoint
 10
3758.874717401336
 20
1880.392561379085
 30
0.0
  0
POINT
  5
63DD
330
63D2
100
AcDbEntity
  8
Defpoints
 62
     0
100
AcDbPoint
 10
3667.380934502806
 20
1880.392561379085
 30
0.0
  0
ENDBLK
  5
63D4
330
63D2
100
AcDbEntity
  8
0
100
AcDbBlockEnd
  0
BLOCK
  5
6417
330
6416
100
AcDbEntity
  8
0
100
AcDbBlockBegin
  2
*D78
 70
     1
 10
0.0
 20
0.0
 30
0.0
  3
*D78
  1

  0
LINE
  5
6419
330
6416
100
AcDbEntity
  8
Dim
 62
     0
370
    -2
100
AcDbLine
 10
1316.737341596126
 20
1876.607976448408
 30
0.0
 11
1316.737341596126
 21
1811.614023456767
 31
0.0
  0
LINE
  5
641A
330
6416
100
AcDbEntity
  8
Dim
 62
     0
370
    -2
100
AcDbLine
 10
1666.737341596126
 20
1876.607976448408
 30
0.0
 11
1666.737341596126
 21
1811.614023456767
 31
0.0
  0
LINE
  5
641B
330
6416
100
AcDbEntity
  8
Dim
 62
     0
370
    -2
100
AcDbLine
 10
1326.736731244564
 20
1811.614023456767
 30
0.0
 11
1656.737951947689
 21
1811.614023456767
 31
0.0
  0
INSERT
  5
641C
330
6416
100
AcDbEntity
  8
Dim
 62
     0
370
    -2
100
AcDbBlockReference
  2
_DOT
 10
1316.737341596126
 20
1811.614023456767
 30
0.0
 41
9.999389648437498
 42
9.999389648437498
 43
9.999389648437498
 50
180.0
  0
INSERT
  5
641D
330
6416
100
AcDbEntity
  8
Dim
 62
     0
370
    -2
100
AcDbBlockReference
  2
_DOT
 10
1666.737341596126
 20
1811.614023456767
 30
0.0
 41
9.999389648437498
 42
9.999389648437498
 43
9.999389648437498
  0
MTEXT
  5
641E
330
6416
100
AcDbEntity
  8
Dim
 62
     0
100
AcDbMText
 10
1491.737341596126
 20
1833.830332050517
 30
0.0
 40
24.4326171875
 41
0.0
 46
0.0
 71
     5
 72
     1
  1
\A1;350
  7
ＭＳ ゴシック
 73
     1
 44
1.0
  0
POINT
  5
641F
330
6416
100
AcDbEntity
  8
Defpoints
 62
     0
100
AcDbPoint
 10
1316.737341596126
 20
1901.607976448408
 30
0.0
  0
POINT
  5
6420
330
6416
100
AcDbEntity
  8
Defpoints
 62
     0
100
AcDbPoint
 10
1666.737341596126
 20
1901.607976448408
 30
0.0
  0
POINT
  5
6421
330
6416
100
AcDbEntity
  8
Defpoints
 62
     0
100
AcDbPoint
 10
1666.737341596126
 20
1811.614023456767
 30
0.0
  0
ENDBLK
  5
6418
330
6416
100
AcDbEntity
  8
0
100
AcDbBlockEnd
  0
BLOCK
  5
642C
330
642B
100
AcDbEntity
  8
0
100
AcDbBlockBegin
  2
*D79
 70
     1
 10
0.0
 20
0.0
 30
0.0
  3
*D79
  1

  0
LINE
  5
642E
330
642B
100
AcDbEntity
  8
Dim
 62
     0
370
    -2
100
AcDbLine
 10
4158.553226169897
 20
2105.712668638828
 30
0.0
 11
4242.917906371415
 21
2105.712668638828
 31
0.0
  0
LINE
  5
642F
330
642B
100
AcDbEntity
  8
Dim
 62
     0
370
    -2
100
AcDbLine
 10
4148.394188335775
 20
1905.97085040768
 30
0.0
 11
4242.917906371415
 21
1905.97085040768
 31
0.0
  0
LINE
  5
6430
330
642B
100
AcDbEntity
  8
Dim
 62
     0
370
    -2
100
AcDbLine
 10
4242.917906371415
 20
2095.71327899039
 30
0.0
 11
4242.917906371415
 21
1915.970240056118
 31
0.0
  0
INSERT
  5
6431
330
642B
100
AcDbEntity
  8
Dim
 62
     0
370
    -2
100
AcDbBlockReference
  2
_DOT
 10
4242.917906371415
 20
2105.712668638828
 30
0.0
 41
9.999389648437498
 42
9.999389648437498
 43
9.999389648437498
 50
90.0
  0
INSERT
  5
6432
330
642B
100
AcDbEntity
  8
Dim
 62
     0
370
    -2
100
AcDbBlockReference
  2
_DOT
 10
4242.917906371415
 20
1905.97085040768
 30
0.0
 41
9.999389648437498
 42
9.999389648437498
 43
9.999389648437498
 50
270.0
  0
MTEXT
  5
6433
330
642B
100
AcDbEntity
  8
Dim
 62
     0
100
AcDbMText
 10
4220.701597777665
 20
2005.841759523254
 30
0.0
 40
24.4326171875
 41
0.0
 46
0.0
 71
     5
 72
     1
  1
\A1;199.7
  7
ＭＳ ゴシック
 11
0.0
 21
1.0
 31
0.0
 73
     1
 44
1.0
  0
POINT
  5
6434
330
642B
100
AcDbEntity
  8
Defpoints
 62
     0
100
AcDbPoint
 10
4133.553226169897
 20
2105.712668638828
 30
0.0
  0
POINT
  5
6435
330
642B
100
AcDbEntity
  8
Defpoints
 62
     0
100
AcDbPoint
 10
4123.394188335775
 20
1905.97085040768
 30
0.0
  0
POINT
  5
6436
330
642B
100
AcDbEntity
  8
Defpoints
 62
     0
100
AcDbPoint
 10
4242.917906371415
 20
1905.97085040768
 30
0.0
  0
ENDBLK
  5
642D
330
642B
100
AcDbEntity
  8
0
100
AcDbBlockEnd
  0
BLOCK
  5
6439
330
6438
100
AcDbEntity
  8
0
100
AcDbBlockBegin
  2
*D80
 70
     1
 10
0.0
 20
0.0
 30
0.0
  3
*D80
  1

  0
LINE
  5
643B
330
6438
100
AcDbEntity
  8
Dim
 62
     0
370
    -2
100
AcDbLine
 10
1717.492284301411
 20
2105.712668551406
 30
0.0
 11
1789.771918064258
 21
2105.712668551406
 31
0.0
  0
LINE
  5
643C
330
6438
100
AcDbEntity
  8
Dim
 62
     0
370
    -2
100
AcDbLine
 10
1717.492284301411
 20
1900.712668551406
 30
0.0
 11
1789.771918064258
 21
1900.712668551406
 31
0.0
  0
LINE
  5
643D
330
6438
100
AcDbEntity
  8
Dim
 62
     0
370
    -2
100
AcDbLine
 10
1789.771918064258
 20
2095.713278902968
 30
0.0
 11
1789.771918064258
 21
1910.712058199844
 31
0.0
  0
INSERT
  5
643E
330
6438
100
AcDbEntity
  8
Dim
 62
     0
370
    -2
100
AcDbBlockReference
  2
_DOT
 10
1789.771918064258
 20
2105.712668551406
 30
0.0
 41
9.999389648437498
 42
9.999389648437498
 43
9.999389648437498
 50
90.0
  0
INSERT
  5
643F
330
6438
100
AcDbEntity
  8
Dim
 62
     0
370
    -2
100
AcDbBlockReference
  2
_DOT
 10
1789.771918064258
 20
1900.712668551406
 30
0.0
 41
9.999389648437498
 42
9.999389648437498
 43
9.999389648437498
 50
270.0
  0
MTEXT
  5
6440
330
6438
100
AcDbEntity
  8
Dim
 62
     0
100
AcDbMText
 10
1767.555609470508
 20
2003.212668551406
 30
0.0
 40
24.4326171875
 41
0.0
 46
0.0
 71
     5
 72
     1
  1
\A1;205
  7
ＭＳ ゴシック
 11
0.0
 21
1.0
 31
0.0
 73
     1
 44
1.0
  0
POINT
  5
6441
330
6438
100
AcDbEntity
  8
Defpoints
 62
     0
100
AcDbPoint
 10
1692.492284301411
 20
2105.712668551406
 30
0.0
  0
POINT
  5
6442
330
6438
100
AcDbEntity
  8
Defpoints
 62
     0
100
AcDbPoint
 10
1692.492284301411
 20
1900.712668551406
 30
0.0
  0
POINT
  5
6443
330
6438
100
AcDbEntity
  8
Defpoints
 62
     0
100
AcDbPoint
 10
1789.771918064258
 20
1900.712668551406
 30
0.0
  0
ENDBLK
  5
643A
330
6438
100
AcDbEntity
  8
0
100
AcDbBlockEnd
  0
ENDSEC
  0
SECTION
  2
ENTITIES
  0
MTEXT
  5
177
330
A
100
AcDbEntity
  8
template
390
1D
100
AcDbMText
 10
82.00000000048226
 20
348.023957835319
 30
0.0
 40
16.28841145833333
 41
0.0
 46
0.0
 71
     1
 72
     1
  1
品名
  7
ＭＳ ゴシック
 73
     1
 44
0.7828267384257843
  0
MTEXT
  5
178
330
A
100
AcDbEntity
  8
template
390
1D
100
AcDbMText
 10
82.00000000048226
 20
263.0239578353188
 30
0.0
 40
16.28841145833333
 41
0.0
 46
0.0
 71
     1
 72
     1
  1
仕様
  7
ＭＳ ゴシック
 73
     1
 44
0.7828267384257843
  0
LINE
  5
179
330
A
100
AcDbEntity
  8
template
390
1D
100
AcDbLine
 10
2025.0
 20
271.4388797103189
 30
0.0
 11
75.00000000000023
 21
271.4388797103189
 31
0.0
  0
LWPOLYLINE
  5
17A
330
A
100
AcDbEntity
  8
template
390
1D
100
AcDbPolyline
 90
        5
 70
   128
 43
0.0
 10
2025.0
 20
2901.438879710319
 10
75.00000000000023
 20
2901.438879710319
 10
75.00000000000023
 20
101.4388797103188
 10
2025.0
 20
101.4388797103188
 10
2025.0
 20
2901.438879710319
  0
LINE
  5
17B
330
A
100
AcDbEntity
  8
template
390
1D
100
AcDbLine
 10
2025.0
 20
356.4388797103188
 30
0.0
 11
75.00000000000023
 21
356.4388797103188
 31
0.0
  0
LINE
  5
17C
330
A
100
AcDbEntity
  8
template
390
1D
100
AcDbLine
 10
2025.000000000482
 20
186.4388797103189
 30
0.0
 11
1272.000000000482
 21
186.4388797103189
 31
0.0
  0
MTEXT
  5
17E
330
A
100
AcDbEntity
  8
template
390
1D
100
AcDbMText
 10
1301.871406252743
 20
156.5284852370108
 30
0.0
 40
24.4326171875
 41
0.0
 46
0.0
 71
     1
 72
     1
  1
大洋金物株式会社 ティーフォルム事業部
  7
ＭＳ ゴシック
 73
     1
 44
0.7828267384257843
  0
MTEXT
  5
180
330
A
100
AcDbEntity
  8
template
390
1D
100
AcDbMText
 10
1834.000000000742
 20
234.4414968978188
 30
0.0
 40
24.4326171875
 41
0.0
 46
0.0
 71
     1
 72
     1
  1
1:10
  7
ＭＳ ゴシック
 73
     1
 44
0.7828267384257843
  0
MTEXT
  5
181
330
A
100
AcDbEntity
  8
template
390
1D
100
AcDbMText
 10
1781.000000000742
 20
263.0239578353188
 30
0.0
 40
16.28841145833333
 41
0.0
 46
0.0
 71
     1
 72
     1
  1
縮尺
  7
ＭＳ ゴシック
 73
     1
 44
0.7828267384257843
  0
LINE
  5
182
330
A
100
AcDbEntity
  8
template
390
1D
100
AcDbLine
 10
1774.000000000742
 20
186.4388797103189
 30
0.0
 11
1774.000000000742
 21
271.4388797103189
 31
0.0
  0
MTEXT
  5
183
330
A
100
AcDbEntity
  8
template
390
1D
100
AcDbMText
 10
1530.000000000742
 20
263.0239578353188
 30
0.0
 40
16.28841145833333
 41
0.0
 46
0.0
 71
     1
 72
     1
  1
容量
  7
ＭＳ ゴシック
 73
     1
 44
0.7828267384257843
  0
LINE
  5
184
330
A
100
AcDbEntity
  8
template
390
1D
100
AcDbLine
 10
1523.000000000742
 20
186.4388797103189
 30
0.0
 11
1523.000000000742
 21
271.4388797103189
 31
0.0
  0
MTEXT
  5
185
330
A
100
AcDbEntity
  8
template
390
1D
100
AcDbMText
 10
1279.000000000742
 20
348.023957835319
 30
0.0
 40
16.28841145833333
 41
0.0
 46
0.0
 71
     1
 72
     1
  1
品番
  7
ＭＳ ゴシック
 73
     1
 44
0.7828267384257843
  0
MTEXT
  5
186
330
A
100
AcDbEntity
  8
template
390
1D
100
AcDbMText
 10
1279.000000000742
 20
263.0239578353188
 30
0.0
 40
16.28841145833333
 41
0.0
 46
0.0
 71
     1
 72
     1
  1
重量
  7
ＭＳ ゴシック
 73
     1
 44
0.7828267384257843
  0
MTEXT
  5
187
330
A
100
AcDbEntity
  8
template
390
1D
100
AcDbMText
 10
1332.000000000742
 20
319.4414968978188
 30
0.0
 40
24.4326171875
 41
0.0
 46
24.4326171875
 71
     1
 72
     1
  1
{ADF70-3017}
  7
ＭＳ ゴシック
 73
     1
 44
0.7828267384257843
1001
ACAD
1000
ACAD_MTEXT_DEFINED_HEIGHT_BEGIN
1070
    46
1040
24.4326171875
1000
ACAD_MTEXT_DEFINED_HEIGHT_END
  0
LINE
  5
188
330
A
100
AcDbEntity
  8
template
390
1D
100
AcDbLine
 10
1272.000000000742
 20
101.4388797103188
 30
0.0
 11
1272.000000000742
 21
356.4388797103188
 31
0.0
  0
MTEXT
  5
189
330
A
100
AcDbEntity
  8
template
390
1D
100
AcDbMText
 10
135.0000000004822
 20
319.4414968978188
 30
0.0
 40
24.4326171875
 41
0.0
 46
27.5355595703125
 71
     1
 72
     1
  1
{洗面器 -CATALANO, New Zero-}
  7
ＭＳ ゴシック
 73
     1
 44
0.7828267384257843
1001
ACAD
1000
ACAD_MTEXT_DEFINED_HEIGHT_BEGIN
1070
    46
1040
27.5355595703125
1000
ACAD_MTEXT_DEFINED_HEIGHT_END
  0
MTEXT
  5
18A
330
A
100
AcDbEntity
  8
template
390
1D
100
AcDbMText
 10
135.0000000004822
 20
234.4414968978188
 30
0.0
 40
24.4326171875
 41
0.0
 46
68.99651757812501
 71
     1
 72
     1
  1
{壁掛け,半埋め込み/オーバーフロー無/壁取付ボルト付属/\P陶器/ホワイト}
  7
ＭＳ ゴシック
 73
     1
 44
0.9822934569727008
1001
ACAD
1000
ACAD_MTEXT_DEFINED_HEIGHT_BEGIN
1070
    46
1040
68.99651757812501
1000
ACAD_MTEXT_DEFINED_HEIGHT_END
  0
MTEXT
  5
1A6
330
A
100
AcDbEntity
  8
template
390
1D
100
AcDbMText
 10
1332.000000000742
 20
234.4414968978188
 30
0.0
 40
24.4326171875
 41
0.0
 46
28.390701171875
 71
     1
 72
     1
  1
{5.5kg}
  7
ＭＳ ゴシック
 73
     1
 44
0.7828267384257843
1001
ACAD
1000
ACAD_MTEXT_DEFINED_HEIGHT_BEGIN
1070
    46
1040
28.390701171875
1000
ACAD_MTEXT_DEFINED_HEIGHT_END
  0
MTEXT
  5
374
330
A
100
AcDbEntity
  8
template
390
1D
100
AcDbMText
 10
1581.992122669024
 20
234.4414968978188
 30
0.0
 40
24.4326171875
 41
0.0
 46
24.4326171875
 71
     1
 72
     1
  1
{3.5L}
  7
ＭＳ ゴシック
 73
     1
 44
0.7828267384257843
1001
ACAD
1000
ACAD_MTEXT_DEFINED_HEIGHT_BEGIN
1070
    46
1040
24.4326171875
1000
ACAD_MTEXT_DEFINED_HEIGHT_END
  0
INSERT
  5
3D0
330
A
100
AcDbEntity
  8
template
100
AcDbBlockReference
  2
名称未設定-1
 10
1873.559250554905
 20
30.23897196054438
 30
0.0
 41
0.7619999999999999
 42
0.7619999999999999
 43
0.7619999999999999
  0
MTEXT
  5
BDB
102
{ACAD_XDICTIONARY
360
BDC
102
}
330
A
100
AcDbEntity
  8
template
  6
Continuous
100
AcDbMText
 10
78.95663872901252
 20
86.10730750352229
 30
0.0
 40
23.0
 41
0.0
 46
23.0
 71
     1
 72
     1
  1
{20190403N}
  7
ＭＳ ゴシック
 73
     1
 44
1.0
1001
ACAD
1000
ACAD_MTEXT_DEFINED_HEIGHT_BEGIN
1070
    46
1040
23.0
1000
ACAD_MTEXT_DEFINED_HEIGHT_END
  0
LWPOLYLINE
  5
BEE
330
A
100
AcDbEntity
  8
PRINT BORDER
100
AcDbPolyline
 90
        4
 70
     1
 43
0.0
 10
0.0
 20
0.0
 10
0.0
 20
2970.0
 10
2100.0
 20
2970.0
 10
2100.0
 20
0.0
  0
INSERT
  5
1273
330
A
100
AcDbEntity
  8
0
 62
     7
100
AcDbBlockReference
  2
BLOCK_2
 10
591.2037060744204
 20
943.564364962162
 30
0.0
  0
INSERT
  5
127B
330
A
100
AcDbEntity
  8
0
 62
     7
100
AcDbBlockReference
  2
BLOCK_2
 10
1291.863324028138
 20
1038.76992320659
 30
0.0
  0
INSERT
  5
127C
330
A
100
AcDbEntity
  8
0
 62
     7
100
AcDbBlockReference
  2
BLOCK_2
 10
652.1648429406905
 20
1595.641631888467
 30
0.0
  0
INSERT
  5
3B99
330
A
100
AcDbEntity
  8
retino
100
AcDbBlockReference
  2
mobile_latù
 10
-92101.31485198285
 20
1730.415535296608
 30
0.0
  0
INSERT
  5
467E
330
A
100
AcDbEntity
  8
retino
100
AcDbBlockReference
  2
mobile_latù
 10
-100894.893236163
 20
1696.039721945452
 30
0.0
  0
INSERT
  5
527B
330
A
100
AcDbEntity
  8
retino
100
AcDbBlockReference
  2
mobile_latù
 10
-89900.42748460227
 20
2057.97116653715
 30
0.0
  0
INSERT
  5
527C
330
A
100
AcDbEntity
  8
0
100
AcDbBlockReference
  2
.TD_SECTION_1
 10
225818104807.5758
 20
2467.422636311911
 30
0.0
  0
INSERT
  5
527D
330
A
100
AcDbEntity
  8
0
100
AcDbBlockReference
  2
.TD_SECTION_2
 10
225818170343.5758
 20
2467.422636311911
 30
0.0
  0
INSERT
  5
527E
330
A
100
AcDbEntity
  8
0
  6
Continuous
 62
     0
370
     0
100
AcDbBlockReference
  2
.TD_SECTION_1
 10
-8769.816836312122
 20
2681.893749185237
 30
0.0
  0
INSERT
  5
527F
330
A
100
AcDbEntity
  8
0
  6
Continuous
 62
     0
370
     0
100
AcDbBlockReference
  2
.TD_SECTION_2
 10
-9327.194994881458
 20
2989.447269387873
 30
0.0
  0
INSERT
  5
5280
330
A
100
AcDbEntity
  8
0
  6
Continuous
 62
     0
370
     0
100
AcDbBlockReference
  2
.TD_SECTION_1
 10
-11193.31175928566
 20
763.8992218647024
 30
0.0
  0
INSERT
  5
5281
330
A
100
AcDbEntity
  8
0
  6
Continuous
 62
     0
370
     0
100
AcDbBlockReference
  2
.TD_SECTION_2
 10
-10905.35097055885
 20
465.7910675678274
 30
0.0
  0
INSERT
  5
5282
330
A
100
AcDbEntity
  8
0
  6
Continuous
 62
     0
370
     0
100
AcDbBlockReference
  2
.TD_SECTION_1
 10
-11064.96092844183
 20
698.0103962023752
 30
0.0
  0
INSERT
  5
5283
330
A
100
AcDbEntity
  8
0
  6
Continuous
 62
     0
370
     0
100
AcDbBlockReference
  2
.TD_SECTION_2
 10
-10776.90956354314
 20
399.8117572863596
 30
0.0
  0
INSERT
  5
5284
330
A
100
AcDbEntity
  8
0
  6
Continuous
 62
     0
370
     0
100
AcDbBlockReference
  2
.TD_SECTION_1
 10
-1462.487522281953
 20
1958.724372419401
 30
0.0
  0
INSERT
  5
5285
330
A
100
AcDbEntity
  8
0
  6
Continuous
 62
     0
370
     0
100
AcDbBlockReference
  2
.TD_SECTION_2
 10
-1135.18037048752
 20
1672.677238019987
 30
0.0
  0
INSERT
  5
5286
330
A
100
AcDbEntity
  8
0
  6
Continuous
 62
     0
370
     0
100
AcDbBlockReference
  2
.TD_SECTION_1
 10
704.608903935718
 20
-713.9911611042783
 30
0.0
  0
INSERT
  5
5287
330
A
100
AcDbEntity
  8
0
  6
Continuous
 62
     0
370
     0
100
AcDbBlockReference
  2
.TD_SECTION_2
 10
1319.461252263355
 20
-1311.565746065216
 30
0.0
  0
LINE
  5
600B
330
A
100
AcDbEntity
  8
MODEL
100
AcDbLine
 10
416.5694184267154
 20
1191.900000391756
 30
0.0
 11
418.5691138170264
 21
1191.900000391756
 31
0.0
  0
LINE
  5
600C
330
A
100
AcDbEntity
  8
MODEL
100
AcDbLine
 10
418.5691138170264
 20
1191.900000391756
 30
0.0
 11
806.4288638926264
 21
1191.900000391756
 31
0.0
  0
LINE
  5
600D
330
A
100
AcDbEntity
  8
MODEL
100
AcDbLine
 10
806.4288638926264
 20
1191.900000391756
 30
0.0
 11
808.4285592829365
 21
1191.900000391756
 31
0.0
  0
LINE
  5
600E
330
A
100
AcDbEntity
  8
MODEL
100
AcDbLine
 10
812.4279500635635
 20
1187.830190766006
 30
0.0
 11
811.3457360380085
 21
1125.830190766006
 31
0.0
  0
LINE
  5
600F
330
A
100
AcDbEntity
  8
MODEL
100
AcDbLine
 10
413.6522416716366
 20
1125.830190766006
 30
0.0
 11
412.5700276460884
 21
1187.830190766006
 31
0.0
  0
LINE
  5
6010
330
A
100
AcDbEntity
  8
MODEL
100
AcDbLine
 10
807.3463452573883
 20
1121.900000391756
 30
0.0
 11
805.3466498670714
 21
1121.900000391756
 31
0.0
  0
LINE
  5
6011
330
A
100
AcDbEntity
  8
MODEL
100
AcDbLine
 10
805.3466498670714
 20
1121.900000391756
 30
0.0
 11
419.6513278425732
 21
1121.900000391756
 31
0.0
  0
LINE
  5
6012
330
A
100
AcDbEntity
  8
MODEL
100
AcDbLine
 10
419.6513278425732
 20
1121.900000391756
 30
0.0
 11
417.6516324522563
 21
1121.900000391756
 31
0.0
  0
ARC
  5
6013
330
A
100
AcDbEntity
  8
MODEL
100
AcDbCircle
 10
416.5694184267086
 20
1187.900000391756
 30
0.0
 40
4.0
100
AcDbArc
 50
89.99999999958311
 51
180.9999999993503
  0
ARC
  5
6014
330
A
100
AcDbEntity
  8
MODEL
100
AcDbCircle
 10
808.4285592829365
 20
1187.900000391756
 30
0.0
 40
4.0
100
AcDbArc
 50
359.0000000004413
 51
90.00000000041689
  0
ARC
  5
6015
330
A
100
AcDbEntity
  8
MODEL
100
AcDbCircle
 10
417.6516324522563
 20
1125.900000391756
 30
0.0
 40
4.0
100
AcDbArc
 50
180.9999999995588
 51
269.9999999991662
  0
ARC
  5
6016
330
A
100
AcDbEntity
  8
MODEL
100
AcDbCircle
 10
807.3463452573883
 20
1125.900000391756
 30
0.0
 40
4.0
100
AcDbArc
 50
270.0000000004169
 51
359.0000000002328
  0
LINE
  5
6017
330
A
100
AcDbEntity
  8
MODEL
100
AcDbLine
 10
646.9062373675224
 20
1076.554872192087
 30
0.0
 11
646.7385794270485
 21
1074.638533163512
 31
0.0
  0
ARC
  5
6018
330
A
100
AcDbEntity
  8
MODEL
100
AcDbCircle
 10
643.7499953327674
 20
1074.900000391756
 30
0.0
 40
3.0
100
AcDbArc
 50
270.0000000004169
 51
355.000000000022
  0
LINE
  5
6019
330
A
100
AcDbEntity
  8
MODEL
100
AcDbLine
 10
643.7499953327674
 20
1071.900000391756
 30
0.0
 11
581.2479823768776
 21
1071.900000391756
 31
0.0
  0
ARC
  5
601A
330
A
100
AcDbEntity
  8
MODEL
100
AcDbCircle
 10
581.2464496584394
 20
1074.898327723096
 30
0.0
 40
2.99832772309612
100
AcDbArc
 50
184.9707109063397
 51
270.0292890935086
  0
SPLINE
  5
601B
330
A
100
AcDbEntity
  8
MODEL
100
AcDbSpline
210
0.0
220
0.0
230
1.0
 70
     8
 71
     3
 72
    15
 73
    11
 74
     0
 42
0.000000001
 43
0.0000000001
 40
0.0
 40
0.0
 40
0.0
 40
0.0
 40
1.969615625475826
 40
4.775503209329626
 40
6.218430252097003
 40
6.944300808634507
 40
9.185843663482506
 40
10.59605805496936
 40
11.91192788011347
 40
12.35998737436866
 40
12.35998737436866
 40
12.35998737436866
 40
12.35998737436866
 10
578.0917392775555
 20
1076.554862525958
 30
0.0
 10
578.0348300727314
 20
1077.205338657214
 30
0.0
 10
577.7012317607473
 20
1078.771982867516
 30
0.0
 10
576.6822252109882
 20
1080.601026796631
 30
0.0
 10
575.5302016322134
 20
1081.78092406615
 30
0.0
 10
574.3993095715305
 20
1082.669689064862
 30
0.0
 10
573.1125919837323
 20
1083.323544952959
 30
0.0
 10
571.9445770832576
 20
1083.638900188429
 30
0.0
 10
571.5878890219933
 20
1083.697459088179
 30
0.0
 10
571.4722387600236
 20
1083.714139049784
 30
0.0
 10
571.4471734457225
 20
1083.717632755835
 30
0.0
  0
SPLINE
  5
601C
330
A
100
AcDbEntity
  8
MODEL
100
AcDbSpline
210
0.0
220
0.0
230
1.0
 70
     8
 71
     3
 72
    14
 73
    10
 74
     0
 42
0.000000001
 43
0.0000000001
 40
3.958291311798145
 40
3.958291311798145
 40
3.958291311798145
 40
3.958291311798145
 40
5.625534656584578
 40
7.004180124470263
 40
8.525458701364794
 40
9.869947786133492
 40
11.31445187097395
 40
14.13183399155497
 40
16.32167146169052
 40
16.32167146169052
 40
16.32167146169052
 40
16.32167146169052
 10
653.5506656170364
 20
1083.717995139302
 30
0.0
 10
653.4566324460934
 20
1083.706150381749
 30
0.0
 10
653.1825734905465
 20
1083.668037998872
 30
0.0
 10
652.1588875177586
 20
1083.403575028613
 30
0.0
 10
650.9447229024772
 20
1082.864500243836
 30
0.0
 10
649.7866921197383
 20
1082.075652767256
 30
0.0
 10
648.4532350902996
 20
1080.785516448871
 30
0.0
 10
647.3423860024664
 20
1078.918823118912
 30
0.0
 10
646.9694728527725
 20
1077.277634600774
 30
0.0
 10
646.9062392177034
 20
1076.554871693936
 30
0.0
  0
SPLINE
  5
601D
330
A
100
AcDbEntity
  8
MODEL
100
AcDbSpline
210
0.0
220
0.0
230
1.0
 70
     8
 71
     3
 72
    38
 73
    34
 74
     0
 42
0.000000001
 43
0.0000000001
 40
12.50402811440043
 40
12.50402811440043
 40
12.50402811440043
 40
12.50402811440043
 40
13.07866738893962
 40
13.79252991243812
 40
14.62111080972371
 40
14.81883685674151
 40
15.05417955409997
 40
15.36026794936075
 40
15.76931958082947
 40
17.12748562950259
 40
19.48090045780402
 40
21.77454938657646
 40
25.27639189608663
 40
28.75576325080678
 40
32.12586427813045
 40
35.49281162674288
 40
45.2163312796754
 40
55.10359574845032
 40
65.14765047879568
 40
75.02354750192296
 40
84.64335028923229
 40
91.61016012157917
 40
98.46925205956595
 40
103.0201553743429
 40
109.854606952672
 40
115.6020946672228
 40
122.4734154709892
 40
125.8634286561881
 40
134.1927219740521
 40
138.2940910824956
 40
142.4111755106214
 40
148.9674223910455
 40
151.6925229680006
 40
151.6925229680006
 40
151.6925229680006
 40
151.6925229680006
 10
660.5878623968924
 20
1084.115810484667
 30
0.0
 10
660.5878623865024
 20
1084.115810690485
 30
0.0
 10
660.4617272083306
 20
1084.109298499793
 30
0.0
 10
659.8193207494955
 20
1084.076776643942
 30
0.0
 10
659.4448029032314
 20
1084.058226383883
 30
0.0
 10
659.3730696172174
 20
1084.054705318306
 30
0.0
 10
659.4540790421775
 20
1084.058679726141
 30
0.0
 10
659.6252017315096
 20
1084.067044044483
 30
0.0
 10
660.1018803486913
 20
1084.090299414225
 30
0.0
 10
661.2439921644805
 20
1084.145982676474
 30
0.0
 10
662.9885920907363
 20
1084.231694836917
 30
0.0
 10
665.4243283048236
 20
1084.353282515614
 30
0.0
 10
668.2474042022404
 20
1084.49753635133
 30
0.0
 10
671.4398192224794
 20
1084.665929099294
 30
0.0
 10
674.6288702581182
 20
1084.83972702512
 30
0.0
 10
679.8281990626742
 20
1085.13237654719
 30
0.0
 10
687.2546907126994
 20
1085.576116614224
 30
0.0
 10
696.8324091306454
 20
1086.2037317378
 30
0.0
 10
706.4164722469322
 20
1086.928144310229
 30
0.0
 10
715.8892209235523
 20
1087.814040761279
 30
0.0
 10
724.3041564470154
 20
1088.899386253463
 30
0.0
 10
731.6249323470724
 20
1090.293473859372
 30
0.0
 10
737.2082397351514
 20
1091.847792704932
 30
0.0
 10
742.5099825551774
 20
1093.921214589241
 30
0.0
 10
747.1561930579014
 20
1096.42099681782
 30
0.0
 10
751.7705840648596
 20
1099.732302172846
 30
0.0
 10
755.1016876385656
 20
1102.61215757651
 30
0.0
 10
758.7643304741323
 20
1106.045610198174
 30
0.0
 10
761.8550035214466
 20
1109.175534267082
 30
0.0
 10
765.0355739353804
 20
1112.708573141479
 30
0.0
 10
767.7929902295546
 20
1115.99359129253
 30
0.0
 10
770.1547016291042
 20
1119.102505778412
 30
0.0
 10
771.6691129628703
 20
1121.264905463463
 30
0.0
 10
772.1098208857034
 20
1121.900000391756
 30
0.0
  0
LINE
  5
601E
330
A
100
AcDbEntity
  8
MODEL
100
AcDbLine
 10
653.5493125187454
 20
1083.724321414951
 30
0.0
 11
660.0508889055095
 21
1084.087809111082
 31
0.0
  0
SPLINE
  5
601F
330
A
100
AcDbEntity
  8
MODEL
100
AcDbSpline
210
0.0
220
0.0
230
1.0
 70
     8
 71
     3
 72
    40
 73
    36
 74
     0
 42
0.000000001
 43
0.0000000001
 40
12.50433722210173
 40
12.50433722210173
 40
12.50433722210173
 40
12.50433722210173
 40
13.07943484317218
 40
13.79187170975326
 40
14.61875504952742
 40
14.81574453432165
 40
15.04945805141263
 40
15.35283024364178
 40
15.75721361547048
 40
17.1036204875221
 40
19.44976411183636
 40
21.73539032908375
 40
25.18153219028827
 40
28.61153462280458
 40
31.92827471322686
 40
35.24503253387157
 40
40.13345807434396
 40
44.97806228177453
 40
49.89756069616585
 40
54.86552346455281
 40
64.9078345594169
 40
74.788585499397
 40
84.41776879889689
 40
91.38986166323896
 40
98.25174440643224
 40
102.8017506976818
 40
109.6371717400881
 40
115.3910211681479
 40
122.2692092637593
 40
125.6611705055114
 40
133.9920331230558
 40
138.0915702759963
 40
142.2044788242978
 40
148.8628864522312
 40
151.6940248950183
 40
151.6940248950183
 40
151.6940248950183
 40
151.6940248950183
 10
564.4100702360925
 20
1084.115812810649
 30
0.0
 10
564.4100702480973
 20
1084.115813048911
 30
0.0
 10
564.5364254503625
 20
1084.109289451122
 30
0.0
 10
565.1780207686575
 20
1084.076809295806
 30
0.0
 10
565.5512027579202
 20
1084.058323575686
 30
0.0
 10
565.6251324515943
 20
1084.054694205136
 30
0.0
 10
565.5462375226234
 20
1084.058565183173
 30
0.0
 10
565.3777285674623
 20
1084.066802183928
 30
0.0
 10
564.9077784595825
 20
1084.08973002141
 30
0.0
 10
563.7716139215954
 20
1084.145121677718
 30
0.0
 10
562.0376805351584
 20
1084.230296756717
 30
0.0
 10
559.6232049601053
 20
1084.35079084932
 30
0.0
 10
556.8357457878333
 20
1084.493144918844
 30
0.0
 10
553.6934196204425
 20
1084.658712277644
 30
0.0
 10
550.5541444426094
 20
1084.8295156377
 30
0.0
 10
546.9170881670543
 20
1085.033807886291
 30
0.0
 10
542.7405050663115
 20
1085.277498220997
 30
0.0
 10
538.0057915519756
 20
1085.566469023779
 30
0.0
 10
533.2435632527954
 20
1085.87140318603
 30
0.0
 10
526.8171405298676
 20
1086.306318867324
 30
0.0
 10
518.8114270843253
 20
1086.909277214656
 30
0.0
 10
509.3342942300915
 20
1087.789877673549
 30
0.0
 10
500.9102486888623
 20
1088.866576334186
 30
0.0
 10
493.5793801545474
 20
1090.246848455931
 30
0.0
 10
487.9872057150383
 20
1091.783824057072
 30
0.0
 10
482.6735885725025
 20
1093.835784910881
 30
0.0
 10
478.0085831709766
 20
1096.316289931201
 30
0.0
 10
473.3675339737124
 20
1099.619612968865
 30
0.0
 10
470.0214273991846
 20
1102.499663726956
 30
0.0
 10
466.3524868280983
 20
1105.929048701121
 30
0.0
 10
463.2619913397393
 20
1109.050631218652
 30
0.0
 10
460.0791160257395
 20
1112.574728272159
 30
0.0
 10
457.2987981314404
 20
1115.87484628434
 30
0.0
 10
454.8953791824206
 20
1119.029291724917
 30
0.0
 10
453.3460879405134
 20
1121.240204134172
 30
0.0
 10
452.8880687085002
 20
1121.900000391756
 30
0.0
  0
LINE
  5
6020
330
A
100
AcDbEntity
  8
MODEL
100
AcDbLine
 10
571.4487095079712
 20
1083.724318616557
 30
0.0
 11
564.9470756963606
 21
1084.08780978372
 31
0.0
  0
LINE
  5
6021
330
A
100
AcDbEntity
  8
MODEL
100
AcDbLine
 10
578.2593982826033
 20
1074.638533163512
 30
0.0
 11
578.0917399731293
 21
1076.554876409739
 31
0.0
  0
SPLINE
  5
6022
330
A
100
AcDbEntity
  8
MODEL
100
AcDbSpline
210
0.0
220
0.0
230
1.0
 70
     8
 71
     3
 72
    52
 73
    48
 74
     0
 42
0.000000001
 43
0.0000000001
 40
0.0
 40
0.0
 40
0.0
 40
0.0
 40
0.2324734420166203
 40
0.2324734420166203
 40
0.2723812742038363
 40
0.2723812742038363
 40
0.3442139742651678
 40
0.3442139742651678
 40
0.3701912499053855
 40
0.3701912499053855
 40
0.3822083276200109
 40
0.3822083276200109
 40
0.3942254053346364
 40
0.3942254053346364
 40
0.4062424830492619
 40
0.4062424830492619
 40
0.4404886931359017
 40
0.4404886931359017
 40
0.4747349032225416
 40
0.4747349032225416
 40
0.491735971018131
 40
0.491735971018131
 40
0.5087370388137205
 40
0.5087370388137205
 40
0.5257381066093099
 40
0.5257381066093099
 40
0.5427391744048993
 40
0.5427391744048993
 40
0.5597402422004887
 40
0.5597402422004887
 40
0.5937423777916675
 40
0.5937423777916675
 40
0.6090184916576006
 40
0.6090184916576006
 40
0.6230206815728053
 40
0.6230206815728053
 40
0.6370228714880101
 40
0.6370228714880101
 40
0.6650272513184197
 40
0.6650272513184197
 40
0.7481238729249939
 40
0.7481238729249939
 40
0.8312204945315682
 40
0.8312204945315682
 40
0.9974137377447169
 40
0.9974137377447169
 40
1.0
 40
1.0
 40
1.0
 40
1.0
 10
612.4989735960376
 20
2096.473611916971
 30
0.0
 10
598.8173466472695
 20
2096.473612216775
 30
0.0
 10
585.1355328641625
 20
2096.486533819413
 30
0.0
 10
569.1051404189602
 20
2096.490425827538
 30
0.0
 10
566.7565064836785
 20
2096.490492660863
 30
0.0
 10
560.1802668883506
 20
2096.487700222748
 30
0.0
 10
555.9527586896324
 20
2096.48206981971
 30
0.0
 10
550.1965513773216
 20
2096.451964923257
 30
0.0
 10
548.6677444710335
 20
2096.441424458613
 30
0.0
 10
546.4317954662583
 20
2096.419736523957
 30
0.0
 10
545.7257537601363
 20
2096.412624866797
 30
0.0
 10
544.3099873416395
 20
2096.39543260545
 30
0.0
 10
543.6029879943412
 20
2096.380238168882
 30
0.0
 10
542.1889867594473
 20
2096.306338457214
 30
0.0
 10
541.4811021417886
 20
2096.25102994244
 30
0.0
 10
538.7698690304132
 20
2095.969284374226
 30
0.0
 10
536.8001332218305
 20
2095.615324252982
 30
0.0
 10
532.9445797676563
 20
2094.599037854741
 30
0.0
 10
531.0568822137175
 20
2093.935753391537
 30
0.0
 10
528.2983739893716
 20
2092.698894260621
 30
0.0
 10
527.3998342514274
 20
2092.251294734876
 30
0.0
 10
525.6527339733184
 20
2091.295535816257
 30
0.0
 10
524.8018163350316
 20
2090.78650575699
 30
0.0
 10
523.1433710333185
 20
2089.706787082535
 30
0.0
 10
522.3360681131276
 20
2089.135565670554
 30
0.0
 10
520.7803360545186
 20
2087.911343262597
 30
0.0
 10
520.0334669306644
 20
2087.257718441095
 30
0.0
 10
518.6022975221963
 20
2085.856781886259
 30
0.0
 10
517.9151155776526
 20
2085.110691797215
 30
0.0
 10
515.9646397950314
 20
2082.821796649232
 30
0.0
 10
514.7993903482675
 20
2081.223018151423
 30
0.0
 10
513.2791603620894
 20
2078.812701674527
 30
0.0
 10
512.8315098827184
 20
2078.052361610841
 30
0.0
 10
512.0204893641312
 20
2076.569891748759
 30
0.0
 10
511.6590420804532
 20
2075.846352728027
 30
0.0
 10
510.9321915678556
 20
2074.401426429119
 30
0.0
 10
510.5685251852956
 20
2073.679042963296
 30
0.0
 10
509.4786971897665
 20
2071.511402583468
 30
0.0
 10
508.7533749288664
 20
2070.065717469607
 30
0.0
 10
505.8773857668166
 20
2064.329182886626
 30
0.0
 10
503.7296418784795
 20
2060.03687088098
 30
0.0
 10
499.4338084278534
 20
2051.452344416833
 30
0.0
 10
497.2864194135805
 20
2047.159768640973
 30
0.0
 10
490.8433459812113
 20
2034.282715238591
 30
0.0
 10
486.5473756282772
 20
2025.698240043595
 30
0.0
 10
482.1852407982624
 20
2016.9798616672
 30
0.0
 10
482.1183985517964
 20
2016.846267102149
 30
0.0
 10
482.0515564471752
 20
2016.71267246605
 30
0.0
  0
SPLINE
  5
6023
330
A
100
AcDbEntity
  8
MODEL
100
AcDbSpline
210
0.0
220
0.0
230
1.0
 70
     8
 71
     3
 72
    56
 73
    52
 74
     0
 42
0.000000001
 43
0.0000000001
 40
0.0
 40
0.0
 40
0.0
 40
0.0
 40
0.1188369956612882
 40
0.1188369956612882
 40
0.2591032498666448
 40
0.2591032498666448
 40
0.3046933888481313
 40
0.3046933888481313
 40
0.3339742343878698
 40
0.3339742343878698
 40
0.3554596136219322
 40
0.3554596136219322
 40
0.3812806484255574
 40
0.3812806484255574
 40
0.3936906760810252
 40
0.3936906760810252
 40
0.406100703736493
 40
0.406100703736493
 40
0.4389021355595936
 40
0.4389021355595936
 40
0.4555835083059678
 40
0.4555835083059678
 40
0.472264881052342
 40
0.472264881052342
 40
0.4889462537987163
 40
0.4889462537987163
 40
0.5056276265450904
 40
0.5056276265450904
 40
0.5196277577164576
 40
0.5196277577164576
 40
0.547628020059192
 40
0.547628020059192
 40
0.5756282824019263
 40
0.5756282824019263
 40
0.5951854047120048
 40
0.5951854047120048
 40
0.6085733236244989
 40
0.6085733236244989
 40
0.6207325256194455
 40
0.6207325256194455
 40
0.632891727614392
 40
0.632891727614392
 40
0.6585884961502771
 40
0.6585884961502771
 40
0.7099820332220473
 40
0.7099820332220473
 40
0.8210809994861946
 40
0.8210809994861946
 40
0.9321799657503419
 40
0.9321799657503419
 40
1.0
 40
1.0
 40
1.0
 40
1.0
 10
742.9463907448912
 20
2016.71267246605
 30
0.0
 10
739.8595603902254
 20
2022.882196604467
 30
0.0
 10
736.7724789064632
 20
2029.0516054776
 30
0.0
 10
730.0416280061363
 20
2042.502905291833
 30
0.0
 10
726.3979137180395
 20
2049.784789555154
 30
0.0
 10
721.5700226379954
 20
2059.433608266243
 30
0.0
 10
720.3857408532244
 20
2061.80052210312
 30
0.0
 10
718.4396299703403
 20
2065.686899783129
 30
0.0
 10
717.6782334054624
 20
2067.206619986601
 30
0.0
 10
716.3572880442844
 20
2069.840914097364
 30
0.0
 10
715.7981445094883
 20
2070.955674498274
 30
0.0
 10
714.5648989747606
 20
2073.409760191551
 30
0.0
 10
713.8964050447435
 20
2074.75144092928
 30
0.0
 10
712.8906713444412
 20
2076.727390137905
 30
0.0
 10
712.5506439776323
 20
2077.362514110649
 30
0.0
 10
711.8362859561134
 20
2078.610298496588
 30
0.0
 10
711.4637810385216
 20
2079.224942338371
 30
0.0
 10
710.0491636846014
 20
2081.430742956378
 30
0.0
 10
708.9157034794885
 20
2082.968395003426
 30
0.0
 10
707.0211996010516
 20
2085.17823793607
 30
0.0
 10
706.3471548250345
 20
2085.906714701728
 30
0.0
 10
704.9469356622544
 20
2087.272243196274
 30
0.0
 10
704.2161351639184
 20
2087.912367101284
 30
0.0
 10
702.6956417657166
 20
2089.109488995388
 30
0.0
 10
701.9080961697437
 20
2089.668949931668
 30
0.0
 10
700.2893891381864
 20
2090.729333260161
 30
0.0
 10
699.4581746164872
 20
2091.228653029483
 30
0.0
 10
697.8917614886996
 20
2092.093992559511
 30
0.0
 10
697.1619544759124
 20
2092.467824655414
 30
0.0
 10
694.9245016272725
 20
2093.521498323141
 30
0.0
 10
693.3997698430435
 20
2094.117753240948
 30
0.0
 10
690.2989654584494
 20
2095.098125159998
 30
0.0
 10
688.7209270047865
 20
2095.483940988122
 30
0.0
 10
685.9959601006744
 20
2095.970584648232
 30
0.0
 10
684.8617595796563
 20
2096.122262857764
 30
0.0
 10
682.9331459668724
 20
2096.298888731496
 30
0.0
 10
682.1459657261767
 20
2096.348625364092
 30
0.0
 10
680.6500395166045
 20
2096.398495543101
 30
0.0
 10
679.9364179795484
 20
2096.404387394895
 30
0.0
 10
678.5096330427364
 20
2096.420302930915
 30
0.0
 10
677.7969418458565
 20
2096.427519076884
 30
0.0
 10
675.5770482118064
 20
2096.447009228903
 30
0.0
 10
674.0701722945705
 20
2096.456313206696
 30
0.0
 10
669.5495237162654
 20
2096.477863228427
 30
0.0
 10
666.5356673314636
 20
2096.483665108762
 30
0.0
 10
657.0067523536236
 20
2096.494972010897
 30
0.0
 10
650.4913947423015
 20
2096.489134865528
 30
0.0
 10
637.4609834518815
 20
2096.481710905067
 30
0.0
 10
630.9457460017693
 20
2096.477757905356
 30
0.0
 10
620.4533453090376
 20
2096.474346567139
 30
0.0
 10
616.4761574900076
 20
2096.473612004123
 30
0.0
 10
612.4989735960376
 20
2096.473611916971
 30
0.0
  0
SPLINE
  5
6024
330
A
100
AcDbEntity
  8
MODEL
100
AcDbSpline
210
0.0
220
0.0
230
1.0
 70
     8
 71
     3
 72
    82
 73
    78
 74
     0
 42
0.000000001
 43
0.0000000001
 40
0.0
 40
0.0
 40
0.0
 40
0.0
 40
0.0575649905542796
 40
0.0575649905542796
 40
0.1726949716628387
 40
0.1726949716628387
 40
0.4029549338799571
 40
0.4029549338799571
 40
0.4357743791027721
 40
0.4357743791027721
 40
0.5014132695484023
 40
0.5014132695484023
 40
0.5185370840375978
 40
0.5185370840375978
 40
0.5280528729456824
 40
0.5280528729456824
 40
0.5308478779118656
 40
0.5308478779118656
 40
0.5336428828780488
 40
0.5336428828780488
 40
0.5392328928104153
 40
0.5392328928104153
 40
0.5462253961547698
 40
0.5462253961547698
 40
0.5532178994991244
 40
0.5532178994991244
 40
0.5611149815025089
 40
0.5611149815025089
 40
0.567662157001052
 40
0.567662157001052
 40
0.5742093324995952
 40
0.5742093324995952
 40
0.5804461736528485
 40
0.5804461736528485
 40
0.5866830148061017
 40
0.5866830148061017
 40
0.592919855959355
 40
0.592919855959355
 40
0.5995485012433449
 40
0.5995485012433449
 40
0.6061771465273348
 40
0.6061771465273348
 40
0.6128057918113247
 40
0.6128057918113247
 40
0.6192918705369034
 40
0.6192918705369034
 40
0.6257779492624821
 40
0.6257779492624821
 40
0.6322640279880608
 40
0.6322640279880608
 40
0.6407358749563271
 40
0.6407358749563271
 40
0.6452242816194425
 40
0.6452242816194425
 40
0.6497126882825578
 40
0.6497126882825578
 40
0.6595967638183375
 40
0.6595967638183375
 40
0.6694808393541173
 40
0.6694808393541173
 40
0.679364914889897
 40
0.679364914889897
 40
0.6991330659614565
 40
0.6991330659614565
 40
0.718901217033016
 40
0.718901217033016
 40
0.7410170872183386
 40
0.7410170872183386
 40
0.7631329574036612
 40
0.7631329574036612
 40
0.8058082432256362
 40
0.8058082432256362
 40
0.8484835290476112
 40
0.8484835290476112
 40
0.9698591978604469
 40
0.9698591978604469
 40
1.0
 40
1.0
 40
1.0
 40
1.0
 10
612.4989735960376
 20
1884.599854401496
 30
0.0
 10
618.5770271380356
 20
1884.599854492601
 30
0.0
 10
624.6550806774285
 20
1884.59983012842
 30
0.0
 10
642.8892412724995
 20
1884.599683013425
 30
0.0
 10
655.0453483050696
 20
1884.599486240155
 30
0.0
 10
691.5136691877815
 20
1884.598594577752
 30
0.0
 10
715.8258905521543
 20
1884.597486083585
 30
0.0
 10
743.6033670270085
 20
1884.596135422247
 30
0.0
 10
747.0686401012026
 20
1884.595975680456
 30
0.0
 10
757.4644492447806
 20
1884.595572535373
 30
0.0
 10
764.3949948996124
 20
1884.595288436774
 30
0.0
 10
773.1335001650846
 20
1884.595732932977
 30
0.0
 10
774.9415062230146
 20
1884.595925067757
 30
0.0
 10
777.7542410208375
 20
1884.595908639893
 30
0.0
 10
778.7530228280775
 20
1884.602167829529
 30
0.0
 10
780.0610261312286
 20
1884.594962363845
 30
0.0
 10
780.3539804703655
 20
1884.584742221835
 30
0.0
 10
780.9440371715505
 20
1884.584951046322
 30
0.0
 10
781.2389268160073
 20
1884.59212455509
 30
0.0
 10
782.1231625925752
 20
1884.634987205394
 30
0.0
 10
782.7121056272263
 20
1884.691929637508
 30
0.0
 10
784.0365875989846
 20
1884.887160243472
 30
0.0
 10
784.7708653637924
 20
1885.041972642914
 30
0.0
 10
786.2408858602616
 20
1885.456590586089
 30
0.0
 10
786.9754759805915
 20
1885.717550701285
 30
0.0
 10
788.4850187299194
 20
1886.372672848772
 30
0.0
 10
789.2541214295165
 20
1886.778927670926
 30
0.0
 10
790.6082461949736
 20
1887.633028790502
 30
0.0
 10
791.1948241504106
 20
1888.057449210996
 30
0.0
 10
792.3014865891055
 20
1888.96937218207
 30
0.0
 10
792.8236265991836
 20
1889.457826090325
 30
0.0
 10
793.7829562086804
 20
1890.475232148017
 30
0.0
 10
794.2235465631056
 20
1891.002060747559
 30
0.0
 10
795.0436770760753
 20
1892.113133024822
 30
0.0
 10
795.4188640934626
 20
1892.691411818016
 30
0.0
 10
796.0929616807225
 20
1893.878701991857
 30
0.0
 10
796.3934635540245
 20
1894.489634468369
 30
0.0
 10
796.9392655388915
 20
1895.785628393838
 30
0.0
 10
797.1800785547275
 20
1896.473948632982
 30
0.0
 10
797.5767755037705
 20
1897.885112494412
 30
0.0
 10
797.7307143365433
 20
1898.600566541431
 30
0.0
 10
797.9491628983415
 20
1900.033476293867
 30
0.0
 10
798.0148147219334
 20
1900.753827421105
 30
0.0
 10
798.0597694186836
 20
1902.186613938519
 30
0.0
 10
798.0405031618534
 20
1902.901029632716
 30
0.0
 10
797.9189146265676
 20
1904.327491778112
 30
0.0
 10
797.8172992256114
 20
1905.032604433523
 30
0.0
 10
797.5367008237913
 20
1906.420802171718
 30
0.0
 10
797.3577329328004
 20
1907.105122463958
 30
0.0
 10
796.8578663849003
 20
1908.661588165754
 30
0.0
 10
796.5084056242813
 20
1909.528315913191
 30
0.0
 10
795.8867258823193
 20
1910.816712764407
 30
0.0
 10
795.6639776183915
 20
1911.258645613575
 30
0.0
 10
795.2234652124785
 20
1912.14495279759
 30
0.0
 10
795.0004099461116
 20
1912.586712101717
 30
0.0
 10
794.2817006379014
 20
1913.999791592697
 30
0.0
 10
793.7848892176376
 20
1914.969721198006
 30
0.0
 10
792.8100579567435
 20
1916.920735229081
 30
0.0
 10
792.3295474367515
 20
1917.899670002786
 30
0.0
 10
791.3817639885633
 20
1919.862675510134
 30
0.0
 10
790.9132718795995
 20
1920.846990460342
 30
0.0
 10
789.5043132626706
 20
1923.798266401137
 30
0.0
 10
788.5552963125774
 20
1925.760574764764
 30
0.0
 10
786.6172567655412
 20
1929.666416766613
 30
0.0
 10
785.6316055383904
 20
1931.611277911811
 30
0.0
 10
783.5348694042655
 20
1935.728602751768
 30
0.0
 10
782.4255396611075
 20
1937.901172905548
 30
0.0
 10
780.2201497908286
 20
1942.253682256895
 30
0.0
 10
779.1224219427272
 20
1944.432385256443
 30
0.0
 10
775.9147426983945
 20
1950.819332525909
 30
0.0
 10
773.8086362571016
 20
1955.029670862808
 30
0.0
 10
769.5953747997955
 20
1963.44951220401
 30
0.0
 10
767.4892200142826
 20
1967.659735703045
 30
0.0
 10
759.3917987758864
 20
1983.843963561567
 30
0.0
 10
753.4007069173135
 20
1995.818076970047
 30
0.0
 10
745.9218772507706
 20
2010.765684187348
 30
0.0
 10
744.4341338570266
 20
2013.739176225171
 30
0.0
 10
742.9463941469985
 20
2016.712670107097
 30
0.0
  0
SPLINE
  5
6025
330
A
100
AcDbEntity
  8
MODEL
100
AcDbSpline
210
0.0
220
0.0
230
1.0
 70
     8
 71
     3
 72
    86
 73
    82
 74
     0
 42
0.000000001
 43
0.0000000001
 40
0.0
 40
0.0
 40
0.0
 40
0.0
 40
0.0383896434369191
 40
0.0383896434369191
 40
0.1151689303107572
 40
0.1151689303107572
 40
0.1775282609089054
 40
0.1775282609089054
 40
0.2182054456808531
 40
0.2182054456808531
 40
0.2493146987551526
 40
0.2493146987551526
 40
0.276006855568022
 40
0.276006855568022
 40
0.3026990123808914
 40
0.3026990123808914
 40
0.3221830790069399
 40
0.3221830790069399
 40
0.3416671456329883
 40
0.3416671456329883
 40
0.3525051737565651
 40
0.3525051737565651
 40
0.3604526824763722
 40
0.3604526824763722
 40
0.3644978428065557
 40
0.3644978428065557
 40
0.3678971642415139
 40
0.3678971642415139
 40
0.3712964856764721
 40
0.3712964856764721
 40
0.3794332299403428
 40
0.3794332299403428
 40
0.3865030346768856
 40
0.3865030346768856
 40
0.3935728394134284
 40
0.3935728394134284
 40
0.4006426441499712
 40
0.4006426441499712
 40
0.4077019260727762
 40
0.4077019260727762
 40
0.4147612079955812
 40
0.4147612079955812
 40
0.4237076542165143
 40
0.4237076542165143
 40
0.430779358271124
 40
0.430779358271124
 40
0.4378510623257337
 40
0.4378510623257337
 40
0.4441023751942573
 40
0.4441023751942573
 40
0.4503536880627808
 40
0.4503536880627808
 40
0.4566050009313044
 40
0.4566050009313044
 40
0.4628973010372846
 40
0.4628973010372846
 40
0.4691896011432649
 40
0.4691896011432649
 40
0.4754819012492451
 40
0.4754819012492451
 40
0.478502613498852
 40
0.478502613498852
 40
0.4806907099253975
 40
0.4806907099253975
 40
0.482878806351943
 40
0.482878806351943
 40
0.4850669027784885
 40
0.4850669027784885
 40
0.4894430956315795
 40
0.4894430956315795
 40
0.5025710832965311
 40
0.5025710832965311
 40
0.5288270586264344
 40
0.5288270586264344
 40
0.5813390092862409
 40
0.5813390092862409
 40
0.686362910605854
 40
0.686362910605854
 40
0.8964107132450801
 40
0.8964107132450801
 40
1.0
 40
1.0
 40
1.0
 40
1.0
 10
482.0515530450684
 20
2016.712670107097
 30
0.0
 10
480.1920593634895
 20
2012.996164425096
 30
0.0
 10
478.3325600586572
 20
2009.279661567689
 30
0.0
 10
472.7540550306762
 20
1998.130156560025
 30
0.0
 10
469.0350421940275
 20
1990.697157974323
 30
0.0
 10
462.2955161409004
 20
1977.227140874556
 30
0.0
 10
459.2751078210604
 20
1971.19007202038
 30
0.0
 10
454.2841866986964
 20
1961.215142876731
 30
0.0
 10
452.3140311800926
 20
1957.277121371593
 30
0.0
 10
448.8348121878776
 20
1950.328493136819
 30
0.0
 10
447.3269639975733
 20
1947.317299719502
 30
0.0
 10
444.5131221816955
 20
1941.728664919435
 30
0.0
 10
443.2071443451023
 20
1939.151091952831
 30
0.0
 10
440.5851421724033
 20
1934.001153340495
 30
0.0
 10
439.2677396527256
 20
1931.429613582795
 30
0.0
 10
437.0324329937903
 20
1926.959390037334
 30
0.0
 10
436.1056310585154
 20
1925.065934342583
 30
0.0
 10
434.2798618513516
 20
1921.2635837742
 30
0.0
 10
433.3810217569085
 20
1919.356501946481
 30
0.0
 10
431.9357447173784
 20
1916.409654894029
 30
0.0
 10
431.4104271582873
 20
1915.360237356838
 30
0.0
 10
430.4879713779915
 20
1913.549044281762
 30
0.0
 10
430.0954779370845
 20
1912.784021193
 30
0.0
 10
429.5139801040455
 20
1911.622514715587
 30
0.0
 10
429.3211178795204
 20
1911.22888996573
 30
0.0
 10
428.9627024346514
 20
1910.509259230681
 30
0.0
 10
428.8006640026683
 20
1910.178228832397
 30
0.0
 10
428.4995597467964
 20
1909.507651935614
 30
0.0
 10
428.3584367899634
 20
1909.169454111909
 30
0.0
 10
427.9129116458093
 20
1908.013012382578
 30
0.0
 10
427.6546319865706
 20
1907.181551718602
 30
0.0
 10
427.2799315495686
 20
1905.597627324105
 30
0.0
 10
427.1490097583414
 20
1904.846720745615
 30
0.0
 10
426.9801083296884
 20
1903.327216096075
 30
0.0
 10
426.9429958075084
 20
1902.564719318426
 30
0.0
 10
426.9631479569834
 20
1901.050047286232
 30
0.0
 10
427.0200326157974
 20
1900.295275787583
 30
0.0
 10
427.2298254548623
 20
1898.792489563449
 30
0.0
 10
427.3838992801352
 20
1898.039924606021
 30
0.0
 10
427.7865926913405
 20
1896.565915602598
 30
0.0
 10
428.0338169464485
 20
1895.849045941391
 30
0.0
 10
428.6961273005322
 20
1894.267240633745
 30
0.0
 10
429.1385460871275
 20
1893.413685277973
 30
0.0
 10
430.0663125349274
 20
1891.944056916826
 30
0.0
 10
430.5191772886133
 20
1891.323304614122
 30
0.0
 10
431.4936412919083
 20
1890.158053422308
 30
0.0
 10
432.0174055337525
 20
1889.610124933045
 30
0.0
 10
433.0736668107743
 20
1888.643208468048
 30
0.0
 10
433.5999544578553
 20
1888.215523678795
 30
0.0
 10
434.7026060158132
 20
1887.424071415651
 30
0.0
 10
435.2734125224924
 20
1887.063666746593
 30
0.0
 10
436.4479759095084
 20
1886.415350146033
 30
0.0
 10
437.0526161955095
 20
1886.126522319393
 30
0.0
 10
438.3013504321534
 20
1885.617855295484
 30
0.0
 10
438.9483080965115
 20
1885.398055240693
 30
0.0
 10
440.2646764081546
 20
1885.03696899088
 30
0.0
 10
440.9280173164484
 20
1884.896498403169
 30
0.0
 10
442.2591033815515
 20
1884.692156707685
 30
0.0
 10
442.9280597060892
 20
1884.627910698663
 30
0.0
 10
443.9227022741215
 20
1884.587074739248
 30
0.0
 10
444.2440650085086
 20
1884.582169580213
 30
0.0
 10
444.8068439086383
 20
1884.588940640974
 30
0.0
 10
445.0401098812545
 20
1884.596320325821
 30
0.0
 10
445.5093112904906
 20
1884.598089241882
 30
0.0
 10
445.7447478643267
 20
1884.59626931653
 30
0.0
 10
446.2144454512413
 20
1884.595987285729
 30
0.0
 10
446.4493545127443
 20
1884.59601623454
 30
0.0
 10
447.1539795921526
 20
1884.595922967969
 30
0.0
 10
447.6236296329625
 20
1884.595874984113
 30
0.0
 10
449.5024759323965
 20
1884.595797110072
 30
0.0
 10
450.9116113788446
 20
1884.595817232769
 30
0.0
 10
455.1389721362834
 20
1884.595573456068
 30
0.0
 10
457.9572271976244
 20
1884.595517111542
 30
0.0
 10
466.4119724504963
 20
1884.59553167706
 30
0.0
 10
472.0484774329193
 20
1884.595735986844
 30
0.0
 10
488.9579749164654
 20
1884.596442753448
 30
0.0
 10
500.2309685360055
 20
1884.597073972472
 30
0.0
 10
534.0499584431273
 20
1884.598561156069
 30
0.0
 10
556.5959525152243
 20
1884.599274008321
 30
0.0
 10
590.2609553723773
 20
1884.599772970499
 30
0.0
 10
601.3799644624264
 20
1884.59985456816
 30
0.0
 10
612.4989735960444
 20
1884.599854401496
 30
0.0
  0
LINE
  5
6026
330
A
100
AcDbEntity
  8
MODEL
100
AcDbLine
 10
414.5694031679195
 20
2105.712668638828
 30
0.0
 11
416.5694031679195
 21
2105.712668638828
 31
0.0
  0
LINE
  5
6027
330
A
100
AcDbEntity
  8
MODEL
100
AcDbLine
 10
416.5694031679195
 20
2105.712668551406
 30
0.0
 11
808.4285440241474
 21
2105.712668551406
 31
0.0
  0
LINE
  5
6028
330
A
100
AcDbEntity
  8
MODEL
100
AcDbLine
 10
808.4285440241474
 20
2105.712668638828
 30
0.0
 11
810.4285440241474
 21
2105.712668638828
 31
0.0
  0
ARC
  5
6029
330
A
100
AcDbEntity
  8
MODEL
100
AcDbCircle
 10
612.4989735960376
 20
2016.71267370935
 30
0.0
 40
22.0
100
AcDbArc
 50
180.000000000469
 51
0.0
  0
ARC
  5
602A
330
A
100
AcDbEntity
  8
MODEL
100
AcDbCircle
 10
612.4989735960376
 20
2016.71267370935
 30
0.0
 40
22.0
100
AcDbArc
 50
0.0000000008858735
 51
180.000000000469
  0
ARC
  5
602B
330
A
100
AcDbEntity
  8
MODEL
100
AcDbCircle
 10
414.5694896478635
 20
2103.712582170193
 30
0.0
 40
2.000086481809581
100
AcDbArc
 50
89.99381584814138
 51
179.9975229631497
  0
ARC
  5
602C
330
A
100
AcDbEntity
  8
MODEL
100
AcDbCircle
 10
810.4284575442034
 20
2103.71258217019
 30
0.0
 40
2.000086481813752
100
AcDbArc
 50
0.0024770369023836
 51
90.0061841518586
  0
LINE
  5
602D
330
A
100
AcDbEntity
  8
MODEL
100
AcDbLine
 10
812.4285440241474
 20
2103.712668638828
 30
0.0
 11
812.4285440241474
 21
1881.782793601029
 31
0.0
  0
ARC
  5
602E
330
A
100
AcDbEntity
  8
MODEL
100
AcDbCircle
 10
806.4286530986024
 20
1881.782989136265
 30
0.0
 40
5.999890928732935
100
AcDbArc
 50
270.0018672579612
 51
359.9981327418477
  0
LINE
  5
602F
330
A
100
AcDbEntity
  8
MODEL
100
AcDbLine
 10
418.5690985582364
 20
1875.783098210717
 30
0.0
 11
806.4288486338373
 21
1875.783098210717
 31
0.0
  0
ARC
  5
6030
330
A
100
AcDbEntity
  8
MODEL
100
AcDbCircle
 10
418.5692940934646
 20
1881.782989136261
 30
0.0
 40
5.99989092872968
100
AcDbArc
 50
180.0018672578396
 51
269.9981327420388
  0
LINE
  5
6031
330
A
100
AcDbEntity
  8
MODEL
100
AcDbLine
 10
412.5694031679195
 20
2103.712668638828
 30
0.0
 11
412.5694031679195
 21
1881.78279360103
 31
0.0
  0
ARC
  5
6033
330
A
100
AcDbEntity
  8
HIDDEN
 48
0.5
100
AcDbCircle
 10
1680.949192075468
 20
1188.90000647534
 30
0.0
 40
2.999999999999699
100
AcDbArc
 50
90.00000000027794
 51
175.0087156215876
  0
LINE
  5
6034
330
A
100
AcDbEntity
  8
MODEL
100
AcDbLine
 10
1680.951034923027
 20
1191.900003998764
 30
0.0
 11
1599.514424998249
 21
1191.900000658452
 31
0.0
  0
ARC
  5
6036
330
A
100
AcDbEntity
  8
MODEL
100
AcDbCircle
 10
1463.570822975985
 20
1188.90000647534
 30
0.0
 40
2.999999999998431
100
AcDbArc
 50
33.00083783265332
 51
89.99999999986105
  0
LINE
  5
6037
102
{ACAD_REACTORS
330
62AF
102
}
330
A
100
AcDbEntity
  8
MODEL
100
AcDbLine
 10
1599.514421277346
 20
1191.900000658452
 30
0.0
 11
1463.583800978662
 21
1191.899999125386
 31
0.0
  0
ARC
  5
6038
330
A
100
AcDbEntity
  8
HIDDEN
 48
0.5
100
AcDbCircle
 10
1641.471378682423
 20
1081.321348939475
 30
0.0
 40
14.9180530089851
100
AcDbArc
 50
102.1250077158037
 51
132.4501493653345
  0
ARC
  5
6039
330
A
100
AcDbEntity
  8
HIDDEN
 48
0.5
100
AcDbCircle
 10
1556.72114756208
 20
1083.470917712641
 30
0.0
 40
12.12226468771425
100
AcDbArc
 50
46.9464909834218
 51
84.02921003004086
  0
LINE
  5
603A
330
A
100
AcDbEntity
  8
MODEL
100
AcDbLine
 10
1467.524413143657
 20
1121.90000647534
 30
0.0
 11
1499.682002057321
 21
1121.899998184372
 31
0.0
  0
SPLINE
  5
603B
330
A
100
AcDbEntity
  8
HIDDEN
 48
0.5
100
AcDbSpline
210
0.0
220
0.0
230
1.0
 70
     8
 71
     3
 72
    38
 73
    34
 74
     0
 42
0.000000001
 43
0.0000000001
 40
0.0
 40
0.0
 40
0.0
 40
0.0
 40
0.043155645488916
 40
0.0684675287773263
 40
0.0937794120657367
 40
0.144403178642557
 40
0.169715061930968
 40
0.195026945219378
 40
0.211901534078318
 40
0.220338828507788
 40
0.245650711796199
 40
0.270962595084609
 40
0.283618536728814
 40
0.296274478373019
 40
0.308930420017225
 40
0.3215863616614301
 40
0.334242303305635
 40
0.34689824494984
 40
0.37221012823825
 40
0.397522011526661
 40
0.422833894815071
 40
0.448145778103481
 40
0.473457661391892
 40
0.481894955821362
 40
0.498769544680302
 40
0.5493933112571229
 40
0.6000170778339429
 40
0.650640844410764
 40
0.701264610987585
 40
0.7518883775644051
 40
0.8193867330001661
 40
0.8868850884359271
 40
1.0
 40
1.0
 40
1.0
 40
1.0
 10
1638.337911578377
 20
1095.906604833747
 30
0.0
 10
1639.312520515452
 20
1096.163102493161
 30
0.0
 10
1640.87276689899
 20
1096.579209740083
 30
0.0
 10
1643.016917459734
 20
1097.172168090392
 30
0.0
 10
1645.352040221654
 20
1097.842760404185
 30
0.0
 10
1647.739337251887
 20
1098.577030265076
 30
0.0
 10
1650.243170242678
 20
1099.428780446257
 30
0.0
 10
1651.971241627508
 20
1100.070316375275
 30
0.0
 10
1653.30848580468
 20
1100.610962993355
 30
0.0
 10
1654.671005023099
 20
1101.195079996285
 30
0.0
 10
1656.30036468139
 20
1101.950214025767
 30
0.0
 10
1658.105278017867
 20
1102.914518439326
 30
0.0
 10
1659.571274383861
 20
1103.811802542243
 30
0.0
 10
1660.675454441489
 20
1104.557267516297
 30
0.0
 10
1661.77796721695
 20
1105.384815998046
 30
0.0
 10
1662.86774596364
 20
1106.303045207582
 30
0.0
 10
1663.933723934935
 20
1107.320552365002
 30
0.0
 10
1665.30083959031
 20
1108.808787011554
 30
0.0
 10
1666.866029949234
 20
1110.914229587454
 30
0.0
 10
1668.423054744265
 20
1113.772920799695
 30
0.0
 10
1669.649442806398
 20
1116.859720361046
 30
0.0
 10
1670.598147121805
 20
1120.071221060802
 30
0.0
 10
1671.169834334434
 20
1122.603105527689
 30
0.0
 10
1671.59061060146
 20
1124.762725393672
 30
0.0
 10
1672.152348164972
 20
1127.98860069621
 30
0.0
 10
1672.808434701148
 20
1132.936585205205
 30
0.0
 10
1673.483401353167
 20
1139.199653987444
 30
0.0
 10
1674.087141981925
 20
1145.43111829776
 30
0.0
 10
1674.665459825899
 20
1151.714844418062
 30
0.0
 10
1675.294045900775
 20
1158.752121354364
 30
0.0
 10
1675.977902345397
 20
1166.529771643616
 30
0.0
 10
1676.889137968779
 20
1176.91693803256
 30
0.0
 10
1677.548487601134
 20
1184.442649305316
 30
0.0
 10
1677.960568242344
 20
1189.161019088233
 30
0.0
  0
SPLINE
  5
603C
330
A
100
AcDbEntity
  8
HIDDEN
 48
0.5
100
AcDbSpline
210
0.0
220
0.0
230
1.0
 70
     8
 71
     3
 72
    40
 73
    36
 74
     0
 42
0.000000001
 43
0.0000000001
 40
0.0
 40
0.0
 40
0.0
 40
0.0
 40
0.120594824522512
 40
0.153381871705321
 40
0.186168918888131
 40
0.251743013253751
 40
0.300923584027965
 40
0.3255138694150729
 40
0.35010415480218
 40
0.3992847255763939
 40
0.4484652963506089
 40
0.497645867124824
 40
0.514039390716229
 40
0.5222361525119309
 40
0.546826437899038
 40
0.571416723286146
 40
0.5960070086732531
 40
0.6205972940603599
 40
0.645187579447468
 40
0.6697778648345749
 40
0.6820730075281278
 40
0.6943681502216821
 40
0.706663292915236
 40
0.718958435608789
 40
0.743548720995897
 40
0.7681390063830039
 40
0.7763357681787069
 40
0.792729291770111
 40
0.817319577157219
 40
0.841909862544326
 40
0.891090433318541
 40
0.9156807187056482
 40
0.940271004092755
 40
0.9894515748669701
 40
1.0
 40
1.0
 40
1.0
 40
1.0
 10
1466.086810786875
 20
1190.533960371699
 30
0.0
 10
1469.465389042403
 20
1185.33157263728
 30
0.0
 10
1473.752549648388
 20
1178.72738503912
 30
0.0
 10
1478.993925746124
 20
1170.669344301516
 30
0.0
 10
1482.694784671252
 20
1164.985363688304
 30
0.0
 10
1486.867832998245
 20
1158.587226738235
 30
0.0
 10
1490.799632540265
 20
1152.588946559945
 30
0.0
 10
1493.568254001578
 20
1148.391099117789
 30
0.0
 10
1496.329100380115
 20
1144.224869217467
 30
0.0
 10
1499.782928578834
 20
1139.062808015841
 30
0.0
 10
1504.048922965123
 20
1132.837767868359
 30
0.0
 10
1507.58091730773
 20
1127.919042386993
 30
0.0
 10
1510.042303163007
 20
1124.737302731044
 30
0.0
 10
1511.740705997299
 20
1122.61824237817
 30
0.0
 10
1513.819189708951
 20
1120.154734557362
 30
0.0
 10
1516.649423567674
 20
1117.092735150063
 30
0.0
 10
1519.572017390632
 20
1114.181340003363
 30
0.0
 10
1522.504684389032
 20
1111.445714436834
 30
0.0
 10
1525.37207564046
 20
1108.918301330849
 30
0.0
 10
1527.668389136744
 20
1107.032377428847
 30
0.0
 10
1529.420232877784
 20
1105.683191492599
 30
0.0
 10
1530.685522506211
 20
1104.754973704801
 30
0.0
 10
1531.907746865925
 20
1103.906302020381
 30
0.0
 10
1533.484576078955
 20
1102.874771978923
 30
0.0
 10
1535.365263517322
 20
1101.761614935304
 30
0.0
 10
1537.029683812959
 20
1100.913871971176
 30
0.0
 10
1538.416510863013
 20
1100.276497075682
 30
0.0
 10
1539.776502992581
 20
1099.701069309666
 30
0.0
 10
1541.543657716125
 20
1099.049275198535
 30
0.0
 10
1544.161820488816
 20
1098.228960306302
 30
0.0
 10
1546.806929236556
 20
1097.569078379869
 30
0.0
 10
1549.661480779208
 20
1096.973515341028
 30
0.0
 10
1552.730509082053
 20
1096.395313825733
 30
0.0
 10
1555.576425273147
 20
1095.915758652233
 30
0.0
 10
1557.620804823762
 20
1095.585472054007
 30
0.0
 10
1557.982122887102
 20
1095.527419791875
 30
0.0
  0
LINE
  5
603E
330
A
100
AcDbEntity
  8
MODEL
100
AcDbLine
 10
1687.199622386064
 20
1094.909766752373
 30
0.0
 11
1687.199622433459
 21
1095.569333322701
 31
0.0
  0
LINE
  5
603F
330
A
100
AcDbEntity
  8
MODEL
100
AcDbLine
 10
1687.199622433459
 20
1095.569333322701
 30
0.0
 11
1687.199622435868
 21
1095.829468248119
 31
0.0
  0
LINE
  5
6040
330
A
100
AcDbEntity
  8
MODEL
100
AcDbLine
 10
1687.199622435868
 20
1095.829468248119
 30
0.0
 11
1687.199622610105
 21
1137.937516672899
 31
0.0
  0
LINE
  5
6041
330
A
100
AcDbEntity
  8
MODEL
100
AcDbLine
 10
1687.199622610105
 20
1137.937516672899
 30
0.0
 11
1687.199623038506
 21
1148.254672199915
 31
0.0
  0
SPLINE
  5
6042
330
A
100
AcDbEntity
  8
MODEL
100
AcDbSpline
210
0.0
220
0.0
230
1.0
 70
     8
 71
     3
 72
    52
 73
    48
 74
     0
 42
0.000000001
 43
0.0000000001
 40
0.0
 40
0.0
 40
0.0
 40
0.0
 40
0.0312500000000014
 40
0.0312500000000014
 40
0.0625000000000028
 40
0.0625000000000028
 40
0.125000000000005
 40
0.125000000000005
 40
0.140625000000006
 40
0.140625000000006
 40
0.156250000000007
 40
0.156250000000007
 40
0.187500000000008
 40
0.203125000000008
 40
0.203125000000008
 40
0.218750000000008
 40
0.218750000000008
 40
0.250000000000009
 40
0.265625000000009
 40
0.265625000000009
 40
0.281250000000009
 40
0.281250000000009
 40
0.312500000000009
 40
0.343750000000009
 40
0.343750000000009
 40
0.375000000000009
 40
0.375000000000009
 40
0.437500000000009
 40
0.437500000000009
 40
0.468750000000008
 40
0.484375000000008
 40
0.484375000000008
 40
0.5000000000000069
 40
0.5000000000000069
 40
0.625000000000007
 40
0.625000000000007
 40
0.687500000000006
 40
0.687500000000006
 40
0.7500000000000048
 40
0.7500000000000048
 40
0.7812500000000038
 40
0.7812500000000038
 40
0.8125000000000039
 40
0.8125000000000039
 40
0.875000000000002
 40
0.875000000000002
 40
1.0
 40
1.0
 40
1.0
 40
1.0
 10
1670.117687410145
 20
1097.38364149515
 30
0.0
 10
1669.64477088109
 20
1096.972755689623
 30
0.0
 10
1669.17182189911
 20
1096.583986761767
 30
0.0
 10
1668.231671574323
 20
1095.847985789768
 30
0.0
 10
1667.764582653546
 20
1095.500826841859
 30
0.0
 10
1666.379402341592
 20
1094.516575048007
 30
0.0
 10
1665.471428043516
 20
1093.932618205165
 30
0.0
 10
1664.377847934907
 20
1093.279444265913
 30
0.0
 10
1664.161350740456
 20
1093.152719737276
 30
0.0
 10
1663.731174964845
 20
1092.905574799732
 30
0.0
 10
1663.517680852239
 20
1092.785273341111
 30
0.0
 10
1662.88254331863
 20
1092.433779265272
 30
0.0
 10
1662.258100275432
 20
1092.101108675042
 30
0.0
 10
1661.652992289158
 20
1091.794171993823
 30
0.0
 10
1661.254237754847
 20
1091.594982822962
 30
0.0
 10
1661.056211661243
 20
1091.497619230728
 30
0.0
 10
1660.466374614066
 20
1091.211935168072
 30
0.0
 10
1659.885080205809
 20
1090.939096344546
 30
0.0
 10
1659.31824497608
 20
1090.684023659478
 30
0.0
 10
1658.94374789337
 20
1090.517751220692
 30
0.0
 10
1658.758327733618
 20
1090.436556546322
 30
0.0
 10
1658.205781013495
 20
1090.197697010457
 30
0.0
 10
1657.479644643574
 20
1089.892161798604
 30
0.0
 10
1656.776496319866
 20
1089.610482542025
 30
0.0
 10
1656.085716272633
 20
1089.339690010833
 30
0.0
 10
1655.744855087958
 20
1089.209079594423
 30
0.0
 10
1654.735106558009
 20
1088.830080020706
 30
0.0
 10
1654.079643512037
 20
1088.594756529105
 30
0.0
 10
1653.125224234843
 20
1088.263640718118
 30
0.0
 10
1652.655205483266
 20
1088.10354767597
 30
0.0
 10
1652.196348637118
 20
1087.950862393458
 30
0.0
 10
1651.892962243817
 20
1087.850630659659
 30
0.0
 10
1651.742264978982
 20
1087.801203771136
 30
0.0
 10
1650.390839582631
 20
1087.361028627746
 30
0.0
 10
1649.232899365788
 20
1087.005933080515
 30
0.0
 10
1647.551546582983
 20
1086.510330882395
 30
0.0
 10
1646.998597437808
 20
1086.350761335407
 30
0.0
 10
1645.904846114908
 20
1086.040445045661
 30
0.0
 10
1645.364270675907
 20
1085.889765119782
 30
0.0
 10
1644.561565585319
 20
1085.668910441948
 30
0.0
 10
1644.295510718018
 20
1085.59619186152
 30
0.0
 10
1643.764881710472
 20
1085.451961379213
 30
0.0
 10
1643.50035851697
 20
1085.380469932125
 30
0.0
 10
1642.709495405639
 20
1085.167799341491
 30
0.0
 10
1642.185859196748
 20
1085.028422558875
 30
0.0
 10
1640.628526463713
 20
1084.617013464768
 30
0.0
 10
1639.608355808473
 20
1084.351679749407
 30
0.0
 10
1638.614151447445
 20
1084.094247885207
 30
0.0
  0
LINE
  5
6043
330
A
100
AcDbEntity
  8
MODEL
100
AcDbLine
 10
1557.05859890923
 20
1084.028905798665
 30
0.0
 11
1552.559317195746
 21
1084.765672316475
 31
0.0
  0
LINE
  5
6044
330
A
100
AcDbEntity
  8
MODEL
100
AcDbLine
 10
1552.559317195746
 20
1084.765672316475
 30
0.0
 11
1547.723175950008
 21
1085.641779181888
 31
0.0
  0
SPLINE
  5
6045
330
A
100
AcDbEntity
  8
MODEL
100
AcDbSpline
210
0.0
220
0.0
230
1.0
 70
     8
 71
     3
 72
    42
 73
    38
 74
     0
 42
0.000000001
 43
0.0000000001
 40
0.0
 40
0.0
 40
0.0
 40
0.0
 40
0.0624999999999978
 40
0.0624999999999978
 40
0.0937499999999972
 40
0.0937499999999972
 40
0.124999999999997
 40
0.124999999999997
 40
0.249999999999993
 40
0.249999999999993
 40
0.312499999999992
 40
0.312499999999992
 40
0.343749999999991
 40
0.343749999999991
 40
0.374999999999991
 40
0.374999999999991
 40
0.49999999999999
 40
0.49999999999999
 40
0.53124999999999
 40
0.53124999999999
 40
0.56249999999999
 40
0.56249999999999
 40
0.62499999999999
 40
0.62499999999999
 40
0.687499999999991
 40
0.687499999999991
 40
0.718749999999991
 40
0.718749999999991
 40
0.749999999999991
 40
0.749999999999991
 40
0.874999999999994
 40
0.874999999999994
 40
0.9374999999999968
 40
0.9374999999999968
 40
0.968749999999998
 40
0.968749999999998
 40
1.0
 40
1.0
 40
1.0
 40
1.0
 10
1547.723175950008
 20
1085.641779181888
 30
0.0
 10
1547.236502938563
 20
1085.737149876963
 30
0.0
 10
1546.755002904452
 20
1085.834328211006
 30
0.0
 10
1546.039210689474
 20
1085.983736092732
 30
0.0
 10
1545.80162713094
 20
1086.034157310022
 30
0.0
 10
1545.32809954152
 20
1086.136424567927
 30
0.0
 10
1545.092331638925
 20
1086.188229188198
 30
0.0
 10
1543.914332478367
 20
1086.451819002518
 30
0.0
 10
1542.973086289648
 20
1086.677750072942
 30
0.0
 10
1541.552119444089
 20
1087.050940255189
 30
0.0
 10
1541.077036179516
 20
1087.181032860956
 30
0.0
 10
1540.36158065482
 20
1087.385926340363
 30
0.0
 10
1540.122835497715
 20
1087.455770575418
 30
0.0
 10
1539.641181514986
 20
1087.599908234412
 30
0.0
 10
1539.398646374264
 20
1087.674105332217
 30
0.0
 10
1538.177578368735
 20
1088.05664511214
 30
0.0
 10
1537.173631144543
 20
1088.399941232017
 30
0.0
 10
1535.890517706424
 20
1088.887562424379
 30
0.0
 10
1535.632496743974
 20
1088.987993115274
 30
0.0
 10
1535.113817374536
 20
1089.194891584002
 30
0.0
 10
1534.852784440345
 20
1089.301499549312
 30
0.0
 10
1534.06329209493
 20
1089.631980344695
 30
0.0
 10
1533.529163178582
 20
1089.866244445677
 30
0.0
 10
1532.447564207361
 20
1090.364919684251
 30
0.0
 10
1531.90010362139
 20
1090.629327167028
 30
0.0
 10
1531.070307718373
 20
1091.049927800572
 30
0.0
 10
1530.79227073629
 20
1091.194123365165
 30
0.0
 10
1530.233492800058
 20
1091.490708113144
 30
0.0
 10
1529.952648013701
 20
1091.643155747623
 30
0.0
 10
1528.543163543423
 20
1092.425689852708
 30
0.0
 10
1527.402770127048
 20
1093.114432732733
 30
0.0
 10
1525.667366637631
 20
1094.247908881304
 30
0.0
 10
1525.084677387838
 20
1094.642484081376
 30
0.0
 10
1524.202969862426
 20
1095.260525440526
 30
0.0
 10
1523.907629107367
 20
1095.471026583668
 30
0.0
 10
1523.315338401926
 20
1095.900030540017
 30
0.0
 10
1523.018279654514
 20
1096.11859612938
 30
0.0
 10
1522.720045007199
 20
1096.341322967606
 30
0.0
  0
LINE
  5
6046
330
A
100
AcDbEntity
  8
MODEL
100
AcDbLine
 10
1522.720045007199
 20
1096.341322967606
 30
0.0
 11
1522.114906715711
 21
1096.797705895331
 31
0.0
  0
ARC
  5
6047
330
A
100
AcDbEntity
  8
MODEL
100
AcDbCircle
 10
1597.144811780179
 20
1194.104812854048
 30
0.0
 40
122.8745690477011
100
AcDbArc
 50
215.9890235239515
 51
232.3655146954362
  0
ARC
  5
6049
330
A
100
AcDbEntity
  8
MODEL
100
AcDbCircle
 10
1672.085280013636
 20
1095.119004803162
 30
0.0
 40
2.999999999999909
100
AcDbArc
 50
2.000000000212267
 51
130.9852109777976
  0
ARC
  5
604A
330
A
100
AcDbEntity
  8
MODEL
100
AcDbCircle
 10
1640.619477707792
 20
1076.349658380916
 30
0.0
 40
7.999999999991806
100
AcDbArc
 50
104.5169132579705
 51
174.9999999992873
  0
ARC
  5
604B
330
A
100
AcDbEntity
  8
MODEL
100
AcDbCircle
 10
1555.799105819818
 20
1076.128673070589
 30
0.0
 40
8.000000000000918
100
AcDbArc
 50
4.999999999868402
 51
80.94185939151065
  0
LINE
  5
604C
330
A
100
AcDbEntity
  8
HIDDEN
 48
0.5
100
AcDbLine
 10
1621.44231015246
 20
1083.971296708535
 30
0.0
 11
1574.956939665697
 21
1083.971296708542
 31
0.0
  0
LINE
  5
604D
330
A
100
AcDbEntity
  8
MODEL
100
AcDbLine
 10
1620.199624909075
 20
1071.900006475333
 30
0.0
 11
1576.199624909075
 21
1071.90000647534
 31
0.0
  0
LINE
  5
604E
330
A
100
AcDbEntity
  8
HIDDEN
 48
0.5
100
AcDbLine
 10
1631.402461506981
 20
1092.328856036589
 30
0.0
 11
1621.44231015246
 21
1083.971296708542
 31
0.0
  0
LINE
  5
604F
330
A
100
AcDbEntity
  8
HIDDEN
 48
0.5
100
AcDbLine
 10
1574.956939665697
 20
1083.971296708542
 30
0.0
 11
1564.996788311176
 21
1092.328856036589
 31
0.0
  0
LINE
  5
6050
330
A
100
AcDbEntity
  8
MODEL
100
AcDbLine
 10
1685.199624909075
 20
1191.90000647534
 30
0.0
 11
1680.949192075468
 21
1191.90000647534
 31
0.0
  0
LINE
  5
6051
330
A
100
AcDbEntity
  8
MODEL
100
AcDbLine
 10
1463.570822975985
 20
1191.90000647534
 30
0.0
 11
1461.270054480965
 21
1191.90000647534
 31
0.0
  0
LINE
  5
6052
330
A
100
AcDbEntity
  8
MODEL
100
AcDbLine
 10
1457.270663700337
 20
1187.830196849585
 30
0.0
 11
1458.352877725878
 21
1125.830196849585
 31
0.0
  0
LINE
  5
6054
330
A
100
AcDbEntity
  8
MODEL
100
AcDbLine
 10
1462.352268506505
 20
1121.90000647534
 30
0.0
 11
1467.524413129622
 21
1121.90000647534
 31
0.0
  0
LINE
  5
6055
330
A
100
AcDbEntity
  8
MODEL
100
AcDbLine
 10
1687.199624909075
 20
1148.381617331177
 30
0.0
 11
1687.199624909075
 21
1189.90000647534
 31
0.0
  0
LINE
  5
6056
330
A
100
AcDbEntity
  8
MODEL
100
AcDbLine
 10
1563.960034336853
 20
1074.638539247097
 30
0.0
 11
1563.768663404555
 21
1076.825919012559
 31
0.0
  0
LINE
  5
6057
330
A
100
AcDbEntity
  8
MODEL
100
AcDbLine
 10
1632.649920123056
 20
1077.046904322864
 30
0.0
 11
1632.439215481297
 21
1074.638539247097
 31
0.0
  0
LINE
  5
6058
330
A
100
AcDbEntity
  8
MODEL
100
AcDbLine
 10
1566.948618431126
 20
1071.90000647534
 30
0.0
 11
1576.199624909075
 21
1071.90000647534
 31
0.0
  0
LINE
  5
6059
330
A
100
AcDbEntity
  8
MODEL
100
AcDbLine
 10
1620.199624909075
 20
1071.90000647534
 30
0.0
 11
1629.450631387024
 21
1071.90000647534
 31
0.0
  0
LINE
  5
605A
330
A
100
AcDbEntity
  8
HIDDEN
 48
0.5
100
AcDbLine
 10
1576.199624909075
 20
1071.90000647534
 30
0.0
 11
1576.028119922108
 21
1081.725520598497
 31
0.0
  0
LINE
  5
605B
330
A
100
AcDbEntity
  8
HIDDEN
 48
0.5
100
AcDbLine
 10
1620.371129896049
 20
1081.725520598497
 30
0.0
 11
1620.199624909075
 21
1071.90000647534
 31
0.0
  0
LINE
  5
605C
330
A
100
AcDbEntity
  8
MODEL
100
AcDbLine
 10
1675.083452494693
 20
1095.223703293266
 30
0.0
 11
1675.098518752443
 21
1094.792262120324
 31
0.0
  0
LINE
  5
605D
330
A
100
AcDbEntity
  8
MODEL
100
AcDbLine
 10
1682.235657994244
 20
1091.896960610435
 30
0.0
 11
1678.0966912335
 21
1091.896960610435
 31
0.0
  0
LINE
  5
605E
330
A
100
AcDbEntity
  8
MODEL
100
AcDbLine
 10
1685.163922320485
 20
1144.933318237765
 30
0.0
 11
1684.235330445402
 21
1093.860599880447
 31
0.0
  0
ARC
  5
6061
330
A
100
AcDbEntity
  8
MODEL
100
AcDbCircle
 10
1461.270692643311
 20
1187.899379354951
 30
0.0
 40
4.000627171286263
100
AcDbArc
 50
90.00913956949796
 51
180.9908604311286
  0
ARC
  5
6062
330
A
100
AcDbEntity
  8
MODEL
100
AcDbCircle
 10
1462.352268773635
 20
1125.900006747177
 30
0.0
 40
4.00000027183749
100
AcDbArc
 50
181.0000038265898
 51
269.9999961736519
  0
ARC
  5
6067
330
A
100
AcDbEntity
  8
MODEL
100
AcDbCircle
 10
1678.0966912335
 20
1094.896960610435
 30
0.0
 40
3.0
100
AcDbArc
 50
182.0000000002123
 51
269.9999999994441
  0
ARC
  5
6068
330
A
100
AcDbEntity
  8
MODEL
100
AcDbCircle
 10
1682.23566620239
 20
1093.89695531094
 30
0.0
 40
1.999994700524228
100
AcDbArc
 50
269.9997648535228
 51
358.9584335090933
  0
ARC
  5
6069
330
A
100
AcDbEntity
  8
MODEL
100
AcDbCircle
 10
1687.163488577951
 20
1144.896981616001
 30
0.0
 40
1.999896389334918
100
AcDbArc
 50
119.4029040659719
 51
178.9589212486707
  0
ARC
  5
606A
330
A
100
AcDbEntity
  8
MODEL
100
AcDbCircle
 10
1685.199624909075
 20
1189.90000647534
 30
0.0
 40
2.0
100
AcDbArc
 50
0.0000000008337633
 51
90.00000000020843
  0
ARC
  5
606B
330
A
100
AcDbEntity
  8
MODEL
100
AcDbCircle
 10
1685.199495790877
 20
1148.381653243136
 30
0.0
 40
2.000129118523976
100
AcDbArc
 50
299.4091063870995
 51
359.9989712643766
  0
ARC
  5
606C
330
A
100
AcDbEntity
  8
MODEL
100
AcDbCircle
 10
1629.450675071175
 20
1074.899958802451
 30
0.0
 40
2.999952327434985
100
AcDbArc
 50
269.9991656811914
 51
355.0008343188717
  0
ARC
  5
606D
330
A
100
AcDbEntity
  8
MODEL
100
AcDbCircle
 10
1566.948574746982
 20
1074.899958802451
 30
0.0
 40
2.999952327435096
100
AcDbArc
 50
184.9991656811282
 51
270.0008343189475
  0
ARC
  5
606E
330
A
100
AcDbEntity
  8
HIDDEN
 48
0.5
100
AcDbCircle
 10
1573.028539618108
 20
1081.673145626859
 30
0.0
 40
3.000037522728263
100
AcDbArc
 50
1.000326583873806
 51
49.99967341655324
  0
ARC
  5
606F
330
A
100
AcDbEntity
  8
HIDDEN
 48
0.5
100
AcDbCircle
 10
1623.370710200049
 20
1081.673145626859
 30
0.0
 40
3.000037522728437
100
AcDbArc
 50
130.000326583444
 51
178.9996734169601
  0
LINE
  5
6070
330
A
100
AcDbEntity
  8
MODEL
100
AcDbLine
 10
1687.199624898896
 20
1148.381415749462
 30
0.0
 11
1687.14807587307
 21
1147.930464754112
 31
0.0
  0
ARC
  5
6071
330
A
100
AcDbEntity
  8
MODEL
100
AcDbCircle
 10
1685.19925721366
 20
1094.910131924762
 30
0.0
 40
2.000365205729513
100
AcDbArc
 50
270.0104595088848
 51
359.989540491532
  0
LINE
  5
6072
330
A
100
AcDbEntity
  8
MODEL
100
AcDbLine
 10
1683.974713190533
 20
1092.909766752366
 30
0.0
 11
1685.199622386057
 21
1092.909766752366
 31
0.0
  0
LINE
  5
6074
330
A
100
AcDbEntity
  8
MODEL
100
AcDbLine
 10
1548.8058302531
 20
1085.433978409279
 30
0.0
 11
1550.041497143649
 21
1085.206180212756
 31
0.0
  0
SPLINE
  5
6075
330
A
100
AcDbEntity
  8
MODEL
100
AcDbSpline
210
0.0
220
0.0
230
1.0
 70
     8
 71
     3
 72
    14
 73
    10
 74
     0
 42
0.000000001
 43
0.0000000001
 40
0.0
 40
0.0
 40
0.0
 40
0.0
 40
1.857807836011502
 40
3.658834324268797
 40
4.540626689204895
 40
5.410465622781568
 40
6.280340808189147
 40
7.144373596221992
 40
7.460086440629097
 40
7.460086440629097
 40
7.460086440629097
 40
7.460086440629097
 10
1540.477211411585
 20
1087.352943818469
 30
0.0
 10
1541.071791330725
 20
1087.18138744898
 30
0.0
 10
1542.24903621743
 20
1086.860167116755
 30
0.0
 10
1543.719258715647
 20
1086.49949874819
 30
0.0
 10
1544.873029031821
 20
1086.235903481122
 30
0.0
 10
1545.728719802917
 20
1086.048801504598
 30
0.0
 10
1546.570437867269
 20
1085.872158464741
 30
0.0
 10
1547.236194409912
 20
1085.737680149307
 30
0.0
 10
1547.620329826919
 20
1085.66193303529
 30
0.0
 10
1547.723175831424
 20
1085.641778618008
 30
0.0
  0
LINE
  5
6076
330
A
100
AcDbEntity
  8
MODEL
100
AcDbLine
 10
1548.805844834054
 20
1085.434056113611
 30
0.0
 11
1552.55943597507
 21
1084.76565145701
 31
0.0
  0
LINE
  5
6077
330
A
100
AcDbEntity
  8
HIDDEN
 48
0.5
100
AcDbLine
 10
1466.086810786992
 20
1190.533960370251
 30
0.0
 11
1468.476168219183
 21
1186.854565123502
 31
0.0
  0
LINE
  5
6078
330
A
100
AcDbEntity
  8
HIDDEN
 48
0.5
100
AcDbLine
 10
1642.477080015722
 20
1097.023954101669
 30
0.0
 11
1638.337919101673
 21
1095.906606816576
 31
0.0
  0
CIRCLE
  5
6079
330
A
100
AcDbEntity
  8
MODEL
100
AcDbCircle
 10
612.4989735960376
 20
2016.71267370935
 30
0.0
 40
35.0
  0
ARC
  5
607A
330
A
100
AcDbEntity
  8
HIDDEN
 48
0.5
100
AcDbCircle
 10
767.3831816384886
 20
2055.71267858317
 30
0.0
 40
17.5
100
AcDbArc
 50
180.0000000004169
 51
0.0
  0
ARC
  5
607B
330
A
100
AcDbEntity
  8
HIDDEN
 48
0.5
100
AcDbCircle
 10
767.3831816384886
 20
2055.71267858317
 30
0.0
 40
17.5
100
AcDbArc
 50
0.0000000008337633
 51
180.0000000004169
  0
ARC
  5
607C
330
A
100
AcDbEntity
  8
HIDDEN
 48
0.5
100
AcDbCircle
 10
457.6147655535933
 20
2055.71267858317
 30
0.0
 40
17.5
100
AcDbArc
 50
0.0000000004168817
 51
180.0
  0
ARC
  5
607D
330
A
100
AcDbEntity
  8
HIDDEN
 48
0.5
100
AcDbCircle
 10
457.6147655535933
 20
2055.71267858317
 30
0.0
 40
17.5
100
AcDbArc
 50
180.0000000008338
 51
0.0000000004168817
  0
LINE
  5
6080
102
{ACAD_REACTORS
330
62AF
102
}
330
A
100
AcDbEntity
  8
HIDDEN
 48
0.5
100
AcDbLine
 10
1636.381005604054
 20
1095.34405935872
 30
0.0
 11
1559.16610331039
 21
1095.34405935872
 31
0.0
  0
DIMENSION
  5
6085
330
A
100
AcDbEntity
  8
Dim
100
AcDbDimension
  2
*D48
 10
919.9185087556425
 20
1071.900006475333
 30
0.0
 11
919.9185087556425
 21
1131.900004401972
 31
0.0
 70
   160
 71
     5
 42
119.999995853279
 73
     0
 74
     0
 75
     0
  3
tform線あり
100
AcDbAlignedDimension
 13
807.4974224443363
 23
1191.900002328612
 33
0.0
 14
649.4684446583633
 24
1071.900006475333
 34
0.0
 50
-90.00000000000001
100
AcDbRotatedDimension
  0
DIMENSION
  5
6086
330
A
100
AcDbEntity
  8
Dim
100
AcDbDimension
  2
*D49
 10
1393.186720338239
 20
1121.900002329856
 30
0.0
 11
1393.186720338239
 21
1156.900000567408
 31
0.0
 70
   160
 71
     5
 42
69.99999647509685
 73
     0
 74
     0
 75
     0
  3
tform線あり
100
AcDbAlignedDimension
 13
1456.117809810394
 23
1191.899998804953
 33
0.0
 14
1456.117809810394
 24
1121.900002329856
 34
0.0
 50
-90.00000000000001
100
AcDbRotatedDimension
  0
DIMENSION
  5
6087
330
A
100
AcDbEntity
  8
Dim
100
AcDbDimension
  2
*D50
 10
1393.186720338239
 20
1071.90000647534
 30
0.0
 11
1393.186720338239
 21
1096.900004402595
 31
0.0
 70
   160
 71
     5
 42
49.99999585451606
 73
     0
 74
     0
 75
     0
  3
tform線あり
100
AcDbAlignedDimension
 13
1456.117809810394
 23
1121.900002329856
 33
0.0
 14
1562.668731650459
 24
1071.90000647534
 34
0.0
 50
-90.00000000000001
100
AcDbRotatedDimension
  0
DIMENSION
  5
6088
330
A
100
AcDbEntity
  8
Dim
100
AcDbDimension
  2
*D51
 10
1687.199624909074
 20
991.4845646606732
 30
0.0
 11
1642.486589683148
 21
1013.700873254423
 31
0.0
 70
    32
  1
90
 71
     5
 42
89.42607045185196
 73
     0
 74
     0
 75
     0
  3
tform線あり
100
AcDbAlignedDimension
 13
1597.773554457222
 23
1077.216096638822
 33
0.0
 14
1687.199624909074
 24
1090.617782493633
 34
0.0
 50
-0.000000000000014
100
AcDbRotatedDimension
  0
SPLINE
  5
60FE
330
A
100
AcDbEntity
  8
HIDDEN
 48
0.5
100
AcDbSpline
210
0.0
220
0.0
230
1.0
 70
     8
 71
     3
 72
    52
 73
    48
 74
     0
 42
0.000000001
 43
0.0000000001
 40
0.0
 40
0.0
 40
0.0
 40
0.0
 40
0.2324734420166203
 40
0.2324734420166203
 40
0.2723812742038363
 40
0.2723812742038363
 40
0.3442139742651678
 40
0.3442139742651678
 40
0.3701912499053855
 40
0.3701912499053855
 40
0.3822083276200109
 40
0.3822083276200109
 40
0.3942254053346364
 40
0.3942254053346364
 40
0.4062424830492619
 40
0.4062424830492619
 40
0.4404886931359017
 40
0.4404886931359017
 40
0.4747349032225416
 40
0.4747349032225416
 40
0.491735971018131
 40
0.491735971018131
 40
0.5087370388137205
 40
0.5087370388137205
 40
0.5257381066093099
 40
0.5257381066093099
 40
0.5427391744048993
 40
0.5427391744048993
 40
0.5597402422004887
 40
0.5597402422004887
 40
0.5937423777916675
 40
0.5937423777916675
 40
0.6090184916576006
 40
0.6090184916576006
 40
0.6230206815728053
 40
0.6230206815728053
 40
0.6370228714880101
 40
0.6370228714880101
 40
0.6650272513184197
 40
0.6650272513184197
 40
0.7481238729249939
 40
0.7481238729249939
 40
0.8312204945315682
 40
0.8312204945315682
 40
0.9974137377447169
 40
0.9974137377447169
 40
1.0
 40
1.0
 40
1.0
 40
1.0
 10
1491.737341596036
 20
2096.473611916971
 30
0.0
 10
1478.055714647269
 20
2096.473612216775
 30
0.0
 10
1464.373900864161
 20
2096.486533819413
 30
0.0
 10
1448.34350841896
 20
2096.490425827538
 30
0.0
 10
1445.994874483677
 20
2096.490492660863
 30
0.0
 10
1439.41863488835
 20
2096.487700222748
 30
0.0
 10
1435.191126689633
 20
2096.48206981971
 30
0.0
 10
1429.434919377321
 20
2096.451964923257
 30
0.0
 10
1427.906112471032
 20
2096.441424458613
 30
0.0
 10
1425.670163466259
 20
2096.419736523957
 30
0.0
 10
1424.964121760136
 20
2096.412624866797
 30
0.0
 10
1423.54835534164
 20
2096.39543260545
 30
0.0
 10
1422.841355994341
 20
2096.380238168882
 30
0.0
 10
1421.427354759447
 20
2096.306338457214
 30
0.0
 10
1420.719470141787
 20
2096.25102994244
 30
0.0
 10
1418.008237030413
 20
2095.969284374226
 30
0.0
 10
1416.03850122183
 20
2095.615324252982
 30
0.0
 10
1412.182947767656
 20
2094.599037854741
 30
0.0
 10
1410.295250213718
 20
2093.935753391537
 30
0.0
 10
1407.536741989371
 20
2092.698894260621
 30
0.0
 10
1406.638202251428
 20
2092.251294734876
 30
0.0
 10
1404.891101973319
 20
2091.295535816257
 30
0.0
 10
1404.040184335031
 20
2090.78650575699
 30
0.0
 10
1402.381739033319
 20
2089.706787082535
 30
0.0
 10
1401.574436113126
 20
2089.135565670554
 30
0.0
 10
1400.018704054519
 20
2087.911343262597
 30
0.0
 10
1399.271834930665
 20
2087.257718441095
 30
0.0
 10
1397.840665522197
 20
2085.856781886259
 30
0.0
 10
1397.153483577652
 20
2085.110691797215
 30
0.0
 10
1395.203007795031
 20
2082.821796649232
 30
0.0
 10
1394.037758348268
 20
2081.223018151423
 30
0.0
 10
1392.51752836209
 20
2078.812701674527
 30
0.0
 10
1392.069877882719
 20
2078.052361610841
 30
0.0
 10
1391.258857364131
 20
2076.569891748759
 30
0.0
 10
1390.897410080453
 20
2075.846352728027
 30
0.0
 10
1390.170559567855
 20
2074.401426429119
 30
0.0
 10
1389.806893185296
 20
2073.679042963296
 30
0.0
 10
1388.717065189767
 20
2071.511402583468
 30
0.0
 10
1387.991742928867
 20
2070.065717469607
 30
0.0
 10
1385.115753766817
 20
2064.329182886626
 30
0.0
 10
1382.968009878479
 20
2060.03687088098
 30
0.0
 10
1378.672176427854
 20
2051.452344416833
 30
0.0
 10
1376.52478741358
 20
2047.159768640973
 30
0.0
 10
1370.081713981211
 20
2034.282715238591
 30
0.0
 10
1365.785743628277
 20
2025.698240043595
 30
0.0
 10
1361.423608798263
 20
2016.9798616672
 30
0.0
 10
1361.356766551797
 20
2016.846267102149
 30
0.0
 10
1361.289924447175
 20
2016.71267246605
 30
0.0
  0
SPLINE
  5
60FF
330
A
100
AcDbEntity
  8
HIDDEN
 48
0.5
100
AcDbSpline
210
0.0
220
0.0
230
1.0
 70
     8
 71
     3
 72
    56
 73
    52
 74
     0
 42
0.000000001
 43
0.0000000001
 40
0.0
 40
0.0
 40
0.0
 40
0.0
 40
0.1188369956612882
 40
0.1188369956612882
 40
0.2591032498666448
 40
0.2591032498666448
 40
0.3046933888481313
 40
0.3046933888481313
 40
0.3339742343878698
 40
0.3339742343878698
 40
0.3554596136219322
 40
0.3554596136219322
 40
0.3812806484255574
 40
0.3812806484255574
 40
0.3936906760810252
 40
0.3936906760810252
 40
0.406100703736493
 40
0.406100703736493
 40
0.4389021355595936
 40
0.4389021355595936
 40
0.4555835083059678
 40
0.4555835083059678
 40
0.472264881052342
 40
0.472264881052342
 40
0.4889462537987163
 40
0.4889462537987163
 40
0.5056276265450904
 40
0.5056276265450904
 40
0.5196277577164576
 40
0.5196277577164576
 40
0.547628020059192
 40
0.547628020059192
 40
0.5756282824019263
 40
0.5756282824019263
 40
0.5951854047120048
 40
0.5951854047120048
 40
0.6085733236244989
 40
0.6085733236244989
 40
0.6207325256194455
 40
0.6207325256194455
 40
0.632891727614392
 40
0.632891727614392
 40
0.6585884961502771
 40
0.6585884961502771
 40
0.7099820332220473
 40
0.7099820332220473
 40
0.8210809994861946
 40
0.8210809994861946
 40
0.9321799657503419
 40
0.9321799657503419
 40
1.0
 40
1.0
 40
1.0
 40
1.0
 10
1622.184758744891
 20
2016.71267246605
 30
0.0
 10
1619.097928390225
 20
2022.882196604467
 30
0.0
 10
1616.010846906463
 20
2029.0516054776
 30
0.0
 10
1609.279996006136
 20
2042.502905291833
 30
0.0
 10
1605.63628171804
 20
2049.784789555154
 30
0.0
 10
1600.808390637996
 20
2059.433608266243
 30
0.0
 10
1599.624108853224
 20
2061.80052210312
 30
0.0
 10
1597.67799797034
 20
2065.686899783129
 30
0.0
 10
1596.916601405463
 20
2067.206619986601
 30
0.0
 10
1595.595656044285
 20
2069.840914097364
 30
0.0
 10
1595.036512509489
 20
2070.955674498274
 30
0.0
 10
1593.803266974761
 20
2073.409760191551
 30
0.0
 10
1593.134773044743
 20
2074.75144092928
 30
0.0
 10
1592.129039344441
 20
2076.727390137905
 30
0.0
 10
1591.789011977633
 20
2077.362514110649
 30
0.0
 10
1591.074653956113
 20
2078.610298496588
 30
0.0
 10
1590.70214903852
 20
2079.224942338371
 30
0.0
 10
1589.287531684602
 20
2081.430742956378
 30
0.0
 10
1588.154071479488
 20
2082.968395003426
 30
0.0
 10
1586.259567601051
 20
2085.17823793607
 30
0.0
 10
1585.585522825035
 20
2085.906714701728
 30
0.0
 10
1584.185303662254
 20
2087.272243196274
 30
0.0
 10
1583.454503163919
 20
2087.912367101284
 30
0.0
 10
1581.934009765717
 20
2089.109488995388
 30
0.0
 10
1581.146464169743
 20
2089.668949931668
 30
0.0
 10
1579.527757138187
 20
2090.729333260161
 30
0.0
 10
1578.696542616487
 20
2091.228653029483
 30
0.0
 10
1577.1301294887
 20
2092.093992559511
 30
0.0
 10
1576.400322475913
 20
2092.467824655414
 30
0.0
 10
1574.162869627273
 20
2093.521498323141
 30
0.0
 10
1572.638137843043
 20
2094.117753240948
 30
0.0
 10
1569.537333458449
 20
2095.098125159998
 30
0.0
 10
1567.959295004785
 20
2095.483940988122
 30
0.0
 10
1565.234328100674
 20
2095.970584648232
 30
0.0
 10
1564.100127579657
 20
2096.122262857764
 30
0.0
 10
1562.171513966872
 20
2096.298888731496
 30
0.0
 10
1561.384333726176
 20
2096.348625364092
 30
0.0
 10
1559.888407516604
 20
2096.398495543101
 30
0.0
 10
1559.174785979549
 20
2096.404387394895
 30
0.0
 10
1557.748001042737
 20
2096.420302930915
 30
0.0
 10
1557.035309845856
 20
2096.427519076884
 30
0.0
 10
1554.815416211806
 20
2096.447009228903
 30
0.0
 10
1553.308540294571
 20
2096.456313206696
 30
0.0
 10
1548.787891716265
 20
2096.477863228427
 30
0.0
 10
1545.774035331463
 20
2096.483665108762
 30
0.0
 10
1536.245120353624
 20
2096.494972010897
 30
0.0
 10
1529.729762742301
 20
2096.489134865528
 30
0.0
 10
1516.699351451882
 20
2096.481710905067
 30
0.0
 10
1510.184114001769
 20
2096.477757905356
 30
0.0
 10
1499.691713309036
 20
2096.474346567139
 30
0.0
 10
1495.714525490007
 20
2096.473612004123
 30
0.0
 10
1491.737341596036
 20
2096.473611916971
 30
0.0
  0
SPLINE
  5
6100
330
A
100
AcDbEntity
  8
HIDDEN
 48
0.5
100
AcDbSpline
210
0.0
220
0.0
230
1.0
 70
     8
 71
     3
 72
    82
 73
    78
 74
     0
 42
0.000000001
 43
0.0000000001
 40
0.0
 40
0.0
 40
0.0
 40
0.0
 40
0.0575649905542796
 40
0.0575649905542796
 40
0.1726949716628387
 40
0.1726949716628387
 40
0.4029549338799571
 40
0.4029549338799571
 40
0.4357743791027721
 40
0.4357743791027721
 40
0.5014132695484023
 40
0.5014132695484023
 40
0.5185370840375978
 40
0.5185370840375978
 40
0.5280528729456824
 40
0.5280528729456824
 40
0.5308478779118656
 40
0.5308478779118656
 40
0.5336428828780488
 40
0.5336428828780488
 40
0.5392328928104153
 40
0.5392328928104153
 40
0.5462253961547698
 40
0.5462253961547698
 40
0.5532178994991244
 40
0.5532178994991244
 40
0.5611149815025089
 40
0.5611149815025089
 40
0.567662157001052
 40
0.567662157001052
 40
0.5742093324995952
 40
0.5742093324995952
 40
0.5804461736528485
 40
0.5804461736528485
 40
0.5866830148061017
 40
0.5866830148061017
 40
0.592919855959355
 40
0.592919855959355
 40
0.5995485012433449
 40
0.5995485012433449
 40
0.6061771465273348
 40
0.6061771465273348
 40
0.6128057918113247
 40
0.6128057918113247
 40
0.6192918705369034
 40
0.6192918705369034
 40
0.6257779492624821
 40
0.6257779492624821
 40
0.6322640279880608
 40
0.6322640279880608
 40
0.6407358749563271
 40
0.6407358749563271
 40
0.6452242816194425
 40
0.6452242816194425
 40
0.6497126882825578
 40
0.6497126882825578
 40
0.6595967638183375
 40
0.6595967638183375
 40
0.6694808393541173
 40
0.6694808393541173
 40
0.679364914889897
 40
0.679364914889897
 40
0.6991330659614565
 40
0.6991330659614565
 40
0.718901217033016
 40
0.718901217033016
 40
0.7410170872183386
 40
0.7410170872183386
 40
0.7631329574036612
 40
0.7631329574036612
 40
0.8058082432256362
 40
0.8058082432256362
 40
0.8484835290476112
 40
0.8484835290476112
 40
0.9698591978604469
 40
0.9698591978604469
 40
1.0
 40
1.0
 40
1.0
 40
1.0
 10
1491.737341596036
 20
1884.599854401496
 30
0.0
 10
1497.815395138035
 20
1884.599854492601
 30
0.0
 10
1503.893448677429
 20
1884.59983012842
 30
0.0
 10
1522.1276092725
 20
1884.599683013425
 30
0.0
 10
1534.283716305069
 20
1884.599486240155
 30
0.0
 10
1570.752037187782
 20
1884.598594577752
 30
0.0
 10
1595.064258552154
 20
1884.597486083585
 30
0.0
 10
1622.841735027007
 20
1884.596135422247
 30
0.0
 10
1626.307008101202
 20
1884.595975680456
 30
0.0
 10
1636.702817244781
 20
1884.595572535373
 30
0.0
 10
1643.633362899613
 20
1884.595288436774
 30
0.0
 10
1652.371868165084
 20
1884.595732932977
 30
0.0
 10
1654.179874223014
 20
1884.595925067757
 30
0.0
 10
1656.992609020837
 20
1884.595908639893
 30
0.0
 10
1657.991390828077
 20
1884.602167829529
 30
0.0
 10
1659.299394131228
 20
1884.594962363845
 30
0.0
 10
1659.592348470365
 20
1884.584742221835
 30
0.0
 10
1660.18240517155
 20
1884.584951046322
 30
0.0
 10
1660.477294816008
 20
1884.59212455509
 30
0.0
 10
1661.361530592575
 20
1884.634987205394
 30
0.0
 10
1661.950473627226
 20
1884.691929637508
 30
0.0
 10
1663.274955598984
 20
1884.887160243472
 30
0.0
 10
1664.009233363793
 20
1885.041972642914
 30
0.0
 10
1665.479253860261
 20
1885.456590586089
 30
0.0
 10
1666.213843980591
 20
1885.717550701285
 30
0.0
 10
1667.72338672992
 20
1886.372672848772
 30
0.0
 10
1668.492489429516
 20
1886.778927670926
 30
0.0
 10
1669.846614194973
 20
1887.633028790502
 30
0.0
 10
1670.43319215041
 20
1888.057449210996
 30
0.0
 10
1671.539854589105
 20
1888.96937218207
 30
0.0
 10
1672.061994599183
 20
1889.457826090325
 30
0.0
 10
1673.021324208681
 20
1890.475232148017
 30
0.0
 10
1673.461914563105
 20
1891.002060747559
 30
0.0
 10
1674.282045076075
 20
1892.113133024822
 30
0.0
 10
1674.657232093462
 20
1892.691411818016
 30
0.0
 10
1675.331329680722
 20
1893.878701991857
 30
0.0
 10
1675.631831554024
 20
1894.489634468369
 30
0.0
 10
1676.177633538891
 20
1895.785628393838
 30
0.0
 10
1676.418446554727
 20
1896.473948632982
 30
0.0
 10
1676.81514350377
 20
1897.885112494412
 30
0.0
 10
1676.969082336543
 20
1898.600566541431
 30
0.0
 10
1677.187530898341
 20
1900.033476293867
 30
0.0
 10
1677.253182721933
 20
1900.753827421105
 30
0.0
 10
1677.298137418683
 20
1902.186613938519
 30
0.0
 10
1677.278871161854
 20
1902.901029632716
 30
0.0
 10
1677.157282626567
 20
1904.327491778112
 30
0.0
 10
1677.055667225611
 20
1905.032604433523
 30
0.0
 10
1676.775068823792
 20
1906.420802171718
 30
0.0
 10
1676.5961009328
 20
1907.105122463958
 30
0.0
 10
1676.0962343849
 20
1908.661588165754
 30
0.0
 10
1675.746773624281
 20
1909.528315913191
 30
0.0
 10
1675.125093882319
 20
1910.816712764407
 30
0.0
 10
1674.902345618391
 20
1911.258645613575
 30
0.0
 10
1674.461833212479
 20
1912.14495279759
 30
0.0
 10
1674.238777946111
 20
1912.586712101717
 30
0.0
 10
1673.520068637901
 20
1913.999791592697
 30
0.0
 10
1673.023257217637
 20
1914.969721198006
 30
0.0
 10
1672.048425956743
 20
1916.920735229081
 30
0.0
 10
1671.567915436751
 20
1917.899670002786
 30
0.0
 10
1670.620131988564
 20
1919.862675510134
 30
0.0
 10
1670.151639879599
 20
1920.846990460342
 30
0.0
 10
1668.74268126267
 20
1923.798266401137
 30
0.0
 10
1667.793664312577
 20
1925.760574764764
 30
0.0
 10
1665.855624765541
 20
1929.666416766613
 30
0.0
 10
1664.86997353839
 20
1931.611277911811
 30
0.0
 10
1662.773237404266
 20
1935.728602751768
 30
0.0
 10
1661.663907661108
 20
1937.901172905548
 30
0.0
 10
1659.458517790828
 20
1942.253682256895
 30
0.0
 10
1658.360789942727
 20
1944.432385256443
 30
0.0
 10
1655.153110698394
 20
1950.819332525909
 30
0.0
 10
1653.047004257101
 20
1955.029670862808
 30
0.0
 10
1648.833742799796
 20
1963.44951220401
 30
0.0
 10
1646.727588014282
 20
1967.659735703045
 30
0.0
 10
1638.630166775887
 20
1983.843963561567
 30
0.0
 10
1632.639074917312
 20
1995.818076970047
 30
0.0
 10
1625.16024525077
 20
2010.765684187348
 30
0.0
 10
1623.672501857026
 20
2013.739176225171
 30
0.0
 10
1622.184762146999
 20
2016.712670107097
 30
0.0
  0
SPLINE
  5
6101
330
A
100
AcDbEntity
  8
HIDDEN
 48
0.5
100
AcDbSpline
210
0.0
220
0.0
230
1.0
 70
     8
 71
     3
 72
    86
 73
    82
 74
     0
 42
0.000000001
 43
0.0000000001
 40
0.0
 40
0.0
 40
0.0
 40
0.0
 40
0.0383896434369191
 40
0.0383896434369191
 40
0.1151689303107572
 40
0.1151689303107572
 40
0.1775282609089054
 40
0.1775282609089054
 40
0.2182054456808531
 40
0.2182054456808531
 40
0.2493146987551526
 40
0.2493146987551526
 40
0.276006855568022
 40
0.276006855568022
 40
0.3026990123808914
 40
0.3026990123808914
 40
0.3221830790069399
 40
0.3221830790069399
 40
0.3416671456329883
 40
0.3416671456329883
 40
0.3525051737565651
 40
0.3525051737565651
 40
0.3604526824763722
 40
0.3604526824763722
 40
0.3644978428065557
 40
0.3644978428065557
 40
0.3678971642415139
 40
0.3678971642415139
 40
0.3712964856764721
 40
0.3712964856764721
 40
0.3794332299403428
 40
0.3794332299403428
 40
0.3865030346768856
 40
0.3865030346768856
 40
0.3935728394134284
 40
0.3935728394134284
 40
0.4006426441499712
 40
0.4006426441499712
 40
0.4077019260727762
 40
0.4077019260727762
 40
0.4147612079955812
 40
0.4147612079955812
 40
0.4237076542165143
 40
0.4237076542165143
 40
0.430779358271124
 40
0.430779358271124
 40
0.4378510623257337
 40
0.4378510623257337
 40
0.4441023751942573
 40
0.4441023751942573
 40
0.4503536880627808
 40
0.4503536880627808
 40
0.4566050009313044
 40
0.4566050009313044
 40
0.4628973010372846
 40
0.4628973010372846
 40
0.4691896011432649
 40
0.4691896011432649
 40
0.4754819012492451
 40
0.4754819012492451
 40
0.478502613498852
 40
0.478502613498852
 40
0.4806907099253975
 40
0.4806907099253975
 40
0.482878806351943
 40
0.482878806351943
 40
0.4850669027784885
 40
0.4850669027784885
 40
0.4894430956315795
 40
0.4894430956315795
 40
0.5025710832965311
 40
0.5025710832965311
 40
0.5288270586264344
 40
0.5288270586264344
 40
0.5813390092862409
 40
0.5813390092862409
 40
0.686362910605854
 40
0.686362910605854
 40
0.8964107132450801
 40
0.8964107132450801
 40
1.0
 40
1.0
 40
1.0
 40
1.0
 10
1361.289921045069
 20
2016.712670107097
 30
0.0
 10
1359.43042736349
 20
2012.996164425096
 30
0.0
 10
1357.570928058658
 20
2009.279661567689
 30
0.0
 10
1351.992423030676
 20
1998.130156560025
 30
0.0
 10
1348.273410194028
 20
1990.697157974323
 30
0.0
 10
1341.533884140901
 20
1977.227140874556
 30
0.0
 10
1338.513475821061
 20
1971.19007202038
 30
0.0
 10
1333.522554698697
 20
1961.215142876731
 30
0.0
 10
1331.552399180093
 20
1957.277121371593
 30
0.0
 10
1328.073180187876
 20
1950.328493136819
 30
0.0
 10
1326.565331997574
 20
1947.317299719502
 30
0.0
 10
1323.751490181696
 20
1941.728664919435
 30
0.0
 10
1322.445512345102
 20
1939.151091952831
 30
0.0
 10
1319.823510172404
 20
1934.001153340495
 30
0.0
 10
1318.506107652724
 20
1931.429613582795
 30
0.0
 10
1316.27080099379
 20
1926.959390037334
 30
0.0
 10
1315.343999058516
 20
1925.065934342583
 30
0.0
 10
1313.518229851352
 20
1921.2635837742
 30
0.0
 10
1312.619389756908
 20
1919.356501946481
 30
0.0
 10
1311.174112717379
 20
1916.409654894029
 30
0.0
 10
1310.648795158288
 20
1915.360237356838
 30
0.0
 10
1309.726339377992
 20
1913.549044281762
 30
0.0
 10
1309.333845937083
 20
1912.784021193
 30
0.0
 10
1308.752348104046
 20
1911.622514715587
 30
0.0
 10
1308.559485879521
 20
1911.22888996573
 30
0.0
 10
1308.201070434652
 20
1910.509259230681
 30
0.0
 10
1308.039032002669
 20
1910.178228832397
 30
0.0
 10
1307.737927746797
 20
1909.507651935614
 30
0.0
 10
1307.596804789964
 20
1909.169454111909
 30
0.0
 10
1307.15127964581
 20
1908.013012382578
 30
0.0
 10
1306.89299998657
 20
1907.181551718602
 30
0.0
 10
1306.518299549569
 20
1905.597627324105
 30
0.0
 10
1306.387377758341
 20
1904.846720745615
 30
0.0
 10
1306.218476329688
 20
1903.327216096075
 30
0.0
 10
1306.181363807509
 20
1902.564719318426
 30
0.0
 10
1306.201515956984
 20
1901.050047286232
 30
0.0
 10
1306.258400615798
 20
1900.295275787583
 30
0.0
 10
1306.468193454862
 20
1898.792489563449
 30
0.0
 10
1306.622267280135
 20
1898.039924606021
 30
0.0
 10
1307.02496069134
 20
1896.565915602598
 30
0.0
 10
1307.272184946449
 20
1895.849045941391
 30
0.0
 10
1307.934495300532
 20
1894.267240633745
 30
0.0
 10
1308.376914087128
 20
1893.413685277973
 30
0.0
 10
1309.304680534928
 20
1891.944056916826
 30
0.0
 10
1309.757545288614
 20
1891.323304614122
 30
0.0
 10
1310.732009291909
 20
1890.158053422308
 30
0.0
 10
1311.255773533752
 20
1889.610124933045
 30
0.0
 10
1312.312034810775
 20
1888.643208468048
 30
0.0
 10
1312.838322457856
 20
1888.215523678795
 30
0.0
 10
1313.940974015813
 20
1887.424071415651
 30
0.0
 10
1314.511780522493
 20
1887.063666746593
 30
0.0
 10
1315.686343909509
 20
1886.415350146033
 30
0.0
 10
1316.29098419551
 20
1886.126522319393
 30
0.0
 10
1317.539718432154
 20
1885.617855295484
 30
0.0
 10
1318.186676096511
 20
1885.398055240693
 30
0.0
 10
1319.503044408154
 20
1885.03696899088
 30
0.0
 10
1320.166385316448
 20
1884.896498403169
 30
0.0
 10
1321.497471381552
 20
1884.692156707685
 30
0.0
 10
1322.16642770609
 20
1884.627910698663
 30
0.0
 10
1323.161070274122
 20
1884.587074739248
 30
0.0
 10
1323.482433008508
 20
1884.582169580213
 30
0.0
 10
1324.045211908638
 20
1884.588940640974
 30
0.0
 10
1324.278477881255
 20
1884.596320325821
 30
0.0
 10
1324.747679290491
 20
1884.598089241882
 30
0.0
 10
1324.983115864326
 20
1884.59626931653
 30
0.0
 10
1325.452813451242
 20
1884.595987285729
 30
0.0
 10
1325.687722512744
 20
1884.59601623454
 30
0.0
 10
1326.392347592152
 20
1884.595922967969
 30
0.0
 10
1326.861997632963
 20
1884.595874984113
 30
0.0
 10
1328.740843932397
 20
1884.595797110072
 30
0.0
 10
1330.149979378843
 20
1884.595817232769
 30
0.0
 10
1334.377340136283
 20
1884.595573456068
 30
0.0
 10
1337.195595197625
 20
1884.595517111542
 30
0.0
 10
1345.650340450496
 20
1884.59553167706
 30
0.0
 10
1351.28684543292
 20
1884.595735986844
 30
0.0
 10
1368.196342916466
 20
1884.596442753448
 30
0.0
 10
1379.469336536004
 20
1884.597073972472
 30
0.0
 10
1413.288326443127
 20
1884.598561156069
 30
0.0
 10
1435.834320515225
 20
1884.599274008321
 30
0.0
 10
1469.499323372378
 20
1884.599772970499
 30
0.0
 10
1480.618332462427
 20
1884.59985456816
 30
0.0
 10
1491.737341596045
 20
1884.599854401496
 30
0.0
  0
LINE
  5
6102
330
A
100
AcDbEntity
  8
HIDDEN
 48
0.5
100
AcDbLine
 10
1293.80777116792
 20
2105.712668638828
 30
0.0
 11
1295.80777116792
 21
2105.712668638828
 31
0.0
  0
LINE
  5
6103
330
A
100
AcDbEntity
  8
HIDDEN
 48
0.5
100
AcDbLine
 10
1295.80777116792
 20
2105.712668551406
 30
0.0
 11
1687.666912024147
 21
2105.712668551406
 31
0.0
  0
LINE
  5
6104
330
A
100
AcDbEntity
  8
HIDDEN
 48
0.5
100
AcDbLine
 10
1687.666912024147
 20
2105.712668638828
 30
0.0
 11
1689.666912024147
 21
2105.712668638828
 31
0.0
  0
ARC
  5
6105
330
A
100
AcDbEntity
  8
HIDDEN
 48
0.5
100
AcDbCircle
 10
1491.737341596036
 20
2016.71267370935
 30
0.0
 40
22.0
100
AcDbArc
 50
180.000000000469
 51
0.0
  0
ARC
  5
6106
330
A
100
AcDbEntity
  8
HIDDEN
 48
0.5
100
AcDbCircle
 10
1491.737341596036
 20
2016.71267370935
 30
0.0
 40
22.0
100
AcDbArc
 50
0.0000000008858735
 51
180.000000000469
  0
ARC
  5
6107
330
A
100
AcDbEntity
  8
HIDDEN
 48
0.5
100
AcDbCircle
 10
1293.807857647864
 20
2103.712582170193
 30
0.0
 40
2.000086481809581
100
AcDbArc
 50
89.99381584814138
 51
179.9975229631497
  0
ARC
  5
6108
330
A
100
AcDbEntity
  8
HIDDEN
 48
0.5
100
AcDbCircle
 10
1689.666825544203
 20
2103.71258217019
 30
0.0
 40
2.000086481813752
100
AcDbArc
 50
0.0024770369023838
 51
90.0061841518586
  0
LINE
  5
6109
330
A
100
AcDbEntity
  8
HIDDEN
 48
0.5
100
AcDbLine
 10
1691.666912024147
 20
2103.712668638828
 30
0.0
 11
1691.666912024147
 21
1881.782793601029
 31
0.0
  0
ARC
  5
610A
330
A
100
AcDbEntity
  8
HIDDEN
 48
0.5
100
AcDbCircle
 10
1685.667021098603
 20
1881.782989136265
 30
0.0
 40
5.999890928732935
100
AcDbArc
 50
270.0018672579612
 51
359.9981327418477
  0
LINE
  5
610B
330
A
100
AcDbEntity
  8
HIDDEN
 48
0.5
100
AcDbLine
 10
1297.807466558237
 20
1875.783098210717
 30
0.0
 11
1685.667216633837
 21
1875.783098210717
 31
0.0
  0
ARC
  5
610C
330
A
100
AcDbEntity
  8
HIDDEN
 48
0.5
100
AcDbCircle
 10
1297.807662093463
 20
1881.782989136261
 30
0.0
 40
5.99989092872968
100
AcDbArc
 50
180.0018672578396
 51
269.9981327420388
  0
LINE
  5
610D
330
A
100
AcDbEntity
  8
HIDDEN
 48
0.5
100
AcDbLine
 10
1291.80777116792
 20
2103.712668638828
 30
0.0
 11
1291.80777116792
 21
1881.78279360103
 31
0.0
  0
ARC
  5
610F
330
A
100
AcDbEntity
  8
HIDDEN
 48
0.5
100
AcDbCircle
 10
1646.621549638488
 20
2055.71267858317
 30
0.0
 40
17.5
100
AcDbArc
 50
180.0000000004169
 51
0.0
  0
ARC
  5
6110
330
A
100
AcDbEntity
  8
HIDDEN
 48
0.5
100
AcDbCircle
 10
1646.621549638488
 20
2055.71267858317
 30
0.0
 40
17.5
100
AcDbArc
 50
0.0000000008337633
 51
180.0000000004169
  0
ARC
  5
6111
330
A
100
AcDbEntity
  8
HIDDEN
 48
0.5
100
AcDbCircle
 10
1336.853133553593
 20
2055.71267858317
 30
0.0
 40
17.5
100
AcDbArc
 50
0.0000000004168817
 51
180.0
  0
ARC
  5
6112
330
A
100
AcDbEntity
  8
HIDDEN
 48
0.5
100
AcDbCircle
 10
1336.853133553593
 20
2055.71267858317
 30
0.0
 40
17.5
100
AcDbArc
 50
180.0000000008338
 51
0.0000000004168817
  0
LINE
  5
619A
330
A
100
AcDbEntity
  8
MODEL
100
AcDbLine
 10
1499.682002057321
 20
1121.899998184372
 30
0.0
 11
1687.199622543744
 21
1121.89999740845
 31
0.0
  0
DIMENSION
  5
61B5
330
A
100
AcDbEntity
  8
Dim
100
AcDbDimension
  2
*D63
 10
941.1021114949353
 20
1875.712668638828
 30
0.0
 11
941.1021114949353
 21
1990.712668638828
 31
0.0
 70
   160
 71
     5
 42
230.0
 73
     0
 74
     0
 75
     0
  3
tform線あり
100
AcDbAlignedDimension
 13
808.4285440241474
 23
2105.712668638828
 33
0.0
 14
808.4285440241474
 24
1875.712668638828
 34
0.0
 50
90.0
100
AcDbRotatedDimension
1001
ACAD
1000
DSTYLE
1002
{
1070
   144
1040
1.0
1002
}
  0
DIMENSION
  5
61C2
330
A
100
AcDbEntity
  8
Dim
100
AcDbDimension
  2
*D64
 10
812.5694031679263
 20
2215.502030826231
 30
0.0
 11
612.5694031679263
 21
2215.502030826231
 31
0.0
 70
   160
 71
     5
 42
400.0
 73
     0
 74
     0
 75
     0
  3
tform線あり
100
AcDbAlignedDimension
 13
412.5694031679263
 23
2130.674707161535
 33
0.0
 14
812.5694031679263
 24
2130.674707161535
 34
0.0
100
AcDbRotatedDimension
1001
ACAD
1000
DSTYLE
1002
{
1070
   144
1040
1.0
1002
}
  0
DIMENSION
  5
61D1
330
A
100
AcDbEntity
  8
Dim
100
AcDbDimension
  2
*D65
 10
767.4739064097566
 20
2154.136741866231
 30
0.0
 11
789.9285440241474
 21
2154.136741866231
 31
0.0
 70
   160
 71
     5
 42
44.95463761439078
 73
     0
 74
     0
 75
     0
  3
tform線あり
100
AcDbAlignedDimension
 13
812.4285440241474
 23
2102.817741478942
 33
0.0
 14
767.4739064097566
 24
2073.21267858317
 34
0.0
100
AcDbRotatedDimension
1001
ACAD
1000
DSTYLE
1002
{
1070
   144
1040
1.0
1002
}
  0
DIMENSION
  5
620C
330
A
100
AcDbEntity
  8
Dim
100
AcDbDimension
  2
*D69
 10
795.0486867078866
 20
1771.537693343236
 30
0.0
 11
612.5486867078866
 21
1793.754001936986
 31
0.0
 70
    32
 71
     5
 42
365.0
 73
     0
 74
     0
 75
     0
  3
tform線あり
100
AcDbAlignedDimension
 13
430.0486867078866
 23
1873.540874667538
 33
0.0
 14
795.0486867078866
 24
1873.540874667538
 34
0.0
100
AcDbRotatedDimension
1001
ACAD
1000
DSTYLE
1002
{
1070
   144
1040
1.0
1002
}
  0
DIMENSION
  5
6219
330
A
100
AcDbEntity
  8
Dim
100
AcDbDimension
  2
*D70
 10
352.1785559871723
 20
1886.453863281594
 30
0.0
 11
352.1785559871723
 21
1991.453863281594
 31
0.0
 70
   160
 71
     5
 42
210.0
 73
     0
 74
     0
 75
     0
  3
tform線あり
100
AcDbAlignedDimension
 13
527.0166984720454
 23
2096.453863281594
 33
0.0
 14
437.5694031679195
 24
1886.453863281594
 34
0.0
 50
90.0
100
AcDbRotatedDimension
1001
ACAD
1000
DSTYLE
1002
{
1070
   144
1040
1.0
1002
}
  0
DIMENSION
  5
6226
330
A
100
AcDbEntity
  8
Dim
100
AcDbDimension
  2
*D71
 10
887.6287556075313
 20
2055.7126685514
 30
0.0
 11
865.4124470137818
 21
2080.7126685514
 31
0.0
 70
    32
 71
     5
 42
50.0
 73
     0
 74
     0
 75
     0
 52
-90.0
  3
tform線あり
100
AcDbAlignedDimension
 13
808.4285440241474
 23
2105.712668551402
 33
0.0
 14
808.4285440241465
 24
2055.712668551402
 34
0.0
 50
89.9999999999987
100
AcDbRotatedDimension
1001
ACAD
1000
DSTYLE
1002
{
1070
   144
1040
1.0
1002
}
  0
DIMENSION
  5
6233
330
A
100
AcDbEntity
  8
Dim
100
AcDbDimension
  2
*D72
 10
352.1785559871723
 20
2106.453863281594
 30
0.0
 11
352.1785559871723
 21
2103.953710693704
 31
0.0
 70
   160
 71
     5
 42
10.0
 73
     0
 74
     0
 75
     0
  3
tform線あり
100
AcDbAlignedDimension
 13
412.5694031679195
 23
2096.453863281594
 33
0.0
 14
412.5694031679195
 24
2106.453863281594
 34
0.0
 50
90.0
100
AcDbRotatedDimension
1001
ACAD
1000
DSTYLE
1002
{
1070
   144
1040
1.0
1002
}
  0
DIMENSION
  5
624B
330
A
100
AcDbEntity
  8
Dim
100
AcDbDimension
  2
*D73
 10
752.4623905632062
 20
1261.523331743237
 30
0.0
 11
612.4806897090162
 21
1283.739640336987
 31
0.0
 70
    32
 71
     5
 42
279.96340170838
 73
     0
 74
     0
 75
     0
  3
tform線あり
100
AcDbAlignedDimension
 13
472.4989888548262
 23
1181.261278213023
 33
0.0
 14
752.4623905632062
 24
1180.657421043446
 34
0.0
100
AcDbRotatedDimension
1001
ACAD
1000
DSTYLE
1002
{
1070
   144
1040
1.0
1002
}
  0
DIMENSION
  5
625B
330
A
100
AcDbEntity
  8
Dim
100
AcDbDimension
  2
*D74
 10
359.2982646227006
 20
1191.900003363934
 30
0.0
 11
359.2982646227006
 21
1174.400003363934
 31
0.0
 70
   160
 71
     5
 42
35.00000000000022
 73
     0
 74
     0
 75
     0
  3
tform線あり
100
AcDbAlignedDimension
 13
454.0534902227005
 23
1156.900003363934
 33
0.0
 14
413.1620461812531
 24
1191.900003363934
 34
0.0
 50
-90.00000000000001
100
AcDbRotatedDimension
1001
ACAD
1000
DSTYLE
1002
{
1070
   144
1040
1.0
1002
}
  0
LINE
  5
62A7
330
A
100
AcDbEntity
  8
HIDDEN
  6
CENTER
 48
0.15
100
AcDbLine
 10
472.4989888548266
 20
1132.400513987778
 30
0.0
 11
472.4989888548257
 21
1181.39949274009
 31
0.0
  0
LINE
  5
62A8
330
A
100
AcDbEntity
  8
HIDDEN
  6
CENTER
 48
0.15
100
AcDbLine
 10
447.9994994786716
 20
1156.900003363936
 30
0.0
 11
496.9984782309816
 21
1156.900003363936
 31
0.0
  0
CIRCLE
  5
62A9
330
A
100
AcDbEntity
  8
HIDDEN
  6
CENTER
 48
0.15
100
AcDbCircle
 10
472.4989888548257
 20
1156.900003363936
 30
0.0
 40
14.99999999998556
  0
LINE
  5
62AA
330
A
100
AcDbEntity
  8
HIDDEN
  6
CENTER
 48
0.15
100
AcDbLine
 10
752.4989888548248
 20
1132.400513987773
 30
0.0
 11
752.4989888548275
 21
1181.399492740085
 31
0.0
  0
LINE
  5
62AB
330
A
100
AcDbEntity
  8
HIDDEN
  6
CENTER
 48
0.15
100
AcDbLine
 10
776.9984782309807
 20
1156.90000336393
 30
0.0
 11
727.9994994786707
 21
1156.900003363932
 31
0.0
  0
CIRCLE
  5
62AC
330
A
100
AcDbEntity
  8
HIDDEN
  6
CENTER
 48
0.15
100
AcDbCircle
 10
752.4989888548266
 20
1156.900003363931
 30
0.0
 40
14.99999999998556
  0
DIMENSION
  5
62AD
102
{ACAD_REACTORS
330
62AF
102
}
102
{ACAD_XDICTIONARY
360
62AE
102
}
330
A
100
AcDbEntity
  8
Dim
100
AcDbDimension
  2
*D75
 10
1598.778244164233
 20
1191.900000589353
 30
0.0
 11
1598.778244164233
 21
1280.891334085447
 31
0.0
 70
   160
  1
90(深さ)
 71
     5
 42
96.55594123063338
 73
     0
 74
     1
 75
     1
  3
tform線あり
100
AcDbAlignedDimension
 13
1597.773554457222
 23
1095.34405935872
 33
0.0
 14
1593.387724649875
 24
1191.900000589353
 34
0.0
 50
90.0
100
AcDbRotatedDimension
1001
ACAD
1000
DSTYLE
1002
{
1070
     3
1000
<>
1070
   144
1040
1.0
1002
}
  0
DIMENSION
  5
62BF
330
A
100
AcDbEntity
  8
Dim
100
AcDbDimension
  2
*D76
 10
697.5486867078871
 20
2154.018507159933
 30
0.0
 11
612.5486867078871
 21
2176.234815753683
 31
0.0
 70
    32
 71
     5
 42
170.0
 73
     0
 74
     0
 75
     0
  3
tform線あり
100
AcDbAlignedDimension
 13
527.5486867078871
 23
2104.373874274808
 33
0.0
 14
697.5486867078871
 24
2104.373874274808
 34
0.0
100
AcDbRotatedDimension
1001
ACAD
1000
DSTYLE
1002
{
1070
   144
1040
1.0
1002
}
  0
SPLINE
  5
62D9
330
A
100
AcDbEntity
  8
HIDDEN
 48
0.5
100
AcDbSpline
210
0.0
220
0.0
230
1.0
 70
     8
 71
     3
 72
    40
 73
    36
 74
     0
 42
0.000000001
 43
0.0000000001
 40
0.0
 40
0.0
 40
0.0
 40
0.0
 40
0.120594824522512
 40
0.153381871705321
 40
0.186168918888131
 40
0.251743013253751
 40
0.300923584027965
 40
0.3255138694150729
 40
0.35010415480218
 40
0.3992847255763939
 40
0.4484652963506089
 40
0.497645867124824
 40
0.514039390716229
 40
0.5222361525119309
 40
0.546826437899038
 40
0.571416723286146
 40
0.5960070086732531
 40
0.6205972940603599
 40
0.645187579447468
 40
0.6697778648345749
 40
0.6820730075281278
 40
0.6943681502216821
 40
0.706663292915236
 40
0.718958435608789
 40
0.743548720995897
 40
0.7681390063830039
 40
0.7763357681787069
 40
0.792729291770111
 40
0.817319577157219
 40
0.841909862544326
 40
0.891090433318541
 40
0.9156807187056482
 40
0.940271004092755
 40
0.9894515748669701
 40
1.0
 40
1.0
 40
1.0
 40
1.0
 10
428.2263061268254
 20
1190.533960371699
 30
0.0
 10
431.6048843823532
 20
1185.33157263728
 30
0.0
 10
435.8920449883385
 20
1178.72738503912
 30
0.0
 10
441.1334210860741
 20
1170.669344301516
 30
0.0
 10
444.8342800112023
 20
1164.985363688304
 30
0.0
 10
449.0073283381953
 20
1158.587226738235
 30
0.0
 10
452.9391278802154
 20
1152.588946559945
 30
0.0
 10
455.7077493415281
 20
1148.391099117789
 30
0.0
 10
458.4685957200654
 20
1144.224869217467
 30
0.0
 10
461.9224239187843
 20
1139.062808015841
 30
0.0
 10
466.1884183050734
 20
1132.837767868359
 30
0.0
 10
469.7204126476804
 20
1127.919042386993
 30
0.0
 10
472.1817985029575
 20
1124.737302731044
 30
0.0
 10
473.8802013372492
 20
1122.61824237817
 30
0.0
 10
475.9586850489013
 20
1120.154734557362
 30
0.0
 10
478.7889189076241
 20
1117.092735150063
 30
0.0
 10
481.7115127305824
 20
1114.181340003363
 30
0.0
 10
484.6441797289822
 20
1111.445714436834
 30
0.0
 10
487.5115709804104
 20
1108.918301330849
 30
0.0
 10
489.8078844766942
 20
1107.032377428847
 30
0.0
 10
491.5597282177341
 20
1105.683191492599
 30
0.0
 10
492.8250178461612
 20
1104.754973704801
 30
0.0
 10
494.0472422058751
 20
1103.906302020381
 30
0.0
 10
495.6240714189053
 20
1102.874771978923
 30
0.0
 10
497.5047588572725
 20
1101.761614935304
 30
0.0
 10
499.1691791529092
 20
1100.913871971176
 30
0.0
 10
500.5560062029631
 20
1100.276497075682
 30
0.0
 10
501.9159983325312
 20
1099.701069309666
 30
0.0
 10
503.6831530560753
 20
1099.049275198535
 30
0.0
 10
506.3013158287663
 20
1098.228960306302
 30
0.0
 10
508.9464245765062
 20
1097.569078379869
 30
0.0
 10
511.8009761191583
 20
1096.973515341028
 30
0.0
 10
514.8700044220031
 20
1096.395313825733
 30
0.0
 10
517.7159206130973
 20
1095.915758652233
 30
0.0
 10
519.7603001637121
 20
1095.585472054007
 30
0.0
 10
520.1216182270523
 20
1095.527419791875
 30
0.0
  0
LINE
  5
62DA
330
A
100
AcDbEntity
  8
HIDDEN
 48
0.5
100
AcDbLine
 10
428.2263061269423
 20
1190.533960370251
 30
0.0
 11
430.6156635591333
 21
1186.854565123502
 31
0.0
  0
LINE
  5
62DF
330
A
100
AcDbEntity
  8
HIDDEN
 48
0.5
100
AcDbLine
 10
635.7416740982076
 20
1083.971290624955
 30
0.0
 11
589.2563036114448
 21
1083.971290624962
 31
0.0
  0
LINE
  5
62E0
330
A
100
AcDbEntity
  8
HIDDEN
 48
0.5
100
AcDbLine
 10
645.7018254527288
 20
1092.328849953009
 30
0.0
 11
635.7416740982076
 21
1083.971290624962
 31
0.0
  0
LINE
  5
62E1
330
A
100
AcDbEntity
  8
HIDDEN
 48
0.5
100
AcDbLine
 10
589.2563036114448
 20
1083.971290624962
 30
0.0
 11
579.2961522569235
 21
1092.328849953009
 31
0.0
  0
LINE
  5
62E2
330
A
100
AcDbEntity
  8
HIDDEN
 48
0.5
100
AcDbLine
 10
590.4989888548225
 20
1071.90000039176
 30
0.0
 11
590.3274838678558
 21
1081.725514514917
 31
0.0
  0
LINE
  5
62E3
330
A
100
AcDbEntity
  8
HIDDEN
 48
0.5
100
AcDbLine
 10
634.6704938417965
 20
1081.725514514917
 30
0.0
 11
634.4989888548225
 21
1071.90000039176
 31
0.0
  0
ARC
  5
62E4
330
A
100
AcDbEntity
  8
HIDDEN
 48
0.5
100
AcDbCircle
 10
587.3279035638557
 20
1081.673139543279
 30
0.0
 40
3.000037522728263
100
AcDbArc
 50
1.000326583873806
 51
49.99967341655324
  0
ARC
  5
62E5
330
A
100
AcDbEntity
  8
HIDDEN
 48
0.5
100
AcDbCircle
 10
637.6700741457967
 20
1081.673139543279
 30
0.0
 40
3.000037522728437
100
AcDbArc
 50
130.000326583444
 51
178.9996734169601
  0
LINE
  5
62E6
102
{ACAD_REACTORS
330
62AF
102
}
330
A
100
AcDbEntity
  8
HIDDEN
 48
0.5
100
AcDbLine
 10
612.0729184029697
 20
1095.34405327514
 30
0.0
 11
520.1216182270523
 21
1095.527419791875
 31
0.0
  0
LINE
  5
62E7
102
{ACAD_REACTORS
330
62AF
102
}
330
A
100
AcDbEntity
  8
HIDDEN
 48
0.5
100
AcDbLine
 10
612.0729184029697
 20
1095.34405327514
 30
0.0
 11
704.024218578887
 21
1095.527419791875
 31
0.0
  0
SPLINE
  5
62E8
330
A
100
AcDbEntity
  8
HIDDEN
 48
0.5
100
AcDbSpline
210
0.0
220
0.0
230
1.0
 70
     8
 71
     3
 72
    40
 73
    36
 74
     0
 42
0.000000001
 43
0.0000000001
 40
0.0
 40
0.0
 40
0.0
 40
0.0
 40
0.120594824522512
 40
0.153381871705321
 40
0.186168918888131
 40
0.251743013253751
 40
0.300923584027965
 40
0.3255138694150729
 40
0.35010415480218
 40
0.3992847255763939
 40
0.4484652963506089
 40
0.497645867124824
 40
0.514039390716229
 40
0.5222361525119309
 40
0.546826437899038
 40
0.571416723286146
 40
0.5960070086732531
 40
0.6205972940603599
 40
0.645187579447468
 40
0.6697778648345749
 40
0.6820730075281278
 40
0.6943681502216821
 40
0.706663292915236
 40
0.718958435608789
 40
0.743548720995897
 40
0.7681390063830039
 40
0.7763357681787069
 40
0.792729291770111
 40
0.817319577157219
 40
0.841909862544326
 40
0.891090433318541
 40
0.9156807187056482
 40
0.940271004092755
 40
0.9894515748669701
 40
1.0
 40
1.0
 40
1.0
 40
1.0
 10
795.9195306791139
 20
1190.533960371699
 30
0.0
 10
792.5409524235861
 20
1185.33157263728
 30
0.0
 10
788.2537918176008
 20
1178.72738503912
 30
0.0
 10
783.0124157198652
 20
1170.669344301516
 30
0.0
 10
779.311556794737
 20
1164.985363688304
 30
0.0
 10
775.138508467744
 20
1158.587226738235
 30
0.0
 10
771.2067089257239
 20
1152.588946559945
 30
0.0
 10
768.4380874644112
 20
1148.391099117789
 30
0.0
 10
765.6772410858739
 20
1144.224869217467
 30
0.0
 10
762.2234128871551
 20
1139.062808015841
 30
0.0
 10
757.957418500866
 20
1132.837767868359
 30
0.0
 10
754.4254241582589
 20
1127.919042386993
 30
0.0
 10
751.9640383029819
 20
1124.737302731044
 30
0.0
 10
750.2656354686901
 20
1122.61824237817
 30
0.0
 10
748.187151757038
 20
1120.154734557362
 30
0.0
 10
745.3569178983153
 20
1117.092735150063
 30
0.0
 10
742.4343240753569
 20
1114.181340003363
 30
0.0
 10
739.5016570769571
 20
1111.445714436834
 30
0.0
 10
736.6342658255289
 20
1108.918301330849
 30
0.0
 10
734.3379523292451
 20
1107.032377428847
 30
0.0
 10
732.5861085882052
 20
1105.683191492599
 30
0.0
 10
731.3208189597781
 20
1104.754973704801
 30
0.0
 10
730.0985946000642
 20
1103.906302020381
 30
0.0
 10
728.5217653870341
 20
1102.874771978923
 30
0.0
 10
726.6410779486669
 20
1101.761614935304
 30
0.0
 10
724.9766576530301
 20
1100.913871971176
 30
0.0
 10
723.5898306029762
 20
1100.276497075682
 30
0.0
 10
722.2298384734081
 20
1099.701069309666
 30
0.0
 10
720.462683749864
 20
1099.049275198535
 30
0.0
 10
717.844520977173
 20
1098.228960306302
 30
0.0
 10
715.1994122294332
 20
1097.569078379869
 30
0.0
 10
712.344860686781
 20
1096.973515341028
 30
0.0
 10
709.2758323839362
 20
1096.395313825733
 30
0.0
 10
706.429916192842
 20
1095.915758652233
 30
0.0
 10
704.3855366422272
 20
1095.585472054007
 30
0.0
 10
704.024218578887
 20
1095.527419791875
 30
0.0
  0
ARC
  5
62EA
330
A
100
AcDbEntity
  8
HIDDEN
 48
0.5
100
AcDbCircle
 10
2133.306694688842
 20
1525.02400604902
 30
0.0
 40
1656.102545880469
100
AcDbArc
 50
191.900688731107
 51
194.6827672164974
  0
ARC
  5
6316
330
A
100
AcDbEntity
  8
HIDDEN
 48
0.5
100
AcDbCircle
 10
-909.1608578829023
 20
1525.02400604902
 30
0.0
 40
1656.102545880469
100
AcDbArc
 50
345.3172327835026
 51
348.0993112688929
  0
LINE
  5
6355
330
A
100
AcDbEntity
  8
Dim
100
AcDbLine
 10
333.1918512978727
 20
1121.573485553306
 30
0.0
 11
333.1918512978723
 21
972.5948637459727
 31
0.0
  0
MTEXT
  5
6356
330
A
100
AcDbEntity
  8
Dim
390
1D
100
AcDbMText
 10
254.1387491486203
 20
951.8742244579483
 30
34.99521132346015
 40
24.0
 41
1169.771715461011
 46
25.704
 71
     1
 72
     1
  1
{半埋め込み}
  7
ＭＳ ゴシック
 73
     1
 44
1.174240107638677
1001
ACAD
1000
ACAD_MTEXT_DEFINED_HEIGHT_BEGIN
1070
    46
1040
25.704
1000
ACAD_MTEXT_DEFINED_HEIGHT_END
  0
LINE
  5
635A
330
A
100
AcDbEntity
  8
Dim
100
AcDbLine
 10
402.3866182127913
 20
1121.573485553305
 30
0.0
 11
320.0607985842439
 21
1121.573485553306
 31
0.0
  0
MTEXT
  5
6393
330
A
100
AcDbEntity
  8
Dim
390
1D
100
AcDbMText
 10
805.9888114678415
 20
1318.540848443942
 30
34.99521132346015
 40
24.0
 41
1169.771715461011
 46
26.808
 71
     1
 72
     1
  1
{壁取付ボルト穴(2ヶ所)}
  7
ＭＳ ゴシック
 73
     1
 44
1.174240107638677
1001
ACAD
1000
ACAD_MTEXT_DEFINED_HEIGHT_BEGIN
1070
    46
1040
26.808
1000
ACAD_MTEXT_DEFINED_HEIGHT_END
  0
LINE
  5
6394
330
A
100
AcDbEntity
  8
Dim
100
AcDbLine
 10
829.9789541921059
 20
1267.837872443942
 30
0.0
 11
763.6148927556424
 21
1171.013570801717
 31
0.0
  0
MTEXT
  5
63CB
330
A
100
AcDbEntity
  8
Dim
390
1D
100
AcDbMText
 10
260.7730758793418
 20
1632.566427820217
 30
34.99521132346015
 40
24.4326171875
 41
833.929798641839
 46
0.0
 71
     1
 72
     1
  1
＝φ30もしくはφ35の水栓取付用穴あけ加工を承ります。\P  必要な場合、ご注文の際にご指示ください。
  7
ＭＳ ゴシック
 73
     1
 44
0.9822934569727008
  0
CIRCLE
  5
63CC
330
A
100
AcDbEntity
  8
HIDDEN
 48
0.58
390
1D
100
AcDbCircle
 10
229.4060461812537
 20
1617.977603363934
 30
34.99521132346015
 40
17.5
  0
MTEXT
  5
63CD
330
A
100
AcDbEntity
  8
Dim
390
1D
100
AcDbMText
 10
1208.323785580339
 20
1636.176180333041
 30
34.99521132346015
 40
24.0
 41
1169.771715461011
 46
113.368
 71
     1
 72
     1
  1
{\fSegoe UI|b0|i0|c0|p0; \fＭＳ ゴシック|b0|i0|c0|p0;※陶器製品には寸法公差があります。\P　洗面器の収め方をご確認の上、必ず現物を合わせて\P  カウンターに切込を行ってください。}
  7
ＭＳ ゴシック
 73
     1
 44
1.0
1001
ACAD
1000
ACAD_MTEXT_DEFINED_HEIGHT_BEGIN
1070
    46
1040
113.368
1000
ACAD_MTEXT_DEFINED_HEIGHT_END
  0
MTEXT
  5
6414
330
A
100
AcDbEntity
  8
Dim
390
1D
100
AcDbMText
 10
1351.117540848073
 20
2230.203140952354
 30
34.99521132346015
 40
24.0
 41
1169.771715461011
 46
26.928
 71
     1
 72
     1
  1
{カウンター切込寸法 }
  7
ＭＳ ゴシック
 73
     1
 44
1.174240107638677
1001
ACAD
1000
ACAD_MTEXT_DEFINED_HEIGHT_BEGIN
1070
    46
1040
26.928
1000
ACAD_MTEXT_DEFINED_HEIGHT_END
  0
DIMENSION
  5
6415
330
A
100
AcDbEntity
  8
Dim
100
AcDbDimension
  2
*D78
 10
1666.737341596126
 20
1811.614023456767
 30
0.0
 11
1491.737341596126
 21
1833.830332050517
 31
0.0
 70
    32
 71
     5
 42
350.0
 73
     0
 74
     0
 75
     0
  3
tform線あり
100
AcDbAlignedDimension
 13
1316.737341596126
 23
1901.607976448408
 33
0.0
 14
1666.737341596126
 24
1901.607976448408
 34
0.0
100
AcDbRotatedDimension
1001
ACAD
1000
DSTYLE
1002
{
1070
   144
1040
1.0
1002
}
  0
DIMENSION
  5
6437
330
A
100
AcDbEntity
  8
Dim
100
AcDbDimension
  2
*D80
 10
1789.771918064258
 20
1900.712668551406
 30
0.0
 11
1767.555609470508
 21
2003.212668551406
 31
0.0
 70
    32
 71
     5
 42
204.9999999999998
 73
     0
 74
     0
 75
     0
  3
tform線あり
100
AcDbAlignedDimension
 13
1692.492284301411
 23
2105.712668551406
 33
0.0
 14
1692.492284301411
 24
1900.712668551406
 34
0.0
 50
90.0
100
AcDbRotatedDimension
1001
ACAD
1000
DSTYLE
1002
{
1070
   144
1040
1.0
1002
}
  0
LINE
  5
6447
102
{ACAD_REACTORS
330
6450
102
}
330
A
100
AcDbEntity
  8
MODEL
100
AcDbLine
 10
1316.737341596126
 20
1900.712668551406
 30
0.0
 11
1666.737341596126
 21
1900.712668551406
 31
0.0
  0
LINE
  5
6448
102
{ACAD_REACTORS
330
6450
102
}
330
A
100
AcDbEntity
  8
MODEL
100
AcDbLine
 10
1666.737341596126
 20
1900.712668551406
 30
0.0
 11
1666.737341596127
 21
2105.712668551406
 31
0.0
  0
LINE
  5
6449
102
{ACAD_REACTORS
330
6450
102
}
330
A
100
AcDbEntity
  8
MODEL
100
AcDbLine
 10
1666.737341596127
 20
2105.712668551406
 30
0.0
 11
1316.737341596127
 21
2105.712668551406
 31
0.0
  0
LINE
  5
644A
102
{ACAD_REACTORS
330
6450
102
}
330
A
100
AcDbEntity
  8
MODEL
100
AcDbLine
 10
1316.737341596127
 20
2105.712668551406
 30
0.0
 11
1316.737341596126
 21
1900.712668551406
 31
0.0
  0
HATCH
  5
6450
330
A
100
AcDbEntity
  8
Dim
100
AcDbHatch
 10
0.0
 20
0.0
 30
0.0
210
0.0
220
0.0
230
1.0
  2
ANSI31
 70
     0
 71
     1
 91
        1
 92
        1
 93
        4
 72
     1
 10
1316.737341596126
 20
1900.712668551406
 11
1666.737341596126
 21
1900.712668551406
 72
     1
 10
1666.737341596126
 20
1900.712668551406
 11
1666.737341596127
 21
2105.712668551406
 72
     1
 10
1666.737341596127
 20
2105.712668551406
 11
1316.737341596127
 21
2105.712668551406
 72
     1
 10
1316.737341596127
 20
2105.712668551406
 11
1316.737341596126
 21
1900.712668551406
 97
        4
330
6447
330
6448
330
6449
330
644A
 75
     0
 76
     1
 52
0.0
 41
6.0
 77
     0
 78
     1
 53
45.0
 43
-2445.88631414575
 44
0.0
 45
-13.47038418160373
 46
13.47038418160373
 79
     0
 98
        1
 10
-2445.88631414575
 20
0.0
1001
ACAD
1010
0.0
1020
0.0
1030
0.0
  0
VIEWPORT
  5
349
330
B
100
AcDbEntity
 67
     1
  8
0
100
AcDbViewport
 10
202.5
 20
128.5
 30
0.0
 40
486.0
 41
308.4
 68
     1
 69
     1
 12
202.5
 22
128.5
 13
0.0
 23
0.0
 14
0.5
 24
0.5
 15
0.0
 25
0.0
 16
0.0
 26
0.0
 36
1.0
 17
0.0
 27
0.0
 37
0.0
 42
50.0
 43
0.0
 44
0.0
 45
308.4
 50
0.0
 51
0.0
 72
   100
 90
   557152
  1

281
     0
 71
     1
 74
     0
110
0.0
120
0.0
130
0.0
111
1.0
121
0.0
131
0.0
112
0.0
122
1.0
132
0.0
 79
     0
146
0.0
170
     0
 61
     5
348
26C
292
     1
282
     1
141
0.0
142
0.0
 63
   256
  0
VIEWPORT
  5
34A
330
B
100
AcDbEntity
 67
     1
  8
0
100
AcDbViewport
 10
202.5
 20
128.5
 30
0.0
 40
324.0
 41
205.6
 68
     2
 69
     2
 12
986.6781359294573
 22
1427.077061889956
 13
0.0
 23
0.0
 14
0.5
 24
0.5
 15
0.0
 25
0.0
 16
0.0
 26
0.0
 36
1.0
 17
0.0
 27
0.0
 37
0.0
 42
50.0
 43
0.0
 44
0.0
 45
2890.021615685494
 50
0.0
 51
0.0
 72
   100
 90
   557152
  1

281
     0
 71
     1
 74
     0
110
0.0
120
0.0
130
0.0
111
1.0
121
0.0
131
0.0
112
0.0
122
1.0
132
0.0
 79
     0
146
0.0
170
     0
 61
     5
348
26C
292
     1
282
     1
141
0.0
142
0.0
 63
   256
  0
ENDSEC
  0
SECTION
  2
OBJECTS
  0
DICTIONARY
  5
19
330
0
100
AcDbDictionary
281
     1
  3
ACAD_COLOR
350
38F
  3
ACAD_DETAILVIEWSTYLE
350
8CF
  3
ACAD_FIELDLIST
350
BA6
  3
ACAD_GROUP
350
1A
  3
ACAD_IMAGE_DICT
350
5E43
  3
ACAD_IMAGE_VARS
350
27B
  3
ACAD_LAYOUT
350
1E
  3
ACAD_MATERIAL
350
263
  3
ACAD_MLEADERSTYLE
350
336
  3
ACAD_MLINESTYLE
350
1B
  3
ACAD_PLOTSETTINGS
350
22
  3
ACAD_PLOTSTYLENAME
350
1F
  3
ACAD_SCALELIST
350
241
  3
ACAD_SECTIONVIEWSTYLE
350
8D0
  3
ACAD_TABLESTYLE
350
278
  3
ACAD_VISUALSTYLE
350
267
  3
ACDB_RECOMPOSE_DATA
350
646E
  3
AcDbVariableDictionary
350
330
  3
APPDATA
350
27A
  3
DimOffsetDictionary
350
C08
  0
SUN
  5
8C2
330
15
100
AcDbSun
 90
        1
290
     0
 63
     7
421
 16777215
 40
1.0
291
     1
 91
  2455826
 92
 54000000
292
     0
 70
     2
 71
   256
280
     1
  0
DICTIONARY
  5
2E1
330
2
100
AcDbDictionary
280
     1
281
     1
  3
ACAD_LAYERSTATES
360
2E2
  3
ACLYDICTIONARY
360
BFE
  0
DICTIONARY
  5
560A
330
A
100
AcDbDictionary
280
     1
281
     1
  3
ACAD_SORTENTS
360
560B
  0
DICTIONARY
  5
BDC
330
BDB
100
AcDbDictionary
280
     1
281
     1
  3
ACAD_FIELD
360
6457
  0
DICTIONARY
  5
62AE
330
62AD
100
AcDbDictionary
280
     1
281
     1
  3
ACAD_DIMASSOC
360
62AF
  0
DICTIONARY
  5
38F
102
{ACAD_REACTORS
330
19
102
}
330
19
100
AcDbDictionary
281
     1
  0
DICTIONARY
  5
8CF
102
{ACAD_REACTORS
330
19
102
}
330
19
100
AcDbDictionary
281
     1
  0
FIELDLIST
  5
BA6
102
{ACAD_REACTORS
330
19
102
}
330
19
100
AcDbIdSet
 90
        2
330
BDF
330
BDE
100
AcDbFieldList
  0
DICTIONARY
  5
1A
102
{ACAD_REACTORS
330
19
102
}
330
19
100
AcDbDictionary
281
     1
  0
DICTIONARY
  5
5E43
102
{ACAD_REACTORS
330
19
102
}
330
19
100
AcDbDictionary
281
     1
  3
Untitled
350
5E44
  0
RASTERVARIABLES
  5
27B
102
{ACAD_REACTORS
330
19
102
}
330
19
100
AcDbRasterVariables
 90
        0
 70
     1
 71
     1
 72
     1
  0
DICTIONARY
  5
1E
102
{ACAD_REACTORS
330
19
102
}
330
19
100
AcDbDictionary
281
     1
  3
Layout1
350
21
  3
Model
350
20
  0
DICTIONARY
  5
263
102
{ACAD_REACTORS
330
19
102
}
330
19
100
AcDbDictionary
281
     1
  3
ByBlock
350
4FEC
  3
ByLayer
350
264
  3
Global
350
266
  0
DICTIONARY
  5
336
102
{ACAD_REACTORS
330
19
102
}
330
19
100
AcDbDictionary
281
     1
  3
Standard
350
8D1
  0
DICTIONARY
  5
1B
102
{ACAD_REACTORS
330
19
102
}
330
19
100
AcDbDictionary
281
     1
  3
Standard
350
1C
  0
DICTIONARY
  5
22
102
{ACAD_REACTORS
330
19
102
}
330
19
100
AcDbDictionary
281
     1
  0
ACDBDICTIONARYWDFLT
  5
1F
102
{ACAD_REACTORS
330
19
102
}
330
19
100
AcDbDictionary
281
     1
  3
Normal
350
1D
100
AcDbDictionaryWithDefault
340
1D
  0
DICTIONARY
  5
241
102
{ACAD_REACTORS
330
19
102
}
330
19
100
AcDbDictionary
281
     1
  3
A0
350
242
  3
A1
350
243
  3
A2
350
244
  3
A3
350
245
  3
A4
350
246
  3
A5
350
247
  3
A6
350
248
  3
A7
350
249
  3
A8
350
24A
  3
A9
350
24B
  3
B0
350
24C
  3
B1
350
24D
  3
B2
350
24E
  3
B3
350
24F
  3
B4
350
250
  3
B5
350
251
  3
B6
350
252
  3
B7
350
253
  3
B8
350
254
  3
B9
350
255
  3
C0
350
256
  3
C1
350
257
  3
C2
350
258
  3
C3
350
259
  3
C4
350
25A
  3
C5
350
25B
  3
C6
350
25C
  3
C7
350
25D
  3
C8
350
25E
  3
C9
350
25F
  3
D0
350
260
  3
D1
350
261
  3
D2
350
262
  0
DICTIONARY
  5
8D0
102
{ACAD_REACTORS
330
19
102
}
330
19
100
AcDbDictionary
281
     1
  0
DICTIONARY
  5
278
102
{ACAD_REACTORS
330
19
102
}
330
19
100
AcDbDictionary
281
     1
  3
Standard
350
279
  0
DICTIONARY
  5
267
102
{ACAD_REACTORS
330
19
102
}
330
19
100
AcDbDictionary
281
     1
  3
2dWireframe
350
26C
  3
3D Hidden
350
26E
  3
3dWireframe
350
26D
  3
Basic
350
26F
  3
Brighten
350
273
  3
ColorChange
350
277
  3
Conceptual
350
271
  3
Dim
350
272
  3
EdgeColorOff
350
8BC
  3
Facepattern
350
276
  3
Flat
350
268
  3
FlatWithEdges
350
269
  3
Gouraud
350
26A
  3
GouraudWithEdges
350
26B
  3
Hidden
350
8B9
  3
JitterOff
350
8BA
  3
Linepattern
350
275
  3
OverhangOff
350
8BB
  3
Realistic
350
270
  3
Shaded
350
8C1
  3
Shaded with edges
350
8C0
  3
Shades of Gray
350
8BD
  3
Sketchy
350
8BE
  3
Thicken
350
274
  3
Wireframe
350
8B8
  3
X-Ray
350
8BF
  0
XRECORD
  5
646E
102
{ACAD_REACTORS
330
19
102
}
330
19
100
AcDbXrecord
280
     1
 90
        1
330
279
  0
DICTIONARY
  5
330
102
{ACAD_REACTORS
330
19
102
}
330
19
100
AcDbDictionary
281
     1
  3
CANNOSCALE
350
331
  3
CMLEADERSTYLE
350
8DA
  3
CTABLESTYLE
350
335
  3
HPTRANSPARENCY
350
C07
  3
XCLIPFRAME
350
64A
  0
DICTIONARY
  5
27A
102
{ACAD_REACTORS
330
19
102
}
330
19
100
AcDbDictionary
281
     1
  0
DICTIONARY
  5
C08
102
{ACAD_REACTORS
330
19
102
}
330
19
100
AcDbDictionary
281
     1
  3
DIMRAILANGLE
350
4342
  3
DIMRAILFIRSTOFFSET
350
4340
  3
DIMRAILOFFSET
350
4341
  3
DIMRAILSENABLED
350
4343
  0
DICTIONARY
  5
2E2
102
{ACAD_REACTORS
330
2E1
102
}
330
2E1
100
AcDbDictionary
281
     1
  0
DICTIONARY
  5
BFE
102
{ACAD_REACTORS
330
2E1
102
}
330
2E1
100
AcDbDictionary
281
     1
1001
ACAD
1000
<All
  0
SORTENTSTABLE
  5
560B
102
{ACAD_REACTORS
330
560A
102
}
330
560A
100
AcDbSortentsTable
330
A
331
0
  5
5C18
331
6447
  5
6449
331
6448
  5
644A
331
6449
  5
644F
331
644A
  5
6450
331
6450
  5
6448
  0
DICTIONARY
  5
6457
102
{ACAD_REACTORS
330
BDC
102
}
330
BDC
100
AcDbDictionary
280
     1
281
     1
  3
TEXT
360
BDE
  0
DIMASSOC
  5
62AF
102
{ACAD_REACTORS
330
62AE
102
}
330
62AE
100
AcDbDimAssoc
330
62AD
 90
        3
 70
     0
 71
     1
  1
AcDbOsnapPointRef
 72
     2
331
6080
 73
     0
 91
        0
 40
0.5
 10
0.0
 20
0.0
 30
0.0
 75
     0
  1
AcDbOsnapPointRef
 72
    10
331
6037
 73
     0
 91
        0
 40
0.0450722332761252
 10
0.0
 20
0.0
 30
0.0
 75
     0
  0
IMAGEDEF
  5
5E44
102
{ACAD_REACTORS
330
5E43
102
}
330
5E43
100
AcDbRasterImageDef
 90
        0
  1
K:/DESKTOP/Untitled.png
 10
1035.0
 20
588.0
 11
0.2646202699126753
 21
0.2646202699126753
280
     1
281
     3
  0
LAYOUT
  5
21
102
{ACAD_REACTORS
330
1E
102
}
330
1E
100
AcDbPlotSettings
  1

  2
none_device
  4
ISO_A3_(420.00_x_297.00_MM)
  6

 40
7.5
 41
20.0
 42
7.5
 43
20.0
 44
420.0
 45
297.0
 46
0.0
 47
0.0
 48
0.0
 49
0.0
140
0.0
141
0.0
142
1.0
143
1.0
 70
     0
 72
     1
 73
     0
 74
     0
  7

 75
     0
 76
     0
 77
     2
 78
   300
147
1.0
148
0.0
149
0.0
100
AcDbLayout
  1
Layout1
 70
     0
 71
     0
 10
0.0
 20
0.0
 11
0.0
 21
0.0
 12
0.0
 22
0.0
 32
0.0
 14
0.0
 24
0.0
 34
0.0
 15
0.0
 25
0.0
 35
0.0
146
0.0
 13
0.0
 23
0.0
 33
0.0
 16
0.0
 26
0.0
 36
0.0
 17
0.0
 27
0.0
 37
0.0
 76
     0
330
B
331
349
  0
LAYOUT
  5
20
102
{ACAD_REACTORS
330
1E
102
}
330
1E
100
AcDbPlotSettings
  1

  2
none_device
  4
ISO_A3_(420.00_x_297.00_MM)
  6

 40
7.5
 41
20.0
 42
7.5
 43
20.0
 44
420.0
 45
297.0
 46
0.0
 47
0.0
 48
0.0
 49
0.0
140
0.0
141
0.0
142
1.0
143
1.0
 70
  1024
 72
     1
 73
     0
 74
     0
  7

 75
     0
 76
     0
 77
     2
 78
   300
147
1.0
148
0.0
149
0.0
100
AcDbLayout
  1
Model
 70
     0
 71
     1
 10
0.0
 20
0.0
 11
2100.0
 21
2970.0
 12
0.0
 22
0.0
 32
0.0
 14
0.0
 24
0.0
 34
0.0
 15
2100.0
 25
2970.0
 35
34.99521132346015
146
0.0
 13
0.0
 23
0.0
 33
0.0
 16
0.0
 26
0.0
 36
0.0
 17
0.0
 27
0.0
 37
0.0
 76
     0
330
A
331
15
  0
MATERIAL
  5
4FEC
102
{ACAD_REACTORS
330
263
102
}
330
263
100
AcDbMaterial
  1
ByBlock
 72
     1
 94
      127
  0
MATERIAL
  5
264
102
{ACAD_REACTORS
330
263
102
}
330
263
100
AcDbMaterial
  1
ByLayer
 72
     1
 94
      127
  0
MATERIAL
  5
266
102
{ACAD_REACTORS
330
263
102
}
330
263
100
AcDbMaterial
  1
Global
 72
     1
 94
      127
  0
MLEADERSTYLE
  5
8D1
102
{ACAD_REACTORS
330
336
102
}
330
336
100
AcDbMLeaderStyle
170
     2
171
     1
172
     0
 90
        2
 40
0.0
 41
0.0
173
     1
 91
-1056964608
340
11
 92
       -2
290
     1
 42
2.0
291
     1
 43
8.0
  3
Standard
341
0
 44
4.0
300

342
17
174
     1
178
     6
175
     1
176
     0
 93
-1056964608
 45
4.0
292
     0
297
     0
 46
4.0
343
0
 94
-1056964608
 47
1.0
 49
1.0
140
1.0
293
     1
141
0.0
294
     1
177
     0
142
1.0
295
     0
296
     0
143
3.75
1001
ACAD_MLEADERVER
1070
     2
  0
MLINESTYLE
  5
1C
102
{ACAD_REACTORS
330
1B
102
}
330
1B
100
AcDbMlineStyle
  2
Standard
 70
     0
  3

 62
     0
 51
90.0
 52
90.0
 71
     2
 49
0.5
 62
   256
  6
BYLAYER
 49
-0.5
 62
   256
  6
BYLAYER
  0
ACDBPLACEHOLDER
  5
1D
102
{ACAD_REACTORS
330
1F
102
}
330
1F
  0
SCALE
  5
242
102
{ACAD_REACTORS
330
241
102
}
330
241
100
AcDbScale
 70
     0
300
1:1
140
1.0
141
1.0
290
     1
  0
SCALE
  5
243
102
{ACAD_REACTORS
330
241
102
}
330
241
100
AcDbScale
 70
     0
300
1:2
140
1.0
141
2.0
290
     0
  0
SCALE
  5
244
102
{ACAD_REACTORS
330
241
102
}
330
241
100
AcDbScale
 70
     0
300
1:4
140
1.0
141
4.0
290
     0
  0
SCALE
  5
245
102
{ACAD_REACTORS
330
241
102
}
330
241
100
AcDbScale
 70
     0
300
1:5
140
1.0
141
5.0
290
     0
  0
SCALE
  5
246
102
{ACAD_REACTORS
330
241
102
}
330
241
100
AcDbScale
 70
     0
300
1:8
140
1.0
141
8.0
290
     0
  0
SCALE
  5
247
102
{ACAD_REACTORS
330
241
102
}
330
241
100
AcDbScale
 70
     0
300
1:10
140
1.0
141
10.0
290
     0
  0
SCALE
  5
248
102
{ACAD_REACTORS
330
241
102
}
330
241
100
AcDbScale
 70
     0
300
1:16
140
1.0
141
16.0
290
     0
  0
SCALE
  5
249
102
{ACAD_REACTORS
330
241
102
}
330
241
100
AcDbScale
 70
     0
300
1:20
140
1.0
141
20.0
290
     0
  0
SCALE
  5
24A
102
{ACAD_REACTORS
330
241
102
}
330
241
100
AcDbScale
 70
     0
300
1:30
140
1.0
141
30.0
290
     0
  0
SCALE
  5
24B
102
{ACAD_REACTORS
330
241
102
}
330
241
100
AcDbScale
 70
     0
300
1:40
140
1.0
141
40.0
290
     0
  0
SCALE
  5
24C
102
{ACAD_REACTORS
330
241
102
}
330
241
100
AcDbScale
 70
     0
300
1:50
140
1.0
141
50.0
290
     0
  0
SCALE
  5
24D
102
{ACAD_REACTORS
330
241
102
}
330
241
100
AcDbScale
 70
     0
300
1:100
140
1.0
141
100.0
290
     0
  0
SCALE
  5
24E
102
{ACAD_REACTORS
330
241
102
}
330
241
100
AcDbScale
 70
     0
300
2:1
140
2.0
141
1.0
290
     0
  0
SCALE
  5
24F
102
{ACAD_REACTORS
330
241
102
}
330
241
100
AcDbScale
 70
     0
300
4:1
140
4.0
141
1.0
290
     0
  0
SCALE
  5
250
102
{ACAD_REACTORS
330
241
102
}
330
241
100
AcDbScale
 70
     0
300
8:1
140
8.0
141
1.0
290
     0
  0
SCALE
  5
251
102
{ACAD_REACTORS
330
241
102
}
330
241
100
AcDbScale
 70
     0
300
10:1
140
10.0
141
1.0
290
     0
  0
SCALE
  5
252
102
{ACAD_REACTORS
330
241
102
}
330
241
100
AcDbScale
 70
     0
300
100:1
140
100.0
141
1.0
290
     0
  0
SCALE
  5
253
102
{ACAD_REACTORS
330
241
102
}
330
241
100
AcDbScale
 70
     0
300
1/128" = 1'-0"
140
0.0078125
141
12.0
290
     0
  0
SCALE
  5
254
102
{ACAD_REACTORS
330
241
102
}
330
241
100
AcDbScale
 70
     0
300
1/64" = 1'-0"
140
0.015625
141
12.0
290
     0
  0
SCALE
  5
255
102
{ACAD_REACTORS
330
241
102
}
330
241
100
AcDbScale
 70
     0
300
1/32" = 1'-0"
140
0.03125
141
12.0
290
     0
  0
SCALE
  5
256
102
{ACAD_REACTORS
330
241
102
}
330
241
100
AcDbScale
 70
     0
300
1/16" = 1'-0"
140
0.0625
141
12.0
290
     0
  0
SCALE
  5
257
102
{ACAD_REACTORS
330
241
102
}
330
241
100
AcDbScale
 70
     0
300
3/32" = 1'-0"
140
0.09375
141
12.0
290
     0
  0
SCALE
  5
258
102
{ACAD_REACTORS
330
241
102
}
330
241
100
AcDbScale
 70
     0
300
1/8" = 1'-0"
140
0.125
141
12.0
290
     0
  0
SCALE
  5
259
102
{ACAD_REACTORS
330
241
102
}
330
241
100
AcDbScale
 70
     0
300
3/16" = 1'-0"
140
0.1875
141
12.0
290
     0
  0
SCALE
  5
25A
102
{ACAD_REACTORS
330
241
102
}
330
241
100
AcDbScale
 70
     0
300
1/4" = 1'-0"
140
0.25
141
12.0
290
     0
  0
SCALE
  5
25B
102
{ACAD_REACTORS
330
241
102
}
330
241
100
AcDbScale
 70
     0
300
3/8" = 1'-0"
140
0.375
141
12.0
290
     0
  0
SCALE
  5
25C
102
{ACAD_REACTORS
330
241
102
}
330
241
100
AcDbScale
 70
     0
300
1/2" = 1'-0"
140
0.5
141
12.0
290
     0
  0
SCALE
  5
25D
102
{ACAD_REACTORS
330
241
102
}
330
241
100
AcDbScale
 70
     0
300
3/4" = 1'-0"
140
0.75
141
12.0
290
     0
  0
SCALE
  5
25E
102
{ACAD_REACTORS
330
241
102
}
330
241
100
AcDbScale
 70
     0
300
1" = 1'-0"
140
1.0
141
12.0
290
     0
  0
SCALE
  5
25F
102
{ACAD_REACTORS
330
241
102
}
330
241
100
AcDbScale
 70
     0
300
1-1/2" = 1'-0"
140
1.5
141
12.0
290
     0
  0
SCALE
  5
260
102
{ACAD_REACTORS
330
241
102
}
330
241
100
AcDbScale
 70
     0
300
3" = 1'-0"
140
3.0
141
12.0
290
     0
  0
SCALE
  5
261
102
{ACAD_REACTORS
330
241
102
}
330
241
100
AcDbScale
 70
     0
300
6" = 1'-0"
140
6.0
141
12.0
290
     0
  0
SCALE
  5
262
102
{ACAD_REACTORS
330
241
102
}
330
241
100
AcDbScale
 70
     0
300
1'-0" = 1'-0"
140
12.0
141
12.0
290
     0
  0
TABLESTYLE
  5
279
102
{ACAD_REACTORS
330
278
102
}
102
{ACAD_XDICTIONARY
360
646C
102
}
330
278
100
AcDbTableStyle
  3
Standard
 70
     0
 71
     0
 40
0.06
 41
0.06
280
     0
281
     0
  7
Standard
140
4.5
170
     2
 62
     0
 63
   257
283
     0
 90
        4
 91
        0
  1

274
    -2
284
     1
 64
     0
275
    -2
285
     1
 65
     0
276
    -2
286
     1
 66
     0
277
    -2
287
     1
 67
     0
278
    -2
288
     1
 68
     0
279
    -2
289
     1
 69
     0
  7
Standard
140
6.0
170
     5
 62
     0
 63
   257
283
     0
 90
        4
 91
        0
  1

274
    -2
284
     1
 64
     0
275
    -2
285
     1
 65
     0
276
    -2
286
     1
 66
     0
277
    -2
287
     1
 67
     0
278
    -2
288
     1
 68
     0
279
    -2
289
     1
 69
     0
  7
Standard
140
4.5
170
     5
 62
     0
 63
   257
283
     0
 90
        4
 91
        0
  1

274
    -2
284
     1
 64
     0
275
    -2
285
     1
 65
     0
276
    -2
286
     1
 66
     0
277
    -2
287
     1
 67
     0
278
    -2
288
     1
 68
     0
279
    -2
289
     1
 69
     0
  0
VISUALSTYLE
  5
26C
102
{ACAD_REACTORS
330
267
102
}
330
267
100
AcDbVisualStyle
  2
2dWireframe
 70
     4
 71
     0
 72
     2
 73
     0
 90
        0
 40
-0.6
 41
-30.0
 62
     5
 63
     7
421
 16777215
 74
     1
 91
        4
 64
     7
 65
   257
 75
     1
175
     1
 42
1.0
 92
        0
 66
   257
 43
1.0
 76
     1
 77
     6
 78
     2
 67
     7
 79
     5
170
     0
171
     0
290
     0
174
     0
 93
        1
 44
0.0
173
     0
291
     0
 45
0.0
  0
VISUALSTYLE
  5
26E
102
{ACAD_REACTORS
330
267
102
}
330
267
100
AcDbVisualStyle
  2
3D Hidden
 70
     6
 71
     1
 72
     2
 73
     2
 90
        0
 40
-0.6
 41
-30.0
 62
     5
 63
     7
421
 16777215
 74
     2
 91
        2
 64
     7
 65
   257
 75
     2
175
     1
 42
40.0
 92
        0
 66
   257
 43
1.0
 76
     1
 77
     6
 78
     2
 67
     7
 79
     3
170
     0
171
     0
290
     0
174
     0
 93
        1
 44
0.0
173
     0
291
     0
 45
0.0
  0
VISUALSTYLE
  5
26D
102
{ACAD_REACTORS
330
267
102
}
330
267
100
AcDbVisualStyle
  2
3dWireframe
 70
     5
 71
     0
 72
     2
 73
     0
 90
        0
 40
-0.6
 41
-30.0
 62
     5
 63
     7
421
 16777215
 74
     1
 91
        4
 64
     7
 65
   257
 75
     1
175
     1
 42
1.0
 92
        0
 66
   257
 43
1.0
 76
     1
 77
     6
 78
     2
 67
     7
 79
     5
170
     0
171
     0
290
     0
174
     0
 93
        1
 44
0.0
173
     0
291
     0
 45
0.0
  0
VISUALSTYLE
  5
26F
102
{ACAD_REACTORS
330
267
102
}
330
267
100
AcDbVisualStyle
  2
Basic
 70
     7
 71
     1
 72
     0
 73
     1
 90
        0
 40
-0.6
 41
-30.0
 62
     5
 63
     7
421
 16777215
 74
     0
 91
        4
 64
     7
 65
   257
 75
     1
175
     1
 42
1.0
 92
        8
 66
     7
 43
1.0
 76
     1
 77
     6
 78
     2
 67
     7
 79
     5
170
     0
171
     0
290
     0
174
     0
 93
        1
 44
0.0
173
     0
291
     1
 45
0.0
  0
VISUALSTYLE
  5
273
102
{ACAD_REACTORS
330
267
102
}
330
267
100
AcDbVisualStyle
  2
Brighten
 70
    12
 71
     2
 72
     2
 73
     0
 90
        0
 40
-0.6
 41
-30.0
 62
     5
 63
     7
421
 16777215
 74
     1
 91
        4
 64
     7
 65
   257
 75
     1
175
     1
 42
1.0
 92
        8
 66
     7
 43
1.0
 76
     1
 77
     6
 78
     2
 67
     7
 79
     5
170
     0
171
     0
290
     0
174
     0
 93
        1
 44
50.0
173
     0
291
     1
 45
0.0
  0
VISUALSTYLE
  5
277
102
{ACAD_REACTORS
330
267
102
}
330
267
100
AcDbVisualStyle
  2
ColorChange
 70
    16
 71
     2
 72
     2
 73
     3
 90
        0
 40
-0.6
 41
-30.0
 62
     5
 63
     8
421
  8421504
 74
     1
 91
        4
 64
     7
 65
   257
 75
     1
175
     1
 42
1.0
 92
        8
 66
     8
424
  8421504
 43
1.0
 76
     1
 77
     6
 78
     2
 67
     7
 79
     5
170
     0
171
     0
290
     0
174
     0
 93
        1
 44
0.0
173
     0
291
     1
 45
0.0
  0
VISUALSTYLE
  5
271
102
{ACAD_REACTORS
330
267
102
}
330
267
100
AcDbVisualStyle
  2
Conceptual
 70
     9
 71
     3
 72
     2
 73
     0
 90
        0
 40
-0.6
 41
-30.0
 62
     5
 63
     7
421
 16777215
 74
     2
 91
        2
 64
     7
 65
   257
 75
     1
175
     1
 42
40.0
 92
        8
 66
     7
 43
1.0
 76
     1
 77
     6
 78
     2
 67
     7
 79
     3
170
     0
171
     0
290
     0
174
     0
 93
        1
 44
0.0
173
     0
291
     0
 45
0.0
  0
VISUALSTYLE
  5
272
102
{ACAD_REACTORS
330
267
102
}
330
267
100
AcDbVisualStyle
  2
Dim
 70
    11
 71
     2
 72
     2
 73
     0
 90
        0
 40
-0.6
 41
-30.0
 62
     5
 63
     7
421
 16777215
 74
     1
 91
        4
 64
     7
 65
   257
 75
     1
175
     1
 42
1.0
 92
        8
 66
     7
 43
1.0
 76
     1
 77
     6
 78
     2
 67
     7
 79
     5
170
     0
171
     0
290
     0
174
     0
 93
        1
 44
-50.0
173
     0
291
     1
 45
0.0
  0
VISUALSTYLE
  5
8BC
102
{ACAD_REACTORS
330
267
102
}
330
267
100
AcDbVisualStyle
  2
EdgeColorOff
 70
    22
 71
     2
 72
     2
 73
     0
 90
        0
 40
0.6
 41
30.0
 62
     5
 63
     7
421
 16777215
 74
     1
 91
        4
 64
     7
 65
   257
 75
     1
175
     1
 42
1.0
 92
        8
 66
     7
 43
1.0
 76
     1
 77
     6
 78
     2
 67
     7
 79
     5
170
     0
171
     0
290
     0
174
     0
 93
        1
 44
0.0
173
     0
291
     1
 45
0.0
  0
VISUALSTYLE
  5
276
102
{ACAD_REACTORS
330
267
102
}
330
267
100
AcDbVisualStyle
  2
Facepattern
 70
    15
 71
     2
 72
     2
 73
     0
 90
        0
 40
-0.6
 41
-30.0
 62
     5
 63
     7
421
 16777215
 74
     1
 91
        4
 64
     7
 65
   257
 75
     1
175
     1
 42
1.0
 92
        8
 66
     7
 43
1.0
 76
     1
 77
     6
 78
     2
 67
     7
 79
     5
170
     0
171
     0
290
     0
174
     0
 93
        1
 44
0.0
173
     0
291
     1
 45
0.0
  0
VISUALSTYLE
  5
268
102
{ACAD_REACTORS
330
267
102
}
330
267
100
AcDbVisualStyle
  2
Flat
 70
     0
 71
     2
 72
     1
 73
     1
 90
        2
 40
-0.6
 41
30.0
 62
     5
 63
     7
421
 16777215
 74
     0
 91
        4
 64
     7
 65
   257
 75
     1
175
     1
 42
1.0
 92
        8
 66
     7
 43
1.0
 76
     1
 77
     6
 78
     2
 67
     7
 79
     5
170
     0
171
     0
290
     0
174
     0
 93
       13
 44
0.0
173
     0
291
     1
 45
0.0
  0
VISUALSTYLE
  5
269
102
{ACAD_REACTORS
330
267
102
}
330
267
100
AcDbVisualStyle
  2
FlatWithEdges
 70
     1
 71
     2
 72
     1
 73
     1
 90
        2
 40
-0.6
 41
30.0
 62
     5
 63
     7
421
 16777215
 74
     1
 91
        4
 64
     7
 65
   257
 75
     1
175
     1
 42
1.0
 92
        0
 66
   257
 43
1.0
 76
     1
 77
     6
 78
     2
 67
     7
 79
     5
170
     0
171
     0
290
     0
174
     0
 93
       13
 44
0.0
173
     0
291
     1
 45
0.0
  0
VISUALSTYLE
  5
26A
102
{ACAD_REACTORS
330
267
102
}
330
267
100
AcDbVisualStyle
  2
Gouraud
 70
     2
 71
     2
 72
     2
 73
     1
 90
        2
 40
-0.6
 41
30.0
 62
     5
 63
     7
421
 16777215
 74
     0
 91
        4
 64
     7
 65
   257
 75
     1
175
     1
 42
1.0
 92
        0
 66
     7
 43
1.0
 76
     1
 77
     6
 78
     2
 67
     7
 79
     5
170
     0
171
     0
290
     0
174
     0
 93
       13
 44
0.0
173
     0
291
     1
 45
0.0
  0
VISUALSTYLE
  5
26B
102
{ACAD_REACTORS
330
267
102
}
330
267
100
AcDbVisualStyle
  2
GouraudWithEdges
 70
     3
 71
     2
 72
     2
 73
     1
 90
        2
 40
-0.6
 41
30.0
 62
     5
 63
     7
421
 16777215
 74
     1
 91
        4
 64
     7
 65
   257
 75
     1
175
     1
 42
1.0
 92
        0
 66
   257
 43
1.0
 76
     1
 77
     6
 78
     2
 67
     7
 79
     5
170
     0
171
     0
290
     0
174
     0
 93
       13
 44
0.0
173
     0
291
     1
 45
0.0
  0
VISUALSTYLE
  5
8B9
102
{ACAD_REACTORS
330
267
102
}
330
267
100
AcDbVisualStyle
  2
Hidden
 70
     6
 71
     1
 72
     2
 73
     2
 90
        0
 40
0.6
 41
30.0
 62
     5
 63
     7
421
 16777215
 74
     2
 91
        2
 64
     7
 65
   257
 75
     2
175
     1
 42
40.0
 92
        0
 66
   257
 43
1.0
 76
     1
 77
     6
 78
     2
 67
     7
 79
     3
170
     0
171
     0
290
     0
174
     0
 93
        1
 44
0.0
173
     0
291
     0
 45
0.0
  0
VISUALSTYLE
  5
8BA
102
{ACAD_REACTORS
330
267
102
}
330
267
100
AcDbVisualStyle
  2
JitterOff
 70
    20
 71
     2
 72
     2
 73
     0
 90
        0
 40
0.6
 41
30.0
 62
     5
 63
     7
421
 16777215
 74
     1
 91
        4
 64
     7
 65
   257
 75
     1
175
     1
 42
1.0
 92
       10
 66
     7
 43
1.0
 76
     1
 77
     6
 78
     2
 67
     7
 79
     5
170
     0
171
     0
290
     0
174
     0
 93
        1
 44
0.0
173
     0
291
     1
 45
0.0
  0
VISUALSTYLE
  5
275
102
{ACAD_REACTORS
330
267
102
}
330
267
100
AcDbVisualStyle
  2
Linepattern
 70
    14
 71
     2
 72
     2
 73
     0
 90
        0
 40
-0.6
 41
-30.0
 62
     5
 63
     7
421
 16777215
 74
     1
 91
        4
 64
     7
 65
   257
 75
     7
175
     7
 42
1.0
 92
        8
 66
     7
 43
1.0
 76
     1
 77
     6
 78
     2
 67
     7
 79
     5
170
     0
171
     0
290
     0
174
     0
 93
        1
 44
0.0
173
     0
291
     1
 45
0.0
  0
VISUALSTYLE
  5
8BB
102
{ACAD_REACTORS
330
267
102
}
330
267
100
AcDbVisualStyle
  2
OverhangOff
 70
    21
 71
     2
 72
     2
 73
     0
 90
        0
 40
0.6
 41
30.0
 62
     5
 63
     7
421
 16777215
 74
     1
 91
        4
 64
     7
 65
   257
 75
     1
175
     1
 42
1.0
 92
        9
 66
     7
 43
1.0
 76
     1
 77
     6
 78
     2
 67
     7
 79
     5
170
     0
171
     0
290
     0
174
     0
 93
        1
 44
0.0
173
     0
291
     1
 45
0.0
  0
VISUALSTYLE
  5
270
102
{ACAD_REACTORS
330
267
102
}
330
267
100
AcDbVisualStyle
  2
Realistic
 70
     8
 71
     2
 72
     2
 73
     0
 90
        0
 40
-0.6
 41
-30.0
 62
     5
 63
     7
421
 16777215
 74
     1
 91
        0
 64
     7
 65
   257
 75
     1
175
     1
 42
1.0
 92
        8
 66
     8
424
  7895160
 43
1.0
 76
     1
 77
     6
 78
     2
 67
     7
 79
     5
170
     0
171
     0
290
     0
174
     0
 93
       13
 44
0.0
173
     0
291
     0
 45
0.0
  0
VISUALSTYLE
  5
8C1
102
{ACAD_REACTORS
330
267
102
}
330
267
100
AcDbVisualStyle
  2
Shaded
 70
    27
 71
     2
 72
     2
 73
     1
 90
        2
 40
0.6
 41
30.0
 62
     5
 63
     7
421
 16777215
 74
     0
 91
        4
 64
     7
 65
   257
 75
     1
175
     1
 42
1.0
 92
        8
 66
   257
 43
1.0
 76
     1
 77
     6
 78
     2
 67
     8
425
  7895160
 79
     3
170
     0
171
     0
290
     0
174
     0
 93
        5
 44
0.0
173
     0
291
     0
 45
0.0
  0
VISUALSTYLE
  5
8C0
102
{ACAD_REACTORS
330
267
102
}
330
267
100
AcDbVisualStyle
  2
Shaded with edges
 70
    26
 71
     2
 72
     2
 73
     1
 90
        2
 40
0.6
 41
30.0
 62
     5
 63
     7
421
 16777215
 74
     1
 91
       10
 64
     7
 65
   257
 75
     2
175
     1
 42
1.0
 92
        8
 66
   257
 43
1.0
 76
     1
 77
     6
 78
     2
 67
     7
 79
     3
170
     0
171
     0
290
     0
174
     0
 93
        5
 44
0.0
173
     0
291
     0
 45
0.0
  0
VISUALSTYLE
  5
8BD
102
{ACAD_REACTORS
330
267
102
}
330
267
100
AcDbVisualStyle
  2
Shades of Gray
 70
    23
 71
     2
 72
     2
 73
     3
 90
        0
 40
0.6
 41
30.0
 62
     5
 63
     7
421
 16777215
 74
     2
 91
        2
 64
     7
 65
     7
 75
     1
175
     1
 42
40.0
 92
        8
 66
     7
 43
1.0
 76
     1
 77
     6
 78
     2
 67
     7
 79
     3
170
     0
171
     0
290
     0
174
     0
 93
        1
 44
0.0
173
     0
291
     0
 45
0.0
  0
VISUALSTYLE
  5
8BE
102
{ACAD_REACTORS
330
267
102
}
330
267
100
AcDbVisualStyle
  2
Sketchy
 70
    24
 71
     1
 72
     2
 73
     2
 90
        0
 40
0.6
 41
30.0
 62
     5
 63
     7
421
 16777215
 74
     2
 91
        2
 64
     7
 65
     7
 75
     1
175
     1
 42
40.0
 92
       11
 66
     7
 43
1.0
 76
     1
 77
     6
 78
     2
 67
     7
 79
     6
170
     0
171
     0
290
     0
174
     0
 93
        1
 44
0.0
173
     0
291
     0
 45
0.0
  0
VISUALSTYLE
  5
274
102
{ACAD_REACTORS
330
267
102
}
330
267
100
AcDbVisualStyle
  2
Thicken
 70
    13
 71
     2
 72
     2
 73
     0
 90
        0
 40
-0.6
 41
-30.0
 62
     5
 63
     7
421
 16777215
 74
     1
 91
        4
 64
     7
 65
   257
 75
     1
175
     1
 42
1.0
 92
       12
 66
     7
 43
1.0
 76
     1
 77
     6
 78
     2
 67
     7
 79
     5
170
     0
171
     0
290
     0
174
     0
 93
        1
 44
0.0
173
     0
291
     1
 45
0.0
  0
VISUALSTYLE
  5
8B8
102
{ACAD_REACTORS
330
267
102
}
330
267
100
AcDbVisualStyle
  2
Wireframe
 70
     5
 71
     0
 72
     2
 73
     0
 90
        0
 40
0.6
 41
30.0
 62
     5
 63
     7
421
 16777215
 74
     1
 91
        4
 64
     7
 65
   257
 75
     1
175
     1
 42
1.0
 92
        0
 66
   257
 43
1.0
 76
     1
 77
     6
 78
     2
 67
     7
 79
     3
170
     0
171
     0
290
     0
174
     0
 93
        1
 44
0.0
173
     0
291
     0
 45
0.0
  0
VISUALSTYLE
  5
8BF
102
{ACAD_REACTORS
330
267
102
}
330
267
100
AcDbVisualStyle
  2
X-Ray
 70
    25
 71
     2
 72
     2
 73
     1
 90
        1
 40
0.5
 41
30.0
 62
     5
 63
     7
421
 16777215
 74
     1
 91
        0
 64
     7
 65
   257
 75
     1
175
     1
 42
1.0
 92
        8
 66
     7
 43
1.0
 76
     1
 77
     6
 78
     2
 67
     7
 79
     3
170
     0
171
     0
290
     0
174
     0
 93
       13
 44
0.0
173
     0
291
     0
 45
0.0
  0
DICTIONARYVAR
  5
331
102
{ACAD_REACTORS
330
330
102
}
330
330
100
DictionaryVariables
280
     0
  1
1:1
  0
DICTIONARYVAR
  5
8DA
102
{ACAD_REACTORS
330
330
102
}
330
330
100
DictionaryVariables
280
     0
  1
Standard
  0
DICTIONARYVAR
  5
335
102
{ACAD_REACTORS
330
330
102
}
330
330
100
DictionaryVariables
280
     0
  1
Standard
  0
DICTIONARYVAR
  5
C07
102
{ACAD_REACTORS
330
330
102
}
330
330
100
DictionaryVariables
280
     0
  1
ByLayer
  0
DICTIONARYVAR
  5
64A
102
{ACAD_REACTORS
330
330
102
}
330
330
100
DictionaryVariables
280
     0
  1
0
  0
DICTIONARYVAR
  5
4342
102
{ACAD_REACTORS
330
C08
102
}
330
C08
100
DictionaryVariables
280
     0
  1
0.261799
  0
DICTIONARYVAR
  5
4340
102
{ACAD_REACTORS
330
C08
102
}
330
C08
100
DictionaryVariables
280
     0
  1
0.400000
  0
DICTIONARYVAR
  5
4341
102
{ACAD_REACTORS
330
C08
102
}
330
C08
100
DictionaryVariables
280
     0
  1
0.250000
  0
DICTIONARYVAR
  5
4343
102
{ACAD_REACTORS
330
C08
102
}
330
C08
100
DictionaryVariables
280
     0
  1
1
  0
FIELD
  5
BDE
102
{ACAD_REACTORS
330
6457
102
}
330
6457
100
AcDbField
  1
_text
  2
{%<\_FldIdx 0>%N}
 90
        1
360
BDF
 97
        0
 91
       63
 92
        0
 94
       11
 95
        2
 96
        0
300

 93
        1
  6
ACFD_FIELDTEXT_CHECKSUM
 93
        2
 90
        2
140
4498.0
 94
        0
300

302

304
ACVALUE_END
  7
ACFD_FIELD_VALUE
 93
        6
 90
        4
  1
{20190403N}
 94
        0
300

302

304
ACVALUE_END
301
{20190403N}
 98
       11
  0
DICTIONARY
  5
646C
330
279
100
AcDbDictionary
280
     1
281
     1
  3
ACAD_ROUNDTRIP_2008_TABLESTYLE_CELLSTYLEMAP
360
646D
  0
FIELD
  5
BDF
330
BDE
100
AcDbField
  1
AcVar
  2
\AcVar Date \f "yyyyMMdd"
 90
        0
 97
        0
 91
       63
 92
        0
 94
        8
 95
       64
 96
        0
300
Variable not supported
 93
        1
  6
Variable
 93
        2
 90
        4
  1
Date
 94
        0
300

302

304
ACVALUE_END
  7
ACFD_FIELD_VALUE
 93
        6
 90
        8
 92
       16
310
E3070400000003000A00120032000000
 94
        0
300
yyyyMMdd
302

304
ACVALUE_END
301
20190403
 98
        8
  0
CELLSTYLEMAP
  5
646D
102
{ACAD_REACTORS
330
646C
102
}
330
646C
100
AcDbCellStyleMap
 90
        3
300
CELLSTYLE
  1
TABLEFORMAT_BEGIN
 90
        5
170
     1
 91
        0
 92
    32768
 62
   257
 93
        1
300
CONTENTFORMAT
  1
CONTENTFORMAT_BEGIN
 90
        0
 91
        0
 92
        4
 93
        0
300

 40
0.0
140
1.0
 94
        5
 62
     0
340
17
144
6.0
309
CONTENTFORMAT_END
171
     1
301
MARGIN
  1
CELLMARGIN_BEGIN
 40
0.06
 40
0.06
 40
0.06
 40
0.06
 40
0.18
 40
0.18
309
CELLMARGIN_END
 94
        6
 95
        1
302
GRIDFORMAT
  1
GRIDFORMAT_BEGIN
 90
        0
 91
        1
 62
     0
 92
       -2
340
0
 93
        0
 40
0.045
309
GRIDFORMAT_END
 95
        2
302
GRIDFORMAT
  1
GRIDFORMAT_BEGIN
 90
        0
 91
        1
 62
     0
 92
       -2
340
0
 93
        0
 40
0.045
309
GRIDFORMAT_END
 95
        4
302
GRIDFORMAT
  1
GRIDFORMAT_BEGIN
 90
        0
 91
        1
 62
     0
 92
       -2
340
0
 93
        0
 40
0.045
309
GRIDFORMAT_END
 95
        8
302
GRIDFORMAT
  1
GRIDFORMAT_BEGIN
 90
        0
 91
        1
 62
     0
 92
       -2
340
0
 93
        0
 40
0.045
309
GRIDFORMAT_END
 95
       16
302
GRIDFORMAT
  1
GRIDFORMAT_BEGIN
 90
        0
 91
        1
 62
     0
 92
       -2
340
0
 93
        0
 40
0.045
309
GRIDFORMAT_END
 95
       32
302
GRIDFORMAT
  1
GRIDFORMAT_BEGIN
 90
        0
 91
        1
 62
     0
 92
       -2
340
0
 93
        0
 40
0.045
309
GRIDFORMAT_END
309
TABLEFORMAT_END
  1
CELLSTYLE_BEGIN
 90
        1
 91
        1
300
_TITLE
309
CELLSTYLE_END
300
CELLSTYLE
  1
TABLEFORMAT_BEGIN
 90
        5
170
     1
 91
        0
 92
        0
 62
   257
 93
        1
300
CONTENTFORMAT
  1
CONTENTFORMAT_BEGIN
 90
        0
 91
        0
 92
        4
 93
        0
300

 40
0.0
140
1.0
 94
        5
 62
     0
340
17
144
4.5
309
CONTENTFORMAT_END
171
     1
301
MARGIN
  1
CELLMARGIN_BEGIN
 40
0.06
 40
0.06
 40
0.06
 40
0.06
 40
0.18
 40
0.18
309
CELLMARGIN_END
 94
        6
 95
        1
302
GRIDFORMAT
  1
GRIDFORMAT_BEGIN
 90
        0
 91
        1
 62
     0
 92
       -2
340
0
 93
        0
 40
0.045
309
GRIDFORMAT_END
 95
        2
302
GRIDFORMAT
  1
GRIDFORMAT_BEGIN
 90
        0
 91
        1
 62
     0
 92
       -2
340
0
 93
        0
 40
0.045
309
GRIDFORMAT_END
 95
        4
302
GRIDFORMAT
  1
GRIDFORMAT_BEGIN
 90
        0
 91
        1
 62
     0
 92
       -2
340
0
 93
        0
 40
0.045
309
GRIDFORMAT_END
 95
        8
302
GRIDFORMAT
  1
GRIDFORMAT_BEGIN
 90
        0
 91
        1
 62
     0
 92
       -2
340
0
 93
        0
 40
0.045
309
GRIDFORMAT_END
 95
       16
302
GRIDFORMAT
  1
GRIDFORMAT_BEGIN
 90
        0
 91
        1
 62
     0
 92
       -2
340
0
 93
        0
 40
0.045
309
GRIDFORMAT_END
 95
       32
302
GRIDFORMAT
  1
GRIDFORMAT_BEGIN
 90
        0
 91
        1
 62
     0
 92
       -2
340
0
 93
        0
 40
0.045
309
GRIDFORMAT_END
309
TABLEFORMAT_END
  1
CELLSTYLE_BEGIN
 90
        2
 91
        1
300
_HEADER
309
CELLSTYLE_END
300
CELLSTYLE
  1
TABLEFORMAT_BEGIN
 90
        5
170
     1
 91
        0
 92
        0
 62
   257
 93
        1
300
CONTENTFORMAT
  1
CONTENTFORMAT_BEGIN
 90
        0
 91
        0
 92
        4
 93
        0
300

 40
0.0
140
1.0
 94
        2
 62
     0
340
17
144
4.5
309
CONTENTFORMAT_END
171
     1
301
MARGIN
  1
CELLMARGIN_BEGIN
 40
0.06
 40
0.06
 40
0.06
 40
0.06
 40
0.18
 40
0.18
309
CELLMARGIN_END
 94
        6
 95
        1
302
GRIDFORMAT
  1
GRIDFORMAT_BEGIN
 90
        0
 91
        1
 62
     0
 92
       -2
340
0
 93
        0
 40
0.045
309
GRIDFORMAT_END
 95
        2
302
GRIDFORMAT
  1
GRIDFORMAT_BEGIN
 90
        0
 91
        1
 62
     0
 92
       -2
340
0
 93
        0
 40
0.045
309
GRIDFORMAT_END
 95
        4
302
GRIDFORMAT
  1
GRIDFORMAT_BEGIN
 90
        0
 91
        1
 62
     0
 92
       -2
340
0
 93
        0
 40
0.045
309
GRIDFORMAT_END
 95
        8
302
GRIDFORMAT
  1
GRIDFORMAT_BEGIN
 90
        0
 91
        1
 62
     0
 92
       -2
340
0
 93
        0
 40
0.045
309
GRIDFORMAT_END
 95
       16
302
GRIDFORMAT
  1
GRIDFORMAT_BEGIN
 90
        0
 91
        1
 62
     0
 92
       -2
340
0
 93
        0
 40
0.045
309
GRIDFORMAT_END
 95
       32
302
GRIDFORMAT
  1
GRIDFORMAT_BEGIN
 90
        0
 91
        1
 62
     0
 92
       -2
340
0
 93
        0
 40
0.045
309
GRIDFORMAT_END
309
TABLEFORMAT_END
  1
CELLSTYLE_BEGIN
 90
        3
 91
        2
300
_DATA
309
CELLSTYLE_END
  0
ENDSEC
  0
EOF
