  0
SECTION
  2
HEADER
  9
$ACADVER
  1
AC1021
  9
$ACADMAINTVER
 70
    25
  9
$DWGCODEPAGE
  3
ANSI_932
  9
$LASTSAVEDBY
  1
howeNelson
  9
$INSBASE
 10
0.0
 20
0.0
 30
0.0
  9
$EXTMIN
 10
0.0
 20
0.0
 30
0.0
  9
$EXTMAX
 10
3132.957545508409
 20
2970.0
 30
34.99521132346015
  9
$LIMMIN
 10
0.0
 20
0.0
  9
$LIMMAX
 10
2100.0
 20
2970.0
  9
$ORTHOMODE
 70
     0
  9
$REGENMODE
 70
     1
  9
$FILLMODE
 70
     1
  9
$QTEXTMODE
 70
     0
  9
$MIRRTEXT
 70
     1
  9
$LTSCALE
 40
5.0
  9
$ATTMODE
 70
     1
  9
$TEXTSIZE
 40
533.0403732820173
  9
$TRACEWID
 40
1.0
  9
$TEXTSTYLE
  7
Standard
  9
$CLAYER
  8
Dim
  9
$CELTYPE
  6
Continuous
  9
$CECOLOR
 62
   256
  9
$CELTSCALE
 40
1.0
  9
$DISPSILH
 70
     0
  9
$DIMSCALE
 40
1.0
  9
$DIMASZ
 40
9.999389648437498
  9
$DIMEXO
 40
25.0
  9
$DIMDLI
 40
0.9999999999999999
  9
$DIMRND
 40
0.0
  9
$DIMDLE
 40
0.0
  9
$DIMEXE
 40
0.0
  9
$DIMTP
 40
0.0
  9
$DIMTM
 40
0.0
  9
$DIMTXT
 40
24.4326171875
  9
$DIMCEN
 40
0.0
  9
$DIMTSZ
 40
0.0
  9
$DIMTOL
 70
     0
  9
$DIMLIM
 70
     0
  9
$DIMTIH
 70
     0
  9
$DIMTOH
 70
     0
  9
$DIMSE1
 70
     0
  9
$DIMSE2
 70
     0
  9
$DIMTAD
 70
     1
  9
$DIMZIN
 70
    11
  9
$DIMBLK
  1
DOT
  9
$DIMASO
 70
     1
  9
$DIMSHO
 70
     1
  9
$DIMPOST
  1
<>
  9
$DIMAPOST
  1
[]
  9
$DIMALT
 70
     0
  9
$DIMALTD
 70
     1
  9
$DIMALTF
 40
1.0
  9
$DIMLFAC
 40
1.0
  9
$DIMTOFL
 70
     1
  9
$DIMTVP
 40
0.0
  9
$DIMTIX
 70
     1
  9
$DIMSOXD
 70
     0
  9
$DIMSAH
 70
     0
  9
$DIMBLK1
  1

  9
$DIMBLK2
  1

  9
$DIMSTYLE
  2
tform線あり
  9
$DIMCLRD
 70
     0
  9
$DIMCLRE
 70
     0
  9
$DIMCLRT
 70
     0
  9
$DIMTFAC
 40
0.8
  9
$DIMGAP
 40
10.0
  9
$DIMJUST
 70
     0
  9
$DIMSD1
 70
     0
  9
$DIMSD2
 70
     0
  9
$DIMTOLJ
 70
     1
  9
$DIMTZIN
 70
    11
  9
$DIMALTZ
 70
    11
  9
$DIMALTTZ
 70
    11
  9
$DIMUPT
 70
     0
  9
$DIMDEC
 70
     1
  9
$DIMTDEC
 70
     1
  9
$DIMALTU
 70
     2
  9
$DIMALTTD
 70
     2
  9
$DIMTXSTY
  7
ＭＳ ゴシック
  9
$DIMAUNIT
 70
     0
  9
$DIMADEC
 70
     2
  9
$DIMALTRND
 40
0.0
  9
$DIMAZIN
 70
     0
  9
$DIMDSEP
 70
    46
  9
$DIMATFIT
 70
     0
  9
$DIMFRAC
 70
     2
  9
$DIMLDRBLK
  1
DOT
  9
$DIMLUNIT
 70
     2
  9
$DIMLWD
 70
    -2
  9
$DIMLWE
 70
    -2
  9
$DIMTMOVE
 70
     0
  9
$DIMFXL
 40
1.0
  9
$DIMFXLON
 70
     0
  9
$DIMJOGANG
 40
0.7853981633974483
  9
$DIMTFILL
 70
     0
  9
$DIMTFILLCLR
 70
     0
  9
$DIMARCSYM
 70
     0
  9
$DIMLTYPE
  6

  9
$DIMLTEX1
  6

  9
$DIMLTEX2
  6

  9
$LUNITS
 70
     2
  9
$LUPREC
 70
     0
  9
$SKETCHINC
 40
0.1
  9
$FILLETRAD
 40
0.0
  9
$AUNITS
 70
     0
  9
$AUPREC
 70
     0
  9
$MENU
  1
acad
  9
$ELEVATION
 40
0.0
  9
$PELEVATION
 40
0.0
  9
$THICKNESS
 40
0.0
  9
$LIMCHECK
 70
     0
  9
$CHAMFERA
 40
0.0
  9
$CHAMFERB
 40
0.0
  9
$CHAMFERC
 40
0.0
  9
$CHAMFERD
 40
0.0
  9
$SKPOLY
 70
     0
  9
$TDCREATE
 40
2447893.375
  9
$TDUCREATE
 40
0.0
  9
$TDUPDATE
 40
2458786.485165764
  9
$TDUUPDATE
 40
2458786.110165764
  9
$TDINDWG
 40
0.097442419
  9
$TDUSRTIMER
 40
0.0005845833
  9
$USRTIMER
 70
     1
  9
$ANGBASE
 50
0.0
  9
$ANGDIR
 70
     0
  9
$PDMODE
 70
     1
  9
$PDSIZE
 40
-2.0
  9
$PLINEWID
 40
0.0
  9
$SPLFRAME
 70
     0
  9
$SPLINETYPE
 70
     6
  9
$SPLINESEGS
 70
     8
  9
$HANDSEED
  5
801F
  9
$SURFTAB1
 70
     6
  9
$SURFTAB2
 70
     6
  9
$SURFTYPE
 70
     6
  9
$SURFU
 70
     6
  9
$SURFV
 70
     6
  9
$UCSBASE
  2

  9
$UCSNAME
  2

  9
$UCSORG
 10
0.0
 20
0.0
 30
0.0
  9
$UCSXDIR
 10
1.0
 20
0.0
 30
0.0
  9
$UCSYDIR
 10
0.0
 20
1.0
 30
0.0
  9
$UCSORTHOREF
  2

  9
$UCSORTHOVIEW
 70
     0
  9
$UCSORGTOP
 10
0.0
 20
0.0
 30
0.0
  9
$UCSORGBOTTOM
 10
0.0
 20
0.0
 30
0.0
  9
$UCSORGLEFT
 10
0.0
 20
0.0
 30
0.0
  9
$UCSORGRIGHT
 10
0.0
 20
0.0
 30
0.0
  9
$UCSORGFRONT
 10
0.0
 20
0.0
 30
0.0
  9
$UCSORGBACK
 10
0.0
 20
0.0
 30
0.0
  9
$PUCSBASE
  2

  9
$PUCSNAME
  2

  9
$PUCSORG
 10
0.0
 20
0.0
 30
0.0
  9
$PUCSXDIR
 10
1.0
 20
0.0
 30
0.0
  9
$PUCSYDIR
 10
0.0
 20
1.0
 30
0.0
  9
$PUCSORTHOREF
  2

  9
$PUCSORTHOVIEW
 70
     0
  9
$PUCSORGTOP
 10
0.0
 20
0.0
 30
0.0
  9
$PUCSORGBOTTOM
 10
0.0
 20
0.0
 30
0.0
  9
$PUCSORGLEFT
 10
0.0
 20
0.0
 30
0.0
  9
$PUCSORGRIGHT
 10
0.0
 20
0.0
 30
0.0
  9
$PUCSORGFRONT
 10
0.0
 20
0.0
 30
0.0
  9
$PUCSORGBACK
 10
0.0
 20
0.0
 30
0.0
  9
$USERI1
 70
     0
  9
$USERI2
 70
     0
  9
$USERI3
 70
     0
  9
$USERI4
 70
     0
  9
$USERI5
 70
     0
  9
$USERR1
 40
0.0
  9
$USERR2
 40
0.0
  9
$USERR3
 40
0.0
  9
$USERR4
 40
0.0
  9
$USERR5
 40
0.0
  9
$WORLDVIEW
 70
     1
  9
$SHADEDGE
 70
     3
  9
$SHADEDIF
 70
    70
  9
$TILEMODE
 70
     1
  9
$MAXACTVP
 70
    64
  9
$PINSBASE
 10
0.0
 20
0.0
 30
0.0
  9
$PLIMCHECK
 70
     0
  9
$PEXTMIN
 10
0.0
 20
0.0
 30
0.0
  9
$PEXTMAX
 10
0.0
 20
0.0
 30
0.0
  9
$PLIMMIN
 10
-7.5
 20
-20.0
  9
$PLIMMAX
 10
412.5
 20
277.0
  9
$UNITMODE
 70
     0
  9
$VISRETAIN
 70
     0
  9
$PLINEGEN
 70
     1
  9
$PSLTSCALE
 70
     0
  9
$TREEDEPTH
 70
  3020
  9
$CMLSTYLE
  2
Standard
  9
$CMLJUST
 70
     0
  9
$CMLSCALE
 40
1.0
  9
$PROXYGRAPHICS
 70
     0
  9
$MEASUREMENT
 70
     1
  9
$CELWEIGHT
370
    -1
  9
$ENDCAPS
280
     0
  9
$JOINSTYLE
280
     0
  9
$LWDISPLAY
290
     1
  9
$INSUNITS
 70
     4
  9
$HYPERLINKBASE
  1

  9
$STYLESHEET
  1

  9
$XEDIT
290
     1
  9
$CEPSNTYPE
380
     0
  9
$PSTYLEMODE
290
     1
  9
$FINGERPRINTGUID
  2

  9
$VERSIONGUID
  2

  9
$EXTNAMES
290
     1
  9
$PSVPSCALE
 40
0.0
  9
$OLESTARTUP
290
     0
  9
$SORTENTS
280
   127
  9
$INDEXCTL
280
     0
  9
$HIDETEXT
280
     1
  9
$XCLIPFRAME
290
     0
  9
$HALOGAP
280
     0
  9
$OBSCOLOR
 70
   257
  9
$OBSLTYPE
280
     0
  9
$INTERSECTIONDISPLAY
280
     0
  9
$INTERSECTIONCOLOR
 70
   257
  9
$DIMASSOC
280
     2
  9
$PROJECTNAME
  1

  9
$CAMERADISPLAY
290
     0
  9
$LENSLENGTH
 40
50.0
  9
$CAMERAHEIGHT
 40
0.0
  9
$STEPSPERSEC
 40
2.0
  9
$STEPSIZE
 40
6.0
  9
$3DDWFPREC
 40
2.0
  9
$PSOLWIDTH
 40
0.25
  9
$PSOLHEIGHT
 40
4.0
  9
$LOFTANG1
 40
1.570796326794897
  9
$LOFTANG2
 40
1.570796326794897
  9
$LOFTMAG1
 40
0.0
  9
$LOFTMAG2
 40
0.0
  9
$LOFTPARAM
 70
     7
  9
$LOFTNORMALS
280
     1
  9
$LATITUDE
 40
37.795
  9
$LONGITUDE
 40
-122.394
  9
$NORTHDIRECTION
 40
0.0
  9
$TIMEZONE
 70
 -8000
  9
$LIGHTGLYPHDISPLAY
280
     1
  9
$TILEMODELIGHTSYNCH
280
     1
  9
$SOLIDHIST
280
     1
  9
$SHOWHIST
280
     1
  9
$DWFFRAME
280
     2
  9
$DGNFRAME
280
     2
  9
$REALWORLDSCALE
290
     1
  9
$INTERFERECOLOR
 62
   256
  9
$CSHADOW
280
     0
  9
$SHADOWPLANELOCATION
 40
0.0
  0
ENDSEC
  0
SECTION
  2
CLASSES
  0
CLASS
  1
LWPOLYLINE
  2
AcDbPolyline
  3
ObjectDBX Classes
 90
        0
 91
        1
280
     0
281
     1
  0
CLASS
  1
IMAGE
  2
AcDbRasterImage
  3
ISM
 90
      127
 91
        5
280
     0
281
     1
  0
CLASS
  1
OLE2FRAME
  2
AcDbOle2Frame
  3
ObjectDBX Classes
 90
        0
 91
        1
280
     0
281
     1
  0
CLASS
  1
HATCH
  2
AcDbHatch
  3
ObjectDBX Classes
 90
        0
 91
        1
280
     0
281
     1
  0
CLASS
  1
DICTIONARYVAR
  2
AcDbDictionaryVar
  3
ObjectDBX Classes
 90
        0
 91
        4
280
     0
281
     0
  0
CLASS
  1
RASTERVARIABLES
  2
AcDbRasterVariables
  3
ISM
 90
        0
 91
        4
280
     0
281
     0
  0
CLASS
  1
IMAGEDEF
  2
AcDbRasterImageDef
  3
ISM
 90
        0
 91
        4
280
     0
281
     0
  0
CLASS
  1
IMAGEDEF_REACTOR
  2
AcDbRasterImageDefReactor
  3
ISM
 90
        1
 91
        4
280
     0
281
     0
  0
CLASS
  1
IDBUFFER
  2
AcDbIdBuffer
  3
ObjectDBX Classes
 90
        0
 91
        4
280
     0
281
     0
  0
CLASS
  1
SPATIAL_FILTER
  2
AcDbSpatialFilter
  3
ObjectDBX Classes
 90
        0
 91
        4
280
     0
281
     0
  0
CLASS
  1
XRECORD
  2
AcDbXrecord
  3
ObjectDBX Classes
 90
        0
 91
        1
280
     0
281
     0
  0
CLASS
  1
SORTENTSTABLE
  2
AcDbSortentsTable
  3
ObjectDBX Classes
 90
        0
 91
        4
280
     0
281
     0
  0
CLASS
  1
LAYER_INDEX
  2
AcDbLayerIndex
  3
ObjectDBX Classes
 90
        0
 91
        4
280
     0
281
     0
  0
CLASS
  1
SPATIAL_INDEX
  2
AcDbSpatialIndex
  3
AutoCAD 2000
 90
        0
 91
        4
280
     0
281
     0
  0
CLASS
  1
OBJECT_PTR
  2
CAseDLPNTableRecord
  3
ASE-LPNTableRecord
 90
        1
 91
        4
280
     0
281
     0
  0
CLASS
  1
LAYOUT
  2
AcDbLayout
  3
ObjectDBX Classes
 90
        0
 91
        1
280
     0
281
     0
  0
CLASS
  1
PLOTSETTINGS
  2
AcDbPlotSettings
  3
ObjectDBX Classes
 90
        0
 91
        4
280
     0
281
     0
  0
CLASS
  1
ACDBDICTIONARYWDFLT
  2
AcDbDictionaryWithDefault
  3
ObjectDBX Classes
 90
        0
 91
        4
280
     0
281
     0
  0
CLASS
  1
ACDBPLACEHOLDER
  2
AcDbPlaceHolder
  3
ObjectDBX Classes
 90
        0
 91
        1
280
     0
281
     0
  0
CLASS
  1
SCALE
  2
AcDbScale
  3
ObjectDBX Classes
 90
     1153
 91
        4
280
     0
281
     0
  0
CLASS
  1
MATERIAL
  2
AcDbMaterial
  3
ObjectDBX Classes
 90
     1153
 91
        4
280
     0
281
     0
  0
CLASS
  1
VISUALSTYLE
  2
AcDbVisualStyle
  3
ObjectDBX Classes
 90
     4095
 91
        4
280
     0
281
     0
  0
CLASS
  1
TABLESTYLE
  2
AcDbTableStyle
  3
ObjectDBX Classes
 90
     4095
 91
        4
280
     0
281
     0
  0
CLASS
  1
DIMASSOC
  2
AcDbDimAssoc
  3
"AcDbDimAssoc|Product Desc:     AcDim ARX App For Dimension|Company:          Autodesk, Inc.|WEB Address:      www.autodesk.com"
 90
        0
 91
        4
280
     0
281
     0
  0
CLASS
  1
CELLSTYLEMAP
  2
AcDbCellStyleMap
  3
ObjectDBX Classes
 90
     1152
 91
        4
280
     0
281
     0
  0
CLASS
  1
SUN
  2
AcDbSun
  3
SCENEOE
 90
     1153
 91
        4
280
     0
281
     0
  0
CLASS
  1
MLEADERSTYLE
  2
AcDbMLeaderStyle
  3
ACDB_MLEADERSTYLE_CLASS
 90
     4095
 91
        4
280
     0
281
     0
  0
CLASS
  1
FIELD
  2
AcDbField
  3
ObjectDBX Classes
 90
     1152
 91
        4
280
     0
281
     0
  0
CLASS
  1
FIELDLIST
  2
AcDbFieldList
  3
ObjectDBX Classes
 90
     1152
 91
        4
280
     0
281
     0
  0
CLASS
  1
ACDB_ALDIMOBJECTCONTEXTDATA_CLASS
  2
AcDbAlignedDimensionObjectContextData
  3
ObjectDBX Classes
 90
     1153
 91
        4
280
     0
281
     0
  0
ENDSEC
  0
SECTION
  2
TABLES
  0
TABLE
  2
VPORT
  5
7
330
0
100
AcDbSymbolTable
 70
     1
  0
VPORT
  5
15
330
7
100
AcDbSymbolTableRecord
100
AcDbViewportTableRecord
  2
*ACTIVE
 70
     0
 10
0.0
 20
0.0
 11
1.0
 21
1.0
 12
672.9525617540357
 22
1782.612370234524
 13
0.0
 23
0.0
 14
1.0
 24
1.0
 15
0.0
 25
0.0
 16
0.0
 26
0.0
 36
1.0
 17
377.0474382459643
 27
-297.6123702345237
 37
0.0
 40
3029.4
 41
2.310294117647059
 42
50.0
 43
0.0
 44
0.0
 50
0.0
 51
0.0
 71
    16
 72
  2000
 73
     1
 74
     1
 75
     0
 76
     0
 77
     0
 78
     0
281
     0
 65
     1
110
0.0
120
0.0
130
0.0
111
1.0
121
0.0
131
0.0
112
0.0
122
1.0
132
0.0
 79
     0
146
0.0
348
26C
 60
     3
 61
     5
292
     1
282
     1
141
0.0
142
0.0
 63
   256
361
8C2
  0
ENDTAB
  0
TABLE
  2
LTYPE
  5
4
330
0
100
AcDbSymbolTable
 70
     3
  0
LTYPE
  5
11
330
4
100
AcDbSymbolTableRecord
100
AcDbLinetypeTableRecord
  2
ByBlock
 70
     0
  3

 72
    65
 73
     0
 40
0.0
  0
LTYPE
  5
12
330
4
100
AcDbSymbolTableRecord
100
AcDbLinetypeTableRecord
  2
ByLayer
 70
     0
  3

 72
    65
 73
     0
 40
0.0
  0
LTYPE
  5
13
330
4
100
AcDbSymbolTableRecord
100
AcDbLinetypeTableRecord
  2
Continuous
 70
     0
  3
Solid line
 72
    65
 73
     0
 40
0.0
  0
LTYPE
  5
8D4
330
4
100
AcDbSymbolTableRecord
100
AcDbLinetypeTableRecord
  2
HIDDEN
 70
     0
  3
Hidden _ _ _ _ _ _ _ _ _ _ _ _ _ _ _ _ _ _ _ _ 
 72
    65
 73
     2
 40
9.524999999999999
 49
6.35
 74
     0
 49
-3.175
 74
     0
  0
LTYPE
  5
BF2
330
4
100
AcDbSymbolTableRecord
100
AcDbLinetypeTableRecord
  2
BORDER
 70
     0
  3
Border __  __  . __  __  . __  __  . __  __  . 
 72
    65
 73
     6
 40
44.45
 49
12.7
 74
     0
 49
-6.35
 74
     0
 49
12.7
 74
     0
 49
-6.35
 74
     0
 49
0.0
 74
     0
 49
-6.35
 74
     0
  0
ENDTAB
  0
TABLE
  2
LAYER
  5
2
102
{ACAD_XDICTIONARY
360
2E1
102
}
330
0
100
AcDbSymbolTable
 70
     8
  0
LAYER
  5
14
330
2
100
AcDbSymbolTableRecord
100
AcDbLayerTableRecord
  2
0
 70
     0
 62
     7
  6
Continuous
370
    -3
390
1D
347
266
  0
LAYER
  5
4A
330
2
100
AcDbSymbolTableRecord
100
AcDbLayerTableRecord
  2
Defpoints
 70
     0
 62
     7
  6
Continuous
290
     0
370
    20
390
1D
347
266
  0
LAYER
  5
4B
330
2
100
AcDbSymbolTableRecord
100
AcDbLayerTableRecord
  2
template
 70
     0
 62
     7
  6
Continuous
370
    20
390
1D
347
266
  0
LAYER
  5
4D
330
2
100
AcDbSymbolTableRecord
100
AcDbLayerTableRecord
  2
MODEL
 70
     0
 62
     7
  6
Continuous
370
    20
390
1D
347
266
  0
LAYER
  5
382
330
2
100
AcDbSymbolTableRecord
100
AcDbLayerTableRecord
  2
レイヤー 1
 70
     0
 62
     7
  6
Continuous
370
    -3
390
1D
347
266
  0
LAYER
  5
5C4
330
2
100
AcDbSymbolTableRecord
100
AcDbLayerTableRecord
  2
HIDDEN
 70
     0
 62
   253
  6
HIDDEN
370
    20
390
1D
347
266
1001
AcAecLayerStandard
1000

1000

  0
LAYER
  5
5EB
330
2
100
AcDbSymbolTableRecord
100
AcDbLayerTableRecord
  2
Dim
 70
     0
 62
     3
  6
Continuous
370
    13
390
1D
347
266
1001
AcAecLayerStandard
1000

1000

  0
LAYER
  5
BF1
330
2
100
AcDbSymbolTableRecord
100
AcDbLayerTableRecord
  2
PRINT BORDER
 70
     0
 62
     4
  6
BORDER
290
     0
370
    20
390
1D
347
266
1001
AcAecLayerStandard
1000

1000

  0
ENDTAB
  0
TABLE
  2
STYLE
  5
3
330
0
100
AcDbSymbolTable
 70
     2
  0
STYLE
  5
17
330
3
100
AcDbSymbolTableRecord
100
AcDbTextStyleTableRecord
  2
Standard
 70
     0
 40
0.0
 41
1.0
 50
0.0
 71
     0
 42
533.0403732820173
  3
txt
  4
BIGFONT.SHX
  0
STYLE
  5
39
330
3
100
AcDbSymbolTableRecord
100
AcDbTextStyleTableRecord
  2
ＭＳ ゴシック
 70
     0
 40
0.0
 41
1.0
 50
0.0
 71
     0
 42
533.0403732820173
  3
msgothic.ttc
  4
ＭＳ ゴシック
1001
ACAD
1000
ＭＳ ゴシック
1071
        0
  0
ENDTAB
  0
TABLE
  2
VIEW
  5
5
330
0
100
AcDbSymbolTable
 70
     0
  0
ENDTAB
  0
TABLE
  2
UCS
  5
6
330
0
100
AcDbSymbolTable
 70
     0
  0
ENDTAB
  0
TABLE
  2
APPID
  5
8
330
0
100
AcDbSymbolTable
 70
    13
  0
APPID
  5
16
330
8
100
AcDbSymbolTableRecord
100
AcDbRegAppTableRecord
  2
ACAD
 70
     0
  0
APPID
  5
5C5
330
8
100
AcDbSymbolTableRecord
100
AcDbRegAppTableRecord
  2
AcAecLayerStandard
 70
     0
  0
APPID
  5
913
330
8
100
AcDbSymbolTableRecord
100
AcDbRegAppTableRecord
  2
ACAD_DSTYLE_DIMBREAK
 70
     0
  0
APPID
  5
914
330
8
100
AcDbSymbolTableRecord
100
AcDbRegAppTableRecord
  2
ACAD_DSTYLE_DIMJAG
 70
     0
  0
APPID
  5
915
330
8
100
AcDbSymbolTableRecord
100
AcDbRegAppTableRecord
  2
ACAD_DSTYLE_DIMTALN
 70
     0
  0
APPID
  5
E4F
330
8
100
AcDbSymbolTableRecord
100
AcDbRegAppTableRecord
  2
ACAD_MLEADERVER
 70
     0
  0
APPID
  5
E79
330
8
100
AcDbSymbolTableRecord
100
AcDbRegAppTableRecord
  2
ACAD_PSEXT
 70
     0
  0
APPID
  5
E7A
330
8
100
AcDbSymbolTableRecord
100
AcDbRegAppTableRecord
  2
ACAD_NAV_VCDISPLAY
 70
     0
  0
APPID
  5
166E
330
8
100
AcDbSymbolTableRecord
100
AcDbRegAppTableRecord
  2
AcadAnnotative
 70
     0
  0
APPID
  5
166F
330
8
100
AcDbSymbolTableRecord
100
AcDbRegAppTableRecord
  2
GradientColor1ACI
 70
     0
  0
APPID
  5
1670
330
8
100
AcDbSymbolTableRecord
100
AcDbRegAppTableRecord
  2
GradientColor2ACI
 70
     0
  0
APPID
  5
20FE
330
8
100
AcDbSymbolTableRecord
100
AcDbRegAppTableRecord
  2
AcLayerTools
 70
     0
  0
APPID
  5
27AB
330
8
100
AcDbSymbolTableRecord
100
AcDbRegAppTableRecord
  2
ACAD_DSTYLE_DIMRADIAL_EXTENSION
 70
     0
  0
ENDTAB
  0
TABLE
  2
DIMSTYLE
  5
9
330
0
100
AcDbSymbolTable
 70
     2
100
AcDbDimStyleTable
  0
DIMSTYLE
105
18
330
9
100
AcDbSymbolTableRecord
100
AcDbDimStyleTableRecord
  2
Standard
 70
     0
178
     0
340
17
  0
DIMSTYLE
105
56
102
{ACAD_REACTORS
330
7F34
330
7F5A
330
7F79
330
7F9E
330
7FAF
102
}
330
9
100
AcDbSymbolTableRecord
100
AcDbDimStyleTableRecord
  2
tform線あり
 70
     0
  3
<>
  4
[]
 41
9.999389648437498
 42
25.0
 43
0.9999999999999999
 44
0.0
 73
     0
 74
     0
 77
     1
 78
    11
140
24.4326171875
141
0.0
143
1.0
146
0.8
147
10.0
171
     1
172
     1
174
     1
178
     0
179
     2
271
     1
272
     1
276
     2
284
    11
285
    11
286
    11
289
     0
340
39
341
4E
342
4E
  0
ENDTAB
  0
TABLE
  2
BLOCK_RECORD
  5
1
330
0
100
AcDbSymbolTable
 70
    12
  0
BLOCK_RECORD
  5
A
102
{ACAD_XDICTIONARY
360
3C24
102
}
330
1
100
AcDbSymbolTableRecord
100
AcDbBlockTableRecord
  2
*MODEL_SPACE
340
20
 70
     0
280
     1
281
     0
  0
BLOCK_RECORD
  5
B
330
1
100
AcDbSymbolTableRecord
100
AcDbBlockTableRecord
  2
*PAPER_SPACE
340
21
 70
     0
280
     1
281
     0
  0
BLOCK_RECORD
  5
4E
330
1
100
AcDbSymbolTableRecord
100
AcDbBlockTableRecord
  2
_DOT
340
0
102
{BLKREFS
331
7F3D
331
7F3E
331
7F61
331
7F62
331
7F85
331
7F86
331
7FA6
331
7FA7
331
7FB6
331
7FB7
102
}
 70
     0
280
     1
281
     0
  0
BLOCK_RECORD
  5
3A5
330
1
100
AcDbSymbolTableRecord
100
AcDbBlockTableRecord
  2
名称未設定-1
340
0
102
{BLKREFS
331
3D0
102
}
 70
     1
280
     1
281
     0
  0
BLOCK_RECORD
  5
3A8
330
1
100
AcDbSymbolTableRecord
100
AcDbBlockTableRecord
  2
block 2
340
0
102
{BLKREFS
331
3A7
102
}
 70
     0
280
     1
281
     0
  0
BLOCK_RECORD
  5
3AB
330
1
100
AcDbSymbolTableRecord
100
AcDbBlockTableRecord
  2
block 3
340
0
102
{BLKREFS
331
3AA
102
}
 70
     0
280
     1
281
     0
  0
BLOCK_RECORD
  5
3AE
330
1
100
AcDbSymbolTableRecord
100
AcDbBlockTableRecord
  2
block 4
340
0
102
{BLKREFS
331
3AD
102
}
 70
     0
280
     1
281
     0
  0
BLOCK_RECORD
  5
3BD
330
1
100
AcDbSymbolTableRecord
100
AcDbBlockTableRecord
  2
block 5
340
0
102
{BLKREFS
331
3BC
102
}
 70
     0
280
     1
281
     0
  0
BLOCK_RECORD
  5
11F0
330
1
100
AcDbSymbolTableRecord
100
AcDbBlockTableRecord
  2
BLOCK_2
340
0
102
{BLKREFS
331
1273
331
127B
331
127C
102
}
 70
     0
280
     1
281
     0
  0
BLOCK_RECORD
  5
7F37
330
1
100
AcDbSymbolTableRecord
100
AcDbBlockTableRecord
  2
*D7
340
0
 70
     0
280
     1
281
     0
  0
BLOCK_RECORD
  5
7F5B
330
1
100
AcDbSymbolTableRecord
100
AcDbBlockTableRecord
  2
*D8
340
0
 70
     0
280
     1
281
     0
  0
BLOCK_RECORD
  5
7F7F
330
1
100
AcDbSymbolTableRecord
100
AcDbBlockTableRecord
  2
*D9
340
0
 70
     0
280
     1
281
     0
  0
BLOCK_RECORD
  5
7FA0
330
1
100
AcDbSymbolTableRecord
100
AcDbBlockTableRecord
  2
*D10
340
0
 70
     0
280
     1
281
     0
  0
BLOCK_RECORD
  5
7FB0
330
1
100
AcDbSymbolTableRecord
100
AcDbBlockTableRecord
  2
*D11
340
0
 70
     0
280
     1
281
     0
  0
ENDTAB
  0
ENDSEC
  0
SECTION
  2
BLOCKS
  0
BLOCK
  5
D
330
A
100
AcDbEntity
  8
0
390
1D
100
AcDbBlockBegin
  2
*MODEL_SPACE
 70
     0
 10
0.0
 20
0.0
 30
0.0
  3
*MODEL_SPACE
  1
*MODEL_SPACE
  0
ENDBLK
  5
E
330
A
100
AcDbEntity
  8
0
390
1D
100
AcDbBlockEnd
  0
BLOCK
  5
F
330
B
100
AcDbEntity
 67
     1
  8
0
390
1D
100
AcDbBlockBegin
  2
*PAPER_SPACE
 70
     0
 10
0.0
 20
0.0
 30
0.0
  3
*PAPER_SPACE
  1
*PAPER_SPACE
  0
ENDBLK
  5
10
330
B
100
AcDbEntity
 67
     1
  8
0
390
1D
100
AcDbBlockEnd
  0
BLOCK
  5
2C14
330
4E
100
AcDbEntity
  8
0
390
1D
100
AcDbBlockBegin
  2
_DOT
 70
     0
 10
0.0
 20
0.0
 30
0.0
  3
_DOT
  1
_DOT
  0
POLYLINE
  5
2C16
330
4E
100
AcDbEntity
  8
0
  6
ByBlock
 62
     0
370
    -2
390
1D
100
AcDb2dPolyline
 66
     1
 10
0.0
 20
0.0
 30
0.0
 70
     1
 40
0.5
 41
0.5
  0
VERTEX
  5
2C17
330
2C16
100
AcDbEntity
  8
0
  6
ByBlock
 62
     0
370
    -2
390
1D
100
AcDbVertex
100
AcDb2dVertex
 10
-0.25
 20
0.0
 30
0.0
 42
1.0
  0
VERTEX
  5
2C18
330
2C16
100
AcDbEntity
  8
0
  6
ByBlock
 62
     0
370
    -2
390
1D
100
AcDbVertex
100
AcDb2dVertex
 10
0.25
 20
0.0
 30
0.0
 42
1.0
  0
SEQEND
  5
2C19
330
2C16
100
AcDbEntity
  8
0
390
1D
  0
LINE
  5
2C1A
330
4E
100
AcDbEntity
  8
0
  6
ByBlock
 62
     0
370
    -2
390
1D
100
AcDbLine
 10
-0.5
 20
0.0
 30
0.0
 11
-1.0
 21
0.0
 31
0.0
  0
ENDBLK
  5
2C1B
330
4E
100
AcDbEntity
  8
0
390
1D
100
AcDbBlockEnd
  0
BLOCK
  5
3A6
330
3A5
100
AcDbEntity
  8
0
100
AcDbBlockBegin
  2
名称未設定-1
 70
     0
 10
0.0
 20
0.0
 30
0.0
  3
名称未設定-1
  1
名称未設定-1
  0
INSERT
  5
3A7
330
3A5
100
AcDbEntity
  8
レイヤー 1
100
AcDbBlockReference
  2
block 2
 10
0.0
 20
0.0
 30
0.0
  0
ENDBLK
  5
3CC
330
3A5
100
AcDbEntity
  8
0
100
AcDbBlockEnd
  0
BLOCK
  5
3A9
330
3A8
100
AcDbEntity
  8
0
100
AcDbBlockBegin
  2
block 2
 70
     0
 10
0.0
 20
0.0
 30
0.0
  3
block 2
  1
block 2
  0
INSERT
  5
3AA
330
3A8
100
AcDbEntity
  8
レイヤー 1
100
AcDbBlockReference
  2
block 3
 10
0.0
 20
0.0
 30
0.0
  0
ENDBLK
  5
3CB
330
3A8
100
AcDbEntity
  8
0
100
AcDbBlockEnd
  0
BLOCK
  5
3AC
330
3AB
100
AcDbEntity
  8
0
100
AcDbBlockBegin
  2
block 3
 70
     0
 10
0.0
 20
0.0
 30
0.0
  3
block 3
  1
block 3
  0
INSERT
  5
3AD
330
3AB
100
AcDbEntity
  8
レイヤー 1
100
AcDbBlockReference
  2
block 4
 10
0.0
 20
0.0
 30
0.0
  0
ENDBLK
  5
3CA
330
3AB
100
AcDbEntity
  8
0
100
AcDbBlockEnd
  0
BLOCK
  5
3AF
330
3AE
100
AcDbEntity
  8
0
100
AcDbBlockBegin
  2
block 4
 70
     0
 10
0.0
 20
0.0
 30
0.0
  3
block 4
  1
block 4
  0
POLYLINE
  5
3B0
330
3AE
100
AcDbEntity
  8
レイヤー 1
370
     0
100
AcDb2dPolyline
 66
     1
 10
0.0
 20
0.0
 30
0.0
  0
VERTEX
  5
3B1
330
3B0
100
AcDbEntity
  8
レイヤー 1
370
     0
100
AcDbVertex
100
AcDb2dVertex
 10
83.79545727667795
 20
167.6444858234922
 30
0.0
  0
VERTEX
  5
3B2
330
3B0
100
AcDbEntity
  8
レイヤー 1
370
     0
100
AcDbVertex
100
AcDb2dVertex
 10
83.79545727667795
 20
159.7968976406313
 30
0.0
  0
VERTEX
  5
3B3
330
3B0
100
AcDbEntity
  8
レイヤー 1
370
     0
100
AcDbVertex
100
AcDb2dVertex
 10
71.3631329975216
 20
159.7968976406313
 30
0.0
  0
VERTEX
  5
3B4
330
3B0
100
AcDbEntity
  8
レイヤー 1
370
     0
100
AcDbVertex
100
AcDb2dVertex
 10
71.3631329975216
 20
127.8027915271048
 30
0.0
  0
VERTEX
  5
3B5
330
3B0
100
AcDbEntity
  8
レイヤー 1
370
     0
100
AcDbVertex
100
AcDb2dVertex
 10
60.43011526263018
 20
127.8027915271048
 30
0.0
  0
VERTEX
  5
3B6
330
3B0
100
AcDbEntity
  8
レイヤー 1
370
     0
100
AcDbVertex
100
AcDb2dVertex
 10
60.43011526263018
 20
159.7968976406313
 30
0.0
  0
VERTEX
  5
3B7
330
3B0
100
AcDbEntity
  8
レイヤー 1
370
     0
100
AcDbVertex
100
AcDb2dVertex
 10
48.21793273020759
 20
159.7968976406313
 30
0.0
  0
VERTEX
  5
3B8
330
3B0
100
AcDbEntity
  8
レイヤー 1
370
     0
100
AcDbVertex
100
AcDb2dVertex
 10
48.21793273020759
 20
167.6444858234922
 30
0.0
  0
VERTEX
  5
3B9
330
3B0
100
AcDbEntity
  8
レイヤー 1
370
     0
100
AcDbVertex
100
AcDb2dVertex
 10
83.79545727667795
 20
167.6444858234922
 30
0.0
  0
SEQEND
  5
3BA
330
3B0
100
AcDbEntity
  8
レイヤー 1
370
     0
  0
HATCH
  5
3BB
330
3AE
100
AcDbEntity
  8
レイヤー 1
 62
   250
420
  2234388
100
AcDbHatch
 10
0.0
 20
0.0
 30
0.0
210
0.0
220
0.0
230
1.0
  2
SOLID
 70
     1
 71
     0
 91
        1
 92
        1
 93
        8
 72
     1
 10
83.79545727667795
 20
167.6444858234922
 11
83.79545727667795
 21
159.7968976406313
 72
     1
 10
83.79545727667795
 20
159.7968976406313
 11
71.3631329975216
 21
159.7968976406313
 72
     1
 10
71.3631329975216
 20
159.7968976406313
 11
71.3631329975216
 21
127.8027915271048
 72
     1
 10
71.3631329975216
 20
127.8027915271048
 11
60.43011526263018
 21
127.8027915271048
 72
     1
 10
60.43011526263018
 20
127.8027915271048
 11
60.43011526263018
 21
159.7968976406313
 72
     1
 10
60.43011526263018
 20
159.7968976406313
 11
48.21793273020759
 21
159.7968976406313
 72
     1
 10
48.21793273020759
 20
159.7968976406313
 11
48.21793273020759
 21
167.6444858234922
 72
     1
 10
48.21793273020759
 20
167.6444858234922
 11
83.79545727667795
 21
167.6444858234922
 97
        0
 75
     2
 76
     1
 98
        0
  0
INSERT
  5
3BC
330
3AE
100
AcDbEntity
  8
レイヤー 1
100
AcDbBlockReference
  2
block 5
 10
0.0
 20
0.0
 30
0.0
  0
ENDBLK
  5
3C9
330
3AE
100
AcDbEntity
  8
0
100
AcDbBlockEnd
  0
BLOCK
  5
3BE
330
3BD
100
AcDbEntity
  8
0
100
AcDbBlockBegin
  2
block 5
 70
     0
 10
0.0
 20
0.0
 30
0.0
  3
block 5
  1
block 5
  0
SPLINE
  5
3BF
330
3BD
100
AcDbEntity
  8
レイヤー 1
370
     0
100
AcDbSpline
210
0.0
220
0.0
230
1.0
 70
    11
 71
     3
 72
    56
 73
    52
 74
     0
 42
0.000000001
 43
0.0000000001
 40
0.0
 40
0.0
 40
0.0
 40
0.0
 40
1.0
 40
1.0
 40
1.0
 40
2.0
 40
2.0
 40
2.0
 40
3.0
 40
3.0
 40
3.0
 40
4.0
 40
4.0
 40
4.0
 40
5.0
 40
5.0
 40
5.0
 40
6.0
 40
6.0
 40
6.0
 40
7.0
 40
7.0
 40
7.0
 40
8.0
 40
8.0
 40
8.0
 40
9.0
 40
9.0
 40
9.0
 40
10.0
 40
10.0
 40
10.0
 40
11.0
 40
11.0
 40
11.0
 40
12.0
 40
12.0
 40
12.0
 40
13.0
 40
13.0
 40
13.0
 40
14.0
 40
14.0
 40
14.0
 40
15.0
 40
15.0
 40
15.0
 40
16.0
 40
16.0
 40
16.0
 40
17.0
 40
17.0
 40
17.0
 40
17.0
 10
100.4504378777679
 20
166.69157178364
 30
0.0
 10
101.9848844191641
 20
167.1313385124438
 30
0.0
 10
103.9637485713373
 20
166.7649523658846
 30
0.0
 10
103.9637485713373
 20
166.7649523658846
 30
0.0
 10
103.9637485713373
 20
166.7649523658846
 30
0.0
 10
103.0132460999156
 20
163.911205638077
 30
0.0
 10
103.0132460999156
 20
163.911205638077
 30
0.0
 10
103.0132460999156
 20
163.911205638077
 30
0.0
 10
101.0674548862189
 20
164.3601018759394
 30
0.0
 10
99.57090442016032
 20
163.1805004036133
 30
0.0
 10
98.40508333886608
 20
162.258247733807
 30
0.0
 10
97.65301849830304
 20
159.804132345923
 30
0.0
 10
97.3598406791005
 20
158.8699940888517
 30
0.0
 10
97.3598406791005
 20
158.8699940888517
 30
0.0
 10
96.07137411762282
 20
154.9119212747295
 30
0.0
 10
96.07137411762282
 20
154.9119212747295
 30
0.0
 10
96.07137411762282
 20
154.9119212747295
 30
0.0
 10
100.3012651448482
 20
154.9119212747295
 30
0.0
 10
100.3012651448482
 20
154.9119212747295
 30
0.0
 10
100.3012651448482
 20
154.9119212747295
 30
0.0
 10
99.64152892419852
 20
152.4199098115079
 30
0.0
 10
99.64152892419852
 20
152.4199098115079
 30
0.0
 10
99.64152892419852
 20
152.4199098115079
 30
0.0
 10
95.38097652692731
 20
152.4199098115079
 30
0.0
 10
95.38097652692731
 20
152.4199098115079
 30
0.0
 10
95.38097652692731
 20
152.4199098115079
 30
0.0
 10
87.75353009080013
 20
127.8027915271048
 30
0.0
 10
87.75353009080013
 20
127.8027915271048
 30
0.0
 10
87.75353009080013
 20
127.8027915271048
 30
0.0
 10
85.36538832498108
 20
127.8027915271048
 30
0.0
 10
85.36538832498108
 20
127.8027915271048
 30
0.0
 10
85.36538832498108
 20
127.8027915271048
 30
0.0
 10
93.00006946639998
 20
152.4199098115079
 30
0.0
 10
93.00006946639998
 20
152.4199098115079
 30
0.0
 10
93.00006946639998
 20
152.4199098115079
 30
0.0
 10
89.85297266450198
 20
152.4199098115079
 30
0.0
 10
89.85297266450198
 20
152.4199098115079
 30
0.0
 10
89.85297266450198
 20
152.4199098115079
 30
0.0
 10
90.51270888515164
 20
154.9119212747295
 30
0.0
 10
90.51270888515164
 20
154.9119212747295
 30
0.0
 10
90.51270888515164
 20
154.9119212747295
 30
0.0
 10
93.6904670570955
 20
154.9119212747295
 30
0.0
 10
93.6904670570955
 20
154.9119212747295
 30
0.0
 10
93.6904670570955
 20
154.9119212747295
 30
0.0
 10
94.81598049462158
 20
158.3616699146644
 30
0.0
 10
94.81598049462158
 20
158.3616699146644
 30
0.0
 10
95.7237637538445
 20
161.2605474231013
 30
0.0
 10
96.4968436907311
 20
162.8139420021662
 30
0.0
 10
97.15657991138076
 20
163.9844139654337
 30
0.0
 10
97.81183750494507
 20
165.1523021053827
 30
0.0
 10
99.1047826935081
 20
166.3084769129547
 30
0.0
 10
100.4504378777679
 20
166.69157178364
 30
0.0
  0
HATCH
  5
3C0
330
3BD
100
AcDbEntity
  8
レイヤー 1
 62
   250
420
  2234388
100
AcDbHatch
 10
0.0
 20
0.0
 30
0.0
210
0.0
220
0.0
230
1.0
  2
SOLID
 70
     1
 71
     0
 91
        1
 92
        1
 93
        1
 72
     4
 94
        3
 73
     0
 74
     1
 95
       56
 96
       52
 40
0.0
 40
0.0
 40
0.0
 40
0.0
 40
1.0
 40
1.0
 40
1.0
 40
2.0
 40
2.0
 40
2.0
 40
3.0
 40
3.0
 40
3.0
 40
4.0
 40
4.0
 40
4.0
 40
5.0
 40
5.0
 40
5.0
 40
6.0
 40
6.0
 40
6.0
 40
7.0
 40
7.0
 40
7.0
 40
8.0
 40
8.0
 40
8.0
 40
9.0
 40
9.0
 40
9.0
 40
10.0
 40
10.0
 40
10.0
 40
11.0
 40
11.0
 40
11.0
 40
12.0
 40
12.0
 40
12.0
 40
13.0
 40
13.0
 40
13.0
 40
14.0
 40
14.0
 40
14.0
 40
15.0
 40
15.0
 40
15.0
 40
16.0
 40
16.0
 40
16.0
 40
17.0
 40
17.0
 40
17.0
 40
17.0
 10
100.4504378777679
 20
166.69157178364
 10
101.9848844191641
 20
167.1313385124438
 10
103.9637485713373
 20
166.7649523658846
 10
103.9637485713373
 20
166.7649523658846
 10
103.9637485713373
 20
166.7649523658846
 10
103.0132460999156
 20
163.911205638077
 10
103.0132460999156
 20
163.911205638077
 10
103.0132460999156
 20
163.911205638077
 10
101.0674548862189
 20
164.3601018759394
 10
99.57090442016032
 20
163.1805004036133
 10
98.40508333886608
 20
162.258247733807
 10
97.65301849830304
 20
159.804132345923
 10
97.3598406791005
 20
158.8699940888517
 10
97.3598406791005
 20
158.8699940888517
 10
96.07137411762282
 20
154.9119212747295
 10
96.07137411762282
 20
154.9119212747295
 10
96.07137411762282
 20
154.9119212747295
 10
100.3012651448482
 20
154.9119212747295
 10
100.3012651448482
 20
154.9119212747295
 10
100.3012651448482
 20
154.9119212747295
 10
99.64152892419852
 20
152.4199098115079
 10
99.64152892419852
 20
152.4199098115079
 10
99.64152892419852
 20
152.4199098115079
 10
95.38097652692731
 20
152.4199098115079
 10
95.38097652692731
 20
152.4199098115079
 10
95.38097652692731
 20
152.4199098115079
 10
87.75353009080013
 20
127.8027915271048
 10
87.75353009080013
 20
127.8027915271048
 10
87.75353009080013
 20
127.8027915271048
 10
85.36538832498108
 20
127.8027915271048
 10
85.36538832498108
 20
127.8027915271048
 10
85.36538832498108
 20
127.8027915271048
 10
93.00006946639998
 20
152.4199098115079
 10
93.00006946639998
 20
152.4199098115079
 10
93.00006946639998
 20
152.4199098115079
 10
89.85297266450198
 20
152.4199098115079
 10
89.85297266450198
 20
152.4199098115079
 10
89.85297266450198
 20
152.4199098115079
 10
90.51270888515164
 20
154.9119212747295
 10
90.51270888515164
 20
154.9119212747295
 10
90.51270888515164
 20
154.9119212747295
 10
93.6904670570955
 20
154.9119212747295
 10
93.6904670570955
 20
154.9119212747295
 10
93.6904670570955
 20
154.9119212747295
 10
94.81598049462158
 20
158.3616699146644
 10
94.81598049462158
 20
158.3616699146644
 10
95.7237637538445
 20
161.2605474231013
 10
96.4968436907311
 20
162.8139420021662
 10
97.15657991138076
 20
163.9844139654337
 10
97.81183750494507
 20
165.1523021053827
 10
99.1047826935081
 20
166.3084769129547
 10
100.4504378777679
 20
166.69157178364
 97
        0
 75
     2
 76
     1
 98
        0
  0
SPLINE
  5
3C1
330
3BD
100
AcDbEntity
  8
レイヤー 1
370
     0
100
AcDbSpline
210
0.0
220
0.0
230
1.0
 70
    11
 71
     3
 72
    38
 73
    34
 74
     0
 42
0.000000001
 43
0.0000000001
 40
0.0
 40
0.0
 40
0.0
 40
0.0
 40
1.0
 40
1.0
 40
1.0
 40
2.0
 40
2.0
 40
2.0
 40
3.0
 40
3.0
 40
3.0
 40
4.0
 40
4.0
 40
4.0
 40
5.0
 40
5.0
 40
5.0
 40
6.0
 40
6.0
 40
6.0
 40
7.0
 40
7.0
 40
7.0
 40
8.0
 40
8.0
 40
8.0
 40
9.0
 40
9.0
 40
9.0
 40
10.0
 40
10.0
 40
10.0
 40
11.0
 40
11.0
 40
11.0
 40
11.0
 10
126.377554584636
 20
154.8151140277308
 30
0.0
 10
126.377554584636
 20
154.8151140277308
 30
0.0
 10
128.8311532078563
 20
154.8151140277308
 30
0.0
 10
128.8311532078563
 20
154.8151140277308
 30
0.0
 10
128.8311532078563
 20
154.8151140277308
 30
0.0
 10
127.7345785914971
 20
151.3062819612468
 30
0.0
 10
127.7345785914971
 20
151.3062819612468
 30
0.0
 10
128.571392836906
 20
152.2922689395754
 30
0.0
 10
129.8860421413442
 20
153.604506675583
 30
0.0
 10
131.0163787157314
 20
154.2664822097754
 30
0.0
 10
132.7044766171327
 20
155.2500576196734
 30
0.0
 10
133.6642808525008
 20
155.3847609420097
 30
0.0
 10
134.7284715499351
 20
155.3565111403944
 30
0.0
 10
134.7284715499351
 20
155.3565111403944
 30
0.0
 10
133.6877075172549
 20
152.0345756272799
 30
0.0
 10
133.6877075172549
 20
152.0345756272799
 30
0.0
 10
133.011434827367
 20
152.3184516825359
 30
0.0
 10
130.930940291334
 20
151.7768823149844
 30
0.0
 10
129.739280976855
 20
150.9162968950455
 30
0.0
 10
128.66613302525
 20
150.1454562717016
 30
0.0
 10
127.9192358313239
 20
149.4857200510519
 30
0.0
 10
127.0393578639405
 20
147.8282835196966
 30
0.0
 10
126.164647543194
 20
146.1699857139017
 30
0.0
 10
125.4742499524985
 20
143.5262176944419
 30
0.0
 10
124.2822461282437
 20
139.6959580071401
 30
0.0
 10
124.2822461282437
 20
139.6959580071401
 30
0.0
 10
120.5753209406769
 20
127.8027915271048
 30
0.0
 10
120.5753209406769
 20
127.8027915271048
 30
0.0
 10
120.5753209406769
 20
127.8027915271048
 30
0.0
 10
118.1964809388044
 20
127.8027915271048
 30
0.0
 10
118.1964809388044
 20
127.8027915271048
 30
0.0
 10
118.1964809388044
 20
127.8027915271048
 30
0.0
 10
126.377554584636
 20
154.8151140277308
 30
0.0
 10
126.377554584636
 20
154.8151140277308
 30
0.0
  0
HATCH
  5
3C2
330
3BD
100
AcDbEntity
  8
レイヤー 1
 62
   250
420
  2234388
100
AcDbHatch
 10
0.0
 20
0.0
 30
0.0
210
0.0
220
0.0
230
1.0
  2
SOLID
 70
     1
 71
     0
 91
        1
 92
        1
 93
        1
 72
     4
 94
        3
 73
     0
 74
     1
 95
       38
 96
       34
 40
0.0
 40
0.0
 40
0.0
 40
0.0
 40
1.0
 40
1.0
 40
1.0
 40
2.0
 40
2.0
 40
2.0
 40
3.0
 40
3.0
 40
3.0
 40
4.0
 40
4.0
 40
4.0
 40
5.0
 40
5.0
 40
5.0
 40
6.0
 40
6.0
 40
6.0
 40
7.0
 40
7.0
 40
7.0
 40
8.0
 40
8.0
 40
8.0
 40
9.0
 40
9.0
 40
9.0
 40
10.0
 40
10.0
 40
10.0
 40
11.0
 40
11.0
 40
11.0
 40
11.0
 10
126.377554584636
 20
154.8151140277308
 10
126.377554584636
 20
154.8151140277308
 10
128.8311532078563
 20
154.8151140277308
 10
128.8311532078563
 20
154.8151140277308
 10
128.8311532078563
 20
154.8151140277308
 10
127.7345785914971
 20
151.3062819612468
 10
127.7345785914971
 20
151.3062819612468
 10
128.571392836906
 20
152.2922689395754
 10
129.8860421413442
 20
153.604506675583
 10
131.0163787157314
 20
154.2664822097754
 10
132.7044766171327
 20
155.2500576196734
 10
133.6642808525008
 20
155.3847609420097
 10
134.7284715499351
 20
155.3565111403944
 10
134.7284715499351
 20
155.3565111403944
 10
133.6877075172549
 20
152.0345756272799
 10
133.6877075172549
 20
152.0345756272799
 10
133.011434827367
 20
152.3184516825359
 10
130.930940291334
 20
151.7768823149844
 10
129.739280976855
 20
150.9162968950455
 10
128.66613302525
 20
150.1454562717016
 10
127.9192358313239
 20
149.4857200510519
 10
127.0393578639405
 20
147.8282835196966
 10
126.164647543194
 20
146.1699857139017
 10
125.4742499524985
 20
143.5262176944419
 10
124.2822461282437
 20
139.6959580071401
 10
124.2822461282437
 20
139.6959580071401
 10
120.5753209406769
 20
127.8027915271048
 10
120.5753209406769
 20
127.8027915271048
 10
120.5753209406769
 20
127.8027915271048
 10
118.1964809388044
 20
127.8027915271048
 10
118.1964809388044
 20
127.8027915271048
 10
118.1964809388044
 20
127.8027915271048
 10
126.377554584636
 20
154.8151140277308
 10
126.377554584636
 20
154.8151140277308
 97
        0
 75
     2
 76
     1
 98
        0
  0
SPLINE
  5
3C3
330
3BD
100
AcDbEntity
  8
レイヤー 1
370
     0
100
AcDbSpline
210
0.0
220
0.0
230
1.0
 70
    11
 71
     3
 72
   104
 73
   100
 74
     0
 42
0.000000001
 43
0.0000000001
 40
0.0
 40
0.0
 40
0.0
 40
0.0
 40
1.0
 40
1.0
 40
1.0
 40
2.0
 40
2.0
 40
2.0
 40
3.0
 40
3.0
 40
3.0
 40
4.0
 40
4.0
 40
4.0
 40
5.0
 40
5.0
 40
5.0
 40
6.0
 40
6.0
 40
6.0
 40
7.0
 40
7.0
 40
7.0
 40
8.0
 40
8.0
 40
8.0
 40
9.0
 40
9.0
 40
9.0
 40
10.0
 40
10.0
 40
10.0
 40
11.0
 40
11.0
 40
11.0
 40
12.0
 40
12.0
 40
12.0
 40
13.0
 40
13.0
 40
13.0
 40
14.0
 40
14.0
 40
14.0
 40
15.0
 40
15.0
 40
15.0
 40
16.0
 40
16.0
 40
16.0
 40
17.0
 40
17.0
 40
17.0
 40
18.0
 40
18.0
 40
18.0
 40
19.0
 40
19.0
 40
19.0
 40
20.0
 40
20.0
 40
20.0
 40
21.0
 40
21.0
 40
21.0
 40
22.0
 40
22.0
 40
22.0
 40
23.0
 40
23.0
 40
23.0
 40
24.0
 40
24.0
 40
24.0
 40
25.0
 40
25.0
 40
25.0
 40
26.0
 40
26.0
 40
26.0
 40
27.0
 40
27.0
 40
27.0
 40
28.0
 40
28.0
 40
28.0
 40
29.0
 40
29.0
 40
29.0
 40
30.0
 40
30.0
 40
30.0
 40
31.0
 40
31.0
 40
31.0
 40
32.0
 40
32.0
 40
32.0
 40
33.0
 40
33.0
 40
33.0
 40
33.0
 10
139.8926730891197
 20
154.8294111834263
 30
0.0
 10
139.8926730891197
 20
154.8294111834263
 30
0.0
 10
142.0344903652445
 20
154.8294111834263
 30
0.0
 10
142.0344903652445
 20
154.8294111834263
 30
0.0
 10
142.0344903652445
 20
154.8294111834263
 30
0.0
 10
140.9516961399171
 20
151.3157559800812
 30
0.0
 10
140.9516961399171
 20
151.3157559800812
 30
0.0
 10
141.8928968473923
 20
152.7887075264977
 30
0.0
 10
142.7341897198865
 20
153.4484437471474
 30
0.0
 10
143.8552245303272
 20
154.2926649527359
 30
0.0
 10
144.9803934580775
 20
155.1296514530327
 30
0.0
 10
146.3139908001845
 20
155.3044901642492
 30
0.0
 10
147.241066606852
 20
155.3044901642492
 30
0.0
 10
148.3855280820469
 20
155.3044901642492
 30
0.0
 10
149.4969166187653
 20
155.0752189084569
 30
0.0
 10
150.0784491203092
 20
153.8172414621372
 30
0.0
 10
150.5228667310863
 20
152.833838307127
 30
0.0
 10
150.5414702589793
 20
152.7201500811143
 30
0.0
 10
150.4140016419347
 20
150.7765981809602
 30
0.0
 10
151.5818897818837
 20
152.7699317437168
 30
0.0
 10
152.4424752018226
 20
153.6256940267945
 30
0.0
 10
153.9038856707499
 20
154.4507949398263
 30
0.0
 10
155.4455669174378
 20
155.3044901642492
 30
0.0
 10
156.339225275853
 20
155.3659851592288
 30
0.0
 10
157.3748216618963
 20
155.2147453676543
 30
0.0
 10
158.911679771723
 20
154.9877134254046
 30
0.0
 10
159.8859534176746
 20
154.4390816074493
 30
0.0
 10
160.3965169054045
 20
152.7816450760939
 30
0.0
 10
160.9070803931344
 20
151.1219692311958
 30
0.0
 10
160.6328506116007
 20
150.2303779314354
 30
0.0
 10
159.9992971339115
 20
147.597634224801
 30
0.0
 10
159.7105979417943
 20
146.4014962832367
 30
0.0
 10
159.2947746424084
 20
144.9400858143094
 30
0.0
 10
158.7463150793409
 20
143.2092687007094
 30
0.0
 10
158.7463150793409
 20
143.2092687007094
 30
0.0
 10
153.9038856707499
 20
127.8027915271048
 30
0.0
 10
153.9038856707499
 20
127.8027915271048
 30
0.0
 10
153.9038856707499
 20
127.8027915271048
 30
0.0
 10
151.3882752878863
 20
127.8027915271048
 30
0.0
 10
151.3882752878863
 20
127.8027915271048
 30
0.0
 10
151.3882752878863
 20
127.8027915271048
 30
0.0
 10
155.6250565106276
 20
141.2751908193897
 30
0.0
 10
155.6250565106276
 20
141.2751908193897
 30
0.0
 10
156.5094131050963
 20
144.0936252951782
 30
0.0
 10
157.109893644309
 20
146.1506931664571
 30
0.0
 10
157.4220195011804
 20
147.4415712963654
 30
0.0
 10
157.8095929989511
 20
149.0530157726519
 30
0.0
 10
157.9656559273867
 20
149.5826995529385
 30
0.0
 10
157.7816877071116
 20
150.7529992613181
 30
0.0
 10
157.6111553680925
 20
151.8430281919372
 30
0.0
 10
157.0582171779396
 20
152.5547853887321
 30
0.0
 10
156.1170164704645
 20
152.5547853887321
 30
0.0
 10
155.1096698860365
 20
152.5547853887321
 30
0.0
 10
154.2962823053817
 20
152.4412694176073
 30
0.0
 10
153.156643967048
 20
151.2945686288697
 30
0.0
 10
152.0170056287143
 20
150.1476955852443
 30
0.0
 10
151.076149431015
 20
148.7930831468137
 30
0.0
 10
150.3337308641742
 20
147.2290087646991
 30
0.0
 10
149.5957909244188
 20
145.6683794803425
 30
0.0
 10
148.8530278478023
 20
143.6822806228776
 30
0.0
 10
148.0964843801539
 20
141.2751908193897
 30
0.0
 10
148.0964843801539
 20
141.2751908193897
 30
0.0
 10
143.8552245303272
 20
127.8027915271048
 30
0.0
 10
143.8552245303272
 20
127.8027915271048
 30
0.0
 10
143.8552245303272
 20
127.8027915271048
 30
0.0
 10
141.486030802177
 20
127.8027915271048
 30
0.0
 10
141.486030802177
 20
127.8027915271048
 30
0.0
 10
141.486030802177
 20
127.8027915271048
 30
0.0
 10
146.3329388378533
 20
143.2092687007094
 30
0.0
 10
146.3329388378533
 20
143.2092687007094
 30
0.0
 10
146.8483254624444
 20
144.8408669988801
 30
0.0
 10
147.2314203331297
 20
146.1837661049335
 30
0.0
 10
147.4867020769946
 20
147.224185627838
 30
0.0
 10
147.9169947869641
 20
149.0197705792876
 30
0.0
 10
148.0306830129768
 20
150.2400242051577
 30
0.0
 10
147.709255392159
 20
151.3157559800812
 30
0.0
 10
147.3874832615654
 20
152.3916600098926
 30
0.0
 10
146.8245542879144
 20
152.6683013598569
 30
0.0
 10
145.8840425999909
 20
152.6683013598569
 30
0.0
 10
145.0989048209514
 20
152.6683013598569
 30
0.0
 10
144.3282364524954
 20
152.3275811915945
 30
0.0
 10
143.4531816219731
 20
151.6538923250251
 30
0.0
 10
142.34627171234
 20
150.8074318058939
 30
0.0
 10
141.901854101563
 20
150.1097995099067
 30
0.0
 10
141.3578731655808
 20
149.289521733736
 30
0.0
 10
140.6299240093235
 20
148.192602607601
 30
0.0
 10
140.2850697237515
 20
147.455696197173
 30
0.0
 10
139.6652966370942
 20
145.8385673095858
 30
0.0
 10
139.0506911970739
 20
144.2214384219986
 30
0.0
 10
138.463991048893
 20
142.3252566160164
 30
0.0
 10
138.0571250036777
 20
141.0154304484394
 30
0.0
 10
138.0571250036777
 20
141.0154304484394
 30
0.0
 10
133.9009590684727
 20
127.8027915271048
 30
0.0
 10
133.9009590684727
 20
127.8027915271048
 30
0.0
 10
133.9009590684727
 20
127.8027915271048
 30
0.0
 10
131.4180771143097
 20
127.8027915271048
 30
0.0
 10
131.4180771143097
 20
127.8027915271048
 30
0.0
 10
131.4180771143097
 20
127.8027915271048
 30
0.0
 10
139.8926730891197
 20
154.8294111834263
 30
0.0
 10
139.8926730891197
 20
154.8294111834263
 30
0.0
  0
HATCH
  5
3C4
330
3BD
100
AcDbEntity
  8
レイヤー 1
 62
   250
420
  2234388
100
AcDbHatch
 10
0.0
 20
0.0
 30
0.0
210
0.0
220
0.0
230
1.0
  2
SOLID
 70
     1
 71
     0
 91
        1
 92
        1
 93
        1
 72
     4
 94
        3
 73
     0
 74
     1
 95
      104
 96
      100
 40
0.0
 40
0.0
 40
0.0
 40
0.0
 40
1.0
 40
1.0
 40
1.0
 40
2.0
 40
2.0
 40
2.0
 40
3.0
 40
3.0
 40
3.0
 40
4.0
 40
4.0
 40
4.0
 40
5.0
 40
5.0
 40
5.0
 40
6.0
 40
6.0
 40
6.0
 40
7.0
 40
7.0
 40
7.0
 40
8.0
 40
8.0
 40
8.0
 40
9.0
 40
9.0
 40
9.0
 40
10.0
 40
10.0
 40
10.0
 40
11.0
 40
11.0
 40
11.0
 40
12.0
 40
12.0
 40
12.0
 40
13.0
 40
13.0
 40
13.0
 40
14.0
 40
14.0
 40
14.0
 40
15.0
 40
15.0
 40
15.0
 40
16.0
 40
16.0
 40
16.0
 40
17.0
 40
17.0
 40
17.0
 40
18.0
 40
18.0
 40
18.0
 40
19.0
 40
19.0
 40
19.0
 40
20.0
 40
20.0
 40
20.0
 40
21.0
 40
21.0
 40
21.0
 40
22.0
 40
22.0
 40
22.0
 40
23.0
 40
23.0
 40
23.0
 40
24.0
 40
24.0
 40
24.0
 40
25.0
 40
25.0
 40
25.0
 40
26.0
 40
26.0
 40
26.0
 40
27.0
 40
27.0
 40
27.0
 40
28.0
 40
28.0
 40
28.0
 40
29.0
 40
29.0
 40
29.0
 40
30.0
 40
30.0
 40
30.0
 40
31.0
 40
31.0
 40
31.0
 40
32.0
 40
32.0
 40
32.0
 40
33.0
 40
33.0
 40
33.0
 40
33.0
 10
139.8926730891197
 20
154.8294111834263
 10
139.8926730891197
 20
154.8294111834263
 10
142.0344903652445
 20
154.8294111834263
 10
142.0344903652445
 20
154.8294111834263
 10
142.0344903652445
 20
154.8294111834263
 10
140.9516961399171
 20
151.3157559800812
 10
140.9516961399171
 20
151.3157559800812
 10
141.8928968473923
 20
152.7887075264977
 10
142.7341897198865
 20
153.4484437471474
 10
143.8552245303272
 20
154.2926649527359
 10
144.9803934580775
 20
155.1296514530327
 10
146.3139908001845
 20
155.3044901642492
 10
147.241066606852
 20
155.3044901642492
 10
148.3855280820469
 20
155.3044901642492
 10
149.4969166187653
 20
155.0752189084569
 10
150.0784491203092
 20
153.8172414621372
 10
150.5228667310863
 20
152.833838307127
 10
150.5414702589793
 20
152.7201500811143
 10
150.4140016419347
 20
150.7765981809602
 10
151.5818897818837
 20
152.7699317437168
 10
152.4424752018226
 20
153.6256940267945
 10
153.9038856707499
 20
154.4507949398263
 10
155.4455669174378
 20
155.3044901642492
 10
156.339225275853
 20
155.3659851592288
 10
157.3748216618963
 20
155.2147453676543
 10
158.911679771723
 20
154.9877134254046
 10
159.8859534176746
 20
154.4390816074493
 10
160.3965169054045
 20
152.7816450760939
 10
160.9070803931344
 20
151.1219692311958
 10
160.6328506116007
 20
150.2303779314354
 10
159.9992971339115
 20
147.597634224801
 10
159.7105979417943
 20
146.4014962832367
 10
159.2947746424084
 20
144.9400858143094
 10
158.7463150793409
 20
143.2092687007094
 10
158.7463150793409
 20
143.2092687007094
 10
153.9038856707499
 20
127.8027915271048
 10
153.9038856707499
 20
127.8027915271048
 10
153.9038856707499
 20
127.8027915271048
 10
151.3882752878863
 20
127.8027915271048
 10
151.3882752878863
 20
127.8027915271048
 10
151.3882752878863
 20
127.8027915271048
 10
155.6250565106276
 20
141.2751908193897
 10
155.6250565106276
 20
141.2751908193897
 10
156.5094131050963
 20
144.0936252951782
 10
157.109893644309
 20
146.1506931664571
 10
157.4220195011804
 20
147.4415712963654
 10
157.8095929989511
 20
149.0530157726519
 10
157.9656559273867
 20
149.5826995529385
 10
157.7816877071116
 20
150.7529992613181
 10
157.6111553680925
 20
151.8430281919372
 10
157.0582171779396
 20
152.5547853887321
 10
156.1170164704645
 20
152.5547853887321
 10
155.1096698860365
 20
152.5547853887321
 10
154.2962823053817
 20
152.4412694176073
 10
153.156643967048
 20
151.2945686288697
 10
152.0170056287143
 20
150.1476955852443
 10
151.076149431015
 20
148.7930831468137
 10
150.3337308641742
 20
147.2290087646991
 10
149.5957909244188
 20
145.6683794803425
 10
148.8530278478023
 20
143.6822806228776
 10
148.0964843801539
 20
141.2751908193897
 10
148.0964843801539
 20
141.2751908193897
 10
143.8552245303272
 20
127.8027915271048
 10
143.8552245303272
 20
127.8027915271048
 10
143.8552245303272
 20
127.8027915271048
 10
141.486030802177
 20
127.8027915271048
 10
141.486030802177
 20
127.8027915271048
 10
141.486030802177
 20
127.8027915271048
 10
146.3329388378533
 20
143.2092687007094
 10
146.3329388378533
 20
143.2092687007094
 10
146.8483254624444
 20
144.8408669988801
 10
147.2314203331297
 20
146.1837661049335
 10
147.4867020769946
 20
147.224185627838
 10
147.9169947869641
 20
149.0197705792876
 10
148.0306830129768
 20
150.2400242051577
 10
147.709255392159
 20
151.3157559800812
 10
147.3874832615654
 20
152.3916600098926
 10
146.8245542879144
 20
152.6683013598569
 10
145.8840425999909
 20
152.6683013598569
 10
145.0989048209514
 20
152.6683013598569
 10
144.3282364524954
 20
152.3275811915945
 10
143.4531816219731
 20
151.6538923250251
 10
142.34627171234
 20
150.8074318058939
 10
141.901854101563
 20
150.1097995099067
 10
141.3578731655808
 20
149.289521733736
 10
140.6299240093235
 20
148.192602607601
 10
140.2850697237515
 20
147.455696197173
 10
139.6652966370942
 20
145.8385673095858
 10
139.0506911970739
 20
144.2214384219986
 10
138.463991048893
 20
142.3252566160164
 10
138.0571250036777
 20
141.0154304484394
 10
138.0571250036777
 20
141.0154304484394
 10
133.9009590684727
 20
127.8027915271048
 10
133.9009590684727
 20
127.8027915271048
 10
133.9009590684727
 20
127.8027915271048
 10
131.4180771143097
 20
127.8027915271048
 10
131.4180771143097
 20
127.8027915271048
 10
131.4180771143097
 20
127.8027915271048
 10
139.8926730891197
 20
154.8294111834263
 10
139.8926730891197
 20
154.8294111834263
 97
        0
 75
     2
 76
     1
 98
        0
  0
SPLINE
  5
3C5
330
3BD
100
AcDbEntity
  8
レイヤー 1
370
     0
100
AcDbSpline
210
0.0
220
0.0
230
1.0
 70
    11
 71
     3
 72
    29
 73
    25
 74
     0
 42
0.000000001
 43
0.0000000001
 40
0.0
 40
0.0
 40
0.0
 40
0.0
 40
1.0
 40
1.0
 40
1.0
 40
2.0
 40
2.0
 40
2.0
 40
3.0
 40
3.0
 40
3.0
 40
4.0
 40
4.0
 40
4.0
 40
5.0
 40
5.0
 40
5.0
 40
6.0
 40
6.0
 40
6.0
 40
7.0
 40
7.0
 40
7.0
 40
8.0
 40
8.0
 40
8.0
 40
8.0
 10
101.6420971922469
 20
132.8388354296931
 30
0.0
 10
101.630039350094
 20
134.7164137077823
 30
0.0
 10
102.2236296937908
 20
138.0598810818841
 30
0.0
 10
103.7487744712405
 20
142.5378191476827
 30
0.0
 10
105.819967243327
 20
148.5896501242061
 30
0.0
 10
107.0602024361932
 20
150.8074318058939
 30
0.0
 10
108.1522984254671
 20
151.8833358357054
 30
0.0
 10
109.741177511439
 20
153.4532668840085
 30
0.0
 10
111.8740375333931
 20
153.5290590346837
 30
0.0
 10
112.5075910110823
 20
153.4532668840085
 30
0.0
 10
113.4012493694975
 20
153.3490526768302
 30
0.0
 10
114.6683563248758
 20
152.7580461564518
 30
0.0
 10
114.7493161221879
 20
150.7838328862519
 30
0.0
 10
114.8106388622796
 20
149.0909118479895
 30
0.0
 10
114.3186789024427
 20
145.9191825971221
 30
0.0
 10
112.6164561002338
 20
140.9489400617108
 30
0.0
 10
110.6444821435766
 20
135.1746117095912
 30
0.0
 10
109.4669477299053
 20
132.8960240524753
 30
0.0
 10
108.5212683953448
 20
131.9072809959403
 30
0.0
 10
106.7346406980658
 20
130.0538184021569
 30
0.0
 10
104.8222669326213
 20
130.2336525051225
 30
0.0
 10
104.5408024457958
 20
130.2336525051225
 30
0.0
 10
104.1721769856939
 20
130.2336525051225
 30
0.0
 10
101.6465758193322
 20
130.6305277668397
 30
0.0
 10
101.6420971922469
 20
132.8388354296931
 30
0.0
  0
SPLINE
  5
3C6
330
3BD
100
AcDbEntity
  8
レイヤー 1
370
     0
100
AcDbSpline
210
0.0
220
0.0
230
1.0
 70
    11
 71
     3
 72
    32
 73
    28
 74
     0
 42
0.000000001
 43
0.0000000001
 40
0.0
 40
0.0
 40
0.0
 40
0.0
 40
1.0
 40
1.0
 40
1.0
 40
2.0
 40
2.0
 40
2.0
 40
3.0
 40
3.0
 40
3.0
 40
4.0
 40
4.0
 40
4.0
 40
5.0
 40
5.0
 40
5.0
 40
6.0
 40
6.0
 40
6.0
 40
7.0
 40
7.0
 40
7.0
 40
8.0
 40
8.0
 40
8.0
 40
9.0
 40
9.0
 40
9.0
 40
9.0
 10
106.2595617172429
 20
153.4105476718098
 30
0.0
 10
104.8222669326213
 20
151.5474388043041
 30
0.0
 10
103.7177685914188
 20
149.8758773721411
 30
0.0
 10
101.9232171692965
 20
144.6141795664062
 30
0.0
 10
100.2754269116635
 20
139.7999999594306
 30
0.0
 10
99.22777268346732
 20
136.3052927937542
 30
0.0
 10
99.06964269637689
 20
132.039572749846
 30
0.0
 10
98.94665270641765
 20
128.8673267343149
 30
0.0
 10
100.8807305877373
 20
127.8027915271048
 30
0.0
 10
103.7129454545577
 20
127.8027915271048
 30
0.0
 10
104.9352661390825
 20
127.8027915271048
 30
0.0
 10
108.0151835347002
 20
127.8827177950895
 30
0.0
 10
110.2045431598849
 20
130.5926316915021
 30
0.0
 10
111.7417457794874
 20
132.4984597712065
 30
0.0
 10
113.155269389579
 20
134.475256864725
 30
0.0
 10
115.0562743324223
 20
140.9489400617108
 30
0.0
 10
116.6361961642235
 20
146.3680788349845
 30
0.0
 10
117.7282921534974
 20
149.8639917848761
 30
0.0
 10
117.6480213757369
 20
151.8595646611754
 30
0.0
 10
117.6480213757369
 20
151.8595646611754
 30
0.0
 10
117.6480213757369
 20
151.8595646611754
 30
0.0
 10
117.6480213757369
 20
151.8595646611754
 30
0.0
 10
117.13229024137
 20
155.18150017429
 30
0.0
 10
114.7162431837115
 20
155.886194920681
 30
0.0
 10
113.3351034925446
 20
155.886194920681
 30
0.0
 10
111.9829026225447
 20
155.886194920681
 30
0.0
 10
108.3414342923792
 20
156.1251124501957
 30
0.0
 10
106.2595617172429
 20
153.4105476718098
 30
0.0
  0
HATCH
  5
3C7
330
3BD
100
AcDbEntity
  8
レイヤー 1
 62
   250
420
  2234388
100
AcDbHatch
 10
0.0
 20
0.0
 30
0.0
210
0.0
220
0.0
230
1.0
  2
SOLID
 70
     1
 71
     0
 91
        2
 92
        1
 93
        1
 72
     4
 94
        3
 73
     0
 74
     1
 95
       29
 96
       25
 40
0.0
 40
0.0
 40
0.0
 40
0.0
 40
1.0
 40
1.0
 40
1.0
 40
2.0
 40
2.0
 40
2.0
 40
3.0
 40
3.0
 40
3.0
 40
4.0
 40
4.0
 40
4.0
 40
5.0
 40
5.0
 40
5.0
 40
6.0
 40
6.0
 40
6.0
 40
7.0
 40
7.0
 40
7.0
 40
8.0
 40
8.0
 40
8.0
 40
8.0
 10
101.6420971922469
 20
132.8388354296931
 10
101.630039350094
 20
134.7164137077823
 10
102.2236296937908
 20
138.0598810818841
 10
103.7487744712405
 20
142.5378191476827
 10
105.819967243327
 20
148.5896501242061
 10
107.0602024361932
 20
150.8074318058939
 10
108.1522984254671
 20
151.8833358357054
 10
109.741177511439
 20
153.4532668840085
 10
111.8740375333931
 20
153.5290590346837
 10
112.5075910110823
 20
153.4532668840085
 10
113.4012493694975
 20
153.3490526768302
 10
114.6683563248758
 20
152.7580461564518
 10
114.7493161221879
 20
150.7838328862519
 10
114.8106388622796
 20
149.0909118479895
 10
114.3186789024427
 20
145.9191825971221
 10
112.6164561002338
 20
140.9489400617108
 10
110.6444821435766
 20
135.1746117095912
 10
109.4669477299053
 20
132.8960240524753
 10
108.5212683953448
 20
131.9072809959403
 10
106.7346406980658
 20
130.0538184021569
 10
104.8222669326213
 20
130.2336525051225
 10
104.5408024457958
 20
130.2336525051225
 10
104.1721769856939
 20
130.2336525051225
 10
101.6465758193322
 20
130.6305277668397
 10
101.6420971922469
 20
132.8388354296931
 97
        0
 92
        1
 93
        1
 72
     4
 94
        3
 73
     0
 74
     1
 95
       32
 96
       28
 40
0.0
 40
0.0
 40
0.0
 40
0.0
 40
1.0
 40
1.0
 40
1.0
 40
2.0
 40
2.0
 40
2.0
 40
3.0
 40
3.0
 40
3.0
 40
4.0
 40
4.0
 40
4.0
 40
5.0
 40
5.0
 40
5.0
 40
6.0
 40
6.0
 40
6.0
 40
7.0
 40
7.0
 40
7.0
 40
8.0
 40
8.0
 40
8.0
 40
9.0
 40
9.0
 40
9.0
 40
9.0
 10
106.2595617172429
 20
153.4105476718098
 10
104.8222669326213
 20
151.5474388043041
 10
103.7177685914188
 20
149.8758773721411
 10
101.9232171692965
 20
144.6141795664062
 10
100.2754269116635
 20
139.7999999594306
 10
99.22777268346732
 20
136.3052927937542
 10
99.06964269637689
 20
132.039572749846
 10
98.94665270641765
 20
128.8673267343149
 10
100.8807305877373
 20
127.8027915271048
 10
103.7129454545577
 20
127.8027915271048
 10
104.9352661390825
 20
127.8027915271048
 10
108.0151835347002
 20
127.8827177950895
 10
110.2045431598849
 20
130.5926316915021
 10
111.7417457794874
 20
132.4984597712065
 10
113.155269389579
 20
134.475256864725
 10
115.0562743324223
 20
140.9489400617108
 10
116.6361961642235
 20
146.3680788349845
 10
117.7282921534974
 20
149.8639917848761
 10
117.6480213757369
 20
151.8595646611754
 10
117.6480213757369
 20
151.8595646611754
 10
117.6480213757369
 20
151.8595646611754
 10
117.6480213757369
 20
151.8595646611754
 10
117.13229024137
 20
155.18150017429
 10
114.7162431837115
 20
155.886194920681
 10
113.3351034925446
 20
155.886194920681
 10
111.9829026225447
 20
155.886194920681
 10
108.3414342923792
 20
156.1251124501957
 10
106.2595617172429
 20
153.4105476718098
 97
        0
 75
     2
 76
     1
 98
        0
  0
ENDBLK
  5
3C8
330
3BD
100
AcDbEntity
  8
0
100
AcDbBlockEnd
  0
BLOCK
  5
11F1
330
11F0
100
AcDbEntity
  8
0
100
AcDbBlockBegin
  2
BLOCK_2
 70
     0
 10
0.0
 20
0.0
 30
0.0
  3
BLOCK_2
  1
BLOCK_2
  0
ENDBLK
  5
11F2
330
11F0
100
AcDbEntity
  8
0
100
AcDbBlockEnd
  0
BLOCK
  5
7F38
330
7F37
100
AcDbEntity
  8
0
100
AcDbBlockBegin
  2
*D7
 70
     1
 10
0.0
 20
0.0
 30
0.0
  3
*D7
  1

  0
LINE
  5
7F3A
330
7F37
100
AcDbEntity
  8
Dim
  6
Continuous
 62
     0
370
    -2
100
AcDbLine
 10
319.8933325010829
 20
1826.593343136981
 30
0.0
 11
319.8933325010829
 21
1637.499340224
 31
0.0
  0
LINE
  5
7F3B
330
7F37
100
AcDbEntity
  8
Dim
  6
Continuous
 62
     0
370
    -2
100
AcDbLine
 10
754.3833738491377
 20
1826.593343136981
 30
0.0
 11
754.3833738491377
 21
1637.499340224
 31
0.0
  0
LINE
  5
7F3C
330
7F37
100
AcDbEntity
  8
Dim
  6
Continuous
 62
     0
370
    -2
100
AcDbLine
 10
329.8927221495204
 20
1637.499340224
 30
0.0
 11
744.3839842007002
 21
1637.499340224
 31
0.0
  0
INSERT
  5
7F3D
330
7F37
100
AcDbEntity
  8
Dim
 62
     0
370
    -2
100
AcDbBlockReference
  2
_DOT
 10
319.8933325010829
 20
1637.499340224
 30
0.0
 41
9.999389648437498
 42
9.999389648437498
 43
9.999389648437498
 50
180.0
  0
INSERT
  5
7F3E
330
7F37
100
AcDbEntity
  8
Dim
 62
     0
370
    -2
100
AcDbBlockReference
  2
_DOT
 10
754.3833738491377
 20
1637.499340224
 30
0.0
 41
9.999389648437498
 42
9.999389648437498
 43
9.999389648437498
  0
MTEXT
  5
7F3F
330
7F37
100
AcDbEntity
  8
Dim
  6
Continuous
 62
     0
100
AcDbMText
 10
537.1383531751103
 20
1659.71564881775
 30
0.0
 40
24.4326171875
 41
0.0
 46
0.0
 71
     5
 72
     1
  1
\A1;430
  7
ＭＳ ゴシック
 73
     1
 44
1.0
  0
POINT
  5
7F40
330
7F37
100
AcDbEntity
  8
Defpoints
 62
     0
100
AcDbPoint
 10
319.8933325010829
 20
1851.593343136981
 30
0.0
  0
POINT
  5
7F41
330
7F37
100
AcDbEntity
  8
Defpoints
 62
     0
100
AcDbPoint
 10
754.3833738491377
 20
1851.593343136981
 30
0.0
  0
POINT
  5
7F42
330
7F37
100
AcDbEntity
  8
Defpoints
 62
     0
100
AcDbPoint
 10
754.3833738491377
 20
1637.499340224
 30
0.0
  0
ENDBLK
  5
7F39
330
7F37
100
AcDbEntity
  8
0
100
AcDbBlockEnd
  0
BLOCK
  5
7F5C
330
7F5B
100
AcDbEntity
  8
0
100
AcDbBlockBegin
  2
*D8
 70
     1
 10
0.0
 20
0.0
 30
0.0
  3
*D8
  1

  0
LINE
  5
7F5E
330
7F5B
100
AcDbEntity
  8
Dim
  6
Continuous
 62
     0
370
    -2
100
AcDbLine
 10
792.3204518001374
 20
1160.080242776638
 30
0.0
 11
890.7335361600001
 21
1160.080242776638
 31
0.0
  0
LINE
  5
7F5F
330
7F5B
100
AcDbEntity
  8
Dim
  6
Continuous
 62
     0
370
    -2
100
AcDbLine
 10
792.3204518001374
 20
1030.080242776638
 30
0.0
 11
890.7335361600001
 21
1030.080242776638
 31
0.0
  0
LINE
  5
7F60
330
7F5B
100
AcDbEntity
  8
Dim
  6
Continuous
 62
     0
370
    -2
100
AcDbLine
 10
890.7335361600001
 20
1150.0808531282
 30
0.0
 11
890.7335361600001
 21
1040.079632425075
 31
0.0
  0
INSERT
  5
7F61
330
7F5B
100
AcDbEntity
  8
Dim
 62
     0
370
    -2
100
AcDbBlockReference
  2
_DOT
 10
890.7335361600001
 20
1160.080242776638
 30
0.0
 41
9.999389648437498
 42
9.999389648437498
 43
9.999389648437498
 50
90.0
  0
INSERT
  5
7F62
330
7F5B
100
AcDbEntity
  8
Dim
 62
     0
370
    -2
100
AcDbBlockReference
  2
_DOT
 10
890.7335361600001
 20
1030.080242776638
 30
0.0
 41
9.999389648437498
 42
9.999389648437498
 43
9.999389648437498
 50
270.0
  0
MTEXT
  5
7F63
330
7F5B
100
AcDbEntity
  8
Dim
  6
Continuous
 62
     0
100
AcDbMText
 10
868.5172275662501
 20
1095.080242776638
 30
0.0
 40
24.4326171875
 41
0.0
 46
0.0
 71
     5
 72
     1
  1
\A1;130
  7
ＭＳ ゴシック
 11
0.0
 21
1.0
 31
0.0
 73
     1
 44
1.0
  0
POINT
  5
7F64
330
7F5B
100
AcDbEntity
  8
Defpoints
 62
     0
100
AcDbPoint
 10
767.3204518001374
 20
1160.080242776638
 30
0.0
  0
POINT
  5
7F65
330
7F5B
100
AcDbEntity
  8
Defpoints
 62
     0
100
AcDbPoint
 10
767.3204518001374
 20
1030.080242776638
 30
0.0
  0
POINT
  5
7F66
330
7F5B
100
AcDbEntity
  8
Defpoints
 62
     0
100
AcDbPoint
 10
890.7335361600001
 20
1030.080242776638
 30
0.0
  0
ENDBLK
  5
7F5D
330
7F5B
100
AcDbEntity
  8
0
100
AcDbBlockEnd
  0
BLOCK
  5
7F80
330
7F7F
100
AcDbEntity
  8
0
100
AcDbBlockBegin
  2
*D9
 70
     1
 10
0.0
 20
0.0
 30
0.0
  3
*D9
  1

  0
LINE
  5
7F82
330
7F7F
100
AcDbEntity
  8
Dim
  6
Continuous
 62
     0
370
    -2
100
AcDbLine
 10
1448.524104548739
 20
1160.377787119953
 30
0.0
 11
1448.524104548739
 21
1332.752486338703
 31
0.0
  0
LINE
  5
7F83
330
7F7F
100
AcDbEntity
  8
Dim
  6
Continuous
 62
     0
370
    -2
100
AcDbLine
 10
1448.524104548739
 20
1065.657251679824
 30
0.0
 11
1448.524104548739
 21
1150.378397471515
 31
0.0
  0
LINE
  5
7F84
330
7F7F
100
AcDbEntity
  8
Dim
  6
Continuous
 62
     0
370
    -2
100
AcDbLine
 10
1448.524104548739
 20
1150.378397471515
 30
0.0
 11
1448.524104548739
 21
1140.379007823078
 31
0.0
  0
INSERT
  5
7F85
330
7F7F
100
AcDbEntity
  8
Dim
 62
     0
370
    -2
100
AcDbBlockReference
  2
_DOT
 10
1448.524104548739
 20
1055.657862031386
 30
0.0
 41
9.999389648437498
 42
9.999389648437498
 43
9.999389648437498
 50
270.0
  0
INSERT
  5
7F86
330
7F7F
100
AcDbEntity
  8
Dim
 62
     0
370
    -2
100
AcDbBlockReference
  2
_DOT
 10
1448.524104548739
 20
1160.377787119953
 30
0.0
 41
9.999389648437498
 42
9.999389648437498
 43
9.999389648437498
 50
90.0
  0
MTEXT
  5
7F87
330
7F7F
100
AcDbEntity
  8
Dim
  6
Continuous
 62
     0
100
AcDbMText
 10
1424.145509333895
 20
1256.564526377766
 30
0.0
 40
24.4326171875
 41
0.0
 46
0.0
 71
     5
 72
     1
  1
\A1;105(深さ)
  7
ＭＳ ゴシック
 11
0.0
 21
1.0
 31
0.0
 73
     1
 44
1.0
  0
POINT
  5
7F88
330
7F7F
100
AcDbEntity
  8
Defpoints
 62
     0
100
AcDbPoint
 10
1448.524104548739
 20
1055.657862031386
 30
0.0
  0
POINT
  5
7F89
330
7F7F
100
AcDbEntity
  8
Defpoints
 62
     0
100
AcDbPoint
 10
1448.524104548739
 20
1160.377787119953
 30
0.0
  0
POINT
  5
7F8A
330
7F7F
100
AcDbEntity
  8
Defpoints
 62
     0
100
AcDbPoint
 10
1448.524104548739
 20
1160.377787119953
 30
0.0
  0
ENDBLK
  5
7F81
330
7F7F
100
AcDbEntity
  8
0
100
AcDbBlockEnd
  0
BLOCK
  5
7FA1
330
7FA0
100
AcDbEntity
  8
0
100
AcDbBlockBegin
  2
*D10
 70
     1
 10
0.0
 20
0.0
 30
0.0
  3
*D10
  1

  0
LINE
  5
7FA3
330
7FA0
100
AcDbEntity
  8
Dim
  6
Continuous
 62
     0
370
    -2
100
AcDbLine
 10
312.1383531751101
 20
2044.99753232098
 30
0.0
 11
312.1383531751101
 21
2229.07452768
 31
0.0
  0
LINE
  5
7FA4
330
7FA0
100
AcDbEntity
  8
Dim
  6
Continuous
 62
     0
370
    -2
100
AcDbLine
 10
762.1383531751101
 20
2044.99753232098
 30
0.0
 11
762.1383531751101
 21
2229.07452768
 31
0.0
  0
LINE
  5
7FA5
330
7FA0
100
AcDbEntity
  8
Dim
  6
Continuous
 62
     0
370
    -2
100
AcDbLine
 10
322.1377428235476
 20
2229.07452768
 30
0.0
 11
752.1389635266726
 21
2229.07452768
 31
0.0
  0
INSERT
  5
7FA6
330
7FA0
100
AcDbEntity
  8
Dim
 62
     0
370
    -2
100
AcDbBlockReference
  2
_DOT
 10
312.1383531751101
 20
2229.07452768
 30
0.0
 41
9.999389648437498
 42
9.999389648437498
 43
9.999389648437498
 50
180.0
  0
INSERT
  5
7FA7
330
7FA0
100
AcDbEntity
  8
Dim
 62
     0
370
    -2
100
AcDbBlockReference
  2
_DOT
 10
762.1383531751101
 20
2229.07452768
 30
0.0
 41
9.999389648437498
 42
9.999389648437498
 43
9.999389648437498
  0
MTEXT
  5
7FA8
330
7FA0
100
AcDbEntity
  8
Dim
  6
Continuous
 62
     0
100
AcDbMText
 10
537.1383531751101
 20
2251.29083627375
 30
0.0
 40
24.4326171875
 41
0.0
 46
0.0
 71
     5
 72
     1
  1
\A1;450
  7
ＭＳ ゴシック
 73
     1
 44
1.0
  0
POINT
  5
7FA9
330
7FA0
100
AcDbEntity
  8
Defpoints
 62
     0
100
AcDbPoint
 10
312.1383531751101
 20
2019.99753232098
 30
0.0
  0
POINT
  5
7FAA
330
7FA0
100
AcDbEntity
  8
Defpoints
 62
     0
100
AcDbPoint
 10
762.1383531751101
 20
2019.99753232098
 30
0.0
  0
POINT
  5
7FAB
330
7FA0
100
AcDbEntity
  8
Defpoints
 62
     0
100
AcDbPoint
 10
762.1383531751101
 20
2229.07452768
 30
0.0
  0
ENDBLK
  5
7FA2
330
7FA0
100
AcDbEntity
  8
0
100
AcDbBlockEnd
  0
BLOCK
  5
7FB1
330
7FB0
100
AcDbEntity
  8
0
100
AcDbBlockBegin
  2
*D11
 70
     1
 10
0.0
 20
0.0
 30
0.0
  3
*D11
  1

  0
LINE
  5
7FB3
330
7FB0
100
AcDbEntity
  8
Dim
  6
Continuous
 62
     0
370
    -2
100
AcDbLine
 10
1448.524104548739
 20
1004.178128274756
 30
0.0
 11
1448.524104548739
 21
946.7277638860796
 31
0.0
  0
LINE
  5
7FB4
330
7FB0
100
AcDbEntity
  8
Dim
  6
Continuous
 62
     0
370
    -2
100
AcDbLine
 10
1673.524104548739
 20
1064.20564932608
 30
0.0
 11
1673.524104548739
 21
946.7277638860796
 31
0.0
  0
LINE
  5
7FB5
330
7FB0
100
AcDbEntity
  8
Dim
  6
Continuous
 62
     0
370
    -2
100
AcDbLine
 10
1458.523494197177
 20
946.7277638860796
 30
0.0
 11
1663.524714900302
 21
946.7277638860796
 31
0.0
  0
INSERT
  5
7FB6
330
7FB0
100
AcDbEntity
  8
Dim
 62
     0
370
    -2
100
AcDbBlockReference
  2
_DOT
 10
1448.524104548739
 20
946.7277638860796
 30
0.0
 41
9.999389648437498
 42
9.999389648437498
 43
9.999389648437498
 50
180.0
  0
INSERT
  5
7FB7
330
7FB0
100
AcDbEntity
  8
Dim
 62
     0
370
    -2
100
AcDbBlockReference
  2
_DOT
 10
1673.524104548739
 20
946.7277638860796
 30
0.0
 41
9.999389648437498
 42
9.999389648437498
 43
9.999389648437498
  0
MTEXT
  5
7FB8
330
7FB0
100
AcDbEntity
  8
Dim
  6
Continuous
 62
     0
100
AcDbMText
 10
1561.024104548739
 20
968.9440724798296
 30
0.0
 40
24.4326171875
 41
0.0
 46
0.0
 71
     5
 72
     1
  1
\A1;225
  7
ＭＳ ゴシック
 73
     1
 44
1.0
  0
POINT
  5
7FB9
330
7FB0
100
AcDbEntity
  8
Defpoints
 62
     0
100
AcDbPoint
 10
1448.524104548739
 20
1029.178128274756
 30
0.0
  0
POINT
  5
7FBA
330
7FB0
100
AcDbEntity
  8
Defpoints
 62
     0
100
AcDbPoint
 10
1673.524104548739
 20
1089.20564932608
 30
0.0
  0
POINT
  5
7FBB
330
7FB0
100
AcDbEntity
  8
Defpoints
 62
     0
100
AcDbPoint
 10
1673.524104548739
 20
946.7277638860796
 30
0.0
  0
ENDBLK
  5
7FB2
330
7FB0
100
AcDbEntity
  8
0
100
AcDbBlockEnd
  0
ENDSEC
  0
SECTION
  2
ENTITIES
  0
MTEXT
  5
177
330
A
100
AcDbEntity
  8
template
390
1D
100
AcDbMText
 10
82.00000000048226
 20
348.023957835319
 30
0.0
 40
16.28841145833333
 41
0.0
 46
0.0
 71
     1
 72
     1
  1
品名
  7
ＭＳ ゴシック
 73
     1
 44
0.7828267384257843
  0
MTEXT
  5
178
330
A
100
AcDbEntity
  8
template
390
1D
100
AcDbMText
 10
82.00000000048226
 20
263.0239578353188
 30
0.0
 40
16.28841145833333
 41
0.0
 46
0.0
 71
     1
 72
     1
  1
仕様
  7
ＭＳ ゴシック
 73
     1
 44
0.7828267384257843
  0
LINE
  5
179
330
A
100
AcDbEntity
  8
template
390
1D
100
AcDbLine
 10
2025.0
 20
271.4388797103189
 30
0.0
 11
75.00000000000023
 21
271.4388797103189
 31
0.0
  0
LWPOLYLINE
  5
17A
330
A
100
AcDbEntity
  8
template
390
1D
100
AcDbPolyline
 90
        5
 70
   128
 43
0.0
 10
2025.0
 20
2901.438879710319
 10
75.00000000000023
 20
2901.438879710319
 10
75.00000000000023
 20
101.4388797103188
 10
2025.0
 20
101.4388797103188
 10
2025.0
 20
2901.438879710319
  0
LINE
  5
17B
330
A
100
AcDbEntity
  8
template
390
1D
100
AcDbLine
 10
2025.0
 20
356.4388797103188
 30
0.0
 11
75.00000000000023
 21
356.4388797103188
 31
0.0
  0
LINE
  5
17C
330
A
100
AcDbEntity
  8
template
390
1D
100
AcDbLine
 10
2025.000000000482
 20
186.4388797103189
 30
0.0
 11
1272.000000000482
 21
186.4388797103189
 31
0.0
  0
MTEXT
  5
17E
330
A
100
AcDbEntity
  8
template
390
1D
100
AcDbMText
 10
1301.871406252743
 20
156.5284852370108
 30
0.0
 40
24.4326171875
 41
0.0
 46
0.0
 71
     1
 72
     1
  1
大洋金物株式会社 ティーフォルム事業部
  7
ＭＳ ゴシック
 73
     1
 44
0.7828267384257843
  0
MTEXT
  5
180
330
A
100
AcDbEntity
  8
template
390
1D
100
AcDbMText
 10
1834.000000000742
 20
234.4414968978188
 30
0.0
 40
24.4326171875
 41
0.0
 46
0.0
 71
     1
 72
     1
  1
1:10
  7
ＭＳ ゴシック
 73
     1
 44
0.7828267384257843
  0
MTEXT
  5
181
330
A
100
AcDbEntity
  8
template
390
1D
100
AcDbMText
 10
1781.000000000742
 20
263.0239578353188
 30
0.0
 40
16.28841145833333
 41
0.0
 46
0.0
 71
     1
 72
     1
  1
縮尺
  7
ＭＳ ゴシック
 73
     1
 44
0.7828267384257843
  0
LINE
  5
182
330
A
100
AcDbEntity
  8
template
390
1D
100
AcDbLine
 10
1774.000000000742
 20
186.4388797103189
 30
0.0
 11
1774.000000000742
 21
271.4388797103189
 31
0.0
  0
MTEXT
  5
183
330
A
100
AcDbEntity
  8
template
390
1D
100
AcDbMText
 10
1530.000000000742
 20
263.0239578353188
 30
0.0
 40
16.28841145833333
 41
0.0
 46
0.0
 71
     1
 72
     1
  1
容量
  7
ＭＳ ゴシック
 73
     1
 44
0.7828267384257843
  0
LINE
  5
184
330
A
100
AcDbEntity
  8
template
390
1D
100
AcDbLine
 10
1523.000000000742
 20
186.4388797103189
 30
0.0
 11
1523.000000000742
 21
271.4388797103189
 31
0.0
  0
MTEXT
  5
185
330
A
100
AcDbEntity
  8
template
390
1D
100
AcDbMText
 10
1279.000000000742
 20
348.023957835319
 30
0.0
 40
16.28841145833333
 41
0.0
 46
0.0
 71
     1
 72
     1
  1
品番
  7
ＭＳ ゴシック
 73
     1
 44
0.7828267384257843
  0
MTEXT
  5
186
330
A
100
AcDbEntity
  8
template
390
1D
100
AcDbMText
 10
1279.000000000742
 20
263.0239578353188
 30
0.0
 40
16.28841145833333
 41
0.0
 46
0.0
 71
     1
 72
     1
  1
重量
  7
ＭＳ ゴシック
 73
     1
 44
0.7828267384257843
  0
MTEXT
  5
187
330
A
100
AcDbEntity
  8
template
390
1D
100
AcDbMText
 10
1332.000000000742
 20
319.4414968978188
 30
0.0
 40
24.4326171875
 41
0.0
 46
24.4326171875
 71
     1
 72
     1
  1
{ADF70-3033}
  7
ＭＳ ゴシック
 73
     1
 44
0.7828267384257843
1001
ACAD
1000
ACAD_MTEXT_DEFINED_HEIGHT_BEGIN
1070
    46
1040
24.4326171875
1000
ACAD_MTEXT_DEFINED_HEIGHT_END
  0
LINE
  5
188
330
A
100
AcDbEntity
  8
template
390
1D
100
AcDbLine
 10
1272.000000000742
 20
101.4388797103188
 30
0.0
 11
1272.000000000742
 21
356.4388797103188
 31
0.0
  0
MTEXT
  5
189
330
A
100
AcDbEntity
  8
template
390
1D
100
AcDbMText
 10
135.0000000004822
 20
319.4414968978188
 30
0.0
 40
24.4326171875
 41
0.0
 46
27.5355595703125
 71
     1
 72
     1
  1
{洗面器 -CATALANO, New Zero-}
  7
ＭＳ ゴシック
 73
     1
 44
0.7828267384257843
1001
ACAD
1000
ACAD_MTEXT_DEFINED_HEIGHT_BEGIN
1070
    46
1040
27.5355595703125
1000
ACAD_MTEXT_DEFINED_HEIGHT_END
  0
MTEXT
  5
18A
330
A
100
AcDbEntity
  8
template
390
1D
100
AcDbMText
 10
135.0000000004822
 20
234.4414968978188
 30
0.0
 40
24.4326171875
 41
0.0
 46
68.396517578125
 71
     1
 72
     1
  1
{カウンター置き/オーバーフローなし/\P陶器/ホワイト}
  7
ＭＳ ゴシック
 73
     1
 44
0.9822934569727008
1001
ACAD
1000
ACAD_MTEXT_DEFINED_HEIGHT_BEGIN
1070
    46
1040
68.396517578125
1000
ACAD_MTEXT_DEFINED_HEIGHT_END
  0
INSERT
  5
3D0
330
A
100
AcDbEntity
  8
template
100
AcDbBlockReference
  2
名称未設定-1
 10
1873.559250554905
 20
30.23897196054438
 30
0.0
 41
0.7619999999999999
 42
0.7619999999999999
 43
0.7619999999999999
  0
MTEXT
  5
BDB
102
{ACAD_XDICTIONARY
360
BDC
102
}
330
A
100
AcDbEntity
  8
template
  6
Continuous
100
AcDbMText
 10
78.95663872901252
 20
86.10730750352229
 30
0.0
 40
23.0
 41
0.0
 46
23.0
 71
     1
 72
     1
  1
{20191029N}
  7
ＭＳ ゴシック
 73
     1
 44
1.0
1001
ACAD
1000
ACAD_MTEXT_DEFINED_HEIGHT_BEGIN
1070
    46
1040
23.0
1000
ACAD_MTEXT_DEFINED_HEIGHT_END
  0
LWPOLYLINE
  5
BEE
330
A
100
AcDbEntity
  8
PRINT BORDER
100
AcDbPolyline
 90
        4
 70
     1
 43
0.0
 10
0.0
 20
0.0
 10
0.0
 20
2970.0
 10
2100.0
 20
2970.0
 10
2100.0
 20
0.0
  0
INSERT
  5
1273
330
A
100
AcDbEntity
  8
0
 62
     7
100
AcDbBlockReference
  2
BLOCK_2
 10
591.2037060744204
 20
943.564364962162
 30
0.0
  0
INSERT
  5
127B
330
A
100
AcDbEntity
  8
0
 62
     7
100
AcDbBlockReference
  2
BLOCK_2
 10
1291.863324028138
 20
1038.76992320659
 30
0.0
  0
INSERT
  5
127C
330
A
100
AcDbEntity
  8
0
 62
     7
100
AcDbBlockReference
  2
BLOCK_2
 10
652.1648429406905
 20
1595.641631888467
 30
0.0
  0
CIRCLE
  5
142C
330
A
100
AcDbEntity
  8
Dim
  6
Continuous
100
AcDbCircle
 10
1366.841726484681
 20
1758.85027442579
 30
0.0
 40
0.0
  0
HATCH
  5
6D3A
330
A
100
AcDbEntity
  8
0
100
AcDbHatch
 10
0.0
 20
0.0
 30
0.0
210
0.0
220
0.0
230
1.0
  2
SOLID
 70
     1
 71
     0
 91
        1
 92
        1
 93
        1
 72
     4
 94
        3
 73
     0
 74
     1
 95
       11
 96
        7
 40
0.0
 40
0.0
 40
0.0
 40
0.0
 40
1.0
 40
1.0
 40
1.0
 40
2.0
 40
2.0
 40
2.0
 40
2.0
 10
3132.196523413676
 20
1305.76667131311
 10
3132.196523413676
 20
1305.76667131311
 10
3132.703297293872
 20
1305.76667131311
 10
3132.703297293872
 20
1305.76667131311
 10
3132.703297293872
 20
1305.76667131311
 10
3132.196523413676
 20
1305.76667131311
 10
3132.196523413676
 20
1305.76667131311
 97
        0
 75
     2
 76
     1
 98
        0
  0
HATCH
  5
6D3C
330
A
100
AcDbEntity
  8
0
100
AcDbHatch
 10
0.0
 20
0.0
 30
0.0
210
0.0
220
0.0
230
1.0
  2
SOLID
 70
     1
 71
     0
 91
        1
 92
        1
 93
        1
 72
     4
 94
        3
 73
     0
 74
     1
 95
       11
 96
        7
 40
0.0
 40
0.0
 40
0.0
 40
0.0
 40
1.0
 40
1.0
 40
1.0
 40
2.0
 40
2.0
 40
2.0
 40
2.0
 10
3132.044939112325
 20
1305.714994846741
 10
3132.044939112325
 20
1305.714994846741
 10
3132.789424737821
 20
1305.714994846741
 10
3132.789424737821
 20
1305.714994846741
 10
3132.789424737821
 20
1305.714994846741
 10
3132.044939112325
 20
1305.714994846741
 10
3132.044939112325
 20
1305.714994846741
 97
        0
 75
     2
 76
     1
 98
        0
  0
HATCH
  5
6D3E
330
A
100
AcDbEntity
  8
0
100
AcDbHatch
 10
0.0
 20
0.0
 30
0.0
210
0.0
220
0.0
230
1.0
  2
SOLID
 70
     1
 71
     0
 91
        1
 92
        1
 93
        1
 72
     4
 94
        3
 73
     0
 74
     1
 95
       11
 96
        7
 40
0.0
 40
0.0
 40
0.0
 40
0.0
 40
1.0
 40
1.0
 40
1.0
 40
2.0
 40
2.0
 40
2.0
 40
2.0
 10
3132.044939112325
 20
1305.714994846741
 10
3132.044939112325
 20
1305.714994846741
 10
3132.789424737821
 20
1305.714994846741
 10
3132.789424737821
 20
1305.714994846741
 10
3132.789424737821
 20
1305.714994846741
 10
3132.044939112325
 20
1305.714994846741
 10
3132.044939112325
 20
1305.714994846741
 97
        0
 75
     2
 76
     1
 98
        0
  0
HATCH
  5
6D40
330
A
100
AcDbEntity
  8
0
100
AcDbHatch
 10
0.0
 20
0.0
 30
0.0
210
0.0
220
0.0
230
1.0
  2
SOLID
 70
     1
 71
     0
 91
        1
 92
        1
 93
        1
 72
     4
 94
        3
 73
     0
 74
     1
 95
       11
 96
        7
 40
0.0
 40
0.0
 40
0.0
 40
0.0
 40
1.0
 40
1.0
 40
1.0
 40
2.0
 40
2.0
 40
2.0
 40
2.0
 10
3131.824797365592
 20
1305.496403393998
 10
3131.824797365592
 20
1305.496403393998
 10
3132.957545508409
 20
1305.496403393998
 10
3132.957545508409
 20
1305.496403393998
 10
3132.957545508409
 20
1305.496403393998
 10
3131.824797365592
 20
1305.496403393998
 10
3131.824797365592
 20
1305.496403393998
 97
        0
 75
     2
 76
     1
 98
        0
  0
HATCH
  5
6D42
330
A
100
AcDbEntity
  8
0
100
AcDbHatch
 10
0.0
 20
0.0
 30
0.0
210
0.0
220
0.0
230
1.0
  2
SOLID
 70
     1
 71
     0
 91
        1
 92
        1
 93
        1
 72
     4
 94
        3
 73
     0
 74
     1
 95
       11
 96
        7
 40
0.0
 40
0.0
 40
0.0
 40
0.0
 40
1.0
 40
1.0
 40
1.0
 40
2.0
 40
2.0
 40
2.0
 40
2.0
 10
3131.824797365592
 20
1305.496403393998
 10
3131.824797365592
 20
1305.496403393998
 10
3132.957545508409
 20
1305.496403393998
 10
3132.957545508409
 20
1305.496403393998
 10
3132.957545508409
 20
1305.496403393998
 10
3131.824797365592
 20
1305.496403393998
 10
3131.824797365592
 20
1305.496403393998
 97
        0
 75
     2
 76
     1
 98
        0
  0
HATCH
  5
6D44
330
A
100
AcDbEntity
  8
0
100
AcDbHatch
 10
0.0
 20
0.0
 30
0.0
210
0.0
220
0.0
230
1.0
  2
SOLID
 70
     1
 71
     0
 91
        1
 92
        1
 93
        1
 72
     4
 94
        3
 73
     0
 74
     1
 95
       11
 96
        7
 40
0.0
 40
0.0
 40
0.0
 40
0.0
 40
1.0
 40
1.0
 40
1.0
 40
2.0
 40
2.0
 40
2.0
 40
2.0
 10
3130.996251354802
 20
1300.625551928904
 10
3130.996251354802
 20
1300.625551928904
 10
3132.821119637194
 20
1300.625551928904
 10
3132.821119637194
 20
1300.625551928904
 10
3132.821119637194
 20
1300.625551928904
 10
3130.996251354802
 20
1300.625551928904
 10
3130.996251354802
 20
1300.625551928904
 97
        0
 75
     2
 76
     1
 98
        0
  0
HATCH
  5
6D46
330
A
100
AcDbEntity
  8
0
100
AcDbHatch
 10
0.0
 20
0.0
 30
0.0
210
0.0
220
0.0
230
1.0
  2
SOLID
 70
     1
 71
     0
 91
        1
 92
        1
 93
        1
 72
     4
 94
        3
 73
     0
 74
     1
 95
       11
 96
        7
 40
0.0
 40
0.0
 40
0.0
 40
0.0
 40
1.0
 40
1.0
 40
1.0
 40
2.0
 40
2.0
 40
2.0
 40
2.0
 10
3130.996251354802
 20
1300.625551928904
 10
3130.996251354802
 20
1300.625551928904
 10
3132.821119637194
 20
1300.625551928904
 10
3132.821119637194
 20
1300.625551928904
 10
3132.821119637194
 20
1300.625551928904
 10
3130.996251354802
 20
1300.625551928904
 10
3130.996251354802
 20
1300.625551928904
 97
        0
 75
     2
 76
     1
 98
        0
  0
HATCH
  5
6D48
330
A
100
AcDbEntity
  8
0
100
AcDbHatch
 10
0.0
 20
0.0
 30
0.0
210
0.0
220
0.0
230
1.0
  2
SOLID
 70
     1
 71
     0
 91
        1
 92
        1
 93
        1
 72
     4
 94
        3
 73
     0
 74
     1
 95
       11
 96
        7
 40
0.0
 40
0.0
 40
0.0
 40
0.0
 40
1.0
 40
1.0
 40
1.0
 40
2.0
 40
2.0
 40
2.0
 40
2.0
 10
3129.018420731956
 20
1300.625551928904
 10
3129.018420731956
 20
1300.625551928904
 10
3130.9307944974
 20
1300.625551928904
 10
3130.9307944974
 20
1300.625551928904
 10
3130.9307944974
 20
1300.625551928904
 10
3129.018420731956
 20
1300.625551928904
 10
3129.018420731956
 20
1300.625551928904
 97
        0
 75
     2
 76
     1
 98
        0
  0
HATCH
  5
6D4A
330
A
100
AcDbEntity
  8
0
100
AcDbHatch
 10
0.0
 20
0.0
 30
0.0
210
0.0
220
0.0
230
1.0
  2
SOLID
 70
     1
 71
     0
 91
        1
 92
        1
 93
        1
 72
     4
 94
        3
 73
     0
 74
     1
 95
       11
 96
        7
 40
0.0
 40
0.0
 40
0.0
 40
0.0
 40
1.0
 40
1.0
 40
1.0
 40
2.0
 40
2.0
 40
2.0
 40
2.0
 10
3122.066902475941
 20
1291.224913676754
 10
3122.066902475941
 20
1291.224913676754
 10
3124.824014211637
 20
1291.224913676754
 10
3124.824014211637
 20
1291.224913676754
 10
3124.824014211637
 20
1291.224913676754
 10
3122.066902475941
 20
1291.224913676754
 10
3122.066902475941
 20
1291.224913676754
 97
        0
 75
     2
 76
     1
 98
        0
  0
HATCH
  5
6D4C
330
A
100
AcDbEntity
  8
0
100
AcDbHatch
 10
0.0
 20
0.0
 30
0.0
210
0.0
220
0.0
230
1.0
  2
SOLID
 70
     1
 71
     0
 91
        1
 92
        1
 93
        1
 72
     4
 94
        3
 73
     0
 74
     1
 95
       11
 96
        7
 40
0.0
 40
0.0
 40
0.0
 40
0.0
 40
1.0
 40
1.0
 40
1.0
 40
2.0
 40
2.0
 40
2.0
 40
2.0
 10
3120.207927725745
 20
1290.649237841398
 10
3120.207927725745
 20
1290.649237841398
 10
3124.875346168231
 20
1290.649237841398
 10
3124.875346168231
 20
1290.649237841398
 10
3124.875346168231
 20
1290.649237841398
 10
3120.207927725745
 20
1290.649237841398
 10
3120.207927725745
 20
1290.649237841398
 97
        0
 75
     2
 76
     1
 98
        0
  0
HATCH
  5
6D4E
330
A
100
AcDbEntity
  8
0
100
AcDbHatch
 10
0.0
 20
0.0
 30
0.0
210
0.0
220
0.0
230
1.0
  2
SOLID
 70
     1
 71
     0
 91
        1
 92
        1
 93
        1
 72
     4
 94
        3
 73
     0
 74
     1
 95
       11
 96
        7
 40
0.0
 40
0.0
 40
0.0
 40
0.0
 40
1.0
 40
1.0
 40
1.0
 40
2.0
 40
2.0
 40
2.0
 40
2.0
 10
3120.207927725745
 20
1290.649237841398
 10
3120.207927725745
 20
1290.649237841398
 10
3124.875346168231
 20
1290.649237841398
 10
3124.875346168231
 20
1290.649237841398
 10
3124.875346168231
 20
1290.649237841398
 10
3120.207927725745
 20
1290.649237841398
 10
3120.207927725745
 20
1290.649237841398
 97
        0
 75
     2
 76
     1
 98
        0
  0
HATCH
  5
6D50
330
A
100
AcDbEntity
  8
0
100
AcDbHatch
 10
0.0
 20
0.0
 30
0.0
210
0.0
220
0.0
230
1.0
  2
SOLID
 70
     1
 71
     0
 91
        1
 92
        1
 93
        1
 72
     4
 94
        3
 73
     0
 74
     1
 95
       11
 96
        7
 40
0.0
 40
0.0
 40
0.0
 40
0.0
 40
1.0
 40
1.0
 40
1.0
 40
2.0
 40
2.0
 40
2.0
 40
2.0
 10
3108.200728509921
 20
1289.685299488721
 10
3108.200728509921
 20
1289.685299488721
 10
3125.686666690231
 20
1289.685299488721
 10
3125.686666690231
 20
1289.685299488721
 10
3125.686666690231
 20
1289.685299488721
 10
3108.200728509921
 20
1289.685299488721
 10
3108.200728509921
 20
1289.685299488721
 97
        0
 75
     2
 76
     1
 98
        0
  0
HATCH
  5
6D52
330
A
100
AcDbEntity
  8
0
100
AcDbHatch
 10
0.0
 20
0.0
 30
0.0
210
0.0
220
0.0
230
1.0
  2
SOLID
 70
     1
 71
     0
 91
        1
 92
        1
 93
        1
 72
     4
 94
        3
 73
     0
 74
     1
 95
       11
 96
        7
 40
0.0
 40
0.0
 40
0.0
 40
0.0
 40
1.0
 40
1.0
 40
1.0
 40
2.0
 40
2.0
 40
2.0
 40
2.0
 10
3108.200728509921
 20
1289.685299488721
 10
3108.200728509921
 20
1289.685299488721
 10
3125.686666690231
 20
1289.685299488721
 10
3125.686666690231
 20
1289.685299488721
 10
3125.686666690231
 20
1289.685299488721
 10
3108.200728509921
 20
1289.685299488721
 10
3108.200728509921
 20
1289.685299488721
 97
        0
 75
     2
 76
     1
 98
        0
  0
HATCH
  5
6D54
330
A
100
AcDbEntity
  8
0
100
AcDbHatch
 10
0.0
 20
0.0
 30
0.0
210
0.0
220
0.0
230
1.0
  2
SOLID
 70
     1
 71
     0
 91
        1
 92
        1
 93
        1
 72
     4
 94
        3
 73
     0
 74
     1
 95
       11
 96
        7
 40
0.0
 40
0.0
 40
0.0
 40
0.0
 40
1.0
 40
1.0
 40
1.0
 40
2.0
 40
2.0
 40
2.0
 40
2.0
 10
3124.655204421497
 20
1288.129493341225
 10
3124.655204421497
 20
1288.129493341225
 10
3126.616498575105
 20
1288.129493341225
 10
3126.616498575105
 20
1288.129493341225
 10
3126.616498575105
 20
1288.129493341225
 10
3124.655204421497
 20
1288.129493341225
 10
3124.655204421497
 20
1288.129493341225
 97
        0
 75
     2
 76
     1
 98
        0
  0
HATCH
  5
6D56
330
A
100
AcDbEntity
  8
0
100
AcDbHatch
 10
0.0
 20
0.0
 30
0.0
210
0.0
220
0.0
230
1.0
  2
SOLID
 70
     1
 71
     0
 91
        1
 92
        1
 93
        1
 72
     4
 94
        3
 73
     0
 74
     1
 95
       11
 96
        7
 40
0.0
 40
0.0
 40
0.0
 40
0.0
 40
1.0
 40
1.0
 40
1.0
 40
2.0
 40
2.0
 40
2.0
 40
2.0
 10
3124.655204421497
 20
1288.129493341225
 10
3124.655204421497
 20
1288.129493341225
 10
3126.616498575105
 20
1288.129493341225
 10
3126.616498575105
 20
1288.129493341225
 10
3126.616498575105
 20
1288.129493341225
 10
3124.655204421497
 20
1288.129493341225
 10
3124.655204421497
 20
1288.129493341225
 97
        0
 75
     2
 76
     1
 98
        0
  0
HATCH
  5
6D58
330
A
100
AcDbEntity
  8
0
100
AcDbHatch
 10
0.0
 20
0.0
 30
0.0
210
0.0
220
0.0
230
1.0
  2
SOLID
 70
     1
 71
     0
 91
        1
 92
        1
 93
        1
 72
     4
 94
        3
 73
     0
 74
     1
 95
       11
 96
        7
 40
0.0
 40
0.0
 40
0.0
 40
0.0
 40
1.0
 40
1.0
 40
1.0
 40
2.0
 40
2.0
 40
2.0
 40
2.0
 10
3129.422875208741
 20
1288.095731383197
 10
3129.422875208741
 20
1288.095731383197
 10
3130.437801008236
 20
1288.095731383197
 10
3130.437801008236
 20
1288.095731383197
 10
3130.437801008236
 20
1288.095731383197
 10
3129.422875208741
 20
1288.095731383197
 10
3129.422875208741
 20
1288.095731383197
 97
        0
 75
     2
 76
     1
 98
        0
  0
HATCH
  5
6D5A
330
A
100
AcDbEntity
  8
0
100
AcDbHatch
 10
0.0
 20
0.0
 30
0.0
210
0.0
220
0.0
230
1.0
  2
SOLID
 70
     1
 71
     0
 91
        1
 92
        1
 93
        1
 72
     4
 94
        3
 73
     0
 74
     1
 95
       11
 96
        7
 40
0.0
 40
0.0
 40
0.0
 40
0.0
 40
1.0
 40
1.0
 40
1.0
 40
2.0
 40
2.0
 40
2.0
 40
2.0
 10
3129.422875208741
 20
1288.095731383197
 10
3129.422875208741
 20
1288.095731383197
 10
3130.437801008236
 20
1288.095731383197
 10
3130.437801008236
 20
1288.095731383197
 10
3130.437801008236
 20
1288.095731383197
 10
3129.422875208741
 20
1288.095731383197
 10
3129.422875208741
 20
1288.095731383197
 97
        0
 75
     2
 76
     1
 98
        0
  0
HATCH
  5
6D5C
330
A
100
AcDbEntity
  8
0
100
AcDbHatch
 10
0.0
 20
0.0
 30
0.0
210
0.0
220
0.0
230
1.0
  2
SOLID
 70
     1
 71
     0
 91
        1
 92
        1
 93
        1
 72
     4
 94
        3
 73
     0
 74
     1
 95
       11
 96
        7
 40
0.0
 40
0.0
 40
0.0
 40
0.0
 40
1.0
 40
1.0
 40
1.0
 40
2.0
 40
2.0
 40
2.0
 40
2.0
 10
3130.80952705632
 20
1285.847805096127
 10
3130.80952705632
 20
1285.847805096127
 10
3132.02736911376
 20
1285.847805096127
 10
3132.02736911376
 20
1285.847805096127
 10
3132.02736911376
 20
1285.847805096127
 10
3130.80952705632
 20
1285.847805096127
 10
3130.80952705632
 20
1285.847805096127
 97
        0
 75
     2
 76
     1
 98
        0
  0
HATCH
  5
6D5E
330
A
100
AcDbEntity
  8
0
100
AcDbHatch
 10
0.0
 20
0.0
 30
0.0
210
0.0
220
0.0
230
1.0
  2
SOLID
 70
     1
 71
     0
 91
        1
 92
        1
 93
        1
 72
     4
 94
        3
 73
     0
 74
     1
 95
       11
 96
        7
 40
0.0
 40
0.0
 40
0.0
 40
0.0
 40
1.0
 40
1.0
 40
1.0
 40
2.0
 40
2.0
 40
2.0
 40
2.0
 10
3071.878718337955
 20
1305.76667131311
 10
3071.878718337955
 20
1305.76667131311
 10
3072.369300258689
 20
1305.76667131311
 10
3072.369300258689
 20
1305.76667131311
 10
3072.369300258689
 20
1305.76667131311
 10
3071.878718337955
 20
1305.76667131311
 10
3071.878718337955
 20
1305.76667131311
 97
        0
 75
     2
 76
     1
 98
        0
  0
HATCH
  5
6D60
330
A
100
AcDbEntity
  8
0
100
AcDbHatch
 10
0.0
 20
0.0
 30
0.0
210
0.0
220
0.0
230
1.0
  2
SOLID
 70
     1
 71
     0
 91
        1
 92
        1
 93
        1
 72
     4
 94
        3
 73
     0
 74
     1
 95
       11
 96
        7
 40
0.0
 40
0.0
 40
0.0
 40
0.0
 40
1.0
 40
1.0
 40
1.0
 40
2.0
 40
2.0
 40
2.0
 40
2.0
 10
3071.743670505843
 20
1305.714994846741
 10
3071.743670505843
 20
1305.714994846741
 10
3072.470930642548
 20
1305.714994846741
 10
3072.470930642548
 20
1305.714994846741
 10
3072.470930642548
 20
1305.714994846741
 10
3071.743670505843
 20
1305.714994846741
 10
3071.743670505843
 20
1305.714994846741
 97
        0
 75
     2
 76
     1
 98
        0
  0
HATCH
  5
6D62
330
A
100
AcDbEntity
  8
0
100
AcDbHatch
 10
0.0
 20
0.0
 30
0.0
210
0.0
220
0.0
230
1.0
  2
SOLID
 70
     1
 71
     0
 91
        1
 92
        1
 93
        1
 72
     4
 94
        3
 73
     0
 74
     1
 95
       11
 96
        7
 40
0.0
 40
0.0
 40
0.0
 40
0.0
 40
1.0
 40
1.0
 40
1.0
 40
2.0
 40
2.0
 40
2.0
 40
2.0
 10
3071.743670505843
 20
1305.714994846741
 10
3071.743670505843
 20
1305.714994846741
 10
3072.470930642548
 20
1305.714994846741
 10
3072.470930642548
 20
1305.714994846741
 10
3072.470930642548
 20
1305.714994846741
 10
3071.743670505843
 20
1305.714994846741
 10
3071.743670505843
 20
1305.714994846741
 97
        0
 75
     2
 76
     1
 98
        0
  0
HATCH
  5
6D64
330
A
100
AcDbEntity
  8
0
100
AcDbHatch
 10
0.0
 20
0.0
 30
0.0
210
0.0
220
0.0
230
1.0
  2
SOLID
 70
     1
 71
     0
 91
        1
 92
        1
 93
        1
 72
     4
 94
        3
 73
     0
 74
     1
 95
       11
 96
        7
 40
0.0
 40
0.0
 40
0.0
 40
0.0
 40
1.0
 40
1.0
 40
1.0
 40
2.0
 40
2.0
 40
2.0
 40
2.0
 10
3071.574516205927
 20
1305.496403393998
 10
3071.574516205927
 20
1305.496403393998
 10
3072.707264348745
 20
1305.496403393998
 10
3072.707264348745
 20
1305.496403393998
 10
3072.707264348745
 20
1305.496403393998
 10
3071.574516205927
 20
1305.496403393998
 10
3071.574516205927
 20
1305.496403393998
 97
        0
 75
     2
 76
     1
 98
        0
  0
HATCH
  5
6D66
330
A
100
AcDbEntity
  8
0
100
AcDbHatch
 10
0.0
 20
0.0
 30
0.0
210
0.0
220
0.0
230
1.0
  2
SOLID
 70
     1
 71
     0
 91
        1
 92
        1
 93
        1
 72
     4
 94
        3
 73
     0
 74
     1
 95
       11
 96
        7
 40
0.0
 40
0.0
 40
0.0
 40
0.0
 40
1.0
 40
1.0
 40
1.0
 40
2.0
 40
2.0
 40
2.0
 40
2.0
 10
3071.574516205927
 20
1305.496403393998
 10
3071.574516205927
 20
1305.496403393998
 10
3072.707264348745
 20
1305.496403393998
 10
3072.707264348745
 20
1305.496403393998
 10
3072.707264348745
 20
1305.496403393998
 10
3071.574516205927
 20
1305.496403393998
 10
3071.574516205927
 20
1305.496403393998
 97
        0
 75
     2
 76
     1
 98
        0
  0
HATCH
  5
6D68
330
A
100
AcDbEntity
  8
0
100
AcDbHatch
 10
0.0
 20
0.0
 30
0.0
210
0.0
220
0.0
230
1.0
  2
SOLID
 70
     1
 71
     0
 91
        1
 92
        1
 93
        1
 72
     4
 94
        3
 73
     0
 74
     1
 95
       11
 96
        7
 40
0.0
 40
0.0
 40
0.0
 40
0.0
 40
1.0
 40
1.0
 40
1.0
 40
2.0
 40
2.0
 40
2.0
 40
2.0
 10
3073.53615486931
 20
1300.625551928904
 10
3073.53615486931
 20
1300.625551928904
 10
3075.515019021484
 20
1300.625551928904
 10
3075.515019021484
 20
1300.625551928904
 10
3075.515019021484
 20
1300.625551928904
 10
3073.53615486931
 20
1300.625551928904
 10
3073.53615486931
 20
1300.625551928904
 97
        0
 75
     2
 76
     1
 98
        0
  0
HATCH
  5
6D6A
330
A
100
AcDbEntity
  8
0
100
AcDbHatch
 10
0.0
 20
0.0
 30
0.0
210
0.0
220
0.0
230
1.0
  2
SOLID
 70
     1
 71
     0
 91
        1
 92
        1
 93
        1
 72
     4
 94
        3
 73
     0
 74
     1
 95
       11
 96
        7
 40
0.0
 40
0.0
 40
0.0
 40
0.0
 40
1.0
 40
1.0
 40
1.0
 40
2.0
 40
2.0
 40
2.0
 40
2.0
 10
3079.69151103346
 20
1291.224913676754
 10
3079.69151103346
 20
1291.224913676754
 10
3082.465159238395
 20
1291.224913676754
 10
3082.465159238395
 20
1291.224913676754
 10
3082.465159238395
 20
1291.224913676754
 10
3079.69151103346
 20
1291.224913676754
 10
3079.69151103346
 20
1291.224913676754
 97
        0
 75
     2
 76
     1
 98
        0
  0
HATCH
  5
6D6C
330
A
100
AcDbEntity
  8
0
100
AcDbHatch
 10
0.0
 20
0.0
 30
0.0
210
0.0
220
0.0
230
1.0
  2
SOLID
 70
     1
 71
     0
 91
        1
 92
        1
 93
        1
 72
     4
 94
        3
 73
     0
 74
     1
 95
       11
 96
        7
 40
0.0
 40
0.0
 40
0.0
 40
0.0
 40
1.0
 40
1.0
 40
1.0
 40
2.0
 40
2.0
 40
2.0
 40
2.0
 10
3079.69151103346
 20
1291.224913676754
 10
3079.69151103346
 20
1291.224913676754
 10
3082.465159238395
 20
1291.224913676754
 10
3082.465159238395
 20
1291.224913676754
 10
3082.465159238395
 20
1291.224913676754
 10
3079.69151103346
 20
1291.224913676754
 10
3079.69151103346
 20
1291.224913676754
 97
        0
 75
     2
 76
     1
 98
        0
  0
HATCH
  5
6D6E
330
A
100
AcDbEntity
  8
0
100
AcDbHatch
 10
0.0
 20
0.0
 30
0.0
210
0.0
220
0.0
230
1.0
  2
SOLID
 70
     1
 71
     0
 91
        1
 92
        1
 93
        1
 72
     4
 94
        3
 73
     0
 74
     1
 95
       11
 96
        7
 40
0.0
 40
0.0
 40
0.0
 40
0.0
 40
1.0
 40
1.0
 40
1.0
 40
2.0
 40
2.0
 40
2.0
 40
2.0
 10
3079.657749075433
 20
1290.649237841398
 10
3079.657749075433
 20
1290.649237841398
 10
3084.325167517919
 20
1290.649237841398
 10
3084.325167517919
 20
1290.649237841398
 10
3084.325167517919
 20
1290.649237841398
 10
3079.657749075433
 20
1290.649237841398
 10
3079.657749075433
 20
1290.649237841398
 97
        0
 75
     2
 76
     1
 98
        0
  0
HATCH
  5
6D70
330
A
100
AcDbEntity
  8
0
100
AcDbHatch
 10
0.0
 20
0.0
 30
0.0
210
0.0
220
0.0
230
1.0
  2
SOLID
 70
     1
 71
     0
 91
        1
 92
        1
 93
        1
 72
     4
 94
        3
 73
     0
 74
     1
 95
       11
 96
        7
 40
0.0
 40
0.0
 40
0.0
 40
0.0
 40
1.0
 40
1.0
 40
1.0
 40
2.0
 40
2.0
 40
2.0
 40
2.0
 10
3079.657749075433
 20
1290.649237841398
 10
3079.657749075433
 20
1290.649237841398
 10
3084.325167517919
 20
1290.649237841398
 10
3084.325167517919
 20
1290.649237841398
 10
3084.325167517919
 20
1290.649237841398
 10
3079.657749075433
 20
1290.649237841398
 10
3079.657749075433
 20
1290.649237841398
 97
        0
 75
     2
 76
     1
 98
        0
  0
HATCH
  5
6D72
330
A
100
AcDbEntity
  8
0
100
AcDbHatch
 10
0.0
 20
0.0
 30
0.0
210
0.0
220
0.0
230
1.0
  2
SOLID
 70
     1
 71
     0
 91
        1
 92
        1
 93
        1
 72
     4
 94
        3
 73
     0
 74
     1
 95
       11
 96
        7
 40
0.0
 40
0.0
 40
0.0
 40
0.0
 40
1.0
 40
1.0
 40
1.0
 40
2.0
 40
2.0
 40
2.0
 40
2.0
 10
3078.83023659397
 20
1289.685299488721
 10
3078.83023659397
 20
1289.685299488721
 10
3096.330299675088
 20
1289.685299488721
 10
3096.330299675088
 20
1289.685299488721
 10
3096.330299675088
 20
1289.685299488721
 10
3078.83023659397
 20
1289.685299488721
 10
3078.83023659397
 20
1289.685299488721
 97
        0
 75
     2
 76
     1
 98
        0
  0
HATCH
  5
6D74
330
A
100
AcDbEntity
  8
0
100
AcDbHatch
 10
0.0
 20
0.0
 30
0.0
210
0.0
220
0.0
230
1.0
  2
SOLID
 70
     1
 71
     0
 91
        1
 92
        1
 93
        1
 72
     4
 94
        3
 73
     0
 74
     1
 95
       11
 96
        7
 40
0.0
 40
0.0
 40
0.0
 40
0.0
 40
1.0
 40
1.0
 40
1.0
 40
2.0
 40
2.0
 40
2.0
 40
2.0
 10
3078.83023659397
 20
1289.685299488721
 10
3078.83023659397
 20
1289.685299488721
 10
3096.330299675088
 20
1289.685299488721
 10
3096.330299675088
 20
1289.685299488721
 10
3096.330299675088
 20
1289.685299488721
 10
3078.83023659397
 20
1289.685299488721
 10
3078.83023659397
 20
1289.685299488721
 97
        0
 75
     2
 76
     1
 98
        0
  0
HATCH
  5
6D76
330
A
100
AcDbEntity
  8
0
100
AcDbHatch
 10
0.0
 20
0.0
 30
0.0
210
0.0
220
0.0
230
1.0
  2
SOLID
 70
     1
 71
     0
 91
        1
 92
        1
 93
        1
 72
     4
 94
        3
 73
     0
 74
     1
 95
       11
 96
        7
 40
0.0
 40
0.0
 40
0.0
 40
0.0
 40
1.0
 40
1.0
 40
1.0
 40
2.0
 40
2.0
 40
2.0
 40
2.0
 10
3074.179354620722
 20
1288.095731383197
 10
3074.179354620722
 20
1288.095731383197
 10
3075.091961016806
 20
1288.095731383197
 10
3075.091961016806
 20
1288.095731383197
 10
3075.091961016806
 20
1288.095731383197
 10
3074.179354620722
 20
1288.095731383197
 10
3074.179354620722
 20
1288.095731383197
 97
        0
 75
     2
 76
     1
 98
        0
  0
HATCH
  5
6D78
330
A
100
AcDbEntity
  8
0
100
AcDbHatch
 10
0.0
 20
0.0
 30
0.0
210
0.0
220
0.0
230
1.0
  2
SOLID
 70
     1
 71
     0
 91
        1
 92
        1
 93
        1
 72
     4
 94
        3
 73
     0
 74
     1
 95
       11
 96
        7
 40
0.0
 40
0.0
 40
0.0
 40
0.0
 40
1.0
 40
1.0
 40
1.0
 40
2.0
 40
2.0
 40
2.0
 40
2.0
 10
3072.132966552493
 20
1288.095731383197
 10
3072.132966552493
 20
1288.095731383197
 10
3074.0942607061
 20
1288.095731383197
 10
3074.0942607061
 20
1288.095731383197
 10
3074.0942607061
 20
1288.095731383197
 10
3072.132966552493
 20
1288.095731383197
 10
3072.132966552493
 20
1288.095731383197
 97
        0
 75
     2
 76
     1
 98
        0
  0
HATCH
  5
6D7A
330
A
100
AcDbEntity
  8
0
100
AcDbHatch
 10
0.0
 20
0.0
 30
0.0
210
0.0
220
0.0
230
1.0
  2
SOLID
 70
     1
 71
     0
 91
        1
 92
        1
 93
        1
 72
     4
 94
        3
 73
     0
 74
     1
 95
       11
 96
        7
 40
0.0
 40
0.0
 40
0.0
 40
0.0
 40
1.0
 40
1.0
 40
1.0
 40
2.0
 40
2.0
 40
2.0
 40
2.0
 10
3072.132966552493
 20
1288.095731383197
 10
3072.132966552493
 20
1288.095731383197
 10
3074.0942607061
 20
1288.095731383197
 10
3074.0942607061
 20
1288.095731383197
 10
3074.0942607061
 20
1288.095731383197
 10
3072.132966552493
 20
1288.095731383197
 10
3072.132966552493
 20
1288.095731383197
 97
        0
 75
     2
 76
     1
 98
        0
  0
SPLINE
  5
6D82
330
A
100
AcDbEntity
  8
MODEL
100
AcDbSpline
210
0.0
220
0.0
230
1.0
 70
    11
 71
     3
 72
    29
 73
    25
 74
     0
 42
0.000000001
 43
0.0000000001
 40
0.0
 40
0.0
 40
0.0
 40
0.0
 40
1.0
 40
1.0
 40
1.0
 40
2.0
 40
2.0
 40
2.0
 40
3.0
 40
3.0
 40
3.0
 40
4.0
 40
4.0
 40
4.0
 40
5.0
 40
5.0
 40
5.0
 40
6.0
 40
6.0
 40
6.0
 40
7.0
 40
7.0
 40
7.0
 40
8.0
 40
8.0
 40
8.0
 40
8.0
 10
559.169926244645
 20
1950.750746828979
 30
0.0
 10
559.169926244645
 20
1950.750746828979
 30
0.0
 10
559.0588285375811
 20
1953.172452403107
 30
0.0
 10
559.0588285375811
 20
1953.172452403107
 30
0.0
 10
559.0588285375811
 20
1953.172452403107
 30
0.0
 10
558.6189265055796
 20
1955.595280176296
 30
0.0
 10
558.6189265055796
 20
1955.595280176296
 30
0.0
 10
552.4221432894842
 20
1979.617073280914
 30
0.0
 10
518.9783668668092
 20
1977.734023256175
 30
0.0
 10
515.4378288286384
 20
1953.172452403107
 30
0.0
 10
515.4378288286384
 20
1953.172452403107
 30
0.0
 10
515.327853320639
 20
1950.750746828979
 30
0.0
 10
515.327853320639
 20
1950.750746828979
 30
0.0
 10
515.327853320639
 20
1950.750746828979
 30
0.0
 10
515.4378288286384
 20
1948.329041254853
 30
0.0
 10
515.4378288286384
 20
1948.329041254853
 30
0.0
 10
518.9783668668092
 20
1923.764103804599
 30
0.0
 10
552.4221432894842
 20
1921.88105377986
 30
0.0
 10
558.6189265055796
 20
1945.907335680726
 30
0.0
 10
558.6189265055796
 20
1945.907335680726
 30
0.0
 10
559.0588285375811
 20
1948.329041254853
 30
0.0
 10
559.0588285375811
 20
1948.329041254853
 30
0.0
 10
559.0588285375811
 20
1948.329041254853
 30
0.0
 10
559.169926244645
 20
1950.750746828979
 30
0.0
 10
559.169926244645
 20
1950.750746828979
 30
0.0
  0
SPLINE
  5
6D8F
330
A
100
AcDbEntity
  8
MODEL
100
AcDbSpline
210
0.0
220
0.0
230
1.0
 70
    11
 71
     3
 72
    29
 73
    25
 74
     0
 42
0.000000001
 43
0.0000000001
 40
0.0
 40
0.0
 40
0.0
 40
0.0
 40
1.0
 40
1.0
 40
1.0
 40
2.0
 40
2.0
 40
2.0
 40
3.0
 40
3.0
 40
3.0
 40
4.0
 40
4.0
 40
4.0
 40
5.0
 40
5.0
 40
5.0
 40
6.0
 40
6.0
 40
6.0
 40
7.0
 40
7.0
 40
7.0
 40
8.0
 40
8.0
 40
8.0
 40
8.0
 10
572.0639934581372
 20
1950.750746828979
 30
0.0
 10
572.0639934581372
 20
1950.750746828979
 30
0.0
 10
571.9585067463809
 20
1953.833427650171
 30
0.0
 10
571.9585067463809
 20
1953.833427650171
 30
0.0
 10
571.9585067463809
 20
1953.833427650171
 30
0.0
 10
571.5141159181362
 20
1956.919475068542
 30
0.0
 10
571.5141159181362
 20
1956.919475068542
 30
0.0
 10
563.2502420312626
 20
1996.187464618987
 30
0.0
 10
508.8033879786667
 20
1994.944068059147
 30
0.0
 10
502.3226884000828
 20
1955.385428951846
 30
0.0
 10
502.3226884000828
 20
1955.385428951846
 30
0.0
 10
502.0028616676314
 20
1952.284792945677
 30
0.0
 10
502.0028616676314
 20
1952.284792945677
 30
0.0
 10
502.0028616676314
 20
1952.284792945677
 30
0.0
 10
502.0028616676314
 20
1949.216700712283
 30
0.0
 10
502.0028616676314
 20
1949.216700712283
 30
0.0
 10
505.4940229471063
 20
1907.43386306563
 30
0.0
 10
562.5959999785659
 20
1903.598186674355
 30
0.0
 10
571.5141159181362
 20
1944.582018589418
 30
0.0
 10
571.5141159181362
 20
1944.582018589418
 30
0.0
 10
571.9585067463809
 20
1947.66806600779
 30
0.0
 10
571.9585067463809
 20
1947.66806600779
 30
0.0
 10
571.9585067463809
 20
1947.66806600779
 30
0.0
 10
572.0639934581372
 20
1950.750746828979
 30
0.0
 10
572.0639934581372
 20
1950.750746828979
 30
0.0
  0
CIRCLE
  5
7F06
330
A
100
AcDbEntity
  8
HIDDEN
 48
0.5
100
AcDbCircle
 10
1448.52410454874
 20
1950.750746828979
 30
0.0
 40
22.64230758676847
  0
HATCH
  5
7F07
330
A
100
AcDbEntity
  8
Dim
  6
Continuous
100
AcDbHatch
 10
0.0
 20
0.0
 30
0.0
210
0.0
220
0.0
230
1.0
  2
ANSI31
 70
     0
 71
     1
 91
        1
 92
        1
 93
        1
 72
     2
 10
1448.52410454874
 20
1950.750746828979
 40
60.0
 50
0.0
 51
360.0
 73
     1
 97
        1
330
7F08
 75
     0
 76
     1
 52
0.0
 41
4.0
 77
     0
 78
     1
 53
45.0
 43
-2649.173395451259
 44
48.05218014003685
 45
-8.980256121069154
 46
8.980256121069154
 79
     0
 98
        1
 10
-2649.173395451259
 20
48.05218014003685
1001
ACAD
1010
0.0
1020
0.0
1030
0.0
  0
CIRCLE
  5
7F08
102
{ACAD_REACTORS
330
7F07
102
}
330
A
100
AcDbEntity
  8
MODEL
 48
0.2
100
AcDbCircle
 10
1448.52410454874
 20
1950.750746828979
 30
0.0
 40
60.0
  0
LINE
  5
7F09
330
A
100
AcDbEntity
  8
Dim
  6
Continuous
100
AcDbLine
 10
1485.235161932445
 20
1998.209131396621
 30
0.0
 11
1621.331651448137
 21
2164.424779416456
 31
0.0
  0
LINE
  5
7F0A
330
A
100
AcDbEntity
  8
Dim
  6
Continuous
100
AcDbLine
 10
1621.331651448137
 20
2164.424779416456
 30
0.0
 11
1709.847730391627
 21
2164.424779416456
 31
0.0
  0
MTEXT
  5
7F0B
330
A
100
AcDbEntity
  8
Dim
390
1D
100
AcDbMText
 10
1634.116040186336
 20
2201.503897534223
 30
34.99521132346015
 40
24.0
 41
0.0
 46
24.0
 71
     1
 72
     1
  1
{Ø120}
  7
ＭＳ ゴシック
 73
     1
 44
0.7828267384257843
1001
ACAD
1000
ACAD_MTEXT_DEFINED_HEIGHT_BEGIN
1070
    46
1040
24.0
1000
ACAD_MTEXT_DEFINED_HEIGHT_END
  0
MTEXT
  5
7F0D
330
A
100
AcDbEntity
  8
Dim
390
1D
100
AcDbMText
 10
1308.322526349658
 20
2375.554378433705
 30
34.99521132346015
 40
24.0
 41
0.0
 46
27.413396484375
 71
     1
 72
     1
  1
{カウンター切込寸法}
  7
ＭＳ ゴシック
 73
     1
 44
0.7828267384257843
1001
ACAD
1000
ACAD_MTEXT_DEFINED_HEIGHT_BEGIN
1070
    46
1040
27.413396484375
1000
ACAD_MTEXT_DEFINED_HEIGHT_END
  0
MTEXT
  5
7F0E
330
A
100
AcDbEntity
  8
Dim
390
1D
100
AcDbMText
 10
1195.88084528014
 20
1622.402306645717
 30
34.99521132346015
 40
24.0
 41
1169.771715461011
 46
120.6272086110942
 71
     1
 72
     1
  1
{※陶器製品には寸法公差があります。\P  必ず現物を合わせてカウンターに切込を\P  行ってください。}
  7
ＭＳ ゴシック
 73
     1
 44
1.174240107638677
1001
ACAD
1000
ACAD_MTEXT_DEFINED_HEIGHT_BEGIN
1070
    46
1040
120.6272086110942
1000
ACAD_MTEXT_DEFINED_HEIGHT_END
  0
LINE
  5
7F28
102
{ACAD_REACTORS
330
7FD8
330
7FDF
102
}
330
A
100
AcDbEntity
  8
MODEL
  6
Continuous
100
AcDbLine
 10
316.4319986415251
 20
1160.377787119953
 30
0.0
 11
537.4426492774928
 21
1160.377787119953
 31
0.0
  0
SPLINE
  5
7F29
102
{ACAD_REACTORS
330
7FD8
330
7FDF
102
}
330
A
100
AcDbEntity
  8
MODEL
  6
Continuous
100
AcDbSpline
210
0.0
220
0.0
230
1.0
 70
     8
 71
     3
 72
    33
 73
    29
 74
     0
 42
0.000000001
 43
0.0000000001
 40
196.0403206028723
 40
196.0403206028723
 40
196.0403206028723
 40
196.0403206028723
 40
197.1333424885097
 40
197.9732453269683
 40
198.7356839182041
 40
199.4307631824939
 40
200.6520504887588
 40
201.6295123385836
 40
202.8781611484992
 40
204.7555052673782
 40
213.646527889264
 40
221.9422802039978
 40
235.043182407736
 40
300.5417643915904
 40
317.312788257473
 40
323.8500097301923
 40
327.6477550423497
 40
329.1234041380808
 40
330.8764644187385
 40
332.2468073682407
 40
333.9512898465027
 40
337.768523024159
 40
359.3936881394406
 40
363.1412328504125
 40
363.7897291769281
 40
364.49418304106
 40
365.4214983330796
 40
365.6718998469357
 40
365.6718998469357
 40
365.6718998469357
 40
365.6718998469357
 10
316.4319986415251
 20
1160.377787119953
 30
0.0
 10
316.0664538578305
 20
1160.389928963236
 30
0.0
 10
315.4199983520023
 20
1160.41158044944
 30
0.0
 10
314.5343910413014
 20
1160.282039159117
 30
0.0
 10
313.7657903137012
 20
1160.116806323658
 30
0.0
 10
313.0855226841579
 20
1159.513324141062
 30
0.0
 10
312.4289484609615
 20
1158.783140267361
 30
0.0
 10
312.1112547619125
 20
1157.649945311218
 30
0.0
 10
312.0884277482326
 20
1156.279724821396
 30
0.0
 10
312.2948143845495
 20
1152.279469581347
 30
0.0
 10
312.4751902997166
 20
1145.926495231074
 30
0.0
 10
312.8654357886433
 20
1135.839063548554
 30
0.0
 10
313.8779494754951
 20
1106.880365332061
 30
0.0
 10
315.1410429190184
 20
1075.269420720731
 30
0.0
 10
315.7624137883492
 20
1045.435379437733
 30
0.0
 10
316.4432714174593
 20
1036.613261431643
 30
0.0
 10
316.0624571366682
 20
1032.39432636021
 30
0.0
 10
317.6897287144664
 20
1030.533577536584
 30
0.0
 10
319.2329403766082
 20
1030.086138794757
 30
0.0
 10
320.8398490966404
 20
1030.18934064987
 30
0.0
 10
323.1383353386097
 20
1030.150070079639
 30
0.0
 10
332.180488813475
 20
1030.178811058554
 30
0.0
 10
341.9936566378221
 20
1030.500537322461
 30
0.0
 10
350.560986222604
 20
1030.036372975492
 30
0.0
 10
352.3075605665547
 20
1030.240066230291
 30
0.0
 10
352.9677927949817
 20
1029.801714662368
 30
0.0
 10
353.47234553763
 20
1029.413086547831
 30
0.0
 10
353.8360211414104
 20
1029.292734368807
 30
0.0
 10
353.9150809682708
 20
1029.271725089206
 30
0.0
  0
LINE
  5
7F2A
102
{ACAD_REACTORS
330
7FD8
330
7FDF
102
}
330
A
100
AcDbEntity
  8
MODEL
  6
Continuous
100
AcDbLine
 10
353.9150809682708
 20
1029.271725089206
 30
0.0
 11
537.4880565551305
 21
1029.163361409813
 31
0.0
  0
SPLINE
  5
7F2B
102
{ACAD_REACTORS
330
7FDF
102
}
330
A
100
AcDbEntity
  8
HIDDEN
 48
0.5
100
AcDbSpline
210
0.0
220
0.0
230
1.0
 70
  1064
 71
     3
 72
    38
 73
    34
 74
    32
 42
0.000000001
 43
0.0000000001
 44
0.0
 40
0.0
 40
0.0
 40
0.0
 40
0.0
 40
20.73825809563641
 40
21.15465195241131
 40
22.03998956249416
 40
22.80343650790779
 40
23.21980582442631
 40
26.39462186375025
 40
30.41257895962686
 40
32.1345812100104
 40
34.97585121097229
 40
39.76627943801195
 40
44.43080722652438
 40
48.71003865690832
 40
52.14674404325203
 40
55.23405943502319
 40
63.78825400033674
 40
106.4512005823278
 40
129.8033221394706
 40
154.0747613820254
 40
171.8488554551831
 40
185.9466239509891
 40
197.7154411208116
 40
208.7434235777485
 40
227.5932660265838
 40
242.0659433900199
 40
249.2297178577012
 40
264.7922696892652
 40
277.1012294655236
 40
285.1913145315013
 40
286.7293851619852
 40
288.489063164184
 40
289.3913972086199
 40
289.3913972086199
 40
289.3913972086199
 40
289.3913972086199
 10
537.4870238934404
 20
1032.147466990762
 30
0.0
 10
530.4011575294974
 20
1031.972481374597
 30
0.0
 10
523.1730173443748
 20
1031.793982303479
 30
0.0
 10
516.2053961701914
 20
1032.177123057274
 30
0.0
 10
515.2226685366944
 20
1031.87960546174
 30
0.0
 10
515.4665845809333
 20
1032.821987488664
 30
0.0
 10
515.3741759205592
 20
1034.196504056931
 30
0.0
 10
515.4512187320452
 20
1036.818759330386
 30
0.0
 10
515.2684123889908
 20
1039.723304237891
 30
0.0
 10
515.5037399848733
 20
1042.666260210279
 30
0.0
 10
513.3858705875446
 20
1045.276636008191
 30
0.0
 10
510.1259712355725
 20
1047.63371161161
 30
0.0
 10
506.6337826270073
 20
1050.630804055721
 30
0.0
 10
503.5475187407371
 20
1053.374973509432
 30
0.0
 10
500.3322201826364
 20
1055.109653692279
 30
0.0
 10
495.3798570513679
 20
1056.14952659185
 30
0.0
 10
477.2436909982175
 20
1056.586510853874
 30
0.0
 10
452.4036906167699
 20
1056.613310658732
 30
0.0
 10
422.3835975194924
 20
1059.257624133618
 30
0.0
 10
400.6559209475402
 20
1060.082699332575
 30
0.0
 10
382.0098623767757
 20
1064.08398604852
 30
0.0
 10
369.9320002787665
 20
1072.773069604442
 30
0.0
 10
362.1904708409566
 20
1082.423917052769
 30
0.0
 10
355.3074845311849
 20
1094.496070959926
 30
0.0
 10
347.8454478459405
 20
1107.252295802153
 30
0.0
 10
341.0895831294268
 20
1118.934821850236
 30
0.0
 10
334.8910261397017
 20
1129.677657431588
 30
0.0
 10
329.0448719568568
 20
1139.761791945471
 30
0.0
 10
323.0690616056683
 20
1150.231847711151
 30
0.0
 10
319.3791428901258
 20
1156.401561898077
 30
0.0
 10
317.5146020834238
 20
1159.852828641221
 30
0.0
 10
316.0713977240998
 20
1160.332135041748
 30
0.0
 10
315.190198080033
 20
1160.366230042354
 30
0.0
 10
314.8915005441629
 20
1160.377787119953
 30
0.0
 11
537.4870238934404
 21
1032.147466990762
 31
0.0
 11
516.748765797804
 21
1032.147466990762
 31
0.0
 11
516.3323719410291
 21
1032.147466990762
 31
0.0
 11
515.4470343309463
 21
1032.147466990762
 31
0.0
 11
515.4387458682272
 21
1032.910868942454
 31
0.0
 11
515.4342254996827
 21
1033.32721372026
 31
0.0
 11
515.3997576895222
 21
1036.501842651901
 31
0.0
 11
515.3561362069868
 21
1040.519562949603
 31
0.0
 11
515.3080935643547
 21
1042.24089489168
 31
0.0
 11
513.7862701121803
 21
1044.640242427736
 31
0.0
 11
510.1189129682252
 21
1047.722237589494
 31
0.0
 11
506.5479400827908
 21
1050.723232781309
 31
0.0
 11
503.2227711187634
 21
1053.41675705175
 31
0.0
 11
500.1724346704987
 21
1054.999915750337
 31
0.0
 11
497.1709004198115
 21
1055.722624869014
 31
0.0
 11
488.6362849544948
 21
1056.301056818699
 31
0.0
 11
445.9879581807074
 21
1057.417853332872
 31
0.0
 11
422.6922315022637
 21
1059.039796532501
 31
0.0
 11
398.498983282552
 21
1060.986461240262
 31
0.0
 11
381.3376190687816
 21
1065.613122935673
 31
0.0
 11
369.801695167853
 21
1073.716797183403
 31
0.0
 11
362.3057368012849
 21
1082.789595304346
 31
0.0
 11
356.5880805053678
 21
1092.219590190467
 31
0.0
 11
347.1237357815569
 21
1108.521207879972
 31
0.0
 11
339.8722423791771
 21
1121.046152331001
 31
0.0
 11
336.2900092402676
 21
1127.249963285753
 31
0.0
 11
328.5079818818492
 21
1140.727094646059
 31
0.0
 11
322.352907651785
 21
1151.386623340891
 31
0.0
 11
318.3074744865328
 21
1158.392616980642
 31
0.0
 11
317.4218462868923
 21
1159.650124020924
 31
0.0
 11
315.7914426168911
 21
1160.312128963707
 31
0.0
 11
314.8915005441629
 21
1160.377787119953
 31
0.0
  0
LINE
  5
7F2C
102
{ACAD_REACTORS
330
7FDF
102
}
330
A
100
AcDbEntity
  8
HIDDEN
 48
0.5
100
AcDbLine
 10
537.1899743319254
 20
1044.264972453888
 30
0.0
 11
513.7887828700595
 21
1044.264972453888
 31
0.0
  0
LINE
  5
7F2D
102
{ACAD_REACTORS
330
7FDF
102
}
330
A
100
AcDbEntity
  8
HIDDEN
 48
0.5
100
AcDbLine
 10
537.1899743319254
 20
1055.722624869014
 30
0.0
 11
496.5944232920506
 21
1055.722624869014
 31
0.0
  0
DIMENSION
  5
7F34
330
A
100
AcDbEntity
  8
Dim
  6
Continuous
100
AcDbDimension
  2
*D7
 10
754.3833738491377
 20
1637.499340224
 30
0.0
 11
537.1383531751103
 21
1659.71564881775
 31
0.0
 70
    32
  1
430
 71
     5
 42
434.4900413480548
 73
     0
 74
     0
 75
     0
  3
tform線あり
100
AcDbAlignedDimension
 13
319.8933325010829
 23
1851.593343136981
 33
0.0
 14
754.3833738491377
 24
1851.593343136981
 34
0.0
100
AcDbRotatedDimension
1001
ACAD
1000
DSTYLE
1002
{
1070
   144
1040
1.0
1002
}
  0
DIMENSION
  5
7F5A
330
A
100
AcDbEntity
  8
Dim
  6
Continuous
100
AcDbDimension
  2
*D8
 10
890.7335361600001
 20
1030.080242776638
 30
0.0
 11
868.5172275662501
 21
1095.080242776638
 31
0.0
 70
    32
 71
     5
 42
130.0
 73
     0
 74
     0
 75
     0
  3
tform線あり
100
AcDbAlignedDimension
 13
767.3204518001374
 23
1160.080242776638
 33
0.0
 14
767.3204518001374
 24
1030.080242776638
 34
0.0
 50
90.0
100
AcDbRotatedDimension
1001
ACAD
1000
DSTYLE
1002
{
1070
   144
1040
1.0
1002
}
  0
DIMENSION
  5
7F79
330
A
100
AcDbEntity
  8
Dim
  6
Continuous
100
AcDbDimension
  2
*D9
 10
1448.524104548739
 20
1160.377787119953
 30
0.0
 11
1448.524104548739
 21
1256.564526377766
 31
0.0
 70
   160
  1
105(深さ)
 71
     5
 42
104.7199250885662
 73
     0
 74
     1
 75
     1
  3
tform線あり
100
AcDbAlignedDimension
 13
1448.524104548739
 23
1055.657862031386
 33
0.0
 14
1448.524104548739
 24
1160.377787119953
 34
0.0
 50
90.0
100
AcDbRotatedDimension
1001
ACAD
1000
DSTYLE
1002
{
1070
   271
1070
     0
1070
    76
1070
     1
1070
    75
1070
     1
1002
}
  0
DIMENSION
  5
7F9E
330
A
100
AcDbEntity
  8
Dim
  6
Continuous
100
AcDbDimension
  2
*D10
 10
762.1383531751101
 20
2229.07452768
 30
0.0
 11
537.1383531751101
 21
2251.29083627375
 31
0.0
 70
    32
 71
     5
 42
450.0
 73
     0
 74
     0
 75
     0
 52
-90.0
  3
tform線あり
100
AcDbAlignedDimension
 13
312.1383531751101
 23
2019.99753232098
 33
0.0
 14
762.1383531751101
 24
2019.99753232098
 34
0.0
100
AcDbRotatedDimension
1001
ACAD
1000
DSTYLE
1002
{
1070
   144
1040
1.0
1002
}
  0
DIMENSION
  5
7FAF
330
A
100
AcDbEntity
  8
Dim
  6
Continuous
100
AcDbDimension
  2
*D11
 10
1673.524104548739
 20
946.7277638860796
 30
0.0
 11
1561.024104548739
 21
968.9440724798296
 31
0.0
 70
    32
 71
     5
 42
225.0
 73
     0
 74
     0
 75
     0
  3
tform線あり
100
AcDbAlignedDimension
 13
1448.524104548739
 23
1029.178128274756
 33
0.0
 14
1673.524104548739
 24
1089.20564932608
 34
0.0
100
AcDbRotatedDimension
1001
ACAD
1000
DSTYLE
1002
{
1070
   144
1040
1.0
1002
}
  0
MTEXT
  5
7FBF
330
A
100
AcDbEntity
  8
template
390
1D
100
AcDbMText
 10
1332.000000000742
 20
231.8526328978188
 30
0.0
 40
24.4326171875
 41
0.0
 46
28.390701171875
 71
     1
 72
     1
  1
{10kg}
  7
ＭＳ ゴシック
 73
     1
 44
0.7828267384257843
1001
ACAD
1000
ACAD_MTEXT_DEFINED_HEIGHT_BEGIN
1070
    46
1040
28.390701171875
1000
ACAD_MTEXT_DEFINED_HEIGHT_END
  0
MTEXT
  5
7FC1
330
A
100
AcDbEntity
  8
template
390
1D
100
AcDbMText
 10
1573.745264640741
 20
231.8526328978188
 30
0.0
 40
24.4326171875
 41
0.0
 46
24.4326171875
 71
     1
 72
     1
  1
{9.5L}
  7
ＭＳ ゴシック
 73
     1
 44
0.7828267384257843
1001
ACAD
1000
ACAD_MTEXT_DEFINED_HEIGHT_BEGIN
1070
    46
1040
24.4326171875
1000
ACAD_MTEXT_DEFINED_HEIGHT_END
  0
CIRCLE
  5
7FCD
330
A
100
AcDbEntity
  8
MODEL
  6
Continuous
100
AcDbCircle
 10
537.1383531751103
 20
1950.86072233698
 30
0.0
 40
225.0
  0
CIRCLE
  5
7FD0
330
A
100
AcDbEntity
  8
MODEL
  6
Continuous
100
AcDbCircle
 10
537.1383531751103
 20
1950.86072233698
 30
0.0
 40
217.2450206740274
  0
LINE
  5
7FD5
102
{ACAD_REACTORS
330
7FD8
330
7FDF
102
}
330
A
100
AcDbEntity
  8
MODEL
  6
Continuous
100
AcDbLine
 10
758.4532999134606
 20
1160.377787119953
 30
0.0
 11
537.4426492774928
 21
1160.377787119953
 31
0.0
  0
SPLINE
  5
7FD6
102
{ACAD_REACTORS
330
7FD8
330
7FDF
102
}
330
A
100
AcDbEntity
  8
MODEL
  6
Continuous
100
AcDbSpline
210
0.0
220
0.0
230
1.0
 70
     8
 71
     3
 72
    33
 73
    29
 74
     0
 42
0.000000001
 43
0.0000000001
 40
196.0403206028723
 40
196.0403206028723
 40
196.0403206028723
 40
196.0403206028723
 40
197.1333424885097
 40
197.9732453269683
 40
198.7356839182041
 40
199.4307631824939
 40
200.6520504887588
 40
201.6295123385836
 40
202.8781611484992
 40
204.7555052673782
 40
213.646527889264
 40
221.9422802039978
 40
235.043182407736
 40
300.5417643915904
 40
317.312788257473
 40
323.8500097301923
 40
327.6477550423497
 40
329.1234041380808
 40
330.8764644187385
 40
332.2468073682407
 40
333.9512898465027
 40
337.768523024159
 40
359.3936881394406
 40
363.1412328504125
 40
363.7897291769281
 40
364.49418304106
 40
365.4214983330796
 40
365.6718998469357
 40
365.6718998469357
 40
365.6718998469357
 40
365.6718998469357
 10
758.4532999134606
 20
1160.377787119953
 30
0.0
 10
758.8188446971551
 20
1160.389928963236
 30
0.0
 10
759.4653002029834
 20
1160.41158044944
 30
0.0
 10
760.3509075136842
 20
1160.282039159117
 30
0.0
 10
761.1195082412844
 20
1160.116806323658
 30
0.0
 10
761.7997758708277
 20
1159.513324141062
 30
0.0
 10
762.4563500940242
 20
1158.783140267361
 30
0.0
 10
762.7740437930731
 20
1157.649945311218
 30
0.0
 10
762.7968708067531
 20
1156.279724821396
 30
0.0
 10
762.5904841704362
 20
1152.279469581347
 30
0.0
 10
762.410108255269
 20
1145.926495231074
 30
0.0
 10
762.0198627663424
 20
1135.839063548554
 30
0.0
 10
761.0073490794905
 20
1106.880365332061
 30
0.0
 10
759.7442556359672
 20
1075.269420720731
 30
0.0
 10
759.1228847666364
 20
1045.435379437733
 30
0.0
 10
758.4420271375263
 20
1036.613261431643
 30
0.0
 10
758.8228414183175
 20
1032.39432636021
 30
0.0
 10
757.1955698405193
 20
1030.533577536584
 30
0.0
 10
755.6523581783774
 20
1030.086138794757
 30
0.0
 10
754.0454494583453
 20
1030.18934064987
 30
0.0
 10
751.7469632163759
 20
1030.150070079639
 30
0.0
 10
742.7048097415106
 20
1030.178811058554
 30
0.0
 10
732.8916419171635
 20
1030.500537322461
 30
0.0
 10
724.3243123323816
 20
1030.036372975492
 30
0.0
 10
722.577737988431
 20
1030.240066230291
 30
0.0
 10
721.9175057600039
 20
1029.801714662368
 30
0.0
 10
721.4129530173557
 20
1029.413086547831
 30
0.0
 10
721.0492774135753
 20
1029.292734368807
 30
0.0
 10
720.9702175867149
 20
1029.271725089206
 30
0.0
  0
LINE
  5
7FD7
102
{ACAD_REACTORS
330
7FD8
330
7FDF
102
}
330
A
100
AcDbEntity
  8
MODEL
  6
Continuous
100
AcDbLine
 10
720.9702175867149
 20
1029.271725089206
 30
0.0
 11
537.4880565365792
 21
1029.163415017907
 31
0.0
  0
SPLINE
  5
7FDA
102
{ACAD_REACTORS
330
7FDF
102
}
330
A
100
AcDbEntity
  8
HIDDEN
 48
0.5
100
AcDbSpline
210
0.0
220
0.0
230
1.0
 70
  1064
 71
     3
 72
    38
 73
    34
 74
    32
 42
0.000000001
 43
0.0000000001
 44
0.0
 40
0.0
 40
0.0
 40
0.0
 40
0.0
 40
20.73825809563641
 40
21.15465195241131
 40
22.03998956249416
 40
22.80343650790779
 40
23.21980582442631
 40
26.39462186375025
 40
30.41257895962686
 40
32.1345812100104
 40
34.97585121097229
 40
39.76627943801191
 40
44.43080722652438
 40
48.71003865690832
 40
52.14674404325208
 40
55.23405943502325
 40
63.78825400033669
 40
106.4512005823277
 40
129.8033221394707
 40
154.0747613820254
 40
171.8488554551831
 40
185.9466239509891
 40
197.7154411208116
 40
208.7434235777485
 40
227.5932660265838
 40
242.0659433900199
 40
249.2297178577012
 40
264.7922696892653
 40
277.1012294655237
 40
285.1913145315013
 40
286.7293851619852
 40
288.4890631641841
 40
289.3913972086199
 40
289.3913972086199
 40
289.3913972086199
 40
289.3913972086199
 10
536.8929247704104
 20
1032.147466990762
 30
0.0
 10
543.9787911343522
 20
1031.972481374597
 30
0.0
 10
551.2069313194734
 20
1031.793982303479
 30
0.0
 10
558.1745524936597
 20
1032.177123057274
 30
0.0
 10
559.1572801271566
 20
1031.87960546174
 30
0.0
 10
558.9133640829176
 20
1032.821987488664
 30
0.0
 10
559.0057727432919
 20
1034.196504056931
 30
0.0
 10
558.9287299318053
 20
1036.818759330386
 30
0.0
 10
559.1115362748603
 20
1039.723304237891
 30
0.0
 10
558.8762086789776
 20
1042.666260210279
 30
0.0
 10
560.9940780763064
 20
1045.276636008191
 30
0.0
 10
564.2539774282782
 20
1047.63371161161
 30
0.0
 10
567.7461660368439
 20
1050.63080405572
 30
0.0
 10
570.8324299231138
 20
1053.374973509432
 30
0.0
 10
574.0477284812144
 20
1055.109653692279
 30
0.0
 10
579.0000916124832
 20
1056.149526591851
 30
0.0
 10
597.1362576656329
 20
1056.586510853874
 30
0.0
 10
621.9762580470813
 20
1056.613310658732
 30
0.0
 10
651.9963511443585
 20
1059.257624133617
 30
0.0
 10
673.7240277163105
 20
1060.082699332576
 30
0.0
 10
692.3700862870754
 20
1064.08398604852
 30
0.0
 10
704.4479483850844
 20
1072.773069604442
 30
0.0
 10
712.1894778228943
 20
1082.423917052768
 30
0.0
 10
719.0724641326659
 20
1094.496070959926
 30
0.0
 10
726.5345008179104
 20
1107.252295802153
 30
0.0
 10
733.2903655344242
 20
1118.934821850235
 30
0.0
 10
739.4889225241491
 20
1129.677657431588
 30
0.0
 10
745.3350767069942
 20
1139.761791945471
 30
0.0
 10
751.3108870581825
 20
1150.231847711151
 30
0.0
 10
755.000805773725
 20
1156.401561898077
 30
0.0
 10
756.8653465804271
 20
1159.852828641221
 30
0.0
 10
758.308550939751
 20
1160.332135041747
 30
0.0
 10
759.1897505838178
 20
1160.366230042354
 30
0.0
 10
759.488448119688
 20
1160.377787119953
 30
0.0
 11
536.8929247704104
 21
1032.147466990762
 31
0.0
 11
557.6311828660469
 21
1032.147466990762
 31
0.0
 11
558.0475767228218
 21
1032.147466990762
 31
0.0
 11
558.9329143329046
 21
1032.147466990762
 31
0.0
 11
558.9412027956237
 21
1032.910868942454
 31
0.0
 11
558.9457231641682
 21
1033.32721372026
 31
0.0
 11
558.9801909743287
 21
1036.501842651901
 31
0.0
 11
559.0238124568641
 21
1040.519562949603
 31
0.0
 11
559.0718550994961
 21
1042.24089489168
 31
0.0
 11
560.5936785516706
 21
1044.640242427736
 31
0.0
 11
564.2610356956257
 21
1047.722237589494
 31
0.0
 11
567.8320085810601
 21
1050.723232781309
 31
0.0
 11
571.1571775450875
 21
1053.41675705175
 31
0.0
 11
574.2075139933522
 21
1054.999915750337
 31
0.0
 11
577.2090482440394
 21
1055.722624869014
 31
0.0
 11
585.743663709356
 21
1056.301056818699
 31
0.0
 11
628.3919904831434
 21
1057.417853332872
 31
0.0
 11
651.6877171615872
 21
1059.039796532501
 31
0.0
 11
675.8809653812989
 21
1060.986461240262
 31
0.0
 11
693.0423295950693
 21
1065.613122935673
 31
0.0
 11
704.5782534959978
 21
1073.716797183403
 31
0.0
 11
712.074211862566
 21
1082.789595304346
 31
0.0
 11
717.7918681584831
 21
1092.219590190467
 31
0.0
 11
727.256212882294
 21
1108.521207879972
 31
0.0
 11
734.5077062846738
 21
1121.046152331001
 31
0.0
 11
738.0899394235832
 21
1127.249963285753
 31
0.0
 11
745.8719667820017
 21
1140.727094646059
 31
0.0
 11
752.0270410120659
 21
1151.386623340891
 31
0.0
 11
756.0724741773181
 21
1158.392616980642
 31
0.0
 11
756.9581023769585
 21
1159.650124020924
 31
0.0
 11
758.5885060469598
 21
1160.312128963707
 31
0.0
 11
759.488448119688
 21
1160.377787119953
 31
0.0
  0
LINE
  5
7FDB
102
{ACAD_REACTORS
330
7FDF
102
}
330
A
100
AcDbEntity
  8
HIDDEN
 48
0.5
100
AcDbLine
 10
537.1899743319254
 20
1044.264972453888
 30
0.0
 11
560.5911657937913
 21
1044.264972453888
 31
0.0
  0
LINE
  5
7FDC
102
{ACAD_REACTORS
330
7FDF
102
}
330
A
100
AcDbEntity
  8
HIDDEN
 48
0.5
100
AcDbLine
 10
537.1899743319254
 20
1055.722624869014
 30
0.0
 11
577.7855253718003
 21
1055.722624869014
 31
0.0
  0
SPLINE
  5
7FDD
102
{ACAD_REACTORS
330
7FDF
102
}
330
A
100
AcDbEntity
  8
HIDDEN
 48
0.5
100
AcDbSpline
210
0.0
220
0.0
230
1.0
 70
  1064
 71
     3
 72
    38
 73
    34
 74
    32
 42
0.000000001
 43
0.0000000001
 44
0.0
 40
0.0
 40
0.0
 40
0.0
 40
0.0
 40
20.73825809563641
 40
21.15465195241131
 40
22.03998956249416
 40
22.80343650790779
 40
23.21980582442631
 40
26.39462186375025
 40
30.41257895962686
 40
32.1345812100104
 40
34.97585121097229
 40
39.76627943801191
 40
44.43080722652438
 40
48.71003865690832
 40
52.14674404325208
 40
55.23405943502325
 40
63.78825400033669
 40
106.4512005823277
 40
129.8033221394707
 40
154.0747613820254
 40
171.8488554551831
 40
185.9466239509891
 40
197.7154411208116
 40
208.7434235777485
 40
227.5932660265838
 40
242.0659433900199
 40
249.2297178577012
 40
264.7922696892653
 40
277.1012294655237
 40
285.1913145315013
 40
286.7293851619852
 40
288.4890631641841
 40
289.3913972086199
 40
289.3913972086199
 40
289.3913972086199
 40
289.3913972086199
 10
536.8929247704104
 20
1032.147466990762
 30
0.0
 10
543.9787911343522
 20
1031.972481374597
 30
0.0
 10
551.2069313194734
 20
1031.793982303479
 30
0.0
 10
558.1745524936597
 20
1032.177123057274
 30
0.0
 10
559.1572801271566
 20
1031.87960546174
 30
0.0
 10
558.9133640829176
 20
1032.821987488664
 30
0.0
 10
559.0057727432919
 20
1034.196504056931
 30
0.0
 10
558.9287299318053
 20
1036.818759330386
 30
0.0
 10
559.1115362748603
 20
1039.723304237891
 30
0.0
 10
558.8762086789776
 20
1042.666260210279
 30
0.0
 10
560.9940780763064
 20
1045.276636008191
 30
0.0
 10
564.2539774282782
 20
1047.63371161161
 30
0.0
 10
567.7461660368439
 20
1050.63080405572
 30
0.0
 10
570.8324299231138
 20
1053.374973509432
 30
0.0
 10
574.0477284812144
 20
1055.109653692279
 30
0.0
 10
579.0000916124832
 20
1056.149526591851
 30
0.0
 10
597.1362576656329
 20
1056.586510853874
 30
0.0
 10
621.9762580470813
 20
1056.613310658732
 30
0.0
 10
651.9963511443585
 20
1059.257624133617
 30
0.0
 10
673.7240277163105
 20
1060.082699332576
 30
0.0
 10
692.3700862870754
 20
1064.08398604852
 30
0.0
 10
704.4479483850844
 20
1072.773069604442
 30
0.0
 10
712.1894778228943
 20
1082.423917052768
 30
0.0
 10
719.0724641326659
 20
1094.496070959926
 30
0.0
 10
726.5345008179104
 20
1107.252295802153
 30
0.0
 10
733.2903655344242
 20
1118.934821850235
 30
0.0
 10
739.4889225241491
 20
1129.677657431588
 30
0.0
 10
745.3350767069942
 20
1139.761791945471
 30
0.0
 10
751.3108870581825
 20
1150.231847711151
 30
0.0
 10
755.000805773725
 20
1156.401561898077
 30
0.0
 10
756.8653465804271
 20
1159.852828641221
 30
0.0
 10
758.308550939751
 20
1160.332135041747
 30
0.0
 10
759.1897505838178
 20
1160.366230042354
 30
0.0
 10
759.488448119688
 20
1160.377787119953
 30
0.0
 11
536.8929247704104
 21
1032.147466990762
 31
0.0
 11
557.6311828660469
 21
1032.147466990762
 31
0.0
 11
558.0475767228218
 21
1032.147466990762
 31
0.0
 11
558.9329143329046
 21
1032.147466990762
 31
0.0
 11
558.9412027956237
 21
1032.910868942454
 31
0.0
 11
558.9457231641682
 21
1033.32721372026
 31
0.0
 11
558.9801909743287
 21
1036.501842651901
 31
0.0
 11
559.0238124568641
 21
1040.519562949603
 31
0.0
 11
559.0718550994961
 21
1042.24089489168
 31
0.0
 11
560.5936785516706
 21
1044.640242427736
 31
0.0
 11
564.2610356956257
 21
1047.722237589494
 31
0.0
 11
567.8320085810601
 21
1050.723232781309
 31
0.0
 11
571.1571775450875
 21
1053.41675705175
 31
0.0
 11
574.2075139933522
 21
1054.999915750337
 31
0.0
 11
577.2090482440394
 21
1055.722624869014
 31
0.0
 11
585.743663709356
 21
1056.301056818699
 31
0.0
 11
628.3919904831434
 21
1057.417853332872
 31
0.0
 11
651.6877171615872
 21
1059.039796532501
 31
0.0
 11
675.8809653812989
 21
1060.986461240262
 31
0.0
 11
693.0423295950693
 21
1065.613122935673
 31
0.0
 11
704.5782534959978
 21
1073.716797183403
 31
0.0
 11
712.074211862566
 21
1082.789595304346
 31
0.0
 11
717.7918681584831
 21
1092.219590190467
 31
0.0
 11
727.256212882294
 21
1108.521207879972
 31
0.0
 11
734.5077062846738
 21
1121.046152331001
 31
0.0
 11
738.0899394235832
 21
1127.249963285753
 31
0.0
 11
745.8719667820017
 21
1140.727094646059
 31
0.0
 11
752.0270410120659
 21
1151.386623340891
 31
0.0
 11
756.0724741773181
 21
1158.392616980642
 31
0.0
 11
756.9581023769585
 21
1159.650124020924
 31
0.0
 11
758.5885060469598
 21
1160.312128963707
 31
0.0
 11
759.488448119688
 21
1160.377787119953
 31
0.0
  0
LINE
  5
7FE0
102
{ACAD_REACTORS
330
7FED
330
7FEE
102
}
330
A
100
AcDbEntity
  8
MODEL
  6
Continuous
100
AcDbLine
 10
1227.817750015154
 20
1160.267811611951
 30
0.0
 11
1448.828400651122
 21
1160.267811611951
 31
0.0
  0
SPLINE
  5
7FE1
102
{ACAD_REACTORS
330
7FED
330
7FEE
102
}
330
A
100
AcDbEntity
  8
MODEL
  6
Continuous
100
AcDbSpline
210
0.0
220
0.0
230
1.0
 70
     8
 71
     3
 72
    33
 73
    29
 74
     0
 42
0.000000001
 43
0.0000000001
 40
196.0403206028723
 40
196.0403206028723
 40
196.0403206028723
 40
196.0403206028723
 40
197.1333424885097
 40
197.9732453269683
 40
198.7356839182041
 40
199.4307631824939
 40
200.6520504887588
 40
201.6295123385836
 40
202.8781611484992
 40
204.7555052673782
 40
213.646527889264
 40
221.9422802039978
 40
235.043182407736
 40
300.5417643915904
 40
317.312788257473
 40
323.8500097301923
 40
327.6477550423497
 40
329.1234041380808
 40
330.8764644187385
 40
332.2468073682407
 40
333.9512898465027
 40
337.768523024159
 40
359.3936881394406
 40
363.1412328504125
 40
363.7897291769281
 40
364.49418304106
 40
365.4214983330796
 40
365.6718998469357
 40
365.6718998469357
 40
365.6718998469357
 40
365.6718998469357
 10
1227.817750015154
 20
1160.267811611951
 30
0.0
 10
1227.45220523146
 20
1160.279953455234
 30
0.0
 10
1226.805749725632
 20
1160.301604941438
 30
0.0
 10
1225.920142414931
 20
1160.172063651115
 30
0.0
 10
1225.151541687331
 20
1160.006830815656
 30
0.0
 10
1224.471274057787
 20
1159.40334863306
 30
0.0
 10
1223.814699834591
 20
1158.673164759359
 30
0.0
 10
1223.497006135542
 20
1157.539969803216
 30
0.0
 10
1223.474179121862
 20
1156.169749313394
 30
0.0
 10
1223.680565758179
 20
1152.169494073345
 30
0.0
 10
1223.860941673346
 20
1145.816519723072
 30
0.0
 10
1224.251187162273
 20
1135.729088040552
 30
0.0
 10
1225.263700849124
 20
1106.77038982406
 30
0.0
 10
1226.526794292648
 20
1075.159445212729
 30
0.0
 10
1227.148165161979
 20
1045.325403929732
 30
0.0
 10
1227.829022791089
 20
1036.503285923641
 30
0.0
 10
1227.448208510297
 20
1032.284350852208
 30
0.0
 10
1229.075480088096
 20
1030.423602028582
 30
0.0
 10
1230.618691750238
 20
1029.976163286755
 30
0.0
 10
1232.22560047027
 20
1030.079365141868
 30
0.0
 10
1234.524086712239
 20
1030.040094571637
 30
0.0
 10
1243.566240187104
 20
1030.068835550552
 30
0.0
 10
1253.379408011451
 20
1030.390561814459
 30
0.0
 10
1261.946737596233
 20
1029.92639746749
 30
0.0
 10
1263.693311940184
 20
1030.130090722289
 30
0.0
 10
1264.353544168611
 20
1029.691739154366
 30
0.0
 10
1264.858096911259
 20
1029.30311103983
 30
0.0
 10
1265.22177251504
 20
1029.182758860806
 30
0.0
 10
1265.3008323419
 20
1029.161749581205
 30
0.0
  0
LINE
  5
7FE2
102
{ACAD_REACTORS
330
7FED
330
7FEE
102
}
330
A
100
AcDbEntity
  8
MODEL
  6
Continuous
100
AcDbLine
 10
1265.3008323419
 20
1029.161749581205
 30
0.0
 11
1448.87380792876
 21
1029.053385901811
 31
0.0
  0
LINE
  5
7FE3
102
{ACAD_REACTORS
330
7FED
102
}
330
A
100
AcDbEntity
  8
HIDDEN
 48
0.5
100
AcDbLine
 10
1448.575725705555
 20
1044.154996945887
 30
0.0
 11
1425.174534243689
 21
1044.154996945887
 31
0.0
  0
LINE
  5
7FE4
102
{ACAD_REACTORS
330
7FED
102
}
330
A
100
AcDbEntity
  8
HIDDEN
 48
0.5
100
AcDbLine
 10
1448.575725705555
 20
1055.612649361012
 30
0.0
 11
1407.98017466568
 21
1055.612649361012
 31
0.0
  0
LINE
  5
7FE5
102
{ACAD_REACTORS
330
7FED
330
7FEE
102
}
330
A
100
AcDbEntity
  8
MODEL
  6
Continuous
100
AcDbLine
 10
1669.83905128709
 20
1160.267811611951
 30
0.0
 11
1448.828400651122
 21
1160.267811611951
 31
0.0
  0
SPLINE
  5
7FE6
102
{ACAD_REACTORS
330
7FED
330
7FEE
102
}
330
A
100
AcDbEntity
  8
MODEL
  6
Continuous
100
AcDbSpline
210
0.0
220
0.0
230
1.0
 70
     8
 71
     3
 72
    33
 73
    29
 74
     0
 42
0.000000001
 43
0.0000000001
 40
196.0403206028723
 40
196.0403206028723
 40
196.0403206028723
 40
196.0403206028723
 40
197.1333424885097
 40
197.9732453269683
 40
198.7356839182041
 40
199.4307631824939
 40
200.6520504887588
 40
201.6295123385836
 40
202.8781611484992
 40
204.7555052673782
 40
213.646527889264
 40
221.9422802039978
 40
235.043182407736
 40
300.5417643915904
 40
317.312788257473
 40
323.8500097301923
 40
327.6477550423497
 40
329.1234041380808
 40
330.8764644187385
 40
332.2468073682407
 40
333.9512898465027
 40
337.768523024159
 40
359.3936881394406
 40
363.1412328504125
 40
363.7897291769281
 40
364.49418304106
 40
365.4214983330796
 40
365.6718998469357
 40
365.6718998469357
 40
365.6718998469357
 40
365.6718998469357
 10
1669.83905128709
 20
1160.267811611951
 30
0.0
 10
1670.204596070784
 20
1160.279953455234
 30
0.0
 10
1670.851051576613
 20
1160.301604941438
 30
0.0
 10
1671.736658887314
 20
1160.172063651115
 30
0.0
 10
1672.505259614914
 20
1160.006830815656
 30
0.0
 10
1673.185527244457
 20
1159.40334863306
 30
0.0
 10
1673.842101467653
 20
1158.673164759359
 30
0.0
 10
1674.159795166702
 20
1157.539969803216
 30
0.0
 10
1674.182622180382
 20
1156.169749313394
 30
0.0
 10
1673.976235544066
 20
1152.169494073345
 30
0.0
 10
1673.795859628898
 20
1145.816519723072
 30
0.0
 10
1673.405614139972
 20
1135.729088040552
 30
0.0
 10
1672.39310045312
 20
1106.77038982406
 30
0.0
 10
1671.130007009597
 20
1075.159445212729
 30
0.0
 10
1670.508636140266
 20
1045.325403929732
 30
0.0
 10
1669.827778511156
 20
1036.503285923641
 30
0.0
 10
1670.208592791947
 20
1032.284350852208
 30
0.0
 10
1668.581321214149
 20
1030.423602028582
 30
0.0
 10
1667.038109552007
 20
1029.976163286755
 30
0.0
 10
1665.431200831975
 20
1030.079365141868
 30
0.0
 10
1663.132714590005
 20
1030.040094571637
 30
0.0
 10
1654.09056111514
 20
1030.068835550552
 30
0.0
 10
1644.277393290793
 20
1030.390561814459
 30
0.0
 10
1635.710063706011
 20
1029.92639746749
 30
0.0
 10
1633.96348936206
 20
1030.130090722289
 30
0.0
 10
1633.303257133633
 20
1029.691739154366
 30
0.0
 10
1632.798704390985
 20
1029.30311103983
 30
0.0
 10
1632.435028787205
 20
1029.182758860806
 30
0.0
 10
1632.355968960344
 20
1029.161749581205
 30
0.0
  0
LINE
  5
7FE7
102
{ACAD_REACTORS
330
7FED
330
7FEE
102
}
330
A
100
AcDbEntity
  8
MODEL
  6
Continuous
100
AcDbLine
 10
1632.355968960344
 20
1029.161749581205
 30
0.0
 11
1448.873807910209
 21
1029.053439509905
 31
0.0
  0
SPLINE
  5
7FE8
102
{ACAD_REACTORS
330
7FED
102
}
330
A
100
AcDbEntity
  8
HIDDEN
 48
0.5
100
AcDbSpline
210
0.0
220
0.0
230
1.0
 70
  1064
 71
     3
 72
    38
 73
    34
 74
    32
 42
0.000000001
 43
0.0000000001
 44
0.0
 40
0.0
 40
0.0
 40
0.0
 40
0.0
 40
20.73825809563709
 40
21.154651952412
 40
22.03998956249393
 40
22.80343650790665
 40
23.21980582442608
 40
26.39462186374912
 40
30.41257895962573
 40
32.13458121000926
 40
34.97585121097092
 40
39.76627943801053
 40
44.43080722652335
 40
48.71003865690711
 40
52.14674404325097
 40
55.23405943502196
 40
63.78825400033585
 40
106.4512005823264
 40
129.8033221394696
 40
154.0747613820245
 40
171.8488554551821
 40
185.9466239509884
 40
197.7154411208115
 40
208.7434235777475
 40
227.5932660265829
 40
242.0659433900191
 40
249.2297178577002
 40
264.7922696892647
 40
277.1012294655227
 40
285.1913145315011
 40
286.7293851619848
 40
288.4890631641841
 40
289.3913972086198
 40
289.3913972086198
 40
289.3913972086198
 40
289.3913972086198
 10
1448.87277526707
 20
1032.037491482761
 30
0.0
 10
1441.786908903127
 20
1031.862505866594
 30
0.0
 10
1434.558768718005
 20
1031.684006795476
 30
0.0
 10
1427.591147543821
 20
1032.067147549272
 30
0.0
 10
1426.608419910324
 20
1031.769629953739
 30
0.0
 10
1426.852335954563
 20
1032.712011980663
 30
0.0
 10
1426.759927294187
 20
1034.08652854893
 30
0.0
 10
1426.836970105675
 20
1036.708783822385
 30
0.0
 10
1426.65416376262
 20
1039.613328729888
 30
0.0
 10
1426.889491358502
 20
1042.556284702277
 30
0.0
 10
1424.771621961174
 20
1045.166660500189
 30
0.0
 10
1421.511722609202
 20
1047.523736103608
 30
0.0
 10
1418.019534000637
 20
1050.520828547718
 30
0.0
 10
1414.933270114366
 20
1053.26499800143
 30
0.0
 10
1411.717971556266
 20
1054.999678184277
 30
0.0
 10
1406.765608424997
 20
1056.039551083848
 30
0.0
 10
1388.629442371847
 20
1056.476535345873
 30
0.0
 10
1363.7894419904
 20
1056.50333515073
 30
0.0
 10
1333.769348893121
 20
1059.147648625615
 30
0.0
 10
1312.04167232117
 20
1059.972723824574
 30
0.0
 10
1293.395613750405
 20
1063.974010540518
 30
0.0
 10
1281.317751652395
 20
1072.66309409644
 30
0.0
 10
1273.576222214586
 20
1082.313941544767
 30
0.0
 10
1266.693235904814
 20
1094.386095451924
 30
0.0
 10
1259.23119921957
 20
1107.142320294151
 30
0.0
 10
1252.475334503056
 20
1118.824846342234
 30
0.0
 10
1246.276777513331
 20
1129.567681923586
 30
0.0
 10
1240.430623330487
 20
1139.65181643747
 30
0.0
 10
1234.454812979297
 20
1150.121872203151
 30
0.0
 10
1230.764894263754
 20
1156.291586390074
 30
0.0
 10
1228.900353457054
 20
1159.74285313322
 30
0.0
 10
1227.457149097729
 20
1160.222159533746
 30
0.0
 10
1226.575949453662
 20
1160.256254534352
 30
0.0
 10
1226.277251917792
 20
1160.267811611951
 30
0.0
 11
1448.87277526707
 21
1032.037491482761
 31
0.0
 11
1428.134517171433
 21
1032.037491482761
 31
0.0
 11
1427.718123314658
 21
1032.037491482761
 31
0.0
 11
1426.832785704576
 21
1032.037491482761
 31
0.0
 11
1426.824497241857
 21
1032.800893434452
 31
0.0
 11
1426.819976873312
 21
1033.217238212259
 31
0.0
 11
1426.785509063151
 21
1036.391867143899
 31
0.0
 11
1426.741887580616
 21
1040.409587441601
 31
0.0
 11
1426.693844937984
 21
1042.130919383678
 31
0.0
 11
1425.17202148581
 21
1044.530266919734
 31
0.0
 11
1421.504664341855
 21
1047.612262081492
 31
0.0
 11
1417.93369145642
 21
1050.613257273307
 31
0.0
 11
1414.608522492393
 21
1053.306781543748
 31
0.0
 11
1411.558186044128
 21
1054.889940242335
 31
0.0
 11
1408.556651793441
 21
1055.612649361012
 31
0.0
 11
1400.022036328124
 21
1056.191081310697
 31
0.0
 11
1357.373709554337
 21
1057.30787782487
 31
0.0
 11
1334.077982875893
 21
1058.929821024499
 31
0.0
 11
1309.884734656181
 21
1060.87648573226
 31
0.0
 11
1292.723370442411
 21
1065.503147427671
 31
0.0
 11
1281.187446541482
 21
1073.606821675401
 31
0.0
 11
1273.691488174914
 21
1082.679619796345
 31
0.0
 11
1267.973831878997
 21
1092.109614682465
 31
0.0
 11
1258.509487155186
 21
1108.41123237197
 31
0.0
 11
1251.257993752806
 21
1120.936176822999
 31
0.0
 11
1247.675760613897
 21
1127.139987777751
 31
0.0
 11
1239.893733255479
 21
1140.617119138058
 31
0.0
 11
1233.738659025414
 21
1151.276647832889
 31
0.0
 11
1229.693225860162
 21
1158.282641472641
 31
0.0
 11
1228.807597660522
 21
1159.540148512923
 31
0.0
 11
1227.17719399052
 21
1160.202153455705
 31
0.0
 11
1226.277251917792
 21
1160.267811611951
 31
0.0
  0
SPLINE
  5
7FE9
102
{ACAD_REACTORS
330
7FED
102
}
330
A
100
AcDbEntity
  8
HIDDEN
 48
0.5
100
AcDbSpline
210
0.0
220
0.0
230
1.0
 70
  1064
 71
     3
 72
    38
 73
    34
 74
    32
 42
0.000000001
 43
0.0000000001
 44
0.0
 40
0.0
 40
0.0
 40
0.0
 40
0.0
 40
20.73825809563596
 40
21.15465195241109
 40
22.03998956249393
 40
22.80343650790665
 40
23.21980582442607
 40
26.39462186374912
 40
30.41257895962572
 40
32.13458121000925
 40
34.97585121097151
 40
39.76627943801095
 40
44.43080722652308
 40
48.71003865690755
 40
52.14674404325141
 40
55.2340594350224
 40
63.78825400033516
 40
106.4512005823269
 40
129.80332213947
 40
154.0747613820241
 40
171.8488554551825
 40
185.9466239509879
 40
197.7154411208111
 40
208.7434235777471
 40
227.5932660265825
 40
242.0659433900187
 40
249.2297178577003
 40
264.7922696892648
 40
277.1012294655224
 40
285.1913145315007
 40
286.729385161985
 40
288.4890631641833
 40
289.3913972086189
 40
289.3913972086189
 40
289.3913972086189
 40
289.3913972086189
 10
1448.27867614404
 20
1032.037491482761
 30
0.0
 10
1455.364542507978
 20
1031.862505866594
 30
0.0
 10
1462.592682693095
 20
1031.684006795476
 30
0.0
 10
1469.560303867289
 20
1032.067147549272
 30
0.0
 10
1470.543031500785
 20
1031.769629953739
 30
0.0
 10
1470.299115456547
 20
1032.712011980662
 30
0.0
 10
1470.39152411692
 20
1034.08652854893
 30
0.0
 10
1470.314481305436
 20
1036.708783822385
 30
0.0
 10
1470.497287648489
 20
1039.613328729888
 30
0.0
 10
1470.261960052607
 20
1042.556284702277
 30
0.0
 10
1472.379829449936
 20
1045.166660500188
 30
0.0
 10
1475.639728801907
 20
1047.523736103608
 30
0.0
 10
1479.131917410473
 20
1050.520828547719
 30
0.0
 10
1482.218181296743
 20
1053.26499800143
 30
0.0
 10
1485.433479854844
 20
1054.999678184277
 30
0.0
 10
1490.385842986112
 20
1056.039551083849
 30
0.0
 10
1508.522009039262
 20
1056.476535345872
 30
0.0
 10
1533.362009420711
 20
1056.50333515073
 30
0.0
 10
1563.382102517988
 20
1059.147648625615
 30
0.0
 10
1585.10977908994
 20
1059.972723824574
 30
0.0
 10
1603.755837660705
 20
1063.974010540517
 30
0.0
 10
1615.833699758714
 20
1072.663094096441
 30
0.0
 10
1623.575229196523
 20
1082.313941544767
 30
0.0
 10
1630.458215506295
 20
1094.386095451924
 30
0.0
 10
1637.92025219154
 20
1107.142320294151
 30
0.0
 10
1644.676116908053
 20
1118.824846342234
 30
0.0
 10
1650.874673897779
 20
1129.567681923585
 30
0.0
 10
1656.720828080623
 20
1139.65181643747
 30
0.0
 10
1662.696638431813
 20
1150.12187220315
 30
0.0
 10
1666.386557147354
 20
1156.291586390076
 30
0.0
 10
1668.251097954057
 20
1159.74285313322
 30
0.0
 10
1669.694302313381
 20
1160.222159533745
 30
0.0
 10
1670.575501957447
 20
1160.256254534352
 30
0.0
 10
1670.874199493317
 20
1160.267811611951
 30
0.0
 11
1448.27867614404
 21
1032.037491482761
 31
0.0
 11
1469.016934239676
 21
1032.037491482761
 31
0.0
 11
1469.433328096451
 21
1032.037491482761
 31
0.0
 11
1470.318665706534
 21
1032.037491482761
 31
0.0
 11
1470.326954169253
 21
1032.800893434452
 31
0.0
 11
1470.331474537797
 21
1033.217238212259
 31
0.0
 11
1470.365942347958
 21
1036.391867143899
 31
0.0
 11
1470.409563830493
 21
1040.409587441601
 31
0.0
 11
1470.457606473125
 21
1042.130919383678
 31
0.0
 11
1471.9794299253
 21
1044.530266919734
 31
0.0
 11
1475.646787069255
 21
1047.612262081492
 31
0.0
 11
1479.217759954689
 21
1050.613257273307
 31
0.0
 11
1482.542928918717
 21
1053.306781543748
 31
0.0
 11
1485.593265366982
 21
1054.889940242335
 31
0.0
 11
1488.594799617669
 21
1055.612649361012
 31
0.0
 11
1497.129415082985
 21
1056.191081310697
 31
0.0
 11
1539.777741856773
 21
1057.30787782487
 31
0.0
 11
1563.073468535217
 21
1058.929821024499
 31
0.0
 11
1587.266716754928
 21
1060.87648573226
 31
0.0
 11
1604.428080968699
 21
1065.503147427671
 31
0.0
 11
1615.964004869627
 21
1073.606821675401
 31
0.0
 11
1623.459963236195
 21
1082.679619796345
 31
0.0
 11
1629.177619532112
 21
1092.109614682465
 31
0.0
 11
1638.641964255923
 21
1108.41123237197
 31
0.0
 11
1645.893457658303
 21
1120.936176822999
 31
0.0
 11
1649.475690797213
 21
1127.139987777751
 31
0.0
 11
1657.257718155631
 21
1140.617119138058
 31
0.0
 11
1663.412792385695
 21
1151.276647832889
 31
0.0
 11
1667.458225550947
 21
1158.282641472641
 31
0.0
 11
1668.343853750588
 21
1159.540148512923
 31
0.0
 11
1669.974257420589
 21
1160.202153455705
 31
0.0
 11
1670.874199493317
 21
1160.267811611951
 31
0.0
  0
LINE
  5
7FEA
102
{ACAD_REACTORS
330
7FED
102
}
330
A
100
AcDbEntity
  8
HIDDEN
 48
0.5
100
AcDbLine
 10
1448.575725705555
 20
1044.154996945887
 30
0.0
 11
1471.976917167421
 21
1044.154996945887
 31
0.0
  0
LINE
  5
7FEB
102
{ACAD_REACTORS
330
7FED
102
}
330
A
100
AcDbEntity
  8
HIDDEN
 48
0.5
100
AcDbLine
 10
1448.575725705555
 20
1055.612649361012
 30
0.0
 11
1489.17127674543
 21
1055.612649361012
 31
0.0
  0
SPLINE
  5
7FEC
102
{ACAD_REACTORS
330
7FED
102
}
330
A
100
AcDbEntity
  8
HIDDEN
 48
0.5
100
AcDbSpline
210
0.0
220
0.0
230
1.0
 70
  1064
 71
     3
 72
    38
 73
    34
 74
    32
 42
0.000000001
 43
0.0000000001
 44
0.0
 40
0.0
 40
0.0
 40
0.0
 40
0.0
 40
20.73825809563596
 40
21.15465195241109
 40
22.03998956249393
 40
22.80343650790665
 40
23.21980582442607
 40
26.39462186374912
 40
30.41257895962572
 40
32.13458121000925
 40
34.97585121097151
 40
39.76627943801095
 40
44.43080722652308
 40
48.71003865690755
 40
52.14674404325141
 40
55.2340594350224
 40
63.78825400033516
 40
106.4512005823269
 40
129.80332213947
 40
154.0747613820241
 40
171.8488554551825
 40
185.9466239509879
 40
197.7154411208111
 40
208.7434235777471
 40
227.5932660265825
 40
242.0659433900187
 40
249.2297178577003
 40
264.7922696892648
 40
277.1012294655224
 40
285.1913145315007
 40
286.729385161985
 40
288.4890631641833
 40
289.3913972086189
 40
289.3913972086189
 40
289.3913972086189
 40
289.3913972086189
 10
1448.27867614404
 20
1032.037491482761
 30
0.0
 10
1455.364542507978
 20
1031.862505866594
 30
0.0
 10
1462.592682693095
 20
1031.684006795476
 30
0.0
 10
1469.560303867289
 20
1032.067147549272
 30
0.0
 10
1470.543031500785
 20
1031.769629953739
 30
0.0
 10
1470.299115456547
 20
1032.712011980662
 30
0.0
 10
1470.39152411692
 20
1034.08652854893
 30
0.0
 10
1470.314481305436
 20
1036.708783822385
 30
0.0
 10
1470.497287648489
 20
1039.613328729888
 30
0.0
 10
1470.261960052607
 20
1042.556284702277
 30
0.0
 10
1472.379829449936
 20
1045.166660500188
 30
0.0
 10
1475.639728801907
 20
1047.523736103608
 30
0.0
 10
1479.131917410473
 20
1050.520828547719
 30
0.0
 10
1482.218181296743
 20
1053.26499800143
 30
0.0
 10
1485.433479854844
 20
1054.999678184277
 30
0.0
 10
1490.385842986112
 20
1056.039551083849
 30
0.0
 10
1508.522009039262
 20
1056.476535345872
 30
0.0
 10
1533.362009420711
 20
1056.50333515073
 30
0.0
 10
1563.382102517988
 20
1059.147648625615
 30
0.0
 10
1585.10977908994
 20
1059.972723824574
 30
0.0
 10
1603.755837660705
 20
1063.974010540517
 30
0.0
 10
1615.833699758714
 20
1072.663094096441
 30
0.0
 10
1623.575229196523
 20
1082.313941544767
 30
0.0
 10
1630.458215506295
 20
1094.386095451924
 30
0.0
 10
1637.92025219154
 20
1107.142320294151
 30
0.0
 10
1644.676116908053
 20
1118.824846342234
 30
0.0
 10
1650.874673897779
 20
1129.567681923585
 30
0.0
 10
1656.720828080623
 20
1139.65181643747
 30
0.0
 10
1662.696638431813
 20
1150.12187220315
 30
0.0
 10
1666.386557147354
 20
1156.291586390076
 30
0.0
 10
1668.251097954057
 20
1159.74285313322
 30
0.0
 10
1669.694302313381
 20
1160.222159533745
 30
0.0
 10
1670.575501957447
 20
1160.256254534352
 30
0.0
 10
1670.874199493317
 20
1160.267811611951
 30
0.0
 11
1448.27867614404
 21
1032.037491482761
 31
0.0
 11
1469.016934239676
 21
1032.037491482761
 31
0.0
 11
1469.433328096451
 21
1032.037491482761
 31
0.0
 11
1470.318665706534
 21
1032.037491482761
 31
0.0
 11
1470.326954169253
 21
1032.800893434452
 31
0.0
 11
1470.331474537797
 21
1033.217238212259
 31
0.0
 11
1470.365942347958
 21
1036.391867143899
 31
0.0
 11
1470.409563830493
 21
1040.409587441601
 31
0.0
 11
1470.457606473125
 21
1042.130919383678
 31
0.0
 11
1471.9794299253
 21
1044.530266919734
 31
0.0
 11
1475.646787069255
 21
1047.612262081492
 31
0.0
 11
1479.217759954689
 21
1050.613257273307
 31
0.0
 11
1482.542928918717
 21
1053.306781543748
 31
0.0
 11
1485.593265366982
 21
1054.889940242335
 31
0.0
 11
1488.594799617669
 21
1055.612649361012
 31
0.0
 11
1497.129415082985
 21
1056.191081310697
 31
0.0
 11
1539.777741856773
 21
1057.30787782487
 31
0.0
 11
1563.073468535217
 21
1058.929821024499
 31
0.0
 11
1587.266716754928
 21
1060.87648573226
 31
0.0
 11
1604.428080968699
 21
1065.503147427671
 31
0.0
 11
1615.964004869627
 21
1073.606821675401
 31
0.0
 11
1623.459963236195
 21
1082.679619796345
 31
0.0
 11
1629.177619532112
 21
1092.109614682465
 31
0.0
 11
1638.641964255923
 21
1108.41123237197
 31
0.0
 11
1645.893457658303
 21
1120.936176822999
 31
0.0
 11
1649.475690797213
 21
1127.139987777751
 31
0.0
 11
1657.257718155631
 21
1140.617119138058
 31
0.0
 11
1663.412792385695
 21
1151.276647832889
 31
0.0
 11
1667.458225550947
 21
1158.282641472641
 31
0.0
 11
1668.343853750588
 21
1159.540148512923
 31
0.0
 11
1669.974257420589
 21
1160.202153455705
 31
0.0
 11
1670.874199493317
 21
1160.267811611951
 31
0.0
  0
CIRCLE
  5
7FF5
330
A
100
AcDbEntity
  8
HIDDEN
100
AcDbCircle
 10
1448.52410454874
 20
1950.750746828979
 30
0.0
 40
225.0
  0
VIEWPORT
  5
349
330
B
100
AcDbEntity
 67
     1
  8
0
100
AcDbViewport
 10
202.5
 20
128.5
 30
0.0
 40
486.0
 41
308.4
 68
     1
 69
     1
 12
202.5
 22
128.5
 13
0.0
 23
0.0
 14
0.5
 24
0.5
 15
0.0
 25
0.0
 16
0.0
 26
0.0
 36
1.0
 17
0.0
 27
0.0
 37
0.0
 42
50.0
 43
0.0
 44
0.0
 45
308.4
 50
0.0
 51
0.0
 72
   100
 90
   557152
  1

281
     0
 71
     1
 74
     0
110
0.0
120
0.0
130
0.0
111
1.0
121
0.0
131
0.0
112
0.0
122
1.0
132
0.0
 79
     0
146
0.0
170
     0
 61
     5
348
26C
292
     1
282
     1
141
0.0
142
0.0
 63
   256
  0
VIEWPORT
  5
34A
330
B
100
AcDbEntity
 67
     1
  8
0
100
AcDbViewport
 10
202.5
 20
128.5
 30
0.0
 40
324.0
 41
205.6
 68
     2
 69
     2
 12
986.6781359294573
 22
1427.077061889956
 13
0.0
 23
0.0
 14
0.5
 24
0.5
 15
0.0
 25
0.0
 16
0.0
 26
0.0
 36
1.0
 17
0.0
 27
0.0
 37
0.0
 42
50.0
 43
0.0
 44
0.0
 45
2890.021615685494
 50
0.0
 51
0.0
 72
   100
 90
   557152
  1

281
     0
 71
     1
 74
     0
110
0.0
120
0.0
130
0.0
111
1.0
121
0.0
131
0.0
112
0.0
122
1.0
132
0.0
 79
     0
146
0.0
170
     0
 61
     5
348
26C
292
     1
282
     1
141
0.0
142
0.0
 63
   256
  0
ENDSEC
  0
SECTION
  2
OBJECTS
  0
DICTIONARY
  5
19
330
0
100
AcDbDictionary
281
     1
  3
ACAD_COLOR
350
38F
  3
ACAD_DETAILVIEWSTYLE
350
8CF
  3
ACAD_FIELDLIST
350
BA6
  3
ACAD_GROUP
350
1A
  3
ACAD_IMAGE_VARS
350
27B
  3
ACAD_LAYOUT
350
1E
  3
ACAD_MATERIAL
350
263
  3
ACAD_MLEADERSTYLE
350
336
  3
ACAD_MLINESTYLE
350
1B
  3
ACAD_PLOTSETTINGS
350
22
  3
ACAD_PLOTSTYLENAME
350
1F
  3
ACAD_SCALELIST
350
241
  3
ACAD_SECTIONVIEWSTYLE
350
8D0
  3
ACAD_TABLESTYLE
350
278
  3
ACAD_VISUALSTYLE
350
267
  3
ACDB_RECOMPOSE_DATA
350
801E
  3
AcDbVariableDictionary
350
330
  3
APPDATA
350
27A
  3
DimOffsetDictionary
350
C08
  0
SUN
  5
8C2
330
15
100
AcDbSun
 90
        1
290
     0
 63
     7
421
 16777215
 40
1.0
291
     1
 91
  2455826
 92
 54000000
292
     0
 70
     2
 71
   256
280
     1
  0
DICTIONARY
  5
2E1
330
2
100
AcDbDictionary
280
     1
281
     1
  3
ACAD_LAYERSTATES
360
2E2
  3
ACLYDICTIONARY
360
BFE
  0
DICTIONARY
  5
3C24
330
A
100
AcDbDictionary
280
     1
281
     1
  3
ACAD_SORTENTS
360
3C25
  0
DICTIONARY
  5
BDC
330
BDB
100
AcDbDictionary
280
     1
281
     1
  3
ACAD_FIELD
360
800F
  0
DICTIONARY
  5
38F
102
{ACAD_REACTORS
330
19
102
}
330
19
100
AcDbDictionary
281
     1
  0
DICTIONARY
  5
8CF
102
{ACAD_REACTORS
330
19
102
}
330
19
100
AcDbDictionary
281
     1
  0
FIELDLIST
  5
BA6
102
{ACAD_REACTORS
330
19
102
}
330
19
100
AcDbIdSet
 90
        2
330
BDF
330
BDE
100
AcDbFieldList
  0
DICTIONARY
  5
1A
102
{ACAD_REACTORS
330
19
102
}
330
19
100
AcDbDictionary
281
     1
  3
*A1
350
7FD8
  3
*A2
350
7FDF
  3
*A3
350
7FED
  3
*A4
350
7FEE
  0
RASTERVARIABLES
  5
27B
102
{ACAD_REACTORS
330
19
102
}
330
19
100
AcDbRasterVariables
 90
        0
 70
     1
 71
     1
 72
     1
  0
DICTIONARY
  5
1E
102
{ACAD_REACTORS
330
19
102
}
330
19
100
AcDbDictionary
281
     1
  3
Layout1
350
21
  3
Model
350
20
  0
DICTIONARY
  5
263
102
{ACAD_REACTORS
330
19
102
}
330
19
100
AcDbDictionary
281
     1
  3
ByBlock
350
265
  3
ByLayer
350
264
  3
Global
350
266
  0
DICTIONARY
  5
336
102
{ACAD_REACTORS
330
19
102
}
330
19
100
AcDbDictionary
281
     1
  3
Standard
350
8D1
  0
DICTIONARY
  5
1B
102
{ACAD_REACTORS
330
19
102
}
330
19
100
AcDbDictionary
281
     1
  3
Standard
350
1C
  0
DICTIONARY
  5
22
102
{ACAD_REACTORS
330
19
102
}
330
19
100
AcDbDictionary
281
     1
  0
ACDBDICTIONARYWDFLT
  5
1F
102
{ACAD_REACTORS
330
19
102
}
330
19
100
AcDbDictionary
281
     1
  3
Normal
350
1D
100
AcDbDictionaryWithDefault
340
1D
  0
DICTIONARY
  5
241
102
{ACAD_REACTORS
330
19
102
}
330
19
100
AcDbDictionary
281
     1
  3
A0
350
242
  3
A1
350
243
  3
A2
350
244
  3
A3
350
245
  3
A4
350
246
  3
A5
350
247
  3
A6
350
248
  3
A7
350
249
  3
A8
350
24A
  3
A9
350
24B
  3
B0
350
24C
  3
B1
350
24D
  3
B2
350
24E
  3
B3
350
24F
  3
B4
350
250
  3
B5
350
251
  3
B6
350
252
  3
B7
350
253
  3
B8
350
254
  3
B9
350
255
  3
C0
350
256
  3
C1
350
257
  3
C2
350
258
  3
C3
350
259
  3
C4
350
25A
  3
C5
350
25B
  3
C6
350
25C
  3
C7
350
25D
  3
C8
350
25E
  3
C9
350
25F
  3
D0
350
260
  3
D1
350
261
  3
D2
350
262
  0
DICTIONARY
  5
8D0
102
{ACAD_REACTORS
330
19
102
}
330
19
100
AcDbDictionary
281
     1
  0
DICTIONARY
  5
278
102
{ACAD_REACTORS
330
19
102
}
330
19
100
AcDbDictionary
281
     1
  3
Standard
350
279
  0
DICTIONARY
  5
267
102
{ACAD_REACTORS
330
19
102
}
330
19
100
AcDbDictionary
281
     1
  3
2dWireframe
350
26C
  3
3D Hidden
350
26E
  3
3dWireframe
350
26D
  3
Basic
350
26F
  3
Brighten
350
273
  3
ColorChange
350
277
  3
Conceptual
350
271
  3
Dim
350
272
  3
EdgeColorOff
350
8BC
  3
Facepattern
350
276
  3
Flat
350
268
  3
FlatWithEdges
350
269
  3
Gouraud
350
26A
  3
GouraudWithEdges
350
26B
  3
Hidden
350
8B9
  3
JitterOff
350
8BA
  3
Linepattern
350
275
  3
OverhangOff
350
8BB
  3
Realistic
350
270
  3
Shaded
350
8C1
  3
Shaded with edges
350
8C0
  3
Shades of Gray
350
8BD
  3
Sketchy
350
8BE
  3
Thicken
350
274
  3
Wireframe
350
8B8
  3
X-Ray
350
8BF
  0
XRECORD
  5
801E
102
{ACAD_REACTORS
330
19
102
}
330
19
100
AcDbXrecord
280
     1
 90
        1
330
279
  0
DICTIONARY
  5
330
102
{ACAD_REACTORS
330
19
102
}
330
19
100
AcDbDictionary
281
     1
  3
CANNOSCALE
350
331
  3
CMLEADERSTYLE
350
8DA
  3
CTABLESTYLE
350
335
  3
HPTRANSPARENCY
350
C07
  3
XCLIPFRAME
350
64A
  0
DICTIONARY
  5
27A
102
{ACAD_REACTORS
330
19
102
}
330
19
100
AcDbDictionary
281
     1
  0
DICTIONARY
  5
C08
102
{ACAD_REACTORS
330
19
102
}
330
19
100
AcDbDictionary
281
     1
  3
DIMRAILANGLE
350
2C1E
  3
DIMRAILFIRSTOFFSET
350
2C1C
  3
DIMRAILOFFSET
350
2C1D
  3
DIMRAILSENABLED
350
2C1F
  0
DICTIONARY
  5
2E2
102
{ACAD_REACTORS
330
2E1
102
}
330
2E1
100
AcDbDictionary
281
     1
  0
DICTIONARY
  5
BFE
102
{ACAD_REACTORS
330
2E1
102
}
330
2E1
100
AcDbDictionary
281
     1
1001
ACAD
1000
<All
  0
SORTENTSTABLE
  5
3C25
102
{ACAD_REACTORS
330
3C24
102
}
330
3C24
100
AcDbSortentsTable
330
A
331
0
  5
3C22
  0
DICTIONARY
  5
800F
102
{ACAD_REACTORS
330
BDC
102
}
330
BDC
100
AcDbDictionary
280
     1
281
     1
  3
TEXT
360
BDE
  0
GROUP
  5
7FD8
102
{ACAD_REACTORS
330
1A
102
}
330
1A
100
AcDbGroup
300

 70
     1
 71
     1
340
7F28
340
7F29
340
7F2A
340
7FD5
340
7FD6
340
7FD7
  0
GROUP
  5
7FDF
102
{ACAD_REACTORS
330
1A
102
}
330
1A
100
AcDbGroup
300

 70
     1
 71
     1
340
7F28
340
7F29
340
7F2A
340
7F2C
340
7F2D
340
7FD5
340
7FD6
340
7FD7
340
7F2B
340
7FDA
340
7FDB
340
7FDC
340
7FDD
  0
GROUP
  5
7FED
102
{ACAD_REACTORS
330
1A
102
}
330
1A
100
AcDbGroup
300

 70
     1
 71
     1
340
7FE0
340
7FE1
340
7FE2
340
7FE3
340
7FE4
340
7FE5
340
7FE6
340
7FE7
340
7FE8
340
7FE9
340
7FEA
340
7FEB
340
7FEC
  0
GROUP
  5
7FEE
102
{ACAD_REACTORS
330
1A
102
}
330
1A
100
AcDbGroup
300

 70
     1
 71
     1
340
7FE0
340
7FE1
340
7FE2
340
7FE5
340
7FE6
340
7FE7
  0
LAYOUT
  5
21
102
{ACAD_REACTORS
330
1E
102
}
330
1E
100
AcDbPlotSettings
  1

  2
none_device
  4
ISO_A3_(420.00_x_297.00_MM)
  6

 40
7.5
 41
20.0
 42
7.5
 43
20.0
 44
420.0
 45
297.0
 46
0.0
 47
0.0
 48
0.0
 49
0.0
140
0.0
141
0.0
142
1.0
143
1.0
 70
     0
 72
     1
 73
     0
 74
     0
  7

 75
     0
 76
     0
 77
     2
 78
   300
147
1.0
148
0.0
149
0.0
100
AcDbLayout
  1
Layout1
 70
     0
 71
     0
 10
0.0
 20
0.0
 11
0.0
 21
0.0
 12
0.0
 22
0.0
 32
0.0
 14
0.0
 24
0.0
 34
0.0
 15
0.0
 25
0.0
 35
0.0
146
0.0
 13
0.0
 23
0.0
 33
0.0
 16
0.0
 26
0.0
 36
0.0
 17
0.0
 27
0.0
 37
0.0
 76
     0
330
B
331
349
  0
LAYOUT
  5
20
102
{ACAD_REACTORS
330
1E
102
}
330
1E
100
AcDbPlotSettings
  1

  2
none_device
  4
ISO_A3_(420.00_x_297.00_MM)
  6

 40
7.5
 41
20.0
 42
7.5
 43
20.0
 44
420.0
 45
297.0
 46
0.0
 47
0.0
 48
0.0
 49
0.0
140
0.0
141
0.0
142
1.0
143
1.0
 70
  1024
 72
     1
 73
     0
 74
     0
  7

 75
     0
 76
     0
 77
     2
 78
   300
147
1.0
148
0.0
149
0.0
100
AcDbLayout
  1
Model
 70
     0
 71
     1
 10
0.0
 20
0.0
 11
2100.0
 21
2970.0
 12
0.0
 22
0.0
 32
0.0
 14
0.0
 24
0.0
 34
0.0
 15
3132.957545508409
 25
2970.0
 35
34.99521132346015
146
0.0
 13
0.0
 23
0.0
 33
0.0
 16
0.0
 26
0.0
 36
0.0
 17
0.0
 27
0.0
 37
0.0
 76
     0
330
A
331
15
  0
MATERIAL
  5
265
102
{ACAD_REACTORS
330
263
102
}
330
263
100
AcDbMaterial
  1
ByBlock
 72
     1
 94
      127
  0
MATERIAL
  5
264
102
{ACAD_REACTORS
330
263
102
}
330
263
100
AcDbMaterial
  1
ByLayer
 72
     1
 94
      127
  0
MATERIAL
  5
266
102
{ACAD_REACTORS
330
263
102
}
330
263
100
AcDbMaterial
  1
Global
 72
     1
 94
      127
  0
MLEADERSTYLE
  5
8D1
102
{ACAD_REACTORS
330
336
102
}
330
336
100
AcDbMLeaderStyle
170
     2
171
     1
172
     0
 90
        2
 40
0.0
 41
0.0
173
     1
 91
-1056964608
340
11
 92
       -2
290
     1
 42
2.0
291
     1
 43
8.0
  3
Standard
341
0
 44
4.0
300

342
17
174
     1
178
     6
175
     1
176
     0
 93
-1056964608
 45
4.0
292
     0
297
     0
 46
4.0
343
0
 94
-1056964608
 47
1.0
 49
1.0
140
1.0
293
     1
141
0.0
294
     1
177
     0
142
1.0
295
     0
296
     0
143
3.75
1001
ACAD_MLEADERVER
1070
     2
  0
MLINESTYLE
  5
1C
102
{ACAD_REACTORS
330
1B
102
}
330
1B
100
AcDbMlineStyle
  2
Standard
 70
     0
  3

 62
     0
 51
90.0
 52
90.0
 71
     2
 49
0.5
 62
   256
  6
BYLAYER
 49
-0.5
 62
   256
  6
BYLAYER
  0
ACDBPLACEHOLDER
  5
1D
102
{ACAD_REACTORS
330
1F
102
}
330
1F
  0
SCALE
  5
242
102
{ACAD_REACTORS
330
241
102
}
330
241
100
AcDbScale
 70
     0
300
1:1
140
1.0
141
1.0
290
     1
  0
SCALE
  5
243
102
{ACAD_REACTORS
330
241
102
}
330
241
100
AcDbScale
 70
     0
300
1:2
140
1.0
141
2.0
290
     0
  0
SCALE
  5
244
102
{ACAD_REACTORS
330
241
102
}
330
241
100
AcDbScale
 70
     0
300
1:4
140
1.0
141
4.0
290
     0
  0
SCALE
  5
245
102
{ACAD_REACTORS
330
241
102
}
330
241
100
AcDbScale
 70
     0
300
1:5
140
1.0
141
5.0
290
     0
  0
SCALE
  5
246
102
{ACAD_REACTORS
330
241
102
}
330
241
100
AcDbScale
 70
     0
300
1:8
140
1.0
141
8.0
290
     0
  0
SCALE
  5
247
102
{ACAD_REACTORS
330
241
102
}
330
241
100
AcDbScale
 70
     0
300
1:10
140
1.0
141
10.0
290
     0
  0
SCALE
  5
248
102
{ACAD_REACTORS
330
241
102
}
330
241
100
AcDbScale
 70
     0
300
1:16
140
1.0
141
16.0
290
     0
  0
SCALE
  5
249
102
{ACAD_REACTORS
330
241
102
}
330
241
100
AcDbScale
 70
     0
300
1:20
140
1.0
141
20.0
290
     0
  0
SCALE
  5
24A
102
{ACAD_REACTORS
330
241
102
}
330
241
100
AcDbScale
 70
     0
300
1:30
140
1.0
141
30.0
290
     0
  0
SCALE
  5
24B
102
{ACAD_REACTORS
330
241
102
}
330
241
100
AcDbScale
 70
     0
300
1:40
140
1.0
141
40.0
290
     0
  0
SCALE
  5
24C
102
{ACAD_REACTORS
330
241
102
}
330
241
100
AcDbScale
 70
     0
300
1:50
140
1.0
141
50.0
290
     0
  0
SCALE
  5
24D
102
{ACAD_REACTORS
330
241
102
}
330
241
100
AcDbScale
 70
     0
300
1:100
140
1.0
141
100.0
290
     0
  0
SCALE
  5
24E
102
{ACAD_REACTORS
330
241
102
}
330
241
100
AcDbScale
 70
     0
300
2:1
140
2.0
141
1.0
290
     0
  0
SCALE
  5
24F
102
{ACAD_REACTORS
330
241
102
}
330
241
100
AcDbScale
 70
     0
300
4:1
140
4.0
141
1.0
290
     0
  0
SCALE
  5
250
102
{ACAD_REACTORS
330
241
102
}
330
241
100
AcDbScale
 70
     0
300
8:1
140
8.0
141
1.0
290
     0
  0
SCALE
  5
251
102
{ACAD_REACTORS
330
241
102
}
330
241
100
AcDbScale
 70
     0
300
10:1
140
10.0
141
1.0
290
     0
  0
SCALE
  5
252
102
{ACAD_REACTORS
330
241
102
}
330
241
100
AcDbScale
 70
     0
300
100:1
140
100.0
141
1.0
290
     0
  0
SCALE
  5
253
102
{ACAD_REACTORS
330
241
102
}
330
241
100
AcDbScale
 70
     0
300
1/128" = 1'-0"
140
0.0078125
141
12.0
290
     0
  0
SCALE
  5
254
102
{ACAD_REACTORS
330
241
102
}
330
241
100
AcDbScale
 70
     0
300
1/64" = 1'-0"
140
0.015625
141
12.0
290
     0
  0
SCALE
  5
255
102
{ACAD_REACTORS
330
241
102
}
330
241
100
AcDbScale
 70
     0
300
1/32" = 1'-0"
140
0.03125
141
12.0
290
     0
  0
SCALE
  5
256
102
{ACAD_REACTORS
330
241
102
}
330
241
100
AcDbScale
 70
     0
300
1/16" = 1'-0"
140
0.0625
141
12.0
290
     0
  0
SCALE
  5
257
102
{ACAD_REACTORS
330
241
102
}
330
241
100
AcDbScale
 70
     0
300
3/32" = 1'-0"
140
0.09375
141
12.0
290
     0
  0
SCALE
  5
258
102
{ACAD_REACTORS
330
241
102
}
330
241
100
AcDbScale
 70
     0
300
1/8" = 1'-0"
140
0.125
141
12.0
290
     0
  0
SCALE
  5
259
102
{ACAD_REACTORS
330
241
102
}
330
241
100
AcDbScale
 70
     0
300
3/16" = 1'-0"
140
0.1875
141
12.0
290
     0
  0
SCALE
  5
25A
102
{ACAD_REACTORS
330
241
102
}
330
241
100
AcDbScale
 70
     0
300
1/4" = 1'-0"
140
0.25
141
12.0
290
     0
  0
SCALE
  5
25B
102
{ACAD_REACTORS
330
241
102
}
330
241
100
AcDbScale
 70
     0
300
3/8" = 1'-0"
140
0.375
141
12.0
290
     0
  0
SCALE
  5
25C
102
{ACAD_REACTORS
330
241
102
}
330
241
100
AcDbScale
 70
     0
300
1/2" = 1'-0"
140
0.5
141
12.0
290
     0
  0
SCALE
  5
25D
102
{ACAD_REACTORS
330
241
102
}
330
241
100
AcDbScale
 70
     0
300
3/4" = 1'-0"
140
0.75
141
12.0
290
     0
  0
SCALE
  5
25E
102
{ACAD_REACTORS
330
241
102
}
330
241
100
AcDbScale
 70
     0
300
1" = 1'-0"
140
1.0
141
12.0
290
     0
  0
SCALE
  5
25F
102
{ACAD_REACTORS
330
241
102
}
330
241
100
AcDbScale
 70
     0
300
1-1/2" = 1'-0"
140
1.5
141
12.0
290
     0
  0
SCALE
  5
260
102
{ACAD_REACTORS
330
241
102
}
330
241
100
AcDbScale
 70
     0
300
3" = 1'-0"
140
3.0
141
12.0
290
     0
  0
SCALE
  5
261
102
{ACAD_REACTORS
330
241
102
}
330
241
100
AcDbScale
 70
     0
300
6" = 1'-0"
140
6.0
141
12.0
290
     0
  0
SCALE
  5
262
102
{ACAD_REACTORS
330
241
102
}
330
241
100
AcDbScale
 70
     0
300
1'-0" = 1'-0"
140
12.0
141
12.0
290
     0
  0
TABLESTYLE
  5
279
102
{ACAD_REACTORS
330
278
102
}
102
{ACAD_XDICTIONARY
360
801C
102
}
330
278
100
AcDbTableStyle
  3
Standard
 70
     0
 71
     0
 40
0.06
 41
0.06
280
     0
281
     0
  7
Standard
140
4.5
170
     2
 62
     0
 63
   257
283
     0
 90
        4
 91
        0
  1

274
    -2
284
     1
 64
     0
275
    -2
285
     1
 65
     0
276
    -2
286
     1
 66
     0
277
    -2
287
     1
 67
     0
278
    -2
288
     1
 68
     0
279
    -2
289
     1
 69
     0
  7
Standard
140
6.0
170
     5
 62
     0
 63
   257
283
     0
 90
        4
 91
        0
  1

274
    -2
284
     1
 64
     0
275
    -2
285
     1
 65
     0
276
    -2
286
     1
 66
     0
277
    -2
287
     1
 67
     0
278
    -2
288
     1
 68
     0
279
    -2
289
     1
 69
     0
  7
Standard
140
4.5
170
     5
 62
     0
 63
   257
283
     0
 90
        4
 91
        0
  1

274
    -2
284
     1
 64
     0
275
    -2
285
     1
 65
     0
276
    -2
286
     1
 66
     0
277
    -2
287
     1
 67
     0
278
    -2
288
     1
 68
     0
279
    -2
289
     1
 69
     0
  0
VISUALSTYLE
  5
26C
102
{ACAD_REACTORS
330
267
102
}
330
267
100
AcDbVisualStyle
  2
2dWireframe
 70
     4
 71
     0
 72
     2
 73
     0
 90
        0
 40
-0.6
 41
-30.0
 62
     5
 63
     7
421
 16777215
 74
     1
 91
        4
 64
     7
 65
   257
 75
     1
175
     1
 42
1.0
 92
        0
 66
   257
 43
1.0
 76
     1
 77
     6
 78
     2
 67
     7
 79
     5
170
     0
171
     0
290
     0
174
     0
 93
        1
 44
0.0
173
     0
291
     0
 45
0.0
  0
VISUALSTYLE
  5
26E
102
{ACAD_REACTORS
330
267
102
}
330
267
100
AcDbVisualStyle
  2
3D Hidden
 70
     6
 71
     1
 72
     2
 73
     2
 90
        0
 40
-0.6
 41
-30.0
 62
     5
 63
     7
421
 16777215
 74
     2
 91
        2
 64
     7
 65
   257
 75
     2
175
     1
 42
40.0
 92
        0
 66
   257
 43
1.0
 76
     1
 77
     6
 78
     2
 67
     7
 79
     3
170
     0
171
     0
290
     0
174
     0
 93
        1
 44
0.0
173
     0
291
     0
 45
0.0
  0
VISUALSTYLE
  5
26D
102
{ACAD_REACTORS
330
267
102
}
330
267
100
AcDbVisualStyle
  2
3dWireframe
 70
     5
 71
     0
 72
     2
 73
     0
 90
        0
 40
-0.6
 41
-30.0
 62
     5
 63
     7
421
 16777215
 74
     1
 91
        4
 64
     7
 65
   257
 75
     1
175
     1
 42
1.0
 92
        0
 66
   257
 43
1.0
 76
     1
 77
     6
 78
     2
 67
     7
 79
     5
170
     0
171
     0
290
     0
174
     0
 93
        1
 44
0.0
173
     0
291
     0
 45
0.0
  0
VISUALSTYLE
  5
26F
102
{ACAD_REACTORS
330
267
102
}
330
267
100
AcDbVisualStyle
  2
Basic
 70
     7
 71
     1
 72
     0
 73
     1
 90
        0
 40
-0.6
 41
-30.0
 62
     5
 63
     7
421
 16777215
 74
     0
 91
        4
 64
     7
 65
   257
 75
     1
175
     1
 42
1.0
 92
        8
 66
     7
 43
1.0
 76
     1
 77
     6
 78
     2
 67
     7
 79
     5
170
     0
171
     0
290
     0
174
     0
 93
        1
 44
0.0
173
     0
291
     1
 45
0.0
  0
VISUALSTYLE
  5
273
102
{ACAD_REACTORS
330
267
102
}
330
267
100
AcDbVisualStyle
  2
Brighten
 70
    12
 71
     2
 72
     2
 73
     0
 90
        0
 40
-0.6
 41
-30.0
 62
     5
 63
     7
421
 16777215
 74
     1
 91
        4
 64
     7
 65
   257
 75
     1
175
     1
 42
1.0
 92
        8
 66
     7
 43
1.0
 76
     1
 77
     6
 78
     2
 67
     7
 79
     5
170
     0
171
     0
290
     0
174
     0
 93
        1
 44
50.0
173
     0
291
     1
 45
0.0
  0
VISUALSTYLE
  5
277
102
{ACAD_REACTORS
330
267
102
}
330
267
100
AcDbVisualStyle
  2
ColorChange
 70
    16
 71
     2
 72
     2
 73
     3
 90
        0
 40
-0.6
 41
-30.0
 62
     5
 63
     8
421
  8421504
 74
     1
 91
        4
 64
     7
 65
   257
 75
     1
175
     1
 42
1.0
 92
        8
 66
     8
424
  8421504
 43
1.0
 76
     1
 77
     6
 78
     2
 67
     7
 79
     5
170
     0
171
     0
290
     0
174
     0
 93
        1
 44
0.0
173
     0
291
     1
 45
0.0
  0
VISUALSTYLE
  5
271
102
{ACAD_REACTORS
330
267
102
}
330
267
100
AcDbVisualStyle
  2
Conceptual
 70
     9
 71
     3
 72
     2
 73
     0
 90
        0
 40
-0.6
 41
-30.0
 62
     5
 63
     7
421
 16777215
 74
     2
 91
        2
 64
     7
 65
   257
 75
     1
175
     1
 42
40.0
 92
        8
 66
     7
 43
1.0
 76
     1
 77
     6
 78
     2
 67
     7
 79
     3
170
     0
171
     0
290
     0
174
     0
 93
        1
 44
0.0
173
     0
291
     0
 45
0.0
  0
VISUALSTYLE
  5
272
102
{ACAD_REACTORS
330
267
102
}
330
267
100
AcDbVisualStyle
  2
Dim
 70
    11
 71
     2
 72
     2
 73
     0
 90
        0
 40
-0.6
 41
-30.0
 62
     5
 63
     7
421
 16777215
 74
     1
 91
        4
 64
     7
 65
   257
 75
     1
175
     1
 42
1.0
 92
        8
 66
     7
 43
1.0
 76
     1
 77
     6
 78
     2
 67
     7
 79
     5
170
     0
171
     0
290
     0
174
     0
 93
        1
 44
-50.0
173
     0
291
     1
 45
0.0
  0
VISUALSTYLE
  5
8BC
102
{ACAD_REACTORS
330
267
102
}
330
267
100
AcDbVisualStyle
  2
EdgeColorOff
 70
    22
 71
     2
 72
     2
 73
     0
 90
        0
 40
0.6
 41
30.0
 62
     5
 63
     7
421
 16777215
 74
     1
 91
        4
 64
     7
 65
   257
 75
     1
175
     1
 42
1.0
 92
        8
 66
     7
 43
1.0
 76
     1
 77
     6
 78
     2
 67
     7
 79
     5
170
     0
171
     0
290
     0
174
     0
 93
        1
 44
0.0
173
     0
291
     1
 45
0.0
  0
VISUALSTYLE
  5
276
102
{ACAD_REACTORS
330
267
102
}
330
267
100
AcDbVisualStyle
  2
Facepattern
 70
    15
 71
     2
 72
     2
 73
     0
 90
        0
 40
-0.6
 41
-30.0
 62
     5
 63
     7
421
 16777215
 74
     1
 91
        4
 64
     7
 65
   257
 75
     1
175
     1
 42
1.0
 92
        8
 66
     7
 43
1.0
 76
     1
 77
     6
 78
     2
 67
     7
 79
     5
170
     0
171
     0
290
     0
174
     0
 93
        1
 44
0.0
173
     0
291
     1
 45
0.0
  0
VISUALSTYLE
  5
268
102
{ACAD_REACTORS
330
267
102
}
330
267
100
AcDbVisualStyle
  2
Flat
 70
     0
 71
     2
 72
     1
 73
     1
 90
        2
 40
-0.6
 41
30.0
 62
     5
 63
     7
421
 16777215
 74
     0
 91
        4
 64
     7
 65
   257
 75
     1
175
     1
 42
1.0
 92
        8
 66
     7
 43
1.0
 76
     1
 77
     6
 78
     2
 67
     7
 79
     5
170
     0
171
     0
290
     0
174
     0
 93
       13
 44
0.0
173
     0
291
     1
 45
0.0
  0
VISUALSTYLE
  5
269
102
{ACAD_REACTORS
330
267
102
}
330
267
100
AcDbVisualStyle
  2
FlatWithEdges
 70
     1
 71
     2
 72
     1
 73
     1
 90
        2
 40
-0.6
 41
30.0
 62
     5
 63
     7
421
 16777215
 74
     1
 91
        4
 64
     7
 65
   257
 75
     1
175
     1
 42
1.0
 92
        0
 66
   257
 43
1.0
 76
     1
 77
     6
 78
     2
 67
     7
 79
     5
170
     0
171
     0
290
     0
174
     0
 93
       13
 44
0.0
173
     0
291
     1
 45
0.0
  0
VISUALSTYLE
  5
26A
102
{ACAD_REACTORS
330
267
102
}
330
267
100
AcDbVisualStyle
  2
Gouraud
 70
     2
 71
     2
 72
     2
 73
     1
 90
        2
 40
-0.6
 41
30.0
 62
     5
 63
     7
421
 16777215
 74
     0
 91
        4
 64
     7
 65
   257
 75
     1
175
     1
 42
1.0
 92
        0
 66
     7
 43
1.0
 76
     1
 77
     6
 78
     2
 67
     7
 79
     5
170
     0
171
     0
290
     0
174
     0
 93
       13
 44
0.0
173
     0
291
     1
 45
0.0
  0
VISUALSTYLE
  5
26B
102
{ACAD_REACTORS
330
267
102
}
330
267
100
AcDbVisualStyle
  2
GouraudWithEdges
 70
     3
 71
     2
 72
     2
 73
     1
 90
        2
 40
-0.6
 41
30.0
 62
     5
 63
     7
421
 16777215
 74
     1
 91
        4
 64
     7
 65
   257
 75
     1
175
     1
 42
1.0
 92
        0
 66
   257
 43
1.0
 76
     1
 77
     6
 78
     2
 67
     7
 79
     5
170
     0
171
     0
290
     0
174
     0
 93
       13
 44
0.0
173
     0
291
     1
 45
0.0
  0
VISUALSTYLE
  5
8B9
102
{ACAD_REACTORS
330
267
102
}
330
267
100
AcDbVisualStyle
  2
Hidden
 70
     6
 71
     1
 72
     2
 73
     2
 90
        0
 40
0.6
 41
30.0
 62
     5
 63
     7
421
 16777215
 74
     2
 91
        2
 64
     7
 65
   257
 75
     2
175
     1
 42
40.0
 92
        0
 66
   257
 43
1.0
 76
     1
 77
     6
 78
     2
 67
     7
 79
     3
170
     0
171
     0
290
     0
174
     0
 93
        1
 44
0.0
173
     0
291
     0
 45
0.0
  0
VISUALSTYLE
  5
8BA
102
{ACAD_REACTORS
330
267
102
}
330
267
100
AcDbVisualStyle
  2
JitterOff
 70
    20
 71
     2
 72
     2
 73
     0
 90
        0
 40
0.6
 41
30.0
 62
     5
 63
     7
421
 16777215
 74
     1
 91
        4
 64
     7
 65
   257
 75
     1
175
     1
 42
1.0
 92
       10
 66
     7
 43
1.0
 76
     1
 77
     6
 78
     2
 67
     7
 79
     5
170
     0
171
     0
290
     0
174
     0
 93
        1
 44
0.0
173
     0
291
     1
 45
0.0
  0
VISUALSTYLE
  5
275
102
{ACAD_REACTORS
330
267
102
}
330
267
100
AcDbVisualStyle
  2
Linepattern
 70
    14
 71
     2
 72
     2
 73
     0
 90
        0
 40
-0.6
 41
-30.0
 62
     5
 63
     7
421
 16777215
 74
     1
 91
        4
 64
     7
 65
   257
 75
     7
175
     7
 42
1.0
 92
        8
 66
     7
 43
1.0
 76
     1
 77
     6
 78
     2
 67
     7
 79
     5
170
     0
171
     0
290
     0
174
     0
 93
        1
 44
0.0
173
     0
291
     1
 45
0.0
  0
VISUALSTYLE
  5
8BB
102
{ACAD_REACTORS
330
267
102
}
330
267
100
AcDbVisualStyle
  2
OverhangOff
 70
    21
 71
     2
 72
     2
 73
     0
 90
        0
 40
0.6
 41
30.0
 62
     5
 63
     7
421
 16777215
 74
     1
 91
        4
 64
     7
 65
   257
 75
     1
175
     1
 42
1.0
 92
        9
 66
     7
 43
1.0
 76
     1
 77
     6
 78
     2
 67
     7
 79
     5
170
     0
171
     0
290
     0
174
     0
 93
        1
 44
0.0
173
     0
291
     1
 45
0.0
  0
VISUALSTYLE
  5
270
102
{ACAD_REACTORS
330
267
102
}
330
267
100
AcDbVisualStyle
  2
Realistic
 70
     8
 71
     2
 72
     2
 73
     0
 90
        0
 40
-0.6
 41
-30.0
 62
     5
 63
     7
421
 16777215
 74
     1
 91
        0
 64
     7
 65
   257
 75
     1
175
     1
 42
1.0
 92
        8
 66
     8
424
  7895160
 43
1.0
 76
     1
 77
     6
 78
     2
 67
     7
 79
     5
170
     0
171
     0
290
     0
174
     0
 93
       13
 44
0.0
173
     0
291
     0
 45
0.0
  0
VISUALSTYLE
  5
8C1
102
{ACAD_REACTORS
330
267
102
}
330
267
100
AcDbVisualStyle
  2
Shaded
 70
    27
 71
     2
 72
     2
 73
     1
 90
        2
 40
0.6
 41
30.0
 62
     5
 63
     7
421
 16777215
 74
     0
 91
        4
 64
     7
 65
   257
 75
     1
175
     1
 42
1.0
 92
        8
 66
   257
 43
1.0
 76
     1
 77
     6
 78
     2
 67
     8
425
  7895160
 79
     3
170
     0
171
     0
290
     0
174
     0
 93
        5
 44
0.0
173
     0
291
     0
 45
0.0
  0
VISUALSTYLE
  5
8C0
102
{ACAD_REACTORS
330
267
102
}
330
267
100
AcDbVisualStyle
  2
Shaded with edges
 70
    26
 71
     2
 72
     2
 73
     1
 90
        2
 40
0.6
 41
30.0
 62
     5
 63
     7
421
 16777215
 74
     1
 91
       10
 64
     7
 65
   257
 75
     2
175
     1
 42
1.0
 92
        8
 66
   257
 43
1.0
 76
     1
 77
     6
 78
     2
 67
     7
 79
     3
170
     0
171
     0
290
     0
174
     0
 93
        5
 44
0.0
173
     0
291
     0
 45
0.0
  0
VISUALSTYLE
  5
8BD
102
{ACAD_REACTORS
330
267
102
}
330
267
100
AcDbVisualStyle
  2
Shades of Gray
 70
    23
 71
     2
 72
     2
 73
     3
 90
        0
 40
0.6
 41
30.0
 62
     5
 63
     7
421
 16777215
 74
     2
 91
        2
 64
     7
 65
     7
 75
     1
175
     1
 42
40.0
 92
        8
 66
     7
 43
1.0
 76
     1
 77
     6
 78
     2
 67
     7
 79
     3
170
     0
171
     0
290
     0
174
     0
 93
        1
 44
0.0
173
     0
291
     0
 45
0.0
  0
VISUALSTYLE
  5
8BE
102
{ACAD_REACTORS
330
267
102
}
330
267
100
AcDbVisualStyle
  2
Sketchy
 70
    24
 71
     1
 72
     2
 73
     2
 90
        0
 40
0.6
 41
30.0
 62
     5
 63
     7
421
 16777215
 74
     2
 91
        2
 64
     7
 65
     7
 75
     1
175
     1
 42
40.0
 92
       11
 66
     7
 43
1.0
 76
     1
 77
     6
 78
     2
 67
     7
 79
     6
170
     0
171
     0
290
     0
174
     0
 93
        1
 44
0.0
173
     0
291
     0
 45
0.0
  0
VISUALSTYLE
  5
274
102
{ACAD_REACTORS
330
267
102
}
330
267
100
AcDbVisualStyle
  2
Thicken
 70
    13
 71
     2
 72
     2
 73
     0
 90
        0
 40
-0.6
 41
-30.0
 62
     5
 63
     7
421
 16777215
 74
     1
 91
        4
 64
     7
 65
   257
 75
     1
175
     1
 42
1.0
 92
       12
 66
     7
 43
1.0
 76
     1
 77
     6
 78
     2
 67
     7
 79
     5
170
     0
171
     0
290
     0
174
     0
 93
        1
 44
0.0
173
     0
291
     1
 45
0.0
  0
VISUALSTYLE
  5
8B8
102
{ACAD_REACTORS
330
267
102
}
330
267
100
AcDbVisualStyle
  2
Wireframe
 70
     5
 71
     0
 72
     2
 73
     0
 90
        0
 40
0.6
 41
30.0
 62
     5
 63
     7
421
 16777215
 74
     1
 91
        4
 64
     7
 65
   257
 75
     1
175
     1
 42
1.0
 92
        0
 66
   257
 43
1.0
 76
     1
 77
     6
 78
     2
 67
     7
 79
     3
170
     0
171
     0
290
     0
174
     0
 93
        1
 44
0.0
173
     0
291
     0
 45
0.0
  0
VISUALSTYLE
  5
8BF
102
{ACAD_REACTORS
330
267
102
}
330
267
100
AcDbVisualStyle
  2
X-Ray
 70
    25
 71
     2
 72
     2
 73
     1
 90
        1
 40
0.5
 41
30.0
 62
     5
 63
     7
421
 16777215
 74
     1
 91
        0
 64
     7
 65
   257
 75
     1
175
     1
 42
1.0
 92
        8
 66
     7
 43
1.0
 76
     1
 77
     6
 78
     2
 67
     7
 79
     3
170
     0
171
     0
290
     0
174
     0
 93
       13
 44
0.0
173
     0
291
     0
 45
0.0
  0
DICTIONARYVAR
  5
331
102
{ACAD_REACTORS
330
330
102
}
330
330
100
DictionaryVariables
280
     0
  1
1:1
  0
DICTIONARYVAR
  5
8DA
102
{ACAD_REACTORS
330
330
102
}
330
330
100
DictionaryVariables
280
     0
  1
Standard
  0
DICTIONARYVAR
  5
335
102
{ACAD_REACTORS
330
330
102
}
330
330
100
DictionaryVariables
280
     0
  1
Standard
  0
DICTIONARYVAR
  5
C07
102
{ACAD_REACTORS
330
330
102
}
330
330
100
DictionaryVariables
280
     0
  1
ByLayer
  0
DICTIONARYVAR
  5
64A
102
{ACAD_REACTORS
330
330
102
}
330
330
100
DictionaryVariables
280
     0
  1
0
  0
DICTIONARYVAR
  5
2C1E
102
{ACAD_REACTORS
330
C08
102
}
330
C08
100
DictionaryVariables
280
     0
  1
0.261799
  0
DICTIONARYVAR
  5
2C1C
102
{ACAD_REACTORS
330
C08
102
}
330
C08
100
DictionaryVariables
280
     0
  1
0.400000
  0
DICTIONARYVAR
  5
2C1D
102
{ACAD_REACTORS
330
C08
102
}
330
C08
100
DictionaryVariables
280
     0
  1
0.250000
  0
DICTIONARYVAR
  5
2C1F
102
{ACAD_REACTORS
330
C08
102
}
330
C08
100
DictionaryVariables
280
     0
  1
1
  0
FIELD
  5
BDE
102
{ACAD_REACTORS
330
800F
102
}
330
800F
100
AcDbField
  1
_text
  2
{%<\_FldIdx 0>%N}
 90
        1
360
BDF
 97
        0
 91
       63
 92
        0
 94
       11
 95
        2
 96
        0
300

 93
        1
  6
ACFD_FIELDTEXT_CHECKSUM
 93
        2
 90
        2
140
4546.0
 94
        0
300

302

304
ACVALUE_END
  7
ACFD_FIELD_VALUE
 93
        6
 90
        4
  1
{20191029N}
 94
        0
300

302

304
ACVALUE_END
301
{20191029N}
 98
       11
  0
DICTIONARY
  5
801C
330
279
100
AcDbDictionary
280
     1
281
     1
  3
ACAD_ROUNDTRIP_2008_TABLESTYLE_CELLSTYLEMAP
360
801D
  0
FIELD
  5
BDF
330
BDE
100
AcDbField
  1
AcVar
  2
\AcVar Date \f "yyyyMMdd"
 90
        0
 97
        0
 91
       63
 92
        0
 94
        8
 95
       64
 96
        0
300
Variable not supported
 93
        1
  6
Variable
 93
        2
 90
        4
  1
Date
 94
        0
300

302

304
ACVALUE_END
  7
ACFD_FIELD_VALUE
 93
        6
 90
        8
 92
       16
310
E3070A0000001D000B00250017000000
 94
        0
300
yyyyMMdd
302

304
ACVALUE_END
301
20191029
 98
        8
  0
CELLSTYLEMAP
  5
801D
102
{ACAD_REACTORS
330
801C
102
}
330
801C
100
AcDbCellStyleMap
 90
        3
300
CELLSTYLE
  1
TABLEFORMAT_BEGIN
 90
        5
170
     1
 91
        0
 92
    32768
 62
   257
 93
        1
300
CONTENTFORMAT
  1
CONTENTFORMAT_BEGIN
 90
        0
 91
        0
 92
        4
 93
        0
300

 40
0.0
140
1.0
 94
        5
 62
     0
340
17
144
6.0
309
CONTENTFORMAT_END
171
     1
301
MARGIN
  1
CELLMARGIN_BEGIN
 40
0.06
 40
0.06
 40
0.06
 40
0.06
 40
0.18
 40
0.18
309
CELLMARGIN_END
 94
        6
 95
        1
302
GRIDFORMAT
  1
GRIDFORMAT_BEGIN
 90
        0
 91
        1
 62
     0
 92
       -2
340
0
 93
        0
 40
0.045
309
GRIDFORMAT_END
 95
        2
302
GRIDFORMAT
  1
GRIDFORMAT_BEGIN
 90
        0
 91
        1
 62
     0
 92
       -2
340
0
 93
        0
 40
0.045
309
GRIDFORMAT_END
 95
        4
302
GRIDFORMAT
  1
GRIDFORMAT_BEGIN
 90
        0
 91
        1
 62
     0
 92
       -2
340
0
 93
        0
 40
0.045
309
GRIDFORMAT_END
 95
        8
302
GRIDFORMAT
  1
GRIDFORMAT_BEGIN
 90
        0
 91
        1
 62
     0
 92
       -2
340
0
 93
        0
 40
0.045
309
GRIDFORMAT_END
 95
       16
302
GRIDFORMAT
  1
GRIDFORMAT_BEGIN
 90
        0
 91
        1
 62
     0
 92
       -2
340
0
 93
        0
 40
0.045
309
GRIDFORMAT_END
 95
       32
302
GRIDFORMAT
  1
GRIDFORMAT_BEGIN
 90
        0
 91
        1
 62
     0
 92
       -2
340
0
 93
        0
 40
0.045
309
GRIDFORMAT_END
309
TABLEFORMAT_END
  1
CELLSTYLE_BEGIN
 90
        1
 91
        1
300
_TITLE
309
CELLSTYLE_END
300
CELLSTYLE
  1
TABLEFORMAT_BEGIN
 90
        5
170
     1
 91
        0
 92
        0
 62
   257
 93
        1
300
CONTENTFORMAT
  1
CONTENTFORMAT_BEGIN
 90
        0
 91
        0
 92
        4
 93
        0
300

 40
0.0
140
1.0
 94
        5
 62
     0
340
17
144
4.5
309
CONTENTFORMAT_END
171
     1
301
MARGIN
  1
CELLMARGIN_BEGIN
 40
0.06
 40
0.06
 40
0.06
 40
0.06
 40
0.18
 40
0.18
309
CELLMARGIN_END
 94
        6
 95
        1
302
GRIDFORMAT
  1
GRIDFORMAT_BEGIN
 90
        0
 91
        1
 62
     0
 92
       -2
340
0
 93
        0
 40
0.045
309
GRIDFORMAT_END
 95
        2
302
GRIDFORMAT
  1
GRIDFORMAT_BEGIN
 90
        0
 91
        1
 62
     0
 92
       -2
340
0
 93
        0
 40
0.045
309
GRIDFORMAT_END
 95
        4
302
GRIDFORMAT
  1
GRIDFORMAT_BEGIN
 90
        0
 91
        1
 62
     0
 92
       -2
340
0
 93
        0
 40
0.045
309
GRIDFORMAT_END
 95
        8
302
GRIDFORMAT
  1
GRIDFORMAT_BEGIN
 90
        0
 91
        1
 62
     0
 92
       -2
340
0
 93
        0
 40
0.045
309
GRIDFORMAT_END
 95
       16
302
GRIDFORMAT
  1
GRIDFORMAT_BEGIN
 90
        0
 91
        1
 62
     0
 92
       -2
340
0
 93
        0
 40
0.045
309
GRIDFORMAT_END
 95
       32
302
GRIDFORMAT
  1
GRIDFORMAT_BEGIN
 90
        0
 91
        1
 62
     0
 92
       -2
340
0
 93
        0
 40
0.045
309
GRIDFORMAT_END
309
TABLEFORMAT_END
  1
CELLSTYLE_BEGIN
 90
        2
 91
        1
300
_HEADER
309
CELLSTYLE_END
300
CELLSTYLE
  1
TABLEFORMAT_BEGIN
 90
        5
170
     1
 91
        0
 92
        0
 62
   257
 93
        1
300
CONTENTFORMAT
  1
CONTENTFORMAT_BEGIN
 90
        0
 91
        0
 92
        4
 93
        0
300

 40
0.0
140
1.0
 94
        2
 62
     0
340
17
144
4.5
309
CONTENTFORMAT_END
171
     1
301
MARGIN
  1
CELLMARGIN_BEGIN
 40
0.06
 40
0.06
 40
0.06
 40
0.06
 40
0.18
 40
0.18
309
CELLMARGIN_END
 94
        6
 95
        1
302
GRIDFORMAT
  1
GRIDFORMAT_BEGIN
 90
        0
 91
        1
 62
     0
 92
       -2
340
0
 93
        0
 40
0.045
309
GRIDFORMAT_END
 95
        2
302
GRIDFORMAT
  1
GRIDFORMAT_BEGIN
 90
        0
 91
        1
 62
     0
 92
       -2
340
0
 93
        0
 40
0.045
309
GRIDFORMAT_END
 95
        4
302
GRIDFORMAT
  1
GRIDFORMAT_BEGIN
 90
        0
 91
        1
 62
     0
 92
       -2
340
0
 93
        0
 40
0.045
309
GRIDFORMAT_END
 95
        8
302
GRIDFORMAT
  1
GRIDFORMAT_BEGIN
 90
        0
 91
        1
 62
     0
 92
       -2
340
0
 93
        0
 40
0.045
309
GRIDFORMAT_END
 95
       16
302
GRIDFORMAT
  1
GRIDFORMAT_BEGIN
 90
        0
 91
        1
 62
     0
 92
       -2
340
0
 93
        0
 40
0.045
309
GRIDFORMAT_END
 95
       32
302
GRIDFORMAT
  1
GRIDFORMAT_BEGIN
 90
        0
 91
        1
 62
     0
 92
       -2
340
0
 93
        0
 40
0.045
309
GRIDFORMAT_END
309
TABLEFORMAT_END
  1
CELLSTYLE_BEGIN
 90
        3
 91
        2
300
_DATA
309
CELLSTYLE_END
  0
ENDSEC
  0
EOF
