  0
SECTION
  2
HEADER
  9
$ACADVER
  1
AC1021
  9
$ACADMAINTVER
 70
    25
  9
$DWGCODEPAGE
  3
ANSI_932
  9
$LASTSAVEDBY
  1
tform
  9
$INSBASE
 10
0.0
 20
0.0
 30
0.0
  9
$EXTMIN
 10
0.0
 20
0.0
 30
-0.0000000000000142
  9
$EXTMAX
 10
2100.0
 20
2970.0
 30
0.0000000000000142
  9
$LIMMIN
 10
0.0
 20
0.0
  9
$LIMMAX
 10
2100.0
 20
2970.0
  9
$ORTHOMODE
 70
     1
  9
$REGENMODE
 70
     1
  9
$FILLMODE
 70
     1
  9
$QTEXTMODE
 70
     0
  9
$MIRRTEXT
 70
     1
  9
$LTSCALE
 40
5.0
  9
$ATTMODE
 70
     1
  9
$TEXTSIZE
 40
2.5
  9
$TRACEWID
 40
1.0
  9
$TEXTSTYLE
  7
ＭＳ ゴシック
  9
$CLAYER
  8
DIM
  9
$CELTYPE
  6
ByLayer
  9
$CECOLOR
 62
   256
  9
$CELTSCALE
 40
1.0
  9
$DISPSILH
 70
     0
  9
$DIMSCALE
 40
1.0
  9
$DIMASZ
 40
10.0
  9
$DIMEXO
 40
30.0
  9
$DIMDLI
 40
0.9999999999999999
  9
$DIMRND
 40
0.0
  9
$DIMDLE
 40
0.0
  9
$DIMEXE
 40
0.0
  9
$DIMTP
 40
0.0
  9
$DIMTM
 40
0.0
  9
$DIMTXT
 40
24.0
  9
$DIMCEN
 40
0.0
  9
$DIMTSZ
 40
0.0
  9
$DIMTOL
 70
     0
  9
$DIMLIM
 70
     0
  9
$DIMTIH
 70
     0
  9
$DIMTOH
 70
     0
  9
$DIMSE1
 70
     0
  9
$DIMSE2
 70
     0
  9
$DIMTAD
 70
     1
  9
$DIMZIN
 70
    11
  9
$DIMBLK
  1
DOT
  9
$DIMASO
 70
     1
  9
$DIMSHO
 70
     1
  9
$DIMPOST
  1
<>
  9
$DIMAPOST
  1
[]
  9
$DIMALT
 70
     0
  9
$DIMALTD
 70
     1
  9
$DIMALTF
 40
1.0
  9
$DIMLFAC
 40
1.0
  9
$DIMTOFL
 70
     0
  9
$DIMTVP
 40
0.0
  9
$DIMTIX
 70
     1
  9
$DIMSOXD
 70
     0
  9
$DIMSAH
 70
     0
  9
$DIMBLK1
  1

  9
$DIMBLK2
  1

  9
$DIMSTYLE
  2
tfrom線あり
  9
$DIMCLRD
 70
     0
  9
$DIMCLRE
 70
     0
  9
$DIMCLRT
 70
     0
  9
$DIMTFAC
 40
1.0
  9
$DIMGAP
 40
20.0
  9
$DIMJUST
 70
     0
  9
$DIMSD1
 70
     0
  9
$DIMSD2
 70
     0
  9
$DIMTOLJ
 70
     1
  9
$DIMTZIN
 70
    11
  9
$DIMALTZ
 70
    11
  9
$DIMALTTZ
 70
    11
  9
$DIMUPT
 70
     0
  9
$DIMDEC
 70
     0
  9
$DIMTDEC
 70
     1
  9
$DIMALTU
 70
     2
  9
$DIMALTTD
 70
     2
  9
$DIMTXSTY
  7
ＭＳ ゴシック
  9
$DIMAUNIT
 70
     0
  9
$DIMADEC
 70
     2
  9
$DIMALTRND
 40
0.0
  9
$DIMAZIN
 70
     0
  9
$DIMDSEP
 70
    46
  9
$DIMATFIT
 70
     0
  9
$DIMFRAC
 70
     2
  9
$DIMLDRBLK
  1
DOT
  9
$DIMLUNIT
 70
     2
  9
$DIMLWD
 70
    -2
  9
$DIMLWE
 70
    -2
  9
$DIMTMOVE
 70
     0
  9
$DIMFXL
 40
1.0
  9
$DIMFXLON
 70
     0
  9
$DIMJOGANG
 40
0.7853981633974483
  9
$DIMTFILL
 70
     0
  9
$DIMTFILLCLR
 70
     0
  9
$DIMARCSYM
 70
     0
  9
$DIMLTYPE
  6

  9
$DIMLTEX1
  6

  9
$DIMLTEX2
  6

  9
$LUNITS
 70
     2
  9
$LUPREC
 70
     0
  9
$SKETCHINC
 40
0.1
  9
$FILLETRAD
 40
0.0
  9
$AUNITS
 70
     0
  9
$AUPREC
 70
     0
  9
$MENU
  1
acad
  9
$ELEVATION
 40
0.0
  9
$PELEVATION
 40
0.0
  9
$THICKNESS
 40
0.0
  9
$LIMCHECK
 70
     0
  9
$CHAMFERA
 40
0.0
  9
$CHAMFERB
 40
0.0
  9
$CHAMFERC
 40
0.0
  9
$CHAMFERD
 40
0.0
  9
$SKPOLY
 70
     0
  9
$TDCREATE
 40
2447893.375
  9
$TDUCREATE
 40
0.0
  9
$TDUPDATE
 40
2459741.602541632
  9
$TDUUPDATE
 40
2459741.227541632
  9
$TDINDWG
 40
0.0005604398
  9
$TDUSRTIMER
 40
0.000168669
  9
$USRTIMER
 70
     1
  9
$ANGBASE
 50
0.0
  9
$ANGDIR
 70
     0
  9
$PDMODE
 70
     1
  9
$PDSIZE
 40
-2.0
  9
$PLINEWID
 40
0.0
  9
$SPLFRAME
 70
     0
  9
$SPLINETYPE
 70
     6
  9
$SPLINESEGS
 70
     8
  9
$HANDSEED
  5
4F05
  9
$SURFTAB1
 70
     6
  9
$SURFTAB2
 70
     6
  9
$SURFTYPE
 70
     6
  9
$SURFU
 70
     6
  9
$SURFV
 70
     6
  9
$UCSBASE
  2

  9
$UCSNAME
  2

  9
$UCSORG
 10
0.0
 20
0.0
 30
0.0
  9
$UCSXDIR
 10
1.0
 20
0.0
 30
0.0
  9
$UCSYDIR
 10
0.0
 20
1.0
 30
0.0
  9
$UCSORTHOREF
  2

  9
$UCSORTHOVIEW
 70
     0
  9
$UCSORGTOP
 10
0.0
 20
0.0
 30
0.0
  9
$UCSORGBOTTOM
 10
0.0
 20
0.0
 30
0.0
  9
$UCSORGLEFT
 10
0.0
 20
0.0
 30
0.0
  9
$UCSORGRIGHT
 10
0.0
 20
0.0
 30
0.0
  9
$UCSORGFRONT
 10
0.0
 20
0.0
 30
0.0
  9
$UCSORGBACK
 10
0.0
 20
0.0
 30
0.0
  9
$PUCSBASE
  2

  9
$PUCSNAME
  2

  9
$PUCSORG
 10
0.0
 20
0.0
 30
0.0
  9
$PUCSXDIR
 10
1.0
 20
0.0
 30
0.0
  9
$PUCSYDIR
 10
0.0
 20
1.0
 30
0.0
  9
$PUCSORTHOREF
  2

  9
$PUCSORTHOVIEW
 70
     0
  9
$PUCSORGTOP
 10
0.0
 20
0.0
 30
0.0
  9
$PUCSORGBOTTOM
 10
0.0
 20
0.0
 30
0.0
  9
$PUCSORGLEFT
 10
0.0
 20
0.0
 30
0.0
  9
$PUCSORGRIGHT
 10
0.0
 20
0.0
 30
0.0
  9
$PUCSORGFRONT
 10
0.0
 20
0.0
 30
0.0
  9
$PUCSORGBACK
 10
0.0
 20
0.0
 30
0.0
  9
$USERI1
 70
     0
  9
$USERI2
 70
     0
  9
$USERI3
 70
     0
  9
$USERI4
 70
     0
  9
$USERI5
 70
     0
  9
$USERR1
 40
0.0
  9
$USERR2
 40
0.0
  9
$USERR3
 40
0.0
  9
$USERR4
 40
0.0
  9
$USERR5
 40
0.0
  9
$WORLDVIEW
 70
     1
  9
$SHADEDGE
 70
     3
  9
$SHADEDIF
 70
    70
  9
$TILEMODE
 70
     1
  9
$MAXACTVP
 70
    64
  9
$PINSBASE
 10
0.0
 20
0.0
 30
0.0
  9
$PLIMCHECK
 70
     0
  9
$PEXTMIN
 10
0.0
 20
0.0
 30
0.0
  9
$PEXTMAX
 10
0.0
 20
0.0
 30
0.0
  9
$PLIMMIN
 10
-7.5
 20
-20.0
  9
$PLIMMAX
 10
412.5
 20
277.0
  9
$UNITMODE
 70
     0
  9
$VISRETAIN
 70
     0
  9
$PLINEGEN
 70
     1
  9
$PSLTSCALE
 70
     0
  9
$TREEDEPTH
 70
  3020
  9
$CMLSTYLE
  2
Standard
  9
$CMLJUST
 70
     0
  9
$CMLSCALE
 40
1.0
  9
$PROXYGRAPHICS
 70
     0
  9
$MEASUREMENT
 70
     1
  9
$CELWEIGHT
370
    -1
  9
$ENDCAPS
280
     0
  9
$JOINSTYLE
280
     0
  9
$LWDISPLAY
290
     1
  9
$INSUNITS
 70
     4
  9
$HYPERLINKBASE
  1

  9
$STYLESHEET
  1

  9
$XEDIT
290
     1
  9
$CEPSNTYPE
380
     0
  9
$PSTYLEMODE
290
     1
  9
$FINGERPRINTGUID
  2

  9
$VERSIONGUID
  2

  9
$EXTNAMES
290
     1
  9
$PSVPSCALE
 40
0.0
  9
$OLESTARTUP
290
     0
  9
$SORTENTS
280
   127
  9
$INDEXCTL
280
     0
  9
$HIDETEXT
280
     1
  9
$XCLIPFRAME
290
     0
  9
$HALOGAP
280
     0
  9
$OBSCOLOR
 70
   257
  9
$OBSLTYPE
280
     0
  9
$INTERSECTIONDISPLAY
280
     0
  9
$INTERSECTIONCOLOR
 70
   257
  9
$DIMASSOC
280
     2
  9
$PROJECTNAME
  1

  9
$CAMERADISPLAY
290
     0
  9
$LENSLENGTH
 40
50.0
  9
$CAMERAHEIGHT
 40
0.0
  9
$STEPSPERSEC
 40
2.0
  9
$STEPSIZE
 40
6.0
  9
$3DDWFPREC
 40
2.0
  9
$PSOLWIDTH
 40
0.25
  9
$PSOLHEIGHT
 40
4.0
  9
$LOFTANG1
 40
1.570796326794897
  9
$LOFTANG2
 40
1.570796326794897
  9
$LOFTMAG1
 40
0.0
  9
$LOFTMAG2
 40
0.0
  9
$LOFTPARAM
 70
     7
  9
$LOFTNORMALS
280
     1
  9
$LATITUDE
 40
37.795
  9
$LONGITUDE
 40
-122.394
  9
$NORTHDIRECTION
 40
0.0
  9
$TIMEZONE
 70
 -8000
  9
$LIGHTGLYPHDISPLAY
280
     1
  9
$TILEMODELIGHTSYNCH
280
     1
  9
$SOLIDHIST
280
     1
  9
$SHOWHIST
280
     1
  9
$DWFFRAME
280
     2
  9
$DGNFRAME
280
     2
  9
$REALWORLDSCALE
290
     1
  9
$INTERFERECOLOR
 62
   256
  9
$CSHADOW
280
     0
  9
$SHADOWPLANELOCATION
 40
0.0
  0
ENDSEC
  0
SECTION
  2
CLASSES
  0
CLASS
  1
LWPOLYLINE
  2
AcDbPolyline
  3
ObjectDBX Classes
 90
        0
 91
        1
280
     0
281
     1
  0
CLASS
  1
IMAGE
  2
AcDbRasterImage
  3
ISM
 90
      127
 91
        4
280
     0
281
     1
  0
CLASS
  1
OLE2FRAME
  2
AcDbOle2Frame
  3
ObjectDBX Classes
 90
        0
 91
        1
280
     0
281
     1
  0
CLASS
  1
HATCH
  2
AcDbHatch
  3
ObjectDBX Classes
 90
        0
 91
        1
280
     0
281
     1
  0
CLASS
  1
DICTIONARYVAR
  2
AcDbDictionaryVar
  3
ObjectDBX Classes
 90
        0
 91
        3
280
     0
281
     0
  0
CLASS
  1
RASTERVARIABLES
  2
AcDbRasterVariables
  3
ISM
 90
        0
 91
        3
280
     0
281
     0
  0
CLASS
  1
IMAGEDEF
  2
AcDbRasterImageDef
  3
ISM
 90
        0
 91
        3
280
     0
281
     0
  0
CLASS
  1
IMAGEDEF_REACTOR
  2
AcDbRasterImageDefReactor
  3
ISM
 90
        1
 91
        3
280
     0
281
     0
  0
CLASS
  1
IDBUFFER
  2
AcDbIdBuffer
  3
ObjectDBX Classes
 90
        0
 91
        3
280
     0
281
     0
  0
CLASS
  1
SPATIAL_FILTER
  2
AcDbSpatialFilter
  3
ObjectDBX Classes
 90
        0
 91
        3
280
     0
281
     0
  0
CLASS
  1
XRECORD
  2
AcDbXrecord
  3
ObjectDBX Classes
 90
        0
 91
        1
280
     0
281
     0
  0
CLASS
  1
SORTENTSTABLE
  2
AcDbSortentsTable
  3
ObjectDBX Classes
 90
        0
 91
        3
280
     0
281
     0
  0
CLASS
  1
LAYER_INDEX
  2
AcDbLayerIndex
  3
ObjectDBX Classes
 90
        0
 91
        3
280
     0
281
     0
  0
CLASS
  1
SPATIAL_INDEX
  2
AcDbSpatialIndex
  3
AutoCAD 2000
 90
        0
 91
        3
280
     0
281
     0
  0
CLASS
  1
OBJECT_PTR
  2
CAseDLPNTableRecord
  3
ASE-LPNTableRecord
 90
        1
 91
        3
280
     0
281
     0
  0
CLASS
  1
LAYOUT
  2
AcDbLayout
  3
ObjectDBX Classes
 90
        0
 91
        1
280
     0
281
     0
  0
CLASS
  1
PLOTSETTINGS
  2
AcDbPlotSettings
  3
ObjectDBX Classes
 90
        0
 91
        3
280
     0
281
     0
  0
CLASS
  1
ACDBDICTIONARYWDFLT
  2
AcDbDictionaryWithDefault
  3
ObjectDBX Classes
 90
        0
 91
        3
280
     0
281
     0
  0
CLASS
  1
ACDBPLACEHOLDER
  2
AcDbPlaceHolder
  3
ObjectDBX Classes
 90
        0
 91
        1
280
     0
281
     0
  0
CLASS
  1
SCALE
  2
AcDbScale
  3
ObjectDBX Classes
 90
     1153
 91
        3
280
     0
281
     0
  0
CLASS
  1
MATERIAL
  2
AcDbMaterial
  3
ObjectDBX Classes
 90
     1153
 91
        3
280
     0
281
     0
  0
CLASS
  1
VISUALSTYLE
  2
AcDbVisualStyle
  3
ObjectDBX Classes
 90
     4095
 91
        3
280
     0
281
     0
  0
CLASS
  1
TABLESTYLE
  2
AcDbTableStyle
  3
ObjectDBX Classes
 90
     4095
 91
        3
280
     0
281
     0
  0
CLASS
  1
DIMASSOC
  2
AcDbDimAssoc
  3
"AcDbDimAssoc|Product Desc:     AcDim ARX App For Dimension|Company:          Autodesk, Inc.|WEB Address:      www.autodesk.com"
 90
        0
 91
        3
280
     0
281
     0
  0
CLASS
  1
CELLSTYLEMAP
  2
AcDbCellStyleMap
  3
ObjectDBX Classes
 90
     1152
 91
        3
280
     0
281
     0
  0
CLASS
  1
SUN
  2
AcDbSun
  3
SCENEOE
 90
     1153
 91
        3
280
     0
281
     0
  0
CLASS
  1
MLEADERSTYLE
  2
AcDbMLeaderStyle
  3
ACDB_MLEADERSTYLE_CLASS
 90
     4095
 91
        3
280
     0
281
     0
  0
CLASS
  1
FIELD
  2
AcDbField
  3
ObjectDBX Classes
 90
     1152
 91
        3
280
     0
281
     0
  0
CLASS
  1
FIELDLIST
  2
AcDbFieldList
  3
ObjectDBX Classes
 90
     1152
 91
        3
280
     0
281
     0
  0
CLASS
  1
MULTILEADER
  2
AcDbMLeader
  3
ACDB_MLEADER_CLASS
 90
     1025
 91
        3
280
     0
281
     1
  0
ENDSEC
  0
SECTION
  2
TABLES
  0
TABLE
  2
VPORT
  5
7
330
0
100
AcDbSymbolTable
 70
     1
  0
VPORT
  5
15
330
7
100
AcDbSymbolTableRecord
100
AcDbViewportTableRecord
  2
*ACTIVE
 70
     0
 10
0.0
 20
0.0
 11
1.0
 21
1.0
 12
1141.020135670898
 22
1411.401285469834
 13
0.0
 23
0.0
 14
1.0
 24
1.0
 15
0.0
 25
0.0
 16
0.0
 26
0.0
 36
1.0
 17
-91.02013567089807
 27
73.59871453016603
 37
-46.86809886248109
 40
3029.4
 41
2.338709677419355
 42
50.0
 43
0.0
 44
0.0
 50
0.0
 51
0.0
 71
    16
 72
  2000
 73
     1
 74
     1
 75
     0
 76
     0
 77
     0
 78
     0
281
     0
 65
     1
110
0.0
120
0.0
130
0.0
111
1.0
121
0.0
131
0.0
112
0.0
122
1.0
132
0.0
 79
     0
146
0.0
348
26C
 60
     3
 61
     5
292
     1
282
     1
141
0.0
142
0.0
 63
   256
361
904
  0
ENDTAB
  0
TABLE
  2
LTYPE
  5
4
330
0
100
AcDbSymbolTable
 70
     5
  0
LTYPE
  5
11
330
4
100
AcDbSymbolTableRecord
100
AcDbLinetypeTableRecord
  2
ByBlock
 70
     0
  3

 72
    65
 73
     0
 40
0.0
  0
LTYPE
  5
12
330
4
100
AcDbSymbolTableRecord
100
AcDbLinetypeTableRecord
  2
ByLayer
 70
     0
  3

 72
    65
 73
     0
 40
0.0
  0
LTYPE
  5
13
330
4
100
AcDbSymbolTableRecord
100
AcDbLinetypeTableRecord
  2
Continuous
 70
     0
  3
Solid line
 72
    65
 73
     0
 40
0.0
  0
LTYPE
  5
DAF
330
4
100
AcDbSymbolTableRecord
100
AcDbLinetypeTableRecord
  2
BORDER
 70
     0
  3
Border __  __  . __  __  . __  __  . __  __  . 
 72
    65
 73
     6
 40
44.45
 49
12.7
 74
     0
 49
-6.35
 74
     0
 49
12.7
 74
     0
 49
-6.35
 74
     0
 49
0.0
 74
     0
 49
-6.35
 74
     0
  0
LTYPE
  5
33DD
330
4
100
AcDbSymbolTableRecord
100
AcDbLinetypeTableRecord
  2
HIDDEN
 70
     0
  3
Hidden _ _ _ _ _ _ _ _ _ _ _ _ _ _ _ _ _ _ _ _ 
 72
    65
 73
     2
 40
9.524999999999999
 49
6.35
 74
     0
 49
-3.175
 74
     0
  0
LTYPE
  5
3785
330
4
100
AcDbSymbolTableRecord
100
AcDbLinetypeTableRecord
  2
TRATTEGGIATA
 70
     0
  3
Tratteggiata __ __ __ __ __ __ __ __ __ __ __ _
 72
    65
 73
     2
 40
19.05
 49
12.7
 74
     0
 49
-6.35
 74
     0
  0
LTYPE
  5
3C98
330
4
100
AcDbSymbolTableRecord
100
AcDbLinetypeTableRecord
  2
STYLE_23
 70
     0
  3

 72
    65
 73
     2
 40
3.937007874015748
 49
1.968503937007874
 74
     0
 49
-1.968503937007874
 74
     0
  0
ENDTAB
  0
TABLE
  2
LAYER
  5
2
102
{ACAD_XDICTIONARY
360
2E1
102
}
330
0
100
AcDbSymbolTable
 70
    13
  0
LAYER
  5
14
330
2
100
AcDbSymbolTableRecord
100
AcDbLayerTableRecord
  2
0
 70
     0
 62
     7
  6
Continuous
370
    -3
390
1D
347
266
  0
LAYER
  5
4B
330
2
100
AcDbSymbolTableRecord
100
AcDbLayerTableRecord
  2
TEMPLATE
 70
     0
 62
     7
  6
Continuous
370
    20
390
1D
347
266
  0
LAYER
  5
4C
330
2
100
AcDbSymbolTableRecord
100
AcDbLayerTableRecord
  2
DIM
 70
     0
 62
     3
  6
Continuous
370
    13
390
1D
347
266
  0
LAYER
  5
4D
330
2
100
AcDbSymbolTableRecord
100
AcDbLayerTableRecord
  2
MODEL
 70
     0
 62
     7
  6
Continuous
370
    20
390
1D
347
266
  0
LAYER
  5
D5D
330
2
100
AcDbSymbolTableRecord
100
AcDbLayerTableRecord
  2
Defpoints
 70
     0
 62
     7
  6
Continuous
290
     0
370
    -3
390
1D
347
266
  0
LAYER
  5
DAE
330
2
100
AcDbSymbolTableRecord
100
AcDbLayerTableRecord
  2
BORDER
 70
     0
 62
     4
  6
BORDER
290
     0
370
    20
390
1D
347
266
1001
AcAecLayerStandard
1000

1000

  0
LAYER
  5
157B
330
2
100
AcDbSymbolTableRecord
100
AcDbLayerTableRecord
  2
Layer3
 70
     0
 62
     7
  6
Continuous
370
    -3
390
1D
347
266
  0
LAYER
  5
157F
330
2
100
AcDbSymbolTableRecord
100
AcDbLayerTableRecord
  2
Layer9
 70
     0
 62
     7
  6
Continuous
370
    -3
390
1D
347
266
  0
LAYER
  5
1582
330
2
100
AcDbSymbolTableRecord
100
AcDbLayerTableRecord
  2
Standard
 70
     0
 62
     7
  6
Continuous
370
    -3
390
1D
347
266
  0
LAYER
  5
33DC
330
2
100
AcDbSymbolTableRecord
100
AcDbLayerTableRecord
  2
HIDDEN
 70
     0
 62
     8
  6
HIDDEN
370
    20
390
1D
347
266
1001
AcAecLayerStandard
1000

1000

  0
LAYER
  5
3777
330
2
100
AcDbSymbolTableRecord
100
AcDbLayerTableRecord
  2
quote
 70
     0
 62
    52
  6
Continuous
370
     9
390
1D
347
266
1001
AcAecLayerStandard
1000

1000

1001
AcCmTransparency
1071
        0
  0
LAYER
  5
3C95
330
2
100
AcDbSymbolTableRecord
100
AcDbLayerTableRecord
  2
notes
 70
     0
 62
     7
  6
Continuous
370
    -3
390
1D
347
266
  0
LAYER
  5
3C96
330
2
100
AcDbSymbolTableRecord
100
AcDbLayerTableRecord
  2
ADF70-0001
 70
     0
 62
     7
  6
Continuous
370
    -3
390
1D
347
266
  0
ENDTAB
  0
TABLE
  2
STYLE
  5
3
330
0
100
AcDbSymbolTable
 70
     2
  0
STYLE
  5
17
330
3
100
AcDbSymbolTableRecord
100
AcDbTextStyleTableRecord
  2
Standard
 70
     0
 40
0.0
 41
1.0
 50
0.0
 71
     0
 42
2.5
  3
txt
  4
BIGFONT.SHX
  0
STYLE
  5
39
330
3
100
AcDbSymbolTableRecord
100
AcDbTextStyleTableRecord
  2
ＭＳ ゴシック
 70
     0
 40
0.0
 41
1.0
 50
0.0
 71
     0
 42
2.5
  3
msgothic.ttc
  4
ＭＳ ゴシック
1001
ACAD
1000
ＭＳ ゴシック
1071
        0
  0
ENDTAB
  0
TABLE
  2
VIEW
  5
5
330
0
100
AcDbSymbolTable
 70
     0
  0
ENDTAB
  0
TABLE
  2
UCS
  5
6
330
0
100
AcDbSymbolTable
 70
     0
  0
ENDTAB
  0
TABLE
  2
APPID
  5
8
330
0
100
AcDbSymbolTable
 70
    12
  0
APPID
  5
16
330
8
100
AcDbSymbolTableRecord
100
AcDbRegAppTableRecord
  2
ACAD
 70
     0
  0
APPID
  5
7AC
330
8
100
AcDbSymbolTableRecord
100
AcDbRegAppTableRecord
  2
AcAecLayerStandard
 70
     0
  0
APPID
  5
F3A
330
8
100
AcDbSymbolTableRecord
100
AcDbRegAppTableRecord
  2
ACAD_MLEADERVER
 70
     0
  0
APPID
  5
377C
330
8
100
AcDbSymbolTableRecord
100
AcDbRegAppTableRecord
  2
AcCmTransparency
 70
     0
  0
APPID
  5
3788
330
8
100
AcDbSymbolTableRecord
100
AcDbRegAppTableRecord
  2
ACAD_DSTYLE_DIMJAG
 70
     0
  0
APPID
  5
3789
330
8
100
AcDbSymbolTableRecord
100
AcDbRegAppTableRecord
  2
ACAD_DSTYLE_DIMTALN
 70
     0
  0
APPID
  5
378B
330
8
100
AcDbSymbolTableRecord
100
AcDbRegAppTableRecord
  2
ACAD_NAV_VCDISPLAY
 70
     0
  0
APPID
  5
378C
330
8
100
AcDbSymbolTableRecord
100
AcDbRegAppTableRecord
  2
ACAD_PSEXT
 70
     0
  0
APPID
  5
378D
330
8
100
AcDbSymbolTableRecord
100
AcDbRegAppTableRecord
  2
GradientColor1ACI
 70
     0
  0
APPID
  5
378E
330
8
100
AcDbSymbolTableRecord
100
AcDbRegAppTableRecord
  2
GradientColor2ACI
 70
     0
  0
APPID
  5
378F
330
8
100
AcDbSymbolTableRecord
100
AcDbRegAppTableRecord
  2
AcLayerTools
 70
     0
  0
APPID
  5
4EF5
330
8
100
AcDbSymbolTableRecord
100
AcDbRegAppTableRecord
  2
PLOTTRANSPARENCY
 70
     0
  0
ENDTAB
  0
TABLE
  2
DIMSTYLE
  5
9
330
0
100
AcDbSymbolTable
 70
     1
100
AcDbDimStyleTable
  0
DIMSTYLE
105
57
102
{ACAD_REACTORS
330
4AB6
330
4AC5
330
4AD4
330
4B11
330
4B20
330
4B2F
330
4B3E
330
4B4D
330
4B5C
330
4B6B
330
4C7D
330
4C8C
330
4C9B
330
4CAA
330
4D04
330
4D23
330
4D34
330
4D44
330
4D57
330
4D93
330
4DB1
330
4ED5
102
}
330
9
100
AcDbSymbolTableRecord
100
AcDbDimStyleTableRecord
  2
tfrom線あり
 70
     0
  3
<>
  4
[]
 41
10.0
 42
30.0
 43
0.9999999999999999
 44
0.0
 73
     0
 74
     0
 77
     1
 78
    11
140
24.0
141
0.0
143
1.0
147
20.0
171
     1
174
     1
178
     0
179
     2
271
     0
272
     1
276
     2
284
    11
285
    11
286
    11
289
     0
340
39
341
4E
342
4E
  0
ENDTAB
  0
TABLE
  2
BLOCK_RECORD
  5
1
330
0
100
AcDbSymbolTable
 70
    28
  0
BLOCK_RECORD
  5
A
102
{ACAD_XDICTIONARY
360
374D
102
}
330
1
100
AcDbSymbolTableRecord
100
AcDbBlockTableRecord
  2
*MODEL_SPACE
340
20
 70
     0
280
     1
281
     0
  0
BLOCK_RECORD
  5
B
330
1
100
AcDbSymbolTableRecord
100
AcDbBlockTableRecord
  2
*PAPER_SPACE
340
21
 70
     0
280
     1
281
     0
  0
BLOCK_RECORD
  5
4E
330
1
100
AcDbSymbolTableRecord
100
AcDbBlockTableRecord
  2
_DOT
340
0
102
{BLKREFS
331
4ABF
331
4AC0
331
4ACE
331
4ACF
331
4ADD
331
4ADE
331
4B1A
331
4B1B
331
4B29
331
4B2A
331
4B38
331
4B39
331
4B47
331
4B48
331
4B56
331
4B57
331
4B65
331
4B66
331
4B74
331
4B75
331
4C86
331
4C87
331
4C95
331
4C96
331
4CA4
331
4CA5
331
4CB3
331
4CB4
331
4D0D
331
4D0E
331
4D2C
331
4D2D
331
4D3D
331
4D3E
331
4D4D
331
4D4E
331
4D60
331
4D61
331
4D9C
331
4D9D
331
4DAB
331
4DAC
331
4DBA
331
4DBB
331
4ECE
331
4ECF
331
4EDE
331
4EDF
102
}
 70
     0
280
     1
281
     0
  0
BLOCK_RECORD
  5
68D
330
1
100
AcDbSymbolTableRecord
100
AcDbBlockTableRecord
  2
block 2
340
0
102
{BLKREFS
331
68C
102
}
 70
     0
280
     1
281
     0
  0
BLOCK_RECORD
  5
199A
330
1
100
AcDbSymbolTableRecord
100
AcDbBlockTableRecord
  2
SEANNOT_GROUP
340
0
102
{BLKREFS
331
28CA
102
}
 70
     0
280
     1
281
     0
  0
BLOCK_RECORD
  5
1F2F
330
1
100
AcDbSymbolTableRecord
100
AcDbBlockTableRecord
  2
SEANNOT_GROUP1
340
0
102
{BLKREFS
331
2B9B
102
}
 70
     0
280
     1
281
     0
  0
BLOCK_RECORD
  5
4AB9
330
1
100
AcDbSymbolTableRecord
100
AcDbBlockTableRecord
  2
*D4
340
0
 70
     0
280
     1
281
     0
  0
BLOCK_RECORD
  5
4AC8
330
1
100
AcDbSymbolTableRecord
100
AcDbBlockTableRecord
  2
*D5
340
0
 70
     0
280
     1
281
     0
  0
BLOCK_RECORD
  5
4AD7
330
1
100
AcDbSymbolTableRecord
100
AcDbBlockTableRecord
  2
*D6
340
0
 70
     0
280
     1
281
     0
  0
BLOCK_RECORD
  5
4B14
330
1
100
AcDbSymbolTableRecord
100
AcDbBlockTableRecord
  2
*D7
340
0
 70
     0
280
     1
281
     0
  0
BLOCK_RECORD
  5
4B23
330
1
100
AcDbSymbolTableRecord
100
AcDbBlockTableRecord
  2
*D8
340
0
 70
     0
280
     1
281
     0
  0
BLOCK_RECORD
  5
4B32
330
1
100
AcDbSymbolTableRecord
100
AcDbBlockTableRecord
  2
*D9
340
0
 70
     0
280
     1
281
     0
  0
BLOCK_RECORD
  5
4B41
330
1
100
AcDbSymbolTableRecord
100
AcDbBlockTableRecord
  2
*D10
340
0
 70
     0
280
     1
281
     0
  0
BLOCK_RECORD
  5
4B50
330
1
100
AcDbSymbolTableRecord
100
AcDbBlockTableRecord
  2
*D11
340
0
 70
     0
280
     1
281
     0
  0
BLOCK_RECORD
  5
4B5F
330
1
100
AcDbSymbolTableRecord
100
AcDbBlockTableRecord
  2
*D12
340
0
 70
     0
280
     1
281
     0
  0
BLOCK_RECORD
  5
4B6E
330
1
100
AcDbSymbolTableRecord
100
AcDbBlockTableRecord
  2
*D13
340
0
 70
     0
280
     1
281
     0
  0
BLOCK_RECORD
  5
4C80
330
1
100
AcDbSymbolTableRecord
100
AcDbBlockTableRecord
  2
*D14
340
0
 70
     0
280
     1
281
     0
  0
BLOCK_RECORD
  5
4C8F
330
1
100
AcDbSymbolTableRecord
100
AcDbBlockTableRecord
  2
*D15
340
0
 70
     0
280
     1
281
     0
  0
BLOCK_RECORD
  5
4C9E
330
1
100
AcDbSymbolTableRecord
100
AcDbBlockTableRecord
  2
*D16
340
0
 70
     0
280
     1
281
     0
  0
BLOCK_RECORD
  5
4CAD
330
1
100
AcDbSymbolTableRecord
100
AcDbBlockTableRecord
  2
*D17
340
0
 70
     0
280
     1
281
     0
  0
BLOCK_RECORD
  5
4D07
330
1
100
AcDbSymbolTableRecord
100
AcDbBlockTableRecord
  2
*D18
340
0
 70
     0
280
     1
281
     0
  0
BLOCK_RECORD
  5
4D26
330
1
100
AcDbSymbolTableRecord
100
AcDbBlockTableRecord
  2
*D19
340
0
 70
     0
280
     1
281
     0
  0
BLOCK_RECORD
  5
4D37
330
1
100
AcDbSymbolTableRecord
100
AcDbBlockTableRecord
  2
*D20
340
0
 70
     0
280
     1
281
     0
  0
BLOCK_RECORD
  5
4D47
330
1
100
AcDbSymbolTableRecord
100
AcDbBlockTableRecord
  2
*D21
340
0
 70
     0
280
     1
281
     0
  0
BLOCK_RECORD
  5
4D5A
330
1
100
AcDbSymbolTableRecord
100
AcDbBlockTableRecord
  2
*D22
340
0
 70
     0
280
     1
281
     0
  0
BLOCK_RECORD
  5
4D96
330
1
100
AcDbSymbolTableRecord
100
AcDbBlockTableRecord
  2
*D23
340
0
 70
     0
280
     1
281
     0
  0
BLOCK_RECORD
  5
4DA5
330
1
100
AcDbSymbolTableRecord
100
AcDbBlockTableRecord
  2
*D24
340
0
 70
     0
280
     1
281
     0
  0
BLOCK_RECORD
  5
4DB4
330
1
100
AcDbSymbolTableRecord
100
AcDbBlockTableRecord
  2
*D25
340
0
 70
     0
280
     1
281
     0
  0
BLOCK_RECORD
  5
4EC8
330
1
100
AcDbSymbolTableRecord
100
AcDbBlockTableRecord
  2
*D26
340
0
 70
     0
280
     1
281
     0
  0
BLOCK_RECORD
  5
4ED8
330
1
100
AcDbSymbolTableRecord
100
AcDbBlockTableRecord
  2
*D27
340
0
 70
     0
280
     1
281
     0
  0
ENDTAB
  0
ENDSEC
  0
SECTION
  2
BLOCKS
  0
BLOCK
  5
D
330
A
100
AcDbEntity
  8
0
390
1D
100
AcDbBlockBegin
  2
*MODEL_SPACE
 70
     0
 10
0.0
 20
0.0
 30
0.0
  3
*MODEL_SPACE
  1
*MODEL_SPACE
  0
ENDBLK
  5
E
330
A
100
AcDbEntity
  8
0
390
1D
100
AcDbBlockEnd
  0
BLOCK
  5
F
330
B
100
AcDbEntity
 67
     1
  8
0
390
1D
100
AcDbBlockBegin
  2
*PAPER_SPACE
 70
     0
 10
0.0
 20
0.0
 30
0.0
  3
*PAPER_SPACE
  1
*PAPER_SPACE
  0
ENDBLK
  5
10
330
B
100
AcDbEntity
 67
     1
  8
0
390
1D
100
AcDbBlockEnd
  0
BLOCK
  5
EC4
330
4E
100
AcDbEntity
  8
0
390
1D
100
AcDbBlockBegin
  2
_DOT
 70
     0
 10
0.0
 20
0.0
 30
0.0
  3
_DOT
  1
_DOT
  0
POLYLINE
  5
EC6
330
4E
100
AcDbEntity
  8
0
  6
ByBlock
 62
     0
370
    -2
390
1D
100
AcDb2dPolyline
 66
     1
 10
0.0
 20
0.0
 30
0.0
 70
     1
 40
0.5
 41
0.5
  0
VERTEX
  5
EC7
330
EC6
100
AcDbEntity
  8
0
  6
ByBlock
 62
     0
370
    -2
390
1D
100
AcDbVertex
100
AcDb2dVertex
 10
-0.25
 20
0.0
 30
0.0
 42
1.0
  0
VERTEX
  5
EC8
330
EC6
100
AcDbEntity
  8
0
  6
ByBlock
 62
     0
370
    -2
390
1D
100
AcDbVertex
100
AcDb2dVertex
 10
0.25
 20
0.0
 30
0.0
 42
1.0
  0
SEQEND
  5
EC9
330
EC6
100
AcDbEntity
  8
0
390
1D
  0
LINE
  5
ECA
330
4E
100
AcDbEntity
  8
0
  6
ByBlock
 62
     0
370
    -2
390
1D
100
AcDbLine
 10
-0.5
 20
0.0
 30
0.0
 11
-1.0
 21
0.0
 31
0.0
  0
ENDBLK
  5
ECB
330
4E
100
AcDbEntity
  8
0
390
1D
100
AcDbBlockEnd
  0
BLOCK
  5
68E
330
68D
100
AcDbEntity
  8
0
100
AcDbBlockBegin
  2
block 2
 70
     0
 10
0.0
 20
0.0
 30
0.0
  3
block 2
  1
block 2
  0
ENDBLK
  5
6B0
330
68D
100
AcDbEntity
  8
0
100
AcDbBlockEnd
  0
BLOCK
  5
199B
330
199A
100
AcDbEntity
  8
0
100
AcDbBlockBegin
  2
SEANNOT_GROUP
 70
     0
 10
0.0
 20
0.0
 30
0.0
  3
SEANNOT_GROUP
  1
SEANNOT_GROUP
  0
ENDBLK
  5
199C
330
199A
100
AcDbEntity
  8
0
100
AcDbBlockEnd
  0
BLOCK
  5
1F30
330
1F2F
100
AcDbEntity
  8
0
100
AcDbBlockBegin
  2
SEANNOT_GROUP1
 70
     0
 10
0.0
 20
0.0
 30
0.0
  3
SEANNOT_GROUP1
  1
SEANNOT_GROUP1
  0
ENDBLK
  5
1F31
330
1F2F
100
AcDbEntity
  8
0
100
AcDbBlockEnd
  0
BLOCK
  5
4ABA
330
4AB9
100
AcDbEntity
  8
0
100
AcDbBlockBegin
  2
*D4
 70
     1
 10
0.0
 20
0.0
 30
0.0
  3
*D4
  1

  0
LINE
  5
4ABC
330
4AB9
100
AcDbEntity
  8
DIM
 62
     0
370
    -2
100
AcDbLine
 10
415.7947439207588
 20
1721.292137509228
 30
0.0
 11
415.7947439207588
 21
1776.892950658857
 31
0.0
  0
LINE
  5
4ABD
330
4AB9
100
AcDbEntity
  8
DIM
 62
     0
370
    -2
100
AcDbLine
 10
885.6609030365385
 20
1720.29168059472
 30
0.0
 11
885.6609030365385
 21
1776.892950658857
 31
0.0
  0
LINE
  5
4ABE
330
4AB9
100
AcDbEntity
  8
DIM
 62
     0
370
    -2
100
AcDbLine
 10
425.7947439207588
 20
1776.892950658857
 30
0.0
 11
875.6609030365385
 21
1776.892950658857
 31
0.0
  0
INSERT
  5
4ABF
330
4AB9
100
AcDbEntity
  8
DIM
 62
     0
370
    -2
100
AcDbBlockReference
  2
_DOT
 10
415.7947439207588
 20
1776.892950658857
 30
0.0
 41
10.0
 42
10.0
 43
10.0
 50
180.0
  0
INSERT
  5
4AC0
330
4AB9
100
AcDbEntity
  8
DIM
 62
     0
370
    -2
100
AcDbBlockReference
  2
_DOT
 10
885.6609030365385
 20
1776.892950658857
 30
0.0
 41
10.0
 42
10.0
 43
10.0
  0
MTEXT
  5
4AC1
330
4AB9
100
AcDbEntity
  8
DIM
 62
     0
100
AcDbMText
 10
650.7278234786486
 20
1808.897452346991
 30
0.0
 40
24.0
 41
0.0
 46
0.0
 71
     5
 72
     1
  1
\A1;470
  7
ＭＳ ゴシック
 73
     1
 44
1.0
  0
POINT
  5
4AC2
330
4AB9
100
AcDbEntity
  8
Defpoints
 62
     0
100
AcDbPoint
 10
415.7947439207588
 20
1691.292137509228
 30
0.0
  0
POINT
  5
4AC3
330
4AB9
100
AcDbEntity
  8
Defpoints
 62
     0
100
AcDbPoint
 10
885.6609030365385
 20
1690.29168059472
 30
0.0
  0
POINT
  5
4AC4
330
4AB9
100
AcDbEntity
  8
Defpoints
 62
     0
100
AcDbPoint
 10
885.6609030365385
 20
1776.892950658857
 30
0.0
  0
ENDBLK
  5
4ABB
330
4AB9
100
AcDbEntity
  8
0
100
AcDbBlockEnd
  0
BLOCK
  5
4AC9
330
4AC8
100
AcDbEntity
  8
0
100
AcDbBlockBegin
  2
*D5
 70
     1
 10
0.0
 20
0.0
 30
0.0
  3
*D5
  1

  0
LINE
  5
4ACB
330
4AC8
100
AcDbEntity
  8
DIM
 62
     0
370
    -2
100
AcDbLine
 10
388.7947439207542
 20
494.3982387815866
 30
0.0
 11
225.2164223719678
 21
494.3982387815865
 31
0.0
  0
LINE
  5
4ACC
330
4AC8
100
AcDbEntity
  8
DIM
 62
     0
370
    -2
100
AcDbLine
 10
388.7947439207515
 20
1694.291680594698
 30
0.0
 11
225.2164223719678
 21
1694.291680594698
 31
0.0
  0
LINE
  5
4ACD
330
4AC8
100
AcDbEntity
  8
DIM
 62
     0
370
    -2
100
AcDbLine
 10
225.2164223719678
 20
504.3982387815865
 30
0.0
 11
225.2164223719678
 21
1684.291680594698
 31
0.0
  0
INSERT
  5
4ACE
330
4AC8
100
AcDbEntity
  8
DIM
 62
     0
370
    -2
100
AcDbBlockReference
  2
_DOT
 10
225.2164223719678
 20
494.3982387815865
 30
0.0
 41
10.0
 42
10.0
 43
10.0
 50
270.0
  0
INSERT
  5
4ACF
330
4AC8
100
AcDbEntity
  8
DIM
 62
     0
370
    -2
100
AcDbBlockReference
  2
_DOT
 10
225.2164223719678
 20
1694.291680594698
 30
0.0
 41
10.0
 42
10.0
 43
10.0
 50
90.0
  0
MTEXT
  5
4AD0
330
4AC8
100
AcDbEntity
  8
DIM
 62
     0
100
AcDbMText
 10
193.2119206838346
 20
1094.344959688142
 30
0.0
 40
24.0
 41
0.0
 46
0.0
 71
     5
 72
     1
  1
\A1;1200
  7
ＭＳ ゴシック
 11
7.106058364847073E-17
 21
1.0
 31
0.0
 73
     1
 44
1.0
  0
POINT
  5
4AD1
330
4AC8
100
AcDbEntity
  8
Defpoints
 62
     0
100
AcDbPoint
 10
418.7947439207542
 20
494.3982387815866
 30
0.0
  0
POINT
  5
4AD2
330
4AC8
100
AcDbEntity
  8
Defpoints
 62
     0
100
AcDbPoint
 10
418.7947439207515
 20
1694.291680594698
 30
0.0
  0
POINT
  5
4AD3
330
4AC8
100
AcDbEntity
  8
Defpoints
 62
     0
100
AcDbPoint
 10
225.2164223719678
 20
1694.291680594698
 30
0.0
  0
ENDBLK
  5
4ACA
330
4AC8
100
AcDbEntity
  8
0
100
AcDbBlockEnd
  0
BLOCK
  5
4AD8
330
4AD7
100
AcDbEntity
  8
0
100
AcDbBlockBegin
  2
*D6
 70
     1
 10
0.0
 20
0.0
 30
0.0
  3
*D6
  1

  0
LINE
  5
4ADA
330
4AD7
100
AcDbEntity
  8
DIM
 62
     0
370
    -2
100
AcDbLine
 10
915.5765482414995
 20
1691.108823561934
 30
0.0
 11
1012.378319594845
 21
1691.108823561934
 31
0.0
  0
LINE
  5
4ADB
330
4AD7
100
AcDbEntity
  8
DIM
 62
     0
370
    -2
100
AcDbLine
 10
915.6609030365412
 20
498.3982387815956
 30
0.0
 11
1012.378319594845
 21
498.3982387815956
 31
0.0
  0
LINE
  5
4ADC
330
4AD7
100
AcDbEntity
  8
DIM
 62
     0
370
    -2
100
AcDbLine
 10
1012.378319594845
 20
1681.108823561934
 30
0.0
 11
1012.378319594845
 21
508.3982387815956
 31
0.0
  0
INSERT
  5
4ADD
330
4AD7
100
AcDbEntity
  8
DIM
 62
     0
370
    -2
100
AcDbBlockReference
  2
_DOT
 10
1012.378319594845
 20
1691.108823561934
 30
0.0
 41
10.0
 42
10.0
 43
10.0
 50
90.0
  0
INSERT
  5
4ADE
330
4AD7
100
AcDbEntity
  8
DIM
 62
     0
370
    -2
100
AcDbBlockReference
  2
_DOT
 10
1012.378319594845
 20
498.3982387815956
 30
0.0
 41
10.0
 42
10.0
 43
10.0
 50
270.0
  0
MTEXT
  5
4ADF
330
4AD7
100
AcDbEntity
  8
DIM
 62
     0
100
AcDbMText
 10
980.373817906712
 20
1094.753531171765
 30
0.0
 40
24.0
 41
0.0
 46
0.0
 71
     5
 72
     1
  1
\A1;1190
  7
ＭＳ ゴシック
 11
9.531804209028106E-17
 21
1.0
 31
0.0
 73
     1
 44
1.0
  0
POINT
  5
4AE0
330
4AD7
100
AcDbEntity
  8
Defpoints
 62
     0
100
AcDbPoint
 10
885.5765482414995
 20
1691.108823561934
 30
0.0
  0
POINT
  5
4AE1
330
4AD7
100
AcDbEntity
  8
Defpoints
 62
     0
100
AcDbPoint
 10
885.6609030365412
 20
498.3982387815956
 30
0.0
  0
POINT
  5
4AE2
330
4AD7
100
AcDbEntity
  8
Defpoints
 62
     0
100
AcDbPoint
 10
1012.378319594845
 20
498.3982387815956
 30
0.0
  0
ENDBLK
  5
4AD9
330
4AD7
100
AcDbEntity
  8
0
100
AcDbBlockEnd
  0
BLOCK
  5
4B15
330
4B14
100
AcDbEntity
  8
0
100
AcDbBlockBegin
  2
*D7
 70
     1
 10
0.0
 20
0.0
 30
0.0
  3
*D7
  1

  0
LINE
  5
4B17
330
4B14
100
AcDbEntity
  8
DIM
 62
     0
370
    -2
100
AcDbLine
 10
416.6734235771946
 20
465.2767846108593
 30
0.0
 11
416.6734235771946
 21
415.0070921908266
 31
0.0
  0
LINE
  5
4B18
330
4B14
100
AcDbEntity
  8
DIM
 62
     0
370
    -2
100
AcDbLine
 10
540.8097110468675
 20
464.3982387815946
 30
0.0
 11
540.8097110468675
 21
415.0070921908266
 31
0.0
  0
LINE
  5
4B19
330
4B14
100
AcDbEntity
  8
DIM
 62
     0
370
    -2
100
AcDbLine
 10
426.6734235771946
 20
415.0070921908266
 30
0.0
 11
530.8097110468675
 21
415.0070921908266
 31
0.0
  0
INSERT
  5
4B1A
330
4B14
100
AcDbEntity
  8
DIM
 62
     0
370
    -2
100
AcDbBlockReference
  2
_DOT
 10
416.6734235771946
 20
415.0070921908266
 30
0.0
 41
10.0
 42
10.0
 43
10.0
 50
180.0
  0
INSERT
  5
4B1B
330
4B14
100
AcDbEntity
  8
DIM
 62
     0
370
    -2
100
AcDbBlockReference
  2
_DOT
 10
540.8097110468675
 20
415.0070921908266
 30
0.0
 41
10.0
 42
10.0
 43
10.0
  0
MTEXT
  5
4B1C
330
4B14
100
AcDbEntity
  8
DIM
 62
     0
100
AcDbMText
 10
478.7415673120311
 20
447.0115938789597
 30
0.0
 40
24.0
 41
0.0
 46
0.0
 71
     5
 72
     1
  1
\A1;125
  7
ＭＳ ゴシック
 73
     1
 44
1.0
  0
POINT
  5
4B1D
330
4B14
100
AcDbEntity
  8
Defpoints
 62
     0
100
AcDbPoint
 10
416.6734235771946
 20
495.2767846108593
 30
0.0
  0
POINT
  5
4B1E
330
4B14
100
AcDbEntity
  8
Defpoints
 62
     0
100
AcDbPoint
 10
540.8097110468675
 20
494.3982387815946
 30
0.0
  0
POINT
  5
4B1F
330
4B14
100
AcDbEntity
  8
Defpoints
 62
     0
100
AcDbPoint
 10
540.8097110468675
 20
415.0070921908266
 30
0.0
  0
ENDBLK
  5
4B16
330
4B14
100
AcDbEntity
  8
0
100
AcDbBlockEnd
  0
BLOCK
  5
4B24
330
4B23
100
AcDbEntity
  8
0
100
AcDbBlockBegin
  2
*D8
 70
     1
 10
0.0
 20
0.0
 30
0.0
  3
*D8
  1

  0
LINE
  5
4B26
330
4B23
100
AcDbEntity
  8
DIM
 62
     0
370
    -2
100
AcDbLine
 10
540.8097110468675
 20
464.3982387815946
 30
0.0
 11
540.8097110468675
 21
415.0070921908266
 31
0.0
  0
LINE
  5
4B27
330
4B23
100
AcDbEntity
  8
DIM
 62
     0
370
    -2
100
AcDbLine
 10
880.2795417402533
 20
464.3982387815956
 30
0.0
 11
880.2795417402533
 21
415.0070921908266
 31
0.0
  0
LINE
  5
4B28
330
4B23
100
AcDbEntity
  8
DIM
 62
     0
370
    -2
100
AcDbLine
 10
550.8097110468675
 20
415.0070921908266
 30
0.0
 11
870.2795417402533
 21
415.0070921908266
 31
0.0
  0
INSERT
  5
4B29
330
4B23
100
AcDbEntity
  8
DIM
 62
     0
370
    -2
100
AcDbBlockReference
  2
_DOT
 10
540.8097110468675
 20
415.0070921908266
 30
0.0
 41
10.0
 42
10.0
 43
10.0
 50
180.0
  0
INSERT
  5
4B2A
330
4B23
100
AcDbEntity
  8
DIM
 62
     0
370
    -2
100
AcDbBlockReference
  2
_DOT
 10
880.2795417402533
 20
415.0070921908266
 30
0.0
 41
10.0
 42
10.0
 43
10.0
  0
MTEXT
  5
4B2B
330
4B23
100
AcDbEntity
  8
DIM
 62
     0
100
AcDbMText
 10
710.5446263935604
 20
447.0115938789597
 30
0.0
 40
24.0
 41
0.0
 46
0.0
 71
     5
 72
     1
  1
\A1;340
  7
ＭＳ ゴシック
 73
     1
 44
1.0
  0
POINT
  5
4B2C
330
4B23
100
AcDbEntity
  8
Defpoints
 62
     0
100
AcDbPoint
 10
540.8097110468675
 20
494.3982387815946
 30
0.0
  0
POINT
  5
4B2D
330
4B23
100
AcDbEntity
  8
Defpoints
 62
     0
100
AcDbPoint
 10
880.2795417402533
 20
494.3982387815956
 30
0.0
  0
POINT
  5
4B2E
330
4B23
100
AcDbEntity
  8
Defpoints
 62
     0
100
AcDbPoint
 10
880.2795417402533
 20
415.0070921908266
 30
0.0
  0
ENDBLK
  5
4B25
330
4B23
100
AcDbEntity
  8
0
100
AcDbBlockEnd
  0
BLOCK
  5
4B33
330
4B32
100
AcDbEntity
  8
0
100
AcDbBlockBegin
  2
*D9
 70
     1
 10
0.0
 20
0.0
 30
0.0
  3
*D9
  1

  0
LINE
  5
4B35
330
4B32
100
AcDbEntity
  8
DIM
 62
     0
370
    -2
100
AcDbLine
 10
452.7963040062818
 20
794.344959688153
 30
0.0
 11
342.7289969026651
 21
794.344959688153
 31
0.0
  0
LINE
  5
4B36
330
4B32
100
AcDbEntity
  8
DIM
 62
     0
370
    -2
100
AcDbLine
 10
452.7963040062818
 20
994.3449596881567
 30
0.0
 11
342.7289969026651
 21
994.3449596881567
 31
0.0
  0
LINE
  5
4B37
330
4B32
100
AcDbEntity
  8
DIM
 62
     0
370
    -2
100
AcDbLine
 10
342.7289969026651
 20
804.344959688153
 30
0.0
 11
342.7289969026651
 21
984.3449596881567
 31
0.0
  0
INSERT
  5
4B38
330
4B32
100
AcDbEntity
  8
DIM
 62
     0
370
    -2
100
AcDbBlockReference
  2
_DOT
 10
342.7289969026651
 20
794.344959688153
 30
0.0
 41
10.0
 42
10.0
 43
10.0
 50
270.0
  0
INSERT
  5
4B39
330
4B32
100
AcDbEntity
  8
DIM
 62
     0
370
    -2
100
AcDbBlockReference
  2
_DOT
 10
342.7289969026651
 20
994.3449596881567
 30
0.0
 41
10.0
 42
10.0
 43
10.0
 50
90.0
  0
MTEXT
  5
4B3A
330
4B32
100
AcDbEntity
  8
DIM
 62
     0
100
AcDbMText
 10
310.7244952145321
 20
894.3449596881549
 30
0.0
 40
24.0
 41
0.0
 46
0.0
 71
     5
 72
     1
  1
\A1;200
  7
ＭＳ ゴシック
 11
0.0
 21
1.0
 31
0.0
 73
     1
 44
1.0
  0
POINT
  5
4B3B
330
4B32
100
AcDbEntity
  8
Defpoints
 62
     0
100
AcDbPoint
 10
482.7963040062818
 20
794.344959688153
 30
0.0
  0
POINT
  5
4B3C
330
4B32
100
AcDbEntity
  8
Defpoints
 62
     0
100
AcDbPoint
 10
482.7963040062818
 20
994.3449596881567
 30
0.0
  0
POINT
  5
4B3D
330
4B32
100
AcDbEntity
  8
Defpoints
 62
     0
100
AcDbPoint
 10
342.7289969026651
 20
994.3449596881567
 30
0.0
  0
ENDBLK
  5
4B34
330
4B32
100
AcDbEntity
  8
0
100
AcDbBlockEnd
  0
BLOCK
  5
4B42
330
4B41
100
AcDbEntity
  8
0
100
AcDbBlockBegin
  2
*D10
 70
     1
 10
0.0
 20
0.0
 30
0.0
  3
*D10
  1

  0
LINE
  5
4B44
330
4B41
100
AcDbEntity
  8
DIM
 62
     0
370
    -2
100
AcDbLine
 10
452.7963040062818
 20
994.3449596881567
 30
0.0
 11
342.7289969026651
 21
994.3449596881567
 31
0.0
  0
LINE
  5
4B45
330
4B41
100
AcDbEntity
  8
DIM
 62
     0
370
    -2
100
AcDbLine
 10
452.7963040062818
 20
1094.344959688157
 30
0.0
 11
342.7289969026651
 21
1094.344959688157
 31
0.0
  0
LINE
  5
4B46
330
4B41
100
AcDbEntity
  8
DIM
 62
     0
370
    -2
100
AcDbLine
 10
342.7289969026651
 20
1004.344959688157
 30
0.0
 11
342.7289969026651
 21
1084.344959688157
 31
0.0
  0
INSERT
  5
4B47
330
4B41
100
AcDbEntity
  8
DIM
 62
     0
370
    -2
100
AcDbBlockReference
  2
_DOT
 10
342.7289969026651
 20
994.3449596881567
 30
0.0
 41
10.0
 42
10.0
 43
10.0
 50
270.0
  0
INSERT
  5
4B48
330
4B41
100
AcDbEntity
  8
DIM
 62
     0
370
    -2
100
AcDbBlockReference
  2
_DOT
 10
342.7289969026651
 20
1094.344959688157
 30
0.0
 41
10.0
 42
10.0
 43
10.0
 50
90.0
  0
MTEXT
  5
4B49
330
4B41
100
AcDbEntity
  8
DIM
 62
     0
100
AcDbMText
 10
310.7244952145319
 20
1044.344959688157
 30
0.0
 40
24.0
 41
0.0
 46
0.0
 71
     5
 72
     1
  1
\A1;100
  7
ＭＳ ゴシック
 11
0.0
 21
1.0
 31
0.0
 73
     1
 44
1.0
  0
POINT
  5
4B4A
330
4B41
100
AcDbEntity
  8
Defpoints
 62
     0
100
AcDbPoint
 10
482.7963040062818
 20
994.3449596881567
 30
0.0
  0
POINT
  5
4B4B
330
4B41
100
AcDbEntity
  8
Defpoints
 62
     0
100
AcDbPoint
 10
482.7963040062818
 20
1094.344959688157
 30
0.0
  0
POINT
  5
4B4C
330
4B41
100
AcDbEntity
  8
Defpoints
 62
     0
100
AcDbPoint
 10
342.7289969026651
 20
1094.344959688157
 30
0.0
  0
ENDBLK
  5
4B43
330
4B41
100
AcDbEntity
  8
0
100
AcDbBlockEnd
  0
BLOCK
  5
4B51
330
4B50
100
AcDbEntity
  8
0
100
AcDbBlockBegin
  2
*D11
 70
     1
 10
0.0
 20
0.0
 30
0.0
  3
*D11
  1

  0
LINE
  5
4B53
330
4B50
100
AcDbEntity
  8
DIM
 62
     0
370
    -2
100
AcDbLine
 10
452.7963040062818
 20
1194.344959688157
 30
0.0
 11
342.7289969026651
 21
1194.344959688157
 31
0.0
  0
LINE
  5
4B54
330
4B50
100
AcDbEntity
  8
DIM
 62
     0
370
    -2
100
AcDbLine
 10
452.7963040062818
 20
1094.344959688157
 30
0.0
 11
342.7289969026651
 21
1094.344959688157
 31
0.0
  0
LINE
  5
4B55
330
4B50
100
AcDbEntity
  8
DIM
 62
     0
370
    -2
100
AcDbLine
 10
342.7289969026651
 20
1184.344959688157
 30
0.0
 11
342.7289969026651
 21
1104.344959688157
 31
0.0
  0
INSERT
  5
4B56
330
4B50
100
AcDbEntity
  8
DIM
 62
     0
370
    -2
100
AcDbBlockReference
  2
_DOT
 10
342.7289969026651
 20
1194.344959688157
 30
0.0
 41
10.0
 42
10.0
 43
10.0
 50
90.0
  0
INSERT
  5
4B57
330
4B50
100
AcDbEntity
  8
DIM
 62
     0
370
    -2
100
AcDbBlockReference
  2
_DOT
 10
342.7289969026651
 20
1094.344959688157
 30
0.0
 41
10.0
 42
10.0
 43
10.0
 50
270.0
  0
MTEXT
  5
4B58
330
4B50
100
AcDbEntity
  8
DIM
 62
     0
100
AcDbMText
 10
310.7244952145319
 20
1144.344959688157
 30
0.0
 40
24.0
 41
0.0
 46
0.0
 71
     5
 72
     1
  1
\A1;100
  7
ＭＳ ゴシック
 11
0.0
 21
1.0
 31
0.0
 73
     1
 44
1.0
  0
POINT
  5
4B59
330
4B50
100
AcDbEntity
  8
Defpoints
 62
     0
100
AcDbPoint
 10
482.7963040062818
 20
1194.344959688157
 30
0.0
  0
POINT
  5
4B5A
330
4B50
100
AcDbEntity
  8
Defpoints
 62
     0
100
AcDbPoint
 10
482.7963040062818
 20
1094.344959688157
 30
0.0
  0
POINT
  5
4B5B
330
4B50
100
AcDbEntity
  8
Defpoints
 62
     0
100
AcDbPoint
 10
342.7289969026651
 20
1094.344959688157
 30
0.0
  0
ENDBLK
  5
4B52
330
4B50
100
AcDbEntity
  8
0
100
AcDbBlockEnd
  0
BLOCK
  5
4B60
330
4B5F
100
AcDbEntity
  8
0
100
AcDbBlockBegin
  2
*D12
 70
     1
 10
0.0
 20
0.0
 30
0.0
  3
*D12
  1

  0
LINE
  5
4B62
330
4B5F
100
AcDbEntity
  8
DIM
 62
     0
370
    -2
100
AcDbLine
 10
452.7963040062818
 20
1194.344988009985
 30
0.0
 11
342.7289969026651
 21
1194.344988009985
 31
0.0
  0
LINE
  5
4B63
330
4B5F
100
AcDbEntity
  8
DIM
 62
     0
370
    -2
100
AcDbLine
 10
452.7963040062809
 20
1394.344988009989
 30
0.0
 11
342.7289969026651
 21
1394.344988009989
 31
0.0
  0
LINE
  5
4B64
330
4B5F
100
AcDbEntity
  8
DIM
 62
     0
370
    -2
100
AcDbLine
 10
342.7289969026651
 20
1204.344988009985
 30
0.0
 11
342.7289969026651
 21
1384.344988009989
 31
0.0
  0
INSERT
  5
4B65
330
4B5F
100
AcDbEntity
  8
DIM
 62
     0
370
    -2
100
AcDbBlockReference
  2
_DOT
 10
342.7289969026651
 20
1194.344988009985
 30
0.0
 41
10.0
 42
10.0
 43
10.0
 50
270.0
  0
INSERT
  5
4B66
330
4B5F
100
AcDbEntity
  8
DIM
 62
     0
370
    -2
100
AcDbBlockReference
  2
_DOT
 10
342.7289969026651
 20
1394.344988009989
 30
0.0
 41
10.0
 42
10.0
 43
10.0
 50
90.0
  0
MTEXT
  5
4B67
330
4B5F
100
AcDbEntity
  8
DIM
 62
     0
100
AcDbMText
 10
310.7244952145319
 20
1294.344988009987
 30
0.0
 40
24.0
 41
0.0
 46
0.0
 71
     5
 72
     1
  1
\A1;200
  7
ＭＳ ゴシック
 11
0.0
 21
1.0
 31
0.0
 73
     1
 44
1.0
  0
POINT
  5
4B68
330
4B5F
100
AcDbEntity
  8
Defpoints
 62
     0
100
AcDbPoint
 10
482.7963040062818
 20
1194.344988009985
 30
0.0
  0
POINT
  5
4B69
330
4B5F
100
AcDbEntity
  8
Defpoints
 62
     0
100
AcDbPoint
 10
482.7963040062809
 20
1394.344988009989
 30
0.0
  0
POINT
  5
4B6A
330
4B5F
100
AcDbEntity
  8
Defpoints
 62
     0
100
AcDbPoint
 10
342.7289969026651
 20
1394.344988009989
 30
0.0
  0
ENDBLK
  5
4B61
330
4B5F
100
AcDbEntity
  8
0
100
AcDbBlockEnd
  0
BLOCK
  5
4B6F
330
4B6E
100
AcDbEntity
  8
0
100
AcDbBlockBegin
  2
*D13
 70
     1
 10
0.0
 20
0.0
 30
0.0
  3
*D13
  1

  0
LINE
  5
4B71
330
4B6E
100
AcDbEntity
  8
DIM
 62
     0
370
    -2
100
AcDbLine
 10
1570.923862442111
 20
1720.292746560438
 30
0.0
 11
1570.923862442111
 21
1776.892950658858
 31
0.0
  0
LINE
  5
4B72
330
4B6E
100
AcDbEntity
  8
DIM
 62
     0
370
    -2
100
AcDbLine
 10
1724.923862442113
 20
1148.04862274909
 30
0.0
 11
1724.923862442113
 21
1776.892950658858
 31
0.0
  0
LINE
  5
4B73
330
4B6E
100
AcDbEntity
  8
DIM
 62
     0
370
    -2
100
AcDbLine
 10
1580.923862442111
 20
1776.892950658858
 30
0.0
 11
1714.923862442113
 21
1776.892950658858
 31
0.0
  0
INSERT
  5
4B74
330
4B6E
100
AcDbEntity
  8
DIM
 62
     0
370
    -2
100
AcDbBlockReference
  2
_DOT
 10
1570.923862442111
 20
1776.892950658858
 30
0.0
 41
10.0
 42
10.0
 43
10.0
 50
180.0
  0
INSERT
  5
4B75
330
4B6E
100
AcDbEntity
  8
DIM
 62
     0
370
    -2
100
AcDbBlockReference
  2
_DOT
 10
1724.923862442113
 20
1776.892950658858
 30
0.0
 41
10.0
 42
10.0
 43
10.0
  0
MTEXT
  5
4B76
330
4B6E
100
AcDbEntity
  8
DIM
 62
     0
100
AcDbMText
 10
1647.923862442112
 20
1808.897452346991
 30
0.0
 40
24.0
 41
0.0
 46
0.0
 71
     5
 72
     1
  1
\A1;154
  7
ＭＳ ゴシック
 73
     1
 44
1.0
  0
POINT
  5
4B77
330
4B6E
100
AcDbEntity
  8
Defpoints
 62
     0
100
AcDbPoint
 10
1570.923862442111
 20
1690.292746560438
 30
0.0
  0
POINT
  5
4B78
330
4B6E
100
AcDbEntity
  8
Defpoints
 62
     0
100
AcDbPoint
 10
1724.923862442113
 20
1118.04862274909
 30
0.0
  0
POINT
  5
4B79
330
4B6E
100
AcDbEntity
  8
Defpoints
 62
     0
100
AcDbPoint
 10
1724.923862442113
 20
1776.892950658858
 30
0.0
  0
ENDBLK
  5
4B70
330
4B6E
100
AcDbEntity
  8
0
100
AcDbBlockEnd
  0
BLOCK
  5
4C81
330
4C80
100
AcDbEntity
  8
0
100
AcDbBlockBegin
  2
*D14
 70
     1
 10
0.0
 20
0.0
 30
0.0
  3
*D14
  1

  0
LINE
  5
4C83
330
4C80
100
AcDbEntity
  8
DIM
 62
     0
370
    -2
100
AcDbLine
 10
1585.923862442113
 20
954.3449596881537
 30
0.0
 11
1487.951339386306
 21
954.3449596881537
 31
0.0
  0
LINE
  5
4C84
330
4C80
100
AcDbEntity
  8
DIM
 62
     0
370
    -2
100
AcDbLine
 10
1585.923862442113
 20
1234.344959688154
 30
0.0
 11
1487.951339386306
 21
1234.344959688154
 31
0.0
  0
LINE
  5
4C85
330
4C80
100
AcDbEntity
  8
DIM
 62
     0
370
    -2
100
AcDbLine
 10
1487.951339386306
 20
964.3449596881537
 30
0.0
 11
1487.951339386306
 21
1224.344959688154
 31
0.0
  0
INSERT
  5
4C86
330
4C80
100
AcDbEntity
  8
DIM
 62
     0
370
    -2
100
AcDbBlockReference
  2
_DOT
 10
1487.951339386306
 20
954.3449596881537
 30
0.0
 41
10.0
 42
10.0
 43
10.0
 50
270.0
  0
INSERT
  5
4C87
330
4C80
100
AcDbEntity
  8
DIM
 62
     0
370
    -2
100
AcDbBlockReference
  2
_DOT
 10
1487.951339386306
 20
1234.344959688154
 30
0.0
 41
10.0
 42
10.0
 43
10.0
 50
90.0
  0
MTEXT
  5
4C88
330
4C80
100
AcDbEntity
  8
DIM
 62
     0
100
AcDbMText
 10
1455.946837698172
 20
1094.344959688154
 30
0.0
 40
24.0
 41
0.0
 46
0.0
 71
     5
 72
     1
  1
\A1;280
  7
ＭＳ ゴシック
 11
0.0
 21
1.0
 31
0.0
 73
     1
 44
1.0
  0
POINT
  5
4C89
330
4C80
100
AcDbEntity
  8
Defpoints
 62
     0
100
AcDbPoint
 10
1615.923862442113
 20
954.3449596881537
 30
0.0
  0
POINT
  5
4C8A
330
4C80
100
AcDbEntity
  8
Defpoints
 62
     0
100
AcDbPoint
 10
1615.923862442113
 20
1234.344959688154
 30
0.0
  0
POINT
  5
4C8B
330
4C80
100
AcDbEntity
  8
Defpoints
 62
     0
100
AcDbPoint
 10
1487.951339386306
 20
1234.344959688154
 30
0.0
  0
ENDBLK
  5
4C82
330
4C80
100
AcDbEntity
  8
0
100
AcDbBlockEnd
  0
BLOCK
  5
4C90
330
4C8F
100
AcDbEntity
  8
0
100
AcDbBlockBegin
  2
*D15
 70
     1
 10
0.0
 20
0.0
 30
0.0
  3
*D15
  1

  0
LINE
  5
4C92
330
4C8F
100
AcDbEntity
  8
DIM
 62
     0
370
    -2
100
AcDbLine
 10
1585.923862442113
 20
754.3449596881537
 30
0.0
 11
1487.951339386306
 21
754.3449596881537
 31
0.0
  0
LINE
  5
4C93
330
4C8F
100
AcDbEntity
  8
DIM
 62
     0
370
    -2
100
AcDbLine
 10
1585.923862442113
 20
954.3449596881537
 30
0.0
 11
1487.951339386306
 21
954.3449596881537
 31
0.0
  0
LINE
  5
4C94
330
4C8F
100
AcDbEntity
  8
DIM
 62
     0
370
    -2
100
AcDbLine
 10
1487.951339386306
 20
764.3449596881537
 30
0.0
 11
1487.951339386306
 21
944.3449596881537
 31
0.0
  0
INSERT
  5
4C95
330
4C8F
100
AcDbEntity
  8
DIM
 62
     0
370
    -2
100
AcDbBlockReference
  2
_DOT
 10
1487.951339386306
 20
754.3449596881537
 30
0.0
 41
10.0
 42
10.0
 43
10.0
 50
270.0
  0
INSERT
  5
4C96
330
4C8F
100
AcDbEntity
  8
DIM
 62
     0
370
    -2
100
AcDbBlockReference
  2
_DOT
 10
1487.951339386306
 20
954.3449596881537
 30
0.0
 41
10.0
 42
10.0
 43
10.0
 50
90.0
  0
MTEXT
  5
4C97
330
4C8F
100
AcDbEntity
  8
DIM
 62
     0
100
AcDbMText
 10
1455.946837698173
 20
854.3449596881537
 30
0.0
 40
24.0
 41
0.0
 46
0.0
 71
     5
 72
     1
  1
\A1;200
  7
ＭＳ ゴシック
 11
0.0
 21
1.0
 31
0.0
 73
     1
 44
1.0
  0
POINT
  5
4C98
330
4C8F
100
AcDbEntity
  8
Defpoints
 62
     0
100
AcDbPoint
 10
1615.923862442113
 20
754.3449596881537
 30
0.0
  0
POINT
  5
4C99
330
4C8F
100
AcDbEntity
  8
Defpoints
 62
     0
100
AcDbPoint
 10
1615.923862442113
 20
954.3449596881537
 30
0.0
  0
POINT
  5
4C9A
330
4C8F
100
AcDbEntity
  8
Defpoints
 62
     0
100
AcDbPoint
 10
1487.951339386306
 20
954.3449596881537
 30
0.0
  0
ENDBLK
  5
4C91
330
4C8F
100
AcDbEntity
  8
0
100
AcDbBlockEnd
  0
BLOCK
  5
4C9F
330
4C9E
100
AcDbEntity
  8
0
100
AcDbBlockBegin
  2
*D16
 70
     1
 10
0.0
 20
0.0
 30
0.0
  3
*D16
  1

  0
LINE
  5
4CA1
330
4C9E
100
AcDbEntity
  8
DIM
 62
     0
370
    -2
100
AcDbLine
 10
1585.923862442113
 20
1234.344959688154
 30
0.0
 11
1487.951339386306
 21
1234.344959688154
 31
0.0
  0
LINE
  5
4CA2
330
4C9E
100
AcDbEntity
  8
DIM
 62
     0
370
    -2
100
AcDbLine
 10
1585.923862442114
 20
1434.344959688156
 30
0.0
 11
1487.951339386306
 21
1434.344959688156
 31
0.0
  0
LINE
  5
4CA3
330
4C9E
100
AcDbEntity
  8
DIM
 62
     0
370
    -2
100
AcDbLine
 10
1487.951339386306
 20
1244.344959688154
 30
0.0
 11
1487.951339386306
 21
1424.344959688156
 31
0.0
  0
INSERT
  5
4CA4
330
4C9E
100
AcDbEntity
  8
DIM
 62
     0
370
    -2
100
AcDbBlockReference
  2
_DOT
 10
1487.951339386306
 20
1234.344959688154
 30
0.0
 41
10.0
 42
10.0
 43
10.0
 50
270.0
  0
INSERT
  5
4CA5
330
4C9E
100
AcDbEntity
  8
DIM
 62
     0
370
    -2
100
AcDbBlockReference
  2
_DOT
 10
1487.951339386306
 20
1434.344959688156
 30
0.0
 41
10.0
 42
10.0
 43
10.0
 50
90.0
  0
MTEXT
  5
4CA6
330
4C9E
100
AcDbEntity
  8
DIM
 62
     0
100
AcDbMText
 10
1455.946837698172
 20
1334.344959688155
 30
0.0
 40
24.0
 41
0.0
 46
0.0
 71
     5
 72
     1
  1
\A1;200
  7
ＭＳ ゴシック
 11
0.0
 21
1.0
 31
0.0
 73
     1
 44
1.0
  0
POINT
  5
4CA7
330
4C9E
100
AcDbEntity
  8
Defpoints
 62
     0
100
AcDbPoint
 10
1615.923862442113
 20
1234.344959688154
 30
0.0
  0
POINT
  5
4CA8
330
4C9E
100
AcDbEntity
  8
Defpoints
 62
     0
100
AcDbPoint
 10
1615.923862442114
 20
1434.344959688156
 30
0.0
  0
POINT
  5
4CA9
330
4C9E
100
AcDbEntity
  8
Defpoints
 62
     0
100
AcDbPoint
 10
1487.951339386306
 20
1434.344959688156
 30
0.0
  0
ENDBLK
  5
4CA0
330
4C9E
100
AcDbEntity
  8
0
100
AcDbBlockEnd
  0
BLOCK
  5
4CAE
330
4CAD
100
AcDbEntity
  8
0
100
AcDbBlockBegin
  2
*D17
 70
     1
 10
0.0
 20
0.0
 30
0.0
  3
*D17
  1

  0
LINE
  5
4CB0
330
4CAD
100
AcDbEntity
  8
DIM
 62
     0
370
    -2
100
AcDbLine
 10
1720.084689425819
 20
494.5198897878454
 30
0.0
 11
1836.511944760028
 21
494.5198897878454
 31
0.0
  0
LINE
  5
4CB1
330
4CAD
100
AcDbEntity
  8
DIM
 62
     0
370
    -2
100
AcDbLine
 10
1754.923862442113
 20
1094.344959688156
 30
0.0
 11
1836.511944760028
 21
1094.344959688156
 31
0.0
  0
LINE
  5
4CB2
330
4CAD
100
AcDbEntity
  8
DIM
 62
     0
370
    -2
100
AcDbLine
 10
1836.511944760028
 20
504.5198897878454
 30
0.0
 11
1836.511944760028
 21
1084.344959688156
 31
0.0
  0
INSERT
  5
4CB3
330
4CAD
100
AcDbEntity
  8
DIM
 62
     0
370
    -2
100
AcDbBlockReference
  2
_DOT
 10
1836.511944760028
 20
494.5198897878454
 30
0.0
 41
10.0
 42
10.0
 43
10.0
 50
270.0
  0
INSERT
  5
4CB4
330
4CAD
100
AcDbEntity
  8
DIM
 62
     0
370
    -2
100
AcDbBlockReference
  2
_DOT
 10
1836.511944760028
 20
1094.344959688156
 30
0.0
 41
10.0
 42
10.0
 43
10.0
 50
90.0
  0
MTEXT
  5
4CB5
330
4CAD
100
AcDbEntity
  8
DIM
 62
     0
100
AcDbMText
 10
1804.511944760028
 20
794.4324247380006
 30
0.0
 40
24.0
 41
0.0
 46
0.0
 71
     5
 72
     1
  1
\A1;600
  7
ＭＳ ゴシック
 11
0.0
 21
1.0
 31
0.0
 73
     1
 44
1.0
  0
POINT
  5
4CB6
330
4CAD
100
AcDbEntity
  8
Defpoints
 62
     0
100
AcDbPoint
 10
1690.084689425819
 20
494.5198897878454
 30
0.0
  0
POINT
  5
4CB7
330
4CAD
100
AcDbEntity
  8
Defpoints
 62
     0
100
AcDbPoint
 10
1724.923862442113
 20
1094.344959688156
 30
0.0
  0
POINT
  5
4CB8
330
4CAD
100
AcDbEntity
  8
Defpoints
 62
     0
100
AcDbPoint
 10
1836.511944760028
 20
1094.344959688156
 30
0.0
  0
ENDBLK
  5
4CAF
330
4CAD
100
AcDbEntity
  8
0
100
AcDbBlockEnd
  0
BLOCK
  5
4D08
330
4D07
100
AcDbEntity
  8
0
100
AcDbBlockBegin
  2
*D18
 70
     1
 10
0.0
 20
0.0
 30
0.0
  3
*D18
  1

  0
LINE
  5
4D0A
330
4D07
100
AcDbEntity
  8
DIM
 62
     0
370
    -2
100
AcDbLine
 10
1615.923862442113
 20
465.1304376099248
 30
0.0
 11
1615.923862442113
 21
415.0070921908271
 31
0.0
  0
LINE
  5
4D0B
330
4D07
100
AcDbEntity
  8
DIM
 62
     0
370
    -2
100
AcDbLine
 10
1570.923862442114
 20
464.5279464305292
 30
0.0
 11
1570.923862442114
 21
415.0070921908271
 31
0.0
  0
LINE
  5
4D0C
330
4D07
100
AcDbEntity
  8
DIM
 62
     0
370
    -2
100
AcDbLine
 10
1605.923862442113
 20
415.0070921908271
 30
0.0
 11
1580.923862442114
 21
415.0070921908271
 31
0.0
  0
INSERT
  5
4D0D
330
4D07
100
AcDbEntity
  8
DIM
 62
     0
370
    -2
100
AcDbBlockReference
  2
_DOT
 10
1615.923862442113
 20
415.0070921908271
 30
0.0
 41
10.0
 42
10.0
 43
10.0
  0
INSERT
  5
4D0E
330
4D07
100
AcDbEntity
  8
DIM
 62
     0
370
    -2
100
AcDbBlockReference
  2
_DOT
 10
1570.923862442114
 20
415.0070921908271
 30
0.0
 41
10.0
 42
10.0
 43
10.0
 50
180.0
  0
MTEXT
  5
4D0F
330
4D07
100
AcDbEntity
  8
DIM
 62
     0
100
AcDbMText
 10
1593.423862442114
 20
447.0115938789601
 30
0.0
 40
24.0
 41
0.0
 46
0.0
 71
     5
 72
     1
  1
\A1;45
  7
ＭＳ ゴシック
 73
     1
 44
1.0
  0
POINT
  5
4D10
330
4D07
100
AcDbEntity
  8
Defpoints
 62
     0
100
AcDbPoint
 10
1615.923862442113
 20
495.1304376099248
 30
0.0
  0
POINT
  5
4D11
330
4D07
100
AcDbEntity
  8
Defpoints
 62
     0
100
AcDbPoint
 10
1570.923862442114
 20
494.5279464305292
 30
0.0
  0
POINT
  5
4D12
330
4D07
100
AcDbEntity
  8
Defpoints
 62
     0
100
AcDbPoint
 10
1570.923862442114
 20
415.0070921908271
 30
0.0
  0
ENDBLK
  5
4D09
330
4D07
100
AcDbEntity
  8
0
100
AcDbBlockEnd
  0
BLOCK
  5
4D27
330
4D26
100
AcDbEntity
  8
0
100
AcDbBlockBegin
  2
*D19
 70
     1
 10
0.0
 20
0.0
 30
0.0
  3
*D19
  1

  0
LINE
  5
4D29
330
4D26
100
AcDbEntity
  8
DIM
 62
     0
370
    -2
100
AcDbLine
 10
1570.601478510606
 20
2014.453662459259
 30
0.0
 11
1570.601478510606
 21
1950.269412294063
 31
0.0
  0
LINE
  5
4D2A
330
4D26
100
AcDbEntity
  8
DIM
 62
     0
370
    -2
100
AcDbLine
 10
1690.605880838491
 20
2018.119946675701
 30
0.0
 11
1690.605880838491
 21
1950.269412294063
 31
0.0
  0
LINE
  5
4D2B
330
4D26
100
AcDbEntity
  8
DIM
 62
     0
370
    -2
100
AcDbLine
 10
1580.601478510606
 20
1950.269412294063
 30
0.0
 11
1680.605880838491
 21
1950.269412294063
 31
0.0
  0
INSERT
  5
4D2C
330
4D26
100
AcDbEntity
  8
DIM
 62
     0
370
    -2
100
AcDbBlockReference
  2
_DOT
 10
1570.601478510606
 20
1950.269412294063
 30
0.0
 41
10.0
 42
10.0
 43
10.0
 50
180.0
  0
INSERT
  5
4D2D
330
4D26
100
AcDbEntity
  8
DIM
 62
     0
370
    -2
100
AcDbBlockReference
  2
_DOT
 10
1690.605880838491
 20
1950.269412294063
 30
0.0
 41
10.0
 42
10.0
 43
10.0
  0
MTEXT
  5
4D2E
330
4D26
100
AcDbEntity
  8
DIM
 62
     0
100
AcDbMText
 10
1630.603679674548
 20
1982.273913982196
 30
0.0
 40
24.0
 41
0.0
 46
0.0
 71
     5
 72
     1
  1
\A1;120
  7
ＭＳ ゴシック
 73
     1
 44
1.0
  0
POINT
  5
4D2F
330
4D26
100
AcDbEntity
  8
Defpoints
 62
     0
100
AcDbPoint
 10
1570.601478510606
 20
2044.453662459259
 30
0.0
  0
POINT
  5
4D30
330
4D26
100
AcDbEntity
  8
Defpoints
 62
     0
100
AcDbPoint
 10
1690.605880838491
 20
2048.119946675701
 30
0.0
  0
POINT
  5
4D31
330
4D26
100
AcDbEntity
  8
Defpoints
 62
     0
100
AcDbPoint
 10
1690.605880838491
 20
1950.269412294063
 30
0.0
  0
ENDBLK
  5
4D28
330
4D26
100
AcDbEntity
  8
0
100
AcDbBlockEnd
  0
BLOCK
  5
4D38
330
4D37
100
AcDbEntity
  8
0
100
AcDbBlockBegin
  2
*D20
 70
     1
 10
0.0
 20
0.0
 30
0.0
  3
*D20
  1

  0
LINE
  5
4D3A
330
4D37
100
AcDbEntity
  8
DIM
 62
     0
370
    -2
100
AcDbLine
 10
1544.148881922066
 20
2509.121631229029
 30
0.0
 11
1487.951339386306
 21
2509.121631229029
 31
0.0
  0
LINE
  5
4D3B
330
4D37
100
AcDbEntity
  8
DIM
 62
     0
370
    -2
100
AcDbLine
 10
1544.148881922066
 20
2444.098833072292
 30
0.0
 11
1487.951339386306
 21
2444.098833072292
 31
0.0
  0
LINE
  5
4D3C
330
4D37
100
AcDbEntity
  8
DIM
 62
     0
370
    -2
100
AcDbLine
 10
1487.951339386306
 20
2499.121631229029
 30
0.0
 11
1487.951339386306
 21
2454.098833072292
 31
0.0
  0
INSERT
  5
4D3D
330
4D37
100
AcDbEntity
  8
DIM
 62
     0
370
    -2
100
AcDbBlockReference
  2
_DOT
 10
1487.951339386306
 20
2509.121631229029
 30
0.0
 41
10.0
 42
10.0
 43
10.0
 50
90.0
  0
INSERT
  5
4D3E
330
4D37
100
AcDbEntity
  8
DIM
 62
     0
370
    -2
100
AcDbBlockReference
  2
_DOT
 10
1487.951339386306
 20
2444.098833072292
 30
0.0
 41
10.0
 42
10.0
 43
10.0
 50
270.0
  0
MTEXT
  5
4D3F
330
4D37
100
AcDbEntity
  8
DIM
 62
     0
100
AcDbMText
 10
1455.946837698172
 20
2476.610232150661
 30
0.0
 40
24.0
 41
0.0
 46
0.0
 71
     5
 72
     1
  1
\A1;65
  7
ＭＳ ゴシック
 11
0.0
 21
1.0
 31
0.0
 73
     1
 44
1.0
  0
POINT
  5
4D40
330
4D37
100
AcDbEntity
  8
Defpoints
 62
     0
100
AcDbPoint
 10
1574.148881922066
 20
2509.121631229029
 30
0.0
  0
POINT
  5
4D41
330
4D37
100
AcDbEntity
  8
Defpoints
 62
     0
100
AcDbPoint
 10
1574.148881922066
 20
2444.098833072292
 30
0.0
  0
POINT
  5
4D42
330
4D37
100
AcDbEntity
  8
Defpoints
 62
     0
100
AcDbPoint
 10
1487.951339386306
 20
2444.098833072292
 30
0.0
  0
ENDBLK
  5
4D39
330
4D37
100
AcDbEntity
  8
0
100
AcDbBlockEnd
  0
BLOCK
  5
4D48
330
4D47
100
AcDbEntity
  8
0
100
AcDbBlockBegin
  2
*D21
 70
     1
 10
0.0
 20
0.0
 30
0.0
  3
*D21
  1

  0
LINE
  5
4D4A
330
4D47
100
AcDbEntity
  8
DIM
 62
     0
370
    -2
100
AcDbLine
 10
1570.909159551938
 20
2300.267031612721
 30
0.0
 11
1405.222652111648
 21
2300.267031612721
 31
0.0
  0
LINE
  5
4D4B
330
4D47
100
AcDbEntity
  8
DIM
 62
     0
370
    -2
100
AcDbLine
 10
1665.993704682167
 20
2300.267031612721
 30
0.0
 11
1580.909159551938
 21
2300.267031612721
 31
0.0
  0
LINE
  5
4D4C
330
4D47
100
AcDbEntity
  8
DIM
 62
     0
370
    -2
100
AcDbLine
 10
1580.909159551938
 20
2300.267031612721
 30
0.0
 11
1590.909159551938
 21
2300.267031612721
 31
0.0
  0
INSERT
  5
4D4D
330
4D47
100
AcDbEntity
  8
DIM
 62
     0
370
    -2
100
AcDbBlockReference
  2
_DOT
 10
1675.993704682167
 20
2300.267031612721
 30
0.0
 41
10.0
 42
10.0
 43
10.0
  0
INSERT
  5
4D4E
330
4D47
100
AcDbEntity
  8
DIM
 62
     0
370
    -2
100
AcDbBlockReference
  2
_DOT
 10
1570.909159551938
 20
2300.267031612721
 30
0.0
 41
10.0
 42
10.0
 43
10.0
 50
180.0
  0
MTEXT
  5
4D4F
330
4D47
100
AcDbEntity
  8
DIM
 62
     0
100
AcDbMText
 10
1478.065905831793
 20
2333.97092057108
 30
0.0
 40
24.0
 41
0.0
 46
0.0
 71
     5
 72
     1
  1
\A1;深さ105
  7
ＭＳ ゴシック
 73
     1
 44
1.0
  0
POINT
  5
4D50
330
4D47
100
AcDbEntity
  8
Defpoints
 62
     0
100
AcDbPoint
 10
1675.993704682167
 20
2335.50848890099
 30
0.0
  0
POINT
  5
4D51
330
4D47
100
AcDbEntity
  8
Defpoints
 62
     0
100
AcDbPoint
 10
1570.909159551938
 20
2305.632283575054
 30
0.0
  0
POINT
  5
4D55
330
4D47
100
AcDbEntity
  8
Defpoints
 62
     0
100
AcDbPoint
 10
1570.909159551938
 20
2300.267031612721
 30
0.0
  0
ENDBLK
  5
4D49
330
4D47
100
AcDbEntity
  8
0
100
AcDbBlockEnd
  0
BLOCK
  5
4D5B
330
4D5A
100
AcDbEntity
  8
0
100
AcDbBlockBegin
  2
*D22
 70
     1
 10
0.0
 20
0.0
 30
0.0
  3
*D22
  1

  0
LINE
  5
4D5D
330
4D5A
100
AcDbEntity
  8
DIM
 62
     0
370
    -2
100
AcDbLine
 10
1718.148802817668
 20
2508.987333811326
 30
0.0
 11
1836.511944760028
 21
2508.987333811326
 31
0.0
  0
LINE
  5
4D5E
330
4D5A
100
AcDbEntity
  8
DIM
 62
     0
370
    -2
100
AcDbLine
 10
1754.901387163456
 20
2298.943891771582
 30
0.0
 11
1836.511944760028
 21
2298.943891771582
 31
0.0
  0
LINE
  5
4D5F
330
4D5A
100
AcDbEntity
  8
DIM
 62
     0
370
    -2
100
AcDbLine
 10
1836.511944760028
 20
2498.987333811326
 30
0.0
 11
1836.511944760028
 21
2308.943891771582
 31
0.0
  0
INSERT
  5
4D60
330
4D5A
100
AcDbEntity
  8
DIM
 62
     0
370
    -2
100
AcDbBlockReference
  2
_DOT
 10
1836.511944760028
 20
2508.987333811326
 30
0.0
 41
10.0
 42
10.0
 43
10.0
 50
90.0
  0
INSERT
  5
4D61
330
4D5A
100
AcDbEntity
  8
DIM
 62
     0
370
    -2
100
AcDbBlockReference
  2
_DOT
 10
1836.511944760028
 20
2298.943891771582
 30
0.0
 41
10.0
 42
10.0
 43
10.0
 50
270.0
  0
MTEXT
  5
4D62
330
4D5A
100
AcDbEntity
  8
DIM
 62
     0
100
AcDbMText
 10
1804.507443071894
 20
2403.965612791454
 30
0.0
 40
24.0
 41
0.0
 46
0.0
 71
     5
 72
     1
  1
\A1;210
  7
ＭＳ ゴシック
 11
0.0
 21
1.0
 31
0.0
 73
     1
 44
1.0
  0
POINT
  5
4D63
330
4D5A
100
AcDbEntity
  8
Defpoints
 62
     0
100
AcDbPoint
 10
1688.148802817668
 20
2508.987333811326
 30
0.0
  0
POINT
  5
4D64
330
4D5A
100
AcDbEntity
  8
Defpoints
 62
     0
100
AcDbPoint
 10
1724.901387163456
 20
2298.943891771582
 30
0.0
  0
POINT
  5
4D65
330
4D5A
100
AcDbEntity
  8
Defpoints
 62
     0
100
AcDbPoint
 10
1836.511944760028
 20
2298.943891771582
 30
0.0
  0
ENDBLK
  5
4D5C
330
4D5A
100
AcDbEntity
  8
0
100
AcDbBlockEnd
  0
BLOCK
  5
4D97
330
4D96
100
AcDbEntity
  8
0
100
AcDbBlockBegin
  2
*D23
 70
     1
 10
0.0
 20
0.0
 30
0.0
  3
*D23
  1

  0
LINE
  5
4D99
330
4D96
100
AcDbEntity
  8
DIM
 62
     0
370
    -2
100
AcDbLine
 10
745.0901024830016
 20
2627.66308322137
 30
0.0
 11
1012.378319594845
 21
2627.66308322137
 31
0.0
  0
LINE
  5
4D9A
330
4D96
100
AcDbEntity
  8
DIM
 62
     0
370
    -2
100
AcDbLine
 10
745.0901024830025
 20
1917.663083221369
 30
0.0
 11
1012.378319594845
 21
1917.663083221369
 31
0.0
  0
LINE
  5
4D9B
330
4D96
100
AcDbEntity
  8
DIM
 62
     0
370
    -2
100
AcDbLine
 10
1012.378319594845
 20
2617.66308322137
 30
0.0
 11
1012.378319594845
 21
1927.663083221369
 31
0.0
  0
INSERT
  5
4D9C
330
4D96
100
AcDbEntity
  8
DIM
 62
     0
370
    -2
100
AcDbBlockReference
  2
_DOT
 10
1012.378319594845
 20
2627.66308322137
 30
0.0
 41
10.0
 42
10.0
 43
10.0
 50
90.0
  0
INSERT
  5
4D9D
330
4D96
100
AcDbEntity
  8
DIM
 62
     0
370
    -2
100
AcDbBlockReference
  2
_DOT
 10
1012.378319594845
 20
1917.663083221369
 30
0.0
 41
10.0
 42
10.0
 43
10.0
 50
270.0
  0
MTEXT
  5
4D9E
330
4D96
100
AcDbEntity
  8
DIM
 62
     0
100
AcDbMText
 10
980.373817906712
 20
2272.66308322137
 30
0.0
 40
24.0
 41
0.0
 46
0.0
 71
     5
 72
     1
  1
\A1;710
  7
ＭＳ ゴシック
 11
0.0
 21
1.0
 31
0.0
 73
     1
 44
1.0
  0
POINT
  5
4D9F
330
4D96
100
AcDbEntity
  8
Defpoints
 62
     0
100
AcDbPoint
 10
715.0901024830016
 20
2627.66308322137
 30
0.0
  0
POINT
  5
4DA0
330
4D96
100
AcDbEntity
  8
Defpoints
 62
     0
100
AcDbPoint
 10
715.0901024830025
 20
1917.663083221369
 30
0.0
  0
POINT
  5
4DA1
330
4D96
100
AcDbEntity
  8
Defpoints
 62
     0
100
AcDbPoint
 10
1012.378319594845
 20
1917.663083221369
 30
0.0
  0
ENDBLK
  5
4D98
330
4D96
100
AcDbEntity
  8
0
100
AcDbBlockEnd
  0
BLOCK
  5
4DA6
330
4DA5
100
AcDbEntity
  8
0
100
AcDbBlockBegin
  2
*D24
 70
     1
 10
0.0
 20
0.0
 30
0.0
  3
*D24
  1

  0
LINE
  5
4DA8
330
4DA5
100
AcDbEntity
  8
DIM
 62
     0
370
    -2
100
AcDbLine
 10
745.0901024830007
 20
2437.663083221373
 30
0.0
 11
883.5523125212212
 21
2437.663083221373
 31
0.0
  0
LINE
  5
4DA9
330
4DA5
100
AcDbEntity
  8
DIM
 62
     0
370
    -2
100
AcDbLine
 10
745.0901024830025
 20
2107.663083221373
 30
0.0
 11
883.5523125212212
 21
2107.663083221373
 31
0.0
  0
LINE
  5
4DAA
330
4DA5
100
AcDbEntity
  8
DIM
 62
     0
370
    -2
100
AcDbLine
 10
883.5523125212212
 20
2427.663083221373
 30
0.0
 11
883.5523125212212
 21
2117.663083221373
 31
0.0
  0
INSERT
  5
4DAB
330
4DA5
100
AcDbEntity
  8
DIM
 62
     0
370
    -2
100
AcDbBlockReference
  2
_DOT
 10
883.5523125212212
 20
2437.663083221373
 30
0.0
 41
10.0
 42
10.0
 43
10.0
 50
90.0
  0
INSERT
  5
4DAC
330
4DA5
100
AcDbEntity
  8
DIM
 62
     0
370
    -2
100
AcDbBlockReference
  2
_DOT
 10
883.5523125212212
 20
2107.663083221373
 30
0.0
 41
10.0
 42
10.0
 43
10.0
 50
270.0
  0
MTEXT
  5
4DAD
330
4DA5
100
AcDbEntity
  8
DIM
 62
     0
100
AcDbMText
 10
851.5478108330881
 20
2272.663083221373
 30
0.0
 40
24.0
 41
0.0
 46
0.0
 71
     5
 72
     1
  1
\A1;330
  7
ＭＳ ゴシック
 11
0.0
 21
1.0
 31
0.0
 73
     1
 44
1.0
  0
POINT
  5
4DAE
330
4DA5
100
AcDbEntity
  8
Defpoints
 62
     0
100
AcDbPoint
 10
715.0901024830007
 20
2437.663083221373
 30
0.0
  0
POINT
  5
4DAF
330
4DA5
100
AcDbEntity
  8
Defpoints
 62
     0
100
AcDbPoint
 10
715.0901024830025
 20
2107.663083221373
 30
0.0
  0
POINT
  5
4DB0
330
4DA5
100
AcDbEntity
  8
Defpoints
 62
     0
100
AcDbPoint
 10
883.5523125212212
 20
2107.663083221373
 30
0.0
  0
ENDBLK
  5
4DA7
330
4DA5
100
AcDbEntity
  8
0
100
AcDbBlockEnd
  0
BLOCK
  5
4DB5
330
4DB4
100
AcDbEntity
  8
0
100
AcDbBlockBegin
  2
*D25
 70
     1
 10
0.0
 20
0.0
 30
0.0
  3
*D25
  1

  0
LINE
  5
4DB7
330
4DB4
100
AcDbEntity
  8
DIM
 62
     0
370
    -2
100
AcDbLine
 10
445.7947439207567
 20
2657.663083221367
 30
0.0
 11
445.7947439207567
 21
2712.104533953991
 31
0.0
  0
LINE
  5
4DB8
330
4DB4
100
AcDbEntity
  8
DIM
 62
     0
370
    -2
100
AcDbLine
 10
715.0901024830007
 20
2657.66308322137
 30
0.0
 11
715.0901024830007
 21
2712.104533953991
 31
0.0
  0
LINE
  5
4DB9
330
4DB4
100
AcDbEntity
  8
DIM
 62
     0
370
    -2
100
AcDbLine
 10
455.7947439207567
 20
2712.104533953991
 30
0.0
 11
705.0901024830007
 21
2712.104533953991
 31
0.0
  0
INSERT
  5
4DBA
330
4DB4
100
AcDbEntity
  8
DIM
 62
     0
370
    -2
100
AcDbBlockReference
  2
_DOT
 10
445.7947439207567
 20
2712.104533953991
 30
0.0
 41
10.0
 42
10.0
 43
10.0
 50
180.0
  0
INSERT
  5
4DBB
330
4DB4
100
AcDbEntity
  8
DIM
 62
     0
370
    -2
100
AcDbBlockReference
  2
_DOT
 10
715.0901024830007
 20
2712.104533953991
 30
0.0
 41
10.0
 42
10.0
 43
10.0
  0
MTEXT
  5
4DBC
330
4DB4
100
AcDbEntity
  8
DIM
 62
     0
100
AcDbMText
 10
580.4424232018787
 20
2744.109035642124
 30
0.0
 40
24.0
 41
0.0
 46
0.0
 71
     5
 72
     1
  1
\A1;270
  7
ＭＳ ゴシック
 73
     1
 44
1.0
  0
POINT
  5
4DBD
330
4DB4
100
AcDbEntity
  8
Defpoints
 62
     0
100
AcDbPoint
 10
445.7947439207567
 20
2627.663083221367
 30
0.0
  0
POINT
  5
4DBE
330
4DB4
100
AcDbEntity
  8
Defpoints
 62
     0
100
AcDbPoint
 10
715.0901024830007
 20
2627.66308322137
 30
0.0
  0
POINT
  5
4DBF
330
4DB4
100
AcDbEntity
  8
Defpoints
 62
     0
100
AcDbPoint
 10
715.0901024830007
 20
2712.104533953991
 30
0.0
  0
ENDBLK
  5
4DB6
330
4DB4
100
AcDbEntity
  8
0
100
AcDbBlockEnd
  0
BLOCK
  5
4EC9
330
4EC8
100
AcDbEntity
  8
0
100
AcDbBlockBegin
  2
*D26
 70
     1
 10
0.0
 20
0.0
 30
0.0
  3
*D26
  1

  0
LINE
  5
4ECB
330
4EC8
100
AcDbEntity
  8
DIM
 62
     0
370
    -2
100
AcDbLine
 10
445.7947439207593
 20
1898.048780233966
 30
0.0
 11
445.7947439207593
 21
1864.626289878421
 31
0.0
  0
LINE
  5
4ECC
330
4EC8
100
AcDbEntity
  8
DIM
 62
     0
370
    -2
100
AcDbLine
 10
415.7947439207567
 20
1897.548662759217
 30
0.0
 11
415.7947439207567
 21
1864.626289878421
 31
0.0
  0
LINE
  5
4ECD
330
4EC8
100
AcDbEntity
  8
DIM
 62
     0
370
    -2
100
AcDbLine
 10
435.7947439207593
 20
1864.626289878421
 30
0.0
 11
425.7947439207567
 21
1864.626289878421
 31
0.0
  0
INSERT
  5
4ECE
330
4EC8
100
AcDbEntity
  8
DIM
 62
     0
370
    -2
100
AcDbBlockReference
  2
_DOT
 10
445.7947439207593
 20
1864.626289878421
 30
0.0
 41
10.0
 42
10.0
 43
10.0
  0
INSERT
  5
4ECF
330
4EC8
100
AcDbEntity
  8
DIM
 62
     0
370
    -2
100
AcDbBlockReference
  2
_DOT
 10
415.7947439207567
 20
1864.626289878421
 30
0.0
 41
10.0
 42
10.0
 43
10.0
 50
180.0
  0
MTEXT
  5
4ED0
330
4EC8
100
AcDbEntity
  8
DIM
 62
     0
100
AcDbMText
 10
430.794743920758
 20
1896.630791566554
 30
0.0
 40
24.0
 41
0.0
 46
0.0
 71
     5
 72
     1
  1
\A1;30
  7
ＭＳ ゴシック
 73
     1
 44
1.0
  0
POINT
  5
4ED1
330
4EC8
100
AcDbEntity
  8
Defpoints
 62
     0
100
AcDbPoint
 10
445.7947439207593
 20
1928.048780233966
 30
0.0
  0
POINT
  5
4ED2
330
4EC8
100
AcDbEntity
  8
Defpoints
 62
     0
100
AcDbPoint
 10
415.7947439207567
 20
1927.548662759217
 30
0.0
  0
POINT
  5
4ED3
330
4EC8
100
AcDbEntity
  8
Defpoints
 62
     0
100
AcDbPoint
 10
415.7947439207567
 20
1864.626289878421
 30
0.0
  0
ENDBLK
  5
4ECA
330
4EC8
100
AcDbEntity
  8
0
100
AcDbBlockEnd
  0
BLOCK
  5
4ED9
330
4ED8
100
AcDbEntity
  8
0
100
AcDbBlockBegin
  2
*D27
 70
     1
 10
0.0
 20
0.0
 30
0.0
  3
*D27
  1

  0
LINE
  5
4EDB
330
4ED8
100
AcDbEntity
  8
DIM
 62
     0
370
    -2
100
AcDbLine
 10
445.7947439207567
 20
2657.663083221369
 30
0.0
 11
445.7947439207567
 21
2712.104533953991
 31
0.0
  0
LINE
  5
4EDC
330
4ED8
100
AcDbEntity
  8
DIM
 62
     0
370
    -2
100
AcDbLine
 10
415.7947439207567
 20
2657.663083221369
 30
0.0
 11
415.7947439207567
 21
2712.104533953991
 31
0.0
  0
LINE
  5
4EDD
330
4ED8
100
AcDbEntity
  8
DIM
 62
     0
370
    -2
100
AcDbLine
 10
435.7947439207567
 20
2712.104533953991
 30
0.0
 11
425.7947439207567
 21
2712.104533953991
 31
0.0
  0
INSERT
  5
4EDE
330
4ED8
100
AcDbEntity
  8
DIM
 62
     0
370
    -2
100
AcDbBlockReference
  2
_DOT
 10
445.7947439207567
 20
2712.104533953991
 30
0.0
 41
10.0
 42
10.0
 43
10.0
  0
INSERT
  5
4EDF
330
4ED8
100
AcDbEntity
  8
DIM
 62
     0
370
    -2
100
AcDbBlockReference
  2
_DOT
 10
415.7947439207567
 20
2712.104533953991
 30
0.0
 41
10.0
 42
10.0
 43
10.0
 50
180.0
  0
MTEXT
  5
4EE0
330
4ED8
100
AcDbEntity
  8
DIM
 62
     0
100
AcDbMText
 10
430.7947439207567
 20
2744.109035642124
 30
0.0
 40
24.0
 41
0.0
 46
0.0
 71
     5
 72
     1
  1
\A1;30
  7
ＭＳ ゴシック
 73
     1
 44
1.0
  0
POINT
  5
4EE5
330
4ED8
100
AcDbEntity
  8
Defpoints
 62
     0
100
AcDbPoint
 10
445.7947439207567
 20
2627.663083221369
 30
0.0
  0
POINT
  5
4EE6
330
4ED8
100
AcDbEntity
  8
Defpoints
 62
     0
100
AcDbPoint
 10
415.7947439207567
 20
2627.663083221369
 30
0.0
  0
POINT
  5
4EE7
330
4ED8
100
AcDbEntity
  8
Defpoints
 62
     0
100
AcDbPoint
 10
415.7947439207567
 20
2712.104533953991
 30
0.0
  0
ENDBLK
  5
4EDA
330
4ED8
100
AcDbEntity
  8
0
100
AcDbBlockEnd
  0
ENDSEC
  0
SECTION
  2
ENTITIES
  0
MTEXT
  5
177
330
A
100
AcDbEntity
  8
TEMPLATE
390
1D
100
AcDbMText
 10
79.20214454773075
 20
343.7317516314282
 30
0.0
 40
16.28841145833333
 41
0.0
 46
0.0
 71
     1
 72
     1
  1
品名
  7
ＭＳ ゴシック
 73
     1
 44
0.7828267384257843
  0
MTEXT
  5
178
330
A
100
AcDbEntity
  8
TEMPLATE
390
1D
100
AcDbMText
 10
79.20214454773075
 20
258.731751631428
 30
0.0
 40
16.28841145833333
 41
0.0
 46
0.0
 71
     1
 72
     1
  1
仕様
  7
ＭＳ ゴシック
 73
     1
 44
0.7828267384257843
  0
LINE
  5
179
330
A
100
AcDbEntity
  8
TEMPLATE
390
1D
100
AcDbLine
 10
2022.202144547248
 20
267.1466735064284
 30
0.0
 11
72.20214454724874
 21
267.1466735064284
 31
0.0
  0
LWPOLYLINE
  5
17A
330
A
100
AcDbEntity
  8
TEMPLATE
390
1D
100
AcDbPolyline
 90
        5
 70
   128
 43
0.0
 10
2022.202144547248
 20
2897.146673506426
 10
72.20214454724874
 20
2897.146673506426
 10
72.20214454724874
 20
97.14667350642826
 10
2022.202144547248
 20
97.14667350642826
 10
2022.202144547248
 20
2897.146673506426
  0
LINE
  5
17B
330
A
100
AcDbEntity
  8
TEMPLATE
390
1D
100
AcDbLine
 10
2022.202144547248
 20
352.1466735064282
 30
0.0
 11
72.20214454724874
 21
352.1466735064282
 31
0.0
  0
LINE
  5
17C
330
A
100
AcDbEntity
  8
TEMPLATE
390
1D
100
AcDbLine
 10
2022.202144547732
 20
182.1466735064282
 30
0.0
 11
1269.20214454773
 21
182.1466735064282
 31
0.0
  0
MTEXT
  5
17E
330
A
100
AcDbEntity
  8
TEMPLATE
390
1D
100
AcDbMText
 10
1299.073550799991
 20
152.2362790331201
 30
0.0
 40
24.4326171875
 41
0.0
 46
0.0
 71
     1
 72
     1
  1
大洋金物株式会社 ティーフォルム事業部
  7
ＭＳ ゴシック
 73
     1
 44
0.7828267384257843
  0
MTEXT
  5
180
330
A
100
AcDbEntity
  8
TEMPLATE
390
1D
100
AcDbMText
 10
1831.20214454799
 20
230.1492906939282
 30
0.0
 40
24.4326171875
 41
0.0
 46
24.4326171875
 71
     1
 72
     1
  1
{1:10}
  7
ＭＳ ゴシック
 73
     1
 44
0.7828267384257843
1001
ACAD
1000
ACAD_MTEXT_DEFINED_HEIGHT_BEGIN
1070
    46
1040
24.4326171875
1000
ACAD_MTEXT_DEFINED_HEIGHT_END
  0
MTEXT
  5
181
330
A
100
AcDbEntity
  8
TEMPLATE
390
1D
100
AcDbMText
 10
1778.20214454799
 20
258.731751631428
 30
0.0
 40
16.28841145833333
 41
0.0
 46
0.0
 71
     1
 72
     1
  1
縮尺
  7
ＭＳ ゴシック
 73
     1
 44
0.7828267384257843
  0
LINE
  5
182
330
A
100
AcDbEntity
  8
TEMPLATE
390
1D
100
AcDbLine
 10
1771.20214454799
 20
182.1466735064282
 30
0.0
 11
1771.20214454799
 21
267.1466735064284
 31
0.0
  0
MTEXT
  5
183
330
A
100
AcDbEntity
  8
TEMPLATE
390
1D
100
AcDbMText
 10
1527.20214454799
 20
258.731751631428
 30
0.0
 40
16.28841145833333
 41
0.0
 46
0.0
 71
     1
 72
     1
  1
容量
  7
ＭＳ ゴシック
 73
     1
 44
0.7828267384257843
  0
LINE
  5
184
330
A
100
AcDbEntity
  8
TEMPLATE
390
1D
100
AcDbLine
 10
1520.20214454799
 20
182.1466735064282
 30
0.0
 11
1520.20214454799
 21
267.1466735064284
 31
0.0
  0
MTEXT
  5
185
330
A
100
AcDbEntity
  8
TEMPLATE
390
1D
100
AcDbMText
 10
1276.20214454799
 20
343.7317516314282
 30
0.0
 40
16.28841145833333
 41
0.0
 46
0.0
 71
     1
 72
     1
  1
品番
  7
ＭＳ ゴシック
 73
     1
 44
0.7828267384257843
  0
MTEXT
  5
186
330
A
100
AcDbEntity
  8
TEMPLATE
390
1D
100
AcDbMText
 10
1276.20214454799
 20
258.731751631428
 30
0.0
 40
16.28841145833333
 41
0.0
 46
0.0
 71
     1
 72
     1
  1
重量
  7
ＭＳ ゴシック
 73
     1
 44
0.7828267384257843
  0
MTEXT
  5
187
330
A
100
AcDbEntity
  8
TEMPLATE
390
1D
100
AcDbMText
 10
1329.20214454799
 20
315.1492906939282
 30
0.0
 40
24.4326171875
 41
0.0
 46
24.4326171875
 71
     1
 72
     1
  1
{ADF70-3101-001}
  7
ＭＳ ゴシック
 73
     1
 44
0.7828267384257843
1001
ACAD
1000
ACAD_MTEXT_DEFINED_HEIGHT_BEGIN
1070
    46
1040
24.4326171875
1000
ACAD_MTEXT_DEFINED_HEIGHT_END
  0
LINE
  5
188
330
A
100
AcDbEntity
  8
TEMPLATE
390
1D
100
AcDbLine
 10
1269.20214454799
 20
97.14667350642826
 30
0.0
 11
1269.20214454799
 21
352.1466735064282
 31
0.0
  0
INSERT
  5
68C
330
A
100
AcDbEntity
  8
TEMPLATE
100
AcDbBlockReference
  2
block 2
 10
919.2743017702577
 20
8.373076514336368
 30
0.0
 41
0.3809999999999999
 42
0.3809999999999999
 43
0.3809999999999999
  0
LWPOLYLINE
  5
DAC
330
A
100
AcDbEntity
  8
BORDER
100
AcDbPolyline
 90
        4
 70
     1
 43
0.0
 10
0.0
 20
0.0
 10
0.0
 20
2970.0
 10
2100.0
 20
2970.0
 10
2100.0
 20
0.0
  0
MTEXT
  5
121B
330
A
100
AcDbEntity
  8
TEMPLATE
390
1D
100
AcDbMText
 10
1329.20214454799
 20
227.1688729773101
 30
0.0
 40
24.4326171875
 41
0.0
 46
28.40135167875453
 71
     1
 72
     1
  1
{33kg}
  7
ＭＳ ゴシック
 73
     1
 44
0.7828267384257843
1001
ACAD
1000
ACAD_MTEXT_DEFINED_HEIGHT_BEGIN
1070
    46
1040
28.40135167875453
1000
ACAD_MTEXT_DEFINED_HEIGHT_END
  0
MTEXT
  5
1466
102
{ACAD_XDICTIONARY
360
1468
102
}
330
A
100
AcDbEntity
  8
TEMPLATE
 48
0.05
100
AcDbMText
 10
74.728656548571
 20
83.86172105142839
 30
0.0
 40
22.0
 41
0.0
 46
22.0
 71
     1
 72
     1
  1
{20220610M}
  7
ＭＳ ゴシック
 73
     1
 44
1.0
1001
ACAD
1000
ACAD_MTEXT_DEFINED_HEIGHT_BEGIN
1070
    46
1040
22.0
1000
ACAD_MTEXT_DEFINED_HEIGHT_END
  0
MTEXT
  5
146D
330
A
100
AcDbEntity
  8
TEMPLATE
390
1D
100
AcDbMText
 10
1583.904999862276
 20
227.1688729773101
 30
0.0
 40
24.4326171875
 41
0.0
 46
24.4326171875
 71
     1
 72
     1
  1
{16L}
  7
ＭＳ ゴシック
 73
     1
 44
0.7828267384257843
1001
ACAD
1000
ACAD_MTEXT_DEFINED_HEIGHT_BEGIN
1070
    46
1040
24.4326171875
1000
ACAD_MTEXT_DEFINED_HEIGHT_END
  0
POINT
  5
262A
330
A
100
AcDbEntity
  8
Layer9
  6
Continuous
 62
     7
100
AcDbPoint
 10
1037.460145007193
 20
1010.220672371878
 30
0.0
  0
POINT
  5
262B
330
A
100
AcDbEntity
  8
Layer9
  6
Continuous
 62
     7
100
AcDbPoint
 10
1037.460146257193
 20
1010.220672788578
 30
0.0
  0
POINT
  5
262C
330
A
100
AcDbEntity
  8
Layer9
  6
Continuous
 62
     7
100
AcDbPoint
 10
1037.853693340493
 20
1015.267975288578
 30
0.0
  0
POINT
  5
2812
330
A
100
AcDbEntity
  8
Layer9
  6
Continuous
 62
     7
100
AcDbPoint
 10
925.7934783404928
 20
1010.220672371878
 30
0.0
  0
POINT
  5
2813
330
A
100
AcDbEntity
  8
Layer9
  6
Continuous
 62
     7
100
AcDbPoint
 10
925.7934795904928
 20
1010.220672788578
 30
0.0
  0
POINT
  5
2814
330
A
100
AcDbEntity
  8
Layer9
  6
Continuous
 62
     7
100
AcDbPoint
 10
926.1870266737928
 20
1015.267975288578
 30
0.0
  0
INSERT
  5
28CA
330
A
100
AcDbEntity
  8
Layer3
100
AcDbBlockReference
  2
SEANNOT_GROUP
 10
859.7083018867928
 20
826.1905269541776
 30
0.0
  0
POINT
  5
2A52
330
A
100
AcDbEntity
  8
Standard
  6
Continuous
 62
     7
100
AcDbPoint
 10
1036.111241014893
 20
1018.794321538578
 30
0.0
  0
INSERT
  5
2B9B
330
A
100
AcDbEntity
  8
Layer3
100
AcDbBlockReference
  2
SEANNOT_GROUP1
 10
859.7083018867928
 20
826.1905269541776
 30
0.0
  0
HATCH
  5
369B
102
{ACAD_REACTORS
330
36AC
102
}
330
A
100
AcDbEntity
  8
TEMPLATE
100
AcDbHatch
 10
0.0
 20
0.0
 30
0.0
210
0.0
220
0.0
230
1.0
  2
SOLID
 70
     1
 71
     1
 91
        6
 92
        1
 93
        8
 72
     1
 10
1934.476782902687
 20
153.1053194253001
 11
1934.476782902687
 21
147.1959117946397
 72
     1
 10
1934.476782902687
 20
147.1959117946397
 11
1925.116191352377
 21
147.1959117946397
 72
     1
 10
1925.116191352377
 20
147.1959117946397
 11
1925.116191352377
 21
123.105319426746
 72
     1
 10
1925.116191352377
 20
123.105319426746
 11
1916.883578199102
 21
123.105319426746
 72
     1
 10
1916.883578199102
 20
123.105319426746
 11
1916.883578199102
 21
147.1959117946397
 72
     1
 10
1916.883578199102
 20
147.1959117946397
 11
1907.688876764557
 21
147.1959117946397
 72
     1
 10
1907.688876764557
 20
147.1959117946397
 11
1907.688876764557
 21
153.1053194253001
 72
     1
 10
1907.688876764557
 20
153.1053194253001
 11
1934.476782902687
 21
153.1053194253001
 97
        1
330
369C
 92
        1
 93
        1
 72
     4
 94
        3
 73
     0
 74
     1
 95
       56
 96
       52
 40
0.0
 40
0.0
 40
0.0
 40
0.0
 40
1.0
 40
1.0
 40
1.0
 40
2.0
 40
2.0
 40
2.0
 40
3.0
 40
3.0
 40
3.0
 40
4.0
 40
4.0
 40
4.0
 40
5.0
 40
5.0
 40
5.0
 40
6.0
 40
6.0
 40
6.0
 40
7.0
 40
7.0
 40
7.0
 40
8.0
 40
8.0
 40
8.0
 40
9.0
 40
9.0
 40
9.0
 40
10.0
 40
10.0
 40
10.0
 40
11.0
 40
11.0
 40
11.0
 40
12.0
 40
12.0
 40
12.0
 40
13.0
 40
13.0
 40
13.0
 40
14.0
 40
14.0
 40
14.0
 40
15.0
 40
15.0
 40
15.0
 40
16.0
 40
16.0
 40
16.0
 40
17.0
 40
17.0
 40
17.0
 40
17.0
 10
1947.01896833698
 20
152.3909504648878
 10
1948.1728345189
 20
152.715738018898
 10
1949.662423612235
 20
152.4440650580081
 10
1949.662423612235
 20
152.4440650580081
 10
1949.662423612235
 20
152.4440650580081
 10
1948.946790018651
 20
150.2964947655846
 10
1948.946790018651
 20
150.2964947655846
 10
1948.946790018651
 20
150.2964947655846
 10
1947.484427733556
 20
150.6348957237139
 10
1946.356523726704
 20
149.7454866546012
 10
1945.480058550036
 20
149.0499384113589
 10
1944.912238256914
 20
147.2017886193686
 10
1944.69442379101
 20
146.4990989182278
 10
1944.69442379101
 20
146.4990989182278
 10
1943.723334297183
 20
143.518432927829
 10
1943.723334297183
 20
143.518432927829
 10
1943.723334297183
 20
143.518432927829
 10
1946.907457447503
 20
143.518432927829
 10
1946.907457447503
 20
143.518432927829
 10
1946.907457447503
 20
143.518432927829
 10
1946.412241976351
 20
141.642461206109
 10
1946.412241976351
 20
141.642461206109
 10
1946.412241976351
 20
141.642461206109
 10
1943.202156650962
 20
141.642461206109
 10
1943.202156650962
 20
141.642461206109
 10
1943.202156650962
 20
141.642461206109
 10
1937.458713526257
 20
123.105319426746
 10
1937.458713526257
 20
123.105319426746
 10
1937.458713526257
 20
123.105319426746
 10
1935.660479549369
 20
123.105319426746
 10
1935.660479549369
 20
123.105319426746
 10
1935.660479549369
 20
123.105319426746
 10
1941.409129987127
 20
141.642461206109
 10
1941.409129987127
 20
141.642461206109
 10
1941.409129987127
 20
141.642461206109
 10
1939.040397670409
 20
141.642461206109
 10
1939.040397670409
 20
141.642461206109
 10
1939.040397670409
 20
141.642461206109
 10
1939.536952164915
 20
143.518432927829
 10
1939.536952164915
 20
143.518432927829
 10
1939.536952164915
 20
143.518432927829
 10
1941.930307633347
 20
143.518432927829
 10
1941.930307633347
 20
143.518432927829
 10
1941.930307633347
 20
143.518432927829
 10
1942.77686795507
 20
146.1179236028939
 10
1942.77686795507
 20
146.1179236028939
 10
1943.461406450716
 20
148.2973328951149
 10
1944.042245026465
 20
149.4674161376772
 10
1944.540138544327
 20
150.3496093587049
 10
1945.032750358952
 20
151.232546481597
 10
1946.007708142475
 20
152.0998616653363
 10
1947.01896833698
 20
152.3909504648878
 97
        1
330
36A7
 92
        1
 93
        1
 72
     4
 94
        3
 73
     0
 74
     1
 95
       32
 96
       28
 40
0.0
 40
0.0
 40
0.0
 40
0.0
 40
1.0
 40
1.0
 40
1.0
 40
2.0
 40
2.0
 40
2.0
 40
3.0
 40
3.0
 40
3.0
 40
4.0
 40
4.0
 40
4.0
 40
5.0
 40
5.0
 40
5.0
 40
6.0
 40
6.0
 40
6.0
 40
7.0
 40
7.0
 40
7.0
 40
8.0
 40
8.0
 40
8.0
 40
9.0
 40
9.0
 40
9.0
 40
9.0
 10
1951.394524713372
 20
142.3847264864374
 10
1950.311998720255
 20
140.9844800070205
 10
1949.478382290974
 20
139.7243102486757
 10
1948.128795528524
 20
135.7635535518901
 10
1946.888041608841
 20
132.1406026917421
 10
1946.098464169936
 20
129.5048096056932
 10
1945.979216701069
 20
126.2947242803041
 10
1945.888460673606
 20
123.9059066132458
 10
1947.343086379314
 20
123.105319426746
 10
1949.475853024634
 20
123.105319426746
 10
1950.395018168326
 20
123.105319426746
 10
1952.714504181618
 20
123.1637901132903
 10
1954.3662638814
 20
125.2056519507783
 10
1955.522584939468
 20
126.6401923061455
 10
1956.588298750451
 20
128.1272521331414
 10
1958.017036671275
 20
133.0053142189559
 10
1959.205940631009
 20
137.0833842397621
 10
1960.029142434186
 20
139.7191029356247
 10
1959.968291261677
 20
141.2197761667398
 10
1959.968291261677
 20
141.2197761667398
 10
1959.968291261677
 20
141.2197761667398
 10
1959.968291261677
 20
141.2197761667398
 10
1959.580569609936
 20
143.7233035012931
 10
1957.762919794387
 20
144.2522921170894
 10
1956.724432791643
 20
144.2522921170894
 10
1955.70156772805
 20
144.2522921170894
 10
1952.960735698745
 20
144.4292663706373
 10
1951.394524713372
 20
142.3847264864374
 97
        1
330
36AA
 92
        1
 93
        1
 72
     4
 94
        3
 73
     0
 74
     1
 95
       38
 96
       34
 40
0.0
 40
0.0
 40
0.0
 40
0.0
 40
1.0
 40
1.0
 40
1.0
 40
2.0
 40
2.0
 40
2.0
 40
3.0
 40
3.0
 40
3.0
 40
4.0
 40
4.0
 40
4.0
 40
5.0
 40
5.0
 40
5.0
 40
6.0
 40
6.0
 40
6.0
 40
7.0
 40
7.0
 40
7.0
 40
8.0
 40
8.0
 40
8.0
 40
9.0
 40
9.0
 40
9.0
 40
10.0
 40
10.0
 40
10.0
 40
11.0
 40
11.0
 40
11.0
 40
11.0
 10
1966.542747159137
 20
143.4464976175386
 10
1966.542747159137
 20
143.4464976175386
 10
1968.39149207262
 20
143.4464976175386
 10
1968.39149207262
 20
143.4464976175386
 10
1968.39149207262
 20
143.4464976175386
 10
1967.56561222273
 20
140.8022984404216
 10
1967.56561222273
 20
140.8022984404216
 10
1968.193167835563
 20
141.54456372075
 10
1969.183598777865
 20
142.5331349083912
 10
1970.034176169654
 20
143.0316235477459
 10
1971.304760554101
 20
143.7738888280742
 10
1972.030808773784
 20
143.8717863134333
 10
1972.829313035064
 20
143.8522960845852
 10
1972.829313035064
 20
143.8522960845852
 10
1972.048959979278
 20
141.3520419182353
 10
1972.048959979278
 20
141.3520419182353
 10
1971.540726225497
 20
141.5672527276151
 10
1969.974515240128
 20
141.1575859708734
 10
1969.076030568268
 20
140.5112840310564
 10
1968.265772657532
 20
139.9285113104618
 10
1967.705614553615
 20
139.4326263276327
 10
1967.04190531017
 20
138.1859955832205
 10
1966.383254599404
 20
136.9375050841474
 10
1965.86341597654
 20
134.9467493047458
 10
1964.968799594376
 20
132.058773486655
 10
1964.968799594376
 20
132.058773486655
 10
1962.174852971949
 20
123.105319426746
 10
1962.174852971949
 20
123.105319426746
 10
1962.174852971949
 20
123.105319426746
 10
1960.380561674943
 20
123.105319426746
 10
1960.380561674943
 20
123.105319426746
 10
1960.380561674943
 20
123.105319426746
 10
1966.542747159137
 20
143.4464976175386
 10
1966.542747159137
 20
143.4464976175386
 97
        1
330
36A8
 92
        1
 93
        1
 72
     4
 94
        3
 73
     0
 74
     1
 95
      104
 96
      100
 40
0.0
 40
0.0
 40
0.0
 40
0.0
 40
1.0
 40
1.0
 40
1.0
 40
2.0
 40
2.0
 40
2.0
 40
3.0
 40
3.0
 40
3.0
 40
4.0
 40
4.0
 40
4.0
 40
5.0
 40
5.0
 40
5.0
 40
6.0
 40
6.0
 40
6.0
 40
7.0
 40
7.0
 40
7.0
 40
8.0
 40
8.0
 40
8.0
 40
9.0
 40
9.0
 40
9.0
 40
10.0
 40
10.0
 40
10.0
 40
11.0
 40
11.0
 40
11.0
 40
12.0
 40
12.0
 40
12.0
 40
13.0
 40
13.0
 40
13.0
 40
14.0
 40
14.0
 40
14.0
 40
15.0
 40
15.0
 40
15.0
 40
16.0
 40
16.0
 40
16.0
 40
17.0
 40
17.0
 40
17.0
 40
18.0
 40
18.0
 40
18.0
 40
19.0
 40
19.0
 40
19.0
 40
20.0
 40
20.0
 40
20.0
 40
21.0
 40
21.0
 40
21.0
 40
22.0
 40
22.0
 40
22.0
 40
23.0
 40
23.0
 40
23.0
 40
24.0
 40
24.0
 40
24.0
 40
25.0
 40
25.0
 40
25.0
 40
26.0
 40
26.0
 40
26.0
 40
27.0
 40
27.0
 40
27.0
 40
28.0
 40
28.0
 40
28.0
 40
29.0
 40
29.0
 40
29.0
 40
30.0
 40
30.0
 40
30.0
 40
31.0
 40
31.0
 40
31.0
 40
32.0
 40
32.0
 40
32.0
 40
33.0
 40
33.0
 40
33.0
 40
33.0
 10
1976.718878323425
 20
143.4575073651321
 10
1976.718878323425
 20
143.4575073651321
 10
1978.332996588864
 20
143.4575073651321
 10
1978.332996588864
 20
143.4575073651321
 10
1978.332996588864
 20
143.4575073651321
 10
1977.517531365076
 20
140.810778921676
 10
1977.517531365076
 20
140.810778921676
 10
1978.225279598895
 20
141.920531723033
 10
1978.860571791119
 20
142.4151520726926
 10
1979.704602846502
 20
143.054312554611
 10
1980.551163168223
 20
143.6843974337833
 10
1981.556025806694
 20
143.812794895584
 10
1982.253508194784
 20
143.812794895584
 10
1983.117029479015
 20
143.812794895584
 10
1983.950645908296
 20
143.6422925882567
 10
1984.388804106443
 20
142.6958262461422
 10
1984.72460140805
 20
141.9536353560001
 10
1984.740223347202
 20
141.8660781065566
 10
1984.644260006691
 20
140.4010377747479
 10
1985.521915426345
 20
141.9030500292188
 10
1986.170151511008
 20
142.5500214807137
 10
1987.272167732975
 20
143.1716258786317
 10
1988.42863757142
 20
143.812794895584
 10
1989.102761440966
 20
143.8607765658398
 10
1989.885941323838
 20
143.7453229964802
 10
1991.039733115569
 20
143.5748950793392
 10
1991.776195961356
 20
143.1632197875635
 10
1992.161239566385
 20
141.9121256319649
 10
1992.54762219477
 20
140.6648997660613
 10
1992.338883331611
 20
139.9959088193793
 10
1991.861744675765
 20
138.0103603530286
 10
1991.64393020986
 20
137.1060732466272
 10
1991.328813380087
 20
136.0111240923725
 10
1990.916542966819
 20
134.7082543670094
 10
1990.916542966819
 20
134.7082543670094
 10
1987.272167732975
 20
123.105319426746
 10
1987.272167732975
 20
123.105319426746
 10
1987.272167732975
 20
123.105319426746
 10
1985.376705782409
 20
123.105319426746
 10
1985.376705782409
 20
123.105319426746
 10
1985.376705782409
 20
123.105319426746
 10
1988.567449659321
 20
133.2490164697431
 10
1988.567449659321
 20
133.2490164697431
 10
1989.233836949479
 20
135.3713684889626
 10
1989.684939040069
 20
136.9212880235028
 10
1989.918375445127
 20
137.893047029008
 10
1990.211323999339
 20
139.1052351170969
 10
1990.327967811683
 20
139.505231149601
 10
1990.189304504152
 20
140.3874987608153
 10
1990.062246065708
 20
141.2087664191461
 10
1989.647297605728
 20
141.7435574694851
 10
1988.936871325198
 20
141.7435574694851
 10
1988.17972800758
 20
141.7435574694851
 10
1987.566455310545
 20
141.659273388245
 10
1986.708290119737
 20
140.7971655175569
 10
1985.84997614856
 20
139.9285113104618
 10
1985.140740111011
 20
138.9088450248874
 10
1984.584599077163
 20
137.7361581257997
 10
1984.029648286297
 20
136.5563297688134
 10
1983.466960916042
 20
135.0608638507494
 10
1982.896536966398
 20
133.2490164697431
 10
1982.896536966398
 20
133.2490164697431
 10
1979.704602846502
 20
123.105319426746
 10
1979.704602846502
 20
123.105319426746
 10
1979.704602846502
 20
123.105319426746
 10
1977.921916418581
 20
123.105319426746
 10
1977.921916418581
 20
123.105319426746
 10
1977.921916418581
 20
123.105319426746
 10
1981.571498965475
 20
134.7030470539584
 10
1981.571498965475
 20
134.7030470539584
 10
1981.956542570504
 20
135.9373290274211
 10
1982.245771615394
 20
136.9433819088763
 10
1982.436359273062
 20
137.729686179579
 10
1982.760402925207
 20
139.0832156219098
 10
1982.851158952669
 20
139.9985124759046
 10
1982.606117678524
 20
140.810778921676
 10
1982.364944694076
 20
141.6204417109219
 10
1981.941069411725
 20
141.8272464292334
 10
1981.233172397533
 20
141.8272464292334
 10
1980.639389929345
 20
141.8272464292334
 10
1980.059890376953
 20
141.5724600406662
 10
1979.398710399847
 20
141.0654909200569
 10
1978.566284213549
 20
140.4276694614944
 10
1978.233164958657
 20
139.9038881587491
 10
1977.824762835085
 20
139.2815398589669
 10
1977.273680333915
 20
138.458263665602
 10
1977.015695167332
 20
137.9040567766015
 10
1976.550310160944
 20
136.687926008631
 10
1976.084776374184
 20
135.4646537827621
 10
1975.644088909695
 20
134.0411231749885
 10
1975.336708659311
 20
133.0564946672286
 10
1975.336708659311
 20
133.0564946672286
 10
1972.205774492298
 20
123.105319426746
 10
1972.205774492298
 20
123.105319426746
 10
1972.205774492298
 20
123.105319426746
 10
1970.338878373326
 20
123.105319426746
 10
1970.338878373326
 20
123.105319426746
 10
1970.338878373326
 20
123.105319426746
 10
1976.718878323425
 20
143.4575073651321
 10
1976.718878323425
 20
143.4575073651321
 97
        1
330
36A9
 92
       16
 93
        1
 72
     4
 94
        3
 73
     0
 74
     1
 95
       29
 96
       25
 40
0.0
 40
0.0
 40
0.0
 40
0.0
 40
1.0
 40
1.0
 40
1.0
 40
2.0
 40
2.0
 40
2.0
 40
3.0
 40
3.0
 40
3.0
 40
4.0
 40
4.0
 40
4.0
 40
5.0
 40
5.0
 40
5.0
 40
6.0
 40
6.0
 40
6.0
 40
7.0
 40
7.0
 40
7.0
 40
8.0
 40
8.0
 40
8.0
 40
8.0
 10
1947.916188375669
 20
126.8949043045264
 10
1947.908303015907
 20
128.3120373562658
 10
1948.355685597176
 20
130.8298476066162
 10
1949.501740809517
 20
134.1986815898748
 10
1951.062744481836
 20
138.7603622127471
 10
1951.998870588036
 20
140.4276694614944
 10
1952.818055321147
 20
141.2392663955878
 10
1954.014844640642
 20
142.4210288974216
 10
1955.623755593032
 20
142.4799459250845
 10
1956.098364982539
 20
142.4210288974216
 10
1956.77382787544
 20
142.3399435941987
 10
1957.727956406759
 20
141.8978427161679
 10
1957.784939289575
 20
140.4095182560024
 10
1957.830466083678
 20
139.1357350935386
 10
1957.463424903768
 20
136.7501905946838
 10
1956.178706383896
 20
133.0053142189559
 10
1954.698044112936
 20
128.6536370924121
 10
1953.808635043822
 20
126.9429603649685
 10
1953.095679496951
 20
126.1974219164366
 10
1951.752490290537
 20
124.7997790935452
 10
1950.311998720255
 20
124.9339789898883
 10
1950.0993915674
 20
124.9339789898883
 10
1949.823255195324
 20
124.9339789898883
 10
1947.920056665365
 20
125.2336226608809
 10
1947.916188375669
 20
126.8949043045264
 97
        1
330
36AB
 75
     0
 76
     1
 98
        1
 10
1859.334883625664
 20
72.26751235270598
1001
ACAD
1010
0.0
1020
0.0
1030
0.0
  0
POLYLINE
  5
369C
102
{ACAD_REACTORS
330
369B
330
36AC
102
}
330
A
100
AcDbEntity
  8
TEMPLATE
100
AcDb2dPolyline
 66
     1
 10
0.0
 20
0.0
 30
0.0
  0
VERTEX
  5
369D
330
369C
100
AcDbEntity
  8
TEMPLATE
100
AcDbVertex
100
AcDb2dVertex
 10
1934.476782902687
 20
153.1053194253001
 30
0.0
  0
VERTEX
  5
369E
330
369C
100
AcDbEntity
  8
TEMPLATE
100
AcDbVertex
100
AcDb2dVertex
 10
1934.476782902687
 20
147.1959117946397
 30
0.0
  0
VERTEX
  5
369F
330
369C
100
AcDbEntity
  8
TEMPLATE
100
AcDbVertex
100
AcDb2dVertex
 10
1925.116191352377
 20
147.1959117946397
 30
0.0
  0
VERTEX
  5
36A0
330
369C
100
AcDbEntity
  8
TEMPLATE
100
AcDbVertex
100
AcDb2dVertex
 10
1925.116191352377
 20
123.105319426746
 30
0.0
  0
VERTEX
  5
36A1
330
369C
100
AcDbEntity
  8
TEMPLATE
100
AcDbVertex
100
AcDb2dVertex
 10
1916.883578199102
 20
123.105319426746
 30
0.0
  0
VERTEX
  5
36A2
330
369C
100
AcDbEntity
  8
TEMPLATE
100
AcDbVertex
100
AcDb2dVertex
 10
1916.883578199102
 20
147.1959117946397
 30
0.0
  0
VERTEX
  5
36A3
330
369C
100
AcDbEntity
  8
TEMPLATE
100
AcDbVertex
100
AcDb2dVertex
 10
1907.688876764557
 20
147.1959117946397
 30
0.0
  0
VERTEX
  5
36A4
330
369C
100
AcDbEntity
  8
TEMPLATE
100
AcDbVertex
100
AcDb2dVertex
 10
1907.688876764557
 20
153.1053194253001
 30
0.0
  0
VERTEX
  5
36A5
330
369C
100
AcDbEntity
  8
TEMPLATE
100
AcDbVertex
100
AcDb2dVertex
 10
1934.476782902687
 20
153.1053194253001
 30
0.0
  0
SEQEND
  5
36A6
330
369C
100
AcDbEntity
  8
TEMPLATE
  0
SPLINE
  5
36A7
102
{ACAD_REACTORS
330
369B
330
36AC
102
}
330
A
100
AcDbEntity
  8
TEMPLATE
100
AcDbSpline
210
0.0
220
0.0
230
1.0
 70
    11
 71
     3
 72
    56
 73
    52
 74
     0
 42
0.000000001
 43
0.0000000001
 40
0.0
 40
0.0
 40
0.0
 40
0.0
 40
1.0
 40
1.0
 40
1.0
 40
2.0
 40
2.0
 40
2.0
 40
3.0
 40
3.0
 40
3.0
 40
4.0
 40
4.0
 40
4.0
 40
5.0
 40
5.0
 40
5.0
 40
6.0
 40
6.0
 40
6.0
 40
7.0
 40
7.0
 40
7.0
 40
8.0
 40
8.0
 40
8.0
 40
9.0
 40
9.0
 40
9.0
 40
10.0
 40
10.0
 40
10.0
 40
11.0
 40
11.0
 40
11.0
 40
12.0
 40
12.0
 40
12.0
 40
13.0
 40
13.0
 40
13.0
 40
14.0
 40
14.0
 40
14.0
 40
15.0
 40
15.0
 40
15.0
 40
16.0
 40
16.0
 40
16.0
 40
17.0
 40
17.0
 40
17.0
 40
17.0
 10
1947.01896833698
 20
152.3909504648878
 30
0.0
 10
1948.1728345189
 20
152.715738018898
 30
0.0
 10
1949.662423612235
 20
152.4440650580081
 30
0.0
 10
1949.662423612235
 20
152.4440650580081
 30
0.0
 10
1949.662423612235
 20
152.4440650580081
 30
0.0
 10
1948.946790018651
 20
150.2964947655846
 30
0.0
 10
1948.946790018651
 20
150.2964947655846
 30
0.0
 10
1948.946790018651
 20
150.2964947655846
 30
0.0
 10
1947.484427733556
 20
150.6348957237139
 30
0.0
 10
1946.356523726704
 20
149.7454866546012
 30
0.0
 10
1945.480058550036
 20
149.0499384113589
 30
0.0
 10
1944.912238256914
 20
147.2017886193686
 30
0.0
 10
1944.69442379101
 20
146.4990989182278
 30
0.0
 10
1944.69442379101
 20
146.4990989182278
 30
0.0
 10
1943.723334297183
 20
143.518432927829
 30
0.0
 10
1943.723334297183
 20
143.518432927829
 30
0.0
 10
1943.723334297183
 20
143.518432927829
 30
0.0
 10
1946.907457447503
 20
143.518432927829
 30
0.0
 10
1946.907457447503
 20
143.518432927829
 30
0.0
 10
1946.907457447503
 20
143.518432927829
 30
0.0
 10
1946.412241976351
 20
141.642461206109
 30
0.0
 10
1946.412241976351
 20
141.642461206109
 30
0.0
 10
1946.412241976351
 20
141.642461206109
 30
0.0
 10
1943.202156650962
 20
141.642461206109
 30
0.0
 10
1943.202156650962
 20
141.642461206109
 30
0.0
 10
1943.202156650962
 20
141.642461206109
 30
0.0
 10
1937.458713526257
 20
123.105319426746
 30
0.0
 10
1937.458713526257
 20
123.105319426746
 30
0.0
 10
1937.458713526257
 20
123.105319426746
 30
0.0
 10
1935.660479549369
 20
123.105319426746
 30
0.0
 10
1935.660479549369
 20
123.105319426746
 30
0.0
 10
1935.660479549369
 20
123.105319426746
 30
0.0
 10
1941.409129987127
 20
141.642461206109
 30
0.0
 10
1941.409129987127
 20
141.642461206109
 30
0.0
 10
1941.409129987127
 20
141.642461206109
 30
0.0
 10
1939.040397670409
 20
141.642461206109
 30
0.0
 10
1939.040397670409
 20
141.642461206109
 30
0.0
 10
1939.040397670409
 20
141.642461206109
 30
0.0
 10
1939.536952164915
 20
143.518432927829
 30
0.0
 10
1939.536952164915
 20
143.518432927829
 30
0.0
 10
1939.536952164915
 20
143.518432927829
 30
0.0
 10
1941.930307633347
 20
143.518432927829
 30
0.0
 10
1941.930307633347
 20
143.518432927829
 30
0.0
 10
1941.930307633347
 20
143.518432927829
 30
0.0
 10
1942.77686795507
 20
146.1179236028939
 30
0.0
 10
1942.77686795507
 20
146.1179236028939
 30
0.0
 10
1943.461406450716
 20
148.2973328951149
 30
0.0
 10
1944.042245026465
 20
149.4674161376772
 30
0.0
 10
1944.540138544327
 20
150.3496093587049
 30
0.0
 10
1945.032750358952
 20
151.232546481597
 30
0.0
 10
1946.007708142475
 20
152.0998616653363
 30
0.0
 10
1947.01896833698
 20
152.3909504648878
 30
0.0
  0
SPLINE
  5
36A8
102
{ACAD_REACTORS
330
369B
330
36AC
102
}
330
A
100
AcDbEntity
  8
TEMPLATE
100
AcDbSpline
210
0.0
220
0.0
230
1.0
 70
    11
 71
     3
 72
    38
 73
    34
 74
     0
 42
0.000000001
 43
0.0000000001
 40
0.0
 40
0.0
 40
0.0
 40
0.0
 40
1.0
 40
1.0
 40
1.0
 40
2.0
 40
2.0
 40
2.0
 40
3.0
 40
3.0
 40
3.0
 40
4.0
 40
4.0
 40
4.0
 40
5.0
 40
5.0
 40
5.0
 40
6.0
 40
6.0
 40
6.0
 40
7.0
 40
7.0
 40
7.0
 40
8.0
 40
8.0
 40
8.0
 40
9.0
 40
9.0
 40
9.0
 40
10.0
 40
10.0
 40
10.0
 40
11.0
 40
11.0
 40
11.0
 40
11.0
 10
1966.542747159137
 20
143.4464976175386
 30
0.0
 10
1966.542747159137
 20
143.4464976175386
 30
0.0
 10
1968.39149207262
 20
143.4464976175386
 30
0.0
 10
1968.39149207262
 20
143.4464976175386
 30
0.0
 10
1968.39149207262
 20
143.4464976175386
 30
0.0
 10
1967.56561222273
 20
140.8022984404216
 30
0.0
 10
1967.56561222273
 20
140.8022984404216
 30
0.0
 10
1968.193167835563
 20
141.54456372075
 30
0.0
 10
1969.183598777865
 20
142.5331349083912
 30
0.0
 10
1970.034176169654
 20
143.0316235477459
 30
0.0
 10
1971.304760554101
 20
143.7738888280742
 30
0.0
 10
1972.030808773784
 20
143.8717863134333
 30
0.0
 10
1972.829313035064
 20
143.8522960845852
 30
0.0
 10
1972.829313035064
 20
143.8522960845852
 30
0.0
 10
1972.048959979278
 20
141.3520419182353
 30
0.0
 10
1972.048959979278
 20
141.3520419182353
 30
0.0
 10
1971.540726225497
 20
141.5672527276151
 30
0.0
 10
1969.974515240128
 20
141.1575859708734
 30
0.0
 10
1969.076030568268
 20
140.5112840310564
 30
0.0
 10
1968.265772657532
 20
139.9285113104618
 30
0.0
 10
1967.705614553615
 20
139.4326263276327
 30
0.0
 10
1967.04190531017
 20
138.1859955832205
 30
0.0
 10
1966.383254599404
 20
136.9375050841474
 30
0.0
 10
1965.86341597654
 20
134.9467493047458
 30
0.0
 10
1964.968799594376
 20
132.058773486655
 30
0.0
 10
1964.968799594376
 20
132.058773486655
 30
0.0
 10
1962.174852971949
 20
123.105319426746
 30
0.0
 10
1962.174852971949
 20
123.105319426746
 30
0.0
 10
1962.174852971949
 20
123.105319426746
 30
0.0
 10
1960.380561674943
 20
123.105319426746
 30
0.0
 10
1960.380561674943
 20
123.105319426746
 30
0.0
 10
1960.380561674943
 20
123.105319426746
 30
0.0
 10
1966.542747159137
 20
143.4464976175386
 30
0.0
 10
1966.542747159137
 20
143.4464976175386
 30
0.0
  0
SPLINE
  5
36A9
102
{ACAD_REACTORS
330
369B
330
36AC
102
}
330
A
100
AcDbEntity
  8
TEMPLATE
100
AcDbSpline
210
0.0
220
0.0
230
1.0
 70
    11
 71
     3
 72
   104
 73
   100
 74
     0
 42
0.000000001
 43
0.0000000001
 40
0.0
 40
0.0
 40
0.0
 40
0.0
 40
1.0
 40
1.0
 40
1.0
 40
2.0
 40
2.0
 40
2.0
 40
3.0
 40
3.0
 40
3.0
 40
4.0
 40
4.0
 40
4.0
 40
5.0
 40
5.0
 40
5.0
 40
6.0
 40
6.0
 40
6.0
 40
7.0
 40
7.0
 40
7.0
 40
8.0
 40
8.0
 40
8.0
 40
9.0
 40
9.0
 40
9.0
 40
10.0
 40
10.0
 40
10.0
 40
11.0
 40
11.0
 40
11.0
 40
12.0
 40
12.0
 40
12.0
 40
13.0
 40
13.0
 40
13.0
 40
14.0
 40
14.0
 40
14.0
 40
15.0
 40
15.0
 40
15.0
 40
16.0
 40
16.0
 40
16.0
 40
17.0
 40
17.0
 40
17.0
 40
18.0
 40
18.0
 40
18.0
 40
19.0
 40
19.0
 40
19.0
 40
20.0
 40
20.0
 40
20.0
 40
21.0
 40
21.0
 40
21.0
 40
22.0
 40
22.0
 40
22.0
 40
23.0
 40
23.0
 40
23.0
 40
24.0
 40
24.0
 40
24.0
 40
25.0
 40
25.0
 40
25.0
 40
26.0
 40
26.0
 40
26.0
 40
27.0
 40
27.0
 40
27.0
 40
28.0
 40
28.0
 40
28.0
 40
29.0
 40
29.0
 40
29.0
 40
30.0
 40
30.0
 40
30.0
 40
31.0
 40
31.0
 40
31.0
 40
32.0
 40
32.0
 40
32.0
 40
33.0
 40
33.0
 40
33.0
 40
33.0
 10
1976.718878323425
 20
143.4575073651321
 30
0.0
 10
1976.718878323425
 20
143.4575073651321
 30
0.0
 10
1978.332996588864
 20
143.4575073651321
 30
0.0
 10
1978.332996588864
 20
143.4575073651321
 30
0.0
 10
1978.332996588864
 20
143.4575073651321
 30
0.0
 10
1977.517531365076
 20
140.810778921676
 30
0.0
 10
1977.517531365076
 20
140.810778921676
 30
0.0
 10
1978.225279598895
 20
141.920531723033
 30
0.0
 10
1978.860571791119
 20
142.4151520726926
 30
0.0
 10
1979.704602846502
 20
143.054312554611
 30
0.0
 10
1980.551163168223
 20
143.6843974337833
 30
0.0
 10
1981.556025806694
 20
143.812794895584
 30
0.0
 10
1982.253508194784
 20
143.812794895584
 30
0.0
 10
1983.117029479015
 20
143.812794895584
 30
0.0
 10
1983.950645908296
 20
143.6422925882567
 30
0.0
 10
1984.388804106443
 20
142.6958262461422
 30
0.0
 10
1984.72460140805
 20
141.9536353560001
 30
0.0
 10
1984.740223347202
 20
141.8660781065566
 30
0.0
 10
1984.644260006691
 20
140.4010377747479
 30
0.0
 10
1985.521915426345
 20
141.9030500292188
 30
0.0
 10
1986.170151511008
 20
142.5500214807137
 30
0.0
 10
1987.272167732975
 20
143.1716258786317
 30
0.0
 10
1988.42863757142
 20
143.812794895584
 30
0.0
 10
1989.102761440966
 20
143.8607765658398
 30
0.0
 10
1989.885941323838
 20
143.7453229964802
 30
0.0
 10
1991.039733115569
 20
143.5748950793392
 30
0.0
 10
1991.776195961356
 20
143.1632197875635
 30
0.0
 10
1992.161239566385
 20
141.9121256319649
 30
0.0
 10
1992.54762219477
 20
140.6648997660613
 30
0.0
 10
1992.338883331611
 20
139.9959088193793
 30
0.0
 10
1991.861744675765
 20
138.0103603530286
 30
0.0
 10
1991.64393020986
 20
137.1060732466272
 30
0.0
 10
1991.328813380087
 20
136.0111240923725
 30
0.0
 10
1990.916542966819
 20
134.7082543670094
 30
0.0
 10
1990.916542966819
 20
134.7082543670094
 30
0.0
 10
1987.272167732975
 20
123.105319426746
 30
0.0
 10
1987.272167732975
 20
123.105319426746
 30
0.0
 10
1987.272167732975
 20
123.105319426746
 30
0.0
 10
1985.376705782409
 20
123.105319426746
 30
0.0
 10
1985.376705782409
 20
123.105319426746
 30
0.0
 10
1985.376705782409
 20
123.105319426746
 30
0.0
 10
1988.567449659321
 20
133.2490164697431
 30
0.0
 10
1988.567449659321
 20
133.2490164697431
 30
0.0
 10
1989.233836949479
 20
135.3713684889626
 30
0.0
 10
1989.684939040069
 20
136.9212880235028
 30
0.0
 10
1989.918375445127
 20
137.893047029008
 30
0.0
 10
1990.211323999339
 20
139.1052351170969
 30
0.0
 10
1990.327967811683
 20
139.505231149601
 30
0.0
 10
1990.189304504152
 20
140.3874987608153
 30
0.0
 10
1990.062246065708
 20
141.2087664191461
 30
0.0
 10
1989.647297605728
 20
141.7435574694851
 30
0.0
 10
1988.936871325198
 20
141.7435574694851
 30
0.0
 10
1988.17972800758
 20
141.7435574694851
 30
0.0
 10
1987.566455310545
 20
141.659273388245
 30
0.0
 10
1986.708290119737
 20
140.7971655175569
 30
0.0
 10
1985.84997614856
 20
139.9285113104618
 30
0.0
 10
1985.140740111011
 20
138.9088450248874
 30
0.0
 10
1984.584599077163
 20
137.7361581257997
 30
0.0
 10
1984.029648286297
 20
136.5563297688134
 30
0.0
 10
1983.466960916042
 20
135.0608638507494
 30
0.0
 10
1982.896536966398
 20
133.2490164697431
 30
0.0
 10
1982.896536966398
 20
133.2490164697431
 30
0.0
 10
1979.704602846502
 20
123.105319426746
 30
0.0
 10
1979.704602846502
 20
123.105319426746
 30
0.0
 10
1979.704602846502
 20
123.105319426746
 30
0.0
 10
1977.921916418581
 20
123.105319426746
 30
0.0
 10
1977.921916418581
 20
123.105319426746
 30
0.0
 10
1977.921916418581
 20
123.105319426746
 30
0.0
 10
1981.571498965475
 20
134.7030470539584
 30
0.0
 10
1981.571498965475
 20
134.7030470539584
 30
0.0
 10
1981.956542570504
 20
135.9373290274211
 30
0.0
 10
1982.245771615394
 20
136.9433819088763
 30
0.0
 10
1982.436359273062
 20
137.729686179579
 30
0.0
 10
1982.760402925207
 20
139.0832156219098
 30
0.0
 10
1982.851158952669
 20
139.9985124759046
 30
0.0
 10
1982.606117678524
 20
140.810778921676
 30
0.0
 10
1982.364944694076
 20
141.6204417109219
 30
0.0
 10
1981.941069411725
 20
141.8272464292334
 30
0.0
 10
1981.233172397533
 20
141.8272464292334
 30
0.0
 10
1980.639389929345
 20
141.8272464292334
 30
0.0
 10
1980.059890376953
 20
141.5724600406662
 30
0.0
 10
1979.398710399847
 20
141.0654909200569
 30
0.0
 10
1978.566284213549
 20
140.4276694614944
 30
0.0
 10
1978.233164958657
 20
139.9038881587491
 30
0.0
 10
1977.824762835085
 20
139.2815398589669
 30
0.0
 10
1977.273680333915
 20
138.458263665602
 30
0.0
 10
1977.015695167332
 20
137.9040567766015
 30
0.0
 10
1976.550310160944
 20
136.687926008631
 30
0.0
 10
1976.084776374184
 20
135.4646537827621
 30
0.0
 10
1975.644088909695
 20
134.0411231749885
 30
0.0
 10
1975.336708659311
 20
133.0564946672286
 30
0.0
 10
1975.336708659311
 20
133.0564946672286
 30
0.0
 10
1972.205774492298
 20
123.105319426746
 30
0.0
 10
1972.205774492298
 20
123.105319426746
 30
0.0
 10
1972.205774492298
 20
123.105319426746
 30
0.0
 10
1970.338878373326
 20
123.105319426746
 30
0.0
 10
1970.338878373326
 20
123.105319426746
 30
0.0
 10
1970.338878373326
 20
123.105319426746
 30
0.0
 10
1976.718878323425
 20
143.4575073651321
 30
0.0
 10
1976.718878323425
 20
143.4575073651321
 30
0.0
  0
SPLINE
  5
36AA
102
{ACAD_REACTORS
330
369B
330
36AC
102
}
330
A
100
AcDbEntity
  8
TEMPLATE
100
AcDbSpline
210
0.0
220
0.0
230
1.0
 70
    11
 71
     3
 72
    32
 73
    28
 74
     0
 42
0.000000001
 43
0.0000000001
 40
0.0
 40
0.0
 40
0.0
 40
0.0
 40
1.0
 40
1.0
 40
1.0
 40
2.0
 40
2.0
 40
2.0
 40
3.0
 40
3.0
 40
3.0
 40
4.0
 40
4.0
 40
4.0
 40
5.0
 40
5.0
 40
5.0
 40
6.0
 40
6.0
 40
6.0
 40
7.0
 40
7.0
 40
7.0
 40
8.0
 40
8.0
 40
8.0
 40
9.0
 40
9.0
 40
9.0
 40
9.0
 10
1951.394524713372
 20
142.3847264864374
 30
0.0
 10
1950.311998720255
 20
140.9844800070205
 30
0.0
 10
1949.478382290974
 20
139.7243102486757
 30
0.0
 10
1948.128795528524
 20
135.7635535518901
 30
0.0
 10
1946.888041608841
 20
132.1406026917421
 30
0.0
 10
1946.098464169936
 20
129.5048096056932
 30
0.0
 10
1945.979216701069
 20
126.2947242803041
 30
0.0
 10
1945.888460673606
 20
123.9059066132458
 30
0.0
 10
1947.343086379314
 20
123.105319426746
 30
0.0
 10
1949.475853024634
 20
123.105319426746
 30
0.0
 10
1950.395018168326
 20
123.105319426746
 30
0.0
 10
1952.714504181618
 20
123.1637901132903
 30
0.0
 10
1954.3662638814
 20
125.2056519507783
 30
0.0
 10
1955.522584939468
 20
126.6401923061455
 30
0.0
 10
1956.588298750451
 20
128.1272521331414
 30
0.0
 10
1958.017036671275
 20
133.0053142189559
 30
0.0
 10
1959.205940631009
 20
137.0833842397621
 30
0.0
 10
1960.029142434186
 20
139.7191029356247
 30
0.0
 10
1959.968291261677
 20
141.2197761667398
 30
0.0
 10
1959.968291261677
 20
141.2197761667398
 30
0.0
 10
1959.968291261677
 20
141.2197761667398
 30
0.0
 10
1959.968291261677
 20
141.2197761667398
 30
0.0
 10
1959.580569609936
 20
143.7233035012931
 30
0.0
 10
1957.762919794387
 20
144.2522921170894
 30
0.0
 10
1956.724432791643
 20
144.2522921170894
 30
0.0
 10
1955.70156772805
 20
144.2522921170894
 30
0.0
 10
1952.960735698745
 20
144.4292663706373
 30
0.0
 10
1951.394524713372
 20
142.3847264864374
 30
0.0
  0
SPLINE
  5
36AB
102
{ACAD_REACTORS
330
369B
330
36AC
102
}
330
A
100
AcDbEntity
  8
TEMPLATE
100
AcDbSpline
210
0.0
220
0.0
230
1.0
 70
    11
 71
     3
 72
    29
 73
    25
 74
     0
 42
0.000000001
 43
0.0000000001
 40
0.0
 40
0.0
 40
0.0
 40
0.0
 40
1.0
 40
1.0
 40
1.0
 40
2.0
 40
2.0
 40
2.0
 40
3.0
 40
3.0
 40
3.0
 40
4.0
 40
4.0
 40
4.0
 40
5.0
 40
5.0
 40
5.0
 40
6.0
 40
6.0
 40
6.0
 40
7.0
 40
7.0
 40
7.0
 40
8.0
 40
8.0
 40
8.0
 40
8.0
 10
1947.916188375669
 20
126.8949043045264
 30
0.0
 10
1947.908303015907
 20
128.3120373562658
 30
0.0
 10
1948.355685597176
 20
130.8298476066162
 30
0.0
 10
1949.501740809517
 20
134.1986815898748
 30
0.0
 10
1951.062744481836
 20
138.7603622127471
 30
0.0
 10
1951.998870588036
 20
140.4276694614944
 30
0.0
 10
1952.818055321147
 20
141.2392663955878
 30
0.0
 10
1954.014844640642
 20
142.4210288974216
 30
0.0
 10
1955.623755593032
 20
142.4799459250845
 30
0.0
 10
1956.098364982539
 20
142.4210288974216
 30
0.0
 10
1956.77382787544
 20
142.3399435941987
 30
0.0
 10
1957.727956406759
 20
141.8978427161679
 30
0.0
 10
1957.784939289575
 20
140.4095182560024
 30
0.0
 10
1957.830466083678
 20
139.1357350935386
 30
0.0
 10
1957.463424903768
 20
136.7501905946838
 30
0.0
 10
1956.178706383896
 20
133.0053142189559
 30
0.0
 10
1954.698044112936
 20
128.6536370924121
 30
0.0
 10
1953.808635043822
 20
126.9429603649685
 30
0.0
 10
1953.095679496951
 20
126.1974219164366
 30
0.0
 10
1951.752490290537
 20
124.7997790935452
 30
0.0
 10
1950.311998720255
 20
124.9339789898883
 30
0.0
 10
1950.0993915674
 20
124.9339789898883
 30
0.0
 10
1949.823255195324
 20
124.9339789898883
 30
0.0
 10
1947.920056665365
 20
125.2336226608809
 30
0.0
 10
1947.916188375669
 20
126.8949043045264
 30
0.0
  0
CIRCLE
  5
3A13
102
{ACAD_REACTORS
330
4B40
102
}
330
A
100
AcDbEntity
  8
MODEL
  6
TRATTEGGIATA
 48
0.3
100
AcDbCircle
 10
482.7963040062818
 20
1094.344959688157
 30
0.0
 40
17.5
  0
CIRCLE
  5
3A14
102
{ACAD_REACTORS
330
4B31
330
4B40
102
}
330
A
100
AcDbEntity
  8
MODEL
  6
TRATTEGGIATA
 48
0.3
100
AcDbCircle
 10
482.7963040062818
 20
994.3449596881567
 30
0.0
 40
16.0
  0
CIRCLE
  5
3A15
102
{ACAD_REACTORS
330
4B5E
102
}
330
A
100
AcDbEntity
  8
MODEL
  6
TRATTEGGIATA
 48
0.3
100
AcDbCircle
 10
482.7963040062818
 20
1194.344988009985
 30
0.0
 40
16.0
  0
LINE
  5
3A16
102
{ACAD_REACTORS
330
4AB8
102
}
330
A
100
AcDbEntity
  8
MODEL
100
AcDbLine
 10
885.6609030365412
 20
498.3982387815956
 30
0.0
 11
885.6609030365385
 21
1690.29168059472
 31
0.0
  0
LINE
  5
3A17
102
{ACAD_REACTORS
330
4AB8
102
}
330
A
100
AcDbEntity
  8
MODEL
100
AcDbLine
 10
415.7947439207615
 20
497.3977818670558
 30
0.0
 11
415.7947439207588
 21
1691.292137509228
 31
0.0
  0
LINE
  5
3A18
330
A
100
AcDbEntity
  8
MODEL
100
AcDbLine
 10
418.7947439207515
 20
1694.291680594719
 30
0.0
 11
881.6609030365385
 21
1694.29168059472
 31
0.0
  0
ARC
  5
3A19
330
A
100
AcDbEntity
  8
MODEL
100
AcDbCircle
 10
881.6609030365385
 20
1690.29168059472
 30
0.0
 40
4.0
100
AcDbArc
 50
0.0
 51
90.0
  0
LINE
  5
3A1A
330
A
100
AcDbEntity
  8
MODEL
100
AcDbLine
 10
881.6609030365421
 20
494.3982387815956
 30
0.0
 11
418.7947439207542
 21
494.3982387815943
 31
0.0
  0
ARC
  5
3A1B
330
A
100
AcDbEntity
  8
MODEL
100
AcDbCircle
 10
881.6609030365412
 20
498.3982387815956
 30
0.0
 40
4.0
100
AcDbArc
 50
270.000000000013
 51
0.0
  0
LINE
  5
3A1C
330
A
100
AcDbEntity
  8
MODEL
100
AcDbLine
 10
1690.923862442114
 20
500.3870502176953
 30
0.0
 11
1690.923862442114
 21
499.3876592688987
 31
0.0
  0
LINE
  5
3A1D
330
A
100
AcDbEntity
  8
MODEL
100
AcDbLine
 10
1687.976219661427
 20
496.3881161834227
 30
0.0
 11
1573.976219661427
 21
494.3982387816002
 31
0.0
  0
LINE
  5
3A1E
330
A
100
AcDbEntity
  8
MODEL
100
AcDbLine
 10
1573.976219661423
 20
1694.291680594725
 30
0.0
 11
1687.976219661423
 21
1692.301803192889
 31
0.0
  0
LINE
  5
3A1F
330
A
100
AcDbEntity
  8
MODEL
100
AcDbLine
 10
1570.923862442114
 20
497.3977818670617
 30
0.0
 11
1570.923862442114
 21
498.3971728158874
 31
0.0
  0
LINE
  5
3A20
330
A
100
AcDbEntity
  8
MODEL
100
AcDbLine
 10
1570.923862442111
 20
1690.292746560438
 30
0.0
 11
1570.923862442111
 21
1691.292137509234
 31
0.0
  0
LINE
  5
3A21
102
{ACAD_REACTORS
330
4B6D
102
}
330
A
100
AcDbEntity
  8
MODEL
100
AcDbLine
 10
1570.923862442114
 20
498.3971728158874
 30
0.0
 11
1570.923862442111
 21
1690.292746560438
 31
0.0
  0
LINE
  5
3A22
102
{ACAD_REACTORS
330
4B6D
330
4CAC
102
}
330
A
100
AcDbEntity
  8
MODEL
100
AcDbLine
 10
1724.923862442113
 20
1063.0939532102
 30
0.0
 11
1724.923862442113
 21
1125.595966166112
 31
0.0
  0
LINE
  5
3A23
330
A
100
AcDbEntity
  8
MODEL
100
AcDbLine
 10
1722.185329670356
 20
1060.105369115926
 30
0.0
 11
1722.185329670356
 21
1128.584550260385
 31
0.0
  0
LINE
  5
3A24
330
A
100
AcDbEntity
  8
MODEL
100
AcDbLine
 10
1722.185329670356
 20
1128.584550260385
 30
0.0
 11
1694.810203706919
 21
1130.979563444774
 31
0.0
  0
LINE
  5
3A25
330
A
100
AcDbEntity
  8
MODEL
100
AcDbLine
 10
1694.810224864377
 20
1057.71035778257
 30
0.0
 11
1722.185329670356
 21
1060.105369115926
 31
0.0
  0
LINE
  5
3A26
330
A
100
AcDbEntity
  8
MODEL
100
AcDbLine
 10
1690.923862442111
 20
1688.302869158631
 30
0.0
 11
1690.923862442114
 21
500.3870502176953
 31
0.0
  0
LINE
  5
3A27
330
A
100
AcDbEntity
  8
MODEL
100
AcDbLine
 10
1690.923862442111
 20
1689.302260107427
 30
0.0
 11
1690.923862442111
 21
1688.302869158631
 31
0.0
  0
ARC
  5
3A28
330
A
100
AcDbEntity
  8
MODEL
100
AcDbCircle
 10
1687.923862442111
 20
1689.302260107427
 30
0.0
 40
3.0
100
AcDbArc
 50
0.0
 51
88.99999999998956
  0
ARC
  5
3A29
330
A
100
AcDbEntity
  8
MODEL
100
AcDbCircle
 10
1687.923862442114
 20
499.3876592688987
 30
0.0
 40
3.0
100
AcDbArc
 50
270.9999999999931
 51
0.0
  0
ARC
  5
3A2A
330
A
100
AcDbEntity
  8
MODEL
100
AcDbCircle
 10
1573.923862442114
 20
497.3977818670617
 30
0.0
 40
3.0
100
AcDbArc
 50
180.0
 51
270.9999999999931
  0
ARC
  5
3A2B
330
A
100
AcDbEntity
  8
MODEL
100
AcDbCircle
 10
1573.923862442111
 20
1691.292137509234
 30
0.0
 40
3.0
100
AcDbArc
 50
88.99999999998956
 51
180.0
  0
ARC
  5
3A2C
330
A
100
AcDbEntity
  8
MODEL
100
AcDbCircle
 10
1721.923862442113
 20
1063.0939532102
 30
0.0
 40
3.0
100
AcDbArc
 50
274.9999999999912
 51
0.0
  0
ARC
  5
3A2D
330
A
100
AcDbEntity
  8
MODEL
100
AcDbCircle
 10
1721.923862442113
 20
1125.595966166112
 30
0.0
 40
3.0
100
AcDbArc
 50
0.0
 51
85.00000000000882
  0
ELLIPSE
  5
3A2E
102
{ACAD_REACTORS
330
4AC7
102
}
330
A
100
AcDbEntity
  8
MODEL
100
AcDbEllipse
 10
418.7947439207515
 20
1691.292137509228
 30
0.0
 11
-3.0
 21
-8.476042572204118E-15
 31
0.0
210
0.0
220
0.0
230
1.0
 40
0.999847695156391
 41
4.712388980384687
 42
6.283185307179586
  0
ELLIPSE
  5
3A2F
102
{ACAD_REACTORS
330
4AC7
102
}
330
A
100
AcDbEntity
  8
MODEL
100
AcDbEllipse
 10
418.7947439207542
 20
497.3977818670558
 30
0.0
 11
-3.0
 21
-8.476042572204118E-15
 31
0.0
210
0.0
220
0.0
230
1.0
 40
0.999847695156391
 41
0.0
 42
1.570796326794894
  0
SPLINE
  5
3A30
330
A
100
AcDbEntity
  8
MODEL
100
AcDbSpline
210
0.0
220
0.0
230
1.0
 70
     8
 71
     3
 72
    33
 73
    29
 74
     0
 42
0.000000001
 43
0.0000000001
 40
0.0
 40
0.0
 40
0.0
 40
0.0
 40
0.0625
 40
0.125
 40
0.1875
 40
0.25
 40
0.3125
 40
0.34375
 40
0.375
 40
0.40625
 40
0.4375
 40
0.46875
 40
0.5
 40
0.515625
 40
0.53125
 40
0.546875
 40
0.5625
 40
0.59375
 40
0.625
 40
0.65625
 40
0.6875
 40
0.71875
 40
0.75
 40
0.78125
 40
0.8125
 40
0.875
 40
0.9375
 40
1.0
 40
1.0
 40
1.0
 40
1.0
 10
882.2951603673459
 20
1333.704682292307
 30
0.0
 10
882.2521581041251
 20
1335.82606796372
 30
0.0
 10
882.1450875531332
 20
1340.020991088971
 30
0.0
 10
881.9312117019904
 20
1346.311786749855
 30
0.0
 10
881.6579215236948
 20
1652.600299219357
 30
0.0
 10
881.3002576289241
 20
1658.884679549246
 30
0.0
 10
880.8857941736883
 20
1664.114297563868
 30
0.0
 10
880.4219236668237
 20
1668.285172704756
 30
0.0
 10
879.9790457206132
 20
1671.401570307196
 30
0.0
 10
879.3989901566333
 20
1674.495897614546
 30
0.0
 10
878.6156022892051
 20
1677.546644434176
 30
0.0
 10
877.5260381102803
 20
1680.505862615366
 30
0.0
 10
876.2376941707503
 20
1682.80428346548
 30
0.0
 10
874.9160916450733
 20
1684.439144244057
 30
0.0
 10
873.7815171610296
 20
1685.534019442933
 30
0.0
 10
872.519372804682
 20
1686.478688991748
 30
0.0
 10
870.7020204887253
 20
1687.534109901335
 30
0.0
 10
868.253172766696
 20
1688.498489303474
 30
0.0
 10
865.1941573847166
 20
1689.255490106126
 30
0.0
 10
862.085842495299
 20
1689.758782315551
 30
0.0
 10
858.956838618697
 20
1690.101971576706
 30
0.0
 10
855.8186685075948
 20
1690.343501141472
 30
0.0
 10
852.6763301493288
 20
1690.520002521054
 30
0.0
 10
849.5320642942484
 20
1690.655685830413
 30
0.0
 10
845.338196016552
 20
1690.799408805196
 30
0.0
 10
840.0947384370324
 20
1690.939128241708
 30
0.0
 10
833.8018378265283
 20
1691.076037635841
 30
0.0
 10
829.6061669813666
 20
1691.147138484378
 30
0.0
 10
827.5082015386238
 20
1691.172983110027
 30
0.0
  0
SPLINE
  5
3A31
330
A
100
AcDbEntity
  8
MODEL
100
AcDbSpline
210
0.0
220
0.0
230
1.0
 70
     8
 71
     3
 72
    33
 73
    29
 74
     0
 42
0.000000001
 43
0.0000000001
 40
0.0
 40
0.0
 40
0.0
 40
0.0
 40
0.0625
 40
0.125
 40
0.1875
 40
0.21875
 40
0.25
 40
0.28125
 40
0.3125
 40
0.34375
 40
0.375
 40
0.40625
 40
0.4375
 40
0.453125
 40
0.46875
 40
0.484375
 40
0.5
 40
0.53125
 40
0.5625
 40
0.59375
 40
0.625
 40
0.65625
 40
0.6875
 40
0.75
 40
0.8125
 40
0.875
 40
0.9375
 40
1.0
 40
1.0
 40
1.0
 40
1.0
 10
827.5082015386265
 20
497.5169362662593
 30
0.0
 10
829.6061669813694
 20
497.5427808919223
 30
0.0
 10
833.801837826531
 20
497.6138817404601
 30
0.0
 10
840.0947384370352
 20
497.7507911346067
 30
0.0
 10
845.3381960165548
 20
497.8905105711194
 30
0.0
 10
849.5320642942511
 20
498.034233545902
 30
0.0
 10
852.6763301493315
 20
498.1699168552616
 30
0.0
 10
855.8186685075975
 20
498.3464182348428
 30
0.0
 10
858.9568386186997
 20
498.5879477996089
 30
0.0
 10
862.0858424953017
 20
498.931137060735
 30
0.0
 10
865.1941573847193
 20
499.4344292701751
 30
0.0
 10
868.2531727666988
 20
500.1914300728129
 30
0.0
 10
870.7020204887281
 20
501.1558094749814
 30
0.0
 10
872.5193728046847
 20
502.2112303845531
 30
0.0
 10
873.7815171610323
 20
503.1558999333536
 30
0.0
 10
874.916091645076
 20
504.2507751322589
 30
0.0
 10
876.237694170753
 20
505.8856359108356
 30
0.0
 10
877.526038110283
 20
508.1840567609504
 30
0.0
 10
878.6156022892078
 20
511.1432749421399
 30
0.0
 10
879.398990156636
 20
514.1940217617555
 30
0.0
 10
879.9790457206159
 20
517.2883490691054
 30
0.0
 10
880.4219236668264
 20
520.4047466715454
 30
0.0
 10
880.885794173691
 20
524.5756218124477
 30
0.0
 10
881.3002576289268
 20
529.80523982707
 30
0.0
 10
881.6579215236975
 20
836.0896201569592
 30
0.0
 10
881.9312117019922
 20
842.3781326264614
 30
0.0
 10
882.145087553135
 20
848.6689282873301
 30
0.0
 10
882.2521581041269
 20
852.8638514125957
 30
0.0
 10
882.2951603673478
 20
854.9615341831702
 30
0.0
  0
SPLINE
  5
3A32
330
A
100
AcDbEntity
  8
MODEL
100
AcDbSpline
210
0.0
220
0.0
230
1.0
 70
     8
 71
     3
 72
    12
 73
     8
 74
     0
 42
0.000000001
 43
0.0000000001
 40
0.0
 40
0.0
 40
0.0
 40
0.0
 40
0.3302631184266158
 40
0.3302631184266158
 40
0.665131559213308
 40
0.665131559213308
 40
1.0
 40
1.0
 40
1.0
 40
1.0
 10
1690.849433266682
 20
1056.244864952759
 30
0.0
 10
1691.231952646282
 20
1056.518810166651
 30
0.0
 10
1691.638692383407
 20
1056.758923772993
 30
0.0
 10
1692.493940770917
 20
1057.166857074343
 30
0.0
 10
1692.942938096247
 20
1057.333614983284
 30
0.0
 10
1693.863456276478
 20
1057.584577395342
 30
0.0
 10
1694.3349614412
 20
1057.668777620865
 30
0.0
 10
1694.8102037028
 20
1057.710355931188
 30
0.0
  0
SPLINE
  5
3A33
330
A
100
AcDbEntity
  8
MODEL
100
AcDbSpline
210
0.0
220
0.0
230
1.0
 70
     8
 71
     3
 72
    12
 73
     8
 74
     0
 42
0.000000001
 43
0.0000000001
 40
0.0
 40
0.0
 40
0.0
 40
0.0
 40
0.3302636013218004
 40
0.3302636013218004
 40
0.6651318006609002
 40
0.6651318006609002
 40
1.0
 40
1.0
 40
1.0
 40
1.0
 10
1690.849446298162
 20
1132.445058394668
 30
0.0
 10
1691.231966789434
 20
1132.171111660727
 30
0.0
 10
1691.638707865561
 20
1131.930996762801
 30
0.0
 10
1692.493958328392
 20
1131.523061863519
 30
0.0
 10
1692.942956313899
 20
1131.356303487433
 30
0.0
 10
1693.863475911574
 20
1131.105340402538
 30
0.0
 10
1694.334981833454
 20
1131.021139971353
 30
0.0
 10
1694.810224864377
 20
1130.979561593727
 30
0.0
  0
LINE
  5
3A34
330
A
100
AcDbEntity
  8
MODEL
100
AcDbLine
 10
540.810013921749
 20
517.3971515098804
 30
0.0
 11
540.7925563576132
 21
1671.291507152053
 31
0.0
  0
ARC
  5
3A35
330
A
100
AcDbEntity
  8
MODEL
100
AcDbCircle
 10
560.8100139118155
 20
517.3977818670562
 30
0.0
 40
20.0
100
AcDbArc
 50
180.001805840278
 51
270.0
  0
LINE
  5
3A36
330
A
100
AcDbEntity
  8
MODEL
100
AcDbLine
 10
827.5082015386265
 20
497.5169362662593
 30
0.0
 11
560.5644678154472
 21
497.3992892459962
 31
0.0
  0
LINE
  5
3A37
330
A
100
AcDbEntity
  8
MODEL
100
AcDbLine
 10
560.547017903496
 20
1691.290630224243
 30
0.0
 11
827.5082015386247
 21
1691.172983110027
 31
0.0
  0
ARC
  5
3A38
330
A
100
AcDbEntity
  8
MODEL
100
AcDbCircle
 10
560.7925563476797
 20
1671.292137509229
 30
0.0
 40
20.0
100
AcDbArc
 50
90.0
 51
180.001805840278
  0
LINE
  5
3A39
330
A
100
AcDbEntity
  8
MODEL
100
AcDbLine
 10
882.2951603673478
 20
854.9615341831702
 30
0.0
 11
882.2951603673459
 21
1333.704682292307
 31
0.0
  0
ELLIPSE
  5
3A3A
330
A
100
AcDbEntity
  8
MODEL
100
AcDbEllipse
 10
543.8633883630878
 20
1094.344314140045
 30
0.0
 11
3.390417028881647E-14
 21
-12.0
 31
0.0
210
0.0
220
0.0
230
1.0
 40
0.0874886635259221
 41
0.0
 42
6.283185307179586
  0
ARC
  5
3A3B
330
A
100
AcDbEntity
  8
MODEL
100
AcDbCircle
 10
625.7947439207605
 20
1094.344959688157
 30
0.0
 40
22.5
100
AcDbArc
 50
179.9999999997869
 51
359.9999999993701
  0
ARC
  5
3A3C
330
A
100
AcDbEntity
  8
MODEL
100
AcDbCircle
 10
625.7947439207605
 20
1094.344959688157
 30
0.0
 40
37.5
100
AcDbArc
 50
179.9999999997888
 51
359.9999999993719
  0
ARC
  5
3A3D
330
A
100
AcDbEntity
  8
MODEL
100
AcDbCircle
 10
625.7947439207605
 20
1094.344959688157
 30
0.0
 40
22.5
100
AcDbArc
 50
0.0000000002038088
 51
179.9999999997869
  0
ARC
  5
3A3E
330
A
100
AcDbEntity
  8
MODEL
100
AcDbCircle
 10
625.7947439207605
 20
1094.344959688157
 30
0.0
 40
37.5
100
AcDbArc
 50
0.0000000002056616
 51
179.9999999997888
  0
LINE
  5
3A6B
330
A
100
AcDbEntity
  8
quote
100
AcDbLine
 10
415.7947439207597
 20
1341.177169221739
 30
0.0
 11
415.7947439207597
 21
1341.177169221739
 31
0.0
  0
CIRCLE
  5
3AF7
102
{ACAD_REACTORS
330
4B31
102
}
330
A
100
AcDbEntity
  8
MODEL
  6
TRATTEGGIATA
 48
0.3
100
AcDbCircle
 10
482.7963040062818
 20
794.344959688153
 30
0.0
 40
16.0
  0
CIRCLE
  5
3AF8
102
{ACAD_REACTORS
330
4B5E
102
}
330
A
100
AcDbEntity
  8
MODEL
  6
TRATTEGGIATA
 48
0.3
100
AcDbCircle
 10
482.7963040062809
 20
1394.344988009989
 30
0.0
 40
16.0
  0
CIRCLE
  5
4A16
330
A
100
AcDbEntity
  8
HIDDEN
 48
0.3
100
AcDbCircle
 10
482.0916625685229
 20
2272.663083221387
 30
0.0
 40
17.5
  0
CIRCLE
  5
4A17
330
A
100
AcDbEntity
  8
HIDDEN
 48
0.3
100
AcDbCircle
 10
482.0916625685229
 20
2172.663083221387
 30
0.0
 40
16.0
  0
CIRCLE
  5
4A18
330
A
100
AcDbEntity
  8
HIDDEN
 48
0.3
100
AcDbCircle
 10
482.0916625685229
 20
2372.663111543216
 30
0.0
 40
16.0
  0
ARC
  5
4A2A
330
A
100
AcDbEntity
  8
HIDDEN
 48
0.5
100
AcDbCircle
 10
625.0901024830007
 20
2272.663083221387
 30
0.0
 40
22.5
100
AcDbArc
 50
179.9999999997869
 51
359.9999999993723
  0
ARC
  5
4A2B
330
A
100
AcDbEntity
  8
HIDDEN
 48
0.5
100
AcDbCircle
 10
625.0901024830007
 20
2272.663083221387
 30
0.0
 40
37.5
100
AcDbArc
 50
179.9999999997888
 51
359.9999999993733
  0
ARC
  5
4A2C
330
A
100
AcDbEntity
  8
HIDDEN
 48
0.5
100
AcDbCircle
 10
625.0901024830007
 20
2272.663083221387
 30
0.0
 40
22.5
100
AcDbArc
 50
0.0000000002061248
 51
179.9999999997869
  0
ARC
  5
4A2D
330
A
100
AcDbEntity
  8
HIDDEN
 48
0.5
100
AcDbCircle
 10
625.0901024830007
 20
2272.663083221387
 30
0.0
 40
37.5
100
AcDbArc
 50
0.0000000002070512
 51
179.9999999997888
  0
LINE
  5
4A37
102
{ACAD_REACTORS
330
4D95
330
4EC4
102
}
330
A
100
AcDbEntity
  8
MODEL
100
AcDbLine
 10
445.7947439207567
 20
2627.663083221369
 30
0.0
 11
715.0901024830016
 21
2627.66308322137
 31
0.0
  0
CIRCLE
  5
4A3C
330
A
100
AcDbEntity
  8
HIDDEN
 48
0.3
100
AcDbCircle
 10
482.0916625685229
 20
1972.663083221383
 30
0.0
 40
16.0
  0
CIRCLE
  5
4A3D
330
A
100
AcDbEntity
  8
HIDDEN
 48
0.3
100
AcDbCircle
 10
482.091662568522
 20
2572.663111543219
 30
0.0
 40
16.0
  0
MTEXT
  5
4A9C
330
A
100
AcDbEntity
  8
notes
 62
     7
390
1D
100
AcDbMText
 10
202.9278525516624
 20
2118.399552982452
 30
0.0
 40
24.4326171875
 41
0.0
 46
0.0
 71
     1
 72
     1
  1
カウンター切込寸法
  7
ＭＳ ゴシック
 11
0.0
 21
1.0
 31
0.0
 73
     1
 44
0.7828267384257843
  0
LINE
  5
4AA1
102
{ACAD_REACTORS
330
4ED7
102
}
330
A
100
AcDbEntity
  8
ADF70-0001
  6
Continuous
 62
     7
370
     5
390
1D
100
AcDbLine
 10
415.7947439207567
 20
1872.196354650701
 30
0.0
 11
415.7947439207567
 21
2797.571645015541
 31
0.0
  0
LINE
  5
4AA2
330
A
100
AcDbEntity
  8
ADF70-0001
  6
Continuous
 62
     7
370
    15
390
1D
100
AcDbLine
 10
415.1039411470619
 20
2716.361077658493
 30
0.0
 11
378.1039411470619
 21
2753.361077658493
 31
0.0
  0
LINE
  5
4AA3
330
A
100
AcDbEntity
  8
ADF70-0001
  6
Continuous
 62
     7
370
    15
390
1D
100
AcDbLine
 10
415.1039411470619
 20
2736.361077658493
 30
0.0
 11
378.1039411470619
 21
2773.361077658493
 31
0.0
  0
LINE
  5
4AA4
330
A
100
AcDbEntity
  8
ADF70-0001
  6
Continuous
 62
     7
370
    15
390
1D
100
AcDbLine
 10
415.1039411470619
 20
2756.361077658493
 30
0.0
 11
378.1039411470619
 21
2793.361077658493
 31
0.0
  0
DIMENSION
  5
4AB6
102
{ACAD_REACTORS
330
4AB8
102
}
102
{ACAD_XDICTIONARY
360
4AB7
102
}
330
A
100
AcDbEntity
  8
DIM
100
AcDbDimension
  2
*D4
 10
885.6609030365385
 20
1776.892950658857
 30
0.0
 11
650.7278234786486
 21
1808.897452346991
 31
0.0
 70
    32
 71
     5
 42
469.8661591157797
 73
     0
 74
     0
 75
     0
  3
tfrom線あり
100
AcDbAlignedDimension
 13
415.7947439207588
 23
1691.292137509228
 33
0.0
 14
885.6609030365385
 24
1690.29168059472
 34
0.0
100
AcDbRotatedDimension
  0
DIMENSION
  5
4AC5
102
{ACAD_REACTORS
330
4AC7
102
}
102
{ACAD_XDICTIONARY
360
4AC6
102
}
330
A
100
AcDbEntity
  8
DIM
100
AcDbDimension
  2
*D5
 10
225.2164223719678
 20
1694.291680594698
 30
0.0
 11
225.2164223719678
 21
1094.344959688142
 31
0.0
 70
   160
 71
     5
 42
1199.893441813111
 73
     0
 74
     0
 75
     0
  3
tfrom線あり
100
AcDbAlignedDimension
 13
418.7947439207542
 23
494.3982387815866
 33
0.0
 14
418.7947439207515
 24
1694.291680594698
 34
0.0
 50
90.0
100
AcDbRotatedDimension
  0
DIMENSION
  5
4AD4
330
A
100
AcDbEntity
  8
DIM
100
AcDbDimension
  2
*D6
 10
1012.378319594845
 20
498.3982387815956
 30
0.0
 11
980.373817906712
 21
1094.753531171765
 31
0.0
 70
    32
  1
1190
 71
     5
 42
1192.710584780338
 73
     0
 74
     0
 75
     0
  3
tfrom線あり
100
AcDbAlignedDimension
 13
885.5765482414995
 23
1691.108823561934
 33
0.0
 14
885.6609030365412
 24
498.3982387815956
 34
0.0
 50
90.0
100
AcDbRotatedDimension
  0
MTEXT
  5
4B0F
330
A
100
AcDbEntity
  8
notes
 62
     7
390
1D
100
AcDbMText
 10
1087.440386551072
 20
700.0845657013119
 30
0.0
 40
24.4326171875
 41
842.8831565639147
 46
0.0
 71
     1
 72
     1
  1
＝φ30もしくはφ35の水栓取付用穴あけ加工を承ります。\P   必要な場合、ご注文の際にご指示ください。
  7
ＭＳ ゴシック
 11
0.0
 21
1.0
 31
0.0
 73
     1
 44
1.043768984567712
  0
CIRCLE
  5
4B10
330
A
100
AcDbEntity
  8
notes
  6
STYLE_23
 62
     7
370
    15
390
1D
100
AcDbCircle
 10
1099.98473065297
 20
675.6220965227672
 30
0.0
 40
17.50000000000011
  0
DIMENSION
  5
4B11
330
A
100
AcDbEntity
  8
DIM
100
AcDbDimension
  2
*D7
 10
540.8097110468675
 20
415.0070921908266
 30
0.0
 11
478.7415673120311
 21
447.0115938789597
 31
0.0
 70
    32
  1
125
 71
     5
 42
124.1362874696729
 73
     0
 74
     0
 75
     0
  3
tfrom線あり
100
AcDbAlignedDimension
 13
416.6734235771946
 23
495.2767846108593
 33
0.0
 14
540.8097110468675
 24
494.3982387815946
 34
0.0
100
AcDbRotatedDimension
  0
DIMENSION
  5
4B20
330
A
100
AcDbEntity
  8
DIM
100
AcDbDimension
  2
*D8
 10
880.2795417402533
 20
415.0070921908266
 30
0.0
 11
710.5446263935604
 21
447.0115938789597
 31
0.0
 70
    32
  1
340
 71
     5
 42
339.4698306933858
 73
     0
 74
     0
 75
     0
  3
tfrom線あり
100
AcDbAlignedDimension
 13
540.8097110468675
 23
494.3982387815946
 33
0.0
 14
880.2795417402533
 24
494.3982387815956
 34
0.0
100
AcDbRotatedDimension
  0
DIMENSION
  5
4B2F
102
{ACAD_REACTORS
330
4B31
102
}
102
{ACAD_XDICTIONARY
360
4B30
102
}
330
A
100
AcDbEntity
  8
DIM
100
AcDbDimension
  2
*D9
 10
342.7289969026651
 20
994.3449596881567
 30
0.0
 11
310.7244952145321
 21
894.3449596881549
 31
0.0
 70
    32
 71
     5
 42
200.0000000000036
 73
     0
 74
     0
 75
     0
  3
tfrom線あり
100
AcDbAlignedDimension
 13
482.7963040062818
 23
794.344959688153
 33
0.0
 14
482.7963040062818
 24
994.3449596881567
 34
0.0
 50
90.0
100
AcDbRotatedDimension
  0
DIMENSION
  5
4B3E
102
{ACAD_REACTORS
330
4B40
102
}
102
{ACAD_XDICTIONARY
360
4B3F
102
}
330
A
100
AcDbEntity
  8
DIM
100
AcDbDimension
  2
*D10
 10
342.7289969026651
 20
1094.344959688157
 30
0.0
 11
310.7244952145319
 21
1044.344959688157
 31
0.0
 70
    32
 71
     5
 42
100.0
 73
     0
 74
     0
 75
     0
  3
tfrom線あり
100
AcDbAlignedDimension
 13
482.7963040062818
 23
994.3449596881567
 33
0.0
 14
482.7963040062818
 24
1094.344959688157
 34
0.0
 50
90.0
100
AcDbRotatedDimension
  0
DIMENSION
  5
4B4D
102
{ACAD_XDICTIONARY
360
4B4E
102
}
330
A
100
AcDbEntity
  8
DIM
100
AcDbDimension
  2
*D11
 10
342.7289969026651
 20
1094.344959688157
 30
0.0
 11
310.7244952145319
 21
1144.344959688157
 31
0.0
 70
    32
 71
     5
 42
100.0
 73
     0
 74
     0
 75
     0
 52
-90.0
  3
tfrom線あり
100
AcDbAlignedDimension
 13
482.7963040062818
 23
1194.344959688157
 33
0.0
 14
482.7963040062818
 24
1094.344959688157
 34
0.0
 50
-90.0
100
AcDbRotatedDimension
  0
DIMENSION
  5
4B5C
102
{ACAD_REACTORS
330
4B5E
102
}
102
{ACAD_XDICTIONARY
360
4B5D
102
}
330
A
100
AcDbEntity
  8
DIM
100
AcDbDimension
  2
*D12
 10
342.7289969026651
 20
1394.344988009989
 30
0.0
 11
310.7244952145319
 21
1294.344988009987
 31
0.0
 70
    32
 71
     5
 42
200.0000000000036
 73
     0
 74
     0
 75
     0
  3
tfrom線あり
100
AcDbAlignedDimension
 13
482.7963040062818
 23
1194.344988009985
 33
0.0
 14
482.7963040062809
 24
1394.344988009989
 34
0.0
 50
90.0
100
AcDbRotatedDimension
  0
DIMENSION
  5
4B6B
102
{ACAD_REACTORS
330
4B6D
102
}
102
{ACAD_XDICTIONARY
360
4B6C
102
}
330
A
100
AcDbEntity
  8
DIM
100
AcDbDimension
  2
*D13
 10
1724.923862442113
 20
1776.892950658858
 30
0.0
 11
1647.923862442112
 21
1808.897452346991
 31
0.0
 70
    32
 71
     5
 42
154.0000000000018
 73
     0
 74
     0
 75
     0
  3
tfrom線あり
100
AcDbAlignedDimension
 13
1570.923862442111
 23
1690.292746560438
 33
0.0
 14
1724.923862442113
 24
1118.04862274909
 34
0.0
100
AcDbRotatedDimension
  0
CIRCLE
  5
4BE1
330
A
100
AcDbEntity
  8
ADF70-0001
  6
STYLE_23
 62
     7
370
    15
390
1D
100
AcDbCircle
 10
1615.892782511157
 20
954.5688045083308
 30
0.0
 40
10.0
  0
LINE
  5
4BE4
102
{ACAD_REACTORS
330
4C7F
330
4C9D
102
}
330
A
100
AcDbEntity
  8
ADF70-0001
  6
STYLE_23
 62
     7
370
    15
390
1D
100
AcDbLine
 10
1615.923862442113
 20
1219.344959688154
 30
0.0
 11
1615.923862442113
 21
1249.344959688153
 31
0.0
  0
CIRCLE
  5
4BE5
330
A
100
AcDbEntity
  8
ADF70-0001
  6
STYLE_23
 62
     7
370
    15
390
1D
100
AcDbCircle
 10
1615.892782511158
 20
1234.56880450833
 30
0.0
 40
10.0
  0
CIRCLE
  5
4BE7
330
A
100
AcDbEntity
  8
ADF70-0001
  6
STYLE_23
 62
     7
370
    15
390
1D
100
AcDbCircle
 10
1615.892782511158
 20
1434.56880450833
 30
0.0
 40
10.0
  0
LINE
  5
4C46
102
{ACAD_REACTORS
330
4C7F
330
4C8E
102
}
330
A
100
AcDbEntity
  8
0
  6
STYLE_23
 62
     7
370
    15
390
1D
100
AcDbLine
 10
1600.923862442114
 20
954.3449596881537
 30
0.0
 11
1630.923862442113
 21
954.3449596881537
 31
0.0
  0
LINE
  5
4C48
330
A
100
AcDbEntity
  8
0
  6
STYLE_23
 62
     7
370
    15
390
1D
100
AcDbLine
 10
1600.923862442114
 20
1234.344959688156
 30
0.0
 11
1630.923862442113
 21
1234.344959688156
 31
0.0
  0
LINE
  5
4C49
102
{ACAD_REACTORS
330
4C9D
102
}
330
A
100
AcDbEntity
  8
0
  6
STYLE_23
 62
     7
370
    15
390
1D
100
AcDbLine
 10
1600.923862442114
 20
1434.344959688156
 30
0.0
 11
1630.923862442114
 21
1434.344959688156
 31
0.0
  0
CIRCLE
  5
4C79
330
A
100
AcDbEntity
  8
ADF70-0001
  6
STYLE_23
 62
     7
370
    15
390
1D
100
AcDbCircle
 10
1615.892782511157
 20
754.5688045083284
 30
0.0
 40
10.0
  0
LINE
  5
4C7A
102
{ACAD_REACTORS
330
4C8E
102
}
330
A
100
AcDbEntity
  8
0
  6
STYLE_23
 62
     7
370
    15
390
1D
100
AcDbLine
 10
1600.923862442114
 20
754.3449596881537
 30
0.0
 11
1630.923862442113
 21
754.3449596881537
 31
0.0
  0
DIMENSION
  5
4C7D
102
{ACAD_REACTORS
330
4C7F
102
}
102
{ACAD_XDICTIONARY
360
4C7E
102
}
330
A
100
AcDbEntity
  8
DIM
100
AcDbDimension
  2
*D14
 10
1487.951339386306
 20
1234.344959688154
 30
0.0
 11
1455.946837698172
 21
1094.344959688154
 31
0.0
 70
    32
 71
     5
 42
280.0
 73
     0
 74
     0
 75
     0
  3
tfrom線あり
100
AcDbAlignedDimension
 13
1615.923862442113
 23
954.3449596881537
 33
0.0
 14
1615.923862442113
 24
1234.344959688154
 34
0.0
 50
90.0
100
AcDbRotatedDimension
  0
DIMENSION
  5
4C8C
102
{ACAD_REACTORS
330
4C8E
102
}
102
{ACAD_XDICTIONARY
360
4C8D
102
}
330
A
100
AcDbEntity
  8
DIM
100
AcDbDimension
  2
*D15
 10
1487.951339386306
 20
954.3449596881537
 30
0.0
 11
1455.946837698173
 21
854.3449596881537
 31
0.0
 70
    32
 71
     5
 42
200.0
 73
     0
 74
     0
 75
     0
  3
tfrom線あり
100
AcDbAlignedDimension
 13
1615.923862442113
 23
754.3449596881537
 33
0.0
 14
1615.923862442113
 24
954.3449596881537
 34
0.0
 50
90.0
100
AcDbRotatedDimension
  0
DIMENSION
  5
4C9B
102
{ACAD_REACTORS
330
4C9D
102
}
102
{ACAD_XDICTIONARY
360
4C9C
102
}
330
A
100
AcDbEntity
  8
DIM
100
AcDbDimension
  2
*D16
 10
1487.951339386306
 20
1434.344959688156
 30
0.0
 11
1455.946837698172
 21
1334.344959688155
 31
0.0
 70
    32
 71
     5
 42
200.000000000002
 73
     0
 74
     0
 75
     0
  3
tfrom線あり
100
AcDbAlignedDimension
 13
1615.923862442113
 23
1234.344959688154
 33
0.0
 14
1615.923862442114
 24
1434.344959688156
 34
0.0
 50
90.0
100
AcDbRotatedDimension
  0
DIMENSION
  5
4CAA
102
{ACAD_REACTORS
330
4CAC
102
}
102
{ACAD_XDICTIONARY
360
4CAB
102
}
330
A
100
AcDbEntity
  8
DIM
100
AcDbDimension
  2
*D17
 10
1836.511944760028
 20
1094.344959688156
 30
0.0
 11
1804.511944760028
 21
794.4324247380006
 31
0.0
 70
    32
 71
     5
 42
599.8250699003104
 73
     0
 74
     0
 75
     0
  3
tfrom線あり
100
AcDbAlignedDimension
 13
1690.084689425819
 23
494.5198897878454
 33
0.0
 14
1724.923862442113
 24
1094.344959688156
 34
0.0
 50
90.0
100
AcDbRotatedDimension
  0
MTEXT
  5
4CE4
330
A
100
AcDbEntity
  8
notes
 62
     7
390
1D
100
AcDbMText
 10
1486.484395580269
 20
1515.813117125853
 30
0.0
 40
24.4326171875
 41
0.0
 46
0.0
 71
     1
 72
     1
  1
壁取付ボルト穴(4ヶ所）
  7
ＭＳ ゴシック
 11
0.0
 21
1.0
 31
0.0
 73
     1
 44
0.7828267384257843
  0
LINE
  5
4CE5
330
A
100
AcDbEntity
  8
notes
  6
Continuous
 62
     7
370
     5
390
1D
100
AcDbLine
 10
1615.923862442114
 20
1434.344959688156
 30
0.0
 11
1518.587820688309
 21
1531.681001441961
 31
0.0
  0
LINE
  5
4CE6
330
A
100
AcDbEntity
  8
MODEL
100
AcDbLine
 10
1643.962111348883
 20
2509.039387869909
 30
0.0
 11
1574.148881922066
 21
2509.121631229021
 31
0.0
  0
LINE
  5
4CE7
330
A
100
AcDbEntity
  8
MODEL
100
AcDbLine
 10
1571.14534986119
 20
2506.125167453293
 30
0.0
 11
1571.005945989987
 21
2387.790574261447
 31
0.0
  0
LINE
  5
4CE8
330
A
100
AcDbEntity
  8
MODEL
100
AcDbLine
 10
1694.679892620891
 20
2262.339205087314
 30
0.0
 11
1722.122520427086
 21
2264.707551079904
 31
0.0
  0
LINE
  5
4CE9
330
A
100
AcDbEntity
  8
MODEL
100
AcDbLine
 10
1724.864571992664
 20
2267.692906978655
 30
0.0
 11
1724.875470117937
 21
2276.943907037339
 31
0.0
  0
LINE
  5
4CEA
330
A
100
AcDbEntity
  8
MODEL
100
AcDbLine
 10
1570.598971419726
 20
2042.325489283288
 30
0.0
 11
1570.598925876852
 21
2042.286829685954
 31
0.0
  0
LINE
  5
4CEB
102
{ACAD_REACTORS
330
4D59
102
}
330
A
100
AcDbEntity
  8
MODEL
100
AcDbLine
 10
1724.927304208976
 20
2320.943876505825
 30
0.0
 11
1724.875470117937
 21
2276.943907037339
 31
0.0
  0
LINE
  5
4CEC
330
A
100
AcDbEntity
  8
MODEL
100
AcDbLine
 10
1691.011806177379
 20
2392.694379432745
 30
0.0
 11
1691.145266593403
 21
2505.983801750456
 31
0.0
  0
LINE
  5
4CED
330
A
100
AcDbEntity
  8
MODEL
100
AcDbLine
 10
1690.60588083849
 20
2048.119946675701
 30
0.0
 11
1690.856635123748
 21
2260.975630533142
 31
0.0
  0
LINE
  5
4CEE
330
A
100
AcDbEntity
  8
MODEL
100
AcDbLine
 10
1691.011810601419
 20
2392.698134830992
 30
0.0
 11
1691.145266593403
 21
2505.983801750456
 31
0.0
  0
LINE
  5
4CEF
102
{ACAD_REACTORS
330
4D59
102
}
330
A
100
AcDbEntity
  8
MODEL
100
AcDbLine
 10
1688.148802817668
 20
2508.987333811326
 30
0.0
 11
1683.148806287159
 21
2508.993224048943
 31
0.0
  0
ARC
  5
4CF0
102
{ACAD_REACTORS
330
4D36
102
}
330
A
100
AcDbEntity
  8
MODEL
100
AcDbCircle
 10
1574.145347779495
 20
2506.121633310723
 30
0.0
 40
3.000000000000001
100
AcDbArc
 50
89.93250283319921
 51
179.9325028332339
  0
ARC
  5
4CF1
330
A
100
AcDbEntity
  8
MODEL
100
AcDbCircle
 10
1721.864574074373
 20
2267.696441121226
 30
0.0
 40
3.000000000000001
100
AcDbArc
 50
274.9325028332887
 51
359.9325028332165
  0
ARC
  5
4CF2
330
A
100
AcDbEntity
  8
MODEL
100
AcDbCircle
 10
1688.145268675098
 20
2505.987335893027
 30
0.0
 40
3.000000000000001
100
AcDbArc
 50
359.9325028332165
 51
89.93250283323394
  0
SPLINE
  5
4CF3
330
A
100
AcDbEntity
  8
MODEL
100
AcDbSpline
210
0.0
220
0.0
230
1.0
 70
     8
 71
     3
 72
    12
 73
     8
 74
     0
 42
0.000000001
 43
0.0000000001
 40
0.6393546353257522
 40
0.6393546353257522
 40
0.6393546353257522
 40
0.6393546353257522
 40
0.75
 40
0.75
 40
0.875
 40
0.875
 40
1.0
 40
1.0
 40
1.0
 40
1.0
 10
1690.856635123754
 20
2260.975630533146
 30
0.0
 10
1691.203252115239
 20
2261.21228159109
 30
0.0
 10
1691.568510242103
 20
2261.421627429384
 30
0.0
 10
1692.376573211382
 20
2261.803727870157
 30
0.0
 10
1692.823276586467
 20
2261.968204982007
 30
0.0
 10
1693.738747062796
 20
2262.215561453941
 30
0.0
 10
1694.207498936673
 20
2262.298436699646
 30
0.0
 10
1694.679892620891
 20
2262.339205087314
 30
0.0
  0
LINE
  5
4CF4
330
A
100
AcDbEntity
  8
MODEL
100
AcDbLine
 10
1643.962111348883
 20
2509.039387869916
 30
0.0
 11
1683.148806287159
 21
2508.993224048951
 31
0.0
  0
LINE
  5
4CF5
102
{ACAD_REACTORS
330
4D25
330
4D46
102
}
330
A
100
AcDbEntity
  8
MODEL
100
AcDbLine
 10
1571.005945989987
 20
2387.790574261447
 30
0.0
 11
1570.598893481144
 21
2042.259330213411
 31
0.0
  0
LINE
  5
4CF6
330
A
100
AcDbEntity
  8
HIDDEN
 48
0.5
100
AcDbLine
 10
1675.90984496145
 20
2338.377377514345
 30
0.0
 11
1676.112609015584
 21
2258.903834636517
 31
0.0
  0
LINE
  5
4CF7
330
A
100
AcDbEntity
  8
HIDDEN
 48
0.5
100
AcDbLine
 10
1688.430175341594
 20
2321.267948721863
 30
0.0
 11
1688.377679007277
 21
2276.705826365682
 31
0.0
  0
LINE
  5
4CF8
330
A
100
AcDbEntity
  8
MODEL
100
AcDbLine
 10
1687.759361380816
 20
2045.127409330121
 30
0.0
 11
1573.752402255788
 21
2039.287224055233
 31
0.0
  0
ARC
  5
4CF9
330
A
100
AcDbEntity
  8
MODEL
100
AcDbCircle
 10
1573.598923795158
 20
2042.283295543383
 30
0.0
 40
3.000000000000001
100
AcDbArc
 50
179.9325028332166
 51
272.9325028332203
  0
ARC
  5
4CFA
102
{ACAD_REACTORS
330
4D25
102
}
330
A
100
AcDbEntity
  8
MODEL
100
AcDbCircle
 10
1687.605882920185
 20
2048.123480818272
 30
0.0
 40
3.000000000000001
100
AcDbArc
 50
272.9325028332203
 51
359.9325028332165
  0
SOLID
  5
4CFB
330
A
100
AcDbEntity
  8
MODEL
 48
0.5
100
AcDbTrace
 10
1571.005945978598
 20
2387.79056459303
 30
0.0
 11
1571.005944207685
 21
2387.790574263547
 31
0.0
 12
1571.14534986119
 22
2506.125167453293
 32
0.0
 13
1571.14534986119
 23
2506.125167453293
 33
0.0
1001
GradientColor1ACI
1070
     5
1001
GradientColor2ACI
1070
     2
1001
ACAD
1010
0.0
1020
0.0
1030
0.0
  0
SOLID
  5
4CFC
330
A
100
AcDbEntity
  8
MODEL
 48
0.5
100
AcDbTrace
 10
1571.005945978598
 20
2387.79056459303
 30
0.0
 11
1571.14534986119
 21
2506.125167453293
 31
0.0
 12
1571.036286492701
 22
2387.624882561475
 32
0.0
 13
1571.036286492701
 23
2387.624882561475
 33
0.0
1001
GradientColor1ACI
1070
     5
1001
GradientColor2ACI
1070
     2
1001
ACAD
1010
0.0
1020
0.0
1030
0.0
  0
SOLID
  5
4CFD
330
A
100
AcDbEntity
  8
MODEL
 48
0.5
100
AcDbTrace
 10
1571.036286492701
 20
2387.624882561475
 30
0.0
 11
1571.14534986119
 21
2506.125167453293
 31
0.0
 12
1571.176388475287
 22
2506.552075699382
 32
0.0
 13
1571.176388475287
 23
2506.552075699382
 33
0.0
1001
GradientColor1ACI
1070
     5
1001
GradientColor2ACI
1070
     2
1001
ACAD
1010
0.0
1020
0.0
1030
0.0
  0
SOLID
  5
4CFE
330
A
100
AcDbEntity
  8
MODEL
  6
Continuous
 48
0.5
100
AcDbTrace
 10
1570.626035080771
 20
2041.880886930313
 30
0.0
 11
1570.599226331188
 21
2042.325899823107
 31
0.0
 12
1570.626793654527
 22
2042.524811062286
 32
0.0
 13
1570.626793654527
 23
2042.524811062286
 33
0.0
1001
GradientColor1ACI
1070
     5
1001
GradientColor2ACI
1070
     2
1001
ACAD
1010
0.0
1020
0.0
1030
0.0
  0
SPLINE
  5
4CFF
330
A
100
AcDbEntity
  8
MODEL
100
AcDbSpline
210
0.0
220
0.0
230
1.0
 70
  1064
 71
     3
 72
    58
 73
    54
 74
    52
 42
0.000000001
 43
0.0000000001
 44
0.0
 40
0.0
 40
0.0
 40
0.0
 40
0.0
 40
2.181573269523907
 40
4.774863402890587
 40
8.118776497864658
 40
11.58365721046622
 40
13.74254796859269
 40
16.52919689786618
 40
18.42378080363134
 40
21.20544413753538
 40
23.85496459340451
 40
27.26665500511443
 40
30.65300899261276
 40
34.90119732638274
 40
38.72284017638901
 40
41.63285502458612
 40
44.71714675299475
 40
46.68974261672381
 40
49.5111839670593
 40
52.84771193670189
 40
57.26302001683128
 40
60.32261489449281
 40
62.58208794505038
 40
63.60468620595964
 40
64.52638590047538
 40
65.47876748352604
 40
66.25703850728162
 40
66.69298633206846
 40
67.0003022598498
 40
67.56468084143827
 40
67.78265475383091
 40
68.21745033220053
 40
68.58028931301362
 40
68.87121874852568
 40
69.35719106627674
 40
69.66803657332369
 40
70.0652193864016
 40
70.5918218743078
 40
70.95216506445568
 40
71.39559329784373
 40
71.75345925573292
 40
72.28373843426864
 40
72.72716666765682
 40
73.17059490104407
 40
73.67260682595202
 40
73.93965906185596
 40
74.28175489097573
 40
74.85700241525294
 40
75.66892483654351
 40
77.89647328592308
 40
79.98383237225035
 40
83.13511486935157
 40
83.53319378272904
 40
83.53319378272904
 40
83.53319378272904
 40
83.53319378272904
 10
1691.093266824822
 20
2392.632282971346
 30
0.0
 10
1691.654557442303
 20
2392.169824001101
 30
0.0
 10
1692.883068107169
 20
2391.157628608351
 30
0.0
 10
1694.890678837949
 20
2389.341528445065
 30
0.0
 10
1697.137223862056
 20
2387.155000936329
 30
0.0
 10
1699.173315682525
 20
2384.96450577314
 30
0.0
 10
1701.000104864239
 20
2382.837471833952
 30
0.0
 10
1702.421969769024
 20
2381.054205421606
 30
0.0
 10
1703.908893674596
 20
2379.05955090876
 30
0.0
 10
1705.301977812325
 20
2377.053285036598
 30
0.0
 10
1706.898002653125
 20
2374.574162702126
 30
0.0
 10
1708.463219604401
 20
2371.839902628829
 30
0.0
 10
1710.165510405141
 20
2368.573847878314
 30
0.0
 10
1711.732061776154
 20
2365.087782931263
 30
0.0
 10
1713.023653190677
 20
2361.661686450796
 30
0.0
 10
1714.052471973253
 20
2358.554642812452
 30
0.0
 10
1714.758017632099
 20
2355.993383298649
 30
0.0
 10
1715.378944511847
 20
2353.441479444676
 30
0.0
 10
1715.918386214386
 20
2350.784731328834
 30
0.0
 10
1716.516385328124
 20
2347.311322321854
 30
0.0
 10
1717.141494644284
 20
2343.762240418564
 30
0.0
 10
1717.700187420698
 20
2340.565688162399
 30
0.0
 10
1718.065618940052
 20
2338.484085721393
 30
0.0
 10
1718.306109948984
 20
2337.102841659299
 30
0.0
 10
1718.475862764485
 20
2336.154394658896
 30
0.0
 10
1718.616958207474
 20
2335.274129956154
 30
0.0
 10
1718.960462815801
 20
2334.625741684978
 30
0.0
 10
1719.280437581728
 20
2334.230427055298
 30
0.0
 10
1719.596348905065
 20
2333.929807778897
 30
0.0
 10
1719.890366471455
 20
2333.709997522965
 30
0.0
 10
1720.258064307028
 20
2333.537364273229
 30
0.0
 10
1720.571720946666
 20
2333.409659256656
 30
0.0
 10
1720.921671337404
 20
2333.308016952467
 30
0.0
 10
1721.29969015031
 20
2333.26358331052
 30
0.0
 10
1721.66092774681
 20
2333.234641953501
 30
0.0
 10
1722.057582730581
 20
2333.201374418951
 30
0.0
 10
1722.466368864891
 20
2333.152260604553
 30
0.0
 10
1722.88452265677
 20
2333.050646505554
 30
0.0
 10
1723.293672832469
 20
2332.875868504275
 30
0.0
 10
1723.625484423628
 20
2332.674978160417
 30
0.0
 10
1723.986641757911
 20
2332.414211513099
 30
0.0
 10
1724.279512027516
 20
2332.075934111337
 30
0.0
 10
1724.548228150966
 20
2331.686212662348
 30
0.0
 10
1724.743665124616
 20
2331.26475710114
 30
0.0
 10
1724.869937412089
 20
2330.878837219327
 30
0.0
 10
1724.927408319985
 20
2330.512065170007
 30
0.0
 10
1724.943879853269
 20
2330.117103794442
 30
0.0
 10
1724.934921966289
 20
2329.540762401203
 30
0.0
 10
1724.93705780885
 20
2328.33581894836
 30
0.0
 10
1724.948285612533
 20
2326.626791360985
 30
0.0
 10
1724.869529640033
 20
2324.138597033069
 30
0.0
 10
1724.930574795926
 20
2322.259688964998
 30
0.0
 10
1724.927634030732
 20
2321.07656937791
 30
0.0
 10
1724.927304208976
 20
2320.943876505825
 30
0.0
 11
1691.093266824822
 21
2392.632282971346
 31
0.0
 11
1692.767164254561
 21
2391.233237108976
 31
0.0
 11
1694.695619366883
 21
2389.499393230313
 31
0.0
 11
1697.088787566341
 21
2387.163905967269
 31
0.0
 11
1699.448826902913
 21
2384.627055029119
 31
0.0
 11
1700.854955542451
 21
2382.988881792067
 31
0.0
 11
1702.593090262088
 21
2380.810740393669
 31
0.0
 11
1703.725180277579
 21
2379.291589192238
 31
0.0
 11
1705.313322569852
 21
2377.00785213148
 31
0.0
 11
1706.743284715139
 21
2374.777343913805
 31
0.0
 11
1708.447610242068
 21
2371.821856481314
 31
0.0
 11
1710.006616385475
 21
2368.815713907605
 31
0.0
 11
1711.747652023913
 21
2364.940678549719
 31
0.0
 11
1713.103072152453
 21
2361.367474056809
 31
0.0
 11
1714.011247512244
 21
2358.602803383366
 31
0.0
 11
1714.838136882782
 21
2355.631421645046
 31
0.0
 11
1715.301924032833
 21
2353.714122523613
 31
0.0
 11
1715.871556109582
 21
2350.950782046849
 31
0.0
 11
1716.457184054827
 21
2347.666050885558
 31
0.0
 11
1717.218771297707
 21
2343.316921051449
 31
0.0
 11
1717.746514409835
 21
2340.303184496437
 31
0.0
 11
1718.136246183861
 21
2338.077577251097
 31
0.0
 11
1718.312632016054
 21
2337.070306065459
 31
0.0
 11
1718.471614065861
 21
2336.162421141744
 31
0.0
 11
1718.681433446813
 21
2335.233439706455
 31
0.0
 11
1719.040552739832
 21
2334.542976731489
 31
0.0
 11
1719.315489582044
 21
2334.204657002932
 31
0.0
 11
1719.537304573447
 21
2333.991957240222
 31
0.0
 11
1719.996974652355
 21
2333.664502507606
 31
0.0
 11
1720.193053400715
 21
2333.569288270617
 31
0.0
 11
1720.596940203554
 21
2333.408283160567
 31
0.0
 11
1720.946841137216
 21
2333.312254713637
 31
0.0
 11
1721.235046529051
 21
2333.272535844511
 31
0.0
 11
1721.719119342951
 21
2333.229610275635
 31
0.0
 11
1722.028749858493
 21
2333.202153526074
 31
0.0
 11
1722.422584336188
 21
2333.150689060827
 31
0.0
 11
1722.933006994015
 21
2333.021155703556
 31
0.0
 11
1723.264581892466
 21
2332.880069554685
 31
0.0
 11
1723.646387196145
 21
2332.654562773749
 31
0.0
 11
1723.932483943951
 21
2332.439582089243
 31
0.0
 11
1724.289857099493
 21
2332.047816298385
 31
0.0
 11
1724.537385776481
 21
2331.679905776336
 31
0.0
 11
1724.727814927048
 21
2331.27944936575
 31
0.0
 11
1724.877228763709
 21
2330.800187977608
 31
0.0
 11
1724.91909977131
 21
2330.536438635573
 31
0.0
 11
1724.938202334263
 21
2330.194876564509
 31
0.0
 11
1724.937524665327
 21
2329.619629439395
 31
0.0
 11
1724.93656818213
 21
2328.807707581496
 31
0.0
 11
1724.933944024195
 21
2326.580160677808
 31
0.0
 11
1724.898532935392
 21
2324.493101979529
 31
0.0
 11
1724.927773164854
 21
2321.341955142976
 31
0.0
 11
1724.927304208976
 21
2320.943876505825
 31
0.0
  0
LINE
  5
4D00
330
A
100
AcDbEntity
  8
MODEL
100
AcDbLine
 10
1571.394415369165
 20
2458.123280648336
 30
0.0
 11
1579.766791748937
 21
2458.113417584231
 31
0.0
  0
LINE
  5
4D01
330
A
100
AcDbEntity
  8
MODEL
100
AcDbLine
 10
1571.051103016497
 20
2426.123662882125
 30
0.0
 11
1580.310651867429
 21
2426.112754685962
 31
0.0
  0
SPLINE
  5
4D02
330
A
100
AcDbEntity
  8
HIDDEN
 48
0.5
100
AcDbSpline
210
0.0
220
0.0
230
1.0
 70
  1064
 71
     3
 72
    76
 73
    72
 74
    70
 42
0.000000001
 43
0.0000000001
 44
0.0
 40
0.0
 40
0.0
 40
0.0
 40
0.0
 40
0.8699984819612331
 40
1.672368215575957
 40
2.698297178396316
 40
3.43668508975083
 40
4.371828940302437
 40
5.301455528569185
 40
6.424750254829289
 40
9.692795139277424
 40
13.0649203604413
 40
59.31727289781405
 40
64.96719174310911
 40
66.70412478714456
 40
69.4366911562221
 40
72.0334062495496
 40
76.20997874965963
 40
79.27047269325584
 40
83.73627183253252
 40
87.7077189564499
 40
90.24318892503294
 40
93.35746234660581
 40
96.45350750935312
 40
98.69662244722994
 40
100.2066877368762
 40
103.3434651335214
 40
104.9975083635771
 40
106.7131273950183
 40
108.3110461903919
 40
110.7611556585811
 40
113.9037164111702
 40
116.0868943184497
 40
118.0048753075608
 40
121.6458347318245
 40
125.3662611099475
 40
129.0664477721163
 40
131.9753057074653
 40
134.6009552320297
 40
136.8432022987662
 40
139.3473174993045
 40
141.7502953429195
 40
143.3921777384326
 40
145.2581426941944
 40
147.1696986293316
 40
149.1673363770926
 40
150.8172063010668
 40
151.4106588934415
 40
152.1660984627557
 40
152.7932822505882
 40
153.3026637511363
 40
153.7371056786036
 40
154.0602912614607
 40
154.2799672440206
 40
154.9848165430019
 40
156.1633973611902
 40
157.433693057684
 40
159.6860905833656
 40
161.0349285085851
 40
162.9075561329911
 40
164.4135556514033
 40
166.1553052731802
 40
168.0540776438151
 40
169.5600925893762
 40
172.3363260956887
 40
175.0863685743283
 40
178.1769715484721
 40
181.306861064128
 40
183.9520931506259
 40
186.6235934005381
 40
188.7058109549313
 40
189.8402696973121
 40
189.8402696973121
 40
189.8402696973121
 40
189.8402696973121
 10
1571.036286492701
 20
2387.624882561475
 30
0.0
 10
1571.055061903775
 20
2387.333726179449
 30
0.0
 10
1571.091153231937
 20
2386.774046261427
 30
0.0
 10
1571.428448821056
 20
2385.928291709244
 30
0.0
 10
1571.904434675451
 20
2385.208424060176
 30
0.0
 10
1572.55964644035
 20
2384.583792433581
 30
0.0
 10
1573.305485554383
 20
2384.125404826591
 30
0.0
 10
1574.261756111497
 20
2383.810325264362
 30
0.0
 10
1576.039483362751
 20
2383.702245507206
 30
0.0
 10
1578.610002118643
 20
2383.442052480754
 30
0.0
 10
1596.182281016092
 20
2381.929312076294
 30
0.0
 10
1614.531761740578
 20
2380.323567698508
 30
0.0
 10
1632.329275191253
 20
2378.60652841315
 30
0.0
 10
1635.684616500212
 20
2378.260488858194
 30
0.0
 10
1638.026473659569
 20
2378.007942154942
 30
0.0
 10
1641.173925212179
 20
2377.642318831754
 30
0.0
 10
1644.424345431502
 20
2377.214992980041
 30
0.0
 10
1648.275968795367
 20
2376.594479178497
 30
0.0
 10
1652.030458422734
 20
2375.807399570755
 30
0.0
 10
1655.533684009704
 20
2374.732065945303
 30
0.0
 10
1658.499254703061
 20
2373.503137441685
 30
0.0
 10
1661.08518337324
 20
2372.146013441291
 30
0.0
 10
1663.439115809614
 20
2370.588309788767
 30
0.0
 10
1665.227102250943
 20
2369.164785698909
 30
0.0
 10
1666.927813058455
 20
2367.620894174477
 30
0.0
 10
1668.360093546182
 20
2366.072748839691
 30
0.0
 10
1669.614573181513
 20
2364.299596910983
 30
0.0
 10
1670.427800922982
 20
2362.853649075602
 30
0.0
 10
1671.209996305116
 20
2361.096651388383
 30
0.0
 10
1671.984815369926
 20
2358.824894058396
 30
0.0
 10
1672.63138317421
 20
2356.313241016227
 30
0.0
 10
1673.14946999768
 20
2353.954814339046
 30
0.0
 10
1673.656982649685
 20
2351.42440488687
 30
0.0
 10
1674.21761456008
 20
2348.382328370616
 30
0.0
 10
1674.838613179288
 20
2344.74791308051
 30
0.0
 10
1675.438729675022
 20
2341.357022079426
 30
0.0
 10
1675.857308916079
 20
2338.306823385559
 30
0.0
 10
1676.546476676313
 20
2335.791460939395
 30
0.0
 10
1677.714029408313
 20
2333.604547544635
 30
0.0
 10
1679.265064698279
 20
2331.786126565801
 30
0.0
 10
1680.660966436406
 20
2330.109975891686
 30
0.0
 10
1681.926614325519
 20
2328.599557411188
 30
0.0
 10
1683.085990207114
 20
2327.214329182426
 30
0.0
 10
1684.321360098931
 20
2325.737898970723
 30
0.0
 10
1685.512117702309
 20
2324.318202520748
 30
0.0
 10
1686.416119521914
 20
2323.231163928074
 30
0.0
 10
1687.063222762477
 20
2322.469590084569
 30
0.0
 10
1687.468126939562
 20
2321.948473544439
 30
0.0
 10
1687.945806949772
 20
2321.52922893864
 30
0.0
 10
1688.402416335139
 20
2321.267510592933
 30
0.0
 10
1688.798220575857
 20
2321.115992906691
 30
0.0
 10
1689.115352612316
 20
2321.039020032871
 30
0.0
 10
1689.527196579025
 20
2320.976959991731
 30
0.0
 10
1690.230800776863
 20
2320.990380677476
 30
0.0
 10
1691.280677378728
 20
2320.981575695288
 30
0.0
 10
1692.848300973563
 20
2320.982686864186
 30
0.0
 10
1694.47192567994
 20
2320.979565767702
 30
0.0
 10
1696.296589807783
 20
2320.977662296983
 30
0.0
 10
1697.872397588405
 20
2320.975734845144
 30
0.0
 10
1699.579191822231
 20
2320.973741702854
 30
0.0
 10
1701.294696878822
 20
2320.971715634321
 30
0.0
 10
1703.010208268359
 20
2320.969696161268
 30
0.0
 10
1705.070547044378
 20
2320.967268602778
 30
0.0
 10
1707.414642424063
 20
2320.964507308224
 30
0.0
 10
1710.28693340789
 20
2320.961123558132
 30
0.0
 10
1713.27710965866
 20
2320.957601001694
 30
0.0
 10
1716.232349132682
 20
2320.954119582444
 30
0.0
 10
1719.047887796517
 20
2320.950802742776
 30
0.0
 10
1721.514202715368
 20
2320.947897304337
 30
0.0
 10
1723.476926869007
 20
2320.945585120449
 30
0.0
 10
1724.549151557249
 20
2320.94432198793
 30
0.0
 10
1724.927304208976
 20
2320.943876505825
 30
0.0
 11
1571.036286492701
 21
2387.624882561475
 31
0.0
 11
1571.1394205748
 21
2386.761018729772
 31
0.0
 11
1571.421787473472
 21
2386.009975372864
 31
0.0
 11
1571.991924905629
 21
2385.157054775618
 31
0.0
 11
1572.526157386971
 21
2384.647336850179
 31
0.0
 11
1573.322784234838
 21
2384.157561711486
 31
0.0
 11
1574.205698847613
 21
2383.866585114212
 31
0.0
 11
1575.322065095502
 21
2383.74201608669
 31
0.0
 11
1578.577344580533
 21
2383.453445746731
 31
0.0
 11
1581.936289866109
 21
2383.15559498592
 31
0.0
 11
1628.003563781685
 21
2379.02202640312
 31
0.0
 11
1633.626629320461
 21
2378.471829252046
 31
0.0
 11
1635.354382905561
 21
2378.293492635961
 31
0.0
 11
1638.071063415892
 21
2377.999271688031
 31
0.0
 11
1640.650255943845
 21
2377.698115284037
 31
0.0
 11
1644.78983146033
 21
2377.143433039872
 31
0.0
 11
1647.810251165158
 21
2376.649785406963
 31
0.0
 11
1652.174689747902
 21
2375.703721027642
 31
0.0
 11
1655.965398976076
 21
2374.519273559196
 31
0.0
 11
1658.306561041191
 21
2373.545842438647
 31
0.0
 11
1661.063683142181
 21
2372.097748289585
 31
0.0
 11
1663.645366436291
 21
2370.388828449837
 31
0.0
 11
1665.399413850819
 21
2368.990657397314
 31
0.0
 11
1666.516695666091
 21
2367.974793959515
 31
0.0
 11
1668.626266969775
 21
2365.653354459813
 31
0.0
 11
1669.579075380381
 21
2364.301313358525
 31
0.0
 11
1670.422201779962
 21
2362.807162584549
 31
0.0
 11
1671.076709511707
 21
2361.349436922535
 31
0.0
 11
1671.883791406007
 21
2359.036072441524
 31
0.0
 11
1672.689593375708
 21
2355.998578199663
 31
0.0
 11
1673.161499235169
 21
2353.867012898144
 31
0.0
 11
1673.54063948544
 21
2351.986878928126
 31
0.0
 11
1674.205111499721
 21
2348.407065738674
 31
0.0
 11
1674.843400422386
 21
2344.741801807354
 31
0.0
 11
1675.458247967452
 21
2341.09305629263
 31
0.0
 11
1675.936333202255
 21
2338.223755158851
 31
0.0
 11
1676.679245640169
 21
2335.705399239717
 31
0.0
 11
1677.734598754718
 21
2333.72704090213
 31
0.0
 11
1679.282150465254
 21
2331.758367074198
 31
0.0
 11
1680.824585242145
 21
2329.915760910108
 31
0.0
 11
1681.878484475188
 21
2328.656763607773
 31
0.0
 11
1683.076218881218
 21
2327.225939541459
 31
0.0
 11
1684.303217440594
 21
2325.760156259917
 31
0.0
 11
1685.585470600757
 21
2324.228365345813
 31
0.0
 11
1686.644496906325
 21
2322.963243197501
 31
0.0
 11
1687.025425061508
 21
2322.508183069622
 31
0.0
 11
1687.514041765016
 21
2321.9320384177
 31
0.0
 11
1687.988760878626
 21
2321.522158841613
 31
0.0
 11
1688.430175341594
 21
2321.267948721863
 31
0.0
 11
1688.835991672706
 21
2321.112858768145
 31
0.0
 11
1689.15001529474
 21
2321.036451400886
 31
0.0
 11
1689.367284328782
 21
2321.004021412295
 31
0.0
 11
1690.071875240803
 21
2320.984937886098
 31
0.0
 11
1691.250455241176
 21
2320.983549461884
 31
0.0
 11
1692.520750056214
 21
2320.982052993184
 31
0.0
 11
1694.773146018961
 21
2320.979399561857
 31
0.0
 11
1696.121983008224
 21
2320.977810566679
 31
0.0
 11
1697.994609333217
 21
2320.975604522344
 31
0.0
 11
1699.500607806619
 21
2320.973830383341
 31
0.0
 11
1701.242356219799
 21
2320.971778519512
 31
0.0
 11
1703.141127272879
 21
2320.969541675423
 31
0.0
 11
1704.647141173419
 21
2320.967767518246
 31
0.0
 11
1707.423372753308
 21
2320.964496983239
 31
0.0
 11
1710.173413323698
 21
2320.961257302507
 31
0.0
 11
1713.264014153278
 21
2320.957616425327
 31
0.0
 11
1716.393901497109
 21
2320.953929266733
 31
0.0
 11
1719.039131748085
 21
2320.950813057625
 31
0.0
 11
1721.710630144248
 21
2320.947665903371
 31
0.0
 11
1723.792846253794
 21
2320.945212952137
 31
0.0
 11
1724.927304208976
 21
2320.943876505825
 31
0.0
  0
SPLINE
  5
4D03
330
A
100
AcDbEntity
  8
HIDDEN
 48
0.5
100
AcDbSpline
210
0.0
220
0.0
230
1.0
 70
  1064
 71
     3
 72
   115
 73
   111
 74
   109
 42
0.000000001
 43
0.0000000001
 44
0.0
 40
0.0
 40
0.0
 40
0.0
 40
0.0
 40
1.23851985319168
 40
2.753480723600278
 40
4.697681517061802
 40
6.626118664190532
 40
9.033299480931035
 40
11.75278478249994
 40
14.46682092119845
 40
16.97959824418744
 40
20.00908945355715
 40
21.7384842625428
 40
24.54065993616264
 40
28.46434622185152
 40
31.91308499197184
 40
35.48788630809098
 40
40.66251397919732
 40
46.63947757179989
 40
52.54204007846668
 40
57.38234100220009
 40
63.51884155407377
 40
67.41247114713941
 40
73.4449101654579
 40
76.89606337634486
 40
81.42515697834797
 40
86.20339566590636
 40
91.31086527315946
 40
96.92714473054066
 40
99.79564326263389
 40
103.8287110517654
 40
107.1449350887363
 40
109.1551790690722
 40
114.427200745951
 40
117.6234751242957
 40
119.8798248934964
 40
123.8953047411013
 40
126.6120912053293
 40
128.9839134165165
 40
134.112880510879
 40
137.4023645947812
 40
141.646469667551
 40
146.2921110543976
 40
149.3336799653938
 40
154.4213682144176
 40
160.1118058169548
 40
164.9022949377398
 40
171.1126177124868
 40
178.7341963198215
 40
186.5455533985995
 40
193.5221117014489
 40
199.4030800482436
 40
203.8000153087148
 40
215.2795763937144
 40
228.9657337137484
 40
238.9850901999256
 40
246.4330713145825
 40
252.3900029452159
 40
259.0087025230356
 40
264.3722021969946
 40
265.2601762230003
 40
266.3698421556837
 40
266.9948183628715
 40
267.3768103820243
 40
267.7560326174614
 40
268.03873223095
 40
268.6222139934864
 40
269.5399415241112
 40
269.9869865567882
 40
270.6090353751217
 40
271.5130108655392
 40
272.0534367848535
 40
272.7933674673964
 40
274.0130316554763
 40
275.1187420327979
 40
276.9465436778856
 40
278.1722901198629
 40
279.6157996155595
 40
281.3629590614632
 40
282.5871131261341
 40
283.9836982303196
 40
285.8953268292051
 40
286.3979321402973
 40
287.1257998126275
 40
287.468352439164
 40
288.0382327439653
 40
288.2738629594178
 40
288.4336705436297
 40
288.7330334005117
 40
289.1443438621591
 40
289.4403849687146
 40
289.8595062522098
 40
290.8024202736352
 40
292.2586660957567
 40
293.4738680712441
 40
295.6215199988059
 40
297.7796853625949
 40
300.1159373728491
 40
301.6769226222289
 40
305.2074854944242
 40
307.3566811927613
 40
309.3246903613654
 40
310.7076136477173
 40
313.6724503221513
 40
314.615327318421
 40
316.5953813523069
 40
318.1458655071793
 40
319.6754215233514
 40
321.990733053184
 40
323.7298049490298
 40
324.9714964574325
 40
324.9714964574325
 40
324.9714964574325
 40
324.9714964574325
 10
1570.61263070598
 20
2042.10339337671
 30
0.0
 10
1570.621253687074
 20
2042.517015306739
 30
0.0
 10
1570.640424322215
 20
2043.436580712378
 30
0.0
 10
1570.990263034319
 20
2044.971932310548
 30
0.0
 10
1571.572019292317
 20
2046.673510488745
 30
0.0
 10
1572.490396680758
 20
2048.560179469942
 30
0.0
 10
1573.751533538991
 20
2050.550945919772
 30
0.0
 10
1575.391483670153
 20
2052.592667418896
 30
0.0
 10
1577.244780460471
 20
2054.489724979375
 30
0.0
 10
1579.313372459216
 20
2056.307853908516
 30
0.0
 10
1581.239034686494
 20
2057.783151078433
 30
0.0
 10
1583.30884564608
 20
2059.221724830246
 30
0.0
 10
1585.684982941609
 20
2060.73931505143
 30
0.0
 10
1588.627628689564
 20
2062.428295827894
 30
0.0
 10
1591.861473101465
 20
2064.120069208207
 30
0.0
 10
1595.517407036911
 20
2065.900683880251
 30
0.0
 10
1599.986845202601
 20
2067.93191644984
 30
0.0
 10
1605.209174013129
 20
2070.178065859888
 30
0.0
 10
1610.345827243278
 20
2072.340509751014
 30
0.0
 10
1615.523228733901
 20
2074.543107219542
 30
0.0
 10
1620.060353827524
 20
2076.540264453447
 30
0.0
 10
1624.913618612361
 20
2078.801966489795
 30
0.0
 10
1628.902998077812
 20
2080.797120150162
 30
0.0
 10
1633.002253130754
 20
2083.037323294677
 30
0.0
 10
1636.660259845149
 20
2085.20928823493
 30
0.0
 10
1640.667718380759
 20
2087.864650977396
 30
0.0
 10
1644.796357455565
 20
2090.978077739094
 30
0.0
 10
1648.200633263434
 20
2093.977267072628
 30
0.0
 10
1651.136159409181
 20
2096.94439377511
 30
0.0
 10
1653.386683872075
 20
2099.505003090254
 30
0.0
 10
1655.285873061079
 20
2101.982829941034
 30
0.0
 10
1657.291946027916
 20
2104.891466612052
 30
0.0
 10
1659.073754217682
 20
2107.903774681515
 30
0.0
 10
1660.644854642163
 20
2111.116847098365
 30
0.0
 10
1661.892614240631
 20
2114.016537227549
 30
0.0
 10
1662.930874930218
 20
2116.829558606571
 30
0.0
 10
1663.839282909407
 20
2119.725742035596
 30
0.0
 10
1664.749082663911
 20
2123.008313699624
 30
0.0
 10
1665.557038409964
 20
2126.515175395187
 30
0.0
 10
1666.350729720063
 20
2130.661050730531
 30
0.0
 10
1667.004058462253
 20
2134.668455905336
 30
0.0
 10
1667.547986721208
 20
2138.608506018882
 30
0.0
 10
1668.062831764489
 20
2142.835645774442
 30
0.0
 10
1668.55571935283
 20
2147.415955081846
 30
0.0
 10
1669.045213328841
 20
2152.58245993169
 30
0.0
 10
1669.520531342949
 20
2158.125910781008
 30
0.0
 10
1670.009144115319
 20
2164.314158147684
 30
0.0
 10
1670.535211273483
 20
2171.50940270328
 30
0.0
 10
1671.050254710952
 20
2178.961468258797
 30
0.0
 10
1671.50861852093
 20
2185.835835994492
 30
0.0
 10
1671.88241627393
 20
2191.575164830232
 30
0.0
 10
1672.348038777968
 20
2198.812691012115
 30
0.0
 10
1672.972545061798
 20
2208.647101838338
 30
0.0
 10
1673.706867878598
 20
2220.352449862755
 30
0.0
 10
1674.354539533614
 20
2230.716730638361
 30
0.0
 10
1674.841066381731
 20
2238.509648958513
 30
0.0
 10
1675.256203156939
 20
2245.171260281305
 30
0.0
 10
1675.629651908448
 20
2251.13931067371
 30
0.0
 10
1675.893419174265
 20
2255.421223549747
 30
0.0
 10
1676.049357095219
 20
2257.870009711591
 30
0.0
 10
1676.0976326579
 20
2258.74284493194
 30
0.0
 10
1676.15464733823
 20
2259.446328733206
 30
0.0
 10
1676.215334854073
 20
2259.904501044988
 30
0.0
 10
1676.271328754689
 20
2260.247988407448
 30
0.0
 10
1676.349592635127
 20
2260.655716475508
 30
0.0
 10
1676.482666539931
 20
2261.235490847356
 30
0.0
 10
1676.667481498671
 20
2261.858824241795
 30
0.0
 10
1676.891559088071
 20
2262.48216264202
 30
0.0
 10
1677.141510066317
 20
2263.090803860074
 30
0.0
 10
1677.443364358783
 20
2263.710804766402
 30
0.0
 10
1677.801351339924
 20
2264.345006723946
 30
0.0
 10
1678.247642939588
 20
2265.049612849665
 30
0.0
 10
1678.87469345154
 20
2265.858292049862
 30
0.0
 10
1679.775656437564
 20
2266.909162912701
 30
0.0
 10
1680.66437607412
 20
2267.973401962321
 30
0.0
 10
1681.63008222174
 20
2269.119881028384
 30
0.0
 10
1682.577446310363
 20
2270.246694578922
 30
0.0
 10
1683.524809487966
 20
2271.372806519702
 30
0.0
 10
1684.461889061835
 20
2272.487130408084
 30
0.0
 10
1685.434795367653
 20
2273.642963507038
 30
0.0
 10
1686.250839831787
 20
2274.616425752685
 30
0.0
 10
1686.92754843901
 20
2275.41586730122
 30
0.0
 10
1687.258013860366
 20
2275.822975994461
 30
0.0
 10
1687.627495226937
 20
2276.226889122931
 30
0.0
 10
1687.933282157132
 20
2276.462310440659
 30
0.0
 10
1688.211285321835
 20
2276.624627971499
 30
0.0
 10
1688.418749268279
 20
2276.727830452291
 30
0.0
 10
1688.688064633536
 20
2276.837169822452
 30
0.0
 10
1689.012873359723
 20
2276.92540552835
 30
0.0
 10
1689.384816758369
 20
2276.982790221331
 30
0.0
 10
1689.938538408498
 20
2276.987218654126
 30
0.0
 10
1690.877282654353
 20
2276.982747573516
 30
0.0
 10
1692.082376570811
 20
2276.982844789653
 30
0.0
 10
1693.68865107504
 20
2276.980503810489
 30
0.0
 10
1695.529028033993
 20
2276.978525590898
 30
0.0
 10
1697.743037239686
 20
2276.975856413204
 30
0.0
 10
1699.761506690186
 20
2276.973494887545
 30
0.0
 10
1702.237437595501
 20
2276.970574401992
 30
0.0
 10
1704.651017519629
 20
2276.967732694452
 30
0.0
 10
1707.200271597442
 20
2276.964729222801
 30
0.0
 10
1709.033646388885
 20
2276.962569480434
 30
0.0
 10
1711.138901301719
 20
2276.96008937459
 30
0.0
 10
1712.902445731428
 20
2276.958011839324
 30
0.0
 10
1714.865033604329
 20
2276.955699815312
 30
0.0
 10
1716.356170964679
 20
2276.953943183616
 30
0.0
 10
1718.042867862583
 20
2276.951956173081
 30
0.0
 10
1719.841317181602
 20
2276.94983751286
 30
0.0
 10
1721.702629037323
 20
2276.94764479751
 30
0.0
 10
1723.467986123705
 20
2276.945565121524
 30
0.0
 10
1724.461573235672
 20
2276.944394627875
 30
0.0
 10
1724.875470117937
 20
2276.943907037339
 30
0.0
 11
1570.61263070598
 21
2042.10339337671
 31
0.0
 11
1570.676107653161
 21
2043.34028549162
 31
0.0
 11
1570.980530823745
 21
2044.824345117134
 31
0.0
 11
1571.611067404626
 21
2046.663459128137
 31
0.0
 11
1572.448271574283
 21
2048.400686519337
 31
0.0
 11
1573.730071434478
 21
2050.438211636455
 31
0.0
 11
1575.425384010493
 21
2052.564597202399
 31
0.0
 11
1577.316127130272
 21
2054.511667467482
 31
0.0
 11
1579.200168906836
 21
2056.174326921215
 31
0.0
 11
1581.600542422209
 21
2058.022575815262
 31
0.0
 11
1583.01998004089
 21
2059.010504583959
 31
0.0
 11
1585.379372110155
 21
2060.522277572644
 31
0.0
 11
1588.777912992205
 21
2062.483204379421
 31
0.0
 11
1591.831530181023
 21
2064.08608340439
 31
0.0
 11
1595.04345119422
 21
2065.655404230324
 31
0.0
 11
1599.749873014261
 21
2067.806302923062
 31
0.0
 11
1605.234961144103
 21
2070.180729589684
 31
0.0
 11
1610.670586574803
 21
2072.481646868126
 31
0.0
 11
1615.122190062096
 21
2074.382104556215
 31
0.0
 11
1620.733553040586
 21
2076.865900954227
 31
0.0
 11
1624.26138697369
 21
2078.513547502622
 31
0.0
 11
1629.650987220799
 21
2081.22325776132
 31
0.0
 11
1632.67821665945
 21
2082.880466381494
 31
0.0
 11
1636.569649100463
 21
2085.19767211529
 31
0.0
 11
1640.549212622169
 21
2087.842410123484
 31
0.0
 11
1644.622235393787
 21
2090.924086824713
 31
0.0
 11
1648.829540226058
 21
2094.644460595149
 31
0.0
 11
1650.846067938745
 21
2096.684534077303
 31
0.0
 11
1653.506193992442
 21
2099.715930648221
 31
0.0
 11
1655.522722672067
 21
2102.348601145574
 31
0.0
 11
1656.663885340685
 21
2104.003541816483
 31
0.0
 11
1659.349429784385
 21
2108.540287743069
 31
0.0
 11
1660.754989544823
 21
2111.410927334083
 31
0.0
 11
1661.647573371301
 21
2113.483222774816
 31
0.0
 11
1663.043215234448
 21
2117.248360514176
 31
0.0
 11
1663.858128839397
 21
2119.840048093473
 31
0.0
 11
1664.492955993849
 21
2122.12533474627
 31
0.0
 11
1665.656658800843
 21
2127.12054237279
 31
0.0
 11
1666.277913345372
 21
2130.350828479182
 31
0.0
 11
1666.966198717144
 21
2134.538750531431
 31
0.0
 11
1667.606270327037
 21
2139.140086449335
 31
0.0
 11
1667.975095026178
 21
2142.159210458322
 31
0.0
 11
1668.524076408131
 21
2147.217193372639
 31
0.0
 11
1669.064351337292
 21
2152.88192488519
 31
0.0
 11
1669.475427521024
 21
2157.654744008887
 31
0.0
 11
1669.966729631457
 21
2163.84560268946
 31
0.0
 11
1670.525618737453
 21
2171.44666205214
 31
0.0
 11
1671.066112318668
 21
2179.239297427983
 31
0.0
 11
1671.530974116187
 21
2186.200351174526
 31
0.0
 11
1671.913680280849
 21
2192.068853938224
 31
0.0
 11
1672.196130649438
 21
2196.456707795642
 31
0.0
 11
1672.924598144118
 21
2207.913132098776
 31
0.0
 11
1673.782758235206
 21
2221.572358410935
 31
0.0
 11
1674.407885625192
 21
2231.57219441676
 31
0.0
 11
1674.87187918476
 21
2239.005708569633
 31
0.0
 11
1675.242723522116
 21
2244.951085675376
 31
0.0
 11
1675.65460087549
 21
2251.556957392811
 31
0.0
 11
1675.988315392875
 21
2256.910065216631
 31
0.0
 11
1676.043564850307
 21
2257.796318774206
 31
0.0
 11
1676.112609015588
 21
2258.903834636575
 31
0.0
 11
1676.167725976111
 21
2259.526375703665
 31
0.0
 11
1676.217345873926
 21
2259.905131256017
 31
0.0
 11
1676.278505688837
 21
2260.279389162934
 31
0.0
 11
1676.331775380347
 21
2260.55702455591
 31
0.0
 11
1676.462328665307
 21
2261.125713229086
 31
0.0
 11
1676.723190106312
 21
2262.005585452232
 31
0.0
 11
1676.874420070511
 21
2262.426273887026
 31
0.0
 11
1677.110712477379
 21
2263.001696019766
 31
0.0
 11
1677.506548125257
 21
2263.814398811163
 31
0.0
 11
1677.771991253471
 21
2264.285143030406
 31
0.0
 11
1678.169281053658
 21
2264.909369134983
 31
0.0
 11
1678.905917364733
 21
2265.881453327268
 31
0.0
 11
1679.617651635686
 21
2266.727638747887
 31
0.0
 11
1680.794188546254
 21
2268.126430995455
 31
0.0
 11
1681.583188783702
 21
2269.064478417138
 31
0.0
 11
1682.512360834185
 21
2270.169177002621
 31
0.0
 11
1683.636989199783
 21
2271.506254849533
 31
0.0
 11
1684.424964440519
 21
2272.443083646079
 31
0.0
 11
1685.32393174818
 21
2273.511871619902
 31
0.0
 11
1686.554427197142
 21
2274.974815518403
 31
0.0
 11
1686.877949009006
 21
2275.359452666877
 31
0.0
 11
1687.346469860166
 21
2275.916480099282
 31
0.0
 11
1687.581574523383
 21
2276.165614800359
 31
0.0
 11
1688.031034909446
 21
2276.515970224408
 31
0.0
 11
1688.234610388793
 21
2276.634623596222
 31
0.0
 11
1688.377679007271
 21
2276.70582636568
 31
0.0
 11
1688.655101073201
 21
2276.818321331859
 31
0.0
 11
1689.051867877459
 21
2276.926729813536
 31
0.0
 11
1689.344639662592
 21
2276.970604847446
 31
0.0
 11
1689.763504276862
 21
2276.985270630451
 31
0.0
 11
1690.706417644001
 21
2276.984159832923
 31
0.0
 11
1692.162662455636
 21
2276.982444306139
 31
0.0
 11
1693.377863587897
 21
2276.981012740461
 31
0.0
 11
1695.525514025207
 21
2276.978482704426
 31
0.0
 11
1697.683677891449
 21
2276.975940283063
 31
0.0
 11
1700.019928280582
 21
2276.973188067168
 31
0.0
 11
1701.580912446797
 21
2276.971349152361
 31
0.0
 11
1705.111472869141
 21
2276.967189981512
 31
0.0
 11
1707.260667076155
 21
2276.964658126842
 31
0.0
 11
1709.228674879161
 21
2276.962339718513
 31
0.0
 11
1710.611597205905
 21
2276.960710569161
 31
0.0
 11
1713.576431823044
 21
2276.957217850659
 31
0.0
 11
1714.519308165053
 21
2276.956107096748
 31
0.0
 11
1716.499360824983
 21
2276.953774498997
 31
0.0
 11
1718.049843903977
 21
2276.951947954977
 31
0.0
 11
1719.579398858793
 21
2276.950146065301
 31
0.0
 11
1721.894708782035
 21
2276.947418518286
 31
0.0
 11
1723.633779471142
 21
2276.945369808946
 31
0.0
 11
1724.875470117937
 21
2276.943907037339
 31
0.0
  0
DIMENSION
  5
4D04
330
A
100
AcDbEntity
  8
DIM
100
AcDbDimension
  2
*D18
 10
1570.923862442114
 20
415.0070921908271
 30
0.0
 11
1593.423862442114
 21
447.0115938789601
 31
0.0
 70
    32
 71
     5
 42
44.99999999999932
 73
     0
 74
     1
 75
     1
  3
tfrom線あり
100
AcDbAlignedDimension
 13
1615.923862442113
 23
495.1304376099248
 33
0.0
 14
1570.923862442114
 24
494.5279464305292
 34
0.0
100
AcDbRotatedDimension
1001
ACAD
1000
DSTYLE
1002
{
1070
   172
1070
     1
1002
}
  0
DIMENSION
  5
4D23
102
{ACAD_REACTORS
330
4D25
102
}
102
{ACAD_XDICTIONARY
360
4D24
102
}
330
A
100
AcDbEntity
  8
DIM
100
AcDbDimension
  2
*D19
 10
1690.605880838491
 20
1950.269412294063
 30
0.0
 11
1630.603679674548
 21
1982.273913982196
 31
0.0
 70
    32
 71
     5
 42
120.0044023278851
 73
     0
 74
     0
 75
     0
  3
tfrom線あり
100
AcDbAlignedDimension
 13
1570.601478510606
 23
2044.453662459259
 33
0.0
 14
1690.605880838491
 24
2048.119946675701
 34
0.0
100
AcDbRotatedDimension
  0
DIMENSION
  5
4D34
102
{ACAD_REACTORS
330
4D36
102
}
102
{ACAD_XDICTIONARY
360
4D35
102
}
330
A
100
AcDbEntity
  8
DIM
100
AcDbDimension
  2
*D20
 10
1487.951339386306
 20
2444.098833072292
 30
0.0
 11
1455.946837698172
 21
2476.610232150661
 31
0.0
 70
    32
 71
     5
 42
65.02279815673683
 73
     0
 74
     1
 75
     1
  3
tfrom線あり
100
AcDbAlignedDimension
 13
1574.148881922066
 23
2509.121631229029
 33
0.0
 14
1574.148881922066
 24
2444.098833072292
 34
0.0
 50
90.0
100
AcDbRotatedDimension
1001
ACAD
1000
DSTYLE
1002
{
1070
   172
1070
     1
1002
}
  0
DIMENSION
  5
4D44
102
{ACAD_REACTORS
330
4D46
102
}
102
{ACAD_XDICTIONARY
360
4D45
102
}
330
A
100
AcDbEntity
  8
DIM
100
AcDbDimension
  2
*D21
 10
1570.909159551938
 20
2300.267031612721
 30
0.0
 11
1478.065905831793
 21
2300.267031612721
 31
0.0
 70
   160
 71
     5
 42
105.0845451302291
 73
     0
 74
     1
 75
     1
  3
tfrom線あり
100
AcDbAlignedDimension
 13
1675.993704682167
 23
2335.50848890099
 33
0.0
 14
1570.909159551938
 24
2305.632283575054
 34
0.0
100
AcDbRotatedDimension
1001
ACAD
1000
DSTYLE
1002
{
1070
     3
1000
深さ<>
1070
   172
1070
     1
1070
    76
1070
     1
1070
    75
1070
     1
1070
   174
1070
     0
1070
   175
1070
     1
1002
}
  0
DIMENSION
  5
4D57
102
{ACAD_REACTORS
330
4D59
102
}
102
{ACAD_XDICTIONARY
360
4D58
102
}
330
A
100
AcDbEntity
  8
DIM
100
AcDbDimension
  2
*D22
 10
1836.511944760028
 20
2298.943891771582
 30
0.0
 11
1804.507443071894
 21
2403.965612791454
 31
0.0
 70
    32
 71
     5
 42
210.0434420397432
 73
     0
 74
     0
 75
     0
  3
tfrom線あり
100
AcDbAlignedDimension
 13
1688.148802817668
 23
2508.987333811326
 33
0.0
 14
1724.901387163456
 24
2298.943891771582
 34
0.0
 50
90.0
100
AcDbRotatedDimension
  0
MTEXT
  5
4D91
330
A
100
AcDbEntity
  8
notes
 62
     7
390
1D
100
AcDbMText
 10
1084.325468491318
 20
1929.502494115374
 30
0.0
 40
24.4326171875
 41
764.7717154610111
 46
119.2873304050088
 71
     1
 72
     1
  1
{※陶器製品には寸法公差があります。\P　洗面器の収め方をご確認の上、必ず現物を合わせて\P  カウンターに切込を行ってください。}
  7
ＭＳ ゴシック
 11
0.0
 21
1.0
 31
0.0
 73
     1
 44
1.043768984567712
1001
ACAD
1000
ACAD_MTEXT_DEFINED_HEIGHT_BEGIN
1070
    46
1040
119.2873304050088
1000
ACAD_MTEXT_DEFINED_HEIGHT_END
  0
DIMENSION
  5
4D93
102
{ACAD_REACTORS
330
4D95
102
}
102
{ACAD_XDICTIONARY
360
4D94
102
}
330
A
100
AcDbEntity
  8
DIM
100
AcDbDimension
  2
*D23
 10
1012.378319594845
 20
1917.663083221369
 30
0.0
 11
1012.378319594845
 21
2272.66308322137
 31
0.0
 70
   160
 71
     5
 42
710.0000000000002
 73
     0
 74
     0
 75
     0
  3
tfrom線あり
100
AcDbAlignedDimension
 13
715.0901024830016
 23
2627.66308322137
 33
0.0
 14
715.0901024830025
 24
1917.663083221369
 34
0.0
 50
90.0
100
AcDbRotatedDimension
  0
DIMENSION
  5
4DB1
330
A
100
AcDbEntity
  8
DIM
100
AcDbDimension
  2
*D25
 10
715.0901024830007
 20
2712.104533953991
 30
0.0
 11
580.4424232018787
 21
2744.109035642124
 31
0.0
 70
    32
  1
270
 71
     5
 42
269.295358562244
 73
     0
 74
     0
 75
     0
  3
tfrom線あり
100
AcDbAlignedDimension
 13
445.7947439207567
 23
2627.663083221367
 33
0.0
 14
715.0901024830007
 24
2627.66308322137
 34
0.0
100
AcDbRotatedDimension
  0
MTEXT
  5
4DED
330
A
100
AcDbEntity
  8
TEMPLATE
 62
     7
390
1D
100
AcDbMText
 10
117.3829908321898
 20
315.4899160806693
 30
0.0
 40
24.4326171875
 41
0.0
 46
27.53672361022102
 71
     1
 72
     1
  1
{洗面器 -CATALANO, New Premium-}
  7
ＭＳ ゴシック
 73
     1
 44
0.7828267384257843
1001
ACAD
1000
ACAD_MTEXT_DEFINED_HEIGHT_BEGIN
1070
    46
1040
27.53672361022102
1000
ACAD_MTEXT_DEFINED_HEIGHT_END
  0
MTEXT
  5
4E18
330
A
100
AcDbEntity
  8
TEMPLATE
 62
     7
390
1D
100
AcDbMText
 10
115.2393758829359
 20
227.1834767200871
 30
0.0
 40
24.4326171875
 41
0.0
 46
75.57584750198177
 71
     1
 72
     1
  1
{壁掛け,カウンタ ー置き/オーバーフロー付き/壁取付ボルト付属/\P陶器/ホワイト}
  7
ＭＳ ゴシック
 73
     1
 44
1.130749733281688
1001
ACAD
1000
ACAD_MTEXT_DEFINED_HEIGHT_BEGIN
1070
    46
1040
75.57584750198177
1000
ACAD_MTEXT_DEFINED_HEIGHT_END
  0
LINE
  5
4E28
102
{ACAD_REACTORS
330
4EC4
102
}
330
A
100
AcDbEntity
  8
MODEL
100
AcDbLine
 10
715.0901024830016
 20
2627.66308322137
 30
0.0
 11
715.0901024830025
 21
1917.663083221369
 31
0.0
  0
LINE
  5
4E87
102
{ACAD_REACTORS
330
4EC4
102
}
330
A
100
AcDbEntity
  8
MODEL
100
AcDbLine
 10
445.7947439207593
 20
1917.663083221368
 30
0.0
 11
715.0901024830025
 21
1917.663083221369
 31
0.0
  0
LINE
  5
4E90
102
{ACAD_REACTORS
330
4EC4
330
4ED7
102
}
330
A
100
AcDbEntity
  8
MODEL
100
AcDbLine
 10
445.7947439207593
 20
1917.663083221368
 30
0.0
 11
445.7947439207567
 21
2627.663083221369
 31
0.0
  0
MTEXT
  5
4EBE
330
A
100
AcDbEntity
  8
notes
 62
     7
390
1D
100
AcDbMText
 10
1217.352546500496
 20
1929.502494115374
 30
0.0
 40
24.4326171875
 41
1126.25550512907
 46
71.16877975708351
 71
     1
 72
     1
  1
{\pxt15;※カウンターの切込寸法は、\P　水栓穴の数や位置に合わせて調整してください。}
  7
ＭＳ ゴシック
 11
0.0
 21
1.0
 31
0.0
 73
     1
 44
1.043768984567712
1001
ACAD
1000
ACAD_MTEXT_DEFINED_HEIGHT_BEGIN
1070
    46
1040
71.16877975708351
1000
ACAD_MTEXT_DEFINED_HEIGHT_END
  0
HATCH
  5
4EC4
330
A
100
AcDbEntity
  8
DIM
100
AcDbHatch
 10
0.0
 20
0.0
 30
0.0
210
0.0
220
0.0
230
1.0
  2
ANSI31
 70
     0
 71
     1
 91
        1
 92
        1
 93
        4
 72
     1
 10
445.7947439207593
 20
1917.663083221368
 11
445.7947439207567
 21
2627.663083221369
 72
     1
 10
445.7947439207567
 20
2627.663083221369
 11
715.0901024830016
 21
2627.66308322137
 72
     1
 10
715.0901024830016
 20
2627.66308322137
 11
715.0901024830025
 21
1917.663083221369
 72
     1
 10
715.0901024830025
 20
1917.663083221369
 11
445.7947439207593
 21
1917.663083221368
 97
        4
330
4E90
330
4E87
330
4E28
330
4A37
 75
     0
 76
     1
 52
0.0
 41
6.0
 77
     0
 78
     1
 53
45.0
 43
0.0
 44
0.0
 45
-13.47038418160373
 46
13.47038418160373
 79
     0
 98
        1
 10
0.0
 20
0.0
1001
ACAD
1010
0.0
1020
0.0
1030
0.0
  0
DIMENSION
  5
4ED5
102
{ACAD_REACTORS
330
4ED7
102
}
102
{ACAD_XDICTIONARY
360
4ED6
102
}
330
A
100
AcDbEntity
  8
DIM
100
AcDbDimension
  2
*D27
 10
415.7947439207567
 20
2712.104533953991
 30
0.0
 11
430.7947439207567
 21
2744.109035642124
 31
0.0
 70
    32
 71
     5
 42
30.0
 73
     0
 74
     1
 75
     1
  3
tfrom線あり
100
AcDbAlignedDimension
 13
445.7947439207567
 23
2627.663083221369
 33
0.0
 14
415.7947439207567
 24
2627.663083221369
 34
0.0
100
AcDbRotatedDimension
1001
ACAD
1000
DSTYLE
1002
{
1070
   172
1070
     1
1070
   175
1070
     0
1002
}
  0
VIEWPORT
  5
349
330
B
100
AcDbEntity
 67
     1
  8
0
100
AcDbViewport
 10
202.5
 20
128.5
 30
0.0
 40
486.0
 41
308.4
 68
     1
 69
     1
 12
202.5
 22
128.5
 13
0.0
 23
0.0
 14
0.5
 24
0.5
 15
0.0
 25
0.0
 16
0.0
 26
0.0
 36
1.0
 17
0.0
 27
0.0
 37
0.0
 42
50.0
 43
0.0
 44
0.0
 45
308.4
 50
0.0
 51
0.0
 72
   100
 90
   557152
  1

281
     0
 71
     1
 74
     0
110
0.0
120
0.0
130
0.0
111
1.0
121
0.0
131
0.0
112
0.0
122
1.0
132
0.0
 79
     0
146
0.0
170
     0
 61
     5
348
26C
292
     1
282
     1
141
0.0
142
0.0
 63
   256
  0
VIEWPORT
  5
34A
330
B
100
AcDbEntity
 67
     1
  8
0
100
AcDbViewport
 10
202.5
 20
128.5
 30
0.0
 40
324.0
 41
205.6
 68
     2
 69
     2
 12
986.6781359294573
 22
1427.077061889956
 13
0.0
 23
0.0
 14
0.5
 24
0.5
 15
0.0
 25
0.0
 16
0.0
 26
0.0
 36
1.0
 17
0.0
 27
0.0
 37
0.0
 42
50.0
 43
0.0
 44
0.0
 45
2890.021615685494
 50
0.0
 51
0.0
 72
   100
 90
   557152
  1

281
     0
 71
     1
 74
     0
110
0.0
120
0.0
130
0.0
111
1.0
121
0.0
131
0.0
112
0.0
122
1.0
132
0.0
 79
     0
146
0.0
170
     0
 61
     5
348
26C
292
     1
282
     1
141
0.0
142
0.0
 63
   256
  0
ENDSEC
  0
SECTION
  2
OBJECTS
  0
DICTIONARY
  5
19
330
0
100
AcDbDictionary
281
     1
  3
ACAD_COLOR
350
674
  3
ACAD_DETAILVIEWSTYLE
350
BBF
  3
ACAD_FIELDLIST
350
146A
  3
ACAD_GROUP
350
1A
  3
ACAD_IMAGE_VARS
350
27B
  3
ACAD_LAYOUT
350
1E
  3
ACAD_MATERIAL
350
263
  3
ACAD_MLEADERSTYLE
350
336
  3
ACAD_MLINESTYLE
350
1B
  3
ACAD_PLOTSETTINGS
350
22
  3
ACAD_PLOTSTYLENAME
350
1F
  3
ACAD_SCALELIST
350
241
  3
ACAD_SECTIONVIEWSTYLE
350
BC0
  3
ACAD_TABLESTYLE
350
278
  3
ACAD_VISUALSTYLE
350
267
  3
ACDB_RECOMPOSE_DATA
350
4F04
  3
AcDbVariableDictionary
350
330
  3
APPDATA
350
27A
  3
DimOffsetDictionary
350
E3E
  0
SUN
  5
904
330
15
100
AcDbSun
 90
        1
290
     0
 63
     7
421
 16777215
 40
1.0
291
     1
 91
  2455826
 92
 54000000
292
     0
 70
     2
 71
   256
280
     1
  0
DICTIONARY
  5
2E1
330
2
100
AcDbDictionary
280
     1
281
     1
  3
ACAD_LAYERSTATES
360
2E2
  3
ACLYDICTIONARY
360
DF9
  0
DICTIONARY
  5
374D
330
A
100
AcDbDictionary
280
     1
281
     1
  3
ACAD_SORTENTS
360
374E
  0
DICTIONARY
  5
1468
330
1466
100
AcDbDictionary
280
     1
281
     1
  0
DICTIONARY
  5
4AB7
330
4AB6
100
AcDbDictionary
280
     1
281
     1
  3
ACAD_DIMASSOC
360
4AB8
  0
DICTIONARY
  5
4AC6
330
4AC5
100
AcDbDictionary
280
     1
281
     1
  3
ACAD_DIMASSOC
360
4AC7
  0
DICTIONARY
  5
4B30
330
4B2F
100
AcDbDictionary
280
     1
281
     1
  3
ACAD_DIMASSOC
360
4B31
  0
DICTIONARY
  5
4B3F
330
4B3E
100
AcDbDictionary
280
     1
281
     1
  3
ACAD_DIMASSOC
360
4B40
  0
DICTIONARY
  5
4B4E
330
4B4D
100
AcDbDictionary
280
     1
281
     1
  3
ACAD_DIMASSOC
360
4B4F
  0
DICTIONARY
  5
4B5D
330
4B5C
100
AcDbDictionary
280
     1
281
     1
  3
ACAD_DIMASSOC
360
4B5E
  0
DICTIONARY
  5
4B6C
330
4B6B
100
AcDbDictionary
280
     1
281
     1
  3
ACAD_DIMASSOC
360
4B6D
  0
DICTIONARY
  5
4C7E
330
4C7D
100
AcDbDictionary
280
     1
281
     1
  3
ACAD_DIMASSOC
360
4C7F
  0
DICTIONARY
  5
4C8D
330
4C8C
100
AcDbDictionary
280
     1
281
     1
  3
ACAD_DIMASSOC
360
4C8E
  0
DICTIONARY
  5
4C9C
330
4C9B
100
AcDbDictionary
280
     1
281
     1
  3
ACAD_DIMASSOC
360
4C9D
  0
DICTIONARY
  5
4CAB
330
4CAA
100
AcDbDictionary
280
     1
281
     1
  3
ACAD_DIMASSOC
360
4CAC
  0
DICTIONARY
  5
4D24
330
4D23
100
AcDbDictionary
280
     1
281
     1
  3
ACAD_DIMASSOC
360
4D25
  0
DICTIONARY
  5
4D35
330
4D34
100
AcDbDictionary
280
     1
281
     1
  3
ACAD_DIMASSOC
360
4D36
  0
DICTIONARY
  5
4D45
330
4D44
100
AcDbDictionary
280
     1
281
     1
  3
ACAD_DIMASSOC
360
4D46
  0
DICTIONARY
  5
4D58
330
4D57
100
AcDbDictionary
280
     1
281
     1
  3
ACAD_DIMASSOC
360
4D59
  0
DICTIONARY
  5
4D94
330
4D93
100
AcDbDictionary
280
     1
281
     1
  3
ACAD_DIMASSOC
360
4D95
  0
DICTIONARY
  5
4ED6
330
4ED5
100
AcDbDictionary
280
     1
281
     1
  3
ACAD_DIMASSOC
360
4ED7
  0
DICTIONARY
  5
674
102
{ACAD_REACTORS
330
19
102
}
330
19
100
AcDbDictionary
281
     1
  0
DICTIONARY
  5
BBF
102
{ACAD_REACTORS
330
19
102
}
330
19
100
AcDbDictionary
281
     1
  0
FIELDLIST
  5
146A
102
{ACAD_REACTORS
330
19
102
}
330
19
100
AcDbIdSet
 90
        0
100
AcDbFieldList
  0
DICTIONARY
  5
1A
102
{ACAD_REACTORS
330
19
102
}
330
19
100
AcDbDictionary
281
     1
  3
*A1
350
36AC
  0
RASTERVARIABLES
  5
27B
102
{ACAD_REACTORS
330
19
102
}
330
19
100
AcDbRasterVariables
 90
        0
 70
     1
 71
     1
 72
     1
  0
DICTIONARY
  5
1E
102
{ACAD_REACTORS
330
19
102
}
330
19
100
AcDbDictionary
281
     1
  3
Layout1
350
21
  3
Model
350
20
  0
DICTIONARY
  5
263
102
{ACAD_REACTORS
330
19
102
}
330
19
100
AcDbDictionary
281
     1
  3
ByBlock
350
265
  3
ByLayer
350
264
  3
Global
350
266
  0
DICTIONARY
  5
336
102
{ACAD_REACTORS
330
19
102
}
330
19
100
AcDbDictionary
281
     1
  3
Standard
350
DAB
  0
DICTIONARY
  5
1B
102
{ACAD_REACTORS
330
19
102
}
330
19
100
AcDbDictionary
281
     1
  3
Standard
350
1C
  0
DICTIONARY
  5
22
102
{ACAD_REACTORS
330
19
102
}
330
19
100
AcDbDictionary
281
     1
  0
ACDBDICTIONARYWDFLT
  5
1F
102
{ACAD_REACTORS
330
19
102
}
330
19
100
AcDbDictionary
281
     1
  3
Normal
350
1D
100
AcDbDictionaryWithDefault
340
1D
  0
DICTIONARY
  5
241
102
{ACAD_REACTORS
330
19
102
}
330
19
100
AcDbDictionary
281
     1
  3
A0
350
242
  3
A1
350
243
  3
A2
350
244
  3
A3
350
245
  3
A4
350
246
  3
A5
350
247
  3
A6
350
248
  3
A7
350
249
  3
A8
350
24A
  3
A9
350
24B
  3
B0
350
24C
  3
B1
350
24D
  3
B2
350
24E
  3
B3
350
24F
  3
B4
350
250
  3
B5
350
251
  3
B6
350
252
  3
B7
350
253
  3
B8
350
254
  3
B9
350
255
  3
C0
350
256
  3
C1
350
257
  3
C2
350
258
  3
C3
350
259
  3
C4
350
25A
  3
C5
350
25B
  3
C6
350
25C
  3
C7
350
25D
  3
C8
350
25E
  3
C9
350
25F
  3
D0
350
260
  3
D1
350
261
  3
D2
350
262
  0
DICTIONARY
  5
BC0
102
{ACAD_REACTORS
330
19
102
}
330
19
100
AcDbDictionary
281
     1
  0
DICTIONARY
  5
278
102
{ACAD_REACTORS
330
19
102
}
330
19
100
AcDbDictionary
281
     1
  3
Standard
350
279
  0
DICTIONARY
  5
267
102
{ACAD_REACTORS
330
19
102
}
330
19
100
AcDbDictionary
281
     1
  3
2dWireframe
350
26C
  3
3D Hidden
350
26E
  3
3dWireframe
350
26D
  3
Basic
350
26F
  3
Brighten
350
273
  3
ColorChange
350
277
  3
Conceptual
350
271
  3
Dim
350
272
  3
EdgeColorOff
350
8FE
  3
Facepattern
350
276
  3
Flat
350
268
  3
FlatWithEdges
350
269
  3
Gouraud
350
26A
  3
GouraudWithEdges
350
26B
  3
Hidden
350
8FB
  3
JitterOff
350
8FC
  3
Linepattern
350
275
  3
OverhangOff
350
8FD
  3
Realistic
350
270
  3
Shaded
350
903
  3
Shaded with edges
350
902
  3
Shades of Gray
350
8FF
  3
Sketchy
350
900
  3
Thicken
350
274
  3
Wireframe
350
8FA
  3
X-Ray
350
901
  0
XRECORD
  5
4F04
102
{ACAD_REACTORS
330
19
102
}
330
19
100
AcDbXrecord
280
     1
 90
        1
330
279
  0
DICTIONARY
  5
330
102
{ACAD_REACTORS
330
19
102
}
330
19
100
AcDbDictionary
281
     1
  3
CANNOSCALE
350
331
  3
CMLEADERSTYLE
350
DB1
  3
CTABLESTYLE
350
335
  3
HPTRANSPARENCY
350
D52
  3
XCLIPFRAME
350
896
  0
DICTIONARY
  5
27A
102
{ACAD_REACTORS
330
19
102
}
330
19
100
AcDbDictionary
281
     1
  0
DICTIONARY
  5
E3E
102
{ACAD_REACTORS
330
19
102
}
330
19
100
AcDbDictionary
281
     1
  3
DIMRAILANGLE
350
ECE
  3
DIMRAILFIRSTOFFSET
350
ECC
  3
DIMRAILOFFSET
350
ECD
  3
DIMRAILSENABLED
350
ECF
  0
DICTIONARY
  5
2E2
102
{ACAD_REACTORS
330
2E1
102
}
330
2E1
100
AcDbDictionary
281
     1
  0
DICTIONARY
  5
DF9
102
{ACAD_REACTORS
330
2E1
102
}
330
2E1
100
AcDbDictionary
281
     1
1001
ACAD
1000
<All
  0
SORTENTSTABLE
  5
374E
102
{ACAD_REACTORS
330
374D
102
}
330
374D
100
AcDbSortentsTable
330
A
331
369B
  5
35AE
331
369C
  5
369A
331
36A7
  5
369B
331
36A8
  5
369C
331
36A9
  5
36A7
331
36AA
  5
36A8
331
36AB
  5
36A9
331
4A2D
  5
4A36
331
4A37
  5
4CE6
331
4A3C
  5
4CE7
331
4A3D
  5
4CE8
331
4A9C
  5
4CE9
331
4AA1
  5
4CEA
331
4AA2
  5
4CEB
331
4AA3
  5
4CEC
331
4AA4
  5
4CED
331
4AB6
  5
4CEE
331
4AC5
  5
4CEF
331
4AD4
  5
4CF0
331
4B0F
  5
4CF1
331
4B10
  5
4CF2
331
4B11
  5
4CF3
331
4B20
  5
4CF4
331
4B2F
  5
4CF5
331
4B3E
  5
4CF6
331
4B4D
  5
4CF7
331
4B5C
  5
4CF8
331
4B6B
  5
4CF9
331
4BE1
  5
4CFA
331
4BE4
  5
4CFB
331
4BE5
  5
4CFC
331
4BE7
  5
4CFD
331
4C46
  5
4CFE
331
4C48
  5
4CFF
331
4C49
  5
4D00
331
4C79
  5
4D01
331
4C7A
  5
4D02
331
4C7D
  5
4D03
331
4C8C
  5
4D04
331
4C9B
  5
4D23
331
4CAA
  5
4D34
331
4CE4
  5
4D44
331
4CE5
  5
4D57
331
4CE6
  5
4D91
331
4CE7
  5
4D92
331
4CE8
  5
4D93
331
4CE9
  5
4DA2
331
4CEA
  5
4DB1
331
4CEB
  5
4DED
331
4CEC
  5
4E18
331
4CED
  5
4E27
331
4CEE
  5
4E28
331
4CEF
  5
4E29
331
4CF0
  5
4E2A
331
4CF1
  5
4E2B
331
4CF2
  5
4E2C
331
4CF3
  5
4E2D
331
4CF4
  5
4E2E
331
4CF5
  5
4E2F
331
4CF6
  5
4E30
331
4CF7
  5
4E32
331
4CF8
  5
4E33
331
4CF9
  5
4E34
331
4CFA
  5
4E73
331
4CFB
  5
4E74
331
4CFC
  5
4E75
331
4CFD
  5
4E76
331
4CFE
  5
4E77
331
4CFF
  5
4E78
331
4D00
  5
4E79
331
4D01
  5
4E7A
331
4D02
  5
4E7B
331
4D03
  5
4E7C
331
4D04
  5
4E7D
331
4D23
  5
4E7E
331
4D34
  5
4E7F
331
4D44
  5
4E80
331
4D57
  5
4E81
331
4D91
  5
4E82
331
4D93
  5
4E84
331
4DB1
  5
4E86
331
4DED
  5
4E87
331
4E18
  5
4E88
331
0
  5
4E89
331
4E28
  5
4E8A
331
0
  5
4E8D
331
4E87
  5
4CE5
331
4E90
  5
4EBD
331
4EBE
  5
4EC2
331
4EC4
  5
4CE4
  0
DIMASSOC
  5
4AB8
102
{ACAD_REACTORS
330
4AB7
102
}
330
4AB7
100
AcDbDimAssoc
330
4AB6
 90
        3
 70
     0
 71
     1
  1
AcDbOsnapPointRef
 72
     1
331
3A17
 73
     0
 91
        0
 40
0.0
 10
0.0
 20
0.0
 30
0.0
 75
     0
  1
AcDbOsnapPointRef
 72
     1
331
3A16
 73
     0
 91
        0
 40
0.0
 10
0.0
 20
0.0
 30
0.0
 75
     0
  0
DIMASSOC
  5
4AC7
102
{ACAD_REACTORS
330
4AC6
102
}
330
4AC6
100
AcDbDimAssoc
330
4AC5
 90
        3
 70
     0
 71
     1
  1
AcDbOsnapPointRef
 72
     1
331
3A2F
 73
     0
 91
        0
 40
0.0
 10
0.0
 20
0.0
 30
0.0
 75
     0
  1
AcDbOsnapPointRef
 72
    13
331
3A2E
 73
     0
 91
        0
 40
0.0
 10
0.0
 20
0.0
 30
0.0
 75
     0
  0
DIMASSOC
  5
4B31
102
{ACAD_REACTORS
330
4B30
102
}
330
4B30
100
AcDbDimAssoc
330
4B2F
 90
        3
 70
     0
 71
     1
  1
AcDbOsnapPointRef
 72
     3
331
3AF7
 73
     0
 91
        0
 40
0.0
 10
0.0
 20
0.0
 30
0.0
 75
     0
  1
AcDbOsnapPointRef
 72
     3
331
3A14
 73
     0
 91
        0
 40
0.0
 10
0.0
 20
0.0
 30
0.0
 75
     0
  0
DIMASSOC
  5
4B40
102
{ACAD_REACTORS
330
4B3F
102
}
330
4B3F
100
AcDbDimAssoc
330
4B3E
 90
        3
 70
     0
 71
     1
  1
AcDbOsnapPointRef
 72
     3
331
3A14
 73
     0
 91
        0
 40
0.0
 10
0.0
 20
0.0
 30
0.0
 75
     0
  1
AcDbOsnapPointRef
 72
     3
331
3A13
 73
     0
 91
        0
 40
0.0
 10
0.0
 20
0.0
 30
0.0
 75
     0
  0
DIMASSOC
  5
4B4F
102
{ACAD_REACTORS
330
4B4E
102
}
330
4B4E
100
AcDbDimAssoc
330
4B4D
 90
        0
 70
     0
 71
     1
  0
DIMASSOC
  5
4B5E
102
{ACAD_REACTORS
330
4B5D
102
}
330
4B5D
100
AcDbDimAssoc
330
4B5C
 90
        3
 70
     0
 71
     1
  1
AcDbOsnapPointRef
 72
     3
331
3A15
 73
     0
 91
        0
 40
0.0
 10
0.0
 20
0.0
 30
0.0
 75
     0
  1
AcDbOsnapPointRef
 72
     3
331
3AF8
 73
     0
 91
        0
 40
0.0
 10
0.0
 20
0.0
 30
0.0
 75
     0
  0
DIMASSOC
  5
4B6D
102
{ACAD_REACTORS
330
4B6C
102
}
330
4B6C
100
AcDbDimAssoc
330
4B6B
 90
        3
 70
     0
 71
     1
  1
AcDbOsnapPointRef
 72
     1
331
3A21
 73
     0
 91
        0
 40
0.0
 10
0.0
 20
0.0
 30
0.0
 75
     0
  1
AcDbOsnapPointRef
 72
    10
331
3A22
 73
     0
 91
        0
 40
0.8792463944745964
 10
0.0
 20
0.0
 30
0.0
 75
     0
  0
DIMASSOC
  5
4C7F
102
{ACAD_REACTORS
330
4C7E
102
}
330
4C7E
100
AcDbDimAssoc
330
4C7D
 90
        3
 70
     0
 71
     1
  1
AcDbOsnapPointRef
 72
     2
331
4C46
 73
     0
 91
        0
 40
0.5
 10
0.0
 20
0.0
 30
0.0
 75
     0
  1
AcDbOsnapPointRef
 72
     2
331
4BE4
 73
     0
 91
        0
 40
0.5
 10
0.0
 20
0.0
 30
0.0
 75
     0
  0
DIMASSOC
  5
4C8E
102
{ACAD_REACTORS
330
4C8D
102
}
330
4C8D
100
AcDbDimAssoc
330
4C8C
 90
        3
 70
     0
 71
     1
  1
AcDbOsnapPointRef
 72
     2
331
4C7A
 73
     0
 91
        0
 40
0.5
 10
0.0
 20
0.0
 30
0.0
 75
     0
  1
AcDbOsnapPointRef
 72
     2
331
4C46
 73
     0
 91
        0
 40
0.5
 10
0.0
 20
0.0
 30
0.0
 75
     0
  0
DIMASSOC
  5
4C9D
102
{ACAD_REACTORS
330
4C9C
102
}
330
4C9C
100
AcDbDimAssoc
330
4C9B
 90
        3
 70
     0
 71
     1
  1
AcDbOsnapPointRef
 72
     2
331
4BE4
 73
     0
 91
        0
 40
0.5
 10
0.0
 20
0.0
 30
0.0
 75
     0
  1
AcDbOsnapPointRef
 72
     2
331
4C49
 73
     0
 91
        0
 40
0.5
 10
0.0
 20
0.0
 30
0.0
 75
     0
  0
DIMASSOC
  5
4CAC
102
{ACAD_REACTORS
330
4CAB
102
}
330
4CAB
100
AcDbDimAssoc
330
4CAA
 90
        2
 70
     0
 71
     1
  1
AcDbOsnapPointRef
 72
     2
331
3A22
 73
     0
 91
        0
 40
0.5
 10
0.0
 20
0.0
 30
0.0
 75
     0
  0
DIMASSOC
  5
4D25
102
{ACAD_REACTORS
330
4D24
102
}
330
4D24
100
AcDbDimAssoc
330
4D23
 90
        3
 70
     0
 71
     1
  1
AcDbOsnapPointRef
 72
    10
331
4CF5
 73
     0
 91
        0
 40
0.9936493955795695
 10
0.0
 20
0.0
 30
0.0
 75
     0
  1
AcDbOsnapPointRef
 72
     1
331
4CFA
 73
     0
 91
        0
 40
0.0
 10
0.0
 20
0.0
 30
0.0
 75
     0
  0
DIMASSOC
  5
4D36
102
{ACAD_REACTORS
330
4D35
102
}
330
4D35
100
AcDbDimAssoc
330
4D34
 90
        1
 70
     0
 71
     1
  1
AcDbOsnapPointRef
 72
    13
331
4CF0
 73
     0
 91
        0
 40
0.0
 10
0.0
 20
0.0
 30
0.0
 75
     0
  0
DIMASSOC
  5
4D46
102
{ACAD_REACTORS
330
4D45
102
}
330
4D45
100
AcDbDimAssoc
330
4D44
 90
        2
 70
     0
 71
     1
  1
AcDbOsnapPointRef
 72
     8
331
4CF5
 73
     0
 91
        0
 40
0.2377738398527303
 10
0.0
 20
0.0
 30
0.0
 75
     1
  1
AcDbOsnapPointRef
 72
    10
331
4CF6
 73
     0
 91
        0
 40
0.4135827776532307
 10
0.0
 20
0.0
 30
0.0
 75
     0
  0
DIMASSOC
  5
4D59
102
{ACAD_REACTORS
330
4D58
102
}
330
4D58
100
AcDbDimAssoc
330
4D57
 90
        3
 70
     0
 71
     1
  1
AcDbOsnapPointRef
 72
    13
331
4CEF
 73
     0
 91
        0
 40
0.0
 10
0.0
 20
0.0
 30
0.0
 75
     0
  1
AcDbOsnapPointRef
 72
     2
331
4CEB
 73
     0
 91
        0
 40
0.5
 10
0.0
 20
0.0
 30
0.0
 75
     0
  0
DIMASSOC
  5
4D95
102
{ACAD_REACTORS
330
4D94
102
}
330
4D94
100
AcDbDimAssoc
330
4D93
 90
        1
 70
     0
 71
     1
  1
AcDbOsnapPointRef
 72
     1
331
4A37
 73
     0
 91
        0
 40
0.0
 10
0.0
 20
0.0
 30
0.0
 75
     0
  0
DIMASSOC
  5
4ED7
102
{ACAD_REACTORS
330
4ED6
102
}
330
4ED6
100
AcDbDimAssoc
330
4ED5
 90
        3
 70
     0
 71
     1
  1
AcDbOsnapPointRef
 72
     1
331
4E90
 73
     0
 91
        0
 40
0.0
 10
0.0
 20
0.0
 30
0.0
 75
     0
  1
AcDbOsnapPointRef
 72
     8
331
4AA1
 73
     0
 91
        0
 40
0.8163895626311963
 10
0.0
 20
0.0
 30
0.0
 75
     1
  1
AcDbOsnapPointRef
 72
     1
331
4E90
 73
     0
 91
        0
 40
0.0
 10
0.0
 20
0.0
 30
0.0
 75
     0
  0
GROUP
  5
36AC
102
{ACAD_REACTORS
330
1A
102
}
330
1A
100
AcDbGroup
300

 70
     1
 71
     1
340
369B
340
369C
340
36A7
340
36A8
340
36A9
340
36AA
340
36AB
  0
LAYOUT
  5
21
102
{ACAD_REACTORS
330
1E
102
}
330
1E
100
AcDbPlotSettings
  1

  2
none_device
  4
ISO_A3_(420.00_x_297.00_MM)
  6

 40
7.5
 41
20.0
 42
7.5
 43
20.0
 44
420.0
 45
297.0
 46
0.0
 47
0.0
 48
0.0
 49
0.0
140
0.0
141
0.0
142
1.0
143
1.0
 70
     0
 72
     1
 73
     0
 74
     0
  7

 75
     0
 76
     0
 77
     2
 78
   300
147
1.0
148
0.0
149
0.0
100
AcDbLayout
  1
Layout1
 70
     0
 71
     0
 10
-7.5
 20
-20.0
 11
412.5
 21
277.0
 12
0.0
 22
0.0
 32
0.0
 14
0.0
 24
0.0
 34
0.0
 15
0.0
 25
0.0
 35
0.0
146
0.0
 13
0.0
 23
0.0
 33
0.0
 16
0.0
 26
0.0
 36
0.0
 17
0.0
 27
0.0
 37
0.0
 76
     0
330
B
331
349
  0
LAYOUT
  5
20
102
{ACAD_REACTORS
330
1E
102
}
330
1E
100
AcDbPlotSettings
  1

  2
none_device
  4
ISO_A3_(420.00_x_297.00_MM)
  6

 40
7.5
 41
20.0
 42
7.5
 43
20.0
 44
420.0
 45
297.0
 46
0.0
 47
0.0
 48
0.0
 49
0.0
140
0.0
141
0.0
142
1.0
143
1.0
 70
  1024
 72
     1
 73
     0
 74
     0
  7

 75
     0
 76
     0
 77
     2
 78
   300
147
1.0
148
0.0
149
0.0
100
AcDbLayout
  1
Model
 70
     0
 71
     1
 10
0.0
 20
0.0
 11
2100.0
 21
2970.0
 12
0.0
 22
0.0
 32
0.0
 14
0.0
 24
0.0
 34
-0.0000000000000142
 15
2100.0
 25
2970.0
 35
0.0000000000000142
146
0.0
 13
0.0
 23
0.0
 33
0.0
 16
0.0
 26
0.0
 36
0.0
 17
0.0
 27
0.0
 37
0.0
 76
     0
330
A
331
15
  0
MATERIAL
  5
265
102
{ACAD_REACTORS
330
263
102
}
330
263
100
AcDbMaterial
  1
ByBlock
 72
     1
 94
      127
  0
MATERIAL
  5
264
102
{ACAD_REACTORS
330
263
102
}
330
263
100
AcDbMaterial
  1
ByLayer
 72
     1
 94
      127
  0
MATERIAL
  5
266
102
{ACAD_REACTORS
330
263
102
}
330
263
100
AcDbMaterial
  1
Global
 72
     1
 94
      127
  0
MLEADERSTYLE
  5
DAB
102
{ACAD_REACTORS
330
336
102
}
330
336
100
AcDbMLeaderStyle
170
     2
171
     1
172
     0
 90
        2
 40
0.0
 41
0.0
173
     1
 91
-1056964608
340
11
 92
       -2
290
     1
 42
2.0
291
     1
 43
8.0
  3
Standard
341
0
 44
4.0
300

342
17
174
     1
178
     6
175
     1
176
     0
 93
-1056964608
 45
4.0
292
     0
297
     0
 46
4.0
343
0
 94
-1056964608
 47
1.0
 49
1.0
140
1.0
293
     1
141
0.0
294
     1
177
     0
142
1.0
295
     0
296
     0
143
3.75
1001
ACAD_MLEADERVER
1070
     2
  0
MLINESTYLE
  5
1C
102
{ACAD_REACTORS
330
1B
102
}
330
1B
100
AcDbMlineStyle
  2
Standard
 70
     0
  3

 62
     0
 51
90.0
 52
90.0
 71
     2
 49
0.5
 62
   256
  6
BYLAYER
 49
-0.5
 62
   256
  6
BYLAYER
  0
ACDBPLACEHOLDER
  5
1D
102
{ACAD_REACTORS
330
1F
102
}
330
1F
  0
SCALE
  5
242
102
{ACAD_REACTORS
330
241
102
}
330
241
100
AcDbScale
 70
     0
300
1:1
140
1.0
141
1.0
290
     1
  0
SCALE
  5
243
102
{ACAD_REACTORS
330
241
102
}
330
241
100
AcDbScale
 70
     0
300
1:2
140
1.0
141
2.0
290
     0
  0
SCALE
  5
244
102
{ACAD_REACTORS
330
241
102
}
330
241
100
AcDbScale
 70
     0
300
1:4
140
1.0
141
4.0
290
     0
  0
SCALE
  5
245
102
{ACAD_REACTORS
330
241
102
}
330
241
100
AcDbScale
 70
     0
300
1:5
140
1.0
141
5.0
290
     0
  0
SCALE
  5
246
102
{ACAD_REACTORS
330
241
102
}
330
241
100
AcDbScale
 70
     0
300
1:8
140
1.0
141
8.0
290
     0
  0
SCALE
  5
247
102
{ACAD_REACTORS
330
241
102
}
330
241
100
AcDbScale
 70
     0
300
1:10
140
1.0
141
10.0
290
     0
  0
SCALE
  5
248
102
{ACAD_REACTORS
330
241
102
}
330
241
100
AcDbScale
 70
     0
300
1:16
140
1.0
141
16.0
290
     0
  0
SCALE
  5
249
102
{ACAD_REACTORS
330
241
102
}
330
241
100
AcDbScale
 70
     0
300
1:20
140
1.0
141
20.0
290
     0
  0
SCALE
  5
24A
102
{ACAD_REACTORS
330
241
102
}
330
241
100
AcDbScale
 70
     0
300
1:30
140
1.0
141
30.0
290
     0
  0
SCALE
  5
24B
102
{ACAD_REACTORS
330
241
102
}
330
241
100
AcDbScale
 70
     0
300
1:40
140
1.0
141
40.0
290
     0
  0
SCALE
  5
24C
102
{ACAD_REACTORS
330
241
102
}
330
241
100
AcDbScale
 70
     0
300
1:50
140
1.0
141
50.0
290
     0
  0
SCALE
  5
24D
102
{ACAD_REACTORS
330
241
102
}
330
241
100
AcDbScale
 70
     0
300
1:100
140
1.0
141
100.0
290
     0
  0
SCALE
  5
24E
102
{ACAD_REACTORS
330
241
102
}
330
241
100
AcDbScale
 70
     0
300
2:1
140
2.0
141
1.0
290
     0
  0
SCALE
  5
24F
102
{ACAD_REACTORS
330
241
102
}
330
241
100
AcDbScale
 70
     0
300
4:1
140
4.0
141
1.0
290
     0
  0
SCALE
  5
250
102
{ACAD_REACTORS
330
241
102
}
330
241
100
AcDbScale
 70
     0
300
8:1
140
8.0
141
1.0
290
     0
  0
SCALE
  5
251
102
{ACAD_REACTORS
330
241
102
}
330
241
100
AcDbScale
 70
     0
300
10:1
140
10.0
141
1.0
290
     0
  0
SCALE
  5
252
102
{ACAD_REACTORS
330
241
102
}
330
241
100
AcDbScale
 70
     0
300
100:1
140
100.0
141
1.0
290
     0
  0
SCALE
  5
253
102
{ACAD_REACTORS
330
241
102
}
330
241
100
AcDbScale
 70
     0
300
1/128" = 1'-0"
140
0.0078125
141
12.0
290
     0
  0
SCALE
  5
254
102
{ACAD_REACTORS
330
241
102
}
330
241
100
AcDbScale
 70
     0
300
1/64" = 1'-0"
140
0.015625
141
12.0
290
     0
  0
SCALE
  5
255
102
{ACAD_REACTORS
330
241
102
}
330
241
100
AcDbScale
 70
     0
300
1/32" = 1'-0"
140
0.03125
141
12.0
290
     0
  0
SCALE
  5
256
102
{ACAD_REACTORS
330
241
102
}
330
241
100
AcDbScale
 70
     0
300
1/16" = 1'-0"
140
0.0625
141
12.0
290
     0
  0
SCALE
  5
257
102
{ACAD_REACTORS
330
241
102
}
330
241
100
AcDbScale
 70
     0
300
3/32" = 1'-0"
140
0.09375
141
12.0
290
     0
  0
SCALE
  5
258
102
{ACAD_REACTORS
330
241
102
}
330
241
100
AcDbScale
 70
     0
300
1/8" = 1'-0"
140
0.125
141
12.0
290
     0
  0
SCALE
  5
259
102
{ACAD_REACTORS
330
241
102
}
330
241
100
AcDbScale
 70
     0
300
3/16" = 1'-0"
140
0.1875
141
12.0
290
     0
  0
SCALE
  5
25A
102
{ACAD_REACTORS
330
241
102
}
330
241
100
AcDbScale
 70
     0
300
1/4" = 1'-0"
140
0.25
141
12.0
290
     0
  0
SCALE
  5
25B
102
{ACAD_REACTORS
330
241
102
}
330
241
100
AcDbScale
 70
     0
300
3/8" = 1'-0"
140
0.375
141
12.0
290
     0
  0
SCALE
  5
25C
102
{ACAD_REACTORS
330
241
102
}
330
241
100
AcDbScale
 70
     0
300
1/2" = 1'-0"
140
0.5
141
12.0
290
     0
  0
SCALE
  5
25D
102
{ACAD_REACTORS
330
241
102
}
330
241
100
AcDbScale
 70
     0
300
3/4" = 1'-0"
140
0.75
141
12.0
290
     0
  0
SCALE
  5
25E
102
{ACAD_REACTORS
330
241
102
}
330
241
100
AcDbScale
 70
     0
300
1" = 1'-0"
140
1.0
141
12.0
290
     0
  0
SCALE
  5
25F
102
{ACAD_REACTORS
330
241
102
}
330
241
100
AcDbScale
 70
     0
300
1-1/2" = 1'-0"
140
1.5
141
12.0
290
     0
  0
SCALE
  5
260
102
{ACAD_REACTORS
330
241
102
}
330
241
100
AcDbScale
 70
     0
300
3" = 1'-0"
140
3.0
141
12.0
290
     0
  0
SCALE
  5
261
102
{ACAD_REACTORS
330
241
102
}
330
241
100
AcDbScale
 70
     0
300
6" = 1'-0"
140
6.0
141
12.0
290
     0
  0
SCALE
  5
262
102
{ACAD_REACTORS
330
241
102
}
330
241
100
AcDbScale
 70
     0
300
1'-0" = 1'-0"
140
12.0
141
12.0
290
     0
  0
TABLESTYLE
  5
279
102
{ACAD_REACTORS
330
278
102
}
102
{ACAD_XDICTIONARY
360
4F02
102
}
330
278
100
AcDbTableStyle
  3
Standard
 70
     0
 71
     0
 40
0.06
 41
0.06
280
     0
281
     0
  7
Standard
140
4.5
170
     2
 62
     0
 63
   257
283
     0
 90
        4
 91
        0
  1

274
    -2
284
     1
 64
     0
275
    -2
285
     1
 65
     0
276
    -2
286
     1
 66
     0
277
    -2
287
     1
 67
     0
278
    -2
288
     1
 68
     0
279
    -2
289
     1
 69
     0
  7
Standard
140
6.0
170
     5
 62
     0
 63
   257
283
     0
 90
        4
 91
        0
  1

274
    -2
284
     1
 64
     0
275
    -2
285
     1
 65
     0
276
    -2
286
     1
 66
     0
277
    -2
287
     1
 67
     0
278
    -2
288
     1
 68
     0
279
    -2
289
     1
 69
     0
  7
Standard
140
4.5
170
     5
 62
     0
 63
   257
283
     0
 90
        4
 91
        0
  1

274
    -2
284
     1
 64
     0
275
    -2
285
     1
 65
     0
276
    -2
286
     1
 66
     0
277
    -2
287
     1
 67
     0
278
    -2
288
     1
 68
     0
279
    -2
289
     1
 69
     0
  0
VISUALSTYLE
  5
26C
102
{ACAD_REACTORS
330
267
102
}
330
267
100
AcDbVisualStyle
  2
2dWireframe
 70
     4
 71
     0
 72
     2
 73
     0
 90
        0
 40
-0.6
 41
-30.0
 62
     5
 63
     7
421
 16777215
 74
     1
 91
        4
 64
     7
 65
   257
 75
     1
175
     1
 42
1.0
 92
        0
 66
   257
 43
1.0
 76
     1
 77
     6
 78
     2
 67
     7
 79
     5
170
     0
171
     0
290
     0
174
     0
 93
        1
 44
0.0
173
     0
291
     0
 45
0.0
  0
VISUALSTYLE
  5
26E
102
{ACAD_REACTORS
330
267
102
}
330
267
100
AcDbVisualStyle
  2
3D Hidden
 70
     6
 71
     1
 72
     2
 73
     2
 90
        0
 40
-0.6
 41
-30.0
 62
     5
 63
     7
421
 16777215
 74
     2
 91
        2
 64
     7
 65
   257
 75
     2
175
     1
 42
40.0
 92
        0
 66
   257
 43
1.0
 76
     1
 77
     6
 78
     2
 67
     7
 79
     3
170
     0
171
     0
290
     0
174
     0
 93
        1
 44
0.0
173
     0
291
     0
 45
0.0
  0
VISUALSTYLE
  5
26D
102
{ACAD_REACTORS
330
267
102
}
330
267
100
AcDbVisualStyle
  2
3dWireframe
 70
     5
 71
     0
 72
     2
 73
     0
 90
        0
 40
-0.6
 41
-30.0
 62
     5
 63
     7
421
 16777215
 74
     1
 91
        4
 64
     7
 65
   257
 75
     1
175
     1
 42
1.0
 92
        0
 66
   257
 43
1.0
 76
     1
 77
     6
 78
     2
 67
     7
 79
     5
170
     0
171
     0
290
     0
174
     0
 93
        1
 44
0.0
173
     0
291
     0
 45
0.0
  0
VISUALSTYLE
  5
26F
102
{ACAD_REACTORS
330
267
102
}
330
267
100
AcDbVisualStyle
  2
Basic
 70
     7
 71
     1
 72
     0
 73
     1
 90
        0
 40
-0.6
 41
-30.0
 62
     5
 63
     7
421
 16777215
 74
     0
 91
        4
 64
     7
 65
   257
 75
     1
175
     1
 42
1.0
 92
        8
 66
     7
 43
1.0
 76
     1
 77
     6
 78
     2
 67
     7
 79
     5
170
     0
171
     0
290
     0
174
     0
 93
        1
 44
0.0
173
     0
291
     1
 45
0.0
  0
VISUALSTYLE
  5
273
102
{ACAD_REACTORS
330
267
102
}
330
267
100
AcDbVisualStyle
  2
Brighten
 70
    12
 71
     2
 72
     2
 73
     0
 90
        0
 40
-0.6
 41
-30.0
 62
     5
 63
     7
421
 16777215
 74
     1
 91
        4
 64
     7
 65
   257
 75
     1
175
     1
 42
1.0
 92
        8
 66
     7
 43
1.0
 76
     1
 77
     6
 78
     2
 67
     7
 79
     5
170
     0
171
     0
290
     0
174
     0
 93
        1
 44
50.0
173
     0
291
     1
 45
0.0
  0
VISUALSTYLE
  5
277
102
{ACAD_REACTORS
330
267
102
}
330
267
100
AcDbVisualStyle
  2
ColorChange
 70
    16
 71
     2
 72
     2
 73
     3
 90
        0
 40
-0.6
 41
-30.0
 62
     5
 63
     8
421
  8421504
 74
     1
 91
        4
 64
     7
 65
   257
 75
     1
175
     1
 42
1.0
 92
        8
 66
     8
424
  8421504
 43
1.0
 76
     1
 77
     6
 78
     2
 67
     7
 79
     5
170
     0
171
     0
290
     0
174
     0
 93
        1
 44
0.0
173
     0
291
     1
 45
0.0
  0
VISUALSTYLE
  5
271
102
{ACAD_REACTORS
330
267
102
}
330
267
100
AcDbVisualStyle
  2
Conceptual
 70
     9
 71
     3
 72
     2
 73
     0
 90
        0
 40
-0.6
 41
-30.0
 62
     5
 63
     7
421
 16777215
 74
     2
 91
        2
 64
     7
 65
   257
 75
     1
175
     1
 42
40.0
 92
        8
 66
     7
 43
1.0
 76
     1
 77
     6
 78
     2
 67
     7
 79
     3
170
     0
171
     0
290
     0
174
     0
 93
        1
 44
0.0
173
     0
291
     0
 45
0.0
  0
VISUALSTYLE
  5
272
102
{ACAD_REACTORS
330
267
102
}
330
267
100
AcDbVisualStyle
  2
Dim
 70
    11
 71
     2
 72
     2
 73
     0
 90
        0
 40
-0.6
 41
-30.0
 62
     5
 63
     7
421
 16777215
 74
     1
 91
        4
 64
     7
 65
   257
 75
     1
175
     1
 42
1.0
 92
        8
 66
     7
 43
1.0
 76
     1
 77
     6
 78
     2
 67
     7
 79
     5
170
     0
171
     0
290
     0
174
     0
 93
        1
 44
-50.0
173
     0
291
     1
 45
0.0
  0
VISUALSTYLE
  5
8FE
102
{ACAD_REACTORS
330
267
102
}
330
267
100
AcDbVisualStyle
  2
EdgeColorOff
 70
    22
 71
     2
 72
     2
 73
     0
 90
        0
 40
0.6
 41
30.0
 62
     5
 63
     7
421
 16777215
 74
     1
 91
        4
 64
     7
 65
   257
 75
     1
175
     1
 42
1.0
 92
        8
 66
     7
 43
1.0
 76
     1
 77
     6
 78
     2
 67
     7
 79
     5
170
     0
171
     0
290
     0
174
     0
 93
        1
 44
0.0
173
     0
291
     1
 45
0.0
  0
VISUALSTYLE
  5
276
102
{ACAD_REACTORS
330
267
102
}
330
267
100
AcDbVisualStyle
  2
Facepattern
 70
    15
 71
     2
 72
     2
 73
     0
 90
        0
 40
-0.6
 41
-30.0
 62
     5
 63
     7
421
 16777215
 74
     1
 91
        4
 64
     7
 65
   257
 75
     1
175
     1
 42
1.0
 92
        8
 66
     7
 43
1.0
 76
     1
 77
     6
 78
     2
 67
     7
 79
     5
170
     0
171
     0
290
     0
174
     0
 93
        1
 44
0.0
173
     0
291
     1
 45
0.0
  0
VISUALSTYLE
  5
268
102
{ACAD_REACTORS
330
267
102
}
330
267
100
AcDbVisualStyle
  2
Flat
 70
     0
 71
     2
 72
     1
 73
     1
 90
        2
 40
-0.6
 41
30.0
 62
     5
 63
     7
421
 16777215
 74
     0
 91
        4
 64
     7
 65
   257
 75
     1
175
     1
 42
1.0
 92
        8
 66
     7
 43
1.0
 76
     1
 77
     6
 78
     2
 67
     7
 79
     5
170
     0
171
     0
290
     0
174
     0
 93
       13
 44
0.0
173
     0
291
     1
 45
0.0
  0
VISUALSTYLE
  5
269
102
{ACAD_REACTORS
330
267
102
}
330
267
100
AcDbVisualStyle
  2
FlatWithEdges
 70
     1
 71
     2
 72
     1
 73
     1
 90
        2
 40
-0.6
 41
30.0
 62
     5
 63
     7
421
 16777215
 74
     1
 91
        4
 64
     7
 65
   257
 75
     1
175
     1
 42
1.0
 92
        0
 66
   257
 43
1.0
 76
     1
 77
     6
 78
     2
 67
     7
 79
     5
170
     0
171
     0
290
     0
174
     0
 93
       13
 44
0.0
173
     0
291
     1
 45
0.0
  0
VISUALSTYLE
  5
26A
102
{ACAD_REACTORS
330
267
102
}
330
267
100
AcDbVisualStyle
  2
Gouraud
 70
     2
 71
     2
 72
     2
 73
     1
 90
        2
 40
-0.6
 41
30.0
 62
     5
 63
     7
421
 16777215
 74
     0
 91
        4
 64
     7
 65
   257
 75
     1
175
     1
 42
1.0
 92
        0
 66
     7
 43
1.0
 76
     1
 77
     6
 78
     2
 67
     7
 79
     5
170
     0
171
     0
290
     0
174
     0
 93
       13
 44
0.0
173
     0
291
     1
 45
0.0
  0
VISUALSTYLE
  5
26B
102
{ACAD_REACTORS
330
267
102
}
330
267
100
AcDbVisualStyle
  2
GouraudWithEdges
 70
     3
 71
     2
 72
     2
 73
     1
 90
        2
 40
-0.6
 41
30.0
 62
     5
 63
     7
421
 16777215
 74
     1
 91
        4
 64
     7
 65
   257
 75
     1
175
     1
 42
1.0
 92
        0
 66
   257
 43
1.0
 76
     1
 77
     6
 78
     2
 67
     7
 79
     5
170
     0
171
     0
290
     0
174
     0
 93
       13
 44
0.0
173
     0
291
     1
 45
0.0
  0
VISUALSTYLE
  5
8FB
102
{ACAD_REACTORS
330
267
102
}
330
267
100
AcDbVisualStyle
  2
Hidden
 70
     6
 71
     1
 72
     2
 73
     2
 90
        0
 40
0.6
 41
30.0
 62
     5
 63
     7
421
 16777215
 74
     2
 91
        2
 64
     7
 65
   257
 75
     2
175
     1
 42
40.0
 92
        0
 66
   257
 43
1.0
 76
     1
 77
     6
 78
     2
 67
     7
 79
     3
170
     0
171
     0
290
     0
174
     0
 93
        1
 44
0.0
173
     0
291
     0
 45
0.0
  0
VISUALSTYLE
  5
8FC
102
{ACAD_REACTORS
330
267
102
}
330
267
100
AcDbVisualStyle
  2
JitterOff
 70
    20
 71
     2
 72
     2
 73
     0
 90
        0
 40
0.6
 41
30.0
 62
     5
 63
     7
421
 16777215
 74
     1
 91
        4
 64
     7
 65
   257
 75
     1
175
     1
 42
1.0
 92
       10
 66
     7
 43
1.0
 76
     1
 77
     6
 78
     2
 67
     7
 79
     5
170
     0
171
     0
290
     0
174
     0
 93
        1
 44
0.0
173
     0
291
     1
 45
0.0
  0
VISUALSTYLE
  5
275
102
{ACAD_REACTORS
330
267
102
}
330
267
100
AcDbVisualStyle
  2
Linepattern
 70
    14
 71
     2
 72
     2
 73
     0
 90
        0
 40
-0.6
 41
-30.0
 62
     5
 63
     7
421
 16777215
 74
     1
 91
        4
 64
     7
 65
   257
 75
     7
175
     7
 42
1.0
 92
        8
 66
     7
 43
1.0
 76
     1
 77
     6
 78
     2
 67
     7
 79
     5
170
     0
171
     0
290
     0
174
     0
 93
        1
 44
0.0
173
     0
291
     1
 45
0.0
  0
VISUALSTYLE
  5
8FD
102
{ACAD_REACTORS
330
267
102
}
330
267
100
AcDbVisualStyle
  2
OverhangOff
 70
    21
 71
     2
 72
     2
 73
     0
 90
        0
 40
0.6
 41
30.0
 62
     5
 63
     7
421
 16777215
 74
     1
 91
        4
 64
     7
 65
   257
 75
     1
175
     1
 42
1.0
 92
        9
 66
     7
 43
1.0
 76
     1
 77
     6
 78
     2
 67
     7
 79
     5
170
     0
171
     0
290
     0
174
     0
 93
        1
 44
0.0
173
     0
291
     1
 45
0.0
  0
VISUALSTYLE
  5
270
102
{ACAD_REACTORS
330
267
102
}
330
267
100
AcDbVisualStyle
  2
Realistic
 70
     8
 71
     2
 72
     2
 73
     0
 90
        0
 40
-0.6
 41
-30.0
 62
     5
 63
     7
421
 16777215
 74
     1
 91
        0
 64
     7
 65
   257
 75
     1
175
     1
 42
1.0
 92
        8
 66
     8
424
  7895160
 43
1.0
 76
     1
 77
     6
 78
     2
 67
     7
 79
     5
170
     0
171
     0
290
     0
174
     0
 93
       13
 44
0.0
173
     0
291
     0
 45
0.0
  0
VISUALSTYLE
  5
903
102
{ACAD_REACTORS
330
267
102
}
330
267
100
AcDbVisualStyle
  2
Shaded
 70
    27
 71
     2
 72
     2
 73
     1
 90
        2
 40
0.6
 41
30.0
 62
     5
 63
     7
421
 16777215
 74
     0
 91
        4
 64
     7
 65
   257
 75
     1
175
     1
 42
1.0
 92
        8
 66
   257
 43
1.0
 76
     1
 77
     6
 78
     2
 67
     8
425
  7895160
 79
     3
170
     0
171
     0
290
     0
174
     0
 93
        5
 44
0.0
173
     0
291
     0
 45
0.0
  0
VISUALSTYLE
  5
902
102
{ACAD_REACTORS
330
267
102
}
330
267
100
AcDbVisualStyle
  2
Shaded with edges
 70
    26
 71
     2
 72
     2
 73
     1
 90
        2
 40
0.6
 41
30.0
 62
     5
 63
     7
421
 16777215
 74
     1
 91
       10
 64
     7
 65
   257
 75
     2
175
     1
 42
1.0
 92
        8
 66
   257
 43
1.0
 76
     1
 77
     6
 78
     2
 67
     7
 79
     3
170
     0
171
     0
290
     0
174
     0
 93
        5
 44
0.0
173
     0
291
     0
 45
0.0
  0
VISUALSTYLE
  5
8FF
102
{ACAD_REACTORS
330
267
102
}
330
267
100
AcDbVisualStyle
  2
Shades of Gray
 70
    23
 71
     2
 72
     2
 73
     3
 90
        0
 40
0.6
 41
30.0
 62
     5
 63
     7
421
 16777215
 74
     2
 91
        2
 64
     7
 65
     7
 75
     1
175
     1
 42
40.0
 92
        8
 66
     7
 43
1.0
 76
     1
 77
     6
 78
     2
 67
     7
 79
     3
170
     0
171
     0
290
     0
174
     0
 93
        1
 44
0.0
173
     0
291
     0
 45
0.0
  0
VISUALSTYLE
  5
900
102
{ACAD_REACTORS
330
267
102
}
330
267
100
AcDbVisualStyle
  2
Sketchy
 70
    24
 71
     1
 72
     2
 73
     2
 90
        0
 40
0.6
 41
30.0
 62
     5
 63
     7
421
 16777215
 74
     2
 91
        2
 64
     7
 65
     7
 75
     1
175
     1
 42
40.0
 92
       11
 66
     7
 43
1.0
 76
     1
 77
     6
 78
     2
 67
     7
 79
     6
170
     0
171
     0
290
     0
174
     0
 93
        1
 44
0.0
173
     0
291
     0
 45
0.0
  0
VISUALSTYLE
  5
274
102
{ACAD_REACTORS
330
267
102
}
330
267
100
AcDbVisualStyle
  2
Thicken
 70
    13
 71
     2
 72
     2
 73
     0
 90
        0
 40
-0.6
 41
-30.0
 62
     5
 63
     7
421
 16777215
 74
     1
 91
        4
 64
     7
 65
   257
 75
     1
175
     1
 42
1.0
 92
       12
 66
     7
 43
1.0
 76
     1
 77
     6
 78
     2
 67
     7
 79
     5
170
     0
171
     0
290
     0
174
     0
 93
        1
 44
0.0
173
     0
291
     1
 45
0.0
  0
VISUALSTYLE
  5
8FA
102
{ACAD_REACTORS
330
267
102
}
330
267
100
AcDbVisualStyle
  2
Wireframe
 70
     5
 71
     0
 72
     2
 73
     0
 90
        0
 40
0.6
 41
30.0
 62
     5
 63
     7
421
 16777215
 74
     1
 91
        4
 64
     7
 65
   257
 75
     1
175
     1
 42
1.0
 92
        0
 66
   257
 43
1.0
 76
     1
 77
     6
 78
     2
 67
     7
 79
     3
170
     0
171
     0
290
     0
174
     0
 93
        1
 44
0.0
173
     0
291
     0
 45
0.0
  0
VISUALSTYLE
  5
901
102
{ACAD_REACTORS
330
267
102
}
330
267
100
AcDbVisualStyle
  2
X-Ray
 70
    25
 71
     2
 72
     2
 73
     1
 90
        1
 40
0.5
 41
30.0
 62
     5
 63
     7
421
 16777215
 74
     1
 91
        0
 64
     7
 65
   257
 75
     1
175
     1
 42
1.0
 92
        8
 66
     7
 43
1.0
 76
     1
 77
     6
 78
     2
 67
     7
 79
     3
170
     0
171
     0
290
     0
174
     0
 93
       13
 44
0.0
173
     0
291
     0
 45
0.0
  0
DICTIONARYVAR
  5
331
102
{ACAD_REACTORS
330
330
102
}
330
330
100
DictionaryVariables
280
     0
  1
1:1
  0
DICTIONARYVAR
  5
DB1
102
{ACAD_REACTORS
330
330
102
}
330
330
100
DictionaryVariables
280
     0
  1
Standard
  0
DICTIONARYVAR
  5
335
102
{ACAD_REACTORS
330
330
102
}
330
330
100
DictionaryVariables
280
     0
  1
Standard
  0
DICTIONARYVAR
  5
D52
102
{ACAD_REACTORS
330
330
102
}
330
330
100
DictionaryVariables
280
     0
  1
ByLayer
  0
DICTIONARYVAR
  5
896
102
{ACAD_REACTORS
330
330
102
}
330
330
100
DictionaryVariables
280
     0
  1
0
  0
DICTIONARYVAR
  5
ECE
102
{ACAD_REACTORS
330
E3E
102
}
330
E3E
100
DictionaryVariables
280
     0
  1
0.261799
  0
DICTIONARYVAR
  5
ECC
102
{ACAD_REACTORS
330
E3E
102
}
330
E3E
100
DictionaryVariables
280
     0
  1
0.400000
  0
DICTIONARYVAR
  5
ECD
102
{ACAD_REACTORS
330
E3E
102
}
330
E3E
100
DictionaryVariables
280
     0
  1
0.250000
  0
DICTIONARYVAR
  5
ECF
102
{ACAD_REACTORS
330
E3E
102
}
330
E3E
100
DictionaryVariables
280
     0
  1
1
  0
DICTIONARY
  5
4F02
330
279
100
AcDbDictionary
280
     1
281
     1
  3
ACAD_ROUNDTRIP_2008_TABLESTYLE_CELLSTYLEMAP
360
4F03
  0
CELLSTYLEMAP
  5
4F03
102
{ACAD_REACTORS
330
4F02
102
}
330
4F02
100
AcDbCellStyleMap
 90
        3
300
CELLSTYLE
  1
TABLEFORMAT_BEGIN
 90
        5
170
     1
 91
        0
 92
    32768
 62
   257
 93
        1
300
CONTENTFORMAT
  1
CONTENTFORMAT_BEGIN
 90
        0
 91
        0
 92
        4
 93
        0
300

 40
0.0
140
1.0
 94
        5
 62
     0
340
17
144
6.0
309
CONTENTFORMAT_END
171
     1
301
MARGIN
  1
CELLMARGIN_BEGIN
 40
0.06
 40
0.06
 40
0.06
 40
0.06
 40
0.18
 40
0.18
309
CELLMARGIN_END
 94
        6
 95
        1
302
GRIDFORMAT
  1
GRIDFORMAT_BEGIN
 90
        0
 91
        1
 62
     0
 92
       -2
340
0
 93
        0
 40
0.045
309
GRIDFORMAT_END
 95
        2
302
GRIDFORMAT
  1
GRIDFORMAT_BEGIN
 90
        0
 91
        1
 62
     0
 92
       -2
340
0
 93
        0
 40
0.045
309
GRIDFORMAT_END
 95
        4
302
GRIDFORMAT
  1
GRIDFORMAT_BEGIN
 90
        0
 91
        1
 62
     0
 92
       -2
340
0
 93
        0
 40
0.045
309
GRIDFORMAT_END
 95
        8
302
GRIDFORMAT
  1
GRIDFORMAT_BEGIN
 90
        0
 91
        1
 62
     0
 92
       -2
340
0
 93
        0
 40
0.045
309
GRIDFORMAT_END
 95
       16
302
GRIDFORMAT
  1
GRIDFORMAT_BEGIN
 90
        0
 91
        1
 62
     0
 92
       -2
340
0
 93
        0
 40
0.045
309
GRIDFORMAT_END
 95
       32
302
GRIDFORMAT
  1
GRIDFORMAT_BEGIN
 90
        0
 91
        1
 62
     0
 92
       -2
340
0
 93
        0
 40
0.045
309
GRIDFORMAT_END
309
TABLEFORMAT_END
  1
CELLSTYLE_BEGIN
 90
        1
 91
        1
300
_TITLE
309
CELLSTYLE_END
300
CELLSTYLE
  1
TABLEFORMAT_BEGIN
 90
        5
170
     1
 91
        0
 92
        0
 62
   257
 93
        1
300
CONTENTFORMAT
  1
CONTENTFORMAT_BEGIN
 90
        0
 91
        0
 92
        4
 93
        0
300

 40
0.0
140
1.0
 94
        5
 62
     0
340
17
144
4.5
309
CONTENTFORMAT_END
171
     1
301
MARGIN
  1
CELLMARGIN_BEGIN
 40
0.06
 40
0.06
 40
0.06
 40
0.06
 40
0.18
 40
0.18
309
CELLMARGIN_END
 94
        6
 95
        1
302
GRIDFORMAT
  1
GRIDFORMAT_BEGIN
 90
        0
 91
        1
 62
     0
 92
       -2
340
0
 93
        0
 40
0.045
309
GRIDFORMAT_END
 95
        2
302
GRIDFORMAT
  1
GRIDFORMAT_BEGIN
 90
        0
 91
        1
 62
     0
 92
       -2
340
0
 93
        0
 40
0.045
309
GRIDFORMAT_END
 95
        4
302
GRIDFORMAT
  1
GRIDFORMAT_BEGIN
 90
        0
 91
        1
 62
     0
 92
       -2
340
0
 93
        0
 40
0.045
309
GRIDFORMAT_END
 95
        8
302
GRIDFORMAT
  1
GRIDFORMAT_BEGIN
 90
        0
 91
        1
 62
     0
 92
       -2
340
0
 93
        0
 40
0.045
309
GRIDFORMAT_END
 95
       16
302
GRIDFORMAT
  1
GRIDFORMAT_BEGIN
 90
        0
 91
        1
 62
     0
 92
       -2
340
0
 93
        0
 40
0.045
309
GRIDFORMAT_END
 95
       32
302
GRIDFORMAT
  1
GRIDFORMAT_BEGIN
 90
        0
 91
        1
 62
     0
 92
       -2
340
0
 93
        0
 40
0.045
309
GRIDFORMAT_END
309
TABLEFORMAT_END
  1
CELLSTYLE_BEGIN
 90
        2
 91
        1
300
_HEADER
309
CELLSTYLE_END
300
CELLSTYLE
  1
TABLEFORMAT_BEGIN
 90
        5
170
     1
 91
        0
 92
        0
 62
   257
 93
        1
300
CONTENTFORMAT
  1
CONTENTFORMAT_BEGIN
 90
        0
 91
        0
 92
        4
 93
        0
300

 40
0.0
140
1.0
 94
        2
 62
     0
340
17
144
4.5
309
CONTENTFORMAT_END
171
     1
301
MARGIN
  1
CELLMARGIN_BEGIN
 40
0.06
 40
0.06
 40
0.06
 40
0.06
 40
0.18
 40
0.18
309
CELLMARGIN_END
 94
        6
 95
        1
302
GRIDFORMAT
  1
GRIDFORMAT_BEGIN
 90
        0
 91
        1
 62
     0
 92
       -2
340
0
 93
        0
 40
0.045
309
GRIDFORMAT_END
 95
        2
302
GRIDFORMAT
  1
GRIDFORMAT_BEGIN
 90
        0
 91
        1
 62
     0
 92
       -2
340
0
 93
        0
 40
0.045
309
GRIDFORMAT_END
 95
        4
302
GRIDFORMAT
  1
GRIDFORMAT_BEGIN
 90
        0
 91
        1
 62
     0
 92
       -2
340
0
 93
        0
 40
0.045
309
GRIDFORMAT_END
 95
        8
302
GRIDFORMAT
  1
GRIDFORMAT_BEGIN
 90
        0
 91
        1
 62
     0
 92
       -2
340
0
 93
        0
 40
0.045
309
GRIDFORMAT_END
 95
       16
302
GRIDFORMAT
  1
GRIDFORMAT_BEGIN
 90
        0
 91
        1
 62
     0
 92
       -2
340
0
 93
        0
 40
0.045
309
GRIDFORMAT_END
 95
       32
302
GRIDFORMAT
  1
GRIDFORMAT_BEGIN
 90
        0
 91
        1
 62
     0
 92
       -2
340
0
 93
        0
 40
0.045
309
GRIDFORMAT_END
309
TABLEFORMAT_END
  1
CELLSTYLE_BEGIN
 90
        3
 91
        2
300
_DATA
309
CELLSTYLE_END
  0
ENDSEC
  0
EOF
