  0
SECTION
  2
HEADER
  9
$ACADVER
  1
AC1021
  9
$ACADMAINTVER
 70
    25
  9
$DWGCODEPAGE
  3
ANSI_932
  9
$LASTSAVEDBY
  1
tform
  9
$INSBASE
 10
0.0
 20
0.0
 30
0.0
  9
$EXTMIN
 10
0.0
 20
0.0
 30
-0.0000000000000142
  9
$EXTMAX
 10
2100.0
 20
2970.0
 30
0.0000000000000142
  9
$LIMMIN
 10
0.0
 20
0.0
  9
$LIMMAX
 10
2100.0
 20
2970.0
  9
$ORTHOMODE
 70
     1
  9
$REGENMODE
 70
     1
  9
$FILLMODE
 70
     1
  9
$QTEXTMODE
 70
     0
  9
$MIRRTEXT
 70
     1
  9
$LTSCALE
 40
5.0
  9
$ATTMODE
 70
     1
  9
$TEXTSIZE
 40
2.5
  9
$TRACEWID
 40
1.0
  9
$TEXTSTYLE
  7
ＭＳ ゴシック
  9
$CLAYER
  8
DIM
  9
$CELTYPE
  6
ByLayer
  9
$CECOLOR
 62
   256
  9
$CELTSCALE
 40
1.0
  9
$DISPSILH
 70
     0
  9
$DIMSCALE
 40
1.0
  9
$DIMASZ
 40
10.0
  9
$DIMEXO
 40
30.0
  9
$DIMDLI
 40
0.9999999999999999
  9
$DIMRND
 40
0.0
  9
$DIMDLE
 40
0.0
  9
$DIMEXE
 40
0.0
  9
$DIMTP
 40
0.0
  9
$DIMTM
 40
0.0
  9
$DIMTXT
 40
24.0
  9
$DIMCEN
 40
0.0
  9
$DIMTSZ
 40
0.0
  9
$DIMTOL
 70
     0
  9
$DIMLIM
 70
     0
  9
$DIMTIH
 70
     0
  9
$DIMTOH
 70
     0
  9
$DIMSE1
 70
     0
  9
$DIMSE2
 70
     0
  9
$DIMTAD
 70
     1
  9
$DIMZIN
 70
    11
  9
$DIMBLK
  1
DOT
  9
$DIMASO
 70
     1
  9
$DIMSHO
 70
     1
  9
$DIMPOST
  1
<>
  9
$DIMAPOST
  1
[]
  9
$DIMALT
 70
     0
  9
$DIMALTD
 70
     1
  9
$DIMALTF
 40
1.0
  9
$DIMLFAC
 40
1.0
  9
$DIMTOFL
 70
     0
  9
$DIMTVP
 40
0.0
  9
$DIMTIX
 70
     1
  9
$DIMSOXD
 70
     0
  9
$DIMSAH
 70
     0
  9
$DIMBLK1
  1

  9
$DIMBLK2
  1

  9
$DIMSTYLE
  2
tfrom線あり
  9
$DIMCLRD
 70
     0
  9
$DIMCLRE
 70
     0
  9
$DIMCLRT
 70
     0
  9
$DIMTFAC
 40
1.0
  9
$DIMGAP
 40
20.0
  9
$DIMJUST
 70
     0
  9
$DIMSD1
 70
     0
  9
$DIMSD2
 70
     0
  9
$DIMTOLJ
 70
     1
  9
$DIMTZIN
 70
    11
  9
$DIMALTZ
 70
    11
  9
$DIMALTTZ
 70
    11
  9
$DIMUPT
 70
     0
  9
$DIMDEC
 70
     0
  9
$DIMTDEC
 70
     1
  9
$DIMALTU
 70
     2
  9
$DIMALTTD
 70
     2
  9
$DIMTXSTY
  7
ＭＳ ゴシック
  9
$DIMAUNIT
 70
     0
  9
$DIMADEC
 70
     2
  9
$DIMALTRND
 40
0.0
  9
$DIMAZIN
 70
     0
  9
$DIMDSEP
 70
    46
  9
$DIMATFIT
 70
     0
  9
$DIMFRAC
 70
     2
  9
$DIMLDRBLK
  1
DOT
  9
$DIMLUNIT
 70
     2
  9
$DIMLWD
 70
    -2
  9
$DIMLWE
 70
    -2
  9
$DIMTMOVE
 70
     0
  9
$DIMFXL
 40
1.0
  9
$DIMFXLON
 70
     0
  9
$DIMJOGANG
 40
0.7853981633974483
  9
$DIMTFILL
 70
     0
  9
$DIMTFILLCLR
 70
     0
  9
$DIMARCSYM
 70
     0
  9
$DIMLTYPE
  6

  9
$DIMLTEX1
  6

  9
$DIMLTEX2
  6

  9
$LUNITS
 70
     2
  9
$LUPREC
 70
     0
  9
$SKETCHINC
 40
0.1
  9
$FILLETRAD
 40
0.0
  9
$AUNITS
 70
     0
  9
$AUPREC
 70
     0
  9
$MENU
  1
acad
  9
$ELEVATION
 40
0.0
  9
$PELEVATION
 40
0.0
  9
$THICKNESS
 40
0.0
  9
$LIMCHECK
 70
     0
  9
$CHAMFERA
 40
0.0
  9
$CHAMFERB
 40
0.0
  9
$CHAMFERC
 40
0.0
  9
$CHAMFERD
 40
0.0
  9
$SKPOLY
 70
     0
  9
$TDCREATE
 40
2447893.375
  9
$TDUCREATE
 40
0.0
  9
$TDUPDATE
 40
2459741.602564005
  9
$TDUUPDATE
 40
2459741.227564005
  9
$TDINDWG
 40
0.1728735301
  9
$TDUSRTIMER
 40
0.0000125347
  9
$USRTIMER
 70
     1
  9
$ANGBASE
 50
0.0
  9
$ANGDIR
 70
     0
  9
$PDMODE
 70
     1
  9
$PDSIZE
 40
-2.0
  9
$PLINEWID
 40
0.0
  9
$SPLFRAME
 70
     0
  9
$SPLINETYPE
 70
     6
  9
$SPLINESEGS
 70
     8
  9
$HANDSEED
  5
4469
  9
$SURFTAB1
 70
     6
  9
$SURFTAB2
 70
     6
  9
$SURFTYPE
 70
     6
  9
$SURFU
 70
     6
  9
$SURFV
 70
     6
  9
$UCSBASE
  2

  9
$UCSNAME
  2

  9
$UCSORG
 10
0.0
 20
0.0
 30
0.0
  9
$UCSXDIR
 10
1.0
 20
0.0
 30
0.0
  9
$UCSYDIR
 10
0.0
 20
1.0
 30
0.0
  9
$UCSORTHOREF
  2

  9
$UCSORTHOVIEW
 70
     0
  9
$UCSORGTOP
 10
0.0
 20
0.0
 30
0.0
  9
$UCSORGBOTTOM
 10
0.0
 20
0.0
 30
0.0
  9
$UCSORGLEFT
 10
0.0
 20
0.0
 30
0.0
  9
$UCSORGRIGHT
 10
0.0
 20
0.0
 30
0.0
  9
$UCSORGFRONT
 10
0.0
 20
0.0
 30
0.0
  9
$UCSORGBACK
 10
0.0
 20
0.0
 30
0.0
  9
$PUCSBASE
  2

  9
$PUCSNAME
  2

  9
$PUCSORG
 10
0.0
 20
0.0
 30
0.0
  9
$PUCSXDIR
 10
1.0
 20
0.0
 30
0.0
  9
$PUCSYDIR
 10
0.0
 20
1.0
 30
0.0
  9
$PUCSORTHOREF
  2

  9
$PUCSORTHOVIEW
 70
     0
  9
$PUCSORGTOP
 10
0.0
 20
0.0
 30
0.0
  9
$PUCSORGBOTTOM
 10
0.0
 20
0.0
 30
0.0
  9
$PUCSORGLEFT
 10
0.0
 20
0.0
 30
0.0
  9
$PUCSORGRIGHT
 10
0.0
 20
0.0
 30
0.0
  9
$PUCSORGFRONT
 10
0.0
 20
0.0
 30
0.0
  9
$PUCSORGBACK
 10
0.0
 20
0.0
 30
0.0
  9
$USERI1
 70
     0
  9
$USERI2
 70
     0
  9
$USERI3
 70
     0
  9
$USERI4
 70
     0
  9
$USERI5
 70
     0
  9
$USERR1
 40
0.0
  9
$USERR2
 40
0.0
  9
$USERR3
 40
0.0
  9
$USERR4
 40
0.0
  9
$USERR5
 40
0.0
  9
$WORLDVIEW
 70
     1
  9
$SHADEDGE
 70
     3
  9
$SHADEDIF
 70
    70
  9
$TILEMODE
 70
     1
  9
$MAXACTVP
 70
    64
  9
$PINSBASE
 10
0.0
 20
0.0
 30
0.0
  9
$PLIMCHECK
 70
     0
  9
$PEXTMIN
 10
0.0
 20
0.0
 30
0.0
  9
$PEXTMAX
 10
0.0
 20
0.0
 30
0.0
  9
$PLIMMIN
 10
-7.5
 20
-20.0
  9
$PLIMMAX
 10
412.5
 20
277.0
  9
$UNITMODE
 70
     0
  9
$VISRETAIN
 70
     0
  9
$PLINEGEN
 70
     1
  9
$PSLTSCALE
 70
     0
  9
$TREEDEPTH
 70
  3020
  9
$CMLSTYLE
  2
Standard
  9
$CMLJUST
 70
     0
  9
$CMLSCALE
 40
1.0
  9
$PROXYGRAPHICS
 70
     0
  9
$MEASUREMENT
 70
     1
  9
$CELWEIGHT
370
    -1
  9
$ENDCAPS
280
     0
  9
$JOINSTYLE
280
     0
  9
$LWDISPLAY
290
     1
  9
$INSUNITS
 70
     4
  9
$HYPERLINKBASE
  1

  9
$STYLESHEET
  1

  9
$XEDIT
290
     1
  9
$CEPSNTYPE
380
     0
  9
$PSTYLEMODE
290
     1
  9
$FINGERPRINTGUID
  2

  9
$VERSIONGUID
  2

  9
$EXTNAMES
290
     1
  9
$PSVPSCALE
 40
0.0
  9
$OLESTARTUP
290
     0
  9
$SORTENTS
280
   127
  9
$INDEXCTL
280
     0
  9
$HIDETEXT
280
     1
  9
$XCLIPFRAME
290
     0
  9
$HALOGAP
280
     0
  9
$OBSCOLOR
 70
   257
  9
$OBSLTYPE
280
     0
  9
$INTERSECTIONDISPLAY
280
     0
  9
$INTERSECTIONCOLOR
 70
   257
  9
$DIMASSOC
280
     2
  9
$PROJECTNAME
  1

  9
$CAMERADISPLAY
290
     0
  9
$LENSLENGTH
 40
50.0
  9
$CAMERAHEIGHT
 40
0.0
  9
$STEPSPERSEC
 40
2.0
  9
$STEPSIZE
 40
6.0
  9
$3DDWFPREC
 40
2.0
  9
$PSOLWIDTH
 40
0.25
  9
$PSOLHEIGHT
 40
4.0
  9
$LOFTANG1
 40
1.570796326794897
  9
$LOFTANG2
 40
1.570796326794897
  9
$LOFTMAG1
 40
0.0
  9
$LOFTMAG2
 40
0.0
  9
$LOFTPARAM
 70
     7
  9
$LOFTNORMALS
280
     1
  9
$LATITUDE
 40
37.795
  9
$LONGITUDE
 40
-122.394
  9
$NORTHDIRECTION
 40
0.0
  9
$TIMEZONE
 70
 -8000
  9
$LIGHTGLYPHDISPLAY
280
     1
  9
$TILEMODELIGHTSYNCH
280
     1
  9
$SOLIDHIST
280
     1
  9
$SHOWHIST
280
     1
  9
$DWFFRAME
280
     2
  9
$DGNFRAME
280
     2
  9
$REALWORLDSCALE
290
     1
  9
$INTERFERECOLOR
 62
   256
  9
$CSHADOW
280
     0
  9
$SHADOWPLANELOCATION
 40
0.0
  0
ENDSEC
  0
SECTION
  2
CLASSES
  0
CLASS
  1
LWPOLYLINE
  2
AcDbPolyline
  3
ObjectDBX Classes
 90
        0
 91
        1
280
     0
281
     1
  0
CLASS
  1
IMAGE
  2
AcDbRasterImage
  3
ISM
 90
      127
 91
        4
280
     0
281
     1
  0
CLASS
  1
OLE2FRAME
  2
AcDbOle2Frame
  3
ObjectDBX Classes
 90
        0
 91
        1
280
     0
281
     1
  0
CLASS
  1
HATCH
  2
AcDbHatch
  3
ObjectDBX Classes
 90
        0
 91
        1
280
     0
281
     1
  0
CLASS
  1
DICTIONARYVAR
  2
AcDbDictionaryVar
  3
ObjectDBX Classes
 90
        0
 91
        3
280
     0
281
     0
  0
CLASS
  1
RASTERVARIABLES
  2
AcDbRasterVariables
  3
ISM
 90
        0
 91
        3
280
     0
281
     0
  0
CLASS
  1
IMAGEDEF
  2
AcDbRasterImageDef
  3
ISM
 90
        0
 91
        3
280
     0
281
     0
  0
CLASS
  1
IMAGEDEF_REACTOR
  2
AcDbRasterImageDefReactor
  3
ISM
 90
        1
 91
        3
280
     0
281
     0
  0
CLASS
  1
IDBUFFER
  2
AcDbIdBuffer
  3
ObjectDBX Classes
 90
        0
 91
        3
280
     0
281
     0
  0
CLASS
  1
SPATIAL_FILTER
  2
AcDbSpatialFilter
  3
ObjectDBX Classes
 90
        0
 91
        3
280
     0
281
     0
  0
CLASS
  1
XRECORD
  2
AcDbXrecord
  3
ObjectDBX Classes
 90
        0
 91
        1
280
     0
281
     0
  0
CLASS
  1
SORTENTSTABLE
  2
AcDbSortentsTable
  3
ObjectDBX Classes
 90
        0
 91
        3
280
     0
281
     0
  0
CLASS
  1
LAYER_INDEX
  2
AcDbLayerIndex
  3
ObjectDBX Classes
 90
        0
 91
        3
280
     0
281
     0
  0
CLASS
  1
SPATIAL_INDEX
  2
AcDbSpatialIndex
  3
AutoCAD 2000
 90
        0
 91
        3
280
     0
281
     0
  0
CLASS
  1
OBJECT_PTR
  2
CAseDLPNTableRecord
  3
ASE-LPNTableRecord
 90
        1
 91
        3
280
     0
281
     0
  0
CLASS
  1
LAYOUT
  2
AcDbLayout
  3
ObjectDBX Classes
 90
        0
 91
        1
280
     0
281
     0
  0
CLASS
  1
PLOTSETTINGS
  2
AcDbPlotSettings
  3
ObjectDBX Classes
 90
        0
 91
        3
280
     0
281
     0
  0
CLASS
  1
ACDBDICTIONARYWDFLT
  2
AcDbDictionaryWithDefault
  3
ObjectDBX Classes
 90
        0
 91
        3
280
     0
281
     0
  0
CLASS
  1
ACDBPLACEHOLDER
  2
AcDbPlaceHolder
  3
ObjectDBX Classes
 90
        0
 91
        1
280
     0
281
     0
  0
CLASS
  1
SCALE
  2
AcDbScale
  3
ObjectDBX Classes
 90
     1153
 91
        3
280
     0
281
     0
  0
CLASS
  1
MATERIAL
  2
AcDbMaterial
  3
ObjectDBX Classes
 90
     1153
 91
        3
280
     0
281
     0
  0
CLASS
  1
VISUALSTYLE
  2
AcDbVisualStyle
  3
ObjectDBX Classes
 90
     4095
 91
        3
280
     0
281
     0
  0
CLASS
  1
TABLESTYLE
  2
AcDbTableStyle
  3
ObjectDBX Classes
 90
     4095
 91
        3
280
     0
281
     0
  0
CLASS
  1
DIMASSOC
  2
AcDbDimAssoc
  3
"AcDbDimAssoc|Product Desc:     AcDim ARX App For Dimension|Company:          Autodesk, Inc.|WEB Address:      www.autodesk.com"
 90
        0
 91
        3
280
     0
281
     0
  0
CLASS
  1
CELLSTYLEMAP
  2
AcDbCellStyleMap
  3
ObjectDBX Classes
 90
     1152
 91
        3
280
     0
281
     0
  0
CLASS
  1
SUN
  2
AcDbSun
  3
SCENEOE
 90
     1153
 91
        3
280
     0
281
     0
  0
CLASS
  1
MLEADERSTYLE
  2
AcDbMLeaderStyle
  3
ACDB_MLEADERSTYLE_CLASS
 90
     4095
 91
        3
280
     0
281
     0
  0
CLASS
  1
FIELD
  2
AcDbField
  3
ObjectDBX Classes
 90
     1152
 91
        3
280
     0
281
     0
  0
CLASS
  1
FIELDLIST
  2
AcDbFieldList
  3
ObjectDBX Classes
 90
     1152
 91
        3
280
     0
281
     0
  0
CLASS
  1
MULTILEADER
  2
AcDbMLeader
  3
ACDB_MLEADER_CLASS
 90
     1025
 91
        3
280
     0
281
     1
  0
ENDSEC
  0
SECTION
  2
TABLES
  0
TABLE
  2
VPORT
  5
7
330
0
100
AcDbSymbolTable
 70
     1
  0
VPORT
  5
15
330
7
100
AcDbSymbolTableRecord
100
AcDbViewportTableRecord
  2
*ACTIVE
 70
     0
 10
0.0
 20
0.0
 11
1.0
 21
1.0
 12
1141.020135670899
 22
1411.401285469834
 13
0.0
 23
0.0
 14
1.0
 24
1.0
 15
0.0
 25
0.0
 16
0.0
 26
0.0
 36
1.0
 17
-91.02013567089898
 27
73.59871453016603
 37
-46.86809886248109
 40
3029.4
 41
2.338709677419355
 42
50.0
 43
0.0
 44
0.0
 50
0.0
 51
0.0
 71
    16
 72
  2000
 73
     1
 74
     1
 75
     0
 76
     0
 77
     0
 78
     0
281
     0
 65
     1
110
0.0
120
0.0
130
0.0
111
1.0
121
0.0
131
0.0
112
0.0
122
1.0
132
0.0
 79
     0
146
0.0
348
26C
 60
     3
 61
     5
292
     1
282
     1
141
0.0
142
0.0
 63
   256
361
904
  0
ENDTAB
  0
TABLE
  2
LTYPE
  5
4
330
0
100
AcDbSymbolTable
 70
     4
  0
LTYPE
  5
11
330
4
100
AcDbSymbolTableRecord
100
AcDbLinetypeTableRecord
  2
ByBlock
 70
     0
  3

 72
    65
 73
     0
 40
0.0
  0
LTYPE
  5
12
330
4
100
AcDbSymbolTableRecord
100
AcDbLinetypeTableRecord
  2
ByLayer
 70
     0
  3

 72
    65
 73
     0
 40
0.0
  0
LTYPE
  5
13
330
4
100
AcDbSymbolTableRecord
100
AcDbLinetypeTableRecord
  2
Continuous
 70
     0
  3
Solid line
 72
    65
 73
     0
 40
0.0
  0
LTYPE
  5
DAF
330
4
100
AcDbSymbolTableRecord
100
AcDbLinetypeTableRecord
  2
BORDER
 70
     0
  3
Border __  __  . __  __  . __  __  . __  __  . 
 72
    65
 73
     6
 40
44.45
 49
12.7
 74
     0
 49
-6.35
 74
     0
 49
12.7
 74
     0
 49
-6.35
 74
     0
 49
0.0
 74
     0
 49
-6.35
 74
     0
  0
LTYPE
  5
33DD
330
4
100
AcDbSymbolTableRecord
100
AcDbLinetypeTableRecord
  2
HIDDEN
 70
     0
  3
Hidden _ _ _ _ _ _ _ _ _ _ _ _ _ _ _ _ _ _ _ _ 
 72
    65
 73
     2
 40
9.524999999999999
 49
6.35
 74
     0
 49
-3.175
 74
     0
  0
LTYPE
  5
3C77
330
4
100
AcDbSymbolTableRecord
100
AcDbLinetypeTableRecord
  2
STYLE_23
 70
     0
  3

 72
    65
 73
     2
 40
3.937007874015748
 49
1.968503937007874
 74
     0
 49
-1.968503937007874
 74
     0
  0
ENDTAB
  0
TABLE
  2
LAYER
  5
2
102
{ACAD_XDICTIONARY
360
2E1
102
}
330
0
100
AcDbSymbolTable
 70
    12
  0
LAYER
  5
14
330
2
100
AcDbSymbolTableRecord
100
AcDbLayerTableRecord
  2
0
 70
     0
 62
     7
  6
Continuous
370
    -3
390
1D
347
266
  0
LAYER
  5
4B
330
2
100
AcDbSymbolTableRecord
100
AcDbLayerTableRecord
  2
TEMPLATE
 70
     0
 62
     7
  6
Continuous
370
    20
390
1D
347
266
  0
LAYER
  5
4C
330
2
100
AcDbSymbolTableRecord
100
AcDbLayerTableRecord
  2
DIM
 70
     0
 62
     3
  6
Continuous
370
    13
390
1D
347
266
  0
LAYER
  5
4D
330
2
100
AcDbSymbolTableRecord
100
AcDbLayerTableRecord
  2
MODEL
 70
     0
 62
     7
  6
Continuous
370
    20
390
1D
347
266
  0
LAYER
  5
D5D
330
2
100
AcDbSymbolTableRecord
100
AcDbLayerTableRecord
  2
Defpoints
 70
     0
 62
     7
  6
Continuous
290
     0
370
    -3
390
1D
347
266
  0
LAYER
  5
DAE
330
2
100
AcDbSymbolTableRecord
100
AcDbLayerTableRecord
  2
BORDER
 70
     0
 62
     4
  6
BORDER
290
     0
370
    20
390
1D
347
266
1001
AcAecLayerStandard
1000

1000

  0
LAYER
  5
157B
330
2
100
AcDbSymbolTableRecord
100
AcDbLayerTableRecord
  2
Layer3
 70
     0
 62
     7
  6
Continuous
370
    -3
390
1D
347
266
  0
LAYER
  5
157F
330
2
100
AcDbSymbolTableRecord
100
AcDbLayerTableRecord
  2
Layer9
 70
     0
 62
     7
  6
Continuous
370
    -3
390
1D
347
266
  0
LAYER
  5
1582
330
2
100
AcDbSymbolTableRecord
100
AcDbLayerTableRecord
  2
Standard
 70
     0
 62
     7
  6
Continuous
370
    -3
390
1D
347
266
  0
LAYER
  5
33DC
330
2
100
AcDbSymbolTableRecord
100
AcDbLayerTableRecord
  2
HIDDEN
 70
     0
 62
     8
  6
HIDDEN
370
    20
390
1D
347
266
1001
AcAecLayerStandard
1000

1000

  0
LAYER
  5
3C74
330
2
100
AcDbSymbolTableRecord
100
AcDbLayerTableRecord
  2
notes
 70
     0
 62
     7
  6
Continuous
370
    -3
390
1D
347
266
  0
LAYER
  5
3C75
330
2
100
AcDbSymbolTableRecord
100
AcDbLayerTableRecord
  2
ADF70-0001
 70
     0
 62
     7
  6
Continuous
370
    -3
390
1D
347
266
  0
ENDTAB
  0
TABLE
  2
STYLE
  5
3
330
0
100
AcDbSymbolTable
 70
     2
  0
STYLE
  5
17
330
3
100
AcDbSymbolTableRecord
100
AcDbTextStyleTableRecord
  2
Standard
 70
     0
 40
0.0
 41
1.0
 50
0.0
 71
     0
 42
2.5
  3
txt
  4
BIGFONT.SHX
  0
STYLE
  5
39
330
3
100
AcDbSymbolTableRecord
100
AcDbTextStyleTableRecord
  2
ＭＳ ゴシック
 70
     0
 40
0.0
 41
1.0
 50
0.0
 71
     0
 42
2.5
  3
msgothic.ttc
  4
ＭＳ ゴシック
1001
ACAD
1000
ＭＳ ゴシック
1071
        0
  0
ENDTAB
  0
TABLE
  2
VIEW
  5
5
330
0
100
AcDbSymbolTable
 70
     0
  0
ENDTAB
  0
TABLE
  2
UCS
  5
6
330
0
100
AcDbSymbolTable
 70
     0
  0
ENDTAB
  0
TABLE
  2
APPID
  5
8
330
0
100
AcDbSymbolTable
 70
    12
  0
APPID
  5
16
330
8
100
AcDbSymbolTableRecord
100
AcDbRegAppTableRecord
  2
ACAD
 70
     0
  0
APPID
  5
7AC
330
8
100
AcDbSymbolTableRecord
100
AcDbRegAppTableRecord
  2
AcAecLayerStandard
 70
     0
  0
APPID
  5
F3A
330
8
100
AcDbSymbolTableRecord
100
AcDbRegAppTableRecord
  2
ACAD_MLEADERVER
 70
     0
  0
APPID
  5
377C
330
8
100
AcDbSymbolTableRecord
100
AcDbRegAppTableRecord
  2
AcCmTransparency
 70
     0
  0
APPID
  5
3787
330
8
100
AcDbSymbolTableRecord
100
AcDbRegAppTableRecord
  2
ACAD_DSTYLE_DIMJAG
 70
     0
  0
APPID
  5
3788
330
8
100
AcDbSymbolTableRecord
100
AcDbRegAppTableRecord
  2
ACAD_DSTYLE_DIMTALN
 70
     0
  0
APPID
  5
378A
330
8
100
AcDbSymbolTableRecord
100
AcDbRegAppTableRecord
  2
ACAD_NAV_VCDISPLAY
 70
     0
  0
APPID
  5
378B
330
8
100
AcDbSymbolTableRecord
100
AcDbRegAppTableRecord
  2
ACAD_PSEXT
 70
     0
  0
APPID
  5
378C
330
8
100
AcDbSymbolTableRecord
100
AcDbRegAppTableRecord
  2
GradientColor1ACI
 70
     0
  0
APPID
  5
378D
330
8
100
AcDbSymbolTableRecord
100
AcDbRegAppTableRecord
  2
GradientColor2ACI
 70
     0
  0
APPID
  5
378E
330
8
100
AcDbSymbolTableRecord
100
AcDbRegAppTableRecord
  2
AcLayerTools
 70
     0
  0
APPID
  5
4459
330
8
100
AcDbSymbolTableRecord
100
AcDbRegAppTableRecord
  2
PLOTTRANSPARENCY
 70
     0
  0
ENDTAB
  0
TABLE
  2
DIMSTYLE
  5
9
330
0
100
AcDbSymbolTable
 70
     1
100
AcDbDimStyleTable
  0
DIMSTYLE
105
57
102
{ACAD_REACTORS
330
3ED6
330
3ED9
330
3EDC
330
3EDF
330
3EE4
330
3EEA
330
407C
330
408B
330
409A
330
4331
330
4340
330
4350
330
435F
330
436E
330
437D
330
438C
330
439B
330
43AA
330
43B9
330
43C8
330
43D7
330
4425
102
}
330
9
100
AcDbSymbolTableRecord
100
AcDbDimStyleTableRecord
  2
tfrom線あり
 70
     0
  3
<>
  4
[]
 41
10.0
 42
30.0
 43
0.9999999999999999
 44
0.0
 73
     0
 74
     0
 77
     1
 78
    11
140
24.0
141
0.0
143
1.0
147
20.0
171
     1
174
     1
178
     0
179
     2
271
     0
272
     1
276
     2
284
    11
285
    11
286
    11
289
     0
340
39
341
4E
342
4E
  0
ENDTAB
  0
TABLE
  2
BLOCK_RECORD
  5
1
330
0
100
AcDbSymbolTable
 70
    27
  0
BLOCK_RECORD
  5
A
102
{ACAD_XDICTIONARY
360
374D
102
}
330
1
100
AcDbSymbolTableRecord
100
AcDbBlockTableRecord
  2
*MODEL_SPACE
340
20
 70
     0
280
     1
281
     0
  0
BLOCK_RECORD
  5
B
330
1
100
AcDbSymbolTableRecord
100
AcDbBlockTableRecord
  2
*PAPER_SPACE
340
21
 70
     0
280
     1
281
     0
  0
BLOCK_RECORD
  5
4E
330
1
100
AcDbSymbolTableRecord
100
AcDbBlockTableRecord
  2
_DOT
340
0
102
{BLKREFS
331
3FA7
331
3FA8
331
3FB3
331
3FB4
331
3FBF
331
3FC0
331
3FCB
331
3FCC
331
3FD7
331
3FD8
331
3FE3
331
3FE4
331
3FEF
331
3FF0
331
4085
331
4086
331
4094
331
4095
331
40A3
331
40A4
331
433A
331
433B
331
4349
331
434A
331
4359
331
435A
331
4368
331
4369
331
4377
331
4378
331
4386
331
4387
331
4395
331
4396
331
43A4
331
43A5
331
43B3
331
43B4
331
43C2
331
43C3
331
43D1
331
43D2
331
43E0
331
43E1
331
442E
331
442F
102
}
 70
     0
280
     1
281
     0
  0
BLOCK_RECORD
  5
68D
330
1
100
AcDbSymbolTableRecord
100
AcDbBlockTableRecord
  2
block 2
340
0
102
{BLKREFS
331
68C
102
}
 70
     0
280
     1
281
     0
  0
BLOCK_RECORD
  5
199A
330
1
100
AcDbSymbolTableRecord
100
AcDbBlockTableRecord
  2
SEANNOT_GROUP
340
0
102
{BLKREFS
331
28CA
102
}
 70
     0
280
     1
281
     0
  0
BLOCK_RECORD
  5
1F2F
330
1
100
AcDbSymbolTableRecord
100
AcDbBlockTableRecord
  2
SEANNOT_GROUP1
340
0
102
{BLKREFS
331
2B9B
102
}
 70
     0
280
     1
281
     0
  0
BLOCK_RECORD
  5
3FA1
330
1
100
AcDbSymbolTableRecord
100
AcDbBlockTableRecord
  2
*D4
340
0
 70
     0
280
     1
281
     0
  0
BLOCK_RECORD
  5
3FAD
330
1
100
AcDbSymbolTableRecord
100
AcDbBlockTableRecord
  2
*D5
340
0
 70
     0
280
     1
281
     0
  0
BLOCK_RECORD
  5
3FB9
330
1
100
AcDbSymbolTableRecord
100
AcDbBlockTableRecord
  2
*D6
340
0
 70
     0
280
     1
281
     0
  0
BLOCK_RECORD
  5
3FC5
330
1
100
AcDbSymbolTableRecord
100
AcDbBlockTableRecord
  2
*D7
340
0
 70
     0
280
     1
281
     0
  0
BLOCK_RECORD
  5
3FD1
330
1
100
AcDbSymbolTableRecord
100
AcDbBlockTableRecord
  2
*D8
340
0
 70
     0
280
     1
281
     0
  0
BLOCK_RECORD
  5
3FDD
330
1
100
AcDbSymbolTableRecord
100
AcDbBlockTableRecord
  2
*D9
340
0
 70
     0
280
     1
281
     0
  0
BLOCK_RECORD
  5
3FE9
330
1
100
AcDbSymbolTableRecord
100
AcDbBlockTableRecord
  2
*D10
340
0
 70
     0
280
     1
281
     0
  0
BLOCK_RECORD
  5
407F
330
1
100
AcDbSymbolTableRecord
100
AcDbBlockTableRecord
  2
*D11
340
0
 70
     0
280
     1
281
     0
  0
BLOCK_RECORD
  5
408E
330
1
100
AcDbSymbolTableRecord
100
AcDbBlockTableRecord
  2
*D12
340
0
 70
     0
280
     1
281
     0
  0
BLOCK_RECORD
  5
409D
330
1
100
AcDbSymbolTableRecord
100
AcDbBlockTableRecord
  2
*D13
340
0
 70
     0
280
     1
281
     0
  0
BLOCK_RECORD
  5
4334
330
1
100
AcDbSymbolTableRecord
100
AcDbBlockTableRecord
  2
*D14
340
0
 70
     0
280
     1
281
     0
  0
BLOCK_RECORD
  5
4343
330
1
100
AcDbSymbolTableRecord
100
AcDbBlockTableRecord
  2
*D15
340
0
 70
     0
280
     1
281
     0
  0
BLOCK_RECORD
  5
4353
330
1
100
AcDbSymbolTableRecord
100
AcDbBlockTableRecord
  2
*D16
340
0
 70
     0
280
     1
281
     0
  0
BLOCK_RECORD
  5
4362
330
1
100
AcDbSymbolTableRecord
100
AcDbBlockTableRecord
  2
*D17
340
0
 70
     0
280
     1
281
     0
  0
BLOCK_RECORD
  5
4371
330
1
100
AcDbSymbolTableRecord
100
AcDbBlockTableRecord
  2
*D18
340
0
 70
     0
280
     1
281
     0
  0
BLOCK_RECORD
  5
4380
330
1
100
AcDbSymbolTableRecord
100
AcDbBlockTableRecord
  2
*D19
340
0
 70
     0
280
     1
281
     0
  0
BLOCK_RECORD
  5
438F
330
1
100
AcDbSymbolTableRecord
100
AcDbBlockTableRecord
  2
*D20
340
0
 70
     0
280
     1
281
     0
  0
BLOCK_RECORD
  5
439E
330
1
100
AcDbSymbolTableRecord
100
AcDbBlockTableRecord
  2
*D21
340
0
 70
     0
280
     1
281
     0
  0
BLOCK_RECORD
  5
43AD
330
1
100
AcDbSymbolTableRecord
100
AcDbBlockTableRecord
  2
*D22
340
0
 70
     0
280
     1
281
     0
  0
BLOCK_RECORD
  5
43BC
330
1
100
AcDbSymbolTableRecord
100
AcDbBlockTableRecord
  2
*D23
340
0
 70
     0
280
     1
281
     0
  0
BLOCK_RECORD
  5
43CB
330
1
100
AcDbSymbolTableRecord
100
AcDbBlockTableRecord
  2
*D24
340
0
 70
     0
280
     1
281
     0
  0
BLOCK_RECORD
  5
43DA
330
1
100
AcDbSymbolTableRecord
100
AcDbBlockTableRecord
  2
*D25
340
0
 70
     0
280
     1
281
     0
  0
BLOCK_RECORD
  5
4428
330
1
100
AcDbSymbolTableRecord
100
AcDbBlockTableRecord
  2
*D26
340
0
 70
     0
280
     1
281
     0
  0
ENDTAB
  0
ENDSEC
  0
SECTION
  2
BLOCKS
  0
BLOCK
  5
D
330
A
100
AcDbEntity
  8
0
390
1D
100
AcDbBlockBegin
  2
*MODEL_SPACE
 70
     0
 10
0.0
 20
0.0
 30
0.0
  3
*MODEL_SPACE
  1
*MODEL_SPACE
  0
ENDBLK
  5
E
330
A
100
AcDbEntity
  8
0
390
1D
100
AcDbBlockEnd
  0
BLOCK
  5
F
330
B
100
AcDbEntity
 67
     1
  8
0
390
1D
100
AcDbBlockBegin
  2
*PAPER_SPACE
 70
     0
 10
0.0
 20
0.0
 30
0.0
  3
*PAPER_SPACE
  1
*PAPER_SPACE
  0
ENDBLK
  5
10
330
B
100
AcDbEntity
 67
     1
  8
0
390
1D
100
AcDbBlockEnd
  0
BLOCK
  5
EC4
330
4E
100
AcDbEntity
  8
0
390
1D
100
AcDbBlockBegin
  2
_DOT
 70
     0
 10
0.0
 20
0.0
 30
0.0
  3
_DOT
  1
_DOT
  0
POLYLINE
  5
EC6
330
4E
100
AcDbEntity
  8
0
  6
ByBlock
 62
     0
370
    -2
390
1D
100
AcDb2dPolyline
 66
     1
 10
0.0
 20
0.0
 30
0.0
 70
     1
 40
0.5
 41
0.5
  0
VERTEX
  5
EC7
330
EC6
100
AcDbEntity
  8
0
  6
ByBlock
 62
     0
370
    -2
390
1D
100
AcDbVertex
100
AcDb2dVertex
 10
-0.25
 20
0.0
 30
0.0
 42
1.0
  0
VERTEX
  5
EC8
330
EC6
100
AcDbEntity
  8
0
  6
ByBlock
 62
     0
370
    -2
390
1D
100
AcDbVertex
100
AcDb2dVertex
 10
0.25
 20
0.0
 30
0.0
 42
1.0
  0
SEQEND
  5
EC9
330
EC6
100
AcDbEntity
  8
0
390
1D
  0
LINE
  5
ECA
330
4E
100
AcDbEntity
  8
0
  6
ByBlock
 62
     0
370
    -2
390
1D
100
AcDbLine
 10
-0.5
 20
0.0
 30
0.0
 11
-1.0
 21
0.0
 31
0.0
  0
ENDBLK
  5
ECB
330
4E
100
AcDbEntity
  8
0
390
1D
100
AcDbBlockEnd
  0
BLOCK
  5
68E
330
68D
100
AcDbEntity
  8
0
100
AcDbBlockBegin
  2
block 2
 70
     0
 10
0.0
 20
0.0
 30
0.0
  3
block 2
  1
block 2
  0
ENDBLK
  5
6B0
330
68D
100
AcDbEntity
  8
0
100
AcDbBlockEnd
  0
BLOCK
  5
199B
330
199A
100
AcDbEntity
  8
0
100
AcDbBlockBegin
  2
SEANNOT_GROUP
 70
     0
 10
0.0
 20
0.0
 30
0.0
  3
SEANNOT_GROUP
  1
SEANNOT_GROUP
  0
ENDBLK
  5
199C
330
199A
100
AcDbEntity
  8
0
100
AcDbBlockEnd
  0
BLOCK
  5
1F30
330
1F2F
100
AcDbEntity
  8
0
100
AcDbBlockBegin
  2
SEANNOT_GROUP1
 70
     0
 10
0.0
 20
0.0
 30
0.0
  3
SEANNOT_GROUP1
  1
SEANNOT_GROUP1
  0
ENDBLK
  5
1F31
330
1F2F
100
AcDbEntity
  8
0
100
AcDbBlockEnd
  0
BLOCK
  5
3FA2
330
3FA1
100
AcDbEntity
  8
0
100
AcDbBlockBegin
  2
*D4
 70
     1
 10
0.0
 20
0.0
 30
0.0
  3
*D4
  1

  0
LINE
  5
3FA4
330
3FA1
100
AcDbEntity
  8
DIM
 62
     0
370
    -2
100
AcDbLine
 10
1577.514785766692
 20
1942.959564858087
 30
0.0
 11
1577.514785766692
 21
1878.775314692891
 31
0.0
  0
LINE
  5
3FA5
330
3FA1
100
AcDbEntity
  8
DIM
 62
     0
370
    -2
100
AcDbLine
 10
1697.519188094577
 20
1946.625849074529
 30
0.0
 11
1697.519188094577
 21
1878.775314692891
 31
0.0
  0
LINE
  5
3FA6
330
3FA1
100
AcDbEntity
  8
DIM
 62
     0
370
    -2
100
AcDbLine
 10
1587.514785766692
 20
1878.775314692891
 30
0.0
 11
1687.519188094577
 21
1878.775314692891
 31
0.0
  0
INSERT
  5
3FA7
330
3FA1
100
AcDbEntity
  8
DIM
 62
     0
370
    -2
100
AcDbBlockReference
  2
_DOT
 10
1577.514785766692
 20
1878.775314692891
 30
0.0
 41
10.0
 42
10.0
 43
10.0
 50
180.0
  0
INSERT
  5
3FA8
330
3FA1
100
AcDbEntity
  8
DIM
 62
     0
370
    -2
100
AcDbBlockReference
  2
_DOT
 10
1697.519188094577
 20
1878.775314692891
 30
0.0
 41
10.0
 42
10.0
 43
10.0
  0
MTEXT
  5
3FA9
330
3FA1
100
AcDbEntity
  8
DIM
 62
     0
100
AcDbMText
 10
1637.516986930635
 20
1910.779816381024
 30
0.0
 40
24.0
 41
0.0
 46
0.0
 71
     5
 72
     1
  1
\A1;120
  7
ＭＳ ゴシック
 73
     1
 44
1.0
  0
POINT
  5
3FAA
330
3FA1
100
AcDbEntity
  8
Defpoints
 62
     0
100
AcDbPoint
 10
1577.514785766692
 20
1972.959564858087
 30
0.0
  0
POINT
  5
3FAB
330
3FA1
100
AcDbEntity
  8
Defpoints
 62
     0
100
AcDbPoint
 10
1697.519188094577
 20
1976.625849074529
 30
0.0
  0
POINT
  5
3FAC
330
3FA1
100
AcDbEntity
  8
Defpoints
 62
     0
100
AcDbPoint
 10
1697.519188094577
 20
1878.775314692891
 30
0.0
  0
ENDBLK
  5
3FA3
330
3FA1
100
AcDbEntity
  8
0
100
AcDbBlockEnd
  0
BLOCK
  5
3FAE
330
3FAD
100
AcDbEntity
  8
0
100
AcDbBlockBegin
  2
*D5
 70
     1
 10
0.0
 20
0.0
 30
0.0
  3
*D5
  1

  0
LINE
  5
3FB0
330
3FAD
100
AcDbEntity
  8
DIM
 62
     0
370
    -2
100
AcDbLine
 10
1551.062189178152
 20
2437.627533627858
 30
0.0
 11
1494.864646642392
 21
2437.627533627858
 31
0.0
  0
LINE
  5
3FB1
330
3FAD
100
AcDbEntity
  8
DIM
 62
     0
370
    -2
100
AcDbLine
 10
1551.062189178152
 20
2372.60473547112
 30
0.0
 11
1494.864646642392
 21
2372.60473547112
 31
0.0
  0
LINE
  5
3FB2
330
3FAD
100
AcDbEntity
  8
DIM
 62
     0
370
    -2
100
AcDbLine
 10
1494.864646642392
 20
2427.627533627858
 30
0.0
 11
1494.864646642392
 21
2382.60473547112
 31
0.0
  0
INSERT
  5
3FB3
330
3FAD
100
AcDbEntity
  8
DIM
 62
     0
370
    -2
100
AcDbBlockReference
  2
_DOT
 10
1494.864646642392
 20
2437.627533627858
 30
0.0
 41
10.0
 42
10.0
 43
10.0
 50
90.0
  0
INSERT
  5
3FB4
330
3FAD
100
AcDbEntity
  8
DIM
 62
     0
370
    -2
100
AcDbBlockReference
  2
_DOT
 10
1494.864646642392
 20
2372.60473547112
 30
0.0
 41
10.0
 42
10.0
 43
10.0
 50
270.0
  0
MTEXT
  5
3FB5
330
3FAD
100
AcDbEntity
  8
DIM
 62
     0
100
AcDbMText
 10
1462.860144954259
 20
2405.116134549489
 30
0.0
 40
24.0
 41
0.0
 46
0.0
 71
     5
 72
     1
  1
\A1;65
  7
ＭＳ ゴシック
 11
0.0
 21
1.0
 31
0.0
 73
     1
 44
1.0
  0
POINT
  5
3FB6
330
3FAD
100
AcDbEntity
  8
Defpoints
 62
     0
100
AcDbPoint
 10
1581.062189178152
 20
2437.627533627858
 30
0.0
  0
POINT
  5
3FB7
330
3FAD
100
AcDbEntity
  8
Defpoints
 62
     0
100
AcDbPoint
 10
1581.062189178152
 20
2372.60473547112
 30
0.0
  0
POINT
  5
3FB8
330
3FAD
100
AcDbEntity
  8
Defpoints
 62
     0
100
AcDbPoint
 10
1494.864646642392
 20
2372.60473547112
 30
0.0
  0
ENDBLK
  5
3FAF
330
3FAD
100
AcDbEntity
  8
0
100
AcDbBlockEnd
  0
BLOCK
  5
3FBA
330
3FB9
100
AcDbEntity
  8
0
100
AcDbBlockBegin
  2
*D6
 70
     1
 10
0.0
 20
0.0
 30
0.0
  3
*D6
  1

  0
LINE
  5
3FBC
330
3FB9
100
AcDbEntity
  8
DIM
 62
     0
370
    -2
100
AcDbLine
 10
1577.822466808024
 20
2228.772934011549
 30
0.0
 11
1412.135959367734
 21
2228.772934011549
 31
0.0
  0
LINE
  5
3FBD
330
3FB9
100
AcDbEntity
  8
DIM
 62
     0
370
    -2
100
AcDbLine
 10
1672.907011938253
 20
2228.772934011549
 30
0.0
 11
1587.822466808024
 21
2228.772934011549
 31
0.0
  0
LINE
  5
3FBE
330
3FB9
100
AcDbEntity
  8
DIM
 62
     0
370
    -2
100
AcDbLine
 10
1587.822466808024
 20
2228.772934011549
 30
0.0
 11
1597.822466808024
 21
2228.772934011549
 31
0.0
  0
INSERT
  5
3FBF
330
3FB9
100
AcDbEntity
  8
DIM
 62
     0
370
    -2
100
AcDbBlockReference
  2
_DOT
 10
1682.907011938253
 20
2228.772934011549
 30
0.0
 41
10.0
 42
10.0
 43
10.0
  0
INSERT
  5
3FC0
330
3FB9
100
AcDbEntity
  8
DIM
 62
     0
370
    -2
100
AcDbBlockReference
  2
_DOT
 10
1577.822466808024
 20
2228.772934011549
 30
0.0
 41
10.0
 42
10.0
 43
10.0
 50
180.0
  0
MTEXT
  5
3FC1
330
3FB9
100
AcDbEntity
  8
DIM
 62
     0
100
AcDbMText
 10
1484.979213087879
 20
2262.476822969909
 30
0.0
 40
24.0
 41
0.0
 46
0.0
 71
     5
 72
     1
  1
\A1;深さ105
  7
ＭＳ ゴシック
 73
     1
 44
1.0
  0
POINT
  5
3FC2
330
3FB9
100
AcDbEntity
  8
Defpoints
 62
     0
100
AcDbPoint
 10
1682.907011938253
 20
2264.014391299818
 30
0.0
  0
POINT
  5
3FC3
330
3FB9
100
AcDbEntity
  8
Defpoints
 62
     0
100
AcDbPoint
 10
1577.822466808024
 20
2234.138185973882
 30
0.0
  0
POINT
  5
3FC4
330
3FB9
100
AcDbEntity
  8
Defpoints
 62
     0
100
AcDbPoint
 10
1577.822466808024
 20
2228.772934011549
 30
0.0
  0
ENDBLK
  5
3FBB
330
3FB9
100
AcDbEntity
  8
0
100
AcDbBlockEnd
  0
BLOCK
  5
3FC6
330
3FC5
100
AcDbEntity
  8
0
100
AcDbBlockBegin
  2
*D7
 70
     1
 10
0.0
 20
0.0
 30
0.0
  3
*D7
  1

  0
LINE
  5
3FC8
330
3FC5
100
AcDbEntity
  8
DIM
 62
     0
370
    -2
100
AcDbLine
 10
1725.062110073754
 20
2437.493236210154
 30
0.0
 11
1843.425252016114
 21
2437.493236210154
 31
0.0
  0
LINE
  5
3FC9
330
3FC5
100
AcDbEntity
  8
DIM
 62
     0
370
    -2
100
AcDbLine
 10
1761.814694419542
 20
2227.44979417041
 30
0.0
 11
1843.425252016114
 21
2227.44979417041
 31
0.0
  0
LINE
  5
3FCA
330
3FC5
100
AcDbEntity
  8
DIM
 62
     0
370
    -2
100
AcDbLine
 10
1843.425252016114
 20
2427.493236210154
 30
0.0
 11
1843.425252016114
 21
2237.44979417041
 31
0.0
  0
INSERT
  5
3FCB
330
3FC5
100
AcDbEntity
  8
DIM
 62
     0
370
    -2
100
AcDbBlockReference
  2
_DOT
 10
1843.425252016114
 20
2437.493236210154
 30
0.0
 41
10.0
 42
10.0
 43
10.0
 50
90.0
  0
INSERT
  5
3FCC
330
3FC5
100
AcDbEntity
  8
DIM
 62
     0
370
    -2
100
AcDbBlockReference
  2
_DOT
 10
1843.425252016114
 20
2227.44979417041
 30
0.0
 41
10.0
 42
10.0
 43
10.0
 50
270.0
  0
MTEXT
  5
3FCD
330
3FC5
100
AcDbEntity
  8
DIM
 62
     0
100
AcDbMText
 10
1811.420750327981
 20
2332.471515190282
 30
0.0
 40
24.0
 41
0.0
 46
0.0
 71
     5
 72
     1
  1
\A1;210
  7
ＭＳ ゴシック
 11
0.0
 21
1.0
 31
0.0
 73
     1
 44
1.0
  0
POINT
  5
3FCE
330
3FC5
100
AcDbEntity
  8
Defpoints
 62
     0
100
AcDbPoint
 10
1695.062110073754
 20
2437.493236210154
 30
0.0
  0
POINT
  5
3FCF
330
3FC5
100
AcDbEntity
  8
Defpoints
 62
     0
100
AcDbPoint
 10
1731.814694419542
 20
2227.44979417041
 30
0.0
  0
POINT
  5
3FD0
330
3FC5
100
AcDbEntity
  8
Defpoints
 62
     0
100
AcDbPoint
 10
1843.425252016114
 20
2227.44979417041
 30
0.0
  0
ENDBLK
  5
3FC7
330
3FC5
100
AcDbEntity
  8
0
100
AcDbBlockEnd
  0
BLOCK
  5
3FD2
330
3FD1
100
AcDbEntity
  8
0
100
AcDbBlockBegin
  2
*D8
 70
     1
 10
0.0
 20
0.0
 30
0.0
  3
*D8
  1

  0
LINE
  5
3FD4
330
3FD1
100
AcDbEntity
  8
DIM
 62
     0
370
    -2
100
AcDbLine
 10
752.0034097390908
 20
2516.168985620216
 30
0.0
 11
1019.291626850933
 21
2516.168985620216
 31
0.0
  0
LINE
  5
3FD5
330
3FD1
100
AcDbEntity
  8
DIM
 62
     0
370
    -2
100
AcDbLine
 10
752.0034097390853
 20
1886.168985620215
 30
0.0
 11
1019.291626850933
 21
1886.168985620215
 31
0.0
  0
LINE
  5
3FD6
330
3FD1
100
AcDbEntity
  8
DIM
 62
     0
370
    -2
100
AcDbLine
 10
1019.291626850933
 20
2506.168985620216
 30
0.0
 11
1019.291626850933
 21
1896.168985620215
 31
0.0
  0
INSERT
  5
3FD7
330
3FD1
100
AcDbEntity
  8
DIM
 62
     0
370
    -2
100
AcDbBlockReference
  2
_DOT
 10
1019.291626850933
 20
2516.168985620216
 30
0.0
 41
10.0
 42
10.0
 43
10.0
 50
90.0
  0
INSERT
  5
3FD8
330
3FD1
100
AcDbEntity
  8
DIM
 62
     0
370
    -2
100
AcDbBlockReference
  2
_DOT
 10
1019.291626850933
 20
1886.168985620215
 30
0.0
 41
10.0
 42
10.0
 43
10.0
 50
270.0
  0
MTEXT
  5
3FD9
330
3FD1
100
AcDbEntity
  8
DIM
 62
     0
100
AcDbMText
 10
987.2871251628001
 20
2201.168985620216
 30
0.0
 40
24.0
 41
0.0
 46
0.0
 71
     5
 72
     1
  1
\A1;630
  7
ＭＳ ゴシック
 11
0.0
 21
1.0
 31
0.0
 73
     1
 44
1.0
  0
POINT
  5
3FDA
330
3FD1
100
AcDbEntity
  8
Defpoints
 62
     0
100
AcDbPoint
 10
722.0034097390908
 20
2516.168985620216
 30
0.0
  0
POINT
  5
3FDB
330
3FD1
100
AcDbEntity
  8
Defpoints
 62
     0
100
AcDbPoint
 10
722.0034097390853
 20
1886.168985620215
 30
0.0
  0
POINT
  5
3FDC
330
3FD1
100
AcDbEntity
  8
Defpoints
 62
     0
100
AcDbPoint
 10
1019.291626850933
 20
1886.168985620215
 30
0.0
  0
ENDBLK
  5
3FD3
330
3FD1
100
AcDbEntity
  8
0
100
AcDbBlockEnd
  0
BLOCK
  5
3FDE
330
3FDD
100
AcDbEntity
  8
0
100
AcDbBlockBegin
  2
*D9
 70
     1
 10
0.0
 20
0.0
 30
0.0
  3
*D9
  1

  0
LINE
  5
3FE0
330
3FDD
100
AcDbEntity
  8
DIM
 62
     0
370
    -2
100
AcDbLine
 10
752.0034097390869
 20
2366.168985620201
 30
0.0
 11
890.4656197773074
 21
2366.168985620201
 31
0.0
  0
LINE
  5
3FE1
330
3FDD
100
AcDbEntity
  8
DIM
 62
     0
370
    -2
100
AcDbLine
 10
752.0034097390887
 20
2036.168985620201
 30
0.0
 11
890.4656197773074
 21
2036.168985620201
 31
0.0
  0
LINE
  5
3FE2
330
3FDD
100
AcDbEntity
  8
DIM
 62
     0
370
    -2
100
AcDbLine
 10
890.4656197773074
 20
2356.168985620201
 30
0.0
 11
890.4656197773074
 21
2046.168985620201
 31
0.0
  0
INSERT
  5
3FE3
330
3FDD
100
AcDbEntity
  8
DIM
 62
     0
370
    -2
100
AcDbBlockReference
  2
_DOT
 10
890.4656197773074
 20
2366.168985620201
 30
0.0
 41
10.0
 42
10.0
 43
10.0
 50
90.0
  0
INSERT
  5
3FE4
330
3FDD
100
AcDbEntity
  8
DIM
 62
     0
370
    -2
100
AcDbBlockReference
  2
_DOT
 10
890.4656197773074
 20
2036.168985620201
 30
0.0
 41
10.0
 42
10.0
 43
10.0
 50
270.0
  0
MTEXT
  5
3FE5
330
3FDD
100
AcDbEntity
  8
DIM
 62
     0
100
AcDbMText
 10
858.4611180891743
 20
2201.168985620201
 30
0.0
 40
24.0
 41
0.0
 46
0.0
 71
     5
 72
     1
  1
\A1;330
  7
ＭＳ ゴシック
 11
0.0
 21
1.0
 31
0.0
 73
     1
 44
1.0
  0
POINT
  5
3FE6
330
3FDD
100
AcDbEntity
  8
Defpoints
 62
     0
100
AcDbPoint
 10
722.0034097390869
 20
2366.168985620201
 30
0.0
  0
POINT
  5
3FE7
330
3FDD
100
AcDbEntity
  8
Defpoints
 62
     0
100
AcDbPoint
 10
722.0034097390887
 20
2036.168985620201
 30
0.0
  0
POINT
  5
3FE8
330
3FDD
100
AcDbEntity
  8
Defpoints
 62
     0
100
AcDbPoint
 10
890.4656197773074
 20
2036.168985620201
 30
0.0
  0
ENDBLK
  5
3FDF
330
3FDD
100
AcDbEntity
  8
0
100
AcDbBlockEnd
  0
BLOCK
  5
3FEA
330
3FE9
100
AcDbEntity
  8
0
100
AcDbBlockBegin
  2
*D10
 70
     1
 10
0.0
 20
0.0
 30
0.0
  3
*D10
  1

  0
LINE
  5
3FEC
330
3FE9
100
AcDbEntity
  8
DIM
 62
     0
370
    -2
100
AcDbLine
 10
452.7080511768429
 20
2546.168985620215
 30
0.0
 11
452.7080511768429
 21
2640.610436352819
 31
0.0
  0
LINE
  5
3FED
330
3FE9
100
AcDbEntity
  8
DIM
 62
     0
370
    -2
100
AcDbLine
 10
722.0034097390869
 20
2546.168985620216
 30
0.0
 11
722.0034097390869
 21
2640.610436352819
 31
0.0
  0
LINE
  5
3FEE
330
3FE9
100
AcDbEntity
  8
DIM
 62
     0
370
    -2
100
AcDbLine
 10
462.7080511768429
 20
2640.610436352819
 30
0.0
 11
712.0034097390869
 21
2640.610436352819
 31
0.0
  0
INSERT
  5
3FEF
330
3FE9
100
AcDbEntity
  8
DIM
 62
     0
370
    -2
100
AcDbBlockReference
  2
_DOT
 10
452.7080511768429
 20
2640.610436352819
 30
0.0
 41
10.0
 42
10.0
 43
10.0
 50
180.0
  0
INSERT
  5
3FF0
330
3FE9
100
AcDbEntity
  8
DIM
 62
     0
370
    -2
100
AcDbBlockReference
  2
_DOT
 10
722.0034097390869
 20
2640.610436352819
 30
0.0
 41
10.0
 42
10.0
 43
10.0
  0
MTEXT
  5
3FF1
330
3FE9
100
AcDbEntity
  8
DIM
 62
     0
100
AcDbMText
 10
587.3557304579649
 20
2672.614938040952
 30
0.0
 40
24.0
 41
0.0
 46
0.0
 71
     5
 72
     1
  1
\A1;270
  7
ＭＳ ゴシック
 73
     1
 44
1.0
  0
POINT
  5
3FF2
330
3FE9
100
AcDbEntity
  8
Defpoints
 62
     0
100
AcDbPoint
 10
452.7080511768429
 20
2516.168985620215
 30
0.0
  0
POINT
  5
3FF3
330
3FE9
100
AcDbEntity
  8
Defpoints
 62
     0
100
AcDbPoint
 10
722.0034097390869
 20
2516.168985620216
 30
0.0
  0
POINT
  5
3FF4
330
3FE9
100
AcDbEntity
  8
Defpoints
 62
     0
100
AcDbPoint
 10
722.0034097390869
 20
2640.610436352819
 30
0.0
  0
ENDBLK
  5
3FEB
330
3FE9
100
AcDbEntity
  8
0
100
AcDbBlockEnd
  0
BLOCK
  5
4080
330
407F
100
AcDbEntity
  8
0
100
AcDbBlockBegin
  2
*D11
 70
     1
 10
0.0
 20
0.0
 30
0.0
  3
*D11
  1

  0
LINE
  5
4082
330
407F
100
AcDbEntity
  8
DIM
 62
     0
370
    -2
100
AcDbLine
 10
1592.8371696982
 20
1162.800042213419
 30
0.0
 11
1492.422996641302
 21
1162.800042213419
 31
0.0
  0
LINE
  5
4083
330
407F
100
AcDbEntity
  8
DIM
 62
     0
370
    -2
100
AcDbLine
 10
1592.868249629156
 20
882.5761973932421
 30
0.0
 11
1492.422996641302
 21
882.5761973932421
 31
0.0
  0
LINE
  5
4084
330
407F
100
AcDbEntity
  8
DIM
 62
     0
370
    -2
100
AcDbLine
 10
1492.422996641302
 20
1152.800042213419
 30
0.0
 11
1492.422996641302
 21
892.5761973932421
 31
0.0
  0
INSERT
  5
4085
330
407F
100
AcDbEntity
  8
DIM
 62
     0
370
    -2
100
AcDbBlockReference
  2
_DOT
 10
1492.422996641302
 20
1162.800042213419
 30
0.0
 41
10.0
 42
10.0
 43
10.0
 50
90.0
  0
INSERT
  5
4086
330
407F
100
AcDbEntity
  8
DIM
 62
     0
370
    -2
100
AcDbBlockReference
  2
_DOT
 10
1492.422996641302
 20
882.5761973932421
 30
0.0
 41
10.0
 42
10.0
 43
10.0
 50
270.0
  0
MTEXT
  5
4087
330
407F
100
AcDbEntity
  8
DIM
 62
     0
100
AcDbMText
 10
1460.418494953169
 20
1022.688119803331
 30
0.0
 40
24.0
 41
0.0
 46
0.0
 71
     5
 72
     1
  1
\A1;280
  7
ＭＳ ゴシック
 11
0.0
 21
1.0
 31
0.0
 73
     1
 44
1.0
  0
POINT
  5
4088
330
407F
100
AcDbEntity
  8
Defpoints
 62
     0
100
AcDbPoint
 10
1622.8371696982
 20
1162.800042213419
 30
0.0
  0
POINT
  5
4089
330
407F
100
AcDbEntity
  8
Defpoints
 62
     0
100
AcDbPoint
 10
1622.868249629156
 20
882.5761973932421
 30
0.0
  0
POINT
  5
408A
330
407F
100
AcDbEntity
  8
Defpoints
 62
     0
100
AcDbPoint
 10
1492.422996641302
 20
882.5761973932421
 30
0.0
  0
ENDBLK
  5
4081
330
407F
100
AcDbEntity
  8
0
100
AcDbBlockEnd
  0
BLOCK
  5
408F
330
408E
100
AcDbEntity
  8
0
100
AcDbBlockBegin
  2
*D12
 70
     1
 10
0.0
 20
0.0
 30
0.0
  3
*D12
  1

  0
LINE
  5
4091
330
408E
100
AcDbEntity
  8
DIM
 62
     0
370
    -2
100
AcDbLine
 10
1592.899329560113
 20
722.3523525730674
 30
0.0
 11
1492.422996641302
 21
722.3523525730674
 31
0.0
  0
LINE
  5
4092
330
408E
100
AcDbEntity
  8
DIM
 62
     0
370
    -2
100
AcDbLine
 10
1592.868249629156
 20
882.5761973932421
 30
0.0
 11
1492.422996641302
 21
882.5761973932421
 31
0.0
  0
LINE
  5
4093
330
408E
100
AcDbEntity
  8
DIM
 62
     0
370
    -2
100
AcDbLine
 10
1492.422996641302
 20
732.3523525730674
 30
0.0
 11
1492.422996641302
 21
872.5761973932421
 31
0.0
  0
INSERT
  5
4094
330
408E
100
AcDbEntity
  8
DIM
 62
     0
370
    -2
100
AcDbBlockReference
  2
_DOT
 10
1492.422996641302
 20
722.3523525730674
 30
0.0
 41
10.0
 42
10.0
 43
10.0
 50
270.0
  0
INSERT
  5
4095
330
408E
100
AcDbEntity
  8
DIM
 62
     0
370
    -2
100
AcDbBlockReference
  2
_DOT
 10
1492.422996641302
 20
882.5761973932421
 30
0.0
 41
10.0
 42
10.0
 43
10.0
 50
90.0
  0
MTEXT
  5
4096
330
408E
100
AcDbEntity
  8
DIM
 62
     0
100
AcDbMText
 10
1460.41849495317
 20
802.4642749831547
 30
0.0
 40
24.0
 41
0.0
 46
0.0
 71
     5
 72
     1
  1
\A1;160
  7
ＭＳ ゴシック
 11
0.0
 21
1.0
 31
0.0
 73
     1
 44
1.0
  0
POINT
  5
4097
330
408E
100
AcDbEntity
  8
Defpoints
 62
     0
100
AcDbPoint
 10
1622.899329560113
 20
722.3523525730674
 30
0.0
  0
POINT
  5
4098
330
408E
100
AcDbEntity
  8
Defpoints
 62
     0
100
AcDbPoint
 10
1622.868249629156
 20
882.5761973932421
 30
0.0
  0
POINT
  5
4099
330
408E
100
AcDbEntity
  8
Defpoints
 62
     0
100
AcDbPoint
 10
1492.422996641302
 20
882.5761973932421
 30
0.0
  0
ENDBLK
  5
4090
330
408E
100
AcDbEntity
  8
0
100
AcDbBlockEnd
  0
BLOCK
  5
409E
330
409D
100
AcDbEntity
  8
0
100
AcDbBlockBegin
  2
*D13
 70
     1
 10
0.0
 20
0.0
 30
0.0
  3
*D13
  1

  0
LINE
  5
40A0
330
409D
100
AcDbEntity
  8
DIM
 62
     0
370
    -2
100
AcDbLine
 10
1592.868249629156
 20
1163.023887033596
 30
0.0
 11
1492.422996641302
 21
1163.023887033596
 31
0.0
  0
LINE
  5
40A1
330
409D
100
AcDbEntity
  8
DIM
 62
     0
370
    -2
100
AcDbLine
 10
1592.868249629156
 20
1323.023887033596
 30
0.0
 11
1492.422996641302
 21
1323.023887033596
 31
0.0
  0
LINE
  5
40A2
330
409D
100
AcDbEntity
  8
DIM
 62
     0
370
    -2
100
AcDbLine
 10
1492.422996641302
 20
1173.023887033596
 30
0.0
 11
1492.422996641302
 21
1313.023887033596
 31
0.0
  0
INSERT
  5
40A3
330
409D
100
AcDbEntity
  8
DIM
 62
     0
370
    -2
100
AcDbBlockReference
  2
_DOT
 10
1492.422996641302
 20
1163.023887033596
 30
0.0
 41
10.0
 42
10.0
 43
10.0
 50
270.0
  0
INSERT
  5
40A4
330
409D
100
AcDbEntity
  8
DIM
 62
     0
370
    -2
100
AcDbBlockReference
  2
_DOT
 10
1492.422996641302
 20
1323.023887033596
 30
0.0
 41
10.0
 42
10.0
 43
10.0
 50
90.0
  0
MTEXT
  5
40A5
330
409D
100
AcDbEntity
  8
DIM
 62
     0
100
AcDbMText
 10
1460.418494953169
 20
1243.023887033596
 30
0.0
 40
24.0
 41
0.0
 46
0.0
 71
     5
 72
     1
  1
\A1;160
  7
ＭＳ ゴシック
 11
0.0
 21
1.0
 31
0.0
 73
     1
 44
1.0
  0
POINT
  5
40A6
330
409D
100
AcDbEntity
  8
Defpoints
 62
     0
100
AcDbPoint
 10
1622.868249629156
 20
1163.023887033596
 30
0.0
  0
POINT
  5
40A7
330
409D
100
AcDbEntity
  8
Defpoints
 62
     0
100
AcDbPoint
 10
1622.868249629156
 20
1323.023887033596
 30
0.0
  0
POINT
  5
40A8
330
409D
100
AcDbEntity
  8
Defpoints
 62
     0
100
AcDbPoint
 10
1492.422996641302
 20
1323.023887033596
 30
0.0
  0
ENDBLK
  5
409F
330
409D
100
AcDbEntity
  8
0
100
AcDbBlockEnd
  0
BLOCK
  5
4335
330
4334
100
AcDbEntity
  8
0
100
AcDbBlockBegin
  2
*D14
 70
     1
 10
0.0
 20
0.0
 30
0.0
  3
*D14
  1

  0
LINE
  5
4337
330
4334
100
AcDbEntity
  8
DIM
 62
     0
370
    -2
100
AcDbLine
 10
1718.053146165159
 20
522.9509799677149
 30
0.0
 11
1871.987560579302
 21
522.9509799677149
 31
0.0
  0
LINE
  5
4338
330
4334
100
AcDbEntity
  8
DIM
 62
     0
370
    -2
100
AcDbLine
 10
1759.098636926442
 20
1022.800042213419
 30
0.0
 11
1871.987560579302
 21
1022.800042213419
 31
0.0
  0
LINE
  5
4339
330
4334
100
AcDbEntity
  8
DIM
 62
     0
370
    -2
100
AcDbLine
 10
1871.987560579302
 20
532.9509799677149
 30
0.0
 11
1871.987560579302
 21
1012.800042213419
 31
0.0
  0
INSERT
  5
433A
330
4334
100
AcDbEntity
  8
DIM
 62
     0
370
    -2
100
AcDbBlockReference
  2
_DOT
 10
1871.987560579302
 20
522.9509799677149
 30
0.0
 41
10.0
 42
10.0
 43
10.0
 50
270.0
  0
INSERT
  5
433B
330
4334
100
AcDbEntity
  8
DIM
 62
     0
370
    -2
100
AcDbBlockReference
  2
_DOT
 10
1871.987560579302
 20
1022.800042213419
 30
0.0
 41
10.0
 42
10.0
 43
10.0
 50
90.0
  0
MTEXT
  5
433C
330
4334
100
AcDbEntity
  8
DIM
 62
     0
100
AcDbMText
 10
1839.98305889117
 20
772.875511090567
 30
0.0
 40
24.0
 41
0.0
 46
0.0
 71
     5
 72
     1
  1
\A1;500
  7
ＭＳ ゴシック
 11
0.0
 21
1.0
 31
0.0
 73
     1
 44
1.0
  0
POINT
  5
433D
330
4334
100
AcDbEntity
  8
Defpoints
 62
     0
100
AcDbPoint
 10
1688.053146165159
 20
522.9509799677149
 30
0.0
  0
POINT
  5
433E
330
4334
100
AcDbEntity
  8
Defpoints
 62
     0
100
AcDbPoint
 10
1729.098636926442
 20
1022.800042213419
 30
0.0
  0
POINT
  5
433F
330
4334
100
AcDbEntity
  8
Defpoints
 62
     0
100
AcDbPoint
 10
1871.987560579302
 20
1022.800042213419
 30
0.0
  0
ENDBLK
  5
4336
330
4334
100
AcDbEntity
  8
0
100
AcDbBlockEnd
  0
BLOCK
  5
4344
330
4343
100
AcDbEntity
  8
0
100
AcDbBlockBegin
  2
*D15
 70
     1
 10
0.0
 20
0.0
 30
0.0
  3
*D15
  1

  0
LINE
  5
4346
330
4343
100
AcDbEntity
  8
DIM
 62
     0
370
    -2
100
AcDbLine
 10
1622.868249629157
 20
504.6890020026686
 30
0.0
 11
1622.868249629157
 21
455.6746478990084
 31
0.0
  0
LINE
  5
4347
330
4343
100
AcDbEntity
  8
DIM
 62
     0
370
    -2
100
AcDbLine
 10
1577.8371696982
 20
504.4065341833686
 30
0.0
 11
1577.8371696982
 21
455.6746478990084
 31
0.0
  0
LINE
  5
4348
330
4343
100
AcDbEntity
  8
DIM
 62
     0
370
    -2
100
AcDbLine
 10
1612.868249629157
 20
455.6746478990084
 30
0.0
 11
1587.8371696982
 21
455.6746478990084
 31
0.0
  0
INSERT
  5
4349
330
4343
100
AcDbEntity
  8
DIM
 62
     0
370
    -2
100
AcDbBlockReference
  2
_DOT
 10
1622.868249629157
 20
455.6746478990084
 30
0.0
 41
10.0
 42
10.0
 43
10.0
  0
INSERT
  5
434A
330
4343
100
AcDbEntity
  8
DIM
 62
     0
370
    -2
100
AcDbBlockReference
  2
_DOT
 10
1577.8371696982
 20
455.6746478990084
 30
0.0
 41
10.0
 42
10.0
 43
10.0
 50
180.0
  0
MTEXT
  5
434B
330
4343
100
AcDbEntity
  8
DIM
 62
     0
100
AcDbMText
 10
1600.352709663679
 20
487.6791495871415
 30
0.0
 40
24.0
 41
0.0
 46
0.0
 71
     5
 72
     1
  1
\A1;45
  7
ＭＳ ゴシック
 73
     1
 44
1.0
  0
POINT
  5
434C
330
4343
100
AcDbEntity
  8
Defpoints
 62
     0
100
AcDbPoint
 10
1622.868249629157
 20
534.6890020026686
 30
0.0
  0
POINT
  5
434D
330
4343
100
AcDbEntity
  8
Defpoints
 62
     0
100
AcDbPoint
 10
1577.8371696982
 20
534.4065341833686
 30
0.0
  0
POINT
  5
434E
330
4343
100
AcDbEntity
  8
Defpoints
 62
     0
100
AcDbPoint
 10
1577.8371696982
 20
455.6746478990084
 30
0.0
  0
ENDBLK
  5
4345
330
4343
100
AcDbEntity
  8
0
100
AcDbBlockEnd
  0
BLOCK
  5
4354
330
4353
100
AcDbEntity
  8
0
100
AcDbBlockBegin
  2
*D16
 70
     1
 10
0.0
 20
0.0
 30
0.0
  3
*D16
  1

  0
LINE
  5
4356
330
4353
100
AcDbEntity
  8
DIM
 62
     0
370
    -2
100
AcDbLine
 10
1577.973198927747
 20
1550.744443531461
 30
0.0
 11
1577.973198927747
 21
1636.2044346515
 31
0.0
  0
LINE
  5
4357
330
4353
100
AcDbEntity
  8
DIM
 62
     0
370
    -2
100
AcDbLine
 10
1731.837169698199
 20
1088.404761230605
 30
0.0
 11
1731.837169698199
 21
1636.2044346515
 31
0.0
  0
LINE
  5
4358
330
4353
100
AcDbEntity
  8
DIM
 62
     0
370
    -2
100
AcDbLine
 10
1587.973198927747
 20
1636.2044346515
 30
0.0
 11
1721.837169698199
 21
1636.2044346515
 31
0.0
  0
INSERT
  5
4359
330
4353
100
AcDbEntity
  8
DIM
 62
     0
370
    -2
100
AcDbBlockReference
  2
_DOT
 10
1577.973198927747
 20
1636.2044346515
 30
0.0
 41
10.0
 42
10.0
 43
10.0
 50
180.0
  0
INSERT
  5
435A
330
4353
100
AcDbEntity
  8
DIM
 62
     0
370
    -2
100
AcDbBlockReference
  2
_DOT
 10
1731.837169698199
 20
1636.2044346515
 30
0.0
 41
10.0
 42
10.0
 43
10.0
  0
MTEXT
  5
435B
330
4353
100
AcDbEntity
  8
DIM
 62
     0
100
AcDbMText
 10
1654.905184312973
 20
1668.208936339634
 30
0.0
 40
24.0
 41
0.0
 46
0.0
 71
     5
 72
     1
  1
\A1;154
  7
ＭＳ ゴシック
 73
     1
 44
1.0
  0
POINT
  5
435C
330
4353
100
AcDbEntity
  8
Defpoints
 62
     0
100
AcDbPoint
 10
1577.973198927747
 20
1520.744443531461
 30
0.0
  0
POINT
  5
435D
330
4353
100
AcDbEntity
  8
Defpoints
 62
     0
100
AcDbPoint
 10
1731.837169698199
 20
1058.404761230605
 30
0.0
  0
POINT
  5
435E
330
4353
100
AcDbEntity
  8
Defpoints
 62
     0
100
AcDbPoint
 10
1731.837169698199
 20
1636.2044346515
 30
0.0
  0
ENDBLK
  5
4355
330
4353
100
AcDbEntity
  8
0
100
AcDbBlockEnd
  0
BLOCK
  5
4363
330
4362
100
AcDbEntity
  8
0
100
AcDbBlockBegin
  2
*D17
 70
     1
 10
0.0
 20
0.0
 30
0.0
  3
*D17
  1

  0
LINE
  5
4365
330
4362
100
AcDbEntity
  8
DIM
 62
     0
370
    -2
100
AcDbLine
 10
422.7080511768404
 20
1549.851319001524
 30
0.0
 11
422.7080511768404
 21
1629.959477036637
 31
0.0
  0
LINE
  5
4366
330
4362
100
AcDbEntity
  8
DIM
 62
     0
370
    -2
100
AcDbLine
 10
892.5742102926274
 20
1549.851319001523
 30
0.0
 11
892.5742102926274
 21
1629.959477036637
 31
0.0
  0
LINE
  5
4367
330
4362
100
AcDbEntity
  8
DIM
 62
     0
370
    -2
100
AcDbLine
 10
432.7080511768404
 20
1629.959477036637
 30
0.0
 11
882.5742102926274
 21
1629.959477036637
 31
0.0
  0
INSERT
  5
4368
330
4362
100
AcDbEntity
  8
DIM
 62
     0
370
    -2
100
AcDbBlockReference
  2
_DOT
 10
422.7080511768404
 20
1629.959477036637
 30
0.0
 41
10.0
 42
10.0
 43
10.0
 50
180.0
  0
INSERT
  5
4369
330
4362
100
AcDbEntity
  8
DIM
 62
     0
370
    -2
100
AcDbBlockReference
  2
_DOT
 10
892.5742102926274
 20
1629.959477036637
 30
0.0
 41
10.0
 42
10.0
 43
10.0
  0
MTEXT
  5
436A
330
4362
100
AcDbEntity
  8
DIM
 62
     0
100
AcDbMText
 10
657.641130734734
 20
1661.96397872477
 30
0.0
 40
24.0
 41
0.0
 46
0.0
 71
     5
 72
     1
  1
\A1;470
  7
ＭＳ ゴシック
 73
     1
 44
1.0
  0
POINT
  5
436B
330
4362
100
AcDbEntity
  8
Defpoints
 62
     0
100
AcDbPoint
 10
422.7080511768404
 20
1519.851319001524
 30
0.0
  0
POINT
  5
436C
330
4362
100
AcDbEntity
  8
Defpoints
 62
     0
100
AcDbPoint
 10
892.5742102926274
 20
1519.851319001523
 30
0.0
  0
POINT
  5
436D
330
4362
100
AcDbEntity
  8
Defpoints
 62
     0
100
AcDbPoint
 10
892.5742102926274
 20
1629.959477036637
 30
0.0
  0
ENDBLK
  5
4364
330
4362
100
AcDbEntity
  8
0
100
AcDbBlockEnd
  0
BLOCK
  5
4372
330
4371
100
AcDbEntity
  8
0
100
AcDbBlockBegin
  2
*D18
 70
     1
 10
0.0
 20
0.0
 30
0.0
  3
*D18
  1

  0
LINE
  5
4374
330
4371
100
AcDbEntity
  8
DIM
 62
     0
370
    -2
100
AcDbLine
 10
922.4745205108602
 20
525.9634049322178
 30
0.0
 11
1037.000674604591
 21
525.9634049322178
 31
0.0
  0
LINE
  5
4375
330
4371
100
AcDbEntity
  8
DIM
 62
     0
370
    -2
100
AcDbLine
 10
922.5742102926274
 20
1519.851319001523
 30
0.0
 11
1037.000674604591
 21
1519.851319001523
 31
0.0
  0
LINE
  5
4376
330
4371
100
AcDbEntity
  8
DIM
 62
     0
370
    -2
100
AcDbLine
 10
1037.000674604591
 20
535.9634049322178
 30
0.0
 11
1037.000674604591
 21
1509.851319001523
 31
0.0
  0
INSERT
  5
4377
330
4371
100
AcDbEntity
  8
DIM
 62
     0
370
    -2
100
AcDbBlockReference
  2
_DOT
 10
1037.000674604591
 20
525.9634049322178
 30
0.0
 41
10.0
 42
10.0
 43
10.0
 50
270.0
  0
INSERT
  5
4378
330
4371
100
AcDbEntity
  8
DIM
 62
     0
370
    -2
100
AcDbBlockReference
  2
_DOT
 10
1037.000674604591
 20
1519.851319001523
 30
0.0
 41
10.0
 42
10.0
 43
10.0
 50
90.0
  0
MTEXT
  5
4379
330
4371
100
AcDbEntity
  8
DIM
 62
     0
100
AcDbMText
 10
1005.000674604591
 20
1022.90736196687
 30
0.0
 40
24.0
 41
0.0
 46
0.0
 71
     5
 72
     1
  1
\A1;990
  7
ＭＳ ゴシック
 11
0.0
 21
1.0
 31
0.0
 73
     1
 44
1.0
  0
POINT
  5
437A
330
4371
100
AcDbEntity
  8
Defpoints
 62
     0
100
AcDbPoint
 10
892.4745205108602
 20
525.9634049322178
 30
0.0
  0
POINT
  5
437B
330
4371
100
AcDbEntity
  8
Defpoints
 62
     0
100
AcDbPoint
 10
892.5742102926274
 20
1519.851319001523
 30
0.0
  0
POINT
  5
437C
330
4371
100
AcDbEntity
  8
Defpoints
 62
     0
100
AcDbPoint
 10
1037.000674604591
 20
1519.851319001523
 30
0.0
  0
ENDBLK
  5
4373
330
4371
100
AcDbEntity
  8
0
100
AcDbBlockEnd
  0
BLOCK
  5
4381
330
4380
100
AcDbEntity
  8
0
100
AcDbBlockBegin
  2
*D19
 70
     1
 10
0.0
 20
0.0
 30
0.0
  3
*D19
  1

  0
LINE
  5
4383
330
4380
100
AcDbEntity
  8
DIM
 62
     0
370
    -2
100
AcDbLine
 10
547.7230121049702
 20
492.8508620869846
 30
0.0
 11
547.7230121049702
 21
424.978488971751
 31
0.0
  0
LINE
  5
4384
330
4380
100
AcDbEntity
  8
DIM
 62
     0
370
    -2
100
AcDbLine
 10
888.0014969376202
 20
492.8508620869857
 30
0.0
 11
888.0014969376202
 21
424.978488971751
 31
0.0
  0
LINE
  5
4385
330
4380
100
AcDbEntity
  8
DIM
 62
     0
370
    -2
100
AcDbLine
 10
557.7230121049702
 20
424.978488971751
 30
0.0
 11
878.0014969376202
 21
424.978488971751
 31
0.0
  0
INSERT
  5
4386
330
4380
100
AcDbEntity
  8
DIM
 62
     0
370
    -2
100
AcDbBlockReference
  2
_DOT
 10
547.7230121049702
 20
424.978488971751
 30
0.0
 41
10.0
 42
10.0
 43
10.0
 50
180.0
  0
INSERT
  5
4387
330
4380
100
AcDbEntity
  8
DIM
 62
     0
370
    -2
100
AcDbBlockReference
  2
_DOT
 10
888.0014969376202
 20
424.978488971751
 30
0.0
 41
10.0
 42
10.0
 43
10.0
  0
MTEXT
  5
4388
330
4380
100
AcDbEntity
  8
DIM
 62
     0
100
AcDbMText
 10
717.8622545212952
 20
456.9829906598841
 30
0.0
 40
24.0
 41
0.0
 46
0.0
 71
     5
 72
     1
  1
\A1;340
  7
ＭＳ ゴシック
 73
     1
 44
1.0
  0
POINT
  5
4389
330
4380
100
AcDbEntity
  8
Defpoints
 62
     0
100
AcDbPoint
 10
547.7230121049702
 20
522.8508620869846
 30
0.0
  0
POINT
  5
438A
330
4380
100
AcDbEntity
  8
Defpoints
 62
     0
100
AcDbPoint
 10
888.0014969376202
 20
522.8508620869857
 30
0.0
  0
POINT
  5
438B
330
4380
100
AcDbEntity
  8
Defpoints
 62
     0
100
AcDbPoint
 10
888.0014969376202
 20
424.978488971751
 30
0.0
  0
ENDBLK
  5
4382
330
4380
100
AcDbEntity
  8
0
100
AcDbBlockEnd
  0
BLOCK
  5
4390
330
438F
100
AcDbEntity
  8
0
100
AcDbBlockBegin
  2
*D20
 70
     1
 10
0.0
 20
0.0
 30
0.0
  3
*D20
  1

  0
LINE
  5
4392
330
438F
100
AcDbEntity
  8
DIM
 62
     0
370
    -2
100
AcDbLine
 10
547.7230121049702
 20
492.8508620869846
 30
0.0
 11
547.7230121049702
 21
424.978488971751
 31
0.0
  0
LINE
  5
4393
330
438F
100
AcDbEntity
  8
DIM
 62
     0
370
    -2
100
AcDbLine
 10
422.7080511768476
 20
492.9276033041025
 30
0.0
 11
422.7080511768476
 21
424.978488971751
 31
0.0
  0
LINE
  5
4394
330
438F
100
AcDbEntity
  8
DIM
 62
     0
370
    -2
100
AcDbLine
 10
537.7230121049702
 20
424.978488971751
 30
0.0
 11
432.7080511768476
 21
424.978488971751
 31
0.0
  0
INSERT
  5
4395
330
438F
100
AcDbEntity
  8
DIM
 62
     0
370
    -2
100
AcDbBlockReference
  2
_DOT
 10
547.7230121049702
 20
424.978488971751
 30
0.0
 41
10.0
 42
10.0
 43
10.0
  0
INSERT
  5
4396
330
438F
100
AcDbEntity
  8
DIM
 62
     0
370
    -2
100
AcDbBlockReference
  2
_DOT
 10
422.7080511768476
 20
424.978488971751
 30
0.0
 41
10.0
 42
10.0
 43
10.0
 50
180.0
  0
MTEXT
  5
4397
330
438F
100
AcDbEntity
  8
DIM
 62
     0
100
AcDbMText
 10
485.2155316409089
 20
456.9829906598841
 30
0.0
 40
24.0
 41
0.0
 46
0.0
 71
     5
 72
     1
  1
\A1;125
  7
ＭＳ ゴシック
 73
     1
 44
1.0
  0
POINT
  5
4398
330
438F
100
AcDbEntity
  8
Defpoints
 62
     0
100
AcDbPoint
 10
547.7230121049702
 20
522.8508620869846
 30
0.0
  0
POINT
  5
4399
330
438F
100
AcDbEntity
  8
Defpoints
 62
     0
100
AcDbPoint
 10
422.7080511768476
 20
522.9276033041025
 30
0.0
  0
POINT
  5
439A
330
438F
100
AcDbEntity
  8
Defpoints
 62
     0
100
AcDbPoint
 10
422.7080511768476
 20
424.978488971751
 30
0.0
  0
ENDBLK
  5
4391
330
438F
100
AcDbEntity
  8
0
100
AcDbBlockEnd
  0
BLOCK
  5
439F
330
439E
100
AcDbEntity
  8
0
100
AcDbBlockBegin
  2
*D21
 70
     1
 10
0.0
 20
0.0
 30
0.0
  3
*D21
  1

  0
LINE
  5
43A1
330
439E
100
AcDbEntity
  8
DIM
 62
     0
370
    -2
100
AcDbLine
 10
459.7096112623681
 20
772.8508620869848
 30
0.0
 11
338.4457593884779
 21
772.8508620869848
 31
0.0
  0
LINE
  5
43A2
330
439E
100
AcDbEntity
  8
DIM
 62
     0
370
    -2
100
AcDbLine
 10
459.7096112623681
 20
922.8508620869848
 30
0.0
 11
338.4457593884779
 21
922.8508620869848
 31
0.0
  0
LINE
  5
43A3
330
439E
100
AcDbEntity
  8
DIM
 62
     0
370
    -2
100
AcDbLine
 10
338.4457593884779
 20
782.8508620869848
 30
0.0
 11
338.4457593884779
 21
912.8508620869848
 31
0.0
  0
INSERT
  5
43A4
330
439E
100
AcDbEntity
  8
DIM
 62
     0
370
    -2
100
AcDbBlockReference
  2
_DOT
 10
338.4457593884779
 20
772.8508620869848
 30
0.0
 41
10.0
 42
10.0
 43
10.0
 50
270.0
  0
INSERT
  5
43A5
330
439E
100
AcDbEntity
  8
DIM
 62
     0
370
    -2
100
AcDbBlockReference
  2
_DOT
 10
338.4457593884779
 20
922.8508620869848
 30
0.0
 41
10.0
 42
10.0
 43
10.0
 50
90.0
  0
MTEXT
  5
43A6
330
439E
100
AcDbEntity
  8
DIM
 62
     0
100
AcDbMText
 10
306.4412577003449
 20
847.8508620869848
 30
0.0
 40
24.0
 41
0.0
 46
0.0
 71
     5
 72
     1
  1
\A1;150
  7
ＭＳ ゴシック
 11
0.0
 21
1.0
 31
0.0
 73
     1
 44
1.0
  0
POINT
  5
43A7
330
439E
100
AcDbEntity
  8
Defpoints
 62
     0
100
AcDbPoint
 10
489.7096112623681
 20
772.8508620869848
 30
0.0
  0
POINT
  5
43A8
330
439E
100
AcDbEntity
  8
Defpoints
 62
     0
100
AcDbPoint
 10
489.7096112623681
 20
922.8508620869848
 30
0.0
  0
POINT
  5
43A9
330
439E
100
AcDbEntity
  8
Defpoints
 62
     0
100
AcDbPoint
 10
338.4457593884779
 20
922.8508620869848
 30
0.0
  0
ENDBLK
  5
43A0
330
439E
100
AcDbEntity
  8
0
100
AcDbBlockEnd
  0
BLOCK
  5
43AE
330
43AD
100
AcDbEntity
  8
0
100
AcDbBlockBegin
  2
*D22
 70
     1
 10
0.0
 20
0.0
 30
0.0
  3
*D22
  1

  0
LINE
  5
43B0
330
43AD
100
AcDbEntity
  8
DIM
 62
     0
370
    -2
100
AcDbLine
 10
459.7096112623681
 20
922.8508620869848
 30
0.0
 11
338.4457593884779
 21
922.8508620869848
 31
0.0
  0
LINE
  5
43B1
330
43AD
100
AcDbEntity
  8
DIM
 62
     0
370
    -2
100
AcDbLine
 10
459.7096112623681
 20
1022.850862086985
 30
0.0
 11
338.4457593884779
 21
1022.850862086985
 31
0.0
  0
LINE
  5
43B2
330
43AD
100
AcDbEntity
  8
DIM
 62
     0
370
    -2
100
AcDbLine
 10
338.4457593884779
 20
932.8508620869848
 30
0.0
 11
338.4457593884779
 21
1012.850862086985
 31
0.0
  0
INSERT
  5
43B3
330
43AD
100
AcDbEntity
  8
DIM
 62
     0
370
    -2
100
AcDbBlockReference
  2
_DOT
 10
338.4457593884779
 20
922.8508620869848
 30
0.0
 41
10.0
 42
10.0
 43
10.0
 50
270.0
  0
INSERT
  5
43B4
330
43AD
100
AcDbEntity
  8
DIM
 62
     0
370
    -2
100
AcDbBlockReference
  2
_DOT
 10
338.4457593884779
 20
1022.850862086985
 30
0.0
 41
10.0
 42
10.0
 43
10.0
 50
90.0
  0
MTEXT
  5
43B5
330
43AD
100
AcDbEntity
  8
DIM
 62
     0
100
AcDbMText
 10
306.4412577003449
 20
972.8508620869849
 30
0.0
 40
24.0
 41
0.0
 46
0.0
 71
     5
 72
     1
  1
\A1;100
  7
ＭＳ ゴシック
 11
0.0
 21
1.0
 31
0.0
 73
     1
 44
1.0
  0
POINT
  5
43B6
330
43AD
100
AcDbEntity
  8
Defpoints
 62
     0
100
AcDbPoint
 10
489.7096112623681
 20
922.8508620869848
 30
0.0
  0
POINT
  5
43B7
330
43AD
100
AcDbEntity
  8
Defpoints
 62
     0
100
AcDbPoint
 10
489.7096112623681
 20
1022.850862086985
 30
0.0
  0
POINT
  5
43B8
330
43AD
100
AcDbEntity
  8
Defpoints
 62
     0
100
AcDbPoint
 10
338.4457593884779
 20
1022.850862086985
 30
0.0
  0
ENDBLK
  5
43AF
330
43AD
100
AcDbEntity
  8
0
100
AcDbBlockEnd
  0
BLOCK
  5
43BD
330
43BC
100
AcDbEntity
  8
0
100
AcDbBlockBegin
  2
*D23
 70
     1
 10
0.0
 20
0.0
 30
0.0
  3
*D23
  1

  0
LINE
  5
43BF
330
43BC
100
AcDbEntity
  8
DIM
 62
     0
370
    -2
100
AcDbLine
 10
459.7096112623681
 20
1022.850862086985
 30
0.0
 11
338.4457593884779
 21
1022.850862086985
 31
0.0
  0
LINE
  5
43C0
330
43BC
100
AcDbEntity
  8
DIM
 62
     0
370
    -2
100
AcDbLine
 10
459.7096112623681
 20
1122.850862086985
 30
0.0
 11
338.4457593884779
 21
1122.850862086985
 31
0.0
  0
LINE
  5
43C1
330
43BC
100
AcDbEntity
  8
DIM
 62
     0
370
    -2
100
AcDbLine
 10
338.4457593884779
 20
1032.850862086985
 30
0.0
 11
338.4457593884779
 21
1112.850862086985
 31
0.0
  0
INSERT
  5
43C2
330
43BC
100
AcDbEntity
  8
DIM
 62
     0
370
    -2
100
AcDbBlockReference
  2
_DOT
 10
338.4457593884779
 20
1022.850862086985
 30
0.0
 41
10.0
 42
10.0
 43
10.0
 50
270.0
  0
INSERT
  5
43C3
330
43BC
100
AcDbEntity
  8
DIM
 62
     0
370
    -2
100
AcDbBlockReference
  2
_DOT
 10
338.4457593884779
 20
1122.850862086985
 30
0.0
 41
10.0
 42
10.0
 43
10.0
 50
90.0
  0
MTEXT
  5
43C4
330
43BC
100
AcDbEntity
  8
DIM
 62
     0
100
AcDbMText
 10
306.4412577003447
 20
1072.850862086985
 30
0.0
 40
24.0
 41
0.0
 46
0.0
 71
     5
 72
     1
  1
\A1;100
  7
ＭＳ ゴシック
 11
0.0
 21
1.0
 31
0.0
 73
     1
 44
1.0
  0
POINT
  5
43C5
330
43BC
100
AcDbEntity
  8
Defpoints
 62
     0
100
AcDbPoint
 10
489.7096112623681
 20
1022.850862086985
 30
0.0
  0
POINT
  5
43C6
330
43BC
100
AcDbEntity
  8
Defpoints
 62
     0
100
AcDbPoint
 10
489.7096112623681
 20
1122.850862086985
 30
0.0
  0
POINT
  5
43C7
330
43BC
100
AcDbEntity
  8
Defpoints
 62
     0
100
AcDbPoint
 10
338.4457593884779
 20
1122.850862086985
 30
0.0
  0
ENDBLK
  5
43BE
330
43BC
100
AcDbEntity
  8
0
100
AcDbBlockEnd
  0
BLOCK
  5
43CC
330
43CB
100
AcDbEntity
  8
0
100
AcDbBlockBegin
  2
*D24
 70
     1
 10
0.0
 20
0.0
 30
0.0
  3
*D24
  1

  0
LINE
  5
43CE
330
43CB
100
AcDbEntity
  8
DIM
 62
     0
370
    -2
100
AcDbLine
 10
459.7096112623681
 20
1122.850862086985
 30
0.0
 11
338.4457593884779
 21
1122.850862086985
 31
0.0
  0
LINE
  5
43CF
330
43CB
100
AcDbEntity
  8
DIM
 62
     0
370
    -2
100
AcDbLine
 10
459.7096112623681
 20
1272.850862086985
 30
0.0
 11
338.4457593884779
 21
1272.850862086985
 31
0.0
  0
LINE
  5
43D0
330
43CB
100
AcDbEntity
  8
DIM
 62
     0
370
    -2
100
AcDbLine
 10
338.4457593884779
 20
1132.850862086985
 30
0.0
 11
338.4457593884779
 21
1262.850862086985
 31
0.0
  0
INSERT
  5
43D1
330
43CB
100
AcDbEntity
  8
DIM
 62
     0
370
    -2
100
AcDbBlockReference
  2
_DOT
 10
338.4457593884779
 20
1122.850862086985
 30
0.0
 41
10.0
 42
10.0
 43
10.0
 50
270.0
  0
INSERT
  5
43D2
330
43CB
100
AcDbEntity
  8
DIM
 62
     0
370
    -2
100
AcDbBlockReference
  2
_DOT
 10
338.4457593884779
 20
1272.850862086985
 30
0.0
 41
10.0
 42
10.0
 43
10.0
 50
90.0
  0
MTEXT
  5
43D3
330
43CB
100
AcDbEntity
  8
DIM
 62
     0
100
AcDbMText
 10
306.4412577003447
 20
1197.850862086985
 30
0.0
 40
24.0
 41
0.0
 46
0.0
 71
     5
 72
     1
  1
\A1;150
  7
ＭＳ ゴシック
 11
0.0
 21
1.0
 31
0.0
 73
     1
 44
1.0
  0
POINT
  5
43D4
330
43CB
100
AcDbEntity
  8
Defpoints
 62
     0
100
AcDbPoint
 10
489.7096112623681
 20
1122.850862086985
 30
0.0
  0
POINT
  5
43D5
330
43CB
100
AcDbEntity
  8
Defpoints
 62
     0
100
AcDbPoint
 10
489.7096112623681
 20
1272.850862086985
 30
0.0
  0
POINT
  5
43D6
330
43CB
100
AcDbEntity
  8
Defpoints
 62
     0
100
AcDbPoint
 10
338.4457593884779
 20
1272.850862086985
 30
0.0
  0
ENDBLK
  5
43CD
330
43CB
100
AcDbEntity
  8
0
100
AcDbBlockEnd
  0
BLOCK
  5
43DB
330
43DA
100
AcDbEntity
  8
0
100
AcDbBlockBegin
  2
*D25
 70
     1
 10
0.0
 20
0.0
 30
0.0
  3
*D25
  1

  0
LINE
  5
43DD
330
43DA
100
AcDbEntity
  8
DIM
 62
     0
370
    -2
100
AcDbLine
 10
392.7080511768476
 20
522.9276033041025
 30
0.0
 11
242.9286529486854
 21
522.9276033041025
 31
0.0
  0
LINE
  5
43DE
330
43DA
100
AcDbEntity
  8
DIM
 62
     0
370
    -2
100
AcDbLine
 10
392.7080511768476
 20
1522.942469541237
 30
0.0
 11
242.9286529486855
 21
1522.942469541237
 31
0.0
  0
LINE
  5
43DF
330
43DA
100
AcDbEntity
  8
DIM
 62
     0
370
    -2
100
AcDbLine
 10
242.9286529486854
 20
532.9276033041025
 30
0.0
 11
242.9286529486855
 21
1512.942469541237
 31
0.0
  0
INSERT
  5
43E0
330
43DA
100
AcDbEntity
  8
DIM
 62
     0
370
    -2
100
AcDbBlockReference
  2
_DOT
 10
242.9286529486854
 20
522.9276033041025
 30
0.0
 41
10.0
 42
10.0
 43
10.0
 50
270.0
  0
INSERT
  5
43E1
330
43DA
100
AcDbEntity
  8
DIM
 62
     0
370
    -2
100
AcDbBlockReference
  2
_DOT
 10
242.9286529486855
 20
1522.942469541237
 30
0.0
 41
10.0
 42
10.0
 43
10.0
 50
90.0
  0
MTEXT
  5
43E2
330
43DA
100
AcDbEntity
  8
DIM
 62
     0
100
AcDbMText
 10
210.9241512605523
 20
1022.93503642267
 30
0.0
 40
24.0
 41
0.0
 46
0.0
 71
     5
 72
     1
  1
\A1;1000
  7
ＭＳ ゴシック
 11
5.684257382562617E-17
 21
1.0
 31
0.0
 73
     1
 44
1.0
  0
POINT
  5
43E3
330
43DA
100
AcDbEntity
  8
Defpoints
 62
     0
100
AcDbPoint
 10
422.7080511768476
 20
522.9276033041025
 30
0.0
  0
POINT
  5
43E4
330
43DA
100
AcDbEntity
  8
Defpoints
 62
     0
100
AcDbPoint
 10
422.7080511768476
 20
1522.942469541237
 30
0.0
  0
POINT
  5
43E5
330
43DA
100
AcDbEntity
  8
Defpoints
 62
     0
100
AcDbPoint
 10
242.9286529486855
 20
1522.942469541237
 30
0.0
  0
ENDBLK
  5
43DC
330
43DA
100
AcDbEntity
  8
0
100
AcDbBlockEnd
  0
BLOCK
  5
4429
330
4428
100
AcDbEntity
  8
0
100
AcDbBlockBegin
  2
*D26
 70
     1
 10
0.0
 20
0.0
 30
0.0
  3
*D26
  1

  0
LINE
  5
442B
330
4428
100
AcDbEntity
  8
DIM
 62
     0
370
    -2
100
AcDbLine
 10
452.7080511768429
 20
2546.168985620215
 30
0.0
 11
452.7080511768429
 21
2640.610436352819
 31
0.0
  0
LINE
  5
442C
330
4428
100
AcDbEntity
  8
DIM
 62
     0
370
    -2
100
AcDbLine
 10
422.7080511768429
 20
2546.168985620215
 30
0.0
 11
422.7080511768429
 21
2640.610436352819
 31
0.0
  0
LINE
  5
442D
330
4428
100
AcDbEntity
  8
DIM
 62
     0
370
    -2
100
AcDbLine
 10
442.7080511768429
 20
2640.610436352819
 30
0.0
 11
432.7080511768429
 21
2640.610436352819
 31
0.0
  0
INSERT
  5
442E
330
4428
100
AcDbEntity
  8
DIM
 62
     0
370
    -2
100
AcDbBlockReference
  2
_DOT
 10
452.7080511768429
 20
2640.610436352819
 30
0.0
 41
10.0
 42
10.0
 43
10.0
  0
INSERT
  5
442F
330
4428
100
AcDbEntity
  8
DIM
 62
     0
370
    -2
100
AcDbBlockReference
  2
_DOT
 10
422.7080511768429
 20
2640.610436352819
 30
0.0
 41
10.0
 42
10.0
 43
10.0
 50
180.0
  0
MTEXT
  5
4430
330
4428
100
AcDbEntity
  8
DIM
 62
     0
100
AcDbMText
 10
437.7080511768429
 20
2672.614938040952
 30
0.0
 40
24.0
 41
0.0
 46
0.0
 71
     5
 72
     1
  1
\A1;30
  7
ＭＳ ゴシック
 73
     1
 44
1.0
  0
POINT
  5
4431
330
4428
100
AcDbEntity
  8
Defpoints
 62
     0
100
AcDbPoint
 10
452.7080511768429
 20
2516.168985620215
 30
0.0
  0
POINT
  5
4432
330
4428
100
AcDbEntity
  8
Defpoints
 62
     0
100
AcDbPoint
 10
422.7080511768429
 20
2516.168985620215
 30
0.0
  0
POINT
  5
4433
330
4428
100
AcDbEntity
  8
Defpoints
 62
     0
100
AcDbPoint
 10
422.7080511768429
 20
2640.610436352819
 30
0.0
  0
ENDBLK
  5
442A
330
4428
100
AcDbEntity
  8
0
100
AcDbBlockEnd
  0
ENDSEC
  0
SECTION
  2
ENTITIES
  0
MTEXT
  5
177
330
A
100
AcDbEntity
  8
TEMPLATE
390
1D
100
AcDbMText
 10
79.20214454773075
 20
343.7317516314282
 30
0.0
 40
16.28841145833333
 41
0.0
 46
0.0
 71
     1
 72
     1
  1
品名
  7
ＭＳ ゴシック
 73
     1
 44
0.7828267384257843
  0
MTEXT
  5
178
330
A
100
AcDbEntity
  8
TEMPLATE
390
1D
100
AcDbMText
 10
79.20214454773075
 20
258.731751631428
 30
0.0
 40
16.28841145833333
 41
0.0
 46
0.0
 71
     1
 72
     1
  1
仕様
  7
ＭＳ ゴシック
 73
     1
 44
0.7828267384257843
  0
LINE
  5
179
330
A
100
AcDbEntity
  8
TEMPLATE
390
1D
100
AcDbLine
 10
2022.202144547248
 20
267.1466735064284
 30
0.0
 11
72.20214454724874
 21
267.1466735064284
 31
0.0
  0
LWPOLYLINE
  5
17A
330
A
100
AcDbEntity
  8
TEMPLATE
390
1D
100
AcDbPolyline
 90
        5
 70
   128
 43
0.0
 10
2022.202144547248
 20
2897.146673506426
 10
72.20214454724874
 20
2897.146673506426
 10
72.20214454724874
 20
97.14667350642826
 10
2022.202144547248
 20
97.14667350642826
 10
2022.202144547248
 20
2897.146673506426
  0
LINE
  5
17B
330
A
100
AcDbEntity
  8
TEMPLATE
390
1D
100
AcDbLine
 10
2022.202144547248
 20
352.1466735064282
 30
0.0
 11
72.20214454724874
 21
352.1466735064282
 31
0.0
  0
LINE
  5
17C
330
A
100
AcDbEntity
  8
TEMPLATE
390
1D
100
AcDbLine
 10
2022.202144547732
 20
182.1466735064282
 30
0.0
 11
1269.20214454773
 21
182.1466735064282
 31
0.0
  0
MTEXT
  5
17E
330
A
100
AcDbEntity
  8
TEMPLATE
390
1D
100
AcDbMText
 10
1299.073550799991
 20
152.2362790331201
 30
0.0
 40
24.4326171875
 41
0.0
 46
0.0
 71
     1
 72
     1
  1
大洋金物株式会社 ティーフォルム事業部
  7
ＭＳ ゴシック
 73
     1
 44
0.7828267384257843
  0
MTEXT
  5
180
330
A
100
AcDbEntity
  8
TEMPLATE
390
1D
100
AcDbMText
 10
1831.20214454799
 20
230.1492906939282
 30
0.0
 40
24.4326171875
 41
0.0
 46
24.4326171875
 71
     1
 72
     1
  1
{1:10}
  7
ＭＳ ゴシック
 73
     1
 44
0.7828267384257843
1001
ACAD
1000
ACAD_MTEXT_DEFINED_HEIGHT_BEGIN
1070
    46
1040
24.4326171875
1000
ACAD_MTEXT_DEFINED_HEIGHT_END
  0
MTEXT
  5
181
330
A
100
AcDbEntity
  8
TEMPLATE
390
1D
100
AcDbMText
 10
1778.20214454799
 20
258.731751631428
 30
0.0
 40
16.28841145833333
 41
0.0
 46
0.0
 71
     1
 72
     1
  1
縮尺
  7
ＭＳ ゴシック
 73
     1
 44
0.7828267384257843
  0
LINE
  5
182
330
A
100
AcDbEntity
  8
TEMPLATE
390
1D
100
AcDbLine
 10
1771.20214454799
 20
182.1466735064282
 30
0.0
 11
1771.20214454799
 21
267.1466735064284
 31
0.0
  0
MTEXT
  5
183
330
A
100
AcDbEntity
  8
TEMPLATE
390
1D
100
AcDbMText
 10
1527.20214454799
 20
258.731751631428
 30
0.0
 40
16.28841145833333
 41
0.0
 46
0.0
 71
     1
 72
     1
  1
容量
  7
ＭＳ ゴシック
 73
     1
 44
0.7828267384257843
  0
LINE
  5
184
330
A
100
AcDbEntity
  8
TEMPLATE
390
1D
100
AcDbLine
 10
1520.20214454799
 20
182.1466735064282
 30
0.0
 11
1520.20214454799
 21
267.1466735064284
 31
0.0
  0
MTEXT
  5
185
330
A
100
AcDbEntity
  8
TEMPLATE
390
1D
100
AcDbMText
 10
1276.20214454799
 20
343.7317516314282
 30
0.0
 40
16.28841145833333
 41
0.0
 46
0.0
 71
     1
 72
     1
  1
品番
  7
ＭＳ ゴシック
 73
     1
 44
0.7828267384257843
  0
MTEXT
  5
186
330
A
100
AcDbEntity
  8
TEMPLATE
390
1D
100
AcDbMText
 10
1276.20214454799
 20
258.731751631428
 30
0.0
 40
16.28841145833333
 41
0.0
 46
0.0
 71
     1
 72
     1
  1
重量
  7
ＭＳ ゴシック
 73
     1
 44
0.7828267384257843
  0
MTEXT
  5
187
330
A
100
AcDbEntity
  8
TEMPLATE
390
1D
100
AcDbMText
 10
1329.20214454799
 20
315.1492906939282
 30
0.0
 40
24.4326171875
 41
0.0
 46
24.4326171875
 71
     1
 72
     1
  1
{ADF73-3102-001}
  7
ＭＳ ゴシック
 73
     1
 44
0.7828267384257843
1001
ACAD
1000
ACAD_MTEXT_DEFINED_HEIGHT_BEGIN
1070
    46
1040
24.4326171875
1000
ACAD_MTEXT_DEFINED_HEIGHT_END
  0
LINE
  5
188
330
A
100
AcDbEntity
  8
TEMPLATE
390
1D
100
AcDbLine
 10
1269.20214454799
 20
97.14667350642826
 30
0.0
 11
1269.20214454799
 21
352.1466735064282
 31
0.0
  0
INSERT
  5
68C
330
A
100
AcDbEntity
  8
TEMPLATE
100
AcDbBlockReference
  2
block 2
 10
919.2743017702577
 20
8.373076514336368
 30
0.0
 41
0.3809999999999999
 42
0.3809999999999999
 43
0.3809999999999999
  0
LWPOLYLINE
  5
DAC
330
A
100
AcDbEntity
  8
BORDER
100
AcDbPolyline
 90
        4
 70
     1
 43
0.0
 10
0.0
 20
0.0
 10
0.0
 20
2970.0
 10
2100.0
 20
2970.0
 10
2100.0
 20
0.0
  0
MTEXT
  5
121B
330
A
100
AcDbEntity
  8
TEMPLATE
390
1D
100
AcDbMText
 10
1329.20214454799
 20
227.1688729773101
 30
0.0
 40
24.4326171875
 41
0.0
 46
28.40135167875453
 71
     1
 72
     1
  1
{26.5kg}
  7
ＭＳ ゴシック
 73
     1
 44
0.7828267384257843
1001
ACAD
1000
ACAD_MTEXT_DEFINED_HEIGHT_BEGIN
1070
    46
1040
28.40135167875453
1000
ACAD_MTEXT_DEFINED_HEIGHT_END
  0
MTEXT
  5
1466
102
{ACAD_XDICTIONARY
360
1468
102
}
330
A
100
AcDbEntity
  8
TEMPLATE
 48
0.05
100
AcDbMText
 10
74.728656548571
 20
83.86172105142839
 30
0.0
 40
22.0
 41
0.0
 46
22.0
 71
     1
 72
     1
  1
{20220602M}
  7
ＭＳ ゴシック
 73
     1
 44
1.0
1001
ACAD
1000
ACAD_MTEXT_DEFINED_HEIGHT_BEGIN
1070
    46
1040
22.0
1000
ACAD_MTEXT_DEFINED_HEIGHT_END
  0
MTEXT
  5
146D
330
A
100
AcDbEntity
  8
TEMPLATE
390
1D
100
AcDbMText
 10
1583.904999862276
 20
227.1688729773101
 30
0.0
 40
24.4326171875
 41
0.0
 46
24.4326171875
 71
     1
 72
     1
  1
{13L}
  7
ＭＳ ゴシック
 73
     1
 44
0.7828267384257843
1001
ACAD
1000
ACAD_MTEXT_DEFINED_HEIGHT_BEGIN
1070
    46
1040
24.4326171875
1000
ACAD_MTEXT_DEFINED_HEIGHT_END
  0
POINT
  5
262A
330
A
100
AcDbEntity
  8
Layer9
  6
Continuous
 62
     7
100
AcDbPoint
 10
1037.460145007193
 20
1010.220672371878
 30
0.0
  0
POINT
  5
262B
330
A
100
AcDbEntity
  8
Layer9
  6
Continuous
 62
     7
100
AcDbPoint
 10
1037.460146257193
 20
1010.220672788578
 30
0.0
  0
POINT
  5
262C
330
A
100
AcDbEntity
  8
Layer9
  6
Continuous
 62
     7
100
AcDbPoint
 10
1037.853693340493
 20
1015.267975288578
 30
0.0
  0
POINT
  5
2812
330
A
100
AcDbEntity
  8
Layer9
  6
Continuous
 62
     7
100
AcDbPoint
 10
925.7934783404928
 20
1010.220672371878
 30
0.0
  0
POINT
  5
2813
330
A
100
AcDbEntity
  8
Layer9
  6
Continuous
 62
     7
100
AcDbPoint
 10
925.7934795904928
 20
1010.220672788578
 30
0.0
  0
POINT
  5
2814
330
A
100
AcDbEntity
  8
Layer9
  6
Continuous
 62
     7
100
AcDbPoint
 10
926.1870266737928
 20
1015.267975288578
 30
0.0
  0
INSERT
  5
28CA
330
A
100
AcDbEntity
  8
Layer3
100
AcDbBlockReference
  2
SEANNOT_GROUP
 10
859.7083018867928
 20
826.1905269541776
 30
0.0
  0
POINT
  5
2A52
330
A
100
AcDbEntity
  8
Standard
  6
Continuous
 62
     7
100
AcDbPoint
 10
1036.111241014893
 20
1018.794321538578
 30
0.0
  0
INSERT
  5
2B9B
330
A
100
AcDbEntity
  8
Layer3
100
AcDbBlockReference
  2
SEANNOT_GROUP1
 10
859.7083018867928
 20
826.1905269541776
 30
0.0
  0
HATCH
  5
369B
102
{ACAD_REACTORS
330
36AC
102
}
330
A
100
AcDbEntity
  8
TEMPLATE
100
AcDbHatch
 10
0.0
 20
0.0
 30
0.0
210
0.0
220
0.0
230
1.0
  2
SOLID
 70
     1
 71
     1
 91
        6
 92
        1
 93
        8
 72
     1
 10
1934.476782902687
 20
153.1053194253001
 11
1934.476782902687
 21
147.1959117946397
 72
     1
 10
1934.476782902687
 20
147.1959117946397
 11
1925.116191352377
 21
147.1959117946397
 72
     1
 10
1925.116191352377
 20
147.1959117946397
 11
1925.116191352377
 21
123.105319426746
 72
     1
 10
1925.116191352377
 20
123.105319426746
 11
1916.883578199102
 21
123.105319426746
 72
     1
 10
1916.883578199102
 20
123.105319426746
 11
1916.883578199102
 21
147.1959117946397
 72
     1
 10
1916.883578199102
 20
147.1959117946397
 11
1907.688876764557
 21
147.1959117946397
 72
     1
 10
1907.688876764557
 20
147.1959117946397
 11
1907.688876764557
 21
153.1053194253001
 72
     1
 10
1907.688876764557
 20
153.1053194253001
 11
1934.476782902687
 21
153.1053194253001
 97
        1
330
369C
 92
        1
 93
        1
 72
     4
 94
        3
 73
     0
 74
     1
 95
       56
 96
       52
 40
0.0
 40
0.0
 40
0.0
 40
0.0
 40
1.0
 40
1.0
 40
1.0
 40
2.0
 40
2.0
 40
2.0
 40
3.0
 40
3.0
 40
3.0
 40
4.0
 40
4.0
 40
4.0
 40
5.0
 40
5.0
 40
5.0
 40
6.0
 40
6.0
 40
6.0
 40
7.0
 40
7.0
 40
7.0
 40
8.0
 40
8.0
 40
8.0
 40
9.0
 40
9.0
 40
9.0
 40
10.0
 40
10.0
 40
10.0
 40
11.0
 40
11.0
 40
11.0
 40
12.0
 40
12.0
 40
12.0
 40
13.0
 40
13.0
 40
13.0
 40
14.0
 40
14.0
 40
14.0
 40
15.0
 40
15.0
 40
15.0
 40
16.0
 40
16.0
 40
16.0
 40
17.0
 40
17.0
 40
17.0
 40
17.0
 10
1947.01896833698
 20
152.3909504648878
 10
1948.1728345189
 20
152.715738018898
 10
1949.662423612235
 20
152.4440650580081
 10
1949.662423612235
 20
152.4440650580081
 10
1949.662423612235
 20
152.4440650580081
 10
1948.946790018651
 20
150.2964947655846
 10
1948.946790018651
 20
150.2964947655846
 10
1948.946790018651
 20
150.2964947655846
 10
1947.484427733556
 20
150.6348957237139
 10
1946.356523726704
 20
149.7454866546012
 10
1945.480058550036
 20
149.0499384113589
 10
1944.912238256914
 20
147.2017886193686
 10
1944.69442379101
 20
146.4990989182278
 10
1944.69442379101
 20
146.4990989182278
 10
1943.723334297183
 20
143.518432927829
 10
1943.723334297183
 20
143.518432927829
 10
1943.723334297183
 20
143.518432927829
 10
1946.907457447503
 20
143.518432927829
 10
1946.907457447503
 20
143.518432927829
 10
1946.907457447503
 20
143.518432927829
 10
1946.412241976351
 20
141.642461206109
 10
1946.412241976351
 20
141.642461206109
 10
1946.412241976351
 20
141.642461206109
 10
1943.202156650962
 20
141.642461206109
 10
1943.202156650962
 20
141.642461206109
 10
1943.202156650962
 20
141.642461206109
 10
1937.458713526257
 20
123.105319426746
 10
1937.458713526257
 20
123.105319426746
 10
1937.458713526257
 20
123.105319426746
 10
1935.660479549369
 20
123.105319426746
 10
1935.660479549369
 20
123.105319426746
 10
1935.660479549369
 20
123.105319426746
 10
1941.409129987127
 20
141.642461206109
 10
1941.409129987127
 20
141.642461206109
 10
1941.409129987127
 20
141.642461206109
 10
1939.040397670409
 20
141.642461206109
 10
1939.040397670409
 20
141.642461206109
 10
1939.040397670409
 20
141.642461206109
 10
1939.536952164915
 20
143.518432927829
 10
1939.536952164915
 20
143.518432927829
 10
1939.536952164915
 20
143.518432927829
 10
1941.930307633347
 20
143.518432927829
 10
1941.930307633347
 20
143.518432927829
 10
1941.930307633347
 20
143.518432927829
 10
1942.77686795507
 20
146.1179236028939
 10
1942.77686795507
 20
146.1179236028939
 10
1943.461406450716
 20
148.2973328951149
 10
1944.042245026465
 20
149.4674161376772
 10
1944.540138544327
 20
150.3496093587049
 10
1945.032750358952
 20
151.232546481597
 10
1946.007708142475
 20
152.0998616653363
 10
1947.01896833698
 20
152.3909504648878
 97
        1
330
36A7
 92
        1
 93
        1
 72
     4
 94
        3
 73
     0
 74
     1
 95
       32
 96
       28
 40
0.0
 40
0.0
 40
0.0
 40
0.0
 40
1.0
 40
1.0
 40
1.0
 40
2.0
 40
2.0
 40
2.0
 40
3.0
 40
3.0
 40
3.0
 40
4.0
 40
4.0
 40
4.0
 40
5.0
 40
5.0
 40
5.0
 40
6.0
 40
6.0
 40
6.0
 40
7.0
 40
7.0
 40
7.0
 40
8.0
 40
8.0
 40
8.0
 40
9.0
 40
9.0
 40
9.0
 40
9.0
 10
1951.394524713372
 20
142.3847264864374
 10
1950.311998720255
 20
140.9844800070205
 10
1949.478382290974
 20
139.7243102486757
 10
1948.128795528524
 20
135.7635535518901
 10
1946.888041608841
 20
132.1406026917421
 10
1946.098464169936
 20
129.5048096056932
 10
1945.979216701069
 20
126.2947242803041
 10
1945.888460673606
 20
123.9059066132458
 10
1947.343086379314
 20
123.105319426746
 10
1949.475853024634
 20
123.105319426746
 10
1950.395018168326
 20
123.105319426746
 10
1952.714504181618
 20
123.1637901132903
 10
1954.3662638814
 20
125.2056519507783
 10
1955.522584939468
 20
126.6401923061455
 10
1956.588298750451
 20
128.1272521331414
 10
1958.017036671275
 20
133.0053142189559
 10
1959.205940631009
 20
137.0833842397621
 10
1960.029142434186
 20
139.7191029356247
 10
1959.968291261677
 20
141.2197761667398
 10
1959.968291261677
 20
141.2197761667398
 10
1959.968291261677
 20
141.2197761667398
 10
1959.968291261677
 20
141.2197761667398
 10
1959.580569609936
 20
143.7233035012931
 10
1957.762919794387
 20
144.2522921170894
 10
1956.724432791643
 20
144.2522921170894
 10
1955.70156772805
 20
144.2522921170894
 10
1952.960735698745
 20
144.4292663706373
 10
1951.394524713372
 20
142.3847264864374
 97
        1
330
36AA
 92
        1
 93
        1
 72
     4
 94
        3
 73
     0
 74
     1
 95
       38
 96
       34
 40
0.0
 40
0.0
 40
0.0
 40
0.0
 40
1.0
 40
1.0
 40
1.0
 40
2.0
 40
2.0
 40
2.0
 40
3.0
 40
3.0
 40
3.0
 40
4.0
 40
4.0
 40
4.0
 40
5.0
 40
5.0
 40
5.0
 40
6.0
 40
6.0
 40
6.0
 40
7.0
 40
7.0
 40
7.0
 40
8.0
 40
8.0
 40
8.0
 40
9.0
 40
9.0
 40
9.0
 40
10.0
 40
10.0
 40
10.0
 40
11.0
 40
11.0
 40
11.0
 40
11.0
 10
1966.542747159137
 20
143.4464976175386
 10
1966.542747159137
 20
143.4464976175386
 10
1968.39149207262
 20
143.4464976175386
 10
1968.39149207262
 20
143.4464976175386
 10
1968.39149207262
 20
143.4464976175386
 10
1967.56561222273
 20
140.8022984404216
 10
1967.56561222273
 20
140.8022984404216
 10
1968.193167835563
 20
141.54456372075
 10
1969.183598777865
 20
142.5331349083912
 10
1970.034176169654
 20
143.0316235477459
 10
1971.304760554101
 20
143.7738888280742
 10
1972.030808773784
 20
143.8717863134333
 10
1972.829313035064
 20
143.8522960845852
 10
1972.829313035064
 20
143.8522960845852
 10
1972.048959979278
 20
141.3520419182353
 10
1972.048959979278
 20
141.3520419182353
 10
1971.540726225497
 20
141.5672527276151
 10
1969.974515240128
 20
141.1575859708734
 10
1969.076030568268
 20
140.5112840310564
 10
1968.265772657532
 20
139.9285113104618
 10
1967.705614553615
 20
139.4326263276327
 10
1967.04190531017
 20
138.1859955832205
 10
1966.383254599404
 20
136.9375050841474
 10
1965.86341597654
 20
134.9467493047458
 10
1964.968799594376
 20
132.058773486655
 10
1964.968799594376
 20
132.058773486655
 10
1962.174852971949
 20
123.105319426746
 10
1962.174852971949
 20
123.105319426746
 10
1962.174852971949
 20
123.105319426746
 10
1960.380561674943
 20
123.105319426746
 10
1960.380561674943
 20
123.105319426746
 10
1960.380561674943
 20
123.105319426746
 10
1966.542747159137
 20
143.4464976175386
 10
1966.542747159137
 20
143.4464976175386
 97
        1
330
36A8
 92
        1
 93
        1
 72
     4
 94
        3
 73
     0
 74
     1
 95
      104
 96
      100
 40
0.0
 40
0.0
 40
0.0
 40
0.0
 40
1.0
 40
1.0
 40
1.0
 40
2.0
 40
2.0
 40
2.0
 40
3.0
 40
3.0
 40
3.0
 40
4.0
 40
4.0
 40
4.0
 40
5.0
 40
5.0
 40
5.0
 40
6.0
 40
6.0
 40
6.0
 40
7.0
 40
7.0
 40
7.0
 40
8.0
 40
8.0
 40
8.0
 40
9.0
 40
9.0
 40
9.0
 40
10.0
 40
10.0
 40
10.0
 40
11.0
 40
11.0
 40
11.0
 40
12.0
 40
12.0
 40
12.0
 40
13.0
 40
13.0
 40
13.0
 40
14.0
 40
14.0
 40
14.0
 40
15.0
 40
15.0
 40
15.0
 40
16.0
 40
16.0
 40
16.0
 40
17.0
 40
17.0
 40
17.0
 40
18.0
 40
18.0
 40
18.0
 40
19.0
 40
19.0
 40
19.0
 40
20.0
 40
20.0
 40
20.0
 40
21.0
 40
21.0
 40
21.0
 40
22.0
 40
22.0
 40
22.0
 40
23.0
 40
23.0
 40
23.0
 40
24.0
 40
24.0
 40
24.0
 40
25.0
 40
25.0
 40
25.0
 40
26.0
 40
26.0
 40
26.0
 40
27.0
 40
27.0
 40
27.0
 40
28.0
 40
28.0
 40
28.0
 40
29.0
 40
29.0
 40
29.0
 40
30.0
 40
30.0
 40
30.0
 40
31.0
 40
31.0
 40
31.0
 40
32.0
 40
32.0
 40
32.0
 40
33.0
 40
33.0
 40
33.0
 40
33.0
 10
1976.718878323425
 20
143.4575073651321
 10
1976.718878323425
 20
143.4575073651321
 10
1978.332996588864
 20
143.4575073651321
 10
1978.332996588864
 20
143.4575073651321
 10
1978.332996588864
 20
143.4575073651321
 10
1977.517531365076
 20
140.810778921676
 10
1977.517531365076
 20
140.810778921676
 10
1978.225279598895
 20
141.920531723033
 10
1978.860571791119
 20
142.4151520726926
 10
1979.704602846502
 20
143.054312554611
 10
1980.551163168223
 20
143.6843974337833
 10
1981.556025806694
 20
143.812794895584
 10
1982.253508194784
 20
143.812794895584
 10
1983.117029479015
 20
143.812794895584
 10
1983.950645908296
 20
143.6422925882567
 10
1984.388804106443
 20
142.6958262461422
 10
1984.72460140805
 20
141.9536353560001
 10
1984.740223347202
 20
141.8660781065566
 10
1984.644260006691
 20
140.4010377747479
 10
1985.521915426345
 20
141.9030500292188
 10
1986.170151511008
 20
142.5500214807137
 10
1987.272167732975
 20
143.1716258786317
 10
1988.42863757142
 20
143.812794895584
 10
1989.102761440966
 20
143.8607765658398
 10
1989.885941323838
 20
143.7453229964802
 10
1991.039733115569
 20
143.5748950793392
 10
1991.776195961356
 20
143.1632197875635
 10
1992.161239566385
 20
141.9121256319649
 10
1992.54762219477
 20
140.6648997660613
 10
1992.338883331611
 20
139.9959088193793
 10
1991.861744675765
 20
138.0103603530286
 10
1991.64393020986
 20
137.1060732466272
 10
1991.328813380087
 20
136.0111240923725
 10
1990.916542966819
 20
134.7082543670094
 10
1990.916542966819
 20
134.7082543670094
 10
1987.272167732975
 20
123.105319426746
 10
1987.272167732975
 20
123.105319426746
 10
1987.272167732975
 20
123.105319426746
 10
1985.376705782409
 20
123.105319426746
 10
1985.376705782409
 20
123.105319426746
 10
1985.376705782409
 20
123.105319426746
 10
1988.567449659321
 20
133.2490164697431
 10
1988.567449659321
 20
133.2490164697431
 10
1989.233836949479
 20
135.3713684889626
 10
1989.684939040069
 20
136.9212880235028
 10
1989.918375445127
 20
137.893047029008
 10
1990.211323999339
 20
139.1052351170969
 10
1990.327967811683
 20
139.505231149601
 10
1990.189304504152
 20
140.3874987608153
 10
1990.062246065708
 20
141.2087664191461
 10
1989.647297605728
 20
141.7435574694851
 10
1988.936871325198
 20
141.7435574694851
 10
1988.17972800758
 20
141.7435574694851
 10
1987.566455310545
 20
141.659273388245
 10
1986.708290119737
 20
140.7971655175569
 10
1985.84997614856
 20
139.9285113104618
 10
1985.140740111011
 20
138.9088450248874
 10
1984.584599077163
 20
137.7361581257997
 10
1984.029648286297
 20
136.5563297688134
 10
1983.466960916042
 20
135.0608638507494
 10
1982.896536966398
 20
133.2490164697431
 10
1982.896536966398
 20
133.2490164697431
 10
1979.704602846502
 20
123.105319426746
 10
1979.704602846502
 20
123.105319426746
 10
1979.704602846502
 20
123.105319426746
 10
1977.921916418581
 20
123.105319426746
 10
1977.921916418581
 20
123.105319426746
 10
1977.921916418581
 20
123.105319426746
 10
1981.571498965475
 20
134.7030470539584
 10
1981.571498965475
 20
134.7030470539584
 10
1981.956542570504
 20
135.9373290274211
 10
1982.245771615394
 20
136.9433819088763
 10
1982.436359273062
 20
137.729686179579
 10
1982.760402925207
 20
139.0832156219098
 10
1982.851158952669
 20
139.9985124759046
 10
1982.606117678524
 20
140.810778921676
 10
1982.364944694076
 20
141.6204417109219
 10
1981.941069411725
 20
141.8272464292334
 10
1981.233172397533
 20
141.8272464292334
 10
1980.639389929345
 20
141.8272464292334
 10
1980.059890376953
 20
141.5724600406662
 10
1979.398710399847
 20
141.0654909200569
 10
1978.566284213549
 20
140.4276694614944
 10
1978.233164958657
 20
139.9038881587491
 10
1977.824762835085
 20
139.2815398589669
 10
1977.273680333915
 20
138.458263665602
 10
1977.015695167332
 20
137.9040567766015
 10
1976.550310160944
 20
136.687926008631
 10
1976.084776374184
 20
135.4646537827621
 10
1975.644088909695
 20
134.0411231749885
 10
1975.336708659311
 20
133.0564946672286
 10
1975.336708659311
 20
133.0564946672286
 10
1972.205774492298
 20
123.105319426746
 10
1972.205774492298
 20
123.105319426746
 10
1972.205774492298
 20
123.105319426746
 10
1970.338878373326
 20
123.105319426746
 10
1970.338878373326
 20
123.105319426746
 10
1970.338878373326
 20
123.105319426746
 10
1976.718878323425
 20
143.4575073651321
 10
1976.718878323425
 20
143.4575073651321
 97
        1
330
36A9
 92
       16
 93
        1
 72
     4
 94
        3
 73
     0
 74
     1
 95
       29
 96
       25
 40
0.0
 40
0.0
 40
0.0
 40
0.0
 40
1.0
 40
1.0
 40
1.0
 40
2.0
 40
2.0
 40
2.0
 40
3.0
 40
3.0
 40
3.0
 40
4.0
 40
4.0
 40
4.0
 40
5.0
 40
5.0
 40
5.0
 40
6.0
 40
6.0
 40
6.0
 40
7.0
 40
7.0
 40
7.0
 40
8.0
 40
8.0
 40
8.0
 40
8.0
 10
1947.916188375669
 20
126.8949043045264
 10
1947.908303015907
 20
128.3120373562658
 10
1948.355685597176
 20
130.8298476066162
 10
1949.501740809517
 20
134.1986815898748
 10
1951.062744481836
 20
138.7603622127471
 10
1951.998870588036
 20
140.4276694614944
 10
1952.818055321147
 20
141.2392663955878
 10
1954.014844640642
 20
142.4210288974216
 10
1955.623755593032
 20
142.4799459250845
 10
1956.098364982539
 20
142.4210288974216
 10
1956.77382787544
 20
142.3399435941987
 10
1957.727956406759
 20
141.8978427161679
 10
1957.784939289575
 20
140.4095182560024
 10
1957.830466083678
 20
139.1357350935386
 10
1957.463424903768
 20
136.7501905946838
 10
1956.178706383896
 20
133.0053142189559
 10
1954.698044112936
 20
128.6536370924121
 10
1953.808635043822
 20
126.9429603649685
 10
1953.095679496951
 20
126.1974219164366
 10
1951.752490290537
 20
124.7997790935452
 10
1950.311998720255
 20
124.9339789898883
 10
1950.0993915674
 20
124.9339789898883
 10
1949.823255195324
 20
124.9339789898883
 10
1947.920056665365
 20
125.2336226608809
 10
1947.916188375669
 20
126.8949043045264
 97
        1
330
36AB
 75
     0
 76
     1
 98
        1
 10
1859.334883625664
 20
72.26751235270598
1001
ACAD
1010
0.0
1020
0.0
1030
0.0
  0
POLYLINE
  5
369C
102
{ACAD_REACTORS
330
369B
330
36AC
102
}
330
A
100
AcDbEntity
  8
TEMPLATE
100
AcDb2dPolyline
 66
     1
 10
0.0
 20
0.0
 30
0.0
  0
VERTEX
  5
369D
330
369C
100
AcDbEntity
  8
TEMPLATE
100
AcDbVertex
100
AcDb2dVertex
 10
1934.476782902687
 20
153.1053194253001
 30
0.0
  0
VERTEX
  5
369E
330
369C
100
AcDbEntity
  8
TEMPLATE
100
AcDbVertex
100
AcDb2dVertex
 10
1934.476782902687
 20
147.1959117946397
 30
0.0
  0
VERTEX
  5
369F
330
369C
100
AcDbEntity
  8
TEMPLATE
100
AcDbVertex
100
AcDb2dVertex
 10
1925.116191352377
 20
147.1959117946397
 30
0.0
  0
VERTEX
  5
36A0
330
369C
100
AcDbEntity
  8
TEMPLATE
100
AcDbVertex
100
AcDb2dVertex
 10
1925.116191352377
 20
123.105319426746
 30
0.0
  0
VERTEX
  5
36A1
330
369C
100
AcDbEntity
  8
TEMPLATE
100
AcDbVertex
100
AcDb2dVertex
 10
1916.883578199102
 20
123.105319426746
 30
0.0
  0
VERTEX
  5
36A2
330
369C
100
AcDbEntity
  8
TEMPLATE
100
AcDbVertex
100
AcDb2dVertex
 10
1916.883578199102
 20
147.1959117946397
 30
0.0
  0
VERTEX
  5
36A3
330
369C
100
AcDbEntity
  8
TEMPLATE
100
AcDbVertex
100
AcDb2dVertex
 10
1907.688876764557
 20
147.1959117946397
 30
0.0
  0
VERTEX
  5
36A4
330
369C
100
AcDbEntity
  8
TEMPLATE
100
AcDbVertex
100
AcDb2dVertex
 10
1907.688876764557
 20
153.1053194253001
 30
0.0
  0
VERTEX
  5
36A5
330
369C
100
AcDbEntity
  8
TEMPLATE
100
AcDbVertex
100
AcDb2dVertex
 10
1934.476782902687
 20
153.1053194253001
 30
0.0
  0
SEQEND
  5
36A6
330
369C
100
AcDbEntity
  8
TEMPLATE
  0
SPLINE
  5
36A7
102
{ACAD_REACTORS
330
369B
330
36AC
102
}
330
A
100
AcDbEntity
  8
TEMPLATE
100
AcDbSpline
210
0.0
220
0.0
230
1.0
 70
    11
 71
     3
 72
    56
 73
    52
 74
     0
 42
0.000000001
 43
0.0000000001
 40
0.0
 40
0.0
 40
0.0
 40
0.0
 40
1.0
 40
1.0
 40
1.0
 40
2.0
 40
2.0
 40
2.0
 40
3.0
 40
3.0
 40
3.0
 40
4.0
 40
4.0
 40
4.0
 40
5.0
 40
5.0
 40
5.0
 40
6.0
 40
6.0
 40
6.0
 40
7.0
 40
7.0
 40
7.0
 40
8.0
 40
8.0
 40
8.0
 40
9.0
 40
9.0
 40
9.0
 40
10.0
 40
10.0
 40
10.0
 40
11.0
 40
11.0
 40
11.0
 40
12.0
 40
12.0
 40
12.0
 40
13.0
 40
13.0
 40
13.0
 40
14.0
 40
14.0
 40
14.0
 40
15.0
 40
15.0
 40
15.0
 40
16.0
 40
16.0
 40
16.0
 40
17.0
 40
17.0
 40
17.0
 40
17.0
 10
1947.01896833698
 20
152.3909504648878
 30
0.0
 10
1948.1728345189
 20
152.715738018898
 30
0.0
 10
1949.662423612235
 20
152.4440650580081
 30
0.0
 10
1949.662423612235
 20
152.4440650580081
 30
0.0
 10
1949.662423612235
 20
152.4440650580081
 30
0.0
 10
1948.946790018651
 20
150.2964947655846
 30
0.0
 10
1948.946790018651
 20
150.2964947655846
 30
0.0
 10
1948.946790018651
 20
150.2964947655846
 30
0.0
 10
1947.484427733556
 20
150.6348957237139
 30
0.0
 10
1946.356523726704
 20
149.7454866546012
 30
0.0
 10
1945.480058550036
 20
149.0499384113589
 30
0.0
 10
1944.912238256914
 20
147.2017886193686
 30
0.0
 10
1944.69442379101
 20
146.4990989182278
 30
0.0
 10
1944.69442379101
 20
146.4990989182278
 30
0.0
 10
1943.723334297183
 20
143.518432927829
 30
0.0
 10
1943.723334297183
 20
143.518432927829
 30
0.0
 10
1943.723334297183
 20
143.518432927829
 30
0.0
 10
1946.907457447503
 20
143.518432927829
 30
0.0
 10
1946.907457447503
 20
143.518432927829
 30
0.0
 10
1946.907457447503
 20
143.518432927829
 30
0.0
 10
1946.412241976351
 20
141.642461206109
 30
0.0
 10
1946.412241976351
 20
141.642461206109
 30
0.0
 10
1946.412241976351
 20
141.642461206109
 30
0.0
 10
1943.202156650962
 20
141.642461206109
 30
0.0
 10
1943.202156650962
 20
141.642461206109
 30
0.0
 10
1943.202156650962
 20
141.642461206109
 30
0.0
 10
1937.458713526257
 20
123.105319426746
 30
0.0
 10
1937.458713526257
 20
123.105319426746
 30
0.0
 10
1937.458713526257
 20
123.105319426746
 30
0.0
 10
1935.660479549369
 20
123.105319426746
 30
0.0
 10
1935.660479549369
 20
123.105319426746
 30
0.0
 10
1935.660479549369
 20
123.105319426746
 30
0.0
 10
1941.409129987127
 20
141.642461206109
 30
0.0
 10
1941.409129987127
 20
141.642461206109
 30
0.0
 10
1941.409129987127
 20
141.642461206109
 30
0.0
 10
1939.040397670409
 20
141.642461206109
 30
0.0
 10
1939.040397670409
 20
141.642461206109
 30
0.0
 10
1939.040397670409
 20
141.642461206109
 30
0.0
 10
1939.536952164915
 20
143.518432927829
 30
0.0
 10
1939.536952164915
 20
143.518432927829
 30
0.0
 10
1939.536952164915
 20
143.518432927829
 30
0.0
 10
1941.930307633347
 20
143.518432927829
 30
0.0
 10
1941.930307633347
 20
143.518432927829
 30
0.0
 10
1941.930307633347
 20
143.518432927829
 30
0.0
 10
1942.77686795507
 20
146.1179236028939
 30
0.0
 10
1942.77686795507
 20
146.1179236028939
 30
0.0
 10
1943.461406450716
 20
148.2973328951149
 30
0.0
 10
1944.042245026465
 20
149.4674161376772
 30
0.0
 10
1944.540138544327
 20
150.3496093587049
 30
0.0
 10
1945.032750358952
 20
151.232546481597
 30
0.0
 10
1946.007708142475
 20
152.0998616653363
 30
0.0
 10
1947.01896833698
 20
152.3909504648878
 30
0.0
  0
SPLINE
  5
36A8
102
{ACAD_REACTORS
330
369B
330
36AC
102
}
330
A
100
AcDbEntity
  8
TEMPLATE
100
AcDbSpline
210
0.0
220
0.0
230
1.0
 70
    11
 71
     3
 72
    38
 73
    34
 74
     0
 42
0.000000001
 43
0.0000000001
 40
0.0
 40
0.0
 40
0.0
 40
0.0
 40
1.0
 40
1.0
 40
1.0
 40
2.0
 40
2.0
 40
2.0
 40
3.0
 40
3.0
 40
3.0
 40
4.0
 40
4.0
 40
4.0
 40
5.0
 40
5.0
 40
5.0
 40
6.0
 40
6.0
 40
6.0
 40
7.0
 40
7.0
 40
7.0
 40
8.0
 40
8.0
 40
8.0
 40
9.0
 40
9.0
 40
9.0
 40
10.0
 40
10.0
 40
10.0
 40
11.0
 40
11.0
 40
11.0
 40
11.0
 10
1966.542747159137
 20
143.4464976175386
 30
0.0
 10
1966.542747159137
 20
143.4464976175386
 30
0.0
 10
1968.39149207262
 20
143.4464976175386
 30
0.0
 10
1968.39149207262
 20
143.4464976175386
 30
0.0
 10
1968.39149207262
 20
143.4464976175386
 30
0.0
 10
1967.56561222273
 20
140.8022984404216
 30
0.0
 10
1967.56561222273
 20
140.8022984404216
 30
0.0
 10
1968.193167835563
 20
141.54456372075
 30
0.0
 10
1969.183598777865
 20
142.5331349083912
 30
0.0
 10
1970.034176169654
 20
143.0316235477459
 30
0.0
 10
1971.304760554101
 20
143.7738888280742
 30
0.0
 10
1972.030808773784
 20
143.8717863134333
 30
0.0
 10
1972.829313035064
 20
143.8522960845852
 30
0.0
 10
1972.829313035064
 20
143.8522960845852
 30
0.0
 10
1972.048959979278
 20
141.3520419182353
 30
0.0
 10
1972.048959979278
 20
141.3520419182353
 30
0.0
 10
1971.540726225497
 20
141.5672527276151
 30
0.0
 10
1969.974515240128
 20
141.1575859708734
 30
0.0
 10
1969.076030568268
 20
140.5112840310564
 30
0.0
 10
1968.265772657532
 20
139.9285113104618
 30
0.0
 10
1967.705614553615
 20
139.4326263276327
 30
0.0
 10
1967.04190531017
 20
138.1859955832205
 30
0.0
 10
1966.383254599404
 20
136.9375050841474
 30
0.0
 10
1965.86341597654
 20
134.9467493047458
 30
0.0
 10
1964.968799594376
 20
132.058773486655
 30
0.0
 10
1964.968799594376
 20
132.058773486655
 30
0.0
 10
1962.174852971949
 20
123.105319426746
 30
0.0
 10
1962.174852971949
 20
123.105319426746
 30
0.0
 10
1962.174852971949
 20
123.105319426746
 30
0.0
 10
1960.380561674943
 20
123.105319426746
 30
0.0
 10
1960.380561674943
 20
123.105319426746
 30
0.0
 10
1960.380561674943
 20
123.105319426746
 30
0.0
 10
1966.542747159137
 20
143.4464976175386
 30
0.0
 10
1966.542747159137
 20
143.4464976175386
 30
0.0
  0
SPLINE
  5
36A9
102
{ACAD_REACTORS
330
369B
330
36AC
102
}
330
A
100
AcDbEntity
  8
TEMPLATE
100
AcDbSpline
210
0.0
220
0.0
230
1.0
 70
    11
 71
     3
 72
   104
 73
   100
 74
     0
 42
0.000000001
 43
0.0000000001
 40
0.0
 40
0.0
 40
0.0
 40
0.0
 40
1.0
 40
1.0
 40
1.0
 40
2.0
 40
2.0
 40
2.0
 40
3.0
 40
3.0
 40
3.0
 40
4.0
 40
4.0
 40
4.0
 40
5.0
 40
5.0
 40
5.0
 40
6.0
 40
6.0
 40
6.0
 40
7.0
 40
7.0
 40
7.0
 40
8.0
 40
8.0
 40
8.0
 40
9.0
 40
9.0
 40
9.0
 40
10.0
 40
10.0
 40
10.0
 40
11.0
 40
11.0
 40
11.0
 40
12.0
 40
12.0
 40
12.0
 40
13.0
 40
13.0
 40
13.0
 40
14.0
 40
14.0
 40
14.0
 40
15.0
 40
15.0
 40
15.0
 40
16.0
 40
16.0
 40
16.0
 40
17.0
 40
17.0
 40
17.0
 40
18.0
 40
18.0
 40
18.0
 40
19.0
 40
19.0
 40
19.0
 40
20.0
 40
20.0
 40
20.0
 40
21.0
 40
21.0
 40
21.0
 40
22.0
 40
22.0
 40
22.0
 40
23.0
 40
23.0
 40
23.0
 40
24.0
 40
24.0
 40
24.0
 40
25.0
 40
25.0
 40
25.0
 40
26.0
 40
26.0
 40
26.0
 40
27.0
 40
27.0
 40
27.0
 40
28.0
 40
28.0
 40
28.0
 40
29.0
 40
29.0
 40
29.0
 40
30.0
 40
30.0
 40
30.0
 40
31.0
 40
31.0
 40
31.0
 40
32.0
 40
32.0
 40
32.0
 40
33.0
 40
33.0
 40
33.0
 40
33.0
 10
1976.718878323425
 20
143.4575073651321
 30
0.0
 10
1976.718878323425
 20
143.4575073651321
 30
0.0
 10
1978.332996588864
 20
143.4575073651321
 30
0.0
 10
1978.332996588864
 20
143.4575073651321
 30
0.0
 10
1978.332996588864
 20
143.4575073651321
 30
0.0
 10
1977.517531365076
 20
140.810778921676
 30
0.0
 10
1977.517531365076
 20
140.810778921676
 30
0.0
 10
1978.225279598895
 20
141.920531723033
 30
0.0
 10
1978.860571791119
 20
142.4151520726926
 30
0.0
 10
1979.704602846502
 20
143.054312554611
 30
0.0
 10
1980.551163168223
 20
143.6843974337833
 30
0.0
 10
1981.556025806694
 20
143.812794895584
 30
0.0
 10
1982.253508194784
 20
143.812794895584
 30
0.0
 10
1983.117029479015
 20
143.812794895584
 30
0.0
 10
1983.950645908296
 20
143.6422925882567
 30
0.0
 10
1984.388804106443
 20
142.6958262461422
 30
0.0
 10
1984.72460140805
 20
141.9536353560001
 30
0.0
 10
1984.740223347202
 20
141.8660781065566
 30
0.0
 10
1984.644260006691
 20
140.4010377747479
 30
0.0
 10
1985.521915426345
 20
141.9030500292188
 30
0.0
 10
1986.170151511008
 20
142.5500214807137
 30
0.0
 10
1987.272167732975
 20
143.1716258786317
 30
0.0
 10
1988.42863757142
 20
143.812794895584
 30
0.0
 10
1989.102761440966
 20
143.8607765658398
 30
0.0
 10
1989.885941323838
 20
143.7453229964802
 30
0.0
 10
1991.039733115569
 20
143.5748950793392
 30
0.0
 10
1991.776195961356
 20
143.1632197875635
 30
0.0
 10
1992.161239566385
 20
141.9121256319649
 30
0.0
 10
1992.54762219477
 20
140.6648997660613
 30
0.0
 10
1992.338883331611
 20
139.9959088193793
 30
0.0
 10
1991.861744675765
 20
138.0103603530286
 30
0.0
 10
1991.64393020986
 20
137.1060732466272
 30
0.0
 10
1991.328813380087
 20
136.0111240923725
 30
0.0
 10
1990.916542966819
 20
134.7082543670094
 30
0.0
 10
1990.916542966819
 20
134.7082543670094
 30
0.0
 10
1987.272167732975
 20
123.105319426746
 30
0.0
 10
1987.272167732975
 20
123.105319426746
 30
0.0
 10
1987.272167732975
 20
123.105319426746
 30
0.0
 10
1985.376705782409
 20
123.105319426746
 30
0.0
 10
1985.376705782409
 20
123.105319426746
 30
0.0
 10
1985.376705782409
 20
123.105319426746
 30
0.0
 10
1988.567449659321
 20
133.2490164697431
 30
0.0
 10
1988.567449659321
 20
133.2490164697431
 30
0.0
 10
1989.233836949479
 20
135.3713684889626
 30
0.0
 10
1989.684939040069
 20
136.9212880235028
 30
0.0
 10
1989.918375445127
 20
137.893047029008
 30
0.0
 10
1990.211323999339
 20
139.1052351170969
 30
0.0
 10
1990.327967811683
 20
139.505231149601
 30
0.0
 10
1990.189304504152
 20
140.3874987608153
 30
0.0
 10
1990.062246065708
 20
141.2087664191461
 30
0.0
 10
1989.647297605728
 20
141.7435574694851
 30
0.0
 10
1988.936871325198
 20
141.7435574694851
 30
0.0
 10
1988.17972800758
 20
141.7435574694851
 30
0.0
 10
1987.566455310545
 20
141.659273388245
 30
0.0
 10
1986.708290119737
 20
140.7971655175569
 30
0.0
 10
1985.84997614856
 20
139.9285113104618
 30
0.0
 10
1985.140740111011
 20
138.9088450248874
 30
0.0
 10
1984.584599077163
 20
137.7361581257997
 30
0.0
 10
1984.029648286297
 20
136.5563297688134
 30
0.0
 10
1983.466960916042
 20
135.0608638507494
 30
0.0
 10
1982.896536966398
 20
133.2490164697431
 30
0.0
 10
1982.896536966398
 20
133.2490164697431
 30
0.0
 10
1979.704602846502
 20
123.105319426746
 30
0.0
 10
1979.704602846502
 20
123.105319426746
 30
0.0
 10
1979.704602846502
 20
123.105319426746
 30
0.0
 10
1977.921916418581
 20
123.105319426746
 30
0.0
 10
1977.921916418581
 20
123.105319426746
 30
0.0
 10
1977.921916418581
 20
123.105319426746
 30
0.0
 10
1981.571498965475
 20
134.7030470539584
 30
0.0
 10
1981.571498965475
 20
134.7030470539584
 30
0.0
 10
1981.956542570504
 20
135.9373290274211
 30
0.0
 10
1982.245771615394
 20
136.9433819088763
 30
0.0
 10
1982.436359273062
 20
137.729686179579
 30
0.0
 10
1982.760402925207
 20
139.0832156219098
 30
0.0
 10
1982.851158952669
 20
139.9985124759046
 30
0.0
 10
1982.606117678524
 20
140.810778921676
 30
0.0
 10
1982.364944694076
 20
141.6204417109219
 30
0.0
 10
1981.941069411725
 20
141.8272464292334
 30
0.0
 10
1981.233172397533
 20
141.8272464292334
 30
0.0
 10
1980.639389929345
 20
141.8272464292334
 30
0.0
 10
1980.059890376953
 20
141.5724600406662
 30
0.0
 10
1979.398710399847
 20
141.0654909200569
 30
0.0
 10
1978.566284213549
 20
140.4276694614944
 30
0.0
 10
1978.233164958657
 20
139.9038881587491
 30
0.0
 10
1977.824762835085
 20
139.2815398589669
 30
0.0
 10
1977.273680333915
 20
138.458263665602
 30
0.0
 10
1977.015695167332
 20
137.9040567766015
 30
0.0
 10
1976.550310160944
 20
136.687926008631
 30
0.0
 10
1976.084776374184
 20
135.4646537827621
 30
0.0
 10
1975.644088909695
 20
134.0411231749885
 30
0.0
 10
1975.336708659311
 20
133.0564946672286
 30
0.0
 10
1975.336708659311
 20
133.0564946672286
 30
0.0
 10
1972.205774492298
 20
123.105319426746
 30
0.0
 10
1972.205774492298
 20
123.105319426746
 30
0.0
 10
1972.205774492298
 20
123.105319426746
 30
0.0
 10
1970.338878373326
 20
123.105319426746
 30
0.0
 10
1970.338878373326
 20
123.105319426746
 30
0.0
 10
1970.338878373326
 20
123.105319426746
 30
0.0
 10
1976.718878323425
 20
143.4575073651321
 30
0.0
 10
1976.718878323425
 20
143.4575073651321
 30
0.0
  0
SPLINE
  5
36AA
102
{ACAD_REACTORS
330
369B
330
36AC
102
}
330
A
100
AcDbEntity
  8
TEMPLATE
100
AcDbSpline
210
0.0
220
0.0
230
1.0
 70
    11
 71
     3
 72
    32
 73
    28
 74
     0
 42
0.000000001
 43
0.0000000001
 40
0.0
 40
0.0
 40
0.0
 40
0.0
 40
1.0
 40
1.0
 40
1.0
 40
2.0
 40
2.0
 40
2.0
 40
3.0
 40
3.0
 40
3.0
 40
4.0
 40
4.0
 40
4.0
 40
5.0
 40
5.0
 40
5.0
 40
6.0
 40
6.0
 40
6.0
 40
7.0
 40
7.0
 40
7.0
 40
8.0
 40
8.0
 40
8.0
 40
9.0
 40
9.0
 40
9.0
 40
9.0
 10
1951.394524713372
 20
142.3847264864374
 30
0.0
 10
1950.311998720255
 20
140.9844800070205
 30
0.0
 10
1949.478382290974
 20
139.7243102486757
 30
0.0
 10
1948.128795528524
 20
135.7635535518901
 30
0.0
 10
1946.888041608841
 20
132.1406026917421
 30
0.0
 10
1946.098464169936
 20
129.5048096056932
 30
0.0
 10
1945.979216701069
 20
126.2947242803041
 30
0.0
 10
1945.888460673606
 20
123.9059066132458
 30
0.0
 10
1947.343086379314
 20
123.105319426746
 30
0.0
 10
1949.475853024634
 20
123.105319426746
 30
0.0
 10
1950.395018168326
 20
123.105319426746
 30
0.0
 10
1952.714504181618
 20
123.1637901132903
 30
0.0
 10
1954.3662638814
 20
125.2056519507783
 30
0.0
 10
1955.522584939468
 20
126.6401923061455
 30
0.0
 10
1956.588298750451
 20
128.1272521331414
 30
0.0
 10
1958.017036671275
 20
133.0053142189559
 30
0.0
 10
1959.205940631009
 20
137.0833842397621
 30
0.0
 10
1960.029142434186
 20
139.7191029356247
 30
0.0
 10
1959.968291261677
 20
141.2197761667398
 30
0.0
 10
1959.968291261677
 20
141.2197761667398
 30
0.0
 10
1959.968291261677
 20
141.2197761667398
 30
0.0
 10
1959.968291261677
 20
141.2197761667398
 30
0.0
 10
1959.580569609936
 20
143.7233035012931
 30
0.0
 10
1957.762919794387
 20
144.2522921170894
 30
0.0
 10
1956.724432791643
 20
144.2522921170894
 30
0.0
 10
1955.70156772805
 20
144.2522921170894
 30
0.0
 10
1952.960735698745
 20
144.4292663706373
 30
0.0
 10
1951.394524713372
 20
142.3847264864374
 30
0.0
  0
SPLINE
  5
36AB
102
{ACAD_REACTORS
330
369B
330
36AC
102
}
330
A
100
AcDbEntity
  8
TEMPLATE
100
AcDbSpline
210
0.0
220
0.0
230
1.0
 70
    11
 71
     3
 72
    29
 73
    25
 74
     0
 42
0.000000001
 43
0.0000000001
 40
0.0
 40
0.0
 40
0.0
 40
0.0
 40
1.0
 40
1.0
 40
1.0
 40
2.0
 40
2.0
 40
2.0
 40
3.0
 40
3.0
 40
3.0
 40
4.0
 40
4.0
 40
4.0
 40
5.0
 40
5.0
 40
5.0
 40
6.0
 40
6.0
 40
6.0
 40
7.0
 40
7.0
 40
7.0
 40
8.0
 40
8.0
 40
8.0
 40
8.0
 10
1947.916188375669
 20
126.8949043045264
 30
0.0
 10
1947.908303015907
 20
128.3120373562658
 30
0.0
 10
1948.355685597176
 20
130.8298476066162
 30
0.0
 10
1949.501740809517
 20
134.1986815898748
 30
0.0
 10
1951.062744481836
 20
138.7603622127471
 30
0.0
 10
1951.998870588036
 20
140.4276694614944
 30
0.0
 10
1952.818055321147
 20
141.2392663955878
 30
0.0
 10
1954.014844640642
 20
142.4210288974216
 30
0.0
 10
1955.623755593032
 20
142.4799459250845
 30
0.0
 10
1956.098364982539
 20
142.4210288974216
 30
0.0
 10
1956.77382787544
 20
142.3399435941987
 30
0.0
 10
1957.727956406759
 20
141.8978427161679
 30
0.0
 10
1957.784939289575
 20
140.4095182560024
 30
0.0
 10
1957.830466083678
 20
139.1357350935386
 30
0.0
 10
1957.463424903768
 20
136.7501905946838
 30
0.0
 10
1956.178706383896
 20
133.0053142189559
 30
0.0
 10
1954.698044112936
 20
128.6536370924121
 30
0.0
 10
1953.808635043822
 20
126.9429603649685
 30
0.0
 10
1953.095679496951
 20
126.1974219164366
 30
0.0
 10
1951.752490290537
 20
124.7997790935452
 30
0.0
 10
1950.311998720255
 20
124.9339789898883
 30
0.0
 10
1950.0993915674
 20
124.9339789898883
 30
0.0
 10
1949.823255195324
 20
124.9339789898883
 30
0.0
 10
1947.920056665365
 20
125.2336226608809
 30
0.0
 10
1947.916188375669
 20
126.8949043045264
 30
0.0
  0
ARC
  5
3E42
102
{ACAD_REACTORS
330
43AC
330
43BB
102
}
330
A
100
AcDbEntity
  8
MODEL
  6
HIDDEN
 48
0.5
100
AcDbCircle
 10
489.7096112623681
 20
1022.850862086985
 30
0.0
 40
17.5
100
AcDbArc
 50
180.0
 51
0.0
  0
CIRCLE
  5
3E43
102
{ACAD_REACTORS
330
439D
330
43AC
102
}
330
A
100
AcDbEntity
  8
MODEL
  6
HIDDEN
 48
0.5
100
AcDbCircle
 10
489.7096112623681
 20
922.8508620869848
 30
0.0
 40
16.0
  0
LINE
  5
3E45
330
A
100
AcDbEntity
  8
MODEL
100
AcDbLine
 10
892.5742102926274
 20
526.8508620869857
 30
0.0
 11
892.5742102926272
 21
622.7975829935469
 31
0.0
  0
LINE
  5
3E46
330
A
100
AcDbEntity
  8
MODEL
100
AcDbLine
 10
422.7080511768477
 20
525.8504051724458
 30
0.0
 11
422.7080511768474
 21
622.7975829935469
 31
0.0
  0
LINE
  5
3E49
330
A
100
AcDbEntity
  8
MODEL
100
AcDbLine
 10
888.5742102926283
 20
522.8508620869857
 30
0.0
 11
425.7080511768404
 21
522.8508620869843
 31
0.0
  0
ARC
  5
3E4A
330
A
100
AcDbEntity
  8
MODEL
100
AcDbCircle
 10
888.5742102926274
 20
526.8508620869857
 30
0.0
 40
4.0
100
AcDbArc
 50
270.000000000013
 51
0.0
  0
LINE
  5
3E4B
330
A
100
AcDbEntity
  8
MODEL
100
AcDbLine
 10
1697.8371696982
 20
528.7380337759557
 30
0.0
 11
1697.8371696982
 21
527.7386428271591
 31
0.0
  0
LINE
  5
3E4C
330
A
100
AcDbEntity
  8
MODEL
100
AcDbLine
 10
1694.889526917513
 20
524.739099741683
 30
0.0
 11
1580.889526917513
 21
522.7492223398606
 31
0.0
  0
LINE
  5
3E4E
330
A
100
AcDbEntity
  8
MODEL
100
AcDbLine
 10
1577.8371696982
 20
525.7487654253221
 30
0.0
 11
1577.8371696982
 21
526.7481563741478
 31
0.0
  0
LINE
  5
3E50
330
A
100
AcDbEntity
  8
MODEL
100
AcDbLine
 10
1577.8371696982
 20
526.7481563741478
 30
0.0
 11
1577.837169698199
 21
970.8795991249499
 31
0.0
  0
LINE
  5
3E51
330
A
100
AcDbEntity
  8
MODEL
100
AcDbLine
 10
1731.837169698199
 20
991.5490357354558
 30
0.0
 11
1731.837169698199
 21
1022.800042213419
 31
0.0
  0
LINE
  5
3E52
330
A
100
AcDbEntity
  8
MODEL
100
AcDbLine
 10
1729.098636926442
 20
988.5604516411818
 30
0.0
 11
1729.098636926442
 21
1022.800042213419
 31
0.0
  0
LINE
  5
3E54
330
A
100
AcDbEntity
  8
MODEL
100
AcDbLine
 10
1701.723532120463
 20
986.165440307826
 30
0.0
 11
1729.098636926442
 21
988.5604516411818
 31
0.0
  0
LINE
  5
3E55
330
A
100
AcDbEntity
  8
MODEL
100
AcDbLine
 10
1697.837169698199
 20
1022.800042213419
 30
0.0
 11
1697.837169698199
 21
970.8795991249497
 31
0.0
  0
ARC
  5
3E58
330
A
100
AcDbEntity
  8
MODEL
100
AcDbCircle
 10
1694.8371696982
 20
527.7386428271591
 30
0.0
 40
3.0
100
AcDbArc
 50
270.9999999999931
 51
0.0
  0
ARC
  5
3E59
330
A
100
AcDbEntity
  8
MODEL
100
AcDbCircle
 10
1580.8371696982
 20
525.7487654253221
 30
0.0
 40
3.0
100
AcDbArc
 50
180.0
 51
270.9999999999931
  0
ARC
  5
3E5B
330
A
100
AcDbEntity
  8
MODEL
100
AcDbCircle
 10
1728.837169698199
 20
991.5490357354558
 30
0.0
 40
3.0
100
AcDbArc
 50
274.9999999999912
 51
0.0
  0
ELLIPSE
  5
3E5E
330
A
100
AcDbEntity
  8
MODEL
100
AcDbEllipse
 10
425.7080511768404
 20
525.8504051724458
 30
0.0
 11
-3.0
 21
-8.476042572204118E-15
 31
0.0
210
0.0
220
0.0
230
1.0
 40
0.999847695156391
 41
0.0
 42
1.570796326794894
  0
SPLINE
  5
3E60
330
A
100
AcDbEntity
  8
MODEL
100
AcDbSpline
210
0.0
220
0.0
230
1.0
 70
     8
 71
     3
 72
    30
 73
    26
 74
     0
 42
0.000000001
 43
0.0000000001
 40
0.0
 40
0.0
 40
0.0
 40
0.0
 40
0.0625
 40
0.125
 40
0.1875
 40
0.21875
 40
0.25
 40
0.28125
 40
0.3125
 40
0.34375
 40
0.375
 40
0.40625
 40
0.4375
 40
0.453125
 40
0.46875
 40
0.484375
 40
0.5
 40
0.53125
 40
0.5625
 40
0.59375
 40
0.625
 40
0.65625
 40
0.6875
 40
0.75
 40
0.7553931851320355
 40
0.7553931851320355
 40
0.7553931851320355
 40
0.7553931851320355
 10
834.4215087947127
 20
525.9695595716494
 30
0.0
 10
836.5194742374556
 20
525.9954041973124
 30
0.0
 10
840.7151450826173
 20
526.0665050458501
 30
0.0
 10
847.0080456931214
 20
526.2034144399968
 30
0.0
 10
852.251503272641
 20
526.3431338765095
 30
0.0
 10
856.4453715503373
 20
526.486856851292
 30
0.0
 10
859.5896374054178
 20
526.6225401606516
 30
0.0
 10
862.7319757636837
 20
526.7990415402328
 30
0.0
 10
865.870145874786
 20
527.0405711049989
 30
0.0
 10
868.9991497513879
 20
527.383760366125
 30
0.0
 10
872.1074646408056
 20
527.8870525755651
 30
0.0
 10
875.166480022785
 20
528.6440533782029
 30
0.0
 10
877.6153277448143
 20
529.6084327803715
 30
0.0
 10
879.432680060771
 20
530.6638536899432
 30
0.0
 10
880.6948244171185
 20
531.6085232387436
 30
0.0
 10
881.8293989011622
 20
532.703398437649
 30
0.0
 10
883.1510014268392
 20
534.3382592162257
 30
0.0
 10
884.4393453663693
 20
536.6366800663404
 30
0.0
 10
885.528909545294
 20
539.5958982475299
 30
0.0
 10
886.3122974127223
 20
542.6466450671455
 30
0.0
 10
886.8923529767021
 20
545.7409723744954
 30
0.0
 10
887.3352309229126
 20
548.8573699769354
 30
0.0
 10
887.7991014297772
 20
553.0282451178377
 30
0.0
 10
888.0620852830436
 20
556.3465234345963
 30
0.0
 10
888.2147029826363
 20
617.6220191882242
 30
0.0
 10
888.2266589347403
 20
622.7975829935469
 30
0.0
  0
SPLINE
  5
3E61
330
A
100
AcDbEntity
  8
MODEL
100
AcDbSpline
210
0.0
220
0.0
230
1.0
 70
     8
 71
     3
 72
    12
 73
     8
 74
     0
 42
0.000000001
 43
0.0000000001
 40
0.0
 40
0.0
 40
0.0
 40
0.0
 40
0.3302631184266158
 40
0.3302631184266158
 40
0.665131559213308
 40
0.665131559213308
 40
1.0
 40
1.0
 40
1.0
 40
1.0
 10
1697.762740522768
 20
984.6999474780148
 30
0.0
 10
1698.145259902368
 20
984.9738926919069
 30
0.0
 10
1698.551999639493
 20
985.2140062982489
 30
0.0
 10
1699.407248027003
 20
985.6219395995988
 30
0.0
 10
1699.856245352333
 20
985.7886975085398
 30
0.0
 10
1700.776763532564
 20
986.0396599205978
 30
0.0
 10
1701.248268697286
 20
986.1238601461209
 30
0.0
 10
1701.723510958886
 20
986.1654384564438
 30
0.0
  0
LINE
  5
3E63
330
A
100
AcDbEntity
  8
MODEL
100
AcDbLine
 10
547.7233211778353
 20
545.8497748152704
 30
0.0
 11
547.7221570146778
 21
622.7975829935469
 31
0.0
  0
ARC
  5
3E64
330
A
100
AcDbEntity
  8
MODEL
100
AcDbCircle
 10
567.7233211679018
 20
545.8504051724462
 30
0.0
 40
20.0
100
AcDbArc
 50
180.001805840278
 51
270.0
  0
LINE
  5
3E65
330
A
100
AcDbEntity
  8
MODEL
100
AcDbLine
 10
834.4215087947127
 20
525.9695595716494
 30
0.0
 11
567.4777750715334
 21
525.8519125513862
 31
0.0
  0
LINE
  5
3E68
330
A
100
AcDbEntity
  8
MODEL
100
AcDbLine
 10
889.208467623434
 20
783.4674365819983
 30
0.0
 11
889.2084676234331
 21
1022.850862086985
 31
0.0
  0
ELLIPSE
  5
3E69
330
A
100
AcDbEntity
  8
MODEL
100
AcDbEllipse
 10
550.776695619174
 20
1022.850216538873
 30
0.0
 11
3.390417028881647E-14
 21
-12.0
 31
0.0
210
0.0
220
0.0
230
1.0
 40
0.0874886635259221
 41
4.712335184708677
 42
7.854035429650494
  0
ARC
  5
3E6A
330
A
100
AcDbEntity
  8
MODEL
100
AcDbCircle
 10
632.7080511768468
 20
1022.850862086985
 30
0.0
 40
22.5
100
AcDbArc
 50
179.9999999997869
 51
359.9999999993701
  0
ARC
  5
3E6B
330
A
100
AcDbEntity
  8
MODEL
100
AcDbCircle
 10
632.7080511768468
 20
1022.850862086985
 30
0.0
 40
37.5
100
AcDbArc
 50
179.9999999997888
 51
359.9999999993719
  0
ARC
  5
3E6C
330
A
100
AcDbEntity
  8
MODEL
100
AcDbCircle
 10
632.7080511768468
 20
1022.850862086985
 30
0.0
 40
22.5
100
AcDbArc
 50
0.0000000002038088
 51
179.9999999997869
  0
ARC
  5
3E6D
330
A
100
AcDbEntity
  8
MODEL
100
AcDbCircle
 10
632.7080511768468
 20
1022.850862086985
 30
0.0
 40
37.5
100
AcDbArc
 50
0.0000000002056616
 51
179.9999999997888
  0
CIRCLE
  5
3E6F
102
{ACAD_REACTORS
330
439D
102
}
330
A
100
AcDbEntity
  8
MODEL
  6
HIDDEN
 48
0.5
100
AcDbCircle
 10
489.7096112623681
 20
772.8508620869848
 30
0.0
 40
16.0
  0
CIRCLE
  5
3E71
330
A
100
AcDbEntity
  8
HIDDEN
 48
0.3
100
AcDbCircle
 10
489.0049698246091
 20
2201.168985620215
 30
0.0
 40
17.5
  0
CIRCLE
  5
3E72
330
A
100
AcDbEntity
  8
HIDDEN
 48
0.3
100
AcDbCircle
 10
489.0049698246091
 20
2101.168985620215
 30
0.0
 40
16.0
  0
CIRCLE
  5
3E73
330
A
100
AcDbEntity
  8
HIDDEN
 48
0.3
100
AcDbCircle
 10
489.0049698246091
 20
2301.169013942044
 30
0.0
 40
16.0
  0
ARC
  5
3E74
330
A
100
AcDbEntity
  8
HIDDEN
 48
0.5
100
AcDbCircle
 10
632.0034097390869
 20
2201.168985620215
 30
0.0
 40
22.5
100
AcDbArc
 50
179.9999999997869
 51
359.9999999993723
  0
ARC
  5
3E75
330
A
100
AcDbEntity
  8
HIDDEN
 48
0.5
100
AcDbCircle
 10
632.0034097390869
 20
2201.168985620215
 30
0.0
 40
37.5
100
AcDbArc
 50
179.9999999997888
 51
359.9999999993733
  0
ARC
  5
3E76
330
A
100
AcDbEntity
  8
HIDDEN
 48
0.5
100
AcDbCircle
 10
632.0034097390869
 20
2201.168985620215
 30
0.0
 40
22.5
100
AcDbArc
 50
0.0000000002061248
 51
179.9999999997869
  0
ARC
  5
3E77
330
A
100
AcDbEntity
  8
HIDDEN
 48
0.5
100
AcDbCircle
 10
632.0034097390869
 20
2201.168985620215
 30
0.0
 40
37.5
100
AcDbArc
 50
0.0000000002070512
 51
179.9999999997888
  0
LINE
  5
3E7A
102
{ACAD_REACTORS
330
4424
102
}
330
A
100
AcDbEntity
  8
MODEL
100
AcDbLine
 10
722.0034097390887
 20
1886.168985620215
 30
0.0
 11
722.0034097390869
 21
2516.168985620216
 31
0.0
  0
LINE
  5
3E7B
102
{ACAD_REACTORS
330
3EE6
330
4424
102
}
330
A
100
AcDbEntity
  8
MODEL
100
AcDbLine
 10
452.7080511768429
 20
1886.168985620214
 30
0.0
 11
722.0034097390853
 21
1886.168985620215
 31
0.0
  0
LINE
  5
3E7C
102
{ACAD_REACTORS
330
3EE6
330
4424
102
}
330
A
100
AcDbEntity
  8
MODEL
100
AcDbLine
 10
452.7080511768429
 20
2516.168985620215
 30
0.0
 11
722.0034097390908
 21
2516.168985620216
 31
0.0
  0
CIRCLE
  5
3E7D
330
A
100
AcDbEntity
  8
HIDDEN
 48
0.3
100
AcDbCircle
 10
489.0049698246094
 20
1951.168985620215
 30
0.0
 40
16.0
  0
CIRCLE
  5
3E7E
330
A
100
AcDbEntity
  8
HIDDEN
 48
0.3
100
AcDbCircle
 10
489.0049698246089
 20
2451.169013942044
 30
0.0
 40
16.0
  0
MTEXT
  5
3E7F
330
A
100
AcDbEntity
  8
notes
 62
     7
390
1D
100
AcDbMText
 10
209.8411598077487
 20
2046.90545538128
 30
0.0
 40
24.4326171875
 41
0.0
 46
0.0
 71
     1
 72
     1
  1
カウンター切込寸法
  7
ＭＳ ゴシック
 11
0.0
 21
1.0
 31
0.0
 73
     1
 44
0.7828267384257843
  0
LINE
  5
3E82
330
A
100
AcDbEntity
  8
ADF70-0001
  6
Continuous
 62
     7
370
     5
390
1D
100
AcDbLine
 10
422.7080511768429
 20
1800.702257049529
 30
0.0
 11
422.7080511768429
 21
2726.077547414369
 31
0.0
  0
LINE
  5
3E83
330
A
100
AcDbEntity
  8
ADF70-0001
  6
Continuous
 62
     7
370
    15
390
1D
100
AcDbLine
 10
422.0172484031482
 20
2644.866980057322
 30
0.0
 11
385.0172484031482
 21
2681.866980057322
 31
0.0
  0
LINE
  5
3E84
330
A
100
AcDbEntity
  8
ADF70-0001
  6
Continuous
 62
     7
370
    15
390
1D
100
AcDbLine
 10
422.0172484031482
 20
2664.866980057322
 30
0.0
 11
385.0172484031482
 21
2701.866980057322
 31
0.0
  0
LINE
  5
3E85
330
A
100
AcDbEntity
  8
ADF70-0001
  6
Continuous
 62
     7
370
    15
390
1D
100
AcDbLine
 10
422.0172484031482
 20
2684.866980057322
 30
0.0
 11
385.0172484031482
 21
2721.866980057322
 31
0.0
  0
MTEXT
  5
3E8D
330
A
100
AcDbEntity
  8
notes
 62
     7
390
1D
100
AcDbMText
 10
1094.353693807158
 20
628.59046810014
 30
0.0
 40
24.4326171875
 41
842.8831565639147
 46
0.0
 71
     1
 72
     1
  1
＝φ30もしくはφ35の水栓取付用穴あけ加工を承ります。\P   必要な場合、ご注文の際にご指示ください。
  7
ＭＳ ゴシック
 11
0.0
 21
1.0
 31
0.0
 73
     1
 44
1.043768984567712
  0
CIRCLE
  5
3E8E
330
A
100
AcDbEntity
  8
notes
  6
STYLE_23
 62
     7
370
    15
390
1D
100
AcDbCircle
 10
1106.898037909056
 20
604.1279989215952
 30
0.0
 40
17.50000000000011
  0
CIRCLE
  5
3EA0
330
A
100
AcDbEntity
  8
ADF70-0001
  6
STYLE_23
 62
     7
370
    15
390
1D
100
AcDbCircle
 10
1622.8371696982
 20
882.8000422134191
 30
0.0
 40
10.0
  0
LINE
  5
3EA4
102
{ACAD_REACTORS
330
407E
330
408D
102
}
330
A
100
AcDbEntity
  8
0
  6
STYLE_23
 62
     7
370
    15
390
1D
100
AcDbLine
 10
1607.868249629157
 20
882.5761973932421
 30
0.0
 11
1637.868249629156
 21
882.5761973932421
 31
0.0
  0
CIRCLE
  5
3EA7
330
A
100
AcDbEntity
  8
ADF70-0001
  6
STYLE_23
 62
     7
370
    15
390
1D
100
AcDbCircle
 10
1622.868249629156
 20
722.5761973932421
 30
0.0
 40
10.0
  0
LINE
  5
3EA8
102
{ACAD_REACTORS
330
408D
102
}
330
A
100
AcDbEntity
  8
0
  6
STYLE_23
 62
     7
370
    15
390
1D
100
AcDbLine
 10
1607.899329560113
 20
722.3523525730674
 30
0.0
 11
1637.899329560112
 21
722.3523525730674
 31
0.0
  0
MTEXT
  5
3EB5
330
A
100
AcDbEntity
  8
notes
 62
     7
390
1D
100
AcDbMText
 10
1488.694551982571
 20
1384.492044471293
 30
0.0
 40
24.4326171875
 41
0.0
 46
0.0
 71
     1
 72
     1
  1
壁取付ボルト穴(4ヶ所）
  7
ＭＳ ゴシック
 11
0.0
 21
1.0
 31
0.0
 73
     1
 44
0.7828267384257843
  0
LINE
  5
3EB6
330
A
100
AcDbEntity
  8
notes
  6
Continuous
 62
     7
370
     5
390
1D
100
AcDbLine
 10
1622.868249629156
 20
1323.023887033596
 30
0.0
 11
1525.532207875352
 21
1400.359928787401
 31
0.0
  0
LINE
  5
3EB7
330
A
100
AcDbEntity
  8
MODEL
100
AcDbLine
 10
1650.875418604969
 20
2437.545290268738
 30
0.0
 11
1581.062189178152
 21
2437.62753362785
 31
0.0
  0
LINE
  5
3EB8
330
A
100
AcDbEntity
  8
MODEL
100
AcDbLine
 10
1578.058657117276
 20
2434.631069852122
 30
0.0
 11
1577.919253246073
 21
2316.296476660275
 31
0.0
  0
LINE
  5
3EB9
330
A
100
AcDbEntity
  8
MODEL
100
AcDbLine
 10
1701.593199876977
 20
2190.845107486142
 30
0.0
 11
1729.035827683172
 21
2193.213453478732
 31
0.0
  0
LINE
  5
3EBA
330
A
100
AcDbEntity
  8
MODEL
100
AcDbLine
 10
1731.77787924875
 20
2196.198809377483
 30
0.0
 11
1731.788777374023
 21
2205.449809436167
 31
0.0
  0
LINE
  5
3EBB
330
A
100
AcDbEntity
  8
MODEL
100
AcDbLine
 10
1577.512278675812
 20
1970.831391682116
 30
0.0
 11
1577.512233132938
 21
1970.792732084782
 31
0.0
  0
LINE
  5
3EBC
102
{ACAD_REACTORS
330
3EE1
102
}
330
A
100
AcDbEntity
  8
MODEL
100
AcDbLine
 10
1731.840611465062
 20
2249.449778904653
 30
0.0
 11
1731.788777374023
 21
2205.449809436167
 31
0.0
  0
LINE
  5
3EBD
330
A
100
AcDbEntity
  8
MODEL
100
AcDbLine
 10
1697.925113433465
 20
2321.200281831573
 30
0.0
 11
1698.058573849489
 21
2434.489704149285
 31
0.0
  0
LINE
  5
3EBE
330
A
100
AcDbEntity
  8
MODEL
100
AcDbLine
 10
1697.519188094576
 20
1976.625849074529
 30
0.0
 11
1697.769942379834
 21
2189.48153293197
 31
0.0
  0
LINE
  5
3EBF
330
A
100
AcDbEntity
  8
MODEL
100
AcDbLine
 10
1697.925117857505
 20
2321.20403722982
 30
0.0
 11
1698.058573849489
 21
2434.489704149285
 31
0.0
  0
LINE
  5
3EC0
102
{ACAD_REACTORS
330
3EE1
102
}
330
A
100
AcDbEntity
  8
MODEL
100
AcDbLine
 10
1695.062110073754
 20
2437.493236210154
 30
0.0
 11
1690.062113543245
 21
2437.499126447771
 31
0.0
  0
ARC
  5
3EC1
102
{ACAD_REACTORS
330
3EDB
102
}
330
A
100
AcDbEntity
  8
MODEL
100
AcDbCircle
 10
1581.058655035581
 20
2434.627535709552
 30
0.0
 40
3.000000000000001
100
AcDbArc
 50
89.93250283319918
 51
179.9325028332339
  0
ARC
  5
3EC2
330
A
100
AcDbEntity
  8
MODEL
100
AcDbCircle
 10
1728.777881330459
 20
2196.202343520054
 30
0.0
 40
3.000000000000001
100
AcDbArc
 50
274.9325028332887
 51
359.9325028332165
  0
ARC
  5
3EC3
330
A
100
AcDbEntity
  8
MODEL
100
AcDbCircle
 10
1695.058575931184
 20
2434.493238291856
 30
0.0
 40
3.000000000000001
100
AcDbArc
 50
359.9325028332165
 51
89.93250283323394
  0
SPLINE
  5
3EC4
330
A
100
AcDbEntity
  8
MODEL
100
AcDbSpline
210
0.0
220
0.0
230
1.0
 70
     8
 71
     3
 72
    12
 73
     8
 74
     0
 42
0.000000001
 43
0.0000000001
 40
0.6393546353257522
 40
0.6393546353257522
 40
0.6393546353257522
 40
0.6393546353257522
 40
0.75
 40
0.75
 40
0.875
 40
0.875
 40
1.0
 40
1.0
 40
1.0
 40
1.0
 10
1697.76994237984
 20
2189.481532931974
 30
0.0
 10
1698.116559371325
 20
2189.718183989918
 30
0.0
 10
1698.481817498189
 20
2189.927529828212
 30
0.0
 10
1699.289880467468
 20
2190.309630268986
 30
0.0
 10
1699.736583842553
 20
2190.474107380835
 30
0.0
 10
1700.652054318882
 20
2190.721463852769
 30
0.0
 10
1701.120806192759
 20
2190.804339098474
 30
0.0
 10
1701.593199876977
 20
2190.845107486142
 30
0.0
  0
LINE
  5
3EC5
330
A
100
AcDbEntity
  8
MODEL
100
AcDbLine
 10
1650.875418604969
 20
2437.545290268745
 30
0.0
 11
1690.062113543245
 21
2437.499126447779
 31
0.0
  0
LINE
  5
3EC6
102
{ACAD_REACTORS
330
3ED8
330
3EDE
102
}
330
A
100
AcDbEntity
  8
MODEL
100
AcDbLine
 10
1577.919253246073
 20
2316.296476660275
 30
0.0
 11
1577.51220073723
 21
1970.765232612239
 31
0.0
  0
LINE
  5
3EC7
330
A
100
AcDbEntity
  8
HIDDEN
 48
0.5
100
AcDbLine
 10
1682.823152217536
 20
2266.883279913173
 30
0.0
 11
1683.02591627167
 21
2187.409737035345
 31
0.0
  0
LINE
  5
3EC8
330
A
100
AcDbEntity
  8
HIDDEN
 48
0.5
100
AcDbLine
 10
1695.34348259768
 20
2249.773851120691
 30
0.0
 11
1695.290986263363
 21
2205.21172876451
 31
0.0
  0
LINE
  5
3EC9
330
A
100
AcDbEntity
  8
MODEL
100
AcDbLine
 10
1694.672668636902
 20
1973.633311728949
 30
0.0
 11
1580.665709511874
 21
1967.793126454061
 31
0.0
  0
ARC
  5
3ECA
330
A
100
AcDbEntity
  8
MODEL
100
AcDbCircle
 10
1580.512231051244
 20
1970.789197942211
 30
0.0
 40
3.000000000000001
100
AcDbArc
 50
179.9325028332166
 51
272.9325028332205
  0
ARC
  5
3ECB
102
{ACAD_REACTORS
330
3ED8
102
}
330
A
100
AcDbEntity
  8
MODEL
100
AcDbCircle
 10
1694.519190176271
 20
1976.6293832171
 30
0.0
 40
3.000000000000001
100
AcDbArc
 50
272.9325028332205
 51
359.9325028332165
  0
SOLID
  5
3ECC
330
A
100
AcDbEntity
  8
MODEL
 48
0.5
100
AcDbTrace
 10
1577.919253234684
 20
2316.296466991858
 30
0.0
 11
1577.919251463771
 21
2316.296476662375
 31
0.0
 12
1578.058657117276
 22
2434.631069852122
 32
0.0
 13
1578.058657117276
 23
2434.631069852122
 33
0.0
1001
GradientColor1ACI
1070
     5
1001
GradientColor2ACI
1070
     2
1001
ACAD
1010
0.0
1020
0.0
1030
0.0
  0
SOLID
  5
3ECD
330
A
100
AcDbEntity
  8
MODEL
 48
0.5
100
AcDbTrace
 10
1577.919253234684
 20
2316.296466991858
 30
0.0
 11
1578.058657117276
 21
2434.631069852122
 31
0.0
 12
1577.949593748787
 22
2316.130784960303
 32
0.0
 13
1577.949593748787
 23
2316.130784960303
 33
0.0
1001
GradientColor1ACI
1070
     5
1001
GradientColor2ACI
1070
     2
1001
ACAD
1010
0.0
1020
0.0
1030
0.0
  0
SOLID
  5
3ECE
330
A
100
AcDbEntity
  8
MODEL
 48
0.5
100
AcDbTrace
 10
1577.949593748787
 20
2316.130784960303
 30
0.0
 11
1578.058657117276
 21
2434.631069852122
 31
0.0
 12
1578.089695731373
 22
2435.057978098211
 32
0.0
 13
1578.089695731373
 23
2435.057978098211
 33
0.0
1001
GradientColor1ACI
1070
     5
1001
GradientColor2ACI
1070
     2
1001
ACAD
1010
0.0
1020
0.0
1030
0.0
  0
SOLID
  5
3ECF
330
A
100
AcDbEntity
  8
MODEL
  6
Continuous
 48
0.5
100
AcDbTrace
 10
1577.539342336857
 20
1970.386789329141
 30
0.0
 11
1577.512533587274
 21
1970.831802221935
 31
0.0
 12
1577.540100910613
 22
1971.030713461114
 32
0.0
 13
1577.540100910613
 23
1971.030713461114
 33
0.0
1001
GradientColor1ACI
1070
     5
1001
GradientColor2ACI
1070
     2
1001
ACAD
1010
0.0
1020
0.0
1030
0.0
  0
SPLINE
  5
3ED0
330
A
100
AcDbEntity
  8
MODEL
100
AcDbSpline
210
0.0
220
0.0
230
1.0
 70
  1064
 71
     3
 72
    58
 73
    54
 74
    52
 42
0.000000001
 43
0.0000000001
 44
0.0
 40
0.0
 40
0.0
 40
0.0
 40
0.0
 40
2.181573269524199
 40
4.774863402890878
 40
8.118776497864632
 40
11.58365721046653
 40
13.74254796859265
 40
16.52919689786649
 40
18.42378080363166
 40
21.2054441375357
 40
23.85496459340483
 40
27.26665500511474
 40
30.65300899261307
 40
34.90119732638306
 40
38.72284017638932
 40
41.63285502458601
 40
44.71714675299508
 40
46.68974261672369
 40
49.51118396705918
 40
52.84771193670223
 40
57.26302001683116
 40
60.32261489449314
 40
62.58208794505071
 40
63.60468620595998
 40
64.52638590047526
 40
65.47876748352638
 40
66.25703850728196
 40
66.6929863320688
 40
67.00030225984983
 40
67.5646808414383
 40
67.78265475383114
 40
68.21745033220076
 40
68.58028931301374
 40
68.87121874852579
 40
69.3571910662769
 40
69.66803657332376
 40
70.06521938640178
 40
70.59182187430787
 40
70.95216506445593
 40
71.39559329784397
 40
71.75345925573289
 40
72.28373843426895
 40
72.72716666765713
 40
73.17059490104438
 40
73.67260682595233
 40
73.93965906185628
 40
74.28175489097559
 40
74.8570024152528
 40
75.66892483654337
 40
77.89647328592339
 40
79.98383237225066
 40
83.13511486935188
 40
83.5331937827289
 40
83.5331937827289
 40
83.5331937827289
 40
83.5331937827289
 10
1698.006574080908
 20
2321.138185370174
 30
0.0
 10
1698.567864698389
 20
2320.675726399929
 30
0.0
 10
1699.796375363255
 20
2319.663531007179
 30
0.0
 10
1701.803986094034
 20
2317.847430843893
 30
0.0
 10
1704.050531118143
 20
2315.660903335157
 30
0.0
 10
1706.08662293861
 20
2313.470408171968
 30
0.0
 10
1707.913412120326
 20
2311.343374232781
 30
0.0
 10
1709.33527702511
 20
2309.560107820434
 30
0.0
 10
1710.822200930683
 20
2307.565453307588
 30
0.0
 10
1712.215285068411
 20
2305.559187435426
 30
0.0
 10
1713.81130990921
 20
2303.080065100954
 30
0.0
 10
1715.376526860488
 20
2300.345805027658
 30
0.0
 10
1717.078817661227
 20
2297.079750277141
 30
0.0
 10
1718.64536903224
 20
2293.593685330091
 30
0.0
 10
1719.936960446762
 20
2290.167588849624
 30
0.0
 10
1720.965779229339
 20
2287.06054521128
 30
0.0
 10
1721.671324888186
 20
2284.499285697478
 30
0.0
 10
1722.292251767933
 20
2281.947381843505
 30
0.0
 10
1722.831693470471
 20
2279.290633727661
 30
0.0
 10
1723.42969258421
 20
2275.817224720683
 30
0.0
 10
1724.05480190037
 20
2272.268142817392
 30
0.0
 10
1724.613494676784
 20
2269.071590561227
 30
0.0
 10
1724.978926196137
 20
2266.98998812022
 30
0.0
 10
1725.21941720507
 20
2265.608744058127
 30
0.0
 10
1725.389170020571
 20
2264.660297057724
 30
0.0
 10
1725.530265463559
 20
2263.780032354983
 30
0.0
 10
1725.873770071887
 20
2263.131644083806
 30
0.0
 10
1726.193744837814
 20
2262.736329454126
 30
0.0
 10
1726.50965616115
 20
2262.435710177725
 30
0.0
 10
1726.803673727541
 20
2262.215899921793
 30
0.0
 10
1727.171371563114
 20
2262.043266672057
 30
0.0
 10
1727.485028202752
 20
2261.915561655483
 30
0.0
 10
1727.83497859349
 20
2261.813919351295
 30
0.0
 10
1728.212997406397
 20
2261.769485709349
 30
0.0
 10
1728.574235002895
 20
2261.740544352328
 30
0.0
 10
1728.970889986667
 20
2261.707276817781
 30
0.0
 10
1729.379676120976
 20
2261.65816300338
 30
0.0
 10
1729.797829912857
 20
2261.556548904383
 30
0.0
 10
1730.206980088554
 20
2261.381770903102
 30
0.0
 10
1730.538791679715
 20
2261.180880559245
 30
0.0
 10
1730.899949013997
 20
2260.920113911927
 30
0.0
 10
1731.192819283601
 20
2260.581836510164
 30
0.0
 10
1731.461535407052
 20
2260.192115061176
 30
0.0
 10
1731.656972380702
 20
2259.770659499968
 30
0.0
 10
1731.783244668175
 20
2259.384739618155
 30
0.0
 10
1731.840715576071
 20
2259.017967568836
 30
0.0
 10
1731.857187109355
 20
2258.623006193271
 30
0.0
 10
1731.848229222374
 20
2258.046664800031
 30
0.0
 10
1731.850365064935
 20
2256.841721347188
 30
0.0
 10
1731.861592868619
 20
2255.132693759813
 30
0.0
 10
1731.78283689612
 20
2252.644499431897
 30
0.0
 10
1731.843882052011
 20
2250.765591363825
 30
0.0
 10
1731.840941286818
 20
2249.582471776738
 30
0.0
 10
1731.840611465062
 20
2249.449778904653
 30
0.0
 11
1698.006574080908
 21
2321.138185370174
 31
0.0
 11
1699.680471510647
 21
2319.739139507804
 31
0.0
 11
1701.608926622969
 21
2318.005295629141
 31
0.0
 11
1704.002094822427
 21
2315.669808366097
 31
0.0
 11
1706.362134158999
 21
2313.132957427947
 31
0.0
 11
1707.768262798537
 21
2311.494784190895
 31
0.0
 11
1709.506397518174
 21
2309.316642792497
 31
0.0
 11
1710.638487533665
 21
2307.797491591066
 31
0.0
 11
1712.226629825938
 21
2305.513754530308
 31
0.0
 11
1713.656591971225
 21
2303.283246312633
 31
0.0
 11
1715.360917498154
 21
2300.327758880142
 31
0.0
 11
1716.919923641561
 21
2297.321616306433
 31
0.0
 11
1718.660959279999
 21
2293.446580948547
 31
0.0
 11
1720.016379408539
 21
2289.873376455637
 31
0.0
 11
1720.92455476833
 21
2287.108705782194
 31
0.0
 11
1721.751444138868
 21
2284.137324043874
 31
0.0
 11
1722.215231288919
 21
2282.220024922441
 31
0.0
 11
1722.784863365668
 21
2279.456684445677
 31
0.0
 11
1723.370491310913
 21
2276.171953284386
 31
0.0
 11
1724.132078553793
 21
2271.822823450277
 31
0.0
 11
1724.659821665921
 21
2268.809086895265
 31
0.0
 11
1725.049553439947
 21
2266.583479649925
 31
0.0
 11
1725.22593927214
 21
2265.576208464287
 31
0.0
 11
1725.384921321947
 21
2264.668323540572
 31
0.0
 11
1725.594740702899
 21
2263.739342105283
 31
0.0
 11
1725.953859995918
 21
2263.048879130317
 31
0.0
 11
1726.22879683813
 21
2262.71055940176
 31
0.0
 11
1726.450611829533
 21
2262.49785963905
 31
0.0
 11
1726.910281908441
 21
2262.170404906434
 31
0.0
 11
1727.106360656801
 21
2262.075190669445
 31
0.0
 11
1727.51024745964
 21
2261.914185559395
 31
0.0
 11
1727.860148393302
 21
2261.818157112465
 31
0.0
 11
1728.148353785137
 21
2261.778438243339
 31
0.0
 11
1728.632426599037
 21
2261.735512674463
 31
0.0
 11
1728.942057114579
 21
2261.708055924903
 31
0.0
 11
1729.335891592274
 21
2261.656591459655
 31
0.0
 11
1729.846314250101
 21
2261.527058102384
 31
0.0
 11
1730.177889148552
 21
2261.385971953513
 31
0.0
 11
1730.559694452231
 21
2261.160465172577
 31
0.0
 11
1730.845791200037
 21
2260.945484488071
 31
0.0
 11
1731.203164355579
 21
2260.553718697213
 31
0.0
 11
1731.450693032567
 21
2260.185808175164
 31
0.0
 11
1731.641122183134
 21
2259.785351764578
 31
0.0
 11
1731.790536019795
 21
2259.306090376436
 31
0.0
 11
1731.832407027396
 21
2259.042341034401
 31
0.0
 11
1731.851509590349
 21
2258.700778963337
 31
0.0
 11
1731.850831921413
 21
2258.125531838223
 31
0.0
 11
1731.849875438216
 21
2257.313609980324
 31
0.0
 11
1731.847251280281
 21
2255.086063076636
 31
0.0
 11
1731.811840191478
 21
2252.999004378357
 31
0.0
 11
1731.84108042094
 21
2249.847857541804
 31
0.0
 11
1731.840611465062
 21
2249.449778904653
 31
0.0
  0
LINE
  5
3ED1
330
A
100
AcDbEntity
  8
MODEL
100
AcDbLine
 10
1578.307722625251
 20
2386.629183047165
 30
0.0
 11
1586.680099005023
 21
2386.61931998306
 31
0.0
  0
LINE
  5
3ED2
330
A
100
AcDbEntity
  8
MODEL
100
AcDbLine
 10
1577.964410272583
 20
2354.629565280953
 30
0.0
 11
1587.223959123515
 21
2354.61865708479
 31
0.0
  0
SPLINE
  5
3ED3
330
A
100
AcDbEntity
  8
HIDDEN
 48
0.5
100
AcDbSpline
210
0.0
220
0.0
230
1.0
 70
  1064
 71
     3
 72
    76
 73
    72
 74
    70
 42
0.000000001
 43
0.0000000001
 44
0.0
 40
0.0
 40
0.0
 40
0.0
 40
0.0
 40
0.8699984819612331
 40
1.672368215576382
 40
2.698297178396364
 40
3.436685089750877
 40
4.371828940302484
 40
5.301455528569232
 40
6.424750254829386
 40
9.692795139277521
 40
13.06492036044136
 40
59.31727289781416
 40
64.96719174310923
 40
66.70412478714464
 40
69.43669115622222
 40
72.03340624954973
 40
76.20997874965975
 40
79.27047269325597
 40
83.73627183253265
 40
87.7077189564499
 40
90.24318892503311
 40
93.35746234660598
 40
96.45350750935329
 40
98.69662244723011
 40
100.2066877368763
 40
103.3434651335213
 40
104.9975083635773
 40
106.7131273950185
 40
108.3110461903921
 40
110.7611556585813
 40
113.90371641117
 40
116.0868943184495
 40
118.0048753075605
 40
121.6458347318238
 40
125.3662611099477
 40
129.0664477721165
 40
131.9753057074655
 40
134.6009552320295
 40
136.8432022987659
 40
139.3473174993043
 40
141.7502953429197
 40
143.3921777384327
 40
145.2581426941945
 40
147.1696986293317
 40
149.1673363770927
 40
150.817206301067
 40
151.4106588934409
 40
152.1660984627554
 40
152.7932822505882
 40
153.3026637511363
 40
153.7371056786037
 40
154.0602912614607
 40
154.2799672440206
 40
154.984816543002
 40
156.1633973611902
 40
157.4336930576841
 40
159.6860905833657
 40
161.0349285085851
 40
162.9075561329911
 40
164.4135556514033
 40
166.1553052731803
 40
168.0540776438151
 40
169.5600925893762
 40
172.3363260956888
 40
175.0863685743283
 40
178.1769715484722
 40
181.306861064128
 40
183.952093150626
 40
186.6235934005381
 40
188.7058109549313
 40
189.8402696973121
 40
189.8402696973121
 40
189.8402696973121
 40
189.8402696973121
 10
1577.949593748787
 20
2316.130784960303
 30
0.0
 10
1577.968369159861
 20
2315.839628578277
 30
0.0
 10
1578.004460488024
 20
2315.279948660255
 30
0.0
 10
1578.341756077141
 20
2314.434194108072
 30
0.0
 10
1578.817741931538
 20
2313.714326459004
 30
0.0
 10
1579.472953696436
 20
2313.08969483241
 30
0.0
 10
1580.218792810468
 20
2312.631307225419
 30
0.0
 10
1581.175063367583
 20
2312.316227663191
 30
0.0
 10
1582.952790618837
 20
2312.208147906032
 30
0.0
 10
1585.52330937473
 20
2311.947954879582
 30
0.0
 10
1603.095588272176
 20
2310.435214475122
 30
0.0
 10
1621.445068996665
 20
2308.829470097342
 30
0.0
 10
1639.242582447339
 20
2307.112430811977
 30
0.0
 10
1642.597923756298
 20
2306.766391257022
 30
0.0
 10
1644.939780915656
 20
2306.51384455377
 30
0.0
 10
1648.087232468265
 20
2306.148221230582
 30
0.0
 10
1651.337652687588
 20
2305.720895378869
 30
0.0
 10
1655.189276051453
 20
2305.100381577325
 30
0.0
 10
1658.94376567882
 20
2304.313301969583
 30
0.0
 10
1662.446991265789
 20
2303.237968344131
 30
0.0
 10
1665.412561959147
 20
2302.009039840514
 30
0.0
 10
1667.998490629325
 20
2300.651915840118
 30
0.0
 10
1670.3524230657
 20
2299.094212187595
 30
0.0
 10
1672.140409507029
 20
2297.670688097738
 30
0.0
 10
1673.841120314541
 20
2296.126796573304
 30
0.0
 10
1675.273400802268
 20
2294.57865123852
 30
0.0
 10
1676.5278804376
 20
2292.805499309811
 30
0.0
 10
1677.341108179068
 20
2291.35955147443
 30
0.0
 10
1678.123303561203
 20
2289.602553787211
 30
0.0
 10
1678.898122626012
 20
2287.330796457224
 30
0.0
 10
1679.544690430295
 20
2284.819143415056
 30
0.0
 10
1680.062777253766
 20
2282.460716737874
 30
0.0
 10
1680.570289905771
 20
2279.930307285698
 30
0.0
 10
1681.130921816166
 20
2276.888230769445
 30
0.0
 10
1681.751920435374
 20
2273.253815479337
 30
0.0
 10
1682.352036931108
 20
2269.862924478254
 30
0.0
 10
1682.770616172165
 20
2266.812725784386
 30
0.0
 10
1683.4597839324
 20
2264.297363338224
 30
0.0
 10
1684.627336664399
 20
2262.110449943463
 30
0.0
 10
1686.178371954365
 20
2260.292028964629
 30
0.0
 10
1687.574273692491
 20
2258.615878290514
 30
0.0
 10
1688.839921581605
 20
2257.105459810016
 30
0.0
 10
1689.9992974632
 20
2255.720231581255
 30
0.0
 10
1691.234667355017
 20
2254.243801369551
 30
0.0
 10
1692.425424958395
 20
2252.824104919576
 30
0.0
 10
1693.329426778
 20
2251.737066326902
 30
0.0
 10
1693.976530018563
 20
2250.975492483397
 30
0.0
 10
1694.381434195648
 20
2250.454375943268
 30
0.0
 10
1694.859114205858
 20
2250.035131337468
 30
0.0
 10
1695.315723591226
 20
2249.773412991762
 30
0.0
 10
1695.711527831943
 20
2249.621895305519
 30
0.0
 10
1696.028659868403
 20
2249.544922431699
 30
0.0
 10
1696.44050383511
 20
2249.482862390558
 30
0.0
 10
1697.14410803295
 20
2249.496283076303
 30
0.0
 10
1698.193984634814
 20
2249.487478094117
 30
0.0
 10
1699.761608229649
 20
2249.488589263013
 30
0.0
 10
1701.385232936027
 20
2249.48546816653
 30
0.0
 10
1703.209897063869
 20
2249.48356469581
 30
0.0
 10
1704.785704844491
 20
2249.481637243972
 30
0.0
 10
1706.492499078317
 20
2249.479644101682
 30
0.0
 10
1708.208004134908
 20
2249.477618033149
 30
0.0
 10
1709.923515524445
 20
2249.475598560095
 30
0.0
 10
1711.983854300464
 20
2249.473171001606
 30
0.0
 10
1714.327949680149
 20
2249.470409707053
 30
0.0
 10
1717.200240663976
 20
2249.46702595696
 30
0.0
 10
1720.190416914746
 20
2249.463503400522
 30
0.0
 10
1723.145656388769
 20
2249.460021981272
 30
0.0
 10
1725.961195052603
 20
2249.456705141604
 30
0.0
 10
1728.427509971455
 20
2249.453799703166
 30
0.0
 10
1730.390234125093
 20
2249.451487519277
 30
0.0
 10
1731.462458813335
 20
2249.450224386758
 30
0.0
 10
1731.840611465062
 20
2249.449778904653
 30
0.0
 11
1577.949593748787
 21
2316.130784960303
 31
0.0
 11
1578.052727830886
 21
2315.2669211286
 31
0.0
 11
1578.335094729558
 21
2314.515877771692
 31
0.0
 11
1578.905232161715
 21
2313.662957174446
 31
0.0
 11
1579.439464643057
 21
2313.153239249007
 31
0.0
 11
1580.236091490924
 21
2312.663464110314
 31
0.0
 11
1581.119006103699
 21
2312.37248751304
 31
0.0
 11
1582.235372351588
 21
2312.247918485518
 31
0.0
 11
1585.490651836619
 21
2311.959348145559
 31
0.0
 11
1588.849597122195
 21
2311.661497384748
 31
0.0
 11
1634.916871037771
 21
2307.527928801948
 31
0.0
 11
1640.539936576547
 21
2306.977731650874
 31
0.0
 11
1642.267690161647
 21
2306.799395034789
 31
0.0
 11
1644.984370671978
 21
2306.505174086859
 31
0.0
 11
1647.563563199931
 21
2306.204017682865
 31
0.0
 11
1651.703138716416
 21
2305.6493354387
 31
0.0
 11
1654.723558421244
 21
2305.155687805791
 31
0.0
 11
1659.087997003988
 21
2304.20962342647
 31
0.0
 11
1662.878706232162
 21
2303.025175958024
 31
0.0
 11
1665.219868297277
 21
2302.051744837475
 31
0.0
 11
1667.976990398267
 21
2300.603650688413
 31
0.0
 11
1670.558673692377
 21
2298.894730848665
 31
0.0
 11
1672.312721106905
 21
2297.496559796142
 31
0.0
 11
1673.430002922177
 21
2296.480696358343
 31
0.0
 11
1675.539574225861
 21
2294.159256858641
 31
0.0
 11
1676.492382636467
 21
2292.807215757353
 31
0.0
 11
1677.335509036048
 21
2291.313064983377
 31
0.0
 11
1677.990016767793
 21
2289.855339321363
 31
0.0
 11
1678.797098662093
 21
2287.541974840352
 31
0.0
 11
1679.602900631794
 21
2284.504480598491
 31
0.0
 11
1680.074806491255
 21
2282.372915296972
 31
0.0
 11
1680.453946741526
 21
2280.492781326954
 31
0.0
 11
1681.118418755807
 21
2276.912968137503
 31
0.0
 11
1681.756707678472
 21
2273.247704206182
 31
0.0
 11
1682.371555223538
 21
2269.598958691458
 31
0.0
 11
1682.849640458341
 21
2266.729657557679
 31
0.0
 11
1683.592552896255
 21
2264.211301638545
 31
0.0
 11
1684.647906010804
 21
2262.232943300958
 31
0.0
 11
1686.19545772134
 21
2260.264269473026
 31
0.0
 11
1687.737892498231
 21
2258.421663308936
 31
0.0
 11
1688.791791731274
 21
2257.162666006601
 31
0.0
 11
1689.989526137304
 21
2255.731841940287
 31
0.0
 11
1691.21652469668
 21
2254.266058658745
 31
0.0
 11
1692.498777856843
 21
2252.734267744641
 31
0.0
 11
1693.557804162411
 21
2251.469145596329
 31
0.0
 11
1693.938732317594
 21
2251.014085468451
 31
0.0
 11
1694.427349021102
 21
2250.437940816528
 31
0.0
 11
1694.902068134712
 21
2250.028061240441
 31
0.0
 11
1695.34348259768
 21
2249.773851120691
 31
0.0
 11
1695.749298928792
 21
2249.618761166973
 31
0.0
 11
1696.063322550826
 21
2249.542353799714
 31
0.0
 11
1696.280591584868
 21
2249.509923811123
 31
0.0
 11
1696.985182496889
 21
2249.490840284926
 31
0.0
 11
1698.163762497262
 21
2249.489451860713
 31
0.0
 11
1699.4340573123
 21
2249.487955392012
 31
0.0
 11
1701.686453275047
 21
2249.485301960685
 31
0.0
 11
1703.03529026431
 21
2249.483712965507
 31
0.0
 11
1704.907916589303
 21
2249.481506921172
 31
0.0
 11
1706.413915062705
 21
2249.479732782169
 31
0.0
 11
1708.155663475885
 21
2249.47768091834
 31
0.0
 11
1710.054434528965
 21
2249.475444074251
 31
0.0
 11
1711.560448429505
 21
2249.473669917074
 31
0.0
 11
1714.336680009394
 21
2249.470399382067
 31
0.0
 11
1717.086720579784
 21
2249.467159701335
 31
0.0
 11
1720.177321409364
 21
2249.463518824155
 31
0.0
 11
1723.307208753195
 21
2249.459831665561
 31
0.0
 11
1725.952439004171
 21
2249.456715456453
 31
0.0
 11
1728.623937400334
 21
2249.4535683022
 31
0.0
 11
1730.70615350988
 21
2249.451115350965
 31
0.0
 11
1731.840611465062
 21
2249.449778904653
 31
0.0
  0
SPLINE
  5
3ED4
330
A
100
AcDbEntity
  8
HIDDEN
 48
0.5
100
AcDbSpline
210
0.0
220
0.0
230
1.0
 70
  1064
 71
     3
 72
   115
 73
   111
 74
   109
 42
0.000000001
 43
0.0000000001
 44
0.0
 40
0.0
 40
0.0
 40
0.0
 40
0.0
 40
1.23851985319168
 40
2.753480723600278
 40
4.697681517062017
 40
6.626118664190747
 40
9.033299480931252
 40
11.75278478250015
 40
14.46682092119866
 40
16.9795982441875
 40
20.00908945355735
 40
21.73848426254287
 40
24.54065993616284
 40
28.46434622185172
 40
31.91308499197193
 40
35.48788630809107
 40
40.66251397919741
 40
46.63947757180016
 40
52.54204007846677
 40
57.38234100220027
 40
63.51884155407387
 40
67.41247114713961
 40
73.4449101654581
 40
76.89606337634505
 40
81.42515697834806
 40
86.20339566590644
 40
91.31086527315968
 40
96.92714473054072
 40
99.7956432626341
 40
103.8287110517656
 40
107.1449350887365
 40
109.1551790690724
 40
114.4272007459512
 40
117.6234751242957
 40
119.8798248934964
 40
123.8953047411013
 40
126.6120912053297
 40
128.983913416517
 40
134.112880510879
 40
137.4023645947812
 40
141.646469667551
 40
146.292111054398
 40
149.3336799653938
 40
154.4213682144176
 40
160.1118058169548
 40
164.9022949377398
 40
171.1126177124868
 40
178.734196319822
 40
186.5455533986
 40
193.5221117014489
 40
199.4030800482436
 40
203.8000153087148
 40
215.2795763937148
 40
228.9657337137484
 40
238.985090199926
 40
246.4330713145825
 40
252.3900029452163
 40
259.0087025230356
 40
264.3722021969955
 40
265.2601762230003
 40
266.3698421556837
 40
266.9948183628715
 40
267.3768103820248
 40
267.7560326174615
 40
268.0387322309501
 40
268.6222139934864
 40
269.5399415241113
 40
269.9869865567882
 40
270.6090353751222
 40
271.5130108655397
 40
272.0534367848541
 40
272.7933674673965
 40
274.0130316554764
 40
275.1187420327983
 40
276.9465436778858
 40
278.172290119863
 40
279.6157996155596
 40
281.3629590614633
 40
282.5871131261346
 40
283.9836982303197
 40
285.8953268292052
 40
286.3979321402974
 40
287.1257998126276
 40
287.4683524391641
 40
288.0382327439654
 40
288.2738629594181
 40
288.4336705436299
 40
288.733033400512
 40
289.1443438621594
 40
289.4403849687149
 40
289.8595062522101
 40
290.8024202736354
 40
292.2586660957569
 40
293.4738680712443
 40
295.6215199988061
 40
297.7796853625952
 40
300.1159373728493
 40
301.6769226222291
 40
305.2074854944244
 40
307.3566811927615
 40
309.3246903613656
 40
310.7076136477176
 40
313.6724503221516
 40
314.6153273184212
 40
316.5953813523071
 40
318.1458655071795
 40
319.6754215233516
 40
321.9907330531842
 40
323.72980494903
 40
324.9714964574327
 40
324.9714964574327
 40
324.9714964574327
 40
324.9714964574327
 10
1577.525937962066
 20
1970.609295775538
 30
0.0
 10
1577.53456094316
 20
1971.022917705567
 30
0.0
 10
1577.553731578301
 20
1971.942483111206
 30
0.0
 10
1577.903570290405
 20
1973.477834709376
 30
0.0
 10
1578.485326548403
 20
1975.179412887573
 30
0.0
 10
1579.403703936844
 20
1977.066081868771
 30
0.0
 10
1580.664840795077
 20
1979.0568483186
 30
0.0
 10
1582.30479092624
 20
1981.098569817724
 30
0.0
 10
1584.158087716557
 20
1982.995627378203
 30
0.0
 10
1586.226679715302
 20
1984.813756307344
 30
0.0
 10
1588.15234194258
 20
1986.289053477261
 30
0.0
 10
1590.222152902166
 20
1987.727627229073
 30
0.0
 10
1592.598290197695
 20
1989.245217450259
 30
0.0
 10
1595.54093594565
 20
1990.934198226722
 30
0.0
 10
1598.774780357551
 20
1992.625971607034
 30
0.0
 10
1602.430714292997
 20
1994.406586279079
 30
0.0
 10
1606.900152458686
 20
1996.437818848668
 30
0.0
 10
1612.122481269215
 20
1998.683968258717
 30
0.0
 10
1617.259134499365
 20
2000.846412149841
 30
0.0
 10
1622.436535989987
 20
2003.04900961837
 30
0.0
 10
1626.97366108361
 20
2005.046166852275
 30
0.0
 10
1631.826925868446
 20
2007.307868888623
 30
0.0
 10
1635.816305333898
 20
2009.303022548989
 30
0.0
 10
1639.91556038684
 20
2011.543225693506
 30
0.0
 10
1643.573567101235
 20
2013.715190633758
 30
0.0
 10
1647.581025636845
 20
2016.370553376225
 30
0.0
 10
1651.70966471165
 20
2019.483980137922
 30
0.0
 10
1655.11394051952
 20
2022.483169471455
 30
0.0
 10
1658.049466665267
 20
2025.450296173938
 30
0.0
 10
1660.299991128161
 20
2028.010905489082
 30
0.0
 10
1662.199180317165
 20
2030.488732339862
 30
0.0
 10
1664.205253284002
 20
2033.39736901088
 30
0.0
 10
1665.987061473768
 20
2036.409677080343
 30
0.0
 10
1667.558161898249
 20
2039.622749497192
 30
0.0
 10
1668.805921496717
 20
2042.522439626377
 30
0.0
 10
1669.844182186303
 20
2045.335461005397
 30
0.0
 10
1670.752590165494
 20
2048.231644434425
 30
0.0
 10
1671.662389919997
 20
2051.514216098451
 30
0.0
 10
1672.47034566605
 20
2055.021077794016
 30
0.0
 10
1673.264036976149
 20
2059.166953129359
 30
0.0
 10
1673.917365718339
 20
2063.174358304163
 30
0.0
 10
1674.461293977294
 20
2067.114408417711
 30
0.0
 10
1674.976139020574
 20
2071.341548173269
 30
0.0
 10
1675.469026608916
 20
2075.921857480674
 30
0.0
 10
1675.958520584927
 20
2081.088362330518
 30
0.0
 10
1676.433838599035
 20
2086.631813179836
 30
0.0
 10
1676.922451371406
 20
2092.820060546512
 30
0.0
 10
1677.44851852957
 20
2100.015305102108
 30
0.0
 10
1677.963561967038
 20
2107.467370657625
 30
0.0
 10
1678.421925777016
 20
2114.34173839332
 30
0.0
 10
1678.795723530016
 20
2120.08106722906
 30
0.0
 10
1679.261346034053
 20
2127.318593410942
 30
0.0
 10
1679.885852317885
 20
2137.153004237167
 30
0.0
 10
1680.620175134684
 20
2148.858352261584
 30
0.0
 10
1681.267846789699
 20
2159.222633037188
 30
0.0
 10
1681.754373637817
 20
2167.015551357342
 30
0.0
 10
1682.169510413025
 20
2173.677162680133
 30
0.0
 10
1682.542959164533
 20
2179.645213072538
 30
0.0
 10
1682.806726430351
 20
2183.927125948574
 30
0.0
 10
1682.962664351304
 20
2186.375912110419
 30
0.0
 10
1683.010939913987
 20
2187.248747330768
 30
0.0
 10
1683.067954594314
 20
2187.952231132033
 30
0.0
 10
1683.128642110159
 20
2188.410403443816
 30
0.0
 10
1683.184636010775
 20
2188.753890806277
 30
0.0
 10
1683.262899891213
 20
2189.161618874334
 30
0.0
 10
1683.395973796017
 20
2189.741393246185
 30
0.0
 10
1683.580788754756
 20
2190.364726640621
 30
0.0
 10
1683.804866344158
 20
2190.988065040849
 30
0.0
 10
1684.054817322403
 20
2191.596706258902
 30
0.0
 10
1684.356671614869
 20
2192.21670716523
 30
0.0
 10
1684.714658596009
 20
2192.850909122774
 30
0.0
 10
1685.160950195674
 20
2193.555515248493
 30
0.0
 10
1685.788000707627
 20
2194.364194448691
 30
0.0
 10
1686.688963693649
 20
2195.415065311529
 30
0.0
 10
1687.577683330206
 20
2196.479304361148
 30
0.0
 10
1688.543389477827
 20
2197.625783427212
 30
0.0
 10
1689.490753566449
 20
2198.752596977749
 30
0.0
 10
1690.438116744052
 20
2199.87870891853
 30
0.0
 10
1691.375196317921
 20
2200.993032806913
 30
0.0
 10
1692.348102623739
 20
2202.148865905865
 30
0.0
 10
1693.164147087874
 20
2203.122328151514
 30
0.0
 10
1693.840855695095
 20
2203.921769700047
 30
0.0
 10
1694.171321116452
 20
2204.328878393289
 30
0.0
 10
1694.540802483023
 20
2204.732791521759
 30
0.0
 10
1694.846589413216
 20
2204.968212839485
 30
0.0
 10
1695.124592577922
 20
2205.130530370328
 30
0.0
 10
1695.332056524364
 20
2205.233732851117
 30
0.0
 10
1695.601371889623
 20
2205.343072221282
 30
0.0
 10
1695.926180615808
 20
2205.431307927176
 30
0.0
 10
1696.298124014456
 20
2205.48869262016
 30
0.0
 10
1696.851845664583
 20
2205.493121052952
 30
0.0
 10
1697.790589910439
 20
2205.488649972345
 30
0.0
 10
1698.995683826898
 20
2205.48874718848
 30
0.0
 10
1700.601958331126
 20
2205.486406209319
 30
0.0
 10
1702.442335290079
 20
2205.484427989727
 30
0.0
 10
1704.656344495772
 20
2205.481758812032
 30
0.0
 10
1706.674813946272
 20
2205.479397286373
 30
0.0
 10
1709.150744851587
 20
2205.476476800821
 30
0.0
 10
1711.564324775716
 20
2205.47363509328
 30
0.0
 10
1714.113578853528
 20
2205.470631621628
 30
0.0
 10
1715.946953644971
 20
2205.468471879263
 30
0.0
 10
1718.052208557805
 20
2205.465991773417
 30
0.0
 10
1719.815752987514
 20
2205.463914238151
 30
0.0
 10
1721.778340860415
 20
2205.46160221414
 30
0.0
 10
1723.269478220765
 20
2205.459845582444
 30
0.0
 10
1724.956175118668
 20
2205.457858571909
 30
0.0
 10
1726.754624437689
 20
2205.455739911687
 30
0.0
 10
1728.615936293409
 20
2205.453547196337
 30
0.0
 10
1730.38129337979
 20
2205.451467520352
 30
0.0
 10
1731.374880491758
 20
2205.450297026703
 30
0.0
 10
1731.788777374023
 20
2205.449809436167
 30
0.0
 11
1577.525937962066
 21
1970.609295775538
 31
0.0
 11
1577.589414909247
 21
1971.846187890448
 31
0.0
 11
1577.893838079831
 21
1973.330247515962
 31
0.0
 11
1578.524374660712
 21
1975.169361526965
 31
0.0
 11
1579.361578830369
 21
1976.906588918165
 31
0.0
 11
1580.643378690564
 21
1978.944114035283
 31
0.0
 11
1582.338691266579
 21
1981.070499601227
 31
0.0
 11
1584.229434386358
 21
1983.01756986631
 31
0.0
 11
1586.113476162922
 21
1984.680229320043
 31
0.0
 11
1588.513849678295
 21
1986.52847821409
 31
0.0
 11
1589.933287296976
 21
1987.516406982787
 31
0.0
 11
1592.292679366241
 21
1989.028179971472
 31
0.0
 11
1595.691220248291
 21
1990.989106778249
 31
0.0
 11
1598.744837437109
 21
1992.591985803218
 31
0.0
 11
1601.956758450306
 21
1994.161306629152
 31
0.0
 11
1606.663180270347
 21
1996.31220532189
 31
0.0
 11
1612.148268400189
 21
1998.686631988512
 31
0.0
 11
1617.583893830889
 21
2000.987549266954
 31
0.0
 11
1622.035497318182
 21
2002.888006955043
 31
0.0
 11
1627.646860296672
 21
2005.371803353055
 31
0.0
 11
1631.174694229776
 21
2007.01944990145
 31
0.0
 11
1636.564294476885
 21
2009.729160160148
 31
0.0
 11
1639.591523915536
 21
2011.386368780322
 31
0.0
 11
1643.482956356549
 21
2013.703574514118
 31
0.0
 11
1647.462519878255
 21
2016.348312522312
 31
0.0
 11
1651.535542649873
 21
2019.429989223541
 31
0.0
 11
1655.742847482144
 21
2023.150362993977
 31
0.0
 11
1657.759375194831
 21
2025.190436476131
 31
0.0
 11
1660.419501248528
 21
2028.221833047049
 31
0.0
 11
1662.436029928153
 21
2030.854503544402
 31
0.0
 11
1663.577192596771
 21
2032.509444215311
 31
0.0
 11
1666.262737040471
 21
2037.046190141897
 31
0.0
 11
1667.668296800909
 21
2039.916829732911
 31
0.0
 11
1668.560880627387
 21
2041.989125173644
 31
0.0
 11
1669.956522490534
 21
2045.754262913004
 31
0.0
 11
1670.771436095483
 21
2048.345950492301
 31
0.0
 11
1671.406263249935
 21
2050.631237145098
 31
0.0
 11
1672.569966056929
 21
2055.626444771618
 31
0.0
 11
1673.191220601458
 21
2058.85673087801
 31
0.0
 11
1673.87950597323
 21
2063.044652930259
 31
0.0
 11
1674.519577583123
 21
2067.645988848163
 31
0.0
 11
1674.888402282264
 21
2070.66511285715
 31
0.0
 11
1675.437383664217
 21
2075.723095771467
 31
0.0
 11
1675.977658593378
 21
2081.387827284018
 31
0.0
 11
1676.38873477711
 21
2086.160646407715
 31
0.0
 11
1676.880036887543
 21
2092.351505088288
 31
0.0
 11
1677.438925993539
 21
2099.952564450968
 31
0.0
 11
1677.979419574754
 21
2107.745199826811
 31
0.0
 11
1678.444281372273
 21
2114.706253573354
 31
0.0
 11
1678.826987536935
 21
2120.574756337052
 31
0.0
 11
1679.109437905524
 21
2124.96261019447
 31
0.0
 11
1679.837905400204
 21
2136.419034497604
 31
0.0
 11
1680.696065491292
 21
2150.078260809763
 31
0.0
 11
1681.321192881278
 21
2160.078096815588
 31
0.0
 11
1681.785186440846
 21
2167.511610968461
 31
0.0
 11
1682.156030778202
 21
2173.456988074204
 31
0.0
 11
1682.567908131576
 21
2180.062859791639
 31
0.0
 11
1682.901622648961
 21
2185.41596761546
 31
0.0
 11
1682.956872106393
 21
2186.302221173034
 31
0.0
 11
1683.025916271674
 21
2187.409737035403
 31
0.0
 11
1683.081033232197
 21
2188.032278102493
 31
0.0
 11
1683.130653130012
 21
2188.411033654845
 31
0.0
 11
1683.191812944923
 21
2188.785291561762
 31
0.0
 11
1683.245082636433
 21
2189.062926954738
 31
0.0
 11
1683.375635921393
 21
2189.631615627914
 31
0.0
 11
1683.636497362398
 21
2190.51148785106
 31
0.0
 11
1683.787727326597
 21
2190.932176285854
 31
0.0
 11
1684.024019733465
 21
2191.507598418594
 31
0.0
 11
1684.419855381343
 21
2192.320301209991
 31
0.0
 11
1684.685298509557
 21
2192.791045429234
 31
0.0
 11
1685.082588309744
 21
2193.415271533811
 31
0.0
 11
1685.819224620819
 21
2194.387355726096
 31
0.0
 11
1686.530958891772
 21
2195.233541146715
 31
0.0
 11
1687.70749580234
 21
2196.632333394283
 31
0.0
 11
1688.496496039788
 21
2197.570380815966
 31
0.0
 11
1689.425668090271
 21
2198.675079401449
 31
0.0
 11
1690.550296455869
 21
2200.012157248361
 31
0.0
 11
1691.338271696605
 21
2200.948986044907
 31
0.0
 11
1692.237239004266
 21
2202.01777401873
 31
0.0
 11
1693.467734453228
 21
2203.480717917231
 31
0.0
 11
1693.791256265092
 21
2203.865355065705
 31
0.0
 11
1694.259777116252
 21
2204.42238249811
 31
0.0
 11
1694.494881779469
 21
2204.671517199187
 31
0.0
 11
1694.944342165532
 21
2205.021872623236
 31
0.0
 11
1695.147917644879
 21
2205.14052599505
 31
0.0
 11
1695.290986263357
 21
2205.211728764508
 31
0.0
 11
1695.568408329287
 21
2205.324223730687
 31
0.0
 11
1695.965175133545
 21
2205.432632212364
 31
0.0
 11
1696.257946918678
 21
2205.476507246274
 31
0.0
 11
1696.676811532948
 21
2205.491173029279
 31
0.0
 11
1697.619724900087
 21
2205.490062231751
 31
0.0
 11
1699.075969711722
 21
2205.488346704967
 31
0.0
 11
1700.291170843983
 21
2205.48691513929
 31
0.0
 11
1702.438821281293
 21
2205.484385103254
 31
0.0
 11
1704.596985147535
 21
2205.481842681891
 31
0.0
 11
1706.933235536668
 21
2205.479090465996
 31
0.0
 11
1708.494219702883
 21
2205.47725155119
 31
0.0
 11
1712.024780125227
 21
2205.47309238034
 31
0.0
 11
1714.173974332241
 21
2205.47056052567
 31
0.0
 11
1716.141982135247
 21
2205.468242117341
 31
0.0
 11
1717.524904461991
 21
2205.466612967989
 31
0.0
 11
1720.48973907913
 21
2205.463120249487
 31
0.0
 11
1721.432615421139
 21
2205.462009495576
 31
0.0
 11
1723.412668081069
 21
2205.459676897825
 31
0.0
 11
1724.963151160063
 21
2205.457850353805
 31
0.0
 11
1726.492706114879
 21
2205.456048464129
 31
0.0
 11
1728.808016038121
 21
2205.453320917114
 31
0.0
 11
1730.547086727228
 21
2205.451272207774
 31
0.0
 11
1731.788777374023
 21
2205.449809436167
 31
0.0
  0
DIMENSION
  5
3ED6
102
{ACAD_REACTORS
330
3ED8
102
}
102
{ACAD_XDICTIONARY
360
3ED7
102
}
330
A
100
AcDbEntity
  8
DIM
100
AcDbDimension
  2
*D4
 10
1697.519188094577
 20
1878.775314692891
 30
0.0
 11
1637.516986930635
 21
1910.779816381024
 31
0.0
 70
    32
 71
     5
 42
120.0044023278849
 73
     0
 74
     0
 75
     0
  3
tfrom線あり
100
AcDbAlignedDimension
 13
1577.514785766692
 23
1972.959564858087
 33
0.0
 14
1697.519188094577
 24
1976.625849074529
 34
0.0
100
AcDbRotatedDimension
  0
DIMENSION
  5
3ED9
102
{ACAD_REACTORS
330
3EDB
102
}
102
{ACAD_XDICTIONARY
360
3EDA
102
}
330
A
100
AcDbEntity
  8
DIM
100
AcDbDimension
  2
*D5
 10
1494.864646642392
 20
2372.60473547112
 30
0.0
 11
1462.860144954259
 21
2405.116134549489
 31
0.0
 70
    32
 71
     5
 42
65.02279815673774
 73
     0
 74
     1
 75
     1
  3
tfrom線あり
100
AcDbAlignedDimension
 13
1581.062189178152
 23
2437.627533627858
 33
0.0
 14
1581.062189178152
 24
2372.60473547112
 34
0.0
 50
90.0
100
AcDbRotatedDimension
1001
ACAD
1000
DSTYLE
1002
{
1070
   172
1070
     1
1002
}
  0
DIMENSION
  5
3EDC
102
{ACAD_REACTORS
330
3EDE
102
}
102
{ACAD_XDICTIONARY
360
3EDD
102
}
330
A
100
AcDbEntity
  8
DIM
100
AcDbDimension
  2
*D6
 10
1577.822466808024
 20
2228.772934011549
 30
0.0
 11
1484.979213087879
 21
2228.772934011549
 31
0.0
 70
   160
 71
     5
 42
105.0845451302289
 73
     0
 74
     1
 75
     1
  3
tfrom線あり
100
AcDbAlignedDimension
 13
1682.907011938253
 23
2264.014391299818
 33
0.0
 14
1577.822466808024
 24
2234.138185973882
 34
0.0
100
AcDbRotatedDimension
1001
ACAD
1000
DSTYLE
1002
{
1070
     3
1000
深さ<>
1070
   172
1070
     1
1070
    76
1070
     1
1070
    75
1070
     1
1070
   174
1070
     0
1070
   175
1070
     1
1002
}
  0
DIMENSION
  5
3EDF
102
{ACAD_REACTORS
330
3EE1
102
}
102
{ACAD_XDICTIONARY
360
3EE0
102
}
330
A
100
AcDbEntity
  8
DIM
100
AcDbDimension
  2
*D7
 10
1843.425252016114
 20
2227.44979417041
 30
0.0
 11
1811.420750327981
 21
2332.471515190282
 31
0.0
 70
    32
 71
     5
 42
210.0434420397441
 73
     0
 74
     0
 75
     0
  3
tfrom線あり
100
AcDbAlignedDimension
 13
1695.062110073754
 23
2437.493236210154
 33
0.0
 14
1731.814694419542
 24
2227.44979417041
 34
0.0
 50
90.0
100
AcDbRotatedDimension
  0
MTEXT
  5
3EE2
330
A
100
AcDbEntity
  8
notes
 62
     7
390
1D
100
AcDbMText
 10
1091.238775747404
 20
1858.008396514202
 30
0.0
 40
24.4326171875
 41
764.7717154610109
 46
0.0
 71
     1
 72
     1
  1
※陶器製品には寸法公差があります。\P  洗面器の収め方をご確認の上、必ず現物を合わせて\P  カウンターに切込を行ってください。
  7
ＭＳ ゴシック
 11
0.0
 21
1.0
 31
0.0
 73
     1
 44
1.043768984567712
  0
DIMENSION
  5
3EE4
102
{ACAD_REACTORS
330
3EE6
102
}
102
{ACAD_XDICTIONARY
360
3EE5
102
}
330
A
100
AcDbEntity
  8
DIM
100
AcDbDimension
  2
*D8
 10
1019.291626850933
 20
1886.168985620215
 30
0.0
 11
1019.291626850933
 21
2201.168985620216
 31
0.0
 70
   160
 71
     5
 42
630.0000000000005
 73
     0
 74
     0
 75
     0
  3
tfrom線あり
100
AcDbAlignedDimension
 13
722.0034097390908
 23
2516.168985620216
 33
0.0
 14
722.0034097390853
 24
1886.168985620215
 34
0.0
 50
90.0
100
AcDbRotatedDimension
  0
DIMENSION
  5
3EEA
330
A
100
AcDbEntity
  8
DIM
100
AcDbDimension
  2
*D10
 10
722.0034097390869
 20
2640.610436352819
 30
0.0
 11
587.3557304579649
 21
2672.614938040952
 31
0.0
 70
    32
  1
270
 71
     5
 42
269.295358562244
 73
     0
 74
     0
 75
     0
  3
tfrom線あり
100
AcDbAlignedDimension
 13
452.7080511768429
 23
2516.168985620215
 33
0.0
 14
722.0034097390869
 24
2516.168985620216
 34
0.0
100
AcDbRotatedDimension
  0
LINE
  5
3FF9
330
A
100
AcDbEntity
  8
MODEL
100
AcDbLine
 10
422.7080511768477
 20
525.8504051724458
 30
0.0
 11
422.7080511768465
 21
1022.850862086985
 31
0.0
  0
LINE
  5
3FFA
330
A
100
AcDbEntity
  8
MODEL
100
AcDbLine
 10
547.7233211778355
 20
545.849774815274
 30
0.0
 11
547.7154201429078
 21
1022.850862086985
 31
0.0
  0
LINE
  5
3FFB
330
A
100
AcDbEntity
  8
MODEL
100
AcDbLine
 10
892.5742102926274
 20
526.8508620869857
 30
0.0
 11
892.5742102926263
 21
1022.850862086985
 31
0.0
  0
SPLINE
  5
3FFC
330
A
100
AcDbEntity
  8
MODEL
100
AcDbSpline
210
0.0
220
0.0
230
1.0
 70
     8
 71
     3
 72
    11
 73
     7
 74
     0
 42
0.000000001
 43
0.0000000001
 40
0.7978064071919668
 40
0.7978064071919668
 40
0.7978064071919668
 40
0.7978064071919668
 40
0.8125
 40
0.875
 40
0.9375
 40
1.0
 40
1.0
 40
1.0
 40
1.0
 10
888.4805471314944
 20
670.8625642936892
 30
0.0
 10
888.5069440209563
 20
687.3376742878753
 30
0.0
 10
888.6409088946909
 20
766.1988888904475
 30
0.0
 10
888.8445189580784
 20
770.8840350252894
 30
0.0
 10
889.0583948092212
 20
777.1748306861582
 30
0.0
 10
889.1654653602131
 20
781.3697538114238
 30
0.0
 10
889.208467623434
 20
783.4674365819983
 30
0.0
  0
LINE
  5
3FFF
330
A
100
AcDbEntity
  8
MODEL
100
AcDbLine
 10
888.2266589347403
 20
622.7975829935469
 30
0.0
 11
888.4805471314944
 21
670.8625642936892
 31
0.0
  0
ARC
  5
4003
330
A
100
AcDbEntity
  8
MODEL
  6
HIDDEN
 48
0.5
100
AcDbCircle
 10
489.7096112623681
 20
1022.850862086985
 30
0.0
 40
17.5
100
AcDbArc
 50
0.0
 51
180.0
  0
CIRCLE
  5
4004
102
{ACAD_REACTORS
330
43BB
330
43CA
102
}
330
A
100
AcDbEntity
  8
MODEL
  6
HIDDEN
 48
0.5
100
AcDbCircle
 10
489.7096112623681
 20
1122.850862086985
 30
0.0
 40
16.0
  0
LINE
  5
4005
330
A
100
AcDbEntity
  8
MODEL
100
AcDbLine
 10
892.5742102926274
 20
1518.850862086984
 30
0.0
 11
892.5742102926272
 21
1422.904141180423
 31
0.0
  0
LINE
  5
4006
330
A
100
AcDbEntity
  8
MODEL
100
AcDbLine
 10
892.5742102926274
 20
1518.850862086984
 30
0.0
 11
892.5742102926263
 21
1022.850862086985
 31
0.0
  0
LINE
  5
4007
330
A
100
AcDbEntity
  8
MODEL
100
AcDbLine
 10
422.7080511768477
 20
1519.851319001524
 30
0.0
 11
422.7080511768474
 21
1422.904141180423
 31
0.0
  0
LINE
  5
4008
330
A
100
AcDbEntity
  8
MODEL
100
AcDbLine
 10
422.7080511768477
 20
1519.851319001524
 30
0.0
 11
422.7080511768465
 21
1022.850862086985
 31
0.0
  0
LINE
  5
4009
330
A
100
AcDbEntity
  8
MODEL
100
AcDbLine
 10
888.5742102926283
 20
1522.850862086984
 30
0.0
 11
425.7080511768404
 21
1522.850862086986
 31
0.0
  0
ARC
  5
400A
330
A
100
AcDbEntity
  8
MODEL
100
AcDbCircle
 10
888.5742102926274
 20
1518.850862086984
 30
0.0
 40
4.0
100
AcDbArc
 50
0.0
 51
89.99999999998697
  0
ELLIPSE
  5
400B
102
{ACAD_REACTORS
330
4361
102
}
330
A
100
AcDbEntity
  8
MODEL
100
AcDbEllipse
 10
425.7080511768404
 20
1519.851319001524
 30
0.0
 11
-3.0
 21
8.476042572204118E-15
 31
0.0
210
0.0
220
0.0
230
-1.0
 40
0.999847695156391
 41
0.0
 42
1.570796326794894
  0
SPLINE
  5
400C
330
A
100
AcDbEntity
  8
MODEL
100
AcDbSpline
210
0.0
220
0.0
230
1.0
 70
     8
 71
     3
 72
    30
 73
    26
 74
     0
 42
0.000000001
 43
0.0000000001
 40
0.0
 40
0.0
 40
0.0
 40
0.0
 40
0.0625
 40
0.125
 40
0.1875
 40
0.21875
 40
0.25
 40
0.28125
 40
0.3125
 40
0.34375
 40
0.375
 40
0.40625
 40
0.4375
 40
0.453125
 40
0.46875
 40
0.484375
 40
0.5
 40
0.53125
 40
0.5625
 40
0.59375
 40
0.625
 40
0.65625
 40
0.6875
 40
0.75
 40
0.7553931851320355
 40
0.7553931851320355
 40
0.7553931851320355
 40
0.7553931851320355
 10
834.4215087947127
 20
1519.732164602321
 30
0.0
 10
836.5194742374556
 20
1519.706319976658
 30
0.0
 10
840.7151450826173
 20
1519.63521912812
 30
0.0
 10
847.0080456931214
 20
1519.498309733973
 30
0.0
 10
852.251503272641
 20
1519.358590297461
 30
0.0
 10
856.4453715503373
 20
1519.214867322678
 30
0.0
 10
859.5896374054178
 20
1519.079184013318
 30
0.0
 10
862.7319757636837
 20
1518.902682633737
 30
0.0
 10
865.870145874786
 20
1518.661153068971
 30
0.0
 10
868.9991497513879
 20
1518.317963807845
 30
0.0
 10
872.1074646408056
 20
1517.814671598405
 30
0.0
 10
875.166480022785
 20
1517.057670795767
 30
0.0
 10
877.6153277448143
 20
1516.093291393599
 30
0.0
 10
879.432680060771
 20
1515.037870484027
 30
0.0
 10
880.6948244171185
 20
1514.093200935226
 30
0.0
 10
881.8293989011622
 20
1512.998325736321
 30
0.0
 10
883.1510014268392
 20
1511.363464957744
 30
0.0
 10
884.4393453663693
 20
1509.06504410763
 30
0.0
 10
885.528909545294
 20
1506.10582592644
 30
0.0
 10
886.3122974127223
 20
1503.055079106824
 30
0.0
 10
886.8923529767021
 20
1499.960751799475
 30
0.0
 10
887.3352309229126
 20
1496.844354197035
 30
0.0
 10
887.7991014297772
 20
1492.673479056132
 30
0.0
 10
888.0620852830436
 20
1489.355200739374
 30
0.0
 10
888.2147029826363
 20
1428.079704985746
 30
0.0
 10
888.2266589347403
 20
1422.904141180423
 30
0.0
  0
SPLINE
  5
400D
330
A
100
AcDbEntity
  8
MODEL
100
AcDbSpline
210
0.0
220
0.0
230
1.0
 70
     8
 71
     3
 72
    11
 73
     7
 74
     0
 42
0.000000001
 43
0.0000000001
 40
0.7978064071919668
 40
0.7978064071919668
 40
0.7978064071919668
 40
0.7978064071919668
 40
0.8125
 40
0.875
 40
0.9375
 40
1.0
 40
1.0
 40
1.0
 40
1.0
 10
888.4805471314944
 20
1374.839159880281
 30
0.0
 10
888.5069440209563
 20
1358.364049886095
 30
0.0
 10
888.6409088946909
 20
1279.502835283522
 30
0.0
 10
888.8445189580784
 20
1274.817689148681
 30
0.0
 10
889.0583948092212
 20
1268.526893487812
 30
0.0
 10
889.1654653602131
 20
1264.331970362546
 30
0.0
 10
889.208467623434
 20
1262.234287591972
 30
0.0
  0
LINE
  5
400E
330
A
100
AcDbEntity
  8
MODEL
100
AcDbLine
 10
547.7233211778353
 20
1499.8519493587
 30
0.0
 11
547.7221570146778
 21
1422.904141180423
 31
0.0
  0
LINE
  5
400F
330
A
100
AcDbEntity
  8
MODEL
100
AcDbLine
 10
547.7233211778355
 20
1499.851949358696
 30
0.0
 11
547.7154201429078
 21
1022.850862086985
 31
0.0
  0
ARC
  5
4010
330
A
100
AcDbEntity
  8
MODEL
100
AcDbCircle
 10
567.7233211679018
 20
1499.851319001524
 30
0.0
 40
20.0
100
AcDbArc
 50
90.0
 51
179.998194159722
  0
LINE
  5
4011
330
A
100
AcDbEntity
  8
MODEL
100
AcDbLine
 10
834.4215087947127
 20
1519.732164602321
 30
0.0
 11
567.4777750715334
 21
1519.849811622584
 31
0.0
  0
LINE
  5
4012
330
A
100
AcDbEntity
  8
MODEL
100
AcDbLine
 10
889.208467623434
 20
1262.234287591972
 30
0.0
 11
889.2084676234331
 21
1022.850862086985
 31
0.0
  0
ELLIPSE
  5
4013
330
A
100
AcDbEntity
  8
MODEL
100
AcDbEllipse
 10
550.776695619174
 20
1022.851507635097
 30
0.0
 11
3.390417028881647E-14
 21
12.0
 31
0.0
210
0.0
220
0.0
230
-1.0
 40
0.0874886635259221
 41
4.712335184708677
 42
7.854035429650494
  0
ARC
  5
4016
330
A
100
AcDbEntity
  8
MODEL
100
AcDbCircle
 10
632.7080511768468
 20
1022.850862086985
 30
0.0
 40
22.5
100
AcDbArc
 50
180.0000000002131
 51
359.9999999997962
  0
ARC
  5
4017
330
A
100
AcDbEntity
  8
MODEL
100
AcDbCircle
 10
632.7080511768468
 20
1022.850862086985
 30
0.0
 40
37.5
100
AcDbArc
 50
180.0000000002112
 51
359.9999999997943
  0
CIRCLE
  5
4018
102
{ACAD_REACTORS
330
43CA
102
}
330
A
100
AcDbEntity
  8
MODEL
  6
HIDDEN
 48
0.5
100
AcDbCircle
 10
489.7096112623681
 20
1272.850862086985
 30
0.0
 40
16.0
  0
LINE
  5
4019
330
A
100
AcDbEntity
  8
MODEL
100
AcDbLine
 10
888.2266589347403
 20
1422.904141180423
 30
0.0
 11
888.4805471314944
 21
1374.839159880281
 31
0.0
  0
LINE
  5
4021
330
A
100
AcDbEntity
  8
MODEL
100
AcDbLine
 10
1577.837169698199
 20
970.8795991249499
 30
0.0
 11
1577.837169698199
 21
1022.800042213419
 31
0.0
  0
LINE
  5
4022
330
A
100
AcDbEntity
  8
MODEL
100
AcDbLine
 10
1697.837169698199
 20
970.8795991249497
 30
0.0
 11
1697.8371696982
 21
528.7380337759557
 31
0.0
  0
LINE
  5
4067
330
A
100
AcDbEntity
  8
MODEL
100
AcDbLine
 10
1697.8371696982
 20
1516.862050650883
 30
0.0
 11
1697.8371696982
 21
1517.861441599679
 31
0.0
  0
LINE
  5
4068
330
A
100
AcDbEntity
  8
MODEL
100
AcDbLine
 10
1694.889526917513
 20
1520.860984685155
 30
0.0
 11
1580.889526917513
 21
1522.850862086978
 31
0.0
  0
LINE
  5
4069
330
A
100
AcDbEntity
  8
MODEL
100
AcDbLine
 10
1577.8371696982
 20
1519.851319001516
 30
0.0
 11
1577.8371696982
 21
1518.85192805269
 31
0.0
  0
LINE
  5
406A
330
A
100
AcDbEntity
  8
MODEL
100
AcDbLine
 10
1577.8371696982
 20
1518.85192805269
 30
0.0
 11
1577.837169698199
 21
1074.720485301888
 31
0.0
  0
LINE
  5
406B
330
A
100
AcDbEntity
  8
MODEL
100
AcDbLine
 10
1577.837169698199
 20
1074.720485301888
 30
0.0
 11
1577.837169698199
 21
1022.800042213419
 31
0.0
  0
LINE
  5
406C
330
A
100
AcDbEntity
  8
MODEL
100
AcDbLine
 10
1731.837169698199
 20
1054.051048691382
 30
0.0
 11
1731.837169698199
 21
1022.800042213419
 31
0.0
  0
LINE
  5
406D
102
{ACAD_REACTORS
330
4333
102
}
330
A
100
AcDbEntity
  8
MODEL
100
AcDbLine
 10
1729.098636926442
 20
1057.039632785657
 30
0.0
 11
1729.098636926442
 21
1022.800042213419
 31
0.0
  0
LINE
  5
406E
330
A
100
AcDbEntity
  8
MODEL
100
AcDbLine
 10
1701.723532120463
 20
1059.434644119012
 30
0.0
 11
1729.098636926442
 21
1057.039632785657
 31
0.0
  0
LINE
  5
406F
330
A
100
AcDbEntity
  8
MODEL
100
AcDbLine
 10
1697.837169698199
 20
1022.800042213419
 30
0.0
 11
1697.837169698199
 21
1074.720485301889
 31
0.0
  0
LINE
  5
4070
330
A
100
AcDbEntity
  8
MODEL
100
AcDbLine
 10
1697.837169698199
 20
1074.720485301889
 30
0.0
 11
1697.8371696982
 21
1516.862050650883
 31
0.0
  0
ARC
  5
4071
330
A
100
AcDbEntity
  8
MODEL
100
AcDbCircle
 10
1694.8371696982
 20
1517.861441599679
 30
0.0
 40
3.0
100
AcDbArc
 50
0.0
 51
89.00000000000692
  0
ARC
  5
4072
102
{ACAD_REACTORS
330
4352
102
}
330
A
100
AcDbEntity
  8
MODEL
100
AcDbCircle
 10
1580.8371696982
 20
1519.851319001516
 30
0.0
 40
3.0
100
AcDbArc
 50
89.00000000000692
 51
180.0
  0
ARC
  5
4073
330
A
100
AcDbEntity
  8
MODEL
100
AcDbCircle
 10
1728.837169698199
 20
1054.051048691382
 30
0.0
 40
3.0
100
AcDbArc
 50
0.0
 51
85.00000000000882
  0
SPLINE
  5
4074
330
A
100
AcDbEntity
  8
MODEL
100
AcDbSpline
210
0.0
220
0.0
230
1.0
 70
     8
 71
     3
 72
    12
 73
     8
 74
     0
 42
0.000000001
 43
0.0000000001
 40
0.0
 40
0.0
 40
0.0
 40
0.0
 40
0.3302631184266158
 40
0.3302631184266158
 40
0.665131559213308
 40
0.665131559213308
 40
1.0
 40
1.0
 40
1.0
 40
1.0
 10
1697.762740522768
 20
1060.900136948824
 30
0.0
 10
1698.145259902368
 20
1060.626191734931
 30
0.0
 10
1698.551999639493
 20
1060.386078128589
 30
0.0
 10
1699.407248027003
 20
1059.978144827239
 30
0.0
 10
1699.856245352333
 20
1059.811386918298
 30
0.0
 10
1700.776763532564
 20
1059.56042450624
 30
0.0
 10
1701.248268697286
 20
1059.476224280717
 30
0.0
 10
1701.723510958886
 20
1059.434645970395
 30
0.0
  0
CIRCLE
  5
4075
102
{ACAD_REACTORS
330
407E
102
}
330
A
100
AcDbEntity
  8
ADF70-0001
  6
STYLE_23
 62
     7
370
    15
390
1D
100
AcDbCircle
 10
1622.8371696982
 20
1162.800042213419
 30
0.0
 40
10.0
  0
LINE
  5
4076
102
{ACAD_REACTORS
330
409C
102
}
330
A
100
AcDbEntity
  8
0
  6
STYLE_23
 62
     7
370
    15
390
1D
100
AcDbLine
 10
1607.868249629157
 20
1163.023887033596
 30
0.0
 11
1637.868249629156
 21
1163.023887033596
 31
0.0
  0
DIMENSION
  5
407C
102
{ACAD_REACTORS
330
407E
102
}
102
{ACAD_XDICTIONARY
360
407D
102
}
330
A
100
AcDbEntity
  8
DIM
100
AcDbDimension
  2
*D11
 10
1492.422996641302
 20
882.5761973932421
 30
0.0
 11
1460.418494953169
 21
1022.688119803331
 31
0.0
 70
    32
 71
     5
 42
280.2238448201771
 73
     0
 74
     0
 75
     0
  3
tfrom線あり
100
AcDbAlignedDimension
 13
1622.8371696982
 23
1162.800042213419
 33
0.0
 14
1622.868249629156
 24
882.5761973932421
 34
0.0
 50
90.0
100
AcDbRotatedDimension
  0
DIMENSION
  5
408B
102
{ACAD_REACTORS
330
408D
102
}
102
{ACAD_XDICTIONARY
360
408C
102
}
330
A
100
AcDbEntity
  8
DIM
100
AcDbDimension
  2
*D12
 10
1492.422996641302
 20
882.5761973932421
 30
0.0
 11
1460.41849495317
 21
802.4642749831547
 31
0.0
 70
    32
 71
     5
 42
160.2238448201747
 73
     0
 74
     0
 75
     0
  3
tfrom線あり
100
AcDbAlignedDimension
 13
1622.899329560113
 23
722.3523525730674
 33
0.0
 14
1622.868249629156
 24
882.5761973932421
 34
0.0
 50
90.0
100
AcDbRotatedDimension
  0
DIMENSION
  5
409A
102
{ACAD_REACTORS
330
409C
102
}
102
{ACAD_XDICTIONARY
360
409B
102
}
330
A
100
AcDbEntity
  8
DIM
100
AcDbDimension
  2
*D13
 10
1492.422996641302
 20
1323.023887033596
 30
0.0
 11
1460.418494953169
 21
1243.023887033596
 31
0.0
 70
    32
 71
     5
 42
160.0
 73
     0
 74
     0
 75
     0
  3
tfrom線あり
100
AcDbAlignedDimension
 13
1622.868249629156
 23
1163.023887033596
 33
0.0
 14
1622.868249629156
 24
1323.023887033596
 34
0.0
 50
90.0
100
AcDbRotatedDimension
  0
MTEXT
  5
40C9
330
A
100
AcDbEntity
  8
TEMPLATE
 62
     7
390
1D
100
AcDbMText
 10
124.425192606466
 20
314.932714980099
 30
0.0
 40
24.4326171875
 41
0.0
 46
27.53672361022102
 71
     1
 72
     1
  1
{洗面器 -CATALANO,New Premium-}
  7
ＭＳ ゴシック
 73
     1
 44
0.7828267384257843
1001
ACAD
1000
ACAD_MTEXT_DEFINED_HEIGHT_BEGIN
1070
    46
1040
27.53672361022102
1000
ACAD_MTEXT_DEFINED_HEIGHT_END
  0
MTEXT
  5
40E4
330
A
100
AcDbEntity
  8
TEMPLATE
 62
     7
390
1D
100
AcDbMText
 10
120.6996353355408
 20
221.7516088068593
 30
0.0
 40
24.4326171875
 41
0.0
 46
75.57584750198177
 71
     1
 72
     1
  1
{壁掛け,カウンタ ー置き/オーバーフロー付き/壁取付ボルト付属/\P陶器/ホワイト}
  7
ＭＳ ゴシック
 73
     1
 44
1.130749733281688
1001
ACAD
1000
ACAD_MTEXT_DEFINED_HEIGHT_BEGIN
1070
    46
1040
75.57584750198177
1000
ACAD_MTEXT_DEFINED_HEIGHT_END
  0
DIMENSION
  5
4331
102
{ACAD_REACTORS
330
4333
102
}
102
{ACAD_XDICTIONARY
360
4332
102
}
330
A
100
AcDbEntity
  8
DIM
100
AcDbDimension
  2
*D14
 10
1871.987560579302
 20
1022.800042213419
 30
0.0
 11
1839.98305889117
 21
772.875511090567
 31
0.0
 70
    32
 71
     5
 42
499.8490622457042
 73
     0
 74
     0
 75
     0
  3
tfrom線あり
100
AcDbAlignedDimension
 13
1688.053146165159
 23
522.9509799677149
 33
0.0
 14
1729.098636926442
 24
1022.800042213419
 34
0.0
 50
90.0
100
AcDbRotatedDimension
  0
DIMENSION
  5
4340
330
A
100
AcDbEntity
  8
DIM
100
AcDbDimension
  2
*D15
 10
1577.8371696982
 20
455.6746478990084
 30
0.0
 11
1600.352709663679
 21
487.6791495871415
 31
0.0
 70
    32
 71
     5
 42
45.03107993095659
 73
     0
 74
     1
 75
     1
  3
tfrom線あり
100
AcDbAlignedDimension
 13
1622.868249629157
 23
534.6890020026686
 33
0.0
 14
1577.8371696982
 24
534.4065341833686
 34
0.0
100
AcDbRotatedDimension
1001
ACAD
1000
DSTYLE
1002
{
1070
   172
1070
     1
1002
}
  0
DIMENSION
  5
4350
102
{ACAD_REACTORS
330
4352
102
}
102
{ACAD_XDICTIONARY
360
4351
102
}
330
A
100
AcDbEntity
  8
DIM
100
AcDbDimension
  2
*D16
 10
1731.837169698199
 20
1636.2044346515
 30
0.0
 11
1654.905184312973
 21
1668.208936339634
 31
0.0
 70
    32
 71
     5
 42
153.8639707704524
 73
     0
 74
     0
 75
     0
  3
tfrom線あり
100
AcDbAlignedDimension
 13
1577.973198927747
 23
1520.744443531461
 33
0.0
 14
1731.837169698199
 24
1058.404761230605
 34
0.0
100
AcDbRotatedDimension
  0
DIMENSION
  5
435F
102
{ACAD_REACTORS
330
4361
102
}
102
{ACAD_XDICTIONARY
360
4360
102
}
330
A
100
AcDbEntity
  8
DIM
100
AcDbDimension
  2
*D17
 10
892.5742102926274
 20
1629.959477036637
 30
0.0
 11
657.641130734734
 21
1629.959477036637
 31
0.0
 70
   160
 71
     5
 42
469.866159115787
 73
     0
 74
     0
 75
     0
  3
tfrom線あり
100
AcDbAlignedDimension
 13
422.7080511768404
 23
1519.851319001524
 33
0.0
 14
892.5742102926274
 24
1519.851319001523
 34
0.0
100
AcDbRotatedDimension
  0
DIMENSION
  5
436E
330
A
100
AcDbEntity
  8
DIM
100
AcDbDimension
  2
*D18
 10
1037.000674604591
 20
1519.851319001523
 30
0.0
 11
1005.000674604591
 21
1022.90736196687
 31
0.0
 70
    32
  1
990
 71
     5
 42
993.8879140693052
 73
     0
 74
     0
 75
     0
  3
tfrom線あり
100
AcDbAlignedDimension
 13
892.4745205108602
 23
525.9634049322178
 33
0.0
 14
892.5742102926274
 24
1519.851319001523
 34
0.0
 50
90.0
100
AcDbRotatedDimension
  0
DIMENSION
  5
437D
330
A
100
AcDbEntity
  8
DIM
100
AcDbDimension
  2
*D19
 10
888.0014969376202
 20
424.978488971751
 30
0.0
 11
717.8622545212952
 21
456.9829906598841
 31
0.0
 70
    32
 71
     5
 42
340.2784848326501
 73
     0
 74
     0
 75
     0
  3
tfrom線あり
100
AcDbAlignedDimension
 13
547.7230121049702
 23
522.8508620869846
 33
0.0
 14
888.0014969376202
 24
522.8508620869857
 34
0.0
100
AcDbRotatedDimension
  0
DIMENSION
  5
438C
330
A
100
AcDbEntity
  8
DIM
100
AcDbDimension
  2
*D20
 10
422.7080511768476
 20
424.978488971751
 30
0.0
 11
485.2155316409089
 21
456.9829906598841
 31
0.0
 70
    32
 71
     5
 42
125.0149609281225
 73
     0
 74
     0
 75
     0
  3
tfrom線あり
100
AcDbAlignedDimension
 13
547.7230121049702
 23
522.8508620869846
 33
0.0
 14
422.7080511768476
 24
522.9276033041025
 34
0.0
100
AcDbRotatedDimension
  0
DIMENSION
  5
439B
102
{ACAD_REACTORS
330
439D
102
}
102
{ACAD_XDICTIONARY
360
439C
102
}
330
A
100
AcDbEntity
  8
DIM
100
AcDbDimension
  2
*D21
 10
338.4457593884779
 20
922.8508620869848
 30
0.0
 11
306.4412577003449
 21
847.8508620869848
 31
0.0
 70
    32
 71
     5
 42
150.0
 73
     0
 74
     0
 75
     0
  3
tfrom線あり
100
AcDbAlignedDimension
 13
489.7096112623681
 23
772.8508620869848
 33
0.0
 14
489.7096112623681
 24
922.8508620869848
 34
0.0
 50
90.0
100
AcDbRotatedDimension
  0
DIMENSION
  5
43AA
102
{ACAD_REACTORS
330
43AC
102
}
102
{ACAD_XDICTIONARY
360
43AB
102
}
330
A
100
AcDbEntity
  8
DIM
100
AcDbDimension
  2
*D22
 10
338.4457593884779
 20
1022.850862086985
 30
0.0
 11
306.4412577003449
 21
972.8508620869849
 31
0.0
 70
    32
 71
     5
 42
100.0000000000002
 73
     0
 74
     0
 75
     0
  3
tfrom線あり
100
AcDbAlignedDimension
 13
489.7096112623681
 23
922.8508620869848
 33
0.0
 14
489.7096112623681
 24
1022.850862086985
 34
0.0
 50
90.0
100
AcDbRotatedDimension
  0
DIMENSION
  5
43B9
102
{ACAD_REACTORS
330
43BB
102
}
102
{ACAD_XDICTIONARY
360
43BA
102
}
330
A
100
AcDbEntity
  8
DIM
100
AcDbDimension
  2
*D23
 10
338.4457593884779
 20
1122.850862086985
 30
0.0
 11
306.4412577003447
 21
1072.850862086985
 31
0.0
 70
    32
 71
     5
 42
100.0000000000002
 73
     0
 74
     0
 75
     0
  3
tfrom線あり
100
AcDbAlignedDimension
 13
489.7096112623681
 23
1022.850862086985
 33
0.0
 14
489.7096112623681
 24
1122.850862086985
 34
0.0
 50
90.0
100
AcDbRotatedDimension
  0
DIMENSION
  5
43C8
102
{ACAD_REACTORS
330
43CA
102
}
102
{ACAD_XDICTIONARY
360
43C9
102
}
330
A
100
AcDbEntity
  8
DIM
100
AcDbDimension
  2
*D24
 10
338.4457593884779
 20
1272.850862086985
 30
0.0
 11
306.4412577003447
 21
1197.850862086985
 31
0.0
 70
    32
 71
     5
 42
150.0
 73
     0
 74
     0
 75
     0
  3
tfrom線あり
100
AcDbAlignedDimension
 13
489.7096112623681
 23
1122.850862086985
 33
0.0
 14
489.7096112623681
 24
1272.850862086985
 34
0.0
 50
90.0
100
AcDbRotatedDimension
  0
DIMENSION
  5
43D7
102
{ACAD_REACTORS
330
43D9
102
}
102
{ACAD_XDICTIONARY
360
43D8
102
}
330
A
100
AcDbEntity
  8
DIM
100
AcDbDimension
  2
*D25
 10
242.9286529486855
 20
1522.942469541237
 30
0.0
 11
210.9241512605523
 21
1022.93503642267
 31
0.0
 70
    32
 71
     5
 42
1000.014866237135
 73
     0
 74
     0
 75
     0
  3
tfrom線あり
100
AcDbAlignedDimension
 13
422.7080511768476
 23
522.9276033041025
 33
0.0
 14
422.7080511768476
 24
1522.942469541237
 34
0.0
 50
90.0
100
AcDbRotatedDimension
  0
LINE
  5
43ED
330
A
100
AcDbEntity
  8
MODEL
100
AcDbLine
 10
422.7080511768429
 20
2366.168985620197
 30
0.0
 11
422.7080511768429
 21
2036.168985620197
 31
0.0
  0
CIRCLE
  5
4407
330
A
100
AcDbEntity
  8
ADF70-0001
  6
STYLE_23
 62
     7
370
    15
390
1D
100
AcDbCircle
 10
1622.868249629156
 20
1323.023887033596
 30
0.0
 40
10.0
  0
LINE
  5
4408
102
{ACAD_REACTORS
330
408D
102
}
330
A
100
AcDbEntity
  8
0
  6
STYLE_23
 62
     7
370
    15
390
1D
100
AcDbLine
 10
1607.899329560113
 20
1323.247731853771
 30
0.0
 11
1637.899329560112
 21
1323.247731853771
 31
0.0
  0
LINE
  5
441E
102
{ACAD_REACTORS
330
4424
330
4427
102
}
330
A
100
AcDbEntity
  8
MODEL
100
AcDbLine
 10
452.7080511768429
 20
2516.168985620215
 30
0.0
 11
452.7080511768429
 21
1886.168985620214
 31
0.0
  0
HATCH
  5
4424
330
A
100
AcDbEntity
  8
DIM
100
AcDbHatch
 10
0.0
 20
0.0
 30
0.0
210
0.0
220
0.0
230
1.0
  2
ANSI31
 70
     0
 71
     1
 91
        1
 92
        1
 93
        4
 72
     1
 10
452.7080511768429
 20
2516.168985620215
 11
452.7080511768429
 21
1886.168985620214
 72
     1
 10
452.7080511768429
 20
1886.168985620214
 11
722.0034097390853
 21
1886.168985620215
 72
     1
 10
722.0034097390887
 20
1886.168985620215
 11
722.0034097390869
 21
2516.168985620216
 72
     1
 10
722.0034097390908
 20
2516.168985620216
 11
452.7080511768429
 21
2516.168985620215
 97
        4
330
441E
330
3E7B
330
3E7A
330
3E7C
 75
     0
 76
     1
 52
0.0
 41
6.0
 77
     0
 78
     1
 53
45.0
 43
0.0
 44
0.0
 45
-13.47038418160373
 46
13.47038418160373
 79
     0
 98
        1
 10
0.0
 20
0.0
1001
ACAD
1010
0.0
1020
0.0
1030
0.0
  0
DIMENSION
  5
4425
102
{ACAD_REACTORS
330
4427
102
}
102
{ACAD_XDICTIONARY
360
4426
102
}
330
A
100
AcDbEntity
  8
DIM
100
AcDbDimension
  2
*D26
 10
422.7080511768429
 20
2640.610436352819
 30
0.0
 11
437.7080511768429
 21
2672.614938040952
 31
0.0
 70
    32
 71
     5
 42
30.0
 73
     0
 74
     1
 75
     1
  3
tfrom線あり
100
AcDbAlignedDimension
 13
452.7080511768429
 23
2516.168985620215
 33
0.0
 14
422.7080511768429
 24
2516.168985620215
 34
0.0
100
AcDbRotatedDimension
1001
ACAD
1000
DSTYLE
1002
{
1070
   172
1070
     1
1002
}
  0
MTEXT
  5
444F
330
A
100
AcDbEntity
  8
notes
 62
     7
390
1D
100
AcDbMText
 10
1221.982520903845
 20
1860.226642899407
 30
0.0
 40
24.4326171875
 41
1126.25550512907
 46
71.16877975708351
 71
     1
 72
     1
  1
{\pxt15;※カウンターの切込寸法は、\P　水栓穴の数や位置に合わせて調整してください。}
  7
ＭＳ ゴシック
 11
0.0
 21
1.0
 31
0.0
 73
     1
 44
1.043768984567712
1001
ACAD
1000
ACAD_MTEXT_DEFINED_HEIGHT_BEGIN
1070
    46
1040
71.16877975708351
1000
ACAD_MTEXT_DEFINED_HEIGHT_END
  0
VIEWPORT
  5
349
330
B
100
AcDbEntity
 67
     1
  8
0
100
AcDbViewport
 10
202.5
 20
128.5
 30
0.0
 40
486.0
 41
308.4
 68
     1
 69
     1
 12
202.5
 22
128.5
 13
0.0
 23
0.0
 14
0.5
 24
0.5
 15
0.0
 25
0.0
 16
0.0
 26
0.0
 36
1.0
 17
0.0
 27
0.0
 37
0.0
 42
50.0
 43
0.0
 44
0.0
 45
308.4
 50
0.0
 51
0.0
 72
   100
 90
   557152
  1

281
     0
 71
     1
 74
     0
110
0.0
120
0.0
130
0.0
111
1.0
121
0.0
131
0.0
112
0.0
122
1.0
132
0.0
 79
     0
146
0.0
170
     0
 61
     5
348
26C
292
     1
282
     1
141
0.0
142
0.0
 63
   256
  0
VIEWPORT
  5
34A
330
B
100
AcDbEntity
 67
     1
  8
0
100
AcDbViewport
 10
202.5
 20
128.5
 30
0.0
 40
324.0
 41
205.6
 68
     2
 69
     2
 12
986.6781359294573
 22
1427.077061889956
 13
0.0
 23
0.0
 14
0.5
 24
0.5
 15
0.0
 25
0.0
 16
0.0
 26
0.0
 36
1.0
 17
0.0
 27
0.0
 37
0.0
 42
50.0
 43
0.0
 44
0.0
 45
2890.021615685494
 50
0.0
 51
0.0
 72
   100
 90
   557152
  1

281
     0
 71
     1
 74
     0
110
0.0
120
0.0
130
0.0
111
1.0
121
0.0
131
0.0
112
0.0
122
1.0
132
0.0
 79
     0
146
0.0
170
     0
 61
     5
348
26C
292
     1
282
     1
141
0.0
142
0.0
 63
   256
  0
ENDSEC
  0
SECTION
  2
OBJECTS
  0
DICTIONARY
  5
19
330
0
100
AcDbDictionary
281
     1
  3
ACAD_COLOR
350
674
  3
ACAD_DETAILVIEWSTYLE
350
BBF
  3
ACAD_FIELDLIST
350
146A
  3
ACAD_GROUP
350
1A
  3
ACAD_IMAGE_VARS
350
27B
  3
ACAD_LAYOUT
350
1E
  3
ACAD_MATERIAL
350
263
  3
ACAD_MLEADERSTYLE
350
336
  3
ACAD_MLINESTYLE
350
1B
  3
ACAD_PLOTSETTINGS
350
22
  3
ACAD_PLOTSTYLENAME
350
1F
  3
ACAD_SCALELIST
350
241
  3
ACAD_SECTIONVIEWSTYLE
350
BC0
  3
ACAD_TABLESTYLE
350
278
  3
ACAD_VISUALSTYLE
350
267
  3
ACDB_RECOMPOSE_DATA
350
4468
  3
AcDbVariableDictionary
350
330
  3
APPDATA
350
27A
  3
DimOffsetDictionary
350
E3E
  0
SUN
  5
904
330
15
100
AcDbSun
 90
        1
290
     0
 63
     7
421
 16777215
 40
1.0
291
     1
 91
  2455826
 92
 54000000
292
     0
 70
     2
 71
   256
280
     1
  0
DICTIONARY
  5
2E1
330
2
100
AcDbDictionary
280
     1
281
     1
  3
ACAD_LAYERSTATES
360
2E2
  3
ACLYDICTIONARY
360
DF9
  0
DICTIONARY
  5
374D
330
A
100
AcDbDictionary
280
     1
281
     1
  3
ACAD_SORTENTS
360
374E
  0
DICTIONARY
  5
1468
330
1466
100
AcDbDictionary
280
     1
281
     1
  0
DICTIONARY
  5
3ED7
330
3ED6
100
AcDbDictionary
280
     1
281
     1
  3
ACAD_DIMASSOC
360
3ED8
  0
DICTIONARY
  5
3EDA
330
3ED9
100
AcDbDictionary
280
     1
281
     1
  3
ACAD_DIMASSOC
360
3EDB
  0
DICTIONARY
  5
3EDD
330
3EDC
100
AcDbDictionary
280
     1
281
     1
  3
ACAD_DIMASSOC
360
3EDE
  0
DICTIONARY
  5
3EE0
330
3EDF
100
AcDbDictionary
280
     1
281
     1
  3
ACAD_DIMASSOC
360
3EE1
  0
DICTIONARY
  5
3EE5
330
3EE4
100
AcDbDictionary
280
     1
281
     1
  3
ACAD_DIMASSOC
360
3EE6
  0
DICTIONARY
  5
407D
330
407C
100
AcDbDictionary
280
     1
281
     1
  3
ACAD_DIMASSOC
360
407E
  0
DICTIONARY
  5
408C
330
408B
100
AcDbDictionary
280
     1
281
     1
  3
ACAD_DIMASSOC
360
408D
  0
DICTIONARY
  5
409B
330
409A
100
AcDbDictionary
280
     1
281
     1
  3
ACAD_DIMASSOC
360
409C
  0
DICTIONARY
  5
4332
330
4331
100
AcDbDictionary
280
     1
281
     1
  3
ACAD_DIMASSOC
360
4333
  0
DICTIONARY
  5
4351
330
4350
100
AcDbDictionary
280
     1
281
     1
  3
ACAD_DIMASSOC
360
4352
  0
DICTIONARY
  5
4360
330
435F
100
AcDbDictionary
280
     1
281
     1
  3
ACAD_DIMASSOC
360
4361
  0
DICTIONARY
  5
439C
330
439B
100
AcDbDictionary
280
     1
281
     1
  3
ACAD_DIMASSOC
360
439D
  0
DICTIONARY
  5
43AB
330
43AA
100
AcDbDictionary
280
     1
281
     1
  3
ACAD_DIMASSOC
360
43AC
  0
DICTIONARY
  5
43BA
330
43B9
100
AcDbDictionary
280
     1
281
     1
  3
ACAD_DIMASSOC
360
43BB
  0
DICTIONARY
  5
43C9
330
43C8
100
AcDbDictionary
280
     1
281
     1
  3
ACAD_DIMASSOC
360
43CA
  0
DICTIONARY
  5
43D8
330
43D7
100
AcDbDictionary
280
     1
281
     1
  3
ACAD_DIMASSOC
360
43D9
  0
DICTIONARY
  5
4426
330
4425
100
AcDbDictionary
280
     1
281
     1
  3
ACAD_DIMASSOC
360
4427
  0
DICTIONARY
  5
674
102
{ACAD_REACTORS
330
19
102
}
330
19
100
AcDbDictionary
281
     1
  0
DICTIONARY
  5
BBF
102
{ACAD_REACTORS
330
19
102
}
330
19
100
AcDbDictionary
281
     1
  0
FIELDLIST
  5
146A
102
{ACAD_REACTORS
330
19
102
}
330
19
100
AcDbIdSet
 90
        0
100
AcDbFieldList
  0
DICTIONARY
  5
1A
102
{ACAD_REACTORS
330
19
102
}
330
19
100
AcDbDictionary
281
     1
  3
*A1
350
36AC
  0
RASTERVARIABLES
  5
27B
102
{ACAD_REACTORS
330
19
102
}
330
19
100
AcDbRasterVariables
 90
        0
 70
     1
 71
     1
 72
     1
  0
DICTIONARY
  5
1E
102
{ACAD_REACTORS
330
19
102
}
330
19
100
AcDbDictionary
281
     1
  3
Layout1
350
21
  3
Model
350
20
  0
DICTIONARY
  5
263
102
{ACAD_REACTORS
330
19
102
}
330
19
100
AcDbDictionary
281
     1
  3
ByBlock
350
265
  3
ByLayer
350
264
  3
Global
350
266
  0
DICTIONARY
  5
336
102
{ACAD_REACTORS
330
19
102
}
330
19
100
AcDbDictionary
281
     1
  3
Standard
350
DAB
  0
DICTIONARY
  5
1B
102
{ACAD_REACTORS
330
19
102
}
330
19
100
AcDbDictionary
281
     1
  3
Standard
350
1C
  0
DICTIONARY
  5
22
102
{ACAD_REACTORS
330
19
102
}
330
19
100
AcDbDictionary
281
     1
  0
ACDBDICTIONARYWDFLT
  5
1F
102
{ACAD_REACTORS
330
19
102
}
330
19
100
AcDbDictionary
281
     1
  3
Normal
350
1D
100
AcDbDictionaryWithDefault
340
1D
  0
DICTIONARY
  5
241
102
{ACAD_REACTORS
330
19
102
}
330
19
100
AcDbDictionary
281
     1
  3
A0
350
242
  3
A1
350
243
  3
A2
350
244
  3
A3
350
245
  3
A4
350
246
  3
A5
350
247
  3
A6
350
248
  3
A7
350
249
  3
A8
350
24A
  3
A9
350
24B
  3
B0
350
24C
  3
B1
350
24D
  3
B2
350
24E
  3
B3
350
24F
  3
B4
350
250
  3
B5
350
251
  3
B6
350
252
  3
B7
350
253
  3
B8
350
254
  3
B9
350
255
  3
C0
350
256
  3
C1
350
257
  3
C2
350
258
  3
C3
350
259
  3
C4
350
25A
  3
C5
350
25B
  3
C6
350
25C
  3
C7
350
25D
  3
C8
350
25E
  3
C9
350
25F
  3
D0
350
260
  3
D1
350
261
  3
D2
350
262
  0
DICTIONARY
  5
BC0
102
{ACAD_REACTORS
330
19
102
}
330
19
100
AcDbDictionary
281
     1
  0
DICTIONARY
  5
278
102
{ACAD_REACTORS
330
19
102
}
330
19
100
AcDbDictionary
281
     1
  3
Standard
350
279
  0
DICTIONARY
  5
267
102
{ACAD_REACTORS
330
19
102
}
330
19
100
AcDbDictionary
281
     1
  3
2dWireframe
350
26C
  3
3D Hidden
350
26E
  3
3dWireframe
350
26D
  3
Basic
350
26F
  3
Brighten
350
273
  3
ColorChange
350
277
  3
Conceptual
350
271
  3
Dim
350
272
  3
EdgeColorOff
350
8FE
  3
Facepattern
350
276
  3
Flat
350
268
  3
FlatWithEdges
350
269
  3
Gouraud
350
26A
  3
GouraudWithEdges
350
26B
  3
Hidden
350
8FB
  3
JitterOff
350
8FC
  3
Linepattern
350
275
  3
OverhangOff
350
8FD
  3
Realistic
350
270
  3
Shaded
350
903
  3
Shaded with edges
350
902
  3
Shades of Gray
350
8FF
  3
Sketchy
350
900
  3
Thicken
350
274
  3
Wireframe
350
8FA
  3
X-Ray
350
901
  0
XRECORD
  5
4468
102
{ACAD_REACTORS
330
19
102
}
330
19
100
AcDbXrecord
280
     1
 90
        1
330
279
  0
DICTIONARY
  5
330
102
{ACAD_REACTORS
330
19
102
}
330
19
100
AcDbDictionary
281
     1
  3
CANNOSCALE
350
331
  3
CMLEADERSTYLE
350
DB1
  3
CTABLESTYLE
350
335
  3
HPTRANSPARENCY
350
D52
  3
XCLIPFRAME
350
896
  0
DICTIONARY
  5
27A
102
{ACAD_REACTORS
330
19
102
}
330
19
100
AcDbDictionary
281
     1
  0
DICTIONARY
  5
E3E
102
{ACAD_REACTORS
330
19
102
}
330
19
100
AcDbDictionary
281
     1
  3
DIMRAILANGLE
350
ECE
  3
DIMRAILFIRSTOFFSET
350
ECC
  3
DIMRAILOFFSET
350
ECD
  3
DIMRAILSENABLED
350
ECF
  0
DICTIONARY
  5
2E2
102
{ACAD_REACTORS
330
2E1
102
}
330
2E1
100
AcDbDictionary
281
     1
  0
DICTIONARY
  5
DF9
102
{ACAD_REACTORS
330
2E1
102
}
330
2E1
100
AcDbDictionary
281
     1
1001
ACAD
1000
<All
  0
SORTENTSTABLE
  5
374E
102
{ACAD_REACTORS
330
374D
102
}
330
374D
100
AcDbSortentsTable
330
A
331
369B
  5
35AE
331
369C
  5
369A
331
36A7
  5
369B
331
36A8
  5
369C
331
36A9
  5
36A7
331
36AA
  5
36A8
331
36AB
  5
36A9
331
3E46
  5
3E47
331
3E49
  5
3E4B
331
3E4A
  5
3E4C
331
3E4B
  5
3E4D
331
3E4C
  5
3E4E
331
3E4E
  5
3E50
331
3E50
  5
3E52
331
3E51
  5
3E54
331
3E52
  5
3E55
331
3E54
  5
3E57
331
3E55
  5
3E58
331
3E58
  5
3E5C
331
3E59
  5
3E5D
331
3E5B
  5
3E5F
331
3E5E
  5
3E62
331
3E60
  5
3E64
331
3E61
  5
3E66
331
3E63
  5
3E68
331
3E64
  5
3E6A
331
3E65
  5
3E6B
331
3E68
  5
3E6E
331
3E69
  5
3E6F
331
3E6A
  5
3E70
331
3E6B
  5
3E71
331
3E6C
  5
3E72
331
3E6D
  5
3E73
331
3E6F
  5
3E75
331
3E71
  5
3E77
331
3E72
  5
3E78
331
3E73
  5
3E79
331
3E74
  5
3E7A
331
3E75
  5
3E7B
331
3E76
  5
3E7C
331
3E77
  5
3E7D
331
3E7A
  5
3EBF
331
3E7B
  5
3EC0
331
3E7C
  5
3EC1
331
3E7D
  5
3EC2
331
3E7E
  5
3EC3
331
3E7F
  5
3EC4
331
3E82
  5
3EC5
331
3E83
  5
3EC6
331
3E84
  5
3EC7
331
3E85
  5
3EC8
331
3E8D
  5
3EC9
331
3E8E
  5
3ECA
331
3EA0
  5
3ECB
331
3EA4
  5
3ECC
331
3EA7
  5
3ECD
331
3EA8
  5
3ECE
331
3EB5
  5
3ECF
331
3EB6
  5
3ED0
331
3EB7
  5
3ED1
331
3EB8
  5
3ED2
331
3EB9
  5
3ED3
331
3EBA
  5
3ED4
331
3EBB
  5
3ED5
331
3EBC
  5
3ED6
331
3EBD
  5
3ED9
331
3EBE
  5
3EDC
331
3EBF
  5
3EDF
331
3EC0
  5
3EE2
331
3EC1
  5
3EE4
331
3EC2
  5
3EE7
331
3EC3
  5
3EEA
331
3EC4
  5
3FF5
331
3EC5
  5
3FF6
331
3EC6
  5
3FF7
331
3EC7
  5
3FF8
331
3EC8
  5
3FF9
331
3EC9
  5
3FFA
331
3ECA
  5
4001
331
3ECB
  5
4005
331
3ECC
  5
4006
331
3ECD
  5
4007
331
3ECE
  5
4008
331
3ECF
  5
4009
331
3ED0
  5
400A
331
3ED1
  5
400B
331
3ED2
  5
400C
331
3ED3
  5
400D
331
3ED4
  5
400E
331
3ED6
  5
400F
331
3ED9
  5
4010
331
3EDC
  5
4011
331
3EDF
  5
4012
331
3EE2
  5
4013
331
3EE4
  5
4015
331
3EEA
  5
4019
331
3FF9
  5
3E48
331
3FFA
  5
3E69
331
3FFB
  5
3E46
331
3FFC
  5
3E65
331
3FFF
  5
401A
331
4003
  5
401B
331
4004
  5
4067
331
4005
  5
4068
331
4006
  5
4069
331
4007
  5
406A
331
4008
  5
406B
331
4009
  5
406C
331
400A
  5
406D
331
400B
  5
406E
331
400C
  5
406F
331
400D
  5
4070
331
400E
  5
4071
331
400F
  5
4072
331
4010
  5
4073
331
4011
  5
4074
331
4012
  5
4075
331
4013
  5
4076
331
4016
  5
4077
331
4017
  5
4078
331
4018
  5
407C
331
4019
  5
408B
331
4021
  5
3E53
331
4022
  5
3E59
331
4067
  5
409A
331
4068
  5
40C9
331
4069
  5
40E4
331
406A
  5
4331
331
406B
  5
4340
331
406C
  5
4350
331
406D
  5
437D
331
406E
  5
438C
331
406F
  5
439B
331
4070
  5
43AA
331
4071
  5
43B9
331
4072
  5
43C8
331
4073
  5
43D7
331
4074
  5
43EC
331
4075
  5
43ED
331
4076
  5
43EE
331
407C
  5
43EF
331
408B
  5
43F0
331
409A
  5
43F1
331
40C9
  5
43F2
331
40E4
  5
43F3
331
4331
  5
43F4
331
4340
  5
43F5
331
4350
  5
43FB
331
435F
  5
43FC
331
436E
  5
43FE
331
437D
  5
43FF
331
438C
  5
4400
331
439B
  5
4402
331
43AA
  5
4407
331
43B9
  5
4408
331
43C8
  5
4418
331
43D7
  5
4419
331
43ED
  5
441B
331
0
  5
441C
331
0
  5
441D
331
4407
  5
4420
331
4408
  5
4421
331
441E
  5
4423
331
4424
  5
3EBE
  0
DIMASSOC
  5
3ED8
102
{ACAD_REACTORS
330
3ED7
102
}
330
3ED7
100
AcDbDimAssoc
330
3ED6
 90
        3
 70
     0
 71
     1
  1
AcDbOsnapPointRef
 72
    10
331
3EC6
 73
     0
 91
        0
 40
0.9936493955795695
 10
0.0
 20
0.0
 30
0.0
 75
     0
  1
AcDbOsnapPointRef
 72
     1
331
3ECB
 73
     0
 91
        0
 40
0.0
 10
0.0
 20
0.0
 30
0.0
 75
     0
  0
DIMASSOC
  5
3EDB
102
{ACAD_REACTORS
330
3EDA
102
}
330
3EDA
100
AcDbDimAssoc
330
3ED9
 90
        1
 70
     0
 71
     1
  1
AcDbOsnapPointRef
 72
    13
331
3EC1
 73
     0
 91
        0
 40
0.0
 10
0.0
 20
0.0
 30
0.0
 75
     0
  0
DIMASSOC
  5
3EDE
102
{ACAD_REACTORS
330
3EDD
102
}
330
3EDD
100
AcDbDimAssoc
330
3EDC
 90
        2
 70
     0
 71
     1
  1
AcDbOsnapPointRef
 72
     8
331
3EC6
 73
     0
 91
        0
 40
0.2377738398527303
 10
0.0
 20
0.0
 30
0.0
 75
     1
  1
AcDbOsnapPointRef
 72
    10
331
3EC7
 73
     0
 91
        0
 40
0.4135827776532307
 10
0.0
 20
0.0
 30
0.0
 75
     0
  0
DIMASSOC
  5
3EE1
102
{ACAD_REACTORS
330
3EE0
102
}
330
3EE0
100
AcDbDimAssoc
330
3EDF
 90
        3
 70
     0
 71
     1
  1
AcDbOsnapPointRef
 72
    13
331
3EC0
 73
     0
 91
        0
 40
0.0
 10
0.0
 20
0.0
 30
0.0
 75
     0
  1
AcDbOsnapPointRef
 72
     2
331
3EBC
 73
     0
 91
        0
 40
0.5
 10
0.0
 20
0.0
 30
0.0
 75
     0
  0
DIMASSOC
  5
3EE6
102
{ACAD_REACTORS
330
3EE5
102
}
330
3EE5
100
AcDbDimAssoc
330
3EE4
 90
        3
 70
     0
 71
     1
  1
AcDbOsnapPointRef
 72
     1
331
3E7C
 73
     0
 91
        0
 40
0.0
 10
0.0
 20
0.0
 30
0.0
 75
     0
  1
AcDbOsnapPointRef
 72
     1
331
3E7B
 73
     0
 91
        0
 40
0.0
 10
0.0
 20
0.0
 30
0.0
 75
     0
  0
DIMASSOC
  5
407E
102
{ACAD_REACTORS
330
407D
102
}
330
407D
100
AcDbDimAssoc
330
407C
 90
        3
 70
     0
 71
     1
  1
AcDbOsnapPointRef
 72
     3
331
4075
 73
     0
 91
        0
 40
0.0
 10
0.0
 20
0.0
 30
0.0
 75
     0
  1
AcDbOsnapPointRef
 72
     2
331
3EA4
 73
     0
 91
        0
 40
0.5
 10
0.0
 20
0.0
 30
0.0
 75
     0
  0
DIMASSOC
  5
408D
102
{ACAD_REACTORS
330
408C
102
}
330
408C
100
AcDbDimAssoc
330
408B
 90
        3
 70
     0
 71
     1
  1
AcDbOsnapPointRef
 72
     2
331
3EA8
 73
     0
 91
        0
 40
0.5
 10
0.0
 20
0.0
 30
0.0
 75
     0
  1
AcDbOsnapPointRef
 72
     2
331
3EA4
 73
     0
 91
        0
 40
0.5
 10
0.0
 20
0.0
 30
0.0
 75
     0
  0
DIMASSOC
  5
409C
102
{ACAD_REACTORS
330
409B
102
}
330
409B
100
AcDbDimAssoc
330
409A
 90
        1
 70
     0
 71
     1
  1
AcDbOsnapPointRef
 72
     2
331
4076
 73
     0
 91
        0
 40
0.5
 10
0.0
 20
0.0
 30
0.0
 75
     0
  0
DIMASSOC
  5
4333
102
{ACAD_REACTORS
330
4332
102
}
330
4332
100
AcDbDimAssoc
330
4331
 90
        2
 70
     0
 71
     1
  1
AcDbOsnapPointRef
 72
     1
331
406D
 73
     0
 91
        0
 40
0.0
 10
0.0
 20
0.0
 30
0.0
 75
     0
  0
DIMASSOC
  5
4352
102
{ACAD_REACTORS
330
4351
102
}
330
4351
100
AcDbDimAssoc
330
4350
 90
        1
 70
     0
 71
     1
  1
AcDbOsnapPointRef
 72
    10
331
4072
 73
     0
 91
        0
 40
2.839301578641143
 10
0.0
 20
0.0
 30
0.0
 75
     0
  0
DIMASSOC
  5
4361
102
{ACAD_REACTORS
330
4360
102
}
330
4360
100
AcDbDimAssoc
330
435F
 90
        1
 70
     0
 71
     1
  1
AcDbOsnapPointRef
 72
    13
331
400B
 73
     0
 91
        0
 40
0.0
 10
0.0
 20
0.0
 30
0.0
 75
     0
  0
DIMASSOC
  5
439D
102
{ACAD_REACTORS
330
439C
102
}
330
439C
100
AcDbDimAssoc
330
439B
 90
        3
 70
     0
 71
     1
  1
AcDbOsnapPointRef
 72
     3
331
3E6F
 73
     0
 91
        0
 40
0.0
 10
0.0
 20
0.0
 30
0.0
 75
     0
  1
AcDbOsnapPointRef
 72
     3
331
3E43
 73
     0
 91
        0
 40
0.0
 10
0.0
 20
0.0
 30
0.0
 75
     0
  0
DIMASSOC
  5
43AC
102
{ACAD_REACTORS
330
43AB
102
}
330
43AB
100
AcDbDimAssoc
330
43AA
 90
        3
 70
     0
 71
     1
  1
AcDbOsnapPointRef
 72
     3
331
3E43
 73
     0
 91
        0
 40
0.0
 10
0.0
 20
0.0
 30
0.0
 75
     0
  1
AcDbOsnapPointRef
 72
     3
331
3E42
 73
     0
 91
        0
 40
0.0
 10
0.0
 20
0.0
 30
0.0
 75
     0
  0
DIMASSOC
  5
43BB
102
{ACAD_REACTORS
330
43BA
102
}
330
43BA
100
AcDbDimAssoc
330
43B9
 90
        3
 70
     0
 71
     1
  1
AcDbOsnapPointRef
 72
     3
331
3E42
 73
     0
 91
        0
 40
0.0
 10
0.0
 20
0.0
 30
0.0
 75
     0
  1
AcDbOsnapPointRef
 72
     3
331
4004
 73
     0
 91
        0
 40
0.0
 10
0.0
 20
0.0
 30
0.0
 75
     0
  0
DIMASSOC
  5
43CA
102
{ACAD_REACTORS
330
43C9
102
}
330
43C9
100
AcDbDimAssoc
330
43C8
 90
        3
 70
     0
 71
     1
  1
AcDbOsnapPointRef
 72
     3
331
4004
 73
     0
 91
        0
 40
0.0
 10
0.0
 20
0.0
 30
0.0
 75
     0
  1
AcDbOsnapPointRef
 72
     3
331
4018
 73
     0
 91
        0
 40
0.0
 10
0.0
 20
0.0
 30
0.0
 75
     0
  0
DIMASSOC
  5
43D9
102
{ACAD_REACTORS
330
43D8
102
}
330
43D8
100
AcDbDimAssoc
330
43D7
 90
        0
 70
     0
 71
     1
  0
DIMASSOC
  5
4427
102
{ACAD_REACTORS
330
4426
102
}
330
4426
100
AcDbDimAssoc
330
4425
 90
        1
 70
     0
 71
     1
  1
AcDbOsnapPointRef
 72
    13
331
441E
 73
     0
 91
        0
 40
0.0
 10
0.0
 20
0.0
 30
0.0
 75
     0
  0
GROUP
  5
36AC
102
{ACAD_REACTORS
330
1A
102
}
330
1A
100
AcDbGroup
300

 70
     1
 71
     1
340
369B
340
369C
340
36A7
340
36A8
340
36A9
340
36AA
340
36AB
  0
LAYOUT
  5
21
102
{ACAD_REACTORS
330
1E
102
}
330
1E
100
AcDbPlotSettings
  1

  2
none_device
  4
ISO_A3_(420.00_x_297.00_MM)
  6

 40
7.5
 41
20.0
 42
7.5
 43
20.0
 44
420.0
 45
297.0
 46
0.0
 47
0.0
 48
0.0
 49
0.0
140
0.0
141
0.0
142
1.0
143
1.0
 70
     0
 72
     1
 73
     0
 74
     0
  7

 75
     0
 76
     0
 77
     2
 78
   300
147
1.0
148
0.0
149
0.0
100
AcDbLayout
  1
Layout1
 70
     0
 71
     0
 10
-7.5
 20
-20.0
 11
412.5
 21
277.0
 12
0.0
 22
0.0
 32
0.0
 14
0.0
 24
0.0
 34
0.0
 15
0.0
 25
0.0
 35
0.0
146
0.0
 13
0.0
 23
0.0
 33
0.0
 16
0.0
 26
0.0
 36
0.0
 17
0.0
 27
0.0
 37
0.0
 76
     0
330
B
331
349
  0
LAYOUT
  5
20
102
{ACAD_REACTORS
330
1E
102
}
330
1E
100
AcDbPlotSettings
  1

  2
none_device
  4
ISO_A3_(420.00_x_297.00_MM)
  6

 40
7.5
 41
20.0
 42
7.5
 43
20.0
 44
420.0
 45
297.0
 46
0.0
 47
0.0
 48
0.0
 49
0.0
140
0.0
141
0.0
142
1.0
143
1.0
 70
  1024
 72
     1
 73
     0
 74
     0
  7

 75
     0
 76
     0
 77
     2
 78
   300
147
1.0
148
0.0
149
0.0
100
AcDbLayout
  1
Model
 70
     0
 71
     1
 10
0.0
 20
0.0
 11
2100.0
 21
2970.0
 12
0.0
 22
0.0
 32
0.0
 14
0.0
 24
0.0
 34
-0.0000000000000142
 15
2100.0
 25
2970.0
 35
0.0000000000000142
146
0.0
 13
0.0
 23
0.0
 33
0.0
 16
0.0
 26
0.0
 36
0.0
 17
0.0
 27
0.0
 37
0.0
 76
     0
330
A
331
15
  0
MATERIAL
  5
265
102
{ACAD_REACTORS
330
263
102
}
330
263
100
AcDbMaterial
  1
ByBlock
 72
     1
 94
      127
  0
MATERIAL
  5
264
102
{ACAD_REACTORS
330
263
102
}
330
263
100
AcDbMaterial
  1
ByLayer
 72
     1
 94
      127
  0
MATERIAL
  5
266
102
{ACAD_REACTORS
330
263
102
}
330
263
100
AcDbMaterial
  1
Global
 72
     1
 94
      127
  0
MLEADERSTYLE
  5
DAB
102
{ACAD_REACTORS
330
336
102
}
330
336
100
AcDbMLeaderStyle
170
     2
171
     1
172
     0
 90
        2
 40
0.0
 41
0.0
173
     1
 91
-1056964608
340
11
 92
       -2
290
     1
 42
2.0
291
     1
 43
8.0
  3
Standard
341
0
 44
4.0
300

342
17
174
     1
178
     6
175
     1
176
     0
 93
-1056964608
 45
4.0
292
     0
297
     0
 46
4.0
343
0
 94
-1056964608
 47
1.0
 49
1.0
140
1.0
293
     1
141
0.0
294
     1
177
     0
142
1.0
295
     0
296
     0
143
3.75
1001
ACAD_MLEADERVER
1070
     2
  0
MLINESTYLE
  5
1C
102
{ACAD_REACTORS
330
1B
102
}
330
1B
100
AcDbMlineStyle
  2
Standard
 70
     0
  3

 62
     0
 51
90.0
 52
90.0
 71
     2
 49
0.5
 62
   256
  6
BYLAYER
 49
-0.5
 62
   256
  6
BYLAYER
  0
ACDBPLACEHOLDER
  5
1D
102
{ACAD_REACTORS
330
1F
102
}
330
1F
  0
SCALE
  5
242
102
{ACAD_REACTORS
330
241
102
}
330
241
100
AcDbScale
 70
     0
300
1:1
140
1.0
141
1.0
290
     1
  0
SCALE
  5
243
102
{ACAD_REACTORS
330
241
102
}
330
241
100
AcDbScale
 70
     0
300
1:2
140
1.0
141
2.0
290
     0
  0
SCALE
  5
244
102
{ACAD_REACTORS
330
241
102
}
330
241
100
AcDbScale
 70
     0
300
1:4
140
1.0
141
4.0
290
     0
  0
SCALE
  5
245
102
{ACAD_REACTORS
330
241
102
}
330
241
100
AcDbScale
 70
     0
300
1:5
140
1.0
141
5.0
290
     0
  0
SCALE
  5
246
102
{ACAD_REACTORS
330
241
102
}
330
241
100
AcDbScale
 70
     0
300
1:8
140
1.0
141
8.0
290
     0
  0
SCALE
  5
247
102
{ACAD_REACTORS
330
241
102
}
330
241
100
AcDbScale
 70
     0
300
1:10
140
1.0
141
10.0
290
     0
  0
SCALE
  5
248
102
{ACAD_REACTORS
330
241
102
}
330
241
100
AcDbScale
 70
     0
300
1:16
140
1.0
141
16.0
290
     0
  0
SCALE
  5
249
102
{ACAD_REACTORS
330
241
102
}
330
241
100
AcDbScale
 70
     0
300
1:20
140
1.0
141
20.0
290
     0
  0
SCALE
  5
24A
102
{ACAD_REACTORS
330
241
102
}
330
241
100
AcDbScale
 70
     0
300
1:30
140
1.0
141
30.0
290
     0
  0
SCALE
  5
24B
102
{ACAD_REACTORS
330
241
102
}
330
241
100
AcDbScale
 70
     0
300
1:40
140
1.0
141
40.0
290
     0
  0
SCALE
  5
24C
102
{ACAD_REACTORS
330
241
102
}
330
241
100
AcDbScale
 70
     0
300
1:50
140
1.0
141
50.0
290
     0
  0
SCALE
  5
24D
102
{ACAD_REACTORS
330
241
102
}
330
241
100
AcDbScale
 70
     0
300
1:100
140
1.0
141
100.0
290
     0
  0
SCALE
  5
24E
102
{ACAD_REACTORS
330
241
102
}
330
241
100
AcDbScale
 70
     0
300
2:1
140
2.0
141
1.0
290
     0
  0
SCALE
  5
24F
102
{ACAD_REACTORS
330
241
102
}
330
241
100
AcDbScale
 70
     0
300
4:1
140
4.0
141
1.0
290
     0
  0
SCALE
  5
250
102
{ACAD_REACTORS
330
241
102
}
330
241
100
AcDbScale
 70
     0
300
8:1
140
8.0
141
1.0
290
     0
  0
SCALE
  5
251
102
{ACAD_REACTORS
330
241
102
}
330
241
100
AcDbScale
 70
     0
300
10:1
140
10.0
141
1.0
290
     0
  0
SCALE
  5
252
102
{ACAD_REACTORS
330
241
102
}
330
241
100
AcDbScale
 70
     0
300
100:1
140
100.0
141
1.0
290
     0
  0
SCALE
  5
253
102
{ACAD_REACTORS
330
241
102
}
330
241
100
AcDbScale
 70
     0
300
1/128" = 1'-0"
140
0.0078125
141
12.0
290
     0
  0
SCALE
  5
254
102
{ACAD_REACTORS
330
241
102
}
330
241
100
AcDbScale
 70
     0
300
1/64" = 1'-0"
140
0.015625
141
12.0
290
     0
  0
SCALE
  5
255
102
{ACAD_REACTORS
330
241
102
}
330
241
100
AcDbScale
 70
     0
300
1/32" = 1'-0"
140
0.03125
141
12.0
290
     0
  0
SCALE
  5
256
102
{ACAD_REACTORS
330
241
102
}
330
241
100
AcDbScale
 70
     0
300
1/16" = 1'-0"
140
0.0625
141
12.0
290
     0
  0
SCALE
  5
257
102
{ACAD_REACTORS
330
241
102
}
330
241
100
AcDbScale
 70
     0
300
3/32" = 1'-0"
140
0.09375
141
12.0
290
     0
  0
SCALE
  5
258
102
{ACAD_REACTORS
330
241
102
}
330
241
100
AcDbScale
 70
     0
300
1/8" = 1'-0"
140
0.125
141
12.0
290
     0
  0
SCALE
  5
259
102
{ACAD_REACTORS
330
241
102
}
330
241
100
AcDbScale
 70
     0
300
3/16" = 1'-0"
140
0.1875
141
12.0
290
     0
  0
SCALE
  5
25A
102
{ACAD_REACTORS
330
241
102
}
330
241
100
AcDbScale
 70
     0
300
1/4" = 1'-0"
140
0.25
141
12.0
290
     0
  0
SCALE
  5
25B
102
{ACAD_REACTORS
330
241
102
}
330
241
100
AcDbScale
 70
     0
300
3/8" = 1'-0"
140
0.375
141
12.0
290
     0
  0
SCALE
  5
25C
102
{ACAD_REACTORS
330
241
102
}
330
241
100
AcDbScale
 70
     0
300
1/2" = 1'-0"
140
0.5
141
12.0
290
     0
  0
SCALE
  5
25D
102
{ACAD_REACTORS
330
241
102
}
330
241
100
AcDbScale
 70
     0
300
3/4" = 1'-0"
140
0.75
141
12.0
290
     0
  0
SCALE
  5
25E
102
{ACAD_REACTORS
330
241
102
}
330
241
100
AcDbScale
 70
     0
300
1" = 1'-0"
140
1.0
141
12.0
290
     0
  0
SCALE
  5
25F
102
{ACAD_REACTORS
330
241
102
}
330
241
100
AcDbScale
 70
     0
300
1-1/2" = 1'-0"
140
1.5
141
12.0
290
     0
  0
SCALE
  5
260
102
{ACAD_REACTORS
330
241
102
}
330
241
100
AcDbScale
 70
     0
300
3" = 1'-0"
140
3.0
141
12.0
290
     0
  0
SCALE
  5
261
102
{ACAD_REACTORS
330
241
102
}
330
241
100
AcDbScale
 70
     0
300
6" = 1'-0"
140
6.0
141
12.0
290
     0
  0
SCALE
  5
262
102
{ACAD_REACTORS
330
241
102
}
330
241
100
AcDbScale
 70
     0
300
1'-0" = 1'-0"
140
12.0
141
12.0
290
     0
  0
TABLESTYLE
  5
279
102
{ACAD_REACTORS
330
278
102
}
102
{ACAD_XDICTIONARY
360
4466
102
}
330
278
100
AcDbTableStyle
  3
Standard
 70
     0
 71
     0
 40
0.06
 41
0.06
280
     0
281
     0
  7
Standard
140
4.5
170
     2
 62
     0
 63
   257
283
     0
 90
        4
 91
        0
  1

274
    -2
284
     1
 64
     0
275
    -2
285
     1
 65
     0
276
    -2
286
     1
 66
     0
277
    -2
287
     1
 67
     0
278
    -2
288
     1
 68
     0
279
    -2
289
     1
 69
     0
  7
Standard
140
6.0
170
     5
 62
     0
 63
   257
283
     0
 90
        4
 91
        0
  1

274
    -2
284
     1
 64
     0
275
    -2
285
     1
 65
     0
276
    -2
286
     1
 66
     0
277
    -2
287
     1
 67
     0
278
    -2
288
     1
 68
     0
279
    -2
289
     1
 69
     0
  7
Standard
140
4.5
170
     5
 62
     0
 63
   257
283
     0
 90
        4
 91
        0
  1

274
    -2
284
     1
 64
     0
275
    -2
285
     1
 65
     0
276
    -2
286
     1
 66
     0
277
    -2
287
     1
 67
     0
278
    -2
288
     1
 68
     0
279
    -2
289
     1
 69
     0
  0
VISUALSTYLE
  5
26C
102
{ACAD_REACTORS
330
267
102
}
330
267
100
AcDbVisualStyle
  2
2dWireframe
 70
     4
 71
     0
 72
     2
 73
     0
 90
        0
 40
-0.6
 41
-30.0
 62
     5
 63
     7
421
 16777215
 74
     1
 91
        4
 64
     7
 65
   257
 75
     1
175
     1
 42
1.0
 92
        0
 66
   257
 43
1.0
 76
     1
 77
     6
 78
     2
 67
     7
 79
     5
170
     0
171
     0
290
     0
174
     0
 93
        1
 44
0.0
173
     0
291
     0
 45
0.0
  0
VISUALSTYLE
  5
26E
102
{ACAD_REACTORS
330
267
102
}
330
267
100
AcDbVisualStyle
  2
3D Hidden
 70
     6
 71
     1
 72
     2
 73
     2
 90
        0
 40
-0.6
 41
-30.0
 62
     5
 63
     7
421
 16777215
 74
     2
 91
        2
 64
     7
 65
   257
 75
     2
175
     1
 42
40.0
 92
        0
 66
   257
 43
1.0
 76
     1
 77
     6
 78
     2
 67
     7
 79
     3
170
     0
171
     0
290
     0
174
     0
 93
        1
 44
0.0
173
     0
291
     0
 45
0.0
  0
VISUALSTYLE
  5
26D
102
{ACAD_REACTORS
330
267
102
}
330
267
100
AcDbVisualStyle
  2
3dWireframe
 70
     5
 71
     0
 72
     2
 73
     0
 90
        0
 40
-0.6
 41
-30.0
 62
     5
 63
     7
421
 16777215
 74
     1
 91
        4
 64
     7
 65
   257
 75
     1
175
     1
 42
1.0
 92
        0
 66
   257
 43
1.0
 76
     1
 77
     6
 78
     2
 67
     7
 79
     5
170
     0
171
     0
290
     0
174
     0
 93
        1
 44
0.0
173
     0
291
     0
 45
0.0
  0
VISUALSTYLE
  5
26F
102
{ACAD_REACTORS
330
267
102
}
330
267
100
AcDbVisualStyle
  2
Basic
 70
     7
 71
     1
 72
     0
 73
     1
 90
        0
 40
-0.6
 41
-30.0
 62
     5
 63
     7
421
 16777215
 74
     0
 91
        4
 64
     7
 65
   257
 75
     1
175
     1
 42
1.0
 92
        8
 66
     7
 43
1.0
 76
     1
 77
     6
 78
     2
 67
     7
 79
     5
170
     0
171
     0
290
     0
174
     0
 93
        1
 44
0.0
173
     0
291
     1
 45
0.0
  0
VISUALSTYLE
  5
273
102
{ACAD_REACTORS
330
267
102
}
330
267
100
AcDbVisualStyle
  2
Brighten
 70
    12
 71
     2
 72
     2
 73
     0
 90
        0
 40
-0.6
 41
-30.0
 62
     5
 63
     7
421
 16777215
 74
     1
 91
        4
 64
     7
 65
   257
 75
     1
175
     1
 42
1.0
 92
        8
 66
     7
 43
1.0
 76
     1
 77
     6
 78
     2
 67
     7
 79
     5
170
     0
171
     0
290
     0
174
     0
 93
        1
 44
50.0
173
     0
291
     1
 45
0.0
  0
VISUALSTYLE
  5
277
102
{ACAD_REACTORS
330
267
102
}
330
267
100
AcDbVisualStyle
  2
ColorChange
 70
    16
 71
     2
 72
     2
 73
     3
 90
        0
 40
-0.6
 41
-30.0
 62
     5
 63
     8
421
  8421504
 74
     1
 91
        4
 64
     7
 65
   257
 75
     1
175
     1
 42
1.0
 92
        8
 66
     8
424
  8421504
 43
1.0
 76
     1
 77
     6
 78
     2
 67
     7
 79
     5
170
     0
171
     0
290
     0
174
     0
 93
        1
 44
0.0
173
     0
291
     1
 45
0.0
  0
VISUALSTYLE
  5
271
102
{ACAD_REACTORS
330
267
102
}
330
267
100
AcDbVisualStyle
  2
Conceptual
 70
     9
 71
     3
 72
     2
 73
     0
 90
        0
 40
-0.6
 41
-30.0
 62
     5
 63
     7
421
 16777215
 74
     2
 91
        2
 64
     7
 65
   257
 75
     1
175
     1
 42
40.0
 92
        8
 66
     7
 43
1.0
 76
     1
 77
     6
 78
     2
 67
     7
 79
     3
170
     0
171
     0
290
     0
174
     0
 93
        1
 44
0.0
173
     0
291
     0
 45
0.0
  0
VISUALSTYLE
  5
272
102
{ACAD_REACTORS
330
267
102
}
330
267
100
AcDbVisualStyle
  2
Dim
 70
    11
 71
     2
 72
     2
 73
     0
 90
        0
 40
-0.6
 41
-30.0
 62
     5
 63
     7
421
 16777215
 74
     1
 91
        4
 64
     7
 65
   257
 75
     1
175
     1
 42
1.0
 92
        8
 66
     7
 43
1.0
 76
     1
 77
     6
 78
     2
 67
     7
 79
     5
170
     0
171
     0
290
     0
174
     0
 93
        1
 44
-50.0
173
     0
291
     1
 45
0.0
  0
VISUALSTYLE
  5
8FE
102
{ACAD_REACTORS
330
267
102
}
330
267
100
AcDbVisualStyle
  2
EdgeColorOff
 70
    22
 71
     2
 72
     2
 73
     0
 90
        0
 40
0.6
 41
30.0
 62
     5
 63
     7
421
 16777215
 74
     1
 91
        4
 64
     7
 65
   257
 75
     1
175
     1
 42
1.0
 92
        8
 66
     7
 43
1.0
 76
     1
 77
     6
 78
     2
 67
     7
 79
     5
170
     0
171
     0
290
     0
174
     0
 93
        1
 44
0.0
173
     0
291
     1
 45
0.0
  0
VISUALSTYLE
  5
276
102
{ACAD_REACTORS
330
267
102
}
330
267
100
AcDbVisualStyle
  2
Facepattern
 70
    15
 71
     2
 72
     2
 73
     0
 90
        0
 40
-0.6
 41
-30.0
 62
     5
 63
     7
421
 16777215
 74
     1
 91
        4
 64
     7
 65
   257
 75
     1
175
     1
 42
1.0
 92
        8
 66
     7
 43
1.0
 76
     1
 77
     6
 78
     2
 67
     7
 79
     5
170
     0
171
     0
290
     0
174
     0
 93
        1
 44
0.0
173
     0
291
     1
 45
0.0
  0
VISUALSTYLE
  5
268
102
{ACAD_REACTORS
330
267
102
}
330
267
100
AcDbVisualStyle
  2
Flat
 70
     0
 71
     2
 72
     1
 73
     1
 90
        2
 40
-0.6
 41
30.0
 62
     5
 63
     7
421
 16777215
 74
     0
 91
        4
 64
     7
 65
   257
 75
     1
175
     1
 42
1.0
 92
        8
 66
     7
 43
1.0
 76
     1
 77
     6
 78
     2
 67
     7
 79
     5
170
     0
171
     0
290
     0
174
     0
 93
       13
 44
0.0
173
     0
291
     1
 45
0.0
  0
VISUALSTYLE
  5
269
102
{ACAD_REACTORS
330
267
102
}
330
267
100
AcDbVisualStyle
  2
FlatWithEdges
 70
     1
 71
     2
 72
     1
 73
     1
 90
        2
 40
-0.6
 41
30.0
 62
     5
 63
     7
421
 16777215
 74
     1
 91
        4
 64
     7
 65
   257
 75
     1
175
     1
 42
1.0
 92
        0
 66
   257
 43
1.0
 76
     1
 77
     6
 78
     2
 67
     7
 79
     5
170
     0
171
     0
290
     0
174
     0
 93
       13
 44
0.0
173
     0
291
     1
 45
0.0
  0
VISUALSTYLE
  5
26A
102
{ACAD_REACTORS
330
267
102
}
330
267
100
AcDbVisualStyle
  2
Gouraud
 70
     2
 71
     2
 72
     2
 73
     1
 90
        2
 40
-0.6
 41
30.0
 62
     5
 63
     7
421
 16777215
 74
     0
 91
        4
 64
     7
 65
   257
 75
     1
175
     1
 42
1.0
 92
        0
 66
     7
 43
1.0
 76
     1
 77
     6
 78
     2
 67
     7
 79
     5
170
     0
171
     0
290
     0
174
     0
 93
       13
 44
0.0
173
     0
291
     1
 45
0.0
  0
VISUALSTYLE
  5
26B
102
{ACAD_REACTORS
330
267
102
}
330
267
100
AcDbVisualStyle
  2
GouraudWithEdges
 70
     3
 71
     2
 72
     2
 73
     1
 90
        2
 40
-0.6
 41
30.0
 62
     5
 63
     7
421
 16777215
 74
     1
 91
        4
 64
     7
 65
   257
 75
     1
175
     1
 42
1.0
 92
        0
 66
   257
 43
1.0
 76
     1
 77
     6
 78
     2
 67
     7
 79
     5
170
     0
171
     0
290
     0
174
     0
 93
       13
 44
0.0
173
     0
291
     1
 45
0.0
  0
VISUALSTYLE
  5
8FB
102
{ACAD_REACTORS
330
267
102
}
330
267
100
AcDbVisualStyle
  2
Hidden
 70
     6
 71
     1
 72
     2
 73
     2
 90
        0
 40
0.6
 41
30.0
 62
     5
 63
     7
421
 16777215
 74
     2
 91
        2
 64
     7
 65
   257
 75
     2
175
     1
 42
40.0
 92
        0
 66
   257
 43
1.0
 76
     1
 77
     6
 78
     2
 67
     7
 79
     3
170
     0
171
     0
290
     0
174
     0
 93
        1
 44
0.0
173
     0
291
     0
 45
0.0
  0
VISUALSTYLE
  5
8FC
102
{ACAD_REACTORS
330
267
102
}
330
267
100
AcDbVisualStyle
  2
JitterOff
 70
    20
 71
     2
 72
     2
 73
     0
 90
        0
 40
0.6
 41
30.0
 62
     5
 63
     7
421
 16777215
 74
     1
 91
        4
 64
     7
 65
   257
 75
     1
175
     1
 42
1.0
 92
       10
 66
     7
 43
1.0
 76
     1
 77
     6
 78
     2
 67
     7
 79
     5
170
     0
171
     0
290
     0
174
     0
 93
        1
 44
0.0
173
     0
291
     1
 45
0.0
  0
VISUALSTYLE
  5
275
102
{ACAD_REACTORS
330
267
102
}
330
267
100
AcDbVisualStyle
  2
Linepattern
 70
    14
 71
     2
 72
     2
 73
     0
 90
        0
 40
-0.6
 41
-30.0
 62
     5
 63
     7
421
 16777215
 74
     1
 91
        4
 64
     7
 65
   257
 75
     7
175
     7
 42
1.0
 92
        8
 66
     7
 43
1.0
 76
     1
 77
     6
 78
     2
 67
     7
 79
     5
170
     0
171
     0
290
     0
174
     0
 93
        1
 44
0.0
173
     0
291
     1
 45
0.0
  0
VISUALSTYLE
  5
8FD
102
{ACAD_REACTORS
330
267
102
}
330
267
100
AcDbVisualStyle
  2
OverhangOff
 70
    21
 71
     2
 72
     2
 73
     0
 90
        0
 40
0.6
 41
30.0
 62
     5
 63
     7
421
 16777215
 74
     1
 91
        4
 64
     7
 65
   257
 75
     1
175
     1
 42
1.0
 92
        9
 66
     7
 43
1.0
 76
     1
 77
     6
 78
     2
 67
     7
 79
     5
170
     0
171
     0
290
     0
174
     0
 93
        1
 44
0.0
173
     0
291
     1
 45
0.0
  0
VISUALSTYLE
  5
270
102
{ACAD_REACTORS
330
267
102
}
330
267
100
AcDbVisualStyle
  2
Realistic
 70
     8
 71
     2
 72
     2
 73
     0
 90
        0
 40
-0.6
 41
-30.0
 62
     5
 63
     7
421
 16777215
 74
     1
 91
        0
 64
     7
 65
   257
 75
     1
175
     1
 42
1.0
 92
        8
 66
     8
424
  7895160
 43
1.0
 76
     1
 77
     6
 78
     2
 67
     7
 79
     5
170
     0
171
     0
290
     0
174
     0
 93
       13
 44
0.0
173
     0
291
     0
 45
0.0
  0
VISUALSTYLE
  5
903
102
{ACAD_REACTORS
330
267
102
}
330
267
100
AcDbVisualStyle
  2
Shaded
 70
    27
 71
     2
 72
     2
 73
     1
 90
        2
 40
0.6
 41
30.0
 62
     5
 63
     7
421
 16777215
 74
     0
 91
        4
 64
     7
 65
   257
 75
     1
175
     1
 42
1.0
 92
        8
 66
   257
 43
1.0
 76
     1
 77
     6
 78
     2
 67
     8
425
  7895160
 79
     3
170
     0
171
     0
290
     0
174
     0
 93
        5
 44
0.0
173
     0
291
     0
 45
0.0
  0
VISUALSTYLE
  5
902
102
{ACAD_REACTORS
330
267
102
}
330
267
100
AcDbVisualStyle
  2
Shaded with edges
 70
    26
 71
     2
 72
     2
 73
     1
 90
        2
 40
0.6
 41
30.0
 62
     5
 63
     7
421
 16777215
 74
     1
 91
       10
 64
     7
 65
   257
 75
     2
175
     1
 42
1.0
 92
        8
 66
   257
 43
1.0
 76
     1
 77
     6
 78
     2
 67
     7
 79
     3
170
     0
171
     0
290
     0
174
     0
 93
        5
 44
0.0
173
     0
291
     0
 45
0.0
  0
VISUALSTYLE
  5
8FF
102
{ACAD_REACTORS
330
267
102
}
330
267
100
AcDbVisualStyle
  2
Shades of Gray
 70
    23
 71
     2
 72
     2
 73
     3
 90
        0
 40
0.6
 41
30.0
 62
     5
 63
     7
421
 16777215
 74
     2
 91
        2
 64
     7
 65
     7
 75
     1
175
     1
 42
40.0
 92
        8
 66
     7
 43
1.0
 76
     1
 77
     6
 78
     2
 67
     7
 79
     3
170
     0
171
     0
290
     0
174
     0
 93
        1
 44
0.0
173
     0
291
     0
 45
0.0
  0
VISUALSTYLE
  5
900
102
{ACAD_REACTORS
330
267
102
}
330
267
100
AcDbVisualStyle
  2
Sketchy
 70
    24
 71
     1
 72
     2
 73
     2
 90
        0
 40
0.6
 41
30.0
 62
     5
 63
     7
421
 16777215
 74
     2
 91
        2
 64
     7
 65
     7
 75
     1
175
     1
 42
40.0
 92
       11
 66
     7
 43
1.0
 76
     1
 77
     6
 78
     2
 67
     7
 79
     6
170
     0
171
     0
290
     0
174
     0
 93
        1
 44
0.0
173
     0
291
     0
 45
0.0
  0
VISUALSTYLE
  5
274
102
{ACAD_REACTORS
330
267
102
}
330
267
100
AcDbVisualStyle
  2
Thicken
 70
    13
 71
     2
 72
     2
 73
     0
 90
        0
 40
-0.6
 41
-30.0
 62
     5
 63
     7
421
 16777215
 74
     1
 91
        4
 64
     7
 65
   257
 75
     1
175
     1
 42
1.0
 92
       12
 66
     7
 43
1.0
 76
     1
 77
     6
 78
     2
 67
     7
 79
     5
170
     0
171
     0
290
     0
174
     0
 93
        1
 44
0.0
173
     0
291
     1
 45
0.0
  0
VISUALSTYLE
  5
8FA
102
{ACAD_REACTORS
330
267
102
}
330
267
100
AcDbVisualStyle
  2
Wireframe
 70
     5
 71
     0
 72
     2
 73
     0
 90
        0
 40
0.6
 41
30.0
 62
     5
 63
     7
421
 16777215
 74
     1
 91
        4
 64
     7
 65
   257
 75
     1
175
     1
 42
1.0
 92
        0
 66
   257
 43
1.0
 76
     1
 77
     6
 78
     2
 67
     7
 79
     3
170
     0
171
     0
290
     0
174
     0
 93
        1
 44
0.0
173
     0
291
     0
 45
0.0
  0
VISUALSTYLE
  5
901
102
{ACAD_REACTORS
330
267
102
}
330
267
100
AcDbVisualStyle
  2
X-Ray
 70
    25
 71
     2
 72
     2
 73
     1
 90
        1
 40
0.5
 41
30.0
 62
     5
 63
     7
421
 16777215
 74
     1
 91
        0
 64
     7
 65
   257
 75
     1
175
     1
 42
1.0
 92
        8
 66
     7
 43
1.0
 76
     1
 77
     6
 78
     2
 67
     7
 79
     3
170
     0
171
     0
290
     0
174
     0
 93
       13
 44
0.0
173
     0
291
     0
 45
0.0
  0
DICTIONARYVAR
  5
331
102
{ACAD_REACTORS
330
330
102
}
330
330
100
DictionaryVariables
280
     0
  1
1:1
  0
DICTIONARYVAR
  5
DB1
102
{ACAD_REACTORS
330
330
102
}
330
330
100
DictionaryVariables
280
     0
  1
Standard
  0
DICTIONARYVAR
  5
335
102
{ACAD_REACTORS
330
330
102
}
330
330
100
DictionaryVariables
280
     0
  1
Standard
  0
DICTIONARYVAR
  5
D52
102
{ACAD_REACTORS
330
330
102
}
330
330
100
DictionaryVariables
280
     0
  1
ByLayer
  0
DICTIONARYVAR
  5
896
102
{ACAD_REACTORS
330
330
102
}
330
330
100
DictionaryVariables
280
     0
  1
0
  0
DICTIONARYVAR
  5
ECE
102
{ACAD_REACTORS
330
E3E
102
}
330
E3E
100
DictionaryVariables
280
     0
  1
0.261799
  0
DICTIONARYVAR
  5
ECC
102
{ACAD_REACTORS
330
E3E
102
}
330
E3E
100
DictionaryVariables
280
     0
  1
0.400000
  0
DICTIONARYVAR
  5
ECD
102
{ACAD_REACTORS
330
E3E
102
}
330
E3E
100
DictionaryVariables
280
     0
  1
0.250000
  0
DICTIONARYVAR
  5
ECF
102
{ACAD_REACTORS
330
E3E
102
}
330
E3E
100
DictionaryVariables
280
     0
  1
1
  0
DICTIONARY
  5
4466
330
279
100
AcDbDictionary
280
     1
281
     1
  3
ACAD_ROUNDTRIP_2008_TABLESTYLE_CELLSTYLEMAP
360
4467
  0
CELLSTYLEMAP
  5
4467
102
{ACAD_REACTORS
330
4466
102
}
330
4466
100
AcDbCellStyleMap
 90
        3
300
CELLSTYLE
  1
TABLEFORMAT_BEGIN
 90
        5
170
     1
 91
        0
 92
    32768
 62
   257
 93
        1
300
CONTENTFORMAT
  1
CONTENTFORMAT_BEGIN
 90
        0
 91
        0
 92
        4
 93
        0
300

 40
0.0
140
1.0
 94
        5
 62
     0
340
17
144
6.0
309
CONTENTFORMAT_END
171
     1
301
MARGIN
  1
CELLMARGIN_BEGIN
 40
0.06
 40
0.06
 40
0.06
 40
0.06
 40
0.18
 40
0.18
309
CELLMARGIN_END
 94
        6
 95
        1
302
GRIDFORMAT
  1
GRIDFORMAT_BEGIN
 90
        0
 91
        1
 62
     0
 92
       -2
340
0
 93
        0
 40
0.045
309
GRIDFORMAT_END
 95
        2
302
GRIDFORMAT
  1
GRIDFORMAT_BEGIN
 90
        0
 91
        1
 62
     0
 92
       -2
340
0
 93
        0
 40
0.045
309
GRIDFORMAT_END
 95
        4
302
GRIDFORMAT
  1
GRIDFORMAT_BEGIN
 90
        0
 91
        1
 62
     0
 92
       -2
340
0
 93
        0
 40
0.045
309
GRIDFORMAT_END
 95
        8
302
GRIDFORMAT
  1
GRIDFORMAT_BEGIN
 90
        0
 91
        1
 62
     0
 92
       -2
340
0
 93
        0
 40
0.045
309
GRIDFORMAT_END
 95
       16
302
GRIDFORMAT
  1
GRIDFORMAT_BEGIN
 90
        0
 91
        1
 62
     0
 92
       -2
340
0
 93
        0
 40
0.045
309
GRIDFORMAT_END
 95
       32
302
GRIDFORMAT
  1
GRIDFORMAT_BEGIN
 90
        0
 91
        1
 62
     0
 92
       -2
340
0
 93
        0
 40
0.045
309
GRIDFORMAT_END
309
TABLEFORMAT_END
  1
CELLSTYLE_BEGIN
 90
        1
 91
        1
300
_TITLE
309
CELLSTYLE_END
300
CELLSTYLE
  1
TABLEFORMAT_BEGIN
 90
        5
170
     1
 91
        0
 92
        0
 62
   257
 93
        1
300
CONTENTFORMAT
  1
CONTENTFORMAT_BEGIN
 90
        0
 91
        0
 92
        4
 93
        0
300

 40
0.0
140
1.0
 94
        5
 62
     0
340
17
144
4.5
309
CONTENTFORMAT_END
171
     1
301
MARGIN
  1
CELLMARGIN_BEGIN
 40
0.06
 40
0.06
 40
0.06
 40
0.06
 40
0.18
 40
0.18
309
CELLMARGIN_END
 94
        6
 95
        1
302
GRIDFORMAT
  1
GRIDFORMAT_BEGIN
 90
        0
 91
        1
 62
     0
 92
       -2
340
0
 93
        0
 40
0.045
309
GRIDFORMAT_END
 95
        2
302
GRIDFORMAT
  1
GRIDFORMAT_BEGIN
 90
        0
 91
        1
 62
     0
 92
       -2
340
0
 93
        0
 40
0.045
309
GRIDFORMAT_END
 95
        4
302
GRIDFORMAT
  1
GRIDFORMAT_BEGIN
 90
        0
 91
        1
 62
     0
 92
       -2
340
0
 93
        0
 40
0.045
309
GRIDFORMAT_END
 95
        8
302
GRIDFORMAT
  1
GRIDFORMAT_BEGIN
 90
        0
 91
        1
 62
     0
 92
       -2
340
0
 93
        0
 40
0.045
309
GRIDFORMAT_END
 95
       16
302
GRIDFORMAT
  1
GRIDFORMAT_BEGIN
 90
        0
 91
        1
 62
     0
 92
       -2
340
0
 93
        0
 40
0.045
309
GRIDFORMAT_END
 95
       32
302
GRIDFORMAT
  1
GRIDFORMAT_BEGIN
 90
        0
 91
        1
 62
     0
 92
       -2
340
0
 93
        0
 40
0.045
309
GRIDFORMAT_END
309
TABLEFORMAT_END
  1
CELLSTYLE_BEGIN
 90
        2
 91
        1
300
_HEADER
309
CELLSTYLE_END
300
CELLSTYLE
  1
TABLEFORMAT_BEGIN
 90
        5
170
     1
 91
        0
 92
        0
 62
   257
 93
        1
300
CONTENTFORMAT
  1
CONTENTFORMAT_BEGIN
 90
        0
 91
        0
 92
        4
 93
        0
300

 40
0.0
140
1.0
 94
        2
 62
     0
340
17
144
4.5
309
CONTENTFORMAT_END
171
     1
301
MARGIN
  1
CELLMARGIN_BEGIN
 40
0.06
 40
0.06
 40
0.06
 40
0.06
 40
0.18
 40
0.18
309
CELLMARGIN_END
 94
        6
 95
        1
302
GRIDFORMAT
  1
GRIDFORMAT_BEGIN
 90
        0
 91
        1
 62
     0
 92
       -2
340
0
 93
        0
 40
0.045
309
GRIDFORMAT_END
 95
        2
302
GRIDFORMAT
  1
GRIDFORMAT_BEGIN
 90
        0
 91
        1
 62
     0
 92
       -2
340
0
 93
        0
 40
0.045
309
GRIDFORMAT_END
 95
        4
302
GRIDFORMAT
  1
GRIDFORMAT_BEGIN
 90
        0
 91
        1
 62
     0
 92
       -2
340
0
 93
        0
 40
0.045
309
GRIDFORMAT_END
 95
        8
302
GRIDFORMAT
  1
GRIDFORMAT_BEGIN
 90
        0
 91
        1
 62
     0
 92
       -2
340
0
 93
        0
 40
0.045
309
GRIDFORMAT_END
 95
       16
302
GRIDFORMAT
  1
GRIDFORMAT_BEGIN
 90
        0
 91
        1
 62
     0
 92
       -2
340
0
 93
        0
 40
0.045
309
GRIDFORMAT_END
 95
       32
302
GRIDFORMAT
  1
GRIDFORMAT_BEGIN
 90
        0
 91
        1
 62
     0
 92
       -2
340
0
 93
        0
 40
0.045
309
GRIDFORMAT_END
309
TABLEFORMAT_END
  1
CELLSTYLE_BEGIN
 90
        3
 91
        2
300
_DATA
309
CELLSTYLE_END
  0
ENDSEC
  0
EOF
