  0
SECTION
  2
HEADER
  9
$ACADVER
  1
AC1021
  9
$ACADMAINTVER
 70
    25
  9
$DWGCODEPAGE
  3
ANSI_932
  9
$LASTSAVEDBY
  1
howeNelson
  9
$INSBASE
 10
0.0
 20
0.0
 30
0.0
  9
$EXTMIN
 10
0.0
 20
0.0
 30
0.0
  9
$EXTMAX
 10
2100.0
 20
2970.0
 30
0.0
  9
$LIMMIN
 10
0.0
 20
0.0
  9
$LIMMAX
 10
2100.0
 20
2970.0
  9
$ORTHOMODE
 70
     0
  9
$REGENMODE
 70
     1
  9
$FILLMODE
 70
     1
  9
$QTEXTMODE
 70
     0
  9
$MIRRTEXT
 70
     1
  9
$LTSCALE
 40
5.0
  9
$ATTMODE
 70
     1
  9
$TEXTSIZE
 40
533.0403732820173
  9
$TRACEWID
 40
1.0
  9
$TEXTSTYLE
  7
Standard
  9
$CLAYER
  8
Dim
  9
$CELTYPE
  6
ByLayer
  9
$CECOLOR
 62
   256
  9
$CELTSCALE
 40
1.0
  9
$DISPSILH
 70
     0
  9
$DIMSCALE
 40
1.0
  9
$DIMASZ
 40
9.999389648437498
  9
$DIMEXO
 40
25.0
  9
$DIMDLI
 40
0.9999999999999999
  9
$DIMRND
 40
0.0
  9
$DIMDLE
 40
0.0
  9
$DIMEXE
 40
0.0
  9
$DIMTP
 40
0.0
  9
$DIMTM
 40
0.0
  9
$DIMTXT
 40
24.4326171875
  9
$DIMCEN
 40
0.0
  9
$DIMTSZ
 40
0.0
  9
$DIMTOL
 70
     0
  9
$DIMLIM
 70
     0
  9
$DIMTIH
 70
     0
  9
$DIMTOH
 70
     0
  9
$DIMSE1
 70
     0
  9
$DIMSE2
 70
     0
  9
$DIMTAD
 70
     1
  9
$DIMZIN
 70
    11
  9
$DIMBLK
  1
DOT
  9
$DIMASO
 70
     1
  9
$DIMSHO
 70
     1
  9
$DIMPOST
  1
<>
  9
$DIMAPOST
  1
[]
  9
$DIMALT
 70
     0
  9
$DIMALTD
 70
     1
  9
$DIMALTF
 40
1.0
  9
$DIMLFAC
 40
1.0
  9
$DIMTOFL
 70
     1
  9
$DIMTVP
 40
0.0
  9
$DIMTIX
 70
     1
  9
$DIMSOXD
 70
     0
  9
$DIMSAH
 70
     0
  9
$DIMBLK1
  1

  9
$DIMBLK2
  1

  9
$DIMSTYLE
  2
tform線あり
  9
$DIMCLRD
 70
     0
  9
$DIMCLRE
 70
     0
  9
$DIMCLRT
 70
     0
  9
$DIMTFAC
 40
0.8
  9
$DIMGAP
 40
10.0
  9
$DIMJUST
 70
     0
  9
$DIMSD1
 70
     0
  9
$DIMSD2
 70
     0
  9
$DIMTOLJ
 70
     1
  9
$DIMTZIN
 70
    11
  9
$DIMALTZ
 70
    11
  9
$DIMALTTZ
 70
    11
  9
$DIMUPT
 70
     0
  9
$DIMDEC
 70
     1
  9
$DIMTDEC
 70
     1
  9
$DIMALTU
 70
     2
  9
$DIMALTTD
 70
     2
  9
$DIMTXSTY
  7
ＭＳ ゴシック
  9
$DIMAUNIT
 70
     0
  9
$DIMADEC
 70
     2
  9
$DIMALTRND
 40
0.0
  9
$DIMAZIN
 70
     0
  9
$DIMDSEP
 70
    46
  9
$DIMATFIT
 70
     0
  9
$DIMFRAC
 70
     2
  9
$DIMLDRBLK
  1
DOT
  9
$DIMLUNIT
 70
     2
  9
$DIMLWD
 70
    -2
  9
$DIMLWE
 70
    -2
  9
$DIMTMOVE
 70
     0
  9
$DIMFXL
 40
1.0
  9
$DIMFXLON
 70
     0
  9
$DIMJOGANG
 40
0.7853981633974483
  9
$DIMTFILL
 70
     0
  9
$DIMTFILLCLR
 70
     0
  9
$DIMARCSYM
 70
     0
  9
$DIMLTYPE
  6

  9
$DIMLTEX1
  6

  9
$DIMLTEX2
  6

  9
$LUNITS
 70
     2
  9
$LUPREC
 70
     0
  9
$SKETCHINC
 40
0.1
  9
$FILLETRAD
 40
0.0
  9
$AUNITS
 70
     0
  9
$AUPREC
 70
     0
  9
$MENU
  1
acad
  9
$ELEVATION
 40
0.0
  9
$PELEVATION
 40
0.0
  9
$THICKNESS
 40
0.0
  9
$LIMCHECK
 70
     0
  9
$CHAMFERA
 40
0.0
  9
$CHAMFERB
 40
0.0
  9
$CHAMFERC
 40
0.0
  9
$CHAMFERD
 40
0.0
  9
$SKPOLY
 70
     0
  9
$TDCREATE
 40
2447893.375
  9
$TDUCREATE
 40
0.0
  9
$TDUPDATE
 40
2457959.726526806
  9
$TDUUPDATE
 40
2457959.351526806
  9
$TDINDWG
 40
0.0151135185
  9
$TDUSRTIMER
 40
2457959.351522975
  9
$USRTIMER
 70
     1
  9
$ANGBASE
 50
0.0
  9
$ANGDIR
 70
     0
  9
$PDMODE
 70
     1
  9
$PDSIZE
 40
-2.0
  9
$PLINEWID
 40
0.0
  9
$SPLFRAME
 70
     0
  9
$SPLINETYPE
 70
     6
  9
$SPLINESEGS
 70
     8
  9
$HANDSEED
  5
5162
  9
$SURFTAB1
 70
     6
  9
$SURFTAB2
 70
     6
  9
$SURFTYPE
 70
     6
  9
$SURFU
 70
     6
  9
$SURFV
 70
     6
  9
$UCSBASE
  2

  9
$UCSNAME
  2

  9
$UCSORG
 10
0.0
 20
0.0
 30
0.0
  9
$UCSXDIR
 10
1.0
 20
0.0
 30
0.0
  9
$UCSYDIR
 10
0.0
 20
1.0
 30
0.0
  9
$UCSORTHOREF
  2

  9
$UCSORTHOVIEW
 70
     0
  9
$UCSORGTOP
 10
0.0
 20
0.0
 30
0.0
  9
$UCSORGBOTTOM
 10
0.0
 20
0.0
 30
0.0
  9
$UCSORGLEFT
 10
0.0
 20
0.0
 30
0.0
  9
$UCSORGRIGHT
 10
0.0
 20
0.0
 30
0.0
  9
$UCSORGFRONT
 10
0.0
 20
0.0
 30
0.0
  9
$UCSORGBACK
 10
0.0
 20
0.0
 30
0.0
  9
$PUCSBASE
  2

  9
$PUCSNAME
  2

  9
$PUCSORG
 10
0.0
 20
0.0
 30
0.0
  9
$PUCSXDIR
 10
1.0
 20
0.0
 30
0.0
  9
$PUCSYDIR
 10
0.0
 20
1.0
 30
0.0
  9
$PUCSORTHOREF
  2

  9
$PUCSORTHOVIEW
 70
     0
  9
$PUCSORGTOP
 10
0.0
 20
0.0
 30
0.0
  9
$PUCSORGBOTTOM
 10
0.0
 20
0.0
 30
0.0
  9
$PUCSORGLEFT
 10
0.0
 20
0.0
 30
0.0
  9
$PUCSORGRIGHT
 10
0.0
 20
0.0
 30
0.0
  9
$PUCSORGFRONT
 10
0.0
 20
0.0
 30
0.0
  9
$PUCSORGBACK
 10
0.0
 20
0.0
 30
0.0
  9
$USERI1
 70
     0
  9
$USERI2
 70
     0
  9
$USERI3
 70
     0
  9
$USERI4
 70
     0
  9
$USERI5
 70
     0
  9
$USERR1
 40
0.0
  9
$USERR2
 40
0.0
  9
$USERR3
 40
0.0
  9
$USERR4
 40
0.0
  9
$USERR5
 40
0.0
  9
$WORLDVIEW
 70
     1
  9
$SHADEDGE
 70
     3
  9
$SHADEDIF
 70
    70
  9
$TILEMODE
 70
     1
  9
$MAXACTVP
 70
    64
  9
$PINSBASE
 10
0.0
 20
0.0
 30
0.0
  9
$PLIMCHECK
 70
     0
  9
$PEXTMIN
 10
0.0
 20
0.0
 30
0.0
  9
$PEXTMAX
 10
0.0
 20
0.0
 30
0.0
  9
$PLIMMIN
 10
-7.5
 20
-20.0
  9
$PLIMMAX
 10
412.5
 20
277.0
  9
$UNITMODE
 70
     0
  9
$VISRETAIN
 70
     0
  9
$PLINEGEN
 70
     1
  9
$PSLTSCALE
 70
     0
  9
$TREEDEPTH
 70
  3020
  9
$CMLSTYLE
  2
Standard
  9
$CMLJUST
 70
     0
  9
$CMLSCALE
 40
1.0
  9
$PROXYGRAPHICS
 70
     0
  9
$MEASUREMENT
 70
     1
  9
$CELWEIGHT
370
    -1
  9
$ENDCAPS
280
     0
  9
$JOINSTYLE
280
     0
  9
$LWDISPLAY
290
     1
  9
$INSUNITS
 70
     4
  9
$HYPERLINKBASE
  1

  9
$STYLESHEET
  1

  9
$XEDIT
290
     1
  9
$CEPSNTYPE
380
     0
  9
$PSTYLEMODE
290
     1
  9
$FINGERPRINTGUID
  2

  9
$VERSIONGUID
  2

  9
$EXTNAMES
290
     1
  9
$PSVPSCALE
 40
0.0
  9
$OLESTARTUP
290
     0
  9
$SORTENTS
280
   127
  9
$INDEXCTL
280
     0
  9
$HIDETEXT
280
     1
  9
$XCLIPFRAME
290
     0
  9
$HALOGAP
280
     0
  9
$OBSCOLOR
 70
   257
  9
$OBSLTYPE
280
     0
  9
$INTERSECTIONDISPLAY
280
     0
  9
$INTERSECTIONCOLOR
 70
   257
  9
$DIMASSOC
280
     2
  9
$PROJECTNAME
  1

  9
$CAMERADISPLAY
290
     0
  9
$LENSLENGTH
 40
50.0
  9
$CAMERAHEIGHT
 40
0.0
  9
$STEPSPERSEC
 40
2.0
  9
$STEPSIZE
 40
6.0
  9
$3DDWFPREC
 40
2.0
  9
$PSOLWIDTH
 40
0.25
  9
$PSOLHEIGHT
 40
4.0
  9
$LOFTANG1
 40
1.570796326794897
  9
$LOFTANG2
 40
1.570796326794897
  9
$LOFTMAG1
 40
0.0
  9
$LOFTMAG2
 40
0.0
  9
$LOFTPARAM
 70
     7
  9
$LOFTNORMALS
280
     1
  9
$LATITUDE
 40
37.795
  9
$LONGITUDE
 40
-122.394
  9
$NORTHDIRECTION
 40
0.0
  9
$TIMEZONE
 70
 -8000
  9
$LIGHTGLYPHDISPLAY
280
     1
  9
$TILEMODELIGHTSYNCH
280
     1
  9
$SOLIDHIST
280
     1
  9
$SHOWHIST
280
     1
  9
$DWFFRAME
280
     2
  9
$DGNFRAME
280
     2
  9
$REALWORLDSCALE
290
     1
  9
$INTERFERECOLOR
 62
   256
  9
$CSHADOW
280
     0
  9
$SHADOWPLANELOCATION
 40
0.0
  0
ENDSEC
  0
SECTION
  2
CLASSES
  0
CLASS
  1
LWPOLYLINE
  2
AcDbPolyline
  3
ObjectDBX Classes
 90
        0
 91
        1
280
     0
281
     1
  0
CLASS
  1
IMAGE
  2
AcDbRasterImage
  3
ISM
 90
      127
 91
        6
280
     0
281
     1
  0
CLASS
  1
OLE2FRAME
  2
AcDbOle2Frame
  3
ObjectDBX Classes
 90
        0
 91
        1
280
     0
281
     1
  0
CLASS
  1
HATCH
  2
AcDbHatch
  3
ObjectDBX Classes
 90
        0
 91
        1
280
     0
281
     1
  0
CLASS
  1
DICTIONARYVAR
  2
AcDbDictionaryVar
  3
ObjectDBX Classes
 90
        0
 91
        5
280
     0
281
     0
  0
CLASS
  1
RASTERVARIABLES
  2
AcDbRasterVariables
  3
ISM
 90
        0
 91
        5
280
     0
281
     0
  0
CLASS
  1
IMAGEDEF
  2
AcDbRasterImageDef
  3
ISM
 90
        0
 91
        5
280
     0
281
     0
  0
CLASS
  1
IMAGEDEF_REACTOR
  2
AcDbRasterImageDefReactor
  3
ISM
 90
        1
 91
        5
280
     0
281
     0
  0
CLASS
  1
IDBUFFER
  2
AcDbIdBuffer
  3
ObjectDBX Classes
 90
        0
 91
        5
280
     0
281
     0
  0
CLASS
  1
SPATIAL_FILTER
  2
AcDbSpatialFilter
  3
ObjectDBX Classes
 90
        0
 91
        5
280
     0
281
     0
  0
CLASS
  1
XRECORD
  2
AcDbXrecord
  3
ObjectDBX Classes
 90
        0
 91
        1
280
     0
281
     0
  0
CLASS
  1
SORTENTSTABLE
  2
AcDbSortentsTable
  3
ObjectDBX Classes
 90
        0
 91
        5
280
     0
281
     0
  0
CLASS
  1
LAYER_INDEX
  2
AcDbLayerIndex
  3
ObjectDBX Classes
 90
        0
 91
        5
280
     0
281
     0
  0
CLASS
  1
SPATIAL_INDEX
  2
AcDbSpatialIndex
  3
AutoCAD 2000
 90
        0
 91
        5
280
     0
281
     0
  0
CLASS
  1
OBJECT_PTR
  2
CAseDLPNTableRecord
  3
ASE-LPNTableRecord
 90
        1
 91
        5
280
     0
281
     0
  0
CLASS
  1
LAYOUT
  2
AcDbLayout
  3
ObjectDBX Classes
 90
        0
 91
        1
280
     0
281
     0
  0
CLASS
  1
PLOTSETTINGS
  2
AcDbPlotSettings
  3
ObjectDBX Classes
 90
        0
 91
        5
280
     0
281
     0
  0
CLASS
  1
ACDBDICTIONARYWDFLT
  2
AcDbDictionaryWithDefault
  3
ObjectDBX Classes
 90
        0
 91
        5
280
     0
281
     0
  0
CLASS
  1
ACDBPLACEHOLDER
  2
AcDbPlaceHolder
  3
ObjectDBX Classes
 90
        0
 91
        1
280
     0
281
     0
  0
CLASS
  1
SCALE
  2
AcDbScale
  3
ObjectDBX Classes
 90
     1153
 91
        5
280
     0
281
     0
  0
CLASS
  1
MATERIAL
  2
AcDbMaterial
  3
ObjectDBX Classes
 90
     1153
 91
        5
280
     0
281
     0
  0
CLASS
  1
VISUALSTYLE
  2
AcDbVisualStyle
  3
ObjectDBX Classes
 90
     4095
 91
        5
280
     0
281
     0
  0
CLASS
  1
TABLESTYLE
  2
AcDbTableStyle
  3
ObjectDBX Classes
 90
     4095
 91
        5
280
     0
281
     0
  0
CLASS
  1
DIMASSOC
  2
AcDbDimAssoc
  3
"AcDbDimAssoc|Product Desc:     AcDim ARX App For Dimension|Company:          Autodesk, Inc.|WEB Address:      www.autodesk.com"
 90
        0
 91
        5
280
     0
281
     0
  0
CLASS
  1
CELLSTYLEMAP
  2
AcDbCellStyleMap
  3
ObjectDBX Classes
 90
     1152
 91
        5
280
     0
281
     0
  0
CLASS
  1
SUN
  2
AcDbSun
  3
SCENEOE
 90
     1153
 91
        5
280
     0
281
     0
  0
CLASS
  1
MLEADERSTYLE
  2
AcDbMLeaderStyle
  3
ACDB_MLEADERSTYLE_CLASS
 90
     4095
 91
        5
280
     0
281
     0
  0
CLASS
  1
FIELD
  2
AcDbField
  3
ObjectDBX Classes
 90
     1152
 91
        5
280
     0
281
     0
  0
CLASS
  1
FIELDLIST
  2
AcDbFieldList
  3
ObjectDBX Classes
 90
     1152
 91
        5
280
     0
281
     0
  0
CLASS
  1
ACDB_ALDIMOBJECTCONTEXTDATA_CLASS
  2
AcDbAlignedDimensionObjectContextData
  3
ObjectDBX Classes
 90
     1153
 91
        5
280
     0
281
     0
  0
ENDSEC
  0
SECTION
  2
TABLES
  0
TABLE
  2
VPORT
  5
7
330
0
100
AcDbSymbolTable
 70
     1
  0
VPORT
  5
15
330
7
100
AcDbSymbolTableRecord
100
AcDbViewportTableRecord
  2
*ACTIVE
 70
     0
 10
0.0
 20
0.0
 11
1.0
 21
1.0
 12
672.9525617540362
 22
1782.612370234517
 13
0.0
 23
0.0
 14
1.0
 24
1.0
 15
0.0
 25
0.0
 16
0.0
 26
0.0
 36
1.0
 17
377.0474382459638
 27
-297.6123702345169
 37
0.0
 40
3029.4
 41
2.227272727272727
 42
50.0
 43
0.0
 44
0.0
 50
0.0
 51
0.0
 71
    16
 72
  2000
 73
     1
 74
     1
 75
     0
 76
     0
 77
     0
 78
     0
281
     0
 65
     1
110
0.0
120
0.0
130
0.0
111
1.0
121
0.0
131
0.0
112
0.0
122
1.0
132
0.0
 79
     0
146
0.0
348
26C
 60
     3
 61
     5
292
     1
282
     1
141
0.0
142
0.0
 63
   256
361
8C2
  0
ENDTAB
  0
TABLE
  2
LTYPE
  5
4
330
0
100
AcDbSymbolTable
 70
     3
  0
LTYPE
  5
11
330
4
100
AcDbSymbolTableRecord
100
AcDbLinetypeTableRecord
  2
ByBlock
 70
     0
  3

 72
    65
 73
     0
 40
0.0
  0
LTYPE
  5
12
330
4
100
AcDbSymbolTableRecord
100
AcDbLinetypeTableRecord
  2
ByLayer
 70
     0
  3

 72
    65
 73
     0
 40
0.0
  0
LTYPE
  5
13
330
4
100
AcDbSymbolTableRecord
100
AcDbLinetypeTableRecord
  2
Continuous
 70
     0
  3
Solid line
 72
    65
 73
     0
 40
0.0
  0
LTYPE
  5
8D4
330
4
100
AcDbSymbolTableRecord
100
AcDbLinetypeTableRecord
  2
HIDDEN
 70
     0
  3
Hidden _ _ _ _ _ _ _ _ _ _ _ _ _ _ _ _ _ _ _ _ 
 72
    65
 73
     2
 40
9.524999999999999
 49
6.35
 74
     0
 49
-3.175
 74
     0
  0
LTYPE
  5
BF2
330
4
100
AcDbSymbolTableRecord
100
AcDbLinetypeTableRecord
  2
BORDER
 70
     0
  3
Border __  __  . __  __  . __  __  . __  __  . 
 72
    65
 73
     6
 40
44.45
 49
12.7
 74
     0
 49
-6.35
 74
     0
 49
12.7
 74
     0
 49
-6.35
 74
     0
 49
0.0
 74
     0
 49
-6.35
 74
     0
  0
ENDTAB
  0
TABLE
  2
LAYER
  5
2
102
{ACAD_XDICTIONARY
360
2E1
102
}
330
0
100
AcDbSymbolTable
 70
     8
  0
LAYER
  5
14
330
2
100
AcDbSymbolTableRecord
100
AcDbLayerTableRecord
  2
0
 70
     0
 62
     7
  6
Continuous
370
    -3
390
1D
347
266
  0
LAYER
  5
4A
330
2
100
AcDbSymbolTableRecord
100
AcDbLayerTableRecord
  2
Defpoints
 70
     0
 62
     7
  6
Continuous
290
     0
370
    20
390
1D
347
266
  0
LAYER
  5
4B
330
2
100
AcDbSymbolTableRecord
100
AcDbLayerTableRecord
  2
template
 70
     0
 62
     7
  6
Continuous
370
    20
390
1D
347
266
  0
LAYER
  5
382
330
2
100
AcDbSymbolTableRecord
100
AcDbLayerTableRecord
  2
レイヤー 1
 70
     0
 62
     7
  6
Continuous
370
    -3
390
1D
347
266
  0
LAYER
  5
5C4
330
2
100
AcDbSymbolTableRecord
100
AcDbLayerTableRecord
  2
HIDDEN
 70
     0
 62
   253
  6
HIDDEN
370
    13
390
1D
347
266
1001
AcAecLayerStandard
1000

1000

  0
LAYER
  5
5EB
330
2
100
AcDbSymbolTableRecord
100
AcDbLayerTableRecord
  2
Dim
 70
     0
 62
     3
  6
Continuous
370
    13
390
1D
347
266
1001
AcAecLayerStandard
1000

1000

  0
LAYER
  5
BF1
330
2
100
AcDbSymbolTableRecord
100
AcDbLayerTableRecord
  2
PRINT BORDER
 70
     0
 62
     4
  6
BORDER
290
     0
370
    20
390
1D
347
266
1001
AcAecLayerStandard
1000

1000

  0
LAYER
  5
1BD2
330
2
100
AcDbSymbolTableRecord
100
AcDbLayerTableRecord
  2
retino
 70
     0
 62
   253
  6
Continuous
370
     0
390
1D
347
266
  0
ENDTAB
  0
TABLE
  2
STYLE
  5
3
330
0
100
AcDbSymbolTable
 70
     2
  0
STYLE
  5
17
330
3
100
AcDbSymbolTableRecord
100
AcDbTextStyleTableRecord
  2
Standard
 70
     0
 40
0.0
 41
1.0
 50
0.0
 71
     0
 42
533.0403732820173
  3
txt
  4
BIGFONT.SHX
  0
STYLE
  5
39
330
3
100
AcDbSymbolTableRecord
100
AcDbTextStyleTableRecord
  2
ＭＳ ゴシック
 70
     0
 40
0.0
 41
1.0
 50
0.0
 71
     0
 42
533.0403732820173
  3
msgothic.ttc
  4
ＭＳ ゴシック
1001
ACAD
1000
ＭＳ ゴシック
1071
        0
  0
ENDTAB
  0
TABLE
  2
VIEW
  5
5
330
0
100
AcDbSymbolTable
 70
     0
  0
ENDTAB
  0
TABLE
  2
UCS
  5
6
330
0
100
AcDbSymbolTable
 70
     0
  0
ENDTAB
  0
TABLE
  2
APPID
  5
8
330
0
100
AcDbSymbolTable
 70
    14
  0
APPID
  5
16
330
8
100
AcDbSymbolTableRecord
100
AcDbRegAppTableRecord
  2
ACAD
 70
     0
  0
APPID
  5
5C5
330
8
100
AcDbSymbolTableRecord
100
AcDbRegAppTableRecord
  2
AcAecLayerStandard
 70
     0
  0
APPID
  5
913
330
8
100
AcDbSymbolTableRecord
100
AcDbRegAppTableRecord
  2
ACAD_DSTYLE_DIMBREAK
 70
     0
  0
APPID
  5
914
330
8
100
AcDbSymbolTableRecord
100
AcDbRegAppTableRecord
  2
ACAD_DSTYLE_DIMJAG
 70
     0
  0
APPID
  5
915
330
8
100
AcDbSymbolTableRecord
100
AcDbRegAppTableRecord
  2
ACAD_DSTYLE_DIMTALN
 70
     0
  0
APPID
  5
E4F
330
8
100
AcDbSymbolTableRecord
100
AcDbRegAppTableRecord
  2
ACAD_MLEADERVER
 70
     0
  0
APPID
  5
E79
330
8
100
AcDbSymbolTableRecord
100
AcDbRegAppTableRecord
  2
ACAD_PSEXT
 70
     0
  0
APPID
  5
E7A
330
8
100
AcDbSymbolTableRecord
100
AcDbRegAppTableRecord
  2
ACAD_NAV_VCDISPLAY
 70
     0
  0
APPID
  5
166E
330
8
100
AcDbSymbolTableRecord
100
AcDbRegAppTableRecord
  2
AcadAnnotative
 70
     0
  0
APPID
  5
166F
330
8
100
AcDbSymbolTableRecord
100
AcDbRegAppTableRecord
  2
GradientColor1ACI
 70
     0
  0
APPID
  5
1670
330
8
100
AcDbSymbolTableRecord
100
AcDbRegAppTableRecord
  2
GradientColor2ACI
 70
     0
  0
APPID
  5
20FE
330
8
100
AcDbSymbolTableRecord
100
AcDbRegAppTableRecord
  2
AcLayerTools
 70
     0
  0
APPID
  5
27AB
330
8
100
AcDbSymbolTableRecord
100
AcDbRegAppTableRecord
  2
ACAD_DSTYLE_DIMRADIAL_EXTENSION
 70
     0
  0
APPID
  5
4377
330
8
100
AcDbSymbolTableRecord
100
AcDbRegAppTableRecord
  2
RAK
 70
     0
  0
ENDTAB
  0
TABLE
  2
DIMSTYLE
  5
9
330
0
100
AcDbSymbolTable
 70
     2
100
AcDbDimStyleTable
  0
DIMSTYLE
105
18
330
9
100
AcDbSymbolTableRecord
100
AcDbDimStyleTableRecord
  2
Standard
 70
     0
178
     0
340
17
  0
DIMSTYLE
105
56
102
{ACAD_REACTORS
330
5008
330
5056
330
507E
330
509F
330
50D6
330
5132
102
}
330
9
100
AcDbSymbolTableRecord
100
AcDbDimStyleTableRecord
  2
tform線あり
 70
     0
  3
<>
  4
[]
 41
9.999389648437498
 42
25.0
 43
0.9999999999999999
 44
0.0
 73
     0
 74
     0
 77
     1
 78
    11
140
24.4326171875
141
0.0
143
1.0
146
0.8
147
10.0
171
     1
172
     1
174
     1
178
     0
179
     2
271
     1
272
     1
276
     2
284
    11
285
    11
286
    11
289
     0
340
39
341
4E
342
4E
  0
ENDTAB
  0
TABLE
  2
BLOCK_RECORD
  5
1
330
0
100
AcDbSymbolTable
 70
    18
  0
BLOCK_RECORD
  5
A
330
1
100
AcDbSymbolTableRecord
100
AcDbBlockTableRecord
  2
*MODEL_SPACE
340
20
 70
     0
280
     1
281
     0
  0
BLOCK_RECORD
  5
B
330
1
100
AcDbSymbolTableRecord
100
AcDbBlockTableRecord
  2
*PAPER_SPACE
340
21
 70
     0
280
     1
281
     0
  0
BLOCK_RECORD
  5
4E
330
1
100
AcDbSymbolTableRecord
100
AcDbBlockTableRecord
  2
_DOT
340
0
102
{BLKREFS
331
4FFE
331
4FFF
331
5012
331
5013
331
505D
331
505E
331
5085
331
5086
331
50A9
331
50AA
331
50DD
331
50DE
331
50EF
331
50F0
331
5100
331
5101
331
510D
331
510E
331
513E
331
0
331
513D
102
}
 70
     0
280
     1
281
     0
  0
BLOCK_RECORD
  5
3A5
330
1
100
AcDbSymbolTableRecord
100
AcDbBlockTableRecord
  2
名称未設定-1
340
0
102
{BLKREFS
331
3D0
102
}
 70
     1
280
     1
281
     0
  0
BLOCK_RECORD
  5
3A8
330
1
100
AcDbSymbolTableRecord
100
AcDbBlockTableRecord
  2
block 2
340
0
102
{BLKREFS
331
3A7
102
}
 70
     0
280
     1
281
     0
  0
BLOCK_RECORD
  5
3AB
330
1
100
AcDbSymbolTableRecord
100
AcDbBlockTableRecord
  2
block 3
340
0
102
{BLKREFS
331
3AA
102
}
 70
     0
280
     1
281
     0
  0
BLOCK_RECORD
  5
3AE
330
1
100
AcDbSymbolTableRecord
100
AcDbBlockTableRecord
  2
block 4
340
0
102
{BLKREFS
331
3AD
102
}
 70
     0
280
     1
281
     0
  0
BLOCK_RECORD
  5
3BD
330
1
100
AcDbSymbolTableRecord
100
AcDbBlockTableRecord
  2
block 5
340
0
102
{BLKREFS
331
3BC
102
}
 70
     0
280
     1
281
     0
  0
BLOCK_RECORD
  5
11F0
330
1
100
AcDbSymbolTableRecord
100
AcDbBlockTableRecord
  2
BLOCK_2
340
0
102
{BLKREFS
331
1273
331
127B
331
127C
102
}
 70
     0
280
     1
281
     0
  0
BLOCK_RECORD
  5
38B6
330
1
100
AcDbSymbolTableRecord
100
AcDbBlockTableRecord
  2
mobile_latù
340
0
310
2800000020000000200000000100080000000000000400000000000000000000000000000000000000000000000080000080000000808000800000008000800080800000C0C0C000C0DCC000F0CAA6000020400000206000002080000020A0000020C0000020E00000400000004020000040400000406000004080000040A0
310
000040C0000040E00000600000006020000060400000606000006080000060A0000060C0000060E00000800000008020000080400000806000008080000080A0000080C0000080E00000A0000000A0200000A0400000A0600000A0800000A0A00000A0C00000A0E00000C0000000C0200000C0400000C0600000C0800000C0
310
A00000C0C00000C0E00000E0000000E0200000E0400000E0600000E0800000E0A00000E0C00000E0E00040000000400020004000400040006000400080004000A0004000C0004000E00040200000402020004020400040206000402080004020A0004020C0004020E000404000004040200040404000404060004040800040
310
40A0004040C0004040E00040600000406020004060400040606000406080004060A0004060C0004060E00040800000408020004080400040806000408080004080A0004080C0004080E00040A0000040A0200040A0400040A0600040A0800040A0A00040A0C00040A0E00040C0000040C0200040C0400040C0600040C08000
310
40C0A00040C0C00040C0E00040E0000040E0200040E0400040E0600040E0800040E0A00040E0C00040E0E00080000000800020008000400080006000800080008000A0008000C0008000E00080200000802020008020400080206000802080008020A0008020C0008020E00080400000804020008040400080406000804080
310
008040A0008040C0008040E00080600000806020008060400080606000806080008060A0008060C0008060E00080800000808020008080400080806000808080008080A0008080C0008080E00080A0000080A0200080A0400080A0600080A0800080A0A00080A0C00080A0E00080C0000080C0200080C0400080C0600080C0
310
800080C0A00080C0C00080C0E00080E0000080E0200080E0400080E0600080E0800080E0A00080E0C00080E0E000C0000000C0002000C0004000C0006000C0008000C000A000C000C000C000E000C0200000C0202000C0204000C0206000C0208000C020A000C020C000C020E000C0400000C0402000C0404000C0406000C0
310
408000C040A000C040C000C040E000C0600000C0602000C0604000C0606000C0608000C060A000C060C000C060E000C0800000C0802000C0804000C0806000C0808000C080A000C080C000C080E000C0A00000C0A02000C0A04000C0A06000C0A08000C0A0A000C0A0C000C0A0E000C0C00000C0C02000C0C04000C0C06000
310
C0C08000C0C0A000F0FBFF00A4A0A000808080000000FF0000FF000000FFFF00FF000000FF00FF00FFFF0000FFFFFF0049494949494949494949494949494949494949494949494949494949494949494949494949494949494949494949494949494949494949494949494949494949494949494949494949494949494949
310
49494949494949494949494949494949494949494949494949494949494949494949494949494949494949494949494949494949494949494949494949494949494949494949494949494949494949494949FAFAFAFAFAFAFAFAFAFAFAFAFAFAFAFAFAFAFAFAFAFAFAFAFAFAFAFAFAFA4949FAFA4949494949494949494949
310
494949494949494949494949494949FAFA4949FAFA4949494949494949494949494949494949494949494949494949FAFA4949FAFA4949494949494949494949494949494949494949494949494949FAFA4949FAFA4949494949494949494949494949494949494949494949494949FAFA4949FAFA49494949494949494949
310
49494949494949494949494949494949FAFA4949FAFA4949494949494949494949494949494949494949494949494949FAFA4949FAFA4949494949494949494949494949494949494949494949494949FAFA4949FAFA4949494949494949494949494949494949494949494949494949FAFA4949FAFA494949494949494949
310
4949494949494949494949494949494949FAFA4949FAFA4949494949494949494949494949494949494949494949494949FAFA4949FAFA4949494949494949494949494949494949494949494949494949FAFA4949FAFA4949494949494949494949494949494949494949494949494949FAFA4949FAFA4949494949494949
310
494949494949494949494949494949494949FAFA4949FAFA4949494949494949494949494949494949494949494949494949FAFA4949FAFA4949494949494949494949494949494949494949494949494949FAFA4949FAFA4949494949494949494949494949494949494949494949494949FAFA4949FAFA49494949494949
310
49494949494949494949494949494949494949FAFA4949FAFAFAFAFAFAFAFAFAFAFAFAFAFAFAFAFAFAFAFAFAFAFAFAFAFAFAFAFAFA4949FAFAFAFAFAFAFAFAFAFAFAFAFAFAFAFAFAFAFAFAFAFAFAFAFAFAFAFAFAFA4949FAFA4949494949494949494949494949494949494949494949494949FAFA4949FAFAFAFAFAFAFAFA
310
FAFAFAFAFAFAFAFAFAFAFAFAFAFAFAFAFAFAFAFAFAFA494949494949494949494949494949494949494949494949494949494949494949494949494949494949494949494949494949494949494949494949494949494949494949494949494949494949494949494949494949494949494949494949494949494949494949
310
4949494949494949494949494949494949494949494949494949494949494949494949494949494949494949494949494949494949494949
102
{BLKREFS
331
3B99
331
467E
102
}
 70
     4
280
     1
281
     0
  0
BLOCK_RECORD
  5
4FF8
330
1
100
AcDbSymbolTableRecord
100
AcDbBlockTableRecord
  2
*D8
340
0
 70
     0
280
     1
281
     0
  0
BLOCK_RECORD
  5
500B
330
1
100
AcDbSymbolTableRecord
100
AcDbBlockTableRecord
  2
*D9
340
0
 70
     0
280
     1
281
     0
  0
BLOCK_RECORD
  5
5057
330
1
100
AcDbSymbolTableRecord
100
AcDbBlockTableRecord
  2
*D10
340
0
 70
     0
280
     1
281
     0
  0
BLOCK_RECORD
  5
507F
330
1
100
AcDbSymbolTableRecord
100
AcDbBlockTableRecord
  2
*D11
340
0
 70
     0
280
     1
281
     0
  0
BLOCK_RECORD
  5
50A2
330
1
100
AcDbSymbolTableRecord
100
AcDbBlockTableRecord
  2
*D12
340
0
 70
     0
280
     1
281
     0
  0
BLOCK_RECORD
  5
50D7
330
1
100
AcDbSymbolTableRecord
100
AcDbBlockTableRecord
  2
*D13
340
0
 70
     0
280
     1
281
     0
  0
BLOCK_RECORD
  5
50E7
330
1
100
AcDbSymbolTableRecord
100
AcDbBlockTableRecord
  2
*D14
340
0
 70
     0
280
     1
281
     0
  0
BLOCK_RECORD
  5
50F8
330
1
100
AcDbSymbolTableRecord
100
AcDbBlockTableRecord
  2
*D15
340
0
 70
     0
280
     1
281
     0
  0
BLOCK_RECORD
  5
5107
330
1
100
AcDbSymbolTableRecord
100
AcDbBlockTableRecord
  2
*D16
340
0
 70
     0
280
     1
281
     0
  0
BLOCK_RECORD
  5
5135
330
1
100
AcDbSymbolTableRecord
100
AcDbBlockTableRecord
  2
*D17
340
0
 70
     0
280
     1
281
     0
  0
ENDTAB
  0
ENDSEC
  0
SECTION
  2
BLOCKS
  0
BLOCK
  5
D
330
A
100
AcDbEntity
  8
0
390
1D
100
AcDbBlockBegin
  2
*MODEL_SPACE
 70
     0
 10
0.0
 20
0.0
 30
0.0
  3
*MODEL_SPACE
  1
*MODEL_SPACE
  0
ENDBLK
  5
E
330
A
100
AcDbEntity
  8
0
390
1D
100
AcDbBlockEnd
  0
BLOCK
  5
F
330
B
100
AcDbEntity
 67
     1
  8
0
390
1D
100
AcDbBlockBegin
  2
*PAPER_SPACE
 70
     0
 10
0.0
 20
0.0
 30
0.0
  3
*PAPER_SPACE
  1
*PAPER_SPACE
  0
ENDBLK
  5
10
330
B
100
AcDbEntity
 67
     1
  8
0
390
1D
100
AcDbBlockEnd
  0
BLOCK
  5
2C14
330
4E
100
AcDbEntity
  8
0
390
1D
100
AcDbBlockBegin
  2
_DOT
 70
     0
 10
0.0
 20
0.0
 30
0.0
  3
_DOT
  1
_DOT
  0
POLYLINE
  5
2C16
330
4E
100
AcDbEntity
  8
0
  6
ByBlock
 62
     0
370
    -2
390
1D
100
AcDb2dPolyline
 66
     1
 10
0.0
 20
0.0
 30
0.0
 70
     1
 40
0.5
 41
0.5
  0
VERTEX
  5
2C17
330
2C16
100
AcDbEntity
  8
0
  6
ByBlock
 62
     0
370
    -2
390
1D
100
AcDbVertex
100
AcDb2dVertex
 10
-0.25
 20
0.0
 30
0.0
 42
1.0
  0
VERTEX
  5
2C18
330
2C16
100
AcDbEntity
  8
0
  6
ByBlock
 62
     0
370
    -2
390
1D
100
AcDbVertex
100
AcDb2dVertex
 10
0.25
 20
0.0
 30
0.0
 42
1.0
  0
SEQEND
  5
2C19
330
2C16
100
AcDbEntity
  8
0
390
1D
  0
LINE
  5
2C1A
330
4E
100
AcDbEntity
  8
0
  6
ByBlock
 62
     0
370
    -2
390
1D
100
AcDbLine
 10
-0.5
 20
0.0
 30
0.0
 11
-1.0
 21
0.0
 31
0.0
  0
ENDBLK
  5
2C1B
330
4E
100
AcDbEntity
  8
0
390
1D
100
AcDbBlockEnd
  0
BLOCK
  5
3A6
330
3A5
100
AcDbEntity
  8
0
100
AcDbBlockBegin
  2
名称未設定-1
 70
     0
 10
0.0
 20
0.0
 30
0.0
  3
名称未設定-1
  1
名称未設定-1
  0
INSERT
  5
3A7
330
3A5
100
AcDbEntity
  8
レイヤー 1
100
AcDbBlockReference
  2
block 2
 10
0.0
 20
0.0
 30
0.0
  0
ENDBLK
  5
3CC
330
3A5
100
AcDbEntity
  8
0
100
AcDbBlockEnd
  0
BLOCK
  5
3A9
330
3A8
100
AcDbEntity
  8
0
100
AcDbBlockBegin
  2
block 2
 70
     0
 10
0.0
 20
0.0
 30
0.0
  3
block 2
  1
block 2
  0
INSERT
  5
3AA
330
3A8
100
AcDbEntity
  8
レイヤー 1
100
AcDbBlockReference
  2
block 3
 10
0.0
 20
0.0
 30
0.0
  0
ENDBLK
  5
3CB
330
3A8
100
AcDbEntity
  8
0
100
AcDbBlockEnd
  0
BLOCK
  5
3AC
330
3AB
100
AcDbEntity
  8
0
100
AcDbBlockBegin
  2
block 3
 70
     0
 10
0.0
 20
0.0
 30
0.0
  3
block 3
  1
block 3
  0
INSERT
  5
3AD
330
3AB
100
AcDbEntity
  8
レイヤー 1
100
AcDbBlockReference
  2
block 4
 10
0.0
 20
0.0
 30
0.0
  0
ENDBLK
  5
3CA
330
3AB
100
AcDbEntity
  8
0
100
AcDbBlockEnd
  0
BLOCK
  5
3AF
330
3AE
100
AcDbEntity
  8
0
100
AcDbBlockBegin
  2
block 4
 70
     0
 10
0.0
 20
0.0
 30
0.0
  3
block 4
  1
block 4
  0
POLYLINE
  5
3B0
330
3AE
100
AcDbEntity
  8
レイヤー 1
370
     0
100
AcDb2dPolyline
 66
     1
 10
0.0
 20
0.0
 30
0.0
  0
VERTEX
  5
3B1
330
3B0
100
AcDbEntity
  8
レイヤー 1
370
     0
100
AcDbVertex
100
AcDb2dVertex
 10
83.79545727667795
 20
167.6444858234922
 30
0.0
  0
VERTEX
  5
3B2
330
3B0
100
AcDbEntity
  8
レイヤー 1
370
     0
100
AcDbVertex
100
AcDb2dVertex
 10
83.79545727667795
 20
159.7968976406313
 30
0.0
  0
VERTEX
  5
3B3
330
3B0
100
AcDbEntity
  8
レイヤー 1
370
     0
100
AcDbVertex
100
AcDb2dVertex
 10
71.3631329975216
 20
159.7968976406313
 30
0.0
  0
VERTEX
  5
3B4
330
3B0
100
AcDbEntity
  8
レイヤー 1
370
     0
100
AcDbVertex
100
AcDb2dVertex
 10
71.3631329975216
 20
127.8027915271048
 30
0.0
  0
VERTEX
  5
3B5
330
3B0
100
AcDbEntity
  8
レイヤー 1
370
     0
100
AcDbVertex
100
AcDb2dVertex
 10
60.43011526263018
 20
127.8027915271048
 30
0.0
  0
VERTEX
  5
3B6
330
3B0
100
AcDbEntity
  8
レイヤー 1
370
     0
100
AcDbVertex
100
AcDb2dVertex
 10
60.43011526263018
 20
159.7968976406313
 30
0.0
  0
VERTEX
  5
3B7
330
3B0
100
AcDbEntity
  8
レイヤー 1
370
     0
100
AcDbVertex
100
AcDb2dVertex
 10
48.21793273020759
 20
159.7968976406313
 30
0.0
  0
VERTEX
  5
3B8
330
3B0
100
AcDbEntity
  8
レイヤー 1
370
     0
100
AcDbVertex
100
AcDb2dVertex
 10
48.21793273020759
 20
167.6444858234922
 30
0.0
  0
VERTEX
  5
3B9
330
3B0
100
AcDbEntity
  8
レイヤー 1
370
     0
100
AcDbVertex
100
AcDb2dVertex
 10
83.79545727667795
 20
167.6444858234922
 30
0.0
  0
SEQEND
  5
3BA
330
3B0
100
AcDbEntity
  8
レイヤー 1
370
     0
  0
HATCH
  5
3BB
330
3AE
100
AcDbEntity
  8
レイヤー 1
 62
   250
420
  2234388
100
AcDbHatch
 10
0.0
 20
0.0
 30
0.0
210
0.0
220
0.0
230
1.0
  2
SOLID
 70
     1
 71
     0
 91
        1
 92
        1
 93
        8
 72
     1
 10
83.79545727667795
 20
167.6444858234922
 11
83.79545727667795
 21
159.7968976406313
 72
     1
 10
83.79545727667795
 20
159.7968976406313
 11
71.3631329975216
 21
159.7968976406313
 72
     1
 10
71.3631329975216
 20
159.7968976406313
 11
71.3631329975216
 21
127.8027915271048
 72
     1
 10
71.3631329975216
 20
127.8027915271048
 11
60.43011526263018
 21
127.8027915271048
 72
     1
 10
60.43011526263018
 20
127.8027915271048
 11
60.43011526263018
 21
159.7968976406313
 72
     1
 10
60.43011526263018
 20
159.7968976406313
 11
48.21793273020759
 21
159.7968976406313
 72
     1
 10
48.21793273020759
 20
159.7968976406313
 11
48.21793273020759
 21
167.6444858234922
 72
     1
 10
48.21793273020759
 20
167.6444858234922
 11
83.79545727667795
 21
167.6444858234922
 97
        0
 75
     2
 76
     1
 98
        0
  0
INSERT
  5
3BC
330
3AE
100
AcDbEntity
  8
レイヤー 1
100
AcDbBlockReference
  2
block 5
 10
0.0
 20
0.0
 30
0.0
  0
ENDBLK
  5
3C9
330
3AE
100
AcDbEntity
  8
0
100
AcDbBlockEnd
  0
BLOCK
  5
3BE
330
3BD
100
AcDbEntity
  8
0
100
AcDbBlockBegin
  2
block 5
 70
     0
 10
0.0
 20
0.0
 30
0.0
  3
block 5
  1
block 5
  0
SPLINE
  5
3BF
330
3BD
100
AcDbEntity
  8
レイヤー 1
370
     0
100
AcDbSpline
210
0.0
220
0.0
230
1.0
 70
    11
 71
     3
 72
    56
 73
    52
 74
     0
 42
0.000000001
 43
0.0000000001
 40
0.0
 40
0.0
 40
0.0
 40
0.0
 40
1.0
 40
1.0
 40
1.0
 40
2.0
 40
2.0
 40
2.0
 40
3.0
 40
3.0
 40
3.0
 40
4.0
 40
4.0
 40
4.0
 40
5.0
 40
5.0
 40
5.0
 40
6.0
 40
6.0
 40
6.0
 40
7.0
 40
7.0
 40
7.0
 40
8.0
 40
8.0
 40
8.0
 40
9.0
 40
9.0
 40
9.0
 40
10.0
 40
10.0
 40
10.0
 40
11.0
 40
11.0
 40
11.0
 40
12.0
 40
12.0
 40
12.0
 40
13.0
 40
13.0
 40
13.0
 40
14.0
 40
14.0
 40
14.0
 40
15.0
 40
15.0
 40
15.0
 40
16.0
 40
16.0
 40
16.0
 40
17.0
 40
17.0
 40
17.0
 40
17.0
 10
100.4504378777679
 20
166.69157178364
 30
0.0
 10
101.9848844191641
 20
167.1313385124438
 30
0.0
 10
103.9637485713373
 20
166.7649523658846
 30
0.0
 10
103.9637485713373
 20
166.7649523658846
 30
0.0
 10
103.9637485713373
 20
166.7649523658846
 30
0.0
 10
103.0132460999156
 20
163.911205638077
 30
0.0
 10
103.0132460999156
 20
163.911205638077
 30
0.0
 10
103.0132460999156
 20
163.911205638077
 30
0.0
 10
101.0674548862189
 20
164.3601018759394
 30
0.0
 10
99.57090442016032
 20
163.1805004036133
 30
0.0
 10
98.40508333886608
 20
162.258247733807
 30
0.0
 10
97.65301849830304
 20
159.804132345923
 30
0.0
 10
97.3598406791005
 20
158.8699940888517
 30
0.0
 10
97.3598406791005
 20
158.8699940888517
 30
0.0
 10
96.07137411762282
 20
154.9119212747295
 30
0.0
 10
96.07137411762282
 20
154.9119212747295
 30
0.0
 10
96.07137411762282
 20
154.9119212747295
 30
0.0
 10
100.3012651448482
 20
154.9119212747295
 30
0.0
 10
100.3012651448482
 20
154.9119212747295
 30
0.0
 10
100.3012651448482
 20
154.9119212747295
 30
0.0
 10
99.64152892419852
 20
152.4199098115079
 30
0.0
 10
99.64152892419852
 20
152.4199098115079
 30
0.0
 10
99.64152892419852
 20
152.4199098115079
 30
0.0
 10
95.38097652692731
 20
152.4199098115079
 30
0.0
 10
95.38097652692731
 20
152.4199098115079
 30
0.0
 10
95.38097652692731
 20
152.4199098115079
 30
0.0
 10
87.75353009080013
 20
127.8027915271048
 30
0.0
 10
87.75353009080013
 20
127.8027915271048
 30
0.0
 10
87.75353009080013
 20
127.8027915271048
 30
0.0
 10
85.36538832498108
 20
127.8027915271048
 30
0.0
 10
85.36538832498108
 20
127.8027915271048
 30
0.0
 10
85.36538832498108
 20
127.8027915271048
 30
0.0
 10
93.00006946639998
 20
152.4199098115079
 30
0.0
 10
93.00006946639998
 20
152.4199098115079
 30
0.0
 10
93.00006946639998
 20
152.4199098115079
 30
0.0
 10
89.85297266450198
 20
152.4199098115079
 30
0.0
 10
89.85297266450198
 20
152.4199098115079
 30
0.0
 10
89.85297266450198
 20
152.4199098115079
 30
0.0
 10
90.51270888515164
 20
154.9119212747295
 30
0.0
 10
90.51270888515164
 20
154.9119212747295
 30
0.0
 10
90.51270888515164
 20
154.9119212747295
 30
0.0
 10
93.6904670570955
 20
154.9119212747295
 30
0.0
 10
93.6904670570955
 20
154.9119212747295
 30
0.0
 10
93.6904670570955
 20
154.9119212747295
 30
0.0
 10
94.81598049462158
 20
158.3616699146644
 30
0.0
 10
94.81598049462158
 20
158.3616699146644
 30
0.0
 10
95.7237637538445
 20
161.2605474231013
 30
0.0
 10
96.4968436907311
 20
162.8139420021662
 30
0.0
 10
97.15657991138076
 20
163.9844139654337
 30
0.0
 10
97.81183750494507
 20
165.1523021053827
 30
0.0
 10
99.1047826935081
 20
166.3084769129547
 30
0.0
 10
100.4504378777679
 20
166.69157178364
 30
0.0
  0
HATCH
  5
3C0
330
3BD
100
AcDbEntity
  8
レイヤー 1
 62
   250
420
  2234388
100
AcDbHatch
 10
0.0
 20
0.0
 30
0.0
210
0.0
220
0.0
230
1.0
  2
SOLID
 70
     1
 71
     0
 91
        1
 92
        1
 93
        1
 72
     4
 94
        3
 73
     0
 74
     1
 95
       56
 96
       52
 40
0.0
 40
0.0
 40
0.0
 40
0.0
 40
1.0
 40
1.0
 40
1.0
 40
2.0
 40
2.0
 40
2.0
 40
3.0
 40
3.0
 40
3.0
 40
4.0
 40
4.0
 40
4.0
 40
5.0
 40
5.0
 40
5.0
 40
6.0
 40
6.0
 40
6.0
 40
7.0
 40
7.0
 40
7.0
 40
8.0
 40
8.0
 40
8.0
 40
9.0
 40
9.0
 40
9.0
 40
10.0
 40
10.0
 40
10.0
 40
11.0
 40
11.0
 40
11.0
 40
12.0
 40
12.0
 40
12.0
 40
13.0
 40
13.0
 40
13.0
 40
14.0
 40
14.0
 40
14.0
 40
15.0
 40
15.0
 40
15.0
 40
16.0
 40
16.0
 40
16.0
 40
17.0
 40
17.0
 40
17.0
 40
17.0
 10
100.4504378777679
 20
166.69157178364
 10
101.9848844191641
 20
167.1313385124438
 10
103.9637485713373
 20
166.7649523658846
 10
103.9637485713373
 20
166.7649523658846
 10
103.9637485713373
 20
166.7649523658846
 10
103.0132460999156
 20
163.911205638077
 10
103.0132460999156
 20
163.911205638077
 10
103.0132460999156
 20
163.911205638077
 10
101.0674548862189
 20
164.3601018759394
 10
99.57090442016032
 20
163.1805004036133
 10
98.40508333886608
 20
162.258247733807
 10
97.65301849830304
 20
159.804132345923
 10
97.3598406791005
 20
158.8699940888517
 10
97.3598406791005
 20
158.8699940888517
 10
96.07137411762282
 20
154.9119212747295
 10
96.07137411762282
 20
154.9119212747295
 10
96.07137411762282
 20
154.9119212747295
 10
100.3012651448482
 20
154.9119212747295
 10
100.3012651448482
 20
154.9119212747295
 10
100.3012651448482
 20
154.9119212747295
 10
99.64152892419852
 20
152.4199098115079
 10
99.64152892419852
 20
152.4199098115079
 10
99.64152892419852
 20
152.4199098115079
 10
95.38097652692731
 20
152.4199098115079
 10
95.38097652692731
 20
152.4199098115079
 10
95.38097652692731
 20
152.4199098115079
 10
87.75353009080013
 20
127.8027915271048
 10
87.75353009080013
 20
127.8027915271048
 10
87.75353009080013
 20
127.8027915271048
 10
85.36538832498108
 20
127.8027915271048
 10
85.36538832498108
 20
127.8027915271048
 10
85.36538832498108
 20
127.8027915271048
 10
93.00006946639998
 20
152.4199098115079
 10
93.00006946639998
 20
152.4199098115079
 10
93.00006946639998
 20
152.4199098115079
 10
89.85297266450198
 20
152.4199098115079
 10
89.85297266450198
 20
152.4199098115079
 10
89.85297266450198
 20
152.4199098115079
 10
90.51270888515164
 20
154.9119212747295
 10
90.51270888515164
 20
154.9119212747295
 10
90.51270888515164
 20
154.9119212747295
 10
93.6904670570955
 20
154.9119212747295
 10
93.6904670570955
 20
154.9119212747295
 10
93.6904670570955
 20
154.9119212747295
 10
94.81598049462158
 20
158.3616699146644
 10
94.81598049462158
 20
158.3616699146644
 10
95.7237637538445
 20
161.2605474231013
 10
96.4968436907311
 20
162.8139420021662
 10
97.15657991138076
 20
163.9844139654337
 10
97.81183750494507
 20
165.1523021053827
 10
99.1047826935081
 20
166.3084769129547
 10
100.4504378777679
 20
166.69157178364
 97
        0
 75
     2
 76
     1
 98
        0
  0
SPLINE
  5
3C1
330
3BD
100
AcDbEntity
  8
レイヤー 1
370
     0
100
AcDbSpline
210
0.0
220
0.0
230
1.0
 70
    11
 71
     3
 72
    38
 73
    34
 74
     0
 42
0.000000001
 43
0.0000000001
 40
0.0
 40
0.0
 40
0.0
 40
0.0
 40
1.0
 40
1.0
 40
1.0
 40
2.0
 40
2.0
 40
2.0
 40
3.0
 40
3.0
 40
3.0
 40
4.0
 40
4.0
 40
4.0
 40
5.0
 40
5.0
 40
5.0
 40
6.0
 40
6.0
 40
6.0
 40
7.0
 40
7.0
 40
7.0
 40
8.0
 40
8.0
 40
8.0
 40
9.0
 40
9.0
 40
9.0
 40
10.0
 40
10.0
 40
10.0
 40
11.0
 40
11.0
 40
11.0
 40
11.0
 10
126.377554584636
 20
154.8151140277308
 30
0.0
 10
126.377554584636
 20
154.8151140277308
 30
0.0
 10
128.8311532078563
 20
154.8151140277308
 30
0.0
 10
128.8311532078563
 20
154.8151140277308
 30
0.0
 10
128.8311532078563
 20
154.8151140277308
 30
0.0
 10
127.7345785914971
 20
151.3062819612468
 30
0.0
 10
127.7345785914971
 20
151.3062819612468
 30
0.0
 10
128.571392836906
 20
152.2922689395754
 30
0.0
 10
129.8860421413442
 20
153.604506675583
 30
0.0
 10
131.0163787157314
 20
154.2664822097754
 30
0.0
 10
132.7044766171327
 20
155.2500576196734
 30
0.0
 10
133.6642808525008
 20
155.3847609420097
 30
0.0
 10
134.7284715499351
 20
155.3565111403944
 30
0.0
 10
134.7284715499351
 20
155.3565111403944
 30
0.0
 10
133.6877075172549
 20
152.0345756272799
 30
0.0
 10
133.6877075172549
 20
152.0345756272799
 30
0.0
 10
133.011434827367
 20
152.3184516825359
 30
0.0
 10
130.930940291334
 20
151.7768823149844
 30
0.0
 10
129.739280976855
 20
150.9162968950455
 30
0.0
 10
128.66613302525
 20
150.1454562717016
 30
0.0
 10
127.9192358313239
 20
149.4857200510519
 30
0.0
 10
127.0393578639405
 20
147.8282835196966
 30
0.0
 10
126.164647543194
 20
146.1699857139017
 30
0.0
 10
125.4742499524985
 20
143.5262176944419
 30
0.0
 10
124.2822461282437
 20
139.6959580071401
 30
0.0
 10
124.2822461282437
 20
139.6959580071401
 30
0.0
 10
120.5753209406769
 20
127.8027915271048
 30
0.0
 10
120.5753209406769
 20
127.8027915271048
 30
0.0
 10
120.5753209406769
 20
127.8027915271048
 30
0.0
 10
118.1964809388044
 20
127.8027915271048
 30
0.0
 10
118.1964809388044
 20
127.8027915271048
 30
0.0
 10
118.1964809388044
 20
127.8027915271048
 30
0.0
 10
126.377554584636
 20
154.8151140277308
 30
0.0
 10
126.377554584636
 20
154.8151140277308
 30
0.0
  0
HATCH
  5
3C2
330
3BD
100
AcDbEntity
  8
レイヤー 1
 62
   250
420
  2234388
100
AcDbHatch
 10
0.0
 20
0.0
 30
0.0
210
0.0
220
0.0
230
1.0
  2
SOLID
 70
     1
 71
     0
 91
        1
 92
        1
 93
        1
 72
     4
 94
        3
 73
     0
 74
     1
 95
       38
 96
       34
 40
0.0
 40
0.0
 40
0.0
 40
0.0
 40
1.0
 40
1.0
 40
1.0
 40
2.0
 40
2.0
 40
2.0
 40
3.0
 40
3.0
 40
3.0
 40
4.0
 40
4.0
 40
4.0
 40
5.0
 40
5.0
 40
5.0
 40
6.0
 40
6.0
 40
6.0
 40
7.0
 40
7.0
 40
7.0
 40
8.0
 40
8.0
 40
8.0
 40
9.0
 40
9.0
 40
9.0
 40
10.0
 40
10.0
 40
10.0
 40
11.0
 40
11.0
 40
11.0
 40
11.0
 10
126.377554584636
 20
154.8151140277308
 10
126.377554584636
 20
154.8151140277308
 10
128.8311532078563
 20
154.8151140277308
 10
128.8311532078563
 20
154.8151140277308
 10
128.8311532078563
 20
154.8151140277308
 10
127.7345785914971
 20
151.3062819612468
 10
127.7345785914971
 20
151.3062819612468
 10
128.571392836906
 20
152.2922689395754
 10
129.8860421413442
 20
153.604506675583
 10
131.0163787157314
 20
154.2664822097754
 10
132.7044766171327
 20
155.2500576196734
 10
133.6642808525008
 20
155.3847609420097
 10
134.7284715499351
 20
155.3565111403944
 10
134.7284715499351
 20
155.3565111403944
 10
133.6877075172549
 20
152.0345756272799
 10
133.6877075172549
 20
152.0345756272799
 10
133.011434827367
 20
152.3184516825359
 10
130.930940291334
 20
151.7768823149844
 10
129.739280976855
 20
150.9162968950455
 10
128.66613302525
 20
150.1454562717016
 10
127.9192358313239
 20
149.4857200510519
 10
127.0393578639405
 20
147.8282835196966
 10
126.164647543194
 20
146.1699857139017
 10
125.4742499524985
 20
143.5262176944419
 10
124.2822461282437
 20
139.6959580071401
 10
124.2822461282437
 20
139.6959580071401
 10
120.5753209406769
 20
127.8027915271048
 10
120.5753209406769
 20
127.8027915271048
 10
120.5753209406769
 20
127.8027915271048
 10
118.1964809388044
 20
127.8027915271048
 10
118.1964809388044
 20
127.8027915271048
 10
118.1964809388044
 20
127.8027915271048
 10
126.377554584636
 20
154.8151140277308
 10
126.377554584636
 20
154.8151140277308
 97
        0
 75
     2
 76
     1
 98
        0
  0
SPLINE
  5
3C3
330
3BD
100
AcDbEntity
  8
レイヤー 1
370
     0
100
AcDbSpline
210
0.0
220
0.0
230
1.0
 70
    11
 71
     3
 72
   104
 73
   100
 74
     0
 42
0.000000001
 43
0.0000000001
 40
0.0
 40
0.0
 40
0.0
 40
0.0
 40
1.0
 40
1.0
 40
1.0
 40
2.0
 40
2.0
 40
2.0
 40
3.0
 40
3.0
 40
3.0
 40
4.0
 40
4.0
 40
4.0
 40
5.0
 40
5.0
 40
5.0
 40
6.0
 40
6.0
 40
6.0
 40
7.0
 40
7.0
 40
7.0
 40
8.0
 40
8.0
 40
8.0
 40
9.0
 40
9.0
 40
9.0
 40
10.0
 40
10.0
 40
10.0
 40
11.0
 40
11.0
 40
11.0
 40
12.0
 40
12.0
 40
12.0
 40
13.0
 40
13.0
 40
13.0
 40
14.0
 40
14.0
 40
14.0
 40
15.0
 40
15.0
 40
15.0
 40
16.0
 40
16.0
 40
16.0
 40
17.0
 40
17.0
 40
17.0
 40
18.0
 40
18.0
 40
18.0
 40
19.0
 40
19.0
 40
19.0
 40
20.0
 40
20.0
 40
20.0
 40
21.0
 40
21.0
 40
21.0
 40
22.0
 40
22.0
 40
22.0
 40
23.0
 40
23.0
 40
23.0
 40
24.0
 40
24.0
 40
24.0
 40
25.0
 40
25.0
 40
25.0
 40
26.0
 40
26.0
 40
26.0
 40
27.0
 40
27.0
 40
27.0
 40
28.0
 40
28.0
 40
28.0
 40
29.0
 40
29.0
 40
29.0
 40
30.0
 40
30.0
 40
30.0
 40
31.0
 40
31.0
 40
31.0
 40
32.0
 40
32.0
 40
32.0
 40
33.0
 40
33.0
 40
33.0
 40
33.0
 10
139.8926730891197
 20
154.8294111834263
 30
0.0
 10
139.8926730891197
 20
154.8294111834263
 30
0.0
 10
142.0344903652445
 20
154.8294111834263
 30
0.0
 10
142.0344903652445
 20
154.8294111834263
 30
0.0
 10
142.0344903652445
 20
154.8294111834263
 30
0.0
 10
140.9516961399171
 20
151.3157559800812
 30
0.0
 10
140.9516961399171
 20
151.3157559800812
 30
0.0
 10
141.8928968473923
 20
152.7887075264977
 30
0.0
 10
142.7341897198865
 20
153.4484437471474
 30
0.0
 10
143.8552245303272
 20
154.2926649527359
 30
0.0
 10
144.9803934580775
 20
155.1296514530327
 30
0.0
 10
146.3139908001845
 20
155.3044901642492
 30
0.0
 10
147.241066606852
 20
155.3044901642492
 30
0.0
 10
148.3855280820469
 20
155.3044901642492
 30
0.0
 10
149.4969166187653
 20
155.0752189084569
 30
0.0
 10
150.0784491203092
 20
153.8172414621372
 30
0.0
 10
150.5228667310863
 20
152.833838307127
 30
0.0
 10
150.5414702589793
 20
152.7201500811143
 30
0.0
 10
150.4140016419347
 20
150.7765981809602
 30
0.0
 10
151.5818897818837
 20
152.7699317437168
 30
0.0
 10
152.4424752018226
 20
153.6256940267945
 30
0.0
 10
153.9038856707499
 20
154.4507949398263
 30
0.0
 10
155.4455669174378
 20
155.3044901642492
 30
0.0
 10
156.339225275853
 20
155.3659851592288
 30
0.0
 10
157.3748216618963
 20
155.2147453676543
 30
0.0
 10
158.911679771723
 20
154.9877134254046
 30
0.0
 10
159.8859534176746
 20
154.4390816074493
 30
0.0
 10
160.3965169054045
 20
152.7816450760939
 30
0.0
 10
160.9070803931344
 20
151.1219692311958
 30
0.0
 10
160.6328506116007
 20
150.2303779314354
 30
0.0
 10
159.9992971339115
 20
147.597634224801
 30
0.0
 10
159.7105979417943
 20
146.4014962832367
 30
0.0
 10
159.2947746424084
 20
144.9400858143094
 30
0.0
 10
158.7463150793409
 20
143.2092687007094
 30
0.0
 10
158.7463150793409
 20
143.2092687007094
 30
0.0
 10
153.9038856707499
 20
127.8027915271048
 30
0.0
 10
153.9038856707499
 20
127.8027915271048
 30
0.0
 10
153.9038856707499
 20
127.8027915271048
 30
0.0
 10
151.3882752878863
 20
127.8027915271048
 30
0.0
 10
151.3882752878863
 20
127.8027915271048
 30
0.0
 10
151.3882752878863
 20
127.8027915271048
 30
0.0
 10
155.6250565106276
 20
141.2751908193897
 30
0.0
 10
155.6250565106276
 20
141.2751908193897
 30
0.0
 10
156.5094131050963
 20
144.0936252951782
 30
0.0
 10
157.109893644309
 20
146.1506931664571
 30
0.0
 10
157.4220195011804
 20
147.4415712963654
 30
0.0
 10
157.8095929989511
 20
149.0530157726519
 30
0.0
 10
157.9656559273867
 20
149.5826995529385
 30
0.0
 10
157.7816877071116
 20
150.7529992613181
 30
0.0
 10
157.6111553680925
 20
151.8430281919372
 30
0.0
 10
157.0582171779396
 20
152.5547853887321
 30
0.0
 10
156.1170164704645
 20
152.5547853887321
 30
0.0
 10
155.1096698860365
 20
152.5547853887321
 30
0.0
 10
154.2962823053817
 20
152.4412694176073
 30
0.0
 10
153.156643967048
 20
151.2945686288697
 30
0.0
 10
152.0170056287143
 20
150.1476955852443
 30
0.0
 10
151.076149431015
 20
148.7930831468137
 30
0.0
 10
150.3337308641742
 20
147.2290087646991
 30
0.0
 10
149.5957909244188
 20
145.6683794803425
 30
0.0
 10
148.8530278478023
 20
143.6822806228776
 30
0.0
 10
148.0964843801539
 20
141.2751908193897
 30
0.0
 10
148.0964843801539
 20
141.2751908193897
 30
0.0
 10
143.8552245303272
 20
127.8027915271048
 30
0.0
 10
143.8552245303272
 20
127.8027915271048
 30
0.0
 10
143.8552245303272
 20
127.8027915271048
 30
0.0
 10
141.486030802177
 20
127.8027915271048
 30
0.0
 10
141.486030802177
 20
127.8027915271048
 30
0.0
 10
141.486030802177
 20
127.8027915271048
 30
0.0
 10
146.3329388378533
 20
143.2092687007094
 30
0.0
 10
146.3329388378533
 20
143.2092687007094
 30
0.0
 10
146.8483254624444
 20
144.8408669988801
 30
0.0
 10
147.2314203331297
 20
146.1837661049335
 30
0.0
 10
147.4867020769946
 20
147.224185627838
 30
0.0
 10
147.9169947869641
 20
149.0197705792876
 30
0.0
 10
148.0306830129768
 20
150.2400242051577
 30
0.0
 10
147.709255392159
 20
151.3157559800812
 30
0.0
 10
147.3874832615654
 20
152.3916600098926
 30
0.0
 10
146.8245542879144
 20
152.6683013598569
 30
0.0
 10
145.8840425999909
 20
152.6683013598569
 30
0.0
 10
145.0989048209514
 20
152.6683013598569
 30
0.0
 10
144.3282364524954
 20
152.3275811915945
 30
0.0
 10
143.4531816219731
 20
151.6538923250251
 30
0.0
 10
142.34627171234
 20
150.8074318058939
 30
0.0
 10
141.901854101563
 20
150.1097995099067
 30
0.0
 10
141.3578731655808
 20
149.289521733736
 30
0.0
 10
140.6299240093235
 20
148.192602607601
 30
0.0
 10
140.2850697237515
 20
147.455696197173
 30
0.0
 10
139.6652966370942
 20
145.8385673095858
 30
0.0
 10
139.0506911970739
 20
144.2214384219986
 30
0.0
 10
138.463991048893
 20
142.3252566160164
 30
0.0
 10
138.0571250036777
 20
141.0154304484394
 30
0.0
 10
138.0571250036777
 20
141.0154304484394
 30
0.0
 10
133.9009590684727
 20
127.8027915271048
 30
0.0
 10
133.9009590684727
 20
127.8027915271048
 30
0.0
 10
133.9009590684727
 20
127.8027915271048
 30
0.0
 10
131.4180771143097
 20
127.8027915271048
 30
0.0
 10
131.4180771143097
 20
127.8027915271048
 30
0.0
 10
131.4180771143097
 20
127.8027915271048
 30
0.0
 10
139.8926730891197
 20
154.8294111834263
 30
0.0
 10
139.8926730891197
 20
154.8294111834263
 30
0.0
  0
HATCH
  5
3C4
330
3BD
100
AcDbEntity
  8
レイヤー 1
 62
   250
420
  2234388
100
AcDbHatch
 10
0.0
 20
0.0
 30
0.0
210
0.0
220
0.0
230
1.0
  2
SOLID
 70
     1
 71
     0
 91
        1
 92
        1
 93
        1
 72
     4
 94
        3
 73
     0
 74
     1
 95
      104
 96
      100
 40
0.0
 40
0.0
 40
0.0
 40
0.0
 40
1.0
 40
1.0
 40
1.0
 40
2.0
 40
2.0
 40
2.0
 40
3.0
 40
3.0
 40
3.0
 40
4.0
 40
4.0
 40
4.0
 40
5.0
 40
5.0
 40
5.0
 40
6.0
 40
6.0
 40
6.0
 40
7.0
 40
7.0
 40
7.0
 40
8.0
 40
8.0
 40
8.0
 40
9.0
 40
9.0
 40
9.0
 40
10.0
 40
10.0
 40
10.0
 40
11.0
 40
11.0
 40
11.0
 40
12.0
 40
12.0
 40
12.0
 40
13.0
 40
13.0
 40
13.0
 40
14.0
 40
14.0
 40
14.0
 40
15.0
 40
15.0
 40
15.0
 40
16.0
 40
16.0
 40
16.0
 40
17.0
 40
17.0
 40
17.0
 40
18.0
 40
18.0
 40
18.0
 40
19.0
 40
19.0
 40
19.0
 40
20.0
 40
20.0
 40
20.0
 40
21.0
 40
21.0
 40
21.0
 40
22.0
 40
22.0
 40
22.0
 40
23.0
 40
23.0
 40
23.0
 40
24.0
 40
24.0
 40
24.0
 40
25.0
 40
25.0
 40
25.0
 40
26.0
 40
26.0
 40
26.0
 40
27.0
 40
27.0
 40
27.0
 40
28.0
 40
28.0
 40
28.0
 40
29.0
 40
29.0
 40
29.0
 40
30.0
 40
30.0
 40
30.0
 40
31.0
 40
31.0
 40
31.0
 40
32.0
 40
32.0
 40
32.0
 40
33.0
 40
33.0
 40
33.0
 40
33.0
 10
139.8926730891197
 20
154.8294111834263
 10
139.8926730891197
 20
154.8294111834263
 10
142.0344903652445
 20
154.8294111834263
 10
142.0344903652445
 20
154.8294111834263
 10
142.0344903652445
 20
154.8294111834263
 10
140.9516961399171
 20
151.3157559800812
 10
140.9516961399171
 20
151.3157559800812
 10
141.8928968473923
 20
152.7887075264977
 10
142.7341897198865
 20
153.4484437471474
 10
143.8552245303272
 20
154.2926649527359
 10
144.9803934580775
 20
155.1296514530327
 10
146.3139908001845
 20
155.3044901642492
 10
147.241066606852
 20
155.3044901642492
 10
148.3855280820469
 20
155.3044901642492
 10
149.4969166187653
 20
155.0752189084569
 10
150.0784491203092
 20
153.8172414621372
 10
150.5228667310863
 20
152.833838307127
 10
150.5414702589793
 20
152.7201500811143
 10
150.4140016419347
 20
150.7765981809602
 10
151.5818897818837
 20
152.7699317437168
 10
152.4424752018226
 20
153.6256940267945
 10
153.9038856707499
 20
154.4507949398263
 10
155.4455669174378
 20
155.3044901642492
 10
156.339225275853
 20
155.3659851592288
 10
157.3748216618963
 20
155.2147453676543
 10
158.911679771723
 20
154.9877134254046
 10
159.8859534176746
 20
154.4390816074493
 10
160.3965169054045
 20
152.7816450760939
 10
160.9070803931344
 20
151.1219692311958
 10
160.6328506116007
 20
150.2303779314354
 10
159.9992971339115
 20
147.597634224801
 10
159.7105979417943
 20
146.4014962832367
 10
159.2947746424084
 20
144.9400858143094
 10
158.7463150793409
 20
143.2092687007094
 10
158.7463150793409
 20
143.2092687007094
 10
153.9038856707499
 20
127.8027915271048
 10
153.9038856707499
 20
127.8027915271048
 10
153.9038856707499
 20
127.8027915271048
 10
151.3882752878863
 20
127.8027915271048
 10
151.3882752878863
 20
127.8027915271048
 10
151.3882752878863
 20
127.8027915271048
 10
155.6250565106276
 20
141.2751908193897
 10
155.6250565106276
 20
141.2751908193897
 10
156.5094131050963
 20
144.0936252951782
 10
157.109893644309
 20
146.1506931664571
 10
157.4220195011804
 20
147.4415712963654
 10
157.8095929989511
 20
149.0530157726519
 10
157.9656559273867
 20
149.5826995529385
 10
157.7816877071116
 20
150.7529992613181
 10
157.6111553680925
 20
151.8430281919372
 10
157.0582171779396
 20
152.5547853887321
 10
156.1170164704645
 20
152.5547853887321
 10
155.1096698860365
 20
152.5547853887321
 10
154.2962823053817
 20
152.4412694176073
 10
153.156643967048
 20
151.2945686288697
 10
152.0170056287143
 20
150.1476955852443
 10
151.076149431015
 20
148.7930831468137
 10
150.3337308641742
 20
147.2290087646991
 10
149.5957909244188
 20
145.6683794803425
 10
148.8530278478023
 20
143.6822806228776
 10
148.0964843801539
 20
141.2751908193897
 10
148.0964843801539
 20
141.2751908193897
 10
143.8552245303272
 20
127.8027915271048
 10
143.8552245303272
 20
127.8027915271048
 10
143.8552245303272
 20
127.8027915271048
 10
141.486030802177
 20
127.8027915271048
 10
141.486030802177
 20
127.8027915271048
 10
141.486030802177
 20
127.8027915271048
 10
146.3329388378533
 20
143.2092687007094
 10
146.3329388378533
 20
143.2092687007094
 10
146.8483254624444
 20
144.8408669988801
 10
147.2314203331297
 20
146.1837661049335
 10
147.4867020769946
 20
147.224185627838
 10
147.9169947869641
 20
149.0197705792876
 10
148.0306830129768
 20
150.2400242051577
 10
147.709255392159
 20
151.3157559800812
 10
147.3874832615654
 20
152.3916600098926
 10
146.8245542879144
 20
152.6683013598569
 10
145.8840425999909
 20
152.6683013598569
 10
145.0989048209514
 20
152.6683013598569
 10
144.3282364524954
 20
152.3275811915945
 10
143.4531816219731
 20
151.6538923250251
 10
142.34627171234
 20
150.8074318058939
 10
141.901854101563
 20
150.1097995099067
 10
141.3578731655808
 20
149.289521733736
 10
140.6299240093235
 20
148.192602607601
 10
140.2850697237515
 20
147.455696197173
 10
139.6652966370942
 20
145.8385673095858
 10
139.0506911970739
 20
144.2214384219986
 10
138.463991048893
 20
142.3252566160164
 10
138.0571250036777
 20
141.0154304484394
 10
138.0571250036777
 20
141.0154304484394
 10
133.9009590684727
 20
127.8027915271048
 10
133.9009590684727
 20
127.8027915271048
 10
133.9009590684727
 20
127.8027915271048
 10
131.4180771143097
 20
127.8027915271048
 10
131.4180771143097
 20
127.8027915271048
 10
131.4180771143097
 20
127.8027915271048
 10
139.8926730891197
 20
154.8294111834263
 10
139.8926730891197
 20
154.8294111834263
 97
        0
 75
     2
 76
     1
 98
        0
  0
SPLINE
  5
3C5
330
3BD
100
AcDbEntity
  8
レイヤー 1
370
     0
100
AcDbSpline
210
0.0
220
0.0
230
1.0
 70
    11
 71
     3
 72
    29
 73
    25
 74
     0
 42
0.000000001
 43
0.0000000001
 40
0.0
 40
0.0
 40
0.0
 40
0.0
 40
1.0
 40
1.0
 40
1.0
 40
2.0
 40
2.0
 40
2.0
 40
3.0
 40
3.0
 40
3.0
 40
4.0
 40
4.0
 40
4.0
 40
5.0
 40
5.0
 40
5.0
 40
6.0
 40
6.0
 40
6.0
 40
7.0
 40
7.0
 40
7.0
 40
8.0
 40
8.0
 40
8.0
 40
8.0
 10
101.6420971922469
 20
132.8388354296931
 30
0.0
 10
101.630039350094
 20
134.7164137077823
 30
0.0
 10
102.2236296937908
 20
138.0598810818841
 30
0.0
 10
103.7487744712405
 20
142.5378191476827
 30
0.0
 10
105.819967243327
 20
148.5896501242061
 30
0.0
 10
107.0602024361932
 20
150.8074318058939
 30
0.0
 10
108.1522984254671
 20
151.8833358357054
 30
0.0
 10
109.741177511439
 20
153.4532668840085
 30
0.0
 10
111.8740375333931
 20
153.5290590346837
 30
0.0
 10
112.5075910110823
 20
153.4532668840085
 30
0.0
 10
113.4012493694975
 20
153.3490526768302
 30
0.0
 10
114.6683563248758
 20
152.7580461564518
 30
0.0
 10
114.7493161221879
 20
150.7838328862519
 30
0.0
 10
114.8106388622796
 20
149.0909118479895
 30
0.0
 10
114.3186789024427
 20
145.9191825971221
 30
0.0
 10
112.6164561002338
 20
140.9489400617108
 30
0.0
 10
110.6444821435766
 20
135.1746117095912
 30
0.0
 10
109.4669477299053
 20
132.8960240524753
 30
0.0
 10
108.5212683953448
 20
131.9072809959403
 30
0.0
 10
106.7346406980658
 20
130.0538184021569
 30
0.0
 10
104.8222669326213
 20
130.2336525051225
 30
0.0
 10
104.5408024457958
 20
130.2336525051225
 30
0.0
 10
104.1721769856939
 20
130.2336525051225
 30
0.0
 10
101.6465758193322
 20
130.6305277668397
 30
0.0
 10
101.6420971922469
 20
132.8388354296931
 30
0.0
  0
SPLINE
  5
3C6
330
3BD
100
AcDbEntity
  8
レイヤー 1
370
     0
100
AcDbSpline
210
0.0
220
0.0
230
1.0
 70
    11
 71
     3
 72
    32
 73
    28
 74
     0
 42
0.000000001
 43
0.0000000001
 40
0.0
 40
0.0
 40
0.0
 40
0.0
 40
1.0
 40
1.0
 40
1.0
 40
2.0
 40
2.0
 40
2.0
 40
3.0
 40
3.0
 40
3.0
 40
4.0
 40
4.0
 40
4.0
 40
5.0
 40
5.0
 40
5.0
 40
6.0
 40
6.0
 40
6.0
 40
7.0
 40
7.0
 40
7.0
 40
8.0
 40
8.0
 40
8.0
 40
9.0
 40
9.0
 40
9.0
 40
9.0
 10
106.2595617172429
 20
153.4105476718098
 30
0.0
 10
104.8222669326213
 20
151.5474388043041
 30
0.0
 10
103.7177685914188
 20
149.8758773721411
 30
0.0
 10
101.9232171692965
 20
144.6141795664062
 30
0.0
 10
100.2754269116635
 20
139.7999999594306
 30
0.0
 10
99.22777268346732
 20
136.3052927937542
 30
0.0
 10
99.06964269637689
 20
132.039572749846
 30
0.0
 10
98.94665270641765
 20
128.8673267343149
 30
0.0
 10
100.8807305877373
 20
127.8027915271048
 30
0.0
 10
103.7129454545577
 20
127.8027915271048
 30
0.0
 10
104.9352661390825
 20
127.8027915271048
 30
0.0
 10
108.0151835347002
 20
127.8827177950895
 30
0.0
 10
110.2045431598849
 20
130.5926316915021
 30
0.0
 10
111.7417457794874
 20
132.4984597712065
 30
0.0
 10
113.155269389579
 20
134.475256864725
 30
0.0
 10
115.0562743324223
 20
140.9489400617108
 30
0.0
 10
116.6361961642235
 20
146.3680788349845
 30
0.0
 10
117.7282921534974
 20
149.8639917848761
 30
0.0
 10
117.6480213757369
 20
151.8595646611754
 30
0.0
 10
117.6480213757369
 20
151.8595646611754
 30
0.0
 10
117.6480213757369
 20
151.8595646611754
 30
0.0
 10
117.6480213757369
 20
151.8595646611754
 30
0.0
 10
117.13229024137
 20
155.18150017429
 30
0.0
 10
114.7162431837115
 20
155.886194920681
 30
0.0
 10
113.3351034925446
 20
155.886194920681
 30
0.0
 10
111.9829026225447
 20
155.886194920681
 30
0.0
 10
108.3414342923792
 20
156.1251124501957
 30
0.0
 10
106.2595617172429
 20
153.4105476718098
 30
0.0
  0
HATCH
  5
3C7
330
3BD
100
AcDbEntity
  8
レイヤー 1
 62
   250
420
  2234388
100
AcDbHatch
 10
0.0
 20
0.0
 30
0.0
210
0.0
220
0.0
230
1.0
  2
SOLID
 70
     1
 71
     0
 91
        2
 92
        1
 93
        1
 72
     4
 94
        3
 73
     0
 74
     1
 95
       29
 96
       25
 40
0.0
 40
0.0
 40
0.0
 40
0.0
 40
1.0
 40
1.0
 40
1.0
 40
2.0
 40
2.0
 40
2.0
 40
3.0
 40
3.0
 40
3.0
 40
4.0
 40
4.0
 40
4.0
 40
5.0
 40
5.0
 40
5.0
 40
6.0
 40
6.0
 40
6.0
 40
7.0
 40
7.0
 40
7.0
 40
8.0
 40
8.0
 40
8.0
 40
8.0
 10
101.6420971922469
 20
132.8388354296931
 10
101.630039350094
 20
134.7164137077823
 10
102.2236296937908
 20
138.0598810818841
 10
103.7487744712405
 20
142.5378191476827
 10
105.819967243327
 20
148.5896501242061
 10
107.0602024361932
 20
150.8074318058939
 10
108.1522984254671
 20
151.8833358357054
 10
109.741177511439
 20
153.4532668840085
 10
111.8740375333931
 20
153.5290590346837
 10
112.5075910110823
 20
153.4532668840085
 10
113.4012493694975
 20
153.3490526768302
 10
114.6683563248758
 20
152.7580461564518
 10
114.7493161221879
 20
150.7838328862519
 10
114.8106388622796
 20
149.0909118479895
 10
114.3186789024427
 20
145.9191825971221
 10
112.6164561002338
 20
140.9489400617108
 10
110.6444821435766
 20
135.1746117095912
 10
109.4669477299053
 20
132.8960240524753
 10
108.5212683953448
 20
131.9072809959403
 10
106.7346406980658
 20
130.0538184021569
 10
104.8222669326213
 20
130.2336525051225
 10
104.5408024457958
 20
130.2336525051225
 10
104.1721769856939
 20
130.2336525051225
 10
101.6465758193322
 20
130.6305277668397
 10
101.6420971922469
 20
132.8388354296931
 97
        0
 92
        1
 93
        1
 72
     4
 94
        3
 73
     0
 74
     1
 95
       32
 96
       28
 40
0.0
 40
0.0
 40
0.0
 40
0.0
 40
1.0
 40
1.0
 40
1.0
 40
2.0
 40
2.0
 40
2.0
 40
3.0
 40
3.0
 40
3.0
 40
4.0
 40
4.0
 40
4.0
 40
5.0
 40
5.0
 40
5.0
 40
6.0
 40
6.0
 40
6.0
 40
7.0
 40
7.0
 40
7.0
 40
8.0
 40
8.0
 40
8.0
 40
9.0
 40
9.0
 40
9.0
 40
9.0
 10
106.2595617172429
 20
153.4105476718098
 10
104.8222669326213
 20
151.5474388043041
 10
103.7177685914188
 20
149.8758773721411
 10
101.9232171692965
 20
144.6141795664062
 10
100.2754269116635
 20
139.7999999594306
 10
99.22777268346732
 20
136.3052927937542
 10
99.06964269637689
 20
132.039572749846
 10
98.94665270641765
 20
128.8673267343149
 10
100.8807305877373
 20
127.8027915271048
 10
103.7129454545577
 20
127.8027915271048
 10
104.9352661390825
 20
127.8027915271048
 10
108.0151835347002
 20
127.8827177950895
 10
110.2045431598849
 20
130.5926316915021
 10
111.7417457794874
 20
132.4984597712065
 10
113.155269389579
 20
134.475256864725
 10
115.0562743324223
 20
140.9489400617108
 10
116.6361961642235
 20
146.3680788349845
 10
117.7282921534974
 20
149.8639917848761
 10
117.6480213757369
 20
151.8595646611754
 10
117.6480213757369
 20
151.8595646611754
 10
117.6480213757369
 20
151.8595646611754
 10
117.6480213757369
 20
151.8595646611754
 10
117.13229024137
 20
155.18150017429
 10
114.7162431837115
 20
155.886194920681
 10
113.3351034925446
 20
155.886194920681
 10
111.9829026225447
 20
155.886194920681
 10
108.3414342923792
 20
156.1251124501957
 10
106.2595617172429
 20
153.4105476718098
 97
        0
 75
     2
 76
     1
 98
        0
  0
ENDBLK
  5
3C8
330
3BD
100
AcDbEntity
  8
0
100
AcDbBlockEnd
  0
BLOCK
  5
11F1
330
11F0
100
AcDbEntity
  8
0
100
AcDbBlockBegin
  2
BLOCK_2
 70
     0
 10
0.0
 20
0.0
 30
0.0
  3
BLOCK_2
  1
BLOCK_2
  0
ENDBLK
  5
11F2
330
11F0
100
AcDbEntity
  8
0
100
AcDbBlockEnd
  0
BLOCK
  5
38B7
330
38B6
100
AcDbEntity
  8
0
100
AcDbBlockBegin
  2
mobile_latù
 70
     0
 10
0.0
 20
0.0
 30
0.0
  3
mobile_latù
  1
mobile_latù
  0
ENDBLK
  5
38B8
330
38B6
100
AcDbEntity
  8
0
100
AcDbBlockEnd
  0
BLOCK
  5
4FF9
330
4FF8
100
AcDbEntity
  8
0
100
AcDbBlockBegin
  2
*D8
 70
     1
 10
0.0
 20
0.0
 30
0.0
  3
*D8
  1
*D26
  0
LINE
  5
4FFB
330
4FF8
100
AcDbEntity
  8
Dim
 62
     0
370
    -2
100
AcDbLine
 10
1218.775732351491
 20
1537.191964660655
 30
0.0
 11
1289.192180018747
 21
1537.191964660655
 31
0.0
  0
LINE
  5
4FFC
330
4FF8
100
AcDbEntity
  8
Dim
 62
     0
370
    -2
100
AcDbLine
 10
1198.775732351491
 20
1439.191964660655
 30
0.0
 11
1289.192180018747
 21
1439.191964660655
 31
0.0
  0
LINE
  5
4FFD
330
4FF8
100
AcDbEntity
  8
Dim
 62
     0
370
    -2
100
AcDbLine
 10
1289.192180018747
 20
1527.192575012218
 30
0.0
 11
1289.192180018747
 21
1449.191354309093
 31
0.0
  0
INSERT
  5
4FFE
330
4FF8
100
AcDbEntity
  8
Dim
 62
     0
370
    -2
100
AcDbBlockReference
  2
_DOT
 10
1289.192180018747
 20
1537.191964660655
 30
0.0
 41
9.999389648437498
 42
9.999389648437498
 43
9.999389648437498
 50
90.0
  0
INSERT
  5
4FFF
330
4FF8
100
AcDbEntity
  8
Dim
 62
     0
370
    -2
100
AcDbBlockReference
  2
_DOT
 10
1289.192180018747
 20
1439.191964660655
 30
0.0
 41
9.999389648437498
 42
9.999389648437498
 43
9.999389648437498
 50
270.0
  0
MTEXT
  5
5000
330
4FF8
100
AcDbEntity
  8
Dim
 62
     0
100
AcDbMText
 10
1266.975871424997
 20
1488.191964660655
 30
0.0
 40
24.4326171875
 41
0.0
 46
0.0
 71
     5
 72
     1
  1
\A1;98
  7
ＭＳ ゴシック
 11
0.0
 21
1.0
 31
0.0
 73
     1
 44
1.0
  0
POINT
  5
5001
330
4FF8
100
AcDbEntity
  8
Defpoints
 62
     0
100
AcDbPoint
 10
1193.775732351491
 20
1537.191964660655
 30
0.0
  0
POINT
  5
5002
330
4FF8
100
AcDbEntity
  8
Defpoints
 62
     0
100
AcDbPoint
 10
1173.775732351491
 20
1439.191964660655
 30
0.0
  0
POINT
  5
5003
330
4FF8
100
AcDbEntity
  8
Defpoints
 62
     0
100
AcDbPoint
 10
1289.192180018747
 20
1439.191964660655
 30
0.0
  0
ENDBLK
  5
4FFA
330
4FF8
100
AcDbEntity
  8
0
100
AcDbBlockEnd
  0
BLOCK
  5
500C
330
500B
100
AcDbEntity
  8
0
100
AcDbBlockBegin
  2
*D9
 70
     1
 10
0.0
 20
0.0
 30
0.0
  3
*D9
  1
*D27
  0
LINE
  5
500E
330
500B
100
AcDbEntity
  8
Dim
 62
     0
370
    -2
100
AcDbLine
 10
1193.775732351491
 20
1562.191964660655
 30
0.0
 11
1193.775732351491
 21
1672.42118731208
 31
0.0
  0
LINE
  5
500F
330
500B
100
AcDbEntity
  8
Dim
 62
     0
370
    -2
100
AcDbLine
 10
1173.775732351491
 20
1562.191964660655
 30
0.0
 11
1173.775732351491
 21
1672.42118731208
 31
0.0
  0
LINE
  5
5010
330
500B
100
AcDbEntity
  8
Dim
 62
     0
370
    -2
100
AcDbLine
 10
1173.775732351491
 20
1672.42118731208
 30
0.0
 11
1100.211489668977
 21
1672.42118731208
 31
0.0
  0
LINE
  5
5011
330
500B
100
AcDbEntity
  8
Dim
 62
     0
370
    -2
100
AcDbLine
 10
1183.776342703053
 20
1672.42118731208
 30
0.0
 11
1183.775121999928
 21
1672.42118731208
 31
0.0
  0
INSERT
  5
5012
330
500B
100
AcDbEntity
  8
Dim
 62
     0
370
    -2
100
AcDbBlockReference
  2
_DOT
 10
1193.775732351491
 20
1672.42118731208
 30
0.0
 41
9.999389648437498
 42
9.999389648437498
 43
9.999389648437498
  0
INSERT
  5
5013
330
500B
100
AcDbEntity
  8
Dim
 62
     0
370
    -2
100
AcDbBlockReference
  2
_DOT
 10
1173.775732351491
 20
1672.42118731208
 30
0.0
 41
9.999389648437498
 42
9.999389648437498
 43
9.999389648437498
 50
180.0
  0
MTEXT
  5
5014
330
500B
100
AcDbEntity
  8
Dim
 62
     0
100
AcDbMText
 10
1124.724464278352
 20
1694.63749590583
 30
0.0
 40
24.4326171875
 41
0.0
 46
0.0
 71
     5
 72
     1
  1
\A1;20
  7
ＭＳ ゴシック
 73
     1
 44
1.0
  0
POINT
  5
5015
330
500B
100
AcDbEntity
  8
Defpoints
 62
     0
100
AcDbPoint
 10
1193.775732351491
 20
1537.191964660655
 30
0.0
  0
POINT
  5
5016
330
500B
100
AcDbEntity
  8
Defpoints
 62
     0
100
AcDbPoint
 10
1173.775732351491
 20
1537.191964660655
 30
0.0
  0
POINT
  5
508B
330
500B
100
AcDbEntity
  8
Defpoints
 62
     0
100
AcDbPoint
 10
1173.775732351491
 20
1672.42118731208
 30
0.0
  0
ENDBLK
  5
500D
330
500B
100
AcDbEntity
  8
0
100
AcDbBlockEnd
  0
BLOCK
  5
5058
330
5057
100
AcDbEntity
  8
0
100
AcDbBlockBegin
  2
*D10
 70
     1
 10
0.0
 20
0.0
 30
0.0
  3
*D10
  1
*D31
  0
LINE
  5
505A
330
5057
100
AcDbEntity
  8
Dim
 62
     0
370
    -2
100
AcDbLine
 10
1474.040036263704
 20
1559.191964660655
 30
0.0
 11
1474.040036263704
 21
1672.42118731208
 31
0.0
  0
LINE
  5
505B
330
5057
100
AcDbEntity
  8
Dim
 62
     0
370
    -2
100
AcDbLine
 10
1524.040036263704
 20
1559.191964660655
 30
0.0
 11
1524.040036263704
 21
1672.42118731208
 31
0.0
  0
LINE
  5
505C
330
5057
100
AcDbEntity
  8
Dim
 62
     0
370
    -2
100
AcDbLine
 10
1484.039425912142
 20
1672.42118731208
 30
0.0
 11
1514.040646615267
 21
1672.42118731208
 31
0.0
  0
INSERT
  5
505D
330
5057
100
AcDbEntity
  8
Dim
 62
     0
370
    -2
100
AcDbBlockReference
  2
_DOT
 10
1474.040036263704
 20
1672.42118731208
 30
0.0
 41
9.999389648437498
 42
9.999389648437498
 43
9.999389648437498
 50
180.0
  0
INSERT
  5
505E
330
5057
100
AcDbEntity
  8
Dim
 62
     0
370
    -2
100
AcDbBlockReference
  2
_DOT
 10
1524.040036263704
 20
1672.42118731208
 30
0.0
 41
9.999389648437498
 42
9.999389648437498
 43
9.999389648437498
  0
MTEXT
  5
505F
330
5057
100
AcDbEntity
  8
Dim
 62
     0
100
AcDbMText
 10
1499.040036263704
 20
1694.63749590583
 30
0.0
 40
24.4326171875
 41
0.0
 46
0.0
 71
     5
 72
     1
  1
\A1;50
  7
ＭＳ ゴシック
 73
     1
 44
1.0
  0
POINT
  5
5060
330
5057
100
AcDbEntity
  8
Defpoints
 62
     0
100
AcDbPoint
 10
1474.040036263704
 20
1534.191964660655
 30
0.0
  0
POINT
  5
5061
330
5057
100
AcDbEntity
  8
Defpoints
 62
     0
100
AcDbPoint
 10
1524.040036263704
 20
1534.191964660655
 30
0.0
  0
POINT
  5
5062
330
5057
100
AcDbEntity
  8
Defpoints
 62
     0
100
AcDbPoint
 10
1524.040036263704
 20
1672.42118731208
 30
0.0
  0
ENDBLK
  5
5059
330
5057
100
AcDbEntity
  8
0
100
AcDbBlockEnd
  0
BLOCK
  5
5080
330
507F
100
AcDbEntity
  8
0
100
AcDbBlockBegin
  2
*D11
 70
     1
 10
0.0
 20
0.0
 30
0.0
  3
*D11
  1
*D33
  0
LINE
  5
5082
330
507F
100
AcDbEntity
  8
Dim
 62
     0
370
    -2
100
AcDbLine
 10
1193.775732351491
 20
1431.317205371051
 30
0.0
 11
1193.775732351491
 21
1310.597093863823
 31
0.0
  0
LINE
  5
5083
330
507F
100
AcDbEntity
  8
Dim
 62
     0
370
    -2
100
AcDbLine
 10
253.7757323514907
 20
1431.317205371051
 30
0.0
 11
253.7757323514907
 21
1310.597093863823
 31
0.0
  0
LINE
  5
5084
330
507F
100
AcDbEntity
  8
Dim
 62
     0
370
    -2
100
AcDbLine
 10
1183.776342703053
 20
1310.597093863823
 30
0.0
 11
263.7751219999282
 21
1310.597093863823
 31
0.0
  0
INSERT
  5
5085
330
507F
100
AcDbEntity
  8
Dim
 62
     0
370
    -2
100
AcDbBlockReference
  2
_DOT
 10
1193.775732351491
 20
1310.597093863823
 30
0.0
 41
9.999389648437498
 42
9.999389648437498
 43
9.999389648437498
  0
INSERT
  5
5086
330
507F
100
AcDbEntity
  8
Dim
 62
     0
370
    -2
100
AcDbBlockReference
  2
_DOT
 10
253.7757323514907
 20
1310.597093863823
 30
0.0
 41
9.999389648437498
 42
9.999389648437498
 43
9.999389648437498
 50
180.0
  0
MTEXT
  5
5087
330
507F
100
AcDbEntity
  8
Dim
 62
     0
100
AcDbMText
 10
723.7757323514907
 20
1332.813402457573
 30
0.0
 40
24.4326171875
 41
0.0
 46
0.0
 71
     5
 72
     1
  1
\A1;940
  7
ＭＳ ゴシック
 73
     1
 44
1.0
  0
POINT
  5
5088
330
507F
100
AcDbEntity
  8
Defpoints
 62
     0
100
AcDbPoint
 10
1193.775732351491
 20
1456.317205371051
 30
0.0
  0
POINT
  5
5089
330
507F
100
AcDbEntity
  8
Defpoints
 62
     0
100
AcDbPoint
 10
253.7757323514907
 20
1456.317205371051
 30
0.0
  0
POINT
  5
508A
330
507F
100
AcDbEntity
  8
Defpoints
 62
     0
100
AcDbPoint
 10
253.7757323514907
 20
1310.597093863823
 30
0.0
  0
ENDBLK
  5
5081
330
507F
100
AcDbEntity
  8
0
100
AcDbBlockEnd
  0
BLOCK
  5
50A3
330
50A2
100
AcDbEntity
  8
0
100
AcDbBlockBegin
  2
*D12
 70
     1
 10
0.0
 20
0.0
 30
0.0
  3
*D12
  1
*D34
  0
LINE
  5
50A5
330
50A2
100
AcDbEntity
  8
Dim
 62
     0
370
    -2
100
AcDbLine
 10
1474.040036263704
 20
1424.191964660655
 30
0.0
 11
1474.040036263704
 21
1310.597093863823
 31
0.0
  0
LINE
  5
50A6
330
50A2
100
AcDbEntity
  8
Dim
 62
     0
370
    -2
100
AcDbLine
 10
1494.040036263704
 20
1424.191964660655
 30
0.0
 11
1494.040036263704
 21
1310.597093863823
 31
0.0
  0
LINE
  5
50A7
330
50A2
100
AcDbEntity
  8
Dim
 62
     0
370
    -2
100
AcDbLine
 10
1494.040036263704
 20
1310.597093863823
 30
0.0
 11
1563.064764779329
 21
1310.597093863823
 31
0.0
  0
LINE
  5
50A8
330
50A2
100
AcDbEntity
  8
Dim
 62
     0
370
    -2
100
AcDbLine
 10
1484.039425912142
 20
1310.597093863823
 30
0.0
 11
1484.040646615267
 21
1310.597093863823
 31
0.0
  0
INSERT
  5
50A9
330
50A2
100
AcDbEntity
  8
Dim
 62
     0
370
    -2
100
AcDbBlockReference
  2
_DOT
 10
1474.040036263704
 20
1310.597093863823
 30
0.0
 41
9.999389648437498
 42
9.999389648437498
 43
9.999389648437498
 50
180.0
  0
INSERT
  5
50AA
330
50A2
100
AcDbEntity
  8
Dim
 62
     0
370
    -2
100
AcDbBlockReference
  2
_DOT
 10
1494.040036263704
 20
1310.597093863823
 30
0.0
 41
9.999389648437498
 42
9.999389648437498
 43
9.999389648437498
  0
MTEXT
  5
50AB
330
50A2
100
AcDbEntity
  8
Dim
 62
     0
100
AcDbMText
 10
1538.551790169954
 20
1332.813402457573
 30
0.0
 40
24.4326171875
 41
0.0
 46
0.0
 71
     5
 72
     1
  1
\A1;20
  7
ＭＳ ゴシック
 73
     1
 44
1.0
  0
POINT
  5
50AC
330
50A2
100
AcDbEntity
  8
Defpoints
 62
     0
100
AcDbPoint
 10
1474.040036263704
 20
1449.191964660655
 30
0.0
  0
POINT
  5
50AD
330
50A2
100
AcDbEntity
  8
Defpoints
 62
     0
100
AcDbPoint
 10
1494.040036263704
 20
1449.191964660655
 30
0.0
  0
POINT
  5
50AE
330
50A2
100
AcDbEntity
  8
Defpoints
 62
     0
100
AcDbPoint
 10
1494.040036263704
 20
1310.597093863823
 30
0.0
  0
ENDBLK
  5
50A4
330
50A2
100
AcDbEntity
  8
0
100
AcDbBlockEnd
  0
BLOCK
  5
50D8
330
50D7
100
AcDbEntity
  8
0
100
AcDbBlockBegin
  2
*D13
 70
     1
 10
0.0
 20
0.0
 30
0.0
  3
*D13
  1

  0
LINE
  5
50DA
330
50D7
100
AcDbEntity
  8
Dim
 62
     0
370
    -2
100
AcDbLine
 10
1549.040036263704
 20
1537.191964660655
 30
0.0
 11
1630.35333055038
 21
1537.191964660655
 31
0.0
  0
LINE
  5
50DB
330
50D7
100
AcDbEntity
  8
Dim
 62
     0
370
    -2
100
AcDbLine
 10
1513.39007882073
 20
1437.191964660655
 30
0.0
 11
1630.35333055038
 21
1437.191964660655
 31
0.0
  0
LINE
  5
50DC
330
50D7
100
AcDbEntity
  8
Dim
 62
     0
370
    -2
100
AcDbLine
 10
1630.35333055038
 20
1527.192575012218
 30
0.0
 11
1630.35333055038
 21
1447.191354309093
 31
0.0
  0
INSERT
  5
50DD
330
50D7
100
AcDbEntity
  8
Dim
 62
     0
370
    -2
100
AcDbBlockReference
  2
_DOT
 10
1630.35333055038
 20
1537.191964660655
 30
0.0
 41
9.999389648437498
 42
9.999389648437498
 43
9.999389648437498
 50
90.0
  0
INSERT
  5
50DE
330
50D7
100
AcDbEntity
  8
Dim
 62
     0
370
    -2
100
AcDbBlockReference
  2
_DOT
 10
1630.35333055038
 20
1437.191964660655
 30
0.0
 41
9.999389648437498
 42
9.999389648437498
 43
9.999389648437498
 50
270.0
  0
MTEXT
  5
50DF
330
50D7
100
AcDbEntity
  8
Dim
 62
     0
100
AcDbMText
 10
1608.13702195663
 20
1487.191964660655
 30
0.0
 40
24.4326171875
 41
0.0
 46
0.0
 71
     5
 72
     1
  1
\A1;100
  7
ＭＳ ゴシック
 11
0.0
 21
1.0
 31
0.0
 73
     1
 44
1.0
  0
POINT
  5
50E0
330
50D7
100
AcDbEntity
  8
Defpoints
 62
     0
100
AcDbPoint
 10
1524.040036263704
 20
1537.191964660655
 30
0.0
  0
POINT
  5
50E1
330
50D7
100
AcDbEntity
  8
Defpoints
 62
     0
100
AcDbPoint
 10
1488.39007882073
 20
1437.191964660655
 30
0.0
  0
POINT
  5
50E2
330
50D7
100
AcDbEntity
  8
Defpoints
 62
     0
100
AcDbPoint
 10
1630.35333055038
 20
1437.191964660655
 30
0.0
  0
ENDBLK
  5
50D9
330
50D7
100
AcDbEntity
  8
0
100
AcDbBlockEnd
  0
BLOCK
  5
50E8
330
50E7
100
AcDbEntity
  8
0
100
AcDbBlockBegin
  2
*D14
 70
     1
 10
0.0
 20
0.0
 30
0.0
  3
*D14
  1

  0
LINE
  5
50EA
330
50E7
100
AcDbEntity
  8
Dim
 62
     0
370
    -2
100
AcDbLine
 10
1457.756616450506
 20
1459.36094550445
 30
0.0
 11
1439.942302436802
 21
1459.36094550445
 31
0.0
  0
LINE
  5
50EB
330
50E7
100
AcDbEntity
  8
Dim
 62
     0
370
    -2
100
AcDbLine
 10
1459.040036263704
 20
1439.191964660655
 30
0.0
 11
1439.942302436802
 21
1439.191964660655
 31
0.0
  0
LINE
  5
50EC
330
50E7
100
AcDbEntity
  8
Dim
 62
     0
370
    -2
100
AcDbLine
 10
1439.942302436802
 20
1459.36094550445
 30
0.0
 11
1439.942302436802
 21
1439.191964660655
 31
0.0
  0
LINE
  5
50ED
330
50E7
100
AcDbEntity
  8
Dim
 62
     0
370
    -2
100
AcDbLine
 10
1439.942302436802
 20
1469.360335152888
 30
0.0
 11
1439.942302436802
 21
1479.359724801325
 31
0.0
  0
LINE
  5
50EE
330
50E7
100
AcDbEntity
  8
Dim
 62
     0
370
    -2
100
AcDbLine
 10
1439.942302436802
 20
1429.192575012218
 30
0.0
 11
1439.942302436802
 21
1419.19318536378
 31
0.0
  0
INSERT
  5
50EF
330
50E7
100
AcDbEntity
  8
Dim
 62
     0
370
    -2
100
AcDbBlockReference
  2
_DOT
 10
1439.942302436802
 20
1459.36094550445
 30
0.0
 41
9.999389648437498
 42
9.999389648437498
 43
9.999389648437498
 50
270.0
  0
INSERT
  5
50F0
330
50E7
100
AcDbEntity
  8
Dim
 62
     0
370
    -2
100
AcDbBlockReference
  2
_DOT
 10
1439.942302436802
 20
1439.191964660655
 30
0.0
 41
9.999389648437498
 42
9.999389648437498
 43
9.999389648437498
 50
90.0
  0
MTEXT
  5
50F1
330
50E7
100
AcDbEntity
  8
Dim
 62
     0
100
AcDbMText
 10
1417.725993843052
 20
1449.276455082553
 30
0.0
 40
24.4326171875
 41
0.0
 46
0.0
 71
     5
 72
     1
  1
\A1;20.2
  7
ＭＳ ゴシック
 11
0.0
 21
1.0
 31
0.0
 73
     1
 44
1.0
  0
POINT
  5
50F2
330
50E7
100
AcDbEntity
  8
Defpoints
 62
     0
100
AcDbPoint
 10
1482.756616450506
 20
1459.36094550445
 30
0.0
  0
POINT
  5
50F3
330
50E7
100
AcDbEntity
  8
Defpoints
 62
     0
100
AcDbPoint
 10
1484.040036263704
 20
1439.191964660655
 30
0.0
  0
POINT
  5
50F4
330
50E7
100
AcDbEntity
  8
Defpoints
 62
     0
100
AcDbPoint
 10
1439.942302436802
 20
1439.191964660655
 30
0.0
  0
ENDBLK
  5
50E9
330
50E7
100
AcDbEntity
  8
0
100
AcDbBlockEnd
  0
BLOCK
  5
50F9
330
50F8
100
AcDbEntity
  8
0
100
AcDbBlockBegin
  2
*D15
 70
     1
 10
0.0
 20
0.0
 30
0.0
  3
*D15
  1

  0
LINE
  5
50FB
330
50F8
100
AcDbEntity
  8
Dim
 62
     0
370
    -2
100
AcDbLine
 10
1459.040036263704
 20
1459.191964660655
 30
0.0
 11
1423.605261563151
 21
1459.191964660655
 31
0.0
  0
LINE
  5
50FC
330
50F8
100
AcDbEntity
  8
Dim
 62
     0
370
    -2
100
AcDbLine
 10
1462.919509933789
 20
1439.571830001507
 30
0.0
 11
1423.605261563151
 21
1439.571830001507
 31
0.0
  0
LINE
  5
50FD
330
50F8
100
AcDbEntity
  8
Dim
 62
     0
370
    -2
100
AcDbLine
 10
1423.605261563151
 20
1459.191964660655
 30
0.0
 11
1423.605261563151
 21
1439.571830001507
 31
0.0
  0
LINE
  5
50FE
330
50F8
100
AcDbEntity
  8
Dim
 62
     0
370
    -2
100
AcDbLine
 10
1423.605261563151
 20
1469.191354309093
 30
0.0
 11
1423.605261563151
 21
1479.19074395753
 31
0.0
  0
LINE
  5
50FF
330
50F8
100
AcDbEntity
  8
Dim
 62
     0
370
    -2
100
AcDbLine
 10
1423.605261563151
 20
1429.572440353069
 30
0.0
 11
1423.605261563151
 21
1419.573050704632
 31
0.0
  0
INSERT
  5
5100
330
50F8
100
AcDbEntity
  8
Dim
 62
     0
370
    -2
100
AcDbBlockReference
  2
_DOT
 10
1423.605261563151
 20
1459.191964660655
 30
0.0
 41
9.999389648437498
 42
9.999389648437498
 43
9.999389648437498
 50
270.0
  0
INSERT
  5
5101
330
50F8
100
AcDbEntity
  8
Dim
 62
     0
370
    -2
100
AcDbBlockReference
  2
_DOT
 10
1423.605261563151
 20
1439.571830001507
 30
0.0
 41
9.999389648437498
 42
9.999389648437498
 43
9.999389648437498
 50
90.0
  0
MTEXT
  5
5102
330
50F8
100
AcDbEntity
  8
Dim
 62
     0
100
AcDbMText
 10
1401.388952969401
 20
1449.381897331081
 30
0.0
 40
24.4326171875
 41
0.0
 46
0.0
 71
     5
 72
     1
  1
\A1;19.6
  7
ＭＳ ゴシック
 11
0.0
 21
1.0
 31
0.0
 73
     1
 44
1.0
  0
POINT
  5
5103
330
50F8
100
AcDbEntity
  8
Defpoints
 62
     0
100
AcDbPoint
 10
1484.040036263704
 20
1459.191964660655
 30
0.0
  0
POINT
  5
5104
330
50F8
100
AcDbEntity
  8
Defpoints
 62
     0
100
AcDbPoint
 10
1487.919509933789
 20
1439.571830001507
 30
0.0
  0
POINT
  5
5105
330
50F8
100
AcDbEntity
  8
Defpoints
 62
     0
100
AcDbPoint
 10
1423.605261563151
 20
1439.571830001507
 30
0.0
  0
ENDBLK
  5
50FA
330
50F8
100
AcDbEntity
  8
0
100
AcDbBlockEnd
  0
BLOCK
  5
5108
330
5107
100
AcDbEntity
  8
0
100
AcDbBlockBegin
  2
*D16
 70
     1
 10
0.0
 20
0.0
 30
0.0
  3
*D16
  1

  0
LINE
  5
510A
330
5107
100
AcDbEntity
  8
Dim
 62
     0
370
    -2
100
AcDbLine
 10
1459.040036263704
 20
1459.191964660655
 30
0.0
 11
1428.675377696353
 21
1459.191964660655
 31
0.0
  0
LINE
  5
510B
330
5107
100
AcDbEntity
  8
Dim
 62
     0
370
    -2
100
AcDbLine
 10
1459.040036263704
 20
1439.191964660655
 30
0.0
 11
1428.675377696353
 21
1439.191964660655
 31
0.0
  0
LINE
  5
510C
330
5107
100
AcDbEntity
  8
Dim
 62
     0
370
    -2
100
AcDbLine
 10
1428.675377696353
 20
1449.192575012218
 30
0.0
 11
1428.675377696353
 21
1449.191354309093
 31
0.0
  0
INSERT
  5
510D
330
5107
100
AcDbEntity
  8
Dim
 62
     0
370
    -2
100
AcDbBlockReference
  2
_DOT
 10
1428.675377696353
 20
1459.191964660655
 30
0.0
 41
9.999389648437498
 42
9.999389648437498
 43
9.999389648437498
 50
90.0
  0
INSERT
  5
510E
330
5107
100
AcDbEntity
  8
Dim
 62
     0
370
    -2
100
AcDbBlockReference
  2
_DOT
 10
1428.675377696353
 20
1439.191964660655
 30
0.0
 41
9.999389648437498
 42
9.999389648437498
 43
9.999389648437498
 50
270.0
  0
MTEXT
  5
510F
330
5107
100
AcDbEntity
  8
Dim
 62
     0
100
AcDbMText
 10
1406.459069102603
 20
1449.191964660655
 30
0.0
 40
24.4326171875
 41
0.0
 46
0.0
 71
     5
 72
     1
  1
\A1;20
  7
ＭＳ ゴシック
 11
0.0
 21
1.0
 31
0.0
 73
     1
 44
1.0
  0
POINT
  5
5110
330
5107
100
AcDbEntity
  8
Defpoints
 62
     0
100
AcDbPoint
 10
1484.040036263704
 20
1459.191964660655
 30
0.0
  0
POINT
  5
5111
330
5107
100
AcDbEntity
  8
Defpoints
 62
     0
100
AcDbPoint
 10
1484.040036263704
 20
1439.191964660655
 30
0.0
  0
POINT
  5
5112
330
5107
100
AcDbEntity
  8
Defpoints
 62
     0
100
AcDbPoint
 10
1428.675377696353
 20
1439.191964660655
 30
0.0
  0
ENDBLK
  5
5109
330
5107
100
AcDbEntity
  8
0
100
AcDbBlockEnd
  0
BLOCK
  5
5136
330
5135
100
AcDbEntity
  8
0
100
AcDbBlockBegin
  2
*D17
 70
     1
 10
0.0
 20
0.0
 30
0.0
  3
*D17
  1

  0
LINE
  5
5138
330
5135
100
AcDbEntity
  8
Dim
 62
     0
370
    -2
100
AcDbLine
 10
1198.775732351491
 20
1459.191964660655
 30
0.0
 11
1311.569262122237
 21
1459.191964660655
 31
0.0
  0
LINE
  5
5139
330
5135
100
AcDbEntity
  8
Dim
 62
     0
370
    -2
100
AcDbLine
 10
1198.775732351491
 20
1439.191964660655
 30
0.0
 11
1311.569262122237
 21
1439.191964660655
 31
0.0
  0
LINE
  5
513A
330
5135
100
AcDbEntity
  8
Dim
 62
     0
370
    -2
100
AcDbLine
 10
1311.569262122237
 20
1459.191964660655
 30
0.0
 11
1311.569262122237
 21
1528.21669317628
 31
0.0
  0
LINE
  5
513B
330
5135
100
AcDbEntity
  8
Dim
 62
     0
370
    -2
100
AcDbLine
 10
1311.569262122237
 20
1449.192575012218
 30
0.0
 11
1311.569262122237
 21
1449.191354309093
 31
0.0
  0
LINE
  5
513C
330
5135
100
AcDbEntity
  8
Dim
 62
     0
370
    -2
100
AcDbLine
 10
1311.569262122237
 20
1449.192575012218
 30
0.0
 11
1311.569262122237
 21
1439.19318536378
 31
0.0
  0
INSERT
  5
513D
330
5135
100
AcDbEntity
  8
Dim
 62
     0
370
    -2
100
AcDbBlockReference
  2
_DOT
 10
1311.569262122237
 20
1459.191964660655
 30
0.0
 41
9.999389648437498
 42
9.999389648437498
 43
9.999389648437498
 50
90.0
  0
INSERT
  5
513E
330
5135
100
AcDbEntity
  8
Dim
 62
     0
370
    -2
100
AcDbBlockReference
  2
_DOT
 10
1311.569262122237
 20
1439.191964660655
 30
0.0
 41
9.999389648437498
 42
9.999389648437498
 43
9.999389648437498
 50
270.0
  0
MTEXT
  5
513F
330
5135
100
AcDbEntity
  8
Dim
 62
     0
100
AcDbMText
 10
1289.352953528487
 20
1503.703718566905
 30
0.0
 40
24.4326171875
 41
0.0
 46
0.0
 71
     5
 72
     1
  1
\A1;20
  7
ＭＳ ゴシック
 11
0.0
 21
1.0
 31
0.0
 73
     1
 44
1.0
  0
POINT
  5
5140
330
5135
100
AcDbEntity
  8
Defpoints
 62
     0
100
AcDbPoint
 10
1173.775732351491
 20
1459.191964660655
 30
0.0
  0
POINT
  5
5141
330
5135
100
AcDbEntity
  8
Defpoints
 62
     0
100
AcDbPoint
 10
1173.775732351491
 20
1439.191964660655
 30
0.0
  0
POINT
  5
5142
330
5135
100
AcDbEntity
  8
Defpoints
 62
     0
100
AcDbPoint
 10
1311.569262122237
 20
1439.191964660655
 30
0.0
  0
ENDBLK
  5
5137
330
5135
100
AcDbEntity
  8
0
100
AcDbBlockEnd
  0
ENDSEC
  0
SECTION
  2
ENTITIES
  0
MTEXT
  5
177
330
A
100
AcDbEntity
  8
template
390
1D
100
AcDbMText
 10
82.00000000048226
 20
348.023957835319
 30
0.0
 40
16.28841145833333
 41
0.0
 46
0.0
 71
     1
 72
     1
  1
品名
  7
ＭＳ ゴシック
 73
     1
 44
0.7828267384257843
  0
MTEXT
  5
178
330
A
100
AcDbEntity
  8
template
390
1D
100
AcDbMText
 10
82.00000000048226
 20
263.0239578353188
 30
0.0
 40
16.28841145833333
 41
0.0
 46
0.0
 71
     1
 72
     1
  1
仕様
  7
ＭＳ ゴシック
 73
     1
 44
0.7828267384257843
  0
LINE
  5
179
330
A
100
AcDbEntity
  8
template
390
1D
100
AcDbLine
 10
2025.0
 20
271.4388797103189
 30
0.0
 11
75.00000000000023
 21
271.4388797103189
 31
0.0
  0
LWPOLYLINE
  5
17A
330
A
100
AcDbEntity
  8
template
390
1D
100
AcDbPolyline
 90
        5
 70
   128
 43
0.0
 10
2025.0
 20
2901.438879710319
 10
75.00000000000023
 20
2901.438879710319
 10
75.00000000000023
 20
101.4388797103188
 10
2025.0
 20
101.4388797103188
 10
2025.0
 20
2901.438879710319
  0
LINE
  5
17B
330
A
100
AcDbEntity
  8
template
390
1D
100
AcDbLine
 10
2025.0
 20
356.4388797103188
 30
0.0
 11
75.00000000000023
 21
356.4388797103188
 31
0.0
  0
LINE
  5
17C
330
A
100
AcDbEntity
  8
template
390
1D
100
AcDbLine
 10
2025.000000000482
 20
186.4388797103189
 30
0.0
 11
1272.000000000482
 21
186.4388797103189
 31
0.0
  0
MTEXT
  5
17E
330
A
100
AcDbEntity
  8
template
390
1D
100
AcDbMText
 10
1301.871406252743
 20
156.5284852370108
 30
0.0
 40
24.4326171875
 41
0.0
 46
0.0
 71
     1
 72
     1
  1
大洋金物株式会社 ティーフォルム事業部
  7
ＭＳ ゴシック
 73
     1
 44
0.7828267384257843
  0
MTEXT
  5
180
330
A
100
AcDbEntity
  8
template
390
1D
100
AcDbMText
 10
1834.000000000742
 20
234.4414968978188
 30
0.0
 40
24.4326171875
 41
0.0
 46
0.0
 71
     1
 72
     1
  1
1:10
  7
ＭＳ ゴシック
 73
     1
 44
0.7828267384257843
  0
MTEXT
  5
181
330
A
100
AcDbEntity
  8
template
390
1D
100
AcDbMText
 10
1781.000000000742
 20
263.0239578353188
 30
0.0
 40
16.28841145833333
 41
0.0
 46
0.0
 71
     1
 72
     1
  1
縮尺
  7
ＭＳ ゴシック
 73
     1
 44
0.7828267384257843
  0
LINE
  5
182
330
A
100
AcDbEntity
  8
template
390
1D
100
AcDbLine
 10
1774.000000000742
 20
186.4388797103189
 30
0.0
 11
1774.000000000742
 21
271.4388797103189
 31
0.0
  0
MTEXT
  5
183
330
A
100
AcDbEntity
  8
template
390
1D
100
AcDbMText
 10
1530.000000000742
 20
263.0239578353188
 30
0.0
 40
16.28841145833333
 41
0.0
 46
0.0
 71
     1
 72
     1
  1
容量
  7
ＭＳ ゴシック
 73
     1
 44
0.7828267384257843
  0
LINE
  5
184
330
A
100
AcDbEntity
  8
template
390
1D
100
AcDbLine
 10
1523.000000000742
 20
186.4388797103189
 30
0.0
 11
1523.000000000742
 21
271.4388797103189
 31
0.0
  0
MTEXT
  5
185
330
A
100
AcDbEntity
  8
template
390
1D
100
AcDbMText
 10
1279.000000000742
 20
348.023957835319
 30
0.0
 40
16.28841145833333
 41
0.0
 46
0.0
 71
     1
 72
     1
  1
品番
  7
ＭＳ ゴシック
 73
     1
 44
0.7828267384257843
  0
MTEXT
  5
186
330
A
100
AcDbEntity
  8
template
390
1D
100
AcDbMText
 10
1279.000000000742
 20
263.0239578353188
 30
0.0
 40
16.28841145833333
 41
0.0
 46
0.0
 71
     1
 72
     1
  1
重量
  7
ＭＳ ゴシック
 73
     1
 44
0.7828267384257843
  0
MTEXT
  5
187
330
A
100
AcDbEntity
  8
template
390
1D
100
AcDbMText
 10
1332.000000000742
 20
319.4414968978188
 30
0.0
 40
24.4326171875
 41
0.0
 46
24.4326171875
 71
     1
 72
     1
  1
{ADF75-2601}
  7
ＭＳ ゴシック
 73
     1
 44
0.7828267384257843
1001
ACAD
1000
ACAD_MTEXT_DEFINED_HEIGHT_BEGIN
1070
    46
1040
24.4326171875
1000
ACAD_MTEXT_DEFINED_HEIGHT_END
  0
LINE
  5
188
330
A
100
AcDbEntity
  8
template
390
1D
100
AcDbLine
 10
1272.000000000742
 20
101.4388797103188
 30
0.0
 11
1272.000000000742
 21
356.4388797103188
 31
0.0
  0
MTEXT
  5
189
330
A
100
AcDbEntity
  8
template
390
1D
100
AcDbMText
 10
135.0000000004822
 20
319.4414968978188
 30
0.0
 40
24.4326171875
 41
0.0
 46
27.5355595703125
 71
     1
 72
     1
  1
{タオルバー -CATALANO, Green-}
  7
ＭＳ ゴシック
 73
     1
 44
0.7828267384257843
1001
ACAD
1000
ACAD_MTEXT_DEFINED_HEIGHT_BEGIN
1070
    46
1040
27.5355595703125
1000
ACAD_MTEXT_DEFINED_HEIGHT_END
  0
MTEXT
  5
18A
330
A
100
AcDbEntity
  8
template
 62
     1
390
1D
100
AcDbMText
 10
135.0000000004822
 20
234.4414968978188
 30
0.0
 40
24.4326171875
 41
0.0
 46
24.7991064453125
 71
     1
 72
     1
  1
{\C256;クローム}
  7
ＭＳ ゴシック
 73
     1
 44
0.9822934569727008
1001
ACAD
1000
ACAD_MTEXT_DEFINED_HEIGHT_BEGIN
1070
    46
1040
24.7991064453125
1000
ACAD_MTEXT_DEFINED_HEIGHT_END
  0
INSERT
  5
3D0
330
A
100
AcDbEntity
  8
template
100
AcDbBlockReference
  2
名称未設定-1
 10
1873.559250554905
 20
30.23897196054438
 30
0.0
 41
0.7619999999999999
 42
0.7619999999999999
 43
0.7619999999999999
  0
MTEXT
  5
BDB
102
{ACAD_XDICTIONARY
360
BDC
102
}
330
A
100
AcDbEntity
  8
template
  6
Continuous
100
AcDbMText
 10
78.95663872901252
 20
86.10730750352229
 30
0.0
 40
23.0
 41
0.0
 46
23.0
 71
     1
 72
     1
  1
{20170725N}
  7
ＭＳ ゴシック
 73
     1
 44
1.0
1001
ACAD
1000
ACAD_MTEXT_DEFINED_HEIGHT_BEGIN
1070
    46
1040
23.0
1000
ACAD_MTEXT_DEFINED_HEIGHT_END
  0
LWPOLYLINE
  5
BEE
330
A
100
AcDbEntity
  8
PRINT BORDER
100
AcDbPolyline
 90
        4
 70
     1
 43
0.0
 10
0.0
 20
0.0
 10
0.0
 20
2970.0
 10
2100.0
 20
2970.0
 10
2100.0
 20
0.0
  0
INSERT
  5
1273
330
A
100
AcDbEntity
  8
0
 62
     7
100
AcDbBlockReference
  2
BLOCK_2
 10
591.2037060744204
 20
943.564364962162
 30
0.0
  0
INSERT
  5
127B
330
A
100
AcDbEntity
  8
0
 62
     7
100
AcDbBlockReference
  2
BLOCK_2
 10
1291.863324028138
 20
1038.76992320659
 30
0.0
  0
INSERT
  5
127C
330
A
100
AcDbEntity
  8
0
 62
     7
100
AcDbBlockReference
  2
BLOCK_2
 10
652.1648429406905
 20
1595.641631888467
 30
0.0
  0
CIRCLE
  5
142C
330
A
100
AcDbEntity
  8
Dim
  6
Continuous
100
AcDbCircle
 10
1366.841726484681
 20
1758.85027442579
 30
0.0
 40
0.0
  0
INSERT
  5
3B99
330
A
100
AcDbEntity
  8
retino
100
AcDbBlockReference
  2
mobile_latù
 10
-92101.31485198285
 20
1730.415535296608
 30
0.0
  0
INSERT
  5
467E
330
A
100
AcDbEntity
  8
retino
100
AcDbBlockReference
  2
mobile_latù
 10
-100894.893236163
 20
1696.039721945452
 30
0.0
  0
LINE
  5
467F
330
A
100
AcDbEntity
  8
HIDDEN
100
AcDbLine
 10
137.3461022103236
 20
1611.191971999079
 30
0.0
 11
192.0023349440105
 21
1611.191971999079
 31
0.0
  0
LINE
  5
4680
330
A
100
AcDbEntity
  8
HIDDEN
100
AcDbLine
 10
1255.549129758971
 20
1611.191971999079
 30
0.0
 11
192.0023349440105
 21
1611.191971999079
 31
0.0
  0
LINE
  5
4681
330
A
100
AcDbEntity
  8
HIDDEN
100
AcDbLine
 10
1310.205362492658
 20
1611.191971999079
 30
0.0
 11
1255.549129758971
 21
1611.191971999079
 31
0.0
  0
SPLINE
  5
4682
330
A
100
AcDbEntity
  8
HIDDEN
100
AcDbSpline
210
0.0
220
0.0
230
1.0
 70
     8
 71
     7
 72
    31
 73
    23
 74
     0
 42
0.000000001
 43
0.0000000001
 40
0.0
 40
0.0
 40
0.0
 40
0.0
 40
0.0
 40
0.0
 40
0.0
 40
0.0
 40
0.3811359999999999
 40
0.3811359999999999
 40
0.3811359999999999
 40
0.3811359999999999
 40
0.3811359999999999
 40
0.4591999999999999
 40
0.4591999999999999
 40
0.4591999999999999
 40
0.4591999999999999
 40
0.4591999999999999
 40
0.82
 40
0.82
 40
0.82
 40
0.82
 40
0.82
 40
1.0
 40
1.0
 40
1.0
 40
1.0
 40
1.0
 40
1.0
 40
1.0
 40
1.0
 10
137.3461022103236
 20
1611.191970724489
 30
0.0
 10
136.457328458049
 20
1611.19197072449
 30
0.0
 10
135.568554705789
 20
1611.22320131827
 30
0.0
 10
134.6810756480788
 20
1611.280064139811
 30
0.0
 10
133.7955223358238
 20
1611.369155433463
 30
0.0
 10
132.9141766542541
 20
1611.492579591654
 30
0.0
 10
131.8598563569919
 20
1611.68448878056
 30
0.0
 10
130.8166102474149
 20
1611.926046514535
 30
0.0
 10
130.6394644004265
 20
1611.967963409816
 30
0.0
 10
130.4629123033753
 20
1612.012549807203
 30
0.0
 10
130.2872546851811
 20
1612.060449345743
 30
0.0
 10
129.3035324664031
 20
1612.343005512098
 30
0.0
 10
128.3439959954064
 20
1612.70538506301
 30
0.0
 10
127.5745600688913
 20
1613.049924160582
 30
0.0
 10
126.8255264149282
 20
1613.445354091895
 30
0.0
 10
126.112318967376
 20
1613.89343297375
 30
0.0
 10
125.0971929921741
 20
1614.670325496373
 30
0.0
 10
124.3105381239964
 20
1615.661487225416
 30
0.0
 10
124.08011324837
 20
1616.018243828003
 30
0.0
 10
123.9051488185303
 20
1616.402869456038
 30
0.0
 10
123.7767536561239
 20
1616.82646319434
 30
0.0
 10
123.7757225506737
 20
1617.246206476022
 30
0.0
 10
123.7757225506737
 20
1617.665949757705
 30
0.0
  0
SPLINE
  5
4683
330
A
100
AcDbEntity
  8
HIDDEN
100
AcDbSpline
210
0.0
220
0.0
230
1.0
 70
     8
 71
     7
 72
    21
 73
    13
 74
     0
 42
0.000000001
 43
0.0000000001
 40
0.0
 40
0.0
 40
0.0
 40
0.0
 40
0.0
 40
0.0
 40
0.0
 40
0.0
 40
0.8399999999999999
 40
0.8399999999999999
 40
0.8399999999999999
 40
0.8399999999999999
 40
0.8399999999999999
 40
1.0
 40
1.0
 40
1.0
 40
1.0
 40
1.0
 40
1.0
 40
1.0
 40
1.0
 10
123.7757225506737
 20
1617.665949757705
 30
0.0
 10
123.7757225506737
 20
1618.152067032212
 30
0.0
 10
123.7779829027365
 20
1618.638184306718
 30
0.0
 10
123.7889025387065
 20
1619.122285493954
 30
0.0
 10
123.7897455056461
 20
1619.614838901205
 30
0.0
 10
123.8401235107247
 20
1620.092023568225
 30
0.0
 10
123.9109294341849
 20
1620.676286659631
 30
0.0
 10
124.1033930699139
 20
1621.222436818902
 30
0.0
 10
124.1363665314946
 20
1621.310717283301
 30
0.0
 10
124.1810016062607
 20
1621.387482331815
 30
0.0
 10
124.2184049337027
 20
1621.479005012199
 30
0.0
 10
124.2806691130334
 20
1621.5477202964
 30
0.0
 10
124.3464528949933
 20
1621.612882399181
 30
0.0
  0
SPLINE
  5
4684
330
A
100
AcDbEntity
  8
HIDDEN
100
AcDbSpline
210
0.0
220
0.0
230
1.0
 70
     8
 71
     7
 72
    31
 73
    23
 74
     0
 42
0.000000001
 43
0.0000000001
 40
0.0
 40
0.0
 40
0.0
 40
0.0
 40
0.0
 40
0.0
 40
0.0
 40
0.0
 40
0.3811359999999999
 40
0.3811359999999999
 40
0.3811359999999999
 40
0.3811359999999999
 40
0.3811359999999999
 40
0.4591999999999999
 40
0.4591999999999999
 40
0.4591999999999999
 40
0.4591999999999999
 40
0.4591999999999999
 40
0.82
 40
0.82
 40
0.82
 40
0.82
 40
0.82
 40
1.0
 40
1.0
 40
1.0
 40
1.0
 40
1.0
 40
1.0
 40
1.0
 40
1.0
 10
1310.205362492672
 20
1611.191970724489
 30
0.0
 10
1311.094136244932
 20
1611.191970724491
 30
0.0
 10
1311.982909997192
 20
1611.22320131827
 30
0.0
 10
1312.870389054917
 20
1611.280064139812
 30
0.0
 10
1313.755942367158
 20
1611.369155433464
 30
0.0
 10
1314.637288048727
 20
1611.492579591655
 30
0.0
 10
1315.691608346004
 20
1611.68448878056
 30
0.0
 10
1316.734854455566
 20
1611.926046514535
 30
0.0
 10
1316.912000302555
 20
1611.967963409816
 30
0.0
 10
1317.088552399621
 20
1612.012549807204
 30
0.0
 10
1317.264210017815
 20
1612.060449345743
 30
0.0
 10
1318.247932236593
 20
1612.343005512099
 30
0.0
 10
1319.207468707589
 20
1612.70538506301
 30
0.0
 10
1319.97690463409
 20
1613.049924160582
 30
0.0
 10
1320.725938288068
 20
1613.445354091895
 30
0.0
 10
1321.43914573562
 20
1613.89343297375
 30
0.0
 10
1322.454271710807
 20
1614.670325496373
 30
0.0
 10
1323.240926578985
 20
1615.661487225417
 30
0.0
 10
1323.471351454611
 20
1616.018243828003
 30
0.0
 10
1323.646315884466
 20
1616.402869456039
 30
0.0
 10
1323.774711046872
 20
1616.826463194341
 30
0.0
 10
1323.775742152322
 20
1617.246206476022
 30
0.0
 10
1323.775742152322
 20
1617.665949757706
 30
0.0
  0
SPLINE
  5
4685
330
A
100
AcDbEntity
  8
HIDDEN
100
AcDbSpline
210
0.0
220
0.0
230
1.0
 70
     8
 71
     7
 72
    21
 73
    13
 74
     0
 42
0.000000001
 43
0.0000000001
 40
0.0
 40
0.0
 40
0.0
 40
0.0
 40
0.0
 40
0.0
 40
0.0
 40
0.0
 40
0.8399999999999999
 40
0.8399999999999999
 40
0.8399999999999999
 40
0.8399999999999999
 40
0.8399999999999999
 40
1.0
 40
1.0
 40
1.0
 40
1.0
 40
1.0
 40
1.0
 40
1.0
 40
1.0
 10
1323.775742152322
 20
1617.665949757706
 30
0.0
 10
1323.775742152322
 20
1618.152067032212
 30
0.0
 10
1323.773481800245
 20
1618.638184306718
 30
0.0
 10
1323.762562164275
 20
1619.122285493954
 30
0.0
 10
1323.761719197335
 20
1619.614838901205
 30
0.0
 10
1323.711341192257
 20
1620.092023568225
 30
0.0
 10
1323.640535268796
 20
1620.676286659631
 30
0.0
 10
1323.448071633067
 20
1621.222436818903
 30
0.0
 10
1323.415098171487
 20
1621.310717283301
 30
0.0
 10
1323.370463096735
 20
1621.387482331816
 30
0.0
 10
1323.333059769279
 20
1621.4790050122
 30
0.0
 10
1323.270795589963
 20
1621.547720296401
 30
0.0
 10
1323.205011808003
 20
1621.612882399181
 30
0.0
  0
SPLINE
  5
4686
330
A
100
AcDbEntity
  8
HIDDEN
100
AcDbSpline
210
0.0
220
0.0
230
1.0
 70
     8
 71
     3
 72
     9
 73
     5
 74
     0
 42
0.000000001
 43
0.0000000001
 40
0.4906456983313593
 40
0.4906456983313593
 40
0.4906456983313593
 40
0.4906456983313593
 40
0.5207258491987211
 40
0.5872593177981204
 40
0.5872593177981204
 40
0.5872593177981204
 40
0.5872593177981204
 10
522.7075344199637
 20
1493.25028881993
 30
0.0
 10
525.8582721504588
 20
1492.768574782827
 30
0.0
 10
536.2394673950707
 20
1491.309406254626
 30
0.0
 10
547.3107240511547
 20
1490.111308614853
 30
0.0
 10
555.1053278526758
 20
1489.342965987131
 30
0.0
  0
LINE
  5
4687
330
A
100
AcDbEntity
  8
HIDDEN
100
AcDbLine
 10
692.3493784266118
 20
1443.362841654809
 30
0.0
 11
755.2020855959368
 21
1443.362841654809
 31
0.0
  0
LINE
  5
4688
330
A
100
AcDbEntity
  8
HIDDEN
100
AcDbLine
 10
689.3608146953718
 20
1446.101142731668
 30
0.0
 11
758.1906492624787
 21
1446.101142731668
 31
0.0
  0
ARC
  5
4689
330
A
100
AcDbEntity
  8
HIDDEN
100
AcDbCircle
 10
692.3493784266118
 20
1446.362841563896
 30
0.0
 40
2.999999909087109
100
AcDbArc
 50
185.0044403739211
 51
270.0
  0
SPLINE
  5
468A
330
A
100
AcDbEntity
  8
HIDDEN
100
AcDbSpline
210
0.0
220
0.0
230
1.0
 70
     8
 71
     3
 72
    11
 73
     7
 74
     0
 42
0.000000001
 43
0.0000000001
 40
61.7709082754353
 40
61.7709082754353
 40
61.7709082754353
 40
61.7709082754353
 40
62.07361898214575
 40
64.09229485089182
 40
68.15683943363425
 40
73.48119571558479
 40
73.48119571558479
 40
73.48119571558479
 40
73.48119571558479
 10
678.9878787402938
 20
1482.661408768542
 30
0.0
 10
678.9633881109278
 20
1482.661894834892
 30
0.0
 10
678.7779463070708
 20
1482.665603066836
 30
0.0
 10
678.3179254534427
 20
1482.675312779602
 30
0.0
 10
677.7335354991317
 20
1482.689050927844
 30
0.0
 10
677.5585854421167
 20
1482.693469376977
 30
0.0
 10
677.5585853409088
 20
1482.693469597342
 30
0.0
  0
SPLINE
  5
468B
330
A
100
AcDbEntity
  8
HIDDEN
100
AcDbSpline
210
0.0
220
0.0
230
1.0
 70
     8
 71
     3
 72
    11
 73
     7
 74
     0
 42
0.000000001
 43
0.0000000001
 40
61.77090829191442
 40
61.77090829191442
 40
61.77090829191442
 40
61.77090829191442
 40
62.07358911730435
 40
64.09223839727831
 40
68.15672908223821
 40
73.48101501751101
 40
73.48101501751101
 40
73.48101501751101
 40
73.48101501751101
 10
768.5635859672857
 20
1482.661408768688
 30
0.0
 10
768.5880741790697
 20
1482.661894787043
 30
0.0
 10
768.7735117052157
 20
1482.665602930495
 30
0.0
 10
769.2335264806547
 20
1482.675312498539
 30
0.0
 10
769.8179152517207
 20
1482.689050586569
 30
0.0
 10
769.9928725371958
 20
1482.693469207962
 30
0.0
 10
769.9928287007588
 20
1482.693466725067
 30
0.0
  0
LINE
  5
468C
330
A
100
AcDbEntity
  8
HIDDEN
100
AcDbLine
 10
686.7986372560647
 20
1475.360847495984
 30
0.0
 11
689.3608146953718
 21
1446.101142731668
 31
0.0
  0
SPLINE
  5
468D
330
A
100
AcDbEntity
  8
HIDDEN
100
AcDbSpline
210
0.0
220
0.0
230
1.0
 70
     8
 71
     3
 72
    16
 73
    12
 74
     0
 42
0.000000001
 43
0.0000000001
 40
20.96235690090426
 40
20.96235690090426
 40
20.96235690090426
 40
20.96235690090426
 40
21.01971781896228
 40
21.90671234876095
 40
22.66452337794084
 40
23.42233440712073
 40
24.17413090944169
 40
24.92592741176265
 40
25.79518143773044
 40
26.66443546369822
 40
26.66643996168354
 40
26.66643996168354
 40
26.66643996168354
 40
26.66643996168354
 10
677.8911725008018
 20
1482.669034739873
 30
0.0
 10
677.8890181515549
 20
1482.669138677175
 30
0.0
 10
677.8537273017378
 20
1482.670851923448
 30
0.0
 10
677.7953604232407
 20
1482.674001699421
 30
0.0
 10
677.7253263027328
 20
1482.678506337812
 30
0.0
 10
677.6697002040398
 20
1482.682697796933
 30
0.0
 10
677.6245937200529
 20
1482.6866212073
 30
0.0
 10
677.5888423668018
 20
1482.690139645986
 30
0.0
 10
677.5651250845638
 20
1482.692719492339
 30
0.0
 10
677.5590881337648
 20
1482.693378434813
 30
0.0
 10
677.5586870790087
 20
1482.693455104718
 30
0.0
 10
677.5586861697898
 20
1482.693455279742
 30
0.0
  0
SPLINE
  5
468E
330
A
100
AcDbEntity
  8
HIDDEN
100
AcDbSpline
210
0.0
220
0.0
230
1.0
 70
     8
 71
     3
 72
    11
 73
     7
 74
     0
 42
0.000000001
 43
0.0000000001
 40
20.96194842018502
 40
20.96194842018502
 40
20.96194842018502
 40
20.96194842018502
 40
21.90754317077738
 40
23.4235422384194
 40
24.92750042250314
 40
26.66644490718928
 40
26.66644490718928
 40
26.66644490718928
 40
26.66644490718928
 10
769.6602317421878
 20
1482.66903857877
 30
0.0
 10
769.6957436314058
 20
1482.670752433249
 30
0.0
 10
769.7806053032778
 20
1482.675290670257
 30
0.0
 10
769.8868841284218
 20
1482.68279835073
 30
0.0
 10
769.9709074820078
 20
1482.690876479507
 30
0.0
 10
769.9919946895188
 20
1482.693303897202
 30
0.0
 10
769.9928291871418
 20
1482.693458152104
 30
0.0
  0
LINE
  5
468F
330
A
100
AcDbEntity
  8
HIDDEN
100
AcDbLine
 10
197.4509896780889
 20
1532.191971999079
 30
0.0
 11
1250.100474344445
 21
1532.191971999079
 31
0.0
  0
SPLINE
  5
4690
330
A
100
AcDbEntity
  8
HIDDEN
100
AcDbSpline
210
0.0
220
0.0
230
1.0
 70
     8
 71
     3
 72
     9
 73
     5
 74
     0
 42
0.000000001
 43
0.0000000001
 40
0.520725849198721
 40
0.520725849198721
 40
0.520725849198721
 40
0.520725849198721
 40
0.5272050118181296
 40
0.7320882413429052
 40
0.7320882413429052
 40
0.7320882413429052
 40
0.7320882413429052
 10
522.7075344199637
 20
1493.250288819929
 30
0.0
 10
522.0288761839417
 20
1493.354048392021
 30
0.0
 10
500.012966917953
 20
1496.780364142537
 30
0.0
 10
482.1699947922696
 20
1501.582344385521
 30
0.0
 10
466.9605170762022
 20
1507.63657863918
 30
0.0
  0
LINE
  5
4691
330
A
100
AcDbEntity
  8
HIDDEN
100
AcDbLine
 10
141.1059594350461
 20
1608.673744125439
 30
0.0
 11
141.112778150238
 21
1608.655009859413
 31
0.0
  0
ARC
  5
4692
330
A
100
AcDbEntity
  8
HIDDEN
100
AcDbCircle
 10
142.9921633918073
 20
1609.339050146064
 30
0.0
 40
2.000000000000038
100
AcDbArc
 50
200.0000000001002
 51
269.8593623617531
  0
LINE
  5
4693
330
A
100
AcDbEntity
  8
HIDDEN
100
AcDbLine
 10
1306.643610009322
 20
1609.218032429055
 30
0.0
 11
1306.636804345291
 21
1609.199334020832
 31
0.0
  0
ARC
  5
4694
330
A
100
AcDbEntity
  8
HIDDEN
100
AcDbCircle
 10
1304.559301311174
 20
1609.339050146064
 30
0.0
 40
1.999999999999951
100
AcDbArc
 50
270.960918452249
 51
339.9999999998994
  0
LINE
  5
4695
330
A
100
AcDbEntity
  8
HIDDEN
100
AcDbLine
 10
1321.797528233418
 20
1622.191970724489
 30
0.0
 11
1255.549129758971
 21
1622.191970724489
 31
0.0
  0
LINE
  5
4696
330
A
100
AcDbEntity
  8
HIDDEN
100
AcDbLine
 10
1255.549129758971
 20
1622.191970724489
 30
0.0
 11
192.0023349440105
 21
1622.191970724489
 31
0.0
  0
LINE
  5
4697
330
A
100
AcDbEntity
  8
HIDDEN
100
AcDbLine
 10
192.0023349440105
 20
1622.191970724489
 30
0.0
 11
125.7539364695783
 21
1622.191970724489
 31
0.0
  0
ARC
  5
4698
330
A
100
AcDbEntity
  8
HIDDEN
100
AcDbCircle
 10
1321.797528233418
 20
1620.191970724489
 30
0.0
 40
2.000000000000034
100
AcDbArc
 50
45.27201561831733
 51
90.0
  0
LINE
  5
4699
330
A
100
AcDbEntity
  8
HIDDEN
100
AcDbLine
 10
192.0023349440105
 20
1621.612882399184
 30
0.0
 11
192.0023349440105
 21
1622.191970724489
 31
0.0
  0
ARC
  5
469A
330
A
100
AcDbEntity
  8
HIDDEN
100
AcDbCircle
 10
125.7539364695783
 20
1620.191970724489
 30
0.0
 40
2.000000000000004
100
AcDbArc
 50
90.0
 51
134.7279843816775
  0
SPLINE
  5
469B
330
A
100
AcDbEntity
  8
HIDDEN
100
AcDbSpline
210
0.0
220
0.0
230
1.0
 70
     8
 71
     3
 72
    44
 73
    40
 74
     0
 42
0.000000001
 43
0.0000000001
 40
0.0
 40
0.0
 40
0.0
 40
0.0
 40
3.505499781008754
 40
7.595854196602452
 40
10.51757897230494
 40
15.19289050879155
 40
25.13013451063199
 40
30.97453655242049
 40
37.40201925179657
 40
40.32342723156011
 40
43.82927967627061
 40
46.16673349280425
 40
52.01130003244281
 40
55.51860970661331
 40
59.02623805831023
 40
61.36474833985911
 40
64.87204182740004
 40
66.62544766499892
 40
68.96326595300145
 40
70.13215353162175
 40
72.46968562813879
 40
73.05404350444877
 40
73.63842594152823
 40
74.22286980528206
 40
74.80743722170648
 40
75.54059853412917
 40
75.80829097155545
 40
75.94135611857202
 40
76.08199061458744
 40
76.12394095276949
 40
76.15826087635439
 40
76.2899073869428
 40
76.39518629641232
 40
76.58282185384621
 40
76.70223935434285
 40
77.08177350426885
 40
77.59296105767353
 40
78.10593278961352
 40
78.51293421050202
 40
78.51293421050202
 40
78.51293421050202
 40
78.51293421050202
 10
1255.549129758971
 20
1607.339049870264
 30
0.0
 10
1256.717247603674
 20
1607.339049870264
 30
0.0
 10
1259.249560384118
 20
1607.339322616678
 30
0.0
 10
1262.724980301408
 20
1607.337196266656
 30
0.0
 10
1266.532228542981
 20
1607.33322180553
 30
0.0
 10
1272.131491828545
 20
1607.32618388604
 30
0.0
 10
1278.338337795454
 20
1607.32536177553
 30
0.0
 10
1284.508421285742
 20
1607.330570242015
 30
0.0
 10
1288.365388867862
 20
1607.332620441052
 30
0.0
 10
1291.3547389697
 20
1607.331779982107
 30
0.0
 10
1293.257636932447
 20
1607.330213720376
 30
0.0
 10
1295.622242509237
 20
1607.327442571794
 30
0.0
 10
1297.737891984225
 20
1607.32464766415
 30
0.0
 10
1299.732117289643
 20
1607.323767001456
 30
0.0
 10
1300.99458063648
 20
1607.324780865669
 30
0.0
 10
1302.093642305126
 20
1607.327238138851
 30
0.0
 10
1302.848684613704
 20
1607.330081922658
 30
0.0
 10
1303.471904028449
 20
1607.333074223753
 30
0.0
 10
1303.828447496746
 20
1607.33491539991
 30
0.0
 10
1304.151021103908
 20
1607.33656325675
 30
0.0
 10
1304.322077248764
 20
1607.337413590606
 30
0.0
 10
1304.429330691384
 20
1607.337918024138
 30
0.0
 10
1304.475297955616
 20
1607.338148247684
 30
0.0
 10
1304.51365010923
 20
1607.338363956293
 30
0.0
 10
1304.54834445401
 20
1607.338609010689
 30
0.0
 10
1304.571309479487
 20
1607.338837981999
 30
0.0
 10
1304.596712598776
 20
1607.33924386939
 30
0.0
 10
1304.619422570681
 20
1607.339858291209
 30
0.0
 10
1304.641529821611
 20
1607.340577859426
 30
0.0
 10
1304.670705372783
 20
1607.342088703569
 30
0.0
 10
1304.703670981597
 20
1607.344060525637
 30
0.0
 10
1304.777628481907
 20
1607.349945829658
 30
0.0
 10
1304.912271639414
 20
1607.368648807457
 30
0.0
 10
1305.046085763892
 20
1607.397128246925
 30
0.0
 10
1305.265010025958
 20
1607.461678374297
 30
0.0
 10
1305.575070041212
 20
1607.596789113046
 30
0.0
 10
1305.95516516374
 20
1607.876208856264
 30
0.0
 10
1306.257902069289
 20
1608.249838588197
 30
0.0
 10
1306.392347033276
 20
1608.527690238127
 30
0.0
 10
1306.438677459441
 20
1608.654976067021
 30
0.0
  0
LINE
  5
469C
330
A
100
AcDbEntity
  8
HIDDEN
100
AcDbLine
 10
192.0023349440105
 20
1607.339049268454
 30
0.0
 11
1255.549129758971
 21
1607.339049268454
 31
0.0
  0
SPLINE
  5
469D
330
A
100
AcDbEntity
  8
HIDDEN
100
AcDbSpline
210
0.0
220
0.0
230
1.0
 70
     8
 71
     3
 72
    54
 73
    50
 74
     0
 42
0.000000001
 43
0.0000000001
 40
0.0
 40
0.0
 40
0.0
 40
0.0
 40
0.3847169476158646
 40
0.8976866196804866
 40
1.282448294803737
 40
1.410723010453828
 40
1.667361724562713
 40
1.795795092220779
 40
1.860134168823898
 40
1.989016675673099
 40
2.109153112378085
 40
2.165391704700446
 40
2.194641849565263
 40
2.22388869814568
 40
2.255041785723303
 40
2.288762567303161
 40
2.312762617021824
 40
2.336756711476561
 40
2.366074551507992
 40
2.401143517142866
 40
2.447500235583068
 40
2.510797760535003
 40
2.60805255625514
 40
2.773707841734763
 40
3.519576505826927
 40
4.264639905736486
 40
4.866677640884636
 40
5.468649388507224
 40
6.070595519324175
 40
7.575698638010193
 40
8.930531829456681
 40
10.86983375737891
 40
12.03858021361707
 40
13.2073657845471
 40
14.37622891114499
 40
16.12967660615735
 40
19.63700870485224
 40
24.89827597595658
 40
27.23636092027235
 40
30.15869660100033
 40
33.08068465124109
 40
38.92375658204444
 40
44.18233162136399
 40
52.9484896201382
 40
57.62493101947173
 40
66.39264515198289
 40
73.4047003249112
 40
76.43429583632681
 40
78.51293361866072
 40
78.51293361866072
 40
78.51293361866072
 40
78.51293361866072
 10
141.1127873650346
 20
1608.654975732423
 30
0.0
 10
141.156588210544
 20
1608.534639609835
 30
0.0
 10
141.2861734015112
 20
1608.262981582119
 30
0.0
 10
141.5537051452354
 20
1607.925180701878
 30
0.0
 10
141.8216493741436
 20
1607.710025494833
 30
0.0
 10
142.0406857356954
 20
1607.57623155046
 30
0.0
 10
142.1948411931169
 20
1607.501350019806
 30
0.0
 10
142.3352390316666
 20
1607.449161208861
 30
0.0
 10
142.4370570011031
 20
1607.416781221542
 30
0.0
 10
142.5378495460698
 20
1607.390016350515
 30
0.0
 10
142.6361683796947
 20
1607.370302790272
 30
0.0
 10
142.7023544315105
 20
1607.360002418941
 30
0.0
 10
142.7370434299753
 20
1607.355303755489
 30
0.0
 10
142.7651427431499
 20
1607.351889318498
 30
0.0
 10
142.7919804912178
 20
1607.349001546084
 30
0.0
 10
142.816715436036
 20
1607.346694997138
 30
0.0
 10
142.834449397307
 20
1607.345222280538
 30
0.0
 10
142.8533733611346
 20
1607.343807835482
 30
0.0
 10
142.8692973144441
 20
1607.342765798564
 30
0.0
 10
142.8872702090391
 20
1607.341728895984
 30
0.0
 10
142.9041072656926
 20
1607.340912110491
 30
0.0
 10
142.9225234658895
 20
1607.340167249395
 30
0.0
 10
142.9409204122728
 20
1607.339592614146
 30
0.0
 10
142.9763836570144
 20
1607.338788511099
 30
0.0
 10
142.9948137829722
 20
1607.338721454784
 30
0.0
 10
143.0334474447388
 20
1607.338378486555
 30
0.0
 10
143.0754517713447
 20
1607.338154295774
 30
0.0
 10
143.1229050315249
 20
1607.337913617585
 30
0.0
 10
143.2061534816983
 20
1607.337522784499
 30
0.0
 10
143.3402379572597
 20
1607.336871446613
 30
0.0
 10
143.5797262738722
 20
1607.335644455512
 30
0.0
 10
143.8563557917603
 20
1607.334233630709
 30
0.0
 10
144.1680946768263
 20
1607.332650532624
 30
0.0
 10
144.4522080608529
 20
1607.331288085958
 30
0.0
 10
144.8155690827787
 20
1607.329700623751
 30
0.0
 10
145.4477451622895
 20
1607.327335940629
 30
0.0
 10
146.657143231854
 20
1607.324303239836
 30
0.0
 10
148.2238698216913
 20
1607.323747938745
 30
0.0
 10
149.9327801495326
 20
1607.325016832856
 30
0.0
 10
151.3800930677769
 20
1607.326675452382
 30
0.0
 10
153.6297890220683
 20
1607.329549903938
 30
0.0
 10
156.6469228914154
 20
1607.332464253434
 30
0.0
 10
161.4456182816155
 20
1607.332123392009
 30
0.0
 10
166.5212558516594
 20
1607.327237499011
 30
0.0
 10
173.0420506929893
 20
1607.325070529029
 30
0.0
 10
179.4298605426391
 20
1607.330977324655
 30
0.0
 10
185.5811655146188
 20
1607.338339778755
 30
0.0
 10
189.6066943446001
 20
1607.339183249638
 30
0.0
 10
191.3095388574091
 20
1607.339049870264
 30
0.0
 10
192.0023349440105
 20
1607.339049870264
 30
0.0
  0
ARC
  5
469E
330
A
100
AcDbEntity
  8
HIDDEN
100
AcDbCircle
 10
1309.462008979647
 20
1608.192479775779
 30
0.0
 40
2.999171554704485
100
AcDbArc
 50
90.1016986611252
 51
160.0030601387176
  0
ARC
  5
469F
330
A
100
AcDbEntity
  8
HIDDEN
100
AcDbCircle
 10
138.0894557233785
 20
1608.192479775815
 30
0.0
 40
2.999171554669072
100
AcDbArc
 50
19.99693986093152
 51
89.8983013388736
  0
LINE
  5
46A0
330
A
100
AcDbEntity
  8
HIDDEN
100
AcDbLine
 10
140.9078107715848
 20
1609.218105144761
 30
0.0
 11
141.1127873218009
 21
1608.654975895748
 31
0.0
  0
LINE
  5
46A1
330
A
100
AcDbEntity
  8
HIDDEN
100
AcDbLine
 10
1306.43867738118
 20
1608.654975895732
 30
0.0
 11
1306.643653931397
 21
1609.218105144725
 31
0.0
  0
SPLINE
  5
46A2
330
A
100
AcDbEntity
  8
HIDDEN
100
AcDbSpline
210
0.0
220
0.0
230
1.0
 70
     8
 71
     3
 72
    68
 73
    64
 74
     0
 42
0.000000001
 43
0.0000000001
 40
12.70704115625107
 40
12.70704115625107
 40
12.70704115625107
 40
12.70704115625107
 40
13.27182603992958
 40
14.01852868326161
 40
14.76530016233962
 40
15.51215400432442
 40
16.25910355717734
 40
17.21336643148956
 40
18.16835937597874
 40
19.12411423908828
 40
20.08066223937238
 40
21.01071252139899
 40
21.94188413130421
 40
22.87420666525626
 40
23.80770907075058
 40
24.53583625023511
 40
25.99448956859285
 40
27.45642799349771
 40
29.65571383978227
 40
32.60049836089701
 40
33.33898446032908
 40
34.07840804156593
 40
34.81877945767833
 40
35.56010883947704
 40
36.30862827927988
 40
37.05807093907659
 40
38.55976378169836
 40
39.3120323694498
 40
40.06526099054315
 40
40.81945832867184
 40
41.57463286308724
 40
42.34001886288586
 40
43.10631382188107
 40
43.87352572480329
 40
44.64166236275882
 40
45.41073133455018
 40
46.18074004793489
 40
46.9516957208231
 40
47.72360538241649
 40
48.83059122039025
 40
49.93926143533297
 40
51.0496343326111
 40
52.16172751448773
 40
53.29816551492264
 40
54.43604058071447
 40
55.5753688833943
 40
56.71616589803082
 40
57.89287239676378
 40
59.07058026995477
 40
60.28950641823966
 40
61.50887704544719
 40
62.80771161286913
 40
64.10586955006539
 40
64.90119124712504
 40
65.69534952149117
 40
66.71649862228239
 40
67.73511080773997
 40
70.35664603930013
 40
72.96326120065818
 40
74.19087694555392
 40
75.41625245708222
 40
76.5990651641562
 40
77.75766108543381
 40
77.75766108543381
 40
77.75766108543381
 40
77.75766108543381
 10
425.3904357375229
 20
1532.191971999079
 30
0.0
 10
425.4913430081158
 20
1532.101488136878
 30
0.0
 10
425.7255099534757
 20
1531.89246654476
 30
0.0
 10
426.1439591307515
 20
1531.522518642545
 30
0.0
 10
426.5855260166516
 20
1531.136953783357
 30
0.0
 10
427.0371366375855
 20
1530.747205764889
 30
0.0
 10
427.5211389002304
 20
1530.334265367496
 30
0.0
 10
428.1028283942812
 20
1529.844728439532
 30
0.0
 10
428.7175022175304
 20
1529.335726446487
 30
0.0
 10
429.3443915182086
 20
1528.824590471183
 30
0.0
 10
429.9606034035476
 20
1528.329816730609
 30
0.0
 10
430.6082384838899
 20
1527.817777186485
 30
0.0
 10
431.246219412709
 20
1527.321195264978
 30
0.0
 10
431.8922730165448
 20
1526.825913621104
 30
0.0
 10
432.4928338678089
 20
1526.372455990643
 30
0.0
 10
433.2280401209516
 20
1525.824778870683
 30
0.0
 10
434.0919044798882
 20
1525.192630681634
 30
0.0
 10
435.3172327287846
 20
1524.316763216388
 30
0.0
 10
436.9167383129623
 20
1523.206348918357
 30
0.0
 10
438.3641194103054
 20
1522.241388245111
 30
0.0
 10
439.4639385059652
 20
1521.52867216644
 30
0.0
 10
440.0180576135406
 20
1521.173648566985
 30
0.0
 10
440.5746228197766
 20
1520.821067556374
 30
0.0
 10
441.1379353671016
 20
1520.468242395049
 30
0.0
 10
441.6976576867253
 20
1520.121594948369
 30
0.0
 10
442.453383195412
 20
1519.658763537304
 30
0.0
 10
443.2138171037748
 20
1519.200839358059
 30
0.0
 10
443.9798666022923
 20
1518.74716333647
 30
0.0
 10
444.5578999133083
 20
1518.408627889109
 30
0.0
 10
445.1380031775859
 20
1518.072615142252
 30
0.0
 10
445.7266804125773
 20
1517.73541555527
 30
0.0
 10
446.3082674330888
 20
1517.40593515716
 30
0.0
 10
446.898486906977
 20
1517.075199788853
 30
0.0
 10
447.4906848800545
 20
1516.746994923859
 30
0.0
 10
448.0860200012191
 20
1516.420644925286
 30
0.0
 10
448.6840816026468
 20
1516.096367304961
 30
0.0
 10
449.2852832216538
 20
1515.773931464214
 30
0.0
 10
449.8883104724462
 20
1515.454006182806
 30
0.0
 10
450.5859046214989
 20
1515.087950522401
 30
0.0
 10
451.3534927554517
 20
1514.690406269704
 30
0.0
 10
452.2206403482212
 20
1514.248040032892
 30
0.0
 10
453.0890586973053
 20
1513.811707446981
 30
0.0
 10
453.9776528550808
 20
1513.372025848549
 30
0.0
 10
454.8463795058576
 20
1512.948628342282
 30
0.0
 10
455.735870961749
 20
1512.521546376467
 30
0.0
 10
456.6249469086413
 20
1512.101021633631
 30
0.0
 10
457.5423365895056
 20
1511.673699633037
 30
0.0
 10
458.4229355326331
 20
1511.269555354157
 30
0.0
 10
459.3571072748689
 20
1510.84725018486
 30
0.0
 10
460.2413828755468
 20
1510.453338835489
 30
0.0
 10
461.2094187946584
 20
1510.028703555734
 30
0.0
 10
462.0689438226198
 20
1509.656966630103
 30
0.0
 10
462.9567425176153
 20
1509.27907102896
 30
0.0
 10
463.4740473868385
 20
1509.061231700862
 30
0.0
 10
464.0337977298566
 20
1508.827217680925
 30
0.0
 10
464.4036613846927
 20
1508.673775153944
 30
0.0
 10
465.2026825390292
 20
1508.344723268796
 30
0.0
 10
465.5545069219022
 20
1508.20167456347
 30
0.0
 10
466.3823615701492
 20
1507.867735158309
 30
0.0
 10
466.5994146734827
 20
1507.781045771541
 30
0.0
 10
466.8779376833497
 20
1507.669949374868
 30
0.0
 10
466.8738558250859
 20
1507.671623146833
 30
0.0
 10
466.9607117779904
 20
1507.637067767288
 30
0.0
 10
466.9607126984718
 20
1507.637070082432
 30
0.0
  0
SPLINE
  5
46A3
330
A
100
AcDbEntity
  8
HIDDEN
100
AcDbSpline
210
0.0
220
0.0
230
1.0
 70
     8
 71
     3
 72
   155
 73
   151
 74
     0
 42
0.000000001
 43
0.0000000001
 40
0.0
 40
0.0
 40
0.0
 40
0.0
 40
0.4373412775899312
 40
0.8778878842777543
 40
1.314063903709087
 40
1.753323990198475
 40
2.183732949761216
 40
2.617045198457456
 40
2.826904268017799
 40
3.037434663724407
 40
3.242922855554136
 40
3.449042324722725
 40
3.653139879311135
 40
3.857851722413999
 40
4.057480139097875
 40
4.257683547488627
 40
4.644918249954862
 40
5.034247835597463
 40
5.419122405641809
 40
5.805962697563934
 40
6.005900367424799
 40
6.206353214953461
 40
6.415637467990115
 40
6.62547691551643
 40
6.847883860118534
 40
7.07090356979331
 40
7.307945955055558
 40
7.545662932517329
 40
7.796164312446646
 40
8.047392901884773
 40
8.309014131135871
 40
8.571399663025757
 40
8.859835342020489
 40
9.14917062401112
 40
9.307405466817594
 40
9.465902048650314
 40
9.635948661850815
 40
9.806291271038903
 40
10.17327357030024
 40
10.56435076671802
 40
10.98226665853517
 40
11.40185204537527
 40
12.28503641810274
 40
12.71373653139356
 40
13.14408036530949
 40
13.54479008155256
 40
13.9469139765206
 40
14.30845167250333
 40
14.67115745473628
 40
15.00045406807645
 40
15.3307763132089
 40
15.63810707706685
 40
15.94640638477173
 40
16.26655959765789
 40
16.5878046578361
 40
16.95530867735932
 40
17.32419681675108
 40
17.59271703628096
 40
17.86193047523797
 40
18.17075243415694
 40
18.4804286846053
 40
18.85956011438401
 40
19.23986389862331
 40
19.46475760403171
 40
19.69003646202228
 40
19.94592811228406
 40
20.2022974150075
 40
20.55413245965732
 40
20.90683239195581
 40
21.25845806926064
 40
21.61091448052608
 40
22.31541864138589
 40
23.02151926992451
 40
23.72818119565904
 40
24.43794130979773
 40
25.14913079428129
 40
25.86336593423565
 40
26.57945425932806
 40
27.29857721698471
 40
28.020179233165
 40
28.74482454731928
 40
29.16560096374102
 40
29.58740636201087
 40
30.01030948278893
 40
30.43425192405964
 40
31.28588227183068
 40
32.14175111950265
 40
33.00448498459844
 40
33.87167642031817
 40
34.30857304410748
 40
34.74663265778165
 40
35.18758476342336
 40
35.62974307950871
 40
36.07569694752674
 40
36.52291174979624
 40
36.97464669011394
 40
37.42769927310899
 40
37.90806756161685
 40
38.38994212202533
 40
38.83197531476225
 40
39.27527227176063
 40
40.15284931127008
 40
41.03516452675465
 40
42.0303706324863
 40
43.03105295256892
 40
43.89137366968162
 40
44.75539160568239
 40
45.61928251147339
 40
46.48662875698787
 40
47.35408396019913
 40
48.22479772926832
 40
49.09669702827917
 40
49.9716891392121
 40
51.72624859849209
 40
53.49004138353686
 40
55.26255635849473
 40
58.83345293264058
 40
60.63156379240702
 40
62.43751670086156
 40
64.25221292559671
 40
67.90384489492645
 40
71.58401901471683
 40
74.17612010552486
 40
76.7799310053242
 40
79.39371144002553
 40
82.01688809870072
 40
84.64767648402666
 40
87.28560430077752
 40
89.92899603047972
 40
92.57678709592268
 40
95.2283577096404
 40
97.88213252294487
 40
100.5370722972669
 40
103.1923363300797
 40
105.8464472370593
 40
108.4985387749639
 40
111.1471746912327
 40
113.7914331572503
 40
115.1411332565273
 40
116.4892246656973
 40
117.8355465432483
 40
119.1799380463292
 40
120.5221575103517
 40
121.8621355498712
 40
123.1997111439287
 40
124.5347233402463
 40
125.8669848939813
 40
127.1963703083823
 40
128.5227186157616
 40
128.6498614884524
 40
128.6498614884524
 40
128.6498614884524
 40
128.6498614884524
 10
677.8212344338767
 20
1482.672656181145
 30
0.0
 10
677.7118783430578
 20
1482.678736860633
 30
0.0
 10
677.4966820848297
 20
1482.690640625184
 30
0.0
 10
677.1705948801919
 20
1482.708492169454
 30
0.0
 10
676.8534858253058
 20
1482.725677399356
 30
0.0
 10
676.5345090097928
 20
1482.74279160052
 30
0.0
 10
676.2305645639808
 20
1482.758943233834
 30
0.0
 10
675.9733665621848
 20
1482.772481090499
 30
0.0
 10
675.7811789002099
 20
1482.782526883821
 30
0.0
 10
675.6373954389799
 20
1482.790008951203
 30
0.0
 10
675.5015961980187
 20
1482.797044300384
 30
0.0
 10
675.3647705241108
 20
1482.804102483557
 30
0.0
 10
675.2324464049977
 20
1482.810899280157
 30
0.0
 10
675.0988334345839
 20
1482.81773278541
 30
0.0
 10
674.9739839149938
 20
1482.824091695701
 30
0.0
 10
674.8069074560137
 20
1482.832566344996
 30
0.0
 10
674.6177865357838
 20
1482.84210216319
 30
0.0
 10
674.3846034427058
 20
1482.853770715369
 30
0.0
 10
674.1621390393498
 20
1482.864813995229
 30
0.0
 10
673.9794800316688
 20
1482.873816527467
 30
0.0
 10
673.8206698740928
 20
1482.881598371001
 30
0.0
 10
673.7023963723718
 20
1482.887372109823
 30
0.0
 10
673.5703730005569
 20
1482.893791767978
 30
0.0
 10
673.4409292831058
 20
1482.900061472392
 30
0.0
 10
673.2933810194897
 20
1482.907179396825
 30
0.0
 10
673.1479364981737
 20
1482.914167100286
 30
0.0
 10
672.9841113418747
 20
1482.92200546653
 30
0.0
 10
672.8213930307777
 20
1482.929757680497
 30
0.0
 10
672.6432468367368
 20
1482.938209016992
 30
0.0
 10
672.4655489876407
 20
1482.946602457753
 30
0.0
 10
672.2754106124428
 20
1482.955544445188
 30
0.0
 10
672.0840478662517
 20
1482.964505557355
 30
0.0
 10
671.8660535355828
 20
1482.974667466845
 30
0.0
 10
671.6849929188118
 20
1482.983068499613
 30
0.0
 10
671.5239533782678
 20
1482.990515229631
 30
0.0
 10
671.3980316917387
 20
1482.996323842209
 30
0.0
 10
671.2624843828908
 20
1483.002561240687
 30
0.0
 10
671.0740658624368
 20
1483.011209716108
 30
0.0
 10
670.8175629122068
 20
1483.022938298528
 30
0.0
 10
670.4910477740289
 20
1483.03778911041
 30
0.0
 10
670.1420169678408
 20
1483.053577508656
 30
0.0
 10
669.6592041821518
 20
1483.075299890811
 30
0.0
 10
669.1615053333458
 20
1483.097509911427
 30
0.0
 10
668.6743857710628
 20
1483.119081551428
 30
0.0
 10
668.3176734483807
 20
1483.134800732153
 30
0.0
 10
667.9830118689658
 20
1483.149481237923
 30
0.0
 10
667.6586764478357
 20
1483.163646653912
 30
0.0
 10
667.3669529290878
 20
1483.176337335037
 30
0.0
 10
667.0841373019298
 20
1483.188594947759
 30
0.0
 10
666.8319534423588
 20
1483.199487336279
 30
0.0
 10
666.5847629086297
 20
1483.21013012398
 30
0.0
 10
666.3601552146229
 20
1483.21977072912
 30
0.0
 10
666.1366167003669
 20
1483.229339666501
 30
0.0
 10
665.9020126703638
 20
1483.239353197995
 30
0.0
 10
665.6625080183528
 20
1483.249549013503
 30
0.0
 10
665.3813179547528
 20
1483.261485456009
 30
0.0
 10
665.1298151300668
 20
1483.272131118726
 30
0.0
 10
664.8805930294998
 20
1483.282655987705
 30
0.0
 10
664.6565787848467
 20
1483.292098074755
 30
0.0
 10
664.4042707682909
 20
1483.302711844094
 30
0.0
 10
664.1313204277199
 20
1483.314170780068
 30
0.0
 10
663.8155286730857
 20
1483.327399912441
 30
0.0
 10
663.5354941657367
 20
1483.339104356681
 30
0.0
 10
663.2874751430588
 20
1483.349453409357
 30
0.0
 10
663.0800165997737
 20
1483.358099302223
 30
0.0
 10
662.8570390628827
 20
1483.367380242561
 30
0.0
 10
662.5994525294027
 20
1483.378087738435
 30
0.0
 10
662.3049028981277
 20
1483.390313527755
 30
0.0
 10
661.9858301062427
 20
1483.403535360678
 30
0.0
 10
661.6590268234957
 20
1483.417056459305
 30
0.0
 10
661.2273599053237
 20
1483.434889461502
 30
0.0
 10
660.6780135960958
 20
1483.457536027931
 30
0.0
 10
660.0195833842097
 20
1483.484610007072
 30
0.0
 10
659.3475361177498
 20
1483.512179976728
 30
0.0
 10
658.6798213296947
 20
1483.539515400582
 30
0.0
 10
657.9988357858908
 20
1483.567342906994
 30
0.0
 10
657.3213013205188
 20
1483.594984397027
 30
0.0
 10
656.6307167403957
 20
1483.623118725246
 30
0.0
 10
655.9425781966947
 20
1483.651119545161
 30
0.0
 10
655.2430396419898
 20
1483.679555794751
 30
0.0
 10
654.6435202592197
 20
1483.703906451867
 30
0.0
 10
654.1354461336687
 20
1483.724532824522
 30
0.0
 10
653.7265557660667
 20
1483.741127639409
 30
0.0
 10
653.3138918592108
 20
1483.757871630049
 30
0.0
 10
652.7631548196168
 20
1483.780213966275
 30
0.0
 10
652.0653738531928
 20
1483.808516478354
 30
0.0
 10
651.2295050227497
 20
1483.842419196916
 30
0.0
 10
650.3759616571717
 20
1483.877045483196
 30
0.0
 10
649.6653524309318
 20
1483.905884374639
 30
0.0
 10
649.0886443793947
 20
1483.929299075653
 30
0.0
 10
648.6542730126328
 20
1483.946940526467
 30
0.0
 10
648.2156327862708
 20
1483.964761833453
 30
0.0
 10
647.7754887532587
 20
1483.982651353334
 30
0.0
 10
647.3310841480798
 20
1484.000721856981
 30
0.0
 10
646.8843171629508
 20
1484.018896783913
 30
0.0
 10
646.4339003705338
 20
1484.037229136773
 30
0.0
 10
645.9728114228728
 20
1484.056005430208
 30
0.0
 10
645.5014218484957
 20
1484.075211651464
 30
0.0
 10
645.0336698321137
 20
1484.094280716747
 30
0.0
 10
644.5786919323677
 20
1484.112839717095
 30
0.0
 10
643.9919443136257
 20
1484.136787438775
 30
0.0
 10
643.2587231236778
 20
1484.166740141855
 30
0.0
 10
642.3423072157107
 20
1484.204226415763
 30
0.0
 10
641.3835281356828
 20
1484.243509455518
 30
0.0
 10
640.4326095892407
 20
1484.282549430275
 30
0.0
 10
639.5251517024099
 20
1484.319886071792
 30
0.0
 10
638.6630963128937
 20
1484.35543397115
 30
0.0
 10
637.7993141631687
 20
1484.391140569166
 30
0.0
 10
636.9339127263897
 20
1484.427009742695
 30
0.0
 10
636.0671999148558
 20
1484.463037030537
 30
0.0
 10
635.1984145668048
 20
1484.499262315856
 30
0.0
 10
634.3279460942667
 20
1484.535677825506
 30
0.0
 10
633.1629167344888
 20
1484.584587292702
 30
0.0
 10
631.7026479102149
 20
1484.646233402714
 30
0.0
 10
629.9439387002878
 20
1484.721090105628
 30
0.0
 10
627.5824648207579
 20
1484.822510164881
 30
0.0
 10
625.2105849357267
 20
1484.925877997773
 30
0.0
 10
622.8280482313808
 20
1485.031475141758
 30
0.0
 10
621.0295896622067
 20
1485.112142572616
 30
0.0
 10
618.6147634196188
 20
1485.221834115357
 30
0.0
 10
615.5789196820058
 20
1485.362514013705
 30
0.0
 10
612.2840644620098
 20
1485.519720321329
 30
0.0
 10
609.3373163046288
 20
1485.664150423778
 30
0.0
 10
606.7436247306848
 20
1485.794263648905
 30
0.0
 10
604.1401960903697
 20
1485.928073262061
 30
0.0
 10
601.5267735850887
 20
1486.065830652826
 30
0.0
 10
598.9062325583889
 20
1486.207624870222
 30
0.0
 10
596.2780695073689
 20
1486.353726325302
 30
0.0
 10
593.6448103050877
 20
1486.504243360718
 30
0.0
 10
591.0076795249568
 20
1486.659350607432
 30
0.0
 10
588.3663750859648
 20
1486.819319154533
 30
0.0
 10
585.7234054970847
 20
1486.984253549473
 30
0.0
 10
583.0798444963239
 20
1487.154338902467
 30
0.0
 10
580.4355153979939
 20
1487.329849848887
 30
0.0
 10
577.7933603271908
 20
1487.510853079265
 30
0.0
 10
575.1526794075269
 20
1487.697663811516
 30
0.0
 10
572.5167124485688
 20
1487.890321829857
 30
0.0
 10
570.3121776165158
 20
1488.056861844927
 30
0.0
 10
568.5403380132718
 20
1488.194159345485
 30
0.0
 10
567.1988732978737
 20
1488.299912688552
 30
0.0
 10
565.8593119658558
 20
1488.407361005
 30
0.0
 10
564.5214996119407
 20
1488.516555338236
 30
0.0
 10
563.1867374942317
 20
1488.627425714991
 30
0.0
 10
561.8540435050327
 20
1488.740090096264
 30
0.0
 10
560.5239367825948
 20
1488.854543907768
 30
0.0
 10
559.1962135199228
 20
1488.970841082568
 30
0.0
 10
557.8721789010247
 20
1489.0889153916
 30
0.0
 10
556.5508457112978
 20
1489.208847883756
 30
0.0
 10
555.6289932978777
 20
1489.294135209692
 30
0.0
 10
555.1474505652677
 20
1489.339035351357
 30
0.0
 10
555.1053278526617
 20
1489.342965987131
 30
0.0
  0
SPLINE
  5
46A4
330
A
100
AcDbEntity
  8
HIDDEN
100
AcDbSpline
210
0.0
220
0.0
230
1.0
 70
     8
 71
     3
 72
    14
 73
    10
 74
     0
 42
0.000000001
 43
0.0000000001
 40
0.0
 40
0.0
 40
0.0
 40
0.0
 40
0.3985263612152931
 40
1.197078693631097
 40
1.597490294661422
 40
2.400325699650669
 40
3.202514296034049
 40
3.51582255108483
 40
3.666871474777342
 40
3.666871474777342
 40
3.666871474777342
 40
3.666871474777342
 10
769.7310549475897
 20
1482.672704149121
 30
0.0
 10
769.7304816526098
 20
1482.672672270079
 30
0.0
 10
769.7238971468269
 20
1482.672298241514
 30
0.0
 10
769.7034806353279
 20
1482.671009301352
 30
0.0
 10
769.6582806030437
 20
1482.667707698189
 30
0.0
 10
769.5924689566837
 20
1482.662260342324
 30
0.0
 10
769.5405941925078
 20
1482.657257186804
 30
0.0
 10
769.5168531054317
 20
1482.654848901132
 30
0.0
 10
769.5065588833918
 20
1482.653791702968
 30
0.0
 10
769.5026273064377
 20
1482.653382602365
 30
0.0
  0
LINE
  5
46A5
330
A
100
AcDbEntity
  8
HIDDEN
100
AcDbLine
 10
677.8213361371397
 20
1482.672650265406
 30
0.0
 11
678.0122715817797
 21
1482.657054637146
 31
0.0
  0
LINE
  5
46A6
330
A
100
AcDbEntity
  8
HIDDEN
100
AcDbLine
 10
758.1906500076238
 20
1446.101142731668
 30
0.0
 11
760.7528274469457
 21
1475.360847496041
 31
0.0
  0
ARC
  5
46A7
330
A
100
AcDbEntity
  8
HIDDEN
100
AcDbCircle
 10
755.2019855297788
 20
1446.362950704832
 30
0.0
 40
3.000109051691457
100
AcDbArc
 50
270.0019110539255
 51
354.9936498084243
  0
SPLINE
  5
46BD
330
A
100
AcDbEntity
  8
HIDDEN
100
AcDbSpline
210
0.0
220
0.0
230
1.0
 70
     8
 71
     3
 72
     9
 73
     5
 74
     0
 42
0.000000001
 43
0.0000000001
 40
0.4906456983313593
 40
0.4906456983313593
 40
0.4906456983313593
 40
0.4906456983313593
 40
0.5207258491987211
 40
0.5872593177981204
 40
0.5872593177981204
 40
0.5872593177981204
 40
0.5872593177981204
 10
924.8439296025697
 20
1493.25028881993
 30
0.0
 10
921.6931918720747
 20
1492.768574782827
 30
0.0
 10
911.3119966274628
 20
1491.309406254626
 30
0.0
 10
900.2407399713798
 20
1490.111308614853
 30
0.0
 10
892.4461361698577
 20
1489.342965987131
 30
0.0
  0
SPLINE
  5
46BE
330
A
100
AcDbEntity
  8
HIDDEN
100
AcDbSpline
210
0.0
220
0.0
230
1.0
 70
     8
 71
     3
 72
     9
 73
     5
 74
     0
 42
0.000000001
 43
0.0000000001
 40
0.520725849198721
 40
0.520725849198721
 40
0.520725849198721
 40
0.520725849198721
 40
0.5272050118181296
 40
0.7320882413429052
 40
0.7320882413429052
 40
0.7320882413429052
 40
0.7320882413429052
 10
924.8439296025697
 20
1493.250288819929
 30
0.0
 10
925.5225878385918
 20
1493.354048392021
 30
0.0
 10
947.5384971045808
 20
1496.780364142537
 30
0.0
 10
965.3814692302637
 20
1501.582344385521
 30
0.0
 10
980.5909469463318
 20
1507.63657863918
 30
0.0
  0
SPLINE
  5
46BF
330
A
100
AcDbEntity
  8
HIDDEN
100
AcDbSpline
210
0.0
220
0.0
230
1.0
 70
     8
 71
     3
 72
    68
 73
    64
 74
     0
 42
0.000000001
 43
0.0000000001
 40
12.70704115625107
 40
12.70704115625107
 40
12.70704115625107
 40
12.70704115625107
 40
13.27182603992958
 40
14.01852868326161
 40
14.76530016233962
 40
15.51215400432442
 40
16.25910355717734
 40
17.21336643148956
 40
18.16835937597874
 40
19.12411423908828
 40
20.08066223937238
 40
21.01071252139899
 40
21.94188413130421
 40
22.87420666525626
 40
23.80770907075058
 40
24.53583625023511
 40
25.99448956859285
 40
27.45642799349771
 40
29.65571383978227
 40
32.60049836089701
 40
33.33898446032908
 40
34.07840804156593
 40
34.81877945767833
 40
35.56010883947704
 40
36.30862827927988
 40
37.05807093907659
 40
38.55976378169836
 40
39.3120323694498
 40
40.06526099054315
 40
40.81945832867184
 40
41.57463286308724
 40
42.34001886288586
 40
43.10631382188107
 40
43.87352572480329
 40
44.64166236275882
 40
45.41073133455018
 40
46.18074004793489
 40
46.9516957208231
 40
47.72360538241649
 40
48.83059122039025
 40
49.93926143533297
 40
51.0496343326111
 40
52.16172751448773
 40
53.29816551492264
 40
54.43604058071447
 40
55.5753688833943
 40
56.71616589803082
 40
57.89287239676378
 40
59.07058026995477
 40
60.28950641823966
 40
61.50887704544719
 40
62.80771161286913
 40
64.10586955006539
 40
64.90119124712504
 40
65.69534952149117
 40
66.71649862228239
 40
67.73511080773997
 40
70.35664603930013
 40
72.96326120065818
 40
74.19087694555392
 40
75.41625245708222
 40
76.5990651641562
 40
77.75766108543381
 40
77.75766108543381
 40
77.75766108543381
 40
77.75766108543381
 10
1022.161028285011
 20
1532.191971999079
 30
0.0
 10
1022.060121014418
 20
1532.101488136878
 30
0.0
 10
1021.825954069058
 20
1531.89246654476
 30
0.0
 10
1021.407504891782
 20
1531.522518642545
 30
0.0
 10
1020.965938005882
 20
1531.136953783357
 30
0.0
 10
1020.514327384948
 20
1530.747205764889
 30
0.0
 10
1020.030325122303
 20
1530.334265367496
 30
0.0
 10
1019.448635628253
 20
1529.844728439532
 30
0.0
 10
1018.833961805003
 20
1529.335726446487
 30
0.0
 10
1018.207072504325
 20
1528.824590471183
 30
0.0
 10
1017.590860618986
 20
1528.329816730609
 30
0.0
 10
1016.943225538644
 20
1527.817777186485
 30
0.0
 10
1016.305244609825
 20
1527.321195264978
 30
0.0
 10
1015.659191005989
 20
1526.825913621104
 30
0.0
 10
1015.058630154725
 20
1526.372455990643
 30
0.0
 10
1014.323423901582
 20
1525.824778870683
 30
0.0
 10
1013.459559542646
 20
1525.192630681634
 30
0.0
 10
1012.234231293749
 20
1524.316763216388
 30
0.0
 10
1010.634725709572
 20
1523.206348918357
 30
0.0
 10
1009.187344612228
 20
1522.241388245111
 30
0.0
 10
1008.087525516569
 20
1521.52867216644
 30
0.0
 10
1007.533406408993
 20
1521.173648566985
 30
0.0
 10
1006.976841202757
 20
1520.821067556374
 30
0.0
 10
1006.413528655432
 20
1520.468242395049
 30
0.0
 10
1005.853806335808
 20
1520.121594948369
 30
0.0
 10
1005.098080827122
 20
1519.658763537304
 30
0.0
 10
1004.337646918759
 20
1519.200839358059
 30
0.0
 10
1003.571597420241
 20
1518.74716333647
 30
0.0
 10
1002.993564109225
 20
1518.408627889109
 30
0.0
 10
1002.413460844948
 20
1518.072615142252
 30
0.0
 10
1001.824783609957
 20
1517.73541555527
 30
0.0
 10
1001.243196589445
 20
1517.40593515716
 30
0.0
 10
1000.652977115557
 20
1517.075199788853
 30
0.0
 10
1000.060779142479
 20
1516.746994923859
 30
0.0
 10
999.4654440213149
 20
1516.420644925286
 30
0.0
 10
998.8673824198868
 20
1516.096367304961
 30
0.0
 10
998.2661808008797
 20
1515.773931464214
 30
0.0
 10
997.6631535500878
 20
1515.454006182806
 30
0.0
 10
996.9655594010349
 20
1515.087950522401
 30
0.0
 10
996.1979712670818
 20
1514.690406269704
 30
0.0
 10
995.3308236743128
 20
1514.248040032892
 30
0.0
 10
994.4624053252278
 20
1513.811707446981
 30
0.0
 10
993.5738111674527
 20
1513.372025848549
 30
0.0
 10
992.7050845166757
 20
1512.948628342282
 30
0.0
 10
991.8155930607847
 20
1512.521546376467
 30
0.0
 10
990.9265171138918
 20
1512.101021633631
 30
0.0
 10
990.0091274330277
 20
1511.673699633037
 30
0.0
 10
989.1285284899009
 20
1511.269555354157
 30
0.0
 10
988.1943567476649
 20
1510.84725018486
 30
0.0
 10
987.3100811469867
 20
1510.453338835489
 30
0.0
 10
986.3420452278747
 20
1510.028703555734
 30
0.0
 10
985.4825201999138
 20
1509.656966630103
 30
0.0
 10
984.5947215049177
 20
1509.27907102896
 30
0.0
 10
984.0774166356948
 20
1509.061231700862
 30
0.0
 10
983.5176662926767
 20
1508.827217680925
 30
0.0
 10
983.1478026378409
 20
1508.673775153944
 30
0.0
 10
982.3487814835048
 20
1508.344723268796
 30
0.0
 10
981.9969571006318
 20
1508.20167456347
 30
0.0
 10
981.1691024523848
 20
1507.867735158309
 30
0.0
 10
980.9520493490509
 20
1507.781045771541
 30
0.0
 10
980.6735263391838
 20
1507.669949374868
 30
0.0
 10
980.6776081974479
 20
1507.671623146833
 30
0.0
 10
980.5907522445427
 20
1507.637067767288
 30
0.0
 10
980.5907513240618
 20
1507.637070082432
 30
0.0
  0
SPLINE
  5
46C0
330
A
100
AcDbEntity
  8
HIDDEN
100
AcDbSpline
210
0.0
220
0.0
230
1.0
 70
     8
 71
     3
 72
   155
 73
   151
 74
     0
 42
0.000000001
 43
0.0000000001
 40
0.0
 40
0.0
 40
0.0
 40
0.0
 40
0.4373412775899312
 40
0.8778878842777543
 40
1.314063903709087
 40
1.753323990198475
 40
2.183732949761216
 40
2.617045198457456
 40
2.826904268017799
 40
3.037434663724407
 40
3.242922855554136
 40
3.449042324722725
 40
3.653139879311135
 40
3.857851722413999
 40
4.057480139097875
 40
4.257683547488627
 40
4.644918249954862
 40
5.034247835597463
 40
5.419122405641809
 40
5.805962697563934
 40
6.005900367424799
 40
6.206353214953461
 40
6.415637467990115
 40
6.62547691551643
 40
6.847883860118534
 40
7.07090356979331
 40
7.307945955055558
 40
7.545662932517329
 40
7.796164312446646
 40
8.047392901884773
 40
8.309014131135871
 40
8.571399663025757
 40
8.859835342020489
 40
9.14917062401112
 40
9.307405466817594
 40
9.465902048650314
 40
9.635948661850815
 40
9.806291271038903
 40
10.17327357030024
 40
10.56435076671802
 40
10.98226665853517
 40
11.40185204537527
 40
12.28503641810274
 40
12.71373653139356
 40
13.14408036530949
 40
13.54479008155256
 40
13.9469139765206
 40
14.30845167250333
 40
14.67115745473628
 40
15.00045406807645
 40
15.3307763132089
 40
15.63810707706685
 40
15.94640638477173
 40
16.26655959765789
 40
16.5878046578361
 40
16.95530867735932
 40
17.32419681675108
 40
17.59271703628096
 40
17.86193047523797
 40
18.17075243415694
 40
18.4804286846053
 40
18.85956011438401
 40
19.23986389862331
 40
19.46475760403171
 40
19.69003646202228
 40
19.94592811228406
 40
20.2022974150075
 40
20.55413245965732
 40
20.90683239195581
 40
21.25845806926064
 40
21.61091448052608
 40
22.31541864138589
 40
23.02151926992451
 40
23.72818119565904
 40
24.43794130979773
 40
25.14913079428129
 40
25.86336593423565
 40
26.57945425932806
 40
27.29857721698471
 40
28.020179233165
 40
28.74482454731928
 40
29.16560096374102
 40
29.58740636201087
 40
30.01030948278893
 40
30.43425192405964
 40
31.28588227183068
 40
32.14175111950265
 40
33.00448498459844
 40
33.87167642031817
 40
34.30857304410748
 40
34.74663265778165
 40
35.18758476342336
 40
35.62974307950871
 40
36.07569694752674
 40
36.52291174979624
 40
36.97464669011394
 40
37.42769927310899
 40
37.90806756161685
 40
38.38994212202533
 40
38.83197531476225
 40
39.27527227176063
 40
40.15284931127008
 40
41.03516452675465
 40
42.0303706324863
 40
43.03105295256892
 40
43.89137366968162
 40
44.75539160568239
 40
45.61928251147339
 40
46.48662875698787
 40
47.35408396019913
 40
48.22479772926832
 40
49.09669702827917
 40
49.9716891392121
 40
51.72624859849209
 40
53.49004138353686
 40
55.26255635849473
 40
58.83345293264058
 40
60.63156379240702
 40
62.43751670086156
 40
64.25221292559671
 40
67.90384489492645
 40
71.58401901471683
 40
74.17612010552486
 40
76.7799310053242
 40
79.39371144002553
 40
82.01688809870072
 40
84.64767648402666
 40
87.28560430077752
 40
89.92899603047972
 40
92.57678709592268
 40
95.2283577096404
 40
97.88213252294487
 40
100.5370722972669
 40
103.1923363300797
 40
105.8464472370593
 40
108.4985387749639
 40
111.1471746912327
 40
113.7914331572503
 40
115.1411332565273
 40
116.4892246656973
 40
117.8355465432483
 40
119.1799380463292
 40
120.5221575103517
 40
121.8621355498712
 40
123.1997111439287
 40
124.5347233402463
 40
125.8669848939813
 40
127.1963703083823
 40
128.5227186157616
 40
128.6498614884524
 40
128.6498614884524
 40
128.6498614884524
 40
128.6498614884524
 10
769.7302295886568
 20
1482.672656181145
 30
0.0
 10
769.8395856794757
 20
1482.678736860633
 30
0.0
 10
770.0547819377048
 20
1482.690640625184
 30
0.0
 10
770.3808691423417
 20
1482.708492169454
 30
0.0
 10
770.6979781972277
 20
1482.725677399356
 30
0.0
 10
771.0169550127407
 20
1482.74279160052
 30
0.0
 10
771.3208994585527
 20
1482.758943233834
 30
0.0
 10
771.5780974603497
 20
1482.772481090499
 30
0.0
 10
771.7702851223237
 20
1482.782526883821
 30
0.0
 10
771.9140685835537
 20
1482.790008951203
 30
0.0
 10
772.0498678245149
 20
1482.797044300384
 30
0.0
 10
772.1866934984228
 20
1482.804102483557
 30
0.0
 10
772.3190176175358
 20
1482.810899280157
 30
0.0
 10
772.4526305879497
 20
1482.81773278541
 30
0.0
 10
772.5774801075409
 20
1482.824091695701
 30
0.0
 10
772.7445565665198
 20
1482.832566344996
 30
0.0
 10
772.9336774867497
 20
1482.84210216319
 30
0.0
 10
773.1668605798277
 20
1482.853770715369
 30
0.0
 10
773.3893249831838
 20
1482.864813995229
 30
0.0
 10
773.5719839908647
 20
1482.873816527467
 30
0.0
 10
773.7307941484419
 20
1482.881598371001
 30
0.0
 10
773.8490676501629
 20
1482.887372109823
 30
0.0
 10
773.9810910219767
 20
1482.893791767978
 30
0.0
 10
774.1105347394277
 20
1482.900061472392
 30
0.0
 10
774.2580830030438
 20
1482.907179396825
 30
0.0
 10
774.4035275243607
 20
1482.914167100286
 30
0.0
 10
774.5673526806588
 20
1482.92200546653
 30
0.0
 10
774.7300709917567
 20
1482.929757680497
 30
0.0
 10
774.9082171857967
 20
1482.938209016992
 30
0.0
 10
775.0859150348938
 20
1482.946602457753
 30
0.0
 10
775.2760534100908
 20
1482.955544445188
 30
0.0
 10
775.4674161562818
 20
1482.964505557355
 30
0.0
 10
775.6854104869508
 20
1482.974667466845
 30
0.0
 10
775.8664711037218
 20
1482.983068499613
 30
0.0
 10
776.0275106442657
 20
1482.990515229631
 30
0.0
 10
776.1534323307947
 20
1482.996323842209
 30
0.0
 10
776.2889796396428
 20
1483.002561240687
 30
0.0
 10
776.4773981600977
 20
1483.011209716108
 30
0.0
 10
776.7339011103268
 20
1483.022938298528
 30
0.0
 10
777.0604162485047
 20
1483.03778911041
 30
0.0
 10
777.4094470546938
 20
1483.053577508656
 30
0.0
 10
777.8922598403828
 20
1483.075299890811
 30
0.0
 10
778.3899586891878
 20
1483.097509911427
 30
0.0
 10
778.8770782514707
 20
1483.119081551428
 30
0.0
 10
779.2337905741538
 20
1483.134800732153
 30
0.0
 10
779.5684521535677
 20
1483.149481237923
 30
0.0
 10
779.8927875746979
 20
1483.163646653912
 30
0.0
 10
780.1845110934469
 20
1483.176337335037
 30
0.0
 10
780.4673267206038
 20
1483.188594947759
 30
0.0
 10
780.7195105801748
 20
1483.199487336279
 30
0.0
 10
780.9667011139047
 20
1483.21013012398
 30
0.0
 10
781.1913088079107
 20
1483.21977072912
 30
0.0
 10
781.4148473221667
 20
1483.229339666501
 30
0.0
 10
781.6494513521698
 20
1483.239353197995
 30
0.0
 10
781.8889560041807
 20
1483.249549013503
 30
0.0
 10
782.1701460677818
 20
1483.261485456009
 30
0.0
 10
782.4216488924667
 20
1483.272131118726
 30
0.0
 10
782.6708709930338
 20
1483.282655987705
 30
0.0
 10
782.8948852376868
 20
1483.292098074755
 30
0.0
 10
783.1471932542427
 20
1483.302711844094
 30
0.0
 10
783.4201435948148
 20
1483.314170780068
 30
0.0
 10
783.7359353494487
 20
1483.327399912441
 30
0.0
 10
784.0159698567968
 20
1483.339104356681
 30
0.0
 10
784.2639888794747
 20
1483.349453409357
 30
0.0
 10
784.4714474227608
 20
1483.358099302223
 30
0.0
 10
784.6944249596509
 20
1483.367380242561
 30
0.0
 10
784.9520114931308
 20
1483.378087738435
 30
0.0
 10
785.2465611244058
 20
1483.390313527755
 30
0.0
 10
785.5656339162908
 20
1483.403535360678
 30
0.0
 10
785.8924371990377
 20
1483.417056459305
 30
0.0
 10
786.3241041172098
 20
1483.434889461502
 30
0.0
 10
786.8734504264378
 20
1483.457536027931
 30
0.0
 10
787.5318806383239
 20
1483.484610007072
 30
0.0
 10
788.2039279047838
 20
1483.512179976728
 30
0.0
 10
788.8716426928388
 20
1483.539515400582
 30
0.0
 10
789.5526282366427
 20
1483.567342906994
 30
0.0
 10
790.2301627020147
 20
1483.594984397027
 30
0.0
 10
790.9207472821377
 20
1483.623118725246
 30
0.0
 10
791.6088858258388
 20
1483.651119545161
 30
0.0
 10
792.3084243805438
 20
1483.679555794751
 30
0.0
 10
792.9079437633138
 20
1483.703906451867
 30
0.0
 10
793.4160178888649
 20
1483.724532824522
 30
0.0
 10
793.8249082564669
 20
1483.741127639409
 30
0.0
 10
794.2375721633239
 20
1483.757871630049
 30
0.0
 10
794.7883092029167
 20
1483.780213966275
 30
0.0
 10
795.4860901693407
 20
1483.808516478354
 30
0.0
 10
796.3219589997848
 20
1483.842419196916
 30
0.0
 10
797.1755023653618
 20
1483.877045483196
 30
0.0
 10
797.8861115916027
 20
1483.905884374639
 30
0.0
 10
798.4628196431388
 20
1483.929299075653
 30
0.0
 10
798.8971910099008
 20
1483.946940526467
 30
0.0
 10
799.3358312362639
 20
1483.964761833453
 30
0.0
 10
799.7759752692748
 20
1483.982651353334
 30
0.0
 10
800.2203798744538
 20
1484.000721856981
 30
0.0
 10
800.6671468595828
 20
1484.018896783913
 30
0.0
 10
801.1175636519997
 20
1484.037229136773
 30
0.0
 10
801.5786525996607
 20
1484.056005430208
 30
0.0
 10
802.0500421740378
 20
1484.075211651464
 30
0.0
 10
802.5177941904208
 20
1484.094280716747
 30
0.0
 10
802.9727720901667
 20
1484.112839717095
 30
0.0
 10
803.5595197089078
 20
1484.136787438775
 30
0.0
 10
804.2927408988558
 20
1484.166740141855
 30
0.0
 10
805.2091568068229
 20
1484.204226415763
 30
0.0
 10
806.1679358868519
 20
1484.243509455518
 30
0.0
 10
807.1188544332927
 20
1484.282549430275
 30
0.0
 10
808.0263123201237
 20
1484.319886071792
 30
0.0
 10
808.8883677096399
 20
1484.35543397115
 30
0.0
 10
809.7521498593649
 20
1484.391140569166
 30
0.0
 10
810.6175512961438
 20
1484.427009742695
 30
0.0
 10
811.4842641076777
 20
1484.463037030537
 30
0.0
 10
812.3530494557288
 20
1484.499262315856
 30
0.0
 10
813.2235179282668
 20
1484.535677825506
 30
0.0
 10
814.3885472880447
 20
1484.584587292702
 30
0.0
 10
815.8488161123187
 20
1484.646233402714
 30
0.0
 10
817.6075253222457
 20
1484.721090105628
 30
0.0
 10
819.9689992017757
 20
1484.822510164881
 30
0.0
 10
822.3408790868068
 20
1484.925877997773
 30
0.0
 10
824.7234157911537
 20
1485.031475141758
 30
0.0
 10
826.5218743603277
 20
1485.112142572616
 30
0.0
 10
828.9367006029147
 20
1485.221834115357
 30
0.0
 10
831.9725443405277
 20
1485.362514013705
 30
0.0
 10
835.2673995605237
 20
1485.519720321329
 30
0.0
 10
838.2141477179048
 20
1485.664150423778
 30
0.0
 10
840.8078392918487
 20
1485.794263648905
 30
0.0
 10
843.4112679321647
 20
1485.928073262061
 30
0.0
 10
846.0246904374458
 20
1486.065830652826
 30
0.0
 10
848.6452314641447
 20
1486.207624870222
 30
0.0
 10
851.2733945151647
 20
1486.353726325302
 30
0.0
 10
853.9066537174458
 20
1486.504243360718
 30
0.0
 10
856.5437844975768
 20
1486.659350607432
 30
0.0
 10
859.1850889365687
 20
1486.819319154533
 30
0.0
 10
861.8280585254488
 20
1486.984253549473
 30
0.0
 10
864.4716195262097
 20
1487.154338902467
 30
0.0
 10
867.1159486245397
 20
1487.329849848887
 30
0.0
 10
869.7581036953438
 20
1487.510853079265
 30
0.0
 10
872.3987846150067
 20
1487.697663811516
 30
0.0
 10
875.0347515739647
 20
1487.890321829857
 30
0.0
 10
877.2392864060187
 20
1488.056861844927
 30
0.0
 10
879.0111260092617
 20
1488.194159345485
 30
0.0
 10
880.3525907246608
 20
1488.299912688552
 30
0.0
 10
881.6921520566777
 20
1488.407361005
 30
0.0
 10
883.0299644105928
 20
1488.516555338236
 30
0.0
 10
884.3647265283018
 20
1488.627425714991
 30
0.0
 10
885.6974205175009
 20
1488.740090096264
 30
0.0
 10
887.0275272399397
 20
1488.854543907768
 30
0.0
 10
888.3552505026107
 20
1488.970841082568
 30
0.0
 10
889.6792851215087
 20
1489.0889153916
 30
0.0
 10
891.0006183112368
 20
1489.208847883756
 30
0.0
 10
891.9224707246558
 20
1489.294135209692
 30
0.0
 10
892.4040134572658
 20
1489.339035351357
 30
0.0
 10
892.4461361698718
 20
1489.342965987131
 30
0.0
  0
SPLINE
  5
46C4
330
A
100
AcDbEntity
  8
HIDDEN
100
AcDbSpline
210
0.0
220
0.0
230
1.0
 70
     8
 71
     7
 72
    21
 73
    13
 74
     0
 42
0.000000001
 43
0.0000000001
 40
0.0
 40
0.0
 40
0.0
 40
0.0
 40
0.0
 40
0.0
 40
0.0
 40
0.0
 40
0.8399999999999999
 40
0.8399999999999999
 40
0.8399999999999999
 40
0.8399999999999999
 40
0.8399999999999999
 40
1.0
 40
1.0
 40
1.0
 40
1.0
 40
1.0
 40
1.0
 40
1.0
 40
1.0
 10
1323.775742152322
 20
1617.665949757706
 30
0.0
 10
1323.775742152322
 20
1618.152067032212
 30
0.0
 10
1323.773481800245
 20
1618.638184306718
 30
0.0
 10
1323.762562164275
 20
1619.122285493954
 30
0.0
 10
1323.761719197335
 20
1619.614838901205
 30
0.0
 10
1323.711341192257
 20
1620.092023568225
 30
0.0
 10
1323.640535268796
 20
1620.676286659631
 30
0.0
 10
1323.448071633067
 20
1621.222436818903
 30
0.0
 10
1323.415098171487
 20
1621.310717283301
 30
0.0
 10
1323.370463096735
 20
1621.387482331816
 30
0.0
 10
1323.333059769279
 20
1621.4790050122
 30
0.0
 10
1323.270795589963
 20
1621.547720296401
 30
0.0
 10
1323.205011808003
 20
1621.612882399181
 30
0.0
  0
ARC
  5
46C5
330
A
100
AcDbEntity
  8
HIDDEN
100
AcDbCircle
 10
197.4509896780889
 20
1536.191971999079
 30
0.0
 40
3.999999999999954
100
AcDbArc
 50
181.9999999999645
 51
270.0
  0
LINE
  5
46C6
330
A
100
AcDbEntity
  8
HIDDEN
100
AcDbLine
 10
191.0678455890682
 20
1604.366469482592
 30
0.0
 11
193.4534263700132
 21
1536.052374012268
 31
0.0
  0
ARC
  5
46C7
330
A
100
AcDbEntity
  8
HIDDEN
100
AcDbCircle
 10
186.0708914539662
 20
1604.19197199908
 30
0.0
 40
5.0
100
AcDbArc
 50
2.000000000170501
 51
39.00643139717513
  0
ARC
  5
46C8
330
A
100
AcDbEntity
  8
HIDDEN
100
AcDbCircle
 10
1250.100474344445
 20
1536.191971999079
 30
0.0
 40
3.999999999999954
100
AcDbArc
 50
270.0
 51
358.0000000000485
  0
LINE
  5
46C9
330
A
100
AcDbEntity
  8
HIDDEN
100
AcDbLine
 10
1256.483618433466
 20
1604.366469482592
 30
0.0
 11
1254.098037652521
 21
1536.052374012268
 31
0.0
  0
ARC
  5
46CA
330
A
100
AcDbEntity
  8
HIDDEN
100
AcDbCircle
 10
1261.480572568568
 20
1604.19197199908
 30
0.0
 40
5.0
100
AcDbArc
 50
140.9935686028539
 51
177.9999999998399
  0
ARC
  5
46CB
330
A
100
AcDbEntity
  8
HIDDEN
100
AcDbCircle
 10
678.8291337312057
 20
1474.662983922151
 30
0.0
 40
8.0
100
AcDbArc
 50
5.00444037424733
 51
88.86299799614639
  0
ARC
  5
46CC
330
A
100
AcDbEntity
  8
HIDDEN
100
AcDbCircle
 10
768.7223309717608
 20
1474.662983922327
 30
0.0
 40
8.0
100
AcDbArc
 50
91.13700197091345
 51
174.9955596265765
  0
LINE
  5
46CD
330
A
100
AcDbEntity
  8
HIDDEN
100
AcDbLine
 10
679.9936331061567
 20
1482.577776478228
 30
0.0
 11
767.5578317062848
 21
1482.577776494514
 31
0.0
  0
ARC
  5
46D2
330
A
100
AcDbEntity
  8
HIDDEN
100
AcDbCircle
 10
1649.098267237557
 20
1474.607844386692
 30
0.0
 40
8.000000000000002
100
AcDbArc
 50
5.004440373959615
 51
86.15401268249799
  0
LINE
  5
46D4
330
A
100
AcDbEntity
  8
HIDDEN
100
AcDbLine
 10
1919.0400362635
 20
1532.191962797551
 30
0.0
 11
1478.786115247075
 21
1532.191964683157
 31
0.0
  0
SPLINE
  5
46D5
330
A
100
AcDbEntity
  8
HIDDEN
100
AcDbSpline
210
0.0
220
0.0
230
1.0
 70
     8
 71
     3
 72
    11
 73
     7
 74
     0
 42
0.000000001
 43
0.0000000001
 40
0.0505430319772765
 40
0.0505430319772765
 40
0.0505430319772765
 40
0.0505430319772765
 40
0.252556237363541
 40
0.4727949881818704
 40
0.7756739781347395
 40
0.9654661452689698
 40
0.9654661452689698
 40
0.9654661452689698
 40
0.9654661452689698
 10
1521.920365303582
 20
1532.191962797748
 30
0.0
 10
1532.07937184549
 20
1523.253236722134
 30
0.0
 10
1553.846596730712
 20
1507.761366895153
 30
0.0
 10
1591.667510285129
 20
1490.738491458824
 30
0.0
 10
1613.041734338142
 20
1485.238270283741
 30
0.0
 10
1637.595768350077
 20
1483.399170034673
 30
0.0
 10
1649.634865193264
 20
1482.589828014452
 30
0.0
  0
LINE
  5
46D7
330
A
100
AcDbEntity
  8
HIDDEN
100
AcDbLine
 10
1794.735735079194
 20
1622.191968755511
 30
0.0
 11
1468.684403726839
 21
1622.191972111605
 31
0.0
  0
ARC
  5
46D9
330
A
100
AcDbEntity
  8
HIDDEN
100
AcDbCircle
 10
1468.683785162004
 20
1614.779491030704
 30
0.0
 40
7.412493441689082
100
AcDbArc
 50
19.38964183993298
 51
89.99999999983127
  0
LINE
  5
46E1
330
A
100
AcDbEntity
  8
HIDDEN
100
AcDbLine
 10
1919.040033983074
 20
1520.123934799666
 30
0.0
 11
1919.040030086718
 21
1491.287652377467
 31
0.0
  0
LINE
  5
46E2
330
A
100
AcDbEntity
  8
HIDDEN
100
AcDbLine
 10
1919.040034279069
 20
1521.191983762785
 30
0.0
 11
1919.040034279069
 21
1520.123934799666
 31
0.0
  0
LINE
  5
46E3
330
A
100
AcDbEntity
  8
HIDDEN
100
AcDbLine
 10
1919.04002971
 20
1491.287652377467
 30
0.0
 11
1919.04002971
 21
1489.92831733349
 31
0.0
  0
SPLINE
  5
4701
330
A
100
AcDbEntity
  8
HIDDEN
100
AcDbSpline
210
0.0
220
0.0
230
1.0
 70
     8
 71
     3
 72
    24
 73
    20
 74
     0
 42
0.000000001
 43
0.0000000001
 40
0.0
 40
0.0
 40
0.0
 40
0.0
 40
0.279284744583095
 40
0.5846941671306528
 40
1.119073164096961
 40
1.50082347597022
 40
2.187847464113023
 40
2.915908823599299
 40
3.725688458846617
 40
4.670407276020229
 40
5.615075986947499
 40
7.369619489338157
 40
8.719195330046864
 40
9.39399864729212
 40
10.20376080959009
 40
11.58185135630687
 40
13.07390393799905
 40
14.86436561454185
 40
16.32326112501032
 40
16.32326112501032
 40
16.32326112501032
 40
16.32326112501032
 10
1399.040036263704
 20
1617.665963505603
 30
0.0
 10
1399.040036263704
 20
1617.572873061427
 30
0.0
 10
1399.04055664
 20
1617.377933197966
 30
0.0
 10
1399.066292364378
 20
1617.005417226077
 30
0.0
 10
1399.15054302317
 20
1616.60534138997
 30
0.0
 10
1399.341006767217
 20
1616.104838943449
 30
0.0
 10
1399.642601827427
 20
1615.58440253599
 30
0.0
 10
1400.115239329935
 20
1615.010428663029
 30
0.0
 10
1400.719963365499
 20
1614.44347029292
 30
0.0
 10
1401.440940794099
 20
1613.903237159805
 30
0.0
 10
1402.475810368373
 20
1613.265345050828
 30
0.0
 10
1403.695204554058
 20
1612.680968447215
 30
0.0
 10
1404.880853351038
 20
1612.252223523805
 30
0.0
 10
1405.789499311261
 20
1611.992608917242
 30
0.0
 10
1406.719233312514
 20
1611.776849044726
 30
0.0
 10
1407.924064081457
 20
1611.544823852387
 30
0.0
 10
1409.46438058777
 20
1611.337348568274
 30
0.0
 10
1411.040988620894
 20
1611.21799556996
 30
0.0
 10
1412.124160558048
 20
1611.191985746982
 30
0.0
 10
1412.61041592336
 20
1611.191985746982
 30
0.0
  0
LINE
  5
4702
330
A
100
AcDbEntity
  8
HIDDEN
100
AcDbLine
 10
1728.454953927098
 20
1446.101156562558
 30
0.0
 11
1728.513984391251
 21
1446.77527613237
 31
0.0
  0
LINE
  5
4703
330
A
100
AcDbEntity
  8
HIDDEN
100
AcDbLine
 10
1662.613682422123
 20
1443.362855402715
 30
0.0
 11
1672.105360404048
 21
1443.362855402715
 31
0.0
  0
LINE
  5
4704
330
A
100
AcDbEntity
  8
HIDDEN
100
AcDbLine
 10
1715.974712123357
 20
1443.362855402715
 30
0.0
 11
1725.466390105284
 21
1443.362855402715
 31
0.0
  0
ARC
  5
4705
330
A
100
AcDbEntity
  8
HIDDEN
100
AcDbCircle
 10
1731.502580720623
 20
1446.513543967935
 30
0.0
 40
3.000035290767282
100
AcDbArc
 50
93.58330053695921
 51
174.994979770649
  0
ARC
  5
4706
330
A
100
AcDbEntity
  8
HIDDEN
100
AcDbCircle
 10
1662.613698919161
 20
1446.362873407465
 30
0.0
 40
3.000018004804391
100
AcDbArc
 50
185.0047554418444
 51
269.9996849316668
  0
ARC
  5
4707
330
A
100
AcDbEntity
  8
HIDDEN
100
AcDbCircle
 10
1725.466373608244
 20
1446.362873407465
 30
0.0
 40
3.000018004804352
100
AcDbArc
 50
270.0003150685417
 51
354.9952445581554
  0
LINE
  5
4708
330
A
100
AcDbEntity
  8
HIDDEN
100
AcDbLine
 10
1657.067770762395
 20
1475.305707960454
 30
0.0
 11
1659.62511860031
 21
1446.101156562558
 31
0.0
  0
SPLINE
  5
4709
330
A
100
AcDbEntity
  8
HIDDEN
 48
0.5
100
AcDbSpline
210
0.0
220
0.0
230
1.0
 70
     8
 71
     3
 72
    20
 73
    16
 74
     0
 42
0.000000001
 43
0.0000000001
 40
0.0
 40
0.0
 40
0.0
 40
0.0
 40
4.533514738912848
 40
9.067032453796905
 40
13.18841204808415
 40
19.95745562799645
 40
31.80326021261582
 40
42.23885663861201
 40
48.44381404996041
 40
56.67461112261128
 40
64.8364177630914
 40
73.38672898675362
 40
80.44846735621765
 40
87.36156545882592
 40
89.0521973490272
 40
89.0521973490272
 40
89.0521973490272
 40
89.0521973490272
 10
1731.315079620811
 20
1449.507714150712
 30
0.0
 10
1732.823231089315
 20
1449.602142377006
 30
0.0
 10
1735.837130416238
 20
1449.834722210659
 30
0.0
 10
1740.2059199319
 20
1450.330867578063
 30
0.0
 10
1745.290844516209
 20
1451.095811848345
 30
0.0
 10
1752.726096294385
 20
1452.580656169992
 30
0.0
 10
1762.035679942925
 20
1455.308755593191
 30
0.0
 10
1770.766437270296
 20
1459.090083716036
 30
0.0
 10
1777.984485597362
 20
1463.183122370791
 30
0.0
 10
1784.142588703959
 20
1467.543898867231
 30
0.0
 10
1790.302254614893
 20
1473.15246014708
 30
0.0
 10
1795.446409772991
 20
1479.201984702629
 30
0.0
 10
1799.633944620515
 20
1485.445288681037
 30
0.0
 10
1802.128432110081
 20
1490.038374705653
 30
0.0
 10
1803.367562271249
 20
1492.624881921904
 30
0.0
 10
1803.606136753715
 20
1493.135428053393
 30
0.0
  0
ARC
  5
4716
330
A
100
AcDbEntity
  8
HIDDEN
100
AcDbCircle
 10
1472.749514024768
 20
1536.191985746982
 30
0.0
 40
4.0
100
AcDbArc
 50
182.0000000002123
 51
270.0
  0
LINE
  5
471B
330
A
100
AcDbEntity
  8
HIDDEN
100
AcDbLine
 10
1468.751950716692
 20
1536.052387760172
 30
0.0
 11
1466.467476092372
 21
1601.471181720603
 31
0.0
  0
ARC
  5
471D
330
A
100
AcDbEntity
  8
HIDDEN
100
AcDbCircle
 10
1458.472349476219
 20
1601.191985746982
 30
0.0
 40
8.000000000000028
100
AcDbArc
 50
2.00000000021221
 51
50.19409749324481
  0
LINE
  5
471F
330
A
100
AcDbEntity
  8
HIDDEN
100
AcDbLine
 10
1416.172168515559
 20
1609.218046430693
 30
0.0
 11
1416.377092502866
 21
1608.655022560552
 31
0.0
  0
LINE
  5
4720
330
A
100
AcDbEntity
  8
HIDDEN
100
AcDbLine
 10
1412.61041592336
 20
1611.191985746982
 30
0.0
 11
1413.353090745556
 21
1611.191985746982
 31
0.0
  0
ARC
  5
4721
330
A
100
AcDbEntity
  8
HIDDEN
100
AcDbCircle
 10
1413.353090745555
 20
1608.191985746982
 30
0.0
 40
3.000000000000024
100
AcDbArc
 50
20.00000515726039
 51
89.99999999977419
  0
ARC
  5
4722
330
A
100
AcDbEntity
  8
HIDDEN
100
AcDbCircle
 10
1418.256477682869
 20
1609.339063016354
 30
0.0
 40
2.000000000000013
100
AcDbArc
 50
200.0000051572543
 51
270.4407879898088
  0
SPLINE
  5
4724
330
A
100
AcDbEntity
  8
HIDDEN
100
AcDbSpline
210
0.0
220
0.0
230
1.0
 70
     8
 71
     3
 72
    17
 73
    13
 74
     0
 42
0.000000001
 43
0.0000000001
 40
0.0
 40
0.0
 40
0.0
 40
0.0
 40
0.0986846165700861
 40
0.1974561802184851
 40
0.3322459645424353
 40
0.5386555777676384
 40
0.6847013359738444
 40
0.9766983645174958
 40
1.390677493903839
 40
2.060296363055238
 40
2.998300324359722
 40
4.050912420195138
 40
4.050912420195138
 40
4.050912420195138
 40
4.050912420195138
 10
1399.610766608032
 20
1621.612896147088
 30
0.0
 10
1399.587407636097
 20
1621.589757925415
 30
0.0
 10
1399.542233809974
 20
1621.541668006691
 30
0.0
 10
1399.478847659433
 20
1621.450546787039
 30
0.0
 10
1399.409833191779
 20
1621.320896340205
 30
0.0
 10
1399.348661506547
 20
1621.170216394216
 30
0.0
 10
1399.282517449287
 20
1620.965755161893
 30
0.0
 10
1399.212801821692
 20
1620.690230255792
 30
0.0
 10
1399.133869724556
 20
1620.238217432844
 30
0.0
 10
1399.068892252857
 20
1619.566993234365
 30
0.0
 10
1399.043008644368
 20
1618.680350094748
 30
0.0
 10
1399.040036263704
 20
1618.016830362793
 30
0.0
 10
1399.040036263704
 20
1617.665963505603
 30
0.0
  0
ARC
  5
4725
330
A
100
AcDbEntity
  8
HIDDEN
100
AcDbCircle
 10
1401.018250182592
 20
1620.191984472409
 30
0.0
 40
2.000000000000011
100
AcDbArc
 50
89.99999999950495
 51
134.7279843811253
  0
LINE
  5
4732
330
A
100
AcDbEntity
  8
HIDDEN
100
AcDbLine
 10
1472.749514024768
 20
1532.191985746982
 30
0.0
 11
1478.78613631091
 21
1532.191985746982
 31
0.0
  0
LINE
  5
4734
330
A
100
AcDbEntity
  8
HIDDEN
100
AcDbLine
 10
1917.040036263531
 20
1622.191984472395
 30
0.0
 11
1794.749487620654
 21
1622.191984472395
 31
0.0
  0
LINE
  5
4737
330
A
100
AcDbEntity
  8
HIDDEN
100
AcDbLine
 10
1468.683785162004
 20
1622.191984472395
 30
0.0
 11
1401.018250182612
 21
1622.191984472395
 31
0.0
  0
ARC
  5
473B
330
A
100
AcDbEntity
  8
HIDDEN
100
AcDbCircle
 10
1917.040036263533
 20
1620.191984472395
 30
0.0
 40
1.999999999999915
100
AcDbArc
 50
0.0
 51
89.99999999984367
  0
LINE
  5
473C
330
A
100
AcDbEntity
  8
HIDDEN
100
AcDbLine
 10
1919.040036263495
 20
1521.191985746982
 30
0.0
 11
1919.040036263531
 21
1620.191984472395
 31
0.0
  0
LINE
  5
474C
330
A
100
AcDbEntity
  8
HIDDEN
100
AcDbLine
 10
1715.974712123357
 20
1443.362855402715
 30
0.0
 11
1672.105360404048
 21
1443.362855402715
 31
0.0
  0
SPLINE
  5
474D
330
A
100
AcDbEntity
  8
HIDDEN
100
AcDbSpline
210
0.0
220
0.0
230
1.0
 70
     8
 71
     3
 72
    19
 73
    15
 74
     0
 42
0.000000001
 43
0.0000000001
 40
0.0
 40
0.0
 40
0.0
 40
0.0
 40
0.0400233032968835
 40
0.0747875408354216
 40
0.1442450105088182
 40
0.2069421779115951
 40
0.2705564448162965
 40
0.4081488112453923
 40
0.5556314870065492
 40
0.7997039317425145
 40
1.316741821171574
 40
1.659027584948364
 40
1.991552116965398
 40
2.047315665904553
 40
2.047315665904553
 40
2.047315665904553
 40
2.047315665904553
 10
1919.040010123168
 20
1620.191958332033
 30
0.0
 10
1919.040010122586
 20
1620.192210578642
 30
0.0
 10
1919.040006401056
 20
1620.188622723849
 30
0.0
 10
1919.040557323419
 20
1620.164163790052
 30
0.0
 10
1919.042134553328
 20
1620.117900397329
 30
0.0
 10
1919.044347928407
 20
1620.057682758043
 30
0.0
 10
1919.047308861429
 20
1619.972825826064
 30
0.0
 10
1919.050671690203
 20
1619.85789794263
 30
0.0
 10
1919.05401328007
 20
1619.681991842756
 30
0.0
 10
1919.05576627461
 20
1619.37890791476
 30
0.0
 10
1919.050908981847
 20
1619.011766913135
 30
0.0
 10
1919.044517660554
 20
1618.6182545377
 30
0.0
 10
1919.041861649346
 20
1618.378817367926
 30
0.0
 10
1919.041060682001
 20
1618.251314485728
 30
0.0
 10
1919.040957003892
 20
1618.232996767087
 30
0.0
  0
ARC
  5
474E
330
A
100
AcDbEntity
  8
HIDDEN
100
AcDbCircle
 10
1917.040029710009
 20
1489.92831733349
 30
0.0
 40
1.999999999999986
100
AcDbArc
 50
270.0
 51
0.0
  0
LINE
  5
474F
330
A
100
AcDbEntity
  8
HIDDEN
100
AcDbLine
 10
1898.579024680146
 20
1487.92831733349
 30
0.0
 11
1917.040029710009
 21
1487.92831733349
 31
0.0
  0
SPLINE
  5
4750
330
A
100
AcDbEntity
  8
HIDDEN
100
AcDbSpline
210
0.0
220
0.0
230
1.0
 70
     8
 71
     3
 72
    21
 73
    17
 74
     0
 42
0.000000001
 43
0.0000000001
 40
0.9940314679136765
 40
0.9940314679136765
 40
0.9940314679136765
 40
0.9940314679136765
 40
2.334998499676045
 40
4.086248958573962
 40
7.005962429152216
 40
10.51073121746473
 40
15.18688478308214
 40
22.20203853212612
 40
30.96889776847162
 40
38.56475558846513
 40
46.16088276244454
 40
54.92851095955276
 40
61.94343362440193
 40
66.03432980206829
 40
69.5398564155426
 40
72.66420345094348
 40
72.66420345094348
 40
72.66420345094348
 40
72.66420345094348
 10
1418.271863934544
 20
1607.339062418809
 30
0.0
 10
1418.282654080634
 20
1607.339074198395
 30
0.0
 10
1418.325468158473
 20
1607.339095821886
 30
0.0
 10
1418.485370242646
 20
1607.338785399092
 30
0.0
 10
1418.861852818385
 20
1607.337185704373
 30
0.0
 10
1419.633074716894
 20
1607.333460090033
 30
0.0
 10
1421.109513286214
 20
1607.327399467706
 30
0.0
 10
1423.831926454615
 20
1607.324712617794
 30
0.0
 10
1427.983729340352
 20
1607.330416237054
 30
0.0
 10
1433.253850128821
 20
1607.333425573909
 30
0.0
 10
1439.362243286383
 20
1607.328062399355
 30
0.0
 10
1446.052220982611
 20
1607.322408390587
 30
0.0
 10
1452.184313087806
 20
1607.326056488854
 30
0.0
 10
1456.863510089171
 20
1607.331965176977
 30
0.0
 10
1460.364606732032
 20
1607.335847828906
 30
0.0
 10
1462.556965915594
 20
1607.337202484041
 30
0.0
 10
1919.040036263526
 20
1607.337692178379
 30
0.0
  0
LINE
  5
4752
330
A
100
AcDbEntity
  8
HIDDEN
100
AcDbLine
 10
1890.300900466646
 20
1493.135428053391
 30
0.0
 11
1803.606132106959
 21
1493.135428053391
 31
0.0
  0
SPLINE
  5
4753
330
A
100
AcDbEntity
  8
HIDDEN
100
AcDbSpline
210
0.0
220
0.0
230
1.0
 70
     8
 71
     3
 72
    17
 73
    13
 74
     0
 42
0.000000001
 43
0.0000000001
 40
4.215596435986813
 40
4.215596435986813
 40
4.215596435986813
 40
4.215596435986813
 40
4.3903742142726
 40
5.043311732700927
 40
6.131616489903759
 40
6.349576555020604
 40
7.221353259182914
 40
8.965278791687375
 40
10.70945220263546
 40
12.45371073419929
 40
13.70962651209006
 40
14.52947495815158
 40
14.52947495815158
 40
14.52947495815158
 40
14.52947495815158
 10
1890.30090355165
 20
1493.135428298731
 30
0.0
 10
1890.32611354982
 20
1493.082953210436
 30
0.0
 10
1890.447873081726
 20
1492.835559306098
 30
0.0
 10
1890.755469636433
 20
1492.275704448845
 30
0.0
 10
1891.12325796136
 20
1491.734812635701
 30
0.0
 10
1891.573076399536
 20
1491.165023505504
 30
0.0
 10
1892.201894262193
 20
1490.458887896113
 30
0.0
 10
1893.317608776315
 20
1489.517532807184
 30
0.0
 10
1894.845852043294
 20
1488.660860032475
 30
0.0
 10
1896.353343481564
 20
1488.159686673206
 30
0.0
 10
1897.613753765856
 20
1487.959361712614
 30
0.0
 10
1898.305828637321
 20
1487.928468340242
 30
0.0
 10
1898.579020424439
 20
1487.928471414611
 30
0.0
  0
LINE
  5
4CA0
330
A
100
AcDbEntity
  8
HIDDEN
100
AcDbLine
 10
751.1027544876908
 20
1455.6768746659
 30
0.0
 11
751.1027544876908
 21
1443.362841654809
 31
0.0
  0
LINE
  5
4CA2
330
A
100
AcDbEntity
  8
HIDDEN
100
AcDbLine
 10
761.6112892989377
 20
1492.184473128097
 30
0.0
 11
723.7757320112698
 21
1492.184473128094
 31
0.0
  0
LINE
  5
4CA6
330
A
100
AcDbEntity
  8
HIDDEN
100
AcDbLine
 10
685.9401747236018
 20
1492.184473128097
 30
0.0
 11
723.7757320112698
 21
1492.184473128094
 31
0.0
  0
LINE
  5
4CA8
330
A
100
AcDbEntity
  8
HIDDEN
100
AcDbLine
 10
696.4487095348488
 20
1455.6768746659
 30
0.0
 11
696.4487095348488
 21
1443.362841654809
 31
0.0
  0
LINE
  5
4FEF
102
{ACAD_REACTORS
330
500A
102
}
330
A
100
AcDbEntity
  8
Dim
 62
     0
100
AcDbLine
 10
1193.775732351491
 20
1459.191964660655
 30
0.0
 11
1193.775732351491
 21
1537.191964660655
 31
0.0
  0
LINE
  5
4FF0
330
A
100
AcDbEntity
  8
Dim
 62
     0
100
AcDbLine
 10
1193.775732351491
 20
1537.191964660655
 30
0.0
 11
1173.775732351491
 21
1537.191964660655
 31
0.0
  0
LINE
  5
4FF1
102
{ACAD_REACTORS
330
500A
330
5134
102
}
330
A
100
AcDbEntity
  8
Dim
 62
     0
100
AcDbLine
 10
1173.775732351491
 20
1537.191964660655
 30
0.0
 11
1173.775732351491
 21
1439.191964660655
 31
0.0
  0
LINE
  5
5006
102
{ACAD_REACTORS
330
5134
102
}
330
A
100
AcDbEntity
  8
Dim
 62
     0
100
AcDbLine
 10
1173.775732351491
 20
1459.191964660655
 30
0.0
 11
723.7757323514907
 21
1459.191964660655
 31
0.0
  0
ARC
  5
5007
330
A
100
AcDbEntity
  8
Dim
 62
     0
100
AcDbCircle
 10
1173.775732351491
 20
1459.191964660655
 30
0.0
 40
20.0
100
AcDbArc
 50
270.0
 51
0.0
  0
DIMENSION
  5
5008
102
{ACAD_REACTORS
330
500A
102
}
102
{ACAD_XDICTIONARY
360
5009
102
}
330
A
100
AcDbEntity
  8
Dim
100
AcDbDimension
  2
*D9
 10
1173.775732351491
 20
1672.42118731208
 30
0.0
 11
1124.724464278352
 21
1672.42118731208
 31
0.0
 70
   160
 71
     5
 42
20.0
 73
     0
 74
     1
 75
     1
  3
tform線あり
100
AcDbAlignedDimension
 13
1193.775732351491
 23
1537.191964660655
 33
0.0
 14
1173.775732351491
 24
1537.191964660655
 34
0.0
 50
-0.000000000000014
100
AcDbRotatedDimension
  0
LINE
  5
5019
330
A
100
AcDbEntity
  8
Dim
 62
     0
100
AcDbLine
 10
1474.040036263704
 20
1537.191964660655
 30
0.0
 11
1494.040036263704
 21
1537.191964660655
 31
0.0
  0
LINE
  5
501B
102
{ACAD_REACTORS
330
50A1
102
}
330
A
100
AcDbEntity
  8
Dim
 62
     0
100
AcDbLine
 10
1474.040036263704
 20
1537.191964660655
 30
0.0
 11
1474.040036263704
 21
1449.191964660655
 31
0.0
  0
LINE
  5
501D
102
{ACAD_REACTORS
330
50A1
102
}
330
A
100
AcDbEntity
  8
Dim
 62
     0
100
AcDbLine
 10
1494.040036263704
 20
1534.191964660655
 30
0.0
 11
1494.040036263704
 21
1449.191964660655
 31
0.0
  0
ARC
  5
5042
330
A
100
AcDbEntity
  8
Dim
 62
     0
100
AcDbCircle
 10
1484.040036263704
 20
1449.191964660655
 30
0.0
 40
10.0
100
AcDbArc
 50
180.0
 51
0.0
  0
LINE
  5
5055
330
A
100
AcDbEntity
  8
Dim
 62
     0
100
AcDbLine
 10
1474.040036263704
 20
1534.191964660655
 30
0.0
 11
1524.040036263704
 21
1534.191964660655
 31
0.0
  0
DIMENSION
  5
5056
330
A
100
AcDbEntity
  8
Dim
100
AcDbDimension
  2
*D10
 10
1524.040036263704
 20
1672.42118731208
 30
0.0
 11
1499.040036263704
 21
1672.42118731208
 31
0.0
 70
   160
 71
     5
 42
50.0
 73
     0
 74
     0
 75
     0
  3
tform線あり
100
AcDbAlignedDimension
 13
1474.040036263704
 23
1534.191964660655
 33
0.0
 14
1524.040036263704
 24
1534.191964660655
 34
0.0
 50
-0.000000000000014
100
AcDbRotatedDimension
  0
LINE
  5
5064
330
A
100
AcDbEntity
  8
Dim
 62
     0
100
AcDbLine
 10
1474.040036263704
 20
1537.191964660655
 30
0.0
 11
1524.040036263704
 21
1537.191964660655
 31
0.0
  0
LINE
  5
5065
330
A
100
AcDbEntity
  8
Dim
 62
     0
100
AcDbLine
 10
1524.040036263704
 20
1537.191964660655
 30
0.0
 11
1524.040036263704
 21
1534.191964660655
 31
0.0
  0
LINE
  5
5066
330
A
100
AcDbEntity
  8
Dim
 62
     0
100
AcDbLine
 10
1193.775732351491
 20
1534.191964660655
 30
0.0
 11
1173.775732351491
 21
1534.191964660655
 31
0.0
  0
LINE
  5
5067
330
A
100
AcDbEntity
  8
Dim
 62
     0
100
AcDbLine
 10
253.7757323514907
 20
1537.191964660655
 30
0.0
 11
273.7757323514907
 21
1537.191964660655
 31
0.0
  0
LINE
  5
5068
102
{ACAD_REACTORS
330
500A
102
}
330
A
100
AcDbEntity
  8
Dim
 62
     0
100
AcDbLine
 10
273.7757323514907
 20
1537.191964660655
 30
0.0
 11
273.7757323514907
 21
1439.191964660655
 31
0.0
  0
LINE
  5
5069
102
{ACAD_REACTORS
330
500A
102
}
330
A
100
AcDbEntity
  8
Dim
 62
     0
100
AcDbLine
 10
253.7757323514907
 20
1459.191964660655
 30
0.0
 11
253.7757323514907
 21
1537.191964660655
 31
0.0
  0
ARC
  5
506B
330
A
100
AcDbEntity
  8
Dim
 62
     0
100
AcDbCircle
 10
273.7757323514907
 20
1459.191964660655
 30
0.0
 40
20.0
100
AcDbArc
 50
180.0
 51
270.0
  0
LINE
  5
506C
330
A
100
AcDbEntity
  8
Dim
 62
     0
100
AcDbLine
 10
273.7757323514907
 20
1459.191964660655
 30
0.0
 11
723.7757323514907
 21
1459.191964660655
 31
0.0
  0
LINE
  5
506D
330
A
100
AcDbEntity
  8
Dim
 62
     0
100
AcDbLine
 10
253.7757323514907
 20
1534.191964660655
 30
0.0
 11
273.7757323514907
 21
1534.191964660655
 31
0.0
  0
LINE
  5
506E
330
A
100
AcDbEntity
  8
Dim
 62
     0
100
AcDbLine
 10
1173.775732351491
 20
1439.191964660655
 30
0.0
 11
273.7757323514907
 21
1439.191964660655
 31
0.0
  0
DIMENSION
  5
507E
330
A
100
AcDbEntity
  8
Dim
100
AcDbDimension
  2
*D11
 10
253.7757323514907
 20
1310.597093863823
 30
0.0
 11
723.7757323514907
 21
1332.813402457573
 31
0.0
 70
    32
 71
     5
 42
940.0
 73
     0
 74
     0
 75
     0
 52
-90.0
  3
tform線あり
100
AcDbAlignedDimension
 13
1193.775732351491
 23
1456.317205371051
 33
0.0
 14
253.7757323514907
 24
1456.317205371051
 34
0.0
 50
0.000000000000014
100
AcDbRotatedDimension
  0
DIMENSION
  5
509F
102
{ACAD_REACTORS
330
50A1
102
}
102
{ACAD_XDICTIONARY
360
50A0
102
}
330
A
100
AcDbEntity
  8
Dim
100
AcDbDimension
  2
*D12
 10
1494.040036263704
 20
1310.597093863823
 30
0.0
 11
1538.551790169954
 21
1310.597093863823
 31
0.0
 70
   160
 71
     5
 42
20.0
 73
     0
 74
     1
 75
     1
  3
tform線あり
100
AcDbAlignedDimension
 13
1474.040036263704
 23
1449.191964660655
 33
0.0
 14
1494.040036263704
 24
1449.191964660655
 34
0.0
100
AcDbRotatedDimension
  0
DIMENSION
  5
50D6
330
A
100
AcDbEntity
  8
Dim
100
AcDbDimension
  2
*D13
 10
1630.35333055038
 20
1437.191964660655
 30
0.0
 11
1608.13702195663
 21
1487.191964660655
 31
0.0
 70
    32
 71
     5
 42
100.0
 73
     0
 74
     0
 75
     0
  3
tform線あり
100
AcDbAlignedDimension
 13
1524.040036263704
 23
1537.191964660655
 33
0.0
 14
1488.39007882073
 24
1437.191964660655
 34
0.0
 50
90.0
100
AcDbRotatedDimension
1001
ACAD
1000
DSTYLE
1002
{
1070
   144
1040
1.0
1002
}
  0
LINE
  5
512D
330
A
100
AcDbEntity
  8
HIDDEN
 48
0.25
100
AcDbLine
 10
1494.040036263704
 20
1459.191964660655
 30
0.0
 11
1474.040036263704
 21
1459.191964660655
 31
0.0
  0
DIMENSION
  5
5132
102
{ACAD_REACTORS
330
5134
102
}
102
{ACAD_XDICTIONARY
360
5133
102
}
330
A
100
AcDbEntity
  8
Dim
100
AcDbDimension
  2
*D17
 10
1311.569262122237
 20
1439.191964660655
 30
0.0
 11
1311.569262122237
 21
1503.703718566905
 31
0.0
 70
   160
 71
     5
 42
20.0
 73
     0
 74
     1
 75
     1
  3
tform線あり
100
AcDbAlignedDimension
 13
1173.775732351491
 23
1459.191964660655
 33
0.0
 14
1173.775732351491
 24
1439.191964660655
 34
0.0
 50
90.0
100
AcDbRotatedDimension
1001
ACAD
1000
DSTYLE
1002
{
1070
   144
1040
1.0
1002
}
  0
VIEWPORT
  5
349
330
B
100
AcDbEntity
 67
     1
  8
0
100
AcDbViewport
 10
202.5
 20
128.5
 30
0.0
 40
486.0
 41
308.4
 68
     1
 69
     1
 12
202.5
 22
128.5
 13
0.0
 23
0.0
 14
0.5
 24
0.5
 15
0.0
 25
0.0
 16
0.0
 26
0.0
 36
1.0
 17
0.0
 27
0.0
 37
0.0
 42
50.0
 43
0.0
 44
0.0
 45
308.4
 50
0.0
 51
0.0
 72
   100
 90
   557152
  1

281
     0
 71
     1
 74
     0
110
0.0
120
0.0
130
0.0
111
1.0
121
0.0
131
0.0
112
0.0
122
1.0
132
0.0
 79
     0
146
0.0
170
     0
 61
     5
348
26C
292
     1
282
     1
141
0.0
142
0.0
 63
   256
  0
VIEWPORT
  5
34A
330
B
100
AcDbEntity
 67
     1
  8
0
100
AcDbViewport
 10
202.5
 20
128.5
 30
0.0
 40
324.0
 41
205.6
 68
     2
 69
     2
 12
986.6781359294573
 22
1427.077061889956
 13
0.0
 23
0.0
 14
0.5
 24
0.5
 15
0.0
 25
0.0
 16
0.0
 26
0.0
 36
1.0
 17
0.0
 27
0.0
 37
0.0
 42
50.0
 43
0.0
 44
0.0
 45
2890.021615685494
 50
0.0
 51
0.0
 72
   100
 90
   557152
  1

281
     0
 71
     1
 74
     0
110
0.0
120
0.0
130
0.0
111
1.0
121
0.0
131
0.0
112
0.0
122
1.0
132
0.0
 79
     0
146
0.0
170
     0
 61
     5
348
26C
292
     1
282
     1
141
0.0
142
0.0
 63
   256
  0
ENDSEC
  0
SECTION
  2
OBJECTS
  0
DICTIONARY
  5
19
330
0
100
AcDbDictionary
281
     1
  3
ACAD_COLOR
350
38F
  3
ACAD_DETAILVIEWSTYLE
350
8CF
  3
ACAD_FIELDLIST
350
BA6
  3
ACAD_GROUP
350
1A
  3
ACAD_IMAGE_VARS
350
27B
  3
ACAD_LAYOUT
350
1E
  3
ACAD_MATERIAL
350
263
  3
ACAD_MLEADERSTYLE
350
336
  3
ACAD_MLINESTYLE
350
1B
  3
ACAD_PLOTSETTINGS
350
22
  3
ACAD_PLOTSTYLENAME
350
1F
  3
ACAD_SCALELIST
350
241
  3
ACAD_SECTIONVIEWSTYLE
350
8D0
  3
ACAD_TABLESTYLE
350
278
  3
ACAD_VISUALSTYLE
350
267
  3
ACDB_RECOMPOSE_DATA
350
5161
  3
AcDbVariableDictionary
350
330
  3
APPDATA
350
27A
  3
DimOffsetDictionary
350
C08
  0
SUN
  5
8C2
330
15
100
AcDbSun
 90
        1
290
     0
 63
     7
421
 16777215
 40
1.0
291
     1
 91
  2455826
 92
 54000000
292
     0
 70
     2
 71
   256
280
     1
  0
DICTIONARY
  5
2E1
330
2
100
AcDbDictionary
280
     1
281
     1
  3
ACAD_LAYERSTATES
360
2E2
  3
ACLYDICTIONARY
360
50B8
  0
DICTIONARY
  5
BDC
330
BDB
100
AcDbDictionary
280
     1
281
     1
  3
ACAD_FIELD
360
BE4
  0
DICTIONARY
  5
5009
330
5008
100
AcDbDictionary
280
     1
281
     1
  3
ACAD_DIMASSOC
360
500A
  0
DICTIONARY
  5
50A0
330
509F
100
AcDbDictionary
280
     1
281
     1
  3
ACAD_DIMASSOC
360
50A1
  0
DICTIONARY
  5
5133
330
5132
100
AcDbDictionary
280
     1
281
     1
  3
ACAD_DIMASSOC
360
5134
  0
DICTIONARY
  5
38F
102
{ACAD_REACTORS
330
19
102
}
330
19
100
AcDbDictionary
281
     1
  0
DICTIONARY
  5
8CF
102
{ACAD_REACTORS
330
19
102
}
330
19
100
AcDbDictionary
281
     1
  0
FIELDLIST
  5
BA6
102
{ACAD_REACTORS
330
19
102
}
330
19
100
AcDbIdSet
 90
        2
330
BDF
330
BDE
100
AcDbFieldList
  0
DICTIONARY
  5
1A
102
{ACAD_REACTORS
330
19
102
}
330
19
100
AcDbDictionary
281
     1
  0
RASTERVARIABLES
  5
27B
102
{ACAD_REACTORS
330
19
102
}
330
19
100
AcDbRasterVariables
 90
        0
 70
     1
 71
     1
 72
     1
  0
DICTIONARY
  5
1E
102
{ACAD_REACTORS
330
19
102
}
330
19
100
AcDbDictionary
281
     1
  3
Layout1
350
21
  3
Model
350
20
  0
DICTIONARY
  5
263
102
{ACAD_REACTORS
330
19
102
}
330
19
100
AcDbDictionary
281
     1
  3
ByBlock
350
50C8
  3
ByLayer
350
264
  3
Global
350
266
  0
DICTIONARY
  5
336
102
{ACAD_REACTORS
330
19
102
}
330
19
100
AcDbDictionary
281
     1
  3
Standard
350
8D1
  0
DICTIONARY
  5
1B
102
{ACAD_REACTORS
330
19
102
}
330
19
100
AcDbDictionary
281
     1
  3
Standard
350
1C
  0
DICTIONARY
  5
22
102
{ACAD_REACTORS
330
19
102
}
330
19
100
AcDbDictionary
281
     1
  0
ACDBDICTIONARYWDFLT
  5
1F
102
{ACAD_REACTORS
330
19
102
}
330
19
100
AcDbDictionary
281
     1
  3
Normal
350
1D
100
AcDbDictionaryWithDefault
340
1D
  0
DICTIONARY
  5
241
102
{ACAD_REACTORS
330
19
102
}
330
19
100
AcDbDictionary
281
     1
  3
A0
350
242
  3
A1
350
243
  3
A2
350
244
  3
A3
350
245
  3
A4
350
246
  3
A5
350
247
  3
A6
350
248
  3
A7
350
249
  3
A8
350
24A
  3
A9
350
24B
  3
B0
350
24C
  3
B1
350
24D
  3
B2
350
24E
  3
B3
350
24F
  3
B4
350
250
  3
B5
350
251
  3
B6
350
252
  3
B7
350
253
  3
B8
350
254
  3
B9
350
255
  3
C0
350
256
  3
C1
350
257
  3
C2
350
258
  3
C3
350
259
  3
C4
350
25A
  3
C5
350
25B
  3
C6
350
25C
  3
C7
350
25D
  3
C8
350
25E
  3
C9
350
25F
  3
D0
350
260
  3
D1
350
261
  3
D2
350
262
  0
DICTIONARY
  5
8D0
102
{ACAD_REACTORS
330
19
102
}
330
19
100
AcDbDictionary
281
     1
  0
DICTIONARY
  5
278
102
{ACAD_REACTORS
330
19
102
}
330
19
100
AcDbDictionary
281
     1
  3
Standard
350
279
  0
DICTIONARY
  5
267
102
{ACAD_REACTORS
330
19
102
}
330
19
100
AcDbDictionary
281
     1
  3
2dWireframe
350
26C
  3
3D Hidden
350
26E
  3
3dWireframe
350
26D
  3
Basic
350
26F
  3
Brighten
350
273
  3
ColorChange
350
277
  3
Conceptual
350
271
  3
Dim
350
272
  3
EdgeColorOff
350
8BC
  3
Facepattern
350
276
  3
Flat
350
268
  3
FlatWithEdges
350
269
  3
Gouraud
350
26A
  3
GouraudWithEdges
350
26B
  3
Hidden
350
8B9
  3
JitterOff
350
8BA
  3
Linepattern
350
275
  3
OverhangOff
350
8BB
  3
Realistic
350
270
  3
Shaded
350
8C1
  3
Shaded with edges
350
8C0
  3
Shades of Gray
350
8BD
  3
Sketchy
350
8BE
  3
Thicken
350
274
  3
Wireframe
350
8B8
  3
X-Ray
350
8BF
  0
XRECORD
  5
5161
102
{ACAD_REACTORS
330
19
102
}
330
19
100
AcDbXrecord
280
     1
 90
        1
330
279
  0
DICTIONARY
  5
330
102
{ACAD_REACTORS
330
19
102
}
330
19
100
AcDbDictionary
281
     1
  3
CANNOSCALE
350
331
  3
CMLEADERSTYLE
350
8DA
  3
CTABLESTYLE
350
335
  3
HPTRANSPARENCY
350
C07
  3
XCLIPFRAME
350
64A
  0
DICTIONARY
  5
27A
102
{ACAD_REACTORS
330
19
102
}
330
19
100
AcDbDictionary
281
     1
  0
DICTIONARY
  5
C08
102
{ACAD_REACTORS
330
19
102
}
330
19
100
AcDbDictionary
281
     1
  3
DIMRAILANGLE
350
4342
  3
DIMRAILFIRSTOFFSET
350
4340
  3
DIMRAILOFFSET
350
4341
  3
DIMRAILSENABLED
350
4343
  0
DICTIONARY
  5
2E2
102
{ACAD_REACTORS
330
2E1
102
}
330
2E1
100
AcDbDictionary
281
     1
  0
DICTIONARY
  5
50B8
102
{ACAD_REACTORS
330
2E1
102
}
330
2E1
100
AcDbDictionary
281
     1
1001
ACAD
1000
<All
  0
DICTIONARY
  5
BE4
102
{ACAD_REACTORS
330
BDC
102
}
330
BDC
100
AcDbDictionary
280
     1
281
     1
  3
TEXT
360
BDE
  0
DIMASSOC
  5
500A
102
{ACAD_REACTORS
330
5009
102
}
330
5009
100
AcDbDimAssoc
330
5008
 90
        3
 70
     0
 71
     1
  1
AcDbOsnapPointRef
 72
     1
331
4FEF
 73
     0
 91
        0
 40
0.0
 10
0.0
 20
0.0
 30
0.0
 75
     0
  1
AcDbOsnapPointRef
 72
    13
331
4FF1
 73
     0
 91
        0
 40
0.0
 10
0.0
 20
0.0
 30
0.0
 75
     0
  0
DIMASSOC
  5
50A1
102
{ACAD_REACTORS
330
50A0
102
}
330
50A0
100
AcDbDimAssoc
330
509F
 90
        3
 70
     0
 71
     1
  1
AcDbOsnapPointRef
 72
     1
331
501B
 73
     0
 91
        0
 40
0.0
 10
0.0
 20
0.0
 30
0.0
 75
     0
  1
AcDbOsnapPointRef
 72
     1
331
501D
 73
     0
 91
        0
 40
0.0
 10
0.0
 20
0.0
 30
0.0
 75
     0
  0
DIMASSOC
  5
5134
102
{ACAD_REACTORS
330
5133
102
}
330
5133
100
AcDbDimAssoc
330
5132
 90
        3
 70
     0
 71
     1
  1
AcDbOsnapPointRef
 72
    13
331
5006
 73
     0
 91
        0
 40
0.0
 10
0.0
 20
0.0
 30
0.0
 75
     0
  1
AcDbOsnapPointRef
 72
     1
331
4FF1
 73
     0
 91
        0
 40
0.0
 10
0.0
 20
0.0
 30
0.0
 75
     0
  0
LAYOUT
  5
21
102
{ACAD_REACTORS
330
1E
102
}
330
1E
100
AcDbPlotSettings
  1

  2
none_device
  4
ISO_A3_(420.00_x_297.00_MM)
  6

 40
7.5
 41
20.0
 42
7.5
 43
20.0
 44
420.0
 45
297.0
 46
0.0
 47
0.0
 48
0.0
 49
0.0
140
0.0
141
0.0
142
1.0
143
1.0
 70
     0
 72
     1
 73
     0
 74
     0
  7

 75
     0
 76
     0
 77
     2
 78
   300
147
1.0
148
0.0
149
0.0
100
AcDbLayout
  1
Layout1
 70
     0
 71
     0
 10
0.0
 20
0.0
 11
0.0
 21
0.0
 12
0.0
 22
0.0
 32
0.0
 14
0.0
 24
0.0
 34
0.0
 15
0.0
 25
0.0
 35
0.0
146
0.0
 13
0.0
 23
0.0
 33
0.0
 16
0.0
 26
0.0
 36
0.0
 17
0.0
 27
0.0
 37
0.0
 76
     0
330
B
331
349
  0
LAYOUT
  5
20
102
{ACAD_REACTORS
330
1E
102
}
330
1E
100
AcDbPlotSettings
  1

  2
none_device
  4
ISO_A3_(420.00_x_297.00_MM)
  6

 40
7.5
 41
20.0
 42
7.5
 43
20.0
 44
420.0
 45
297.0
 46
0.0
 47
0.0
 48
0.0
 49
0.0
140
0.0
141
0.0
142
1.0
143
1.0
 70
  1024
 72
     1
 73
     0
 74
     0
  7

 75
     0
 76
     0
 77
     2
 78
   300
147
1.0
148
0.0
149
0.0
100
AcDbLayout
  1
Model
 70
     0
 71
     1
 10
0.0
 20
0.0
 11
2100.0
 21
2970.0
 12
0.0
 22
0.0
 32
0.0
 14
0.0
 24
0.0
 34
0.0
 15
2100.0
 25
2970.0
 35
0.0
146
0.0
 13
0.0
 23
0.0
 33
0.0
 16
0.0
 26
0.0
 36
0.0
 17
0.0
 27
0.0
 37
0.0
 76
     0
330
A
331
15
  0
MATERIAL
  5
50C8
102
{ACAD_REACTORS
330
263
102
}
330
263
100
AcDbMaterial
  1
ByBlock
 72
     1
 94
      127
  0
MATERIAL
  5
264
102
{ACAD_REACTORS
330
263
102
}
330
263
100
AcDbMaterial
  1
ByLayer
 72
     1
 94
      127
  0
MATERIAL
  5
266
102
{ACAD_REACTORS
330
263
102
}
330
263
100
AcDbMaterial
  1
Global
 72
     1
 94
      127
  0
MLEADERSTYLE
  5
8D1
102
{ACAD_REACTORS
330
336
102
}
330
336
100
AcDbMLeaderStyle
170
     2
171
     1
172
     0
 90
        2
 40
0.0
 41
0.0
173
     1
 91
-1056964608
340
11
 92
       -2
290
     1
 42
2.0
291
     1
 43
8.0
  3
Standard
341
0
 44
4.0
300

342
17
174
     1
178
     6
175
     1
176
     0
 93
-1056964608
 45
4.0
292
     0
297
     0
 46
4.0
343
0
 94
-1056964608
 47
1.0
 49
1.0
140
1.0
293
     1
141
0.0
294
     1
177
     0
142
1.0
295
     0
296
     0
143
3.75
1001
ACAD_MLEADERVER
1070
     2
  0
MLINESTYLE
  5
1C
102
{ACAD_REACTORS
330
1B
102
}
330
1B
100
AcDbMlineStyle
  2
Standard
 70
     0
  3

 62
     0
 51
90.0
 52
90.0
 71
     2
 49
0.5
 62
   256
  6
BYLAYER
 49
-0.5
 62
   256
  6
BYLAYER
  0
ACDBPLACEHOLDER
  5
1D
102
{ACAD_REACTORS
330
1F
102
}
330
1F
  0
SCALE
  5
242
102
{ACAD_REACTORS
330
241
102
}
330
241
100
AcDbScale
 70
     0
300
1:1
140
1.0
141
1.0
290
     1
  0
SCALE
  5
243
102
{ACAD_REACTORS
330
241
102
}
330
241
100
AcDbScale
 70
     0
300
1:2
140
1.0
141
2.0
290
     0
  0
SCALE
  5
244
102
{ACAD_REACTORS
330
241
102
}
330
241
100
AcDbScale
 70
     0
300
1:4
140
1.0
141
4.0
290
     0
  0
SCALE
  5
245
102
{ACAD_REACTORS
330
241
102
}
330
241
100
AcDbScale
 70
     0
300
1:5
140
1.0
141
5.0
290
     0
  0
SCALE
  5
246
102
{ACAD_REACTORS
330
241
102
}
330
241
100
AcDbScale
 70
     0
300
1:8
140
1.0
141
8.0
290
     0
  0
SCALE
  5
247
102
{ACAD_REACTORS
330
241
102
}
330
241
100
AcDbScale
 70
     0
300
1:10
140
1.0
141
10.0
290
     0
  0
SCALE
  5
248
102
{ACAD_REACTORS
330
241
102
}
330
241
100
AcDbScale
 70
     0
300
1:16
140
1.0
141
16.0
290
     0
  0
SCALE
  5
249
102
{ACAD_REACTORS
330
241
102
}
330
241
100
AcDbScale
 70
     0
300
1:20
140
1.0
141
20.0
290
     0
  0
SCALE
  5
24A
102
{ACAD_REACTORS
330
241
102
}
330
241
100
AcDbScale
 70
     0
300
1:30
140
1.0
141
30.0
290
     0
  0
SCALE
  5
24B
102
{ACAD_REACTORS
330
241
102
}
330
241
100
AcDbScale
 70
     0
300
1:40
140
1.0
141
40.0
290
     0
  0
SCALE
  5
24C
102
{ACAD_REACTORS
330
241
102
}
330
241
100
AcDbScale
 70
     0
300
1:50
140
1.0
141
50.0
290
     0
  0
SCALE
  5
24D
102
{ACAD_REACTORS
330
241
102
}
330
241
100
AcDbScale
 70
     0
300
1:100
140
1.0
141
100.0
290
     0
  0
SCALE
  5
24E
102
{ACAD_REACTORS
330
241
102
}
330
241
100
AcDbScale
 70
     0
300
2:1
140
2.0
141
1.0
290
     0
  0
SCALE
  5
24F
102
{ACAD_REACTORS
330
241
102
}
330
241
100
AcDbScale
 70
     0
300
4:1
140
4.0
141
1.0
290
     0
  0
SCALE
  5
250
102
{ACAD_REACTORS
330
241
102
}
330
241
100
AcDbScale
 70
     0
300
8:1
140
8.0
141
1.0
290
     0
  0
SCALE
  5
251
102
{ACAD_REACTORS
330
241
102
}
330
241
100
AcDbScale
 70
     0
300
10:1
140
10.0
141
1.0
290
     0
  0
SCALE
  5
252
102
{ACAD_REACTORS
330
241
102
}
330
241
100
AcDbScale
 70
     0
300
100:1
140
100.0
141
1.0
290
     0
  0
SCALE
  5
253
102
{ACAD_REACTORS
330
241
102
}
330
241
100
AcDbScale
 70
     0
300
1/128" = 1'-0"
140
0.0078125
141
12.0
290
     0
  0
SCALE
  5
254
102
{ACAD_REACTORS
330
241
102
}
330
241
100
AcDbScale
 70
     0
300
1/64" = 1'-0"
140
0.015625
141
12.0
290
     0
  0
SCALE
  5
255
102
{ACAD_REACTORS
330
241
102
}
330
241
100
AcDbScale
 70
     0
300
1/32" = 1'-0"
140
0.03125
141
12.0
290
     0
  0
SCALE
  5
256
102
{ACAD_REACTORS
330
241
102
}
330
241
100
AcDbScale
 70
     0
300
1/16" = 1'-0"
140
0.0625
141
12.0
290
     0
  0
SCALE
  5
257
102
{ACAD_REACTORS
330
241
102
}
330
241
100
AcDbScale
 70
     0
300
3/32" = 1'-0"
140
0.09375
141
12.0
290
     0
  0
SCALE
  5
258
102
{ACAD_REACTORS
330
241
102
}
330
241
100
AcDbScale
 70
     0
300
1/8" = 1'-0"
140
0.125
141
12.0
290
     0
  0
SCALE
  5
259
102
{ACAD_REACTORS
330
241
102
}
330
241
100
AcDbScale
 70
     0
300
3/16" = 1'-0"
140
0.1875
141
12.0
290
     0
  0
SCALE
  5
25A
102
{ACAD_REACTORS
330
241
102
}
330
241
100
AcDbScale
 70
     0
300
1/4" = 1'-0"
140
0.25
141
12.0
290
     0
  0
SCALE
  5
25B
102
{ACAD_REACTORS
330
241
102
}
330
241
100
AcDbScale
 70
     0
300
3/8" = 1'-0"
140
0.375
141
12.0
290
     0
  0
SCALE
  5
25C
102
{ACAD_REACTORS
330
241
102
}
330
241
100
AcDbScale
 70
     0
300
1/2" = 1'-0"
140
0.5
141
12.0
290
     0
  0
SCALE
  5
25D
102
{ACAD_REACTORS
330
241
102
}
330
241
100
AcDbScale
 70
     0
300
3/4" = 1'-0"
140
0.75
141
12.0
290
     0
  0
SCALE
  5
25E
102
{ACAD_REACTORS
330
241
102
}
330
241
100
AcDbScale
 70
     0
300
1" = 1'-0"
140
1.0
141
12.0
290
     0
  0
SCALE
  5
25F
102
{ACAD_REACTORS
330
241
102
}
330
241
100
AcDbScale
 70
     0
300
1-1/2" = 1'-0"
140
1.5
141
12.0
290
     0
  0
SCALE
  5
260
102
{ACAD_REACTORS
330
241
102
}
330
241
100
AcDbScale
 70
     0
300
3" = 1'-0"
140
3.0
141
12.0
290
     0
  0
SCALE
  5
261
102
{ACAD_REACTORS
330
241
102
}
330
241
100
AcDbScale
 70
     0
300
6" = 1'-0"
140
6.0
141
12.0
290
     0
  0
SCALE
  5
262
102
{ACAD_REACTORS
330
241
102
}
330
241
100
AcDbScale
 70
     0
300
1'-0" = 1'-0"
140
12.0
141
12.0
290
     0
  0
TABLESTYLE
  5
279
102
{ACAD_REACTORS
330
278
102
}
102
{ACAD_XDICTIONARY
360
515F
102
}
330
278
100
AcDbTableStyle
  3
Standard
 70
     0
 71
     0
 40
0.06
 41
0.06
280
     0
281
     0
  7
Standard
140
4.5
170
     2
 62
     0
 63
   257
283
     0
 90
        4
 91
        0
  1

274
    -2
284
     1
 64
     0
275
    -2
285
     1
 65
     0
276
    -2
286
     1
 66
     0
277
    -2
287
     1
 67
     0
278
    -2
288
     1
 68
     0
279
    -2
289
     1
 69
     0
  7
Standard
140
6.0
170
     5
 62
     0
 63
   257
283
     0
 90
        4
 91
        0
  1

274
    -2
284
     1
 64
     0
275
    -2
285
     1
 65
     0
276
    -2
286
     1
 66
     0
277
    -2
287
     1
 67
     0
278
    -2
288
     1
 68
     0
279
    -2
289
     1
 69
     0
  7
Standard
140
4.5
170
     5
 62
     0
 63
   257
283
     0
 90
        4
 91
        0
  1

274
    -2
284
     1
 64
     0
275
    -2
285
     1
 65
     0
276
    -2
286
     1
 66
     0
277
    -2
287
     1
 67
     0
278
    -2
288
     1
 68
     0
279
    -2
289
     1
 69
     0
  0
VISUALSTYLE
  5
26C
102
{ACAD_REACTORS
330
267
102
}
330
267
100
AcDbVisualStyle
  2
2dWireframe
 70
     4
 71
     0
 72
     2
 73
     0
 90
        0
 40
-0.6
 41
-30.0
 62
     5
 63
     7
421
 16777215
 74
     1
 91
        4
 64
     7
 65
   257
 75
     1
175
     1
 42
1.0
 92
        0
 66
   257
 43
1.0
 76
     1
 77
     6
 78
     2
 67
     7
 79
     5
170
     0
171
     0
290
     0
174
     0
 93
        1
 44
0.0
173
     0
291
     0
 45
0.0
  0
VISUALSTYLE
  5
26E
102
{ACAD_REACTORS
330
267
102
}
330
267
100
AcDbVisualStyle
  2
3D Hidden
 70
     6
 71
     1
 72
     2
 73
     2
 90
        0
 40
-0.6
 41
-30.0
 62
     5
 63
     7
421
 16777215
 74
     2
 91
        2
 64
     7
 65
   257
 75
     2
175
     1
 42
40.0
 92
        0
 66
   257
 43
1.0
 76
     1
 77
     6
 78
     2
 67
     7
 79
     3
170
     0
171
     0
290
     0
174
     0
 93
        1
 44
0.0
173
     0
291
     0
 45
0.0
  0
VISUALSTYLE
  5
26D
102
{ACAD_REACTORS
330
267
102
}
330
267
100
AcDbVisualStyle
  2
3dWireframe
 70
     5
 71
     0
 72
     2
 73
     0
 90
        0
 40
-0.6
 41
-30.0
 62
     5
 63
     7
421
 16777215
 74
     1
 91
        4
 64
     7
 65
   257
 75
     1
175
     1
 42
1.0
 92
        0
 66
   257
 43
1.0
 76
     1
 77
     6
 78
     2
 67
     7
 79
     5
170
     0
171
     0
290
     0
174
     0
 93
        1
 44
0.0
173
     0
291
     0
 45
0.0
  0
VISUALSTYLE
  5
26F
102
{ACAD_REACTORS
330
267
102
}
330
267
100
AcDbVisualStyle
  2
Basic
 70
     7
 71
     1
 72
     0
 73
     1
 90
        0
 40
-0.6
 41
-30.0
 62
     5
 63
     7
421
 16777215
 74
     0
 91
        4
 64
     7
 65
   257
 75
     1
175
     1
 42
1.0
 92
        8
 66
     7
 43
1.0
 76
     1
 77
     6
 78
     2
 67
     7
 79
     5
170
     0
171
     0
290
     0
174
     0
 93
        1
 44
0.0
173
     0
291
     1
 45
0.0
  0
VISUALSTYLE
  5
273
102
{ACAD_REACTORS
330
267
102
}
330
267
100
AcDbVisualStyle
  2
Brighten
 70
    12
 71
     2
 72
     2
 73
     0
 90
        0
 40
-0.6
 41
-30.0
 62
     5
 63
     7
421
 16777215
 74
     1
 91
        4
 64
     7
 65
   257
 75
     1
175
     1
 42
1.0
 92
        8
 66
     7
 43
1.0
 76
     1
 77
     6
 78
     2
 67
     7
 79
     5
170
     0
171
     0
290
     0
174
     0
 93
        1
 44
50.0
173
     0
291
     1
 45
0.0
  0
VISUALSTYLE
  5
277
102
{ACAD_REACTORS
330
267
102
}
330
267
100
AcDbVisualStyle
  2
ColorChange
 70
    16
 71
     2
 72
     2
 73
     3
 90
        0
 40
-0.6
 41
-30.0
 62
     5
 63
     8
421
  8421504
 74
     1
 91
        4
 64
     7
 65
   257
 75
     1
175
     1
 42
1.0
 92
        8
 66
     8
424
  8421504
 43
1.0
 76
     1
 77
     6
 78
     2
 67
     7
 79
     5
170
     0
171
     0
290
     0
174
     0
 93
        1
 44
0.0
173
     0
291
     1
 45
0.0
  0
VISUALSTYLE
  5
271
102
{ACAD_REACTORS
330
267
102
}
330
267
100
AcDbVisualStyle
  2
Conceptual
 70
     9
 71
     3
 72
     2
 73
     0
 90
        0
 40
-0.6
 41
-30.0
 62
     5
 63
     7
421
 16777215
 74
     2
 91
        2
 64
     7
 65
   257
 75
     1
175
     1
 42
40.0
 92
        8
 66
     7
 43
1.0
 76
     1
 77
     6
 78
     2
 67
     7
 79
     3
170
     0
171
     0
290
     0
174
     0
 93
        1
 44
0.0
173
     0
291
     0
 45
0.0
  0
VISUALSTYLE
  5
272
102
{ACAD_REACTORS
330
267
102
}
330
267
100
AcDbVisualStyle
  2
Dim
 70
    11
 71
     2
 72
     2
 73
     0
 90
        0
 40
-0.6
 41
-30.0
 62
     5
 63
     7
421
 16777215
 74
     1
 91
        4
 64
     7
 65
   257
 75
     1
175
     1
 42
1.0
 92
        8
 66
     7
 43
1.0
 76
     1
 77
     6
 78
     2
 67
     7
 79
     5
170
     0
171
     0
290
     0
174
     0
 93
        1
 44
-50.0
173
     0
291
     1
 45
0.0
  0
VISUALSTYLE
  5
8BC
102
{ACAD_REACTORS
330
267
102
}
330
267
100
AcDbVisualStyle
  2
EdgeColorOff
 70
    22
 71
     2
 72
     2
 73
     0
 90
        0
 40
0.6
 41
30.0
 62
     5
 63
     7
421
 16777215
 74
     1
 91
        4
 64
     7
 65
   257
 75
     1
175
     1
 42
1.0
 92
        8
 66
     7
 43
1.0
 76
     1
 77
     6
 78
     2
 67
     7
 79
     5
170
     0
171
     0
290
     0
174
     0
 93
        1
 44
0.0
173
     0
291
     1
 45
0.0
  0
VISUALSTYLE
  5
276
102
{ACAD_REACTORS
330
267
102
}
330
267
100
AcDbVisualStyle
  2
Facepattern
 70
    15
 71
     2
 72
     2
 73
     0
 90
        0
 40
-0.6
 41
-30.0
 62
     5
 63
     7
421
 16777215
 74
     1
 91
        4
 64
     7
 65
   257
 75
     1
175
     1
 42
1.0
 92
        8
 66
     7
 43
1.0
 76
     1
 77
     6
 78
     2
 67
     7
 79
     5
170
     0
171
     0
290
     0
174
     0
 93
        1
 44
0.0
173
     0
291
     1
 45
0.0
  0
VISUALSTYLE
  5
268
102
{ACAD_REACTORS
330
267
102
}
330
267
100
AcDbVisualStyle
  2
Flat
 70
     0
 71
     2
 72
     1
 73
     1
 90
        2
 40
-0.6
 41
30.0
 62
     5
 63
     7
421
 16777215
 74
     0
 91
        4
 64
     7
 65
   257
 75
     1
175
     1
 42
1.0
 92
        8
 66
     7
 43
1.0
 76
     1
 77
     6
 78
     2
 67
     7
 79
     5
170
     0
171
     0
290
     0
174
     0
 93
       13
 44
0.0
173
     0
291
     1
 45
0.0
  0
VISUALSTYLE
  5
269
102
{ACAD_REACTORS
330
267
102
}
330
267
100
AcDbVisualStyle
  2
FlatWithEdges
 70
     1
 71
     2
 72
     1
 73
     1
 90
        2
 40
-0.6
 41
30.0
 62
     5
 63
     7
421
 16777215
 74
     1
 91
        4
 64
     7
 65
   257
 75
     1
175
     1
 42
1.0
 92
        0
 66
   257
 43
1.0
 76
     1
 77
     6
 78
     2
 67
     7
 79
     5
170
     0
171
     0
290
     0
174
     0
 93
       13
 44
0.0
173
     0
291
     1
 45
0.0
  0
VISUALSTYLE
  5
26A
102
{ACAD_REACTORS
330
267
102
}
330
267
100
AcDbVisualStyle
  2
Gouraud
 70
     2
 71
     2
 72
     2
 73
     1
 90
        2
 40
-0.6
 41
30.0
 62
     5
 63
     7
421
 16777215
 74
     0
 91
        4
 64
     7
 65
   257
 75
     1
175
     1
 42
1.0
 92
        0
 66
     7
 43
1.0
 76
     1
 77
     6
 78
     2
 67
     7
 79
     5
170
     0
171
     0
290
     0
174
     0
 93
       13
 44
0.0
173
     0
291
     1
 45
0.0
  0
VISUALSTYLE
  5
26B
102
{ACAD_REACTORS
330
267
102
}
330
267
100
AcDbVisualStyle
  2
GouraudWithEdges
 70
     3
 71
     2
 72
     2
 73
     1
 90
        2
 40
-0.6
 41
30.0
 62
     5
 63
     7
421
 16777215
 74
     1
 91
        4
 64
     7
 65
   257
 75
     1
175
     1
 42
1.0
 92
        0
 66
   257
 43
1.0
 76
     1
 77
     6
 78
     2
 67
     7
 79
     5
170
     0
171
     0
290
     0
174
     0
 93
       13
 44
0.0
173
     0
291
     1
 45
0.0
  0
VISUALSTYLE
  5
8B9
102
{ACAD_REACTORS
330
267
102
}
330
267
100
AcDbVisualStyle
  2
Hidden
 70
     6
 71
     1
 72
     2
 73
     2
 90
        0
 40
0.6
 41
30.0
 62
     5
 63
     7
421
 16777215
 74
     2
 91
        2
 64
     7
 65
   257
 75
     2
175
     1
 42
40.0
 92
        0
 66
   257
 43
1.0
 76
     1
 77
     6
 78
     2
 67
     7
 79
     3
170
     0
171
     0
290
     0
174
     0
 93
        1
 44
0.0
173
     0
291
     0
 45
0.0
  0
VISUALSTYLE
  5
8BA
102
{ACAD_REACTORS
330
267
102
}
330
267
100
AcDbVisualStyle
  2
JitterOff
 70
    20
 71
     2
 72
     2
 73
     0
 90
        0
 40
0.6
 41
30.0
 62
     5
 63
     7
421
 16777215
 74
     1
 91
        4
 64
     7
 65
   257
 75
     1
175
     1
 42
1.0
 92
       10
 66
     7
 43
1.0
 76
     1
 77
     6
 78
     2
 67
     7
 79
     5
170
     0
171
     0
290
     0
174
     0
 93
        1
 44
0.0
173
     0
291
     1
 45
0.0
  0
VISUALSTYLE
  5
275
102
{ACAD_REACTORS
330
267
102
}
330
267
100
AcDbVisualStyle
  2
Linepattern
 70
    14
 71
     2
 72
     2
 73
     0
 90
        0
 40
-0.6
 41
-30.0
 62
     5
 63
     7
421
 16777215
 74
     1
 91
        4
 64
     7
 65
   257
 75
     7
175
     7
 42
1.0
 92
        8
 66
     7
 43
1.0
 76
     1
 77
     6
 78
     2
 67
     7
 79
     5
170
     0
171
     0
290
     0
174
     0
 93
        1
 44
0.0
173
     0
291
     1
 45
0.0
  0
VISUALSTYLE
  5
8BB
102
{ACAD_REACTORS
330
267
102
}
330
267
100
AcDbVisualStyle
  2
OverhangOff
 70
    21
 71
     2
 72
     2
 73
     0
 90
        0
 40
0.6
 41
30.0
 62
     5
 63
     7
421
 16777215
 74
     1
 91
        4
 64
     7
 65
   257
 75
     1
175
     1
 42
1.0
 92
        9
 66
     7
 43
1.0
 76
     1
 77
     6
 78
     2
 67
     7
 79
     5
170
     0
171
     0
290
     0
174
     0
 93
        1
 44
0.0
173
     0
291
     1
 45
0.0
  0
VISUALSTYLE
  5
270
102
{ACAD_REACTORS
330
267
102
}
330
267
100
AcDbVisualStyle
  2
Realistic
 70
     8
 71
     2
 72
     2
 73
     0
 90
        0
 40
-0.6
 41
-30.0
 62
     5
 63
     7
421
 16777215
 74
     1
 91
        0
 64
     7
 65
   257
 75
     1
175
     1
 42
1.0
 92
        8
 66
     8
424
  7895160
 43
1.0
 76
     1
 77
     6
 78
     2
 67
     7
 79
     5
170
     0
171
     0
290
     0
174
     0
 93
       13
 44
0.0
173
     0
291
     0
 45
0.0
  0
VISUALSTYLE
  5
8C1
102
{ACAD_REACTORS
330
267
102
}
330
267
100
AcDbVisualStyle
  2
Shaded
 70
    27
 71
     2
 72
     2
 73
     1
 90
        2
 40
0.6
 41
30.0
 62
     5
 63
     7
421
 16777215
 74
     0
 91
        4
 64
     7
 65
   257
 75
     1
175
     1
 42
1.0
 92
        8
 66
   257
 43
1.0
 76
     1
 77
     6
 78
     2
 67
     8
425
  7895160
 79
     3
170
     0
171
     0
290
     0
174
     0
 93
        5
 44
0.0
173
     0
291
     0
 45
0.0
  0
VISUALSTYLE
  5
8C0
102
{ACAD_REACTORS
330
267
102
}
330
267
100
AcDbVisualStyle
  2
Shaded with edges
 70
    26
 71
     2
 72
     2
 73
     1
 90
        2
 40
0.6
 41
30.0
 62
     5
 63
     7
421
 16777215
 74
     1
 91
       10
 64
     7
 65
   257
 75
     2
175
     1
 42
1.0
 92
        8
 66
   257
 43
1.0
 76
     1
 77
     6
 78
     2
 67
     7
 79
     3
170
     0
171
     0
290
     0
174
     0
 93
        5
 44
0.0
173
     0
291
     0
 45
0.0
  0
VISUALSTYLE
  5
8BD
102
{ACAD_REACTORS
330
267
102
}
330
267
100
AcDbVisualStyle
  2
Shades of Gray
 70
    23
 71
     2
 72
     2
 73
     3
 90
        0
 40
0.6
 41
30.0
 62
     5
 63
     7
421
 16777215
 74
     2
 91
        2
 64
     7
 65
     7
 75
     1
175
     1
 42
40.0
 92
        8
 66
     7
 43
1.0
 76
     1
 77
     6
 78
     2
 67
     7
 79
     3
170
     0
171
     0
290
     0
174
     0
 93
        1
 44
0.0
173
     0
291
     0
 45
0.0
  0
VISUALSTYLE
  5
8BE
102
{ACAD_REACTORS
330
267
102
}
330
267
100
AcDbVisualStyle
  2
Sketchy
 70
    24
 71
     1
 72
     2
 73
     2
 90
        0
 40
0.6
 41
30.0
 62
     5
 63
     7
421
 16777215
 74
     2
 91
        2
 64
     7
 65
     7
 75
     1
175
     1
 42
40.0
 92
       11
 66
     7
 43
1.0
 76
     1
 77
     6
 78
     2
 67
     7
 79
     6
170
     0
171
     0
290
     0
174
     0
 93
        1
 44
0.0
173
     0
291
     0
 45
0.0
  0
VISUALSTYLE
  5
274
102
{ACAD_REACTORS
330
267
102
}
330
267
100
AcDbVisualStyle
  2
Thicken
 70
    13
 71
     2
 72
     2
 73
     0
 90
        0
 40
-0.6
 41
-30.0
 62
     5
 63
     7
421
 16777215
 74
     1
 91
        4
 64
     7
 65
   257
 75
     1
175
     1
 42
1.0
 92
       12
 66
     7
 43
1.0
 76
     1
 77
     6
 78
     2
 67
     7
 79
     5
170
     0
171
     0
290
     0
174
     0
 93
        1
 44
0.0
173
     0
291
     1
 45
0.0
  0
VISUALSTYLE
  5
8B8
102
{ACAD_REACTORS
330
267
102
}
330
267
100
AcDbVisualStyle
  2
Wireframe
 70
     5
 71
     0
 72
     2
 73
     0
 90
        0
 40
0.6
 41
30.0
 62
     5
 63
     7
421
 16777215
 74
     1
 91
        4
 64
     7
 65
   257
 75
     1
175
     1
 42
1.0
 92
        0
 66
   257
 43
1.0
 76
     1
 77
     6
 78
     2
 67
     7
 79
     3
170
     0
171
     0
290
     0
174
     0
 93
        1
 44
0.0
173
     0
291
     0
 45
0.0
  0
VISUALSTYLE
  5
8BF
102
{ACAD_REACTORS
330
267
102
}
330
267
100
AcDbVisualStyle
  2
X-Ray
 70
    25
 71
     2
 72
     2
 73
     1
 90
        1
 40
0.5
 41
30.0
 62
     5
 63
     7
421
 16777215
 74
     1
 91
        0
 64
     7
 65
   257
 75
     1
175
     1
 42
1.0
 92
        8
 66
     7
 43
1.0
 76
     1
 77
     6
 78
     2
 67
     7
 79
     3
170
     0
171
     0
290
     0
174
     0
 93
       13
 44
0.0
173
     0
291
     0
 45
0.0
  0
DICTIONARYVAR
  5
331
102
{ACAD_REACTORS
330
330
102
}
330
330
100
DictionaryVariables
280
     0
  1
1:1
  0
DICTIONARYVAR
  5
8DA
102
{ACAD_REACTORS
330
330
102
}
330
330
100
DictionaryVariables
280
     0
  1
Standard
  0
DICTIONARYVAR
  5
335
102
{ACAD_REACTORS
330
330
102
}
330
330
100
DictionaryVariables
280
     0
  1
Standard
  0
DICTIONARYVAR
  5
C07
102
{ACAD_REACTORS
330
330
102
}
330
330
100
DictionaryVariables
280
     0
  1
ByLayer
  0
DICTIONARYVAR
  5
64A
102
{ACAD_REACTORS
330
330
102
}
330
330
100
DictionaryVariables
280
     0
  1
0
  0
DICTIONARYVAR
  5
4342
102
{ACAD_REACTORS
330
C08
102
}
330
C08
100
DictionaryVariables
280
     0
  1
0.261799
  0
DICTIONARYVAR
  5
4340
102
{ACAD_REACTORS
330
C08
102
}
330
C08
100
DictionaryVariables
280
     0
  1
0.400000
  0
DICTIONARYVAR
  5
4341
102
{ACAD_REACTORS
330
C08
102
}
330
C08
100
DictionaryVariables
280
     0
  1
0.250000
  0
DICTIONARYVAR
  5
4343
102
{ACAD_REACTORS
330
C08
102
}
330
C08
100
DictionaryVariables
280
     0
  1
1
  0
FIELD
  5
BDE
102
{ACAD_REACTORS
330
BE4
102
}
330
BE4
100
AcDbField
  1
_text
  2
{%<\_FldIdx 0>%N}
 90
        1
360
BDF
 97
        0
 91
       63
 92
        0
 94
        8
 95
        2
 96
        0
300

 93
        1
  6
ACFD_FIELDTEXT_CHECKSUM
 93
        2
 90
        2
140
4543.0
 94
        0
300

302

304
ACVALUE_END
  7
ACFD_FIELD_VALUE
 93
        6
 90
        4
  1
{20170725N}
 94
        0
300

302

304
ACVALUE_END
301
{20170725N}
 98
       11
  0
DICTIONARY
  5
515F
330
279
100
AcDbDictionary
280
     1
281
     1
  3
ACAD_ROUNDTRIP_2008_TABLESTYLE_CELLSTYLEMAP
360
5160
  0
FIELD
  5
BDF
330
BDE
100
AcDbField
  1
AcVar
  2
\AcVar Date \f "yyyyMMdd"
 90
        0
 97
        0
 91
       63
 92
        0
 94
        8
 95
        2
 96
        0
300

 93
        1
  6
Variable
 93
        2
 90
        4
  1
Date
 94
        0
300

302

304
ACVALUE_END
  7
ACFD_FIELD_VALUE
 93
        6
 90
        8
 92
       16
310
E10707000000180011001A000B000000
 94
        0
300
yyyyMMdd
302

304
ACVALUE_END
301
20170725
 98
        8
  0
CELLSTYLEMAP
  5
5160
102
{ACAD_REACTORS
330
515F
102
}
330
515F
100
AcDbCellStyleMap
 90
        3
300
CELLSTYLE
  1
TABLEFORMAT_BEGIN
 90
        5
170
     1
 91
        0
 92
    32768
 62
   257
 93
        1
300
CONTENTFORMAT
  1
CONTENTFORMAT_BEGIN
 90
        0
 91
        0
 92
        4
 93
        0
300

 40
0.0
140
1.0
 94
        5
 62
     0
340
17
144
6.0
309
CONTENTFORMAT_END
171
     1
301
MARGIN
  1
CELLMARGIN_BEGIN
 40
0.06
 40
0.06
 40
0.06
 40
0.06
 40
0.18
 40
0.18
309
CELLMARGIN_END
 94
        6
 95
        1
302
GRIDFORMAT
  1
GRIDFORMAT_BEGIN
 90
        0
 91
        1
 62
     0
 92
       -2
340
0
 93
        0
 40
0.045
309
GRIDFORMAT_END
 95
        2
302
GRIDFORMAT
  1
GRIDFORMAT_BEGIN
 90
        0
 91
        1
 62
     0
 92
       -2
340
0
 93
        0
 40
0.045
309
GRIDFORMAT_END
 95
        4
302
GRIDFORMAT
  1
GRIDFORMAT_BEGIN
 90
        0
 91
        1
 62
     0
 92
       -2
340
0
 93
        0
 40
0.045
309
GRIDFORMAT_END
 95
        8
302
GRIDFORMAT
  1
GRIDFORMAT_BEGIN
 90
        0
 91
        1
 62
     0
 92
       -2
340
0
 93
        0
 40
0.045
309
GRIDFORMAT_END
 95
       16
302
GRIDFORMAT
  1
GRIDFORMAT_BEGIN
 90
        0
 91
        1
 62
     0
 92
       -2
340
0
 93
        0
 40
0.045
309
GRIDFORMAT_END
 95
       32
302
GRIDFORMAT
  1
GRIDFORMAT_BEGIN
 90
        0
 91
        1
 62
     0
 92
       -2
340
0
 93
        0
 40
0.045
309
GRIDFORMAT_END
309
TABLEFORMAT_END
  1
CELLSTYLE_BEGIN
 90
        1
 91
        1
300
_TITLE
309
CELLSTYLE_END
300
CELLSTYLE
  1
TABLEFORMAT_BEGIN
 90
        5
170
     1
 91
        0
 92
        0
 62
   257
 93
        1
300
CONTENTFORMAT
  1
CONTENTFORMAT_BEGIN
 90
        0
 91
        0
 92
        4
 93
        0
300

 40
0.0
140
1.0
 94
        5
 62
     0
340
17
144
4.5
309
CONTENTFORMAT_END
171
     1
301
MARGIN
  1
CELLMARGIN_BEGIN
 40
0.06
 40
0.06
 40
0.06
 40
0.06
 40
0.18
 40
0.18
309
CELLMARGIN_END
 94
        6
 95
        1
302
GRIDFORMAT
  1
GRIDFORMAT_BEGIN
 90
        0
 91
        1
 62
     0
 92
       -2
340
0
 93
        0
 40
0.045
309
GRIDFORMAT_END
 95
        2
302
GRIDFORMAT
  1
GRIDFORMAT_BEGIN
 90
        0
 91
        1
 62
     0
 92
       -2
340
0
 93
        0
 40
0.045
309
GRIDFORMAT_END
 95
        4
302
GRIDFORMAT
  1
GRIDFORMAT_BEGIN
 90
        0
 91
        1
 62
     0
 92
       -2
340
0
 93
        0
 40
0.045
309
GRIDFORMAT_END
 95
        8
302
GRIDFORMAT
  1
GRIDFORMAT_BEGIN
 90
        0
 91
        1
 62
     0
 92
       -2
340
0
 93
        0
 40
0.045
309
GRIDFORMAT_END
 95
       16
302
GRIDFORMAT
  1
GRIDFORMAT_BEGIN
 90
        0
 91
        1
 62
     0
 92
       -2
340
0
 93
        0
 40
0.045
309
GRIDFORMAT_END
 95
       32
302
GRIDFORMAT
  1
GRIDFORMAT_BEGIN
 90
        0
 91
        1
 62
     0
 92
       -2
340
0
 93
        0
 40
0.045
309
GRIDFORMAT_END
309
TABLEFORMAT_END
  1
CELLSTYLE_BEGIN
 90
        2
 91
        1
300
_HEADER
309
CELLSTYLE_END
300
CELLSTYLE
  1
TABLEFORMAT_BEGIN
 90
        5
170
     1
 91
        0
 92
        0
 62
   257
 93
        1
300
CONTENTFORMAT
  1
CONTENTFORMAT_BEGIN
 90
        0
 91
        0
 92
        4
 93
        0
300

 40
0.0
140
1.0
 94
        2
 62
     0
340
17
144
4.5
309
CONTENTFORMAT_END
171
     1
301
MARGIN
  1
CELLMARGIN_BEGIN
 40
0.06
 40
0.06
 40
0.06
 40
0.06
 40
0.18
 40
0.18
309
CELLMARGIN_END
 94
        6
 95
        1
302
GRIDFORMAT
  1
GRIDFORMAT_BEGIN
 90
        0
 91
        1
 62
     0
 92
       -2
340
0
 93
        0
 40
0.045
309
GRIDFORMAT_END
 95
        2
302
GRIDFORMAT
  1
GRIDFORMAT_BEGIN
 90
        0
 91
        1
 62
     0
 92
       -2
340
0
 93
        0
 40
0.045
309
GRIDFORMAT_END
 95
        4
302
GRIDFORMAT
  1
GRIDFORMAT_BEGIN
 90
        0
 91
        1
 62
     0
 92
       -2
340
0
 93
        0
 40
0.045
309
GRIDFORMAT_END
 95
        8
302
GRIDFORMAT
  1
GRIDFORMAT_BEGIN
 90
        0
 91
        1
 62
     0
 92
       -2
340
0
 93
        0
 40
0.045
309
GRIDFORMAT_END
 95
       16
302
GRIDFORMAT
  1
GRIDFORMAT_BEGIN
 90
        0
 91
        1
 62
     0
 92
       -2
340
0
 93
        0
 40
0.045
309
GRIDFORMAT_END
 95
       32
302
GRIDFORMAT
  1
GRIDFORMAT_BEGIN
 90
        0
 91
        1
 62
     0
 92
       -2
340
0
 93
        0
 40
0.045
309
GRIDFORMAT_END
309
TABLEFORMAT_END
  1
CELLSTYLE_BEGIN
 90
        3
 91
        2
300
_DATA
309
CELLSTYLE_END
  0
ENDSEC
  0
EOF
