  0
SECTION
  2
HEADER
  9
$ACADVER
  1
AC1021
  9
$ACADMAINTVER
 70
    25
  9
$DWGCODEPAGE
  3
ANSI_932
  9
$LASTSAVEDBY
  1
howeNelson
  9
$INSBASE
 10
0.0
 20
0.0
 30
0.0
  9
$EXTMIN
 10
0.0
 20
0.0
 30
0.0
  9
$EXTMAX
 10
2100.0
 20
2970.0
 30
0.0
  9
$LIMMIN
 10
0.0
 20
0.0
  9
$LIMMAX
 10
2100.0
 20
2970.0
  9
$ORTHOMODE
 70
     0
  9
$REGENMODE
 70
     1
  9
$FILLMODE
 70
     1
  9
$QTEXTMODE
 70
     0
  9
$MIRRTEXT
 70
     1
  9
$LTSCALE
 40
5.0
  9
$ATTMODE
 70
     1
  9
$TEXTSIZE
 40
533.0403732820173
  9
$TRACEWID
 40
1.0
  9
$TEXTSTYLE
  7
Standard
  9
$CLAYER
  8
Dim
  9
$CELTYPE
  6
ByLayer
  9
$CECOLOR
 62
   256
  9
$CELTSCALE
 40
1.0
  9
$DISPSILH
 70
     0
  9
$DIMSCALE
 40
1.0
  9
$DIMASZ
 40
9.999389648437498
  9
$DIMEXO
 40
25.0
  9
$DIMDLI
 40
0.9999999999999999
  9
$DIMRND
 40
0.0
  9
$DIMDLE
 40
0.0
  9
$DIMEXE
 40
0.0
  9
$DIMTP
 40
0.0
  9
$DIMTM
 40
0.0
  9
$DIMTXT
 40
24.4326171875
  9
$DIMCEN
 40
0.0
  9
$DIMTSZ
 40
0.0
  9
$DIMTOL
 70
     0
  9
$DIMLIM
 70
     0
  9
$DIMTIH
 70
     0
  9
$DIMTOH
 70
     0
  9
$DIMSE1
 70
     0
  9
$DIMSE2
 70
     0
  9
$DIMTAD
 70
     1
  9
$DIMZIN
 70
    11
  9
$DIMBLK
  1
DOT
  9
$DIMASO
 70
     1
  9
$DIMSHO
 70
     1
  9
$DIMPOST
  1
<>
  9
$DIMAPOST
  1
[]
  9
$DIMALT
 70
     0
  9
$DIMALTD
 70
     1
  9
$DIMALTF
 40
1.0
  9
$DIMLFAC
 40
1.0
  9
$DIMTOFL
 70
     1
  9
$DIMTVP
 40
0.0
  9
$DIMTIX
 70
     1
  9
$DIMSOXD
 70
     0
  9
$DIMSAH
 70
     0
  9
$DIMBLK1
  1

  9
$DIMBLK2
  1

  9
$DIMSTYLE
  2
tform線あり
  9
$DIMCLRD
 70
     0
  9
$DIMCLRE
 70
     0
  9
$DIMCLRT
 70
     0
  9
$DIMTFAC
 40
0.8
  9
$DIMGAP
 40
10.0
  9
$DIMJUST
 70
     0
  9
$DIMSD1
 70
     0
  9
$DIMSD2
 70
     0
  9
$DIMTOLJ
 70
     1
  9
$DIMTZIN
 70
    11
  9
$DIMALTZ
 70
    11
  9
$DIMALTTZ
 70
    11
  9
$DIMUPT
 70
     0
  9
$DIMDEC
 70
     1
  9
$DIMTDEC
 70
     1
  9
$DIMALTU
 70
     2
  9
$DIMALTTD
 70
     2
  9
$DIMTXSTY
  7
ＭＳ ゴシック
  9
$DIMAUNIT
 70
     0
  9
$DIMADEC
 70
     2
  9
$DIMALTRND
 40
0.0
  9
$DIMAZIN
 70
     0
  9
$DIMDSEP
 70
    46
  9
$DIMATFIT
 70
     0
  9
$DIMFRAC
 70
     2
  9
$DIMLDRBLK
  1
DOT
  9
$DIMLUNIT
 70
     2
  9
$DIMLWD
 70
    -2
  9
$DIMLWE
 70
    -2
  9
$DIMTMOVE
 70
     0
  9
$DIMFXL
 40
1.0
  9
$DIMFXLON
 70
     0
  9
$DIMJOGANG
 40
0.7853981633974483
  9
$DIMTFILL
 70
     0
  9
$DIMTFILLCLR
 70
     0
  9
$DIMARCSYM
 70
     0
  9
$DIMLTYPE
  6

  9
$DIMLTEX1
  6

  9
$DIMLTEX2
  6

  9
$LUNITS
 70
     2
  9
$LUPREC
 70
     0
  9
$SKETCHINC
 40
0.1
  9
$FILLETRAD
 40
0.0
  9
$AUNITS
 70
     0
  9
$AUPREC
 70
     0
  9
$MENU
  1
acad
  9
$ELEVATION
 40
0.0
  9
$PELEVATION
 40
0.0
  9
$THICKNESS
 40
0.0
  9
$LIMCHECK
 70
     0
  9
$CHAMFERA
 40
0.0
  9
$CHAMFERB
 40
0.0
  9
$CHAMFERC
 40
0.0
  9
$CHAMFERD
 40
0.0
  9
$SKPOLY
 70
     0
  9
$TDCREATE
 40
2447893.375
  9
$TDUCREATE
 40
0.0
  9
$TDUPDATE
 40
2457906.421643993
  9
$TDUUPDATE
 40
2457906.046643993
  9
$TDINDWG
 40
0.0200817014
  9
$TDUSRTIMER
 40
2457906.044375775
  9
$USRTIMER
 70
     1
  9
$ANGBASE
 50
0.0
  9
$ANGDIR
 70
     0
  9
$PDMODE
 70
     1
  9
$PDSIZE
 40
-2.0
  9
$PLINEWID
 40
0.0
  9
$SPLFRAME
 70
     0
  9
$SPLINETYPE
 70
     6
  9
$SPLINESEGS
 70
     8
  9
$HANDSEED
  5
5361
  9
$SURFTAB1
 70
     6
  9
$SURFTAB2
 70
     6
  9
$SURFTYPE
 70
     6
  9
$SURFU
 70
     6
  9
$SURFV
 70
     6
  9
$UCSBASE
  2

  9
$UCSNAME
  2

  9
$UCSORG
 10
0.0
 20
0.0
 30
0.0
  9
$UCSXDIR
 10
1.0
 20
0.0
 30
0.0
  9
$UCSYDIR
 10
0.0
 20
1.0
 30
0.0
  9
$UCSORTHOREF
  2

  9
$UCSORTHOVIEW
 70
     0
  9
$UCSORGTOP
 10
0.0
 20
0.0
 30
0.0
  9
$UCSORGBOTTOM
 10
0.0
 20
0.0
 30
0.0
  9
$UCSORGLEFT
 10
0.0
 20
0.0
 30
0.0
  9
$UCSORGRIGHT
 10
0.0
 20
0.0
 30
0.0
  9
$UCSORGFRONT
 10
0.0
 20
0.0
 30
0.0
  9
$UCSORGBACK
 10
0.0
 20
0.0
 30
0.0
  9
$PUCSBASE
  2

  9
$PUCSNAME
  2

  9
$PUCSORG
 10
0.0
 20
0.0
 30
0.0
  9
$PUCSXDIR
 10
1.0
 20
0.0
 30
0.0
  9
$PUCSYDIR
 10
0.0
 20
1.0
 30
0.0
  9
$PUCSORTHOREF
  2

  9
$PUCSORTHOVIEW
 70
     0
  9
$PUCSORGTOP
 10
0.0
 20
0.0
 30
0.0
  9
$PUCSORGBOTTOM
 10
0.0
 20
0.0
 30
0.0
  9
$PUCSORGLEFT
 10
0.0
 20
0.0
 30
0.0
  9
$PUCSORGRIGHT
 10
0.0
 20
0.0
 30
0.0
  9
$PUCSORGFRONT
 10
0.0
 20
0.0
 30
0.0
  9
$PUCSORGBACK
 10
0.0
 20
0.0
 30
0.0
  9
$USERI1
 70
     0
  9
$USERI2
 70
     0
  9
$USERI3
 70
     0
  9
$USERI4
 70
     0
  9
$USERI5
 70
     0
  9
$USERR1
 40
0.0
  9
$USERR2
 40
0.0
  9
$USERR3
 40
0.0
  9
$USERR4
 40
0.0
  9
$USERR5
 40
0.0
  9
$WORLDVIEW
 70
     1
  9
$SHADEDGE
 70
     3
  9
$SHADEDIF
 70
    70
  9
$TILEMODE
 70
     1
  9
$MAXACTVP
 70
    64
  9
$PINSBASE
 10
0.0
 20
0.0
 30
0.0
  9
$PLIMCHECK
 70
     0
  9
$PEXTMIN
 10
0.0
 20
0.0
 30
0.0
  9
$PEXTMAX
 10
0.0
 20
0.0
 30
0.0
  9
$PLIMMIN
 10
-95.87226993865028
 20
-25.69999999999999
  9
$PLIMMAX
 10
201.1277300613497
 20
184.3
  9
$UNITMODE
 70
     0
  9
$VISRETAIN
 70
     0
  9
$PLINEGEN
 70
     1
  9
$PSLTSCALE
 70
     0
  9
$TREEDEPTH
 70
  3020
  9
$CMLSTYLE
  2
Standard
  9
$CMLJUST
 70
     0
  9
$CMLSCALE
 40
1.0
  9
$PROXYGRAPHICS
 70
     0
  9
$MEASUREMENT
 70
     1
  9
$CELWEIGHT
370
    -1
  9
$ENDCAPS
280
     0
  9
$JOINSTYLE
280
     0
  9
$LWDISPLAY
290
     1
  9
$INSUNITS
 70
     4
  9
$HYPERLINKBASE
  1

  9
$STYLESHEET
  1

  9
$XEDIT
290
     1
  9
$CEPSNTYPE
380
     0
  9
$PSTYLEMODE
290
     1
  9
$FINGERPRINTGUID
  2

  9
$VERSIONGUID
  2

  9
$EXTNAMES
290
     1
  9
$PSVPSCALE
 40
0.0
  9
$OLESTARTUP
290
     0
  9
$SORTENTS
280
   127
  9
$INDEXCTL
280
     0
  9
$HIDETEXT
280
     1
  9
$XCLIPFRAME
290
     0
  9
$HALOGAP
280
     0
  9
$OBSCOLOR
 70
   257
  9
$OBSLTYPE
280
     0
  9
$INTERSECTIONDISPLAY
280
     0
  9
$INTERSECTIONCOLOR
 70
   257
  9
$DIMASSOC
280
     2
  9
$PROJECTNAME
  1

  9
$CAMERADISPLAY
290
     0
  9
$LENSLENGTH
 40
50.0
  9
$CAMERAHEIGHT
 40
0.0
  9
$STEPSPERSEC
 40
2.0
  9
$STEPSIZE
 40
6.0
  9
$3DDWFPREC
 40
2.0
  9
$PSOLWIDTH
 40
0.25
  9
$PSOLHEIGHT
 40
4.0
  9
$LOFTANG1
 40
1.570796326794897
  9
$LOFTANG2
 40
1.570796326794897
  9
$LOFTMAG1
 40
0.0
  9
$LOFTMAG2
 40
0.0
  9
$LOFTPARAM
 70
     7
  9
$LOFTNORMALS
280
     1
  9
$LATITUDE
 40
37.795
  9
$LONGITUDE
 40
-122.394
  9
$NORTHDIRECTION
 40
0.0
  9
$TIMEZONE
 70
 -8000
  9
$LIGHTGLYPHDISPLAY
280
     1
  9
$TILEMODELIGHTSYNCH
280
     1
  9
$SOLIDHIST
280
     1
  9
$SHOWHIST
280
     1
  9
$DWFFRAME
280
     2
  9
$DGNFRAME
280
     2
  9
$REALWORLDSCALE
290
     1
  9
$INTERFERECOLOR
 62
   256
  9
$CSHADOW
280
     0
  9
$SHADOWPLANELOCATION
 40
0.0
  0
ENDSEC
  0
SECTION
  2
CLASSES
  0
CLASS
  1
LWPOLYLINE
  2
AcDbPolyline
  3
ObjectDBX Classes
 90
        0
 91
        1
280
     0
281
     1
  0
CLASS
  1
IMAGE
  2
AcDbRasterImage
  3
ISM
 90
      127
 91
        5
280
     0
281
     1
  0
CLASS
  1
OLE2FRAME
  2
AcDbOle2Frame
  3
ObjectDBX Classes
 90
        0
 91
        1
280
     0
281
     1
  0
CLASS
  1
HATCH
  2
AcDbHatch
  3
ObjectDBX Classes
 90
        0
 91
        1
280
     0
281
     1
  0
CLASS
  1
DICTIONARYVAR
  2
AcDbDictionaryVar
  3
ObjectDBX Classes
 90
        0
 91
        4
280
     0
281
     0
  0
CLASS
  1
RASTERVARIABLES
  2
AcDbRasterVariables
  3
ISM
 90
        0
 91
        4
280
     0
281
     0
  0
CLASS
  1
IMAGEDEF
  2
AcDbRasterImageDef
  3
ISM
 90
        0
 91
        4
280
     0
281
     0
  0
CLASS
  1
IMAGEDEF_REACTOR
  2
AcDbRasterImageDefReactor
  3
ISM
 90
        1
 91
        4
280
     0
281
     0
  0
CLASS
  1
IDBUFFER
  2
AcDbIdBuffer
  3
ObjectDBX Classes
 90
        0
 91
        4
280
     0
281
     0
  0
CLASS
  1
SPATIAL_FILTER
  2
AcDbSpatialFilter
  3
ObjectDBX Classes
 90
        0
 91
        4
280
     0
281
     0
  0
CLASS
  1
XRECORD
  2
AcDbXrecord
  3
ObjectDBX Classes
 90
        0
 91
        1
280
     0
281
     0
  0
CLASS
  1
SORTENTSTABLE
  2
AcDbSortentsTable
  3
ObjectDBX Classes
 90
        0
 91
        4
280
     0
281
     0
  0
CLASS
  1
LAYER_INDEX
  2
AcDbLayerIndex
  3
ObjectDBX Classes
 90
        0
 91
        4
280
     0
281
     0
  0
CLASS
  1
SPATIAL_INDEX
  2
AcDbSpatialIndex
  3
AutoCAD 2000
 90
        0
 91
        4
280
     0
281
     0
  0
CLASS
  1
OBJECT_PTR
  2
CAseDLPNTableRecord
  3
ASE-LPNTableRecord
 90
        1
 91
        4
280
     0
281
     0
  0
CLASS
  1
LAYOUT
  2
AcDbLayout
  3
ObjectDBX Classes
 90
        0
 91
        1
280
     0
281
     0
  0
CLASS
  1
PLOTSETTINGS
  2
AcDbPlotSettings
  3
ObjectDBX Classes
 90
        0
 91
        4
280
     0
281
     0
  0
CLASS
  1
ACDBDICTIONARYWDFLT
  2
AcDbDictionaryWithDefault
  3
ObjectDBX Classes
 90
        0
 91
        4
280
     0
281
     0
  0
CLASS
  1
ACDBPLACEHOLDER
  2
AcDbPlaceHolder
  3
ObjectDBX Classes
 90
        0
 91
        1
280
     0
281
     0
  0
CLASS
  1
SCALE
  2
AcDbScale
  3
ObjectDBX Classes
 90
     1153
 91
        4
280
     0
281
     0
  0
CLASS
  1
MATERIAL
  2
AcDbMaterial
  3
ObjectDBX Classes
 90
     1153
 91
        4
280
     0
281
     0
  0
CLASS
  1
VISUALSTYLE
  2
AcDbVisualStyle
  3
ObjectDBX Classes
 90
     4095
 91
        4
280
     0
281
     0
  0
CLASS
  1
TABLESTYLE
  2
AcDbTableStyle
  3
ObjectDBX Classes
 90
     4095
 91
        4
280
     0
281
     0
  0
CLASS
  1
DIMASSOC
  2
AcDbDimAssoc
  3
"AcDbDimAssoc|Product Desc:     AcDim ARX App For Dimension|Company:          Autodesk, Inc.|WEB Address:      www.autodesk.com"
 90
        0
 91
        4
280
     0
281
     0
  0
CLASS
  1
CELLSTYLEMAP
  2
AcDbCellStyleMap
  3
ObjectDBX Classes
 90
     1152
 91
        4
280
     0
281
     0
  0
CLASS
  1
SUN
  2
AcDbSun
  3
SCENEOE
 90
     1153
 91
        4
280
     0
281
     0
  0
CLASS
  1
MLEADERSTYLE
  2
AcDbMLeaderStyle
  3
ACDB_MLEADERSTYLE_CLASS
 90
     4095
 91
        4
280
     0
281
     0
  0
CLASS
  1
FIELD
  2
AcDbField
  3
ObjectDBX Classes
 90
     1152
 91
        4
280
     0
281
     0
  0
CLASS
  1
FIELDLIST
  2
AcDbFieldList
  3
ObjectDBX Classes
 90
     1152
 91
        4
280
     0
281
     0
  0
CLASS
  1
ACDB_ALDIMOBJECTCONTEXTDATA_CLASS
  2
AcDbAlignedDimensionObjectContextData
  3
ObjectDBX Classes
 90
     1153
 91
        4
280
     0
281
     0
  0
ENDSEC
  0
SECTION
  2
TABLES
  0
TABLE
  2
VPORT
  5
7
330
0
100
AcDbSymbolTable
 70
     1
  0
VPORT
  5
15
330
7
100
AcDbSymbolTableRecord
100
AcDbViewportTableRecord
  2
*ACTIVE
 70
     0
 10
0.0
 20
0.0
 11
1.0
 21
1.0
 12
672.9525617540362
 22
1782.612370234517
 13
0.0
 23
0.0
 14
1.0
 24
1.0
 15
0.0
 25
0.0
 16
0.0
 26
0.0
 36
1.0
 17
377.0474382459638
 27
-297.6123702345167
 37
0.0
 40
3029.4
 41
2.175102599179207
 42
50.0
 43
0.0
 44
0.0
 50
0.0
 51
0.0
 71
    16
 72
  2000
 73
     1
 74
     1
 75
     0
 76
     0
 77
     0
 78
     0
281
     0
 65
     1
110
0.0
120
0.0
130
0.0
111
1.0
121
0.0
131
0.0
112
0.0
122
1.0
132
0.0
 79
     0
146
0.0
348
26C
 60
     3
 61
     5
292
     1
282
     1
141
0.0
142
0.0
 63
   256
361
8C2
  0
ENDTAB
  0
TABLE
  2
LTYPE
  5
4
330
0
100
AcDbSymbolTable
 70
     4
  0
LTYPE
  5
11
330
4
100
AcDbSymbolTableRecord
100
AcDbLinetypeTableRecord
  2
ByBlock
 70
     0
  3

 72
    65
 73
     0
 40
0.0
  0
LTYPE
  5
12
330
4
100
AcDbSymbolTableRecord
100
AcDbLinetypeTableRecord
  2
ByLayer
 70
     0
  3

 72
    65
 73
     0
 40
0.0
  0
LTYPE
  5
13
330
4
100
AcDbSymbolTableRecord
100
AcDbLinetypeTableRecord
  2
Continuous
 70
     0
  3
Solid line
 72
    65
 73
     0
 40
0.0
  0
LTYPE
  5
8D4
330
4
100
AcDbSymbolTableRecord
100
AcDbLinetypeTableRecord
  2
HIDDEN
 70
     0
  3
Hidden _ _ _ _ _ _ _ _ _ _ _ _ _ _ _ _ _ _ _ _ 
 72
    65
 73
     2
 40
9.524999999999999
 49
6.35
 74
     0
 49
-3.175
 74
     0
  0
LTYPE
  5
BF2
330
4
100
AcDbSymbolTableRecord
100
AcDbLinetypeTableRecord
  2
BORDER
 70
     0
  3
Border __  __  . __  __  . __  __  . __  __  . 
 72
    65
 73
     6
 40
44.45
 49
12.7
 74
     0
 49
-6.35
 74
     0
 49
12.7
 74
     0
 49
-6.35
 74
     0
 49
0.0
 74
     0
 49
-6.35
 74
     0
  0
LTYPE
  5
50F3
330
4
100
AcDbSymbolTableRecord
100
AcDbLinetypeTableRecord
  2
CENTER
 70
     0
  3
 Center _____  _  _____  _  _____  _  _____  _ 
 72
    65
 73
     4
 40
50.8
 49
31.75
 74
     0
 49
-6.35
 74
     0
 49
6.35
 74
     0
 49
-6.35
 74
     0
  0
ENDTAB
  0
TABLE
  2
LAYER
  5
2
102
{ACAD_XDICTIONARY
360
2E1
102
}
330
0
100
AcDbSymbolTable
 70
     9
  0
LAYER
  5
14
330
2
100
AcDbSymbolTableRecord
100
AcDbLayerTableRecord
  2
0
 70
     0
 62
     7
  6
Continuous
370
    -3
390
1D
347
266
  0
LAYER
  5
4A
330
2
100
AcDbSymbolTableRecord
100
AcDbLayerTableRecord
  2
Defpoints
 70
     0
 62
     7
  6
Continuous
290
     0
370
    20
390
1D
347
266
  0
LAYER
  5
4B
330
2
100
AcDbSymbolTableRecord
100
AcDbLayerTableRecord
  2
template
 70
     0
 62
     7
  6
Continuous
370
    20
390
1D
347
266
  0
LAYER
  5
382
330
2
100
AcDbSymbolTableRecord
100
AcDbLayerTableRecord
  2
レイヤー 1
 70
     0
 62
     7
  6
Continuous
370
    -3
390
1D
347
266
  0
LAYER
  5
5C4
330
2
100
AcDbSymbolTableRecord
100
AcDbLayerTableRecord
  2
HIDDEN
 70
     0
 62
   253
  6
HIDDEN
370
    13
390
1D
347
266
1001
AcAecLayerStandard
1000

1000

  0
LAYER
  5
5EB
330
2
100
AcDbSymbolTableRecord
100
AcDbLayerTableRecord
  2
Dim
 70
     0
 62
     3
  6
Continuous
370
    13
390
1D
347
266
1001
AcAecLayerStandard
1000

1000

  0
LAYER
  5
BF1
330
2
100
AcDbSymbolTableRecord
100
AcDbLayerTableRecord
  2
PRINT BORDER
 70
     0
 62
     4
  6
BORDER
290
     0
370
    20
390
1D
347
266
1001
AcAecLayerStandard
1000

1000

  0
LAYER
  5
1BD2
330
2
100
AcDbSymbolTableRecord
100
AcDbLayerTableRecord
  2
retino
 70
     0
 62
   253
  6
Continuous
370
     0
390
1D
347
266
  0
LAYER
  5
50ED
330
2
100
AcDbSymbolTableRecord
100
AcDbLayerTableRecord
  2
MODEL
 70
     0
 62
     7
  6
Continuous
370
    20
390
1D
347
266
  0
ENDTAB
  0
TABLE
  2
STYLE
  5
3
330
0
100
AcDbSymbolTable
 70
     2
  0
STYLE
  5
17
330
3
100
AcDbSymbolTableRecord
100
AcDbTextStyleTableRecord
  2
Standard
 70
     0
 40
0.0
 41
1.0
 50
0.0
 71
     0
 42
533.0403732820173
  3
txt
  4
BIGFONT.SHX
  0
STYLE
  5
39
330
3
100
AcDbSymbolTableRecord
100
AcDbTextStyleTableRecord
  2
ＭＳ ゴシック
 70
     0
 40
0.0
 41
1.0
 50
0.0
 71
     0
 42
533.0403732820173
  3
msgothic.ttc
  4
ＭＳ ゴシック
1001
ACAD
1000
ＭＳ ゴシック
1071
        0
  0
ENDTAB
  0
TABLE
  2
VIEW
  5
5
330
0
100
AcDbSymbolTable
 70
     0
  0
ENDTAB
  0
TABLE
  2
UCS
  5
6
330
0
100
AcDbSymbolTable
 70
     0
  0
ENDTAB
  0
TABLE
  2
APPID
  5
8
330
0
100
AcDbSymbolTable
 70
    14
  0
APPID
  5
16
330
8
100
AcDbSymbolTableRecord
100
AcDbRegAppTableRecord
  2
ACAD
 70
     0
  0
APPID
  5
5C5
330
8
100
AcDbSymbolTableRecord
100
AcDbRegAppTableRecord
  2
AcAecLayerStandard
 70
     0
  0
APPID
  5
913
330
8
100
AcDbSymbolTableRecord
100
AcDbRegAppTableRecord
  2
ACAD_DSTYLE_DIMBREAK
 70
     0
  0
APPID
  5
914
330
8
100
AcDbSymbolTableRecord
100
AcDbRegAppTableRecord
  2
ACAD_DSTYLE_DIMJAG
 70
     0
  0
APPID
  5
915
330
8
100
AcDbSymbolTableRecord
100
AcDbRegAppTableRecord
  2
ACAD_DSTYLE_DIMTALN
 70
     0
  0
APPID
  5
E4F
330
8
100
AcDbSymbolTableRecord
100
AcDbRegAppTableRecord
  2
ACAD_MLEADERVER
 70
     0
  0
APPID
  5
E79
330
8
100
AcDbSymbolTableRecord
100
AcDbRegAppTableRecord
  2
ACAD_PSEXT
 70
     0
  0
APPID
  5
E7A
330
8
100
AcDbSymbolTableRecord
100
AcDbRegAppTableRecord
  2
ACAD_NAV_VCDISPLAY
 70
     0
  0
APPID
  5
166E
330
8
100
AcDbSymbolTableRecord
100
AcDbRegAppTableRecord
  2
AcadAnnotative
 70
     0
  0
APPID
  5
166F
330
8
100
AcDbSymbolTableRecord
100
AcDbRegAppTableRecord
  2
GradientColor1ACI
 70
     0
  0
APPID
  5
1670
330
8
100
AcDbSymbolTableRecord
100
AcDbRegAppTableRecord
  2
GradientColor2ACI
 70
     0
  0
APPID
  5
20FE
330
8
100
AcDbSymbolTableRecord
100
AcDbRegAppTableRecord
  2
AcLayerTools
 70
     0
  0
APPID
  5
27AB
330
8
100
AcDbSymbolTableRecord
100
AcDbRegAppTableRecord
  2
ACAD_DSTYLE_DIMRADIAL_EXTENSION
 70
     0
  0
APPID
  5
4377
330
8
100
AcDbSymbolTableRecord
100
AcDbRegAppTableRecord
  2
RAK
 70
     0
  0
ENDTAB
  0
TABLE
  2
DIMSTYLE
  5
9
330
0
100
AcDbSymbolTable
 70
     2
100
AcDbDimStyleTable
  0
DIMSTYLE
105
18
330
9
100
AcDbSymbolTableRecord
100
AcDbDimStyleTableRecord
  2
Standard
 70
     0
178
     0
340
17
  0
DIMSTYLE
105
56
102
{ACAD_REACTORS
330
518E
330
51A2
330
51AE
330
51BB
330
51C8
330
51D5
330
51E2
330
51F0
330
52EB
330
52EE
330
5312
330
5317
330
531A
102
}
330
9
100
AcDbSymbolTableRecord
100
AcDbDimStyleTableRecord
  2
tform線あり
 70
     0
  3
<>
  4
[]
 41
9.999389648437498
 42
25.0
 43
0.9999999999999999
 44
0.0
 73
     0
 74
     0
 77
     1
 78
    11
140
24.4326171875
141
0.0
143
1.0
146
0.8
147
10.0
171
     1
172
     1
174
     1
178
     0
179
     2
271
     1
272
     1
276
     2
284
    11
285
    11
286
    11
289
     0
340
39
341
4E
342
4E
  0
ENDTAB
  0
TABLE
  2
BLOCK_RECORD
  5
1
330
0
100
AcDbSymbolTable
 70
    36
  0
BLOCK_RECORD
  5
A
330
1
100
AcDbSymbolTableRecord
100
AcDbBlockTableRecord
  2
*MODEL_SPACE
340
20
 70
     0
280
     1
281
     0
  0
BLOCK_RECORD
  5
B
330
1
100
AcDbSymbolTableRecord
100
AcDbBlockTableRecord
  2
*PAPER_SPACE
340
21
 70
     0
280
     1
281
     0
  0
BLOCK_RECORD
  5
4E
330
1
100
AcDbSymbolTableRecord
100
AcDbBlockTableRecord
  2
_DOT
340
0
102
{BLKREFS
331
4FFE
331
4FFF
331
0
331
5013
331
505D
331
505E
331
5085
331
5086
331
0
331
50AA
331
0
331
50A9
331
50AB
331
5014
331
50D6
331
50D5
331
51A9
331
51EB
331
528C
331
528D
331
5298
331
5299
331
52A4
331
52A5
331
52B0
331
52B1
331
52BC
331
52BD
331
52C8
331
52C9
331
52D6
331
52D7
331
52E2
331
52E3
331
52FE
331
52FF
331
530A
331
530B
331
532B
331
532C
331
5337
331
5338
331
5345
331
5346
102
}
 70
     0
280
     1
281
     0
  0
BLOCK_RECORD
  5
3A5
330
1
100
AcDbSymbolTableRecord
100
AcDbBlockTableRecord
  2
名称未設定-1
340
0
102
{BLKREFS
331
3D0
102
}
 70
     1
280
     1
281
     0
  0
BLOCK_RECORD
  5
3A8
330
1
100
AcDbSymbolTableRecord
100
AcDbBlockTableRecord
  2
block 2
340
0
102
{BLKREFS
331
3A7
102
}
 70
     0
280
     1
281
     0
  0
BLOCK_RECORD
  5
3AB
330
1
100
AcDbSymbolTableRecord
100
AcDbBlockTableRecord
  2
block 3
340
0
102
{BLKREFS
331
3AA
102
}
 70
     0
280
     1
281
     0
  0
BLOCK_RECORD
  5
3AE
330
1
100
AcDbSymbolTableRecord
100
AcDbBlockTableRecord
  2
block 4
340
0
102
{BLKREFS
331
3AD
102
}
 70
     0
280
     1
281
     0
  0
BLOCK_RECORD
  5
3BD
330
1
100
AcDbSymbolTableRecord
100
AcDbBlockTableRecord
  2
block 5
340
0
102
{BLKREFS
331
3BC
102
}
 70
     0
280
     1
281
     0
  0
BLOCK_RECORD
  5
11F0
330
1
100
AcDbSymbolTableRecord
100
AcDbBlockTableRecord
  2
BLOCK_2
340
0
102
{BLKREFS
331
1273
331
127B
331
127C
102
}
 70
     0
280
     1
281
     0
  0
BLOCK_RECORD
  5
38B6
330
1
100
AcDbSymbolTableRecord
100
AcDbBlockTableRecord
  2
mobile_latù
340
0
310
2800000020000000200000000100080000000000000400000000000000000000000000000000000000000000000080000080000000808000800000008000800080800000C0C0C000C0DCC000F0CAA6000020400000206000002080000020A0000020C0000020E00000400000004020000040400000406000004080000040A0
310
000040C0000040E00000600000006020000060400000606000006080000060A0000060C0000060E00000800000008020000080400000806000008080000080A0000080C0000080E00000A0000000A0200000A0400000A0600000A0800000A0A00000A0C00000A0E00000C0000000C0200000C0400000C0600000C0800000C0
310
A00000C0C00000C0E00000E0000000E0200000E0400000E0600000E0800000E0A00000E0C00000E0E00040000000400020004000400040006000400080004000A0004000C0004000E00040200000402020004020400040206000402080004020A0004020C0004020E000404000004040200040404000404060004040800040
310
40A0004040C0004040E00040600000406020004060400040606000406080004060A0004060C0004060E00040800000408020004080400040806000408080004080A0004080C0004080E00040A0000040A0200040A0400040A0600040A0800040A0A00040A0C00040A0E00040C0000040C0200040C0400040C0600040C08000
310
40C0A00040C0C00040C0E00040E0000040E0200040E0400040E0600040E0800040E0A00040E0C00040E0E00080000000800020008000400080006000800080008000A0008000C0008000E00080200000802020008020400080206000802080008020A0008020C0008020E00080400000804020008040400080406000804080
310
008040A0008040C0008040E00080600000806020008060400080606000806080008060A0008060C0008060E00080800000808020008080400080806000808080008080A0008080C0008080E00080A0000080A0200080A0400080A0600080A0800080A0A00080A0C00080A0E00080C0000080C0200080C0400080C0600080C0
310
800080C0A00080C0C00080C0E00080E0000080E0200080E0400080E0600080E0800080E0A00080E0C00080E0E000C0000000C0002000C0004000C0006000C0008000C000A000C000C000C000E000C0200000C0202000C0204000C0206000C0208000C020A000C020C000C020E000C0400000C0402000C0404000C0406000C0
310
408000C040A000C040C000C040E000C0600000C0602000C0604000C0606000C0608000C060A000C060C000C060E000C0800000C0802000C0804000C0806000C0808000C080A000C080C000C080E000C0A00000C0A02000C0A04000C0A06000C0A08000C0A0A000C0A0C000C0A0E000C0C00000C0C02000C0C04000C0C06000
310
C0C08000C0C0A000F0FBFF00A4A0A000808080000000FF0000FF000000FFFF00FF000000FF00FF00FFFF0000FFFFFF0049494949494949494949494949494949494949494949494949494949494949494949494949494949494949494949494949494949494949494949494949494949494949494949494949494949494949
310
49494949494949494949494949494949494949494949494949494949494949494949494949494949494949494949494949494949494949494949494949494949494949494949494949494949494949494949FAFAFAFAFAFAFAFAFAFAFAFAFAFAFAFAFAFAFAFAFAFAFAFAFAFAFAFAFAFA4949FAFA4949494949494949494949
310
494949494949494949494949494949FAFA4949FAFA4949494949494949494949494949494949494949494949494949FAFA4949FAFA4949494949494949494949494949494949494949494949494949FAFA4949FAFA4949494949494949494949494949494949494949494949494949FAFA4949FAFA49494949494949494949
310
49494949494949494949494949494949FAFA4949FAFA4949494949494949494949494949494949494949494949494949FAFA4949FAFA4949494949494949494949494949494949494949494949494949FAFA4949FAFA4949494949494949494949494949494949494949494949494949FAFA4949FAFA494949494949494949
310
4949494949494949494949494949494949FAFA4949FAFA4949494949494949494949494949494949494949494949494949FAFA4949FAFA4949494949494949494949494949494949494949494949494949FAFA4949FAFA4949494949494949494949494949494949494949494949494949FAFA4949FAFA4949494949494949
310
494949494949494949494949494949494949FAFA4949FAFA4949494949494949494949494949494949494949494949494949FAFA4949FAFA4949494949494949494949494949494949494949494949494949FAFA4949FAFA4949494949494949494949494949494949494949494949494949FAFA4949FAFA49494949494949
310
49494949494949494949494949494949494949FAFA4949FAFAFAFAFAFAFAFAFAFAFAFAFAFAFAFAFAFAFAFAFAFAFAFAFAFAFAFAFAFA4949FAFAFAFAFAFAFAFAFAFAFAFAFAFAFAFAFAFAFAFAFAFAFAFAFAFAFAFAFAFA4949FAFA4949494949494949494949494949494949494949494949494949FAFA4949FAFAFAFAFAFAFAFA
310
FAFAFAFAFAFAFAFAFAFAFAFAFAFAFAFAFAFAFAFAFAFA494949494949494949494949494949494949494949494949494949494949494949494949494949494949494949494949494949494949494949494949494949494949494949494949494949494949494949494949494949494949494949494949494949494949494949
310
4949494949494949494949494949494949494949494949494949494949494949494949494949494949494949494949494949494949494949
102
{BLKREFS
331
3B99
331
467E
102
}
 70
     4
280
     1
281
     0
  0
BLOCK_RECORD
  5
4FF8
330
1
100
AcDbSymbolTableRecord
100
AcDbBlockTableRecord
  2
*D8
340
0
 70
     0
280
     1
281
     0
  0
BLOCK_RECORD
  5
500B
330
1
100
AcDbSymbolTableRecord
100
AcDbBlockTableRecord
  2
*D9
340
0
 70
     0
280
     1
281
     0
  0
BLOCK_RECORD
  5
5057
330
1
100
AcDbSymbolTableRecord
100
AcDbBlockTableRecord
  2
*D10
340
0
 70
     0
280
     1
281
     0
  0
BLOCK_RECORD
  5
507F
330
1
100
AcDbSymbolTableRecord
100
AcDbBlockTableRecord
  2
*D11
340
0
 70
     0
280
     1
281
     0
  0
BLOCK_RECORD
  5
50A2
330
1
100
AcDbSymbolTableRecord
100
AcDbBlockTableRecord
  2
*D12
340
0
 70
     0
280
     1
281
     0
  0
BLOCK_RECORD
  5
50CF
330
1
100
AcDbSymbolTableRecord
100
AcDbBlockTableRecord
  2
*D13
340
0
 70
     0
280
     1
281
     0
  0
BLOCK_RECORD
  5
518F
330
1
100
AcDbSymbolTableRecord
100
AcDbBlockTableRecord
  2
*D15
340
0
 70
     0
280
     1
281
     0
  0
BLOCK_RECORD
  5
51A3
330
1
100
AcDbSymbolTableRecord
100
AcDbBlockTableRecord
  2
*D16
340
0
 70
     0
280
     1
281
     0
  0
BLOCK_RECORD
  5
51AF
330
1
100
AcDbSymbolTableRecord
100
AcDbBlockTableRecord
  2
*D17
340
0
 70
     0
280
     1
281
     0
  0
BLOCK_RECORD
  5
51BC
330
1
100
AcDbSymbolTableRecord
100
AcDbBlockTableRecord
  2
*D18
340
0
 70
     0
280
     1
281
     0
  0
BLOCK_RECORD
  5
51C9
330
1
100
AcDbSymbolTableRecord
100
AcDbBlockTableRecord
  2
*D19
340
0
 70
     0
280
     1
281
     0
  0
BLOCK_RECORD
  5
51D6
330
1
100
AcDbSymbolTableRecord
100
AcDbBlockTableRecord
  2
*D20
340
0
 70
     0
280
     1
281
     0
  0
BLOCK_RECORD
  5
51E3
330
1
100
AcDbSymbolTableRecord
100
AcDbBlockTableRecord
  2
*D21
340
0
 70
     0
280
     1
281
     0
  0
BLOCK_RECORD
  5
51F3
330
1
100
AcDbSymbolTableRecord
100
AcDbBlockTableRecord
  2
*D22
340
0
 70
     0
280
     1
281
     0
  0
BLOCK_RECORD
  5
5286
330
1
100
AcDbSymbolTableRecord
100
AcDbBlockTableRecord
  2
*D23
340
0
 70
     0
280
     1
281
     0
  0
BLOCK_RECORD
  5
5292
330
1
100
AcDbSymbolTableRecord
100
AcDbBlockTableRecord
  2
*D24
340
0
 70
     0
280
     1
281
     0
  0
BLOCK_RECORD
  5
529E
330
1
100
AcDbSymbolTableRecord
100
AcDbBlockTableRecord
  2
*D25
340
0
 70
     0
280
     1
281
     0
  0
BLOCK_RECORD
  5
52AA
330
1
100
AcDbSymbolTableRecord
100
AcDbBlockTableRecord
  2
*D26
340
0
 70
     0
280
     1
281
     0
  0
BLOCK_RECORD
  5
52B6
330
1
100
AcDbSymbolTableRecord
100
AcDbBlockTableRecord
  2
*D27
340
0
 70
     0
280
     1
281
     0
  0
BLOCK_RECORD
  5
52C2
330
1
100
AcDbSymbolTableRecord
100
AcDbBlockTableRecord
  2
*D28
340
0
 70
     0
280
     1
281
     0
  0
BLOCK_RECORD
  5
52CE
330
1
100
AcDbSymbolTableRecord
100
AcDbBlockTableRecord
  2
*D29
340
0
 70
     0
280
     1
281
     0
  0
BLOCK_RECORD
  5
52DC
330
1
100
AcDbSymbolTableRecord
100
AcDbBlockTableRecord
  2
*D30
340
0
 70
     0
280
     1
281
     0
  0
BLOCK_RECORD
  5
52F6
330
1
100
AcDbSymbolTableRecord
100
AcDbBlockTableRecord
  2
*D31
340
0
 70
     0
280
     1
281
     0
  0
BLOCK_RECORD
  5
5304
330
1
100
AcDbSymbolTableRecord
100
AcDbBlockTableRecord
  2
*D32
340
0
 70
     0
280
     1
281
     0
  0
BLOCK_RECORD
  5
5325
330
1
100
AcDbSymbolTableRecord
100
AcDbBlockTableRecord
  2
*D33
340
0
 70
     0
280
     1
281
     0
  0
BLOCK_RECORD
  5
5331
330
1
100
AcDbSymbolTableRecord
100
AcDbBlockTableRecord
  2
*D34
340
0
 70
     0
280
     1
281
     0
  0
BLOCK_RECORD
  5
533D
330
1
100
AcDbSymbolTableRecord
100
AcDbBlockTableRecord
  2
*D35
340
0
 70
     0
280
     1
281
     0
  0
ENDTAB
  0
ENDSEC
  0
SECTION
  2
BLOCKS
  0
BLOCK
  5
D
330
A
100
AcDbEntity
  8
0
390
1D
100
AcDbBlockBegin
  2
*MODEL_SPACE
 70
     0
 10
0.0
 20
0.0
 30
0.0
  3
*MODEL_SPACE
  1
*MODEL_SPACE
  0
ENDBLK
  5
E
330
A
100
AcDbEntity
  8
0
390
1D
100
AcDbBlockEnd
  0
BLOCK
  5
F
330
B
100
AcDbEntity
 67
     1
  8
0
390
1D
100
AcDbBlockBegin
  2
*PAPER_SPACE
 70
     0
 10
0.0
 20
0.0
 30
0.0
  3
*PAPER_SPACE
  1
*PAPER_SPACE
  0
ENDBLK
  5
10
330
B
100
AcDbEntity
 67
     1
  8
0
390
1D
100
AcDbBlockEnd
  0
BLOCK
  5
2C14
330
4E
100
AcDbEntity
  8
0
390
1D
100
AcDbBlockBegin
  2
_DOT
 70
     0
 10
0.0
 20
0.0
 30
0.0
  3
_DOT
  1
_DOT
  0
POLYLINE
  5
2C16
330
4E
100
AcDbEntity
  8
0
  6
ByBlock
 62
     0
370
    -2
390
1D
100
AcDb2dPolyline
 66
     1
 10
0.0
 20
0.0
 30
0.0
 70
     1
 40
0.5
 41
0.5
  0
VERTEX
  5
2C17
330
2C16
100
AcDbEntity
  8
0
  6
ByBlock
 62
     0
370
    -2
390
1D
100
AcDbVertex
100
AcDb2dVertex
 10
-0.25
 20
0.0
 30
0.0
 42
1.0
  0
VERTEX
  5
2C18
330
2C16
100
AcDbEntity
  8
0
  6
ByBlock
 62
     0
370
    -2
390
1D
100
AcDbVertex
100
AcDb2dVertex
 10
0.25
 20
0.0
 30
0.0
 42
1.0
  0
SEQEND
  5
2C19
330
2C16
100
AcDbEntity
  8
0
390
1D
  0
LINE
  5
2C1A
330
4E
100
AcDbEntity
  8
0
  6
ByBlock
 62
     0
370
    -2
390
1D
100
AcDbLine
 10
-0.5
 20
0.0
 30
0.0
 11
-1.0
 21
0.0
 31
0.0
  0
ENDBLK
  5
2C1B
330
4E
100
AcDbEntity
  8
0
390
1D
100
AcDbBlockEnd
  0
BLOCK
  5
3A6
330
3A5
100
AcDbEntity
  8
0
100
AcDbBlockBegin
  2
名称未設定-1
 70
     0
 10
0.0
 20
0.0
 30
0.0
  3
名称未設定-1
  1
名称未設定-1
  0
INSERT
  5
3A7
330
3A5
100
AcDbEntity
  8
レイヤー 1
100
AcDbBlockReference
  2
block 2
 10
0.0
 20
0.0
 30
0.0
  0
ENDBLK
  5
3CC
330
3A5
100
AcDbEntity
  8
0
100
AcDbBlockEnd
  0
BLOCK
  5
3A9
330
3A8
100
AcDbEntity
  8
0
100
AcDbBlockBegin
  2
block 2
 70
     0
 10
0.0
 20
0.0
 30
0.0
  3
block 2
  1
block 2
  0
INSERT
  5
3AA
330
3A8
100
AcDbEntity
  8
レイヤー 1
100
AcDbBlockReference
  2
block 3
 10
0.0
 20
0.0
 30
0.0
  0
ENDBLK
  5
3CB
330
3A8
100
AcDbEntity
  8
0
100
AcDbBlockEnd
  0
BLOCK
  5
3AC
330
3AB
100
AcDbEntity
  8
0
100
AcDbBlockBegin
  2
block 3
 70
     0
 10
0.0
 20
0.0
 30
0.0
  3
block 3
  1
block 3
  0
INSERT
  5
3AD
330
3AB
100
AcDbEntity
  8
レイヤー 1
100
AcDbBlockReference
  2
block 4
 10
0.0
 20
0.0
 30
0.0
  0
ENDBLK
  5
3CA
330
3AB
100
AcDbEntity
  8
0
100
AcDbBlockEnd
  0
BLOCK
  5
3AF
330
3AE
100
AcDbEntity
  8
0
100
AcDbBlockBegin
  2
block 4
 70
     0
 10
0.0
 20
0.0
 30
0.0
  3
block 4
  1
block 4
  0
POLYLINE
  5
3B0
330
3AE
100
AcDbEntity
  8
レイヤー 1
370
     0
100
AcDb2dPolyline
 66
     1
 10
0.0
 20
0.0
 30
0.0
  0
VERTEX
  5
3B1
330
3B0
100
AcDbEntity
  8
レイヤー 1
370
     0
100
AcDbVertex
100
AcDb2dVertex
 10
83.79545727667795
 20
167.6444858234922
 30
0.0
  0
VERTEX
  5
3B2
330
3B0
100
AcDbEntity
  8
レイヤー 1
370
     0
100
AcDbVertex
100
AcDb2dVertex
 10
83.79545727667795
 20
159.7968976406313
 30
0.0
  0
VERTEX
  5
3B3
330
3B0
100
AcDbEntity
  8
レイヤー 1
370
     0
100
AcDbVertex
100
AcDb2dVertex
 10
71.3631329975216
 20
159.7968976406313
 30
0.0
  0
VERTEX
  5
3B4
330
3B0
100
AcDbEntity
  8
レイヤー 1
370
     0
100
AcDbVertex
100
AcDb2dVertex
 10
71.3631329975216
 20
127.8027915271048
 30
0.0
  0
VERTEX
  5
3B5
330
3B0
100
AcDbEntity
  8
レイヤー 1
370
     0
100
AcDbVertex
100
AcDb2dVertex
 10
60.43011526263018
 20
127.8027915271048
 30
0.0
  0
VERTEX
  5
3B6
330
3B0
100
AcDbEntity
  8
レイヤー 1
370
     0
100
AcDbVertex
100
AcDb2dVertex
 10
60.43011526263018
 20
159.7968976406313
 30
0.0
  0
VERTEX
  5
3B7
330
3B0
100
AcDbEntity
  8
レイヤー 1
370
     0
100
AcDbVertex
100
AcDb2dVertex
 10
48.21793273020759
 20
159.7968976406313
 30
0.0
  0
VERTEX
  5
3B8
330
3B0
100
AcDbEntity
  8
レイヤー 1
370
     0
100
AcDbVertex
100
AcDb2dVertex
 10
48.21793273020759
 20
167.6444858234922
 30
0.0
  0
VERTEX
  5
3B9
330
3B0
100
AcDbEntity
  8
レイヤー 1
370
     0
100
AcDbVertex
100
AcDb2dVertex
 10
83.79545727667795
 20
167.6444858234922
 30
0.0
  0
SEQEND
  5
3BA
330
3B0
100
AcDbEntity
  8
レイヤー 1
370
     0
  0
HATCH
  5
3BB
330
3AE
100
AcDbEntity
  8
レイヤー 1
 62
   250
420
  2234388
100
AcDbHatch
 10
0.0
 20
0.0
 30
0.0
210
0.0
220
0.0
230
1.0
  2
SOLID
 70
     1
 71
     0
 91
        1
 92
        1
 93
        8
 72
     1
 10
83.79545727667795
 20
167.6444858234922
 11
83.79545727667795
 21
159.7968976406313
 72
     1
 10
83.79545727667795
 20
159.7968976406313
 11
71.3631329975216
 21
159.7968976406313
 72
     1
 10
71.3631329975216
 20
159.7968976406313
 11
71.3631329975216
 21
127.8027915271048
 72
     1
 10
71.3631329975216
 20
127.8027915271048
 11
60.43011526263018
 21
127.8027915271048
 72
     1
 10
60.43011526263018
 20
127.8027915271048
 11
60.43011526263018
 21
159.7968976406313
 72
     1
 10
60.43011526263018
 20
159.7968976406313
 11
48.21793273020759
 21
159.7968976406313
 72
     1
 10
48.21793273020759
 20
159.7968976406313
 11
48.21793273020759
 21
167.6444858234922
 72
     1
 10
48.21793273020759
 20
167.6444858234922
 11
83.79545727667795
 21
167.6444858234922
 97
        0
 75
     2
 76
     1
 98
        0
  0
INSERT
  5
3BC
330
3AE
100
AcDbEntity
  8
レイヤー 1
100
AcDbBlockReference
  2
block 5
 10
0.0
 20
0.0
 30
0.0
  0
ENDBLK
  5
3C9
330
3AE
100
AcDbEntity
  8
0
100
AcDbBlockEnd
  0
BLOCK
  5
3BE
330
3BD
100
AcDbEntity
  8
0
100
AcDbBlockBegin
  2
block 5
 70
     0
 10
0.0
 20
0.0
 30
0.0
  3
block 5
  1
block 5
  0
SPLINE
  5
3BF
330
3BD
100
AcDbEntity
  8
レイヤー 1
370
     0
100
AcDbSpline
210
0.0
220
0.0
230
1.0
 70
    11
 71
     3
 72
    56
 73
    52
 74
     0
 42
0.000000001
 43
0.0000000001
 40
0.0
 40
0.0
 40
0.0
 40
0.0
 40
1.0
 40
1.0
 40
1.0
 40
2.0
 40
2.0
 40
2.0
 40
3.0
 40
3.0
 40
3.0
 40
4.0
 40
4.0
 40
4.0
 40
5.0
 40
5.0
 40
5.0
 40
6.0
 40
6.0
 40
6.0
 40
7.0
 40
7.0
 40
7.0
 40
8.0
 40
8.0
 40
8.0
 40
9.0
 40
9.0
 40
9.0
 40
10.0
 40
10.0
 40
10.0
 40
11.0
 40
11.0
 40
11.0
 40
12.0
 40
12.0
 40
12.0
 40
13.0
 40
13.0
 40
13.0
 40
14.0
 40
14.0
 40
14.0
 40
15.0
 40
15.0
 40
15.0
 40
16.0
 40
16.0
 40
16.0
 40
17.0
 40
17.0
 40
17.0
 40
17.0
 10
100.4504378777679
 20
166.69157178364
 30
0.0
 10
101.9848844191641
 20
167.1313385124438
 30
0.0
 10
103.9637485713373
 20
166.7649523658846
 30
0.0
 10
103.9637485713373
 20
166.7649523658846
 30
0.0
 10
103.9637485713373
 20
166.7649523658846
 30
0.0
 10
103.0132460999156
 20
163.911205638077
 30
0.0
 10
103.0132460999156
 20
163.911205638077
 30
0.0
 10
103.0132460999156
 20
163.911205638077
 30
0.0
 10
101.0674548862189
 20
164.3601018759394
 30
0.0
 10
99.57090442016032
 20
163.1805004036133
 30
0.0
 10
98.40508333886608
 20
162.258247733807
 30
0.0
 10
97.65301849830304
 20
159.804132345923
 30
0.0
 10
97.3598406791005
 20
158.8699940888517
 30
0.0
 10
97.3598406791005
 20
158.8699940888517
 30
0.0
 10
96.07137411762282
 20
154.9119212747295
 30
0.0
 10
96.07137411762282
 20
154.9119212747295
 30
0.0
 10
96.07137411762282
 20
154.9119212747295
 30
0.0
 10
100.3012651448482
 20
154.9119212747295
 30
0.0
 10
100.3012651448482
 20
154.9119212747295
 30
0.0
 10
100.3012651448482
 20
154.9119212747295
 30
0.0
 10
99.64152892419852
 20
152.4199098115079
 30
0.0
 10
99.64152892419852
 20
152.4199098115079
 30
0.0
 10
99.64152892419852
 20
152.4199098115079
 30
0.0
 10
95.38097652692731
 20
152.4199098115079
 30
0.0
 10
95.38097652692731
 20
152.4199098115079
 30
0.0
 10
95.38097652692731
 20
152.4199098115079
 30
0.0
 10
87.75353009080013
 20
127.8027915271048
 30
0.0
 10
87.75353009080013
 20
127.8027915271048
 30
0.0
 10
87.75353009080013
 20
127.8027915271048
 30
0.0
 10
85.36538832498108
 20
127.8027915271048
 30
0.0
 10
85.36538832498108
 20
127.8027915271048
 30
0.0
 10
85.36538832498108
 20
127.8027915271048
 30
0.0
 10
93.00006946639998
 20
152.4199098115079
 30
0.0
 10
93.00006946639998
 20
152.4199098115079
 30
0.0
 10
93.00006946639998
 20
152.4199098115079
 30
0.0
 10
89.85297266450198
 20
152.4199098115079
 30
0.0
 10
89.85297266450198
 20
152.4199098115079
 30
0.0
 10
89.85297266450198
 20
152.4199098115079
 30
0.0
 10
90.51270888515164
 20
154.9119212747295
 30
0.0
 10
90.51270888515164
 20
154.9119212747295
 30
0.0
 10
90.51270888515164
 20
154.9119212747295
 30
0.0
 10
93.6904670570955
 20
154.9119212747295
 30
0.0
 10
93.6904670570955
 20
154.9119212747295
 30
0.0
 10
93.6904670570955
 20
154.9119212747295
 30
0.0
 10
94.81598049462158
 20
158.3616699146644
 30
0.0
 10
94.81598049462158
 20
158.3616699146644
 30
0.0
 10
95.7237637538445
 20
161.2605474231013
 30
0.0
 10
96.4968436907311
 20
162.8139420021662
 30
0.0
 10
97.15657991138076
 20
163.9844139654337
 30
0.0
 10
97.81183750494507
 20
165.1523021053827
 30
0.0
 10
99.1047826935081
 20
166.3084769129547
 30
0.0
 10
100.4504378777679
 20
166.69157178364
 30
0.0
  0
HATCH
  5
3C0
330
3BD
100
AcDbEntity
  8
レイヤー 1
 62
   250
420
  2234388
100
AcDbHatch
 10
0.0
 20
0.0
 30
0.0
210
0.0
220
0.0
230
1.0
  2
SOLID
 70
     1
 71
     0
 91
        1
 92
        1
 93
        1
 72
     4
 94
        3
 73
     0
 74
     1
 95
       56
 96
       52
 40
0.0
 40
0.0
 40
0.0
 40
0.0
 40
1.0
 40
1.0
 40
1.0
 40
2.0
 40
2.0
 40
2.0
 40
3.0
 40
3.0
 40
3.0
 40
4.0
 40
4.0
 40
4.0
 40
5.0
 40
5.0
 40
5.0
 40
6.0
 40
6.0
 40
6.0
 40
7.0
 40
7.0
 40
7.0
 40
8.0
 40
8.0
 40
8.0
 40
9.0
 40
9.0
 40
9.0
 40
10.0
 40
10.0
 40
10.0
 40
11.0
 40
11.0
 40
11.0
 40
12.0
 40
12.0
 40
12.0
 40
13.0
 40
13.0
 40
13.0
 40
14.0
 40
14.0
 40
14.0
 40
15.0
 40
15.0
 40
15.0
 40
16.0
 40
16.0
 40
16.0
 40
17.0
 40
17.0
 40
17.0
 40
17.0
 10
100.4504378777679
 20
166.69157178364
 10
101.9848844191641
 20
167.1313385124438
 10
103.9637485713373
 20
166.7649523658846
 10
103.9637485713373
 20
166.7649523658846
 10
103.9637485713373
 20
166.7649523658846
 10
103.0132460999156
 20
163.911205638077
 10
103.0132460999156
 20
163.911205638077
 10
103.0132460999156
 20
163.911205638077
 10
101.0674548862189
 20
164.3601018759394
 10
99.57090442016032
 20
163.1805004036133
 10
98.40508333886608
 20
162.258247733807
 10
97.65301849830304
 20
159.804132345923
 10
97.3598406791005
 20
158.8699940888517
 10
97.3598406791005
 20
158.8699940888517
 10
96.07137411762282
 20
154.9119212747295
 10
96.07137411762282
 20
154.9119212747295
 10
96.07137411762282
 20
154.9119212747295
 10
100.3012651448482
 20
154.9119212747295
 10
100.3012651448482
 20
154.9119212747295
 10
100.3012651448482
 20
154.9119212747295
 10
99.64152892419852
 20
152.4199098115079
 10
99.64152892419852
 20
152.4199098115079
 10
99.64152892419852
 20
152.4199098115079
 10
95.38097652692731
 20
152.4199098115079
 10
95.38097652692731
 20
152.4199098115079
 10
95.38097652692731
 20
152.4199098115079
 10
87.75353009080013
 20
127.8027915271048
 10
87.75353009080013
 20
127.8027915271048
 10
87.75353009080013
 20
127.8027915271048
 10
85.36538832498108
 20
127.8027915271048
 10
85.36538832498108
 20
127.8027915271048
 10
85.36538832498108
 20
127.8027915271048
 10
93.00006946639998
 20
152.4199098115079
 10
93.00006946639998
 20
152.4199098115079
 10
93.00006946639998
 20
152.4199098115079
 10
89.85297266450198
 20
152.4199098115079
 10
89.85297266450198
 20
152.4199098115079
 10
89.85297266450198
 20
152.4199098115079
 10
90.51270888515164
 20
154.9119212747295
 10
90.51270888515164
 20
154.9119212747295
 10
90.51270888515164
 20
154.9119212747295
 10
93.6904670570955
 20
154.9119212747295
 10
93.6904670570955
 20
154.9119212747295
 10
93.6904670570955
 20
154.9119212747295
 10
94.81598049462158
 20
158.3616699146644
 10
94.81598049462158
 20
158.3616699146644
 10
95.7237637538445
 20
161.2605474231013
 10
96.4968436907311
 20
162.8139420021662
 10
97.15657991138076
 20
163.9844139654337
 10
97.81183750494507
 20
165.1523021053827
 10
99.1047826935081
 20
166.3084769129547
 10
100.4504378777679
 20
166.69157178364
 97
        0
 75
     2
 76
     1
 98
        0
  0
SPLINE
  5
3C1
330
3BD
100
AcDbEntity
  8
レイヤー 1
370
     0
100
AcDbSpline
210
0.0
220
0.0
230
1.0
 70
    11
 71
     3
 72
    38
 73
    34
 74
     0
 42
0.000000001
 43
0.0000000001
 40
0.0
 40
0.0
 40
0.0
 40
0.0
 40
1.0
 40
1.0
 40
1.0
 40
2.0
 40
2.0
 40
2.0
 40
3.0
 40
3.0
 40
3.0
 40
4.0
 40
4.0
 40
4.0
 40
5.0
 40
5.0
 40
5.0
 40
6.0
 40
6.0
 40
6.0
 40
7.0
 40
7.0
 40
7.0
 40
8.0
 40
8.0
 40
8.0
 40
9.0
 40
9.0
 40
9.0
 40
10.0
 40
10.0
 40
10.0
 40
11.0
 40
11.0
 40
11.0
 40
11.0
 10
126.377554584636
 20
154.8151140277308
 30
0.0
 10
126.377554584636
 20
154.8151140277308
 30
0.0
 10
128.8311532078563
 20
154.8151140277308
 30
0.0
 10
128.8311532078563
 20
154.8151140277308
 30
0.0
 10
128.8311532078563
 20
154.8151140277308
 30
0.0
 10
127.7345785914971
 20
151.3062819612468
 30
0.0
 10
127.7345785914971
 20
151.3062819612468
 30
0.0
 10
128.571392836906
 20
152.2922689395754
 30
0.0
 10
129.8860421413442
 20
153.604506675583
 30
0.0
 10
131.0163787157314
 20
154.2664822097754
 30
0.0
 10
132.7044766171327
 20
155.2500576196734
 30
0.0
 10
133.6642808525008
 20
155.3847609420097
 30
0.0
 10
134.7284715499351
 20
155.3565111403944
 30
0.0
 10
134.7284715499351
 20
155.3565111403944
 30
0.0
 10
133.6877075172549
 20
152.0345756272799
 30
0.0
 10
133.6877075172549
 20
152.0345756272799
 30
0.0
 10
133.011434827367
 20
152.3184516825359
 30
0.0
 10
130.930940291334
 20
151.7768823149844
 30
0.0
 10
129.739280976855
 20
150.9162968950455
 30
0.0
 10
128.66613302525
 20
150.1454562717016
 30
0.0
 10
127.9192358313239
 20
149.4857200510519
 30
0.0
 10
127.0393578639405
 20
147.8282835196966
 30
0.0
 10
126.164647543194
 20
146.1699857139017
 30
0.0
 10
125.4742499524985
 20
143.5262176944419
 30
0.0
 10
124.2822461282437
 20
139.6959580071401
 30
0.0
 10
124.2822461282437
 20
139.6959580071401
 30
0.0
 10
120.5753209406769
 20
127.8027915271048
 30
0.0
 10
120.5753209406769
 20
127.8027915271048
 30
0.0
 10
120.5753209406769
 20
127.8027915271048
 30
0.0
 10
118.1964809388044
 20
127.8027915271048
 30
0.0
 10
118.1964809388044
 20
127.8027915271048
 30
0.0
 10
118.1964809388044
 20
127.8027915271048
 30
0.0
 10
126.377554584636
 20
154.8151140277308
 30
0.0
 10
126.377554584636
 20
154.8151140277308
 30
0.0
  0
HATCH
  5
3C2
330
3BD
100
AcDbEntity
  8
レイヤー 1
 62
   250
420
  2234388
100
AcDbHatch
 10
0.0
 20
0.0
 30
0.0
210
0.0
220
0.0
230
1.0
  2
SOLID
 70
     1
 71
     0
 91
        1
 92
        1
 93
        1
 72
     4
 94
        3
 73
     0
 74
     1
 95
       38
 96
       34
 40
0.0
 40
0.0
 40
0.0
 40
0.0
 40
1.0
 40
1.0
 40
1.0
 40
2.0
 40
2.0
 40
2.0
 40
3.0
 40
3.0
 40
3.0
 40
4.0
 40
4.0
 40
4.0
 40
5.0
 40
5.0
 40
5.0
 40
6.0
 40
6.0
 40
6.0
 40
7.0
 40
7.0
 40
7.0
 40
8.0
 40
8.0
 40
8.0
 40
9.0
 40
9.0
 40
9.0
 40
10.0
 40
10.0
 40
10.0
 40
11.0
 40
11.0
 40
11.0
 40
11.0
 10
126.377554584636
 20
154.8151140277308
 10
126.377554584636
 20
154.8151140277308
 10
128.8311532078563
 20
154.8151140277308
 10
128.8311532078563
 20
154.8151140277308
 10
128.8311532078563
 20
154.8151140277308
 10
127.7345785914971
 20
151.3062819612468
 10
127.7345785914971
 20
151.3062819612468
 10
128.571392836906
 20
152.2922689395754
 10
129.8860421413442
 20
153.604506675583
 10
131.0163787157314
 20
154.2664822097754
 10
132.7044766171327
 20
155.2500576196734
 10
133.6642808525008
 20
155.3847609420097
 10
134.7284715499351
 20
155.3565111403944
 10
134.7284715499351
 20
155.3565111403944
 10
133.6877075172549
 20
152.0345756272799
 10
133.6877075172549
 20
152.0345756272799
 10
133.011434827367
 20
152.3184516825359
 10
130.930940291334
 20
151.7768823149844
 10
129.739280976855
 20
150.9162968950455
 10
128.66613302525
 20
150.1454562717016
 10
127.9192358313239
 20
149.4857200510519
 10
127.0393578639405
 20
147.8282835196966
 10
126.164647543194
 20
146.1699857139017
 10
125.4742499524985
 20
143.5262176944419
 10
124.2822461282437
 20
139.6959580071401
 10
124.2822461282437
 20
139.6959580071401
 10
120.5753209406769
 20
127.8027915271048
 10
120.5753209406769
 20
127.8027915271048
 10
120.5753209406769
 20
127.8027915271048
 10
118.1964809388044
 20
127.8027915271048
 10
118.1964809388044
 20
127.8027915271048
 10
118.1964809388044
 20
127.8027915271048
 10
126.377554584636
 20
154.8151140277308
 10
126.377554584636
 20
154.8151140277308
 97
        0
 75
     2
 76
     1
 98
        0
  0
SPLINE
  5
3C3
330
3BD
100
AcDbEntity
  8
レイヤー 1
370
     0
100
AcDbSpline
210
0.0
220
0.0
230
1.0
 70
    11
 71
     3
 72
   104
 73
   100
 74
     0
 42
0.000000001
 43
0.0000000001
 40
0.0
 40
0.0
 40
0.0
 40
0.0
 40
1.0
 40
1.0
 40
1.0
 40
2.0
 40
2.0
 40
2.0
 40
3.0
 40
3.0
 40
3.0
 40
4.0
 40
4.0
 40
4.0
 40
5.0
 40
5.0
 40
5.0
 40
6.0
 40
6.0
 40
6.0
 40
7.0
 40
7.0
 40
7.0
 40
8.0
 40
8.0
 40
8.0
 40
9.0
 40
9.0
 40
9.0
 40
10.0
 40
10.0
 40
10.0
 40
11.0
 40
11.0
 40
11.0
 40
12.0
 40
12.0
 40
12.0
 40
13.0
 40
13.0
 40
13.0
 40
14.0
 40
14.0
 40
14.0
 40
15.0
 40
15.0
 40
15.0
 40
16.0
 40
16.0
 40
16.0
 40
17.0
 40
17.0
 40
17.0
 40
18.0
 40
18.0
 40
18.0
 40
19.0
 40
19.0
 40
19.0
 40
20.0
 40
20.0
 40
20.0
 40
21.0
 40
21.0
 40
21.0
 40
22.0
 40
22.0
 40
22.0
 40
23.0
 40
23.0
 40
23.0
 40
24.0
 40
24.0
 40
24.0
 40
25.0
 40
25.0
 40
25.0
 40
26.0
 40
26.0
 40
26.0
 40
27.0
 40
27.0
 40
27.0
 40
28.0
 40
28.0
 40
28.0
 40
29.0
 40
29.0
 40
29.0
 40
30.0
 40
30.0
 40
30.0
 40
31.0
 40
31.0
 40
31.0
 40
32.0
 40
32.0
 40
32.0
 40
33.0
 40
33.0
 40
33.0
 40
33.0
 10
139.8926730891197
 20
154.8294111834263
 30
0.0
 10
139.8926730891197
 20
154.8294111834263
 30
0.0
 10
142.0344903652445
 20
154.8294111834263
 30
0.0
 10
142.0344903652445
 20
154.8294111834263
 30
0.0
 10
142.0344903652445
 20
154.8294111834263
 30
0.0
 10
140.9516961399171
 20
151.3157559800812
 30
0.0
 10
140.9516961399171
 20
151.3157559800812
 30
0.0
 10
141.8928968473923
 20
152.7887075264977
 30
0.0
 10
142.7341897198865
 20
153.4484437471474
 30
0.0
 10
143.8552245303272
 20
154.2926649527359
 30
0.0
 10
144.9803934580775
 20
155.1296514530327
 30
0.0
 10
146.3139908001845
 20
155.3044901642492
 30
0.0
 10
147.241066606852
 20
155.3044901642492
 30
0.0
 10
148.3855280820469
 20
155.3044901642492
 30
0.0
 10
149.4969166187653
 20
155.0752189084569
 30
0.0
 10
150.0784491203092
 20
153.8172414621372
 30
0.0
 10
150.5228667310863
 20
152.833838307127
 30
0.0
 10
150.5414702589793
 20
152.7201500811143
 30
0.0
 10
150.4140016419347
 20
150.7765981809602
 30
0.0
 10
151.5818897818837
 20
152.7699317437168
 30
0.0
 10
152.4424752018226
 20
153.6256940267945
 30
0.0
 10
153.9038856707499
 20
154.4507949398263
 30
0.0
 10
155.4455669174378
 20
155.3044901642492
 30
0.0
 10
156.339225275853
 20
155.3659851592288
 30
0.0
 10
157.3748216618963
 20
155.2147453676543
 30
0.0
 10
158.911679771723
 20
154.9877134254046
 30
0.0
 10
159.8859534176746
 20
154.4390816074493
 30
0.0
 10
160.3965169054045
 20
152.7816450760939
 30
0.0
 10
160.9070803931344
 20
151.1219692311958
 30
0.0
 10
160.6328506116007
 20
150.2303779314354
 30
0.0
 10
159.9992971339115
 20
147.597634224801
 30
0.0
 10
159.7105979417943
 20
146.4014962832367
 30
0.0
 10
159.2947746424084
 20
144.9400858143094
 30
0.0
 10
158.7463150793409
 20
143.2092687007094
 30
0.0
 10
158.7463150793409
 20
143.2092687007094
 30
0.0
 10
153.9038856707499
 20
127.8027915271048
 30
0.0
 10
153.9038856707499
 20
127.8027915271048
 30
0.0
 10
153.9038856707499
 20
127.8027915271048
 30
0.0
 10
151.3882752878863
 20
127.8027915271048
 30
0.0
 10
151.3882752878863
 20
127.8027915271048
 30
0.0
 10
151.3882752878863
 20
127.8027915271048
 30
0.0
 10
155.6250565106276
 20
141.2751908193897
 30
0.0
 10
155.6250565106276
 20
141.2751908193897
 30
0.0
 10
156.5094131050963
 20
144.0936252951782
 30
0.0
 10
157.109893644309
 20
146.1506931664571
 30
0.0
 10
157.4220195011804
 20
147.4415712963654
 30
0.0
 10
157.8095929989511
 20
149.0530157726519
 30
0.0
 10
157.9656559273867
 20
149.5826995529385
 30
0.0
 10
157.7816877071116
 20
150.7529992613181
 30
0.0
 10
157.6111553680925
 20
151.8430281919372
 30
0.0
 10
157.0582171779396
 20
152.5547853887321
 30
0.0
 10
156.1170164704645
 20
152.5547853887321
 30
0.0
 10
155.1096698860365
 20
152.5547853887321
 30
0.0
 10
154.2962823053817
 20
152.4412694176073
 30
0.0
 10
153.156643967048
 20
151.2945686288697
 30
0.0
 10
152.0170056287143
 20
150.1476955852443
 30
0.0
 10
151.076149431015
 20
148.7930831468137
 30
0.0
 10
150.3337308641742
 20
147.2290087646991
 30
0.0
 10
149.5957909244188
 20
145.6683794803425
 30
0.0
 10
148.8530278478023
 20
143.6822806228776
 30
0.0
 10
148.0964843801539
 20
141.2751908193897
 30
0.0
 10
148.0964843801539
 20
141.2751908193897
 30
0.0
 10
143.8552245303272
 20
127.8027915271048
 30
0.0
 10
143.8552245303272
 20
127.8027915271048
 30
0.0
 10
143.8552245303272
 20
127.8027915271048
 30
0.0
 10
141.486030802177
 20
127.8027915271048
 30
0.0
 10
141.486030802177
 20
127.8027915271048
 30
0.0
 10
141.486030802177
 20
127.8027915271048
 30
0.0
 10
146.3329388378533
 20
143.2092687007094
 30
0.0
 10
146.3329388378533
 20
143.2092687007094
 30
0.0
 10
146.8483254624444
 20
144.8408669988801
 30
0.0
 10
147.2314203331297
 20
146.1837661049335
 30
0.0
 10
147.4867020769946
 20
147.224185627838
 30
0.0
 10
147.9169947869641
 20
149.0197705792876
 30
0.0
 10
148.0306830129768
 20
150.2400242051577
 30
0.0
 10
147.709255392159
 20
151.3157559800812
 30
0.0
 10
147.3874832615654
 20
152.3916600098926
 30
0.0
 10
146.8245542879144
 20
152.6683013598569
 30
0.0
 10
145.8840425999909
 20
152.6683013598569
 30
0.0
 10
145.0989048209514
 20
152.6683013598569
 30
0.0
 10
144.3282364524954
 20
152.3275811915945
 30
0.0
 10
143.4531816219731
 20
151.6538923250251
 30
0.0
 10
142.34627171234
 20
150.8074318058939
 30
0.0
 10
141.901854101563
 20
150.1097995099067
 30
0.0
 10
141.3578731655808
 20
149.289521733736
 30
0.0
 10
140.6299240093235
 20
148.192602607601
 30
0.0
 10
140.2850697237515
 20
147.455696197173
 30
0.0
 10
139.6652966370942
 20
145.8385673095858
 30
0.0
 10
139.0506911970739
 20
144.2214384219986
 30
0.0
 10
138.463991048893
 20
142.3252566160164
 30
0.0
 10
138.0571250036777
 20
141.0154304484394
 30
0.0
 10
138.0571250036777
 20
141.0154304484394
 30
0.0
 10
133.9009590684727
 20
127.8027915271048
 30
0.0
 10
133.9009590684727
 20
127.8027915271048
 30
0.0
 10
133.9009590684727
 20
127.8027915271048
 30
0.0
 10
131.4180771143097
 20
127.8027915271048
 30
0.0
 10
131.4180771143097
 20
127.8027915271048
 30
0.0
 10
131.4180771143097
 20
127.8027915271048
 30
0.0
 10
139.8926730891197
 20
154.8294111834263
 30
0.0
 10
139.8926730891197
 20
154.8294111834263
 30
0.0
  0
HATCH
  5
3C4
330
3BD
100
AcDbEntity
  8
レイヤー 1
 62
   250
420
  2234388
100
AcDbHatch
 10
0.0
 20
0.0
 30
0.0
210
0.0
220
0.0
230
1.0
  2
SOLID
 70
     1
 71
     0
 91
        1
 92
        1
 93
        1
 72
     4
 94
        3
 73
     0
 74
     1
 95
      104
 96
      100
 40
0.0
 40
0.0
 40
0.0
 40
0.0
 40
1.0
 40
1.0
 40
1.0
 40
2.0
 40
2.0
 40
2.0
 40
3.0
 40
3.0
 40
3.0
 40
4.0
 40
4.0
 40
4.0
 40
5.0
 40
5.0
 40
5.0
 40
6.0
 40
6.0
 40
6.0
 40
7.0
 40
7.0
 40
7.0
 40
8.0
 40
8.0
 40
8.0
 40
9.0
 40
9.0
 40
9.0
 40
10.0
 40
10.0
 40
10.0
 40
11.0
 40
11.0
 40
11.0
 40
12.0
 40
12.0
 40
12.0
 40
13.0
 40
13.0
 40
13.0
 40
14.0
 40
14.0
 40
14.0
 40
15.0
 40
15.0
 40
15.0
 40
16.0
 40
16.0
 40
16.0
 40
17.0
 40
17.0
 40
17.0
 40
18.0
 40
18.0
 40
18.0
 40
19.0
 40
19.0
 40
19.0
 40
20.0
 40
20.0
 40
20.0
 40
21.0
 40
21.0
 40
21.0
 40
22.0
 40
22.0
 40
22.0
 40
23.0
 40
23.0
 40
23.0
 40
24.0
 40
24.0
 40
24.0
 40
25.0
 40
25.0
 40
25.0
 40
26.0
 40
26.0
 40
26.0
 40
27.0
 40
27.0
 40
27.0
 40
28.0
 40
28.0
 40
28.0
 40
29.0
 40
29.0
 40
29.0
 40
30.0
 40
30.0
 40
30.0
 40
31.0
 40
31.0
 40
31.0
 40
32.0
 40
32.0
 40
32.0
 40
33.0
 40
33.0
 40
33.0
 40
33.0
 10
139.8926730891197
 20
154.8294111834263
 10
139.8926730891197
 20
154.8294111834263
 10
142.0344903652445
 20
154.8294111834263
 10
142.0344903652445
 20
154.8294111834263
 10
142.0344903652445
 20
154.8294111834263
 10
140.9516961399171
 20
151.3157559800812
 10
140.9516961399171
 20
151.3157559800812
 10
141.8928968473923
 20
152.7887075264977
 10
142.7341897198865
 20
153.4484437471474
 10
143.8552245303272
 20
154.2926649527359
 10
144.9803934580775
 20
155.1296514530327
 10
146.3139908001845
 20
155.3044901642492
 10
147.241066606852
 20
155.3044901642492
 10
148.3855280820469
 20
155.3044901642492
 10
149.4969166187653
 20
155.0752189084569
 10
150.0784491203092
 20
153.8172414621372
 10
150.5228667310863
 20
152.833838307127
 10
150.5414702589793
 20
152.7201500811143
 10
150.4140016419347
 20
150.7765981809602
 10
151.5818897818837
 20
152.7699317437168
 10
152.4424752018226
 20
153.6256940267945
 10
153.9038856707499
 20
154.4507949398263
 10
155.4455669174378
 20
155.3044901642492
 10
156.339225275853
 20
155.3659851592288
 10
157.3748216618963
 20
155.2147453676543
 10
158.911679771723
 20
154.9877134254046
 10
159.8859534176746
 20
154.4390816074493
 10
160.3965169054045
 20
152.7816450760939
 10
160.9070803931344
 20
151.1219692311958
 10
160.6328506116007
 20
150.2303779314354
 10
159.9992971339115
 20
147.597634224801
 10
159.7105979417943
 20
146.4014962832367
 10
159.2947746424084
 20
144.9400858143094
 10
158.7463150793409
 20
143.2092687007094
 10
158.7463150793409
 20
143.2092687007094
 10
153.9038856707499
 20
127.8027915271048
 10
153.9038856707499
 20
127.8027915271048
 10
153.9038856707499
 20
127.8027915271048
 10
151.3882752878863
 20
127.8027915271048
 10
151.3882752878863
 20
127.8027915271048
 10
151.3882752878863
 20
127.8027915271048
 10
155.6250565106276
 20
141.2751908193897
 10
155.6250565106276
 20
141.2751908193897
 10
156.5094131050963
 20
144.0936252951782
 10
157.109893644309
 20
146.1506931664571
 10
157.4220195011804
 20
147.4415712963654
 10
157.8095929989511
 20
149.0530157726519
 10
157.9656559273867
 20
149.5826995529385
 10
157.7816877071116
 20
150.7529992613181
 10
157.6111553680925
 20
151.8430281919372
 10
157.0582171779396
 20
152.5547853887321
 10
156.1170164704645
 20
152.5547853887321
 10
155.1096698860365
 20
152.5547853887321
 10
154.2962823053817
 20
152.4412694176073
 10
153.156643967048
 20
151.2945686288697
 10
152.0170056287143
 20
150.1476955852443
 10
151.076149431015
 20
148.7930831468137
 10
150.3337308641742
 20
147.2290087646991
 10
149.5957909244188
 20
145.6683794803425
 10
148.8530278478023
 20
143.6822806228776
 10
148.0964843801539
 20
141.2751908193897
 10
148.0964843801539
 20
141.2751908193897
 10
143.8552245303272
 20
127.8027915271048
 10
143.8552245303272
 20
127.8027915271048
 10
143.8552245303272
 20
127.8027915271048
 10
141.486030802177
 20
127.8027915271048
 10
141.486030802177
 20
127.8027915271048
 10
141.486030802177
 20
127.8027915271048
 10
146.3329388378533
 20
143.2092687007094
 10
146.3329388378533
 20
143.2092687007094
 10
146.8483254624444
 20
144.8408669988801
 10
147.2314203331297
 20
146.1837661049335
 10
147.4867020769946
 20
147.224185627838
 10
147.9169947869641
 20
149.0197705792876
 10
148.0306830129768
 20
150.2400242051577
 10
147.709255392159
 20
151.3157559800812
 10
147.3874832615654
 20
152.3916600098926
 10
146.8245542879144
 20
152.6683013598569
 10
145.8840425999909
 20
152.6683013598569
 10
145.0989048209514
 20
152.6683013598569
 10
144.3282364524954
 20
152.3275811915945
 10
143.4531816219731
 20
151.6538923250251
 10
142.34627171234
 20
150.8074318058939
 10
141.901854101563
 20
150.1097995099067
 10
141.3578731655808
 20
149.289521733736
 10
140.6299240093235
 20
148.192602607601
 10
140.2850697237515
 20
147.455696197173
 10
139.6652966370942
 20
145.8385673095858
 10
139.0506911970739
 20
144.2214384219986
 10
138.463991048893
 20
142.3252566160164
 10
138.0571250036777
 20
141.0154304484394
 10
138.0571250036777
 20
141.0154304484394
 10
133.9009590684727
 20
127.8027915271048
 10
133.9009590684727
 20
127.8027915271048
 10
133.9009590684727
 20
127.8027915271048
 10
131.4180771143097
 20
127.8027915271048
 10
131.4180771143097
 20
127.8027915271048
 10
131.4180771143097
 20
127.8027915271048
 10
139.8926730891197
 20
154.8294111834263
 10
139.8926730891197
 20
154.8294111834263
 97
        0
 75
     2
 76
     1
 98
        0
  0
SPLINE
  5
3C5
330
3BD
100
AcDbEntity
  8
レイヤー 1
370
     0
100
AcDbSpline
210
0.0
220
0.0
230
1.0
 70
    11
 71
     3
 72
    29
 73
    25
 74
     0
 42
0.000000001
 43
0.0000000001
 40
0.0
 40
0.0
 40
0.0
 40
0.0
 40
1.0
 40
1.0
 40
1.0
 40
2.0
 40
2.0
 40
2.0
 40
3.0
 40
3.0
 40
3.0
 40
4.0
 40
4.0
 40
4.0
 40
5.0
 40
5.0
 40
5.0
 40
6.0
 40
6.0
 40
6.0
 40
7.0
 40
7.0
 40
7.0
 40
8.0
 40
8.0
 40
8.0
 40
8.0
 10
101.6420971922469
 20
132.8388354296931
 30
0.0
 10
101.630039350094
 20
134.7164137077823
 30
0.0
 10
102.2236296937908
 20
138.0598810818841
 30
0.0
 10
103.7487744712405
 20
142.5378191476827
 30
0.0
 10
105.819967243327
 20
148.5896501242061
 30
0.0
 10
107.0602024361932
 20
150.8074318058939
 30
0.0
 10
108.1522984254671
 20
151.8833358357054
 30
0.0
 10
109.741177511439
 20
153.4532668840085
 30
0.0
 10
111.8740375333931
 20
153.5290590346837
 30
0.0
 10
112.5075910110823
 20
153.4532668840085
 30
0.0
 10
113.4012493694975
 20
153.3490526768302
 30
0.0
 10
114.6683563248758
 20
152.7580461564518
 30
0.0
 10
114.7493161221879
 20
150.7838328862519
 30
0.0
 10
114.8106388622796
 20
149.0909118479895
 30
0.0
 10
114.3186789024427
 20
145.9191825971221
 30
0.0
 10
112.6164561002338
 20
140.9489400617108
 30
0.0
 10
110.6444821435766
 20
135.1746117095912
 30
0.0
 10
109.4669477299053
 20
132.8960240524753
 30
0.0
 10
108.5212683953448
 20
131.9072809959403
 30
0.0
 10
106.7346406980658
 20
130.0538184021569
 30
0.0
 10
104.8222669326213
 20
130.2336525051225
 30
0.0
 10
104.5408024457958
 20
130.2336525051225
 30
0.0
 10
104.1721769856939
 20
130.2336525051225
 30
0.0
 10
101.6465758193322
 20
130.6305277668397
 30
0.0
 10
101.6420971922469
 20
132.8388354296931
 30
0.0
  0
SPLINE
  5
3C6
330
3BD
100
AcDbEntity
  8
レイヤー 1
370
     0
100
AcDbSpline
210
0.0
220
0.0
230
1.0
 70
    11
 71
     3
 72
    32
 73
    28
 74
     0
 42
0.000000001
 43
0.0000000001
 40
0.0
 40
0.0
 40
0.0
 40
0.0
 40
1.0
 40
1.0
 40
1.0
 40
2.0
 40
2.0
 40
2.0
 40
3.0
 40
3.0
 40
3.0
 40
4.0
 40
4.0
 40
4.0
 40
5.0
 40
5.0
 40
5.0
 40
6.0
 40
6.0
 40
6.0
 40
7.0
 40
7.0
 40
7.0
 40
8.0
 40
8.0
 40
8.0
 40
9.0
 40
9.0
 40
9.0
 40
9.0
 10
106.2595617172429
 20
153.4105476718098
 30
0.0
 10
104.8222669326213
 20
151.5474388043041
 30
0.0
 10
103.7177685914188
 20
149.8758773721411
 30
0.0
 10
101.9232171692965
 20
144.6141795664062
 30
0.0
 10
100.2754269116635
 20
139.7999999594306
 30
0.0
 10
99.22777268346732
 20
136.3052927937542
 30
0.0
 10
99.06964269637689
 20
132.039572749846
 30
0.0
 10
98.94665270641765
 20
128.8673267343149
 30
0.0
 10
100.8807305877373
 20
127.8027915271048
 30
0.0
 10
103.7129454545577
 20
127.8027915271048
 30
0.0
 10
104.9352661390825
 20
127.8027915271048
 30
0.0
 10
108.0151835347002
 20
127.8827177950895
 30
0.0
 10
110.2045431598849
 20
130.5926316915021
 30
0.0
 10
111.7417457794874
 20
132.4984597712065
 30
0.0
 10
113.155269389579
 20
134.475256864725
 30
0.0
 10
115.0562743324223
 20
140.9489400617108
 30
0.0
 10
116.6361961642235
 20
146.3680788349845
 30
0.0
 10
117.7282921534974
 20
149.8639917848761
 30
0.0
 10
117.6480213757369
 20
151.8595646611754
 30
0.0
 10
117.6480213757369
 20
151.8595646611754
 30
0.0
 10
117.6480213757369
 20
151.8595646611754
 30
0.0
 10
117.6480213757369
 20
151.8595646611754
 30
0.0
 10
117.13229024137
 20
155.18150017429
 30
0.0
 10
114.7162431837115
 20
155.886194920681
 30
0.0
 10
113.3351034925446
 20
155.886194920681
 30
0.0
 10
111.9829026225447
 20
155.886194920681
 30
0.0
 10
108.3414342923792
 20
156.1251124501957
 30
0.0
 10
106.2595617172429
 20
153.4105476718098
 30
0.0
  0
HATCH
  5
3C7
330
3BD
100
AcDbEntity
  8
レイヤー 1
 62
   250
420
  2234388
100
AcDbHatch
 10
0.0
 20
0.0
 30
0.0
210
0.0
220
0.0
230
1.0
  2
SOLID
 70
     1
 71
     0
 91
        2
 92
        1
 93
        1
 72
     4
 94
        3
 73
     0
 74
     1
 95
       29
 96
       25
 40
0.0
 40
0.0
 40
0.0
 40
0.0
 40
1.0
 40
1.0
 40
1.0
 40
2.0
 40
2.0
 40
2.0
 40
3.0
 40
3.0
 40
3.0
 40
4.0
 40
4.0
 40
4.0
 40
5.0
 40
5.0
 40
5.0
 40
6.0
 40
6.0
 40
6.0
 40
7.0
 40
7.0
 40
7.0
 40
8.0
 40
8.0
 40
8.0
 40
8.0
 10
101.6420971922469
 20
132.8388354296931
 10
101.630039350094
 20
134.7164137077823
 10
102.2236296937908
 20
138.0598810818841
 10
103.7487744712405
 20
142.5378191476827
 10
105.819967243327
 20
148.5896501242061
 10
107.0602024361932
 20
150.8074318058939
 10
108.1522984254671
 20
151.8833358357054
 10
109.741177511439
 20
153.4532668840085
 10
111.8740375333931
 20
153.5290590346837
 10
112.5075910110823
 20
153.4532668840085
 10
113.4012493694975
 20
153.3490526768302
 10
114.6683563248758
 20
152.7580461564518
 10
114.7493161221879
 20
150.7838328862519
 10
114.8106388622796
 20
149.0909118479895
 10
114.3186789024427
 20
145.9191825971221
 10
112.6164561002338
 20
140.9489400617108
 10
110.6444821435766
 20
135.1746117095912
 10
109.4669477299053
 20
132.8960240524753
 10
108.5212683953448
 20
131.9072809959403
 10
106.7346406980658
 20
130.0538184021569
 10
104.8222669326213
 20
130.2336525051225
 10
104.5408024457958
 20
130.2336525051225
 10
104.1721769856939
 20
130.2336525051225
 10
101.6465758193322
 20
130.6305277668397
 10
101.6420971922469
 20
132.8388354296931
 97
        0
 92
        1
 93
        1
 72
     4
 94
        3
 73
     0
 74
     1
 95
       32
 96
       28
 40
0.0
 40
0.0
 40
0.0
 40
0.0
 40
1.0
 40
1.0
 40
1.0
 40
2.0
 40
2.0
 40
2.0
 40
3.0
 40
3.0
 40
3.0
 40
4.0
 40
4.0
 40
4.0
 40
5.0
 40
5.0
 40
5.0
 40
6.0
 40
6.0
 40
6.0
 40
7.0
 40
7.0
 40
7.0
 40
8.0
 40
8.0
 40
8.0
 40
9.0
 40
9.0
 40
9.0
 40
9.0
 10
106.2595617172429
 20
153.4105476718098
 10
104.8222669326213
 20
151.5474388043041
 10
103.7177685914188
 20
149.8758773721411
 10
101.9232171692965
 20
144.6141795664062
 10
100.2754269116635
 20
139.7999999594306
 10
99.22777268346732
 20
136.3052927937542
 10
99.06964269637689
 20
132.039572749846
 10
98.94665270641765
 20
128.8673267343149
 10
100.8807305877373
 20
127.8027915271048
 10
103.7129454545577
 20
127.8027915271048
 10
104.9352661390825
 20
127.8027915271048
 10
108.0151835347002
 20
127.8827177950895
 10
110.2045431598849
 20
130.5926316915021
 10
111.7417457794874
 20
132.4984597712065
 10
113.155269389579
 20
134.475256864725
 10
115.0562743324223
 20
140.9489400617108
 10
116.6361961642235
 20
146.3680788349845
 10
117.7282921534974
 20
149.8639917848761
 10
117.6480213757369
 20
151.8595646611754
 10
117.6480213757369
 20
151.8595646611754
 10
117.6480213757369
 20
151.8595646611754
 10
117.6480213757369
 20
151.8595646611754
 10
117.13229024137
 20
155.18150017429
 10
114.7162431837115
 20
155.886194920681
 10
113.3351034925446
 20
155.886194920681
 10
111.9829026225447
 20
155.886194920681
 10
108.3414342923792
 20
156.1251124501957
 10
106.2595617172429
 20
153.4105476718098
 97
        0
 75
     2
 76
     1
 98
        0
  0
ENDBLK
  5
3C8
330
3BD
100
AcDbEntity
  8
0
100
AcDbBlockEnd
  0
BLOCK
  5
11F1
330
11F0
100
AcDbEntity
  8
0
100
AcDbBlockBegin
  2
BLOCK_2
 70
     0
 10
0.0
 20
0.0
 30
0.0
  3
BLOCK_2
  1
BLOCK_2
  0
ENDBLK
  5
11F2
330
11F0
100
AcDbEntity
  8
0
100
AcDbBlockEnd
  0
BLOCK
  5
38B7
330
38B6
100
AcDbEntity
  8
0
100
AcDbBlockBegin
  2
mobile_latù
 70
     0
 10
0.0
 20
0.0
 30
0.0
  3
mobile_latù
  1
mobile_latù
  0
ENDBLK
  5
38B8
330
38B6
100
AcDbEntity
  8
0
100
AcDbBlockEnd
  0
BLOCK
  5
4FF9
330
4FF8
100
AcDbEntity
  8
0
100
AcDbBlockBegin
  2
*D8
 70
     1
 10
0.0
 20
0.0
 30
0.0
  3
*D8
  1
*D26
  0
LINE
  5
4FFB
330
4FF8
100
AcDbEntity
  8
Dim
 62
     0
370
    -2
100
AcDbLine
 10
1018.775732351491
 20
1537.191964660655
 30
0.0
 11
1089.192180018747
 21
1537.191964660655
 31
0.0
  0
LINE
  5
4FFC
330
4FF8
100
AcDbEntity
  8
Dim
 62
     0
370
    -2
100
AcDbLine
 10
998.7757323514908
 20
1437.191964660655
 30
0.0
 11
1089.192180018747
 21
1437.191964660655
 31
0.0
  0
LINE
  5
4FFD
330
4FF8
100
AcDbEntity
  8
Dim
 62
     0
370
    -2
100
AcDbLine
 10
1089.192180018747
 20
1527.192575012218
 30
0.0
 11
1089.192180018747
 21
1447.191354309093
 31
0.0
  0
INSERT
  5
4FFE
330
4FF8
100
AcDbEntity
  8
Dim
 62
     0
370
    -2
100
AcDbBlockReference
  2
_DOT
 10
1089.192180018747
 20
1537.191964660655
 30
0.0
 41
9.999389648437498
 42
9.999389648437498
 43
9.999389648437498
 50
90.0
  0
INSERT
  5
4FFF
330
4FF8
100
AcDbEntity
  8
Dim
 62
     0
370
    -2
100
AcDbBlockReference
  2
_DOT
 10
1089.192180018747
 20
1437.191964660655
 30
0.0
 41
9.999389648437498
 42
9.999389648437498
 43
9.999389648437498
 50
270.0
  0
MTEXT
  5
5000
330
4FF8
100
AcDbEntity
  8
Dim
 62
     0
100
AcDbMText
 10
1066.975871424997
 20
1486.191964660655
 30
0.0
 40
24.4326171875
 41
0.0
 46
0.0
 71
     5
 72
     1
  1
\A1;100
  7
ＭＳ ゴシック
 11
0.0
 21
1.0
 31
0.0
 73
     1
 44
1.0
  0
POINT
  5
5001
330
4FF8
100
AcDbEntity
  8
Defpoints
 62
     0
100
AcDbPoint
 10
993.7757323514908
 20
1537.191964660655
 30
0.0
  0
POINT
  5
5002
330
4FF8
100
AcDbEntity
  8
Defpoints
 62
     0
100
AcDbPoint
 10
973.7757323514908
 20
1437.191964660655
 30
0.0
  0
POINT
  5
5003
330
4FF8
100
AcDbEntity
  8
Defpoints
 62
     0
100
AcDbPoint
 10
1089.192180018747
 20
1437.191964660655
 30
0.0
  0
ENDBLK
  5
4FFA
330
4FF8
100
AcDbEntity
  8
0
100
AcDbBlockEnd
  0
BLOCK
  5
500C
330
500B
100
AcDbEntity
  8
0
100
AcDbBlockBegin
  2
*D9
 70
     1
 10
0.0
 20
0.0
 30
0.0
  3
*D9
  1
*D27
  0
LINE
  5
500E
330
500B
100
AcDbEntity
  8
Dim
 62
     0
370
    -2
100
AcDbLine
 10
993.7757323514908
 20
1562.191964660655
 30
0.0
 11
993.7757323514908
 21
1672.42118731208
 31
0.0
  0
LINE
  5
500F
330
500B
100
AcDbEntity
  8
Dim
 62
     0
370
    -2
100
AcDbLine
 10
973.7757323514908
 20
1562.191964660655
 30
0.0
 11
973.7757323514908
 21
1672.42118731208
 31
0.0
  0
LINE
  5
5010
330
500B
100
AcDbEntity
  8
Dim
 62
     0
370
    -2
100
AcDbLine
 10
993.7757323514908
 20
1672.42118731208
 30
0.0
 11
900.2114896689768
 21
1672.42118731208
 31
0.0
  0
LINE
  5
5011
330
500B
100
AcDbEntity
  8
Dim
 62
     0
370
    -2
100
AcDbLine
 10
983.7763427030533
 20
1672.42118731208
 30
0.0
 11
983.7751219999283
 21
1672.42118731208
 31
0.0
  0
LINE
  5
5012
330
500B
100
AcDbEntity
  8
Dim
 62
     0
370
    -2
100
AcDbLine
 10
983.7751219999283
 20
1672.42118731208
 30
0.0
 11
993.7745116483658
 21
1672.42118731208
 31
0.0
  0
INSERT
  5
5013
330
500B
100
AcDbEntity
  8
Dim
 62
     0
370
    -2
100
AcDbBlockReference
  2
_DOT
 10
993.7757323514908
 20
1672.42118731208
 30
0.0
 41
9.999389648437498
 42
9.999389648437498
 43
9.999389648437498
  0
INSERT
  5
5014
330
500B
100
AcDbEntity
  8
Dim
 62
     0
370
    -2
100
AcDbBlockReference
  2
_DOT
 10
973.7757323514908
 20
1672.42118731208
 30
0.0
 41
9.999389648437498
 42
9.999389648437498
 43
9.999389648437498
 50
180.0
  0
MTEXT
  5
5015
330
500B
100
AcDbEntity
  8
Dim
 62
     0
100
AcDbMText
 10
924.7244642783518
 20
1694.63749590583
 30
0.0
 40
24.4326171875
 41
0.0
 46
0.0
 71
     5
 72
     1
  1
\A1;20
  7
ＭＳ ゴシック
 73
     1
 44
1.0
  0
POINT
  5
5016
330
500B
100
AcDbEntity
  8
Defpoints
 62
     0
100
AcDbPoint
 10
993.7757323514908
 20
1537.191964660655
 30
0.0
  0
POINT
  5
508B
330
500B
100
AcDbEntity
  8
Defpoints
 62
     0
100
AcDbPoint
 10
973.7757323514908
 20
1537.191964660655
 30
0.0
  0
POINT
  5
50CD
330
500B
100
AcDbEntity
  8
Defpoints
 62
     0
100
AcDbPoint
 10
973.7757323514908
 20
1672.42118731208
 30
0.0
  0
ENDBLK
  5
500D
330
500B
100
AcDbEntity
  8
0
100
AcDbBlockEnd
  0
BLOCK
  5
5058
330
5057
100
AcDbEntity
  8
0
100
AcDbBlockBegin
  2
*D10
 70
     1
 10
0.0
 20
0.0
 30
0.0
  3
*D10
  1
*D31
  0
LINE
  5
505A
330
5057
100
AcDbEntity
  8
Dim
 62
     0
370
    -2
100
AcDbLine
 10
1474.040036263704
 20
1559.191964660655
 30
0.0
 11
1474.040036263704
 21
1672.42118731208
 31
0.0
  0
LINE
  5
505B
330
5057
100
AcDbEntity
  8
Dim
 62
     0
370
    -2
100
AcDbLine
 10
1524.040036263704
 20
1559.191964660655
 30
0.0
 11
1524.040036263704
 21
1672.42118731208
 31
0.0
  0
LINE
  5
505C
330
5057
100
AcDbEntity
  8
Dim
 62
     0
370
    -2
100
AcDbLine
 10
1484.039425912142
 20
1672.42118731208
 30
0.0
 11
1514.040646615267
 21
1672.42118731208
 31
0.0
  0
INSERT
  5
505D
330
5057
100
AcDbEntity
  8
Dim
 62
     0
370
    -2
100
AcDbBlockReference
  2
_DOT
 10
1474.040036263704
 20
1672.42118731208
 30
0.0
 41
9.999389648437498
 42
9.999389648437498
 43
9.999389648437498
 50
180.0
  0
INSERT
  5
505E
330
5057
100
AcDbEntity
  8
Dim
 62
     0
370
    -2
100
AcDbBlockReference
  2
_DOT
 10
1524.040036263704
 20
1672.42118731208
 30
0.0
 41
9.999389648437498
 42
9.999389648437498
 43
9.999389648437498
  0
MTEXT
  5
505F
330
5057
100
AcDbEntity
  8
Dim
 62
     0
100
AcDbMText
 10
1499.040036263704
 20
1694.63749590583
 30
0.0
 40
24.4326171875
 41
0.0
 46
0.0
 71
     5
 72
     1
  1
\A1;50
  7
ＭＳ ゴシック
 73
     1
 44
1.0
  0
POINT
  5
5060
330
5057
100
AcDbEntity
  8
Defpoints
 62
     0
100
AcDbPoint
 10
1474.040036263704
 20
1534.191964660655
 30
0.0
  0
POINT
  5
5061
330
5057
100
AcDbEntity
  8
Defpoints
 62
     0
100
AcDbPoint
 10
1524.040036263704
 20
1534.191964660655
 30
0.0
  0
POINT
  5
5062
330
5057
100
AcDbEntity
  8
Defpoints
 62
     0
100
AcDbPoint
 10
1524.040036263704
 20
1672.42118731208
 30
0.0
  0
ENDBLK
  5
5059
330
5057
100
AcDbEntity
  8
0
100
AcDbBlockEnd
  0
BLOCK
  5
5080
330
507F
100
AcDbEntity
  8
0
100
AcDbBlockBegin
  2
*D11
 70
     1
 10
0.0
 20
0.0
 30
0.0
  3
*D11
  1
*D33
  0
LINE
  5
5082
330
507F
100
AcDbEntity
  8
Dim
 62
     0
370
    -2
100
AcDbLine
 10
993.7757323514908
 20
1429.317205371051
 30
0.0
 11
993.7757323514909
 21
1308.597093863823
 31
0.0
  0
LINE
  5
5083
330
507F
100
AcDbEntity
  8
Dim
 62
     0
370
    -2
100
AcDbLine
 10
453.7757323514908
 20
1432.191964660655
 30
0.0
 11
453.7757323514908
 21
1308.597093863823
 31
0.0
  0
LINE
  5
5084
330
507F
100
AcDbEntity
  8
Dim
 62
     0
370
    -2
100
AcDbLine
 10
983.7763427030534
 20
1308.597093863823
 30
0.0
 11
463.7751219999283
 21
1308.597093863823
 31
0.0
  0
INSERT
  5
5085
330
507F
100
AcDbEntity
  8
Dim
 62
     0
370
    -2
100
AcDbBlockReference
  2
_DOT
 10
993.7757323514909
 20
1308.597093863823
 30
0.0
 41
9.999389648437498
 42
9.999389648437498
 43
9.999389648437498
  0
INSERT
  5
5086
330
507F
100
AcDbEntity
  8
Dim
 62
     0
370
    -2
100
AcDbBlockReference
  2
_DOT
 10
453.7757323514908
 20
1308.597093863823
 30
0.0
 41
9.999389648437498
 42
9.999389648437498
 43
9.999389648437498
 50
180.0
  0
MTEXT
  5
5087
330
507F
100
AcDbEntity
  8
Dim
 62
     0
100
AcDbMText
 10
723.7757323514909
 20
1330.813402457573
 30
0.0
 40
24.4326171875
 41
0.0
 46
0.0
 71
     5
 72
     1
  1
\A1;540
  7
ＭＳ ゴシック
 73
     1
 44
1.0
  0
POINT
  5
5088
330
507F
100
AcDbEntity
  8
Defpoints
 62
     0
100
AcDbPoint
 10
993.7757323514908
 20
1454.317205371051
 30
0.0
  0
POINT
  5
5089
330
507F
100
AcDbEntity
  8
Defpoints
 62
     0
100
AcDbPoint
 10
453.7757323514908
 20
1457.191964660655
 30
0.0
  0
POINT
  5
508A
330
507F
100
AcDbEntity
  8
Defpoints
 62
     0
100
AcDbPoint
 10
453.7757323514908
 20
1308.597093863823
 30
0.0
  0
ENDBLK
  5
5081
330
507F
100
AcDbEntity
  8
0
100
AcDbBlockEnd
  0
BLOCK
  5
50A3
330
50A2
100
AcDbEntity
  8
0
100
AcDbBlockBegin
  2
*D12
 70
     1
 10
0.0
 20
0.0
 30
0.0
  3
*D12
  1
*D34
  0
LINE
  5
50A5
330
50A2
100
AcDbEntity
  8
Dim
 62
     0
370
    -2
100
AcDbLine
 10
1474.040036263704
 20
1422.191964660655
 30
0.0
 11
1474.040036263704
 21
1308.597093863823
 31
0.0
  0
LINE
  5
50A6
330
50A2
100
AcDbEntity
  8
Dim
 62
     0
370
    -2
100
AcDbLine
 10
1494.040036263704
 20
1422.191964660655
 30
0.0
 11
1494.040036263704
 21
1308.597093863823
 31
0.0
  0
LINE
  5
50A7
330
50A2
100
AcDbEntity
  8
Dim
 62
     0
370
    -2
100
AcDbLine
 10
1474.040036263704
 20
1308.597093863823
 30
0.0
 11
1563.064764779329
 21
1308.597093863823
 31
0.0
  0
LINE
  5
50A8
330
50A2
100
AcDbEntity
  8
Dim
 62
     0
370
    -2
100
AcDbLine
 10
1484.039425912141
 20
1308.597093863823
 30
0.0
 11
1484.040646615266
 21
1308.597093863823
 31
0.0
  0
LINE
  5
50A9
330
50A2
100
AcDbEntity
  8
Dim
 62
     0
370
    -2
100
AcDbLine
 10
1484.040646615266
 20
1308.597093863823
 30
0.0
 11
1474.041256966829
 21
1308.597093863823
 31
0.0
  0
INSERT
  5
50AA
330
50A2
100
AcDbEntity
  8
Dim
 62
     0
370
    -2
100
AcDbBlockReference
  2
_DOT
 10
1474.040036263704
 20
1308.597093863823
 30
0.0
 41
9.999389648437498
 42
9.999389648437498
 43
9.999389648437498
 50
180.0
  0
INSERT
  5
50AB
330
50A2
100
AcDbEntity
  8
Dim
 62
     0
370
    -2
100
AcDbBlockReference
  2
_DOT
 10
1494.040036263704
 20
1308.597093863823
 30
0.0
 41
9.999389648437498
 42
9.999389648437498
 43
9.999389648437498
  0
MTEXT
  5
50AC
330
50A2
100
AcDbEntity
  8
Dim
 62
     0
100
AcDbMText
 10
1538.551790169954
 20
1330.813402457573
 30
0.0
 40
24.4326171875
 41
0.0
 46
0.0
 71
     5
 72
     1
  1
\A1;20
  7
ＭＳ ゴシック
 73
     1
 44
1.0
  0
POINT
  5
50AD
330
50A2
100
AcDbEntity
  8
Defpoints
 62
     0
100
AcDbPoint
 10
1474.040036263704
 20
1447.191964660655
 30
0.0
  0
POINT
  5
50AE
330
50A2
100
AcDbEntity
  8
Defpoints
 62
     0
100
AcDbPoint
 10
1494.040036263704
 20
1447.191964660655
 30
0.0
  0
POINT
  5
50CC
330
50A2
100
AcDbEntity
  8
Defpoints
 62
     0
100
AcDbPoint
 10
1494.040036263704
 20
1308.597093863823
 30
0.0
  0
ENDBLK
  5
50A4
330
50A2
100
AcDbEntity
  8
0
100
AcDbBlockEnd
  0
BLOCK
  5
50D0
330
50CF
100
AcDbEntity
  8
0
100
AcDbBlockBegin
  2
*D13
 70
     1
 10
0.0
 20
0.0
 30
0.0
  3
*D13
  1

  0
LINE
  5
50D2
330
50CF
100
AcDbEntity
  8
Dim
 62
     0
370
    -2
100
AcDbLine
 10
253.7757323514907
 20
1562.191964660655
 30
0.0
 11
253.7757323514907
 21
1681.644763400095
 31
0.0
  0
LINE
  5
50D3
330
50CF
100
AcDbEntity
  8
Dim
 62
     0
370
    -2
100
AcDbLine
 10
791.2646409997852
 20
1614.208049481269
 30
0.0
 11
791.2646409997852
 21
1681.644763400095
 31
0.0
  0
LINE
  5
50D4
330
50CF
100
AcDbEntity
  8
Dim
 62
     0
370
    -2
100
AcDbLine
 10
263.7751219999282
 20
1681.644763400095
 30
0.0
 11
781.2652513513477
 21
1681.644763400095
 31
0.0
  0
INSERT
  5
50D5
330
50CF
100
AcDbEntity
  8
Dim
 62
     0
370
    -2
100
AcDbBlockReference
  2
_DOT
 10
253.7757323514907
 20
1681.644763400095
 30
0.0
 41
9.999389648437498
 42
9.999389648437498
 43
9.999389648437498
 50
180.0
  0
INSERT
  5
50D6
330
50CF
100
AcDbEntity
  8
Dim
 62
     0
370
    -2
100
AcDbBlockReference
  2
_DOT
 10
791.2646409997852
 20
1681.644763400095
 30
0.0
 41
9.999389648437498
 42
9.999389648437498
 43
9.999389648437498
  0
MTEXT
  5
50D7
330
50CF
100
AcDbEntity
  8
Dim
 62
     0
100
AcDbMText
 10
522.5201866756379
 20
1703.861071993845
 30
0.0
 40
24.4326171875
 41
0.0
 46
0.0
 71
     5
 72
     1
  1
\A1;537.5
  7
ＭＳ ゴシック
 73
     1
 44
1.0
  0
POINT
  5
50D8
330
50CF
100
AcDbEntity
  8
Defpoints
 62
     0
100
AcDbPoint
 10
253.7757323514907
 20
1537.191964660655
 30
0.0
  0
POINT
  5
50D9
330
50CF
100
AcDbEntity
  8
Defpoints
 62
     0
100
AcDbPoint
 10
791.2646409997852
 20
1589.208049481269
 30
0.0
  0
POINT
  5
50DA
330
50CF
100
AcDbEntity
  8
Defpoints
 62
     0
100
AcDbPoint
 10
791.2646409997852
 20
1681.644763400095
 30
0.0
  0
ENDBLK
  5
50D1
330
50CF
100
AcDbEntity
  8
0
100
AcDbBlockEnd
  0
BLOCK
  5
5190
330
518F
100
AcDbEntity
  8
0
100
AcDbBlockBegin
  2
*D15
 70
     1
 10
0.0
 20
0.0
 30
0.0
  3
*D15
  1
*D69
  0
LINE
  5
5191
330
518F
100
AcDbEntity
  8
Dim
 62
     0
370
    -2
100
AcDbLine
 10
130.3797336786799
 20
340.7588762918108
 30
0.0
 11
72.56019142934086
 21
340.7588762918108
 31
0.0
  0
LINE
  5
5192
330
518F
100
AcDbEntity
  8
Dim
 62
     0
370
    -2
100
AcDbLine
 10
130.3797336786799
 20
620.7588762918112
 30
0.0
 11
72.56019142934088
 21
620.7588762918112
 31
0.0
  0
LINE
  5
5193
330
518F
100
AcDbEntity
  8
Dim
 62
     0
370
    -2
100
AcDbLine
 10
72.56019142934086
 20
350.7582659402483
 30
0.0
 11
72.56019142934088
 21
610.7594866433737
 31
0.0
  0
INSERT
  5
5194
330
518F
100
AcDbEntity
  8
Dim
 62
     0
370
    -2
100
AcDbBlockReference
  2
_DOT
 10
72.56019142934086
 20
340.7588762918108
 30
0.0
 41
9.999389648437498
 42
9.999389648437498
 43
9.999389648437498
 50
270.0
  0
INSERT
  5
5195
330
518F
100
AcDbEntity
  8
Dim
 62
     0
370
    -2
100
AcDbBlockReference
  2
_DOT
 10
72.56019142934088
 20
620.7588762918112
 30
0.0
 41
9.999389648437498
 42
9.999389648437498
 43
9.999389648437498
 50
90.0
  0
MTEXT
  5
5196
330
518F
100
AcDbEntity
  8
Dim
 62
     0
100
AcDbMText
 10
50.34388283559088
 20
480.758876291811
 30
0.0
 40
24.4326171875
 41
0.0
 46
0.0
 71
     5
 72
     1
  1
\A1;280
  7
ＭＳ ゴシック
 11
5.075305255429279E-17
 21
1.0
 31
0.0
 73
     1
 44
1.0
  0
POINT
  5
5197
330
518F
100
AcDbEntity
  8
Defpoints
 62
     0
100
AcDbPoint
 10
155.3797336786799
 20
340.7588762918108
 30
0.0
  0
POINT
  5
5198
330
518F
100
AcDbEntity
  8
Defpoints
 62
     0
100
AcDbPoint
 10
155.3797336786799
 20
620.7588762918112
 30
0.0
  0
POINT
  5
5199
330
518F
100
AcDbEntity
  8
Defpoints
 62
     0
100
AcDbPoint
 10
72.56019142934088
 20
620.7588762918112
 30
0.0
  0
ENDBLK
  5
519A
330
518F
100
AcDbEntity
  8
0
100
AcDbBlockEnd
  0
BLOCK
  5
51A4
330
51A3
100
AcDbEntity
  8
0
100
AcDbBlockBegin
  2
*D16
 70
     1
 10
0.0
 20
0.0
 30
0.0
  3
*D16
  1
*D75
  0
LINE
  5
51A5
330
51A3
100
AcDbEntity
  8
Dim
  6
Continuous
 62
     0
370
    -2
100
AcDbLine
 10
294.9573965107479
 20
1803.375370219414
 30
0.0
 11
0.0000000000000853
 21
1803.375370219414
 31
0.0
  0
LINE
  5
51A6
330
51A3
100
AcDbEntity
  8
Dim
  6
Continuous
 62
     0
370
    -2
100
AcDbLine
 10
284.9580068623104
 20
1803.375370219414
 30
0.0
 11
175.1786831054685
 21
1803.375370219414
 31
0.0
  0
LINE
  5
51A7
330
51A3
100
AcDbEntity
  8
Dim
  6
Continuous
 62
     0
370
    -2
100
AcDbLine
 10
175.1786831054685
 20
1803.375370219414
 30
0.0
 11
185.178072753906
 21
1803.375370219414
 31
0.0
  0
INSERT
  5
51A8
330
51A3
100
AcDbEntity
  8
Dim
 62
     0
370
    -2
100
AcDbBlockReference
  2
_DOT
 10
294.9573965107479
 20
1803.375370219414
 30
0.0
 41
9.999389648437498
 42
9.999389648437498
 43
9.999389648437498
  0
INSERT
  5
51A9
330
51A3
100
AcDbEntity
  8
Dim
 62
     0
370
    -2
100
AcDbBlockReference
  2
_DOT
 10
165.179293457031
 20
1803.375370219414
 30
0.0
 41
9.999389648437498
 42
9.999389648437498
 43
9.999389648437498
 50
180.0
  0
MTEXT
  5
51AA
330
51A3
100
AcDbEntity
  8
Dim
 62
     0
100
AcDbMText
 10
68.99255419921883
 20
1827.753965434258
 30
0.0
 40
24.4326171875
 41
0.0
 46
0.0
 71
     5
 72
     1
  1
\A1;??(深さ)
  7
ＭＳ ゴシック
 73
     1
 44
1.0
  0
POINT
  5
51AB
330
51A3
100
AcDbEntity
  8
Defpoints
 62
     0
100
AcDbPoint
 10
294.9573965107479
 20
1803.375370219414
 30
0.0
  0
POINT
  5
51AC
330
51A3
100
AcDbEntity
  8
Defpoints
 62
     0
100
AcDbPoint
 10
165.179293457031
 20
1803.375370219414
 30
0.0
  0
POINT
  5
5201
330
51A3
100
AcDbEntity
  8
Defpoints
 62
     0
100
AcDbPoint
 10
165.179293457031
 20
1803.375370219414
 30
0.0
  0
ENDBLK
  5
51AD
330
51A3
100
AcDbEntity
  8
0
100
AcDbBlockEnd
  0
BLOCK
  5
51B0
330
51AF
100
AcDbEntity
  8
0
100
AcDbBlockBegin
  2
*D17
 70
     1
 10
0.0
 20
0.0
 30
0.0
  3
*D17
  1
*D76
  0
LINE
  5
51B1
330
51AF
100
AcDbEntity
  8
Dim
  6
Continuous
 62
     0
370
    -2
100
AcDbLine
 10
144.9751981290808
 20
2029.19717397047
 30
0.0
 11
85.24462232946603
 21
2029.19717397047
 31
0.0
  0
LINE
  5
51B2
330
51AF
100
AcDbEntity
  8
Dim
  6
Continuous
 62
     0
370
    -2
100
AcDbLine
 10
144.9751981290808
 20
1964.19717397047
 30
0.0
 11
85.24462232946598
 21
1964.19717397047
 31
0.0
  0
LINE
  5
51B3
330
51AF
100
AcDbEntity
  8
Dim
  6
Continuous
 62
     0
370
    -2
100
AcDbLine
 10
85.24462232946603
 20
2019.197784322033
 30
0.0
 11
85.24462232946598
 21
1974.196563618908
 31
0.0
  0
INSERT
  5
51B4
330
51AF
100
AcDbEntity
  8
Dim
 62
     0
370
    -2
100
AcDbBlockReference
  2
_DOT
 10
85.24462232946603
 20
2029.19717397047
 30
0.0
 41
9.999389648437498
 42
9.999389648437498
 43
9.999389648437498
 50
89.99999999999996
  0
INSERT
  5
51B5
330
51AF
100
AcDbEntity
  8
Dim
 62
     0
370
    -2
100
AcDbBlockReference
  2
_DOT
 10
85.24462232946598
 20
1964.19717397047
 30
0.0
 41
9.999389648437498
 42
9.999389648437498
 43
9.999389648437498
 50
269.9999999999999
  0
MTEXT
  5
51B6
330
51AF
100
AcDbEntity
  8
Dim
 62
     0
100
AcDbMText
 10
62.40528199743474
 20
1996.69717397047
 30
0.0
 40
24.4326171875
 41
0.0
 46
0.0
 71
     5
 72
     1
  1
\A1;??
  7
ＭＳ ゴシック
 11
6.558856022400925E-16
 21
1.0
 31
0.0
 73
     1
 44
1.0
  0
POINT
  5
51B7
330
51AF
100
AcDbEntity
  8
Defpoints
 62
     0
100
AcDbPoint
 10
169.9751981290808
 20
2029.19717397047
 30
0.0
  0
POINT
  5
51B8
330
51AF
100
AcDbEntity
  8
Defpoints
 62
     0
100
AcDbPoint
 10
169.9751981290808
 20
1964.19717397047
 30
0.0
  0
POINT
  5
51B9
330
51AF
100
AcDbEntity
  8
Defpoints
 62
     0
100
AcDbPoint
 10
85.24462232946598
 20
1964.19717397047
 30
0.0
  0
ENDBLK
  5
51BA
330
51AF
100
AcDbEntity
  8
0
100
AcDbBlockEnd
  0
BLOCK
  5
51BD
330
51BC
100
AcDbEntity
  8
0
100
AcDbBlockBegin
  2
*D18
 70
     1
 10
0.0
 20
0.0
 30
0.0
  3
*D18
  1
*D77
  0
LINE
  5
51BE
330
51BC
100
AcDbEntity
  8
Dim
 62
     0
370
    -2
100
AcDbLine
 10
316.5224151563748
 20
2029.196276380398
 30
0.0
 11
425.8510729091279
 21
2029.196276380398
 31
0.0
  0
LINE
  5
51BF
330
51BC
100
AcDbEntity
  8
Dim
 62
     0
370
    -2
100
AcDbLine
 10
369.8453394934529
 20
1804.19625323028
 30
0.0
 11
425.8510729091279
 21
1804.19625323028
 31
0.0
  0
LINE
  5
51C0
330
51BC
100
AcDbEntity
  8
Dim
 62
     0
370
    -2
100
AcDbLine
 10
425.8510729091279
 20
2019.196886731961
 30
0.0
 11
425.8510729091279
 21
1814.195642878718
 31
0.0
  0
INSERT
  5
51C1
330
51BC
100
AcDbEntity
  8
Dim
 62
     0
370
    -2
100
AcDbBlockReference
  2
_DOT
 10
425.8510729091279
 20
2029.196276380398
 30
0.0
 41
9.999389648437498
 42
9.999389648437498
 43
9.999389648437498
 50
90.0
  0
INSERT
  5
51C2
330
51BC
100
AcDbEntity
  8
Dim
 62
     0
370
    -2
100
AcDbBlockReference
  2
_DOT
 10
425.8510729091279
 20
1804.19625323028
 30
0.0
 41
9.999389648437498
 42
9.999389648437498
 43
9.999389648437498
 50
270.0
  0
MTEXT
  5
51C3
330
51BC
100
AcDbEntity
  8
Dim
 62
     0
100
AcDbMText
 10
403.6347643153779
 20
1916.696264805339
 30
0.0
 40
24.4326171875
 41
0.0
 46
0.0
 71
     5
 72
     1
  1
\A1;225
  7
ＭＳ ゴシック
 11
0.0
 21
1.0
 31
0.0
 73
     1
 44
1.0
  0
POINT
  5
51C4
330
51BC
100
AcDbEntity
  8
Defpoints
 62
     0
100
AcDbPoint
 10
291.5224151563748
 20
2029.196276380398
 30
0.0
  0
POINT
  5
51C5
330
51BC
100
AcDbEntity
  8
Defpoints
 62
     0
100
AcDbPoint
 10
344.8453394934529
 20
1804.19625323028
 30
0.0
  0
POINT
  5
51C6
330
51BC
100
AcDbEntity
  8
Defpoints
 62
     0
100
AcDbPoint
 10
425.8510729091279
 20
1804.19625323028
 30
0.0
  0
ENDBLK
  5
51C7
330
51BC
100
AcDbEntity
  8
0
100
AcDbBlockEnd
  0
BLOCK
  5
51CA
330
51C9
100
AcDbEntity
  8
0
100
AcDbBlockBegin
  2
*D19
 70
     1
 10
0.0
 20
0.0
 30
0.0
  3
*D19
  1
*D78
  0
LINE
  5
51CB
330
51C9
100
AcDbEntity
  8
Dim
  6
Continuous
 62
     0
370
    -2
100
AcDbLine
 10
181.01621042376
 20
1462.846241847039
 30
0.0
 11
181.01621042376
 21
1456.427652558354
 31
0.0
  0
LINE
  5
51CC
330
51C9
100
AcDbEntity
  8
Dim
  6
Continuous
 62
     0
370
    -2
100
AcDbLine
 10
256.01621042376
 20
1556.873085784575
 30
0.0
 11
256.01621042376
 21
1456.427652558354
 31
0.0
  0
LINE
  5
51CD
330
51C9
100
AcDbEntity
  8
Dim
  6
Continuous
 62
     0
370
    -2
100
AcDbLine
 10
191.0156000721975
 20
1456.427652558354
 30
0.0
 11
246.0168207753225
 21
1456.427652558354
 31
0.0
  0
INSERT
  5
51CE
330
51C9
100
AcDbEntity
  8
Dim
 62
     0
370
    -2
100
AcDbBlockReference
  2
_DOT
 10
181.01621042376
 20
1456.427652558354
 30
0.0
 41
9.999389648437498
 42
9.999389648437498
 43
9.999389648437498
 50
180.0
  0
INSERT
  5
51CF
330
51C9
100
AcDbEntity
  8
Dim
 62
     0
370
    -2
100
AcDbBlockReference
  2
_DOT
 10
256.01621042376
 20
1456.427652558354
 30
0.0
 41
9.999389648437498
 42
9.999389648437498
 43
9.999389648437498
  0
MTEXT
  5
51D0
330
51C9
100
AcDbEntity
  8
Dim
 62
     0
100
AcDbMText
 10
218.51621042376
 20
1478.643961152104
 30
0.0
 40
24.4326171875
 41
0.0
 46
0.0
 71
     5
 72
     1
  1
\A1;75
  7
ＭＳ ゴシック
 73
     1
 44
1.0
  0
POINT
  5
51D1
330
51C9
100
AcDbEntity
  8
Defpoints
 62
     0
100
AcDbPoint
 10
181.01621042376
 20
1487.846241847039
 30
0.0
  0
POINT
  5
51D2
330
51C9
100
AcDbEntity
  8
Defpoints
 62
     0
100
AcDbPoint
 10
256.01621042376
 20
1581.873085784575
 30
0.0
  0
POINT
  5
51D3
330
51C9
100
AcDbEntity
  8
Defpoints
 62
     0
100
AcDbPoint
 10
256.01621042376
 20
1456.427652558354
 30
0.0
  0
ENDBLK
  5
51D4
330
51C9
100
AcDbEntity
  8
0
100
AcDbBlockEnd
  0
BLOCK
  5
51D7
330
51D6
100
AcDbEntity
  8
0
100
AcDbBlockBegin
  2
*D20
 70
     1
 10
0.0
 20
0.0
 30
0.0
  3
*D20
  1
*D79
  0
LINE
  5
51D8
330
51D6
100
AcDbEntity
  8
Dim
  6
Continuous
 62
     0
370
    -2
100
AcDbLine
 10
256.01621042376
 20
1531.873085784575
 30
0.0
 11
256.01621042376
 21
1456.427652558354
 31
0.0
  0
LINE
  5
51D9
330
51D6
100
AcDbEntity
  8
Dim
  6
Continuous
 62
     0
370
    -2
100
AcDbLine
 10
346.01621042376
 20
1746.547351202102
 30
0.0
 11
346.01621042376
 21
1456.427652558354
 31
0.0
  0
LINE
  5
51DA
330
51D6
100
AcDbEntity
  8
Dim
  6
Continuous
 62
     0
370
    -2
100
AcDbLine
 10
266.0156000721975
 20
1456.427652558354
 30
0.0
 11
336.0168207753225
 21
1456.427652558354
 31
0.0
  0
INSERT
  5
51DB
330
51D6
100
AcDbEntity
  8
Dim
 62
     0
370
    -2
100
AcDbBlockReference
  2
_DOT
 10
256.01621042376
 20
1456.427652558354
 30
0.0
 41
9.999389648437498
 42
9.999389648437498
 43
9.999389648437498
 50
180.0
  0
INSERT
  5
51DC
330
51D6
100
AcDbEntity
  8
Dim
 62
     0
370
    -2
100
AcDbBlockReference
  2
_DOT
 10
346.01621042376
 20
1456.427652558354
 30
0.0
 41
9.999389648437498
 42
9.999389648437498
 43
9.999389648437498
  0
MTEXT
  5
51DD
330
51D6
100
AcDbEntity
  8
Dim
 62
     0
100
AcDbMText
 10
301.01621042376
 20
1478.643961152104
 30
0.0
 40
24.4326171875
 41
0.0
 46
0.0
 71
     5
 72
     1
  1
\A1;90
  7
ＭＳ ゴシック
 73
     1
 44
1.0
  0
POINT
  5
51DE
330
51D6
100
AcDbEntity
  8
Defpoints
 62
     0
100
AcDbPoint
 10
256.01621042376
 20
1556.873085784575
 30
0.0
  0
POINT
  5
51DF
330
51D6
100
AcDbEntity
  8
Defpoints
 62
     0
100
AcDbPoint
 10
346.01621042376
 20
1771.547351202102
 30
0.0
  0
POINT
  5
51E0
330
51D6
100
AcDbEntity
  8
Defpoints
 62
     0
100
AcDbPoint
 10
346.01621042376
 20
1456.427652558354
 30
0.0
  0
ENDBLK
  5
51E1
330
51D6
100
AcDbEntity
  8
0
100
AcDbBlockEnd
  0
BLOCK
  5
51E4
330
51E3
100
AcDbEntity
  8
0
100
AcDbBlockBegin
  2
*D21
 70
     1
 10
0.0
 20
0.0
 30
0.0
  3
*D21
  1
*D80
  0
LINE
  5
51E5
330
51E3
100
AcDbEntity
  8
Dim
  6
Continuous
 62
     0
370
    -2
100
AcDbLine
 10
166.01621042376
 20
1487.846241847039
 30
0.0
 11
166.01621042376
 21
1456.427652558354
 31
0.0
  0
LINE
  5
51E6
330
51E3
100
AcDbEntity
  8
Dim
  6
Continuous
 62
     0
370
    -2
100
AcDbLine
 10
181.01621042376
 20
1487.846241847039
 30
0.0
 11
181.01621042376
 21
1456.427652558354
 31
0.0
  0
LINE
  5
51E7
330
51E3
100
AcDbEntity
  8
Dim
  6
Continuous
 62
     0
370
    -2
100
AcDbLine
 10
166.01621042376
 20
1456.427652558354
 30
0.0
 11
99.23928268938289
 21
1456.427652558354
 31
0.0
  0
LINE
  5
51E8
330
51E3
100
AcDbEntity
  8
Dim
  6
Continuous
 62
     0
370
    -2
100
AcDbLine
 10
176.0156000721975
 20
1456.427652558354
 30
0.0
 11
171.0168207753225
 21
1456.427652558354
 31
0.0
  0
LINE
  5
51E9
330
51E3
100
AcDbEntity
  8
Dim
  6
Continuous
 62
     0
370
    -2
100
AcDbLine
 10
176.0156000721975
 20
1456.427652558354
 30
0.0
 11
186.014989720635
 21
1456.427652558354
 31
0.0
  0
INSERT
  5
51EA
330
51E3
100
AcDbEntity
  8
Dim
 62
     0
370
    -2
100
AcDbBlockReference
  2
_DOT
 10
166.01621042376
 20
1456.427652558354
 30
0.0
 41
9.999389648437498
 42
9.999389648437498
 43
9.999389648437498
 50
180.0
  0
INSERT
  5
51EB
330
51E3
100
AcDbEntity
  8
Dim
 62
     0
370
    -2
100
AcDbBlockReference
  2
_DOT
 10
181.01621042376
 20
1456.427652558354
 30
0.0
 41
9.999389648437498
 42
9.999389648437498
 43
9.999389648437498
  0
MTEXT
  5
51EC
330
51E3
100
AcDbEntity
  8
Dim
 62
     0
100
AcDbMText
 10
122.6283569081329
 20
1478.643961152104
 30
0.0
 40
24.4326171875
 41
0.0
 46
0.0
 71
     5
 72
     1
  1
\A1;15
  7
ＭＳ ゴシック
 73
     1
 44
1.0
  0
POINT
  5
51ED
330
51E3
100
AcDbEntity
  8
Defpoints
 62
     0
100
AcDbPoint
 10
166.01621042376
 20
1512.846241847039
 30
0.0
  0
POINT
  5
51EE
330
51E3
100
AcDbEntity
  8
Defpoints
 62
     0
100
AcDbPoint
 10
181.01621042376
 20
1512.846241847039
 30
0.0
  0
POINT
  5
5202
330
51E3
100
AcDbEntity
  8
Defpoints
 62
     0
100
AcDbPoint
 10
181.01621042376
 20
1456.427652558354
 30
0.0
  0
ENDBLK
  5
51EF
330
51E3
100
AcDbEntity
  8
0
100
AcDbBlockEnd
  0
BLOCK
  5
51F4
330
51F3
100
AcDbEntity
  8
0
100
AcDbBlockBegin
  2
*D22
 70
     1
 10
0.0
 20
0.0
 30
0.0
  3
*D22
  1
*D81
  0
LINE
  5
51F5
330
51F3
100
AcDbEntity
  8
Dim
 62
     0
370
    -2
100
AcDbLine
 10
206.0162204076819
 20
291.259386915654
 30
0.0
 11
206.0162204076819
 21
4.999694824218747
 31
0.0
  0
LINE
  5
51F6
330
51F3
100
AcDbEntity
  8
Dim
 62
     0
370
    -2
100
AcDbLine
 10
166.0162204076819
 20
62.46568916960905
 30
0.0
 11
166.0162204076819
 21
4.999694824218753
 31
0.0
  0
LINE
  5
51F7
330
51F3
100
AcDbEntity
  8
Dim
 62
     0
370
    -2
100
AcDbLine
 10
196.0168307592444
 20
4.999694824218748
 30
0.0
 11
176.0156100561194
 21
4.999694824218752
 31
0.0
  0
INSERT
  5
51F8
330
51F3
100
AcDbEntity
  8
Dim
 62
     0
370
    -2
100
AcDbBlockReference
  2
_DOT
 10
206.0162204076819
 20
4.999694824218747
 30
0.0
 41
9.999389648437498
 42
9.999389648437498
 43
9.999389648437498
 50
360.0
  0
INSERT
  5
51F9
330
51F3
100
AcDbEntity
  8
Dim
 62
     0
370
    -2
100
AcDbBlockReference
  2
_DOT
 10
166.0162204076819
 20
4.999694824218753
 30
0.0
 41
9.999389648437498
 42
9.999389648437498
 43
9.999389648437498
 50
180.0
  0
MTEXT
  5
51FA
330
51F3
100
AcDbEntity
  8
Dim
 62
     0
100
AcDbMText
 10
186.0162204076819
 20
27.21600341796875
 30
0.0
 40
24.4326171875
 41
0.0
 46
0.0
 71
     5
 72
     1
  1
\A1;40
  7
ＭＳ ゴシック
 73
     1
 44
1.0
  0
POINT
  5
51FB
330
51F3
100
AcDbEntity
  8
Defpoints
 62
     0
100
AcDbPoint
 10
206.0162204076819
 20
316.259386915654
 30
0.0
  0
POINT
  5
51FC
330
51F3
100
AcDbEntity
  8
Defpoints
 62
     0
100
AcDbPoint
 10
166.0162204076819
 20
87.46568916960905
 30
0.0
  0
POINT
  5
51FD
330
51F3
100
AcDbEntity
  8
Defpoints
 62
     0
100
AcDbPoint
 10
166.0162204076819
 20
4.99969482421875
 30
0.0
  0
ENDBLK
  5
51FE
330
51F3
100
AcDbEntity
  8
0
100
AcDbBlockEnd
  0
BLOCK
  5
5287
330
5286
100
AcDbEntity
  8
0
100
AcDbBlockBegin
  2
*D23
 70
     1
 10
0.0
 20
0.0
 30
0.0
  3
*D23
  1

  0
LINE
  5
5289
330
5286
100
AcDbEntity
  8
Dim
 62
     0
370
    -2
100
AcDbLine
 10
3366.124833738619
 20
2209.601117385149
 30
0.0
 11
3366.124833738619
 21
2267.420659634488
 31
0.0
  0
LINE
  5
528A
330
5286
100
AcDbEntity
  8
Dim
 62
     0
370
    -2
100
AcDbLine
 10
3646.12483373862
 20
2209.601117385149
 30
0.0
 11
3646.12483373862
 21
2267.420659634488
 31
0.0
  0
LINE
  5
528B
330
5286
100
AcDbEntity
  8
Dim
 62
     0
370
    -2
100
AcDbLine
 10
3376.124223387057
 20
2267.420659634488
 30
0.0
 11
3636.125444090182
 21
2267.420659634488
 31
0.0
  0
INSERT
  5
528C
330
5286
100
AcDbEntity
  8
Dim
 62
     0
370
    -2
100
AcDbBlockReference
  2
_DOT
 10
3366.124833738619
 20
2267.420659634488
 30
0.0
 41
9.999389648437498
 42
9.999389648437498
 43
9.999389648437498
 50
180.0
  0
INSERT
  5
528D
330
5286
100
AcDbEntity
  8
Dim
 62
     0
370
    -2
100
AcDbBlockReference
  2
_DOT
 10
3646.12483373862
 20
2267.420659634488
 30
0.0
 41
9.999389648437498
 42
9.999389648437498
 43
9.999389648437498
  0
MTEXT
  5
528E
330
5286
100
AcDbEntity
  8
Dim
 62
     0
100
AcDbMText
 10
3506.12483373862
 20
2289.636968228238
 30
0.0
 40
24.4326171875
 41
0.0
 46
0.0
 71
     5
 72
     1
  1
\A1;280
  7
ＭＳ ゴシック
 73
     1
 44
1.0
  0
POINT
  5
528F
330
5286
100
AcDbEntity
  8
Defpoints
 62
     0
100
AcDbPoint
 10
3366.124833738619
 20
2184.601117385149
 30
0.0
  0
POINT
  5
5290
330
5286
100
AcDbEntity
  8
Defpoints
 62
     0
100
AcDbPoint
 10
3646.12483373862
 20
2184.601117385149
 30
0.0
  0
POINT
  5
5291
330
5286
100
AcDbEntity
  8
Defpoints
 62
     0
100
AcDbPoint
 10
3646.12483373862
 20
2267.420659634488
 30
0.0
  0
ENDBLK
  5
5288
330
5286
100
AcDbEntity
  8
0
100
AcDbBlockEnd
  0
BLOCK
  5
5293
330
5292
100
AcDbEntity
  8
0
100
AcDbBlockBegin
  2
*D24
 70
     1
 10
0.0
 20
0.0
 30
0.0
  3
*D24
  1

  0
LINE
  5
5295
330
5292
100
AcDbEntity
  8
Dim
  6
Continuous
 62
     0
370
    -2
100
AcDbLine
 10
4828.741327666223
 20
2045.023454553081
 30
0.0
 11
4828.741327666223
 21
2339.980851063829
 31
0.0
  0
LINE
  5
5296
330
5292
100
AcDbEntity
  8
Dim
  6
Continuous
 62
     0
370
    -2
100
AcDbLine
 10
4828.741327666223
 20
2055.022844201519
 30
0.0
 11
4828.741327666223
 21
2164.80216795836
 31
0.0
  0
LINE
  5
5297
330
5292
100
AcDbEntity
  8
Dim
  6
Continuous
 62
     0
370
    -2
100
AcDbLine
 10
4828.741327666223
 20
2164.80216795836
 30
0.0
 11
4828.741327666223
 21
2154.802778309923
 31
0.0
  0
INSERT
  5
5298
330
5292
100
AcDbEntity
  8
Dim
 62
     0
370
    -2
100
AcDbBlockReference
  2
_DOT
 10
4828.741327666223
 20
2045.023454553081
 30
0.0
 41
9.999389648437498
 42
9.999389648437498
 43
9.999389648437498
 50
270.0
  0
INSERT
  5
5299
330
5292
100
AcDbEntity
  8
Dim
 62
     0
370
    -2
100
AcDbBlockReference
  2
_DOT
 10
4828.741327666223
 20
2174.801557606798
 30
0.0
 41
9.999389648437498
 42
9.999389648437498
 43
9.999389648437498
 50
90.0
  0
MTEXT
  5
529A
330
5292
100
AcDbEntity
  8
Dim
 62
     0
100
AcDbMText
 10
4804.362732451379
 20
2270.98829686461
 30
0.0
 40
24.4326171875
 41
0.0
 46
0.0
 71
     5
 72
     1
  1
\A1;??(深さ)
  7
ＭＳ ゴシック
 11
0.0
 21
1.0
 31
0.0
 73
     1
 44
1.0
  0
POINT
  5
529B
330
5292
100
AcDbEntity
  8
Defpoints
 62
     0
100
AcDbPoint
 10
4828.741327666223
 20
2045.023454553081
 30
0.0
  0
POINT
  5
529C
330
5292
100
AcDbEntity
  8
Defpoints
 62
     0
100
AcDbPoint
 10
4828.741327666223
 20
2174.801557606798
 30
0.0
  0
POINT
  5
529D
330
5292
100
AcDbEntity
  8
Defpoints
 62
     0
100
AcDbPoint
 10
4828.741327666223
 20
2174.801557606798
 30
0.0
  0
ENDBLK
  5
5294
330
5292
100
AcDbEntity
  8
0
100
AcDbBlockEnd
  0
BLOCK
  5
529F
330
529E
100
AcDbEntity
  8
0
100
AcDbBlockBegin
  2
*D25
 70
     1
 10
0.0
 20
0.0
 30
0.0
  3
*D25
  1

  0
LINE
  5
52A1
330
529E
100
AcDbEntity
  8
Dim
  6
Continuous
 62
     0
370
    -2
100
AcDbLine
 10
5054.563131417279
 20
2195.005652934748
 30
0.0
 11
5054.563131417279
 21
2254.736228734363
 31
0.0
  0
LINE
  5
52A2
330
529E
100
AcDbEntity
  8
Dim
  6
Continuous
 62
     0
370
    -2
100
AcDbLine
 10
4989.563131417279
 20
2195.005652934748
 30
0.0
 11
4989.563131417279
 21
2254.736228734363
 31
0.0
  0
LINE
  5
52A3
330
529E
100
AcDbEntity
  8
Dim
  6
Continuous
 62
     0
370
    -2
100
AcDbLine
 10
5044.563741768841
 20
2254.736228734363
 30
0.0
 11
4999.562521065716
 21
2254.736228734363
 31
0.0
  0
INSERT
  5
52A4
330
529E
100
AcDbEntity
  8
Dim
 62
     0
370
    -2
100
AcDbBlockReference
  2
_DOT
 10
5054.563131417279
 20
2254.736228734363
 30
0.0
 41
9.999389648437498
 42
9.999389648437498
 43
9.999389648437498
  0
INSERT
  5
52A5
330
529E
100
AcDbEntity
  8
Dim
 62
     0
370
    -2
100
AcDbBlockReference
  2
_DOT
 10
4989.563131417279
 20
2254.736228734363
 30
0.0
 41
9.999389648437498
 42
9.999389648437498
 43
9.999389648437498
 50
180.0
  0
MTEXT
  5
52A6
330
529E
100
AcDbEntity
  8
Dim
 62
     0
100
AcDbMText
 10
5022.063131417279
 20
2277.575569066394
 30
0.0
 40
24.4326171875
 41
0.0
 46
0.0
 71
     5
 72
     1
  1
\A1;??
  7
ＭＳ ゴシック
 73
     1
 44
1.0
  0
POINT
  5
52A7
330
529E
100
AcDbEntity
  8
Defpoints
 62
     0
100
AcDbPoint
 10
5054.563131417279
 20
2170.005652934748
 30
0.0
  0
POINT
  5
52A8
330
529E
100
AcDbEntity
  8
Defpoints
 62
     0
100
AcDbPoint
 10
4989.563131417279
 20
2170.005652934748
 30
0.0
  0
POINT
  5
52A9
330
529E
100
AcDbEntity
  8
Defpoints
 62
     0
100
AcDbPoint
 10
4989.563131417279
 20
2254.736228734363
 30
0.0
  0
ENDBLK
  5
52A0
330
529E
100
AcDbEntity
  8
0
100
AcDbBlockEnd
  0
BLOCK
  5
52AB
330
52AA
100
AcDbEntity
  8
0
100
AcDbBlockBegin
  2
*D26
 70
     1
 10
0.0
 20
0.0
 30
0.0
  3
*D26
  1

  0
LINE
  5
52AD
330
52AA
100
AcDbEntity
  8
Dim
 62
     0
370
    -2
100
AcDbLine
 10
5054.562233827207
 20
2023.458435907454
 30
0.0
 11
5054.562233827207
 21
1914.129778154701
 31
0.0
  0
LINE
  5
52AE
330
52AA
100
AcDbEntity
  8
Dim
 62
     0
370
    -2
100
AcDbLine
 10
4829.562210677089
 20
1970.135511570376
 30
0.0
 11
4829.562210677089
 21
1914.129778154701
 31
0.0
  0
LINE
  5
52AF
330
52AA
100
AcDbEntity
  8
Dim
 62
     0
370
    -2
100
AcDbLine
 10
5044.562844178769
 20
1914.129778154701
 30
0.0
 11
4839.561600325526
 21
1914.129778154701
 31
0.0
  0
INSERT
  5
52B0
330
52AA
100
AcDbEntity
  8
Dim
 62
     0
370
    -2
100
AcDbBlockReference
  2
_DOT
 10
5054.562233827207
 20
1914.129778154701
 30
0.0
 41
9.999389648437498
 42
9.999389648437498
 43
9.999389648437498
  0
INSERT
  5
52B1
330
52AA
100
AcDbEntity
  8
Dim
 62
     0
370
    -2
100
AcDbBlockReference
  2
_DOT
 10
4829.562210677089
 20
1914.129778154701
 30
0.0
 41
9.999389648437498
 42
9.999389648437498
 43
9.999389648437498
 50
180.0
  0
MTEXT
  5
52B2
330
52AA
100
AcDbEntity
  8
Dim
 62
     0
100
AcDbMText
 10
4942.062222252148
 20
1936.346086748451
 30
0.0
 40
24.4326171875
 41
0.0
 46
0.0
 71
     5
 72
     1
  1
\A1;225
  7
ＭＳ ゴシック
 73
     1
 44
1.0
  0
POINT
  5
52B3
330
52AA
100
AcDbEntity
  8
Defpoints
 62
     0
100
AcDbPoint
 10
5054.562233827207
 20
2048.458435907454
 30
0.0
  0
POINT
  5
52B4
330
52AA
100
AcDbEntity
  8
Defpoints
 62
     0
100
AcDbPoint
 10
4829.562210677089
 20
1995.135511570376
 30
0.0
  0
POINT
  5
52B5
330
52AA
100
AcDbEntity
  8
Defpoints
 62
     0
100
AcDbPoint
 10
4829.562210677089
 20
1914.129778154701
 30
0.0
  0
ENDBLK
  5
52AC
330
52AA
100
AcDbEntity
  8
0
100
AcDbBlockEnd
  0
BLOCK
  5
52B7
330
52B6
100
AcDbEntity
  8
0
100
AcDbBlockBegin
  2
*D27
 70
     1
 10
0.0
 20
0.0
 30
0.0
  3
*D27
  1

  0
LINE
  5
52B9
330
52B6
100
AcDbEntity
  8
Dim
  6
Continuous
 62
     0
370
    -2
100
AcDbLine
 10
4488.212199293848
 20
2158.964640640069
 30
0.0
 11
4481.793610005163
 21
2158.964640640069
 31
0.0
  0
LINE
  5
52BA
330
52B6
100
AcDbEntity
  8
Dim
  6
Continuous
 62
     0
370
    -2
100
AcDbLine
 10
4582.239043231384
 20
2083.964640640069
 30
0.0
 11
4481.793610005163
 21
2083.964640640069
 31
0.0
  0
LINE
  5
52BB
330
52B6
100
AcDbEntity
  8
Dim
  6
Continuous
 62
     0
370
    -2
100
AcDbLine
 10
4481.793610005163
 20
2148.965250991632
 30
0.0
 11
4481.793610005163
 21
2093.964030288507
 31
0.0
  0
INSERT
  5
52BC
330
52B6
100
AcDbEntity
  8
Dim
 62
     0
370
    -2
100
AcDbBlockReference
  2
_DOT
 10
4481.793610005163
 20
2158.964640640069
 30
0.0
 41
9.999389648437498
 42
9.999389648437498
 43
9.999389648437498
 50
90.0
  0
INSERT
  5
52BD
330
52B6
100
AcDbEntity
  8
Dim
 62
     0
370
    -2
100
AcDbBlockReference
  2
_DOT
 10
4481.793610005163
 20
2083.964640640069
 30
0.0
 41
9.999389648437498
 42
9.999389648437498
 43
9.999389648437498
 50
270.0
  0
MTEXT
  5
52BE
330
52B6
100
AcDbEntity
  8
Dim
 62
     0
100
AcDbMText
 10
4459.577301411413
 20
2121.464640640069
 30
0.0
 40
24.4326171875
 41
0.0
 46
0.0
 71
     5
 72
     1
  1
\A1;75
  7
ＭＳ ゴシック
 11
0.0
 21
1.0
 31
0.0
 73
     1
 44
1.0
  0
POINT
  5
52BF
330
52B6
100
AcDbEntity
  8
Defpoints
 62
     0
100
AcDbPoint
 10
4513.212199293848
 20
2158.964640640069
 30
0.0
  0
POINT
  5
52C0
330
52B6
100
AcDbEntity
  8
Defpoints
 62
     0
100
AcDbPoint
 10
4607.239043231384
 20
2083.964640640069
 30
0.0
  0
POINT
  5
52C1
330
52B6
100
AcDbEntity
  8
Defpoints
 62
     0
100
AcDbPoint
 10
4481.793610005163
 20
2083.964640640069
 30
0.0
  0
ENDBLK
  5
52B8
330
52B6
100
AcDbEntity
  8
0
100
AcDbBlockEnd
  0
BLOCK
  5
52C3
330
52C2
100
AcDbEntity
  8
0
100
AcDbBlockBegin
  2
*D28
 70
     1
 10
0.0
 20
0.0
 30
0.0
  3
*D28
  1

  0
LINE
  5
52C5
330
52C2
100
AcDbEntity
  8
Dim
  6
Continuous
 62
     0
370
    -2
100
AcDbLine
 10
4557.239043231384
 20
2083.964640640069
 30
0.0
 11
4481.793610005163
 21
2083.964640640069
 31
0.0
  0
LINE
  5
52C6
330
52C2
100
AcDbEntity
  8
Dim
  6
Continuous
 62
     0
370
    -2
100
AcDbLine
 10
4771.913308648911
 20
1993.964640640069
 30
0.0
 11
4481.793610005163
 21
1993.96464064007
 31
0.0
  0
LINE
  5
52C7
330
52C2
100
AcDbEntity
  8
Dim
  6
Continuous
 62
     0
370
    -2
100
AcDbLine
 10
4481.793610005163
 20
2073.965250991632
 30
0.0
 11
4481.793610005163
 21
2003.964030288507
 31
0.0
  0
INSERT
  5
52C8
330
52C2
100
AcDbEntity
  8
Dim
 62
     0
370
    -2
100
AcDbBlockReference
  2
_DOT
 10
4481.793610005163
 20
2083.964640640069
 30
0.0
 41
9.999389648437498
 42
9.999389648437498
 43
9.999389648437498
 50
90.0
  0
INSERT
  5
52C9
330
52C2
100
AcDbEntity
  8
Dim
 62
     0
370
    -2
100
AcDbBlockReference
  2
_DOT
 10
4481.793610005163
 20
1993.96464064007
 30
0.0
 41
9.999389648437498
 42
9.999389648437498
 43
9.999389648437498
 50
270.0
  0
MTEXT
  5
52CA
330
52C2
100
AcDbEntity
  8
Dim
 62
     0
100
AcDbMText
 10
4459.577301411413
 20
2038.964640640069
 30
0.0
 40
24.4326171875
 41
0.0
 46
0.0
 71
     5
 72
     1
  1
\A1;90
  7
ＭＳ ゴシック
 11
0.0
 21
1.0
 31
0.0
 73
     1
 44
1.0
  0
POINT
  5
52CB
330
52C2
100
AcDbEntity
  8
Defpoints
 62
     0
100
AcDbPoint
 10
4582.239043231384
 20
2083.964640640069
 30
0.0
  0
POINT
  5
52CC
330
52C2
100
AcDbEntity
  8
Defpoints
 62
     0
100
AcDbPoint
 10
4796.913308648911
 20
1993.964640640069
 30
0.0
  0
POINT
  5
52CD
330
52C2
100
AcDbEntity
  8
Defpoints
 62
     0
100
AcDbPoint
 10
4481.793610005163
 20
1993.96464064007
 30
0.0
  0
ENDBLK
  5
52C4
330
52C2
100
AcDbEntity
  8
0
100
AcDbBlockEnd
  0
BLOCK
  5
52CF
330
52CE
100
AcDbEntity
  8
0
100
AcDbBlockBegin
  2
*D29
 70
     1
 10
0.0
 20
0.0
 30
0.0
  3
*D29
  1

  0
LINE
  5
52D1
330
52CE
100
AcDbEntity
  8
Dim
  6
Continuous
 62
     0
370
    -2
100
AcDbLine
 10
4513.212199293848
 20
2173.964640640069
 30
0.0
 11
4481.793610005163
 21
2173.964640640069
 31
0.0
  0
LINE
  5
52D2
330
52CE
100
AcDbEntity
  8
Dim
  6
Continuous
 62
     0
370
    -2
100
AcDbLine
 10
4513.212199293848
 20
2158.964640640069
 30
0.0
 11
4481.793610005163
 21
2158.964640640069
 31
0.0
  0
LINE
  5
52D3
330
52CE
100
AcDbEntity
  8
Dim
  6
Continuous
 62
     0
370
    -2
100
AcDbLine
 10
4481.793610005163
 20
2173.964640640069
 30
0.0
 11
4481.793610005163
 21
2240.741568374446
 31
0.0
  0
LINE
  5
52D4
330
52CE
100
AcDbEntity
  8
Dim
  6
Continuous
 62
     0
370
    -2
100
AcDbLine
 10
4481.793610005163
 20
2163.965250991632
 30
0.0
 11
4481.793610005163
 21
2168.964030288507
 31
0.0
  0
LINE
  5
52D5
330
52CE
100
AcDbEntity
  8
Dim
  6
Continuous
 62
     0
370
    -2
100
AcDbLine
 10
4481.793610005163
 20
2163.965250991632
 30
0.0
 11
4481.793610005163
 21
2153.965861343194
 31
0.0
  0
INSERT
  5
52D6
330
52CE
100
AcDbEntity
  8
Dim
 62
     0
370
    -2
100
AcDbBlockReference
  2
_DOT
 10
4481.793610005163
 20
2173.964640640069
 30
0.0
 41
9.999389648437498
 42
9.999389648437498
 43
9.999389648437498
 50
90.0
  0
INSERT
  5
52D7
330
52CE
100
AcDbEntity
  8
Dim
 62
     0
370
    -2
100
AcDbBlockReference
  2
_DOT
 10
4481.793610005163
 20
2158.964640640069
 30
0.0
 41
9.999389648437498
 42
9.999389648437498
 43
9.999389648437498
 50
270.0
  0
MTEXT
  5
52D8
330
52CE
100
AcDbEntity
  8
Dim
 62
     0
100
AcDbMText
 10
4459.577301411413
 20
2217.352494155696
 30
0.0
 40
24.4326171875
 41
0.0
 46
0.0
 71
     5
 72
     1
  1
\A1;15
  7
ＭＳ ゴシック
 11
0.0
 21
1.0
 31
0.0
 73
     1
 44
1.0
  0
POINT
  5
52D9
330
52CE
100
AcDbEntity
  8
Defpoints
 62
     0
100
AcDbPoint
 10
4538.212199293848
 20
2173.964640640069
 30
0.0
  0
POINT
  5
52DA
330
52CE
100
AcDbEntity
  8
Defpoints
 62
     0
100
AcDbPoint
 10
4538.212199293848
 20
2158.964640640069
 30
0.0
  0
POINT
  5
52DB
330
52CE
100
AcDbEntity
  8
Defpoints
 62
     0
100
AcDbPoint
 10
4481.793610005163
 20
2158.964640640069
 30
0.0
  0
ENDBLK
  5
52D0
330
52CE
100
AcDbEntity
  8
0
100
AcDbBlockEnd
  0
BLOCK
  5
52DD
330
52DC
100
AcDbEntity
  8
0
100
AcDbBlockBegin
  2
*D30
 70
     1
 10
0.0
 20
0.0
 30
0.0
  3
*D30
  1

  0
LINE
  5
52DF
330
52DC
100
AcDbEntity
  8
Dim
 62
     0
370
    -2
100
AcDbLine
 10
3316.625344362462
 20
2133.964630656148
 30
0.0
 11
3030.365652271027
 21
2133.964630656148
 31
0.0
  0
LINE
  5
52E0
330
52DC
100
AcDbEntity
  8
Dim
 62
     0
370
    -2
100
AcDbLine
 10
3087.831646616417
 20
2173.964630656148
 30
0.0
 11
3030.365652271027
 21
2173.964630656148
 31
0.0
  0
LINE
  5
52E1
330
52DC
100
AcDbEntity
  8
Dim
 62
     0
370
    -2
100
AcDbLine
 10
3030.365652271027
 20
2143.964020304585
 30
0.0
 11
3030.365652271027
 21
2163.96524100771
 31
0.0
  0
INSERT
  5
52E2
330
52DC
100
AcDbEntity
  8
Dim
 62
     0
370
    -2
100
AcDbBlockReference
  2
_DOT
 10
3030.365652271027
 20
2133.964630656148
 30
0.0
 41
9.999389648437498
 42
9.999389648437498
 43
9.999389648437498
 50
270.0
  0
INSERT
  5
52E3
330
52DC
100
AcDbEntity
  8
Dim
 62
     0
370
    -2
100
AcDbBlockReference
  2
_DOT
 10
3030.365652271027
 20
2173.964630656148
 30
0.0
 41
9.999389648437498
 42
9.999389648437498
 43
9.999389648437498
 50
90.0
  0
MTEXT
  5
52E4
330
52DC
100
AcDbEntity
  8
Dim
 62
     0
100
AcDbMText
 10
3008.149343677277
 20
2153.964630656148
 30
0.0
 40
24.4326171875
 41
0.0
 46
0.0
 71
     5
 72
     1
  1
\A1;40
  7
ＭＳ ゴシック
 11
0.0
 21
1.0
 31
0.0
 73
     1
 44
1.0
  0
POINT
  5
52E5
330
52DC
100
AcDbEntity
  8
Defpoints
 62
     0
100
AcDbPoint
 10
3341.625344362462
 20
2133.964630656148
 30
0.0
  0
POINT
  5
52E6
330
52DC
100
AcDbEntity
  8
Defpoints
 62
     0
100
AcDbPoint
 10
3112.831646616417
 20
2173.964630656148
 30
0.0
  0
POINT
  5
52E7
330
52DC
100
AcDbEntity
  8
Defpoints
 62
     0
100
AcDbPoint
 10
3030.365652271027
 20
2173.964630656148
 30
0.0
  0
ENDBLK
  5
52DE
330
52DC
100
AcDbEntity
  8
0
100
AcDbBlockEnd
  0
BLOCK
  5
52F7
330
52F6
100
AcDbEntity
  8
0
100
AcDbBlockBegin
  2
*D31
 70
     1
 10
0.0
 20
0.0
 30
0.0
  3
*D31
  1

  0
LINE
  5
52F9
330
52F6
100
AcDbEntity
  8
Dim
 62
     0
370
    -2
100
AcDbLine
 10
1342.566113223199
 20
1422.191960896658
 30
0.0
 11
1342.566113223199
 21
1308.597090099826
 31
0.0
  0
LINE
  5
52FA
330
52F6
100
AcDbEntity
  8
Dim
 62
     0
370
    -2
100
AcDbLine
 10
1362.566113223199
 20
1422.191960896658
 30
0.0
 11
1362.566113223199
 21
1308.597090099826
 31
0.0
  0
LINE
  5
52FB
330
52F6
100
AcDbEntity
  8
Dim
 62
     0
370
    -2
100
AcDbLine
 10
1342.566113223199
 20
1308.597090099826
 30
0.0
 11
1431.590841738825
 21
1308.597090099826
 31
0.0
  0
LINE
  5
52FC
330
52F6
100
AcDbEntity
  8
Dim
 62
     0
370
    -2
100
AcDbLine
 10
1352.565502871637
 20
1308.597090099826
 30
0.0
 11
1352.566723574762
 21
1308.597090099826
 31
0.0
  0
LINE
  5
52FD
330
52F6
100
AcDbEntity
  8
Dim
 62
     0
370
    -2
100
AcDbLine
 10
1352.566723574762
 20
1308.597090099826
 30
0.0
 11
1342.567333926324
 21
1308.597090099826
 31
0.0
  0
INSERT
  5
52FE
330
52F6
100
AcDbEntity
  8
Dim
 62
     0
370
    -2
100
AcDbBlockReference
  2
_DOT
 10
1342.566113223199
 20
1308.597090099826
 30
0.0
 41
9.999389648437498
 42
9.999389648437498
 43
9.999389648437498
 50
180.0
  0
INSERT
  5
52FF
330
52F6
100
AcDbEntity
  8
Dim
 62
     0
370
    -2
100
AcDbBlockReference
  2
_DOT
 10
1362.566113223199
 20
1308.597090099826
 30
0.0
 41
9.999389648437498
 42
9.999389648437498
 43
9.999389648437498
  0
MTEXT
  5
5300
330
52F6
100
AcDbEntity
  8
Dim
 62
     0
100
AcDbMText
 10
1407.077867129449
 20
1330.813398693576
 30
0.0
 40
24.4326171875
 41
0.0
 46
0.0
 71
     5
 72
     1
  1
\A1;20
  7
ＭＳ ゴシック
 73
     1
 44
1.0
  0
POINT
  5
5301
330
52F6
100
AcDbEntity
  8
Defpoints
 62
     0
100
AcDbPoint
 10
1342.566113223199
 20
1447.191960896658
 30
0.0
  0
POINT
  5
5302
330
52F6
100
AcDbEntity
  8
Defpoints
 62
     0
100
AcDbPoint
 10
1362.566113223199
 20
1447.191960896658
 30
0.0
  0
POINT
  5
5303
330
52F6
100
AcDbEntity
  8
Defpoints
 62
     0
100
AcDbPoint
 10
1362.566113223199
 20
1308.597090099826
 30
0.0
  0
ENDBLK
  5
52F8
330
52F6
100
AcDbEntity
  8
0
100
AcDbBlockEnd
  0
BLOCK
  5
5305
330
5304
100
AcDbEntity
  8
0
100
AcDbBlockBegin
  2
*D32
 70
     1
 10
0.0
 20
0.0
 30
0.0
  3
*D32
  1

  0
LINE
  5
5307
330
5304
100
AcDbEntity
  8
Dim
 62
     0
370
    -2
100
AcDbLine
 10
1342.566113223199
 20
1559.191960896658
 30
0.0
 11
1342.566113223199
 21
1672.421183548083
 31
0.0
  0
LINE
  5
5308
330
5304
100
AcDbEntity
  8
Dim
 62
     0
370
    -2
100
AcDbLine
 10
1392.566113223199
 20
1559.191960896658
 30
0.0
 11
1392.566113223199
 21
1672.421183548083
 31
0.0
  0
LINE
  5
5309
330
5304
100
AcDbEntity
  8
Dim
 62
     0
370
    -2
100
AcDbLine
 10
1352.565502871637
 20
1672.421183548083
 30
0.0
 11
1382.566723574762
 21
1672.421183548083
 31
0.0
  0
INSERT
  5
530A
330
5304
100
AcDbEntity
  8
Dim
 62
     0
370
    -2
100
AcDbBlockReference
  2
_DOT
 10
1342.566113223199
 20
1672.421183548083
 30
0.0
 41
9.999389648437498
 42
9.999389648437498
 43
9.999389648437498
 50
180.0
  0
INSERT
  5
530B
330
5304
100
AcDbEntity
  8
Dim
 62
     0
370
    -2
100
AcDbBlockReference
  2
_DOT
 10
1392.566113223199
 20
1672.421183548083
 30
0.0
 41
9.999389648437498
 42
9.999389648437498
 43
9.999389648437498
  0
MTEXT
  5
530C
330
5304
100
AcDbEntity
  8
Dim
 62
     0
100
AcDbMText
 10
1367.566113223199
 20
1694.637492141833
 30
0.0
 40
24.4326171875
 41
0.0
 46
0.0
 71
     5
 72
     1
  1
\A1;50
  7
ＭＳ ゴシック
 73
     1
 44
1.0
  0
POINT
  5
530D
330
5304
100
AcDbEntity
  8
Defpoints
 62
     0
100
AcDbPoint
 10
1342.566113223199
 20
1534.191960896658
 30
0.0
  0
POINT
  5
530E
330
5304
100
AcDbEntity
  8
Defpoints
 62
     0
100
AcDbPoint
 10
1392.566113223199
 20
1534.191960896658
 30
0.0
  0
POINT
  5
530F
330
5304
100
AcDbEntity
  8
Defpoints
 62
     0
100
AcDbPoint
 10
1392.566113223199
 20
1672.421183548083
 30
0.0
  0
ENDBLK
  5
5306
330
5304
100
AcDbEntity
  8
0
100
AcDbBlockEnd
  0
BLOCK
  5
5326
330
5325
100
AcDbEntity
  8
0
100
AcDbBlockBegin
  2
*D33
 70
     1
 10
0.0
 20
0.0
 30
0.0
  3
*D33
  1

  0
LINE
  5
5328
330
5325
100
AcDbEntity
  8
Dim
 62
     0
370
    -2
100
AcDbLine
 10
1018.77573235149
 20
1537.191964660657
 30
0.0
 11
1089.192180018747
 21
1537.191964660657
 31
0.0
  0
LINE
  5
5329
330
5325
100
AcDbEntity
  8
Dim
 62
     0
370
    -2
100
AcDbLine
 10
998.7757323514902
 20
1437.191964660657
 30
0.0
 11
1089.192180018747
 21
1437.191964660657
 31
0.0
  0
LINE
  5
532A
330
5325
100
AcDbEntity
  8
Dim
 62
     0
370
    -2
100
AcDbLine
 10
1089.192180018747
 20
1527.192575012219
 30
0.0
 11
1089.192180018747
 21
1447.191354309094
 31
0.0
  0
INSERT
  5
532B
330
5325
100
AcDbEntity
  8
Dim
 62
     0
370
    -2
100
AcDbBlockReference
  2
_DOT
 10
1089.192180018747
 20
1537.191964660657
 30
0.0
 41
9.999389648437498
 42
9.999389648437498
 43
9.999389648437498
 50
90.0
  0
INSERT
  5
532C
330
5325
100
AcDbEntity
  8
Dim
 62
     0
370
    -2
100
AcDbBlockReference
  2
_DOT
 10
1089.192180018747
 20
1437.191964660657
 30
0.0
 41
9.999389648437498
 42
9.999389648437498
 43
9.999389648437498
 50
270.0
  0
MTEXT
  5
532D
330
5325
100
AcDbEntity
  8
Dim
 62
     0
100
AcDbMText
 10
1066.975871424997
 20
1486.191964660657
 30
0.0
 40
24.4326171875
 41
0.0
 46
0.0
 71
     5
 72
     1
  1
\A1;100
  7
ＭＳ ゴシック
 11
0.0
 21
1.0
 31
0.0
 73
     1
 44
1.0
  0
POINT
  5
532E
330
5325
100
AcDbEntity
  8
Defpoints
 62
     0
100
AcDbPoint
 10
993.7757323514902
 20
1537.191964660657
 30
0.0
  0
POINT
  5
532F
330
5325
100
AcDbEntity
  8
Defpoints
 62
     0
100
AcDbPoint
 10
973.7757323514902
 20
1437.191964660657
 30
0.0
  0
POINT
  5
5330
330
5325
100
AcDbEntity
  8
Defpoints
 62
     0
100
AcDbPoint
 10
1089.192180018747
 20
1437.191964660657
 30
0.0
  0
ENDBLK
  5
5327
330
5325
100
AcDbEntity
  8
0
100
AcDbBlockEnd
  0
BLOCK
  5
5332
330
5331
100
AcDbEntity
  8
0
100
AcDbBlockBegin
  2
*D34
 70
     1
 10
0.0
 20
0.0
 30
0.0
  3
*D34
  1

  0
LINE
  5
5334
330
5331
100
AcDbEntity
  8
Dim
 62
     0
370
    -2
100
AcDbLine
 10
993.7757323514902
 20
1429.317205371053
 30
0.0
 11
993.7757323514904
 21
1308.597093863825
 31
0.0
  0
LINE
  5
5335
330
5331
100
AcDbEntity
  8
Dim
 62
     0
370
    -2
100
AcDbLine
 10
453.7757323514902
 20
1432.191964660657
 30
0.0
 11
453.7757323514903
 21
1308.597093863825
 31
0.0
  0
LINE
  5
5336
330
5331
100
AcDbEntity
  8
Dim
 62
     0
370
    -2
100
AcDbLine
 10
983.7763427030529
 20
1308.597093863825
 30
0.0
 11
463.7751219999278
 21
1308.597093863825
 31
0.0
  0
INSERT
  5
5337
330
5331
100
AcDbEntity
  8
Dim
 62
     0
370
    -2
100
AcDbBlockReference
  2
_DOT
 10
993.7757323514904
 20
1308.597093863825
 30
0.0
 41
9.999389648437498
 42
9.999389648437498
 43
9.999389648437498
  0
INSERT
  5
5338
330
5331
100
AcDbEntity
  8
Dim
 62
     0
370
    -2
100
AcDbBlockReference
  2
_DOT
 10
453.7757323514903
 20
1308.597093863825
 30
0.0
 41
9.999389648437498
 42
9.999389648437498
 43
9.999389648437498
 50
180.0
  0
MTEXT
  5
5339
330
5331
100
AcDbEntity
  8
Dim
 62
     0
100
AcDbMText
 10
723.7757323514903
 20
1330.813402457575
 30
0.0
 40
24.4326171875
 41
0.0
 46
0.0
 71
     5
 72
     1
  1
\A1;540
  7
ＭＳ ゴシック
 73
     1
 44
1.0
  0
POINT
  5
533A
330
5331
100
AcDbEntity
  8
Defpoints
 62
     0
100
AcDbPoint
 10
993.7757323514902
 20
1454.317205371053
 30
0.0
  0
POINT
  5
533B
330
5331
100
AcDbEntity
  8
Defpoints
 62
     0
100
AcDbPoint
 10
453.7757323514902
 20
1457.191964660657
 30
0.0
  0
POINT
  5
533C
330
5331
100
AcDbEntity
  8
Defpoints
 62
     0
100
AcDbPoint
 10
453.7757323514903
 20
1308.597093863825
 30
0.0
  0
ENDBLK
  5
5333
330
5331
100
AcDbEntity
  8
0
100
AcDbBlockEnd
  0
BLOCK
  5
533E
330
533D
100
AcDbEntity
  8
0
100
AcDbBlockBegin
  2
*D35
 70
     1
 10
0.0
 20
0.0
 30
0.0
  3
*D35
  1

  0
LINE
  5
5340
330
533D
100
AcDbEntity
  8
Dim
 62
     0
370
    -2
100
AcDbLine
 10
993.7757323514902
 20
1562.191964660657
 30
0.0
 11
993.7757323514902
 21
1672.421187312082
 31
0.0
  0
LINE
  5
5341
330
533D
100
AcDbEntity
  8
Dim
 62
     0
370
    -2
100
AcDbLine
 10
973.7757323514902
 20
1562.191964660657
 30
0.0
 11
973.7757323514902
 21
1672.421187312082
 31
0.0
  0
LINE
  5
5342
330
533D
100
AcDbEntity
  8
Dim
 62
     0
370
    -2
100
AcDbLine
 10
993.7757323514902
 20
1672.421187312082
 30
0.0
 11
900.2114896689762
 21
1672.421187312082
 31
0.0
  0
LINE
  5
5343
330
533D
100
AcDbEntity
  8
Dim
 62
     0
370
    -2
100
AcDbLine
 10
983.7763427030527
 20
1672.421187312082
 30
0.0
 11
983.7751219999277
 21
1672.421187312082
 31
0.0
  0
LINE
  5
5344
330
533D
100
AcDbEntity
  8
Dim
 62
     0
370
    -2
100
AcDbLine
 10
983.7751219999277
 20
1672.421187312082
 30
0.0
 11
993.7745116483652
 21
1672.421187312082
 31
0.0
  0
INSERT
  5
5345
330
533D
100
AcDbEntity
  8
Dim
 62
     0
370
    -2
100
AcDbBlockReference
  2
_DOT
 10
993.7757323514902
 20
1672.421187312082
 30
0.0
 41
9.999389648437498
 42
9.999389648437498
 43
9.999389648437498
  0
INSERT
  5
5346
330
533D
100
AcDbEntity
  8
Dim
 62
     0
370
    -2
100
AcDbBlockReference
  2
_DOT
 10
973.7757323514902
 20
1672.421187312082
 30
0.0
 41
9.999389648437498
 42
9.999389648437498
 43
9.999389648437498
 50
180.0
  0
MTEXT
  5
5347
330
533D
100
AcDbEntity
  8
Dim
 62
     0
100
AcDbMText
 10
924.7244642783512
 20
1694.637495905832
 30
0.0
 40
24.4326171875
 41
0.0
 46
0.0
 71
     5
 72
     1
  1
\A1;20
  7
ＭＳ ゴシック
 73
     1
 44
1.0
  0
POINT
  5
5348
330
533D
100
AcDbEntity
  8
Defpoints
 62
     0
100
AcDbPoint
 10
993.7757323514902
 20
1537.191964660657
 30
0.0
  0
POINT
  5
5349
330
533D
100
AcDbEntity
  8
Defpoints
 62
     0
100
AcDbPoint
 10
973.7757323514902
 20
1537.191964660657
 30
0.0
  0
POINT
  5
534A
330
533D
100
AcDbEntity
  8
Defpoints
 62
     0
100
AcDbPoint
 10
973.7757323514902
 20
1672.421187312082
 30
0.0
  0
ENDBLK
  5
533F
330
533D
100
AcDbEntity
  8
0
100
AcDbBlockEnd
  0
ENDSEC
  0
SECTION
  2
ENTITIES
  0
MTEXT
  5
177
330
A
100
AcDbEntity
  8
template
390
1D
100
AcDbMText
 10
82.00000000048226
 20
348.023957835319
 30
0.0
 40
16.28841145833333
 41
0.0
 46
0.0
 71
     1
 72
     1
  1
品名
  7
ＭＳ ゴシック
 73
     1
 44
0.7828267384257843
  0
MTEXT
  5
178
330
A
100
AcDbEntity
  8
template
390
1D
100
AcDbMText
 10
82.00000000048226
 20
263.0239578353188
 30
0.0
 40
16.28841145833333
 41
0.0
 46
0.0
 71
     1
 72
     1
  1
仕様
  7
ＭＳ ゴシック
 73
     1
 44
0.7828267384257843
  0
LINE
  5
179
330
A
100
AcDbEntity
  8
template
390
1D
100
AcDbLine
 10
2025.0
 20
271.4388797103189
 30
0.0
 11
75.00000000000023
 21
271.4388797103189
 31
0.0
  0
LWPOLYLINE
  5
17A
330
A
100
AcDbEntity
  8
template
390
1D
100
AcDbPolyline
 90
        5
 70
   128
 43
0.0
 10
2025.0
 20
2901.438879710319
 10
75.00000000000023
 20
2901.438879710319
 10
75.00000000000023
 20
101.4388797103188
 10
2025.0
 20
101.4388797103188
 10
2025.0
 20
2901.438879710319
  0
LINE
  5
17B
330
A
100
AcDbEntity
  8
template
390
1D
100
AcDbLine
 10
2025.0
 20
356.4388797103188
 30
0.0
 11
75.00000000000023
 21
356.4388797103188
 31
0.0
  0
LINE
  5
17C
330
A
100
AcDbEntity
  8
template
390
1D
100
AcDbLine
 10
2025.000000000482
 20
186.4388797103189
 30
0.0
 11
1272.000000000482
 21
186.4388797103189
 31
0.0
  0
MTEXT
  5
17E
330
A
100
AcDbEntity
  8
template
390
1D
100
AcDbMText
 10
1301.871406252743
 20
156.5284852370108
 30
0.0
 40
24.4326171875
 41
0.0
 46
0.0
 71
     1
 72
     1
  1
大洋金物株式会社 ティーフォルム事業部
  7
ＭＳ ゴシック
 73
     1
 44
0.7828267384257843
  0
MTEXT
  5
180
330
A
100
AcDbEntity
  8
template
390
1D
100
AcDbMText
 10
1834.000000000742
 20
234.4414968978188
 30
0.0
 40
24.4326171875
 41
0.0
 46
0.0
 71
     1
 72
     1
  1
1:10
  7
ＭＳ ゴシック
 73
     1
 44
0.7828267384257843
  0
MTEXT
  5
181
330
A
100
AcDbEntity
  8
template
390
1D
100
AcDbMText
 10
1781.000000000742
 20
263.0239578353188
 30
0.0
 40
16.28841145833333
 41
0.0
 46
0.0
 71
     1
 72
     1
  1
縮尺
  7
ＭＳ ゴシック
 73
     1
 44
0.7828267384257843
  0
LINE
  5
182
330
A
100
AcDbEntity
  8
template
390
1D
100
AcDbLine
 10
1774.000000000742
 20
186.4388797103189
 30
0.0
 11
1774.000000000742
 21
271.4388797103189
 31
0.0
  0
MTEXT
  5
183
330
A
100
AcDbEntity
  8
template
390
1D
100
AcDbMText
 10
1530.000000000742
 20
263.0239578353188
 30
0.0
 40
16.28841145833333
 41
0.0
 46
0.0
 71
     1
 72
     1
  1
容量
  7
ＭＳ ゴシック
 73
     1
 44
0.7828267384257843
  0
LINE
  5
184
330
A
100
AcDbEntity
  8
template
390
1D
100
AcDbLine
 10
1523.000000000742
 20
186.4388797103189
 30
0.0
 11
1523.000000000742
 21
271.4388797103189
 31
0.0
  0
MTEXT
  5
185
330
A
100
AcDbEntity
  8
template
390
1D
100
AcDbMText
 10
1279.000000000742
 20
348.023957835319
 30
0.0
 40
16.28841145833333
 41
0.0
 46
0.0
 71
     1
 72
     1
  1
品番
  7
ＭＳ ゴシック
 73
     1
 44
0.7828267384257843
  0
MTEXT
  5
186
330
A
100
AcDbEntity
  8
template
390
1D
100
AcDbMText
 10
1279.000000000742
 20
263.0239578353188
 30
0.0
 40
16.28841145833333
 41
0.0
 46
0.0
 71
     1
 72
     1
  1
重量
  7
ＭＳ ゴシック
 73
     1
 44
0.7828267384257843
  0
MTEXT
  5
187
330
A
100
AcDbEntity
  8
template
390
1D
100
AcDbMText
 10
1332.000000000742
 20
319.4414968978188
 30
0.0
 40
24.4326171875
 41
0.0
 46
24.4326171875
 71
     1
 72
     1
  1
{ADF75-2603}
  7
ＭＳ ゴシック
 73
     1
 44
0.7828267384257843
1001
ACAD
1000
ACAD_MTEXT_DEFINED_HEIGHT_BEGIN
1070
    46
1040
24.4326171875
1000
ACAD_MTEXT_DEFINED_HEIGHT_END
  0
LINE
  5
188
330
A
100
AcDbEntity
  8
template
390
1D
100
AcDbLine
 10
1272.000000000742
 20
101.4388797103188
 30
0.0
 11
1272.000000000742
 21
356.4388797103188
 31
0.0
  0
MTEXT
  5
189
330
A
100
AcDbEntity
  8
template
390
1D
100
AcDbMText
 10
135.0000000004822
 20
319.4414968978188
 30
0.0
 40
24.4326171875
 41
0.0
 46
27.5355595703125
 71
     1
 72
     1
  1
{タオルバー -CATALANO, Green-}
  7
ＭＳ ゴシック
 73
     1
 44
0.7828267384257843
1001
ACAD
1000
ACAD_MTEXT_DEFINED_HEIGHT_BEGIN
1070
    46
1040
27.5355595703125
1000
ACAD_MTEXT_DEFINED_HEIGHT_END
  0
MTEXT
  5
18A
330
A
100
AcDbEntity
  8
template
 62
     1
390
1D
100
AcDbMText
 10
135.0000000004822
 20
234.4414968978188
 30
0.0
 40
24.4326171875
 41
0.0
 46
24.7991064453125
 71
     1
 72
     1
  1
{\C256;クローム}
  7
ＭＳ ゴシック
 73
     1
 44
0.9822934569727008
1001
ACAD
1000
ACAD_MTEXT_DEFINED_HEIGHT_BEGIN
1070
    46
1040
24.7991064453125
1000
ACAD_MTEXT_DEFINED_HEIGHT_END
  0
INSERT
  5
3D0
330
A
100
AcDbEntity
  8
template
100
AcDbBlockReference
  2
名称未設定-1
 10
1873.559250554905
 20
30.23897196054438
 30
0.0
 41
0.7619999999999999
 42
0.7619999999999999
 43
0.7619999999999999
  0
MTEXT
  5
BDB
102
{ACAD_XDICTIONARY
360
BDC
102
}
330
A
100
AcDbEntity
  8
template
  6
Continuous
100
AcDbMText
 10
78.95663872901252
 20
86.10730750352229
 30
0.0
 40
23.0
 41
0.0
 46
23.0
 71
     1
 72
     1
  1
{20170601N}
  7
ＭＳ ゴシック
 73
     1
 44
1.0
1001
ACAD
1000
ACAD_MTEXT_DEFINED_HEIGHT_BEGIN
1070
    46
1040
23.0
1000
ACAD_MTEXT_DEFINED_HEIGHT_END
  0
LWPOLYLINE
  5
BEE
330
A
100
AcDbEntity
  8
PRINT BORDER
100
AcDbPolyline
 90
        4
 70
     1
 43
0.0
 10
0.0
 20
0.0
 10
0.0
 20
2970.0
 10
2100.0
 20
2970.0
 10
2100.0
 20
0.0
  0
INSERT
  5
1273
330
A
100
AcDbEntity
  8
0
 62
     7
100
AcDbBlockReference
  2
BLOCK_2
 10
591.2037060744204
 20
943.564364962162
 30
0.0
  0
INSERT
  5
127B
330
A
100
AcDbEntity
  8
0
 62
     7
100
AcDbBlockReference
  2
BLOCK_2
 10
1291.863324028138
 20
1038.76992320659
 30
0.0
  0
INSERT
  5
127C
330
A
100
AcDbEntity
  8
0
 62
     7
100
AcDbBlockReference
  2
BLOCK_2
 10
652.1648429406905
 20
1595.641631888467
 30
0.0
  0
CIRCLE
  5
142C
330
A
100
AcDbEntity
  8
Dim
  6
Continuous
100
AcDbCircle
 10
1366.841726484681
 20
1758.85027442579
 30
0.0
 40
0.0
  0
INSERT
  5
3B99
330
A
100
AcDbEntity
  8
retino
100
AcDbBlockReference
  2
mobile_latù
 10
-92101.31485198285
 20
1730.415535296608
 30
0.0
  0
INSERT
  5
467E
330
A
100
AcDbEntity
  8
retino
100
AcDbBlockReference
  2
mobile_latù
 10
-100894.893236163
 20
1696.039721945452
 30
0.0
  0
LINE
  5
5204
330
A
100
AcDbEntity
  8
HIDDEN
100
AcDbLine
 10
1787.566141123998
 20
1521.191982047319
 30
0.0
 11
1787.566135734407
 21
1493.389972872879
 31
0.0
  0
LINE
  5
5205
330
A
100
AcDbEntity
  8
HIDDEN
100
AcDbLine
 10
1562.566103225681
 20
1622.191969528161
 30
0.0
 11
1338.213831416971
 21
1622.191971920816
 31
0.0
  0
LINE
  5
5206
330
A
100
AcDbEntity
  8
HIDDEN
100
AcDbLine
 10
1562.566103228949
 20
1622.191969528161
 30
0.0
 11
1663.259865230995
 21
1622.191971907807
 31
0.0
  0
LINE
  5
5207
330
A
100
AcDbEntity
  8
HIDDEN
100
AcDbLine
 10
1390.5209354082
 20
1532.191967779617
 30
0.0
 11
1347.312200955751
 21
1532.191969668325
 31
0.0
  0
SPLINE
  5
520F
330
A
100
AcDbEntity
  8
HIDDEN
100
AcDbSpline
210
0.0
220
0.0
230
1.0
 70
     8
 71
     3
 72
    11
 73
     7
 74
     0
 42
0.000000001
 43
0.0000000001
 40
0.0426690687078568
 40
0.0426690687078568
 40
0.0426690687078568
 40
0.0426690687078568
 40
0.2473152828254048
 40
0.4986799133960036
 40
0.7507009005484674
 40
0.9442546350990875
 40
0.9442546350990875
 40
0.9442546350990875
 40
0.9442546350990875
 10
1518.03475933198
 20
1482.439940474294
 30
0.0
 10
1507.139017932534
 20
1482.980726200469
 30
0.0
 10
1485.269005027196
 20
1484.812475666454
 30
0.0
 10
1455.660246781053
 20
1492.130243121537
 30
0.0
 10
1420.864471644825
 20
1508.754960165266
 30
0.0
 10
1399.47531389117
 20
1524.385299998602
 30
0.0
 10
1390.520935314356
 20
1532.191967861449
 30
0.0
  0
ARC
  5
5210
330
A
100
AcDbEntity
  8
HIDDEN
100
AcDbCircle
 10
1517.638185407729
 20
1474.44977595016
 30
0.0
 40
7.999999999999997
100
AcDbArc
 50
5.004440374796593
 51
87.15858394403587
  0
LINE
  5
5214
330
A
100
AcDbEntity
  8
HIDDEN
100
AcDbLine
 10
1540.631437363547
 20
1443.362851638717
 30
0.0
 11
1584.500789082855
 21
1443.362851638717
 31
0.0
  0
ARC
  5
5215
330
A
100
AcDbEntity
  8
HIDDEN
100
AcDbCircle
 10
1785.566137927253
 20
1620.191980708398
 30
0.0
 40
2.000000000000001
100
AcDbArc
 50
0.0000018509545846
 51
89.99999999994789
  0
LINE
  5
5216
330
A
100
AcDbEntity
  8
HIDDEN
100
AcDbLine
 10
1269.544327142109
 20
1622.191980708398
 30
0.0
 11
1338.21386616843
 21
1622.191980708398
 31
0.0
  0
LINE
  5
5217
330
A
100
AcDbEntity
  8
HIDDEN
100
AcDbLine
 10
1663.259553417297
 20
1622.191980708398
 30
0.0
 11
1785.566137927248
 21
1622.191980708398
 31
0.0
  0
LINE
  5
5218
330
A
100
AcDbEntity
  8
HIDDEN
100
AcDbLine
 10
1341.275590984266
 20
1532.191981982985
 30
0.0
 11
1347.312213270408
 21
1532.191981982985
 31
0.0
  0
ARC
  5
521F
330
A
100
AcDbEntity
  8
HIDDEN
100
AcDbCircle
 10
1269.544327142109
 20
1620.191980708398
 30
0.0
 40
1.999999999999951
100
AcDbArc
 50
90.00000000010422
 51
134.7279843816964
  0
SPLINE
  5
5220
330
A
100
AcDbEntity
  8
HIDDEN
100
AcDbSpline
210
0.0
220
0.0
230
1.0
 70
     8
 71
     3
 72
    17
 73
    13
 74
     0
 42
0.000000001
 43
0.0000000001
 40
0.0
 40
0.0
 40
0.0
 40
0.0
 40
0.1049192283147714
 40
0.2099518058146858
 40
0.3674916391447353
 40
0.5774004750583902
 40
0.7349186791225699
 40
1.107938989796829
 40
1.509852652280386
 40
2.022604290891892
 40
3.096378764525114
 40
4.05089330224943
 40
4.05089330224943
 40
4.05089330224943
 40
4.05089330224943
 10
1268.136843567527
 20
1621.61289238309
 30
0.0
 10
1268.11200872053
 20
1621.588292233871
 30
0.0
 10
1268.06413489373
 20
1621.536965024068
 30
0.0
 10
1267.995334434455
 20
1621.435236880097
 30
0.0
 10
1267.923750036307
 20
1621.294651860828
 30
0.0
 10
1267.860910904987
 20
1621.131140379983
 30
0.0
 10
1267.788218274478
 20
1620.895172938638
 30
0.0
 10
1267.719023947039
 20
1620.591851674056
 30
0.0
 10
1267.653371317429
 20
1620.167475028509
 30
0.0
 10
1267.591183516576
 20
1619.507286105297
 30
0.0
 10
1267.56925698885
 20
1618.660163016924
 30
0.0
 10
1267.566113223202
 20
1617.984128543532
 30
0.0
 10
1267.566113223202
 20
1617.665959741607
 30
0.0
  0
ARC
  5
5221
330
A
100
AcDbEntity
  8
HIDDEN
100
AcDbCircle
 10
1286.782554642366
 20
1609.339059252357
 30
0.0
 40
2.000000000000013
100
AcDbArc
 50
200.0000051563722
 51
270.9875683839269
  0
ARC
  5
5222
330
A
100
AcDbEntity
  8
HIDDEN
100
AcDbCircle
 10
1281.879167705054
 20
1608.191981982985
 30
0.0
 40
3.000000000000015
100
AcDbArc
 50
20.00000515639223
 51
89.99999999979156
  0
LINE
  5
5223
330
A
100
AcDbEntity
  8
HIDDEN
100
AcDbLine
 10
1281.879167705055
 20
1611.191981982985
 30
0.0
 11
1281.136492882852
 21
1611.191981982985
 31
0.0
  0
LINE
  5
5224
330
A
100
AcDbEntity
  8
HIDDEN
100
AcDbLine
 10
1284.903169462363
 20
1608.655018796554
 30
0.0
 11
1284.698245475057
 21
1609.218042666696
 31
0.0
  0
ARC
  5
5225
330
A
100
AcDbEntity
  8
HIDDEN
100
AcDbCircle
 10
1326.998426435718
 20
1601.191981982985
 30
0.0
 40
8.000000000000028
100
AcDbArc
 50
2.00000000021221
 51
50.19325241569497
  0
LINE
  5
5226
330
A
100
AcDbEntity
  8
HIDDEN
100
AcDbLine
 10
1334.99355305187
 20
1601.471177956605
 30
0.0
 11
1337.27802767619
 21
1536.052383996175
 31
0.0
  0
ARC
  5
5227
330
A
100
AcDbEntity
  8
HIDDEN
100
AcDbCircle
 10
1341.275590984263
 20
1536.191981982985
 30
0.0
 40
3.999999999999983
100
AcDbArc
 50
182.0000000002123
 51
269.9999999998437
  0
SPLINE
  5
5228
330
A
100
AcDbEntity
  8
HIDDEN
100
AcDbSpline
210
0.0
220
0.0
230
1.0
 70
     8
 71
     3
 72
    22
 73
    18
 74
     0
 42
0.000000001
 43
0.0000000001
 40
91.87356897004798
 40
91.87356897004798
 40
91.87356897004798
 40
91.87356897004798
 40
100.0813088752635
 40
108.8042557415753
 40
115.4030381659343
 40
122.3161384629516
 40
129.3778758781131
 40
137.9281545878174
 40
146.0899301795447
 40
154.3206965046134
 40
160.5256343949947
 40
170.9611979909269
 40
182.8069653081208
 40
189.5759875923838
 40
193.6974828994557
 40
198.2311278983391
 40
202.7647699208373
 40
202.7647699208373
 40
202.7647699208373
 40
202.7647699208373
 10
1679.231630330691
 20
1513.752400997316
 30
0.0
 10
1678.570698625958
 20
1511.097463320167
 30
0.0
 10
1677.061164341872
 20
1505.657069758862
 30
0.0
 10
1674.445475049636
 20
1498.256179888827
 30
0.0
 10
1671.436130398628
 20
1491.477580280369
 30
0.0
 10
1668.160107007613
 20
1485.445426536047
 30
0.0
 10
1663.972592426328
 20
1479.202121581917
 30
0.0
 10
1658.828467850969
 20
1473.15259951265
 30
0.0
 10
1652.668843544051
 20
1467.544039484251
 30
0.0
 10
1646.510778101556
 20
1463.183256856856
 30
0.0
 10
1639.292768673735
 20
1459.09020580128
 30
0.0
 10
1630.56205220576
 20
1455.308858554511
 30
0.0
 10
1621.252507008747
 20
1452.580736266907
 30
0.0
 10
1613.817241398569
 20
1451.095863855727
 30
0.0
 10
1608.73224571386
 20
1450.330895019382
 30
0.0
 10
1604.363334264619
 20
1449.834728928682
 30
0.0
 10
1601.349350387694
 20
1449.602141263916
 30
0.0
 10
1599.841156580243
 20
1449.5077103867
 30
0.0
  0
LINE
  5
5229
330
A
100
AcDbEntity
  8
HIDDEN
100
AcDbLine
 10
1528.151195559808
 20
1446.10115279856
 30
0.0
 11
1525.607688932569
 21
1475.147639523922
 31
0.0
  0
LINE
  5
522A
330
A
100
AcDbEntity
  8
HIDDEN
100
AcDbLine
 10
1597.040061350754
 20
1446.775272368445
 30
0.0
 11
1596.981030886596
 21
1446.10115279856
 31
0.0
  0
ARC
  5
522B
330
A
100
AcDbEntity
  8
HIDDEN
100
AcDbCircle
 10
1531.139775878659
 20
1446.362869643467
 30
0.0
 40
3.000018004804335
100
AcDbArc
 50
185.0047554410077
 51
269.9996849314496
  0
ARC
  5
522C
330
A
100
AcDbEntity
  8
HIDDEN
100
AcDbCircle
 10
1593.992450567743
 20
1446.362869643467
 30
0.0
 40
3.000018004804442
100
AcDbArc
 50
270.0003150683419
 51
354.9952445589926
  0
LINE
  5
522D
330
A
100
AcDbEntity
  8
HIDDEN
100
AcDbLine
 10
1593.992467064782
 20
1443.362851638717
 30
0.0
 11
1584.500789082855
 21
1443.362851638717
 31
0.0
  0
LINE
  5
522E
330
A
100
AcDbEntity
  8
HIDDEN
100
AcDbLine
 10
1540.631437363547
 20
1443.362851638717
 30
0.0
 11
1531.139759381622
 21
1443.362851638717
 31
0.0
  0
ARC
  5
522F
330
A
100
AcDbEntity
  8
HIDDEN
100
AcDbCircle
 10
1600.028657680052
 20
1446.51354020401
 30
0.0
 40
3.000035290691296
100
AcDbArc
 50
93.58330053691091
 51
174.9949797716379
  0
SPLINE
  5
5230
330
A
100
AcDbEntity
  8
HIDDEN
100
AcDbSpline
210
0.0
220
0.0
230
1.0
 70
     8
 71
     3
 72
    24
 73
    20
 74
     0
 42
0.000000001
 43
0.0000000001
 40
0.0
 40
0.0
 40
0.0
 40
0.0
 40
0.2792847445832108
 40
0.584694167130716
 40
1.119073164097033
 40
1.500823475970269
 40
2.1878474641131
 40
2.915908823599282
 40
3.725688458846579
 40
4.670407276020208
 40
5.615075986947477
 40
7.369619489338124
 40
8.71919533004684
 40
9.393998647292106
 40
10.20376080959008
 40
11.58185135630691
 40
13.07390393799898
 40
14.8643656145419
 40
16.32326112783698
 40
16.32326112783698
 40
16.32326112783698
 40
16.32326112783698
 10
1267.566113223202
 20
1617.665959741607
 30
0.0
 10
1267.566113223202
 20
1617.57286929743
 30
0.0
 10
1267.566633599498
 20
1617.377929433969
 30
0.0
 10
1267.592369323876
 20
1617.00541346208
 30
0.0
 10
1267.676619982668
 20
1616.605337625973
 30
0.0
 10
1267.867083726715
 20
1616.104835179452
 30
0.0
 10
1268.168678786927
 20
1615.584398771992
 30
0.0
 10
1268.641316289434
 20
1615.010424899031
 30
0.0
 10
1269.246040324999
 20
1614.443466528907
 30
0.0
 10
1269.967017753598
 20
1613.903233395809
 30
0.0
 10
1271.00188732787
 20
1613.265341286801
 30
0.0
 10
1272.221281513558
 20
1612.680964683452
 30
0.0
 10
1273.406930310531
 20
1612.252219759298
 30
0.0
 10
1274.315576270767
 20
1611.992605154205
 30
0.0
 10
1275.245310271958
 20
1611.776845274908
 30
0.0
 10
1276.450141041336
 20
1611.544820128859
 30
0.0
 10
1277.990457545617
 20
1611.337344628387
 30
0.0
 10
1279.56706558825
 20
1611.217992542638
 30
0.0
 10
1280.650237507464
 20
1611.191980708398
 30
0.0
 10
1281.136492882852
 20
1611.191980708398
 30
0.0
  0
LINE
  5
5231
330
A
100
AcDbEntity
  8
HIDDEN
100
AcDbLine
 10
1787.566137927248
 20
1620.191980772978
 30
0.0
 11
1787.566141123998
 21
1521.191982047319
 31
0.0
  0
SPLINE
  5
5232
330
A
100
AcDbEntity
  8
HIDDEN
100
AcDbSpline
210
0.0
220
0.0
230
1.0
 70
     8
 71
     3
 72
    20
 73
    16
 74
     0
 42
0.000000001
 43
0.0000000001
 40
0.0
 40
0.0
 40
0.0
 40
0.0
 40
0.0400452939236202
 40
0.074815118393307
 40
0.1088898394938656
 40
0.1748157994708659
 40
0.2695951901089518
 40
0.3359159841659832
 40
0.4769480615292822
 40
0.6253059692910966
 40
0.9640648791932787
 40
1.309849763976002
 40
1.652578922443703
 40
1.985768269176833
 40
2.092054174688216
 40
2.092054174688216
 40
2.092054174688216
 40
2.092054174688216
 10
1787.566120308173
 20
1620.191963376018
 30
0.0
 10
1787.566120307569
 20
1620.192215775772
 30
0.0
 10
1787.566116993485
 20
1620.188632088836
 30
0.0
 10
1787.566528837302
 20
1620.170390355073
 30
0.0
 10
1787.567556437431
 20
1620.137575763692
 30
0.0
 10
1787.569668843822
 20
1620.079881661128
 30
0.0
 10
1787.572309836267
 20
1620.007218302306
 30
0.0
 10
1787.57545614845
 20
1619.908443772227
 30
0.0
 10
1787.578406937038
 20
1619.790531582584
 30
0.0
 10
1787.58149737646
 20
1619.581345545455
 30
0.0
 10
1787.581304068125
 20
1619.303513627055
 30
0.0
 10
1787.576715669911
 20
1618.962292039904
 30
0.0
 10
1787.571141513665
 20
1618.62497460463
 30
0.0
 10
1787.568107178759
 20
1618.368325512877
 30
0.0
 10
1787.567170901462
 20
1618.224154539296
 30
0.0
 10
1787.56698282153
 20
1618.189260035571
 30
0.0
  0
LINE
  5
5233
330
A
100
AcDbEntity
  8
HIDDEN
100
AcDbLine
 10
1750.331773459386
 20
1513.75240099732
 30
0.0
 11
1679.231623898648
 21
1513.75240099732
 31
0.0
  0
SPLINE
  5
5234
330
A
100
AcDbEntity
  8
HIDDEN
100
AcDbSpline
210
0.0
220
0.0
230
1.0
 70
     8
 71
     3
 72
    29
 73
    25
 74
     0
 42
0.000000001
 43
0.0000000001
 40
0.0
 40
0.0
 40
0.0
 40
0.0
 40
1.144523990415572
 40
2.718251314899159
 40
3.576652024543054
 40
4.148922448373324
 40
5.722694605273682
 40
6.581165927377305
 40
7.296681919174817
 40
7.582982551946657
 40
7.869480571074305
 40
8.156246174262316
 40
8.589534959735548
 40
8.81393659646259
 40
9.024416494613426
 40
9.157947373260416
 40
9.30549922636918
 40
9.472092183454166
 40
9.75672491354256
 40
10.2007329923472
 40
10.6429340251699
 40
11.31178332520636
 40
12.37406592028665
 40
13.63657168133378
 40
13.63657168133378
 40
13.63657168133378
 40
13.63657168133378
 10
1764.000419201377
 20
1491.390154580287
 30
0.0
 10
1763.619483509407
 20
1491.39014815582
 30
0.0
 10
1762.712406926432
 20
1491.476737246259
 30
0.0
 10
1761.572122277352
 20
1491.857166263427
 30
0.0
 10
1760.703073353705
 20
1492.360150937769
 30
0.0
 10
1759.901106856763
 20
1492.961904472824
 30
0.0
 10
1759.213946393456
 20
1493.702258654601
 30
0.0
 10
1758.668280262538
 20
1494.601565383381
 30
0.0
 10
1758.418261576129
 20
1495.170065092992
 30
0.0
 10
1758.278786051368
 20
1495.576093528455
 30
0.0
 10
1758.19879331186
 20
1495.850993086721
 30
0.0
 10
1758.120677297422
 20
1496.176441134004
 30
0.0
 10
1758.06595785603
 20
1496.485214025545
 30
0.0
 10
1758.031952387721
 20
1496.763440733316
 30
0.0
 10
1758.017429179676
 20
1496.930474886706
 30
0.0
 10
1758.010289355895
 20
1497.039666234072
 30
0.0
 10
1758.006652014736
 20
1497.108903545937
 30
0.0
 10
1758.003980610064
 20
1497.170702002585
 30
0.0
 10
1758.002018674948
 20
1497.227745939839
 30
0.0
 10
1758.000630609638
 20
1497.277539564492
 30
0.0
 10
1757.999246261574
 20
1497.335068080537
 30
0.0
 10
1757.997496116781
 20
1497.418264525557
 30
0.0
 10
1757.994925321231
 20
1497.555958300312
 30
0.0
 10
1757.992525132953
 20
1497.695714866269
 30
0.0
 10
1757.991080110733
 20
1497.781914229439
 30
0.0
  0
SPLINE
  5
5235
330
A
100
AcDbEntity
  8
HIDDEN
100
AcDbSpline
210
0.0
220
0.0
230
1.0
 70
     8
 71
     3
 72
    14
 73
    10
 74
     0
 42
0.000000001
 43
0.0000000001
 40
6.236272387136724
 40
6.236272387136724
 40
6.236272387136724
 40
6.236272387136724
 40
7.27218712990739
 40
7.554095750858888
 40
7.840577286280135
 40
8.996244706344841
 40
9.576441393030882
 40
10.16449815899884
 40
10.46595855785197
 40
10.46595855785197
 40
10.46595855785197
 40
10.46595855785197
 10
1757.693157277974
 20
1510.844921224307
 30
0.0
 10
1757.56651158776
 20
1510.964929817469
 30
0.0
 10
1757.394488969727
 20
1511.116322515452
 30
0.0
 10
1757.171974056753
 20
1511.296964499771
 30
0.0
 10
1756.927028732314
 20
1511.489431566813
 30
0.0
 10
1756.62402531585
 20
1511.710074323003
 30
0.0
 10
1756.25156067999
 20
1511.961551874723
 30
0.0
 10
1755.995825624188
 20
1512.126840909309
 30
0.0
 10
1755.822172996965
 20
1512.22990385253
 30
0.0
 10
1755.768888440378
 20
1512.259422587063
 30
0.0
  0
SPLINE
  5
5236
330
A
100
AcDbEntity
  8
HIDDEN
100
AcDbSpline
210
0.0
220
0.0
230
1.0
 70
     8
 71
     3
 72
    14
 73
    10
 74
     0
 42
0.000000001
 43
0.0000000001
 40
0.0
 40
0.0
 40
0.0
 40
0.0
 40
0.7865190798536503
 40
1.571777958198719
 40
2.36578249925083
 40
2.769083596629298
 40
2.973127370160989
 40
3.26577510669344
 40
3.534467104740798
 40
3.534467104740798
 40
3.534467104740798
 40
3.534467104740798
 10
1750.331773459386
 20
1513.75240099732
 30
0.0
 10
1753.190108450264
 20
1513.427586685058
 30
0.0
 10
1753.614502808789
 20
1513.280729599114
 30
0.0
 10
1754.251319449294
 20
1513.015665233375
 30
0.0
 10
1754.78268761478
 20
1512.765719178444
 30
0.0
 10
1755.154719498047
 20
1512.580268539335
 30
0.0
 10
1755.389837771207
 20
1512.460291149552
 30
0.0
 10
1755.585280817323
 20
1512.358707267929
 30
0.0
 10
1755.714196017165
 20
1512.2897212569
 30
0.0
 10
1755.768888440989
 20
1512.259422586729
 30
0.0
  0
SPLINE
  5
5237
330
A
100
AcDbEntity
  8
HIDDEN
100
AcDbSpline
210
0.0
220
0.0
230
1.0
 70
     8
 71
     3
 72
    21
 73
    17
 74
     0
 42
0.000000001
 43
0.0000000001
 40
0.9940314678969252
 40
0.9940314678969252
 40
0.9940314678969252
 40
0.9940314678969252
 40
2.33499849966966
 40
4.086248958563067
 40
7.005962429132927
 40
10.51073121743808
 40
15.18688478305525
 40
22.20203853209823
 40
30.96889776844385
 40
38.56475558843782
 40
46.16088276241696
 40
54.92851095952638
 40
61.94343362437604
 40
66.03432980204468
 40
69.53985641552013
 40
72.66420345094376
 40
72.66420345094376
 40
72.66420345094376
 40
72.66420345094376
 10
1286.79794963632
 20
1607.339067397078
 30
0.0
 10
1286.808739782408
 20
1607.339079176679
 30
0.0
 10
1286.851553860251
 20
1607.339100800171
 30
0.0
 10
1287.01145594442
 20
1607.338790377362
 30
0.0
 10
1287.387938520159
 20
1607.337190682658
 30
0.0
 10
1288.159160418663
 20
1607.333465068317
 30
0.0
 10
1289.635598987979
 20
1607.327404445976
 30
0.0
 10
1292.358012156378
 20
1607.324717596063
 30
0.0
 10
1296.509815042112
 20
1607.330421215323
 30
0.0
 10
1301.779935830577
 20
1607.333430552192
 30
0.0
 10
1307.888328988138
 20
1607.328067377624
 30
0.0
 10
1314.578306684363
 20
1607.322413368856
 30
0.0
 10
1320.710398789559
 20
1607.326061467123
 30
0.0
 10
1325.389595790924
 20
1607.33197015526
 30
0.0
 10
1328.890692433793
 20
1607.335852807176
 30
0.0
 10
1331.083051617363
 20
1607.337207462326
 30
0.0
 10
1332.11993110696
 20
1607.337697156813
 30
0.0
  0
LINE
  5
5238
330
A
100
AcDbEntity
  8
HIDDEN
100
AcDbLine
 10
1785.566135734407
 20
1491.389972808297
 30
0.0
 11
1764.000416069352
 21
1491.389972808297
 31
0.0
  0
ARC
  5
5239
330
A
100
AcDbEntity
  8
HIDDEN
100
AcDbCircle
 10
1785.566135734407
 20
1493.389972808297
 30
0.0
 40
2.0
100
AcDbArc
 50
270.0
 51
0.0000018501208213
  0
ARC
  5
523A
330
A
100
AcDbEntity
  8
HIDDEN
100
AcDbCircle
 10
1050.06628601545
 20
1536.19197199908
 30
0.0
 40
4.000000000000011
100
AcDbArc
 50
270.0
 51
358.0000000000223
  0
LINE
  5
523B
330
A
100
AcDbEntity
  8
HIDDEN
100
AcDbLine
 10
1054.063849323525
 20
1536.052374012271
 30
0.0
 11
1056.348323947846
 21
1601.4711679727
 31
0.0
  0
ARC
  5
523C
330
A
100
AcDbEntity
  8
HIDDEN
100
AcDbCircle
 10
1064.343450563998
 20
1601.19197199908
 30
0.0
 40
8.0
100
AcDbArc
 50
129.7928973004178
 51
177.9999999998139
  0
ARC
  5
523D
330
A
100
AcDbEntity
  8
HIDDEN
100
AcDbCircle
 10
1104.559300915667
 20
1609.339050146064
 30
0.0
 40
1.999999999999995
100
AcDbArc
 50
270.960918452249
 51
339.9999999999574
  0
LINE
  5
523E
330
A
100
AcDbEntity
  8
HIDDEN
100
AcDbLine
 10
1106.643609613815
 20
1609.218032429055
 30
0.0
 11
1106.636803949785
 21
1609.199334020833
 31
0.0
  0
SPLINE
  5
523F
330
A
100
AcDbEntity
  8
HIDDEN
100
AcDbSpline
210
0.0
220
0.0
230
1.0
 70
     8
 71
     7
 72
    31
 73
    23
 74
     0
 42
0.000000001
 43
0.0000000001
 40
0.0
 40
0.0
 40
0.0
 40
0.0
 40
0.0
 40
0.0
 40
0.0
 40
0.0
 40
0.3811359999999999
 40
0.3811359999999999
 40
0.3811359999999999
 40
0.3811359999999999
 40
0.3811359999999999
 40
0.4591999999999999
 40
0.4591999999999999
 40
0.4591999999999999
 40
0.4591999999999999
 40
0.4591999999999999
 40
0.82
 40
0.82
 40
0.82
 40
0.82
 40
0.82
 40
1.0
 40
1.0
 40
1.0
 40
1.0
 40
1.0
 40
1.0
 40
1.0
 40
1.0
 10
1110.205352296334
 20
1611.191970724489
 30
0.0
 10
1111.094126048609
 20
1611.191970724489
 30
0.0
 10
1111.982899800869
 20
1611.223201318268
 30
0.0
 10
1112.870378858579
 20
1611.280064139811
 30
0.0
 10
1113.755932170834
 20
1611.369155433462
 30
0.0
 10
1114.637277852389
 20
1611.492579591653
 30
0.0
 10
1115.691598149666
 20
1611.684488780558
 30
0.0
 10
1116.734844259243
 20
1611.926046514533
 30
0.0
 10
1116.911990106217
 20
1611.967963409815
 30
0.0
 10
1117.088542203282
 20
1612.012549807202
 30
0.0
 10
1117.264199821477
 20
1612.060449345741
 30
0.0
 10
1118.247922040255
 20
1612.343005512097
 30
0.0
 10
1119.207458511251
 20
1612.705385063008
 30
0.0
 10
1119.976894437766
 20
1613.04992416058
 30
0.0
 10
1120.72592809173
 20
1613.445354091893
 30
0.0
 10
1121.439135539282
 20
1613.893432973748
 30
0.0
 10
1122.454261514484
 20
1614.670325496372
 30
0.0
 10
1123.240916382661
 20
1615.661487225416
 30
0.0
 10
1123.471341258273
 20
1616.018243828001
 30
0.0
 10
1123.646305688127
 20
1616.402869456037
 30
0.0
 10
1123.774700850534
 20
1616.826463194339
 30
0.0
 10
1123.775731955984
 20
1617.24620647602
 30
0.0
 10
1123.775731955984
 20
1617.665949757705
 30
0.0
  0
ARC
  5
5240
330
A
100
AcDbEntity
  8
HIDDEN
100
AcDbCircle
 10
1121.797518037079
 20
1620.191970724489
 30
0.0
 40
2.000000000000011
100
AcDbArc
 50
45.27201561833582
 51
90.0
  0
LINE
  5
5241
102
{ACAD_REACTORS
102
}
330
A
100
AcDbEntity
  8
HIDDEN
100
AcDbLine
 10
325.7539459854543
 20
1622.191970724489
 30
0.0
 11
392.0023345357276
 21
1622.191970724489
 31
0.0
  0
LINE
  5
5242
330
A
100
AcDbEntity
  8
HIDDEN
100
AcDbLine
 10
1055.549129486791
 20
1622.191970724489
 30
0.0
 11
1121.797518037079
 21
1622.191970724489
 31
0.0
  0
LINE
  5
5243
330
A
100
AcDbEntity
  8
HIDDEN
100
AcDbLine
 10
392.0023346590697
 20
1622.191970724489
 30
0.0
 11
1055.549129363464
 21
1622.191970724489
 31
0.0
  0
ARC
  5
5244
330
A
100
AcDbEntity
  8
HIDDEN
100
AcDbCircle
 10
325.7539459854543
 20
1620.191970724489
 30
0.0
 40
1.999999999999991
100
AcDbArc
 50
90.0
 51
134.727984381678
  0
SPLINE
  5
5245
330
A
100
AcDbEntity
  8
HIDDEN
100
AcDbSpline
210
0.0
220
0.0
230
1.0
 70
     8
 71
     7
 72
    31
 73
    23
 74
     0
 42
0.000000001
 43
0.0000000001
 40
0.0
 40
0.0
 40
0.0
 40
0.0
 40
0.0
 40
0.0
 40
0.0
 40
0.0
 40
0.3811359999999999
 40
0.3811359999999999
 40
0.3811359999999999
 40
0.3811359999999999
 40
0.3811359999999999
 40
0.4591999999999999
 40
0.4591999999999999
 40
0.4591999999999999
 40
0.4591999999999999
 40
0.4591999999999999
 40
0.82
 40
0.82
 40
0.82
 40
0.82
 40
0.82
 40
1.0
 40
1.0
 40
1.0
 40
1.0
 40
1.0
 40
1.0
 40
1.0
 40
1.0
 10
337.346111726185
 20
1611.191970724489
 30
0.0
 10
336.457337973925
 20
1611.19197072449
 30
0.0
 10
335.5685642216649
 20
1611.223201318269
 30
0.0
 10
334.6810851639548
 20
1611.280064139811
 30
0.0
 10
333.7955318516997
 20
1611.369155433463
 30
0.0
 10
332.9141861701301
 20
1611.492579591654
 30
0.0
 10
331.8598658728679
 20
1611.68448878056
 30
0.0
 10
330.8166197632909
 20
1611.926046514535
 30
0.0
 10
330.6394739163024
 20
1611.967963409816
 30
0.0
 10
330.4629218192367
 20
1612.012549807204
 30
0.0
 10
330.287264201057
 20
1612.060449345742
 30
0.0
 10
329.3035419822645
 20
1612.343005512099
 30
0.0
 10
328.3440055112678
 20
1612.70538506301
 30
0.0
 10
327.5745695847672
 20
1613.049924160582
 30
0.0
 10
326.8255359308041
 20
1613.445354091896
 30
0.0
 10
326.1123284832374
 20
1613.893432973749
 30
0.0
 10
325.09720250805
 20
1614.670325496373
 30
0.0
 10
324.3105476398723
 20
1615.661487225417
 30
0.0
 10
324.080122764246
 20
1616.018243828003
 30
0.0
 10
323.9051583344062
 20
1616.402869456038
 30
0.0
 10
323.7767631719998
 20
1616.82646319434
 30
0.0
 10
323.7757320665351
 20
1617.246206476023
 30
0.0
 10
323.7757320665351
 20
1617.665949757705
 30
0.0
  0
LINE
  5
5246
330
A
100
AcDbEntity
  8
HIDDEN
100
AcDbLine
 10
341.1059591500907
 20
1608.67374412544
 30
0.0
 11
341.1127778652826
 21
1608.655009859413
 31
0.0
  0
ARC
  5
5247
330
A
100
AcDbEntity
  8
HIDDEN
100
AcDbCircle
 10
342.9921631068664
 20
1609.339050146064
 30
0.0
 40
1.999999999999995
100
AcDbArc
 50
200.0000000000427
 51
269.8593623617532
  0
ARC
  5
5248
330
A
100
AcDbEntity
  8
HIDDEN
100
AcDbCircle
 10
383.2080134585212
 20
1601.191971999081
 30
0.0
 40
8.0
100
AcDbArc
 50
2.000000000186114
 51
50.20686508457154
  0
LINE
  5
5249
330
A
100
AcDbEntity
  8
HIDDEN
100
AcDbLine
 10
393.4876146989936
 20
1536.052374012271
 30
0.0
 11
391.2031400746728
 21
1601.4711679727
 31
0.0
  0
ARC
  5
524A
330
A
100
AcDbEntity
  8
HIDDEN
100
AcDbCircle
 10
397.4851780070694
 20
1536.191971999081
 30
0.0
 40
3.999999999999954
100
AcDbArc
 50
181.9999999999777
 51
270.0
  0
LINE
  5
524B
330
A
100
AcDbEntity
  8
HIDDEN
100
AcDbLine
 10
397.4851780070694
 20
1532.191971999081
 30
0.0
 11
443.4571560499553
 21
1532.191971999081
 31
0.0
  0
LINE
  5
524C
330
A
100
AcDbEntity
  8
HIDDEN
100
AcDbLine
 10
443.4571560499553
 20
1532.191971999081
 30
0.0
 11
1004.094307972578
 21
1532.19197199908
 31
0.0
  0
LINE
  5
524D
330
A
100
AcDbEntity
  8
HIDDEN
100
AcDbLine
 10
1050.06628601545
 20
1532.19197199908
 30
0.0
 11
1004.094307972578
 21
1532.19197199908
 31
0.0
  0
SPLINE
  5
524E
330
A
100
AcDbEntity
  8
HIDDEN
100
AcDbSpline
210
0.0
220
0.0
230
1.0
 70
     8
 71
     7
 72
    21
 73
    13
 74
     0
 42
0.000000001
 43
0.0000000001
 40
0.0
 40
0.0
 40
0.0
 40
0.0
 40
0.0
 40
0.0
 40
0.0
 40
0.0
 40
0.8399999999999999
 40
0.8399999999999999
 40
0.8399999999999999
 40
0.8399999999999999
 40
0.8399999999999999
 40
1.0
 40
1.0
 40
1.0
 40
1.0
 40
1.0
 40
1.0
 40
1.0
 40
1.0
 10
1123.775731955984
 20
1617.665949757705
 30
0.0
 10
1123.775731955984
 20
1618.15206703221
 30
0.0
 10
1123.773471603921
 20
1618.638184306716
 30
0.0
 10
1123.762551967937
 20
1619.122285493952
 30
0.0
 10
1123.761709000997
 20
1619.614838901203
 30
0.0
 10
1123.711330995933
 20
1620.092023568223
 30
0.0
 10
1123.640525072473
 20
1620.676286659629
 30
0.0
 10
1123.448061436744
 20
1621.222436818902
 30
0.0
 10
1123.415087975163
 20
1621.310717283299
 30
0.0
 10
1123.370452900397
 20
1621.387482331814
 30
0.0
 10
1123.33304957294
 20
1621.479005012198
 30
0.0
 10
1123.270785393624
 20
1621.547720296399
 30
0.0
 10
1123.205001611664
 20
1621.612882399179
 30
0.0
  0
SPLINE
  5
524F
330
A
100
AcDbEntity
  8
HIDDEN
100
AcDbSpline
210
0.0
220
0.0
230
1.0
 70
     8
 71
     7
 72
    21
 73
    13
 74
     0
 42
0.000000001
 43
0.0000000001
 40
0.0
 40
0.0
 40
0.0
 40
0.0
 40
0.0
 40
0.0
 40
0.0
 40
0.0
 40
0.8399999999999999
 40
0.8399999999999999
 40
0.8399999999999999
 40
0.8399999999999999
 40
0.8399999999999999
 40
1.0
 40
1.0
 40
1.0
 40
1.0
 40
1.0
 40
1.0
 40
1.0
 40
1.0
 10
323.7757320665351
 20
1617.665949757705
 30
0.0
 10
323.7757320665351
 20
1618.152067032211
 30
0.0
 10
323.7779924186125
 20
1618.638184306717
 30
0.0
 10
323.7889120545824
 20
1619.122285493953
 30
0.0
 10
323.7897550215221
 20
1619.614838901205
 30
0.0
 10
323.8401330266006
 20
1620.092023568224
 30
0.0
 10
323.9109389500609
 20
1620.676286659631
 30
0.0
 10
324.1034025857898
 20
1621.222436818902
 30
0.0
 10
324.1363760473705
 20
1621.310717283301
 30
0.0
 10
324.1810111221221
 20
1621.387482331815
 30
0.0
 10
324.2184144495786
 20
1621.479005012199
 30
0.0
 10
324.2806786288947
 20
1621.5477202964
 30
0.0
 10
324.3464624108692
 20
1621.61288239918
 30
0.0
  0
LINE
  5
5250
330
A
100
AcDbEntity
  8
HIDDEN
100
AcDbLine
 10
392.0023346782782
 20
1611.191970724489
 30
0.0
 11
337.346111726185
 21
1611.191970724489
 31
0.0
  0
LINE
  5
5251
330
A
100
AcDbEntity
  8
HIDDEN
100
AcDbLine
 10
1055.549129363464
 20
1611.191970724489
 30
0.0
 11
392.0023346590697
 21
1611.19197072449
 31
0.0
  0
LINE
  5
5252
330
A
100
AcDbEntity
  8
HIDDEN
100
AcDbLine
 10
1110.205352296334
 20
1611.191970724489
 30
0.0
 11
1055.549129344241
 21
1611.191970724489
 31
0.0
  0
SPLINE
  5
5253
330
A
100
AcDbEntity
  8
HIDDEN
100
AcDbSpline
210
0.0
220
0.0
230
1.0
 70
     8
 71
     3
 72
    38
 73
    34
 74
     0
 42
0.000000001
 43
0.0000000001
 40
0.0
 40
0.0
 40
0.0
 40
0.0
 40
4.47990976529544
 40
7.710621576736441
 40
13.4906880139258
 40
16.72967712007585
 40
19.60807212251432
 40
21.68492354451616
 40
23.12643950605514
 40
24.56012809352037
 40
26.81734569149116
 40
29.1151247263799
 40
31.03880736442535
 40
34.0091281172575
 40
36.96808813301514
 40
38.01714099219318
 40
38.64487060154493
 40
40.73047714757219
 40
42.17777460916184
 40
43.81178693994725
 40
45.47101307059533
 40
46.32126592610095
 40
47.60772946946612
 40
48.90329313421351
 40
50.20048361456234
 40
51.27724267747347
 40
52.55989801721024
 40
55.10196915535946
 40
56.58255022368043
 40
58.06844993348213
 40
61.70372314076599
 40
64.38716433817208
 40
70.56337406251691
 40
70.56337406251691
 40
70.56337406251691
 40
70.56337406251691
 10
723.7757320112673
 20
1482.439930490387
 30
0.0
 10
722.2909015932764
 20
1482.439930490387
 30
0.0
 10
719.7352318689318
 20
1482.437770536647
 30
0.0
 10
715.3012069671913
 20
1482.427924728829
 30
0.0
 10
711.3433128032284
 20
1482.41342617911
 30
0.0
 10
707.6141437158603
 20
1482.396032754065
 30
0.0
 10
705.1119271402222
 20
1482.383120907484
 30
0.0
 10
703.2073532912273
 20
1482.372788820118
 30
0.0
 10
701.7620755932676
 20
1482.364734629812
 30
0.0
 10
700.2913784419743
 20
1482.356401935768
 30
0.0
 10
698.6221773158995
 20
1482.34743217318
 30
0.0
 10
696.8836318499762
 20
1482.340808781691
 30
0.0
 10
695.0218357504436
 20
1482.337474560688
 30
0.0
 10
693.0757953060911
 20
1482.337557110208
 30
0.0
 10
691.4497560344844
 20
1482.339720915103
 30
0.0
 10
690.4195154019781
 20
1482.34156578129
 30
0.0
 10
689.6009166200183
 20
1482.343189671303
 30
0.0
 10
688.7280903213923
 20
1482.345224154557
 30
0.0
 10
687.6972476673345
 20
1482.348411596352
 30
0.0
 10
686.7901881207454
 20
1482.350940970872
 30
0.0
 10
686.0375438573337
 20
1482.351685226434
 30
0.0
 10
685.3794380114068
 20
1482.351633100298
 30
0.0
 10
684.8087507484979
 20
1482.351345716127
 30
0.0
 10
684.1977089833472
 20
1482.351172257892
 30
0.0
 10
683.6524018628352
 20
1482.351605711158
 30
0.0
 10
683.1392043684991
 20
1482.352896991827
 30
0.0
 10
682.4910120441727
 20
1482.355968276518
 30
0.0
 10
681.8578510870666
 20
1482.36116795468
 30
0.0
 10
681.2759146570406
 20
1482.366857475096
 30
0.0
 10
680.6465877790124
 20
1482.373359959539
 30
0.0
 10
680.0433175672752
 20
1482.379900211193
 30
0.0
 10
679.3608037215399
 20
1482.387690862167
 30
0.0
 10
679.1609969044603
 20
1482.390080841289
 30
0.0
 10
679.1609968947687
 20
1482.390080847282
 30
0.0
  0
SPLINE
  5
5254
330
A
100
AcDbEntity
  8
HIDDEN
100
AcDbSpline
210
0.0
220
0.0
230
1.0
 70
     8
 71
     3
 72
     9
 73
     5
 74
     0
 42
0.000000001
 43
0.0000000001
 40
0.5918389835761423
 40
0.5918389835761423
 40
0.5918389835761423
 40
0.5918389835761423
 40
0.7526847171745952
 40
0.963737643709663
 40
0.963737643709663
 40
0.963737643709663
 40
0.963737643709663
 10
851.9717354351101
 20
1489.802272427424
 30
0.0
 10
839.7128443357301
 20
1487.767933714215
 30
0.0
 10
810.1956642687533
 20
1484.390667387853
 30
0.0
 10
782.378288339512
 20
1482.929865439841
 30
0.0
 10
768.3904671277651
 20
1482.390080847282
 30
0.0
  0
SPLINE
  5
5255
330
A
100
AcDbEntity
  8
HIDDEN
100
AcDbSpline
210
0.0
220
0.0
230
1.0
 70
     8
 71
     3
 72
    38
 73
    34
 74
     0
 42
0.000000001
 43
0.0000000001
 40
0.0
 40
0.0
 40
0.0
 40
0.0
 40
4.634168695398008
 40
7.152818055929597
 40
10.07379515576226
 40
12.14563904240748
 40
14.20403279135343
 40
15.84392216075461
 40
18.31979657218545
 40
19.37920007754766
 40
20.65925317236612
 40
22.79834607675364
 40
23.86147428363817
 40
25.54408546519025
 40
26.79356155907085
 40
28.04404112233783
 40
29.30657646788944
 40
30.79378239682692
 40
32.48711843411547
 40
34.39301432600732
 40
37.16773958586527
 40
38.66361710065482
 40
40.24510552609612
 40
41.82659395153742
 40
44.28451669982191
 40
46.3656444603544
 40
48.26608274648191
 40
51.25568425613989
 40
52.9835950024591
 40
56.04251855639461
 40
62.36619762127725
 40
66.44996518729124
 40
70.56339042619959
 40
70.56339042619959
 40
70.56339042619959
 40
70.56339042619959
 10
768.3904671277651
 20
1482.390080847282
 30
0.0
 10
768.3904669503331
 20
1482.390080840799
 30
0.0
 10
768.2695266938622
 20
1482.388648716322
 30
0.0
 10
767.83749749751
 20
1482.383638707809
 30
0.0
 10
767.3679952282641
 20
1482.378364720111
 30
0.0
 10
766.801562943228
 20
1482.372298434039
 30
0.0
 10
766.2539612247151
 20
1482.366613678011
 30
0.0
 10
765.5888416680923
 20
1482.360199986197
 30
0.0
 10
764.9590171871619
 20
1482.3553577229
 30
0.0
 10
764.3155201552095
 20
1482.35257140627
 30
0.0
 10
763.6808942041193
 20
1482.351185895449
 30
0.0
 10
762.9925228330053
 20
1482.351228626533
 30
0.0
 10
762.1892011982513
 20
1482.351628103589
 30
0.0
 10
761.4953825209609
 20
1482.351750920378
 30
0.0
 10
760.7294858483451
 20
1482.350754144964
 30
0.0
 10
760.0128616292732
 20
1482.348897578667
 30
0.0
 10
759.2240249841511
 20
1482.346423584143
 30
0.0
 10
758.3136748373449
 20
1482.343979296464
 30
0.0
 10
757.2238298078969
 20
1482.341682499119
 30
0.0
 10
755.7941491346232
 20
1482.339216866891
 30
0.0
 10
754.3327237951985
 20
1482.337644699689
 30
0.0
 10
752.8866796779998
 20
1482.337622893093
 30
0.0
 10
751.7022489724709
 20
1482.338812117849
 30
0.0
 10
750.233317030908
 20
1482.342183982781
 30
0.0
 10
748.57802066883
 20
1482.349174967329
 30
0.0
 10
746.7703128175872
 20
1482.359162899499
 30
0.0
 10
744.7562509408981
 20
1482.370560783028
 30
0.0
 10
742.7886258956664
 20
1482.381263436231
 30
0.0
 10
740.4209294627894
 20
1482.393537719813
 30
0.0
 10
736.9644231842635
 20
1482.410246488184
 30
0.0
 10
732.6296066680748
 20
1482.427081837676
 30
0.0
 10
727.8560438470099
 20
1482.437828436658
 30
0.0
 10
725.139094051317
 20
1482.439930490387
 30
0.0
 10
723.7757320112673
 20
1482.439930490387
 30
0.0
  0
ARC
  5
5256
330
A
100
AcDbEntity
  8
HIDDEN
100
AcDbCircle
 10
768.6989544156181
 20
1474.396030835351
 30
0.0
 40
7.999999999999996
100
AcDbArc
 50
92.20992535672586
 51
174.9955596260665
  0
ARC
  5
5257
330
A
100
AcDbEntity
  8
HIDDEN
100
AcDbCircle
 10
678.8525096069152
 20
1474.396030835351
 30
0.0
 40
7.999999999999996
100
AcDbArc
 50
5.004440373933518
 51
87.79007464327415
  0
LINE
  5
5258
330
A
100
AcDbEntity
  8
HIDDEN
100
AcDbLine
 10
686.8220119568523
 20
1475.093907826225
 30
0.0
 11
689.3608143478723
 21
1446.101142814653
 31
0.0
  0
LINE
  5
5259
330
A
100
AcDbEntity
  8
HIDDEN
100
AcDbLine
 10
692.3493781696834
 20
1443.362841654812
 30
0.0
 11
755.2020858528499
 21
1443.362841654812
 31
0.0
  0
ARC
  5
525A
330
A
100
AcDbEntity
  8
HIDDEN
100
AcDbCircle
 10
692.3493781696834
 20
1446.362841654812
 30
0.0
 40
2.999999999999999
100
AcDbArc
 50
185.0044403739419
 51
270.0
  0
ARC
  5
525B
330
A
100
AcDbEntity
  8
HIDDEN
100
AcDbCircle
 10
755.2020858528499
 20
1446.362841654812
 30
0.0
 40
3.000000000000001
100
AcDbArc
 50
270.0
 51
354.9955596260581
  0
LINE
  5
525C
330
A
100
AcDbEntity
  8
HIDDEN
100
AcDbLine
 10
758.190649674661
 20
1446.101142814653
 30
0.0
 11
760.7294508907739
 21
1475.093894409107
 31
0.0
  0
SPLINE
  5
525D
330
A
100
AcDbEntity
  8
HIDDEN
100
AcDbSpline
210
0.0
220
0.0
230
1.0
 70
     8
 71
     3
 72
    28
 73
    24
 74
     0
 42
0.000000001
 43
0.0000000001
 40
0.0
 40
0.0
 40
0.0
 40
0.0
 40
7.125237940280779
 40
11.16515112164143
 40
14.44118982560342
 40
16.92480045981384
 40
20.27272947609356
 40
21.96231276176506
 40
22.81086285199812
 40
23.66185054119498
 40
24.51522429270556
 40
25.37093217452554
 40
26.2289218708099
 40
27.0576977177934
 40
27.88845168959579
 40
28.72113677772702
 40
29.55570567898402
 40
31.23030247705548
 40
32.91185996706166
 40
34.59998990090941
 40
36.2943000317527
 40
37.99439432497957
 40
39.69987315659321
 40
39.69987315659321
 40
39.69987315659321
 40
39.69987315659321
 10
890.4852273659003
 20
1499.134577715069
 30
0.0
 10
888.2372630258274
 20
1498.370388589183
 30
0.0
 10
884.6921393800972
 20
1497.238011386424
 30
0.0
 10
880.0691900011684
 20
1495.898980021595
 30
0.0
 10
876.9169065300034
 20
1495.044407305946
 30
0.0
 10
873.9770379932693
 20
1494.288690478302
 30
0.0
 10
871.5412775975224
 20
1493.696244878502
 30
0.0
 10
869.6301824392808
 20
1493.253122203361
 30
0.0
 10
868.5284861130731
 20
1493.003668922048
 30
0.0
 10
867.697990954513
 20
1492.818591909614
 30
0.0
 10
866.8644934467388
 20
1492.635770856023
 30
0.0
 10
866.028317639802
 20
1492.455242711195
 30
0.0
 10
865.1988232808603
 20
1492.27896824606
 30
0.0
 10
864.3796619178261
 20
1492.107561035528
 30
0.0
 10
863.5674611233062
 20
1491.940160646846
 30
0.0
 10
862.7530310302632
 20
1491.774819415424
 30
0.0
 10
861.662718276822
 20
1491.556782794509
 30
0.0
 10
860.2941990054619
 20
1491.289250575708
 30
0.0
 10
858.6450198467592
 20
1490.976383147625
 30
0.0
 10
856.9875373535119
 20
1490.671209034614
 30
0.0
 10
855.3224064049523
 20
1490.373634408088
 30
0.0
 10
853.6494128850413
 20
1490.083421462233
 30
0.0
 10
852.5325586402992
 20
1489.895339928257
 30
0.0
 10
851.9717354351101
 20
1489.802272427424
 30
0.0
  0
LINE
  5
525E
330
A
100
AcDbEntity
  8
HIDDEN
100
AcDbLine
 10
1106.438676985674
 20
1608.654975895731
 30
0.0
 11
1106.64365353589
 21
1609.218105144724
 31
0.0
  0
LINE
  5
525F
330
A
100
AcDbEntity
  8
HIDDEN
100
AcDbLine
 10
340.9078104866294
 20
1609.218105144762
 30
0.0
 11
341.1127870368455
 21
1608.654975895749
 31
0.0
  0
ARC
  5
5260
330
A
100
AcDbEntity
  8
HIDDEN
100
AcDbCircle
 10
338.089455438394
 20
1608.192479775783
 30
0.0
 40
2.999171554701098
100
AcDbArc
 50
19.99693986112063
 51
89.89830133887467
  0
ARC
  5
5261
330
A
100
AcDbEntity
  8
HIDDEN
100
AcDbCircle
 10
1109.462008584125
 20
1608.192479775782
 30
0.0
 40
2.999171554701098
100
AcDbArc
 50
90.10169866112534
 51
160.0030601388712
  0
SPLINE
  5
5262
330
A
100
AcDbEntity
  8
HIDDEN
100
AcDbSpline
210
0.0
220
0.0
230
1.0
 70
     8
 71
     3
 72
    54
 73
    50
 74
     0
 42
0.000000001
 43
0.0000000001
 40
0.0
 40
0.0
 40
0.0
 40
0.0
 40
0.3847169476158838
 40
0.8976866196803882
 40
1.282448294803684
 40
1.410723010453713
 40
1.667361724562466
 40
1.79579509222064
 40
1.860134168823697
 40
1.989016675672927
 40
2.109153112377854
 40
2.165391704700242
 40
2.194641849564948
 40
2.223888698145239
 40
2.255041785722936
 40
2.288762567302812
 40
2.312762617021435
 40
2.336756711476272
 40
2.366074551507907
 40
2.401143517142879
 40
2.447500235583166
 40
2.510797760535612
 40
2.60805255625626
 40
2.773707841737364
 40
3.51957650583427
 40
4.264639905748028
 40
4.866677640895626
 40
5.468649388517463
 40
6.07059551933366
 40
7.575698638018264
 40
8.930531829464346
 40
10.86983375738698
 40
12.03858021362573
 40
13.2073657845566
 40
14.37622891115535
 40
16.12967660616839
 40
19.63700870486349
 40
24.89827597596848
 40
27.2363609202845
 40
30.15869660101299
 40
33.08068465125417
 40
38.92375658205722
 40
44.18233162137604
 40
52.94848962015178
 40
57.62493101948438
 40
66.39264515199517
 40
73.40470032492281
 40
76.43429583633542
 40
78.51293361865876
 40
78.51293361865876
 40
78.51293361865876
 40
78.51293361865876
 10
341.1127870800792
 20
1608.654975732424
 30
0.0
 10
341.1565879256032
 20
1608.534639609836
 30
0.0
 10
341.2861731165558
 20
1608.26298158212
 30
0.0
 10
341.55370486028
 20
1607.925180701879
 30
0.0
 10
341.8216490891882
 20
1607.710025494834
 30
0.0
 10
342.0406854507401
 20
1607.576231550462
 30
0.0
 10
342.1948409081615
 20
1607.501350019808
 30
0.0
 10
342.3352387467112
 20
1607.449161208862
 30
0.0
 10
342.4370567161623
 20
1607.416781221543
 30
0.0
 10
342.5378492611144
 20
1607.390016350516
 30
0.0
 10
342.6361680947393
 20
1607.370302790275
 30
0.0
 10
342.7023541465551
 20
1607.360002418942
 30
0.0
 10
342.7370431450199
 20
1607.355303755491
 30
0.0
 10
342.7651424582091
 20
1607.351889318499
 30
0.0
 10
342.791980206277
 20
1607.349001546085
 30
0.0
 10
342.8167151510806
 20
1607.346694997138
 30
0.0
 10
342.8344491123516
 20
1607.345222280539
 30
0.0
 10
342.8533730761792
 20
1607.343807835483
 30
0.0
 10
342.8692970294887
 20
1607.342765798566
 30
0.0
 10
342.8872699240837
 20
1607.341728895985
 30
0.0
 10
342.9041069807372
 20
1607.340912110493
 30
0.0
 10
342.9225231809487
 20
1607.340167249395
 30
0.0
 10
342.940920127332
 20
1607.339592614148
 30
0.0
 10
342.976383372059
 20
1607.3387885111
 30
0.0
 10
342.9948134980168
 20
1607.338721454784
 30
0.0
 10
343.0334471597835
 20
1607.338378486555
 30
0.0
 10
343.0754514863893
 20
1607.338154295776
 30
0.0
 10
343.1229047465695
 20
1607.337913617586
 30
0.0
 10
343.2061531967429
 20
1607.3375227845
 30
0.0
 10
343.3402376723043
 20
1607.336871446615
 30
0.0
 10
343.5797259889168
 20
1607.335644455513
 30
0.0
 10
343.8563555068049
 20
1607.33423363071
 30
0.0
 10
344.1680943918709
 20
1607.332650532625
 30
0.0
 10
344.452207775912
 20
1607.331288085958
 30
0.0
 10
344.8155687978378
 20
1607.329700623752
 30
0.0
 10
345.4477448773487
 20
1607.327335940631
 30
0.0
 10
346.6571429469132
 20
1607.324303239837
 30
0.0
 10
348.2238695367505
 20
1607.323747938745
 30
0.0
 10
349.9327798645772
 20
1607.325016832858
 30
0.0
 10
351.3800927828215
 20
1607.326675452382
 30
0.0
 10
353.6297887371275
 20
1607.329549903938
 30
0.0
 10
356.6469226064746
 20
1607.332464253434
 30
0.0
 10
361.4456179966746
 20
1607.33212339201
 30
0.0
 10
366.5212555667185
 20
1607.327237499011
 30
0.0
 10
373.0420504080485
 20
1607.325070529029
 30
0.0
 10
379.4298602576982
 20
1607.330977324656
 30
0.0
 10
385.5811652296925
 20
1607.338339778755
 30
0.0
 10
389.6066940596593
 20
1607.339183249639
 30
0.0
 10
391.3095385724682
 20
1607.339049870265
 30
0.0
 10
392.0023346590697
 20
1607.339049870265
 30
0.0
  0
LINE
  5
5263
330
A
100
AcDbEntity
  8
HIDDEN
100
AcDbLine
 10
392.0023346590697
 20
1607.339049268455
 30
0.0
 11
1055.549129363464
 21
1607.339049268455
 31
0.0
  0
SPLINE
  5
5264
330
A
100
AcDbEntity
  8
HIDDEN
100
AcDbSpline
210
0.0
220
0.0
230
1.0
 70
     8
 71
     3
 72
    44
 73
    40
 74
     0
 42
0.000000001
 43
0.0000000001
 40
0.0
 40
0.0
 40
0.0
 40
0.0
 40
3.505499781009096
 40
7.595854196603144
 40
10.517578972305
 40
15.19289050879168
 40
25.13013451063115
 40
30.97453655242023
 40
37.40201925179709
 40
40.32342723155967
 40
43.82927967626968
 40
46.16673349280376
 40
52.01130003244344
 40
55.51860970661442
 40
59.02623805831172
 40
61.36474833986058
 40
64.87204182740294
 40
66.62544766500305
 40
68.96326595300629
 40
70.13215353162627
 40
72.46968562814126
 40
73.05404350445049
 40
73.63842594152923
 40
74.22286980528243
 40
74.80743722170646
 40
75.54059853413133
 40
75.80829097155741
 40
75.94135611857317
 40
76.08199061458802
 40
76.12394095277041
 40
76.15826087635479
 40
76.28990738694301
 40
76.3951862964123
 40
76.58282185384462
 40
76.70223935433962
 40
77.08177350426632
 40
77.59296105767125
 40
78.10593278961119
 40
78.51293421050049
 40
78.51293421050049
 40
78.51293421050049
 40
78.51293421050049
 10
1055.549129363464
 20
1607.339049870264
 30
0.0
 10
1056.717247208167
 20
1607.339049870264
 30
0.0
 10
1059.249559988611
 20
1607.339322616678
 30
0.0
 10
1062.724979905886
 20
1607.337196266658
 30
0.0
 10
1066.532228147474
 20
1607.33322180553
 30
0.0
 10
1072.131491433038
 20
1607.326183886041
 30
0.0
 10
1078.338337399933
 20
1607.325361775531
 30
0.0
 10
1084.508420890235
 20
1607.330570242015
 30
0.0
 10
1088.365388472355
 20
1607.332620441053
 30
0.0
 10
1091.354738574193
 20
1607.331779982107
 30
0.0
 10
1093.25763653694
 20
1607.330213720377
 30
0.0
 10
1095.62224211373
 20
1607.327442571794
 30
0.0
 10
1097.737891588718
 20
1607.32464766415
 30
0.0
 10
1099.732116894136
 20
1607.323767001458
 30
0.0
 10
1100.994580240973
 20
1607.324780865669
 30
0.0
 10
1102.09364190962
 20
1607.327238138852
 30
0.0
 10
1102.848684218197
 20
1607.330081922659
 30
0.0
 10
1103.471903632942
 20
1607.333074223753
 30
0.0
 10
1103.828447101239
 20
1607.33491539991
 30
0.0
 10
1104.151020708401
 20
1607.336563256751
 30
0.0
 10
1104.322076853257
 20
1607.337413590606
 30
0.0
 10
1104.429330295878
 20
1607.337918024137
 30
0.0
 10
1104.475297560109
 20
1607.338148247685
 30
0.0
 10
1104.513649713723
 20
1607.338363956293
 30
0.0
 10
1104.548344058503
 20
1607.338609010691
 30
0.0
 10
1104.57130908398
 20
1607.338837982
 30
0.0
 10
1104.596712203269
 20
1607.339243869391
 30
0.0
 10
1104.619422175174
 20
1607.339858291209
 30
0.0
 10
1104.641529426104
 20
1607.340577859426
 30
0.0
 10
1104.670704977276
 20
1607.342088703571
 30
0.0
 10
1104.70367058609
 20
1607.344060525637
 30
0.0
 10
1104.7776280864
 20
1607.349945829658
 30
0.0
 10
1104.912271243907
 20
1607.368648807457
 30
0.0
 10
1105.046085368385
 20
1607.397128246926
 30
0.0
 10
1105.265009630437
 20
1607.461678374297
 30
0.0
 10
1105.575069645691
 20
1607.596789113046
 30
0.0
 10
1105.955164768233
 20
1607.876208856264
 30
0.0
 10
1106.257901673782
 20
1608.249838588197
 30
0.0
 10
1106.392346637769
 20
1608.527690238127
 30
0.0
 10
1106.438677063934
 20
1608.654976067022
 30
0.0
  0
ARC
  5
5265
330
A
100
AcDbEntity
  8
HIDDEN
100
AcDbCircle
 10
851.0957750803441
 20
1633.847368612918
 30
0.0
 40
139.7191695363184
100
AcDbArc
 50
301.9280904230692
 51
303.7036814413013
  0
SPLINE
  5
5266
330
A
100
AcDbEntity
  8
HIDDEN
100
AcDbSpline
210
0.0
220
0.0
230
1.0
 70
     8
 71
     3
 72
     8
 73
     4
 74
     0
 42
0.000000001
 43
0.0000000001
 40
141.8914270885466
 40
141.8914270885466
 40
141.8914270885466
 40
141.8914270885466
 40
164.9570700830821
 40
164.9570700830821
 40
164.9570700830821
 40
164.9570700830821
 10
928.625646342663
 20
1517.612410885206
 30
0.0
 10
935.22359438173
 20
1522.01451647612
 30
0.0
 10
941.249062990662
 20
1526.866625464113
 30
0.0
 10
946.6169739566344
 20
1532.19197199908
 30
0.0
  0
SPLINE
  5
5267
330
A
100
AcDbEntity
  8
HIDDEN
100
AcDbSpline
210
0.0
220
0.0
230
1.0
 70
     8
 71
     3
 72
    12
 73
     8
 74
     0
 42
0.000000001
 43
0.0000000001
 40
117.1105509154256
 40
117.1105509154256
 40
117.1105509154256
 40
117.1105509154256
 40
122.8287311339116
 40
131.2741688996166
 40
139.7196066653217
 40
148.1650444310267
 40
156.6104821967318
 40
156.6104821967318
 40
156.6104821967318
 40
156.6104821967318
 10
890.4852273658848
 20
1499.134607385158
 30
0.0
 10
892.3402560830823
 20
1499.765220605325
 30
0.0
 10
896.8631999103031
 20
1501.381084210281
 30
0.0
 10
903.8051706376659
 20
1504.171967599188
 30
0.0
 10
911.2261687377409
 20
1507.579077809251
 30
0.0
 10
918.3011383229555
 20
1511.262836697523
 30
0.0
 10
922.7966854028582
 20
1513.900807664972
 30
0.0
 10
924.986886186723
 20
1515.265961826768
 30
0.0
  0
SPLINE
  5
5268
330
A
100
AcDbEntity
  8
HIDDEN
100
AcDbSpline
210
0.0
220
0.0
230
1.0
 70
     8
 71
     3
 72
     9
 73
     5
 74
     0
 42
0.000000001
 43
0.0000000001
 40
0.5918389835761423
 40
0.5918389835761423
 40
0.5918389835761423
 40
0.5918389835761423
 40
0.7526847171745952
 40
0.963737643709663
 40
0.963737643709663
 40
0.963737643709663
 40
0.963737643709663
 10
595.5797285874232
 20
1489.802272427424
 30
0.0
 10
607.8386196868032
 20
1487.767933714215
 30
0.0
 10
637.355799753781
 20
1484.390667387854
 30
0.0
 10
665.1731756830213
 20
1482.929865439841
 30
0.0
 10
679.1609968947687
 20
1482.390080847282
 30
0.0
  0
SPLINE
  5
5269
330
A
100
AcDbEntity
  8
HIDDEN
100
AcDbSpline
210
0.0
220
0.0
230
1.0
 70
     8
 71
     3
 72
    28
 73
    24
 74
     0
 42
0.000000001
 43
0.0000000001
 40
0.0
 40
0.0
 40
0.0
 40
0.0
 40
7.125237940280779
 40
11.16515112164143
 40
14.44118982560342
 40
16.92480045981384
 40
20.27272947609356
 40
21.96231276176506
 40
22.81086285199812
 40
23.66185054119498
 40
24.51522429270556
 40
25.37093217452554
 40
26.2289218708099
 40
27.0576977177934
 40
27.88845168959579
 40
28.72113677772702
 40
29.55570567898402
 40
31.23030247705548
 40
32.91185996706166
 40
34.59998990090941
 40
36.2943000317527
 40
37.99439432497957
 40
39.69987315659321
 40
39.69987315659321
 40
39.69987315659321
 40
39.69987315659321
 10
557.0662366566339
 20
1499.13457771507
 30
0.0
 10
559.3142009967069
 20
1498.370388589183
 30
0.0
 10
562.8593246424371
 20
1497.238011386424
 30
0.0
 10
567.4822740213658
 20
1495.898980021596
 30
0.0
 10
570.6345574925308
 20
1495.044407305947
 30
0.0
 10
573.5744260292649
 20
1494.288690478303
 30
0.0
 10
576.0101864250119
 20
1493.696244878502
 30
0.0
 10
577.9212815832525
 20
1493.253122203362
 30
0.0
 10
579.0229779094607
 20
1493.003668922048
 30
0.0
 10
579.8534730680203
 20
1492.818591909615
 30
0.0
 10
580.6869705757945
 20
1492.635770856023
 30
0.0
 10
581.5231463827313
 20
1492.455242711195
 30
0.0
 10
582.3526407416739
 20
1492.27896824606
 30
0.0
 10
583.1718021047072
 20
1492.107561035528
 30
0.0
 10
583.9840028992276
 20
1491.940160646846
 30
0.0
 10
584.798432992271
 20
1491.774819415424
 30
0.0
 10
585.8887457457113
 20
1491.556782794509
 30
0.0
 10
587.2572650170714
 20
1491.289250575709
 30
0.0
 10
588.9064441757746
 20
1490.976383147625
 30
0.0
 10
590.5639266690214
 20
1490.671209034614
 30
0.0
 10
592.2290576175819
 20
1490.373634408089
 30
0.0
 10
593.9020511374929
 20
1490.083421462233
 30
0.0
 10
595.0189053822342
 20
1489.895339928257
 30
0.0
 10
595.5797285874232
 20
1489.802272427424
 30
0.0
  0
ARC
  5
526A
330
A
100
AcDbEntity
  8
HIDDEN
100
AcDbCircle
 10
596.4556889421892
 20
1633.847368612918
 30
0.0
 40
139.7191695363184
100
AcDbArc
 50
236.296318558884
 51
238.0719095767478
  0
SPLINE
  5
526B
330
A
100
AcDbEntity
  8
HIDDEN
100
AcDbSpline
210
0.0
220
0.0
230
1.0
 70
     8
 71
     3
 72
     8
 73
     4
 74
     0
 42
0.000000001
 43
0.0000000001
 40
141.8914270885466
 40
141.8914270885466
 40
141.8914270885466
 40
141.8914270885466
 40
164.9570700830821
 40
164.9570700830821
 40
164.9570700830821
 40
164.9570700830821
 10
518.9258176798703
 20
1517.612410885207
 30
0.0
 10
512.3278696408033
 20
1522.01451647612
 30
0.0
 10
506.3024010318713
 20
1526.866625464114
 30
0.0
 10
500.9344900658998
 20
1532.191971999081
 30
0.0
  0
SPLINE
  5
526C
330
A
100
AcDbEntity
  8
HIDDEN
100
AcDbSpline
210
0.0
220
0.0
230
1.0
 70
     8
 71
     3
 72
    12
 73
     8
 74
     0
 42
0.000000001
 43
0.0000000001
 40
117.1105509154256
 40
117.1105509154256
 40
117.1105509154256
 40
117.1105509154256
 40
122.8287311339116
 40
131.2741688996166
 40
139.7196066653217
 40
148.1650444310267
 40
156.6104821967318
 40
156.6104821967318
 40
156.6104821967318
 40
156.6104821967318
 10
557.0662366566485
 20
1499.134607385159
 30
0.0
 10
555.2112079394519
 20
1499.765220605325
 30
0.0
 10
550.6882641122302
 20
1501.381084210282
 30
0.0
 10
543.7462933848674
 20
1504.171967599189
 30
0.0
 10
536.3252952847924
 20
1507.579077809251
 30
0.0
 10
529.2503256995788
 20
1511.262836697523
 30
0.0
 10
524.7547786196756
 20
1513.900807664972
 30
0.0
 10
522.5645778358103
 20
1515.26596182677
 30
0.0
  0
LINE
  5
5276
330
A
100
AcDbEntity
  8
HIDDEN
100
AcDbLine
 10
1757.693157277974
 20
1510.844921224307
 30
0.0
 11
1757.991080110733
 21
1497.781914229439
 31
0.0
  0
DIMENSION
  5
52EB
102
{ACAD_XDICTIONARY
360
52EC
102
}
330
A
100
AcDbEntity
  8
Dim
100
AcDbDimension
  2
*D31
 10
1362.566113223199
 20
1308.597090099826
 30
0.0
 11
1407.077867129449
 21
1308.597090099826
 31
0.0
 70
   160
 71
     5
 42
20.0
 73
     0
 74
     1
 75
     1
  3
tform線あり
100
AcDbAlignedDimension
 13
1342.566113223199
 23
1447.191960896658
 33
0.0
 14
1362.566113223199
 24
1447.191960896658
 34
0.0
100
AcDbRotatedDimension
  0
DIMENSION
  5
52EE
330
A
100
AcDbEntity
  8
Dim
100
AcDbDimension
  2
*D32
 10
1392.566113223199
 20
1672.421183548083
 30
0.0
 11
1367.566113223199
 21
1672.421183548083
 31
0.0
 70
   160
 71
     5
 42
50.0
 73
     0
 74
     0
 75
     0
  3
tform線あり
100
AcDbAlignedDimension
 13
1342.566113223199
 23
1534.191960896658
 33
0.0
 14
1392.566113223199
 24
1534.191960896658
 34
0.0
 50
-0.000000000000014
100
AcDbRotatedDimension
  0
LINE
  5
52EF
102
{ACAD_REACTORS
330
52ED
102
}
330
A
100
AcDbEntity
  8
Dim
 62
     0
100
AcDbLine
 10
1342.566113223199
 20
1537.191960896658
 30
0.0
 11
1342.566113223199
 21
1447.191960896658
 31
0.0
  0
ARC
  5
52F0
330
A
100
AcDbEntity
  8
Dim
 62
     0
100
AcDbCircle
 10
1352.566113223199
 20
1447.191960896658
 30
0.0
 40
10.0
100
AcDbArc
 50
180.0
 51
0.0
  0
LINE
  5
52F1
102
{ACAD_REACTORS
330
52ED
102
}
330
A
100
AcDbEntity
  8
Dim
 62
     0
100
AcDbLine
 10
1362.566113223199
 20
1534.191960896658
 30
0.0
 11
1362.566113223199
 21
1447.191960896658
 31
0.0
  0
LINE
  5
52F2
330
A
100
AcDbEntity
  8
Dim
 62
     0
100
AcDbLine
 10
1342.566113223199
 20
1537.191960896658
 30
0.0
 11
1362.566113223199
 21
1537.191960896658
 31
0.0
  0
LINE
  5
52F3
330
A
100
AcDbEntity
  8
Dim
 62
     0
100
AcDbLine
 10
1342.566113223199
 20
1534.191960896658
 30
0.0
 11
1392.566113223199
 21
1534.191960896658
 31
0.0
  0
LINE
  5
52F4
330
A
100
AcDbEntity
  8
Dim
 62
     0
100
AcDbLine
 10
1342.566113223199
 20
1537.191960896658
 30
0.0
 11
1392.566113223199
 21
1537.191960896658
 31
0.0
  0
LINE
  5
52F5
330
A
100
AcDbEntity
  8
Dim
 62
     0
100
AcDbLine
 10
1392.566113223199
 20
1537.191960896658
 30
0.0
 11
1392.566113223199
 21
1534.191960896658
 31
0.0
  0
LINE
  5
5310
102
{ACAD_REACTORS
330
5314
330
531C
102
}
330
A
100
AcDbEntity
  8
Dim
 62
     0
100
AcDbLine
 10
993.7757323514902
 20
1457.191964660657
 30
0.0
 11
993.7757323514902
 21
1537.191964660657
 31
0.0
  0
LINE
  5
5311
102
{ACAD_REACTORS
330
531C
102
}
330
A
100
AcDbEntity
  8
Dim
 62
     0
100
AcDbLine
 10
973.7757323514902
 20
1537.191964660657
 30
0.0
 11
973.7757323514902
 21
1437.191964660657
 31
0.0
  0
DIMENSION
  5
5312
102
{ACAD_REACTORS
330
5314
102
}
102
{ACAD_XDICTIONARY
360
5313
102
}
330
A
100
AcDbEntity
  8
Dim
100
AcDbDimension
  2
*D33
 10
1089.192180018747
 20
1437.191964660657
 30
0.0
 11
1089.192180018747
 21
1486.191964660657
 31
0.0
 70
   160
 71
     5
 42
100.0
 73
     0
 74
     0
 75
     0
  3
tform線あり
100
AcDbAlignedDimension
 13
993.7757323514902
 23
1537.191964660657
 33
0.0
 14
973.7757323514902
 24
1437.191964660657
 34
0.0
 50
89.99999999999999
100
AcDbRotatedDimension
  0
LINE
  5
5315
330
A
100
AcDbEntity
  8
Dim
 62
     0
100
AcDbLine
 10
973.7757323514902
 20
1457.191964660657
 30
0.0
 11
523.7757323514902
 21
1457.191964660657
 31
0.0
  0
ARC
  5
5316
330
A
100
AcDbEntity
  8
Dim
 62
     0
100
AcDbCircle
 10
973.7757323514902
 20
1457.191964660657
 30
0.0
 40
20.0
100
AcDbArc
 50
270.0
 51
0.0
  0
DIMENSION
  5
5317
330
A
100
AcDbEntity
  8
Dim
100
AcDbDimension
  2
*D34
 10
453.7757323514903
 20
1308.597093863825
 30
0.0
 11
723.7757323514903
 21
1330.813402457575
 31
0.0
 70
    32
 71
     5
 42
540.0
 73
     0
 74
     0
 75
     0
 52
-90.0
  3
tform線あり
100
AcDbAlignedDimension
 13
993.7757323514902
 23
1454.317205371053
 33
0.0
 14
453.7757323514902
 24
1457.191964660657
 34
0.0
 50
0.000000000000014
100
AcDbRotatedDimension
  0
LINE
  5
5318
330
A
100
AcDbEntity
  8
Dim
 62
     0
100
AcDbLine
 10
723.7757323514902
 20
1437.191964660657
 30
0.0
 11
973.7757323514902
 21
1437.191964660657
 31
0.0
  0
LINE
  5
5319
330
A
100
AcDbEntity
  8
Dim
 62
     0
100
AcDbLine
 10
993.7757323514902
 20
1537.191964660657
 30
0.0
 11
973.7757323514902
 21
1537.191964660657
 31
0.0
  0
DIMENSION
  5
531A
102
{ACAD_REACTORS
330
531C
102
}
102
{ACAD_XDICTIONARY
360
531B
102
}
330
A
100
AcDbEntity
  8
Dim
100
AcDbDimension
  2
*D35
 10
973.7757323514902
 20
1672.421187312082
 30
0.0
 11
924.7244642783512
 21
1672.421187312082
 31
0.0
 70
   160
 71
     5
 42
20.0
 73
     0
 74
     1
 75
     1
  3
tform線あり
100
AcDbAlignedDimension
 13
993.7757323514902
 23
1537.191964660657
 33
0.0
 14
973.7757323514902
 24
1537.191964660657
 34
0.0
 50
-0.000000000000014
100
AcDbRotatedDimension
  0
LINE
  5
531D
330
A
100
AcDbEntity
  8
Dim
 62
     0
100
AcDbLine
 10
993.7757323514902
 20
1534.191964660657
 30
0.0
 11
973.7757323514902
 21
1534.191964660657
 31
0.0
  0
LINE
  5
531E
102
{ACAD_REACTORS
330
531C
102
}
330
A
100
AcDbEntity
  8
Dim
 62
     0
100
AcDbLine
 10
473.7757323514902
 20
1537.191964660657
 30
0.0
 11
473.7757323514902
 21
1437.191964660657
 31
0.0
  0
LINE
  5
531F
102
{ACAD_REACTORS
330
5314
330
531C
102
}
330
A
100
AcDbEntity
  8
Dim
 62
     0
100
AcDbLine
 10
453.7757323514902
 20
1457.191964660657
 30
0.0
 11
453.7757323514902
 21
1537.191964660657
 31
0.0
  0
ARC
  5
5320
330
A
100
AcDbEntity
  8
Dim
 62
     0
100
AcDbCircle
 10
473.7757323514902
 20
1457.191964660657
 30
0.0
 40
20.0
100
AcDbArc
 50
180.0
 51
270.0
  0
LINE
  5
5321
330
A
100
AcDbEntity
  8
Dim
 62
     0
100
AcDbLine
 10
473.7757323514902
 20
1457.191964660657
 30
0.0
 11
923.7757323514902
 21
1457.191964660657
 31
0.0
  0
LINE
  5
5322
330
A
100
AcDbEntity
  8
Dim
 62
     0
100
AcDbLine
 10
723.7757323514902
 20
1437.191964660657
 30
0.0
 11
473.7757323514902
 21
1437.191964660657
 31
0.0
  0
LINE
  5
5323
330
A
100
AcDbEntity
  8
Dim
 62
     0
100
AcDbLine
 10
453.7757323514902
 20
1537.191964660657
 30
0.0
 11
473.7757323514902
 21
1537.191964660657
 31
0.0
  0
LINE
  5
5324
330
A
100
AcDbEntity
  8
Dim
 62
     0
100
AcDbLine
 10
453.7757323514902
 20
1534.191964660657
 30
0.0
 11
473.7757323514902
 21
1534.191964660657
 31
0.0
  0
VIEWPORT
  5
349
330
B
100
AcDbEntity
 67
     1
  8
0
100
AcDbViewport
 10
202.5
 20
128.5
 30
0.0
 40
486.0
 41
308.4
 68
     1
 69
     1
 12
202.5
 22
128.5
 13
0.0
 23
0.0
 14
0.5
 24
0.5
 15
0.0
 25
0.0
 16
0.0
 26
0.0
 36
1.0
 17
0.0
 27
0.0
 37
0.0
 42
50.0
 43
0.0
 44
0.0
 45
308.4
 50
0.0
 51
0.0
 72
   100
 90
   557152
  1

281
     0
 71
     1
 74
     0
110
0.0
120
0.0
130
0.0
111
1.0
121
0.0
131
0.0
112
0.0
122
1.0
132
0.0
 79
     0
146
0.0
170
     0
 61
     5
348
26C
292
     1
282
     1
141
0.0
142
0.0
 63
   256
  0
VIEWPORT
  5
34A
330
B
100
AcDbEntity
 67
     1
  8
0
100
AcDbViewport
 10
202.5
 20
128.5
 30
0.0
 40
324.0
 41
205.6
 68
     2
 69
     2
 12
986.6781359294573
 22
1427.077061889956
 13
0.0
 23
0.0
 14
0.5
 24
0.5
 15
0.0
 25
0.0
 16
0.0
 26
0.0
 36
1.0
 17
0.0
 27
0.0
 37
0.0
 42
50.0
 43
0.0
 44
0.0
 45
2890.021615685494
 50
0.0
 51
0.0
 72
   100
 90
   557152
  1

281
     0
 71
     1
 74
     0
110
0.0
120
0.0
130
0.0
111
1.0
121
0.0
131
0.0
112
0.0
122
1.0
132
0.0
 79
     0
146
0.0
170
     0
 61
     5
348
26C
292
     1
282
     1
141
0.0
142
0.0
 63
   256
  0
ENDSEC
  0
SECTION
  2
OBJECTS
  0
DICTIONARY
  5
19
330
0
100
AcDbDictionary
281
     1
  3
ACAD_COLOR
350
38F
  3
ACAD_DETAILVIEWSTYLE
350
8CF
  3
ACAD_FIELDLIST
350
BA6
  3
ACAD_GROUP
350
1A
  3
ACAD_IMAGE_VARS
350
27B
  3
ACAD_LAYOUT
350
1E
  3
ACAD_MATERIAL
350
263
  3
ACAD_MLEADERSTYLE
350
336
  3
ACAD_MLINESTYLE
350
1B
  3
ACAD_PLOTSETTINGS
350
22
  3
ACAD_PLOTSTYLENAME
350
1F
  3
ACAD_SCALELIST
350
241
  3
ACAD_SECTIONVIEWSTYLE
350
8D0
  3
ACAD_TABLESTYLE
350
278
  3
ACAD_VISUALSTYLE
350
267
  3
ACDB_RECOMPOSE_DATA
350
5360
  3
AcDbVariableDictionary
350
330
  3
APPDATA
350
27A
  3
DimOffsetDictionary
350
C08
  0
SUN
  5
8C2
330
15
100
AcDbSun
 90
        1
290
     0
 63
     7
421
 16777215
 40
1.0
291
     1
 91
  2455826
 92
 54000000
292
     0
 70
     2
 71
   256
280
     1
  0
DICTIONARY
  5
2E1
330
2
100
AcDbDictionary
280
     1
281
     1
  3
ACAD_LAYERSTATES
360
2E2
  3
ACLYDICTIONARY
360
50B8
  0
DICTIONARY
  5
BDC
330
BDB
100
AcDbDictionary
280
     1
281
     1
  3
ACAD_FIELD
360
BE4
  0
DICTIONARY
  5
52EC
330
52EB
100
AcDbDictionary
280
     1
281
     1
  3
ACAD_DIMASSOC
360
52ED
  0
DICTIONARY
  5
5313
330
5312
100
AcDbDictionary
280
     1
281
     1
  3
ACAD_DIMASSOC
360
5314
  0
DICTIONARY
  5
531B
330
531A
100
AcDbDictionary
280
     1
281
     1
  3
ACAD_DIMASSOC
360
531C
  0
DICTIONARY
  5
38F
102
{ACAD_REACTORS
330
19
102
}
330
19
100
AcDbDictionary
281
     1
  0
DICTIONARY
  5
8CF
102
{ACAD_REACTORS
330
19
102
}
330
19
100
AcDbDictionary
281
     1
  0
FIELDLIST
  5
BA6
102
{ACAD_REACTORS
330
19
102
}
330
19
100
AcDbIdSet
 90
        2
330
BDF
330
BDE
100
AcDbFieldList
  0
DICTIONARY
  5
1A
102
{ACAD_REACTORS
330
19
102
}
330
19
100
AcDbDictionary
281
     1
  0
RASTERVARIABLES
  5
27B
102
{ACAD_REACTORS
330
19
102
}
330
19
100
AcDbRasterVariables
 90
        0
 70
     1
 71
     1
 72
     1
  0
DICTIONARY
  5
1E
102
{ACAD_REACTORS
330
19
102
}
330
19
100
AcDbDictionary
281
     1
  3
Layout1
350
21
  3
Model
350
20
  0
DICTIONARY
  5
263
102
{ACAD_REACTORS
330
19
102
}
330
19
100
AcDbDictionary
281
     1
  3
ByBlock
350
50C8
  3
ByLayer
350
264
  3
Global
350
266
  0
DICTIONARY
  5
336
102
{ACAD_REACTORS
330
19
102
}
330
19
100
AcDbDictionary
281
     1
  3
Standard
350
8D1
  0
DICTIONARY
  5
1B
102
{ACAD_REACTORS
330
19
102
}
330
19
100
AcDbDictionary
281
     1
  3
Standard
350
1C
  0
DICTIONARY
  5
22
102
{ACAD_REACTORS
330
19
102
}
330
19
100
AcDbDictionary
281
     1
  0
ACDBDICTIONARYWDFLT
  5
1F
102
{ACAD_REACTORS
330
19
102
}
330
19
100
AcDbDictionary
281
     1
  3
Normal
350
1D
100
AcDbDictionaryWithDefault
340
1D
  0
DICTIONARY
  5
241
102
{ACAD_REACTORS
330
19
102
}
330
19
100
AcDbDictionary
281
     1
  3
A0
350
242
  3
A1
350
243
  3
A2
350
244
  3
A3
350
245
  3
A4
350
246
  3
A5
350
247
  3
A6
350
248
  3
A7
350
249
  3
A8
350
24A
  3
A9
350
24B
  3
B0
350
24C
  3
B1
350
24D
  3
B2
350
24E
  3
B3
350
24F
  3
B4
350
250
  3
B5
350
251
  3
B6
350
252
  3
B7
350
253
  3
B8
350
254
  3
B9
350
255
  3
C0
350
256
  3
C1
350
257
  3
C2
350
258
  3
C3
350
259
  3
C4
350
25A
  3
C5
350
25B
  3
C6
350
25C
  3
C7
350
25D
  3
C8
350
25E
  3
C9
350
25F
  3
D0
350
260
  3
D1
350
261
  3
D2
350
262
  0
DICTIONARY
  5
8D0
102
{ACAD_REACTORS
330
19
102
}
330
19
100
AcDbDictionary
281
     1
  0
DICTIONARY
  5
278
102
{ACAD_REACTORS
330
19
102
}
330
19
100
AcDbDictionary
281
     1
  3
Standard
350
279
  0
DICTIONARY
  5
267
102
{ACAD_REACTORS
330
19
102
}
330
19
100
AcDbDictionary
281
     1
  3
2dWireframe
350
26C
  3
3D Hidden
350
26E
  3
3dWireframe
350
26D
  3
Basic
350
26F
  3
Brighten
350
273
  3
ColorChange
350
277
  3
Conceptual
350
271
  3
Dim
350
272
  3
EdgeColorOff
350
8BC
  3
Facepattern
350
276
  3
Flat
350
268
  3
FlatWithEdges
350
269
  3
Gouraud
350
26A
  3
GouraudWithEdges
350
26B
  3
Hidden
350
8B9
  3
JitterOff
350
8BA
  3
Linepattern
350
275
  3
OverhangOff
350
8BB
  3
Realistic
350
270
  3
Shaded
350
8C1
  3
Shaded with edges
350
8C0
  3
Shades of Gray
350
8BD
  3
Sketchy
350
8BE
  3
Thicken
350
274
  3
Wireframe
350
8B8
  3
X-Ray
350
8BF
  0
XRECORD
  5
5360
102
{ACAD_REACTORS
330
19
102
}
330
19
100
AcDbXrecord
280
     1
 90
        1
330
279
  0
DICTIONARY
  5
330
102
{ACAD_REACTORS
330
19
102
}
330
19
100
AcDbDictionary
281
     1
  3
CANNOSCALE
350
331
  3
CMLEADERSTYLE
350
8DA
  3
CTABLESTYLE
350
335
  3
HPTRANSPARENCY
350
C07
  3
XCLIPFRAME
350
64A
  0
DICTIONARY
  5
27A
102
{ACAD_REACTORS
330
19
102
}
330
19
100
AcDbDictionary
281
     1
  0
DICTIONARY
  5
C08
102
{ACAD_REACTORS
330
19
102
}
330
19
100
AcDbDictionary
281
     1
  3
DIMRAILANGLE
350
4342
  3
DIMRAILFIRSTOFFSET
350
4340
  3
DIMRAILOFFSET
350
4341
  3
DIMRAILSENABLED
350
4343
  0
DICTIONARY
  5
2E2
102
{ACAD_REACTORS
330
2E1
102
}
330
2E1
100
AcDbDictionary
281
     1
  3
ARGON_LAYERP_15
350
870
  0
DICTIONARY
  5
50B8
102
{ACAD_REACTORS
330
2E1
102
}
330
2E1
100
AcDbDictionary
281
     1
1001
ACAD
1000
<All
  0
DICTIONARY
  5
BE4
102
{ACAD_REACTORS
330
BDC
102
}
330
BDC
100
AcDbDictionary
280
     1
281
     1
  3
TEXT
360
BDE
  0
DIMASSOC
  5
52ED
102
{ACAD_REACTORS
330
52EC
102
}
330
52EC
100
AcDbDimAssoc
330
52EB
 90
        0
 70
     0
 71
     1
  0
DIMASSOC
  5
5314
102
{ACAD_REACTORS
330
5313
102
}
330
5313
100
AcDbDimAssoc
330
5312
 90
        1
 70
     0
 71
     1
  1
AcDbOsnapPointRef
 72
     1
331
5310
 73
     0
 91
        0
 40
0.0
 10
0.0
 20
0.0
 30
0.0
 75
     0
  0
DIMASSOC
  5
531C
102
{ACAD_REACTORS
330
531B
102
}
330
531B
100
AcDbDimAssoc
330
531A
 90
        3
 70
     0
 71
     1
  1
AcDbOsnapPointRef
 72
     1
331
5310
 73
     0
 91
        0
 40
0.0
 10
0.0
 20
0.0
 30
0.0
 75
     0
  1
AcDbOsnapPointRef
 72
    13
331
5311
 73
     0
 91
        0
 40
0.0
 10
0.0
 20
0.0
 30
0.0
 75
     0
  0
LAYOUT
  5
21
102
{ACAD_REACTORS
330
1E
102
}
330
1E
100
AcDbPlotSettings
  1

  2
none_device
  4
ISO_A3_(420.00_x_297.00_MM)
  6

 40
7.5
 41
20.0
 42
7.5
 43
20.0
 44
420.0
 45
297.0
 46
0.0
 47
0.0
 48
0.0
 49
0.0
140
0.0
141
0.0
142
1.0
143
1.0
 70
     0
 72
     1
 73
     0
 74
     0
  7

 75
     0
 76
     0
 77
     2
 78
   300
147
1.0
148
0.0
149
0.0
100
AcDbLayout
  1
Layout1
 70
     0
 71
     0
 10
0.0
 20
0.0
 11
0.0
 21
0.0
 12
0.0
 22
0.0
 32
0.0
 14
0.0
 24
0.0
 34
0.0
 15
0.0
 25
0.0
 35
0.0
146
0.0
 13
0.0
 23
0.0
 33
0.0
 16
0.0
 26
0.0
 36
0.0
 17
0.0
 27
0.0
 37
0.0
 76
     0
330
B
331
349
  0
LAYOUT
  5
20
102
{ACAD_REACTORS
330
1E
102
}
330
1E
100
AcDbPlotSettings
  1

  2
none_device
  4
ISO_A3_(420.00_x_297.00_MM)
  6

 40
7.5
 41
20.0
 42
7.5
 43
20.0
 44
420.0
 45
297.0
 46
0.0
 47
0.0
 48
0.0
 49
0.0
140
0.0
141
0.0
142
1.0
143
1.0
 70
  1024
 72
     1
 73
     0
 74
     0
  7

 75
     0
 76
     0
 77
     2
 78
   300
147
1.0
148
0.0
149
0.0
100
AcDbLayout
  1
Model
 70
     0
 71
     1
 10
0.0
 20
0.0
 11
2100.0
 21
2970.0
 12
0.0
 22
0.0
 32
0.0
 14
0.0
 24
0.0
 34
0.0
 15
2100.0
 25
2970.0
 35
0.0
146
0.0
 13
0.0
 23
0.0
 33
0.0
 16
0.0
 26
0.0
 36
0.0
 17
0.0
 27
0.0
 37
0.0
 76
     0
330
A
331
15
  0
MATERIAL
  5
50C8
102
{ACAD_REACTORS
330
263
102
}
330
263
100
AcDbMaterial
  1
ByBlock
 72
     1
 94
      127
  0
MATERIAL
  5
264
102
{ACAD_REACTORS
330
263
102
}
330
263
100
AcDbMaterial
  1
ByLayer
 72
     1
 94
      127
  0
MATERIAL
  5
266
102
{ACAD_REACTORS
330
263
102
}
330
263
100
AcDbMaterial
  1
Global
 72
     1
 94
      127
  0
MLEADERSTYLE
  5
8D1
102
{ACAD_REACTORS
330
336
102
}
330
336
100
AcDbMLeaderStyle
170
     2
171
     1
172
     0
 90
        2
 40
0.0
 41
0.0
173
     1
 91
-1056964608
340
11
 92
       -2
290
     1
 42
2.0
291
     1
 43
8.0
  3
Standard
341
0
 44
4.0
300

342
17
174
     1
178
     6
175
     1
176
     0
 93
-1056964608
 45
4.0
292
     0
297
     0
 46
4.0
343
0
 94
-1056964608
 47
1.0
 49
1.0
140
1.0
293
     1
141
0.0
294
     1
177
     0
142
1.0
295
     0
296
     0
143
3.75
1001
ACAD_MLEADERVER
1070
     2
  0
MLINESTYLE
  5
1C
102
{ACAD_REACTORS
330
1B
102
}
330
1B
100
AcDbMlineStyle
  2
Standard
 70
     0
  3

 62
     0
 51
90.0
 52
90.0
 71
     2
 49
0.5
 62
   256
  6
BYLAYER
 49
-0.5
 62
   256
  6
BYLAYER
  0
ACDBPLACEHOLDER
  5
1D
102
{ACAD_REACTORS
330
1F
102
}
330
1F
  0
SCALE
  5
242
102
{ACAD_REACTORS
330
241
102
}
330
241
100
AcDbScale
 70
     0
300
1:1
140
1.0
141
1.0
290
     1
  0
SCALE
  5
243
102
{ACAD_REACTORS
330
241
102
}
330
241
100
AcDbScale
 70
     0
300
1:2
140
1.0
141
2.0
290
     0
  0
SCALE
  5
244
102
{ACAD_REACTORS
330
241
102
}
330
241
100
AcDbScale
 70
     0
300
1:4
140
1.0
141
4.0
290
     0
  0
SCALE
  5
245
102
{ACAD_REACTORS
330
241
102
}
330
241
100
AcDbScale
 70
     0
300
1:5
140
1.0
141
5.0
290
     0
  0
SCALE
  5
246
102
{ACAD_REACTORS
330
241
102
}
330
241
100
AcDbScale
 70
     0
300
1:8
140
1.0
141
8.0
290
     0
  0
SCALE
  5
247
102
{ACAD_REACTORS
330
241
102
}
330
241
100
AcDbScale
 70
     0
300
1:10
140
1.0
141
10.0
290
     0
  0
SCALE
  5
248
102
{ACAD_REACTORS
330
241
102
}
330
241
100
AcDbScale
 70
     0
300
1:16
140
1.0
141
16.0
290
     0
  0
SCALE
  5
249
102
{ACAD_REACTORS
330
241
102
}
330
241
100
AcDbScale
 70
     0
300
1:20
140
1.0
141
20.0
290
     0
  0
SCALE
  5
24A
102
{ACAD_REACTORS
330
241
102
}
330
241
100
AcDbScale
 70
     0
300
1:30
140
1.0
141
30.0
290
     0
  0
SCALE
  5
24B
102
{ACAD_REACTORS
330
241
102
}
330
241
100
AcDbScale
 70
     0
300
1:40
140
1.0
141
40.0
290
     0
  0
SCALE
  5
24C
102
{ACAD_REACTORS
330
241
102
}
330
241
100
AcDbScale
 70
     0
300
1:50
140
1.0
141
50.0
290
     0
  0
SCALE
  5
24D
102
{ACAD_REACTORS
330
241
102
}
330
241
100
AcDbScale
 70
     0
300
1:100
140
1.0
141
100.0
290
     0
  0
SCALE
  5
24E
102
{ACAD_REACTORS
330
241
102
}
330
241
100
AcDbScale
 70
     0
300
2:1
140
2.0
141
1.0
290
     0
  0
SCALE
  5
24F
102
{ACAD_REACTORS
330
241
102
}
330
241
100
AcDbScale
 70
     0
300
4:1
140
4.0
141
1.0
290
     0
  0
SCALE
  5
250
102
{ACAD_REACTORS
330
241
102
}
330
241
100
AcDbScale
 70
     0
300
8:1
140
8.0
141
1.0
290
     0
  0
SCALE
  5
251
102
{ACAD_REACTORS
330
241
102
}
330
241
100
AcDbScale
 70
     0
300
10:1
140
10.0
141
1.0
290
     0
  0
SCALE
  5
252
102
{ACAD_REACTORS
330
241
102
}
330
241
100
AcDbScale
 70
     0
300
100:1
140
100.0
141
1.0
290
     0
  0
SCALE
  5
253
102
{ACAD_REACTORS
330
241
102
}
330
241
100
AcDbScale
 70
     0
300
1/128" = 1'-0"
140
0.0078125
141
12.0
290
     0
  0
SCALE
  5
254
102
{ACAD_REACTORS
330
241
102
}
330
241
100
AcDbScale
 70
     0
300
1/64" = 1'-0"
140
0.015625
141
12.0
290
     0
  0
SCALE
  5
255
102
{ACAD_REACTORS
330
241
102
}
330
241
100
AcDbScale
 70
     0
300
1/32" = 1'-0"
140
0.03125
141
12.0
290
     0
  0
SCALE
  5
256
102
{ACAD_REACTORS
330
241
102
}
330
241
100
AcDbScale
 70
     0
300
1/16" = 1'-0"
140
0.0625
141
12.0
290
     0
  0
SCALE
  5
257
102
{ACAD_REACTORS
330
241
102
}
330
241
100
AcDbScale
 70
     0
300
3/32" = 1'-0"
140
0.09375
141
12.0
290
     0
  0
SCALE
  5
258
102
{ACAD_REACTORS
330
241
102
}
330
241
100
AcDbScale
 70
     0
300
1/8" = 1'-0"
140
0.125
141
12.0
290
     0
  0
SCALE
  5
259
102
{ACAD_REACTORS
330
241
102
}
330
241
100
AcDbScale
 70
     0
300
3/16" = 1'-0"
140
0.1875
141
12.0
290
     0
  0
SCALE
  5
25A
102
{ACAD_REACTORS
330
241
102
}
330
241
100
AcDbScale
 70
     0
300
1/4" = 1'-0"
140
0.25
141
12.0
290
     0
  0
SCALE
  5
25B
102
{ACAD_REACTORS
330
241
102
}
330
241
100
AcDbScale
 70
     0
300
3/8" = 1'-0"
140
0.375
141
12.0
290
     0
  0
SCALE
  5
25C
102
{ACAD_REACTORS
330
241
102
}
330
241
100
AcDbScale
 70
     0
300
1/2" = 1'-0"
140
0.5
141
12.0
290
     0
  0
SCALE
  5
25D
102
{ACAD_REACTORS
330
241
102
}
330
241
100
AcDbScale
 70
     0
300
3/4" = 1'-0"
140
0.75
141
12.0
290
     0
  0
SCALE
  5
25E
102
{ACAD_REACTORS
330
241
102
}
330
241
100
AcDbScale
 70
     0
300
1" = 1'-0"
140
1.0
141
12.0
290
     0
  0
SCALE
  5
25F
102
{ACAD_REACTORS
330
241
102
}
330
241
100
AcDbScale
 70
     0
300
1-1/2" = 1'-0"
140
1.5
141
12.0
290
     0
  0
SCALE
  5
260
102
{ACAD_REACTORS
330
241
102
}
330
241
100
AcDbScale
 70
     0
300
3" = 1'-0"
140
3.0
141
12.0
290
     0
  0
SCALE
  5
261
102
{ACAD_REACTORS
330
241
102
}
330
241
100
AcDbScale
 70
     0
300
6" = 1'-0"
140
6.0
141
12.0
290
     0
  0
SCALE
  5
262
102
{ACAD_REACTORS
330
241
102
}
330
241
100
AcDbScale
 70
     0
300
1'-0" = 1'-0"
140
12.0
141
12.0
290
     0
  0
TABLESTYLE
  5
279
102
{ACAD_REACTORS
330
278
102
}
102
{ACAD_XDICTIONARY
360
535E
102
}
330
278
100
AcDbTableStyle
  3
Standard
 70
     0
 71
     0
 40
0.06
 41
0.06
280
     0
281
     0
  7
Standard
140
4.5
170
     2
 62
     0
 63
   257
283
     0
 90
        4
 91
        0
  1

274
    -2
284
     1
 64
     0
275
    -2
285
     1
 65
     0
276
    -2
286
     1
 66
     0
277
    -2
287
     1
 67
     0
278
    -2
288
     1
 68
     0
279
    -2
289
     1
 69
     0
  7
Standard
140
6.0
170
     5
 62
     0
 63
   257
283
     0
 90
        4
 91
        0
  1

274
    -2
284
     1
 64
     0
275
    -2
285
     1
 65
     0
276
    -2
286
     1
 66
     0
277
    -2
287
     1
 67
     0
278
    -2
288
     1
 68
     0
279
    -2
289
     1
 69
     0
  7
Standard
140
4.5
170
     5
 62
     0
 63
   257
283
     0
 90
        4
 91
        0
  1

274
    -2
284
     1
 64
     0
275
    -2
285
     1
 65
     0
276
    -2
286
     1
 66
     0
277
    -2
287
     1
 67
     0
278
    -2
288
     1
 68
     0
279
    -2
289
     1
 69
     0
  0
VISUALSTYLE
  5
26C
102
{ACAD_REACTORS
330
267
102
}
330
267
100
AcDbVisualStyle
  2
2dWireframe
 70
     4
 71
     0
 72
     2
 73
     0
 90
        0
 40
-0.6
 41
-30.0
 62
     5
 63
     7
421
 16777215
 74
     1
 91
        4
 64
     7
 65
   257
 75
     1
175
     1
 42
1.0
 92
        0
 66
   257
 43
1.0
 76
     1
 77
     6
 78
     2
 67
     7
 79
     5
170
     0
171
     0
290
     0
174
     0
 93
        1
 44
0.0
173
     0
291
     0
 45
0.0
  0
VISUALSTYLE
  5
26E
102
{ACAD_REACTORS
330
267
102
}
330
267
100
AcDbVisualStyle
  2
3D Hidden
 70
     6
 71
     1
 72
     2
 73
     2
 90
        0
 40
-0.6
 41
-30.0
 62
     5
 63
     7
421
 16777215
 74
     2
 91
        2
 64
     7
 65
   257
 75
     2
175
     1
 42
40.0
 92
        0
 66
   257
 43
1.0
 76
     1
 77
     6
 78
     2
 67
     7
 79
     3
170
     0
171
     0
290
     0
174
     0
 93
        1
 44
0.0
173
     0
291
     0
 45
0.0
  0
VISUALSTYLE
  5
26D
102
{ACAD_REACTORS
330
267
102
}
330
267
100
AcDbVisualStyle
  2
3dWireframe
 70
     5
 71
     0
 72
     2
 73
     0
 90
        0
 40
-0.6
 41
-30.0
 62
     5
 63
     7
421
 16777215
 74
     1
 91
        4
 64
     7
 65
   257
 75
     1
175
     1
 42
1.0
 92
        0
 66
   257
 43
1.0
 76
     1
 77
     6
 78
     2
 67
     7
 79
     5
170
     0
171
     0
290
     0
174
     0
 93
        1
 44
0.0
173
     0
291
     0
 45
0.0
  0
VISUALSTYLE
  5
26F
102
{ACAD_REACTORS
330
267
102
}
330
267
100
AcDbVisualStyle
  2
Basic
 70
     7
 71
     1
 72
     0
 73
     1
 90
        0
 40
-0.6
 41
-30.0
 62
     5
 63
     7
421
 16777215
 74
     0
 91
        4
 64
     7
 65
   257
 75
     1
175
     1
 42
1.0
 92
        8
 66
     7
 43
1.0
 76
     1
 77
     6
 78
     2
 67
     7
 79
     5
170
     0
171
     0
290
     0
174
     0
 93
        1
 44
0.0
173
     0
291
     1
 45
0.0
  0
VISUALSTYLE
  5
273
102
{ACAD_REACTORS
330
267
102
}
330
267
100
AcDbVisualStyle
  2
Brighten
 70
    12
 71
     2
 72
     2
 73
     0
 90
        0
 40
-0.6
 41
-30.0
 62
     5
 63
     7
421
 16777215
 74
     1
 91
        4
 64
     7
 65
   257
 75
     1
175
     1
 42
1.0
 92
        8
 66
     7
 43
1.0
 76
     1
 77
     6
 78
     2
 67
     7
 79
     5
170
     0
171
     0
290
     0
174
     0
 93
        1
 44
50.0
173
     0
291
     1
 45
0.0
  0
VISUALSTYLE
  5
277
102
{ACAD_REACTORS
330
267
102
}
330
267
100
AcDbVisualStyle
  2
ColorChange
 70
    16
 71
     2
 72
     2
 73
     3
 90
        0
 40
-0.6
 41
-30.0
 62
     5
 63
     8
421
  8421504
 74
     1
 91
        4
 64
     7
 65
   257
 75
     1
175
     1
 42
1.0
 92
        8
 66
     8
424
  8421504
 43
1.0
 76
     1
 77
     6
 78
     2
 67
     7
 79
     5
170
     0
171
     0
290
     0
174
     0
 93
        1
 44
0.0
173
     0
291
     1
 45
0.0
  0
VISUALSTYLE
  5
271
102
{ACAD_REACTORS
330
267
102
}
330
267
100
AcDbVisualStyle
  2
Conceptual
 70
     9
 71
     3
 72
     2
 73
     0
 90
        0
 40
-0.6
 41
-30.0
 62
     5
 63
     7
421
 16777215
 74
     2
 91
        2
 64
     7
 65
   257
 75
     1
175
     1
 42
40.0
 92
        8
 66
     7
 43
1.0
 76
     1
 77
     6
 78
     2
 67
     7
 79
     3
170
     0
171
     0
290
     0
174
     0
 93
        1
 44
0.0
173
     0
291
     0
 45
0.0
  0
VISUALSTYLE
  5
272
102
{ACAD_REACTORS
330
267
102
}
330
267
100
AcDbVisualStyle
  2
Dim
 70
    11
 71
     2
 72
     2
 73
     0
 90
        0
 40
-0.6
 41
-30.0
 62
     5
 63
     7
421
 16777215
 74
     1
 91
        4
 64
     7
 65
   257
 75
     1
175
     1
 42
1.0
 92
        8
 66
     7
 43
1.0
 76
     1
 77
     6
 78
     2
 67
     7
 79
     5
170
     0
171
     0
290
     0
174
     0
 93
        1
 44
-50.0
173
     0
291
     1
 45
0.0
  0
VISUALSTYLE
  5
8BC
102
{ACAD_REACTORS
330
267
102
}
330
267
100
AcDbVisualStyle
  2
EdgeColorOff
 70
    22
 71
     2
 72
     2
 73
     0
 90
        0
 40
0.6
 41
30.0
 62
     5
 63
     7
421
 16777215
 74
     1
 91
        4
 64
     7
 65
   257
 75
     1
175
     1
 42
1.0
 92
        8
 66
     7
 43
1.0
 76
     1
 77
     6
 78
     2
 67
     7
 79
     5
170
     0
171
     0
290
     0
174
     0
 93
        1
 44
0.0
173
     0
291
     1
 45
0.0
  0
VISUALSTYLE
  5
276
102
{ACAD_REACTORS
330
267
102
}
330
267
100
AcDbVisualStyle
  2
Facepattern
 70
    15
 71
     2
 72
     2
 73
     0
 90
        0
 40
-0.6
 41
-30.0
 62
     5
 63
     7
421
 16777215
 74
     1
 91
        4
 64
     7
 65
   257
 75
     1
175
     1
 42
1.0
 92
        8
 66
     7
 43
1.0
 76
     1
 77
     6
 78
     2
 67
     7
 79
     5
170
     0
171
     0
290
     0
174
     0
 93
        1
 44
0.0
173
     0
291
     1
 45
0.0
  0
VISUALSTYLE
  5
268
102
{ACAD_REACTORS
330
267
102
}
330
267
100
AcDbVisualStyle
  2
Flat
 70
     0
 71
     2
 72
     1
 73
     1
 90
        2
 40
-0.6
 41
30.0
 62
     5
 63
     7
421
 16777215
 74
     0
 91
        4
 64
     7
 65
   257
 75
     1
175
     1
 42
1.0
 92
        8
 66
     7
 43
1.0
 76
     1
 77
     6
 78
     2
 67
     7
 79
     5
170
     0
171
     0
290
     0
174
     0
 93
       13
 44
0.0
173
     0
291
     1
 45
0.0
  0
VISUALSTYLE
  5
269
102
{ACAD_REACTORS
330
267
102
}
330
267
100
AcDbVisualStyle
  2
FlatWithEdges
 70
     1
 71
     2
 72
     1
 73
     1
 90
        2
 40
-0.6
 41
30.0
 62
     5
 63
     7
421
 16777215
 74
     1
 91
        4
 64
     7
 65
   257
 75
     1
175
     1
 42
1.0
 92
        0
 66
   257
 43
1.0
 76
     1
 77
     6
 78
     2
 67
     7
 79
     5
170
     0
171
     0
290
     0
174
     0
 93
       13
 44
0.0
173
     0
291
     1
 45
0.0
  0
VISUALSTYLE
  5
26A
102
{ACAD_REACTORS
330
267
102
}
330
267
100
AcDbVisualStyle
  2
Gouraud
 70
     2
 71
     2
 72
     2
 73
     1
 90
        2
 40
-0.6
 41
30.0
 62
     5
 63
     7
421
 16777215
 74
     0
 91
        4
 64
     7
 65
   257
 75
     1
175
     1
 42
1.0
 92
        0
 66
     7
 43
1.0
 76
     1
 77
     6
 78
     2
 67
     7
 79
     5
170
     0
171
     0
290
     0
174
     0
 93
       13
 44
0.0
173
     0
291
     1
 45
0.0
  0
VISUALSTYLE
  5
26B
102
{ACAD_REACTORS
330
267
102
}
330
267
100
AcDbVisualStyle
  2
GouraudWithEdges
 70
     3
 71
     2
 72
     2
 73
     1
 90
        2
 40
-0.6
 41
30.0
 62
     5
 63
     7
421
 16777215
 74
     1
 91
        4
 64
     7
 65
   257
 75
     1
175
     1
 42
1.0
 92
        0
 66
   257
 43
1.0
 76
     1
 77
     6
 78
     2
 67
     7
 79
     5
170
     0
171
     0
290
     0
174
     0
 93
       13
 44
0.0
173
     0
291
     1
 45
0.0
  0
VISUALSTYLE
  5
8B9
102
{ACAD_REACTORS
330
267
102
}
330
267
100
AcDbVisualStyle
  2
Hidden
 70
     6
 71
     1
 72
     2
 73
     2
 90
        0
 40
0.6
 41
30.0
 62
     5
 63
     7
421
 16777215
 74
     2
 91
        2
 64
     7
 65
   257
 75
     2
175
     1
 42
40.0
 92
        0
 66
   257
 43
1.0
 76
     1
 77
     6
 78
     2
 67
     7
 79
     3
170
     0
171
     0
290
     0
174
     0
 93
        1
 44
0.0
173
     0
291
     0
 45
0.0
  0
VISUALSTYLE
  5
8BA
102
{ACAD_REACTORS
330
267
102
}
330
267
100
AcDbVisualStyle
  2
JitterOff
 70
    20
 71
     2
 72
     2
 73
     0
 90
        0
 40
0.6
 41
30.0
 62
     5
 63
     7
421
 16777215
 74
     1
 91
        4
 64
     7
 65
   257
 75
     1
175
     1
 42
1.0
 92
       10
 66
     7
 43
1.0
 76
     1
 77
     6
 78
     2
 67
     7
 79
     5
170
     0
171
     0
290
     0
174
     0
 93
        1
 44
0.0
173
     0
291
     1
 45
0.0
  0
VISUALSTYLE
  5
275
102
{ACAD_REACTORS
330
267
102
}
330
267
100
AcDbVisualStyle
  2
Linepattern
 70
    14
 71
     2
 72
     2
 73
     0
 90
        0
 40
-0.6
 41
-30.0
 62
     5
 63
     7
421
 16777215
 74
     1
 91
        4
 64
     7
 65
   257
 75
     7
175
     7
 42
1.0
 92
        8
 66
     7
 43
1.0
 76
     1
 77
     6
 78
     2
 67
     7
 79
     5
170
     0
171
     0
290
     0
174
     0
 93
        1
 44
0.0
173
     0
291
     1
 45
0.0
  0
VISUALSTYLE
  5
8BB
102
{ACAD_REACTORS
330
267
102
}
330
267
100
AcDbVisualStyle
  2
OverhangOff
 70
    21
 71
     2
 72
     2
 73
     0
 90
        0
 40
0.6
 41
30.0
 62
     5
 63
     7
421
 16777215
 74
     1
 91
        4
 64
     7
 65
   257
 75
     1
175
     1
 42
1.0
 92
        9
 66
     7
 43
1.0
 76
     1
 77
     6
 78
     2
 67
     7
 79
     5
170
     0
171
     0
290
     0
174
     0
 93
        1
 44
0.0
173
     0
291
     1
 45
0.0
  0
VISUALSTYLE
  5
270
102
{ACAD_REACTORS
330
267
102
}
330
267
100
AcDbVisualStyle
  2
Realistic
 70
     8
 71
     2
 72
     2
 73
     0
 90
        0
 40
-0.6
 41
-30.0
 62
     5
 63
     7
421
 16777215
 74
     1
 91
        0
 64
     7
 65
   257
 75
     1
175
     1
 42
1.0
 92
        8
 66
     8
424
  7895160
 43
1.0
 76
     1
 77
     6
 78
     2
 67
     7
 79
     5
170
     0
171
     0
290
     0
174
     0
 93
       13
 44
0.0
173
     0
291
     0
 45
0.0
  0
VISUALSTYLE
  5
8C1
102
{ACAD_REACTORS
330
267
102
}
330
267
100
AcDbVisualStyle
  2
Shaded
 70
    27
 71
     2
 72
     2
 73
     1
 90
        2
 40
0.6
 41
30.0
 62
     5
 63
     7
421
 16777215
 74
     0
 91
        4
 64
     7
 65
   257
 75
     1
175
     1
 42
1.0
 92
        8
 66
   257
 43
1.0
 76
     1
 77
     6
 78
     2
 67
     8
425
  7895160
 79
     3
170
     0
171
     0
290
     0
174
     0
 93
        5
 44
0.0
173
     0
291
     0
 45
0.0
  0
VISUALSTYLE
  5
8C0
102
{ACAD_REACTORS
330
267
102
}
330
267
100
AcDbVisualStyle
  2
Shaded with edges
 70
    26
 71
     2
 72
     2
 73
     1
 90
        2
 40
0.6
 41
30.0
 62
     5
 63
     7
421
 16777215
 74
     1
 91
       10
 64
     7
 65
   257
 75
     2
175
     1
 42
1.0
 92
        8
 66
   257
 43
1.0
 76
     1
 77
     6
 78
     2
 67
     7
 79
     3
170
     0
171
     0
290
     0
174
     0
 93
        5
 44
0.0
173
     0
291
     0
 45
0.0
  0
VISUALSTYLE
  5
8BD
102
{ACAD_REACTORS
330
267
102
}
330
267
100
AcDbVisualStyle
  2
Shades of Gray
 70
    23
 71
     2
 72
     2
 73
     3
 90
        0
 40
0.6
 41
30.0
 62
     5
 63
     7
421
 16777215
 74
     2
 91
        2
 64
     7
 65
     7
 75
     1
175
     1
 42
40.0
 92
        8
 66
     7
 43
1.0
 76
     1
 77
     6
 78
     2
 67
     7
 79
     3
170
     0
171
     0
290
     0
174
     0
 93
        1
 44
0.0
173
     0
291
     0
 45
0.0
  0
VISUALSTYLE
  5
8BE
102
{ACAD_REACTORS
330
267
102
}
330
267
100
AcDbVisualStyle
  2
Sketchy
 70
    24
 71
     1
 72
     2
 73
     2
 90
        0
 40
0.6
 41
30.0
 62
     5
 63
     7
421
 16777215
 74
     2
 91
        2
 64
     7
 65
     7
 75
     1
175
     1
 42
40.0
 92
       11
 66
     7
 43
1.0
 76
     1
 77
     6
 78
     2
 67
     7
 79
     6
170
     0
171
     0
290
     0
174
     0
 93
        1
 44
0.0
173
     0
291
     0
 45
0.0
  0
VISUALSTYLE
  5
274
102
{ACAD_REACTORS
330
267
102
}
330
267
100
AcDbVisualStyle
  2
Thicken
 70
    13
 71
     2
 72
     2
 73
     0
 90
        0
 40
-0.6
 41
-30.0
 62
     5
 63
     7
421
 16777215
 74
     1
 91
        4
 64
     7
 65
   257
 75
     1
175
     1
 42
1.0
 92
       12
 66
     7
 43
1.0
 76
     1
 77
     6
 78
     2
 67
     7
 79
     5
170
     0
171
     0
290
     0
174
     0
 93
        1
 44
0.0
173
     0
291
     1
 45
0.0
  0
VISUALSTYLE
  5
8B8
102
{ACAD_REACTORS
330
267
102
}
330
267
100
AcDbVisualStyle
  2
Wireframe
 70
     5
 71
     0
 72
     2
 73
     0
 90
        0
 40
0.6
 41
30.0
 62
     5
 63
     7
421
 16777215
 74
     1
 91
        4
 64
     7
 65
   257
 75
     1
175
     1
 42
1.0
 92
        0
 66
   257
 43
1.0
 76
     1
 77
     6
 78
     2
 67
     7
 79
     3
170
     0
171
     0
290
     0
174
     0
 93
        1
 44
0.0
173
     0
291
     0
 45
0.0
  0
VISUALSTYLE
  5
8BF
102
{ACAD_REACTORS
330
267
102
}
330
267
100
AcDbVisualStyle
  2
X-Ray
 70
    25
 71
     2
 72
     2
 73
     1
 90
        1
 40
0.5
 41
30.0
 62
     5
 63
     7
421
 16777215
 74
     1
 91
        0
 64
     7
 65
   257
 75
     1
175
     1
 42
1.0
 92
        8
 66
     7
 43
1.0
 76
     1
 77
     6
 78
     2
 67
     7
 79
     3
170
     0
171
     0
290
     0
174
     0
 93
       13
 44
0.0
173
     0
291
     0
 45
0.0
  0
DICTIONARYVAR
  5
331
102
{ACAD_REACTORS
330
330
102
}
330
330
100
DictionaryVariables
280
     0
  1
1:1
  0
DICTIONARYVAR
  5
8DA
102
{ACAD_REACTORS
330
330
102
}
330
330
100
DictionaryVariables
280
     0
  1
Standard
  0
DICTIONARYVAR
  5
335
102
{ACAD_REACTORS
330
330
102
}
330
330
100
DictionaryVariables
280
     0
  1
Standard
  0
DICTIONARYVAR
  5
C07
102
{ACAD_REACTORS
330
330
102
}
330
330
100
DictionaryVariables
280
     0
  1
ByLayer
  0
DICTIONARYVAR
  5
64A
102
{ACAD_REACTORS
330
330
102
}
330
330
100
DictionaryVariables
280
     0
  1
0
  0
DICTIONARYVAR
  5
4342
102
{ACAD_REACTORS
330
C08
102
}
330
C08
100
DictionaryVariables
280
     0
  1
0.261799
  0
DICTIONARYVAR
  5
4340
102
{ACAD_REACTORS
330
C08
102
}
330
C08
100
DictionaryVariables
280
     0
  1
0.400000
  0
DICTIONARYVAR
  5
4341
102
{ACAD_REACTORS
330
C08
102
}
330
C08
100
DictionaryVariables
280
     0
  1
0.250000
  0
DICTIONARYVAR
  5
4343
102
{ACAD_REACTORS
330
C08
102
}
330
C08
100
DictionaryVariables
280
     0
  1
1
  0
XRECORD
  5
870
102
{ACAD_REACTORS
330
2E2
102
}
330
2E2
100
AcDbXrecord
280
     1
 91
     1023
301

290
     0
302
MODEL
330
14
 90
        8
 62
     7
370
    -3
331
13
  1
Color_7
330
4A
 90
        0
 62
     7
370
     9
331
13
  1
Color_7
330
4B
 90
        8
 62
     7
370
    -3
331
13
  1
Color_7
330
0
 90
        8
 62
     7
370
    -3
331
13
  1
Color_7
330
0
 90
        9
 62
     7
370
    -3
331
13
  1
Color_7
330
382
 90
        8
 62
     7
370
    -3
331
13
  1
Color_7
330
5C4
 90
        8
 62
     7
370
     9
331
0
  1
Color_7
330
5EB
 90
        8
 62
     7
370
     9
331
13
  1
Color_7
330
0
 90
        8
 62
     7
370
    -3
331
13
  1
Color_7
  0
FIELD
  5
BDE
102
{ACAD_REACTORS
330
BE4
102
}
330
BE4
100
AcDbField
  1
_text
  2
{%<\_FldIdx 0>%N}
 90
        1
360
BDF
 97
        0
 91
       63
 92
        0
 94
        8
 95
        2
 96
        0
300

 93
        1
  6
ACFD_FIELDTEXT_CHECKSUM
 93
        2
 90
        2
140
4484.0
 94
        0
300

302

304
ACVALUE_END
  7
ACFD_FIELD_VALUE
 93
        6
 90
        4
  1
{20170601N}
 94
        0
300

302

304
ACVALUE_END
301
{20170601N}
 98
       11
  0
DICTIONARY
  5
535E
330
279
100
AcDbDictionary
280
     1
281
     1
  3
ACAD_ROUNDTRIP_2008_TABLESTYLE_CELLSTYLEMAP
360
535F
  0
FIELD
  5
BDF
330
BDE
100
AcDbField
  1
AcVar
  2
\AcVar Date \f "yyyyMMdd"
 90
        0
 97
        0
 91
       63
 92
        0
 94
        8
 95
        2
 96
        0
300

 93
        1
  6
Variable
 93
        2
 90
        4
  1
Date
 94
        0
300

302

304
ACVALUE_END
  7
ACFD_FIELD_VALUE
 93
        6
 90
        8
 92
       16
310
E1070600000001000A0007000A000000
 94
        0
300
yyyyMMdd
302

304
ACVALUE_END
301
20170601
 98
        8
  0
CELLSTYLEMAP
  5
535F
102
{ACAD_REACTORS
330
535E
102
}
330
535E
100
AcDbCellStyleMap
 90
        3
300
CELLSTYLE
  1
TABLEFORMAT_BEGIN
 90
        5
170
     1
 91
        0
 92
    32768
 62
   257
 93
        1
300
CONTENTFORMAT
  1
CONTENTFORMAT_BEGIN
 90
        0
 91
        0
 92
        4
 93
        0
300

 40
0.0
140
1.0
 94
        5
 62
     0
340
17
144
6.0
309
CONTENTFORMAT_END
171
     1
301
MARGIN
  1
CELLMARGIN_BEGIN
 40
0.06
 40
0.06
 40
0.06
 40
0.06
 40
0.18
 40
0.18
309
CELLMARGIN_END
 94
        6
 95
        1
302
GRIDFORMAT
  1
GRIDFORMAT_BEGIN
 90
        0
 91
        1
 62
     0
 92
       -2
340
0
 93
        0
 40
0.045
309
GRIDFORMAT_END
 95
        2
302
GRIDFORMAT
  1
GRIDFORMAT_BEGIN
 90
        0
 91
        1
 62
     0
 92
       -2
340
0
 93
        0
 40
0.045
309
GRIDFORMAT_END
 95
        4
302
GRIDFORMAT
  1
GRIDFORMAT_BEGIN
 90
        0
 91
        1
 62
     0
 92
       -2
340
0
 93
        0
 40
0.045
309
GRIDFORMAT_END
 95
        8
302
GRIDFORMAT
  1
GRIDFORMAT_BEGIN
 90
        0
 91
        1
 62
     0
 92
       -2
340
0
 93
        0
 40
0.045
309
GRIDFORMAT_END
 95
       16
302
GRIDFORMAT
  1
GRIDFORMAT_BEGIN
 90
        0
 91
        1
 62
     0
 92
       -2
340
0
 93
        0
 40
0.045
309
GRIDFORMAT_END
 95
       32
302
GRIDFORMAT
  1
GRIDFORMAT_BEGIN
 90
        0
 91
        1
 62
     0
 92
       -2
340
0
 93
        0
 40
0.045
309
GRIDFORMAT_END
309
TABLEFORMAT_END
  1
CELLSTYLE_BEGIN
 90
        1
 91
        1
300
_TITLE
309
CELLSTYLE_END
300
CELLSTYLE
  1
TABLEFORMAT_BEGIN
 90
        5
170
     1
 91
        0
 92
        0
 62
   257
 93
        1
300
CONTENTFORMAT
  1
CONTENTFORMAT_BEGIN
 90
        0
 91
        0
 92
        4
 93
        0
300

 40
0.0
140
1.0
 94
        5
 62
     0
340
17
144
4.5
309
CONTENTFORMAT_END
171
     1
301
MARGIN
  1
CELLMARGIN_BEGIN
 40
0.06
 40
0.06
 40
0.06
 40
0.06
 40
0.18
 40
0.18
309
CELLMARGIN_END
 94
        6
 95
        1
302
GRIDFORMAT
  1
GRIDFORMAT_BEGIN
 90
        0
 91
        1
 62
     0
 92
       -2
340
0
 93
        0
 40
0.045
309
GRIDFORMAT_END
 95
        2
302
GRIDFORMAT
  1
GRIDFORMAT_BEGIN
 90
        0
 91
        1
 62
     0
 92
       -2
340
0
 93
        0
 40
0.045
309
GRIDFORMAT_END
 95
        4
302
GRIDFORMAT
  1
GRIDFORMAT_BEGIN
 90
        0
 91
        1
 62
     0
 92
       -2
340
0
 93
        0
 40
0.045
309
GRIDFORMAT_END
 95
        8
302
GRIDFORMAT
  1
GRIDFORMAT_BEGIN
 90
        0
 91
        1
 62
     0
 92
       -2
340
0
 93
        0
 40
0.045
309
GRIDFORMAT_END
 95
       16
302
GRIDFORMAT
  1
GRIDFORMAT_BEGIN
 90
        0
 91
        1
 62
     0
 92
       -2
340
0
 93
        0
 40
0.045
309
GRIDFORMAT_END
 95
       32
302
GRIDFORMAT
  1
GRIDFORMAT_BEGIN
 90
        0
 91
        1
 62
     0
 92
       -2
340
0
 93
        0
 40
0.045
309
GRIDFORMAT_END
309
TABLEFORMAT_END
  1
CELLSTYLE_BEGIN
 90
        2
 91
        1
300
_HEADER
309
CELLSTYLE_END
300
CELLSTYLE
  1
TABLEFORMAT_BEGIN
 90
        5
170
     1
 91
        0
 92
        0
 62
   257
 93
        1
300
CONTENTFORMAT
  1
CONTENTFORMAT_BEGIN
 90
        0
 91
        0
 92
        4
 93
        0
300

 40
0.0
140
1.0
 94
        2
 62
     0
340
17
144
4.5
309
CONTENTFORMAT_END
171
     1
301
MARGIN
  1
CELLMARGIN_BEGIN
 40
0.06
 40
0.06
 40
0.06
 40
0.06
 40
0.18
 40
0.18
309
CELLMARGIN_END
 94
        6
 95
        1
302
GRIDFORMAT
  1
GRIDFORMAT_BEGIN
 90
        0
 91
        1
 62
     0
 92
       -2
340
0
 93
        0
 40
0.045
309
GRIDFORMAT_END
 95
        2
302
GRIDFORMAT
  1
GRIDFORMAT_BEGIN
 90
        0
 91
        1
 62
     0
 92
       -2
340
0
 93
        0
 40
0.045
309
GRIDFORMAT_END
 95
        4
302
GRIDFORMAT
  1
GRIDFORMAT_BEGIN
 90
        0
 91
        1
 62
     0
 92
       -2
340
0
 93
        0
 40
0.045
309
GRIDFORMAT_END
 95
        8
302
GRIDFORMAT
  1
GRIDFORMAT_BEGIN
 90
        0
 91
        1
 62
     0
 92
       -2
340
0
 93
        0
 40
0.045
309
GRIDFORMAT_END
 95
       16
302
GRIDFORMAT
  1
GRIDFORMAT_BEGIN
 90
        0
 91
        1
 62
     0
 92
       -2
340
0
 93
        0
 40
0.045
309
GRIDFORMAT_END
 95
       32
302
GRIDFORMAT
  1
GRIDFORMAT_BEGIN
 90
        0
 91
        1
 62
     0
 92
       -2
340
0
 93
        0
 40
0.045
309
GRIDFORMAT_END
309
TABLEFORMAT_END
  1
CELLSTYLE_BEGIN
 90
        3
 91
        2
300
_DATA
309
CELLSTYLE_END
  0
ENDSEC
  0
EOF
