  0
SECTION
  2
HEADER
  9
$ACADVER
  1
AC1015
  9
$ACADMAINTVER
 70
               6
  9
$DWGCODEPAGE
  3
ANSI_932
  9
$INSBASE
 10
0.0
 20
0.0
 30
0.0
  9
$EXTMIN
 10
-975.00000000024147
 20
-1431.5255224711125
 30
-14.834305555555554
  9
$EXTMAX
 10
975.00000000024124
 20
1405.9972926412995
 30
14.834305555555554
  9
$LIMMIN
 10
0.0
 20
0.0
  9
$LIMMAX
 10
0.0
 20
0.0
  9
$ORTHOMODE
 70
               0
  9
$REGENMODE
 70
               1
  9
$FILLMODE
 70
               1
  9
$QTEXTMODE
 70
               0
  9
$MIRRTEXT
 70
               1
  9
$LTSCALE
 40
25.399999999999999
  9
$ATTMODE
 70
               1
  9
$TEXTSIZE
 40
0.2
  9
$TRACEWID
 40
1.0
  9
$TEXTSTYLE
  7
Standard
  9
$CLAYER
  8
ARJ70-0032
  9
$CELTYPE
  6
Continuous
  9
$CECOLOR
 62
             256
  9
$CELTSCALE
 40
1.0
  9
$DISPSILH
 70
               0
  9
$DIMSCALE
 40
1.0
  9
$DIMASZ
 40
31.75
  9
$DIMEXO
 40
0.0
  9
$DIMDLI
 40
6.9999999999999396
  9
$DIMRND
 40
0.0
  9
$DIMDLE
 40
0.0
  9
$DIMEXE
 40
19.999999999996199
  9
$DIMTP
 40
0.0
  9
$DIMTM
 40
0.0
  9
$DIMTXT
 40
24.432617187500004
  9
$DIMCEN
 40
0.0
  9
$DIMTSZ
 40
0.0
  9
$DIMTOL
 70
               0
  9
$DIMLIM
 70
               0
  9
$DIMTIH
 70
               0
  9
$DIMTOH
 70
               0
  9
$DIMSE1
 70
               0
  9
$DIMSE2
 70
               0
  9
$DIMTAD
 70
               1
  9
$DIMZIN
 70
              11
  9
$DIMBLK
  1
VW_FILLEDARROW
  9
$DIMASO
 70
               1
  9
$DIMSHO
 70
               1
  9
$DIMPOST
  1
<>
  9
$DIMAPOST
  1
[]
  9
$DIMALT
 70
               0
  9
$DIMALTD
 70
               1
  9
$DIMALTF
 40
1.0
  9
$DIMLFAC
 40
1.0
  9
$DIMTOFL
 70
               0
  9
$DIMTVP
 40
0.0
  9
$DIMTIX
 70
               1
  9
$DIMSOXD
 70
               0
  9
$DIMSAH
 70
               0
  9
$DIMBLK1
  1

  9
$DIMBLK2
  1

  9
$DIMSTYLE
  2
JIS
  9
$DIMCLRD
 70
               0
  9
$DIMCLRE
 70
               0
  9
$DIMCLRT
 70
               0
  9
$DIMTFAC
 40
1.0
  9
$DIMGAP
 40
1.00000000000108
  9
$DIMJUST
 70
               0
  9
$DIMSD1
 70
               0
  9
$DIMSD2
 70
               0
  9
$DIMTOLJ
 70
               1
  9
$DIMTZIN
 70
              11
  9
$DIMALTZ
 70
              11
  9
$DIMALTTZ
 70
              11
  9
$DIMUPT
 70
               0
  9
$DIMDEC
 70
               1
  9
$DIMTDEC
 70
               1
  9
$DIMALTU
 70
               2
  9
$DIMALTTD
 70
               2
  9
$DIMTXSTY
  7
ＭＳ ゴシック
  9
$DIMAUNIT
 70
               0
  9
$DIMADEC
 70
               2
  9
$DIMALTRND
 40
0.0
  9
$DIMAZIN
 70
               0
  9
$DIMDSEP
 70
              46
  9
$DIMATFIT
 70
               0
  9
$DIMFRAC
 70
               2
  9
$DIMLDRBLK
  1

  9
$DIMLUNIT
 70
               2
  9
$DIMLWD
 70
              -2
  9
$DIMLWE
 70
              -2
  9
$DIMTMOVE
 70
               0
  9
$LUNITS
 70
               2
  9
$LUPREC
 70
               4
  9
$SKETCHINC
 40
0.1
  9
$FILLETRAD
 40
0.0
  9
$AUNITS
 70
               0
  9
$AUPREC
 70
               0
  9
$MENU
  1
acad
  9
$ELEVATION
 40
0.0
  9
$PELEVATION
 40
0.0
  9
$THICKNESS
 40
0.0
  9
$LIMCHECK
 70
               0
  9
$CHAMFERA
 40
0.0
  9
$CHAMFERB
 40
0.0
  9
$CHAMFERC
 40
0.0
  9
$CHAMFERD
 40
0.0
  9
$SKPOLY
 70
               0
  9
$TDCREATE
 40
2456727.456284722
  9
$TDUCREATE
 40
0.000000000
  9
$TDUPDATE
 40
2456727.456284722
  9
$TDUUPDATE
 40
0.000000000
  9
$TDINDWG
 40
0.0000000000
  9
$TDUSRTIMER
 40
0.0000000000
  9
$USRTIMER
 70
               1
  9
$ANGBASE
 50
0.0
  9
$ANGDIR
 70
               0
  9
$PDMODE
 70
               1
  9
$PDSIZE
 40
-2.0
  9
$PLINEWID
 40
0.0
  9
$SPLFRAME
 70
               0
  9
$SPLINETYPE
 70
               6
  9
$SPLINESEGS
 70
               8
  9
$HANDSEED
  5
1BC
  9
$SURFTAB1
 70
               6
  9
$SURFTAB2
 70
               6
  9
$SURFTYPE
 70
               6
  9
$SURFU
 70
               6
  9
$SURFV
 70
               6
  9
$UCSBASE
  2

  9
$UCSNAME
  2

  9
$UCSORG
 10
0.0
 20
0.0
 30
0.0
  9
$UCSXDIR
 10
1.0
 20
0.0
 30
0.0
  9
$UCSYDIR
 10
0.0
 20
1.0
 30
0.0
  9
$UCSORTHOREF
  2

  9
$UCSORTHOVIEW
 70
               0
  9
$UCSORGTOP
 10
0.0
 20
0.0
 30
0.0
  9
$UCSORGBOTTOM
 10
0.0
 20
0.0
 30
0.0
  9
$UCSORGLEFT
 10
0.0
 20
0.0
 30
0.0
  9
$UCSORGRIGHT
 10
0.0
 20
0.0
 30
0.0
  9
$UCSORGFRONT
 10
0.0
 20
0.0
 30
0.0
  9
$UCSORGBACK
 10
0.0
 20
0.0
 30
0.0
  9
$PUCSBASE
  2

  9
$PUCSNAME
  2

  9
$PUCSORG
 10
0.0
 20
0.0
 30
0.0
  9
$PUCSXDIR
 10
1.0
 20
0.0
 30
0.0
  9
$PUCSYDIR
 10
0.0
 20
1.0
 30
0.0
  9
$PUCSORTHOREF
  2

  9
$PUCSORTHOVIEW
 70
               0
  9
$PUCSORGTOP
 10
0.0
 20
0.0
 30
0.0
  9
$PUCSORGBOTTOM
 10
0.0
 20
0.0
 30
0.0
  9
$PUCSORGLEFT
 10
0.0
 20
0.0
 30
0.0
  9
$PUCSORGRIGHT
 10
0.0
 20
0.0
 30
0.0
  9
$PUCSORGFRONT
 10
0.0
 20
0.0
 30
0.0
  9
$PUCSORGBACK
 10
0.0
 20
0.0
 30
0.0
  9
$USERI1
 70
               0
  9
$USERI2
 70
               0
  9
$USERI3
 70
               0
  9
$USERI4
 70
               0
  9
$USERI5
 70
               0
  9
$USERR1
 40
0.0
  9
$USERR2
 40
0.0
  9
$USERR3
 40
0.0
  9
$USERR4
 40
0.0
  9
$USERR5
 40
0.0
  9
$WORLDVIEW
 70
               1
  9
$SHADEDGE
 70
               3
  9
$SHADEDIF
 70
              70
  9
$TILEMODE
 70
               1
  9
$MAXACTVP
 70
              64
  9
$PINSBASE
 10
0.0
 20
0.0
 30
0.0
  9
$PLIMCHECK
 70
               0
  9
$PEXTMIN
 10
1.0000000000000000E+20
 20
1.0000000000000000E+20
 30
1.0000000000000000E+20
  9
$PEXTMAX
 10
-1.0000000000000000E+20
 20
-1.0000000000000000E+20
 30
-1.0000000000000000E+20
  9
$PLIMMIN
 10
0.0
 20
0.0
  9
$PLIMMAX
 10
12.0
 20
9.0
  9
$UNITMODE
 70
               0
  9
$VISRETAIN
 70
               0
  9
$PLINEGEN
 70
               1
  9
$PSLTSCALE
 70
               0
  9
$TREEDEPTH
 70
            3020
  9
$CMLSTYLE
  2
Standard
  9
$CMLJUST
 70
               0
  9
$CMLSCALE
 40
1.0
  9
$PROXYGRAPHICS
 70
               0
  9
$MEASUREMENT
 70
               1
  9
$CELWEIGHT
370
               0
  9
$ENDCAPS
280
               0
  9
$JOINSTYLE
280
               0
  9
$LWDISPLAY
290
               1
  9
$INSUNITS
 70
               4
  9
$HYPERLINKBASE
  1

  9
$STYLESHEET
  1

  9
$XEDIT
290
               1
  9
$CEPSNTYPE
380
               0
  9
$PSTYLEMODE
290
               1
  9
$FINGERPRINTGUID
  2

  9
$VERSIONGUID
  2

  9
$EXTNAMES
290
               1
  9
$PSVPSCALE
 40
0.0
  0
ENDSEC
  0
SECTION
  2
CLASSES
  0
CLASS
  1
LWPOLYLINE
  2
AcDbPolyline
  3
AutoCAD 2000
 90
        0
280
               0
281
               1
  0
CLASS
  1
IMAGE
  2
AcDbRasterImage
  3
ISM
 90
      127
280
               0
281
               1
  0
CLASS
  1
OLE2FRAME
  2
AcDbOle2Frame
  3
AutoCAD 2000
 90
        0
280
               0
281
               1
  0
CLASS
  1
HATCH
  2
AcDbHatch
  3
AutoCAD 2000
 90
        0
280
               0
281
               1
  0
CLASS
  1
DICTIONARYVAR
  2
AcDbDictionaryVar
  3
AutoCAD 2000
 90
        0
280
               0
281
               0
  0
CLASS
  1
RASTERVARIABLES
  2
AcDbRasterVariables
  3
ISM
 90
        0
280
               0
281
               0
  0
CLASS
  1
IMAGEDEF
  2
AcDbRasterImageDef
  3
ISM
 90
        0
280
               0
281
               0
  0
CLASS
  1
IMAGEDEF_REACTOR
  2
AcDbRasterImageDefReactor
  3
ISM
 90
        1
280
               0
281
               0
  0
CLASS
  1
IDBUFFER
  2
AcDbIdBuffer
  3
AutoCAD 2000
 90
        0
280
               0
281
               0
  0
CLASS
  1
SPATIAL_FILTER
  2
AcDbSpatialFilter
  3
AutoCAD 2000
 90
        0
280
               0
281
               0
  0
CLASS
  1
XRECORD
  2
AcDbXrecord
  3
AutoCAD 2000
 90
        0
280
               0
281
               0
  0
CLASS
  1
SORTENTSTABLE
  2
AcDbSortentsTable
  3
AutoCAD 2000
 90
        0
280
               0
281
               0
  0
CLASS
  1
LAYER_INDEX
  2
AcDbLayerIndex
  3
AutoCAD 2000
 90
        0
280
               0
281
               0
  0
CLASS
  1
SPATIAL_INDEX
  2
AcDbSpatialIndex
  3
AutoCAD 2000
 90
        0
280
               0
281
               0
  0
CLASS
  1
OBJECT_PTR
  2
CAseDLPNTableRecord
  3
"ASE-LPNTableRecord"
 90
        1
280
               0
281
               0
  0
CLASS
  1
LAYOUT
  2
AcDbLayout
  3
AutoCAD 2000
 90
        0
280
               0
281
               0
  0
CLASS
  1
PLOTSETTINGS
  2
AcDbPlotSettings
  3
AutoCAD 2000
 90
        0
280
               0
281
               0
  0
CLASS
  1
ACDBDICTIONARYWDFLT
  2
AcDbDictionaryWithDefault
  3
AutoCAD 2000
 90
        0
280
               0
281
               0
  0
CLASS
  1
ACDBPLACEHOLDER
  2
AcDbPlaceHolder
  3
AutoCAD 2000
 90
        0
280
               0
281
               0
  0
ENDSEC
  0
SECTION
  2
TABLES
  0
TABLE
  2
VPORT
  5
7
100
AcDbSymbolTable
 70
               1
  0
VPORT
  5
15
100
AcDbSymbolTableRecord
100
AcDbViewportTableRecord
  2
*ACTIVE
 70
               0
 10
0.0
 20
0.0
 11
1.0
 21
1.0
 12
-0.0000000000001137
 22
-12.764114914906486
 13
0.0
 23
0.0
 14
1.0
 24
1.0
 15
0.0
 25
0.0
 16
0.0
 26
0.0
 36
1.0
 17
0.0
 27
0.0
 37
0.0
 40
2837.522815112412
 41
0.688564
 42
50.0
 43
0.0
 44
0.0
 50
0.0
 51
0.0
 71
               0
 72
            2000
 73
               1
 74
               1
 75
               0
 76
               0
 77
               0
 78
               0
281
               0
 65
               0
110
0.0
120
0.0
130
0.0
111
1.0
121
0.0
131
0.0
112
0.0
122
1.0
132
0.0
345
0
346
0
 79
               0
146
0.0
  0
ENDTAB
  0
TABLE
  2
LTYPE
  5
4
100
AcDbSymbolTable
 70
              16
  0
LTYPE
  5
11
100
AcDbSymbolTableRecord
100
AcDbLinetypeTableRecord
  2
ByBlock
 70
              64
  3

 72
              65
 73
               0
 40
0.0
  0
LTYPE
  5
12
100
AcDbSymbolTableRecord
100
AcDbLinetypeTableRecord
  2
ByLayer
 70
              64
  3

 72
              65
 73
               0
 40
0.0
  0
LTYPE
  5
13
100
AcDbSymbolTableRecord
100
AcDbLinetypeTableRecord
  2
Continuous
 70
              64
  3
Solid line
 72
              65
 73
               0
 40
0.0
  0
LTYPE
  5
35
100
AcDbSymbolTableRecord
100
AcDbLinetypeTableRecord
  2
STYLE_01
 70
               0
  3

 72
              65
 73
               4
 40
0.078740157480315
 49
0.0492125984251968
 74
               0
 49
-0.0098425196850394
 74
               0
 49
0.0098425196850394
 74
               0
 49
-0.0098425196850394
 74
               0
  0
LTYPE
  5
36
100
AcDbSymbolTableRecord
100
AcDbLinetypeTableRecord
  2
STYLE_02
 70
               0
  3

 72
              65
 73
               2
 40
0.0590551181102362
 49
0.0393700787401574
 74
               0
 49
-0.0196850393700788
 74
               0
  0
LTYPE
  5
37
100
AcDbSymbolTableRecord
100
AcDbLinetypeTableRecord
  2
STYLE_03
 70
               0
  3

 72
              65
 73
               2
 40
0.7499999999999998
 49
0.5
 74
               0
 49
-0.2499999999999998
 74
               0
  0
LTYPE
  5
38
100
AcDbSymbolTableRecord
100
AcDbLinetypeTableRecord
  2
STYLE_04
 70
               0
  3

 72
              65
 73
               4
 40
0.078740157480315
 49
0.0492125984251968
 74
               0
 49
-0.0098425196850394
 74
               0
 49
0.0098425196850394
 74
               0
 49
-0.0098425196850394
 74
               0
  0
LTYPE
  5
39
100
AcDbSymbolTableRecord
100
AcDbLinetypeTableRecord
  2
STYLE_05
 70
               0
  3

 72
              65
 73
               2
 40
0.41656
 49
0.13885
 74
               0
 49
-0.27771
 74
               0
  0
LTYPE
  5
3A
100
AcDbSymbolTableRecord
100
AcDbLinetypeTableRecord
  2
STYLE_06
 70
               0
  3

 72
              65
 73
               4
 40
2.0832800000000002
 49
1.25
 74
               0
 49
-0.41656
 74
               0
 49
0.1388600000000001
 74
               0
 49
-0.2778600000000001
 74
               0
  0
LTYPE
  5
3B
100
AcDbSymbolTableRecord
100
AcDbLinetypeTableRecord
  2
STYLE_07
 70
               0
  3

 72
              65
 73
               6
 40
3.75
 49
1.25
 74
               0
 49
-0.41656
 74
               0
 49
1.2500000000000002
 74
               0
 49
-0.4167199999999999
 74
               0
 49
0.1388600000000001
 74
               0
 49
-0.2778599999999998
 74
               0
  0
LTYPE
  5
3C
100
AcDbSymbolTableRecord
100
AcDbLinetypeTableRecord
  2
STYLE_08
 70
               0
  3

 72
              65
 73
               6
 40
2.5
 49
1.25
 74
               0
 49
-0.41656
 74
               0
 49
0.1388600000000001
 74
               0
 49
-0.2778600000000001
 74
               0
 49
0.1388599999999998
 74
               0
 49
-0.2778600000000001
 74
               0
  0
LTYPE
  5
3D
100
AcDbSymbolTableRecord
100
AcDbLinetypeTableRecord
  2
STYLE_09
 70
               0
  3

 72
              65
 73
               4
 40
10.0
 49
7.5
 74
               0
 49
-0.5555699999999997
 74
               0
 49
1.3888600000000006
 74
               0
 49
-0.5555699999999997
 74
               0
  0
LTYPE
  5
3E
100
AcDbSymbolTableRecord
100
AcDbLinetypeTableRecord
  2
STYLE_10
 70
               0
  3

 72
              65
 73
               6
 40
11.875
 49
7.5
 74
               0
 49
-0.5555699999999997
 74
               0
 49
1.3888600000000006
 74
               0
 49
-0.5555699999999997
 74
               0
 49
1.25
 74
               0
 49
-0.625
 74
               0
  0
LTYPE
  5
3F
100
AcDbSymbolTableRecord
100
AcDbLinetypeTableRecord
  2
STYLE_11
 70
               0
  3

 72
              65
 73
               2
 40
0.1388889763779528
 49
0.0694444881889764
 74
               0
 49
-0.0694444881889764
 74
               0
  0
LTYPE
  5
40
100
AcDbSymbolTableRecord
100
AcDbLinetypeTableRecord
  2
STYLE_12
 70
               0
  3

 72
              65
 73
               2
 40
0.3472222222222222
 49
0.2083333333333333
 74
               0
 49
-0.1388888888888889
 74
               0
  0
LTYPE
  5
41
100
AcDbSymbolTableRecord
100
AcDbLinetypeTableRecord
  2
STYLE_13
 70
               0
  3

 72
              65
 73
               2
 40
0.7874015748031495
 49
0.3937007874015748
 74
               0
 49
-0.3937007874015748
 74
               0
  0
ENDTAB
  0
TABLE
  2
LAYER
  5
2
100
AcDbSymbolTable
 70
               5
  0
LAYER
  5
14
100
AcDbSymbolTableRecord
100
AcDbLayerTableRecord
  2
0
 70
               0
 62
               7
  6
Continuous
290
               1
370
              -3
390
1D
  0
LAYER
  5
42
100
AcDbSymbolTableRecord
100
AcDbLayerTableRecord
  2
Defpoints
 70
               0
 62
               7
  6
Continuous
290
               0
370
              -3
390
1D
  0
LAYER
  5
43
100
AcDbSymbolTableRecord
100
AcDbLayerTableRecord
  2
template
 70
               0
 62
               7
  6
Continuous
290
               1
370
              -3
390
1D
  0
LAYER
  5
44
100
AcDbSymbolTableRecord
100
AcDbLayerTableRecord
  2
notes
 70
               0
 62
               7
  6
Continuous
290
               1
370
              -3
390
1D
  0
LAYER
  5
45
100
AcDbSymbolTableRecord
100
AcDbLayerTableRecord
  2
ARJ70-0032
 70
               0
 62
               7
  6
Continuous
290
               1
370
              -3
390
1D
  0
ENDTAB
  0
TABLE
  2
STYLE
  5
3
100
AcDbSymbolTable
 70
               2
  0
STYLE
  5
17
100
AcDbSymbolTableRecord
100
AcDbTextStyleTableRecord
  2
Standard
 70
               0
 40
0.0
 41
1.0
 50
0.0
 71
               0
 42
0.0
  3
txt
  4
BIGFONT.SHX
  0
STYLE
  5
34
100
AcDbSymbolTableRecord
100
AcDbTextStyleTableRecord
  2
ＭＳ ゴシック
 70
               0
 40
0.0
 41
1.0
 50
0.0
 71
               0
 42
0.0
  3

  4
ＭＳ ゴシック
1001
ACAD
1000
ＭＳ ゴシック
1071
        0
  0
ENDTAB
  0
TABLE
  2
VIEW
  5
5
100
AcDbSymbolTable
 70
               0
  0
ENDTAB
  0
TABLE
  2
UCS
  5
6
100
AcDbSymbolTable
 70
               0
  0
ENDTAB
  0
TABLE
  2
APPID
  5
8
100
AcDbSymbolTable
 70
               1
  0
APPID
  5
16
100
AcDbSymbolTableRecord
100
AcDbRegAppTableRecord
  2
ACAD
 70
               0
  0
ENDTAB
  0
TABLE
  2
DIMSTYLE
  5
9
100
AcDbSymbolTable
 70
               3
100
AcDbDimStyleTable
 71
               0
  0
DIMSTYLE
105
18
100
AcDbSymbolTableRecord
100
AcDbDimStyleTableRecord
  2
Standard
 70
               0
  3

  4

 40
1.0
 41
0.18
 42
0.0625
 43
0.38
 44
0.18
 45
0.0
 46
0.0
 47
0.0
 48
0.0
 71
               0
 72
               0
 73
               1
 74
               1
 75
               0
 76
               0
 77
               0
 78
               0
 79
               0
140
0.18
141
0.09
142
0.0
143
25.399999999999999
144
1.0
145
0.0
146
1.0
147
0.09
148
0.0
170
               0
171
               2
172
               0
173
               0
174
               0
175
               0
176
               0
177
               0
178
               0
179
               0
271
               4
272
               4
273
               2
274
               2
275
               0
276
               0
277
               2
278
              46
279
               0
280
               0
281
               0
282
               0
283
               1
284
               0
285
               0
286
               0
288
               0
289
               3
340
17
341
0
342
0
343
0
344
0
371
              -2
372
              -2
  0
DIMSTYLE
105
4E
100
AcDbSymbolTableRecord
100
AcDbDimStyleTableRecord
  2
tform線あり
 70
               0
  3
<>
  4
[]
 40
1.0
 41
3.999755859375
 42
24.999999999999996
 43
0.9999999999999999
 44
0.0
 45
0.0
 46
0.0
 47
0.0
 48
0.0
 71
               0
 72
               0
 73
               0
 74
               0
 75
               0
 76
               0
 77
               1
 78
              11
 79
               0
140
24.432617187500004
141
0.0
142
0.0
143
1.0
144
1.0
145
0.0
146
1.0
147
0.4999999999999999
148
0.0
170
               0
171
               1
172
               0
173
               0
174
               1
175
               0
176
               0
177
               0
178
               0
179
               2
271
               1
272
               1
273
               2
274
               2
275
               0
276
               2
277
               2
278
              46
279
               0
280
               0
281
               0
282
               0
283
               1
284
              11
285
              11
286
              11
288
               0
289
               0
340
34
341
46
342
46
343
0
344
0
371
              -2
372
              -2
  0
DIMSTYLE
105
53
100
AcDbSymbolTableRecord
100
AcDbDimStyleTableRecord
  2
JIS
 70
               0
  3
<>
  4
[]
 40
1.0
 41
31.75
 42
0.0
 43
6.9999999999999396
 44
19.999999999996199
 45
0.0
 46
0.0
 47
0.0
 48
0.0
 71
               0
 72
               0
 73
               0
 74
               0
 75
               0
 76
               0
 77
               1
 78
              11
 79
               0
140
24.432617187500004
141
0.0
142
0.0
143
1.0
144
1.0
145
0.0
146
1.0
147
1.00000000000108
148
0.0
170
               0
171
               1
172
               0
173
               0
174
               1
175
               0
176
               0
177
               0
178
               0
179
               2
271
               1
272
               1
273
               2
274
               2
275
               0
276
               2
277
               2
278
              46
279
               0
280
               0
281
               0
282
               0
283
               1
284
              11
285
              11
286
              11
288
               0
289
               0
340
34
341
4F
342
4F
343
0
344
0
371
              -2
372
              -2
  0
ENDTAB
  0
TABLE
  2
BLOCK_RECORD
  5
1
100
AcDbSymbolTable
 70
              19
  0
BLOCK_RECORD
  5
A
100
AcDbSymbolTableRecord
100
AcDbBlockTableRecord
  2
*MODEL_SPACE
340
20
  0
BLOCK_RECORD
  5
B
100
AcDbSymbolTableRecord
100
AcDbBlockTableRecord
  2
*PAPER_SPACE
340
21
  0
BLOCK_RECORD
  5
46
100
AcDbSymbolTableRecord
100
AcDbBlockTableRecord
  2
_DOT
340
0
  0
BLOCK_RECORD
  5
4F
100
AcDbSymbolTableRecord
100
AcDbBlockTableRecord
  2
VW_FILLEDARROW
340
0
  0
BLOCK_RECORD
  5
23
100
AcDbSymbolTableRecord
100
AcDbBlockTableRecord
  2
グループ
340
0
102
{BLKREFS
331
132
102
}
  0
BLOCK_RECORD
  5
24
100
AcDbSymbolTableRecord
100
AcDbBlockTableRecord
  2
*D3
340
0
  0
BLOCK_RECORD
  5
25
100
AcDbSymbolTableRecord
100
AcDbBlockTableRecord
  2
*D4
340
0
  0
BLOCK_RECORD
  5
26
100
AcDbSymbolTableRecord
100
AcDbBlockTableRecord
  2
*D5
340
0
  0
BLOCK_RECORD
  5
27
100
AcDbSymbolTableRecord
100
AcDbBlockTableRecord
  2
*D6
340
0
  0
BLOCK_RECORD
  5
28
100
AcDbSymbolTableRecord
100
AcDbBlockTableRecord
  2
*D7
340
0
  0
BLOCK_RECORD
  5
29
100
AcDbSymbolTableRecord
100
AcDbBlockTableRecord
  2
*D8
340
0
  0
BLOCK_RECORD
  5
2A
100
AcDbSymbolTableRecord
100
AcDbBlockTableRecord
  2
*D9
340
0
  0
BLOCK_RECORD
  5
2B
100
AcDbSymbolTableRecord
100
AcDbBlockTableRecord
  2
*D10
340
0
  0
BLOCK_RECORD
  5
2C
100
AcDbSymbolTableRecord
100
AcDbBlockTableRecord
  2
*D11
340
0
  0
BLOCK_RECORD
  5
2D
100
AcDbSymbolTableRecord
100
AcDbBlockTableRecord
  2
*D12
340
0
  0
BLOCK_RECORD
  5
2E
100
AcDbSymbolTableRecord
100
AcDbBlockTableRecord
  2
*D13
340
0
  0
BLOCK_RECORD
  5
2F
100
AcDbSymbolTableRecord
100
AcDbBlockTableRecord
  2
*D14
340
0
  0
BLOCK_RECORD
  5
30
100
AcDbSymbolTableRecord
100
AcDbBlockTableRecord
  2
*D15
340
0
  0
BLOCK_RECORD
  5
31
100
AcDbSymbolTableRecord
100
AcDbBlockTableRecord
  2
*D16
340
0
  0
BLOCK_RECORD
  5
32
100
AcDbSymbolTableRecord
100
AcDbBlockTableRecord
  2
*D17
340
0
  0
BLOCK_RECORD
  5
33
100
AcDbSymbolTableRecord
100
AcDbBlockTableRecord
  2
*D18
340
0
  0
ENDTAB
  0
ENDSEC
  0
SECTION
  2
BLOCKS
  0
BLOCK
  5
D
100
AcDbEntity
  8
0
390
0
100
AcDbBlockBegin
  2
*MODEL_SPACE
 70
               0
 10
0.0
 20
0.0
 30
0.0
  3
*MODEL_SPACE
  1

  0
ENDBLK
  5
E
100
AcDbEntity
  8
0
390
0
100
AcDbBlockEnd
  0
BLOCK
  5
F
100
AcDbEntity
 67
               1
  8
0
390
0
100
AcDbBlockBegin
  2
*PAPER_SPACE
 70
               0
 10
0.0
 20
0.0
 30
0.0
  3
*PAPER_SPACE
  1

  0
ENDBLK
  5
10
100
AcDbEntity
 67
               1
  8
0
390
0
100
AcDbBlockEnd
  0
BLOCK
  5
47
100
AcDbEntity
  8
0
390
0
100
AcDbBlockBegin
  2
_DOT
 70
               0
 10
0.0
 20
0.0
 30
0.0
  3
_DOT
  1

  0
POLYLINE
  5
48
100
AcDbEntity
  8
0
370
              -2
390
0
  6
ByBlock
 62
               0
100
AcDb2dPolyline
 66
               1
 10
0.0
 20
0.0
 30
0.0
 70
               1
 40
0.5
 41
0.5
  0
VERTEX
  5
49
100
AcDbEntity
  8
0
370
              -2
390
0
  6
ByBlock
 62
               0
100
AcDbVertex
100
AcDb2dVertex
 10
-0.25
 20
0.0
 30
0.0
 42
1.0
  0
VERTEX
  5
4A
100
AcDbEntity
  8
0
370
              -2
390
0
  6
ByBlock
 62
               0
100
AcDbVertex
100
AcDb2dVertex
 10
0.25
 20
0.0
 30
0.0
 42
1.0
  0
SEQEND
  5
4B
100
AcDbEntity
  8
0
390
0
  0
LINE
  5
4C
100
AcDbEntity
  8
0
370
              -2
390
0
  6
ByBlock
 62
               0
100
AcDbLine
 10
-0.5
 20
0.0
 30
0.0
 11
-1.0
 21
0.0
 31
0.0
  0
ENDBLK
  5
4D
100
AcDbEntity
  8
0
390
0
100
AcDbBlockEnd
  0
BLOCK
  5
50
100
AcDbEntity
  8
0
370
              -2
390
0
  6
ByBlock
 62
               0
100
AcDbBlockBegin
  2
VW_FILLEDARROW
 70
               0
 10
0.0
 20
0.0
 30
0.0
  3
VW_FILLEDARROW
  1

  0
SOLID
  5
51
100
AcDbEntity
  8
0
370
              -2
390
0
 62
               0
100
AcDbTrace
 10
0.0
 20
0.0
 30
0.0
 11
-0.9921874999999999
 21
-0.2658558393652545
 31
0.0
 12
-0.9921874999999999
 22
0.2658558393652548
 32
0.0
 13
-0.9921874999999999
 23
0.2658558393652548
 33
0.0
  0
ENDBLK
  5
52
100
AcDbEntity
  8
0
390
0
100
AcDbBlockEnd
  0
BLOCK
  5
54
100
AcDbEntity
  8
template
390
0
100
AcDbBlockBegin
  2
グループ
 70
               0
 10
0.0
 20
0.0
 30
0.0
  3
グループ
  1

  0
LWPOLYLINE
  5
55
100
AcDbEntity
  8
0
370
              15
390
0
  6
Continuous
 62
               7
100
AcDbPolyline
 90
        8
 70
             129
 10
-719.78604431082931
 20
-2378.2948947716723
 10
-719.78604431082931
 20
-2384.2922834652481
 10
-729.28724122883261
 20
-2384.2922834652481
 10
-729.28724122883261
 20
-2408.7432467287563
 10
-737.6426184906154
 20
-2408.7432467287563
 10
-737.6426184906154
 20
-2384.2922834652481
 10
-746.97557543692483
 20
-2384.2922834652481
 10
-746.97557543692483
 20
-2378.2948947716723
  0
LWPOLYLINE
  5
56
100
AcDbEntity
  8
0
370
              15
390
0
  6
Continuous
 62
               7
100
AcDbPolyline
 90
      101
 70
             128
 10
-707.05775248027237
 20
-2379.0231432646087
 10
-707.04240245148662
 20
-2379.0187825079233
 42
-0.0222221607819542
 10
-706.75239787481632
 20
-2378.9501580426786
 10
-706.73660411082551
 20
-2378.9471546195823
 42
-0.0146883565596603
 10
-706.47390140559855
 20
-2378.9051514326325
 42
-0.0127458844183386
 10
-706.2092624384544
 20
-2378.8776144645608
 10
-706.1468073601327
 20
-2378.872721041972
 42
-0.0198099018565147
 10
-705.75595825065784
 20
-2378.8576358845753
 10
-705.7041467812121
 20
-2378.8576896602403
 42
-0.0147617382760348
 10
-705.20952332023796
 20
-2378.8728096854848
 10
-705.13683186536468
 20
-2378.8771822923723
 42
-0.0162624549006544
 10
-704.74667823589834
 20
-2378.9134151676449
 10
-704.62514584463008
 20
-2378.9287017266429
 42
-0.0080020874658755
 10
-704.47956681354754
 20
-2378.9493845739098
 10
-704.44124734297452
 20
-2378.955455851717
 42
-0.0053821929673392
 10
-704.37276323763774
 20
-2378.9670633755422
 10
-705.09916893683635
 20
-2381.1479918312561
 42
0.0108667757414422
 10
-705.16648600697033
 20
-2381.1348047160359
 10
-705.20395403015664
 20
-2381.1283069734418
 42
0.0170663203330913
 10
-705.34717081707993
 20
-2381.1084773761495
 10
-705.4150461497552
 20
-2381.1014302055628
 42
0.0220162375266186
 10
-705.69542555760097
 20
-2381.0847478447931
 10
-705.77328112466967
 20
-2381.0835484775262
 42
0.0282606915788342
 10
-706.1089174482405
 20
-2381.0973517544953
 10
-706.15283072200361
 20
-2381.1016517444978
 42
0.0169677213674067
 10
-706.39875521697172
 20
-2381.1341887940507
 42
0.0190576269879125
 10
-706.64166317956051
 20
-2381.1843356661593
 10
-706.64792236766266
 20
-2381.1858786402663
 42
0.021368564284366
 10
-706.89830685213678
 20
-2381.25907892537
 10
-706.90379674705662
 20
-2381.2609419214305
 42
0.0237595297587068
 10
-707.15729163195817
 20
-2381.3606264433274
 10
-707.16239370598498
 20
-2381.3629182188042
 42
0.0261857468821131
 10
-707.4145644822122
 20
-2381.4924545561771
 10
-707.42499067130257
 20
-2381.4985200306473
 42
0.0272553062008078
 10
-707.66142044654043
 20
-2381.6538922365917
 10
-707.69618346004893
 20
-2381.679553384683
 42
0.0325996893167598
 10
-707.84633880370143
 20
-2381.8063012576549
 10
-707.8700482328295
 20
-2381.8291192861725
 42
0.0138050960646393
 10
-707.96193138903459
 20
-2381.9225689477194
 42
0.0125280103803275
 10
-708.04877392186722
 20
-2382.0207322743186
 10
-708.07245436677647
 20
-2382.0488907725071
 42
0.0205218024730677
 10
-708.1975544422894
 20
-2382.2106840867355
 10
-708.22002078277728
 20
-2382.2423438165633
 42
0.0163110129583864
 10
-708.37573116202964
 20
-2382.4776742516351
 10
-708.37845505807957
 20
-2382.4820980136187
 42
0.0131897341890492
 10
-708.52525557898446
 20
-2382.7352301059809
 10
-708.52695567435194
 20
-2382.7383483451185
 42
0.0107895576071337
 10
-708.66473237656123
 20
-2383.0045635547508
 10
-708.66546526608772
 20
-2383.0060577874001
 42
0.0091371507221723
 10
-708.79394521473682
 20
-2383.2805829851586
 10
-708.82369084614652
 20
-2383.3472894923189
 42
0.0135418326356652
 10
-708.99540478521794
 20
-2383.762227277587
 10
-709.02900959365377
 20
-2383.8500934198723
 42
0.0092834542412292
 10
-709.20023865357325
 20
-2384.3239919181742
 10
-709.22585578129076
 20
-2384.399232987967
 42
0.0054261043581262
 10
-709.33349392958394
 20
-2384.7269969610325
 10
-709.35101991575686
 20
-2384.7823851232483
 42
0.0008225090812965
 10
-709.41968996759135
 20
-2385.0006538814114
 10
-710.40437909952482
 20
-2388.025545174668
 10
-707.17175525945095
 20
-2388.025545174668
 10
-707.67594768930439
 20
-2389.9300234730208
 10
-710.93200397128771
 20
-2389.9300234730208
 10
-716.76115300364154
 20
-2408.7432465390257
 10
-718.58625061395185
 20
-2408.7432465390257
 10
-712.75157257845092
 20
-2389.9300234730208
 10
-715.15668894749126
 20
-2389.9300234730208
 10
-714.65249651763781
 20
-2388.025545174668
 10
-712.2239477066878
 20
-2388.025545174668
 10
-711.36379278849915
 20
-2385.3891321739693
 42
-0.0005863560651091
 10
-711.32705811032133
 20
-2385.2723057537592
 10
-711.25097027663526
 20
-2385.0313134542921
 42
-0.0087522378928525
 10
-711.05150213317756
 20
-2384.4360373671434
 10
-710.95923785776506
 20
-2384.1758971986328
 42
-0.0077400953831916
 10
-710.70130419863381
 20
-2383.4828925210845
 10
-710.68553922705587
 20
-2383.4424616377009
 42
-0.0082369946334647
 10
-710.43845475644298
 20
-2382.8383825715027
 42
-0.0085725238365201
 10
-710.17120866044024
 20
-2382.2429565322163
 10
-710.06957905943193
 20
-2382.0265354302292
 42
-0.0168109410597214
 10
-709.78263463070266
 20
-2381.4653279041263
 10
-709.65679124027258
 20
-2381.2383638711813
 42
-0.0007817726855186
 10
-709.60250689018699
 20
-2381.1408196260977
 10
-709.60237858417247
 20
-2381.1405899173665
 42
-0.0036626142176866
 10
-709.54749072014852
 20
-2381.0439920373924
 42
-0.0080221150674869
 10
-709.49036646474201
 20
-2380.9487128026399
 10
-709.45966651338063
 20
-2380.8993218535174
 42
-0.0202139325572296
 10
-709.33201077357421
 20
-2380.7113402528366
 10
-709.27794330838628
 20
-2380.6382613885953
 42
-0.0249323791798609
 10
-709.01878051466883
 20
-2380.3222161464428
 10
-708.99464070054012
 20
-2380.2956018735285
 42
-0.0242132121531961
 10
-708.65495995899653
 20
-2379.955718387323
 10
-708.60704838625031
 20
-2379.9122092511411
 42
-0.0251017527867029
 10
-708.32306668560682
 20
-2379.6792165053735
 10
-708.32162120878832
 20
-2379.678147247791
 42
-0.013086806903622
 10
-708.02336055883575
 20
-2379.4693667792521
 10
-708.0217987396926
 20
-2379.4683333389767
 42
-0.0290329526383427
 10
-707.71068759829973
 20
-2379.2875078373481
 10
-707.68084203631258
 20
-2379.2724054545079
 42
-0.0160250190038655
 10
-707.4149376225489
 20
-2379.1483893442951
 42
-0.0267600374785604
 10
-707.1396615450808
 20
-2379.0476410237461
 10
-707.11292562555934
 20
-2379.0394484649205
 42
-0.0049981587727215
 10
-707.05775248027237
 20
-2379.0231432646087
 42
-0.0049981587727215
  0
LWPOLYLINE
  5
57
100
AcDbEntity
  8
0
370
              15
390
0
  6
Continuous
 62
               7
100
AcDbPolyline
 90
      118
 70
             128
 10
-687.24338491582546
 20
-2388.0995285024956
 10
-685.36826299132599
 20
-2388.0995285024956
 10
-686.20630189692588
 20
-2390.7810950288958
 42
-0.0010587229230167
 10
-686.17484608135317
 20
-2390.7441904955394
 10
-686.11665199072195
 20
-2390.6762082393648
 42
-0.007187474041517
 10
-685.96627677263086
 20
-2390.5055675473432
 10
-685.82455399936168
 20
-2390.3493314060224
 42
-0.0148118053513123
 10
-685.37442470664814
 20
-2389.8817175600088
 10
-685.28720237174593
 20
-2389.7963202391547
 42
-0.0086273358697577
 10
-684.9516535707387
 20
-2389.4789446051395
 10
-684.90781985451588
 20
-2389.4388949608092
 42
-0.0103138323112488
 10
-684.64979615227935
 20
-2389.2127318234684
 10
-684.60402174594606
 20
-2389.1742497762029
 42
-0.0060206748565807
 10
-684.43117368184005
 20
-2389.0324551254535
 10
-684.42914255095684
 20
-2389.0308294198244
 42
-0.0067069027301499
 10
-684.25684973629154
 20
-2388.8966787860272
 10
-684.25430097035564
 20
-2388.8947486161442
 42
-0.0076184352023789
 10
-684.08339570449425
 20
-2388.7693737409081
 42
-0.0089652861688534
 10
-683.90843474176415
 20
-2388.6497404805782
 10
-683.87208302161321
 20
-2388.6258292670914
 42
-0.015691624594341
 10
-683.67612352445462
 20
-2388.5055667806182
 42
-0.0023299011058227
 10
-683.47586148049879
 20
-2388.3923888410905
 10
-683.46047734809497
 20
-2388.3837888460125
 42
-0.0107669341488134
 10
-683.2262405229859
 20
-2388.2593887126591
 10
-683.20397572191882
 20
-2388.2481719627131
 42
-0.00780580458906
 10
-682.92038560396247
 20
-2388.110810507073
 10
-682.91047851625694
 20
-2388.1062013792061
 42
-0.0181829330474761
 10
-682.60016911164303
 20
-2387.9753376381109
 10
-682.54611366907227
 20
-2387.9548225181661
 42
-0.0208411536034454
 10
-682.19702870162428
 20
-2387.838732055674
 10
-682.18267260149594
 20
-2387.8346136107202
 42
-0.0222799817127478
 10
-681.85395280757962
 20
-2387.7559720445802
 10
-681.84506384434542
 20
-2387.7542600339957
 42
-0.0215509523893042
 10
-681.5285928760627
 20
-2387.7073443454606
 10
-681.48611091500675
 20
-2387.7029068186689
 42
-0.0182545924867055
 10
-681.25200213570861
 20
-2387.6870629932791
 10
-681.21260111933907
 20
-2387.6858384481993
 42
-0.0072962856510268
 10
-681.05667823967156
 20
-2387.6832691196778
 10
-681.02757856910716
 20
-2387.6832142842741
 42
-0.0059227516336474
 10
-680.92982906995462
 20
-2387.6841879960643
 10
-680.900586852527
 20
-2387.6848257626666
 42
-0.0011833111841103
 10
-680.86133556875029
 20
-2387.6857747669774
 10
-681.65672216435746
 20
-2390.2245087120764
 42
0.0143932051430443
 10
-681.68312354670809
 20
-2390.2143097420317
 10
-681.69039551912533
 20
-2390.2117385231741
 42
0.0234388603596945
 10
-681.73222638506331
 20
-2390.1991192874571
 10
-681.74090804797015
 20
-2390.1969383254536
 42
0.0199162742952067
 10
-681.80119688204786
 20
-2390.184321590119
 10
-681.82201081985636
 20
-2390.1808243906903
 42
0.0293643550654894
 10
-681.92508567861364
 20
-2390.169674345037
 10
-681.94977085933579
 20
-2390.1684627280183
 42
0.0214606686861845
 10
-682.10291177527961
 20
-2390.1675241676003
 10
-682.11228368610625
 20
-2390.167869079145
 42
0.0167564054185547
 10
-682.28380387722484
 20
-2390.1799461215141
 10
-682.29226366997364
 20
-2390.1808274619402
 42
0.0137677553240468
 10
-682.47961698323115
 20
-2390.2055767704824
 10
-682.48696872274627
 20
-2390.2067546904518
 42
0.011849726147445
 10
-682.68746648684805
 20
-2390.243772040641
 10
-682.69361649409484
 20
-2390.245058903361
 42
0.0106421143895647
 10
-682.90449738137454
 20
-2390.2938912789346
 10
-682.9094061897689
 20
-2390.2951386216209
 42
0.0099746379698875
 10
-683.1278646589243
 20
-2390.3553131499339
 10
-683.18941269910169
 20
-2390.3735950285663
 42
0.0191613675862318
 10
-683.52539716161266
 20
-2390.4875724088515
 10
-683.61345693435919
 20
-2390.5212593191759
 42
0.0205274080139509
 10
-683.99876370626339
 20
-2390.6870877270039
 10
-684.05641298823946
 20
-2390.7147556915734
 42
0.0181256912191866
 10
-684.31468992891234
 20
-2390.8504395105542
 10
-684.36764531222514
 20
-2390.8807571237685
 42
0.0140709242415941
 10
-684.51260024685462
 20
-2390.9692517972035
 10
-684.53884911546447
 20
-2390.9863086159135
 42
0.0086667884396179
 10
-684.62777527701564
 20
-2391.0463112838015
 42
0.0036408192022961
 10
-684.71520851504829
 20
-2391.1084921415932
 10
-684.75043538951763
 20
-2391.1339330875066
 42
0.0052260781263358
 10
-684.90666408691231
 20
-2391.2492654741436
 10
-684.92287094316839
 20
-2391.2614935847591
 42
0.0050024435889535
 10
-685.1088742862247
 20
-2391.4047761530192
 10
-685.12419244274236
 20
-2391.4168221754671
 42
0.0136138710275582
 10
-685.33463371106529
 20
-2391.5917886803786
 10
-685.36830158686121
 20
-2391.6213676530947
 42
0.0172815186912707
 10
-685.63270512852307
 20
-2391.8703643257172
 10
-685.6352674743664
 20
-2391.8729501428652
 42
0.0189403857988645
 10
-685.88584927294528
 20
-2392.1457554076696
 10
-685.91848076647989
 20
-2392.1840993391647
 42
0.0185044199500342
 10
-686.11043720546149
 20
-2392.4273479202898
 42
0.0088565243902752
 10
-686.28889731208881
 20
-2392.6808643404383
 10
-686.29807529173843
 20
-2392.6944057201999
 42
0.0157195347235951
 10
-686.48129589807502
 20
-2392.9839279295197
 10
-686.52737884000135
 20
-2393.0620801265331
 42
0.0095451879789327
 10
-686.69246439014103
 20
-2393.3546747688929
 10
-686.70361230907372
 20
-2393.3753454410307
 42
0.0100351706252422
 10
-686.83565605822992
 20
-2393.6324010015155
 42
0.0086935915424646
 10
-686.95798721002438
 20
-2393.8942341469206
 10
-686.96130795143847
 20
-2393.9016764698918
 42
0.0072580174861706
 10
-687.08165440338314
 20
-2394.1822684614745
 10
-687.08491603668972
 20
-2394.1901884874928
 42
0.0060005122616738
 10
-687.20411670503222
 20
-2394.4897981580971
 10
-687.20732768337405
 20
-2394.4981596860025
 42
0.0049017786974141
 10
-687.32622784223213
 20
-2394.817088666608
 10
-687.32939364862193
 20
-2394.825841603837
 42
0.0039415167602653
 10
-687.44882992667851
 20
-2395.1643836662502
 10
-687.45196102933073
 20
-2395.1734868671265
 42
0.0031035838763153
 10
-687.5727658150231
 20
-2395.5319267288978
 10
-687.57587585955423
 20
-2395.5413473502749
 42
0.0025070747151269
 10
-687.69877721086743
 20
-2395.9199945672121
 10
-687.73607110729495
 20
-2396.0368862324717
 42
0.0029081910287651
 10
-687.92808940510599
 20
-2396.6510498907637
 10
-687.96889257362284
 20
-2396.7842731330393
 42
0.0009266453732715
 10
-688.23730994794869
 20
-2397.6664975929998
 10
-688.25819742058582
 20
-2397.735609472224
 42
-0.0005809993665352
 10
-688.53553410116933
 20
-2398.649417578838
 10
-688.60181589943704
 20
-2398.8669025109803
 42
-0.0012018708165954
 10
-688.74880020887144
 20
-2399.3450651755184
 10
-688.80112006045238
 20
-2399.5138243164333
 42
-0.0002691059602009
 10
-688.84468954160559
 20
-2399.6540919367262
 10
-691.67764543989483
 20
-2408.7432465390257
 10
-693.49563433187336
 20
-2408.7432465390257
 10
-687.24338491582546
 20
-2388.0995285024956
  0
SPLINE
  5
58
100
AcDbEntity
  8
0
370
              15
390
0
  6
Continuous
 62
               7
100
AcDbSpline
210
0.0
220
0.0
230
1.0
 70
              13
 71
               2
 72
             782
 73
             779
 74
               0
 42
0.000001
 43
0.000001
 40
0.0
 40
0.0
 40
0.0
 40
1.0
 40
1.0
 40
2.0
 40
2.0
 40
3.0
 40
3.0
 40
4.0
 40
4.0
 40
5.0
 40
5.0
 40
6.0
 40
6.0
 40
7.0
 40
7.0
 40
8.0
 40
8.0
 40
9.0
 40
9.0
 40
10.0
 40
10.0
 40
11.0
 40
11.0
 40
12.0
 40
12.0
 40
13.0
 40
13.0
 40
14.0
 40
14.0
 40
15.0
 40
15.0
 40
16.0
 40
16.0
 40
17.0
 40
17.0
 40
18.0
 40
18.0
 40
19.0
 40
19.0
 40
20.0
 40
20.0
 40
21.0
 40
21.0
 40
22.0
 40
22.0
 40
23.0
 40
23.0
 40
24.0
 40
24.0
 40
25.0
 40
25.0
 40
26.0
 40
26.0
 40
27.0
 40
27.0
 40
28.0
 40
28.0
 40
29.0
 40
29.0
 40
30.0
 40
30.0
 40
31.0
 40
31.0
 40
32.0
 40
32.0
 40
33.0
 40
33.0
 40
34.0
 40
34.0
 40
35.0
 40
35.0
 40
36.0
 40
36.0
 40
37.0
 40
37.0
 40
38.0
 40
38.0
 40
39.0
 40
39.0
 40
40.0
 40
40.0
 40
41.0
 40
41.0
 40
42.0
 40
42.0
 40
43.0
 40
43.0
 40
44.0
 40
44.0
 40
45.0
 40
45.0
 40
46.0
 40
46.0
 40
47.0
 40
47.0
 40
48.0
 40
48.0
 40
49.0
 40
49.0
 40
50.0
 40
50.0
 40
51.0
 40
51.0
 40
52.0
 40
52.0
 40
53.0
 40
53.0
 40
54.0
 40
54.0
 40
55.0
 40
55.0
 40
56.0
 40
56.0
 40
57.0
 40
57.0
 40
58.0
 40
58.0
 40
59.0
 40
59.0
 40
60.0
 40
60.0
 40
61.0
 40
61.0
 40
62.0
 40
62.0
 40
63.0
 40
63.0
 40
64.0
 40
64.0
 40
65.0
 40
65.0
 40
66.0
 40
66.0
 40
67.0
 40
67.0
 40
68.0
 40
68.0
 40
69.0
 40
69.0
 40
70.0
 40
70.0
 40
71.0
 40
71.0
 40
72.0
 40
72.0
 40
73.0
 40
73.0
 40
74.0
 40
74.0
 40
75.0
 40
75.0
 40
76.0
 40
76.0
 40
77.0
 40
77.0
 40
78.0
 40
78.0
 40
79.0
 40
79.0
 40
80.0
 40
80.0
 40
81.0
 40
81.0
 40
82.0
 40
82.0
 40
83.0
 40
83.0
 40
84.0
 40
84.0
 40
85.0
 40
85.0
 40
86.0
 40
86.0
 40
87.0
 40
87.0
 40
88.0
 40
88.0
 40
89.0
 40
89.0
 40
90.0
 40
90.0
 40
91.0
 40
91.0
 40
92.0
 40
92.0
 40
93.0
 40
93.0
 40
94.0
 40
94.0
 40
95.0
 40
95.0
 40
96.0
 40
96.0
 40
97.0
 40
97.0
 40
98.0
 40
98.0
 40
99.0
 40
99.0
 40
100.0
 40
100.0
 40
101.0
 40
101.0
 40
102.0
 40
102.0
 40
103.0
 40
103.0
 40
104.0
 40
104.0
 40
105.0
 40
105.0
 40
106.0
 40
106.0
 40
107.0
 40
107.0
 40
108.0
 40
108.0
 40
109.0
 40
109.0
 40
110.0
 40
110.0
 40
111.0
 40
111.0
 40
112.0
 40
112.0
 40
113.0
 40
113.0
 40
114.0
 40
114.0
 40
115.0
 40
115.0
 40
116.0
 40
116.0
 40
117.0
 40
117.0
 40
118.0
 40
118.0
 40
119.0
 40
119.0
 40
120.0
 40
120.0
 40
121.0
 40
121.0
 40
122.0
 40
122.0
 40
123.0
 40
123.0
 40
124.0
 40
124.0
 40
125.0
 40
125.0
 40
126.0
 40
126.0
 40
127.0
 40
127.0
 40
128.0
 40
128.0
 40
129.0
 40
129.0
 40
130.0
 40
130.0
 40
131.0
 40
131.0
 40
132.0
 40
132.0
 40
133.0
 40
133.0
 40
134.0
 40
134.0
 40
135.0
 40
135.0
 40
136.0
 40
136.0
 40
137.0
 40
137.0
 40
138.0
 40
138.0
 40
139.0
 40
139.0
 40
140.0
 40
140.0
 40
141.0
 40
141.0
 40
142.0
 40
142.0
 40
143.0
 40
143.0
 40
144.0
 40
144.0
 40
145.0
 40
145.0
 40
146.0
 40
146.0
 40
147.0
 40
147.0
 40
148.0
 40
148.0
 40
149.0
 40
149.0
 40
150.0
 40
150.0
 40
151.0
 40
151.0
 40
152.0
 40
152.0
 40
153.0
 40
153.0
 40
154.0
 40
154.0
 40
155.0
 40
155.0
 40
156.0
 40
156.0
 40
157.0
 40
157.0
 40
158.0
 40
158.0
 40
159.0
 40
159.0
 40
160.0
 40
160.0
 40
161.0
 40
161.0
 40
162.0
 40
162.0
 40
163.0
 40
163.0
 40
164.0
 40
164.0
 40
165.0
 40
165.0
 40
166.0
 40
166.0
 40
167.0
 40
167.0
 40
168.0
 40
168.0
 40
169.0
 40
169.0
 40
170.0
 40
170.0
 40
171.0
 40
171.0
 40
172.0
 40
172.0
 40
173.0
 40
173.0
 40
174.0
 40
174.0
 40
175.0
 40
175.0
 40
176.0
 40
176.0
 40
177.0
 40
177.0
 40
178.0
 40
178.0
 40
179.0
 40
179.0
 40
180.0
 40
180.0
 40
181.0
 40
181.0
 40
182.0
 40
182.0
 40
183.0
 40
183.0
 40
184.0
 40
184.0
 40
185.0
 40
185.0
 40
186.0
 40
186.0
 40
187.0
 40
187.0
 40
188.0
 40
188.0
 40
189.0
 40
189.0
 40
190.0
 40
190.0
 40
191.0
 40
191.0
 40
192.0
 40
192.0
 40
193.0
 40
193.0
 40
194.0
 40
194.0
 40
195.0
 40
195.0
 40
196.0
 40
196.0
 40
197.0
 40
197.0
 40
198.0
 40
198.0
 40
199.0
 40
199.0
 40
200.0
 40
200.0
 40
201.0
 40
201.0
 40
202.0
 40
202.0
 40
203.0
 40
203.0
 40
204.0
 40
204.0
 40
205.0
 40
205.0
 40
206.0
 40
206.0
 40
207.0
 40
207.0
 40
208.0
 40
208.0
 40
209.0
 40
209.0
 40
210.0
 40
210.0
 40
211.0
 40
211.0
 40
212.0
 40
212.0
 40
213.0
 40
213.0
 40
214.0
 40
214.0
 40
215.0
 40
215.0
 40
216.0
 40
216.0
 40
217.0
 40
217.0
 40
218.0
 40
218.0
 40
219.0
 40
219.0
 40
220.0
 40
220.0
 40
221.0
 40
221.0
 40
222.0
 40
222.0
 40
223.0
 40
223.0
 40
224.0
 40
224.0
 40
225.0
 40
225.0
 40
226.0
 40
226.0
 40
227.0
 40
227.0
 40
228.0
 40
228.0
 40
229.0
 40
229.0
 40
230.0
 40
230.0
 40
231.0
 40
231.0
 40
232.0
 40
232.0
 40
233.0
 40
233.0
 40
234.0
 40
234.0
 40
235.0
 40
235.0
 40
236.0
 40
236.0
 40
237.0
 40
237.0
 40
238.0
 40
238.0
 40
239.0
 40
239.0
 40
240.0
 40
240.0
 40
241.0
 40
241.0
 40
242.0
 40
242.0
 40
243.0
 40
243.0
 40
244.0
 40
244.0
 40
245.0
 40
245.0
 40
246.0
 40
246.0
 40
247.0
 40
247.0
 40
248.0
 40
248.0
 40
249.0
 40
249.0
 40
250.0
 40
250.0
 40
251.0
 40
251.0
 40
252.0
 40
252.0
 40
253.0
 40
253.0
 40
254.0
 40
254.0
 40
255.0
 40
255.0
 40
256.0
 40
256.0
 40
257.0
 40
257.0
 40
258.0
 40
258.0
 40
259.0
 40
259.0
 40
260.0
 40
260.0
 40
261.0
 40
261.0
 40
262.0
 40
262.0
 40
263.0
 40
263.0
 40
264.0
 40
264.0
 40
265.0
 40
265.0
 40
266.0
 40
266.0
 40
267.0
 40
267.0
 40
268.0
 40
268.0
 40
269.0
 40
269.0
 40
270.0
 40
270.0
 40
271.0
 40
271.0
 40
272.0
 40
272.0
 40
273.0
 40
273.0
 40
274.0
 40
274.0
 40
275.0
 40
275.0
 40
276.0
 40
276.0
 40
277.0
 40
277.0
 40
278.0
 40
278.0
 40
279.0
 40
279.0
 40
280.0
 40
280.0
 40
281.0
 40
281.0
 40
282.0
 40
282.0
 40
283.0
 40
283.0
 40
284.0
 40
284.0
 40
285.0
 40
285.0
 40
286.0
 40
286.0
 40
287.0
 40
287.0
 40
288.0
 40
288.0
 40
289.0
 40
289.0
 40
290.0
 40
290.0
 40
291.0
 40
291.0
 40
292.0
 40
292.0
 40
293.0
 40
293.0
 40
294.0
 40
294.0
 40
295.0
 40
295.0
 40
296.0
 40
296.0
 40
297.0
 40
297.0
 40
298.0
 40
298.0
 40
299.0
 40
299.0
 40
300.0
 40
300.0
 40
301.0
 40
301.0
 40
302.0
 40
302.0
 40
303.0
 40
303.0
 40
304.0
 40
304.0
 40
305.0
 40
305.0
 40
306.0
 40
306.0
 40
307.0
 40
307.0
 40
308.0
 40
308.0
 40
309.0
 40
309.0
 40
310.0
 40
310.0
 40
311.0
 40
311.0
 40
312.0
 40
312.0
 40
313.0
 40
313.0
 40
314.0
 40
314.0
 40
315.0
 40
315.0
 40
316.0
 40
316.0
 40
317.0
 40
317.0
 40
318.0
 40
318.0
 40
319.0
 40
319.0
 40
320.0
 40
320.0
 40
321.0
 40
321.0
 40
322.0
 40
322.0
 40
323.0
 40
323.0
 40
324.0
 40
324.0
 40
325.0
 40
325.0
 40
326.0
 40
326.0
 40
327.0
 40
327.0
 40
328.0
 40
328.0
 40
329.0
 40
329.0
 40
330.0
 40
330.0
 40
331.0
 40
331.0
 40
332.0
 40
332.0
 40
333.0
 40
333.0
 40
334.0
 40
334.0
 40
335.0
 40
335.0
 40
336.0
 40
336.0
 40
337.0
 40
337.0
 40
338.0
 40
338.0
 40
339.0
 40
339.0
 40
340.0
 40
340.0
 40
341.0
 40
341.0
 40
342.0
 40
342.0
 40
343.0
 40
343.0
 40
344.0
 40
344.0
 40
345.0
 40
345.0
 40
346.0
 40
346.0
 40
347.0
 40
347.0
 40
348.0
 40
348.0
 40
349.0
 40
349.0
 40
350.0
 40
350.0
 40
351.0
 40
351.0
 40
352.0
 40
352.0
 40
353.0
 40
353.0
 40
354.0
 40
354.0
 40
355.0
 40
355.0
 40
356.0
 40
356.0
 40
357.0
 40
357.0
 40
358.0
 40
358.0
 40
359.0
 40
359.0
 40
360.0
 40
360.0
 40
361.0
 40
361.0
 40
362.0
 40
362.0
 40
363.0
 40
363.0
 40
364.0
 40
364.0
 40
365.0
 40
365.0
 40
366.0
 40
366.0
 40
367.0
 40
367.0
 40
368.0
 40
368.0
 40
369.0
 40
369.0
 40
370.0
 40
370.0
 40
371.0
 40
371.0
 40
372.0
 40
372.0
 40
373.0
 40
373.0
 40
374.0
 40
374.0
 40
375.0
 40
375.0
 40
376.0
 40
376.0
 40
377.0
 40
377.0
 40
378.0
 40
378.0
 40
379.0
 40
379.0
 40
380.0
 40
380.0
 40
381.0
 40
381.0
 40
382.0
 40
382.0
 40
383.0
 40
383.0
 40
384.0
 40
384.0
 40
385.0
 40
385.0
 40
386.0
 40
386.0
 40
387.0
 40
387.0
 40
388.0
 40
388.0
 40
389.0
 40
389.0
 40
389.0
 10
-676.91468046509283
 20
-2388.0886021391334
 30
0.0
 41
1.0
 10
-676.09625635637235
 20
-2388.0886021391334
 30
0.0
 41
1.0
 10
-675.27783224765187
 20
-2388.0886021391334
 30
0.0
 41
1.0
 10
-675.69158598316858
 20
-2389.4312284033831
 30
0.0
 41
1.0
 10
-676.1053397186854
 20
-2390.7738546676328
 30
0.0
 41
1.0
 10
-676.08700022352696
 20
-2390.7451538947353
 30
0.0
 41
0.9999957264443762
 10
-676.06849322670382
 20
-2390.7165608445971
 30
0.0
 41
1.0
 10
-676.03806390255795
 20
-2390.669547966208
 30
0.0
 41
1.0
 10
-676.00763457841208
 20
-2390.622535087819
 30
0.0
 41
1.0
 10
-675.92826893330505
 20
-2390.4999162809145
 30
0.0
 41
0.9995394069081295
 10
-675.84161054175206
 20
-2390.3823382191713
 30
0.0
 41
1.0
 10
-675.80585367949368
 20
-2390.3338233265795
 30
0.0
 41
1.0
 10
-675.7700968172353
 20
-2390.2853084339877
 30
0.0
 41
1.0
 10
-675.63637014941867
 20
-2390.1038681588625
 30
0.0
 41
0.9994460617143272
 10
-675.49086966812843
 20
-2389.9317257612101
 30
0.0
 41
1.0
 10
-675.48648148715188
 20
-2389.9265340808261
 30
0.0
 41
1.0
 10
-675.48209330617544
 20
-2389.9213424004415
 30
0.0
 41
1.0
 10
-675.34536918683807
 20
-2389.7595833635578
 30
0.0
 41
0.9994359394934158
 10
-675.19809495648906
 20
-2389.6073671623958
 30
0.0
 41
1.0
 10
-675.19571160253417
 20
-2389.6049038320211
 30
0.0
 41
1.0
 10
-675.19332824857941
 20
-2389.6024405016465
 30
0.0
 41
1.0
 10
-675.05082072613595
 20
-2389.4551509612297
 30
0.0
 41
0.9995293688567734
 10
-674.89954904515548
 20
-2389.3168777490673
 30
0.0
 41
1.0
 10
-674.88025528589492
 20
-2389.2992418634185
 30
0.0
 41
1.0
 10
-674.86096152663424
 20
-2389.2816059777701
 30
0.0
 41
1.0
 10
-674.74827736417433
 20
-2389.1786045369045
 30
0.0
 41
0.9997087614803273
 10
-674.63075447521828
 20
-2389.0811602561057
 30
0.0
 41
1.0
 10
-674.61158840203507
 20
-2389.0652686775911
 30
0.0
 41
1.0
 10
-674.59242232885174
 20
-2389.049377099077
 30
0.0
 41
1.0
 10
-674.51323158625837
 20
-2388.9837159753038
 30
0.0
 41
0.9999595338699727
 10
-674.43287231540808
 20
-2388.9194902446525
 30
0.0
 41
1.0
 10
-674.35251304455574
 20
-2388.8552645139994
 30
0.0
 41
0.9999749417512016
 10
-674.27125251021334
 20
-2388.7921829600537
 30
0.0
 41
1.0
 10
-674.25026636404743
 20
-2388.7758916727494
 30
0.0
 41
1.0
 10
-674.22928021788152
 20
-2388.7596003854451
 30
0.0
 41
1.0
 10
-674.144712332572
 20
-2388.6939513755983
 30
0.0
 41
0.9999792037113479
 10
-674.05930473280705
 20
-2388.6293985939583
 30
0.0
 41
1.0
 10
-674.03847990692725
 20
-2388.6136587717247
 30
0.0
 41
1.0
 10
-674.01765508104745
 20
-2388.5979189494906
 30
0.0
 41
1.0
 10
-673.97389713302425
 20
-2388.5648458123046
 30
0.0
 41
0.999999337385449
 10
-673.93021544689441
 20
-2388.5316720168908
 30
0.0
 41
1.0
 10
-673.88653376075331
 20
-2388.4984982214683
 30
0.0
 41
0.999916095381603
 10
-673.84200734983528
 20
-2388.4664671562714
 30
0.0
 41
1.0
 10
-673.80918546241401
 20
-2388.442856000685
 30
0.0
 41
1.0
 10
-673.77636357499262
 20
-2388.4192448450985
 30
0.0
 41
1.0
 10
-673.66619338923374
 20
-2388.3399914687302
 30
0.0
 41
0.9980964527231768
 10
-673.54710439573239
 20
-2388.274903995874
 30
0.0
 41
1.0
 10
-673.5100717888065
 20
-2388.2546640162818
 30
0.0
 41
1.0
 10
-673.47303918188072
 20
-2388.2344240366901
 30
0.0
 41
1.0
 10
-673.29371216860602
 20
-2388.1364137859882
 30
0.0
 41
0.9984572810573017
 10
-673.10462360224528
 20
-2388.0588915246408
 30
0.0
 41
1.0
 10
-673.10097733285011
 20
-2388.0573966323032
 30
0.0
 41
1.0
 10
-673.09733106345482
 20
-2388.0559017399655
 30
0.0
 41
1.0
 10
-672.91553503588727
 20
-2387.9813692632947
 30
0.0
 41
0.9987838528033625
 10
-672.72728237732713
 20
-2387.9251036231285
 30
0.0
 41
1.0
 10
-672.72304442812924
 20
-2387.9238369694385
 30
0.0
 41
1.0
 10
-672.71880647893147
 20
-2387.9225703157485
 30
0.0
 41
1.0
 10
-672.53902971876823
 20
-2387.8688379829628
 30
0.0
 41
0.9990652816206991
 10
-672.35528378705203
 20
-2387.8308343034209
 30
0.0
 41
1.0
 10
-672.35009538602515
 20
-2387.8297612003153
 30
0.0
 41
1.0
 10
-672.34490698499826
 20
-2387.82868809721
 30
0.0
 41
1.0
 10
-672.1715378553406
 20
-2387.7928306238796
 30
0.0
 41
0.9992909934270421
 10
-671.99596208887783
 20
-2387.7701201914124
 30
0.0
 41
1.0
 10
-671.82038632242063
 20
-2387.7474097589457
 30
0.0
 41
0.9994553539447852
 10
-671.64369488932869
 20
-2387.7363304547398
 30
0.0
 41
1.0
 10
-671.60826048152808
 20
-2387.7341085666917
 30
0.0
 41
1.0
 10
-671.57282607372758
 20
-2387.7318866786436
 30
0.0
 41
1.0
 10
-671.40660030716197
 20
-2387.7214636162325
 30
0.0
 41
0.9990928098293866
 10
-671.24009051526309
 20
-2387.725223257467
 30
0.0
 41
1.0
 10
-671.20152867998888
 20
-2387.7260939489997
 30
0.0
 41
1.0
 10
-671.16296684471467
 20
-2387.726964640533
 30
0.0
 41
1.0
 10
-671.07358072335785
 20
-2387.7289828987014
 30
0.0
 41
0.9998382089205052
 10
-670.98432504057428
 20
-2387.7342150252293
 30
0.0
 41
1.0
 10
-670.98389513435609
 20
-2387.7342402261315
 30
0.0
 41
1.0
 10
-670.98346522813779
 20
-2387.7342654270337
 30
0.0
 41
1.0
 10
-670.89506935778991
 20
-2387.7394471517573
 30
0.0
 41
0.9997558016758648
 10
-670.80698878058729
 20
-2387.7485296671239
 30
0.0
 41
1.0
 10
-670.8065126421584
 20
-2387.7485787646065
 30
0.0
 41
1.0
 10
-670.8060365037295
 20
-2387.7486278620891
 30
0.0
 41
1.0
 10
-670.71890820338717
 20
-2387.7576121824904
 30
0.0
 41
0.9996565144180543
 10
-670.63237035004431
 20
-2387.7711494891796
 30
0.0
 41
1.0
 10
-670.63190442466862
 20
-2387.7712223749104
 30
0.0
 41
1.0
 10
-670.63143849929281
 20
-2387.7712952606416
 30
0.0
 41
1.0
 10
-670.54583249670418
 20
-2387.7846867958683
 30
0.0
 41
0.9995321806867349
 10
-670.46120541637436
 20
-2387.8032872842978
 30
0.0
 41
1.0
 10
-670.46081622180145
 20
-2387.8033728267637
 30
0.0
 41
1.0
 10
-670.46042702722866
 20
-2387.8034583692302
 30
0.0
 41
1.0
 10
-670.37657833604521
 20
-2387.8218877727272
 30
0.0
 41
0.999381919921858
 10
-670.29423180185017
 20
-2387.8461631559876
 30
0.0
 41
1.0
 10
-670.29399336835013
 20
-2387.8462334450978
 30
0.0
 41
1.0
 10
-670.2937549348502
 20
-2387.8463037342076
 30
0.0
 41
1.0
 10
-670.21188526765127
 20
-2387.8704385392493
 30
0.0
 41
0.9992088568506085
 10
-670.13219274866572
 20
-2387.9010037750427
 30
0.0
 41
1.0
 10
-670.05251175778653
 20
-2387.931563375776
 30
0.0
 41
0.9990226101772304
 10
-669.97584108787953
 20
-2387.9690408073907
 30
0.0
 41
1.0
 10
-669.89918194608026
 20
-2388.0065126039453
 30
0.0
 41
0.9988424273974872
 10
-669.82647831886743
 20
-2388.0511773791982
 30
0.0
 41
1.0
 10
-669.82621061048894
 20
-2388.0513418432702
 30
0.0
 41
1.0
 10
-669.82594290211046
 20
-2388.0515063073417
 30
0.0
 41
1.0
 10
-669.75270385813985
 20
-2388.096500010739
 30
0.0
 41
0.9986928844490416
 10
-669.68444099142857
 20
-2388.1487357450196
 30
0.0
 41
1.0
 10
-669.68385969920644
 20
-2388.1491805582473
 30
0.0
 41
1.0
 10
-669.6832784069843
 20
-2388.1496253714745
 30
0.0
 41
1.0
 10
-669.61385295582954
 20
-2388.2027507322091
 30
0.0
 41
0.9986007262278233
 10
-669.55042678606333
 20
-2388.2629115019022
 30
0.0
 41
1.0
 10
-669.54953237060556
 20
-2388.2637598697379
 30
0.0
 41
1.0
 10
-669.5486379551478
 20
-2388.2646082375736
 30
0.0
 41
1.0
 10
-669.48342295446571
 20
-2388.3264657429381
 30
0.0
 41
0.9985581491380668
 10
-669.42521534276307
 20
-2388.3949582332111
 30
0.0
 41
1.0
 10
-669.41595688916823
 20
-2388.4058525909118
 30
0.0
 41
1.0
 10
-669.40669843557339
 20
-2388.4167469486124
 30
0.0
 41
1.0
 10
-669.32997391668027
 20
-2388.5070281542871
 30
0.0
 41
0.9970460233520484
 10
-669.26798201552026
 20
-2388.6079952384694
 30
0.0
 41
1.0
 10
-669.25351265044083
 20
-2388.6315616975508
 30
0.0
 41
1.0
 10
-669.23904328536139
 20
-2388.6551281566317
 30
0.0
 41
1.0
 10
-669.19930658534895
 20
-2388.719847880664
 30
0.0
 41
0.9988468816637768
 10
-669.16596021459782
 20
-2388.7880803330904
 30
0.0
 41
1.0
 10
-669.15892419210422
 20
-2388.8024772542321
 30
0.0
 41
1.0
 10
-669.15188816961052
 20
-2388.8168741753743
 30
0.0
 41
1.0
 10
-669.13261384384327
 20
-2388.856312785525
 30
0.0
 41
0.9998431189998421
 10
-669.11474851635126
 20
-2388.8964093399591
 30
0.0
 41
1.0
 10
-669.09688318887822
 20
-2388.9365058943504
 30
0.0
 41
0.9999989990108666
 10
-669.07890446547322
 20
-2388.9765517318974
 30
0.0
 41
1.0
 10
-669.07273215385953
 20
-2388.9902999487531
 30
0.0
 41
1.0
 10
-669.06655984224585
 20
-2389.0040481656092
 30
0.0
 41
1.0
 10
-669.03623649563895
 20
-2389.0715904368094
 30
0.0
 41
0.9998790356321925
 10
-669.00802861550198
 20
-2389.1400431887446
 30
0.0
 41
1.0
 10
-669.00119343421557
 20
-2389.156630290177
 30
0.0
 41
1.0
 10
-668.99435825292926
 20
-2389.1732173916093
 30
0.0
 41
1.0
 10
-668.97080059054861
 20
-2389.230385346495
 30
0.0
 41
0.9998227574561203
 10
-668.94941184215918
 20
-2389.288399654773
 30
0.0
 41
1.0
 10
-668.92802309376907
 20
-2389.3464139630523
 30
0.0
 41
0.9996797971040595
 10
-668.90959680880849
 20
-2389.405436082176
 30
0.0
 41
1.0
 10
-668.90569300608399
 20
-2389.4179405403411
 30
0.0
 41
1.0
 10
-668.90178920335961
 20
-2389.4304449985066
 30
0.0
 41
1.0
 10
-668.87555531294925
 20
-2389.5144760339622
 30
0.0
 41
0.9979274938734012
 10
-668.86033078947025
 20
-2389.6011803926222
 30
0.0
 41
1.0
 10
-668.85810710220926
 20
-2389.6138443934424
 30
0.0
 41
1.0
 10
-668.85588341494827
 20
-2389.6265083942626
 30
0.0
 41
1.0
 10
-668.84495347524944
 20
-2389.6887549015541
 30
0.0
 41
0.9994985982136332
 10
-668.83798531007255
 20
-2389.7515684026976
 30
0.0
 41
1.0
 10
-668.83101714489544
 20
-2389.8143819038391
 30
0.0
 41
0.9996372611202196
 10
-668.8274412791277
 20
-2389.8774794825226
 30
0.0
 41
1.0
 10
-668.82727270163844
 20
-2389.8804540996043
 30
0.0
 41
1.0
 10
-668.82710412414917
 20
-2389.883428716686
 30
0.0
 41
1.0
 10
-668.82319110340256
 20
-2389.9524755295311
 30
0.0
 41
0.9997730630735402
 10
-668.82222278991492
 20
-2390.0216263535576
 30
0.0
 41
1.0
 10
-668.82216568349668
 20
-2390.0257045327035
 30
0.0
 41
1.0
 10
-668.82210857707855
 20
-2390.0297827118497
 30
0.0
 41
1.0
 10
-668.8210260507542
 20
-2390.1070898941725
 30
0.0
 41
0.9998772614071272
 10
-668.82236613748603
 20
-2390.1843930407344
 30
0.0
 41
1.0
 10
-668.8224554006847
 20
-2390.1895422045682
 30
0.0
 41
1.0
 10
-668.82254466388349
 20
-2390.1946913684019
 30
0.0
 41
1.0
 10
-668.82406327701244
 20
-2390.2822928426308
 30
0.0
 41
0.9999415567323268
 10
-668.82747558725862
 20
-2390.3698410043103
 30
0.0
 41
1.0
 10
-668.82771690793402
 20
-2390.376032464048
 30
0.0
 41
1.0
 10
-668.8279582286093
 20
-2390.3822239237861
 30
0.0
 41
1.0
 10
-668.83185318020617
 20
-2390.4821550049419
 30
0.0
 41
0.9999716810423747
 10
-668.83725176332496
 20
-2390.5820161431752
 30
0.0
 41
1.0
 10
-668.84046456211331
 20
-2390.6414453928237
 30
0.0
 41
1.0
 10
-668.84367736090155
 20
-2390.7008746424717
 30
0.0
 41
1.0
 10
-668.85175127005346
 20
-2390.8502230437471
 30
0.0
 41
0.9999819129914371
 10
-668.86162106167126
 20
-2390.9994635214712
 30
0.0
 41
1.0
 10
-668.87149085328781
 20
-2391.1487039991825
 30
0.0
 41
1.0
 10
-668.8739301738517
 20
-2391.1858970450321
 30
0.0
 41
1.0
 10
-668.85123193998845
 20
-2391.1471560476475
 30
0.0
 41
0.9999982128094475
 10
-668.82838738124565
 20
-2391.1085011537111
 30
0.0
 41
1.0
 10
-668.80147782137055
 20
-2391.0629679396725
 30
0.0
 41
1.0
 10
-668.77456826149557
 20
-2391.0174347256338
 30
0.0
 41
1.0
 10
-668.69790458296802
 20
-2390.8877134035611
 30
0.0
 41
0.9998609190055464
 10
-668.61695727010908
 20
-2390.7606210216368
 30
0.0
 41
1.0
 10
-668.58730894862742
 20
-2390.7140712886799
 30
0.0
 41
1.0
 10
-668.55766062714588
 20
-2390.6675215557229
 30
0.0
 41
1.0
 10
-668.47538840690345
 20
-2390.5383489857199
 30
0.0
 41
0.9999067609734442
 10
-668.38961939744331
 20
-2390.4114712962846
 30
0.0
 41
1.0
 10
-668.38721469424127
 20
-2390.4079140302283
 30
0.0
 41
1.0
 10
-668.38480999103933
 20
-2390.4043567641716
 30
0.0
 41
1.0
 10
-668.30385038797863
 20
-2390.284593606842
 30
0.0
 41
0.9998784952148461
 10
-668.21919677829794
 20
-2390.1674123901344
 30
0.0
 41
1.0
 10
-668.1345431686143
 20
-2390.0502311734222
 30
0.0
 41
0.9998532968283493
 10
-668.04592554779242
 20
-2389.936018264953
 30
0.0
 41
1.0
 10
-668.02596375880125
 20
-2389.910290943933
 30
0.0
 41
1.0
 10
-668.0060019698102
 20
-2389.884563622913
 30
0.0
 41
1.0
 10
-667.88751792005303
 20
-2389.7318580119463
 30
0.0
 41
0.9991551975794915
 10
-667.7568934704293
 20
-2389.589398449863
 30
0.0
 41
1.0
 10
-667.75338385444797
 20
-2389.5855708482368
 30
0.0
 41
1.0
 10
-667.74987423846676
 20
-2389.581743246611
 30
0.0
 41
1.0
 10
-667.62626902080297
 20
-2389.4469388877765
 30
0.0
 41
0.9997418144181113
 10
-667.49666688110528
 20
-2389.3178894771672
 30
0.0
 41
1.0
 10
-667.36706474140453
 20
-2389.1888400665548
 30
0.0
 41
0.9989238204633344
 10
-667.22606219315412
 20
-2389.0723551045162
 30
0.0
 41
1.0
 10
-667.18081451501484
 20
-2389.0349751129079
 30
0.0
 41
1.0
 10
-667.13556683687546
 20
-2388.9975951212991
 30
0.0
 41
1.0
 10
-666.99532677965465
 20
-2388.8817400680086
 30
0.0
 41
0.9990825084096381
 10
-666.84568684704914
 20
-2388.7783110701744
 30
0.0
 41
1.0
 10
-666.83564148299149
 20
-2388.7713678570944
 30
0.0
 41
1.0
 10
-666.82559611893384
 20
-2388.7644246440145
 30
0.0
 41
1.0
 10
-666.69604691444306
 20
-2388.6748820723401
 30
0.0
 41
0.9998164899824628
 10
-666.56316271106891
 20
-2388.590367830825
 30
0.0
 41
1.0
 10
-666.55131715054108
 20
-2388.5828340642984
 30
0.0
 41
1.0
 10
-666.53947159001325
 20
-2388.5753002977713
 30
0.0
 41
1.0
 10
-666.43027850768942
 20
-2388.5058535893068
 30
0.0
 41
0.9997473449130697
 10
-666.31807455044327
 20
-2388.4413846314928
 30
0.0
 41
1.0
 10
-666.20587059319575
 20
-2388.3769156736785
 30
0.0
 41
0.9999327861145861
 10
-666.09220198243293
 20
-2388.3150656819971
 30
0.0
 41
1.0
 10
-666.09164997987091
 20
-2388.3147653233173
 30
0.0
 41
1.0
 10
-666.09109797730889
 20
-2388.3144649646374
 30
0.0
 41
1.0
 10
-665.97632536142396
 20
-2388.2520142555977
 30
0.0
 41
0.9996956420483895
 10
-665.85861203558204
 20
-2388.1953007886223
 30
0.0
 41
1.0
 10
-665.82817163069683
 20
-2388.1806348118957
 30
0.0
 41
1.0
 10
-665.79773122581162
 20
-2388.1659688351692
 30
0.0
 41
1.0
 10
-665.69475411906103
 20
-2388.1163551767227
 30
0.0
 41
0.9998070570176647
 10
-665.58990773011362
 20
-2388.0708245898186
 30
0.0
 41
1.0
 10
-665.48506134116712
 20
-2388.0252940029154
 30
0.0
 41
0.9997827436147164
 10
-665.37840840455226
 20
-2387.9841728316014
 30
0.0
 41
1.0
 10
-665.35918555492617
 20
-2387.9767612579708
 30
0.0
 41
1.0
 10
-665.33996270529997
 20
-2387.9693496843406
 30
0.0
 41
1.0
 10
-665.19486406942735
 20
-2387.9134053657635
 30
0.0
 41
0.9988031841976227
 10
-665.04499370682288
 20
-2387.8719053015961
 30
0.0
 41
1.0
 10
-665.02007645845902
 20
-2387.8650055557891
 30
0.0
 41
1.0
 10
-664.99515921009527
 20
-2387.8581058099826
 30
0.0
 41
1.0
 10
-664.82788918444805
 20
-2387.811787667576
 30
0.0
 41
0.9984748040550615
 10
-664.65653227580003
 20
-2387.784193435311
 30
0.0
 41
1.0
 10
-664.65179313954968
 20
-2387.783430274797
 30
0.0
 41
1.0
 10
-664.64705400329922
 20
-2387.7826671142834
 30
0.0
 41
1.0
 10
-664.48517536714985
 20
-2387.7565992030459
 30
0.0
 41
0.9984436495479748
 10
-664.32140062342637
 20
-2387.7487212492274
 30
0.0
 41
1.0
 10
-664.29970341529645
 20
-2387.747677562028
 30
0.0
 41
1.0
 10
-664.27800620716653
 20
-2387.7466338748281
 30
0.0
 41
1.0
 10
-664.15762587970323
 20
-2387.7408432954089
 30
0.0
 41
0.9987954789335715
 10
-664.03725763479179
 20
-2387.7468798231512
 30
0.0
 41
1.0
 10
-664.01729284229168
 20
-2387.7478810674902
 30
0.0
 41
1.0
 10
-663.99732804979169
 20
-2387.7488823118288
 30
0.0
 41
1.0
 10
-663.91688938987636
 20
-2387.7529163508939
 30
0.0
 41
0.9997941595877157
 10
-663.83668061178753
 20
-2387.7602104168145
 30
0.0
 41
1.0
 10
-663.75647183370472
 20
-2387.7675044827342
 30
0.0
 41
0.9998589466236687
 10
-663.67655328686021
 20
-2387.7774883371831
 30
0.0
 41
1.0
 10
-663.64414708504091
 20
-2387.7815366941036
 30
0.0
 41
1.0
 10
-663.61174088322161
 20
-2387.7855850510241
 30
0.0
 41
1.0
 10
-663.4670099327451
 20
-2387.8036656193135
 30
0.0
 41
0.9993495063249762
 10
-663.32395868897413
 20
-2387.8321313290562
 30
0.0
 41
1.0
 10
-663.29102499183136
 20
-2387.8386847922693
 30
0.0
 41
1.0
 10
-663.25809129468871
 20
-2387.8452382554819
 30
0.0
 41
1.0
 10
-663.14879747147938
 20
-2387.8669865896181
 30
0.0
 41
0.9996788715561387
 10
-663.04074589951949
 20
-2387.8942443889819
 30
0.0
 41
1.0
 10
-663.03868289698107
 20
-2387.8947648155545
 30
0.0
 41
1.0
 10
-663.03661989444265
 20
-2387.8952852421276
 30
0.0
 41
1.0
 10
-662.93269432756301
 20
-2387.9215021883447
 30
0.0
 41
0.9995480654491783
 10
-662.83053209233367
 20
-2387.9539171449692
 30
0.0
 41
1.0
 10
-662.82884245020534
 20
-2387.954453249883
 30
0.0
 41
1.0
 10
-662.82715280807702
 20
-2387.9549893547965
 30
0.0
 41
1.0
 10
-662.72836985710569
 20
-2387.9863321015932
 30
0.0
 41
0.9993867959455857
 10
-662.63202269866167
 20
-2388.0245114708837
 30
0.0
 41
1.0
 10
-662.6307797495765
 20
-2388.0250040127803
 30
0.0
 41
1.0
 10
-662.62953680049134
 20
-2388.0254965546765
 30
0.0
 41
1.0
 10
-662.53567554021959
 20
-2388.0626908401737
 30
0.0
 41
0.9992050256522966
 10
-662.4450758651858
 20
-2388.1072447394122
 30
0.0
 41
1.0
 10
-662.44434118247261
 20
-2388.1076060318733
 30
0.0
 41
1.0
 10
-662.44360649975943
 20
-2388.1079673243344
 30
0.0
 41
1.0
 10
-662.35447619015315
 20
-2388.1517986386502
 30
0.0
 41
0.9990222350741572
 10
-662.2695661287587
 20
-2388.2033319063489
 30
0.0
 41
1.0
 10
-662.269382243476
 20
-2388.2034435092537
 30
0.0
 41
1.0
 10
-662.26919835819319
 20
-2388.2035551121585
 30
0.0
 41
1.0
 10
-662.18465606736515
 20
-2388.2548651740472
 30
0.0
 41
0.9988642743804717
 10
-662.10538153274615
 20
-2388.3139893615726
 30
0.0
 41
1.0
 10
-662.02610699812612
 20
-2388.3731135490989
 30
0.0
 41
0.9987681233311706
 10
-661.95308321384948
 20
-2388.4398042405001
 30
0.0
 41
1.0
 10
-661.95275428588434
 20
-2388.4401046417133
 30
0.0
 41
1.0
 10
-661.95242535791931
 20
-2388.4404050429271
 30
0.0
 41
1.0
 10
-661.87874371771125
 20
-2388.5076965367566
 30
0.0
 41
0.9987496570898455
 10
-661.81214991238278
 20
-2388.5820093508451
 30
0.0
 41
1.0
 10
-661.81137774262311
 20
-2388.5828710242022
 30
0.0
 41
1.0
 10
-661.81060557286355
 20
-2388.5837326975588
 30
0.0
 41
1.0
 10
-661.74246742801517
 20
-2388.659768858362
 30
0.0
 41
0.9988147669828394
 10
-661.68204517378945
 20
-2388.7420698652049
 30
0.0
 41
1.0
 10
-661.68092584771216
 20
-2388.7435944965569
 30
0.0
 41
1.0
 10
-661.67980652163499
 20
-2388.7451191279088
 30
0.0
 41
1.0
 10
-661.61714561525491
 20
-2388.8304693974555
 30
0.0
 41
0.9989452636215953
 10
-661.56257870229501
 20
-2388.9212080866109
 30
0.0
 41
1.0
 10
-661.56122997620844
 20
-2388.9234508676386
 30
0.0
 41
1.0
 10
-661.55988125012186
 20
-2388.9256936486663
 30
0.0
 41
1.0
 10
-661.50261688498938
 20
-2389.0209178998757
 30
0.0
 41
0.9991046436069945
 10
-661.4536076716671
 20
-2389.1206423329027
 30
0.0
 41
1.0
 10
-661.45214381007736
 20
-2389.1236210129746
 30
0.0
 41
1.0
 10
-661.4506799484875
 20
-2389.126599693047
 30
0.0
 41
1.0
 10
-661.39874301198529
 20
-2389.2322814862187
 30
0.0
 41
0.9992763831101429
 10
-661.35498988343068
 20
-2389.341605548173
 30
0.0
 41
1.0
 10
-661.35351061376741
 20
-2389.3453017357069
 30
0.0
 41
1.0
 10
-661.35203134410403
 20
-2389.3489979232404
 30
0.0
 41
1.0
 10
-661.30531967622255
 20
-2389.4657143602635
 30
0.0
 41
0.9994163472883676
 10
-661.26668664503268
 20
-2389.5853479487273
 30
0.0
 41
1.0
 10
-661.26544849278525
 20
-2389.5891820925126
 30
0.0
 41
1.0
 10
-661.26421034053772
 20
-2389.5930162362974
 30
0.0
 41
1.0
 10
-661.22432677952054
 20
-2389.7165222977765
 30
0.0
 41
0.9997268055891452
 10
-661.19025872360976
 20
-2389.8417573297224
 30
0.0
 41
1.0
 10
-661.18932854334116
 20
-2389.8451766958278
 30
0.0
 41
1.0
 10
-661.18839836307257
 20
-2389.8485960619332
 30
0.0
 41
1.0
 10
-661.15619066769796
 20
-2389.966992361673
 30
0.0
 41
0.9996701319000895
 10
-661.13010505092734
 20
-2390.0868863149362
 30
0.0
 41
1.0
 10
-661.10401943415741
 20
-2390.2067802681959
 30
0.0
 41
0.9995785451108994
 10
-661.08493585681765
 20
-2390.3279860292278
 30
0.0
 41
1.0
 10
-661.08071607464376
 20
-2390.3547871839946
 30
0.0
 41
1.0
 10
-661.07649629246976
 20
-2390.381588338761
 30
0.0
 41
1.0
 10
-661.04992131653114
 20
-2390.5503743124636
 30
0.0
 41
0.9979925101216614
 10
-661.04489573060471
 20
-2390.7211656405561
 30
0.0
 41
1.0
 10
-661.04407091817995
 20
-2390.7491963640414
 30
0.0
 41
1.0
 10
-661.0432461057552
 20
-2390.7772270875266
 30
0.0
 41
1.0
 10
-661.03987014467839
 20
-2390.8919569686514
 30
0.0
 41
0.9995314902263154
 10
-661.04352033681687
 20
-2391.0066784523997
 30
0.0
 41
1.0
 10
-661.04717052895569
 20
-2391.1213999361557
 30
0.0
 41
0.9996245486944527
 10
-661.0570996240865
 20
-2391.2357492072802
 30
0.0
 41
1.0
 10
-661.05726267208058
 20
-2391.2376269634133
 30
0.0
 41
1.0
 10
-661.05742572007466
 20
-2391.2395047195464
 30
0.0
 41
1.0
 10
-661.06768091119352
 20
-2391.357609502938
 30
0.0
 41
0.9997286095000594
 10
-661.08342623476597
 20
-2391.4751084118388
 30
0.0
 41
1.0
 10
-661.08381972741608
 20
-2391.4780448365391
 30
0.0
 41
1.0
 10
-661.0842132200662
 20
-2391.4809812612393
 30
0.0
 41
1.0
 10
-661.10074552893843
 20
-2391.604353019537
 30
0.0
 41
0.9998265533969754
 10
-661.12186098767074
 20
-2391.7270234943248
 30
0.0
 41
1.0
 10
-661.12253752980803
 20
-2391.7309538728332
 30
0.0
 41
1.0
 10
-661.12321407194531
 20
-2391.7348842513411
 30
0.0
 41
1.0
 10
-661.14568261495128
 20
-2391.8654154831406
 30
0.0
 41
0.9999022530854761
 10
-661.1717920795619
 20
-2391.9952674517813
 30
0.0
 41
1.0
 10
-661.17277072072739
 20
-2392.0001345941691
 30
0.0
 41
1.0
 10
-661.17374936189287
 20
-2392.0050017365575
 30
0.0
 41
1.0
 10
-661.20181610883526
 20
-2392.144587989977
 30
0.0
 41
0.9999524761932784
 10
-661.23259907766828
 20
-2392.2836004831352
 30
0.0
 41
1.0
 10
-661.23387518484378
 20
-2392.2893632424375
 30
0.0
 41
1.0
 10
-661.23515129201928
 20
-2392.2951260017398
 30
0.0
 41
1.0
 10
-661.26848647520364
 20
-2392.4456640135049
 30
0.0
 41
0.9999813588723437
 10
-661.30365747599922
 20
-2392.5957837261585
 30
0.0
 41
1.0
 10
-661.30521140145652
 20
-2392.6024163165839
 30
0.0
 41
1.0
 10
-661.30676532691382
 20
-2392.6090489070098
 30
0.0
 41
1.0
 10
-661.34504417862945
 20
-2392.7724338005382
 30
0.0
 41
0.9999955237630894
 10
-661.38430005660905
 20
-2392.9355867041413
 30
0.0
 41
1.0
 10
-661.39658169224049
 20
-2392.9866308946521
 30
0.0
 41
1.0
 10
-661.40886332787204
 20
-2393.0376750851633
 30
0.0
 41
1.0
 10
-661.47268247710667
 20
-2393.3029163697552
 30
0.0
 41
0.9999993604782046
 10
-661.53710142429657
 20
-2393.5680126205302
 30
0.0
 41
1.0
 10
-661.54182025983994
 20
-2393.5874315285555
 30
0.0
 41
1.0
 10
-661.54653909538331
 20
-2393.6068504365808
 30
0.0
 41
1.0
 10
-661.62039571364653
 20
-2393.9107845033495
 30
0.0
 41
0.9999659914733841
 10
-661.6992553095306
 20
-2394.2134590499049
 30
0.0
 41
1.0
 10
-661.70420799846045
 20
-2394.2324681870841
 30
0.0
 41
1.0
 10
-661.70916068739029
 20
-2394.2514773242638
 30
0.0
 41
1.0
 10
-661.79792566113247
 20
-2394.5921701451712
 30
0.0
 41
0.9999441976028395
 10
-661.89386869409873
 20
-2394.9309115704805
 30
0.0
 41
1.0
 10
-661.91056921252448
 20
-2394.9898752830086
 30
0.0
 41
1.0
 10
-661.92726973095023
 20
-2395.0488389955372
 30
0.0
 41
1.0
 10
-662.05661380076822
 20
-2395.5055078459018
 30
0.0
 41
0.9999625120734932
 10
-662.19384656809086
 20
-2395.9598683798959
 30
0.0
 41
1.0
 10
-662.22963651117311
 20
-2396.0783644065204
 30
0.0
 41
1.0
 10
-662.26542645425536
 20
-2396.1968604331455
 30
0.0
 41
1.0
 10
-662.33994665829232
 20
-2396.4435875112349
 30
0.0
 41
0.9999793386322331
 10
-662.41763268143291
 20
-2396.6893361504799
 30
0.0
 41
1.0
 10
-662.49531870457042
 20
-2396.9350847897158
 30
0.0
 41
1.0
 10
-662.50609826344112
 20
-2396.9691026940909
 30
0.0
 41
1.0
 10
-664.35647131671021
 20
-2402.8561746165583
 30
0.0
 41
1.0
 10
-666.20684436997942
 20
-2408.7432465390257
 30
0.0
 41
1.0
 10
-667.16810106000298
 20
-2408.7432465390257
 30
0.0
 41
1.0
 10
-668.12935775002654
 20
-2408.7432465390257
 30
0.0
 41
1.0
 10
-666.51041297134816
 20
-2403.595218037236
 30
0.0
 41
1.0
 10
-664.89146819266966
 20
-2398.4471895354463
 30
0.0
 41
1.0
 10
-664.84630236949249
 20
-2398.3031583131674
 30
0.0
 41
1.0
 10
-664.80113654631532
 20
-2398.1591270908884
 30
0.0
 41
1.0
 10
-664.63083212895401
 20
-2397.6160360617305
 30
0.0
 41
0.999991165789301
 10
-664.46509931727815
 20
-2397.0715325303809
 30
0.0
 41
1.0
 10
-664.4354033737759
 20
-2396.9739685903241
 30
0.0
 41
1.0
 10
-664.40570743027365
 20
-2396.8764046502679
 30
0.0
 41
1.0
 10
-664.29936650560694
 20
-2396.5270289990467
 30
0.0
 41
0.9999952428153917
 10
-664.19518291627287
 20
-2396.1770039746675
 30
0.0
 41
1.0
 10
-664.19012344594216
 20
-2396.1600057003984
 30
0.0
 41
1.0
 10
-664.18506397561157
 20
-2396.1430074261293
 30
0.0
 41
1.0
 10
-664.09099932695187
 20
-2395.8269789503315
 30
0.0
 41
0.9999931687498913
 10
-663.99927348907431
 20
-2395.5102637370474
 30
0.0
 41
1.0
 10
-663.99433822461503
 20
-2395.4932230277773
 30
0.0
 41
1.0
 10
-663.98940296015576
 20
-2395.4761823185072
 30
0.0
 41
1.0
 10
-663.90754765119709
 20
-2395.193548523765
 30
0.0
 41
0.999989384081902
 10
-663.82830042474382
 20
-2394.9101723945305
 30
0.0
 41
1.0
 10
-663.74905319828986
 20
-2394.6267962652937
 30
0.0
 41
0.9999833980063109
 10
-663.67307695754766
 20
-2394.3425256822647
 30
0.0
 41
1.0
 10
-663.66407302082303
 20
-2394.3088368037775
 30
0.0
 41
1.0
 10
-663.65506908409839
 20
-2394.2751479252902
 30
0.0
 41
1.0
 10
-663.58610453523397
 20
-2394.0171120930008
 30
0.0
 41
0.9999233658063478
 10
-663.52354956401348
 20
-2393.7574479342775
 30
0.0
 41
1.0
 10
-663.46099459279321
 20
-2393.497783775555
 30
0.0
 41
1.0
 10
-663.42151117393564
 20
-2393.3339771111287
 30
0.0
 41
1.0
 10
-663.41653256995824
 20
-2393.3133221492571
 30
0.0
 41
1.0
 10
-663.41155396598072
 20
-2393.2926671873861
 30
0.0
 41
1.0
 10
-663.38202775507739
 20
-2393.1701704466986
 30
0.0
 41
0.999986867084794
 10
-663.35375867108189
 20
-2393.0473775010569
 30
0.0
 41
1.0
 10
-663.3498611839243
 20
-2393.0304479136403
 30
0.0
 41
1.0
 10
-663.3459636967666
 20
-2393.0135183262237
 30
0.0
 41
1.0
 10
-663.32548958708253
 20
-2392.9245845553978
 30
0.0
 41
0.9999778173349304
 10
-663.30620198897032
 20
-2392.8353859381809
 30
0.0
 41
1.0
 10
-663.28691439085617
 20
-2392.7461873209572
 30
0.0
 41
0.9999602692867916
 10
-663.26922003222319
 20
-2392.6566590325197
 30
0.0
 41
1.0
 10
-663.26601620014594
 20
-2392.6404485776366
 30
0.0
 41
1.0
 10
-663.26281236806881
 20
-2392.624238122753
 30
0.0
 41
1.0
 10
-663.23871034528304
 20
-2392.5022889245565
 30
0.0
 41
0.9995617985320604
 10
-663.221866998064
 20
-2392.3791271768482
 30
0.0
 41
1.0
 10
-663.21940250815783
 20
-2392.3611063594826
 30
0.0
 41
1.0
 10
-663.21693801825154
 20
-2392.343085542117
 30
0.0
 41
1.0
 10
-663.19665475720319
 20
-2392.1947704924141
 30
0.0
 41
0.9991121410639784
 10
-663.18892940361502
 20
-2392.0452743936107
 30
0.0
 41
1.0
 10
-663.18801061359068
 20
-2392.0274945570372
 30
0.0
 41
1.0
 10
-663.18709182356622
 20
-2392.0097147204638
 30
0.0
 41
1.0
 10
-663.18120405002674
 20
-2391.895778294806
 30
0.0
 41
0.9989792494905078
 10
-663.1856231421441
 20
-2391.7817754589064
 30
0.0
 41
1.0
 10
-663.1862711140127
 20
-2391.7650592129812
 30
0.0
 41
1.0
 10
-663.18691908588119
 20
-2391.748342967056
 30
0.0
 41
1.0
 10
-663.19004223426157
 20
-2391.6677726230068
 30
0.0
 41
0.9997820295393635
 10
-663.19652623163711
 20
-2391.5874029012639
 30
0.0
 41
1.0
 10
-663.20301022901333
 20
-2391.5070331795118
 30
0.0
 41
0.9998335105973415
 10
-663.2124224245257
 20
-2391.4269535630601
 30
0.0
 41
1.0
 10
-663.21401734920141
 20
-2391.4133838325815
 30
0.0
 41
1.0
 10
-663.21561227387724
 20
-2391.3998141021034
 30
0.0
 41
1.0
 10
-663.22821431874092
 20
-2391.2925950246922
 30
0.0
 41
0.999687645787932
 10
-663.24615823153954
 20
-2391.1861395969736
 30
0.0
 41
1.0
 10
-663.24838989468481
 20
-2391.1728998617318
 30
0.0
 41
1.0
 10
-663.25062155783019
 20
-2391.1596601264901
 30
0.0
 41
1.0
 10
-663.2644173792512
 20
-2391.077813982532
 30
0.0
 41
0.9995547496495081
 10
-663.2830707011442
 20
-2390.9969364853382
 30
0.0
 41
1.0
 10
-663.2834446580157
 20
-2390.9953150746319
 30
0.0
 41
1.0
 10
-663.2838186148872
 20
-2390.9936936639256
 30
0.0
 41
1.0
 10
-663.30172402303685
 20
-2390.9160589881462
 30
0.0
 41
0.9994899427174873
 10
-663.32454893171621
 20
-2390.8397257053125
 30
0.0
 41
1.0
 10
-663.32500745845732
 20
-2390.8381922555227
 30
0.0
 41
1.0
 10
-663.32546598519843
 20
-2390.8366588057329
 30
0.0
 41
1.0
 10
-663.34737384039454
 20
-2390.7633924224806
 30
0.0
 41
0.9993784877589762
 10
-663.37438947550208
 20
-2390.6918517173194
 30
0.0
 41
1.0
 10
-663.37492116647911
 20
-2390.6904437345984
 30
0.0
 41
1.0
 10
-663.37545285745614
 20
-2390.6890357518778
 30
0.0
 41
1.0
 10
-663.40140511060963
 20
-2390.6203110121573
 30
0.0
 41
0.9992430832253402
 10
-663.43262164576799
 20
-2390.5538118600921
 30
0.0
 41
1.0
 10
-663.43320376182555
 20
-2390.552571804973
 30
0.0
 41
1.0
 10
-663.433785877883
 20
-2390.5513317498535
 30
0.0
 41
1.0
 10
-663.46383818092795
 20
-2390.4873127080232
 30
0.0
 41
0.9990789632799523
 10
-663.49926880770408
 20
-2390.426106096274
 30
0.0
 41
1.0
 10
-663.49986451388588
 20
-2390.4250770104154
 30
0.0
 41
1.0
 10
-663.50046022006768
 20
-2390.4240479245564
 30
0.0
 41
1.0
 10
-663.53469943448067
 20
-2390.3648994845244
 30
0.0
 41
0.998887480112005
 10
-663.5743587105128
 20
-2390.3092397721066
 30
0.0
 41
1.0
 10
-663.57491423657757
 20
-2390.3084601204309
 30
0.0
 41
1.0
 10
-663.57546976264246
 20
-2390.3076804687557
 30
0.0
 41
1.0
 10
-663.61401798654515
 20
-2390.2535800596888
 30
0.0
 41
0.9986762060693251
 10
-663.65792045782109
 20
-2390.2037263452498
 30
0.0
 41
1.0
 10
-663.65836441815281
 20
-2390.2032222034341
 30
0.0
 41
1.0
 10
-663.65880837848454
 20
-2390.2027180616178
 30
0.0
 41
1.0
 10
-663.70182292909783
 20
-2390.1538726308099
 30
0.0
 41
0.9984621642486462
 10
-663.74998048587508
 20
-2390.1100893303396
 30
0.0
 41
1.0
 10
-663.75022712039004
 20
-2390.1098650981776
 30
0.0
 41
1.0
 10
-663.7504737549051
 20
-2390.1096408660155
 30
0.0
 41
1.0
 10
-663.79813804265063
 20
-2390.0663060298707
 30
0.0
 41
0.998272469385457
 10
-663.85055667449433
 20
-2390.0288616793505
 30
0.0
 41
1.0
 10
-663.90297530633575
 20
-2389.9914173288325
 30
0.0
 41
0.9981399180156464
 10
-663.95956136972768
 20
-2389.9606308093898
 30
0.0
 41
1.0
 10
-663.95960703180685
 20
-2389.9606059662324
 30
0.0
 41
1.0
 10
-663.95965269388603
 20
-2389.9605811230749
 30
0.0
 41
1.0
 10
-664.01633008143426
 20
-2389.9297449173182
 30
0.0
 41
0.9980927086837846
 10
-664.07637543249814
 20
-2389.9061281084669
 30
0.0
 41
1.0
 10
-664.07681560221204
 20
-2389.9059549825906
 30
0.0
 41
1.0
 10
-664.07725577192605
 20
-2389.9057818567148
 30
0.0
 41
1.0
 10
-664.13818146241579
 20
-2389.8818187961124
 30
0.0
 41
0.9981411356562129
 10
-664.20156998381526
 20
-2389.8654461546066
 30
0.0
 41
1.0
 10
-664.20245210051667
 20
-2389.8652183124013
 30
0.0
 41
1.0
 10
-664.20333421721807
 20
-2389.8649904701956
 30
0.0
 41
1.0
 10
-664.26848697202058
 20
-2389.8481621442788
 30
0.0
 41
0.9983031812932622
 10
-664.33515440101564
 20
-2389.8390227831028
 30
0.0
 41
1.0
 10
-664.3440254264184
 20
-2389.8378066644318
 30
0.0
 41
1.0
 10
-664.35289645182115
 20
-2389.8365905457604
 30
0.0
 41
1.0
 10
-664.40724609432596
 20
-2389.8291398157689
 30
0.0
 41
0.998388770826234
 10
-664.46208994361984
 20
-2389.8278951421357
 30
0.0
 41
1.0
 10
-664.47015334883963
 20
-2389.8277121442607
 30
0.0
 41
1.0
 10
-664.47821675405942
 20
-2389.827529146386
 30
0.0
 41
1.0
 10
-664.5169337929151
 20
-2389.8266504685025
 30
0.0
 41
0.9998869563079494
 10
-664.55565974611534
 20
-2389.8269363378622
 30
0.0
 41
1.0
 10
-664.59438569935946
 20
-2389.8272222072223
 30
0.0
 41
0.9999972320093503
 10
-664.63310987861325
 20
-2389.8276903067517
 30
0.0
 41
1.0
 10
-664.65246289515107
 20
-2389.8279242468407
 30
0.0
 41
1.0
 10
-664.67181591168878
 20
-2389.8281581869296
 30
0.0
 41
1.0
 10
-664.7492461240563
 20
-2389.8290941666373
 30
0.0
 41
0.9997304945086883
 10
-664.8265494302907
 20
-2389.8336232604233
 30
0.0
 41
1.0
 10
-664.8355990719981
 20
-2389.8341534664132
 30
0.0
 41
1.0
 10
-664.84464871370562
 20
-2389.8346836724036
 30
0.0
 41
1.0
 10
-664.94005130335688
 20
-2389.8402731781703
 30
0.0
 41
0.9997888306414381
 10
-665.03514363920533
 20
-2389.8497781426599
 30
0.0
 41
1.0
 10
-665.04386470077259
 20
-2389.8506498572915
 30
0.0
 41
1.0
 10
-665.05258576233985
 20
-2389.8515215719231
 30
0.0
 41
1.0
 10
-665.16512022132554
 20
-2389.8627699656759
 30
0.0
 41
0.9984170238191754
 10
-665.27567936867456
 20
-2389.8865860476108
 30
0.0
 41
1.0
 10
-665.31206049966386
 20
-2389.8944230834177
 30
0.0
 41
1.0
 10
-665.34844163065304
 20
-2389.9022601192246
 30
0.0
 41
1.0
 10
-665.46363269907408
 20
-2389.9270739857338
 30
0.0
 41
0.9976592854198364
 10
-665.57436086547864
 20
-2389.9673726628812
 30
0.0
 41
1.0
 10
-665.68508903188695
 20
-2390.0076713400294
 30
0.0
 41
0.9993255074351997
 10
-665.79256083068151
 20
-2390.0559882385242
 30
0.0
 41
1.0
 10
-665.79718600960132
 20
-2390.0580676147219
 30
0.0
 41
1.0
 10
-665.80181118852101
 20
-2390.0601469909202
 30
0.0
 41
1.0
 10
-665.91853334515667
 20
-2390.1126226418114
 30
0.0
 41
0.9976475078275683
 10
-666.02698068946597
 20
-2390.1805706314685
 30
0.0
 41
1.0
 10
-666.04532308360388
 20
-2390.1920631102848
 30
0.0
 41
1.0
 10
-666.06366547774178
 20
-2390.2035555891016
 30
0.0
 41
1.0
 10
-666.14786766929251
 20
-2390.2563127098688
 30
0.0
 41
0.9995131336405612
 10
-666.22861538424797
 20
-2390.3142189218211
 30
0.0
 41
1.0
 10
-666.30936309920423
 20
-2390.3721251337734
 30
0.0
 41
0.9995810107606358
 10
-666.38662474693069
 20
-2390.4346068162372
 30
0.0
 41
1.0
 10
-666.38959477814251
 20
-2390.4370086877034
 30
0.0
 41
1.0
 10
-666.39256480935433
 20
-2390.4394105591691
 30
0.0
 41
1.0
 10
-666.47576651950794
 20
-2390.5066959845676
 30
0.0
 41
0.9996617837954029
 10
-666.55535720664545
 20
-2390.5782164401303
 30
0.0
 41
1.0
 10
-666.56748795751867
 20
-2390.5891171731173
 30
0.0
 41
1.0
 10
-666.57961870839188
 20
-2390.6000179061048
 30
0.0
 41
1.0
 10
-666.64789423579134
 20
-2390.6613705215796
 30
0.0
 41
0.9997267750052462
 10
-666.71322774407372
 20
-2390.7258470581041
 30
0.0
 41
1.0
 10
-666.77856125236224
 20
-2390.7903235946342
 30
0.0
 41
0.9999667288962304
 10
-666.84283419550695
 20
-2390.8558574015265
 30
0.0
 41
1.0
 10
-666.91166164328069
 20
-2390.9260350602835
 30
0.0
 41
1.0
 10
-666.98048909105432
 20
-2390.9962127190402
 30
0.0
 41
1.0
 10
-667.18241692975118
 20
-2391.2021018434507
 30
0.0
 41
0.9988205335174932
 10
-667.36342254673059
 20
-2391.4266060755112
 30
0.0
 41
1.0
 10
-667.3940625116353
 20
-2391.4646093259412
 30
0.0
 41
1.0
 10
-667.42470247654001
 20
-2391.5026125763711
 30
0.0
 41
1.0
 10
-667.66698802333156
 20
-2391.8031233092947
 30
0.0
 41
0.999707782675516
 10
-667.89446597443668
 20
-2392.1149931035111
 30
0.0
 41
1.0
 10
-667.89618938956596
 20
-2392.1173558868891
 30
0.0
 41
1.0
 10
-667.89791280469512
 20
-2392.119718670267
 30
0.0
 41
1.0
 10
-668.12883758606142
 20
-2392.436314031243
 30
0.0
 41
0.998914756707918
 10
-668.32930108894459
 20
-2392.773023492427
 30
0.0
 41
1.0
 10
-668.35404223425053
 20
-2392.8145800729781
 30
0.0
 41
1.0
 10
-668.37878337955658
 20
-2392.8561366535287
 30
0.0
 41
1.0
 10
-668.5339946781952
 20
-2393.1168380379841
 30
0.0
 41
0.9997476598182218
 10
-668.67733966570563
 20
-2393.3842477865678
 30
0.0
 41
1.0
 10
-668.82068465321481
 20
-2393.6516575351493
 30
0.0
 41
0.9996258967109969
 10
-668.94919290514792
 20
-2393.9265054717762
 30
0.0
 41
1.0
 10
-668.96239281459691
 20
-2393.9547368718704
 30
0.0
 41
1.0
 10
-668.9755927240459
 20
-2393.9829682719642
 30
0.0
 41
1.0
 10
-669.11580144504455
 20
-2394.2828406699145
 30
0.0
 41
0.9998735413946571
 10
-669.24640279176674
 20
-2394.5870202693864
 30
0.0
 41
1.0
 10
-669.24984561982819
 20
-2394.5950388548536
 30
0.0
 41
1.0
 10
-669.25328844788976
 20
-2394.6030574403203
 30
0.0
 41
1.0
 10
-669.37700413848597
 20
-2394.8911998688513
 30
0.0
 41
0.9999377418862931
 10
-669.49425894066189
 20
-2395.1820313365292
 30
0.0
 41
1.0
 10
-669.61151374283895
 20
-2395.4728628042103
 30
0.0
 41
0.9999508299505565
 10
-669.72297768621331
 20
-2395.765962481024
 30
0.0
 41
1.0
 10
-669.72605845487624
 20
-2395.7740635069895
 30
0.0
 41
1.0
 10
-669.72913922353928
 20
-2395.7821645329545
 30
0.0
 41
1.0
 10
-669.84676470424438
 20
-2396.0914662617106
 30
0.0
 41
0.9999609228438795
 10
-669.95890330711757
 20
-2396.4027992777246
 30
0.0
 41
1.0
 10
-669.96185931746618
 20
-2396.4110061181314
 30
0.0
 41
1.0
 10
-669.9648153278149
 20
-2396.4192129585381
 30
0.0
 41
1.0
 10
-670.08286595139111
 20
-2396.7469596553801
 30
0.0
 41
0.9999674607403345
 10
-670.19561347745832
 20
-2397.0765682753731
 30
0.0
 41
1.0
 10
-670.24701186801906
 20
-2397.22682747106
 30
0.0
 41
1.0
 10
-670.29841025857979
 20
-2397.3770866667469
 30
0.0
 41
1.0
 10
-670.41442086533709
 20
-2397.7162346492478
 30
0.0
 41
0.9999287532306754
 10
-670.52230226930988
 20
-2398.0580553882301
 30
0.0
 41
1.0
 10
-670.56877952545676
 20
-2398.2053179326258
 30
0.0
 41
1.0
 10
-670.61525678160365
 20
-2398.3525804770211
 30
0.0
 41
1.0
 10
-670.63018367329551
 20
-2398.3998761272524
 30
0.0
 41
0.999999822423568
 10
-670.64505418201111
 20
-2398.4471895354463
 30
0.0
 41
1.0
 10
-672.26571031880655
 20
-2403.595218037236
 30
0.0
 41
1.0
 10
-673.886366455602
 20
-2408.7432465390257
 30
0.0
 41
1.0
 10
-674.79167489949293
 20
-2408.7432465390257
 30
0.0
 41
1.0
 10
-675.69698334338386
 20
-2408.7432465390257
 30
0.0
 41
1.0
 10
-673.84489893199782
 20
-2402.8561746165583
 30
0.0
 41
1.0
 10
-671.99281452061177
 20
-2396.9691026940909
 30
0.0
 41
1.0
 10
-671.98269276230906
 20
-2396.9370594806405
 30
0.0
 41
1.0
 10
-671.91008509345932
 20
-2396.7067599388147
 30
0.0
 41
1.0
 10
-671.83747742461185
 20
-2396.4764603969961
 30
0.0
 41
0.999982568197435
 10
-671.76759438539716
 20
-2396.2453195019211
 30
0.0
 41
1.0
 10
-671.71930332323723
 20
-2396.0855949184279
 30
0.0
 41
1.0
 10
-671.67101226107718
 20
-2395.9258703349346
 30
0.0
 41
1.0
 10
-671.57385990775867
 20
-2395.6045351131547
 30
0.0
 41
0.999967252896486
 10
-671.48192110213722
 20
-2395.2816695675742
 30
0.0
 41
1.0
 10
-671.47913221846898
 20
-2395.2718757221901
 30
0.0
 41
1.0
 10
-671.47634333480084
 20
-2395.2620818768055
 30
0.0
 41
1.0
 10
-671.38998229651202
 20
-2394.9588040219805
 30
0.0
 41
0.9999899749163363
 10
-671.30634068697918
 20
-2394.6547649335353
 30
0.0
 41
1.0
 10
-671.29623476796053
 20
-2394.6180296958528
 30
0.0
 41
1.0
 10
-671.28612884894187
 20
-2394.5812944581703
 30
0.0
 41
1.0
 10
-671.22269907744396
 20
-2394.3507258450804
 30
0.0
 41
0.999921420050413
 10
-671.16506964906671
 20
-2394.1186395028735
 30
0.0
 41
1.0
 10
-671.15230379688569
 20
-2394.0672286174754
 30
0.0
 41
1.0
 10
-671.13953794470467
 20
-2394.0158177320773
 30
0.0
 41
1.0
 10
-671.10744022069139
 20
-2393.8865531606725
 30
0.0
 41
0.9999828681676304
 10
-671.07685796869362
 20
-2393.7569216861966
 30
0.0
 41
1.0
 10
-671.04627571669926
 20
-2393.6272902117335
 30
0.0
 41
0.9999389844481219
 10
-671.0185647279086
 20
-2393.4970147558274
 30
0.0
 41
1.0
 10
-671.01142698418857
 20
-2393.463458651991
 30
0.0
 41
1.0
 10
-671.00428924046855
 20
-2393.4299025481546
 30
0.0
 41
1.0
 10
-670.96230276424092
 20
-2393.2325148845885
 30
0.0
 41
0.9998933699439501
 10
-670.92609849983705
 20
-2393.0339852768229
 30
0.0
 41
1.0
 10
-670.9247256746205
 20
-2393.0264572561255
 30
0.0
 41
1.0
 10
-670.92335284940395
 20
-2393.018929235428
 30
0.0
 41
1.0
 10
-670.88440293456893
 20
-2392.8053435862753
 30
0.0
 41
0.9996850305193841
 10
-670.85621925831015
 20
-2392.5900725808383
 30
0.0
 41
1.0
 10
-670.85422422494071
 20
-2392.5748342267157
 30
0.0
 41
1.0
 10
-670.85222919157138
 20
-2392.559595872593
 30
0.0
 41
1.0
 10
-670.82482132911252
 20
-2392.3502506454406
 30
0.0
 41
0.9994697936706659
 10
-670.81109676989308
 20
-2392.1395654501102
 30
0.0
 41
1.0
 10
-670.81061970064343
 20
-2392.132241977899
 30
0.0
 41
1.0
 10
-670.81014263139377
 20
-2392.1249185056881
 30
0.0
 41
1.0
 10
-670.7973722106733
 20
-2391.9288802547771
 30
0.0
 41
0.999180489313689
 10
-670.80050052694628
 20
-2391.7324514048064
 30
0.0
 41
1.0
 10
-670.8005844057684
 20
-2391.7271846033946
 30
0.0
 41
1.0
 10
-670.80066828459053
 20
-2391.7219178019827
 30
0.0
 41
1.0
 10
-670.8036288432188
 20
-2391.5360225548338
 30
0.0
 41
0.9988448329321082
 10
-670.82442038884278
 20
-2391.3512699649996
 30
0.0
 41
1.0
 10
-670.82601446254603
 20
-2391.3371051092272
 30
0.0
 41
1.0
 10
-670.82760853624916
 20
-2391.3229402534548
 30
0.0
 41
1.0
 10
-670.84521193446665
 20
-2391.1665173751662
 30
0.0
 41
0.998550320945913
 10
-670.87952820676605
 20
-2391.0128931910767
 30
0.0
 41
1.0
 10
-670.88711419883703
 20
-2390.9789328636771
 30
0.0
 41
1.0
 10
-670.89470019090811
 20
-2390.9449725362779
 30
0.0
 41
1.0
 10
-670.91384447906569
 20
-2390.8592690069863
 30
0.0
 41
0.9991036781369092
 10
-670.94016934071692
 20
-2390.7754919196623
 30
0.0
 41
1.0
 10
-670.94415156617151
 20
-2390.7628187571563
 30
0.0
 41
1.0
 10
-670.94813379162622
 20
-2390.7501455946499
 30
0.0
 41
1.0
 10
-670.96649420236577
 20
-2390.691714832345
 30
0.0
 41
0.999887450436894
 10
-670.98659941004644
 20
-2390.6338612301142
 30
0.0
 41
1.0
 10
-671.00670461772472
 20
-2390.5760076278921
 30
0.0
 41
0.9994041637545614
 10
-671.03075323065832
 20
-2390.5196789240031
 30
0.0
 41
1.0
 10
-671.03495001488363
 20
-2390.5098488595186
 30
0.0
 41
1.0
 10
-671.03914679910883
 20
-2390.5000187950336
 30
0.0
 41
1.0
 10
-671.06702563010242
 20
-2390.4347186290679
 30
0.0
 41
0.9991846840700753
 10
-671.10008198679486
 20
-2390.3718805977896
 30
0.0
 41
1.0
 10
-671.10121859318929
 20
-2390.3697199813359
 30
0.0
 41
1.0
 10
-671.1023551995836
 20
-2390.3675593648827
 30
0.0
 41
1.0
 10
-671.13313834348742
 20
-2390.3090425665109
 30
0.0
 41
0.9989253167924711
 10
-671.16920776754296
 20
-2390.2536276381193
 30
0.0
 41
1.0
 10
-671.17026189221792
 20
-2390.2520081433559
 30
0.0
 41
1.0
 10
-671.17131601689289
 20
-2390.2503886485924
 30
0.0
 41
1.0
 10
-671.20527719159861
 20
-2390.1982127097276
 30
0.0
 41
0.9986467172835073
 10
-671.24447434423519
 20
-2390.1498466760995
 30
0.0
 41
1.0
 10
-671.2453484729358
 20
-2390.1487680738214
 30
0.0
 41
1.0
 10
-671.24622260163653
 20
-2390.1476894715433
 30
0.0
 41
1.0
 10
-671.28367149687222
 20
-2390.1014806424705
 30
0.0
 41
0.9984001104267838
 10
-671.32609822738982
 20
-2390.0597955351013
 30
0.0
 41
1.0
 10
-671.32668536550023
 20
-2390.0592186602189
 30
0.0
 41
1.0
 10
-671.32727250361063
 20
-2390.0586417853369
 30
0.0
 41
1.0
 10
-671.36852495790708
 20
-2390.0181104277326
 30
0.0
 41
0.9982442159082452
 10
-671.41428105924251
 20
-2389.9827418664722
 30
0.0
 41
1.0
 10
-671.414495854704
 20
-2389.9825758338293
 30
0.0
 41
1.0
 10
-671.41471065016549
 20
-2389.9824098011863
 30
0.0
 41
1.0
 10
-671.46003716057862
 20
-2389.9473733052118
 30
0.0
 41
0.9982450060835664
 10
-671.50918813964995
 20
-2389.9179415221784
 30
0.0
 41
1.0
 10
-671.55833911872116
 20
-2389.8885097391453
 30
0.0
 41
0.9983922639636916
 10
-671.61050542488476
 20
-2389.8648301044914
 30
0.0
 41
1.0
 10
-671.61073230221018
 20
-2389.8647271190093
 30
0.0
 41
1.0
 10
-671.61095917953548
 20
-2389.8646241335277
 30
0.0
 41
1.0
 10
-671.66357924035037
 20
-2389.8407385279102
 30
0.0
 41
0.9986517147147166
 10
-671.71839221321909
 20
-2389.8224374087886
 30
0.0
 41
1.0
 10
-671.71907013464602
 20
-2389.8222110623574
 30
0.0
 41
1.0
 10
-671.71974805607283
 20
-2389.8219847159262
 30
0.0
 41
1.0
 10
-671.77591687179722
 20
-2389.8032309039413
 30
0.0
 41
0.9989435598957257
 10
-671.83357025895066
 20
-2389.7897132017065
 30
0.0
 41
1.0
 10
-671.83465037853102
 20
-2389.7894599514539
 30
0.0
 41
1.0
 10
-671.83573049811139
 20
-2389.7892067012012
 30
0.0
 41
1.0
 10
-671.89554412442965
 20
-2389.7751824984598
 30
0.0
 41
0.9992249241240104
 10
-671.95627563333085
 20
-2389.7659071557441
 30
0.0
 41
1.0
 10
-671.9576893216182
 20
-2389.7656912473367
 30
0.0
 41
1.0
 10
-671.95910300990556
 20
-2389.7654753389297
 30
0.0
 41
1.0
 10
-672.02266189538295
 20
-2389.7557681793992
 30
0.0
 41
0.9994396597833335
 10
-672.08672783191753
 20
-2389.7503352570534
 30
0.0
 41
1.0
 10
-672.1058684993975
 20
-2389.7487120893347
 30
0.0
 41
1.0
 10
-672.12500916687759
 20
-2389.7470889216156
 30
0.0
 41
1.0
 10
-672.22735643837086
 20
-2389.7384096638325
 30
0.0
 41
0.9987693403119721
 10
-672.33006006195853
 20
-2389.7399127272856
 30
0.0
 41
1.0
 10
-672.34031439618593
 20
-2389.7400627990601
 30
0.0
 41
1.0
 10
-672.35056873041344
 20
-2389.7402128708341
 30
0.0
 41
1.0
 10
-672.46012449659133
 20
-2389.7418162151216
 30
0.0
 41
0.9989753644966487
 10
-672.56908649660704
 20
-2389.7533192220467
 30
0.0
 41
1.0
 10
-672.67804849662241
 20
-2389.7648222289718
 30
0.0
 41
0.998319006730679
 10
-672.78494730758575
 20
-2389.7888572207576
 30
0.0
 41
1.0
 10
-672.79384825919385
 20
-2389.7908584993206
 30
0.0
 41
1.0
 10
-672.80274921080195
 20
-2389.7928597778837
 30
0.0
 41
1.0
 10
-672.92744992498035
 20
-2389.8208973267956
 30
0.0
 41
0.9985539388302099
 10
-673.04841967865809
 20
-2389.8621610028413
 30
0.0
 41
1.0
 10
-673.05076510961851
 20
-2389.8629610466569
 30
0.0
 41
1.0
 10
-673.05311054057893
 20
-2389.863761090473
 30
0.0
 41
1.0
 10
-673.17877115617523
 20
-2389.9066248541494
 30
0.0
 41
0.9988468746494437
 10
-673.29974149847226
 20
-2389.9613429392102
 30
0.0
 41
1.0
 10
-673.30292432046372
 20
-2389.9627826137712
 30
0.0
 41
1.0
 10
-673.30610714245518
 20
-2389.9642222883326
 30
0.0
 41
1.0
 10
-673.4334431287341
 20
-2390.0218197225154
 30
0.0
 41
0.9991322885919763
 10
-673.55554371279254
 20
-2390.0898150546982
 30
0.0
 41
1.0
 10
-673.57314572383382
 20
-2390.0996172566865
 30
0.0
 41
1.0
 10
-673.59074773487509
 20
-2390.1094194586749
 30
0.0
 41
1.0
 10
-673.69292441593257
 20
-2390.1663195744559
 30
0.0
 41
0.9993860037849303
 10
-673.79086542000812
 20
-2390.2302355900456
 30
0.0
 41
1.0
 10
-673.79648373286307
 20
-2390.2339020847421
 30
0.0
 41
1.0
 10
-673.80210204571802
 20
-2390.2375685794391
 30
0.0
 41
1.0
 10
-673.8888064240823
 20
-2390.2941516056349
 30
0.0
 41
0.9998821494953836
 10
-673.97373279989438
 20
-2390.353369835711
 30
0.0
 41
1.0
 10
-674.05865917570736
 20
-2390.4125880657875
 30
0.0
 41
0.9997976482743483
 10
-674.14113480610865
 20
-2390.4751744738278
 30
0.0
 41
1.0
 10
-674.15577107091462
 20
-2390.4862811636085
 30
0.0
 41
1.0
 10
-674.1704073357206
 20
-2390.4973878533892
 30
0.0
 41
1.0
 10
-674.28215549573497
 20
-2390.5821876409914
 30
0.0
 41
0.9998091630799713
 10
-674.39050577376304
 20
-2390.6712879916931
 30
0.0
 41
1.0
 10
-674.40351152623975
 20
-2390.6819830921386
 30
0.0
 41
1.0
 10
-674.41651727871636
 20
-2390.692678192584
 30
0.0
 41
1.0
 10
-674.55087906169865
 20
-2390.8031687441771
 30
0.0
 41
0.9995035112316757
 10
-674.67801493946195
 20
-2390.9219025611924
 30
0.0
 41
1.0
 10
-674.68766224984893
 20
-2390.9309123073499
 30
0.0
 41
1.0
 10
-674.69730956023579
 20
-2390.9399220535074
 30
0.0
 41
1.0
 10
-674.82073262300185
 20
-2391.0551884252641
 30
0.0
 41
0.9994630424298887
 10
-674.93634102878582
 20
-2391.1782911684995
 30
0.0
 41
1.0
 10
-674.94002386755665
 20
-2391.1822127480118
 30
0.0
 41
1.0
 10
-674.94370670632759
 20
-2391.1861343275245
 30
0.0
 41
1.0
 10
-675.05194943456888
 20
-2391.3013939117336
 30
0.0
 41
0.9995160693749973
 10
-675.15281546410176
 20
-2391.423161329607
 30
0.0
 41
1.0
 10
-675.15474918418181
 20
-2391.4254957538142
 30
0.0
 41
1.0
 10
-675.15668290426197
 20
-2391.4278301780218
 30
0.0
 41
1.0
 10
-675.25368149363271
 20
-2391.5449287474776
 30
0.0
 41
0.999656147051359
 10
-675.34440771229959
 20
-2391.6669515099284
 30
0.0
 41
1.0
 10
-675.35056537820128
 20
-2391.6752332989699
 30
0.0
 41
1.0
 10
-675.35672304410298
 20
-2391.683515088012
 30
0.0
 41
1.0
 10
-675.43513393096737
 20
-2391.7889742723801
 30
0.0
 41
0.9998349055174355
 10
-675.50966121289775
 20
-2391.8972128560413
 30
0.0
 41
1.0
 10
-675.58418849483451
 20
-2392.0054514397116
 30
0.0
 41
0.9999728109556004
 10
-675.65711139074085
 20
-2392.114777365261
 30
0.0
 41
1.0
 10
-675.65842660615226
 20
-2392.1167491347633
 30
0.0
 41
1.0
 10
-675.65974182156356
 20
-2392.118720904265
 30
0.0
 41
1.0
 10
-675.7352951483266
 20
-2392.2319903688694
 30
0.0
 41
0.9999972147319628
 10
-675.81031295868479
 20
-2392.3456152116814
 30
0.0
 41
1.0
 10
-675.81528450130031
 20
-2392.3531453001433
 30
0.0
 41
1.0
 10
-675.82025604391595
 20
-2392.3606753886056
 30
0.0
 41
1.0
 10
-675.90521693953133
 20
-2392.4893604083804
 30
0.0
 41
0.9999371979005596
 10
-675.98727228894029
 20
-2392.6199173221657
 30
0.0
 41
1.0
 10
-675.99078117330168
 20
-2392.6255002502303
 30
0.0
 41
1.0
 10
-675.99429005766297
 20
-2392.6310831782944
 30
0.0
 41
1.0
 10
-676.08336317579347
 20
-2392.7728059482056
 30
0.0
 41
0.9998272025608604
 10
-676.16710656667215
 20
-2392.9177418249428
 30
0.0
 41
1.0
 10
-676.18232173869694
 20
-2392.9440749394007
 30
0.0
 41
1.0
 10
-676.19753691072174
 20
-2392.9704080538586
 30
0.0
 41
1.0
 10
-676.31171064565342
 20
-2393.1680101595171
 30
0.0
 41
0.9995217214838342
 10
-676.41345033520724
 20
-2393.3722924873764
 30
0.0
 41
1.0
 10
-676.42109389784287
 20
-2393.3876399370806
 30
0.0
 41
1.0
 10
-676.4287374604786
 20
-2393.4029873867848
 30
0.0
 41
1.0
 10
-676.51564275306612
 20
-2393.5774838448619
 30
0.0
 41
0.9998269762606917
 10
-676.59599721933932
 20
-2393.7550921315874
 30
0.0
 41
1.0
 10
-676.67635168561173
 20
-2393.932700418311
 30
0.0
 41
0.9998944747389736
 10
-676.75151248017687
 20
-2394.1125681439416
 30
0.0
 41
1.0
 10
-676.75646614976608
 20
-2394.1244227988545
 30
0.0
 41
1.0
 10
-676.76141981935541
 20
-2394.1362774537674
 30
0.0
 41
1.0
 10
-676.84206687990763
 20
-2394.3292743937841
 30
0.0
 41
0.9999506734408161
 10
-676.91886440881512
 20
-2394.52383519865
 30
0.0
 41
1.0
 10
-676.93346437408673
 20
-2394.5608231204578
 30
0.0
 41
1.0
 10
-676.94806433935821
 20
-2394.5978110422652
 30
0.0
 41
1.0
 10
-676.99566193772648
 20
-2394.7183960035259
 30
0.0
 41
0.9999912393923731
 10
-677.04224838174127
 20
-2394.839375206202
 30
0.0
 41
1.0
 10
-677.08883482575527
 20
-2394.9603544088759
 30
0.0
 41
0.9999927113932945
 10
-677.13449612014949
 20
-2395.0816858163776
 30
0.0
 41
1.0
 10
-677.14846455155134
 20
-2395.1188027983876
 30
0.0
 41
1.0
 10
-677.16243298295331
 20
-2395.1559197803977
 30
0.0
 41
1.0
 10
-677.2360311401435
 20
-2395.3514851518985
 30
0.0
 41
0.9999487550948532
 10
-677.30565476511492
 20
-2395.5485005170808
 30
0.0
 41
1.0
 10
-677.32924837505277
 20
-2395.6152638273761
 30
0.0
 41
1.0
 10
-677.35284198499062
 20
-2395.6820271376719
 30
0.0
 41
1.0
 10
-677.44752761935365
 20
-2395.9499609724753
 30
0.0
 41
0.9999808436939084
 10
-677.53888920800046
 20
-2396.2190464037549
 30
0.0
 41
1.0
 10
-677.6302507966368
 20
-2396.4881318350049
 30
0.0
 41
0.9999873932927272
 10
-677.7189055053567
 20
-2396.7581211900228
 30
0.0
 41
1.0
 10
-677.73899786222773
 20
-2396.8193105227806
 30
0.0
 41
1.0
 10
-677.75909021909865
 20
-2396.8804998555383
 30
0.0
 41
1.0
 10
-677.88792964155914
 20
-2397.2728678760682
 30
0.0
 41
0.9999794883028121
 10
-678.01173242651714
 20
-2397.6668540823466
 30
0.0
 41
1.0
 10
-678.02288468594929
 20
-2397.7023446925668
 30
0.0
 41
1.0
 10
-678.03403694538144
 20
-2397.7378353027866
 30
0.0
 41
1.0
 10
-678.17659510926853
 20
-2398.1915080548406
 30
0.0
 41
0.9999982761702608
 10
-678.31746754930123
 20
-2398.6457070770193
 30
0.0
 41
1.0
 10
-679.90560788187383
 20
-2403.6944768080225
 30
0.0
 41
1.0
 10
-681.49374821444644
 20
-2408.7432465390257
 30
0.0
 41
1.0
 10
-682.44249882592283
 20
-2408.7432465390257
 30
0.0
 41
1.0
 10
-683.39124943739921
 20
-2408.7432465390257
 30
0.0
 41
1.0
 10
-680.15296495124608
 20
-2398.4159243390795
 30
0.0
 41
1.0
 10
-676.91468046509283
 20
-2388.0886021391334
 30
0.0
 41
1.0
  0
LWPOLYLINE
  5
59
100
AcDbEntity
  8
0
370
              15
390
0
  6
Continuous
 62
               7
100
AcDbPolyline
 90
      232
 70
             128
 10
-702.61822623891987
 20
-2389.1729449706481
 42
0.0004370800687355
 10
-702.67110341305568
 20
-2389.2416116099876
 10
-702.71038764411935
 20
-2389.2927187228015
 42
0.0030481992175193
 10
-702.84072636123619
 20
-2389.4644404151431
 10
-702.87923803298895
 20
-2389.5158271989339
 42
0.0042058245755932
 10
-703.08322308366667
 20
-2389.7928329440183
 10
-703.13562820615948
 20
-2389.8652657907883
 42
0.0120948898743003
 10
-703.43167212292042
 20
-2390.2960153953363
 10
-703.5278646220429
 20
-2390.4434961305619
 42
0.0141601263947067
 10
-703.83150866896483
 20
-2390.9391654672972
 10
-703.87104593639015
 20
-2391.0080094347277
 42
0.0071131081303867
 10
-704.07631825962926
 20
-2391.3775122335674
 42
0.006845879100144
 10
-704.27119778647204
 20
-2391.7526037970429
 10
-704.27800964893004
 20
-2391.7661655107672
 42
0.0064120880291474
 10
-704.47615189897363
 20
-2392.1735899856844
 10
-704.48368658449135
 20
-2392.1896018424072
 42
0.005885723644563
 10
-704.68644197636002
 20
-2392.6339779534351
 10
-704.694616902657
 20
-2392.6524681070759
 42
0.0053189741897488
 10
-704.90332121532481
 20
-2393.1384315809946
 10
-704.91206902100589
 20
-2393.1594134591901
 42
0.0047503650417806
 10
-705.12804274715859
 20
-2393.6916128924049
 10
-705.13731099550478
 20
-2393.7150892685077
 42
0.0042071762171786
 10
-705.36185837923301
 20
-2394.2981828625789
 10
-705.37160778158113
 20
-2394.3241490374471
 42
0.0036680086485639
 10
-705.60606242489371
 20
-2394.9627844219799
 10
-705.616270204741
 20
-2394.9912329563231
 42
0.0032573142630576
 10
-705.86190249071024
 20
-2395.6900856160837
 10
-705.93055301154686
 20
-2395.8895487001255
 42
0.0026133366650147
 10
-706.27899821030633
 20
-2396.9194119838012
 10
-706.34225499781246
 20
-2397.1096428192104
 42
0.0020592950742429
 10
-706.55611806677416
 20
-2397.7617464718073
 10
-706.55916985793363
 20
-2397.7711829602058
 42
0.0025609928538154
 10
-706.76099035942309
 20
-2398.4063281825829
 10
-706.76358172654955
 20
-2398.4146305235226
 42
0.0031362356240119
 10
-706.95307251222675
 20
-2399.0353933797028
 10
-706.95520355515532
 20
-2399.0425346859179
 42
0.003722991802934
 10
-707.13200394208047
 20
-2399.6515199878882
 10
-707.13368253128453
 20
-2399.657466878054
 42
0.0043077623708523
 10
-707.29742333335196
 20
-2400.2572856098318
 42
0.0047654161824476
 10
-707.45025205586819
 20
-2400.8599716987351
 10
-707.48471666470709
 20
-2401.0015334758837
 42
0.0112969368446296
 10
-707.68058102285067
 20
-2401.8932256365079
 10
-707.70858741194729
 20
-2402.0360536826056
 42
0.0130056762571718
 10
-707.90942465559397
 20
-2403.2229947542505
 10
-707.92996440574098
 20
-2403.3670728677266
 42
0.0138721532140661
 10
-708.03366741027889
 20
-2404.2739023535532
 10
-708.05296289818682
 20
-2404.4974000754787
 42
0.0071254697007317
 10
-708.08630954410933
 20
-2404.9605870843257
 10
-708.09127051827272
 20
-2405.0465910788885
 42
0.0028881799210814
 10
-708.10640881156246
 20
-2405.3383327887282
 42
0.0060297297133259
 10
-708.11634101133791
 20
-2405.6302817248365
 10
-708.11740329300517
 20
-2405.6786740967777
 42
0.0229523164150556
 10
-708.10967226521939
 20
-2406.0014289430596
 10
-708.1054464916989
 20
-2406.0618324770776
 42
0.0123673300675905
 10
-708.08636784518069
 20
-2406.2629532022506
 42
0.0128577674470235
 10
-708.05717245477399
 20
-2406.4628510521793
 10
-708.05004658138739
 20
-2406.5041798667744
 42
0.0285717853759623
 10
-707.98555257969178
 20
-2406.7822960180874
 10
-707.97188405602515
 20
-2406.8289507875656
 42
0.0316283099152391
 10
-707.85607347611108
 20
-2407.1479652893913
 10
-707.85302478435642
 20
-2407.1549516617151
 42
0.0338984824238324
 10
-707.70359307338833
 20
-2407.442517625906
 10
-707.70128434401806
 20
-2407.4463086551827
 42
0.0350228718359865
 10
-707.5189240533449
 20
-2407.7033606398586
 10
-707.51803880157104
 20
-2407.704439717621
 42
0.0347476747528859
 10
-707.30361411432978
 20
-2407.9316247648426
 42
0.0331337701910389
 10
-707.06037078858401
 20
-2408.1277534269198
 10
-707.05927069006725
 20
-2408.1285261300927
 42
0.0305233319091481
 10
-706.79072599448864
 20
-2408.2936543001865
 10
-706.78749594999272
 20
-2408.2953783120465
 42
0.02737444811437
 10
-706.49494223842044
 20
-2408.4315164559362
 10
-706.48983770328084
 20
-2408.4335600404065
 42
0.02409644062054
 10
-706.1743606276342
 20
-2408.5425437666881
 10
-706.16777729842511
 20
-2408.544468506363
 42
0.0209636179808681
 10
-705.83037714577324
 20
-2408.6279366542949
 10
-705.82274468532387
 20
-2408.6294885672964
 42
0.0181388704697275
 10
-705.46442229331876
 20
-2408.6889046605111
 10
-705.45614144494721
 20
-2408.6899708443275
 42
0.0156086547587514
 10
-705.07795408075015
 20
-2408.7267070309049
 10
-705.03475882842974
 20
-2408.7295455333833
 42
0.0137148329033916
 10
-704.7070856831325
 20
-2408.7420657886346
 10
-704.66114949321366
 20
-2408.7425602217495
 42
0.0051057823872109
 10
-704.42500390661428
 20
-2408.7426904761587
 42
0.0052256693315098
 10
-704.18890662283764
 20
-2408.7379416516947
 10
-704.11867983908621
 20
-2408.7357946856805
 42
0.0161507179044526
 10
-703.74294276098419
 20
-2408.7121443153542
 10
-703.72292980061184
 20
-2408.7102341200666
 42
0.0101216737839783
 10
-703.30890257911381
 20
-2408.6622411897001
 10
-703.27484928969443
 20
-2408.6575934928915
 42
0.0245291776397108
 10
-702.79805963413753
 20
-2408.5685184148138
 10
-702.71323631862333
 20
-2408.5483224944705
 42
0.0143509212555843
 10
-702.35660521467969
 20
-2408.4525178606905
 42
0.0156557857039803
 10
-702.0063891499492
 20
-2408.3355066448703
 10
-701.99888793545779
 20
-2408.3327364831175
 42
0.0170137333628668
 10
-701.64229193978349
 20
-2408.1870788682495
 10
-701.63518801736893
 20
-2408.1838910326828
 42
0.0183105364408614
 10
-701.27583834919983
 20
-2408.0065559908571
 10
-701.2688915845639
 20
-2408.0028055559865
 42
0.0194899958153051
 10
-700.91041084358073
 20
-2407.7908265740962
 10
-700.90339696424326
 20
-2407.7863012318007
 42
0.020486985295169
 10
-700.54938266215038
 20
-2407.5367812167156
 10
-700.54211705356227
 20
-2407.5312011513665
 42
0.0212516938556152
 10
-700.19612712245555
 20
-2407.2412971544732
 10
-700.14961042837535
 20
-2407.1988298443753
 42
0.0215248918247764
 10
-699.8895842594909
 20
-2406.9400655653835
 10
-699.8445545251102
 20
-2406.8912214440338
 42
0.011457855495377
 10
-699.68976237143306
 20
-2406.7153985105756
 10
-699.67856783545869
 20
-2406.702079747045
 42
0.0061531305124749
 10
-699.55209318945197
 20
-2406.5477902137245
 42
0.0006325587123371
 10
-699.4277147052419
 20
-2406.3917868379754
 10
-699.40467457024874
 20
-2406.3628133173893
 42
0.0041897761554488
 10
-699.23621916625382
 20
-2406.1472939412988
 10
-699.17775704638382
 20
-2406.0711925943424
 42
0.009299388003826
 10
-698.90114511916079
 20
-2405.6969138304594
 10
-698.81875062596328
 20
-2405.5809768268928
 42
0.0159321727089208
 10
-698.47214414331881
 20
-2405.0588026061337
 10
-698.42778800793008
 20
-2404.9871230418839
 42
0.008554731702092
 10
-698.19327624260404
 20
-2404.593248092659
 42
0.0084601156894735
 10
-697.97230006516122
 20
-2404.1916212436258
 10
-697.96418459133156
 20
-2404.1762615613538
 42
0.0081429654288061
 10
-697.74093532089387
 20
-2403.736540048812
 10
-697.73207515671004
 20
-2403.7183612067934
 42
0.0076574581325496
 10
-697.50566764614234
 20
-2403.2351783315385
 10
-697.49618800541964
 20
-2403.2141138532374
 42
0.007068272420008
 10
-697.26574309761065
 20
-2402.6820765484513
 10
-697.25575281363115
 20
-2402.6580873594448
 42
0.006455951444663
 10
-697.02041960545023
 20
-2402.0717750929275
 10
-697.01001024728453
 20
-2402.0448401674835
 42
0.0058311413907612
 10
-696.76896351052187
 20
-2401.3988080731001
 10
-696.7582084331342
 20
-2401.368923731939
 42
0.0052312425819893
 10
-696.51062715508965
 20
-2400.6577213180935
 10
-696.49958331871358
 20
-2400.624894606035
 42
0.0046680544797392
 10
-696.24465489098077
 20
-2399.8430682902854
 10
-696.20266274093524
 20
-2399.7100850529873
 42
0.0041666856441959
 10
-695.99937672854048
 20
-2399.0471162779822
 10
-695.96171428788534
 20
-2398.9205351703581
 42
0.0015170975149636
 10
-695.84052770946369
 20
-2398.5086668188351
 42
-0.0004887993109646
 10
-695.72018793634447
 20
-2398.0965484068065
 10
-695.64371067884554
 20
-2397.835591020852
 42
0.0002583378930268
 10
-695.3704961087567
 20
-2396.9015343175888
 10
-695.28872325920668
 20
-2396.6214350580967
 42
0.0006636169674766
 10
-695.09485549919327
 20
-2395.9540821345031
 10
-695.08975884485335
 20
-2395.9364505516478
 42
0.0010589131319396
 10
-694.90831014392961
 20
-2395.3037192085744
 10
-694.90332807343964
 20
-2395.2862063015214
 42
0.0015655524459311
 10
-694.73505786626629
 20
-2394.6875896223532
 10
-694.73022766585689
 20
-2394.6701974634375
 42
0.0021640440475811
 10
-694.5759376938654
 20
-2394.1051704453989
 10
-694.57130347443581
 20
-2394.0879057154061
 42
0.002876387185398
 10
-694.43178775638239
 20
-2393.5559377645582
 10
-694.42740189221479
 20
-2393.5388137864024
 42
0.0037310511944301
 10
-694.30344520037829
 20
-2393.0393661923799
 10
-694.29936998008714
 20
-2393.0224059211255
 42
0.0047652197775483
 10
-694.19174607958087
 20
-2392.5549281528292
 10
-694.18805548025921
 20
-2392.5381685976868
 42
0.0060276699296427
 10
-694.09752538110388
 20
-2392.102092802535
 10
-694.09430669081428
 20
-2392.0855915882235
 42
0.0075824337751361
 10
-694.02161738139921
 20
-2391.6803244237999
 10
-694.01897200401913
 20
-2391.6641694763507
 42
0.0095130624611814
 10
-693.96485676838779
 20
-2391.2890801232775
 10
-693.95787054450534
 20
-2391.2331465651619
 42
0.0121054653220519
 10
-693.93127921392727
 20
-2390.968250736687
 10
-693.93041272416804
 20
-2390.9568472937617
 42
0.0069050827380268
 10
-693.91532390612997
 20
-2390.7139060669138
 10
-693.91418860646115
 20
-2390.690379809862
 42
0.0169063976703532
 10
-693.91136132748125
 20
-2390.4941870825683
 10
-693.91253197901244
 20
-2390.433851321221
 42
0.0052007732876594
 10
-693.91478542760547
 20
-2390.3582579310669
 42
0.0054038123291318
 10
-693.93474893944335
 20
-2390.2382396350627
 10
-693.93983479531471
 20
-2390.209581148476
 42
0.0112050460456146
 10
-693.97521915737298
 20
-2390.033254710138
 10
-693.99304411941398
 20
-2389.953713123416
 42
0.024076446800741
 10
-694.08394148555999
 20
-2389.6234760879156
 10
-694.1025002483741
 20
-2389.5668559229193
 42
0.0256812331835866
 10
-694.24586316856312
 20
-2389.1951317166636
 10
-694.25127259438455
 20
-2389.183000381674
 42
0.0268360501215321
 10
-694.42069983523436
 20
-2388.8520072476531
 10
-694.42623624287148
 20
-2388.8424875773371
 42
0.0274670231729266
 10
-694.61843721928267
 20
-2388.5502002024236
 10
-694.62381851924476
 20
-2388.5429210548832
 42
0.0275035967096847
 10
-694.83539139880713
 20
-2388.2874051645781
 10
-694.84046089977653
 20
-2388.2819260769447
 42
0.0269557673537247
 10
-695.06786444321324
 20
-2388.0612837909853
 10
-695.0726075009967
 20
-2388.0571538365239
 42
0.025912480220699
 10
-695.31216233242662
 20
-2387.8694633093723
 10
-695.31669317760895
 20
-2387.8662778070416
 42
0.0245162152997822
 10
-695.56460953070336
 20
-2387.7095447979314
 10
-695.56913607702722
 20
-2387.7069846007307
 42
0.0229282588850157
 10
-695.82155563385493
 20
-2387.5791164082316
 10
-695.82633612769155
 20
-2387.5769641084698
 42
0.0212984135689684
 10
-696.07937408015346
 20
-2387.4757651912273
 10
-696.08467836511727
 20
-2387.4739016284693
 42
0.0197555462353026
 10
-696.33445670284596
 20
-2387.3970862105025
 42
0.0183511896781891
 10
-696.58938542831379
 20
-2387.3395033035363
 10
-696.67575062503465
 20
-2387.3233005131519
 42
0.0338057877152074
 10
-696.96125797429238
 20
-2387.2894921080119
 10
-697.05226337933584
 20
-2387.2849124527502
 42
0.0091990524479852
 10
-697.15811048796832
 20
-2387.2815365968281
 42
0.0028333980795899
 10
-697.26402440392326
 20
-2387.2807084893116
 10
-697.26493985701063
 20
-2387.2807065194875
 42
-0.0023619827823636
 10
-697.37268587206961
 20
-2387.27996567841
 10
-697.4090910422924
 20
-2387.2795433719461
 42
0.0008824598495913
 10
-697.58964703224808
 20
-2387.2777675937073
 10
-697.63350846454819
 20
-2387.2774136321823
 42
0.0038132665768274
 10
-697.90179136043355
 20
-2387.2772946961159
 10
-697.91832501522049
 20
-2387.2774134622591
 42
0.0060665569340624
 10
-698.21960550680262
 20
-2387.2832337616796
 10
-698.23385583883714
 20
-2387.2836820696475
 42
0.0080356953335668
 10
-698.56331455519182
 20
-2387.2993497917155
 10
-698.57538457026362
 20
-2387.3001183746551
 42
0.0098996399101275
 10
-698.92814765491266
 20
-2387.3296036038528
 10
-698.93819336428919
 20
-2387.3306439000512
 42
0.0117740981368907
 10
-699.30935022262474
 20
-2387.377936147579
 10
-699.31757291912049
 20
-2387.3791812641516
 42
0.0137435215141492
 10
-699.70216173860763
 20
-2387.448278237714
 10
-699.70881877772899
 20
-2387.449664133947
 42
0.0158359869386054
 10
-700.10181587153613
 20
-2387.544556222429
 10
-700.10722905839862
 20
-2387.5460461632983
 42
0.0180554124028134
 10
-700.50354410301304
 20
-2387.6706841795376
 10
-700.50810089109439
 20
-2387.6723002158033
 42
0.020365743128431
 10
-700.90257840890627
 20
-2387.8305605573191
 10
-700.90672194791307
 20
-2387.8324221787607
 42
0.0226819684661871
 10
-701.29415800411823
 20
-2388.0280647574327
 10
-701.29835779513485
 20
-2388.0304303493517
 42
0.0248634984601694
 10
-701.6735397363135
 20
-2388.2670569952975
 10
-701.72173466510162
 20
-2388.3009140371259
 42
0.0267044190890444
 10
-701.99602736201655
 20
-2388.5163544129928
 42
0.0139303002200621
 10
-702.2521945279567
 20
-2388.7535932539063
 10
-702.25704791367627
 20
-2388.7583459167649
 42
0.0283460963437845
 10
-702.50112050790437
 20
-2389.0260765772109
 10
-702.54078901306002
 20
-2389.0748781546827
 42
0.0070695364826069
 10
-702.61822623891987
 20
-2389.1729449706481
 42
0.0070695364826069
  0
LWPOLYLINE
  5
5A
100
AcDbEntity
  8
0
370
              15
390
0
  6
Continuous
 62
               7
100
AcDbPolyline
 90
      226
 70
             128
 10
-706.14704667616627
 20
-2404.8945337768328
 42
-0.0026277636627364
 10
-706.14712455996641
 20
-2404.8277618511188
 10
-706.14690720173428
 20
-2404.7746066336463
 42
-0.0088680296718772
 10
-706.14313058544121
 20
-2404.6015908512427
 10
-706.14078422632883
 20
-2404.5423108257896
 42
-0.0077381705618877
 10
-706.12473811556526
 20
-2404.2510503299859
 10
-706.12387020439257
 20
-2404.2387620963063
 42
-0.006887253053649
 10
-706.09723812464517
 20
-2403.9235403442453
 10
-706.09603390045834
 20
-2403.9112993652184
 42
-0.0062130021483589
 10
-706.05844018363052
 20
-2403.5724296739795
 10
-706.05693628009544
 20
-2403.5602558020632
 42
-0.0056726929674525
 10
-706.00801442059435
 20
-2403.1980605799586
 10
-706.0062409749487
 20
-2403.1859667797048
 42
-0.0052341884490353
 10
-705.94563038868978
 20
-2402.8007735241931
 10
-705.94361239991213
 20
-2402.7887685941946
 42
-0.0049768450170766
 10
-705.87087371848668
 20
-2402.3809240267669
 10
-705.84662470376395
 20
-2402.2523760437557
 42
-0.0089029805621945
 10
-705.70954385197047
 20
-2401.5906005963388
 10
-705.67679847665067
 20
-2401.44556916581
 42
-0.0080318257096792
 10
-705.4472498623104
 20
-2400.499859533958
 10
-705.43526493586171
 20
-2400.4537288987663
 42
-0.0074265721320076
 10
-705.15125339701092
 20
-2399.4236643203831
 10
-705.13137385389552
 20
-2399.3555302597979
 42
-0.0069711922701717
 10
-704.80406927538843
 20
-2398.2892625194681
 10
-704.74411732828298
 20
-2398.1032411610977
 42
-0.0052070422893864
 10
-704.51469210302366
 20
-2397.4159690840661
 10
-704.49741091084229
 20
-2397.3659418034226
 42
-0.0009167004450437
 10
-704.29431902356191
 20
-2396.781485955295
 42
-0.0025162726942138
 10
-704.08722139329927
 20
-2396.1984446911324
 10
-704.04999678149534
 20
-2396.0952951452309
 42
-0.0028212681456303
 10
-703.8018208625308
 20
-2395.4195645130562
 10
-703.79199009977617
 20
-2395.3932570683692
 42
-0.0031964916822869
 10
-703.55569784211787
 20
-2394.7730523062523
 10
-703.54606338811936
 20
-2394.74824231611
 42
-0.0036281836454929
 10
-703.32095742701767
 20
-2394.1808016352161
 10
-703.31151901685928
 20
-2394.1575042037107
 42
-0.0041269166831185
 10
-703.09690132020103
 20
-2393.6400633077351
 10
-703.06426836378148
 20
-2393.5631848613771
 42
-0.0047472213055424
 10
-702.90722355822663
 20
-2393.2027633934904
 10
-702.90032947702196
 20
-2393.1873427961664
 42
-0.0025651660001347
 10
-702.75197144316826
 20
-2392.86001474041
 42
-0.0057144635000744
 10
-702.59822174939723
 20
-2392.5352050670481
 10
-702.57019104399751
 20
-2392.4776966846566
 42
-0.0065388068368002
 10
-702.38672401625593
 20
-2392.113464187988
 10
-702.37826556047753
 20
-2392.097204608619
 42
-0.007451084302434
 10
-702.20208331459958
 20
-2391.7705163274959
 10
-702.19390364407013
 20
-2391.75587555023
 42
-0.0084648979855583
 10
-702.02426979096845
 20
-2391.463966539266
 10
-702.01641366447996
 20
-2391.4509595476147
 42
-0.0095638542807699
 10
-701.85257821688617
 20
-2391.1910706756366
 10
-701.84510327321675
 20
-2391.1797013141845
 42
-0.0107191626798204
 10
-701.68630169282687
 20
-2390.9490900796372
 10
-701.67928495909666
 20
-2390.939353987274
 42
-0.0118458573896789
 10
-701.52473686058329
 20
-2390.7352817919618
 42
-0.0129184518201202
 10
-701.36028423698099
 20
-2390.5391212757904
 10
-701.33013946461722
 20
-2390.5049951968904
 42
-0.0217742579636355
 10
-701.15352714228334
 20
-2390.3217884266419
 10
-701.14278159782225
 20
-2390.3115715934382
 42
-0.0097266568645845
 10
-700.97672397896713
 20
-2390.1597240190017
 42
-0.0187720905725762
 10
-700.80237640307791
 20
-2390.0176551656127
 10
-700.7716704124017
 20
-2389.9944960832149
 42
-0.0179428207515067
 10
-700.53924969240734
 20
-2389.8319439061047
 10
-700.53559736549244
 20
-2389.8295799712173
 42
-0.0170047877691969
 10
-700.29983372796119
 20
-2389.6881194570656
 10
-700.29605073921641
 20
-2389.6860211520302
 42
-0.0160190788363164
 10
-700.05914219157933
 20
-2389.5643698500412
 42
-0.0151102861494429
 10
-699.81511040913279
 20
-2389.4576870739866
 10
-699.76272390692088
 20
-2389.4366469410916
 42
-0.0271945441893009
 10
-699.40406134786429
 20
-2389.314782130386
 10
-699.33499654737079
 20
-2389.2954325891183
 42
-0.0237596594018192
 10
-698.91919970035201
 20
-2389.1999818771378
 10
-698.85113684662144
 20
-2389.1877271890107
 42
-0.0213715440555578
 10
-698.56526191517628
 20
-2389.1487801575013
 10
-698.50511474895904
 20
-2389.1431904428005
 42
-0.0101465655803386
 10
-698.33762221696418
 20
-2389.1310468995362
 10
-698.32828183075094
 20
-2389.1305599845382
 42
-0.0100375910883742
 10
-698.17912773020339
 20
-2389.1257841666134
 10
-698.16886846053467
 20
-2389.125661727599
 42
-0.0103625633386372
 10
-698.04016046586821
 20
-2389.1267931611255
 10
-698.01789481458366
 20
-2389.1274505195911
 42
-0.0115689250241669
 10
-697.93384407707333
 20
-2389.1318800258359
 42
-0.0072438037406235
 10
-697.85000579764687
 20
-2389.139469225584
 10
-697.83320528816137
 20
-2389.1412357683098
 42
-0.0217917313136572
 10
-697.71663552484995
 20
-2389.1586556610305
 10
-697.65103543427722
 20
-2389.1714022694459
 42
-0.0332943556749906
 10
-697.44664326925272
 20
-2389.2254425607521
 10
-697.41647070069928
 20
-2389.2356106378716
 42
-0.0184824084798532
 10
-697.27796564423716
 20
-2389.288061653257
 42
-0.0198002050691301
 10
-697.14389130374411
 20
-2389.3509457134533
 10
-697.14200466636089
 20
-2389.3519235003364
 42
-0.0212242342992123
 10
-697.00986572396437
 20
-2389.4276862391262
 10
-697.00805042841557
 20
-2389.428832041338
 42
-0.0226090605792824
 10
-696.87954652719543
 20
-2389.5183116849012
 10
-696.87770208545635
 20
-2389.5197239378899
 42
-0.0238457052246528
 10
-696.75452000416396
 20
-2389.6237198337517
 10
-696.75256727560441
 20
-2389.6255347115184
 42
-0.0248160564140773
 10
-696.63636576830379
 20
-2389.7448093127273
 10
-696.63426213490175
 20
-2389.7471946464316
 42
-0.0254109591455278
 10
-696.52665691703453
 20
-2389.8824830323979
 10
-696.52440889512172
 20
-2389.8856245807965
 42
-0.0255528488281895
 10
-696.4269622163265
 20
-2390.037651635027
 10
-696.42463111640836
 20
-2390.0417332466382
 42
-0.0252146793223281
 10
-696.33885009040046
 20
-2390.2112354926321
 10
-696.33654785124168
 20
-2390.2164175745479
 42
-0.0244265635944437
 10
-696.26389315747952
 20
-2390.4041641465965
 10
-696.25464675601211
 20
-2390.4320295649313
 42
-0.0231319612900485
 10
-696.20872397701976
 20
-2390.595330611734
 42
-0.0112130424367378
 10
-696.17408795448159
 20
-2390.7615342119216
 10
-696.17288542936899
 20
-2390.7680307988098
 42
-0.0210527881225506
 10
-696.14719895399799
 20
-2390.9490864442532
 10
-696.14368835917639
 20
-2390.9844919927982
 42
-0.0190029892421496
 10
-696.12824688563182
 20
-2391.2380278390679
 10
-696.12743690918774
 20
-2391.2735034534398
 42
-0.0137974553659419
 10
-696.12898576202338
 20
-2391.5985348601771
 10
-696.1298312169788
 20
-2391.6246536047652
 42
-0.0081336634211599
 10
-696.14469055220138
 20
-2391.930001072365
 42
-0.0073526923576576
 10
-696.16899908557525
 20
-2392.2347493166426
 10
-696.17026050935874
 20
-2392.2480859913162
 42
-0.0066886138689131
 10
-696.20599609540466
 20
-2392.5786720348083
 10
-696.2076531848752
 20
-2392.592293653805
 42
-0.0061359187358978
 10
-696.25550378692571
 20
-2392.9490576339022
 10
-696.25754128799895
 20
-2392.9629524367342
 42
-0.0056698610072617
 10
-696.31819161876547
 20
-2393.3462310055702
 10
-696.32059705208894
 20
-2393.360390124803
 42
-0.0052721077279274
 10
-696.39472925288896
 20
-2393.7705174644825
 10
-696.39749240173035
 20
-2393.7849340998669
 42
-0.004928927218136
 10
-696.48578651982859
 20
-2394.2222426109806
 10
-696.48889901451298
 20
-2394.236911463805
 42
-0.0047415956714367
 10
-696.59213700604585
 20
-2394.7017082212183
 10
-696.62690521640502
 20
-2394.851515316599
 42
-0.0084404470900888
 10
-696.81692165997595
 20
-2395.6117393411273
 10
-696.82304834796253
 20
-2395.6346034652838
 42
-0.003963594025962
 10
-697.04450203224906
 20
-2396.4355923295402
 10
-697.05787882742607
 20
-2396.4825239461229
 42
-0.0072475040838611
 10
-697.32532571528884
 20
-2397.371743662512
 10
-697.39553804211585
 20
-2397.5934840124828
 42
-0.0051345458830221
 10
-697.68229741417542
 20
-2398.467809200296
 10
-697.7038236809384
 20
-2398.5312354674124
 42
-0.0019150016600475
 10
-697.95935708780962
 20
-2399.274784587652
 10
-697.96582469220175
 20
-2399.2933720525616
 42
-0.0021524362753461
 10
-698.21430274326963
 20
-2399.9976978742816
 10
-698.22351316396328
 20
-2400.023451452575
 42
-0.0024331286818617
 10
-698.45976842300206
 20
-2400.6740507607014
 10
-698.46881637554964
 20
-2400.6985940670479
 42
-0.002744972178888
 10
-698.69343094638805
 20
-2401.2977239459801
 10
-698.70232095378049
 20
-2401.3210465358329
 42
-0.0031083229768534
 10
-698.91586344039024
 20
-2401.8709705734118
 10
-698.9245995720654
 20
-2401.8930602892683
 42
-0.0035311343279417
 10
-699.12764075765767
 20
-2402.3960434149999
 10
-699.13622609680215
 20
-2402.4168861385024
 42
-0.0040245640954067
 10
-699.32933790059974
 20
-2402.875195461103
 10
-699.33777401420525
 20
-2402.8947748291807
 42
-0.0046015135850618
 10
-699.52153030736656
 20
-2403.3106798588174
 10
-699.52981648519051
 20
-2403.3289769982598
 42
-0.0052768638269868
 10
-699.70479400415047
 20
-2403.7047498825395
 10
-699.71292621477676
 20
-2403.7217432210814
 42
-0.006067267564123
 10
-699.87970582754338
 20
-2404.0596588441967
 10
-699.88767530802193
 20
-2404.0753241031884
 42
-0.0069904648868397
 10
-700.04684370202631
 20
-2404.3776599098578
 10
-700.05463510163725
 20
-2404.3919704590853
 42
-0.0080637022771201
 10
-700.20678696198297
 20
-2404.6610057622383
 10
-700.21437599461342
 20
-2404.6739336278379
 42
-0.0093006455667513
 10
-700.36011667114576
 20
-2404.9119480263421
 10
-700.36746733789073
 20
-2404.9234659955173
 42
-0.0107060778051581
 10
-700.50741588132792
 20
-2405.1327363128944
 10
-700.51447764960744
 20
-2405.1428218554602
 42
-0.0122723111428296
 10
-700.64927136780557
 20
-2405.3256151849491
 10
-700.64959759135922
 20
-2405.3260355727584
 42
-0.0141836319613493
 10
-700.79317919433379
 20
-2405.5006053305883
 10
-700.80012694998743
 20
-2405.5085803308548
 42
-0.0175957477224637
 10
-700.94003311802044
 20
-2405.658201219258
 42
-0.0080466359678319
 10
-701.08749688304499
 20
-2405.8005237474035
 10
-701.13353142756807
 20
-2405.8435441855004
 42
-0.0269600260396955
 10
-701.38681167355151
 20
-2406.0558674440103
 10
-701.4533788098463
 20
-2406.1058188586326
 42
-0.0178362839754059
 10
-701.69332329950385
 20
-2406.2728367848858
 10
-701.70056827050303
 20
-2406.2775052970901
 42
-0.0174650732645403
 10
-701.93690446794562
 20
-2406.4183662620499
 42
-0.0169240130161846
 10
-702.18237071380895
 20
-2406.5426585218302
 10
-702.22835686936105
 20
-2406.5640204773945
 42
-0.0318883036836312
 10
-702.57870772498063
 20
-2406.7003587869044
 10
-702.64707326015025
 20
-2406.7220594073815
 42
-0.028443590990426
 10
-703.02312338643685
 20
-2406.8182768428546
 10
-703.0582815469329
 20
-2406.8251704386826
 42
-0.0243909341007695
 10
-703.37172500785437
 20
-2406.8708914697131
 10
-703.42200573462515
 20
-2406.8757370166149
 42
-0.0196639292930962
 10
-703.63760131215281
 20
-2406.8879853021285
 10
-703.68942538331953
 20
-2406.8888885628653
 42
-0.0100501510691668
 10
-703.80184866498053
 20
-2406.8885881645119
 10
-703.83350852629815
 20
-2406.8878670926269
 42
-0.0019752031126955
 10
-703.88260086300591
 20
-2406.8865549324169
 10
-703.88536116624186
 20
-2406.8864702405904
 42
0.0065378752056103
 10
-703.92893774098275
 20
-2406.8857033493759
 42
-0.0167974694744917
 10
-703.97246856390359
 20
-2406.8840434508506
 10
-703.97654790317665
 20
-2406.8837504399548
 42
-0.0081283276286714
 10
-704.02810770090332
 20
-2406.8792034463177
 10
-704.03984727479383
 20
-2406.8779755287383
 42
-0.0126703440156401
 10
-704.11456557059921
 20
-2406.868240737665
 10
-704.13735343826397
 20
-2406.8646824817515
 42
-0.0117852088455999
 10
-704.25689242408248
 20
-2406.8431194865971
 10
-704.31227287585943
 20
-2406.8317759463598
 42
-0.0251774592294059
 10
-704.53911691487065
 20
-2406.7732779369258
 10
-704.58383610471412
 20
-2406.7593111175929
 42
-0.014652519989734
 10
-704.77022909225684
 20
-2406.6950445903935
 42
-0.0166929435852079
 10
-704.9522067483847
 20
-2406.6192374573384
 10
-704.95686337965662
 20
-2406.6171125567248
 42
-0.0191684358432823
 10
-705.14204701090648
 20
-2406.5238764729347
 10
-705.14537959666291
 20
-2406.5220352253818
 42
-0.0221181781814716
 10
-705.32868990056375
 20
-2406.4099017270123
 10
-705.33103970457353
 20
-2406.4083174290204
 42
-0.0254984685394688
 10
-705.50732985495733
 20
-2406.2759062790519
 10
-705.52981200266163
 20
-2406.2571539701134
 42
-0.0292492648810797
 10
-705.65458094150381
 20
-2406.1400611704707
 42
-0.0159048957509557
 10
-705.76842093895357
 20
-2406.0120411788721
 10
-705.76973972953328
 20
-2406.0104595658518
 42
-0.0343813379562979
 10
-705.87237699115997
 20
-2405.8685882400814
 10
-705.90386852252061
 20
-2405.8180848479878
 42
-0.0369117275695772
 10
-705.98976102441759
 20
-2405.6546076070399
 42
-0.0191751379934718
 10
-706.05695440997295
 20
-2405.4822030010387
 10
-706.05871773373406
 20
-2405.4771096563591
 42
-0.0378178042231263
 10
-706.10851245251843
 20
-2405.2881688802772
 10
-706.11450774824868
 20
-2405.2556082620804
 42
-0.0184846046476382
 10
-706.13522494754307
 20
-2405.1138554415361
 42
-0.0179866351293044
 10
-706.14555795261663
 20
-2404.9709646284564
 10
-706.14561439506247
 20
-2404.969406941842
 42
-0.0085497186139339
 10
-706.14704667616627
 20
-2404.8945337768328
 42
-0.0085497186139339
  0
ENDBLK
  5
5B
100
AcDbEntity
  8
template
390
0
100
AcDbBlockEnd
  0
BLOCK
  5
5C
100
AcDbEntity
  8
notes
390
0
100
AcDbBlockBegin
  2
*D3
 70
               1
 10
0.0
 20
0.0
 30
0.0
  3
*D3
  1

  0
LINE
  5
5D
100
AcDbEntity
  8
0
370
              -2
390
0
  6
Continuous
 62
               0
100
AcDbLine
 10
-766.15064205433328
 20
843.91187490333198
 30
0.0
 11
-766.15064205433328
 21
923.91187490333198
 31
0.0
  0
LINE
  5
5E
100
AcDbEntity
  8
0
370
              -2
390
0
  6
Continuous
 62
               0
100
AcDbLine
 10
-66.150642054334639
 20
843.91187490333198
 30
0.0
 11
-66.150642054334639
 21
923.91187490333198
 31
0.0
  0
LINE
  5
5F
100
AcDbEntity
  8
0
370
              -2
390
0
  6
Continuous
 62
               0
100
AcDbLine
 10
-766.15064205433328
 20
923.91187490333198
 30
0.0
 11
-66.150642054334639
 21
923.91187490333198
 31
0.0
  0
CIRCLE
  5
60
102
{ACAD_REACTORS
330
61
102
}
100
AcDbEntity
  8
0
370
              -2
390
0
  6
Continuous
 62
               0
100
AcDbCircle
 10
-766.15064205433328
 20
923.91187490333198
 30
0.0
 40
1.9998779296875
  0
HATCH
  5
61
100
AcDbEntity
  8
0
370
              -2
390
0
  6
Continuous
 62
               0
100
AcDbHatch
 10
0.0
 20
0.0
 30
0.0
210
0.0
220
0.0
230
1.0
  2
SOLID
 70
               1
 71
               1
 91
        1
 92
        1
 93
        1
 72
               2
 10
-766.15064205433328
 20
923.91187490333198
 40
1.9998779296875
 50
0.0
 51
360.0
 73
               0
 97
        1
330
60
 75
               0
 76
               1
 98
        1
 10
0.0
 20
0.0
  0
CIRCLE
  5
62
102
{ACAD_REACTORS
330
63
102
}
100
AcDbEntity
  8
0
370
              -2
390
0
  6
Continuous
 62
               0
100
AcDbCircle
 10
-66.150642054334639
 20
923.91187490333198
 30
0.0
 40
1.9998779296875
  0
HATCH
  5
63
100
AcDbEntity
  8
0
370
              -2
390
0
  6
Continuous
 62
               0
100
AcDbHatch
 10
0.0
 20
0.0
 30
0.0
210
0.0
220
0.0
230
1.0
  2
SOLID
 70
               1
 71
               1
 91
        1
 92
        1
 93
        1
 72
               2
 10
-66.150642054334639
 20
923.91187490333198
 40
1.9998779296875
 50
0.0
 51
360.0
 73
               0
 97
        1
330
62
 75
               0
 76
               1
 98
        1
 10
0.0
 20
0.0
  0
MTEXT
  5
64
100
AcDbEntity
  8
0
390
0
 62
               0
100
AcDbMText
 10
-439.96314373650944
 20
957.78949209083203
 30
0.0
 40
24.432617187500004
 41
0.0
 71
               1
 72
               1
  1
700
  7
ＭＳ ゴシック
 73
               1
 44
0.7828267384257843
  0
POINT
  5
65
100
AcDbEntity
  8
Defpoints
370
               0
390
0
 62
               0
100
AcDbPoint
 10
-66.150642054334639
 20
818.91187490333198
 30
0.0
  0
POINT
  5
66
100
AcDbEntity
  8
Defpoints
370
               0
390
0
 62
               0
100
AcDbPoint
 10
-766.15064205433328
 20
818.91187490333198
 30
0.0
  0
POINT
  5
67
100
AcDbEntity
  8
Defpoints
370
               0
390
0
 62
               0
100
AcDbPoint
 10
-766.15064205433328
 20
923.91187490333198
 30
0.0
  0
ENDBLK
  5
68
100
AcDbEntity
  8
notes
390
0
100
AcDbBlockEnd
  0
BLOCK
  5
69
100
AcDbEntity
  8
notes
390
0
100
AcDbBlockBegin
  2
*D4
 70
               1
 10
0.0
 20
0.0
 30
0.0
  3
*D4
  1

  0
LINE
  5
6A
100
AcDbEntity
  8
0
370
              -2
390
0
  6
Continuous
 62
               0
100
AcDbLine
 10
-50.150642054333503
 20
323.91187490333095
 30
0.0
 11
33.849357945665361
 21
323.91187490333095
 31
0.0
  0
LINE
  5
6B
100
AcDbEntity
  8
0
370
              -2
390
0
  6
Continuous
 62
               0
100
AcDbLine
 10
-46.150642054333503
 20
823.91187490333198
 30
0.0
 11
33.849357945665361
 21
823.91187490333198
 31
0.0
  0
LINE
  5
6C
100
AcDbEntity
  8
0
370
              -2
390
0
  6
Continuous
 62
               0
100
AcDbLine
 10
33.849357945665361
 20
323.91187490333095
 30
0.0
 11
33.849357945665361
 21
823.91187490333198
 31
0.0
  0
CIRCLE
  5
6D
102
{ACAD_REACTORS
330
6E
102
}
100
AcDbEntity
  8
0
370
              -2
390
0
  6
Continuous
 62
               0
100
AcDbCircle
 10
33.849357945665361
 20
323.91187490333095
 30
0.0
 40
1.9998779296875
  0
HATCH
  5
6E
100
AcDbEntity
  8
0
370
              -2
390
0
  6
Continuous
 62
               0
100
AcDbHatch
 10
0.0
 20
0.0
 30
0.0
210
0.0
220
0.0
230
1.0
  2
SOLID
 70
               1
 71
               1
 91
        1
 92
        1
 93
        1
 72
               2
 10
33.849357945665361
 20
323.91187490333095
 40
1.9998779296875
 50
0.0
 51
360.0
 73
               0
 97
        1
330
6D
 75
               0
 76
               1
 98
        1
 10
0.0
 20
0.0
  0
CIRCLE
  5
6F
102
{ACAD_REACTORS
330
70
102
}
100
AcDbEntity
  8
0
370
              -2
390
0
  6
Continuous
 62
               0
100
AcDbCircle
 10
33.849357945665361
 20
823.91187490333198
 30
0.0
 40
1.9998779296875
  0
HATCH
  5
70
100
AcDbEntity
  8
0
370
              -2
390
0
  6
Continuous
 62
               0
100
AcDbHatch
 10
0.0
 20
0.0
 30
0.0
210
0.0
220
0.0
230
1.0
  2
SOLID
 70
               1
 71
               1
 91
        1
 92
        1
 93
        1
 72
               2
 10
33.849357945665361
 20
823.91187490333198
 40
1.9998779296875
 50
0.0
 51
360.0
 73
               0
 97
        1
330
6F
 75
               0
 76
               1
 98
        1
 10
0.0
 20
0.0
  0
MTEXT
  5
71
100
AcDbEntity
  8
0
390
0
 62
               0
100
AcDbMText
 10
-0.0282592418345757
 20
550.09937322115593
 30
0.0
 40
24.432617187500004
 41
0.0
 71
               1
 72
               1
  1
500
  7
ＭＳ ゴシック
 11
0.0
 21
1.0
 31
0.0
 73
               1
 44
0.7828267384257843
  0
POINT
  5
72
100
AcDbEntity
  8
Defpoints
370
               0
390
0
 62
               0
100
AcDbPoint
 10
-71.150642054333503
 20
823.91187490333198
 30
0.0
  0
POINT
  5
73
100
AcDbEntity
  8
Defpoints
370
               0
390
0
 62
               0
100
AcDbPoint
 10
-75.150642054333503
 20
323.91187490333095
 30
0.0
  0
POINT
  5
74
100
AcDbEntity
  8
Defpoints
370
               0
390
0
 62
               0
100
AcDbPoint
 10
33.849357945665361
 20
323.91187490333095
 30
0.0
  0
ENDBLK
  5
75
100
AcDbEntity
  8
notes
390
0
100
AcDbBlockEnd
  0
BLOCK
  5
76
100
AcDbEntity
  8
notes
390
0
100
AcDbBlockBegin
  2
*D5
 70
               1
 10
0.0
 20
0.0
 30
0.0
  3
*D5
  1

  0
LINE
  5
77
100
AcDbEntity
  8
0
370
              -2
390
0
  6
Continuous
 62
               0
100
AcDbLine
 10
871.33171735850965
 20
-367.01032298022005
 30
0.0
 11
871.33171735850965
 21
-292.01032298022005
 31
0.0
  0
LINE
  5
78
100
AcDbEntity
  8
0
370
              -2
390
0
  6
Continuous
 62
               0
100
AcDbLine
 10
801.33171735850965
 20
-367.01032298022005
 30
0.0
 11
801.33171735850965
 21
-292.01032298022005
 31
0.0
  0
LINE
  5
79
100
AcDbEntity
  8
0
370
              -2
390
0
  6
Continuous
 62
               0
100
AcDbLine
 10
871.33171735850965
 20
-292.01032298022005
 30
0.0
 11
801.33171735850965
 21
-292.01032298022005
 31
0.0
  0
CIRCLE
  5
7A
102
{ACAD_REACTORS
330
7B
102
}
100
AcDbEntity
  8
0
370
              -2
390
0
  6
Continuous
 62
               0
100
AcDbCircle
 10
871.33171735850965
 20
-292.01032298022005
 30
0.0
 40
1.9998779296875
  0
HATCH
  5
7B
100
AcDbEntity
  8
0
370
              -2
390
0
  6
Continuous
 62
               0
100
AcDbHatch
 10
0.0
 20
0.0
 30
0.0
210
0.0
220
0.0
230
1.0
  2
SOLID
 70
               1
 71
               1
 91
        1
 92
        1
 93
        1
 72
               2
 10
871.33171735850965
 20
-292.01032298022005
 40
1.9998779296875
 50
0.0
 51
360.0
 73
               0
 97
        1
330
7A
 75
               0
 76
               1
 98
        1
 10
0.0
 20
0.0
  0
CIRCLE
  5
7C
102
{ACAD_REACTORS
330
7D
102
}
100
AcDbEntity
  8
0
370
              -2
390
0
  6
Continuous
 62
               0
100
AcDbCircle
 10
801.33171735850965
 20
-292.01032298022005
 30
0.0
 40
1.9998779296875
  0
HATCH
  5
7D
100
AcDbEntity
  8
0
370
              -2
390
0
  6
Continuous
 62
               0
100
AcDbHatch
 10
0.0
 20
0.0
 30
0.0
210
0.0
220
0.0
230
1.0
  2
SOLID
 70
               1
 71
               1
 91
        1
 92
        1
 93
        1
 72
               2
 10
801.33171735850965
 20
-292.01032298022005
 40
1.9998779296875
 50
0.0
 51
360.0
 73
               0
 97
        1
330
7C
 75
               0
 76
               1
 98
        1
 10
0.0
 20
0.0
  0
MTEXT
  5
7E
100
AcDbEntity
  8
0
390
0
 62
               0
100
AcDbMText
 10
820.45671735850965
 20
-258.13270579272012
 30
0.0
 40
24.432617187500004
 41
0.0
 71
               1
 72
               1
  1
70
  7
ＭＳ ゴシック
 73
               1
 44
0.7828267384257843
  0
POINT
  5
7F
100
AcDbEntity
  8
Defpoints
370
               0
390
0
 62
               0
100
AcDbPoint
 10
801.33171735850965
 20
-392.01032298022005
 30
0.0
  0
POINT
  5
80
100
AcDbEntity
  8
Defpoints
370
               0
390
0
 62
               0
100
AcDbPoint
 10
871.33171735850965
 20
-392.01032298022005
 30
0.0
  0
POINT
  5
81
100
AcDbEntity
  8
Defpoints
370
               0
390
0
 62
               0
100
AcDbPoint
 10
871.33171735850965
 20
-292.01032298022005
 30
0.0
  0
ENDBLK
  5
82
100
AcDbEntity
  8
notes
390
0
100
AcDbBlockEnd
  0
BLOCK
  5
83
100
AcDbEntity
  8
notes
390
0
100
AcDbBlockBegin
  2
*D6
 70
               1
 10
0.0
 20
0.0
 30
0.0
  3
*D6
  1

  0
LINE
  5
84
100
AcDbEntity
  8
0
370
              -2
390
0
  6
Continuous
 62
               0
100
AcDbLine
 10
-766.15064205433328
 20
307.91187490333118
 30
0.0
 11
-766.15064205433328
 21
223.91187490333095
 31
0.0
  0
LINE
  5
85
100
AcDbEntity
  8
0
370
              -2
390
0
  6
Continuous
 62
               0
100
AcDbLine
 10
-631.15064205433373
 20
298.91187490333095
 30
0.0
 11
-631.15064205433373
 21
223.91187490333095
 31
0.0
  0
LINE
  5
86
100
AcDbEntity
  8
0
370
              -2
390
0
  6
Continuous
 62
               0
100
AcDbLine
 10
-766.15064205433328
 20
223.91187490333095
 30
0.0
 11
-631.15064205433373
 21
223.91187490333095
 31
0.0
  0
CIRCLE
  5
87
102
{ACAD_REACTORS
330
88
102
}
100
AcDbEntity
  8
0
370
              -2
390
0
  6
Continuous
 62
               0
100
AcDbCircle
 10
-766.15064205433328
 20
223.91187490333095
 30
0.0
 40
1.9998779296875
  0
HATCH
  5
88
100
AcDbEntity
  8
0
370
              -2
390
0
  6
Continuous
 62
               0
100
AcDbHatch
 10
0.0
 20
0.0
 30
0.0
210
0.0
220
0.0
230
1.0
  2
SOLID
 70
               1
 71
               1
 91
        1
 92
        1
 93
        1
 72
               2
 10
-766.15064205433328
 20
223.91187490333095
 40
1.9998779296875
 50
0.0
 51
360.0
 73
               0
 97
        1
330
87
 75
               0
 76
               1
 98
        1
 10
0.0
 20
0.0
  0
CIRCLE
  5
89
102
{ACAD_REACTORS
330
8A
102
}
100
AcDbEntity
  8
0
370
              -2
390
0
  6
Continuous
 62
               0
100
AcDbCircle
 10
-631.15064205433373
 20
223.91187490333095
 30
0.0
 40
1.9998779296875
  0
HATCH
  5
8A
100
AcDbEntity
  8
0
370
              -2
390
0
  6
Continuous
 62
               0
100
AcDbHatch
 10
0.0
 20
0.0
 30
0.0
210
0.0
220
0.0
230
1.0
  2
SOLID
 70
               1
 71
               1
 91
        1
 92
        1
 93
        1
 72
               2
 10
-631.15064205433373
 20
223.91187490333095
 40
1.9998779296875
 50
0.0
 51
360.0
 73
               0
 97
        1
330
89
 75
               0
 76
               1
 98
        1
 10
0.0
 20
0.0
  0
MTEXT
  5
8B
100
AcDbEntity
  8
0
390
0
 62
               0
100
AcDbMText
 10
-722.46314373650875
 20
257.789492090831
 30
0.0
 40
24.432617187500004
 41
0.0
 71
               1
 72
               1
  1
135
  7
ＭＳ ゴシック
 73
               1
 44
0.7828267384257843
  0
POINT
  5
8C
100
AcDbEntity
  8
Defpoints
370
               0
390
0
 62
               0
100
AcDbPoint
 10
-631.15064205433373
 20
323.91187490333095
 30
0.0
  0
POINT
  5
8D
100
AcDbEntity
  8
Defpoints
370
               0
390
0
 62
               0
100
AcDbPoint
 10
-766.15064205433328
 20
332.91187490333118
 30
0.0
  0
POINT
  5
8E
100
AcDbEntity
  8
Defpoints
370
               0
390
0
 62
               0
100
AcDbPoint
 10
-766.15064205433328
 20
223.91187490333095
 30
0.0
  0
ENDBLK
  5
8F
100
AcDbEntity
  8
notes
390
0
100
AcDbBlockEnd
  0
BLOCK
  5
90
100
AcDbEntity
  8
notes
390
0
100
AcDbBlockBegin
  2
*D7
 70
               1
 10
0.0
 20
0.0
 30
0.0
  3
*D7
  1

  0
LINE
  5
91
100
AcDbEntity
  8
0
370
              -2
390
0
  6
Continuous
 62
               0
100
AcDbLine
 10
-631.15064205433373
 20
298.91187490333095
 30
0.0
 11
-631.15064205433373
 21
223.91187490333095
 31
0.0
  0
LINE
  5
92
100
AcDbEntity
  8
0
370
              -2
390
0
  6
Continuous
 62
               0
100
AcDbLine
 10
-201.1506420543335
 20
298.91187490333095
 30
0.0
 11
-201.1506420543335
 21
223.91187490333095
 31
0.0
  0
LINE
  5
93
100
AcDbEntity
  8
0
370
              -2
390
0
  6
Continuous
 62
               0
100
AcDbLine
 10
-631.15064205433373
 20
223.91187490333095
 30
0.0
 11
-201.1506420543335
 21
223.91187490333095
 31
0.0
  0
CIRCLE
  5
94
102
{ACAD_REACTORS
330
95
102
}
100
AcDbEntity
  8
0
370
              -2
390
0
  6
Continuous
 62
               0
100
AcDbCircle
 10
-631.15064205433373
 20
223.91187490333095
 30
0.0
 40
1.9998779296875
  0
HATCH
  5
95
100
AcDbEntity
  8
0
370
              -2
390
0
  6
Continuous
 62
               0
100
AcDbHatch
 10
0.0
 20
0.0
 30
0.0
210
0.0
220
0.0
230
1.0
  2
SOLID
 70
               1
 71
               1
 91
        1
 92
        1
 93
        1
 72
               2
 10
-631.15064205433373
 20
223.91187490333095
 40
1.9998779296875
 50
0.0
 51
360.0
 73
               0
 97
        1
330
94
 75
               0
 76
               1
 98
        1
 10
0.0
 20
0.0
  0
CIRCLE
  5
96
102
{ACAD_REACTORS
330
97
102
}
100
AcDbEntity
  8
0
370
              -2
390
0
  6
Continuous
 62
               0
100
AcDbCircle
 10
-201.1506420543335
 20
223.91187490333095
 30
0.0
 40
1.9998779296875
  0
HATCH
  5
97
100
AcDbEntity
  8
0
370
              -2
390
0
  6
Continuous
 62
               0
100
AcDbHatch
 10
0.0
 20
0.0
 30
0.0
210
0.0
220
0.0
230
1.0
  2
SOLID
 70
               1
 71
               1
 91
        1
 92
        1
 93
        1
 72
               2
 10
-201.1506420543335
 20
223.91187490333095
 40
1.9998779296875
 50
0.0
 51
360.0
 73
               0
 97
        1
330
96
 75
               0
 76
               1
 98
        1
 10
0.0
 20
0.0
  0
MTEXT
  5
98
100
AcDbEntity
  8
0
390
0
 62
               0
100
AcDbMText
 10
-439.96314373650921
 20
257.789492090831
 30
0.0
 40
24.432617187500004
 41
0.0
 71
               1
 72
               1
  1
430
  7
ＭＳ ゴシック
 73
               1
 44
0.7828267384257843
  0
POINT
  5
99
100
AcDbEntity
  8
Defpoints
370
               0
390
0
 62
               0
100
AcDbPoint
 10
-201.1506420543335
 20
323.91187490333095
 30
0.0
  0
POINT
  5
9A
100
AcDbEntity
  8
Defpoints
370
               0
390
0
 62
               0
100
AcDbPoint
 10
-631.15064205433373
 20
323.91187490333095
 30
0.0
  0
POINT
  5
9B
100
AcDbEntity
  8
Defpoints
370
               0
390
0
 62
               0
100
AcDbPoint
 10
-631.15064205433373
 20
223.91187490333095
 30
0.0
  0
ENDBLK
  5
9C
100
AcDbEntity
  8
notes
390
0
100
AcDbBlockEnd
  0
BLOCK
  5
9D
100
AcDbEntity
  8
notes
390
0
100
AcDbBlockBegin
  2
*D8
 70
               1
 10
0.0
 20
0.0
 30
0.0
  3
*D8
  1

  0
LINE
  5
9E
100
AcDbEntity
  8
0
370
              -2
390
0
  6
Continuous
 62
               0
100
AcDbLine
 10
-791.15064205433328
 20
393.91187490333095
 30
0.0
 11
-866.15064205433328
 21
393.91187490333095
 31
0.0
  0
LINE
  5
9F
100
AcDbEntity
  8
0
370
              -2
390
0
  6
Continuous
 62
               0
100
AcDbLine
 10
-791.15064205433328
 20
688.91187490332948
 30
0.0
 11
-866.15064205433328
 21
688.91187490332948
 31
0.0
  0
LINE
  5
A0
100
AcDbEntity
  8
0
370
              -2
390
0
  6
Continuous
 62
               0
100
AcDbLine
 10
-866.15064205433328
 20
393.91187490333095
 30
0.0
 11
-866.15064205433328
 21
688.91187490332948
 31
0.0
  0
CIRCLE
  5
A1
102
{ACAD_REACTORS
330
A2
102
}
100
AcDbEntity
  8
0
370
              -2
390
0
  6
Continuous
 62
               0
100
AcDbCircle
 10
-866.15064205433328
 20
393.91187490333095
 30
0.0
 40
1.9998779296875
  0
HATCH
  5
A2
100
AcDbEntity
  8
0
370
              -2
390
0
  6
Continuous
 62
               0
100
AcDbHatch
 10
0.0
 20
0.0
 30
0.0
210
0.0
220
0.0
230
1.0
  2
SOLID
 70
               1
 71
               1
 91
        1
 92
        1
 93
        1
 72
               2
 10
-866.15064205433328
 20
393.91187490333095
 40
1.9998779296875
 50
0.0
 51
360.0
 73
               0
 97
        1
330
A1
 75
               0
 76
               1
 98
        1
 10
0.0
 20
0.0
  0
CIRCLE
  5
A3
102
{ACAD_REACTORS
330
A4
102
}
100
AcDbEntity
  8
0
370
              -2
390
0
  6
Continuous
 62
               0
100
AcDbCircle
 10
-866.15064205433328
 20
688.91187490332948
 30
0.0
 40
1.9998779296875
  0
HATCH
  5
A4
100
AcDbEntity
  8
0
370
              -2
390
0
  6
Continuous
 62
               0
100
AcDbHatch
 10
0.0
 20
0.0
 30
0.0
210
0.0
220
0.0
230
1.0
  2
SOLID
 70
               1
 71
               1
 91
        1
 92
        1
 93
        1
 72
               2
 10
-866.15064205433328
 20
688.91187490332948
 40
1.9998779296875
 50
0.0
 51
360.0
 73
               0
 97
        1
330
A3
 75
               0
 76
               1
 98
        1
 10
0.0
 20
0.0
  0
MTEXT
  5
A5
100
AcDbEntity
  8
0
390
0
 62
               0
100
AcDbMText
 10
-900.02825924183344
 20
517.59937322115479
 30
0.0
 40
24.432617187500004
 41
0.0
 71
               1
 72
               1
  1
295
  7
ＭＳ ゴシック
 11
0.0
 21
1.0
 31
0.0
 73
               1
 44
0.7828267384257843
  0
POINT
  5
A6
100
AcDbEntity
  8
Defpoints
370
               0
390
0
 62
               0
100
AcDbPoint
 10
-766.15064205433328
 20
688.91187490332948
 30
0.0
  0
POINT
  5
A7
100
AcDbEntity
  8
Defpoints
370
               0
390
0
 62
               0
100
AcDbPoint
 10
-766.15064205433328
 20
393.91187490333095
 30
0.0
  0
POINT
  5
A8
100
AcDbEntity
  8
Defpoints
370
               0
390
0
 62
               0
100
AcDbPoint
 10
-866.15064205433328
 20
393.91187490333095
 30
0.0
  0
ENDBLK
  5
A9
100
AcDbEntity
  8
notes
390
0
100
AcDbBlockEnd
  0
BLOCK
  5
AA
100
AcDbEntity
  8
notes
390
0
100
AcDbBlockBegin
  2
*D9
 70
               1
 10
0.0
 20
0.0
 30
0.0
  3
*D9
  1

  0
LINE
  5
AB
100
AcDbEntity
  8
0
370
              -2
390
0
  6
Continuous
 62
               0
100
AcDbLine
 10
-791.15064205433328
 20
688.91187490332948
 30
0.0
 11
-866.15064205433328
 21
688.91187490332948
 31
0.0
  0
LINE
  5
AC
100
AcDbEntity
  8
0
370
              -2
390
0
  6
Continuous
 62
               0
100
AcDbLine
 10
-786.15064205433328
 20
823.91187490333198
 30
0.0
 11
-866.15064205433328
 21
823.91187490333198
 31
0.0
  0
LINE
  5
AD
100
AcDbEntity
  8
0
370
              -2
390
0
  6
Continuous
 62
               0
100
AcDbLine
 10
-866.15064205433328
 20
688.91187490332948
 30
0.0
 11
-866.15064205433328
 21
823.91187490333198
 31
0.0
  0
CIRCLE
  5
AE
102
{ACAD_REACTORS
330
AF
102
}
100
AcDbEntity
  8
0
370
              -2
390
0
  6
Continuous
 62
               0
100
AcDbCircle
 10
-866.15064205433328
 20
688.91187490332948
 30
0.0
 40
1.9998779296875
  0
HATCH
  5
AF
100
AcDbEntity
  8
0
370
              -2
390
0
  6
Continuous
 62
               0
100
AcDbHatch
 10
0.0
 20
0.0
 30
0.0
210
0.0
220
0.0
230
1.0
  2
SOLID
 70
               1
 71
               1
 91
        1
 92
        1
 93
        1
 72
               2
 10
-866.15064205433328
 20
688.91187490332948
 40
1.9998779296875
 50
0.0
 51
360.0
 73
               0
 97
        1
330
AE
 75
               0
 76
               1
 98
        1
 10
0.0
 20
0.0
  0
CIRCLE
  5
B0
102
{ACAD_REACTORS
330
B1
102
}
100
AcDbEntity
  8
0
370
              -2
390
0
  6
Continuous
 62
               0
100
AcDbCircle
 10
-866.15064205433328
 20
823.91187490333198
 30
0.0
 40
1.9998779296875
  0
HATCH
  5
B1
100
AcDbEntity
  8
0
370
              -2
390
0
  6
Continuous
 62
               0
100
AcDbHatch
 10
0.0
 20
0.0
 30
0.0
210
0.0
220
0.0
230
1.0
  2
SOLID
 70
               1
 71
               1
 91
        1
 92
        1
 93
        1
 72
               2
 10
-866.15064205433328
 20
823.91187490333198
 40
1.9998779296875
 50
0.0
 51
360.0
 73
               0
 97
        1
330
B0
 75
               0
 76
               1
 98
        1
 10
0.0
 20
0.0
  0
MTEXT
  5
B2
100
AcDbEntity
  8
0
390
0
 62
               0
100
AcDbMText
 10
-900.02825924183344
 20
732.59937322115525
 30
0.0
 40
24.432617187500004
 41
0.0
 71
               1
 72
               1
  1
135
  7
ＭＳ ゴシック
 11
0.0
 21
1.0
 31
0.0
 73
               1
 44
0.7828267384257843
  0
POINT
  5
B3
100
AcDbEntity
  8
Defpoints
370
               0
390
0
 62
               0
100
AcDbPoint
 10
-761.15064205433328
 20
823.91187490333198
 30
0.0
  0
POINT
  5
B4
100
AcDbEntity
  8
Defpoints
370
               0
390
0
 62
               0
100
AcDbPoint
 10
-766.15064205433328
 20
688.91187490332948
 30
0.0
  0
POINT
  5
B5
100
AcDbEntity
  8
Defpoints
370
               0
390
0
 62
               0
100
AcDbPoint
 10
-866.15064205433328
 20
688.91187490332948
 30
0.0
  0
ENDBLK
  5
B6
100
AcDbEntity
  8
notes
390
0
100
AcDbBlockEnd
  0
BLOCK
  5
B7
100
AcDbEntity
  8
notes
390
0
100
AcDbBlockBegin
  2
*D10
 70
               1
 10
0.0
 20
0.0
 30
0.0
  3
*D10
  1

  0
LINE
  5
B8
100
AcDbEntity
  8
0
370
              -2
390
0
  6
Continuous
 62
               0
100
AcDbLine
 10
-631.36534093681257
 20
-397.01032298022005
 30
0.0
 11
-631.36534093681257
 21
-292.01032298022005
 31
0.0
  0
LINE
  5
B9
100
AcDbEntity
  8
0
370
              -2
390
0
  6
Continuous
 62
               0
100
AcDbLine
 10
-201.36534093681257
 20
-397.01032298022005
 30
0.0
 11
-201.36534093681257
 21
-292.01032298022005
 31
0.0
  0
LINE
  5
BA
100
AcDbEntity
  8
0
370
              -2
390
0
  6
Continuous
 62
               0
100
AcDbLine
 10
-631.36534093681257
 20
-292.01032298022005
 30
0.0
 11
-201.36534093681257
 21
-292.01032298022005
 31
0.0
  0
CIRCLE
  5
BB
102
{ACAD_REACTORS
330
BC
102
}
100
AcDbEntity
  8
0
370
              -2
390
0
  6
Continuous
 62
               0
100
AcDbCircle
 10
-631.36534093681257
 20
-292.01032298022005
 30
0.0
 40
1.9998779296875
  0
HATCH
  5
BC
100
AcDbEntity
  8
0
370
              -2
390
0
  6
Continuous
 62
               0
100
AcDbHatch
 10
0.0
 20
0.0
 30
0.0
210
0.0
220
0.0
230
1.0
  2
SOLID
 70
               1
 71
               1
 91
        1
 92
        1
 93
        1
 72
               2
 10
-631.36534093681257
 20
-292.01032298022005
 40
1.9998779296875
 50
0.0
 51
360.0
 73
               0
 97
        1
330
BB
 75
               0
 76
               1
 98
        1
 10
0.0
 20
0.0
  0
CIRCLE
  5
BD
102
{ACAD_REACTORS
330
BE
102
}
100
AcDbEntity
  8
0
370
              -2
390
0
  6
Continuous
 62
               0
100
AcDbCircle
 10
-201.36534093681257
 20
-292.01032298022005
 30
0.0
 40
1.9998779296875
  0
HATCH
  5
BE
100
AcDbEntity
  8
0
370
              -2
390
0
  6
Continuous
 62
               0
100
AcDbHatch
 10
0.0
 20
0.0
 30
0.0
210
0.0
220
0.0
230
1.0
  2
SOLID
 70
               1
 71
               1
 91
        1
 92
        1
 93
        1
 72
               2
 10
-201.36534093681257
 20
-292.01032298022005
 40
1.9998779296875
 50
0.0
 51
360.0
 73
               0
 97
        1
330
BD
 75
               0
 76
               1
 98
        1
 10
0.0
 20
0.0
  0
MTEXT
  5
BF
100
AcDbEntity
  8
0
390
0
 62
               0
100
AcDbMText
 10
-440.17784261898805
 20
-258.13270579272012
 30
0.0
 40
24.432617187500004
 41
0.0
 71
               1
 72
               1
  1
430
  7
ＭＳ ゴシック
 73
               1
 44
0.7828267384257843
  0
POINT
  5
C0
100
AcDbEntity
  8
Defpoints
370
               0
390
0
 62
               0
100
AcDbPoint
 10
-201.36534093681257
 20
-422.01032298022005
 30
0.0
  0
POINT
  5
C1
100
AcDbEntity
  8
Defpoints
370
               0
390
0
 62
               0
100
AcDbPoint
 10
-631.36534093681257
 20
-422.01032298022005
 30
0.0
  0
POINT
  5
C2
100
AcDbEntity
  8
Defpoints
370
               0
390
0
 62
               0
100
AcDbPoint
 10
-631.36534093681257
 20
-292.01032298022005
 30
0.0
  0
ENDBLK
  5
C3
100
AcDbEntity
  8
notes
390
0
100
AcDbBlockEnd
  0
BLOCK
  5
C4
100
AcDbEntity
  8
notes
390
0
100
AcDbBlockBegin
  2
*D11
 70
               1
 10
0.0
 20
0.0
 30
0.0
  3
*D11
  1

  0
LINE
  5
C5
100
AcDbEntity
  8
0
370
              -2
390
0
  6
Continuous
 62
               0
100
AcDbLine
 10
-681.86534093681257
 20
-442.01032298022005
 30
0.0
 11
-866.15064205433328
 21
-442.01032298022005
 31
0.0
  0
LINE
  5
C6
100
AcDbEntity
  8
0
370
              -2
390
0
  6
Continuous
 62
               0
100
AcDbLine
 10
-786.21314205433373
 20
-392.01032298022005
 30
0.0
 11
-866.15064205433328
 21
-392.01032298022005
 31
0.0
  0
LINE
  5
C7
100
AcDbEntity
  8
0
370
              -2
390
0
  6
Continuous
 62
               0
100
AcDbLine
 10
-866.15064205433328
 20
-442.01032298022005
 30
0.0
 11
-866.15064205433328
 21
-392.01032298022005
 31
0.0
  0
CIRCLE
  5
C8
102
{ACAD_REACTORS
330
C9
102
}
100
AcDbEntity
  8
0
370
              -2
390
0
  6
Continuous
 62
               0
100
AcDbCircle
 10
-866.15064205433328
 20
-442.01032298022005
 30
0.0
 40
1.9998779296875
  0
HATCH
  5
C9
100
AcDbEntity
  8
0
370
              -2
390
0
  6
Continuous
 62
               0
100
AcDbHatch
 10
0.0
 20
0.0
 30
0.0
210
0.0
220
0.0
230
1.0
  2
SOLID
 70
               1
 71
               1
 91
        1
 92
        1
 93
        1
 72
               2
 10
-866.15064205433328
 20
-442.01032298022005
 40
1.9998779296875
 50
0.0
 51
360.0
 73
               0
 97
        1
330
C8
 75
               0
 76
               1
 98
        1
 10
0.0
 20
0.0
  0
CIRCLE
  5
CA
102
{ACAD_REACTORS
330
CB
102
}
100
AcDbEntity
  8
0
370
              -2
390
0
  6
Continuous
 62
               0
100
AcDbCircle
 10
-866.15064205433328
 20
-392.01032298022005
 30
0.0
 40
1.9998779296875
  0
HATCH
  5
CB
100
AcDbEntity
  8
0
370
              -2
390
0
  6
Continuous
 62
               0
100
AcDbHatch
 10
0.0
 20
0.0
 30
0.0
210
0.0
220
0.0
230
1.0
  2
SOLID
 70
               1
 71
               1
 91
        1
 92
        1
 93
        1
 72
               2
 10
-866.15064205433328
 20
-392.01032298022005
 40
1.9998779296875
 50
0.0
 51
360.0
 73
               0
 97
        1
330
CA
 75
               0
 76
               1
 98
        1
 10
0.0
 20
0.0
  0
MTEXT
  5
CC
100
AcDbEntity
  8
0
390
0
 62
               0
100
AcDbMText
 10
-900.02825924183344
 20
-432.88532298022005
 30
0.0
 40
24.432617187500004
 41
0.0
 71
               1
 72
               1
  1
50
  7
ＭＳ ゴシック
 11
0.0
 21
1.0
 31
0.0
 73
               1
 44
0.7828267384257843
  0
POINT
  5
CD
100
AcDbEntity
  8
Defpoints
370
               0
390
0
 62
               0
100
AcDbPoint
 10
-761.21314205433373
 20
-392.01032298022005
 30
0.0
  0
POINT
  5
CE
100
AcDbEntity
  8
Defpoints
370
               0
390
0
 62
               0
100
AcDbPoint
 10
-656.86534093681257
 20
-442.01032298022005
 30
0.0
  0
POINT
  5
CF
100
AcDbEntity
  8
Defpoints
370
               0
390
0
 62
               0
100
AcDbPoint
 10
-866.15064205433328
 20
-442.01032298022005
 30
0.0
  0
ENDBLK
  5
D0
100
AcDbEntity
  8
notes
390
0
100
AcDbBlockEnd
  0
BLOCK
  5
D1
100
AcDbEntity
  8
notes
390
0
100
AcDbBlockBegin
  2
*D12
 70
               1
 10
0.0
 20
0.0
 30
0.0
  3
*D12
  1

  0
LINE
  5
D2
100
AcDbEntity
  8
0
370
              -2
390
0
  6
Continuous
 62
               0
100
AcDbLine
 10
351.69343021631948
 20
-392.01032298022233
 30
0.0
 11
271.70146395808115
 21
-392.01032298022233
 31
0.0
  0
LINE
  5
D3
100
AcDbEntity
  8
0
370
              -2
390
0
  6
Continuous
 62
               0
100
AcDbLine
 10
355.09875092897164
 20
-462.01032298022233
 30
0.0
 11
271.70146395808115
 21
-462.01032298022233
 31
0.0
  0
LINE
  5
D4
100
AcDbEntity
  8
0
370
              -2
390
0
  6
Continuous
 62
               0
100
AcDbLine
 10
271.70146395808115
 20
-392.01032298022233
 30
0.0
 11
271.70146395808115
 21
-462.01032298022233
 31
0.0
  0
CIRCLE
  5
D5
102
{ACAD_REACTORS
330
D6
102
}
100
AcDbEntity
  8
0
370
              -2
390
0
  6
Continuous
 62
               0
100
AcDbCircle
 10
271.70146395808115
 20
-392.01032298022233
 30
0.0
 40
1.9998779296875
  0
HATCH
  5
D6
100
AcDbEntity
  8
0
370
              -2
390
0
  6
Continuous
 62
               0
100
AcDbHatch
 10
0.0
 20
0.0
 30
0.0
210
0.0
220
0.0
230
1.0
  2
SOLID
 70
               1
 71
               1
 91
        1
 92
        1
 93
        1
 72
               2
 10
271.70146395808115
 20
-392.01032298022233
 40
1.9998779296875
 50
0.0
 51
360.0
 73
               0
 97
        1
330
D5
 75
               0
 76
               1
 98
        1
 10
0.0
 20
0.0
  0
CIRCLE
  5
D7
102
{ACAD_REACTORS
330
D8
102
}
100
AcDbEntity
  8
0
370
              -2
390
0
  6
Continuous
 62
               0
100
AcDbCircle
 10
271.70146395808115
 20
-462.01032298022233
 30
0.0
 40
1.9998779296875
  0
HATCH
  5
D8
100
AcDbEntity
  8
0
370
              -2
390
0
  6
Continuous
 62
               0
100
AcDbHatch
 10
0.0
 20
0.0
 30
0.0
210
0.0
220
0.0
230
1.0
  2
SOLID
 70
               1
 71
               1
 91
        1
 92
        1
 93
        1
 72
               2
 10
271.70146395808115
 20
-462.01032298022233
 40
1.9998779296875
 50
0.0
 51
360.0
 73
               0
 97
        1
330
D7
 75
               0
 76
               1
 98
        1
 10
0.0
 20
0.0
  0
MTEXT
  5
D9
100
AcDbEntity
  8
0
390
0
 62
               0
100
AcDbMText
 10
237.82384677058121
 20
-442.88532298022233
 30
0.0
 40
24.432617187500004
 41
0.0
 71
               1
 72
               1
  1
70
  7
ＭＳ ゴシック
 11
0.0
 21
1.0
 31
0.0
 73
               1
 44
0.7828267384257843
  0
POINT
  5
DA
100
AcDbEntity
  8
Defpoints
370
               0
390
0
 62
               0
100
AcDbPoint
 10
380.09875092897164
 20
-462.01032298022233
 30
0.0
  0
POINT
  5
DB
100
AcDbEntity
  8
Defpoints
370
               0
390
0
 62
               0
100
AcDbPoint
 10
376.69343021631948
 20
-392.01032298022233
 30
0.0
  0
POINT
  5
DC
100
AcDbEntity
  8
Defpoints
370
               0
390
0
 62
               0
100
AcDbPoint
 10
271.70146395808115
 20
-392.01032298022233
 30
0.0
  0
ENDBLK
  5
DD
100
AcDbEntity
  8
notes
390
0
100
AcDbBlockEnd
  0
BLOCK
  5
DE
100
AcDbEntity
  8
notes
390
0
100
AcDbBlockBegin
  2
*D13
 70
               1
 10
0.0
 20
0.0
 30
0.0
  3
*D13
  1

  0
LINE
  5
DF
100
AcDbEntity
  8
0
370
              -2
390
0
  6
Continuous
 62
               0
100
AcDbLine
 10
355.09875092897164
 20
-462.01032298022233
 30
0.0
 11
271.70146395808115
 21
-462.01032298022233
 31
0.0
  0
LINE
  5
E0
100
AcDbEntity
  8
0
370
              -2
390
0
  6
Continuous
 62
               0
100
AcDbLine
 10
522.83536204376969
 20
-597.01032298022005
 30
0.0
 11
271.70146395808115
 21
-597.01032298022005
 31
0.0
  0
LINE
  5
E1
100
AcDbEntity
  8
0
370
              -2
390
0
  6
Continuous
 62
               0
100
AcDbLine
 10
271.70146395808115
 20
-462.01032298022233
 30
0.0
 11
271.70146395808115
 21
-597.01032298022005
 31
0.0
  0
CIRCLE
  5
E2
102
{ACAD_REACTORS
330
E3
102
}
100
AcDbEntity
  8
0
370
              -2
390
0
  6
Continuous
 62
               0
100
AcDbCircle
 10
271.70146395808115
 20
-462.01032298022233
 30
0.0
 40
1.9998779296875
  0
HATCH
  5
E3
100
AcDbEntity
  8
0
370
              -2
390
0
  6
Continuous
 62
               0
100
AcDbHatch
 10
0.0
 20
0.0
 30
0.0
210
0.0
220
0.0
230
1.0
  2
SOLID
 70
               1
 71
               1
 91
        1
 92
        1
 93
        1
 72
               2
 10
271.70146395808115
 20
-462.01032298022233
 40
1.9998779296875
 50
0.0
 51
360.0
 73
               0
 97
        1
330
E2
 75
               0
 76
               1
 98
        1
 10
0.0
 20
0.0
  0
CIRCLE
  5
E4
102
{ACAD_REACTORS
330
E5
102
}
100
AcDbEntity
  8
0
370
              -2
390
0
  6
Continuous
 62
               0
100
AcDbCircle
 10
271.70146395808115
 20
-597.01032298022005
 30
0.0
 40
1.9998779296875
  0
HATCH
  5
E5
100
AcDbEntity
  8
0
370
              -2
390
0
  6
Continuous
 62
               0
100
AcDbHatch
 10
0.0
 20
0.0
 30
0.0
210
0.0
220
0.0
230
1.0
  2
SOLID
 70
               1
 71
               1
 91
        1
 92
        1
 93
        1
 72
               2
 10
271.70146395808115
 20
-597.01032298022005
 40
1.9998779296875
 50
0.0
 51
360.0
 73
               0
 97
        1
330
E4
 75
               0
 76
               1
 98
        1
 10
0.0
 20
0.0
  0
MTEXT
  5
E6
100
AcDbEntity
  8
0
390
0
 62
               0
100
AcDbMText
 10
237.82384677058121
 20
-553.32282466239667
 30
0.0
 40
24.432617187500004
 41
0.0
 71
               1
 72
               1
  1
135
  7
ＭＳ ゴシック
 11
0.0
 21
1.0
 31
0.0
 73
               1
 44
0.7828267384257843
  0
POINT
  5
E7
100
AcDbEntity
  8
Defpoints
370
               0
390
0
 62
               0
100
AcDbPoint
 10
547.83536204376969
 20
-597.01032298022005
 30
0.0
  0
POINT
  5
E8
100
AcDbEntity
  8
Defpoints
370
               0
390
0
 62
               0
100
AcDbPoint
 10
380.09875092897164
 20
-462.01032298022233
 30
0.0
  0
POINT
  5
E9
100
AcDbEntity
  8
Defpoints
370
               0
390
0
 62
               0
100
AcDbPoint
 10
271.70146395808115
 20
-462.01032298022233
 30
0.0
  0
ENDBLK
  5
EA
100
AcDbEntity
  8
notes
390
0
100
AcDbBlockEnd
  0
BLOCK
  5
EB
100
AcDbEntity
  8
notes
390
0
100
AcDbBlockBegin
  2
*D14
 70
               1
 10
0.0
 20
0.0
 30
0.0
  3
*D14
  1

  0
LINE
  5
EC
100
AcDbEntity
  8
0
370
              -2
390
0
  6
Continuous
 62
               0
100
AcDbLine
 10
520.83536204376969
 20
-597.01032298022005
 30
0.0
 11
271.70146395808115
 21
-597.01032298022005
 31
0.0
  0
LINE
  5
ED
100
AcDbEntity
  8
0
370
              -2
390
0
  6
Continuous
 62
               0
100
AcDbLine
 10
587.33154442815658
 20
-602.01032298022005
 30
0.0
 11
271.70146395808115
 21
-602.01032298022005
 31
0.0
  0
LINE
  5
EE
100
AcDbEntity
  8
0
370
              -2
390
0
  6
Continuous
 62
               0
100
AcDbLine
 10
271.70146395808115
 20
-602.01032298022005
 30
0.0
 11
271.70146395808115
 21
-621.88093752518307
 31
0.0
  0
LINE
  5
EF
100
AcDbEntity
  8
0
370
              -2
390
0
  6
Continuous
 62
               0
100
AcDbLine
 10
271.70146395808115
 20
-597.01032298022005
 30
0.0
 11
271.70146395808115
 21
-602.01032298022005
 31
0.0
  0
CIRCLE
  5
F0
102
{ACAD_REACTORS
330
F1
102
}
100
AcDbEntity
  8
0
370
              -2
390
0
  6
Continuous
 62
               0
100
AcDbCircle
 10
271.70146395808115
 20
-597.01032298022005
 30
0.0
 40
1.9998779296875
  0
HATCH
  5
F1
100
AcDbEntity
  8
0
370
              -2
390
0
  6
Continuous
 62
               0
100
AcDbHatch
 10
0.0
 20
0.0
 30
0.0
210
0.0
220
0.0
230
1.0
  2
SOLID
 70
               1
 71
               1
 91
        1
 92
        1
 93
        1
 72
               2
 10
271.70146395808115
 20
-597.01032298022005
 40
1.9998779296875
 50
0.0
 51
360.0
 73
               0
 97
        1
330
F0
 75
               0
 76
               1
 98
        1
 10
0.0
 20
0.0
  0
CIRCLE
  5
F2
102
{ACAD_REACTORS
330
F3
102
}
100
AcDbEntity
  8
0
370
              -2
390
0
  6
Continuous
 62
               0
100
AcDbCircle
 10
271.70146395808115
 20
-602.01032298022005
 30
0.0
 40
1.9998779296875
  0
HATCH
  5
F3
100
AcDbEntity
  8
0
370
              -2
390
0
  6
Continuous
 62
               0
100
AcDbHatch
 10
0.0
 20
0.0
 30
0.0
210
0.0
220
0.0
230
1.0
  2
SOLID
 70
               1
 71
               1
 91
        1
 92
        1
 93
        1
 72
               2
 10
271.70146395808115
 20
-602.01032298022005
 40
1.9998779296875
 50
0.0
 51
360.0
 73
               0
 97
        1
330
F2
 75
               0
 76
               1
 98
        1
 10
0.0
 20
0.0
  0
MTEXT
  5
F4
100
AcDbEntity
  8
0
390
0
 62
               0
100
AcDbMText
 10
237.82384677058121
 20
-621.88093752518307
 30
0.0
 40
24.432617187500004
 41
0.0
 71
               1
 72
               1
  1
5
  7
ＭＳ ゴシック
 11
0.0
 21
1.0
 31
0.0
 73
               1
 44
0.7828267384257843
  0
POINT
  5
F5
100
AcDbEntity
  8
Defpoints
370
               0
390
0
 62
               0
100
AcDbPoint
 10
612.33154442815658
 20
-602.01032298022005
 30
0.0
  0
POINT
  5
F6
100
AcDbEntity
  8
Defpoints
370
               0
390
0
 62
               0
100
AcDbPoint
 10
545.83536204376969
 20
-597.01032298022005
 30
0.0
  0
POINT
  5
F7
100
AcDbEntity
  8
Defpoints
370
               0
390
0
 62
               0
100
AcDbPoint
 10
271.70146395808115
 20
-597.01032298022005
 30
0.0
  0
ENDBLK
  5
F8
100
AcDbEntity
  8
notes
390
0
100
AcDbBlockEnd
  0
BLOCK
  5
F9
100
AcDbEntity
  8
notes
390
0
100
AcDbBlockBegin
  2
*D15
 70
               1
 10
0.0
 20
0.0
 30
0.0
  3
*D15
  1

  0
LINE
  5
FA
100
AcDbEntity
  8
0
370
              -2
390
0
  6
Continuous
 62
               0
100
AcDbLine
 10
-46.213142054334639
 20
-392.01032298022005
 30
0.0
 11
33.524819049249345
 21
-392.01032298022005
 31
0.0
  0
LINE
  5
FB
100
AcDbEntity
  8
0
370
              -2
390
0
  6
Continuous
 62
               0
100
AcDbLine
 10
-356.15039923052086
 20
-602.01032298022005
 30
0.0
 11
33.524819049249345
 21
-602.01032298022005
 31
0.0
  0
LINE
  5
FC
100
AcDbEntity
  8
0
370
              -2
390
0
  6
Continuous
 62
               0
100
AcDbLine
 10
33.524819049249345
 20
-392.01032298022005
 30
0.0
 11
33.524819049249345
 21
-602.01032298022005
 31
0.0
  0
CIRCLE
  5
FD
102
{ACAD_REACTORS
330
FE
102
}
100
AcDbEntity
  8
0
370
              -2
390
0
  6
Continuous
 62
               0
100
AcDbCircle
 10
33.524819049249345
 20
-392.01032298022005
 30
0.0
 40
1.9998779296875
  0
HATCH
  5
FE
100
AcDbEntity
  8
0
370
              -2
390
0
  6
Continuous
 62
               0
100
AcDbHatch
 10
0.0
 20
0.0
 30
0.0
210
0.0
220
0.0
230
1.0
  2
SOLID
 70
               1
 71
               1
 91
        1
 92
        1
 93
        1
 72
               2
 10
33.524819049249345
 20
-392.01032298022005
 40
1.9998779296875
 50
0.0
 51
360.0
 73
               0
 97
        1
330
FD
 75
               0
 76
               1
 98
        1
 10
0.0
 20
0.0
  0
CIRCLE
  5
FF
102
{ACAD_REACTORS
330
100
102
}
100
AcDbEntity
  8
0
370
              -2
390
0
  6
Continuous
 62
               0
100
AcDbCircle
 10
33.524819049249345
 20
-602.01032298022005
 30
0.0
 40
1.9998779296875
  0
HATCH
  5
100
100
AcDbEntity
  8
0
370
              -2
390
0
  6
Continuous
 62
               0
100
AcDbHatch
 10
0.0
 20
0.0
 30
0.0
210
0.0
220
0.0
230
1.0
  2
SOLID
 70
               1
 71
               1
 91
        1
 92
        1
 93
        1
 72
               2
 10
33.524819049249345
 20
-602.01032298022005
 40
1.9998779296875
 50
0.0
 51
360.0
 73
               0
 97
        1
330
FF
 75
               0
 76
               1
 98
        1
 10
0.0
 20
0.0
  0
MTEXT
  5
101
100
AcDbEntity
  8
0
390
0
 62
               0
100
AcDbMText
 10
-0.3527981382505914
 20
-520.82282466239553
 30
0.0
 40
24.432617187500004
 41
0.0
 71
               1
 72
               1
  1
210
  7
ＭＳ ゴシック
 11
0.0
 21
1.0
 31
0.0
 73
               1
 44
0.7828267384257843
  0
POINT
  5
102
100
AcDbEntity
  8
Defpoints
370
               0
390
0
 62
               0
100
AcDbPoint
 10
-381.15039923052086
 20
-602.01032298022005
 30
0.0
  0
POINT
  5
103
100
AcDbEntity
  8
Defpoints
370
               0
390
0
 62
               0
100
AcDbPoint
 10
-71.213142054334639
 20
-392.01032298022005
 30
0.0
  0
POINT
  5
104
100
AcDbEntity
  8
Defpoints
370
               0
390
0
 62
               0
100
AcDbPoint
 10
33.524819049249345
 20
-392.01032298022005
 30
0.0
  0
ENDBLK
  5
105
100
AcDbEntity
  8
notes
390
0
100
AcDbBlockEnd
  0
BLOCK
  5
106
100
AcDbEntity
  8
notes
390
0
100
AcDbBlockBegin
  2
*D16
 70
               1
 10
0.0
 20
0.0
 30
0.0
  3
*D16
  1

  0
LINE
  5
107
100
AcDbEntity
  8
0
370
              -2
390
0
  6
Continuous
 62
               0
100
AcDbLine
 10
871.33171735850965
 20
-622.01032298022005
 30
0.0
 11
871.33171735850965
 21
-702.01032298022005
 31
0.0
  0
LINE
  5
108
100
AcDbEntity
  8
0
370
              -2
390
0
  6
Continuous
 62
               0
100
AcDbLine
 10
646.33171735850965
 20
-627.01032298022005
 30
0.0
 11
646.33171735850965
 21
-702.01032298022005
 31
0.0
  0
LINE
  5
109
100
AcDbEntity
  8
0
370
              -2
390
0
  6
Continuous
 62
               0
100
AcDbLine
 10
871.33171735850965
 20
-702.01032298022005
 30
0.0
 11
646.33171735850965
 21
-702.01032298022005
 31
0.0
  0
CIRCLE
  5
10A
102
{ACAD_REACTORS
330
10B
102
}
100
AcDbEntity
  8
0
370
              -2
390
0
  6
Continuous
 62
               0
100
AcDbCircle
 10
871.33171735850965
 20
-702.01032298022005
 30
0.0
 40
1.9998779296875
  0
HATCH
  5
10B
100
AcDbEntity
  8
0
370
              -2
390
0
  6
Continuous
 62
               0
100
AcDbHatch
 10
0.0
 20
0.0
 30
0.0
210
0.0
220
0.0
230
1.0
  2
SOLID
 70
               1
 71
               1
 91
        1
 92
        1
 93
        1
 72
               2
 10
871.33171735850965
 20
-702.01032298022005
 40
1.9998779296875
 50
0.0
 51
360.0
 73
               0
 97
        1
330
10A
 75
               0
 76
               1
 98
        1
 10
0.0
 20
0.0
  0
CIRCLE
  5
10C
102
{ACAD_REACTORS
330
10D
102
}
100
AcDbEntity
  8
0
370
              -2
390
0
  6
Continuous
 62
               0
100
AcDbCircle
 10
646.33171735850965
 20
-702.01032298022005
 30
0.0
 40
1.9998779296875
  0
HATCH
  5
10D
100
AcDbEntity
  8
0
370
              -2
390
0
  6
Continuous
 62
               0
100
AcDbHatch
 10
0.0
 20
0.0
 30
0.0
210
0.0
220
0.0
230
1.0
  2
SOLID
 70
               1
 71
               1
 91
        1
 92
        1
 93
        1
 72
               2
 10
646.33171735850965
 20
-702.01032298022005
 40
1.9998779296875
 50
0.0
 51
360.0
 73
               0
 97
        1
330
10C
 75
               0
 76
               1
 98
        1
 10
0.0
 20
0.0
  0
MTEXT
  5
10E
100
AcDbEntity
  8
0
390
0
 62
               0
100
AcDbMText
 10
735.01921567633417
 20
-668.13270579272012
 30
0.0
 40
24.432617187500004
 41
0.0
 71
               1
 72
               1
  1
225
  7
ＭＳ ゴシック
 73
               1
 44
0.7828267384257843
  0
POINT
  5
10F
100
AcDbEntity
  8
Defpoints
370
               0
390
0
 62
               0
100
AcDbPoint
 10
646.33171735850965
 20
-602.01032298022005
 30
0.0
  0
POINT
  5
110
100
AcDbEntity
  8
Defpoints
370
               0
390
0
 62
               0
100
AcDbPoint
 10
871.33171735850965
 20
-597.01032298022005
 30
0.0
  0
POINT
  5
111
100
AcDbEntity
  8
Defpoints
370
               0
390
0
 62
               0
100
AcDbPoint
 10
871.33171735850965
 20
-702.01032298022005
 30
0.0
  0
ENDBLK
  5
112
100
AcDbEntity
  8
notes
390
0
100
AcDbBlockEnd
  0
BLOCK
  5
113
100
AcDbEntity
  8
notes
390
0
100
AcDbBlockBegin
  2
*D17
 70
               1
 10
0.0
 20
0.0
 30
0.0
  3
*D17
  1

  0
LINE
  5
114
100
AcDbEntity
  8
0
370
              -2
390
0
  6
Continuous
 62
               0
100
AcDbLine
 10
-403.83479608122934
 20
766.32667836877374
 30
0.0
 11
-317.93474184567549
 21
853.04117462935392
 31
0.0
  0
CIRCLE
  5
115
102
{ACAD_REACTORS
330
116
102
}
100
AcDbEntity
  8
0
370
              -2
390
0
  6
Continuous
 62
               0
100
AcDbCircle
 10
-403.83479608122934
 20
766.32667836877374
 30
0.0
 40
1.9998779296875
  0
HATCH
  5
116
100
AcDbEntity
  8
0
370
              -2
390
0
  6
Continuous
 62
               0
100
AcDbHatch
 10
0.0
 20
0.0
 30
0.0
210
0.0
220
0.0
230
1.0
  2
SOLID
 70
               1
 71
               1
 91
        1
 92
        1
 93
        1
 72
               2
 10
-403.83479608122934
 20
766.32667836877374
 40
1.9998779296875
 50
0.0
 51
360.0
 73
               0
 97
        1
330
115
 75
               0
 76
               1
 98
        1
 10
0.0
 20
0.0
  0
LINE
  5
117
100
AcDbEntity
  8
0
370
              -2
390
0
  6
Continuous
 62
               0
100
AcDbLine
 10
-317.93474184567549
 20
853.04117462935392
 30
0.0
 11
-194.43474184567549
 21
853.04117462935392
 31
0.0
  0
MTEXT
  5
118
100
AcDbEntity
  8
0
390
0
 62
               0
100
AcDbMText
 10
-257.93474184567549
 20
886.91879181685385
 30
0.0
 40
24.432617187500004
 41
0.0
 71
               1
 72
               1
  1
φ35
  7
ＭＳ ゴシック
 73
               1
 44
0.7828267384257843
  0
POINT
  5
119
100
AcDbEntity
  8
Defpoints
370
               0
390
0
 62
               0
100
AcDbPoint
 10
-428.46648802743766
 20
741.46144658086189
 30
0.0
  0
POINT
  5
11A
100
AcDbEntity
  8
Defpoints
370
               0
390
0
 62
               0
100
AcDbPoint
 10
-403.83479608122934
 20
766.32667836877374
 30
0.0
  0
ENDBLK
  5
11B
100
AcDbEntity
  8
notes
390
0
100
AcDbBlockEnd
  0
BLOCK
  5
11C
100
AcDbEntity
  8
notes
390
0
100
AcDbBlockBegin
  2
*D18
 70
               1
 10
0.0
 20
0.0
 30
0.0
  3
*D18
  1

  0
LINE
  5
11D
100
AcDbEntity
  8
0
370
              -2
390
0
  6
Continuous
 62
               0
100
AcDbLine
 10
630.48358054711161
 20
-557.01032298022005
 30
0.0
 11
630.54960076947918
 21
-557.01032298022005
 31
0.0
  0
LINE
  5
11E
100
AcDbEntity
  8
0
370
              -2
390
0
  6
Continuous
 62
               0
100
AcDbLine
 10
630.48358054711161
 20
-392.01032298022005
 30
0.0
 11
630.54960076947918
 21
-392.01032298022005
 31
0.0
  0
LINE
  5
11F
100
AcDbEntity
  8
0
370
              -2
390
0
  6
Continuous
 62
               0
100
AcDbLine
 10
630.54960076947918
 20
-392.01032298022005
 30
0.0
 11
630.54960076947918
 21
-242.13093752518307
 31
0.0
  0
LINE
  5
120
100
AcDbEntity
  8
0
370
              -2
390
0
  6
Continuous
 62
               0
100
AcDbLine
 10
630.54960076947918
 20
-557.01032298022005
 30
0.0
 11
630.54960076947918
 21
-392.01032298022005
 31
0.0
  0
CIRCLE
  5
121
102
{ACAD_REACTORS
330
122
102
}
100
AcDbEntity
  8
0
370
              -2
390
0
  6
Continuous
 62
               0
100
AcDbCircle
 10
630.54960076947918
 20
-557.01032298022005
 30
0.0
 40
1.9998779296875
  0
HATCH
  5
122
100
AcDbEntity
  8
0
370
              -2
390
0
  6
Continuous
 62
               0
100
AcDbHatch
 10
0.0
 20
0.0
 30
0.0
210
0.0
220
0.0
230
1.0
  2
SOLID
 70
               1
 71
               1
 91
        1
 92
        1
 93
        1
 72
               2
 10
630.54960076947918
 20
-557.01032298022005
 40
1.9998779296875
 50
0.0
 51
360.0
 73
               0
 97
        1
330
121
 75
               0
 76
               1
 98
        1
 10
0.0
 20
0.0
  0
CIRCLE
  5
123
102
{ACAD_REACTORS
330
124
102
}
100
AcDbEntity
  8
0
370
              -2
390
0
  6
Continuous
 62
               0
100
AcDbCircle
 10
630.54960076947918
 20
-392.01032298022005
 30
0.0
 40
1.9998779296875
  0
HATCH
  5
124
100
AcDbEntity
  8
0
370
              -2
390
0
  6
Continuous
 62
               0
100
AcDbHatch
 10
0.0
 20
0.0
 30
0.0
210
0.0
220
0.0
230
1.0
  2
SOLID
 70
               1
 71
               1
 91
        1
 92
        1
 93
        1
 72
               2
 10
630.54960076947918
 20
-392.01032298022005
 40
1.9998779296875
 50
0.0
 51
360.0
 73
               0
 97
        1
330
123
 75
               0
 76
               1
 98
        1
 10
0.0
 20
0.0
  0
MTEXT
  5
125
100
AcDbEntity
  8
0
390
0
 62
               0
100
AcDbMText
 10
596.67198358197913
 20
-385.00593752518307
 30
0.0
 40
24.432617187500004
 41
0.0
 71
               1
 72
               1
  1
165(深さ)
  7
ＭＳ ゴシック
 11
0.0
 21
1.0
 31
0.0
 73
               1
 44
0.7828267384257843
  0
POINT
  5
126
100
AcDbEntity
  8
Defpoints
370
               0
390
0
 62
               0
100
AcDbPoint
 10
655.48358054711161
 20
-392.01032298022005
 30
0.0
  0
POINT
  5
127
100
AcDbEntity
  8
Defpoints
370
               0
390
0
 62
               0
100
AcDbPoint
 10
655.48358054711161
 20
-557.01032298022005
 30
0.0
  0
POINT
  5
128
100
AcDbEntity
  8
Defpoints
370
               0
390
0
 62
               0
100
AcDbPoint
 10
630.54960076947918
 20
-557.01032298022005
 30
0.0
  0
ENDBLK
  5
129
100
AcDbEntity
  8
notes
390
0
100
AcDbBlockEnd
  0
ENDSEC
  0
SECTION
  2
ENTITIES
  0
MTEXT
  5
12A
100
AcDbEntity
  8
template
390
0
 62
               7
100
AcDbMText
 10
-967.99999999975944
 20
-1147.4176292336999
 30
0.0
 40
16.288411458333332
 41
0.0
 71
               1
 72
               1
  1
品名
  7
ＭＳ ゴシック
 73
               1
 44
0.7828267384257843
  0
MTEXT
  5
12B
100
AcDbEntity
  8
template
390
0
 62
               7
100
AcDbMText
 10
-967.99999999975944
 20
-1232.4176292336999
 30
0.0
 40
16.288411458333332
 41
0.0
 71
               1
 72
               1
  1
仕様
  7
ＭＳ ゴシック
 73
               1
 44
0.7828267384257843
  0
LINE
  5
12C
100
AcDbEntity
  8
template
370
               5
390
0
  6
Continuous
 62
               7
100
AcDbLine
 10
974.99999999975876
 20
-1224.0027073587
 30
0.0
 11
-975.00000000024147
 21
-1224.0027073587
 31
0.0
  0
LWPOLYLINE
  5
12D
100
AcDbEntity
  8
template
370
               5
390
0
  6
Continuous
 62
               7
100
AcDbPolyline
 90
        5
 70
             128
 10
975.00000000024124
 20
1405.9972926412995
 10
-974.99999999975944
 20
1405.9972926412995
 10
-974.99999999975944
 20
-1394.0027073587
 10
975.00000000024124
 20
-1394.0027073587
 10
975.00000000024124
 20
1405.9972926412995
  0
LINE
  5
12E
100
AcDbEntity
  8
template
370
               5
390
0
  6
Continuous
 62
               7
100
AcDbLine
 10
974.99999999975876
 20
-1139.0027073587
 30
0.0
 11
-975.00000000024147
 21
-1139.0027073587
 31
0.0
  0
LINE
  5
12F
100
AcDbEntity
  8
template
370
               5
390
0
  6
Continuous
 62
               7
100
AcDbLine
 10
975.00000000024124
 20
-1309.0027073587
 30
0.0
 11
222.00000000024124
 21
-1309.0027073587
 31
0.0
  0
MTEXT
  5
130
100
AcDbEntity
  8
template
390
0
 62
               7
100
AcDbMText
 10
-974.99999999955571
 20
-1405.8565294155571
 30
0.0
 40
21.717881944444446
 41
0.0
 71
               1
 72
               1
  1
100709SH
  7
ＭＳ ゴシック
 73
               1
 44
0.7828267384257843
  0
MTEXT
  5
131
100
AcDbEntity
  8
template
390
0
 62
               7
100
AcDbMText
 10
251.87140625250095
 20
-1338.9131018320074
 30
0.0
 40
24.432617187500004
 41
0.0
 71
               1
 72
               1
  1
大洋金物株式会社 ティーフォルム事業部
  7
ＭＳ ゴシック
 73
               1
 44
0.7828267384257843
  0
INSERT
  5
132
100
AcDbEntity
  8
template
390
0
 62
               7
100
AcDbBlockReference
  2
グループ
 10
1607.2145521139041
 20
1043.8051737479861
 30
0.0
  0
MTEXT
  5
133
100
AcDbEntity
  8
template
390
0
 62
               7
100
AcDbMText
 10
784.00000000049999
 20
-1261.0000901711999
 30
0.0
 40
24.432617187500004
 41
0.0
 71
               1
 72
               1
  1
1:10
  7
ＭＳ ゴシック
 73
               1
 44
0.7828267384257843
  0
MTEXT
  5
134
100
AcDbEntity
  8
template
390
0
 62
               7
100
AcDbMText
 10
731.00000000049999
 20
-1232.4176292336999
 30
0.0
 40
16.288411458333332
 41
0.0
 71
               1
 72
               1
  1
縮尺
  7
ＭＳ ゴシック
 73
               1
 44
0.7828267384257843
  0
LINE
  5
135
100
AcDbEntity
  8
template
370
               5
390
0
  6
Continuous
 62
               7
100
AcDbLine
 10
724.00000000049999
 20
-1309.0027073587
 30
0.0
 11
724.00000000049999
 21
-1224.0027073587
 31
0.0
  0
MTEXT
  5
136
100
AcDbEntity
  8
template
390
0
 62
               7
100
AcDbMText
 10
480.00000000049999
 20
-1232.4176292336999
 30
0.0
 40
16.288411458333332
 41
0.0
 71
               1
 72
               1
  1
容量
  7
ＭＳ ゴシック
 73
               1
 44
0.7828267384257843
  0
MTEXT
  5
137
100
AcDbEntity
  8
template
390
0
 62
               7
100
AcDbMText
 10
533.00000000049999
 20
-1261.0000901711999
 30
0.0
 40
24.432617187500004
 41
0.0
 71
               1
 72
               1
  1
6.8L
  7
ＭＳ ゴシック
 73
               1
 44
0.7828267384257843
  0
LINE
  5
138
100
AcDbEntity
  8
template
370
               5
390
0
  6
Continuous
 62
               7
100
AcDbLine
 10
473.00000000049999
 20
-1309.0027073587
 30
0.0
 11
473.00000000049999
 21
-1224.0027073587
 31
0.0
  0
MTEXT
  5
139
100
AcDbEntity
  8
template
390
0
 62
               7
100
AcDbMText
 10
229.00000000049999
 20
-1147.4176292336999
 30
0.0
 40
16.288411458333332
 41
0.0
 71
               1
 72
               1
  1
品番
  7
ＭＳ ゴシック
 73
               1
 44
0.7828267384257843
  0
MTEXT
  5
13A
100
AcDbEntity
  8
template
390
0
 62
               7
100
AcDbMText
 10
229.00000000049999
 20
-1232.4176292336999
 30
0.0
 40
16.288411458333332
 41
0.0
 71
               1
 72
               1
  1
重量
  7
ＭＳ ゴシック
 73
               1
 44
0.7828267384257843
  0
MTEXT
  5
13B
100
AcDbEntity
  8
template
390
0
 62
               7
100
AcDbMText
 10
282.00000000049999
 20
-1176.0000901711999
 30
0.0
 40
24.432617187500004
 41
0.0
 71
               1
 72
               1
  1
ARJ70-0032
  7
ＭＳ ゴシック
 73
               1
 44
0.7828267384257843
  0
MTEXT
  5
13C
100
AcDbEntity
  8
template
390
0
 62
               7
100
AcDbMText
 10
282.00000000049999
 20
-1261.0000901711999
 30
0.0
 40
24.432617187500004
 41
0.0
 71
               1
 72
               1
  1
23kg
  7
ＭＳ ゴシック
 73
               1
 44
0.7828267384257843
  0
LINE
  5
13D
100
AcDbEntity
  8
template
370
               5
390
0
  6
Continuous
 62
               7
100
AcDbLine
 10
222.00000000049999
 20
-1394.0027073587
 30
0.0
 11
222.00000000049999
 21
-1139.0027073587
 31
0.0
  0
MTEXT
  5
13E
100
AcDbEntity
  8
template
390
0
 62
               7
100
AcDbMText
 10
-914.99999999975944
 20
-1176.0000901711999
 30
0.0
 40
24.432617187500004
 41
0.0
 71
               1
 72
               1
  1
洗面器 -POZZI GINORI,500-
  7
ＭＳ ゴシック
 73
               1
 44
0.7828267384257843
  0
MTEXT
  5
13F
100
AcDbEntity
  8
template
390
0
 62
               7
100
AcDbMText
 10
-914.99999999975944
 20
-1261.0000901711999
 30
0.0
 40
24.432617187500004
 41
0.0
 71
               1
 72
               1
  1
壁掛け/オーバーフロー付き/壁取付ボルト付属/陶器/ホワイト
  7
ＭＳ ゴシック
 73
               1
 44
1.3047112307096407
  0
DIMENSION
  5
140
100
AcDbEntity
  8
notes
370
               5
390
0
  6
Continuous
 62
               7
100
AcDbDimension
  2
*D3
 10
-766.15064205433328
 20
923.91187490333198
 30
0.0
 11
-416.15064205433396
 21
923.91187490333198
 31
0.0
 71
               5
 72
               1
 41
1.0
 42
0.0
  3
tform線あり
100
AcDbAlignedDimension
 13
-66.150642054334639
 23
818.91187490333198
 33
0.0
 14
-766.15064205433328
 24
818.91187490333198
 34
0.0
100
AcDbRotatedDimension
1001
ACAD
1000
DSTYLE
1002
{
1070
             279
1070
               2
1070
             340
1005
34
1070
             147
1040
5.0
1002
}
  0
DIMENSION
  5
141
100
AcDbEntity
  8
notes
370
               5
390
0
  6
Continuous
 62
               7
100
AcDbDimension
  2
*D4
 10
33.849357945665361
 20
323.91187490333095
 30
0.0
 11
33.849357945665361
 21
573.91187490333141
 31
0.0
 71
               5
 72
               1
 41
1.0
 42
0.0
  3
tform線あり
100
AcDbAlignedDimension
 13
-71.150642054333503
 23
823.91187490333198
 33
0.0
 14
-75.150642054333503
 24
323.91187490333095
 34
0.0
 50
90.0
100
AcDbRotatedDimension
1001
ACAD
1000
DSTYLE
1002
{
1070
             279
1070
               2
1070
             340
1005
34
1070
             147
1040
5.0
1002
}
  0
DIMENSION
  5
142
100
AcDbEntity
  8
notes
370
               5
390
0
  6
Continuous
 62
               7
100
AcDbDimension
  2
*D5
 10
871.33171735850965
 20
-292.01032298022005
 30
0.0
 11
836.33171735850965
 21
-292.01032298022005
 31
0.0
 71
               5
 72
               1
 41
1.0
 42
0.0
  3
tform線あり
100
AcDbAlignedDimension
 13
801.33171735850965
 23
-392.01032298022005
 33
0.0
 14
871.33171735850965
 24
-392.01032298022005
 34
0.0
100
AcDbRotatedDimension
1001
ACAD
1000
DSTYLE
1002
{
1070
             279
1070
               2
1070
             340
1005
34
1070
             147
1040
5.0
1002
}
  0
DIMENSION
  5
143
100
AcDbEntity
  8
notes
370
               5
390
0
  6
Continuous
 62
               7
100
AcDbDimension
  2
*D6
 10
-766.15064205433328
 20
223.91187490333095
 30
0.0
 11
-698.65064205433328
 21
223.91187490333095
 31
0.0
 71
               5
 72
               1
 41
1.0
 42
0.0
  3
tform線あり
100
AcDbAlignedDimension
 13
-631.15064205433373
 23
323.91187490333095
 33
0.0
 14
-766.15064205433328
 24
332.91187490333118
 34
0.0
100
AcDbRotatedDimension
1001
ACAD
1000
DSTYLE
1002
{
1070
             279
1070
               2
1070
             340
1005
34
1070
             147
1040
5.0
1002
}
  0
DIMENSION
  5
144
100
AcDbEntity
  8
notes
370
               5
390
0
  6
Continuous
 62
               7
100
AcDbDimension
  2
*D7
 10
-631.15064205433373
 20
223.91187490333095
 30
0.0
 11
-416.15064205433373
 21
223.91187490333095
 31
0.0
 71
               5
 72
               1
 41
1.0
 42
0.0
  3
tform線あり
100
AcDbAlignedDimension
 13
-201.1506420543335
 23
323.91187490333095
 33
0.0
 14
-631.15064205433373
 24
323.91187490333095
 34
0.0
100
AcDbRotatedDimension
1001
ACAD
1000
DSTYLE
1002
{
1070
             279
1070
               2
1070
             340
1005
34
1070
             147
1040
5.0
1002
}
  0
DIMENSION
  5
145
100
AcDbEntity
  8
notes
370
               5
390
0
  6
Continuous
 62
               7
100
AcDbDimension
  2
*D8
 10
-866.15064205433328
 20
393.91187490333095
 30
0.0
 11
-866.15064205433328
 21
541.41187490333027
 31
0.0
 71
               5
 72
               1
 41
1.0
 42
0.0
  3
tform線あり
100
AcDbAlignedDimension
 13
-766.15064205433328
 23
688.91187490332948
 33
0.0
 14
-766.15064205433328
 24
393.91187490333095
 34
0.0
 50
90.0
100
AcDbRotatedDimension
1001
ACAD
1000
DSTYLE
1002
{
1070
             279
1070
               2
1070
             340
1005
34
1070
             147
1040
5.0
1002
}
  0
DIMENSION
  5
146
100
AcDbEntity
  8
notes
370
               5
390
0
  6
Continuous
 62
               7
100
AcDbDimension
  2
*D9
 10
-866.15064205433328
 20
688.91187490332948
 30
0.0
 11
-866.15064205433328
 21
756.41187490333073
 31
0.0
 71
               5
 72
               1
 41
1.0
 42
0.0
  3
tform線あり
100
AcDbAlignedDimension
 13
-761.15064205433328
 23
823.91187490333198
 33
0.0
 14
-766.15064205433328
 24
688.91187490332948
 34
0.0
 50
90.0
100
AcDbRotatedDimension
1001
ACAD
1000
DSTYLE
1002
{
1070
             279
1070
               2
1070
             340
1005
34
1070
             147
1040
5.0
1002
}
  0
DIMENSION
  5
147
100
AcDbEntity
  8
notes
370
               5
390
0
  6
Continuous
 62
               7
100
AcDbDimension
  2
*D10
 10
-631.36534093681257
 20
-292.01032298022005
 30
0.0
 11
-416.36534093681257
 21
-292.01032298022005
 31
0.0
 71
               5
 72
               1
 41
1.0
 42
0.0
  3
tform線あり
100
AcDbAlignedDimension
 13
-201.36534093681257
 23
-422.01032298022005
 33
0.0
 14
-631.36534093681257
 24
-422.01032298022005
 34
0.0
100
AcDbRotatedDimension
1001
ACAD
1000
DSTYLE
1002
{
1070
             271
1070
               0
1070
             279
1070
               2
1070
             340
1005
34
1070
             147
1040
5.0
1002
}
  0
DIMENSION
  5
148
100
AcDbEntity
  8
notes
370
               5
390
0
  6
Continuous
 62
               7
100
AcDbDimension
  2
*D11
 10
-866.15064205433328
 20
-442.01032298022005
 30
0.0
 11
-866.15064205433328
 21
-417.01032298022005
 31
0.0
 71
               5
 72
               1
 41
1.0
 42
0.0
  3
tform線あり
100
AcDbAlignedDimension
 13
-761.21314205433373
 23
-392.01032298022005
 33
0.0
 14
-656.86534093681257
 24
-442.01032298022005
 34
0.0
 50
90.0
100
AcDbRotatedDimension
1001
ACAD
1000
DSTYLE
1002
{
1070
             279
1070
               2
1070
             340
1005
34
1070
             147
1040
5.0
1002
}
  0
DIMENSION
  5
149
100
AcDbEntity
  8
notes
370
               5
390
0
  6
Continuous
 62
               7
100
AcDbDimension
  2
*D12
 10
271.70146395808115
 20
-392.01032298022233
 30
0.0
 11
271.70146395808115
 21
-427.01032298022233
 31
0.0
 71
               5
 72
               1
 41
1.0
 42
0.0
  3
tform線あり
100
AcDbAlignedDimension
 13
380.09875092897164
 23
-462.01032298022233
 33
0.0
 14
376.69343021631948
 24
-392.01032298022233
 34
0.0
 50
90.0
100
AcDbRotatedDimension
1001
ACAD
1000
DSTYLE
1002
{
1070
             279
1070
               2
1070
             340
1005
34
1070
             147
1040
5.0
1002
}
  0
DIMENSION
  5
14A
100
AcDbEntity
  8
notes
370
               5
390
0
  6
Continuous
 62
               7
100
AcDbDimension
  2
*D13
 10
271.70146395808115
 20
-462.01032298022233
 30
0.0
 11
271.70146395808115
 21
-529.51032298022119
 31
0.0
 71
               5
 72
               1
 41
1.0
 42
0.0
  3
tform線あり
100
AcDbAlignedDimension
 13
547.83536204376969
 23
-597.01032298022005
 33
0.0
 14
380.09875092897164
 24
-462.01032298022233
 34
0.0
 50
90.0
100
AcDbRotatedDimension
1001
ACAD
1000
DSTYLE
1002
{
1070
             279
1070
               2
1070
             340
1005
34
1070
             147
1040
5.0
1002
}
  0
DIMENSION
  5
14B
100
AcDbEntity
  8
notes
370
               5
390
0
  6
Continuous
 62
               7
100
AcDbDimension
  2
*D14
 10
271.70146395808115
 20
-597.01032298022005
 30
0.0
 11
266.70146395808115
 21
-606.00593752518307
 31
0.0
 70
             128
 71
               5
 72
               1
 41
1.0
 42
0.0
  3
tform線あり
100
AcDbAlignedDimension
 13
612.33154442815658
 23
-602.01032298022005
 33
0.0
 14
545.83536204376969
 24
-597.01032298022005
 34
0.0
 50
90.0
100
AcDbRotatedDimension
1001
ACAD
1000
DSTYLE
1002
{
1070
             279
1070
               2
1070
             340
1005
34
1070
             174
1070
               0
1070
             147
1040
5.0
1002
}
  0
DIMENSION
  5
14C
100
AcDbEntity
  8
notes
370
               5
390
0
  6
Continuous
 62
               7
100
AcDbDimension
  2
*D15
 10
33.524819049249345
 20
-392.01032298022005
 30
0.0
 11
33.524819049249345
 21
-497.01032298022005
 31
0.0
 71
               5
 72
               1
 41
1.0
 42
0.0
  3
tform線あり
100
AcDbAlignedDimension
 13
-381.15039923052086
 23
-602.01032298022005
 33
0.0
 14
-71.213142054334639
 24
-392.01032298022005
 34
0.0
 50
90.0
100
AcDbRotatedDimension
1001
ACAD
1000
DSTYLE
1002
{
1070
             279
1070
               2
1070
             340
1005
34
1070
             147
1040
5.0
1002
}
  0
DIMENSION
  5
14D
100
AcDbEntity
  8
notes
370
               5
390
0
  6
Continuous
 62
               7
100
AcDbDimension
  2
*D16
 10
871.33171735850965
 20
-702.01032298022005
 30
0.0
 11
758.83171735850965
 21
-702.01032298022005
 31
0.0
 71
               5
 72
               1
 41
1.0
 42
0.0
  3
tform線あり
100
AcDbAlignedDimension
 13
646.33171735850965
 23
-602.01032298022005
 33
0.0
 14
871.33171735850965
 24
-597.01032298022005
 34
0.0
100
AcDbRotatedDimension
1001
ACAD
1000
DSTYLE
1002
{
1070
             279
1070
               2
1070
             340
1005
34
1070
             147
1040
5.0
1002
}
  0
DIMENSION
  5
14E
100
AcDbEntity
  8
notes
370
               5
390
0
  6
Continuous
 62
               7
100
AcDbDimension
  2
*D17
 10
-428.46648802743766
 20
741.46144658086189
 30
0.0
 11
-257.93474184567549
 21
853.04117462935392
 31
0.0
 70
               3
 71
               5
 72
               1
 41
1.0
 42
0.0
  3
tform線あり
100
AcDbDiametricDimension
 15
-403.83479608122934
 25
766.32667836877374
 35
0.0
 40
122.05827779957109
1001
ACAD
1000
DSTYLE
1002
{
1070
             289
1070
               0
1070
             342
1005
46
1070
             340
1005
34
1070
               3
1000

1070
             174
1070
               0
1070
             147
1040
5.0
1002
}
  0
DIMENSION
  5
14F
100
AcDbEntity
  8
notes
370
              15
390
0
  6
Continuous
 62
               7
100
AcDbDimension
  2
*D18
 10
630.54960076947918
 20
-557.01032298022005
 30
0.0
 11
625.54960076947918
 21
-385.00593752518307
 31
0.0
 70
             128
 71
               5
 72
               1
 41
1.0
 42
0.0
  3
tform線あり
100
AcDbAlignedDimension
 13
655.48358054711161
 23
-392.01032298022005
 33
0.0
 14
655.48358054711161
 24
-557.01032298022005
 34
0.0
 50
90.0
100
AcDbRotatedDimension
1001
ACAD
1000
DSTYLE
1002
{
1070
             279
1070
               2
1070
             340
1005
34
1070
               3
1000
<>(深さ)
1070
             174
1070
               0
1070
             147
1040
5.0
1002
}
  0
MTEXT
  5
150
100
AcDbEntity
  8
notes
390
0
 62
               7
100
AcDbMText
 10
-166.89721952705486
 20
-303.25203086828401
 30
0.0
 40
24.432617187500004
 41
0.0
 71
               1
 72
               1
  1
壁取付ボルト穴(2ヶ所)
  7
ＭＳ ゴシック
 73
               1
 44
0.7828267384257843
  0
LINE
  5
151
100
AcDbEntity
  8
notes
370
               5
390
0
  6
Continuous
 62
               7
100
AcDbLine
 10
-201.06094317185557
 20
-442.01032298022005
 30
0.0
 11
-150.45039923052082
 21
-346.56426597409722
 31
0.0
  0
ARC
  5
152
100
AcDbEntity
  8
ARJ70-0032
370
              15
390
0
  6
Continuous
 62
               7
100
AcDbCircle
 10
554.46830995305982
 20
-464.17582444150298
 30
0.0
 40
132.99999999999983
100
AcDbArc
 50
179.06707084982736
 51
267.14137115461142
  0
LINE
  5
153
100
AcDbEntity
  8
ARJ70-0032
370
              15
390
0
  6
Continuous
 62
               7
100
AcDbLine
 10
871.33171735850965
 20
-462.01032298022233
 30
0.0
 11
380.09879799434839
 21
-462.01032298022233
 31
0.0
  0
LINE
  5
154
100
AcDbEntity
  8
ARJ70-0032
370
              15
390
0
  6
Continuous
 62
               7
100
AcDbLine
 10
871.33171735850965
 20
-392.01032298022005
 30
0.0
 11
380.82350940584774
 21
-392.01032298022005
 31
0.0
  0
ARC
  5
155
100
AcDbEntity
  8
ARJ70-0032
370
              15
390
0
  6
STYLE_13
 62
               7
100
AcDbCircle
 10
621.71507788777762
 20
-376.15562688785735
 30
0.0
 40
181.18186618718337
100
AcDbArc
 50
186.46501163890204
 51
266.55624346781281
  0
LINE
  5
156
100
AcDbEntity
  8
ARJ70-0032
370
              15
390
0
  6
Continuous
 62
               7
100
AcDbLine
 10
-66.150642054334639
 20
818.91187490333198
 30
0.0
 11
-66.150642054334639
 21
332.91187490333118
 31
0.0
  0
LINE
  5
157
100
AcDbEntity
  8
ARJ70-0032
370
              15
390
0
  6
Continuous
 62
               7
100
AcDbLine
 10
-766.15064205433328
 20
332.91187490333118
 30
0.0
 11
-766.15064205433328
 21
818.91187490333198
 31
0.0
  0
LINE
  5
158
100
AcDbEntity
  8
ARJ70-0032
370
              15
390
0
  6
Continuous
 62
               7
100
AcDbLine
 10
-75.150642054333503
 20
323.91187490333095
 30
0.0
 11
-757.15064205433328
 21
323.91187490333095
 31
0.0
  0
LWPOLYLINE
  5
159
100
AcDbEntity
  8
ARJ70-0032
370
              15
390
0
  6
Continuous
 62
               7
100
AcDbPolyline
 90
        2
 70
             128
 10
-766.15064205433328
 20
332.91187490333118
 42
0.414213562373095
 10
-757.15064205433328
 20
323.91187490333095
  0
LINE
  5
15A
100
AcDbEntity
  8
ARJ70-0032
370
              15
390
0
  6
Continuous
 62
               7
100
AcDbLine
 10
-766.15064205433328
 20
332.91187490333118
 30
0.0
 11
-766.1506420472665
 21
332.91187490759535
 31
0.0
  0
LINE
  5
15B
100
AcDbEntity
  8
ARJ70-0032
370
              15
390
0
  6
Continuous
 62
               7
100
AcDbLine
 10
-757.15064205433328
 20
323.91187490333095
 30
0.0
 11
-757.15064204717646
 21
323.91187490750508
 31
0.0
  0
LWPOLYLINE
  5
15C
100
AcDbEntity
  8
ARJ70-0032
370
              15
390
0
  6
Continuous
 62
               7
100
AcDbPolyline
 90
        2
 70
             128
 10
-66.150642054334639
 20
332.91187490333118
 42
-0.4142135623731394
 10
-75.150642054333503
 20
323.91187490333095
  0
ARC
  5
15D
100
AcDbEntity
  8
ARJ70-0032
370
              15
390
0
  6
STYLE_13
 62
               7
100
AcDbCircle
 10
-390.6585053037486
 20
-369.76559882394417
 30
0.0
 40
187.62536722821002
100
AcDbArc
 50
273.65026393262491
 51
351.91921990525213
  0
LINE
  5
15E
100
AcDbEntity
  8
ARJ70-0032
370
              15
390
0
  6
Continuous
 62
               7
100
AcDbLine
 10
-759.59301009325964
 20
-462.01032298022233
 30
0.0
 11
-184.87629783761463
 21
-462.01032298022233
 31
0.0
  0
LINE
  5
15F
100
AcDbEntity
  8
ARJ70-0032
370
              15
390
0
  6
Continuous
 62
               7
100
AcDbLine
 10
-761.21314205433373
 20
-392.01032298022005
 30
0.0
 11
-71.213142054334639
 21
-392.01032298022005
 31
0.0
  0
LWPOLYLINE
  5
160
100
AcDbEntity
  8
ARJ70-0032
370
              15
390
0
  6
Continuous
 62
               7
100
AcDbPolyline
 90
        5
 70
             128
 10
-416.21314205433555
 20
-597.01032298022005
 10
-326.6959863874547
 20
-597.01032298022005
 10
-311.21314205433487
 20
-597.01032298022005
 42
0.3938770525527604
 10
-184.87278603653658
 20
-466.84049003302221
 10
-184.64262191747162
 20
-462.01032298022233
  0
LWPOLYLINE
  5
161
100
AcDbEntity
  8
ARJ70-0032
370
              15
390
0
  6
Continuous
 62
               7
100
AcDbPolyline
 90
        2
 70
             128
 10
-212.84461389638682
 20
474.76186869741014
 42
0.0651163285620555
 10
-201.1506420543335
 20
540.91187490333198
  0
LWPOLYLINE
  5
162
100
AcDbEntity
  8
ARJ70-0032
370
              15
390
0
  6
Continuous
 62
               7
100
AcDbPolyline
 90
        5
 70
             128
 10
-619.45667021228246
 20
474.76186869741127
 42
0.2830474772782927
 10
-545.89519998840842
 20
404.57052721949958
 42
0.0410064577907601
 10
-416.15064205433919
 20
393.91187490333095
 42
0.0410064577907618
 10
-286.40608412025995
 20
404.5705272194989
 42
0.2830474772782797
 10
-212.84461389638659
 20
474.76186869741105
  0
LWPOLYLINE
  5
163
100
AcDbEntity
  8
ARJ70-0032
370
              15
390
0
  6
Continuous
 62
               7
100
AcDbPolyline
 90
       13
 70
             128
 10
-201.1506420543335
 20
540.91187490333039
 42
0.0676605325106189
 10
-210.30531848838154
 20
608.25369491532933
 42
0.2792879491695083
 10
-285.14819190376102
 20
678.19758108373662
 10
-285.84832107773354
 20
678.3445251707758
 10
-286.67721840787272
 20
678.47988465698438
 42
0.0404900736155331
 10
-415.287599064608
 20
688.9118749033305
 10
-416.15064205433555
 20
688.91187490332948
 10
-417.01368504406742
 20
688.91187490332959
 42
0.040490073615531
 10
-545.62406570080793
 20
678.47988465698222
 10
-546.45296303093937
 20
678.34452517077489
 10
-547.1530922049069
 20
678.19758108373662
 42
0.2792879491695132
 10
-621.99596562028637
 20
608.25369491532888
 42
0.0675961136123635
 10
-631.15064205433373
 20
540.91187490333198
  0
LINE
  5
164
100
AcDbEntity
  8
ARJ70-0032
370
              15
390
0
  6
Continuous
 62
               7
100
AcDbLine
 10
-761.15064205433328
 20
823.91187490333198
 30
0.0
 11
-71.150642054333503
 21
823.91187490333198
 31
0.0
  0
LWPOLYLINE
  5
165
100
AcDbEntity
  8
ARJ70-0032
370
              15
390
0
  6
Continuous
 62
               7
100
AcDbPolyline
 90
        5
 70
             128
 10
-416.21314205433555
 20
-597.01032298022005
 10
-505.73029772121345
 20
-597.01032298022005
 10
-521.21314205433373
 20
-597.01032298022005
 42
-0.3938770525527613
 10
-647.55349807213133
 20
-466.84049003302221
 10
-647.78366219119744
 20
-462.01032298022233
  0
ARC
  5
166
100
AcDbEntity
  8
ARJ70-0032
370
              15
390
0
  6
STYLE_13
 62
               7
100
AcDbCircle
 10
-441.76777880492637
 20
-369.76559882394827
 30
0.0
 40
187.62536722821071
100
AcDbArc
 50
188.08078009474741
 51
266.34973606737492
  0
LWPOLYLINE
  5
167
100
AcDbEntity
  8
ARJ70-0032
370
              15
390
0
  6
Continuous
 62
               7
100
AcDbPolyline
 90
        2
 70
             128
 10
-766.15064205433328
 20
818.91187490333198
 42
-0.4142135623731018
 10
-761.15064205433328
 20
823.91187490333198
  0
LINE
  5
168
100
AcDbEntity
  8
ARJ70-0032
370
              15
390
0
  6
Continuous
 62
               7
100
AcDbLine
 10
-766.15064205433328
 20
806.02177653477213
 30
0.0
 11
-766.15064205433328
 21
814.91187490333198
 31
0.0
  0
LWPOLYLINE
  5
169
100
AcDbEntity
  8
ARJ70-0032
370
              15
390
0
  6
Continuous
 62
               7
100
AcDbPolyline
 90
        2
 70
             128
 10
-619.45667021228246
 20
474.76186869741105
 42
-0.0651163285620582
 10
-631.15064205433373
 20
540.91187490333198
  0
LINE
  5
16A
100
AcDbEntity
  8
ARJ70-0032
370
              15
390
0
  6
Continuous
 62
               7
100
AcDbLine
 10
-751.11393762022999
 20
823.91187490333198
 30
0.0
 11
-757.15064205433328
 21
823.91187490333198
 31
0.0
  0
CIRCLE
  5
16B
100
AcDbEntity
  8
ARJ70-0032
370
              15
390
0
  6
Continuous
 62
               7
100
AcDbCircle
 10
-416.1506420543335
 20
753.8940624748177
 30
0.0
 40
17.500000000000057
  0
CIRCLE
  5
16C
100
AcDbEntity
  8
ARJ70-0032
370
              15
390
0
  6
Continuous
 62
               7
100
AcDbCircle
 10
-416.1506420543335
 20
598.91187490333175
 30
0.0
 40
23.0
  0
CIRCLE
  5
16D
100
AcDbEntity
  8
ARJ70-0032
370
              15
390
0
  6
Continuous
 62
               7
100
AcDbCircle
 10
-416.1506420543335
 20
598.91187490333175
 30
0.0
 40
37.5
  0
LINE
  5
16E
100
AcDbEntity
  8
ARJ70-0032
370
              15
390
0
  6
STYLE_13
 62
               7
100
AcDbLine
 10
-453.71314205433464
 20
-557.01032298022005
 30
0.0
 11
-416.21314205433555
 21
-557.01032298022005
 31
0.0
  0
LINE
  5
16F
100
AcDbEntity
  8
ARJ70-0032
370
              15
390
0
  6
STYLE_13
 62
               7
100
AcDbLine
 10
-378.71314205433555
 20
-557.01032298022005
 30
0.0
 11
-416.21314205433555
 21
-557.01032298022005
 31
0.0
  0
LWPOLYLINE
  5
170
100
AcDbEntity
  8
ARJ70-0032
370
              15
390
0
  6
Continuous
 62
               7
100
AcDbPolyline
 90
        2
 70
             128
 10
-761.21314205433373
 20
-392.01032298022005
 42
0.414213562373095
 10
-766.21314205433373
 20
-397.01032298022005
  0
LINE
  5
171
100
AcDbEntity
  8
ARJ70-0032
370
              15
390
0
  6
Continuous
 62
               7
100
AcDbLine
 10
-766.02272896333307
 20
-395.64362119679731
 30
0.0
 11
-762.80663640093553
 21
-457.01032298021732
 31
0.0
  0
LINE
  5
172
100
AcDbEntity
  8
ARJ70-0032
370
              15
390
0
  6
STYLE_13
 62
               7
100
AcDbLine
 10
-631.36534093681257
 20
-462.01032298022005
 30
0.0
 11
-631.36534093681257
 21
-422.01032298022005
 31
0.0
  0
LWPOLYLINE
  5
173
100
AcDbEntity
  8
ARJ70-0032
370
              15
390
0
  6
Continuous
 62
               7
100
AcDbPolyline
 90
        2
 70
             128
 10
-757.54459750452088
 20
-462.8323069976866
 42
-0.1034052950130659
 10
-641.80782915717464
 20
-504.00016629681636
  0
LINE
  5
174
100
AcDbEntity
  8
ARJ70-0032
370
              15
390
0
  6
Continuous
 62
               7
100
AcDbLine
 10
-647.54962511732811
 20
-461.91439041304216
 30
0.0
 11
-699.25592412474725
 21
-461.91439041304216
 31
0.0
  0
ARC
  5
175
100
AcDbEntity
  8
ARJ70-0032
370
              15
390
0
  6
STYLE_13
 62
               7
100
AcDbCircle
 10
-632.45384797361839
 20
-397.01032298022005
 30
0.0
 40
5.0000000000000551
100
AcDbArc
 50
10.025024209699144
 51
90.0
  0
LINE
  5
176
100
AcDbEntity
  8
ARJ70-0032
370
              15
390
0
  6
STYLE_13
 62
               7
100
AcDbLine
 10
-647.55349807213497
 20
-461.84049003301129
 30
0.0
 11
-647.54962511732811
 21
-461.91439041304216
 31
0.0
  0
LWPOLYLINE
  5
177
100
AcDbEntity
  8
ARJ70-0032
370
              15
390
0
  6
Continuous
 62
               7
100
AcDbPolyline
 90
        2
 70
             128
 10
-762.80663640093553
 20
-457.01032298022005
 42
0.3191944428425725
 10
-757.54459750452588
 20
-462.83230699768615
  0
LINE
  5
178
100
AcDbEntity
  8
ARJ70-0032
370
              15
390
0
  6
Continuous
 62
               7
100
AcDbLine
 10
-589.15707276191415
 20
-392.01032298022005
 30
0.0
 11
-588.49245316290717
 21
-392.01032298022005
 31
0.0
  0
LINE
  5
179
100
AcDbEntity
  8
ARJ70-0032
370
              15
390
0
  6
STYLE_03
 62
               7
100
AcDbLine
 10
-455.59179643851257
 20
-462.01032298022233
 30
0.0
 11
-416.21314205433555
 21
-462.01032298022233
 31
0.0
  0
LINE
  5
17A
100
AcDbEntity
  8
ARJ70-0032
370
              15
390
0
  6
STYLE_03
 62
               7
100
AcDbLine
 10
-376.83448767015966
 20
-462.01032298022233
 30
0.0
 11
-416.2131420543376
 21
-462.01032298022233
 31
0.0
  0
LINE
  5
17B
100
AcDbEntity
  8
ARJ70-0032
370
              15
390
0
  6
Continuous
 62
               7
100
AcDbLine
 10
-243.26921134675672
 20
-392.01032298022005
 30
0.0
 11
-243.9338309457637
 21
-392.01032298022005
 31
0.0
  0
ARC
  5
17C
100
AcDbEntity
  8
ARJ70-0032
370
              15
390
0
  6
STYLE_13
 62
               7
100
AcDbCircle
 10
435.33934607167248
 20
-386.29412451666735
 30
0.0
 40
303.13437365424477
100
AcDbArc
 50
325.72468786099193
 51
346.99499489852127
  0
LINE
  5
17D
100
AcDbEntity
  8
ARJ70-0032
370
              15
390
0
  6
Continuous
 62
               7
100
AcDbLine
 10
871.33171735850965
 20
-392.01032298022005
 30
0.0
 11
871.33171735850965
 21
-597.01032298022005
 31
0.0
  0
LWPOLYLINE
  5
17E
100
AcDbEntity
  8
ARJ70-0032
370
              15
390
0
  6
Continuous
 62
               7
100
AcDbPolyline
 90
        2
 70
             128
 10
-66.150642054334639
 20
818.91187490333198
 42
0.4142135623730284
 10
-71.150642054333503
 20
823.91187490333198
  0
LINE
  5
17F
100
AcDbEntity
  8
ARJ70-0032
370
              15
390
0
  6
Continuous
 62
               7
100
AcDbLine
 10
-71.150642054333503
 20
823.91187490333198
 30
0.0
 11
-71.150642040316598
 21
823.91187491250605
 31
0.0
  0
LINE
  5
180
100
AcDbEntity
  8
ARJ70-0032
370
              15
390
0
  6
Continuous
 62
               7
100
AcDbLine
 10
-66.150642054334639
 20
818.91187490333198
 30
0.0
 11
-66.150642040267712
 21
818.91187491245603
 31
0.0
  0
LINE
  5
181
100
AcDbEntity
  8
ARJ70-0032
370
              15
390
0
  6
Continuous
 62
               7
100
AcDbLine
 10
680.3357451947345
 20
-597.01032298022005
 30
0.0
 11
871.33171735850965
 21
-597.01032298022005
 31
0.0
  0
ARC
  5
182
100
AcDbEntity
  8
ARJ70-0032
370
              15
390
0
  6
Continuous
 62
               7
100
AcDbCircle
 10
618.12898401521352
 20
-368.23913653294017
 30
0.0
 40
200.0000000000002
100
AcDbArc
 50
257.91089559223457
 51
266.10714223452663
  0
LINE
  5
183
100
AcDbEntity
  8
ARJ70-0032
370
              15
390
0
  6
Continuous
 62
               7
100
AcDbLine
 10
680.3357451947345
 20
-597.01032298022005
 30
0.0
 11
680.33189028886954
 21
-602.01032298022005
 31
0.0
  0
LINE
  5
184
100
AcDbEntity
  8
ARJ70-0032
370
              15
390
0
  6
STYLE_13
 62
               7
100
AcDbLine
 10
610.83171735850965
 20
-557.01032298022005
 30
0.0
 11
648.33171735850965
 21
-557.01032298022005
 31
0.0
  0
LINE
  5
185
100
AcDbEntity
  8
ARJ70-0032
370
              15
390
0
  6
Continuous
 62
               7
100
AcDbLine
 10
604.55079935601952
 20
-567.777686445884
 30
0.0
 11
612.31017148061846
 21
-574.2885727338064
 31
0.0
  0
LINE
  5
186
100
AcDbEntity
  8
ARJ70-0032
370
              15
390
0
  6
Continuous
 62
               7
100
AcDbLine
 10
612.33154442815658
 20
-602.01032298022005
 30
0.0
 11
646.33171735850965
 21
-602.01032298022005
 31
0.0
  0
LINE
  5
187
100
AcDbEntity
  8
ARJ70-0032
370
              15
390
0
  6
Continuous
 62
               7
100
AcDbLine
 10
612.32768952228844
 20
-597.01032298022005
 30
0.0
 11
612.33154442815658
 21
-602.01032298022005
 31
0.0
  0
LINE
  5
188
100
AcDbEntity
  8
ARJ70-0032
370
              15
390
0
  6
Continuous
 62
               7
100
AcDbLine
 10
612.32768952228844
 20
-597.01032298022005
 30
0.0
 11
612.31017148061846
 21
-574.2885727338064
 31
0.0
  0
LINE
  5
189
100
AcDbEntity
  8
ARJ70-0032
370
              15
390
0
  6
STYLE_13
 62
               7
100
AcDbLine
 10
685.83171735850965
 20
-557.01032298022005
 30
0.0
 11
648.33171735850965
 21
-557.01032298022005
 31
0.0
  0
LINE
  5
18A
100
AcDbEntity
  8
ARJ70-0032
370
              15
390
0
  6
Continuous
 62
               7
100
AcDbLine
 10
680.33189028886954
 20
-602.01032298022005
 30
0.0
 11
646.33171735850965
 21
-602.01032298022005
 31
0.0
  0
LINE
  5
18B
100
AcDbEntity
  8
ARJ70-0032
370
              15
390
0
  6
Continuous
 62
               7
100
AcDbLine
 10
545.83536204376969
 20
-597.01032298022005
 30
0.0
 11
556.81456169163266
 21
-597.01032298022005
 31
0.0
  0
ARC
  5
18C
100
AcDbEntity
  8
ARJ70-0032
370
              15
390
0
  6
Continuous
 62
               7
100
AcDbCircle
 10
574.56699905854657
 20
-571.62633737565716
 30
0.0
 40
7.9999999999999911
100
AcDbArc
 50
77.910895592233899
 51
160.00000000001074
  0
LINE
  5
18D
100
AcDbEntity
  8
ARJ70-0032
370
              15
390
0
  6
Continuous
 62
               7
100
AcDbLine
 10
567.04945809225774
 20
-568.89017622904998
 30
0.0
 11
556.81456169163266
 21
-597.01032298022005
 31
0.0
  0
LINE
  5
18E
100
AcDbEntity
  8
ARJ70-0032
370
              15
390
0
  6
Continuous
 62
               7
100
AcDbLine
 10
-66.475180950750655
 20
-397.01032298022005
 30
0.0
 11
-69.619647707732611
 21
-457.01032298022005
 31
0.0
  0
LWPOLYLINE
  5
18F
100
AcDbEntity
  8
ARJ70-0032
370
              15
390
0
  6
Continuous
 62
               7
100
AcDbPolyline
 90
        2
 70
             128
 10
-71.213142054334639
 20
-392.01032298022005
 42
-0.4527464784829616
 10
-66.475180950750655
 20
-397.01032298022005
  0
LINE
  5
190
100
AcDbEntity
  8
ARJ70-0032
370
              15
390
0
  6
Continuous
 62
               7
100
AcDbLine
 10
-69.881686604149536
 20
-457.01032298022005
 30
0.0
 11
-69.881686590119898
 21
-457.01032296067638
 31
0.0
  0
LINE
  5
191
100
AcDbEntity
  8
ARJ70-0032
370
              15
390
0
  6
Continuous
 62
               7
100
AcDbLine
 10
-74.881686604149536
 20
-462.01032298022233
 30
0.0
 11
-74.88168659016992
 21
-462.01032296072822
 31
0.0
  0
LINE
  5
192
100
AcDbEntity
  8
ARJ70-0032
370
              15
390
0
  6
Continuous
 62
               7
100
AcDbLine
 10
-71.213142054334639
 20
-392.01032298022005
 30
0.0
 11
-71.213142040318189
 21
-392.01032296002654
 31
0.0
  0
LINE
  5
193
100
AcDbEntity
  8
ARJ70-0032
370
              15
390
0
  6
Continuous
 62
               7
100
AcDbLine
 10
-71.213142054334639
 20
-392.01032298022005
 30
0.0
 11
-71.213142040318189
 21
-392.01032296002654
 31
0.0
  0
LWPOLYLINE
  5
194
100
AcDbEntity
  8
ARJ70-0032
370
              15
390
0
  6
Continuous
 62
               7
100
AcDbPolyline
 90
        2
 70
             128
 10
-69.619647707732383
 20
-457.01032298022051
 42
-0.3191944428425882
 10
-74.881686604145671
 20
-462.83230699768615
  0
LWPOLYLINE
  5
195
100
AcDbEntity
  8
ARJ70-0032
370
              15
390
0
  6
Continuous
 62
               7
100
AcDbPolyline
 90
        2
 70
             128
 10
-69.619647707732611
 20
-457.01032298022005
 42
-0.3785905564940551
 10
-74.881686604149536
 20
-462.01032298022233
  0
ARC
  5
196
100
AcDbEntity
  8
ARJ70-0032
370
              15
390
0
  6
STYLE_13
 62
               7
100
AcDbCircle
 10
-199.9724361350527
 20
-397.01032298022005
 30
0.0
 40
5.0
100
AcDbArc
 50
90.0
 51
169.97497579030085
  0
LINE
  5
197
100
AcDbEntity
  8
ARJ70-0032
370
              15
390
0
  6
STYLE_13
 62
               7
100
AcDbLine
 10
-184.87278603653954
 20
-461.84049003305131
 30
0.0
 11
-184.87665899134367
 21
-461.91439041304216
 31
0.0
  0
LWPOLYLINE
  5
198
100
AcDbEntity
  8
ARJ70-0032
370
              15
390
0
  6
Continuous
 62
               7
100
AcDbPolyline
 90
        2
 70
             128
 10
-74.881686604146125
 20
-462.83230699768615
 42
0.1034052950130672
 10
-190.6184549514935
 20
-504.00016629681636
  0
LINE
  5
199
100
AcDbEntity
  8
ARJ70-0032
370
              15
390
0
  6
Continuous
 62
               7
100
AcDbLine
 10
-74.881686604149536
 20
-462.01032298022233
 30
0.0
 11
-184.87629783761463
 21
-462.01032298022233
 31
0.0
  0
ARC
  5
19A
100
AcDbEntity
  8
ARJ70-0032
370
              15
390
0
  6
STYLE_13
 62
               7
100
AcDbCircle
 10
435.33934607167066
 20
-386.29412451666735
 30
0.0
 40
303.13437365424517
100
AcDbArc
 50
346.99499489852121
 51
351.8037302678876
  0
ARC
  5
19B
100
AcDbEntity
  8
ARJ70-0032
370
              15
390
0
  6
STYLE_13
 62
               7
100
AcDbCircle
 10
743.28661424492566
 20
-397.01032298022005
 30
0.0
 40
4.9999999999997726
100
AcDbArc
 50
90.0
 51
178.96227117051092
  0
LINE
  5
19C
100
AcDbEntity
  8
ARJ70-0032
370
              15
390
0
  6
Continuous
 62
               7
100
AcDbLine
 10
871.33171735850965
 20
-397.01032298022005
 30
0.0
 11
871.33171733887821
 21
-397.01032296007611
 31
0.0
  0
ARC
  5
19D
100
AcDbEntity
  8
ARJ70-0032
370
              15
390
0
  6
STYLE_13
 62
               7
100
AcDbCircle
 10
435.33934607167248
 20
-386.29412451666735
 30
0.0
 40
303.13437365424505
100
AcDbArc
 50
351.8037302678876
 51
357.99122311022205
  0
ARC
  5
19E
100
AcDbEntity
  8
ARJ70-0032
370
              15
390
0
  6
Continuous
 62
               7
100
AcDbCircle
 10
376.69343021631948
 20
-397.01032298022233
 30
0.0
 40
5.0
100
AcDbArc
 50
90.0
 51
183.24840170037032
  0
ARC
  5
19F
100
AcDbEntity
  8
ARJ70-0032
370
              15
390
0
  6
Continuous
 62
               7
100
AcDbCircle
 10
380.09879799434839
 20
-457.01032298022005
 30
0.0
 40
5.0000000000000355
100
AcDbArc
 50
183.24840170037024
 51
270.0
  0
LINE
  5
1A0
100
AcDbEntity
  8
ARJ70-0032
370
              15
390
0
  6
Continuous
 62
               7
100
AcDbLine
 10
371.70146395808069
 20
-397.29364766430103
 30
0.0
 11
375.10683173611051
 21
-457.29364766430103
 31
0.0
  0
ARC
  5
1A1
100
AcDbEntity
  8
ARJ70-0032
370
              15
390
0
  6
STYLE_13
 62
               7
100
AcDbCircle
 10
407.53088798876252
 20
-410.01032298022233
 30
0.0
 40
5.0000000000002274
100
AcDbArc
 50
90.000000000026063
 51
170.04937331201984
  0
ARC
  5
1A2
100
AcDbEntity
  8
ARJ70-0032
370
              15
390
0
  6
STYLE_13
 62
               7
100
AcDbCircle
 10
413.60228836029364
 20
-410.01032298022233
 30
0.0
 40
5.0000000000001386
100
AcDbArc
 50
3.1859180849709143
 51
90.000000000026063
  0
LINE
  5
1A3
100
AcDbEntity
  8
ARJ70-0032
370
              15
390
0
  6
STYLE_13
 62
               7
100
AcDbLine
 10
413.60228836028955
 20
-405.01032298022005
 30
0.0
 11
407.5308879887607
 21
-405.01032298022005
 31
0.0
  0
LINE
  5
1A4
100
AcDbEntity
  8
ARJ70-0032
370
              15
390
0
  6
STYLE_13
 62
               7
100
AcDbLine
 10
402.60610286553083
 20
-409.14632559018105
 30
0.0
 11
393.33171735850783
 21
-462.01032298022233
 31
0.0
  0
LINE
  5
1A5
100
AcDbEntity
  8
ARJ70-0032
370
              15
390
0
  6
STYLE_13
 62
               7
100
AcDbLine
 10
421.49500602597345
 20
-461.8404900329781
 30
0.0
 11
418.59456062829349
 21
-409.7324424264682
 31
0.0
  0
ARC
  5
1A6
100
AcDbEntity
  8
ARJ70-0032
370
              15
390
0
  6
STYLE_13
 62
               7
100
AcDbCircle
 10
436.70606152408254
 20
-397.01032298022005
 30
0.0
 40
5.0000000000000213
100
AcDbArc
 50
5.2126246516885031
 51
90.0
  0
LINE
  5
1A7
100
AcDbEntity
  8
ARJ70-0032
370
              15
390
0
  6
Continuous
 62
               7
100
AcDbLine
 10
421.49500602597345
 20
-461.8404900329781
 30
0.0
 11
421.49887898078077
 21
-461.91439041304216
 31
0.0
  0
LINE
  5
1A8
100
AcDbEntity
  8
ARJ70-0032
370
              15
390
0
  6
Continuous
 62
               7
100
AcDbLine
 10
386.42435606878371
 20
-462.01032298022233
 30
0.0
 11
380.09875092897164
 21
-462.01032298022233
 31
0.0
  0
LINE
  5
1A9
100
AcDbEntity
  8
ARJ70-0032
370
              15
390
0
  6
Continuous
 62
               7
100
AcDbLine
 10
376.69343021631948
 20
-392.01032298022233
 30
0.0
 11
409.68538354558359
 21
-392.01032298022005
 31
0.0
  0
POLYLINE
  5
1AA
100
AcDbEntity
  8
ARJ70-0032
370
              15
390
0
  6
Continuous
 62
               7
100
AcDb2dPolyline
 66
               1
 10
0.0
 20
0.0
 30
0.0
 70
               1
 75
               5
  0
VERTEX
  5
1AB
100
AcDbEntity
  8
ARJ70-0032
370
              15
390
0
  6
Continuous
 62
               7
100
AcDbVertex
100
AcDb2dVertex
 10
-451.15039923052063
 20
-597.01032298022005
 30
0.0
  0
VERTEX
  5
1AC
100
AcDbEntity
  8
ARJ70-0032
370
              15
390
0
  6
Continuous
 62
               7
100
AcDbVertex
100
AcDb2dVertex
 10
-381.15039923052086
 20
-597.01032298022005
 30
0.0
  0
VERTEX
  5
1AD
100
AcDbEntity
  8
ARJ70-0032
370
              15
390
0
  6
Continuous
 62
               7
100
AcDbVertex
100
AcDb2dVertex
 10
-381.15039923052086
 20
-602.01032298022005
 30
0.0
  0
VERTEX
  5
1AE
100
AcDbEntity
  8
ARJ70-0032
370
              15
390
0
  6
Continuous
 62
               7
100
AcDbVertex
100
AcDb2dVertex
 10
-451.15039923052063
 20
-602.01032298022005
 30
0.0
  0
SEQEND
  5
1AF
100
AcDbEntity
  8
ARJ70-0032
370
              15
390
0
  6
Continuous
 62
               7
  0
LINE
  5
1B0
100
AcDbEntity
  8
ARJ70-0032
370
              15
390
0
  6
STYLE_13
 62
               7
100
AcDbLine
 10
-611.36534093681257
 20
-442.01032298022005
 30
0.0
 11
-651.36534093681257
 21
-442.01032298022005
 31
0.0
  0
CIRCLE
  5
1B1
100
AcDbEntity
  8
ARJ70-0032
370
              15
390
0
  6
STYLE_13
 62
               7
100
AcDbCircle
 10
-631.36534093681257
 20
-442.01032298022005
 30
0.0
 40
10.0
  0
LINE
  5
1B2
100
AcDbEntity
  8
ARJ70-0032
370
              15
390
0
  6
STYLE_13
 62
               7
100
AcDbLine
 10
-181.36534093681257
 20
-442.01032298022005
 30
0.0
 11
-221.36534093681257
 21
-442.01032298022005
 31
0.0
  0
CIRCLE
  5
1B3
100
AcDbEntity
  8
ARJ70-0032
370
              15
390
0
  6
STYLE_13
 62
               7
100
AcDbCircle
 10
-201.36534093681257
 20
-442.01032298022005
 30
0.0
 40
10.0
  0
LINE
  5
1B4
100
AcDbEntity
  8
ARJ70-0032
370
              15
390
0
  6
STYLE_13
 62
               7
100
AcDbLine
 10
-201.36534093681257
 20
-462.01032298022005
 30
0.0
 11
-201.36534093681257
 21
-422.01032298022005
 31
0.0
  0
LINE
  5
1B5
100
AcDbEntity
  8
ARJ70-0032
370
              15
390
0
  6
STYLE_13
 62
               7
100
AcDbLine
 10
-217.55349807213497
 20
-461.84049003301129
 30
0.0
 11
-217.54962511732811
 21
-461.91439041304216
 31
0.0
  0
LINE
  5
1B6
100
AcDbEntity
  8
ARJ70-0032
370
              15
390
0
  6
Continuous
 62
               7
100
AcDbLine
 10
783.83171735850965
 20
-407.01032298022005
 30
0.0
 11
783.83171735850965
 21
-392.01032298022005
 31
0.0
  0
LINE
  5
1B7
100
AcDbEntity
  8
ARJ70-0032
370
              15
390
0
  6
Continuous
 62
               7
100
AcDbLine
 10
818.83171735850965
 20
-407.01032298022005
 30
0.0
 11
818.83171735850965
 21
-392.01032298022005
 31
0.0
  0
LINE
  5
1B8
100
AcDbEntity
  8
ARJ70-0032
370
              15
390
0
  6
STYLE_13
 62
               7
100
AcDbLine
 10
-393.15039923052086
 20
-602.01032298022005
 30
0.0
 11
-393.15039923052086
 21
-557.01032298022005
 31
0.0
  0
LINE
  5
1B9
100
AcDbEntity
  8
ARJ70-0032
370
              15
390
0
  6
STYLE_13
 62
               7
100
AcDbLine
 10
-439.15039923052086
 20
-602.01032298022005
 30
0.0
 11
-439.15039923052086
 21
-557.01032298022005
 31
0.0
  0
LINE
  5
1BA
100
AcDbEntity
  8
ARJ70-0032
370
              15
390
0
  6
STYLE_13
 62
               7
100
AcDbLine
 10
623.33171735850965
 20
-602.01032298022005
 30
0.0
 11
623.33171735850965
 21
-557.01032298022005
 31
0.0
  0
LINE
  5
1BB
100
AcDbEntity
  8
ARJ70-0032
370
              15
390
0
  6
STYLE_13
 62
               7
100
AcDbLine
 10
669.33171735850965
 20
-602.01032298022005
 30
0.0
 11
669.33171735850965
 21
-557.01032298022005
 31
0.0
  0
ENDSEC
  0
SECTION
  2
OBJECTS
  0
DICTIONARY
  5
19
100
AcDbDictionary
280
               0
281
               1
  3
ACAD_GROUP
350
1A
  3
ACAD_MLINESTYLE
350
1B
  3
ACAD_LAYOUT
350
1E
  3
ACAD_PLOTSETTINGS
350
22
  3
ACAD_PLOTSTYLENAME
350
1F
  0
DICTIONARY
  5
1A
102
{ACAD_REACTORS
330
19
102
}
100
AcDbDictionary
280
               0
281
               1
  0
DICTIONARY
  5
1B
102
{ACAD_REACTORS
330
19
102
}
100
AcDbDictionary
280
               0
281
               1
  3
Standard
350
1C
  0
MLINESTYLE
  5
1C
102
{ACAD_REACTORS
330
1B
102
}
100
AcDbMlineStyle
  2
Standard
 70
               0
  3

 62
               0
 51
90.0
 52
90.0
 71
               2
 49
0.5
 62
             256
  6
ByLayer
 49
-0.5
 62
             256
  6
ByLayer
  0
ACDBDICTIONARYWDFLT
  5
1F
102
{ACAD_REACTORS
330
19
102
}
100
AcDbDictionary
281
               1
  3
Normal
350
1D
100
AcDbDictionaryWithDefault
340
1D
  0
ACDBPLACEHOLDER
  5
1D
102
{ACAD_REACTORS
330
1F
102
}
  0
LAYOUT
  5
20
102
{ACAD_REACTORS
330
1E
102
}
100
AcDbPlotSettings
  1

  2

  4

  6

 40
0.0
 41
0.0
 42
0.0
 43
0.0
 44
0.0
 45
0.0
 46
0.0
 47
0.0
 48
0.0
 49
0.0
140
0.0
141
0.0
142
1.0
143
1.0
 70
            1024
 72
               0
 73
               0
 74
               0
  7

 75
               0
147
1.0
148
0.0
149
0.0
100
AcDbLayout
  1
Model
 70
               0
 71
               0
 10
0.0
 20
0.0
 11
0.0
 21
0.0
 12
0.0
 22
0.0
 32
0.0
 14
0.0
 24
0.0
 34
0.0
 15
0.0
 25
0.0
 35
0.0
146
0.0
 13
0.0
 23
0.0
 33
0.0
 16
0.0
 26
0.0
 36
0.0
 17
0.0
 27
0.0
 37
0.0
 76
               0
330
A
331
0
345
0
346
0
  0
LAYOUT
  5
21
102
{ACAD_REACTORS
330
1E
102
}
100
AcDbPlotSettings
  1

  2

  4

  6

 40
0.0
 41
0.0
 42
0.0
 43
0.0
 44
0.0
 45
0.0
 46
0.0
 47
0.0
 48
0.0
 49
0.0
140
0.0
141
0.0
142
1.0
143
1.0
 70
               0
 72
               0
 73
               0
 74
               0
  7

 75
               0
147
1.0
148
0.0
149
0.0
100
AcDbLayout
  1
Layout1
 70
               0
 71
               0
 10
0.0
 20
0.0
 11
0.0
 21
0.0
 12
0.0
 22
0.0
 32
0.0
 14
0.0
 24
0.0
 34
0.0
 15
0.0
 25
0.0
 35
0.0
146
0.0
 13
0.0
 23
0.0
 33
0.0
 16
0.0
 26
0.0
 36
0.0
 17
0.0
 27
0.0
 37
0.0
 76
               0
330
B
331
0
345
0
346
0
  0
DICTIONARY
  5
1E
102
{ACAD_REACTORS
330
19
102
}
100
AcDbDictionary
280
               0
281
               1
  3
Layout1
350
21
  3
Model
350
20
  0
DICTIONARY
  5
22
102
{ACAD_REACTORS
330
19
102
}
100
AcDbDictionary
280
               0
281
               1
  0
ENDSEC
  0
EOF
