  0
SECTION
  2
HEADER
  9
$ACADVER
  1
AC1021
  9
$ACADMAINTVER
 70
    25
  9
$DWGCODEPAGE
  3
ANSI_932
  9
$LASTSAVEDBY
  1
Shimosaki
  9
$INSBASE
 10
0.0
 20
0.0
 30
0.0
  9
$EXTMIN
 10
-876.5279425672877
 20
-612.1997499648709
 30
-14.83430555555555
  9
$EXTMAX
 10
926.1075697947037
 20
1173.945554127645
 30
14.83430555555555
  9
$LIMMIN
 10
0.0
 20
0.0
  9
$LIMMAX
 10
0.0
 20
0.0
  9
$ORTHOMODE
 70
     0
  9
$REGENMODE
 70
     1
  9
$FILLMODE
 70
     1
  9
$QTEXTMODE
 70
     0
  9
$MIRRTEXT
 70
     1
  9
$LTSCALE
 40
25.4
  9
$ATTMODE
 70
     1
  9
$TEXTSIZE
 40
0.0
  9
$TRACEWID
 40
1.0
  9
$TEXTSTYLE
  7
Standard
  9
$CLAYER
  8
template
  9
$CELTYPE
  6
Continuous
  9
$CECOLOR
 62
   256
  9
$CELTSCALE
 40
1.0
  9
$DISPSILH
 70
     0
  9
$DIMSCALE
 40
1.0
  9
$DIMASZ
 40
31.75
  9
$DIMEXO
 40
0.0
  9
$DIMDLI
 40
6.99999999999994
  9
$DIMRND
 40
0.0
  9
$DIMDLE
 40
0.0
  9
$DIMEXE
 40
19.9999999999962
  9
$DIMTP
 40
0.0
  9
$DIMTM
 40
0.0
  9
$DIMTXT
 40
24.4326171875
  9
$DIMCEN
 40
0.0
  9
$DIMTSZ
 40
0.0
  9
$DIMTOL
 70
     0
  9
$DIMLIM
 70
     0
  9
$DIMTIH
 70
     0
  9
$DIMTOH
 70
     0
  9
$DIMSE1
 70
     0
  9
$DIMSE2
 70
     0
  9
$DIMTAD
 70
     1
  9
$DIMZIN
 70
    11
  9
$DIMBLK
  1
VW_FILLEDARROW
  9
$DIMASO
 70
     1
  9
$DIMSHO
 70
     1
  9
$DIMPOST
  1
<>
  9
$DIMAPOST
  1
[]
  9
$DIMALT
 70
     0
  9
$DIMALTD
 70
     1
  9
$DIMALTF
 40
1.0
  9
$DIMLFAC
 40
1.0
  9
$DIMTOFL
 70
     0
  9
$DIMTVP
 40
0.0
  9
$DIMTIX
 70
     1
  9
$DIMSOXD
 70
     0
  9
$DIMSAH
 70
     0
  9
$DIMBLK1
  1

  9
$DIMBLK2
  1

  9
$DIMSTYLE
  2
JIS
  9
$DIMCLRD
 70
     0
  9
$DIMCLRE
 70
     0
  9
$DIMCLRT
 70
     0
  9
$DIMTFAC
 40
1.0
  9
$DIMGAP
 40
1.00000000000108
  9
$DIMJUST
 70
     0
  9
$DIMSD1
 70
     0
  9
$DIMSD2
 70
     0
  9
$DIMTOLJ
 70
     1
  9
$DIMTZIN
 70
    11
  9
$DIMALTZ
 70
    11
  9
$DIMALTTZ
 70
    11
  9
$DIMUPT
 70
     0
  9
$DIMDEC
 70
     1
  9
$DIMTDEC
 70
     1
  9
$DIMALTU
 70
     2
  9
$DIMALTTD
 70
     2
  9
$DIMTXSTY
  7
ＭＳ ゴシック
  9
$DIMAUNIT
 70
     0
  9
$DIMADEC
 70
     2
  9
$DIMALTRND
 40
0.0
  9
$DIMAZIN
 70
     0
  9
$DIMDSEP
 70
    46
  9
$DIMATFIT
 70
     0
  9
$DIMFRAC
 70
     2
  9
$DIMLDRBLK
  1

  9
$DIMLUNIT
 70
     2
  9
$DIMLWD
 70
    -2
  9
$DIMLWE
 70
    -2
  9
$DIMTMOVE
 70
     0
  9
$DIMFXL
 40
1.0
  9
$DIMFXLON
 70
     0
  9
$DIMJOGANG
 40
0.7853981633974483
  9
$DIMTFILL
 70
     0
  9
$DIMTFILLCLR
 70
     0
  9
$DIMARCSYM
 70
     0
  9
$DIMLTYPE
  6

  9
$DIMLTEX1
  6

  9
$DIMLTEX2
  6

  9
$LUNITS
 70
     2
  9
$LUPREC
 70
     4
  9
$SKETCHINC
 40
0.1
  9
$FILLETRAD
 40
3.0
  9
$AUNITS
 70
     0
  9
$AUPREC
 70
     0
  9
$MENU
  1
acad
  9
$ELEVATION
 40
0.0
  9
$PELEVATION
 40
0.0
  9
$THICKNESS
 40
0.0
  9
$LIMCHECK
 70
     0
  9
$CHAMFERA
 40
0.0
  9
$CHAMFERB
 40
0.0
  9
$CHAMFERC
 40
0.0
  9
$CHAMFERD
 40
0.0
  9
$SKPOLY
 70
     0
  9
$TDCREATE
 40
2447893.375
  9
$TDUCREATE
 40
0.0
  9
$TDUPDATE
 40
2457044.453821053
  9
$TDUUPDATE
 40
2457044.078821053
  9
$TDINDWG
 40
0.0110892477
  9
$TDUSRTIMER
 40
2457044.07687625
  9
$USRTIMER
 70
     1
  9
$ANGBASE
 50
0.0
  9
$ANGDIR
 70
     0
  9
$PDMODE
 70
     1
  9
$PDSIZE
 40
-2.0
  9
$PLINEWID
 40
0.0
  9
$SPLFRAME
 70
     0
  9
$SPLINETYPE
 70
     6
  9
$SPLINESEGS
 70
     8
  9
$HANDSEED
  5
299
  9
$SURFTAB1
 70
     6
  9
$SURFTAB2
 70
     6
  9
$SURFTYPE
 70
     6
  9
$SURFU
 70
     6
  9
$SURFV
 70
     6
  9
$UCSBASE
  2

  9
$UCSNAME
  2

  9
$UCSORG
 10
0.0
 20
0.0
 30
0.0
  9
$UCSXDIR
 10
1.0
 20
0.0
 30
0.0
  9
$UCSYDIR
 10
0.0
 20
1.0
 30
0.0
  9
$UCSORTHOREF
  2

  9
$UCSORTHOVIEW
 70
     0
  9
$UCSORGTOP
 10
0.0
 20
0.0
 30
0.0
  9
$UCSORGBOTTOM
 10
0.0
 20
0.0
 30
0.0
  9
$UCSORGLEFT
 10
0.0
 20
0.0
 30
0.0
  9
$UCSORGRIGHT
 10
0.0
 20
0.0
 30
0.0
  9
$UCSORGFRONT
 10
0.0
 20
0.0
 30
0.0
  9
$UCSORGBACK
 10
0.0
 20
0.0
 30
0.0
  9
$PUCSBASE
  2

  9
$PUCSNAME
  2

  9
$PUCSORG
 10
0.0
 20
0.0
 30
0.0
  9
$PUCSXDIR
 10
1.0
 20
0.0
 30
0.0
  9
$PUCSYDIR
 10
0.0
 20
1.0
 30
0.0
  9
$PUCSORTHOREF
  2

  9
$PUCSORTHOVIEW
 70
     0
  9
$PUCSORGTOP
 10
0.0
 20
0.0
 30
0.0
  9
$PUCSORGBOTTOM
 10
0.0
 20
0.0
 30
0.0
  9
$PUCSORGLEFT
 10
0.0
 20
0.0
 30
0.0
  9
$PUCSORGRIGHT
 10
0.0
 20
0.0
 30
0.0
  9
$PUCSORGFRONT
 10
0.0
 20
0.0
 30
0.0
  9
$PUCSORGBACK
 10
0.0
 20
0.0
 30
0.0
  9
$USERI1
 70
     0
  9
$USERI2
 70
     0
  9
$USERI3
 70
     0
  9
$USERI4
 70
     0
  9
$USERI5
 70
     0
  9
$USERR1
 40
0.0
  9
$USERR2
 40
0.0
  9
$USERR3
 40
0.0
  9
$USERR4
 40
0.0
  9
$USERR5
 40
0.0
  9
$WORLDVIEW
 70
     1
  9
$SHADEDGE
 70
     3
  9
$SHADEDIF
 70
    70
  9
$TILEMODE
 70
     1
  9
$MAXACTVP
 70
    64
  9
$PINSBASE
 10
0.0
 20
0.0
 30
0.0
  9
$PLIMCHECK
 70
     0
  9
$PEXTMIN
 10
1.000000000000000E+20
 20
1.000000000000000E+20
 30
1.000000000000000E+20
  9
$PEXTMAX
 10
-1.000000000000000E+20
 20
-1.000000000000000E+20
 30
-1.000000000000000E+20
  9
$PLIMMIN
 10
0.0
 20
0.0
  9
$PLIMMAX
 10
0.0
 20
0.0
  9
$UNITMODE
 70
     0
  9
$VISRETAIN
 70
     0
  9
$PLINEGEN
 70
     1
  9
$PSLTSCALE
 70
     0
  9
$TREEDEPTH
 70
  3020
  9
$CMLSTYLE
  2
Standard
  9
$CMLJUST
 70
     0
  9
$CMLSCALE
 40
1.0
  9
$PROXYGRAPHICS
 70
     0
  9
$MEASUREMENT
 70
     1
  9
$CELWEIGHT
370
     0
  9
$ENDCAPS
280
     0
  9
$JOINSTYLE
280
     0
  9
$LWDISPLAY
290
     1
  9
$INSUNITS
 70
     4
  9
$HYPERLINKBASE
  1

  9
$STYLESHEET
  1

  9
$XEDIT
290
     1
  9
$CEPSNTYPE
380
     0
  9
$PSTYLEMODE
290
     1
  9
$FINGERPRINTGUID
  2

  9
$VERSIONGUID
  2

  9
$EXTNAMES
290
     1
  9
$PSVPSCALE
 40
0.0
  9
$OLESTARTUP
290
     0
  9
$SORTENTS
280
   127
  9
$INDEXCTL
280
     0
  9
$HIDETEXT
280
     1
  9
$XCLIPFRAME
290
     0
  9
$HALOGAP
280
     0
  9
$OBSCOLOR
 70
   257
  9
$OBSLTYPE
280
     0
  9
$INTERSECTIONDISPLAY
280
     0
  9
$INTERSECTIONCOLOR
 70
   257
  9
$DIMASSOC
280
     2
  9
$PROJECTNAME
  1

  9
$CAMERADISPLAY
290
     0
  9
$LENSLENGTH
 40
50.0
  9
$CAMERAHEIGHT
 40
0.0
  9
$STEPSPERSEC
 40
2.0
  9
$STEPSIZE
 40
6.0
  9
$3DDWFPREC
 40
2.0
  9
$PSOLWIDTH
 40
0.25
  9
$PSOLHEIGHT
 40
4.0
  9
$LOFTANG1
 40
1.570796326794897
  9
$LOFTANG2
 40
1.570796326794897
  9
$LOFTMAG1
 40
0.0
  9
$LOFTMAG2
 40
0.0
  9
$LOFTPARAM
 70
     7
  9
$LOFTNORMALS
280
     1
  9
$LATITUDE
 40
37.795
  9
$LONGITUDE
 40
-122.394
  9
$NORTHDIRECTION
 40
0.0
  9
$TIMEZONE
 70
 -8000
  9
$LIGHTGLYPHDISPLAY
280
     1
  9
$TILEMODELIGHTSYNCH
280
     1
  9
$SOLIDHIST
280
     1
  9
$SHOWHIST
280
     1
  9
$DWFFRAME
280
     2
  9
$DGNFRAME
280
     2
  9
$REALWORLDSCALE
290
     1
  9
$INTERFERECOLOR
 62
   256
  9
$CSHADOW
280
     0
  9
$SHADOWPLANELOCATION
 40
0.0
  0
ENDSEC
  0
SECTION
  2
CLASSES
  0
CLASS
  1
LWPOLYLINE
  2
AcDbPolyline
  3
ObjectDBX Classes
 90
        0
 91
        1
280
     0
281
     1
  0
CLASS
  1
IMAGE
  2
AcDbRasterImage
  3
ISM
 90
      127
 91
        5
280
     0
281
     1
  0
CLASS
  1
OLE2FRAME
  2
AcDbOle2Frame
  3
ObjectDBX Classes
 90
        0
 91
        1
280
     0
281
     1
  0
CLASS
  1
HATCH
  2
AcDbHatch
  3
ObjectDBX Classes
 90
        0
 91
        1
280
     0
281
     1
  0
CLASS
  1
DICTIONARYVAR
  2
AcDbDictionaryVar
  3
ObjectDBX Classes
 90
        0
 91
        4
280
     0
281
     0
  0
CLASS
  1
RASTERVARIABLES
  2
AcDbRasterVariables
  3
ISM
 90
        0
 91
        5
280
     0
281
     0
  0
CLASS
  1
IMAGEDEF
  2
AcDbRasterImageDef
  3
ISM
 90
        0
 91
        4
280
     0
281
     0
  0
CLASS
  1
IMAGEDEF_REACTOR
  2
AcDbRasterImageDefReactor
  3
ISM
 90
        1
 91
        4
280
     0
281
     0
  0
CLASS
  1
IDBUFFER
  2
AcDbIdBuffer
  3
ObjectDBX Classes
 90
        0
 91
        4
280
     0
281
     0
  0
CLASS
  1
SPATIAL_FILTER
  2
AcDbSpatialFilter
  3
ObjectDBX Classes
 90
        0
 91
        4
280
     0
281
     0
  0
CLASS
  1
XRECORD
  2
AcDbXrecord
  3
ObjectDBX Classes
 90
        0
 91
        1
280
     0
281
     0
  0
CLASS
  1
SORTENTSTABLE
  2
AcDbSortentsTable
  3
ObjectDBX Classes
 90
        0
 91
        4
280
     0
281
     0
  0
CLASS
  1
LAYER_INDEX
  2
AcDbLayerIndex
  3
ObjectDBX Classes
 90
        0
 91
        4
280
     0
281
     0
  0
CLASS
  1
SPATIAL_INDEX
  2
AcDbSpatialIndex
  3
AutoCAD 2000
 90
        0
 91
        4
280
     0
281
     0
  0
CLASS
  1
OBJECT_PTR
  2
CAseDLPNTableRecord
  3
ASE-LPNTableRecord
 90
        1
 91
        4
280
     0
281
     0
  0
CLASS
  1
LAYOUT
  2
AcDbLayout
  3
ObjectDBX Classes
 90
        0
 91
        1
280
     0
281
     0
  0
CLASS
  1
PLOTSETTINGS
  2
AcDbPlotSettings
  3
ObjectDBX Classes
 90
        0
 91
        4
280
     0
281
     0
  0
CLASS
  1
ACDBDICTIONARYWDFLT
  2
AcDbDictionaryWithDefault
  3
ObjectDBX Classes
 90
        0
 91
        5
280
     0
281
     0
  0
CLASS
  1
ACDBPLACEHOLDER
  2
AcDbPlaceHolder
  3
ObjectDBX Classes
 90
        0
 91
        1
280
     0
281
     0
  0
CLASS
  1
SCALE
  2
AcDbScale
  3
ObjectDBX Classes
 90
     1153
 91
        5
280
     0
281
     0
  0
CLASS
  1
VISUALSTYLE
  2
AcDbVisualStyle
  3
ObjectDBX Classes
 90
     4095
 91
        5
280
     0
281
     0
  0
CLASS
  1
MATERIAL
  2
AcDbMaterial
  3
ObjectDBX Classes
 90
     1153
 91
        5
280
     0
281
     0
  0
CLASS
  1
TABLESTYLE
  2
AcDbTableStyle
  3
ObjectDBX Classes
 90
     4095
 91
        5
280
     0
281
     0
  0
CLASS
  1
SUN
  2
AcDbSun
  3
SCENEOE
 90
     1153
 91
        5
280
     0
281
     0
  0
CLASS
  1
CELLSTYLEMAP
  2
AcDbCellStyleMap
  3
ObjectDBX Classes
 90
     1152
 91
        4
280
     0
281
     0
  0
CLASS
  1
DIMASSOC
  2
AcDbDimAssoc
  3
"AcDbDimAssoc|Product Desc:     AcDim ARX App For Dimension|Company:          Autodesk, Inc.|WEB Address:      www.autodesk.com"
 90
        0
 91
        4
280
     0
281
     0
  0
ENDSEC
  0
SECTION
  2
TABLES
  0
TABLE
  2
VPORT
  5
7
330
0
100
AcDbSymbolTable
 70
     1
  0
VPORT
  5
15
330
7
100
AcDbSymbolTableRecord
100
AcDbViewportTableRecord
  2
*ACTIVE
 70
     0
 10
0.0
 20
0.0
 11
1.0
 21
1.0
 12
1114.496074871811
 22
-292.6705428677426
 13
0.0
 23
0.0
 14
1.0
 24
1.0
 15
0.0
 25
0.0
 16
0.0
 26
0.0
 36
1.0
 17
0.0
 27
0.0
 37
0.0
 40
3488.565047055698
 41
2.184105960264901
 42
50.0
 43
0.0
 44
0.0
 50
0.0
 51
0.0
 71
    16
 72
  2000
 73
     1
 74
     1
 75
     0
 76
     0
 77
     0
 78
     0
281
     0
 65
     0
110
0.0
120
0.0
130
0.0
111
1.0
121
0.0
131
0.0
112
0.0
122
1.0
132
0.0
 79
     0
146
0.0
348
236
 60
     3
 61
     5
292
     1
282
     1
141
0.0
142
0.0
 63
   250
361
251
  0
ENDTAB
  0
TABLE
  2
LTYPE
  5
4
330
0
100
AcDbSymbolTable
 70
    13
  0
LTYPE
  5
11
330
4
100
AcDbSymbolTableRecord
100
AcDbLinetypeTableRecord
  2
ByBlock
 70
     0
  3

 72
    65
 73
     0
 40
0.0
  0
LTYPE
  5
12
330
4
100
AcDbSymbolTableRecord
100
AcDbLinetypeTableRecord
  2
ByLayer
 70
     0
  3

 72
    65
 73
     0
 40
0.0
  0
LTYPE
  5
13
330
4
100
AcDbSymbolTableRecord
100
AcDbLinetypeTableRecord
  2
Continuous
 70
     0
  3
Solid line
 72
    65
 73
     0
 40
0.0
  0
LTYPE
  5
3D
330
4
100
AcDbSymbolTableRecord
100
AcDbLinetypeTableRecord
  2
STYLE_01
 70
     0
  3

 72
    65
 73
     4
 40
1.082665157480315
 49
0.5905480314960629
 74
     0
 49
-0.1968468503937008
 74
     0
 49
0.0984234251968504
 74
     0
 49
-0.1968468503937008
 74
     0
  0
LTYPE
  5
3E
330
4
100
AcDbSymbolTableRecord
100
AcDbLinetypeTableRecord
  2
STYLE_02
 70
     0
  3

 72
    65
 73
     2
 40
0.3936937007874016
 49
0.1968468503937008
 74
     0
 49
-0.1968468503937008
 74
     0
  0
LTYPE
  5
3F
330
4
100
AcDbSymbolTableRecord
100
AcDbLinetypeTableRecord
  2
STYLE_03
 70
     0
  3

 72
    65
 73
     2
 40
0.7499999999999998
 49
0.5
 74
     0
 49
-0.2499999999999998
 74
     0
  0
LTYPE
  5
40
330
4
100
AcDbSymbolTableRecord
100
AcDbLinetypeTableRecord
  2
STYLE_04
 70
     0
  3

 72
    65
 73
     4
 40
0.078740157480315
 49
0.0492125984251968
 74
     0
 49
-0.0098425196850394
 74
     0
 49
0.0098425196850394
 74
     0
 49
-0.0098425196850394
 74
     0
  0
LTYPE
  5
41
330
4
100
AcDbSymbolTableRecord
100
AcDbLinetypeTableRecord
  2
STYLE_05
 70
     0
  3

 72
    65
 73
     2
 40
0.41656
 49
0.13885
 74
     0
 49
-0.27771
 74
     0
  0
LTYPE
  5
42
330
4
100
AcDbSymbolTableRecord
100
AcDbLinetypeTableRecord
  2
STYLE_06
 70
     0
  3

 72
    65
 73
     4
 40
2.08328
 49
1.25
 74
     0
 49
-0.41656
 74
     0
 49
0.1388600000000001
 74
     0
 49
-0.2778600000000001
 74
     0
  0
LTYPE
  5
43
330
4
100
AcDbSymbolTableRecord
100
AcDbLinetypeTableRecord
  2
STYLE_07
 70
     0
  3

 72
    65
 73
     6
 40
3.75
 49
1.25
 74
     0
 49
-0.41656
 74
     0
 49
1.25
 74
     0
 49
-0.4167199999999999
 74
     0
 49
0.1388600000000001
 74
     0
 49
-0.2778599999999998
 74
     0
  0
LTYPE
  5
44
330
4
100
AcDbSymbolTableRecord
100
AcDbLinetypeTableRecord
  2
STYLE_08
 70
     0
  3

 72
    65
 73
     6
 40
2.5
 49
1.25
 74
     0
 49
-0.41656
 74
     0
 49
0.1388600000000001
 74
     0
 49
-0.2778600000000001
 74
     0
 49
0.1388599999999998
 74
     0
 49
-0.2778600000000001
 74
     0
  0
LTYPE
  5
45
330
4
100
AcDbSymbolTableRecord
100
AcDbLinetypeTableRecord
  2
STYLE_09
 70
     0
  3

 72
    65
 73
     4
 40
10.0
 49
7.5
 74
     0
 49
-0.5555699999999997
 74
     0
 49
1.388860000000001
 74
     0
 49
-0.5555699999999997
 74
     0
  0
LTYPE
  5
46
330
4
100
AcDbSymbolTableRecord
100
AcDbLinetypeTableRecord
  2
STYLE_10
 70
     0
  3

 72
    65
 73
     6
 40
11.875
 49
7.5
 74
     0
 49
-0.5555699999999997
 74
     0
 49
1.388860000000001
 74
     0
 49
-0.5555699999999997
 74
     0
 49
1.25
 74
     0
 49
-0.625
 74
     0
  0
LTYPE
  5
47
330
4
100
AcDbSymbolTableRecord
100
AcDbLinetypeTableRecord
  2
STYLE_11
 70
     0
  3

 72
    65
 73
     2
 40
0.1388889763779528
 49
0.0694444881889764
 74
     0
 49
-0.0694444881889764
 74
     0
  0
LTYPE
  5
48
330
4
100
AcDbSymbolTableRecord
100
AcDbLinetypeTableRecord
  2
STYLE_12
 70
     0
  3

 72
    65
 73
     2
 40
0.3472222222222222
 49
0.2083333333333333
 74
     0
 49
-0.1388888888888889
 74
     0
  0
ENDTAB
  0
TABLE
  2
LAYER
  5
2
330
0
100
AcDbSymbolTable
 70
     5
  0
LAYER
  5
14
330
2
100
AcDbSymbolTableRecord
100
AcDbLayerTableRecord
  2
0
 70
     0
 62
     7
  6
Continuous
370
    -3
390
1D
347
24D
  0
LAYER
  5
49
330
2
100
AcDbSymbolTableRecord
100
AcDbLayerTableRecord
  2
Defpoints
 70
     0
 62
     7
  6
Continuous
290
     0
370
    -3
390
1D
347
24D
  0
LAYER
  5
4A
330
2
100
AcDbSymbolTableRecord
100
AcDbLayerTableRecord
  2
template
 70
     0
 62
     7
  6
Continuous
370
    -3
390
1D
347
24D
  0
LAYER
  5
4B
330
2
100
AcDbSymbolTableRecord
100
AcDbLayerTableRecord
  2
notes
 70
     0
 62
     7
  6
Continuous
370
    -3
390
1D
347
24D
  0
LAYER
  5
4C
330
2
100
AcDbSymbolTableRecord
100
AcDbLayerTableRecord
  2
ARJ70-0103
 70
     0
 62
     7
  6
Continuous
370
    -3
390
1D
347
24D
  0
ENDTAB
  0
TABLE
  2
STYLE
  5
3
330
0
100
AcDbSymbolTable
 70
     2
  0
STYLE
  5
17
330
3
100
AcDbSymbolTableRecord
100
AcDbTextStyleTableRecord
  2
Standard
 70
     0
 40
0.0
 41
1.0
 50
0.0
 71
     0
 42
0.0
  3
txt
  4
BIGFONT.SHX
  0
STYLE
  5
3C
330
3
100
AcDbSymbolTableRecord
100
AcDbTextStyleTableRecord
  2
ＭＳ ゴシック
 70
     0
 40
0.0
 41
1.0
 50
0.0
 71
     0
 42
0.0
  3
msgothic.ttc
  4
ＭＳ ゴシック
1001
ACAD
1000
ＭＳ ゴシック
1071
        0
  0
ENDTAB
  0
TABLE
  2
VIEW
  5
5
330
0
100
AcDbSymbolTable
 70
     0
  0
ENDTAB
  0
TABLE
  2
UCS
  5
6
330
0
100
AcDbSymbolTable
 70
     0
  0
ENDTAB
  0
TABLE
  2
APPID
  5
8
330
0
100
AcDbSymbolTable
 70
     1
  0
APPID
  5
16
330
8
100
AcDbSymbolTableRecord
100
AcDbRegAppTableRecord
  2
ACAD
 70
     0
  0
ENDTAB
  0
TABLE
  2
DIMSTYLE
  5
9
330
0
100
AcDbSymbolTable
 70
     3
100
AcDbDimStyleTable
  0
DIMSTYLE
105
18
330
9
100
AcDbSymbolTableRecord
100
AcDbDimStyleTableRecord
  2
Standard
 70
     0
178
     0
340
17
  0
DIMSTYLE
105
55
330
9
100
AcDbSymbolTableRecord
100
AcDbDimStyleTableRecord
  2
tform線あり
 70
     0
  3
<>
  4
[]
 41
3.999755859375
 42
25.0
 43
0.9999999999999999
 44
0.0
 73
     0
 74
     0
 77
     1
 78
    11
140
24.4326171875
141
0.0
143
1.0
147
0.4999999999999999
171
     1
174
     1
178
     0
179
     2
271
     1
272
     1
276
     2
284
    11
285
    11
286
    11
289
     0
340
3C
341
4D
342
4D
  0
DIMSTYLE
105
5A
330
9
100
AcDbSymbolTableRecord
100
AcDbDimStyleTableRecord
  2
JIS
 70
     0
  3
<>
  4
[]
 41
31.75
 42
0.0
 43
6.99999999999994
 44
19.9999999999962
 73
     0
 74
     0
 77
     1
 78
    11
140
24.4326171875
141
0.0
143
1.0
147
1.00000000000108
171
     1
174
     1
178
     0
179
     2
271
     1
272
     1
276
     2
284
    11
285
    11
286
    11
289
     0
340
3C
341
56
342
56
  0
ENDTAB
  0
TABLE
  2
BLOCK_RECORD
  5
1
330
0
100
AcDbSymbolTable
 70
    28
  0
BLOCK_RECORD
  5
A
330
1
100
AcDbSymbolTableRecord
100
AcDbBlockTableRecord
  2
*MODEL_SPACE
340
20
 70
     0
280
     1
281
     0
  0
BLOCK_RECORD
  5
B
330
1
100
AcDbSymbolTableRecord
100
AcDbBlockTableRecord
  2
*PAPER_SPACE
340
21
 70
     0
280
     1
281
     0
  0
BLOCK_RECORD
  5
4D
330
1
100
AcDbSymbolTableRecord
100
AcDbBlockTableRecord
  2
_DOT
340
0
 70
     0
280
     1
281
     0
  0
BLOCK_RECORD
  5
56
330
1
100
AcDbSymbolTableRecord
100
AcDbBlockTableRecord
  2
VW_FILLEDARROW
340
0
102
{BLKREFS
331
271
331
272
102
}
 70
     0
280
     1
281
     0
  0
BLOCK_RECORD
  5
23
330
1
100
AcDbSymbolTableRecord
100
AcDbBlockTableRecord
  2
グループ
340
0
102
{BLKREFS
331
193
102
}
 70
     0
280
     1
281
     0
  0
BLOCK_RECORD
  5
24
330
1
100
AcDbSymbolTableRecord
100
AcDbBlockTableRecord
  2
*D3
340
0
 70
     0
280
     1
281
     0
  0
BLOCK_RECORD
  5
25
330
1
100
AcDbSymbolTableRecord
100
AcDbBlockTableRecord
  2
*D4
340
0
 70
     0
280
     1
281
     0
  0
BLOCK_RECORD
  5
26
330
1
100
AcDbSymbolTableRecord
100
AcDbBlockTableRecord
  2
*D5
340
0
 70
     0
280
     1
281
     0
  0
BLOCK_RECORD
  5
27
330
1
100
AcDbSymbolTableRecord
100
AcDbBlockTableRecord
  2
*D6
340
0
 70
     0
280
     1
281
     0
  0
BLOCK_RECORD
  5
28
330
1
100
AcDbSymbolTableRecord
100
AcDbBlockTableRecord
  2
*D7
340
0
 70
     0
280
     1
281
     0
  0
BLOCK_RECORD
  5
29
330
1
100
AcDbSymbolTableRecord
100
AcDbBlockTableRecord
  2
*D8
340
0
 70
     0
280
     1
281
     0
  0
BLOCK_RECORD
  5
2A
330
1
100
AcDbSymbolTableRecord
100
AcDbBlockTableRecord
  2
*D9
340
0
 70
     0
280
     1
281
     0
  0
BLOCK_RECORD
  5
2B
330
1
100
AcDbSymbolTableRecord
100
AcDbBlockTableRecord
  2
*D10
340
0
 70
     0
280
     1
281
     0
  0
BLOCK_RECORD
  5
2C
330
1
100
AcDbSymbolTableRecord
100
AcDbBlockTableRecord
  2
*D11
340
0
 70
     0
280
     1
281
     0
  0
BLOCK_RECORD
  5
2D
330
1
100
AcDbSymbolTableRecord
100
AcDbBlockTableRecord
  2
*D12
340
0
 70
     0
280
     1
281
     0
  0
BLOCK_RECORD
  5
2E
330
1
100
AcDbSymbolTableRecord
100
AcDbBlockTableRecord
  2
*D13
340
0
 70
     0
280
     1
281
     0
  0
BLOCK_RECORD
  5
2F
330
1
100
AcDbSymbolTableRecord
100
AcDbBlockTableRecord
  2
*D14
340
0
 70
     0
280
     1
281
     0
  0
BLOCK_RECORD
  5
30
330
1
100
AcDbSymbolTableRecord
100
AcDbBlockTableRecord
  2
*D15
340
0
 70
     0
280
     1
281
     0
  0
BLOCK_RECORD
  5
31
330
1
100
AcDbSymbolTableRecord
100
AcDbBlockTableRecord
  2
*D16
340
0
 70
     0
280
     1
281
     0
  0
BLOCK_RECORD
  5
32
330
1
100
AcDbSymbolTableRecord
100
AcDbBlockTableRecord
  2
*D17
340
0
 70
     0
280
     1
281
     0
  0
BLOCK_RECORD
  5
33
330
1
100
AcDbSymbolTableRecord
100
AcDbBlockTableRecord
  2
*D18
340
0
 70
     0
280
     1
281
     0
  0
BLOCK_RECORD
  5
34
330
1
100
AcDbSymbolTableRecord
100
AcDbBlockTableRecord
  2
*D19
340
0
 70
     0
280
     1
281
     0
  0
BLOCK_RECORD
  5
35
330
1
100
AcDbSymbolTableRecord
100
AcDbBlockTableRecord
  2
*D20
340
0
 70
     0
280
     1
281
     0
  0
BLOCK_RECORD
  5
36
330
1
100
AcDbSymbolTableRecord
100
AcDbBlockTableRecord
  2
*D21
340
0
 70
     0
280
     1
281
     0
  0
BLOCK_RECORD
  5
37
330
1
100
AcDbSymbolTableRecord
100
AcDbBlockTableRecord
  2
*D22
340
0
 70
     0
280
     1
281
     0
  0
BLOCK_RECORD
  5
38
330
1
100
AcDbSymbolTableRecord
100
AcDbBlockTableRecord
  2
*D23
340
0
 70
     0
280
     1
281
     0
  0
BLOCK_RECORD
  5
39
330
1
100
AcDbSymbolTableRecord
100
AcDbBlockTableRecord
  2
グループ-1
340
0
102
{BLKREFS
331
1E5
102
}
 70
     0
280
     1
281
     0
  0
BLOCK_RECORD
  5
3A
330
1
100
AcDbSymbolTableRecord
100
AcDbBlockTableRecord
  2
グループ-2
340
0
102
{BLKREFS
331
203
102
}
 70
     0
280
     1
281
     0
  0
BLOCK_RECORD
  5
3B
330
1
100
AcDbSymbolTableRecord
100
AcDbBlockTableRecord
  2
グループ-3
340
0
102
{BLKREFS
331
204
102
}
 70
     0
280
     1
281
     0
  0
BLOCK_RECORD
  5
26A
330
1
100
AcDbSymbolTableRecord
100
AcDbBlockTableRecord
  2
*D27
340
0
 70
     0
280
     1
281
     0
  0
ENDTAB
  0
ENDSEC
  0
SECTION
  2
BLOCKS
  0
BLOCK
  5
D
330
A
100
AcDbEntity
  8
0
390
1D
100
AcDbBlockBegin
  2
*MODEL_SPACE
 70
     0
 10
0.0
 20
0.0
 30
0.0
  3
*MODEL_SPACE
  1
*MODEL_SPACE
  0
ENDBLK
  5
E
330
A
100
AcDbEntity
  8
0
390
1D
100
AcDbBlockEnd
  0
BLOCK
  5
F
330
B
100
AcDbEntity
 67
     1
  8
0
390
1D
100
AcDbBlockBegin
  2
*PAPER_SPACE
 70
     0
 10
0.0
 20
0.0
 30
0.0
  3
*PAPER_SPACE
  1
*PAPER_SPACE
  0
ENDBLK
  5
10
330
B
100
AcDbEntity
 67
     1
  8
0
390
1D
100
AcDbBlockEnd
  0
BLOCK
  5
4E
330
4D
100
AcDbEntity
  8
0
390
1D
100
AcDbBlockBegin
  2
_DOT
 70
     0
 10
0.0
 20
0.0
 30
0.0
  3
_DOT
  1
_DOT
  0
POLYLINE
  5
4F
330
4D
100
AcDbEntity
  8
0
  6
ByBlock
 62
     0
370
    -2
390
1D
100
AcDb2dPolyline
 66
     1
 10
0.0
 20
0.0
 30
0.0
 70
     1
 40
0.5
 41
0.5
  0
VERTEX
  5
50
330
4F
100
AcDbEntity
  8
0
  6
ByBlock
 62
     0
370
    -2
390
1D
100
AcDbVertex
100
AcDb2dVertex
 10
-0.25
 20
0.0
 30
0.0
 42
1.0
  0
VERTEX
  5
51
330
4F
100
AcDbEntity
  8
0
  6
ByBlock
 62
     0
370
    -2
390
1D
100
AcDbVertex
100
AcDb2dVertex
 10
0.25
 20
0.0
 30
0.0
 42
1.0
  0
SEQEND
  5
52
330
4F
100
AcDbEntity
  8
0
390
1D
  0
LINE
  5
53
330
4D
100
AcDbEntity
  8
0
  6
ByBlock
 62
     0
370
    -2
390
1D
100
AcDbLine
 10
-0.5
 20
0.0
 30
0.0
 11
-1.0
 21
0.0
 31
0.0
  0
ENDBLK
  5
54
330
4D
100
AcDbEntity
  8
0
390
1D
100
AcDbBlockEnd
  0
BLOCK
  5
57
330
56
100
AcDbEntity
  8
0
  6
ByBlock
 62
     0
370
    -2
390
1D
100
AcDbBlockBegin
  2
VW_FILLEDARROW
 70
     0
 10
0.0
 20
0.0
 30
0.0
  3
VW_FILLEDARROW
  1
VW_FILLEDARROW
  0
SOLID
  5
58
330
56
100
AcDbEntity
  8
0
 62
     0
370
    -2
390
1D
100
AcDbTrace
 10
0.0
 20
0.0
 30
0.0
 11
-0.9921874999999999
 21
-0.2658558393652545
 31
0.0
 12
-0.9921874999999999
 22
0.2658558393652548
 32
0.0
 13
-0.9921874999999999
 23
0.2658558393652548
 33
0.0
  0
ENDBLK
  5
59
330
56
100
AcDbEntity
  8
0
390
1D
100
AcDbBlockEnd
  0
BLOCK
  5
5B
330
23
100
AcDbEntity
  8
template
390
1D
100
AcDbBlockBegin
  2
グループ
 70
     0
 10
0.0
 20
0.0
 30
0.0
  3
グループ
  1
グループ
  0
MTEXT
  5
5C
330
23
100
AcDbEntity
  8
0
 62
     7
390
1D
100
AcDbMText
 10
-1146.154500499759
 20
-1281.808639818794
 30
0.0
 40
16.28841145833333
 41
0.0
 46
0.0
 71
     1
 72
     1
  1
品名
  7
ＭＳ ゴシック
 73
     1
 44
0.7828267384257843
  0
MTEXT
  5
5D
330
23
100
AcDbEntity
  8
0
 62
     7
390
1D
100
AcDbMText
 10
-1146.154500499759
 20
-1366.808639818794
 30
0.0
 40
16.28841145833333
 41
0.0
 46
0.0
 71
     1
 72
     1
  1
仕様
  7
ＭＳ ゴシック
 73
     1
 44
0.7828267384257843
  0
MTEXT
  5
5E
330
23
100
AcDbEntity
  8
0
 62
     7
390
1D
100
AcDbMText
 10
-1093.154500499759
 20
-1310.391100756294
 30
0.0
 40
24.4326171875
 41
0.0
 46
0.0
 71
     1
 72
     1
  1
洗面器 -POZZI GINORI,Join-
  7
ＭＳ ゴシック
 73
     1
 44
0.7828267384257843
  0
LINE
  5
5F
330
23
100
AcDbEntity
  8
0
  6
Continuous
 62
     7
370
     5
390
1D
100
AcDbLine
 10
796.8454994997587
 20
-1358.393717943794
 30
0.0
 11
-1153.154500500241
 21
-1358.393717943794
 31
0.0
  0
LWPOLYLINE
  5
60
330
23
100
AcDbEntity
  8
0
  6
Continuous
 62
     7
370
     5
390
1D
100
AcDbPolyline
 90
        5
 70
   128
 43
0.0
 10
796.8454995002412
 20
1271.606282056206
 10
-1153.154500499759
 20
1271.606282056206
 10
-1153.154500499759
 20
-1528.393717943794
 10
796.8454995002412
 20
-1528.393717943794
 10
796.8454995002412
 20
1271.606282056206
  0
LINE
  5
61
330
23
100
AcDbEntity
  8
0
  6
Continuous
 62
     7
370
     5
390
1D
100
AcDbLine
 10
796.8454994997587
 20
-1273.393717943794
 30
0.0
 11
-1153.154500500241
 21
-1273.393717943794
 31
0.0
  0
LINE
  5
62
330
23
100
AcDbEntity
  8
0
  6
Continuous
 62
     7
370
     5
390
1D
100
AcDbLine
 10
796.8454995002412
 20
-1443.393717943794
 30
0.0
 11
43.84549950024103
 21
-1443.393717943794
 31
0.0
  0
MTEXT
  5
63
330
23
100
AcDbEntity
  8
0
 62
     7
390
1D
100
AcDbMText
 10
-1153.154500499556
 20
-1540.247540000651
 30
0.0
 40
21.71788194444445
 41
0.0
 46
0.0
 71
     1
 72
     1
  1
100713SH
  7
ＭＳ ゴシック
 73
     1
 44
0.7828267384257843
  0
MTEXT
  5
64
330
23
100
AcDbEntity
  8
0
 62
     7
390
1D
100
AcDbMText
 10
73.71690575250074
 20
-1473.304112417101
 30
0.0
 40
24.4326171875
 41
0.0
 46
0.0
 71
     1
 72
     1
  1
大洋金物株式会社 ティーフォルム事業部
  7
ＭＳ ゴシック
 73
     1
 44
0.7828267384257843
  0
LWPOLYLINE
  5
65
330
23
100
AcDbEntity
  8
0
  6
Continuous
 62
     7
370
    15
390
1D
100
AcDbPolyline
 90
        8
 70
   129
 43
0.0
 10
709.2740073030745
 20
-1468.880731608779
 10
709.2740073030745
 20
-1474.878120302355
 10
699.7728103850714
 20
-1474.878120302355
 10
699.7728103850714
 20
-1499.329083565864
 10
691.4174331232884
 20
-1499.329083565864
 10
691.4174331232884
 20
-1474.878120302355
 10
682.084476176979
 20
-1474.878120302355
 10
682.084476176979
 20
-1468.880731608779
  0
LWPOLYLINE
  5
66
330
23
100
AcDbEntity
  8
0
  6
Continuous
 62
     7
370
    15
390
1D
100
AcDbPolyline
 90
      101
 70
   128
 43
0.0
 10
722.0022991336316
 20
-1469.608980101716
 10
722.0176491624127
 20
-1469.604619345032
 42
-0.0222221607824801
 10
722.3076537390876
 20
-1469.535994879786
 10
722.3234475030819
 20
-1469.532991456688
 42
-0.0146883565587984
 10
722.5861502083054
 20
-1469.49098826974
 42
-0.0127458844179164
 10
722.8507891754618
 20
-1469.463451301667
 10
722.9132442537712
 20
-1469.458557879079
 42
-0.0198099018566497
 10
723.3040933632433
 20
-1469.443472721682
 10
723.3559048326919
 20
-1469.443526497347
 42
-0.0147617382763453
 10
723.8505282936651
 20
-1469.458646522592
 10
723.9232197485404
 20
-1469.46301912948
 42
-0.0162624549002708
 10
724.3133733780055
 20
-1469.499252004752
 10
724.4349057692724
 20
-1469.51453856375
 42
-0.0080020874663014
 10
724.5804848003563
 20
-1469.535221411017
 10
724.6188042709402
 20
-1469.541292688826
 42
-0.0053821929679774
 10
724.6872883762662
 20
-1469.55290021265
 10
723.9608826770675
 20
-1471.733828668364
 42
0.0108667757390133
 10
723.8935656069389
 20
-1471.720641553144
 10
723.8560975837472
 20
-1471.714143810549
 42
0.0170663203309152
 10
723.7128807968312
 20
-1471.694314213257
 10
723.6450054641487
 20
-1471.68726704267
 42
0.0220162375275306
 10
723.3646260562936
 20
-1471.6705846819
 10
723.2867704892424
 20
-1471.669385314633
 42
0.0282606915783184
 10
722.9511341656633
 20
-1471.683188591602
 10
722.9072208918875
 20
-1471.687488581606
 42
0.0169677213694653
 10
722.6612963969321
 20
-1471.720025631158
 42
0.0190576269863179
 10
722.4183884343519
 20
-1471.770172503265
 10
722.4121292462413
 20
-1471.771715477374
 42
0.0213685642846815
 10
722.1617447617634
 20
-1471.844915762479
 10
722.1562548668473
 20
-1471.846778758538
 42
0.0237595297594767
 10
721.9027599819468
 20
-1471.946463280434
 10
721.897657907919
 20
-1471.948755055912
 42
0.0261857468818402
 10
721.6454871316889
 20
-1472.078291393286
 10
721.6350609426011
 20
-1472.084356867755
 42
0.027255306201953
 10
721.3986311673635
 20
-1472.239729073699
 10
721.363868153856
 20
-1472.26539022179
 42
0.0325996893175402
 10
721.2137128102025
 20
-1472.392138094762
 10
721.1900033810799
 20
-1472.414956123275
 42
0.0138050960625206
 10
721.0981202248693
 20
-1472.508405784827
 42
0.0125280103809604
 10
721.0112776920366
 20
-1472.606569111426
 10
720.9875972471274
 20
-1472.634727609614
 42
0.0205218024739022
 10
720.8624971716106
 20
-1472.796520923848
 10
720.8400308311266
 20
-1472.82818065367
 42
0.0163110129575802
 10
720.6843204518801
 20
-1473.063511088732
 10
720.6815965558243
 20
-1473.067934850726
 42
0.0131897341903148
 10
720.5347960349151
 20
-1473.321066943096
 10
720.5330959395519
 20
-1473.324185182226
 42
0.0107895576065353
 10
720.3953192373411
 20
-1473.590400391861
 10
720.3945863478161
 20
-1473.591894624507
 42
0.0091371507215289
 10
720.2661063991677
 20
-1473.866419822265
 10
720.2363607677574
 20
-1473.933126329426
 42
0.0135418326349247
 10
720.0646468286842
 20
-1474.348064114698
 10
720.0310420202554
 20
-1474.435930256966
 42
0.0092834542411073
 10
719.8598129603306
 20
-1474.909828755281
 10
719.8341958326084
 20
-1474.985069825088
 42
0.0054261043581786
 10
719.72655768432
 20
-1475.31283379814
 10
719.709031698095
 20
-1475.36822196052
 42
0.0008225090827391
 10
719.6403616463126
 20
-1475.586490718519
 10
718.6556725143791
 20
-1478.611382011776
 10
721.8882963544529
 20
-1478.611382011776
 10
721.3841039245995
 20
-1480.515860310128
 10
718.1280476426161
 20
-1480.515860310128
 10
712.2988986102623
 20
-1499.329083376133
 10
710.4738009999521
 20
-1499.329083376133
 10
716.308479035453
 20
-1480.515860310128
 10
713.9033626664127
 20
-1480.515860310128
 10
714.4075550962662
 20
-1478.611382011776
 10
716.836103907216
 20
-1478.611382011776
 10
717.6962588254048
 20
-1475.974969011076
 42
-0.0005863560644582
 10
717.7329935035601
 20
-1475.858142590937
 10
717.8090813372686
 20
-1475.617150291399
 42
-0.008752237892927
 10
718.0085494807247
 20
-1475.021874204255
 10
718.1008137561391
 20
-1474.761734035739
 42
-0.0077400953829442
 10
718.35874741527
 20
-1474.068729358192
 10
718.37451238685
 20
-1474.028298474803
 42
-0.0082369946331074
 10
718.6215968574609
 20
-1473.42421940861
 42
-0.0085725238365841
 10
718.8888429534626
 20
-1472.828793369325
 10
718.9904725544699
 20
-1472.612372267341
 42
-0.0168109410599805
 10
719.2774169832012
 20
-1472.051164741233
 10
719.4032603736913
 20
-1471.824200708181
 42
-0.0007817726862021
 10
719.4575447237169
 20
-1471.726656463205
 10
719.4576730297324
 20
-1471.726426754472
 42
-0.0036626142161784
 10
719.5125608937553
 20
-1471.6298288745
 42
-0.0080221150656085
 10
719.5696851491649
 20
-1471.534549639742
 10
719.6003851005232
 20
-1471.485158690625
 42
-0.0202139325576948
 10
719.7280408403283
 20
-1471.297177089946
 10
719.7821083055176
 20
-1471.224098225702
 42
-0.0249323791800266
 10
720.0412710992365
 20
-1470.908052983548
 10
720.0654109133637
 20
-1470.881438710636
 42
-0.0242132121536425
 10
720.4050916549073
 20
-1470.54155522443
 10
720.453003227653
 20
-1470.498046088249
 42
-0.0251017527866624
 10
720.7369849282971
 20
-1470.265053342481
 10
720.7384304051134
 20
-1470.2639840849
 42
-0.0130868069033758
 10
721.0366910550682
 20
-1470.055203616359
 10
721.0382528742103
 20
-1470.054170176085
 42
-0.0290329526391818
 10
721.3493640156042
 20
-1469.873344674455
 10
721.3792095775908
 20
-1469.858242291615
 42
-0.0160250190045998
 10
721.645113991355
 20
-1469.734226181402
 42
-0.0267600374783895
 10
721.9203900688241
 20
-1469.633477860854
 10
721.9471259883446
 20
-1469.625285302028
 42
-0.0049981587688964
 10
722.0022991336316
 20
-1469.608980101716
 42
-0.0049981587688964
  0
LWPOLYLINE
  5
67
330
23
100
AcDbEntity
  8
0
  6
Continuous
 62
     7
370
    15
390
1D
100
AcDbPolyline
 90
      118
 70
   128
 43
0.0
 10
741.8166666980785
 20
-1478.685365339603
 10
743.6917886225779
 20
-1478.685365339603
 10
742.853749716978
 20
-1481.366931866003
 42
-0.0010587229223482
 10
742.8852055325465
 20
-1481.330027332652
 10
742.9433996231819
 20
-1481.262045076472
 42
-0.0071874740403766
 10
743.093774841291
 20
-1481.09140438443
 10
743.2354976145422
 20
-1480.93516824313
 42
-0.0148118053515401
 10
743.6856269072474
 20
-1480.467554397124
 10
743.7728492421584
 20
-1480.382157076261
 42
-0.0086273358695807
 10
744.1083980431652
 20
-1480.064781442247
 10
744.1522317593963
 20
-1480.024731797909
 42
-0.0103138323104654
 10
744.4102554616246
 20
-1479.798568660575
 10
744.4560298679369
 20
-1479.760086613328
 42
-0.0060206748570118
 10
744.6288779320639
 20
-1479.618291962561
 10
744.6309090629514
 20
-1479.616666256928
 42
-0.0067069027295714
 10
744.8032018776123
 20
-1479.482515623135
 10
744.8057506435454
 20
-1479.480585453254
 42
-0.007618435204179
 10
744.9766559094096
 20
-1479.355210578015
 42
-0.0089652861678926
 10
745.1516168721447
 20
-1479.235577317682
 10
745.1879685922854
 20
-1479.211666104202
 42
-0.0156916245941684
 10
745.3839280894492
 20
-1479.091403617725
 42
-0.0023299011060252
 10
745.5841901334418
 20
-1478.978225678178
 10
745.599574265809
 20
-1478.96962568312
 42
-0.0107669341485065
 10
745.8338110909066
 20
-1478.845225549772
 10
745.8560758919851
 20
-1478.83400879982
 42
-0.0078058045899749
 10
746.139666009938
 20
-1478.696647344182
 10
746.149573097647
 20
-1478.692038216313
 42
-0.0181829330467616
 10
746.4598825022657
 20
-1478.561174475217
 10
746.5139379448248
 20
-1478.540659355276
 42
-0.0208411536034594
 10
746.8630229122797
 20
-1478.424568892781
 10
746.8773790124087
 20
-1478.420450447827
 42
-0.0222799817132237
 10
747.2060988063243
 20
-1478.341808881687
 10
747.2149877695623
 20
-1478.340096871102
 42
-0.0215509523884881
 10
747.5314587378411
 20
-1478.293181182568
 10
747.5739406988906
 20
-1478.288743655777
 42
-0.0182545924877644
 10
747.8080494781954
 20
-1478.272899830386
 10
747.8474504945373
 20
-1478.271675285307
 42
-0.0072962856524755
 10
748.0033733742323
 20
-1478.269105956785
 10
748.0324730448043
 20
-1478.269051121381
 42
-0.0059227516331974
 10
748.1302225439493
 20
-1478.270024833171
 10
748.1594647614862
 20
-1478.270662599776
 42
-0.0011833111881271
 10
748.1987160451536
 20
-1478.271611604085
 10
747.4033294495464
 20
-1480.810345549184
 42
0.0143932051508361
 10
747.3769280672001
 20
-1480.80014657914
 10
747.3696560947786
 20
-1480.797575360281
 42
0.0234388603547356
 10
747.3278252288427
 20
-1480.784956124565
 10
747.3191435659338
 20
-1480.782775162561
 42
0.0199162742987469
 10
747.2588547318561
 20
-1480.770158427226
 10
747.2380407940476
 20
-1480.766661227797
 42
0.0293643550665159
 10
747.1349659352896
 20
-1480.755511182144
 10
747.1102807545681
 20
-1480.754299565126
 42
0.0214606686870772
 10
746.9571398386122
 20
-1480.753361004708
 10
746.9477679277976
 20
-1480.753705916252
 42
0.0167564054185568
 10
746.776247736689
 20
-1480.76578295862
 10
746.7677879439302
 20
-1480.766664299048
 42
0.0137677553241119
 10
746.5804346306643
 20
-1480.791413607591
 10
746.5730828911577
 20
-1480.792591527559
 42
0.0118497261479389
 10
746.3725851270607
 20
-1480.829608877747
 10
746.3664351198091
 20
-1480.830895740468
 42
0.010642114388812
 10
746.1555542325198
 20
-1480.879728116044
 10
746.1506454241351
 20
-1480.880975458728
 42
0.0099746379705368
 10
745.9321869549688
 20
-1480.941149987044
 10
745.8706389148023
 20
-1480.959431865674
 42
0.019161367585884
 10
745.5346544522858
 20
-1481.073409245961
 10
745.4465946795378
 20
-1481.107096156286
 42
0.0205274080147192
 10
745.0612879076406
 20
-1481.272924564111
 10
745.0036386256614
 20
-1481.300592528682
 42
0.0181256912190797
 10
744.7453616849915
 20
-1481.436276347661
 10
744.6924063016772
 20
-1481.466593960876
 42
0.0140709242408514
 10
744.5474513670492
 20
-1481.555088634311
 10
744.5212024984295
 20
-1481.572145453027
 42
0.0086667884400496
 10
744.4322763368882
 20
-1481.632148120909
 42
0.0036408192020445
 10
744.3448430988537
 20
-1481.694328978702
 10
744.3096162243862
 20
-1481.719769924614
 42
0.0052260781273955
 10
744.1533875270059
 20
-1481.83510231124
 10
744.1371806707356
 20
-1481.847330421866
 42
0.0050024435895889
 10
743.9511773276812
 20
-1481.990612990125
 10
743.9358591711615
 20
-1482.002659012574
 42
0.0136138710283386
 10
743.7254179028359
 20
-1482.177625517488
 10
743.6917500270426
 20
-1482.207204490202
 42
0.0172815186915811
 10
743.4273464853833
 20
-1482.456201162822
 10
743.4247841395376
 20
-1482.458786979972
 42
0.0189403857991859
 10
743.1742023409546
 20
-1482.731592244781
 10
743.141570847427
 20
-1482.769936176268
 42
0.0185044199495682
 10
742.9496144084424
 20
-1483.013184757397
 42
0.0088565243902509
 10
742.7711543018072
 20
-1483.266701177557
 10
742.7619763221654
 20
-1483.280242557307
 42
0.0157195347226601
 10
742.5787557158302
 20
-1483.569764766625
 10
742.5326727739056
 20
-1483.647916963635
 42
0.0095451879784397
 10
742.3675872237628
 20
-1483.940511606
 10
742.3564393048291
 20
-1483.96118227814
 42
0.0100351706257893
 10
742.2243955556739
 20
-1484.218237838623
 42
0.0086935915427161
 10
742.1020644038772
 20
-1484.480070984033
 10
742.0987436624655
 20
-1484.487513306999
 42
0.0072580174860597
 10
741.9783972105236
 20
-1484.768105298574
 10
741.9751355772141
 20
-1484.7760253246
 42
0.0060005122616877
 10
741.8559349088671
 20
-1485.075634995216
 10
741.8527239305298
 20
-1485.08399652311
 42
0.0049017786984802
 10
741.733823771669
 20
-1485.402925503723
 10
741.7306579652819
 20
-1485.411678440944
 42
0.0039415167602107
 10
741.6112216872203
 20
-1485.750220503372
 10
741.6080905845731
 20
-1485.759323704234
 42
0.0031035838762013
 10
741.4872857988826
 20
-1486.117763566
 10
741.4841757543497
 20
-1486.127184187382
 42
0.0025070747154286
 10
741.3612744030318
 20
-1486.505831404334
 10
741.3239805066089
 20
-1486.622723069579
 42
0.0029081910285026
 10
741.1319622087904
 20
-1487.236886727895
 10
741.091159040281
 20
-1487.370109970146
 42
0.000926645373541
 10
740.8227416659859
 20
-1488.252334430005
 10
740.8018541933234
 20
-1488.321446309313
 42
-0.0005809993664755
 10
740.5245175127346
 20
-1489.235254415945
 10
740.4582357144574
 20
-1489.452739348119
 42
-0.001201870816861
 10
740.3112514050324
 20
-1489.930902012625
 10
740.2589315535179
 20
-1490.099661153326
 42
-0.0002691059604588
 10
740.2153620722984
 20
-1490.239928773833
 10
737.382406174009
 20
-1499.329083376133
 10
735.5644172820305
 20
-1499.329083376133
 10
741.8166666980785
 20
-1478.685365339603
  0
SPLINE
  5
68
330
23
100
AcDbEntity
  8
0
  6
Continuous
 62
     7
370
    15
390
1D
100
AcDbSpline
210
0.0
220
0.0
230
1.0
 70
    15
 71
     2
 72
   782
 73
   779
 74
     0
 42
0.000000001
 43
0.000001
 40
0.0
 40
0.0
 40
0.0
 40
1.0
 40
1.0
 40
2.0
 40
2.0
 40
3.0
 40
3.0
 40
4.0
 40
4.0
 40
5.0
 40
5.0
 40
6.0
 40
6.0
 40
7.0
 40
7.0
 40
8.0
 40
8.0
 40
9.0
 40
9.0
 40
10.0
 40
10.0
 40
11.0
 40
11.0
 40
12.0
 40
12.0
 40
13.0
 40
13.0
 40
14.0
 40
14.0
 40
15.0
 40
15.0
 40
16.0
 40
16.0
 40
17.0
 40
17.0
 40
18.0
 40
18.0
 40
19.0
 40
19.0
 40
20.0
 40
20.0
 40
21.0
 40
21.0
 40
22.0
 40
22.0
 40
23.0
 40
23.0
 40
24.0
 40
24.0
 40
25.0
 40
25.0
 40
26.0
 40
26.0
 40
27.0
 40
27.0
 40
28.0
 40
28.0
 40
29.0
 40
29.0
 40
30.0
 40
30.0
 40
31.0
 40
31.0
 40
32.0
 40
32.0
 40
33.0
 40
33.0
 40
34.0
 40
34.0
 40
35.0
 40
35.0
 40
36.0
 40
36.0
 40
37.0
 40
37.0
 40
38.0
 40
38.0
 40
39.0
 40
39.0
 40
40.0
 40
40.0
 40
41.0
 40
41.0
 40
42.0
 40
42.0
 40
43.0
 40
43.0
 40
44.0
 40
44.0
 40
45.0
 40
45.0
 40
46.0
 40
46.0
 40
47.0
 40
47.0
 40
48.0
 40
48.0
 40
49.0
 40
49.0
 40
50.0
 40
50.0
 40
51.0
 40
51.0
 40
52.0
 40
52.0
 40
53.0
 40
53.0
 40
54.0
 40
54.0
 40
55.0
 40
55.0
 40
56.0
 40
56.0
 40
57.0
 40
57.0
 40
58.0
 40
58.0
 40
59.0
 40
59.0
 40
60.0
 40
60.0
 40
61.0
 40
61.0
 40
62.0
 40
62.0
 40
63.0
 40
63.0
 40
64.0
 40
64.0
 40
65.0
 40
65.0
 40
66.0
 40
66.0
 40
67.0
 40
67.0
 40
68.0
 40
68.0
 40
69.0
 40
69.0
 40
70.0
 40
70.0
 40
71.0
 40
71.0
 40
72.0
 40
72.0
 40
73.0
 40
73.0
 40
74.0
 40
74.0
 40
75.0
 40
75.0
 40
76.0
 40
76.0
 40
77.0
 40
77.0
 40
78.0
 40
78.0
 40
79.0
 40
79.0
 40
80.0
 40
80.0
 40
81.0
 40
81.0
 40
82.0
 40
82.0
 40
83.0
 40
83.0
 40
84.0
 40
84.0
 40
85.0
 40
85.0
 40
86.0
 40
86.0
 40
87.0
 40
87.0
 40
88.0
 40
88.0
 40
89.0
 40
89.0
 40
90.0
 40
90.0
 40
91.0
 40
91.0
 40
92.0
 40
92.0
 40
93.0
 40
93.0
 40
94.0
 40
94.0
 40
95.0
 40
95.0
 40
96.0
 40
96.0
 40
97.0
 40
97.0
 40
98.0
 40
98.0
 40
99.0
 40
99.0
 40
100.0
 40
100.0
 40
101.0
 40
101.0
 40
102.0
 40
102.0
 40
103.0
 40
103.0
 40
104.0
 40
104.0
 40
105.0
 40
105.0
 40
106.0
 40
106.0
 40
107.0
 40
107.0
 40
108.0
 40
108.0
 40
109.0
 40
109.0
 40
110.0
 40
110.0
 40
111.0
 40
111.0
 40
112.0
 40
112.0
 40
113.0
 40
113.0
 40
114.0
 40
114.0
 40
115.0
 40
115.0
 40
116.0
 40
116.0
 40
117.0
 40
117.0
 40
118.0
 40
118.0
 40
119.0
 40
119.0
 40
120.0
 40
120.0
 40
121.0
 40
121.0
 40
122.0
 40
122.0
 40
123.0
 40
123.0
 40
124.0
 40
124.0
 40
125.0
 40
125.0
 40
126.0
 40
126.0
 40
127.0
 40
127.0
 40
128.0
 40
128.0
 40
129.0
 40
129.0
 40
130.0
 40
130.0
 40
131.0
 40
131.0
 40
132.0
 40
132.0
 40
133.0
 40
133.0
 40
134.0
 40
134.0
 40
135.0
 40
135.0
 40
136.0
 40
136.0
 40
137.0
 40
137.0
 40
138.0
 40
138.0
 40
139.0
 40
139.0
 40
140.0
 40
140.0
 40
141.0
 40
141.0
 40
142.0
 40
142.0
 40
143.0
 40
143.0
 40
144.0
 40
144.0
 40
145.0
 40
145.0
 40
146.0
 40
146.0
 40
147.0
 40
147.0
 40
148.0
 40
148.0
 40
149.0
 40
149.0
 40
150.0
 40
150.0
 40
151.0
 40
151.0
 40
152.0
 40
152.0
 40
153.0
 40
153.0
 40
154.0
 40
154.0
 40
155.0
 40
155.0
 40
156.0
 40
156.0
 40
157.0
 40
157.0
 40
158.0
 40
158.0
 40
159.0
 40
159.0
 40
160.0
 40
160.0
 40
161.0
 40
161.0
 40
162.0
 40
162.0
 40
163.0
 40
163.0
 40
164.0
 40
164.0
 40
165.0
 40
165.0
 40
166.0
 40
166.0
 40
167.0
 40
167.0
 40
168.0
 40
168.0
 40
169.0
 40
169.0
 40
170.0
 40
170.0
 40
171.0
 40
171.0
 40
172.0
 40
172.0
 40
173.0
 40
173.0
 40
174.0
 40
174.0
 40
175.0
 40
175.0
 40
176.0
 40
176.0
 40
177.0
 40
177.0
 40
178.0
 40
178.0
 40
179.0
 40
179.0
 40
180.0
 40
180.0
 40
181.0
 40
181.0
 40
182.0
 40
182.0
 40
183.0
 40
183.0
 40
184.0
 40
184.0
 40
185.0
 40
185.0
 40
186.0
 40
186.0
 40
187.0
 40
187.0
 40
188.0
 40
188.0
 40
189.0
 40
189.0
 40
190.0
 40
190.0
 40
191.0
 40
191.0
 40
192.0
 40
192.0
 40
193.0
 40
193.0
 40
194.0
 40
194.0
 40
195.0
 40
195.0
 40
196.0
 40
196.0
 40
197.0
 40
197.0
 40
198.0
 40
198.0
 40
199.0
 40
199.0
 40
200.0
 40
200.0
 40
201.0
 40
201.0
 40
202.0
 40
202.0
 40
203.0
 40
203.0
 40
204.0
 40
204.0
 40
205.0
 40
205.0
 40
206.0
 40
206.0
 40
207.0
 40
207.0
 40
208.0
 40
208.0
 40
209.0
 40
209.0
 40
210.0
 40
210.0
 40
211.0
 40
211.0
 40
212.0
 40
212.0
 40
213.0
 40
213.0
 40
214.0
 40
214.0
 40
215.0
 40
215.0
 40
216.0
 40
216.0
 40
217.0
 40
217.0
 40
218.0
 40
218.0
 40
219.0
 40
219.0
 40
220.0
 40
220.0
 40
221.0
 40
221.0
 40
222.0
 40
222.0
 40
223.0
 40
223.0
 40
224.0
 40
224.0
 40
225.0
 40
225.0
 40
226.0
 40
226.0
 40
227.0
 40
227.0
 40
228.0
 40
228.0
 40
229.0
 40
229.0
 40
230.0
 40
230.0
 40
231.0
 40
231.0
 40
232.0
 40
232.0
 40
233.0
 40
233.0
 40
234.0
 40
234.0
 40
235.0
 40
235.0
 40
236.0
 40
236.0
 40
237.0
 40
237.0
 40
238.0
 40
238.0
 40
239.0
 40
239.0
 40
240.0
 40
240.0
 40
241.0
 40
241.0
 40
242.0
 40
242.0
 40
243.0
 40
243.0
 40
244.0
 40
244.0
 40
245.0
 40
245.0
 40
246.0
 40
246.0
 40
247.0
 40
247.0
 40
248.0
 40
248.0
 40
249.0
 40
249.0
 40
250.0
 40
250.0
 40
251.0
 40
251.0
 40
252.0
 40
252.0
 40
253.0
 40
253.0
 40
254.0
 40
254.0
 40
255.0
 40
255.0
 40
256.0
 40
256.0
 40
257.0
 40
257.0
 40
258.0
 40
258.0
 40
259.0
 40
259.0
 40
260.0
 40
260.0
 40
261.0
 40
261.0
 40
262.0
 40
262.0
 40
263.0
 40
263.0
 40
264.0
 40
264.0
 40
265.0
 40
265.0
 40
266.0
 40
266.0
 40
267.0
 40
267.0
 40
268.0
 40
268.0
 40
269.0
 40
269.0
 40
270.0
 40
270.0
 40
271.0
 40
271.0
 40
272.0
 40
272.0
 40
273.0
 40
273.0
 40
274.0
 40
274.0
 40
275.0
 40
275.0
 40
276.0
 40
276.0
 40
277.0
 40
277.0
 40
278.0
 40
278.0
 40
279.0
 40
279.0
 40
280.0
 40
280.0
 40
281.0
 40
281.0
 40
282.0
 40
282.0
 40
283.0
 40
283.0
 40
284.0
 40
284.0
 40
285.0
 40
285.0
 40
286.0
 40
286.0
 40
287.0
 40
287.0
 40
288.0
 40
288.0
 40
289.0
 40
289.0
 40
290.0
 40
290.0
 40
291.0
 40
291.0
 40
292.0
 40
292.0
 40
293.0
 40
293.0
 40
294.0
 40
294.0
 40
295.0
 40
295.0
 40
296.0
 40
296.0
 40
297.0
 40
297.0
 40
298.0
 40
298.0
 40
299.0
 40
299.0
 40
300.0
 40
300.0
 40
301.0
 40
301.0
 40
302.0
 40
302.0
 40
303.0
 40
303.0
 40
304.0
 40
304.0
 40
305.0
 40
305.0
 40
306.0
 40
306.0
 40
307.0
 40
307.0
 40
308.0
 40
308.0
 40
309.0
 40
309.0
 40
310.0
 40
310.0
 40
311.0
 40
311.0
 40
312.0
 40
312.0
 40
313.0
 40
313.0
 40
314.0
 40
314.0
 40
315.0
 40
315.0
 40
316.0
 40
316.0
 40
317.0
 40
317.0
 40
318.0
 40
318.0
 40
319.0
 40
319.0
 40
320.0
 40
320.0
 40
321.0
 40
321.0
 40
322.0
 40
322.0
 40
323.0
 40
323.0
 40
324.0
 40
324.0
 40
325.0
 40
325.0
 40
326.0
 40
326.0
 40
327.0
 40
327.0
 40
328.0
 40
328.0
 40
329.0
 40
329.0
 40
330.0
 40
330.0
 40
331.0
 40
331.0
 40
332.0
 40
332.0
 40
333.0
 40
333.0
 40
334.0
 40
334.0
 40
335.0
 40
335.0
 40
336.0
 40
336.0
 40
337.0
 40
337.0
 40
338.0
 40
338.0
 40
339.0
 40
339.0
 40
340.0
 40
340.0
 40
341.0
 40
341.0
 40
342.0
 40
342.0
 40
343.0
 40
343.0
 40
344.0
 40
344.0
 40
345.0
 40
345.0
 40
346.0
 40
346.0
 40
347.0
 40
347.0
 40
348.0
 40
348.0
 40
349.0
 40
349.0
 40
350.0
 40
350.0
 40
351.0
 40
351.0
 40
352.0
 40
352.0
 40
353.0
 40
353.0
 40
354.0
 40
354.0
 40
355.0
 40
355.0
 40
356.0
 40
356.0
 40
357.0
 40
357.0
 40
358.0
 40
358.0
 40
359.0
 40
359.0
 40
360.0
 40
360.0
 40
361.0
 40
361.0
 40
362.0
 40
362.0
 40
363.0
 40
363.0
 40
364.0
 40
364.0
 40
365.0
 40
365.0
 40
366.0
 40
366.0
 40
367.0
 40
367.0
 40
368.0
 40
368.0
 40
369.0
 40
369.0
 40
370.0
 40
370.0
 40
371.0
 40
371.0
 40
372.0
 40
372.0
 40
373.0
 40
373.0
 40
374.0
 40
374.0
 40
375.0
 40
375.0
 40
376.0
 40
376.0
 40
377.0
 40
377.0
 40
378.0
 40
378.0
 40
379.0
 40
379.0
 40
380.0
 40
380.0
 40
381.0
 40
381.0
 40
382.0
 40
382.0
 40
383.0
 40
383.0
 40
384.0
 40
384.0
 40
385.0
 40
385.0
 40
386.0
 40
386.0
 40
387.0
 40
387.0
 40
388.0
 40
388.0
 40
389.0
 40
389.0
 40
389.0
 10
752.1453711488111
 20
-1478.67443897624
 30
0.0
 41
1.0
 10
752.9637952575316
 20
-1478.67443897624
 30
0.0
 41
1.0
 10
753.7822193662521
 20
-1478.67443897624
 30
0.0
 41
1.0
 10
753.3684656307354
 20
-1480.01706524049
 30
0.0
 41
1.0
 10
752.9547118952187
 20
-1481.35969150474
 30
0.0
 41
1.0
 10
752.9730513903924
 20
-1481.330990731819
 30
0.0
 41
0.9999957264385098
 10
752.99155838723
 20
-1481.302397681658
 30
0.0
 41
1.0
 10
753.0219877113609
 20
-1481.255384803292
 30
0.0
 41
1.0
 10
753.0524170354918
 20
-1481.208371924926
 30
0.0
 41
1.0
 10
753.1317826805966
 20
-1481.085753118025
 30
0.0
 41
0.9995394069081334
 10
753.2184410721492
 20
-1480.968175056282
 30
0.0
 41
1.0
 10
753.2541979344095
 20
-1480.919660163688
 30
0.0
 41
1.0
 10
753.2899547966698
 20
-1480.871145271094
 30
0.0
 41
1.0
 10
753.4236814644884
 20
-1480.689704995966
 30
0.0
 41
0.9994460617143213
 10
753.5691819457757
 20
-1480.517562598317
 30
0.0
 41
1.0
 10
753.5735701267491
 20
-1480.512370917937
 30
0.0
 41
1.0
 10
753.5779583077226
 20
-1480.507179237556
 30
0.0
 41
1.0
 10
753.7146824270628
 20
-1480.345420200669
 30
0.0
 41
0.9994359394934333
 10
753.8619566574149
 20
-1480.193203999503
 30
0.0
 41
1.0
 10
753.8643400113685
 20
-1480.19074066913
 30
0.0
 41
1.0
 10
753.8667233653221
 20
-1480.188277338757
 30
0.0
 41
1.0
 10
754.009230887767
 20
-1480.040987798338
 30
0.0
 41
0.9995293688567958
 10
754.1605025687485
 20
-1479.902714586175
 30
0.0
 41
1.0
 10
754.1797963280139
 20
-1479.885078700521
 30
0.0
 41
1.0
 10
754.1990900872795
 20
-1479.867442814868
 30
0.0
 41
1.0
 10
754.3117742497337
 20
-1479.764441374008
 30
0.0
 41
0.9997087614804071
 10
754.4292971386856
 20
-1479.666997093213
 30
0.0
 41
1.0
 10
754.4484632118658
 20
-1479.651105514701
 30
0.0
 41
1.0
 10
754.467629285046
 20
-1479.635213936189
 30
0.0
 41
1.0
 10
754.5468200276487
 20
-1479.569552812408
 30
0.0
 41
0.9999595338698871
 10
754.6271792984958
 20
-1479.50532708176
 30
0.0
 41
1.0
 10
754.7075385693421
 20
-1479.441101351112
 30
0.0
 41
0.9999749417505733
 10
754.7887991036704
 20
-1479.378019797177
 30
0.0
 41
1.0
 10
754.8097852498656
 20
-1479.36172850985
 30
0.0
 41
1.0
 10
754.830771396061
 20
-1479.345437222523
 30
0.0
 41
1.0
 10
754.9153392813432
 20
-1479.279788212697
 30
0.0
 41
0.999979203711375
 10
755.0007468810968
 20
-1479.215235431066
 30
0.0
 41
1.0
 10
755.0215717070955
 20
-1479.199495608742
 30
0.0
 41
1.0
 10
755.0423965330943
 20
-1479.183755786418
 30
0.0
 41
1.0
 10
755.0861544809754
 20
-1479.150682649339
 30
0.0
 41
0.999999337374733
 10
755.1298361670094
 20
-1479.117508853998
 30
0.0
 41
1.0
 10
755.173517853153
 20
-1479.084335058574
 30
0.0
 41
0.9999160953817355
 10
755.2180442640736
 20
-1479.052303993375
 30
0.0
 41
1.0
 10
755.2508661514925
 20
-1479.02869283779
 30
0.0
 41
1.0
 10
755.2836880389114
 20
-1479.005081682206
 30
0.0
 41
1.0
 10
755.3938582246703
 20
-1478.925828305838
 30
0.0
 41
0.9980964527232521
 10
755.5129472181703
 20
-1478.860740832982
 30
0.0
 41
1.0
 10
755.5499798250983
 20
-1478.840500853389
 30
0.0
 41
1.0
 10
755.5870124320261
 20
-1478.820260873796
 30
0.0
 41
1.0
 10
755.7663394452989
 20
-1478.722250623095
 30
0.0
 41
0.998457281057252
 10
755.9554280116587
 20
-1478.644728361748
 30
0.0
 41
1.0
 10
755.9590742810549
 20
-1478.64323346941
 30
0.0
 41
1.0
 10
755.9627205504512
 20
-1478.641738577072
 30
0.0
 41
1.0
 10
756.1445165780184
 20
-1478.567206100402
 30
0.0
 41
0.9987838528034132
 10
756.3327692365768
 20
-1478.510940460236
 30
0.0
 41
1.0
 10
756.3370071857764
 20
-1478.509673806545
 30
0.0
 41
1.0
 10
756.3412451349761
 20
-1478.508407152855
 30
0.0
 41
1.0
 10
756.5210218951373
 20
-1478.45467482007
 30
0.0
 41
0.9990652816207575
 10
756.7047678268519
 20
-1478.416671140528
 30
0.0
 41
1.0
 10
756.7099562278813
 20
-1478.415598037422
 30
0.0
 41
1.0
 10
756.7151446289108
 20
-1478.414524934316
 30
0.0
 41
1.0
 10
756.8885137585656
 20
-1478.378667460986
 30
0.0
 41
0.9992909934270007
 10
757.0640895250261
 20
-1478.35595702852
 30
0.0
 41
1.0
 10
757.2396652914846
 20
-1478.333246596053
 30
0.0
 41
0.9994553539448705
 10
757.4163567245776
 20
-1478.322167291847
 30
0.0
 41
1.0
 10
757.4517911323754
 20
-1478.319945403799
 30
0.0
 41
1.0
 10
757.4872255401733
 20
-1478.317723515751
 30
0.0
 41
1.0
 10
757.6534513067405
 20
-1478.30730045334
 30
0.0
 41
0.99909280982935
 10
757.8199610986408
 20
-1478.311060094574
 30
0.0
 41
1.0
 10
757.8585229339119
 20
-1478.311930786107
 30
0.0
 41
1.0
 10
757.8970847691829
 20
-1478.31280147764
 30
0.0
 41
1.0
 10
757.9864708905427
 20
-1478.314819735808
 30
0.0
 41
0.9998382089204289
 10
758.0757265733297
 20
-1478.320051862337
 30
0.0
 41
1.0
 10
758.0761564795467
 20
-1478.320077063239
 30
0.0
 41
1.0
 10
758.0765863857638
 20
-1478.320102264141
 30
0.0
 41
1.0
 10
758.164982256113
 20
-1478.325283988865
 30
0.0
 41
0.9997558016758183
 10
758.2530628333167
 20
-1478.334366504231
 30
0.0
 41
1.0
 10
758.2535389717461
 20
-1478.334415601714
 30
0.0
 41
1.0
 10
758.2540151101756
 20
-1478.334464699196
 30
0.0
 41
1.0
 10
758.3411434105175
 20
-1478.343449019598
 30
0.0
 41
0.9996565144180849
 10
758.4276812638595
 20
-1478.356986326287
 30
0.0
 41
1.0
 10
758.4281471892386
 20
-1478.357059212018
 30
0.0
 41
1.0
 10
758.4286131146177
 20
-1478.35713209775
 30
0.0
 41
1.0
 10
758.5142191172031
 20
-1478.370523632976
 30
0.0
 41
0.9995321806867449
 10
758.5988461975296
 20
-1478.389124121405
 30
0.0
 41
1.0
 10
758.5992353921006
 20
-1478.389209663871
 30
0.0
 41
1.0
 10
758.5996245866716
 20
-1478.389295206336
 30
0.0
 41
1.0
 10
758.6834732778567
 20
-1478.407724609834
 30
0.0
 41
0.9993819199219468
 10
758.7658198120539
 20
-1478.431999993095
 30
0.0
 41
1.0
 10
758.7660582455517
 20
-1478.432070282204
 30
0.0
 41
1.0
 10
758.7662966790493
 20
-1478.432140571313
 30
0.0
 41
1.0
 10
758.8481663462501
 20
-1478.456275376356
 30
0.0
 41
0.999208856850519
 10
758.9278588652382
 20
-1478.48684061215
 30
0.0
 41
1.0
 10
759.0075398561173
 20
-1478.517400212883
 30
0.0
 41
0.9990226101773482
 10
759.0842105260244
 20
-1478.554877644498
 30
0.0
 41
1.0
 10
759.1608696678236
 20
-1478.592349441052
 30
0.0
 41
0.9988424273973205
 10
759.2335732950356
 20
-1478.637014216305
 30
0.0
 41
1.0
 10
759.2338410034147
 20
-1478.637178680377
 30
0.0
 41
1.0
 10
759.2341087117936
 20
-1478.637343144449
 30
0.0
 41
1.0
 10
759.3073477557646
 20
-1478.682336847846
 30
0.0
 41
0.998692884449067
 10
759.3756106224744
 20
-1478.734572582126
 30
0.0
 41
1.0
 10
759.3761919146971
 20
-1478.735017395354
 30
0.0
 41
1.0
 10
759.3767732069198
 20
-1478.735462208582
 30
0.0
 41
1.0
 10
759.4461986580746
 20
-1478.788587569317
 30
0.0
 41
0.998600726227797
 10
759.509624827842
 20
-1478.848748339011
 30
0.0
 41
1.0
 10
759.5105192432991
 20
-1478.849596706846
 30
0.0
 41
1.0
 10
759.5114136587562
 20
-1478.850445074681
 30
0.0
 41
1.0
 10
759.5766286594376
 20
-1478.912302580045
 30
0.0
 41
0.9985581491380863
 10
759.6348362711387
 20
-1478.980795070316
 30
0.0
 41
1.0
 10
759.6440947247347
 20
-1478.991689428018
 30
0.0
 41
1.0
 10
759.6533531783306
 20
-1479.002583785719
 30
0.0
 41
1.0
 10
759.7300776972236
 20
-1479.092864991394
 30
0.0
 41
0.9970460233521043
 10
759.7920695983835
 20
-1479.193832075576
 30
0.0
 41
1.0
 10
759.8065389634631
 20
-1479.217398534658
 30
0.0
 41
1.0
 10
759.8210083285428
 20
-1479.240964993739
 30
0.0
 41
1.0
 10
759.8607450285549
 20
-1479.305684717771
 30
0.0
 41
0.9988468816636007
 10
759.8940913993063
 20
-1479.373917170198
 30
0.0
 41
1.0
 10
759.9011274217978
 20
-1479.388314091336
 30
0.0
 41
1.0
 10
759.9081634442894
 20
-1479.402711012473
 30
0.0
 41
1.0
 10
759.9274377700588
 20
-1479.442149622628
 30
0.0
 41
0.9998431189999516
 10
759.9453030975527
 20
-1479.482246177066
 30
0.0
 41
1.0
 10
759.963168425066
 20
-1479.522342731548
 30
0.0
 41
0.999998998999152
 10
759.9811471484797
 20
-1479.562388569114
 30
0.0
 41
1.0
 10
759.9873194600689
 20
-1479.576136785915
 30
0.0
 41
1.0
 10
759.9934917716581
 20
-1479.589885002716
 30
0.0
 41
1.0
 10
760.0238151182679
 20
-1479.657427273924
 30
0.0
 41
0.99987903563215
 10
760.0520229984079
 20
-1479.725880025866
 30
0.0
 41
1.0
 10
760.058858179691
 20
-1479.74246712729
 30
0.0
 41
1.0
 10
760.0656933609743
 20
-1479.759054228715
 30
0.0
 41
1.0
 10
760.0892510233549
 20
-1479.816222183601
 30
0.0
 41
0.9998227574562057
 10
760.1106397717448
 20
-1479.87423649188
 30
0.0
 41
1.0
 10
760.1320285201339
 20
-1479.932250800157
 30
0.0
 41
0.9996797971041568
 10
760.1504548050941
 20
-1479.991272919278
 30
0.0
 41
1.0
 10
760.1543586078193
 20
-1480.003777377446
 30
0.0
 41
1.0
 10
760.1582624105445
 20
-1480.016281835614
 30
0.0
 41
1.0
 10
760.1844963009551
 20
-1480.10031287107
 30
0.0
 41
0.997927493873306
 10
760.1997208244337
 20
-1480.187017229729
 30
0.0
 41
1.0
 10
760.201944511695
 20
-1480.199681230551
 30
0.0
 41
1.0
 10
760.2041681989563
 20
-1480.212345231373
 30
0.0
 41
1.0
 10
760.2150981386543
 20
-1480.274591738661
 30
0.0
 41
0.9994985982136935
 10
760.2220663038314
 20
-1480.337405239805
 30
0.0
 41
1.0
 10
760.2290344690084
 20
-1480.400218740946
 30
0.0
 41
0.9996372611201725
 10
760.2326103347764
 20
-1480.463316319632
 30
0.0
 41
1.0
 10
760.2327789122655
 20
-1480.466290936713
 30
0.0
 41
1.0
 10
760.2329474897548
 20
-1480.469265553793
 30
0.0
 41
1.0
 10
760.2368605105012
 20
-1480.538312366637
 30
0.0
 41
0.9997730630736106
 10
760.2378288239893
 20
-1480.607463190674
 30
0.0
 41
1.0
 10
760.2378859304074
 20
-1480.611541369816
 30
0.0
 41
1.0
 10
760.2379430368255
 20
-1480.615619548957
 30
0.0
 41
1.0
 10
760.2390255631499
 20
-1480.692926731273
 30
0.0
 41
0.9998772614069537
 10
760.2376854764182
 20
-1480.770229877836
 30
0.0
 41
1.0
 10
760.2375962132194
 20
-1480.775379041673
 30
0.0
 41
1.0
 10
760.2375069500206
 20
-1480.780528205509
 30
0.0
 41
1.0
 10
760.2359883368918
 20
-1480.868129679733
 30
0.0
 41
0.9999415567325258
 10
760.2325760266463
 20
-1480.955677841398
 30
0.0
 41
1.0
 10
760.2323347059705
 20
-1480.961869301145
 30
0.0
 41
1.0
 10
760.2320933852948
 20
-1480.968060760893
 30
0.0
 41
1.0
 10
760.228198433698
 20
-1481.067991842046
 30
0.0
 41
0.9999716810431639
 10
760.2227998505793
 20
-1481.167852980277
 30
0.0
 41
1.0
 10
760.2195870517909
 20
-1481.227282229928
 30
0.0
 41
1.0
 10
760.2163742530024
 20
-1481.286711479579
 30
0.0
 41
1.0
 10
760.2083003438502
 20
-1481.436059880854
 30
0.0
 41
0.9999819129905275
 10
760.1984305522327
 20
-1481.585300358579
 30
0.0
 41
1.0
 10
760.1885607606162
 20
-1481.73454083629
 30
0.0
 41
1.0
 10
760.1861214400524
 20
-1481.771733882139
 30
0.0
 41
1.0
 10
760.2088196738674
 20
-1481.732992884836
 30
0.0
 41
0.9999982128208428
 10
760.2316642325903
 20
-1481.694337990933
 30
0.0
 41
1.0
 10
760.2585737924994
 20
-1481.648804776838
 30
0.0
 41
1.0
 10
760.2854833524084
 20
-1481.603271562741
 30
0.0
 41
1.0
 10
760.362147030935
 20
-1481.47355024067
 30
0.0
 41
0.9998609190059036
 10
760.4430943437987
 20
-1481.346457858738
 30
0.0
 41
1.0
 10
760.4727426652756
 20
-1481.299908125789
 30
0.0
 41
1.0
 10
760.5023909867525
 20
-1481.253358392839
 30
0.0
 41
1.0
 10
760.5846632069935
 20
-1481.124185822837
 30
0.0
 41
0.9999067609730098
 10
760.6704322164605
 20
-1480.997308133392
 30
0.0
 41
1.0
 10
760.672836919663
 20
-1480.993750867334
 30
0.0
 41
1.0
 10
760.6752416228657
 20
-1480.990193601277
 30
0.0
 41
1.0
 10
760.7562012259276
 20
-1480.870430443946
 30
0.0
 41
0.9998784952150087
 10
760.840854835606
 20
-1480.753249227241
 30
0.0
 41
1.0
 10
760.9255084452889
 20
-1480.636068010531
 30
0.0
 41
0.9998532968283516
 10
761.0141260661093
 20
-1480.521855102063
 30
0.0
 41
1.0
 10
761.0340878551018
 20
-1480.496127781041
 30
0.0
 41
1.0
 10
761.0540496440943
 20
-1480.470400460019
 30
0.0
 41
1.0
 10
761.1725336938523
 20
-1480.317694849052
 30
0.0
 41
0.9991551975795534
 10
761.3031581434747
 20
-1480.17523528697
 30
0.0
 41
1.0
 10
761.3066677594527
 20
-1480.171407685348
 30
0.0
 41
1.0
 10
761.3101773754308
 20
-1480.167580083725
 30
0.0
 41
1.0
 10
761.4337825930975
 20
-1480.032775724887
 30
0.0
 41
0.9997418144181143
 10
761.5633847327987
 20
-1479.903726314274
 30
0.0
 41
1.0
 10
761.6929868725002
 20
-1479.774676903661
 30
0.0
 41
0.9989238204633332
 10
761.8339894207506
 20
-1479.658191941623
 30
0.0
 41
1.0
 10
761.8792370988897
 20
-1479.620811950014
 30
0.0
 41
1.0
 10
761.9244847770287
 20
-1479.583431958406
 30
0.0
 41
1.0
 10
762.0647248342503
 20
-1479.467576905115
 30
0.0
 41
0.9990825084096585
 10
762.2143647668547
 20
-1479.364147907281
 30
0.0
 41
1.0
 10
762.2244101309141
 20
-1479.3572046942
 30
0.0
 41
1.0
 10
762.2344554949735
 20
-1479.350261481119
 30
0.0
 41
1.0
 10
762.3640046994599
 20
-1479.260718909448
 30
0.0
 41
0.9998164899826709
 10
762.496888902835
 20
-1479.176204667932
 30
0.0
 41
1.0
 10
762.5087344633612
 20
-1479.168670901406
 30
0.0
 41
1.0
 10
762.5205800238873
 20
-1479.16113713488
 30
0.0
 41
1.0
 10
762.6297731062118
 20
-1479.091690426415
 30
0.0
 41
0.9997473449130169
 10
762.7419770634608
 20
-1479.0272214686
 30
0.0
 41
1.0
 10
762.8541810207108
 20
-1478.962752510784
 30
0.0
 41
0.9999327861143098
 10
762.9678496314759
 20
-1478.900902519101
 30
0.0
 41
1.0
 10
762.9684016340354
 20
-1478.900602160423
 30
0.0
 41
1.0
 10
762.9689536365951
 20
-1478.900301801744
 30
0.0
 41
1.0
 10
763.0837262524781
 20
-1478.837851092706
 30
0.0
 41
0.9996956420483265
 10
763.2014395783181
 20
-1478.781137625731
 30
0.0
 41
1.0
 10
763.2318799832124
 20
-1478.766471649
 30
0.0
 41
1.0
 10
763.2623203881067
 20
-1478.75180567227
 30
0.0
 41
1.0
 10
763.36529749485
 20
-1478.702192013827
 30
0.0
 41
0.9998070570177423
 10
763.4701438837903
 20
-1478.656661426926
 30
0.0
 41
1.0
 10
763.5749902727326
 20
-1478.611130840024
 30
0.0
 41
0.9997827436147806
 10
763.6816432093455
 20
-1478.570009668711
 30
0.0
 41
1.0
 10
763.7008660589747
 20
-1478.562598095079
 30
0.0
 41
1.0
 10
763.7200889086039
 20
-1478.555186521448
 30
0.0
 41
1.0
 10
763.8651875444746
 20
-1478.499242202872
 30
0.0
 41
0.9988031841975907
 10
764.0150579070779
 20
-1478.457742138705
 30
0.0
 41
1.0
 10
764.0399751554445
 20
-1478.450842392897
 30
0.0
 41
1.0
 10
764.0648924038111
 20
-1478.443942647089
 30
0.0
 41
1.0
 10
764.2321624294565
 20
-1478.397624504683
 30
0.0
 41
0.9984748040550537
 10
764.4035193381039
 20
-1478.370030272418
 30
0.0
 41
1.0
 10
764.4082584743521
 20
-1478.369267111905
 30
0.0
 41
1.0
 10
764.4129976106003
 20
-1478.368503951391
 30
0.0
 41
1.0
 10
764.5748762467522
 20
-1478.342436040153
 30
0.0
 41
0.9984436495479045
 10
764.7386509904777
 20
-1478.334558086334
 30
0.0
 41
1.0
 10
764.7603481986084
 20
-1478.333514399135
 30
0.0
 41
1.0
 10
764.7820454067393
 20
-1478.332470711935
 30
0.0
 41
1.0
 10
764.9024257342019
 20
-1478.326680132516
 30
0.0
 41
0.9987954789335791
 10
765.0227939791122
 20
-1478.332716660258
 30
0.0
 41
1.0
 10
765.0427587716076
 20
-1478.333717904597
 30
0.0
 41
1.0
 10
765.062723564103
 20
-1478.334719148936
 30
0.0
 41
1.0
 10
765.143162224023
 20
-1478.338753188001
 30
0.0
 41
0.9997941595877476
 10
765.2233710021164
 20
-1478.346047253922
 30
0.0
 41
1.0
 10
765.3035797802108
 20
-1478.353341319843
 30
0.0
 41
0.9998589466236198
 10
765.3834983270656
 20
-1478.363325174293
 30
0.0
 41
1.0
 10
765.415904528874
 20
-1478.367373531212
 30
0.0
 41
1.0
 10
765.4483107306824
 20
-1478.371421888131
 30
0.0
 41
1.0
 10
765.5930416811535
 20
-1478.38950245642
 30
0.0
 41
0.9993495063249044
 10
765.7360929249189
 20
-1478.417968166161
 30
0.0
 41
1.0
 10
765.7690266220725
 20
-1478.424521629376
 30
0.0
 41
1.0
 10
765.8019603192259
 20
-1478.431075092591
 30
0.0
 41
1.0
 10
765.9112541424289
 20
-1478.452823426726
 30
0.0
 41
0.9996788715561058
 10
766.0193057143845
 20
-1478.480081226089
 30
0.0
 41
1.0
 10
766.0213687169221
 20
-1478.480601652662
 30
0.0
 41
1.0
 10
766.0234317194596
 20
-1478.481122079234
 30
0.0
 41
1.0
 10
766.1273572863398
 20
-1478.507339025452
 30
0.0
 41
0.999548065449263
 10
766.2295195215703
 20
-1478.539753982076
 30
0.0
 41
1.0
 10
766.2312091637016
 20
-1478.540290086991
 30
0.0
 41
1.0
 10
766.232898805833
 20
-1478.540826191906
 30
0.0
 41
1.0
 10
766.3316817568018
 20
-1478.572168938702
 30
0.0
 41
0.9993867959455963
 10
766.4280289152423
 20
-1478.610348307991
 30
0.0
 41
1.0
 10
766.4292718643275
 20
-1478.610840849887
 30
0.0
 41
1.0
 10
766.4305148134126
 20
-1478.611333391784
 30
0.0
 41
1.0
 10
766.5243760736843
 20
-1478.64852767728
 30
0.0
 41
0.9992050256522454
 10
766.6149757487182
 20
-1478.693081576519
 30
0.0
 41
1.0
 10
766.6157104314291
 20
-1478.693442868979
 30
0.0
 41
1.0
 10
766.6164451141401
 20
-1478.693804161439
 30
0.0
 41
1.0
 10
766.7055754237495
 20
-1478.737635475756
 30
0.0
 41
0.9990222350740636
 10
766.7904854851453
 20
-1478.789168743456
 30
0.0
 41
1.0
 10
766.790669370429
 20
-1478.789280346361
 30
0.0
 41
1.0
 10
766.7908532557126
 20
-1478.789391949267
 30
0.0
 41
1.0
 10
766.87539554654
 20
-1478.840702011155
 30
0.0
 41
0.9988642743805711
 10
766.9546700811579
 20
-1478.89982619868
 30
0.0
 41
1.0
 10
767.0339446157761
 20
-1478.958950386205
 30
0.0
 41
0.9987681233310729
 10
767.106968400052
 20
-1479.025641077605
 30
0.0
 41
1.0
 10
767.1072973280183
 20
-1479.02594147882
 30
0.0
 41
1.0
 10
767.1076262559845
 20
-1479.026241880034
 30
0.0
 41
1.0
 10
767.1813078961919
 20
-1479.093533373863
 30
0.0
 41
0.9987496570898197
 10
767.2479017015191
 20
-1479.16784618795
 30
0.0
 41
1.0
 10
767.2486738712798
 20
-1479.168707861308
 30
0.0
 41
1.0
 10
767.2494460410404
 20
-1479.169569534666
 30
0.0
 41
1.0
 10
767.3175841858887
 20
-1479.245605695469
 30
0.0
 41
0.9988147669827436
 10
767.3780064401149
 20
-1479.327906702313
 30
0.0
 41
1.0
 10
767.3791257661919
 20
-1479.329431333664
 30
0.0
 41
1.0
 10
767.380245092269
 20
-1479.330955965016
 30
0.0
 41
1.0
 10
767.4429059986492
 20
-1479.416306234563
 30
0.0
 41
0.9989452636215409
 10
767.4974729116102
 20
-1479.50704492372
 30
0.0
 41
1.0
 10
767.4988216376962
 20
-1479.509287704747
 30
0.0
 41
1.0
 10
767.5001703637821
 20
-1479.511530485773
 30
0.0
 41
1.0
 10
767.5574347289144
 20
-1479.606754736983
 30
0.0
 41
0.9991046436070453
 10
767.6064439422364
 20
-1479.706479170009
 30
0.0
 41
1.0
 10
767.6079078038265
 20
-1479.709457850081
 30
0.0
 41
1.0
 10
767.6093716654165
 20
-1479.712436530154
 30
0.0
 41
1.0
 10
767.6613086019174
 20
-1479.818118323323
 30
0.0
 41
0.9992763831100945
 10
767.7050617304728
 20
-1479.927442385279
 30
0.0
 41
1.0
 10
767.7065410001364
 20
-1479.931138572813
 30
0.0
 41
1.0
 10
767.7080202697999
 20
-1479.934834760347
 30
0.0
 41
1.0
 10
767.7547319376819
 20
-1480.051551197371
 30
0.0
 41
0.9994163472882818
 10
767.7933649688713
 20
-1480.171184785834
 30
0.0
 41
1.0
 10
767.7946031211181
 20
-1480.175018929617
 30
0.0
 41
1.0
 10
767.7958412733651
 20
-1480.178853073401
 30
0.0
 41
1.0
 10
767.8357248343822
 20
-1480.302359134879
 30
0.0
 41
0.9997268055891658
 10
767.8697928902943
 20
-1480.42759416683
 30
0.0
 41
1.0
 10
767.870723070564
 20
-1480.431013532939
 30
0.0
 41
1.0
 10
767.8716532508339
 20
-1480.434432899049
 30
0.0
 41
1.0
 10
767.9038609462068
 20
-1480.552829198782
 30
0.0
 41
0.9996701319000636
 10
767.9299465629767
 20
-1480.672723152044
 30
0.0
 41
1.0
 10
767.9560321797474
 20
-1480.792617105309
 30
0.0
 41
0.9995785451109926
 10
767.9751157570871
 20
-1480.91382286634
 30
0.0
 41
1.0
 10
767.9793355392608
 20
-1480.940624021104
 30
0.0
 41
1.0
 10
767.9835553214343
 20
-1480.967425175868
 30
0.0
 41
1.0
 10
768.010130297373
 20
-1481.136211149572
 30
0.0
 41
0.997992510121626
 10
768.0151558832993
 20
-1481.307002477663
 30
0.0
 41
1.0
 10
768.015980695724
 20
-1481.33503320115
 30
0.0
 41
1.0
 10
768.0168055081488
 20
-1481.363063924636
 30
0.0
 41
1.0
 10
768.0201814692253
 20
-1481.477793805759
 30
0.0
 41
0.9995314902264016
 10
768.0165312770871
 20
-1481.592515289507
 30
0.0
 41
1.0
 10
768.0128810849488
 20
-1481.707236773256
 30
0.0
 41
0.9996245486944277
 10
768.0029519898179
 20
-1481.821586044382
 30
0.0
 41
1.0
 10
768.0027889418236
 20
-1481.823463800518
 30
0.0
 41
1.0
 10
768.0026258938293
 20
-1481.825341556653
 30
0.0
 41
1.0
 10
767.9923707027099
 20
-1481.943446340049
 30
0.0
 41
0.999728609500112
 10
767.9766253791385
 20
-1482.060945248943
 30
0.0
 41
1.0
 10
767.9762318864881
 20
-1482.063881673645
 30
0.0
 41
1.0
 10
767.9758383938378
 20
-1482.066818098346
 30
0.0
 41
1.0
 10
767.9593060849658
 20
-1482.190189856643
 30
0.0
 41
0.999826553396936
 10
767.9381906262337
 20
-1482.312860331429
 30
0.0
 41
1.0
 10
767.9375140840962
 20
-1482.316790709939
 30
0.0
 41
1.0
 10
767.9368375419588
 20
-1482.320721088448
 30
0.0
 41
1.0
 10
767.9143689989515
 20
-1482.451252320254
 30
0.0
 41
0.9999022530851382
 10
767.8882595343414
 20
-1482.581104288892
 30
0.0
 41
1.0
 10
767.8872808931762
 20
-1482.585971431279
 30
0.0
 41
1.0
 10
767.8863022520111
 20
-1482.590838573665
 30
0.0
 41
1.0
 10
767.8582355050684
 20
-1482.730424827086
 30
0.0
 41
0.9999524761935391
 10
767.8274525362319
 20
-1482.869437320259
 30
0.0
 41
1.0
 10
767.8261764290583
 20
-1482.875200079553
 30
0.0
 41
1.0
 10
767.8249003218846
 20
-1482.880962838847
 30
0.0
 41
1.0
 10
767.7915651387009
 20
-1483.031500850608
 30
0.0
 41
0.999981358871907
 10
767.7563941379022
 20
-1483.181620563276
 30
0.0
 41
1.0
 10
767.7548402124462
 20
-1483.188253153696
 30
0.0
 41
1.0
 10
767.75328628699
 20
-1483.194885744117
 30
0.0
 41
1.0
 10
767.7150074352844
 20
-1483.358270637604
 30
0.0
 41
0.9999955237622765
 10
767.6757515573067
 20
-1483.521423541199
 30
0.0
 41
1.0
 10
767.6634699216693
 20
-1483.572467731735
 30
0.0
 41
1.0
 10
767.6511882860318
 20
-1483.62351192227
 30
0.0
 41
1.0
 10
767.5873691367615
 20
-1483.88875320701
 30
0.0
 41
0.9999993604222102
 10
767.522950189602
 20
-1484.153849457659
 30
0.0
 41
1.0
 10
767.5182313540613
 20
-1484.173268365674
 30
0.0
 41
1.0
 10
767.5135125185207
 20
-1484.192687273688
 30
0.0
 41
1.0
 10
767.4396559002562
 20
-1484.496621340462
 30
0.0
 41
0.9999659914722431
 10
767.3607963043702
 20
-1484.799295887024
 30
0.0
 41
1.0
 10
767.3558436154419
 20
-1484.818305024198
 30
0.0
 41
1.0
 10
767.3508909265137
 20
-1484.837314161371
 30
0.0
 41
1.0
 10
767.2621259527696
 20
-1485.178006982286
 30
0.0
 41
0.9999441976024169
 10
767.1661829198092
 20
-1485.516748407573
 30
0.0
 41
1.0
 10
767.1494824013814
 20
-1485.575712120109
 30
0.0
 41
1.0
 10
767.1327818829537
 20
-1485.634675832644
 30
0.0
 41
1.0
 10
767.0034378131347
 20
-1486.091344683013
 30
0.0
 41
0.9999625120739042
 10
766.8662050458104
 20
-1486.545705217013
 30
0.0
 41
1.0
 10
766.8304151027286
 20
-1486.664201243636
 30
0.0
 41
1.0
 10
766.7946251596468
 20
-1486.782697270259
 30
0.0
 41
1.0
 10
766.7201049556079
 20
-1487.029424348354
 30
0.0
 41
0.9999793386319333
 10
766.6424189324712
 20
-1487.275172987587
 30
0.0
 41
1.0
 10
766.5647329093335
 20
-1487.520921626823
 30
0.0
 41
1.0
 10
766.553953350463
 20
-1487.554939531198
 30
0.0
 41
1.0
 10
764.7035802971938
 20
-1493.442011453665
 30
0.0
 41
1.0
 10
762.8532072439245
 20
-1499.329083376133
 30
0.0
 41
1.0
 10
761.891950553901
 20
-1499.329083376133
 30
0.0
 41
1.0
 10
760.9306938638774
 20
-1499.329083376133
 30
0.0
 41
1.0
 10
762.5496386425559
 20
-1494.181054874343
 30
0.0
 41
1.0
 10
764.1685834212344
 20
-1489.033026372554
 30
0.0
 41
1.0
 10
764.2137492444095
 20
-1488.888995150282
 30
0.0
 41
1.0
 10
764.2589150675847
 20
-1488.744963928009
 30
0.0
 41
1.0
 10
764.4292194849423
 20
-1488.201872898862
 30
0.0
 41
0.9999911657900508
 10
764.5949522966258
 20
-1487.657369367488
 30
0.0
 41
1.0
 10
764.624648240128
 20
-1487.559805427432
 30
0.0
 41
1.0
 10
764.65434418363
 20
-1487.462241487376
 30
0.0
 41
1.0
 10
764.7606851083083
 20
-1487.112865836117
 30
0.0
 41
0.9999952428157577
 10
764.864868697631
 20
-1486.762840811775
 30
0.0
 41
1.0
 10
764.869928167961
 20
-1486.745842537508
 30
0.0
 41
1.0
 10
764.874987638291
 20
-1486.728844263241
 30
0.0
 41
1.0
 10
764.9690522869507
 20
-1486.412815787443
 30
0.0
 41
0.9999931687528625
 10
765.0607781248297
 20
-1486.096100574155
 30
0.0
 41
1.0
 10
765.0657133892846
 20
-1486.079059864899
 30
0.0
 41
1.0
 10
765.0706486537397
 20
-1486.062019155644
 30
0.0
 41
1.0
 10
765.1525039626995
 20
-1485.779385360897
 30
0.0
 41
0.9999893840783879
 10
765.2317511891601
 20
-1485.496009231638
 30
0.0
 41
1.0
 10
765.3109984156224
 20
-1485.212633102372
 30
0.0
 41
0.9999833980064493
 10
765.3869746563664
 20
-1484.928362519334
 30
0.0
 41
1.0
 10
765.3959785930854
 20
-1484.894673640868
 30
0.0
 41
1.0
 10
765.4049825298042
 20
-1484.860984762402
 30
0.0
 41
1.0
 10
765.4739470786694
 20
-1484.602948930111
 30
0.0
 41
0.9999233658066431
 10
765.5365020498905
 20
-1484.343284771385
 30
0.0
 41
1.0
 10
765.5990570211106
 20
-1484.083620612662
 30
0.0
 41
1.0
 10
765.6385404399682
 20
-1483.919813948236
 30
0.0
 41
1.0
 10
765.6435190439463
 20
-1483.899158986362
 30
0.0
 41
1.0
 10
765.6484976479245
 20
-1483.878504024487
 30
0.0
 41
1.0
 10
765.6780238588299
 20
-1483.756007283793
 30
0.0
 41
0.9999868670848279
 10
765.7062929428221
 20
-1483.633214338164
 30
0.0
 41
1.0
 10
765.7101904299791
 20
-1483.61628475075
 30
0.0
 41
1.0
 10
765.7140879171362
 20
-1483.599355163336
 30
0.0
 41
1.0
 10
765.7345620268151
 20
-1483.510421392533
 30
0.0
 41
0.999977817335659
 10
765.7538496249338
 20
-1483.421222775288
 30
0.0
 41
1.0
 10
765.7731372230493
 20
-1483.332024158057
 30
0.0
 41
0.9999602692856308
 10
765.7908315816836
 20
-1483.242495869613
 30
0.0
 41
1.0
 10
765.7940354137594
 20
-1483.226285414737
 30
0.0
 41
1.0
 10
765.7972392458352
 20
-1483.21007495986
 30
0.0
 41
1.0
 10
765.8213412686213
 20
-1483.088125761662
 30
0.0
 41
0.9995617985320597
 10
765.8381846158401
 20
-1482.964964013955
 30
0.0
 41
1.0
 10
765.840649105746
 20
-1482.946943196592
 30
0.0
 41
1.0
 10
765.8431135956519
 20
-1482.928922379228
 30
0.0
 41
1.0
 10
765.8633968567002
 20
-1482.780607329526
 30
0.0
 41
0.9991121410639777
 10
765.8711222102888
 20
-1482.631111230718
 30
0.0
 41
1.0
 10
765.8720410003134
 20
-1482.613331394142
 30
0.0
 41
1.0
 10
765.872959790338
 20
-1482.595551557566
 30
0.0
 41
1.0
 10
765.8788475638771
 20
-1482.481615131912
 30
0.0
 41
0.9989792494905505
 10
765.8744284717598
 20
-1482.367612296013
 30
0.0
 41
1.0
 10
765.8737804998912
 20
-1482.350896050087
 30
0.0
 41
1.0
 10
765.8731325280224
 20
-1482.33417980416
 30
0.0
 41
1.0
 10
765.8700093796426
 20
-1482.253609460118
 30
0.0
 41
0.9997820295394396
 10
765.8635253822667
 20
-1482.173239738371
 30
0.0
 41
1.0
 10
765.857041384891
 20
-1482.092870016625
 30
0.0
 41
0.9998335105973015
 10
765.8476291893795
 20
-1482.012790400178
 30
0.0
 41
1.0
 10
765.8460342647031
 20
-1481.999220669695
 30
0.0
 41
1.0
 10
765.8444393400267
 20
-1481.985650939211
 30
0.0
 41
1.0
 10
765.8318372951627
 20
-1481.878431861796
 30
0.0
 41
0.9996876457879122
 10
765.8138933823647
 20
-1481.771976434082
 30
0.0
 41
1.0
 10
765.811661719219
 20
-1481.758736698839
 30
0.0
 41
1.0
 10
765.8094300560734
 20
-1481.745496963595
 30
0.0
 41
1.0
 10
765.7956342346523
 20
-1481.663650819637
 30
0.0
 41
0.9995547496495761
 10
765.7769809127598
 20
-1481.582773322446
 30
0.0
 41
1.0
 10
765.7766069558884
 20
-1481.58115191174
 30
0.0
 41
1.0
 10
765.7762329990171
 20
-1481.579530501034
 30
0.0
 41
1.0
 10
765.7583275908676
 20
-1481.501895825256
 30
0.0
 41
0.9994899427175536
 10
765.7355026821878
 20
-1481.42556254242
 30
0.0
 41
1.0
 10
765.7350441554468
 20
-1481.42402909263
 30
0.0
 41
1.0
 10
765.7345856287058
 20
-1481.422495642841
 30
0.0
 41
1.0
 10
765.7126777735077
 20
-1481.349229259584
 30
0.0
 41
0.9993784877590959
 10
765.6856621384018
 20
-1481.277688554427
 30
0.0
 41
1.0
 10
765.6851304474254
 20
-1481.276280571708
 30
0.0
 41
1.0
 10
765.6845987564491
 20
-1481.274872588989
 30
0.0
 41
1.0
 10
765.6586465032955
 20
-1481.206147849269
 30
0.0
 41
0.9992430832255546
 10
765.6274299681359
 20
-1481.139648697199
 30
0.0
 41
1.0
 10
765.6268478520789
 20
-1481.138408642081
 30
0.0
 41
1.0
 10
765.6262657360219
 20
-1481.137168586963
 30
0.0
 41
1.0
 10
765.5962134329757
 20
-1481.073149545129
 30
0.0
 41
0.9990789632797682
 10
765.5607828061999
 20
-1481.011942933381
 30
0.0
 41
1.0
 10
765.5601871000182
 20
-1481.010913847522
 30
0.0
 41
1.0
 10
765.5595913938365
 20
-1481.009884761664
 30
0.0
 41
1.0
 10
765.5253521794233
 20
-1480.950736321632
 30
0.0
 41
0.9988874801121569
 10
765.4856929033912
 20
-1480.895076609214
 30
0.0
 41
1.0
 10
765.4851373773269
 20
-1480.894296957539
 30
0.0
 41
1.0
 10
765.4845818512625
 20
-1480.893517305864
 30
0.0
 41
1.0
 10
765.4460336273594
 20
-1480.839416896796
 30
0.0
 41
0.9986762060693732
 10
765.402131156083
 20
-1480.789563182357
 30
0.0
 41
1.0
 10
765.4016871957507
 20
-1480.78905904054
 30
0.0
 41
1.0
 10
765.4012432354184
 20
-1480.788554898724
 30
0.0
 41
1.0
 10
765.3582286848066
 20
-1480.739709467918
 30
0.0
 41
0.998462164248834
 10
765.310071128029
 20
-1480.695926167447
 30
0.0
 41
1.0
 10
765.3098244935127
 20
-1480.695701935284
 30
0.0
 41
1.0
 10
765.3095778589964
 20
-1480.69547770312
 30
0.0
 41
1.0
 10
765.2619135712516
 20
-1480.652142866976
 30
0.0
 41
0.9982724693852005
 10
765.2094949394098
 20
-1480.614698516458
 30
0.0
 41
1.0
 10
765.1570763075678
 20
-1480.57725416594
 30
0.0
 41
0.9981399180158143
 10
765.1004902441734
 20
-1480.546467646496
 30
0.0
 41
1.0
 10
765.1004445820957
 20
-1480.546442803339
 30
0.0
 41
1.0
 10
765.100398920018
 20
-1480.546417960182
 30
0.0
 41
1.0
 10
765.0437215324683
 20
-1480.515581754425
 30
0.0
 41
0.9980927086837298
 10
764.9836761814021
 20
-1480.491964945572
 30
0.0
 41
1.0
 10
764.98323601169
 20
-1480.491791819697
 30
0.0
 41
1.0
 10
764.982795841978
 20
-1480.491618693822
 30
0.0
 41
1.0
 10
764.9218701514886
 20
-1480.46765563322
 30
0.0
 41
0.9981411356561716
 10
764.8584816300895
 20
-1480.451282991714
 30
0.0
 41
1.0
 10
764.8575995133878
 20
-1480.451055149509
 30
0.0
 41
1.0
 10
764.856717396686
 20
-1480.450827307303
 30
0.0
 41
1.0
 10
764.7915646418845
 20
-1480.433998981387
 30
0.0
 41
0.9983031812935359
 10
764.7248972128901
 20
-1480.42485962021
 30
0.0
 41
1.0
 10
764.7160261874856
 20
-1480.423643501539
 30
0.0
 41
1.0
 10
764.707155162081
 20
-1480.422427382867
 30
0.0
 41
1.0
 10
764.6528055195771
 20
-1480.414976652876
 30
0.0
 41
0.9983887708264267
 10
764.5979616702841
 20
-1480.413731979243
 30
0.0
 41
1.0
 10
764.5898982650624
 20
-1480.413548981368
 30
0.0
 41
1.0
 10
764.5818348598407
 20
-1480.413365983493
 30
0.0
 41
1.0
 10
764.5431178209872
 20
-1480.41248730561
 30
0.0
 41
0.9998869563079245
 10
764.5043918677886
 20
-1480.412773174969
 30
0.0
 41
1.0
 10
764.4656659145967
 20
-1480.413059044329
 30
0.0
 41
0.9999972320209851
 10
764.4269417353969
 20
-1480.413527143858
 30
0.0
 41
1.0
 10
764.407588718806
 20
-1480.413761083947
 30
0.0
 41
1.0
 10
764.3882357022151
 20
-1480.413995024037
 30
0.0
 41
1.0
 10
764.3108054898452
 20
-1480.414931003745
 30
0.0
 41
0.9997304945088131
 10
764.2335021836084
 20
-1480.419460097531
 30
0.0
 41
1.0
 10
764.2244525419034
 20
-1480.419990303521
 30
0.0
 41
1.0
 10
764.2154029001983
 20
-1480.420520509511
 30
0.0
 41
1.0
 10
764.1200003105541
 20
-1480.426110015277
 30
0.0
 41
0.9997888306416575
 10
764.0249079747136
 20
-1480.435614979765
 30
0.0
 41
1.0
 10
764.0161869131389
 20
-1480.436486694398
 30
0.0
 41
1.0
 10
764.0074658515641
 20
-1480.43735840903
 30
0.0
 41
1.0
 10
763.8949313925752
 20
-1480.448606802783
 30
0.0
 41
0.9984170238190505
 10
763.7843722452227
 20
-1480.472422884719
 30
0.0
 41
1.0
 10
763.7479911142366
 20
-1480.480259920525
 30
0.0
 41
1.0
 10
763.7116099832505
 20
-1480.488096956332
 30
0.0
 41
1.0
 10
763.5964189148297
 20
-1480.512910822841
 30
0.0
 41
0.9976592854198216
 10
763.4856907484253
 20
-1480.553209499988
 30
0.0
 41
1.0
 10
763.3749625820216
 20
-1480.593508177135
 30
0.0
 41
0.9993255074352992
 10
763.2674907832319
 20
-1480.641825075627
 30
0.0
 41
1.0
 10
763.2628656043074
 20
-1480.643904451827
 30
0.0
 41
1.0
 10
763.258240425383
 20
-1480.645983828027
 30
0.0
 41
1.0
 10
763.1415182687458
 20
-1480.698459478919
 30
0.0
 41
0.9976475078274988
 10
763.0330709244357
 20
-1480.766407468577
 30
0.0
 41
1.0
 10
763.0147285302994
 20
-1480.777899947393
 30
0.0
 41
1.0
 10
762.9963861361632
 20
-1480.789392426208
 30
0.0
 41
1.0
 10
762.9121839446128
 20
-1480.842149546975
 30
0.0
 41
0.9995131336406776
 10
762.831436229656
 20
-1480.900055758928
 30
0.0
 41
1.0
 10
762.7506885146944
 20
-1480.957961970885
 30
0.0
 41
0.9995810107605891
 10
762.6734268669633
 20
-1481.020443653353
 30
0.0
 41
1.0
 10
762.6704568357563
 20
-1481.022845524815
 30
0.0
 41
1.0
 10
762.6674868045495
 20
-1481.025247396276
 30
0.0
 41
1.0
 10
762.5842850944082
 20
-1481.092532821665
 30
0.0
 41
0.9996617837954941
 10
762.5046944072775
 20
-1481.16405327722
 30
0.0
 41
1.0
 10
762.4925636563902
 20
-1481.17495401022
 30
0.0
 41
1.0
 10
762.4804329055029
 20
-1481.18585474322
 30
0.0
 41
1.0
 10
762.412157378108
 20
-1481.247207358691
 30
0.0
 41
0.999726775005219
 10
762.3468238698301
 20
-1481.311683895211
 30
0.0
 41
1.0
 10
762.2814903615515
 20
-1481.376160431731
 30
0.0
 41
0.9999667288953253
 10
762.2172174184093
 20
-1481.441694238621
 30
0.0
 41
1.0
 10
762.1483899706294
 20
-1481.511871897384
 30
0.0
 41
1.0
 10
762.0795625228495
 20
-1481.582049556147
 30
0.0
 41
1.0
 10
761.8776346841524
 20
-1481.787938680559
 30
0.0
 41
0.998820533517523
 10
761.6966290671734
 20
-1482.012442912619
 30
0.0
 41
1.0
 10
761.6659891022687
 20
-1482.050446163048
 30
0.0
 41
1.0
 10
761.6353491373638
 20
-1482.088449413479
 30
0.0
 41
1.0
 10
761.3930635905759
 20
-1482.388960146398
 30
0.0
 41
0.9997077826755276
 10
761.1655856394697
 20
-1482.700829940615
 30
0.0
 41
1.0
 10
761.1638622243393
 20
-1482.703192723995
 30
0.0
 41
1.0
 10
761.1621388092087
 20
-1482.705555507375
 30
0.0
 41
1.0
 10
760.9312140278422
 20
-1483.022150868351
 30
0.0
 41
0.9989147567078897
 10
760.7307505249582
 20
-1483.358860329537
 30
0.0
 41
1.0
 10
760.7060093796533
 20
-1483.400416910086
 30
0.0
 41
1.0
 10
760.6812682343484
 20
-1483.441973490635
 30
0.0
 41
1.0
 10
760.5260569357093
 20
-1483.70267487509
 30
0.0
 41
0.9997476598181949
 10
760.3827119481984
 20
-1483.970084623675
 30
0.0
 41
1.0
 10
760.2393669606881
 20
-1484.237494372259
 30
0.0
 41
0.999625896710946
 10
760.1108587087573
 20
-1484.512342308881
 30
0.0
 41
1.0
 10
760.0976587993039
 20
-1484.540573708984
 30
0.0
 41
1.0
 10
760.0844588898506
 20
-1484.568805109088
 30
0.0
 41
1.0
 10
759.9442501688544
 20
-1484.868677507033
 30
0.0
 41
0.9998735413944642
 10
759.8136488221371
 20
-1485.172857106494
 30
0.0
 41
1.0
 10
759.81020599408
 20
-1485.18087569195
 30
0.0
 41
1.0
 10
759.806763166023
 20
-1485.188894277407
 30
0.0
 41
1.0
 10
759.6830474754206
 20
-1485.477036705952
 30
0.0
 41
0.9999377418862323
 10
759.5657926732421
 20
-1485.767868173636
 30
0.0
 41
1.0
 10
759.4485378710634
 20
-1486.058699641321
 30
0.0
 41
0.9999508299506695
 10
759.3370739276879
 20
-1486.351799318139
 30
0.0
 41
1.0
 10
759.3339931590262
 20
-1486.3599003441
 30
0.0
 41
1.0
 10
759.3309123903647
 20
-1486.368001370062
 30
0.0
 41
1.0
 10
759.2132869096639
 20
-1486.677303098807
 30
0.0
 41
0.999960922842814
 10
759.1011483067906
 20
-1486.98863611482
 30
0.0
 41
1.0
 10
759.09819229644
 20
-1486.996842955233
 30
0.0
 41
1.0
 10
759.0952362860892
 20
-1487.005049795645
 30
0.0
 41
1.0
 10
758.9771856625159
 20
-1487.33279649248
 30
0.0
 41
0.9999674607405941
 10
758.8644381364421
 20
-1487.662405112491
 30
0.0
 41
1.0
 10
758.8130397458824
 20
-1487.812664308174
 30
0.0
 41
1.0
 10
758.7616413553228
 20
-1487.962923503858
 30
0.0
 41
1.0
 10
758.6456307485646
 20
-1488.302071486361
 30
0.0
 41
0.9999287532306989
 10
758.537749344594
 20
-1488.643892225337
 30
0.0
 41
1.0
 10
758.4912720884856
 20
-1488.791154769611
 30
0.0
 41
1.0
 10
758.4447948323772
 20
-1488.938417313884
 30
0.0
 41
1.0
 10
758.4298679406236
 20
-1488.985712964312
 30
0.0
 41
0.9999998223295781
 10
758.414997431893
 20
-1489.033026372554
 30
0.0
 41
1.0
 10
756.7943412950974
 20
-1494.181054874343
 30
0.0
 41
1.0
 10
755.1736851583019
 20
-1499.329083376133
 30
0.0
 41
1.0
 10
754.268376714411
 20
-1499.329083376133
 30
0.0
 41
1.0
 10
753.3630682705202
 20
-1499.329083376133
 30
0.0
 41
1.0
 10
755.2151526819061
 20
-1493.442011453665
 30
0.0
 41
1.0
 10
757.0672370932921
 20
-1487.554939531198
 30
0.0
 41
1.0
 10
757.0773588515949
 20
-1487.522896317748
 30
0.0
 41
1.0
 10
757.1499665204447
 20
-1487.292596775922
 30
0.0
 41
1.0
 10
757.2225741892933
 20
-1487.0622972341
 30
0.0
 41
0.9999825681964097
 10
757.2924572285037
 20
-1486.831156339039
 30
0.0
 41
1.0
 10
757.3407482906669
 20
-1486.671431755535
 30
0.0
 41
1.0
 10
757.3890393528301
 20
-1486.511707172031
 30
0.0
 41
1.0
 10
757.4861917061447
 20
-1486.190371950264
 30
0.0
 41
0.9999672528971428
 10
757.5781305117667
 20
-1485.867506404682
 30
0.0
 41
1.0
 10
757.5809193954374
 20
-1485.857712559289
 30
0.0
 41
1.0
 10
757.583708279108
 20
-1485.847918713896
 30
0.0
 41
1.0
 10
757.670069317392
 20
-1485.544640859089
 30
0.0
 41
0.9999899749153616
 10
757.7537109269248
 20
-1485.240601770643
 30
0.0
 41
1.0
 10
757.7638168459449
 20
-1485.203866532955
 30
0.0
 41
1.0
 10
757.773922764965
 20
-1485.167131295267
 30
0.0
 41
1.0
 10
757.8373525364627
 20
-1484.936562682179
 30
0.0
 41
0.999921420050287
 10
757.8949819648371
 20
-1484.704476339981
 30
0.0
 41
1.0
 10
757.9077478170193
 20
-1484.653065454578
 30
0.0
 41
1.0
 10
757.9205136692016
 20
-1484.601654569175
 30
0.0
 41
1.0
 10
757.9526113932138
 20
-1484.472389997776
 30
0.0
 41
0.9999828681653389
 10
757.9831936452103
 20
-1484.342758523304
 30
0.0
 41
1.0
 10
758.0137758972048
 20
-1484.213127048841
 30
0.0
 41
0.9999389844478096
 10
758.0414868859932
 20
-1484.082851592945
 30
0.0
 41
1.0
 10
758.0486246297144
 20
-1484.049295489104
 30
0.0
 41
1.0
 10
758.0557623734355
 20
-1484.015739385262
 30
0.0
 41
1.0
 10
758.0977488496653
 20
-1483.818351721686
 30
0.0
 41
0.9998933699440281
 10
758.1339531140677
 20
-1483.619822113927
 30
0.0
 41
1.0
 10
758.1353259392839
 20
-1483.612294093231
 30
0.0
 41
1.0
 10
758.1366987645001
 20
-1483.604766072535
 30
0.0
 41
1.0
 10
758.1756486793355
 20
-1483.391180423381
 30
0.0
 41
0.9996850305193498
 10
758.2038323555938
 20
-1483.175909417946
 30
0.0
 41
1.0
 10
758.2058273889635
 20
-1483.160671063821
 30
0.0
 41
1.0
 10
758.2078224223332
 20
-1483.145432709696
 30
0.0
 41
1.0
 10
758.2352302847916
 20
-1482.936087482545
 30
0.0
 41
0.9994697936706771
 10
758.2489548440109
 20
-1482.725402287218
 30
0.0
 41
1.0
 10
758.2494319132604
 20
-1482.718078815008
 30
0.0
 41
1.0
 10
758.2499089825101
 20
-1482.710755342798
 30
0.0
 41
1.0
 10
758.2626794032303
 20
-1482.51471709189
 30
0.0
 41
0.9991804893137073
 10
758.2595510869577
 20
-1482.318288241913
 30
0.0
 41
1.0
 10
758.2594672081356
 20
-1482.313021440502
 30
0.0
 41
1.0
 10
758.2593833293134
 20
-1482.30775463909
 30
0.0
 41
1.0
 10
758.2564227706847
 20
-1482.121859391942
 30
0.0
 41
0.9988448329322432
 10
758.2356312250611
 20
-1481.937106802107
 30
0.0
 41
1.0
 10
758.234037151358
 20
-1481.922941946335
 30
0.0
 41
1.0
 10
758.232443077655
 20
-1481.908777090564
 30
0.0
 41
1.0
 10
758.2148396794373
 20
-1481.752354212273
 30
0.0
 41
0.9985503209458828
 10
758.1805234071378
 20
-1481.598730028184
 30
0.0
 41
1.0
 10
758.1729374150666
 20
-1481.564769700784
 30
0.0
 41
1.0
 10
758.1653514229955
 20
-1481.530809373384
 30
0.0
 41
1.0
 10
758.1462071348382
 20
-1481.445105844093
 30
0.0
 41
0.9991036781369703
 10
758.1198822731872
 20
-1481.361328756769
 30
0.0
 41
1.0
 10
758.1159000477319
 20
-1481.348655594261
 30
0.0
 41
1.0
 10
758.1119178222765
 20
-1481.335982431752
 30
0.0
 41
1.0
 10
758.0935574115367
 20
-1481.277551669446
 30
0.0
 41
0.9998874504367895
 10
758.0734522038575
 20
-1481.219698067221
 30
0.0
 41
1.0
 10
758.0533469961788
 20
-1481.161844464997
 30
0.0
 41
0.9994041637543737
 10
758.029298383244
 20
-1481.105515761107
 30
0.0
 41
1.0
 10
758.0251015990206
 20
-1481.095685696626
 30
0.0
 41
1.0
 10
758.0209048147971
 20
-1481.085855632145
 30
0.0
 41
1.0
 10
757.9930259838027
 20
-1481.020555466179
 30
0.0
 41
0.9991846840702842
 10
757.9599696271091
 20
-1480.957717434897
 30
0.0
 41
1.0
 10
757.9588330207139
 20
-1480.955556818442
 30
0.0
 41
1.0
 10
757.9576964143187
 20
-1480.953396201987
 30
0.0
 41
1.0
 10
757.9269132704163
 20
-1480.894879403617
 30
0.0
 41
0.9989253167923504
 10
757.890843846361
 20
-1480.839464475226
 30
0.0
 41
1.0
 10
757.8897897216867
 20
-1480.837844980464
 30
0.0
 41
1.0
 10
757.8887355970124
 20
-1480.836225485702
 30
0.0
 41
1.0
 10
757.8547744223067
 20
-1480.784049546837
 30
0.0
 41
0.9986467172835896
 10
757.8155772696687
 20
-1480.735683513207
 30
0.0
 41
1.0
 10
757.814703140968
 20
-1480.734604910928
 30
0.0
 41
1.0
 10
757.8138290122674
 20
-1480.73352630865
 30
0.0
 41
1.0
 10
757.7763801170319
 20
-1480.687317479578
 30
0.0
 41
0.9984001104268536
 10
757.7339533865141
 20
-1480.645632372208
 30
0.0
 41
1.0
 10
757.7333662484048
 20
-1480.645055497327
 30
0.0
 41
1.0
 10
757.7327791102955
 20
-1480.644478622446
 30
0.0
 41
1.0
 10
757.6915266559973
 20
-1480.60394726484
 30
0.0
 41
0.9982442159084057
 10
757.6457705546615
 20
-1480.568578703579
 30
0.0
 41
1.0
 10
757.6455557591999
 20
-1480.568412670936
 30
0.0
 41
1.0
 10
757.6453409637382
 20
-1480.568246638293
 30
0.0
 41
1.0
 10
757.6000144533256
 20
-1480.533210142319
 30
0.0
 41
0.9982450060834962
 10
757.5508634742541
 20
-1480.503778359285
 30
0.0
 41
1.0
 10
757.5017124951828
 20
-1480.474346576252
 30
0.0
 41
0.9983922639635101
 10
757.4495461890185
 20
-1480.450666941598
 30
0.0
 41
1.0
 10
757.4493193116936
 20
-1480.450563956117
 30
0.0
 41
1.0
 10
757.4490924343686
 20
-1480.450460970635
 30
0.0
 41
1.0
 10
757.3964723735547
 20
-1480.426575365018
 30
0.0
 41
0.9986517147150453
 10
757.3416594006869
 20
-1480.408274245896
 30
0.0
 41
1.0
 10
757.340981479259
 20
-1480.408047899465
 30
0.0
 41
1.0
 10
757.3403035578311
 20
-1480.407821553034
 30
0.0
 41
1.0
 10
757.2841347421066
 20
-1480.389067741049
 30
0.0
 41
0.9989435598955498
 10
757.2264813549542
 20
-1480.375550038814
 30
0.0
 41
1.0
 10
757.2254012353734
 20
-1480.375296788561
 30
0.0
 41
1.0
 10
757.2243211157926
 20
-1480.375043538308
 30
0.0
 41
1.0
 10
757.1645074894772
 20
-1480.361019335568
 30
0.0
 41
0.9992249241240881
 10
757.1037759805802
 20
-1480.351743992852
 30
0.0
 41
1.0
 10
757.1023622922893
 20
-1480.351528084444
 30
0.0
 41
1.0
 10
757.1009486039984
 20
-1480.351312176037
 30
0.0
 41
1.0
 10
757.037389718518
 20
-1480.341605016506
 30
0.0
 41
0.999439659783315
 10
756.9733237819803
 20
-1480.33617209416
 30
0.0
 41
1.0
 10
756.9541831145034
 20
-1480.334548926442
 30
0.0
 41
1.0
 10
756.9350424470265
 20
-1480.332925758723
 30
0.0
 41
1.0
 10
756.832695175534
 20
-1480.32424650094
 30
0.0
 41
0.9987693403121392
 10
756.7299915519469
 20
-1480.325749564393
 30
0.0
 41
1.0
 10
756.7197372177202
 20
-1480.325899636167
 30
0.0
 41
1.0
 10
756.7094828834935
 20
-1480.326049707941
 30
0.0
 41
1.0
 10
756.5999271173141
 20
-1480.327653052229
 30
0.0
 41
0.9989753644966639
 10
756.4909651172969
 20
-1480.339156059154
 30
0.0
 41
1.0
 10
756.3820031172802
 20
-1480.350659066079
 30
0.0
 41
0.9983190067305304
 10
756.275104306315
 20
-1480.374694057866
 30
0.0
 41
1.0
 10
756.2662033547085
 20
-1480.376695336428
 30
0.0
 41
1.0
 10
756.257302403102
 20
-1480.378696614991
 30
0.0
 41
1.0
 10
756.1326016889244
 20
-1480.406734163903
 30
0.0
 41
0.9985539388303267
 10
756.0116319352471
 20
-1480.447997839948
 30
0.0
 41
1.0
 10
756.009286504286
 20
-1480.448797883764
 30
0.0
 41
1.0
 10
756.0069410733249
 20
-1480.44959792758
 30
0.0
 41
1.0
 10
755.8812804577267
 20
-1480.492461691257
 30
0.0
 41
0.9988468746493657
 10
755.7603101154276
 20
-1480.547179776319
 30
0.0
 41
1.0
 10
755.7571272934381
 20
-1480.548619450879
 30
0.0
 41
1.0
 10
755.7539444714487
 20
-1480.55005912544
 30
0.0
 41
1.0
 10
755.6266084851691
 20
-1480.607656559623
 30
0.0
 41
0.9991322885918853
 10
755.50450790111
 20
-1480.675651891806
 30
0.0
 41
1.0
 10
755.4869058900695
 20
-1480.685454093794
 30
0.0
 41
1.0
 10
755.4693038790291
 20
-1480.695256295782
 30
0.0
 41
1.0
 10
755.3671271979701
 20
-1480.752156411564
 30
0.0
 41
0.9993860037849928
 10
755.2691861938958
 20
-1480.816072427153
 30
0.0
 41
1.0
 10
755.2635678810419
 20
-1480.819738921849
 30
0.0
 41
1.0
 10
755.257949568188
 20
-1480.823405416545
 30
0.0
 41
1.0
 10
755.171245189821
 20
-1480.879988442742
 30
0.0
 41
0.9998821494955319
 10
755.0863188140097
 20
-1480.939206672818
 30
0.0
 41
1.0
 10
755.0013924381972
 20
-1480.998424902894
 30
0.0
 41
0.9997976482744223
 10
754.9189168077937
 20
-1481.061011310936
 30
0.0
 41
1.0
 10
754.9042805429885
 20
-1481.072118000716
 30
0.0
 41
1.0
 10
754.8896442781834
 20
-1481.083224690496
 30
0.0
 41
1.0
 10
754.7778961181668
 20
-1481.1680244781
 30
0.0
 41
0.9998091630800046
 10
754.6695458401394
 20
-1481.257124828802
 30
0.0
 41
1.0
 10
754.6565400876635
 20
-1481.267819929246
 30
0.0
 41
1.0
 10
754.6435343351876
 20
-1481.278515029691
 30
0.0
 41
1.0
 10
754.5091725522085
 20
-1481.389005581282
 30
0.0
 41
0.9995035112317494
 10
754.3820366744479
 20
-1481.507739398294
 30
0.0
 41
1.0
 10
754.3723893640532
 20
-1481.516749144459
 30
0.0
 41
1.0
 10
754.3627420536585
 20
-1481.525758890624
 30
0.0
 41
1.0
 10
754.2393189908979
 20
-1481.641025262375
 30
0.0
 41
0.9994630424298945
 10
754.1237105851181
 20
-1481.764128005607
 30
0.0
 41
1.0
 10
754.1200277463468
 20
-1481.76804958512
 30
0.0
 41
1.0
 10
754.1163449075755
 20
-1481.771971164633
 30
0.0
 41
1.0
 10
754.0081021793345
 20
-1481.887230748842
 30
0.0
 41
0.9995160693749906
 10
753.9072361498022
 20
-1482.008998166714
 30
0.0
 41
1.0
 10
753.9053024297227
 20
-1482.011332590921
 30
0.0
 41
1.0
 10
753.9033687096434
 20
-1482.013667015127
 30
0.0
 41
1.0
 10
753.806370120272
 20
-1482.130765584584
 30
0.0
 41
0.9996561470514473
 10
753.7156439016044
 20
-1482.252788347036
 30
0.0
 41
1.0
 10
753.7094862357059
 20
-1482.261070136074
 30
0.0
 41
1.0
 10
753.7033285698074
 20
-1482.269351925111
 30
0.0
 41
1.0
 10
753.6249176829415
 20
-1482.374811109481
 30
0.0
 41
0.9998349055173334
 10
753.5503904010063
 20
-1482.483049693149
 30
0.0
 41
1.0
 10
753.4758631190748
 20
-1482.591288276811
 30
0.0
 41
0.9999728109571402
 10
753.4029402231598
 20
-1482.700614202373
 30
0.0
 41
1.0
 10
753.4016250077501
 20
-1482.702585971873
 30
0.0
 41
1.0
 10
753.4003097923404
 20
-1482.704557741372
 30
0.0
 41
1.0
 10
753.324756465609
 20
-1482.817827205929
 30
0.0
 41
0.9999972147289531
 10
753.2497386552191
 20
-1482.931452048789
 30
0.0
 41
1.0
 10
753.2447671126035
 20
-1482.938982137251
 30
0.0
 41
1.0
 10
753.239795569988
 20
-1482.946512225713
 30
0.0
 41
1.0
 10
753.154834674365
 20
-1483.0751972455
 30
0.0
 41
0.9999371979008616
 10
753.0727793249624
 20
-1483.205754159275
 30
0.0
 41
1.0
 10
753.0692704406017
 20
-1483.211337087338
 30
0.0
 41
1.0
 10
753.065761556241
 20
-1483.216920015401
 30
0.0
 41
1.0
 10
752.9766884381178
 20
-1483.358642785302
 30
0.0
 41
0.9998272025610849
 10
752.8929450472374
 20
-1483.50357866204
 30
0.0
 41
1.0
 10
752.8777298752099
 20
-1483.529911776503
 30
0.0
 41
1.0
 10
752.8625147031823
 20
-1483.556244890966
 30
0.0
 41
1.0
 10
752.7483409682504
 20
-1483.753846996624
 30
0.0
 41
0.9995217214838099
 10
752.6466012786937
 20
-1483.958129324489
 30
0.0
 41
1.0
 10
752.6389577160598
 20
-1483.97347677419
 30
0.0
 41
1.0
 10
752.631314153426
 20
-1483.98882422389
 30
0.0
 41
1.0
 10
752.5444088608355
 20
-1484.163320681974
 30
0.0
 41
0.9998269762606895
 10
752.4640543945646
 20
-1484.340928968694
 30
0.0
 41
1.0
 10
752.3836999282948
 20
-1484.518537255413
 30
0.0
 41
0.9998944747387387
 10
752.3085391337293
 20
-1484.698404981044
 30
0.0
 41
1.0
 10
752.3035854641373
 20
-1484.710259635963
 30
0.0
 41
1.0
 10
752.2986317945454
 20
-1484.722114290882
 30
0.0
 41
1.0
 10
752.2179847339926
 20
-1484.9151112309
 30
0.0
 41
0.9999506734410162
 10
752.1411872050887
 20
-1485.109672035757
 30
0.0
 41
1.0
 10
752.1265872398174
 20
-1485.146659957564
 30
0.0
 41
1.0
 10
752.1119872745461
 20
-1485.183647879372
 30
0.0
 41
1.0
 10
752.0643896761821
 20
-1485.304232840621
 30
0.0
 41
0.9999912393939587
 10
752.0178032321627
 20
-1485.425212043309
 30
0.0
 41
1.0
 10
751.9712167881405
 20
-1485.546191246004
 30
0.0
 41
0.9999927113959134
 10
751.9255554937475
 20
-1485.667522653503
 30
0.0
 41
1.0
 10
751.9115870623491
 20
-1485.704639635504
 30
0.0
 41
1.0
 10
751.8976186309505
 20
-1485.741756617505
 30
0.0
 41
1.0
 10
751.824020473759
 20
-1485.93732198901
 30
0.0
 41
0.999948755094725
 10
751.7543968487897
 20
-1486.134337354186
 30
0.0
 41
1.0
 10
751.7308032388484
 20
-1486.201100664491
 30
0.0
 41
1.0
 10
751.707209628907
 20
-1486.267863974796
 30
0.0
 41
1.0
 10
751.6125239945443
 20
-1486.535797809599
 30
0.0
 41
0.9999808436939125
 10
751.5211624059034
 20
-1486.804883240862
 30
0.0
 41
1.0
 10
751.4298008172657
 20
-1487.073968672116
 30
0.0
 41
0.9999873932915103
 10
751.341146108552
 20
-1487.343958027116
 30
0.0
 41
1.0
 10
751.3210537516786
 20
-1487.405147359881
 30
0.0
 41
1.0
 10
751.3009613948052
 20
-1487.466336692646
 30
0.0
 41
1.0
 10
751.1721219723495
 20
-1487.858704713162
 30
0.0
 41
0.9999794883035176
 10
751.0483191873856
 20
-1488.252690919458
 30
0.0
 41
1.0
 10
751.0371669279443
 20
-1488.288181529707
 30
0.0
 41
1.0
 10
751.0260146685031
 20
-1488.323672139956
 30
0.0
 41
1.0
 10
750.8834565046254
 20
-1488.777344891979
 30
0.0
 41
0.9999982761833792
 10
750.7425840646026
 20
-1489.231543914126
 30
0.0
 41
1.0
 10
749.15444373203
 20
-1494.28031364513
 30
0.0
 41
1.0
 10
747.5663033994574
 20
-1499.329083376133
 30
0.0
 41
1.0
 10
746.617552787981
 20
-1499.329083376133
 30
0.0
 41
1.0
 10
745.6688021765046
 20
-1499.329083376133
 30
0.0
 41
1.0
 10
748.9070866626579
 20
-1489.001761176187
 30
0.0
 41
1.0
 10
752.1453711488111
 20
-1478.67443897624
 30
0.0
 41
1.0
  0
LWPOLYLINE
  5
69
330
23
100
AcDbEntity
  8
0
  6
Continuous
 62
     7
370
    15
390
1D
100
AcDbPolyline
 90
      232
 70
   128
 43
0.0
 10
726.4418253749841
 20
-1479.758781807756
 42
0.0004370800685926
 10
726.3889482010898
 20
-1479.827448446781
 10
726.3496639697846
 20
-1479.878555559909
 42
0.0030481992177059
 10
726.2193252526544
 20
-1480.050277252268
 10
726.180813580915
 20
-1480.101664036041
 42
0.0042058245761014
 10
725.9768285302424
 20
-1480.378669781119
 10
725.9244234077445
 20
-1480.451102627895
 42
0.0120948898741109
 10
725.6283794909822
 20
-1480.881852232446
 10
725.5321869918587
 20
-1481.029332967673
 42
0.0141601263950088
 10
725.2285429449391
 20
-1481.525002304404
 10
725.1890056775095
 20
-1481.593846271842
 42
0.007113108130656
 10
724.9837333542747
 20
-1481.963349070674
 42
0.0068458791005414
 10
724.7888538274309
 20
-1482.338440634152
 10
724.7820419649738
 20
-1482.352002347874
 42
0.0064120880288649
 10
724.583899714936
 20
-1482.759426822779
 10
724.5763650294125
 20
-1482.775438679514
 42
0.0058857236448979
 10
724.3736096375408
 20
-1483.219814790549
 10
724.3654347112468
 20
-1483.238304944183
 42
0.005318974189433
 10
724.1567303985781
 20
-1483.724268418104
 10
724.147982592898
 20
-1483.745250296297
 42
0.0047503650418171
 10
723.932008866748
 20
-1484.277449729505
 10
723.9227406183992
 20
-1484.300926105615
 42
0.0042071762171258
 10
723.6981932346702
 20
-1484.884019699688
 10
723.6884438323228
 20
-1484.909985874554
 42
0.003668008648441
 10
723.4539891890115
 20
-1485.548621259084
 10
723.443781409163
 20
-1485.57706979343
 42
0.0032573142627764
 10
723.1981491231991
 20
-1486.275922453175
 10
723.1294986023499
 20
-1486.475385537253
 42
0.0026133366649297
 10
722.7810534035975
 20
-1487.505248820908
 10
722.7177966160909
 20
-1487.695479656319
 42
0.0020592950740946
 10
722.5039335471298
 20
-1488.347583308914
 10
722.500881755969
 20
-1488.357019797317
 42
0.0025609928533088
 10
722.2990612544809
 20
-1488.99216501969
 10
722.2964698873587
 20
-1489.000467360616
 42
0.0031362356238814
 10
722.1069791016772
 20
-1489.62123021681
 10
722.1048480587497
 20
-1489.628371523022
 42
0.0037229918030011
 10
721.9280476718234
 20
-1490.237356824995
 10
721.9263690826167
 20
-1490.24330371517
 42
0.0043077623708442
 10
721.7626282805519
 20
-1490.843122446939
 42
0.0047654161827156
 10
721.6097995580359
 20
-1491.445808535842
 10
721.5753349491969
 20
-1491.587370312991
 42
0.0112969368444852
 10
721.3794705910539
 20
-1492.479062473612
 10
721.3514642019567
 20
-1492.621890519713
 42
0.0130056762571996
 10
721.15062695831
 20
-1493.808831591358
 10
721.1300872081629
 20
-1493.952909704835
 42
0.0138721532145131
 10
721.026384203625
 20
-1494.859739190661
 10
721.0070887157167
 20
-1495.08323691259
 42
0.0071254697009187
 10
720.9737420697945
 20
-1495.546423921433
 10
720.9687810956306
 20
-1495.632427916005
 42
0.0028881799197792
 10
720.9536428023414
 20
-1495.924169625835
 42
0.0060297297129645
 10
720.9437106025661
 20
-1496.216118561938
 10
720.9426483208988
 20
-1496.26451093388
 42
0.0229523164152795
 10
720.9503793486845
 20
-1496.587265780167
 10
720.9546051222051
 20
-1496.647669314187
 42
0.0123673300673945
 10
720.9736837687232
 20
-1496.848790039358
 42
0.0128577674470068
 10
721.0028791591292
 20
-1497.048687889283
 10
721.0100050325165
 20
-1497.090016703882
 42
0.0285717853764041
 10
721.0744990342124
 20
-1497.368132855196
 10
721.0881675578788
 20
-1497.414787624673
 42
0.0316283099165164
 10
721.2039781377929
 20
-1497.733802126498
 10
721.2070268295485
 20
-1497.740788498824
 42
0.0338984824234919
 10
721.3564585405156
 20
-1498.028354463013
 10
721.3587672698852
 20
-1498.032145492289
 42
0.0350228718355471
 10
721.5411275605591
 20
-1498.289197476966
 10
721.5420128123347
 20
-1498.290276554731
 42
0.0347476747529762
 10
721.7564374995742
 20
-1498.51746160195
 42
0.0331337701912156
 10
721.9996808253202
 20
-1498.713590264027
 10
722.0007809238367
 20
-1498.7143629672
 42
0.0305233319085851
 10
722.2693256194099
 20
-1498.879491137291
 10
722.2725556639112
 20
-1498.881215149154
 42
0.0273744481153414
 10
722.5651093754864
 20
-1499.017353293044
 10
722.570213910623
 20
-1499.019396877514
 42
0.0240964406199648
 10
722.8856909862674
 20
-1499.128380603795
 10
722.8922743154787
 20
-1499.13030534347
 42
0.0209636179814019
 10
723.2296744681348
 20
-1499.213773491403
 10
723.2373069285801
 20
-1499.215325404404
 42
0.018138870469313
 10
723.59562932058
 20
-1499.274741497618
 10
723.6039101689566
 20
-1499.275807681435
 42
0.0156086547582664
 10
723.9820975331428
 20
-1499.312543868011
 10
724.025292785471
 20
-1499.31538237049
 42
0.0137148329025992
 10
724.3529659307713
 20
-1499.327902625742
 10
724.3989021207168
 20
-1499.328397058857
 42
0.0051057823888894
 10
724.6350477072896
 20
-1499.328527313266
 42
0.0052256693309759
 10
724.8711449910676
 20
-1499.323778488802
 10
724.9413717748176
 20
-1499.321631522788
 42
0.016150717904681
 10
725.3171088529206
 20
-1499.297981152461
 10
725.337121813292
 20
-1499.296070957174
 42
0.0101216737840113
 10
725.75114903479
 20
-1499.248078026807
 10
725.7852023242095
 20
-1499.243430329999
 42
0.0245291776394315
 10
726.2619919797609
 20
-1499.154355251922
 10
726.3468152952813
 20
-1499.134159331577
 42
0.0143509212559695
 10
726.7034463992242
 20
-1499.038354697798
 42
0.0156557857040663
 10
727.0536624639568
 20
-1498.921343481977
 10
727.0611636784461
 20
-1498.918573320225
 42
0.0170137333630558
 10
727.417759674125
 20
-1498.772915705355
 10
727.4248635965349
 20
-1498.76972786979
 42
0.0183105364410454
 10
727.7842132646982
 20
-1498.592392827967
 10
727.79116002934
 20
-1498.588642393094
 42
0.0194899958151992
 10
728.1496407703241
 20
-1498.376663411203
 10
728.1566546496607
 20
-1498.372138068908
 42
0.0204869852948745
 10
728.5106689517575
 20
-1498.12261805382
 10
728.5179345603417
 20
-1498.117037988474
 42
0.0212516938556087
 10
728.8639244914472
 20
-1497.827133991581
 10
728.9104411855258
 20
-1497.784666681485
 42
0.021524891824963
 10
729.170467354413
 20
-1497.525902402491
 10
729.2154970887997
 20
-1497.477058281134
 42
0.0114578554956994
 10
729.3702892424709
 20
-1497.301235347683
 10
729.3814837784463
 20
-1497.287916584151
 42
0.0061531305138611
 10
729.507958424452
 20
-1497.133627050832
 42
0.0006325587128088
 10
729.63233690871
 20
-1496.977623675022
 10
729.6553770436552
 20
-1496.948650154496
 42
0.0041897761556939
 10
729.8238324476278
 20
-1496.733130778435
 10
729.88229456752
 20
-1496.657029431449
 42
0.0092993880036603
 10
730.1589064947487
 20
-1496.282750667559
 10
730.2413009879417
 20
-1496.166813663998
 42
0.0159321727087133
 10
730.5879074705852
 20
-1495.644639443241
 10
730.6322636059713
 20
-1495.572959878995
 42
0.0085547317020498
 10
730.8667753712999
 20
-1495.179084929766
 42
0.0084601156895416
 10
731.0877515487443
 20
-1494.77745808073
 10
731.0958670225723
 20
-1494.762098398461
 42
0.0081429654282861
 10
731.3191162930087
 20
-1494.322376885922
 10
731.3279764571938
 20
-1494.304198043901
 42
0.0076574581327336
 10
731.5543839677599
 20
-1493.821015168649
 10
731.5638636084842
 20
-1493.799950690345
 42
0.0070682724201621
 10
731.7943085162941
 20
-1493.267913385556
 10
731.8042988002727
 20
-1493.243924196552
 42
0.0064559514445727
 10
732.039632008456
 20
-1492.657611930029
 10
732.0500413666194
 20
-1492.630677004591
 42
0.0058311413903447
 10
732.2910881033807
 20
-1491.984644910211
 10
732.3018431807698
 20
-1491.954760569046
 42
0.0052312425819442
 10
732.5494244588108
 20
-1491.243558155211
 10
732.5604682951904
 20
-1491.210731443142
 42
0.0046680544797347
 10
732.8153967229201
 20
-1490.428905127402
 10
732.8573888729752
 20
-1490.295921890073
 42
0.0041666856445973
 10
733.0606748853634
 20
-1489.63295311509
 10
733.0983373260167
 20
-1489.506372007472
 42
0.0015170975155903
 10
733.2195239044403
 20
-1489.094503655942
 42
-0.0004887993118447
 10
733.3398636775433
 20
-1488.682385243969
 10
733.4163409350584
 20
-1488.421427857959
 42
0.0002583378927045
 10
733.6895555051182
 20
-1487.487371154795
 10
733.7713283547091
 20
-1487.207271895163
 42
0.0006636169671943
 10
733.9651961147106
 20
-1486.53991897161
 10
733.9702927690574
 20
-1486.522287388731
 42
0.0010589131321493
 10
734.1517414699742
 20
-1485.889556045682
 10
734.1567235404511
 20
-1485.872043138674
 42
0.0015655524461261
 10
734.3249937476376
 20
-1485.27342645946
 10
734.3298239480512
 20
-1485.256034300529
 42
0.0021640440476998
 10
734.4841139200386
 20
-1484.691007282506
 10
734.4887481394675
 20
-1484.673742552516
 42
0.0028763871851954
 10
734.6282638575215
 20
-1484.141774601665
 10
734.6326497216864
 20
-1484.12465062352
 42
0.0037310511946198
 10
734.7566064135256
 20
-1483.625203029487
 10
734.760681633819
 20
-1483.608242758223
 42
0.0047652197769833
 10
734.868305534323
 20
-1483.140764989936
 10
734.8719961336448
 20
-1483.124005434793
 42
0.0060276699302575
 10
734.9625262328001
 20
-1482.687929639642
 10
734.9657449230898
 20
-1482.67142842533
 42
0.0075824337754601
 10
735.0384342325048
 20
-1482.266161260907
 10
735.0410796098856
 20
-1482.250006313453
 42
0.0095130624612062
 10
735.0951948455162
 20
-1481.874916960385
 10
735.1021810693983
 20
-1481.818983402272
 42
0.0121054653226799
 10
735.1287723999766
 20
-1481.554087573794
 10
735.1296388897373
 20
-1481.542684130849
 42
0.0069050827393032
 10
735.1447277077739
 20
-1481.299742904021
 10
735.1458630074425
 20
-1481.276216646975
 42
0.0169063976708262
 10
735.1486902864227
 20
-1481.080023919675
 10
735.1475196348914
 20
-1481.019688158323
 42
0.0052007732918613
 10
735.1452661862984
 20
-1480.944094768174
 42
0.0054038123295851
 10
735.1253026744585
 20
-1480.824076472158
 10
735.1202168185891
 20
-1480.795417985583
 42
0.0112050460474758
 10
735.0848324565301
 20
-1480.619091547242
 10
735.06700749449
 20
-1480.539549960523
 42
0.0240764468012578
 10
734.9761101283439
 20
-1480.209312925022
 10
734.9575513655303
 20
-1480.152692760028
 42
0.0256812331831591
 10
734.8141884453408
 20
-1479.780968553771
 10
734.8087790195195
 20
-1479.768837218781
 42
0.0268360501216488
 10
734.6393517786696
 20
-1479.43784408476
 10
734.6338153710344
 20
-1479.428324414448
 42
0.0274670231731638
 10
734.4416143946212
 20
-1479.136037039531
 10
734.4362330946591
 20
-1479.12875789199
 42
0.0275035967094767
 10
734.2246602150967
 20
-1478.873242001685
 10
734.2195907141297
 20
-1478.867762914054
 42
0.026955767353237
 10
733.9921871706906
 20
-1478.647120628092
 10
733.9874441129089
 20
-1478.642990673632
 42
0.0259124802207439
 10
733.7478892814772
 20
-1478.455300146479
 10
733.7433584362944
 20
-1478.452114644148
 42
0.0245162153002531
 10
733.4954420832006
 20
-1478.295381635039
 10
733.4909155368773
 20
-1478.292821437838
 42
0.0229282588840158
 10
733.238495980049
 20
-1478.164953245339
 10
733.2337154862091
 20
-1478.162800945576
 42
0.0212984135697331
 10
732.9806775337505
 20
-1478.061602028335
 10
732.9753732487864
 20
-1478.059738465576
 42
0.0197555462341033
 10
732.725594911058
 20
-1477.98292304761
 42
0.0183511896789684
 10
732.4706661855913
 20
-1477.925340140644
 10
732.384300988872
 20
-1477.909137350259
 42
0.0338057877146702
 10
732.0987936396115
 20
-1477.875328945119
 10
732.0077882345682
 20
-1477.870749289857
 42
0.0091990524501085
 10
731.9019411259355
 20
-1477.867373433935
 42
0.0028333980786984
 10
731.7960272099463
 20
-1477.866545326419
 10
731.7951117568933
 20
-1477.866543356595
 42
-0.0023619827815968
 10
731.6873657417964
 20
-1477.865802515516
 10
731.6509605716116
 20
-1477.865380209053
 42
0.0008824598481366
 10
731.4704045818471
 20
-1477.863604430816
 10
731.4265431493557
 20
-1477.863250469289
 42
0.0038132665763979
 10
731.1582602534837
 20
-1477.863131533223
 10
731.1417265986834
 20
-1477.863250299366
 42
0.0060665569344399
 10
730.8404461070896
 20
-1477.869070598787
 10
730.8261957750667
 20
-1477.869518906755
 42
0.008035695333185
 10
730.4967370587261
 20
-1477.885186628822
 10
730.4846670436402
 20
-1477.885955211762
 42
0.0098996399105489
 10
730.1319039589866
 20
-1477.915440440961
 10
730.1218582496147
 20
-1477.916480737158
 42
0.0117740981370428
 10
729.750701391273
 20
-1477.963772984687
 10
729.7424786947834
 20
-1477.965018101259
 42
0.0137435215139385
 10
729.3578898752897
 20
-1478.034115074822
 10
729.351232836175
 20
-1478.035500971054
 42
0.0158359869382392
 10
728.9582357423775
 20
-1478.130393059534
 10
728.9528225555053
 20
-1478.131883000405
 42
0.0180554124026183
 10
728.5565075108931
 20
-1478.256521016644
 10
728.5519507228095
 20
-1478.25813705291
 42
0.0203657431287743
 10
728.1574732049972
 20
-1478.416397394426
 10
728.1533296659908
 20
-1478.418259015868
 42
0.0226819684657251
 10
727.7658936097849
 20
-1478.61390159454
 10
727.761693818769
 20
-1478.616267186459
 42
0.0248634984604366
 10
727.386511877587
 20
-1478.852893832407
 10
727.3383169488047
 20
-1478.886750874231
 42
0.0267044190883809
 10
727.0640242518873
 20
-1479.1021912501
 42
0.0139303002204295
 10
726.8078570859451
 20
-1479.339430091015
 10
726.8030037002276
 20
-1479.344182753872
 42
0.0283460963440478
 10
726.5589311059997
 20
-1479.611913414318
 10
726.5192626008438
 20
-1479.66071499179
 42
0.0070695364826305
 10
726.4418253749841
 20
-1479.758781807756
 42
0.0070695364826305
  0
LWPOLYLINE
  5
6A
330
23
100
AcDbEntity
  8
0
  6
Continuous
 62
     7
370
    15
390
1D
100
AcDbPolyline
 90
      226
 70
   128
 43
0.0
 10
722.9130049377377
 20
-1495.48037061394
 42
-0.0026277636610094
 10
722.9129270539377
 20
-1495.413598688177
 10
722.9131444121697
 20
-1495.360443470753
 42
-0.008868029672429
 10
722.9169210284629
 20
-1495.187427688345
 10
722.9192673875751
 20
-1495.128147662897
 42
-0.0077381705615172
 10
722.935313498338
 20
-1494.836887167101
 10
722.9361814095113
 20
-1494.824598933413
 42
-0.0068872530528599
 10
722.9628134892598
 20
-1494.50937718134
 10
722.9640177134455
 20
-1494.497136202326
 42
-0.0062130021489889
 10
723.001611430273
 20
-1494.15826651109
 10
723.0031153338085
 20
-1494.146092639171
 42
-0.0056726929669705
 10
723.052037193312
 20
-1493.78389741705
 10
723.0538106389553
 20
-1493.771803616812
 42
-0.0052341884491295
 10
723.1144212252142
 20
-1493.3866103613
 10
723.1164392139918
 20
-1493.374605431302
 42
-0.0049768450172858
 10
723.1891778954157
 20
-1492.966760863882
 10
723.2134269101399
 20
-1492.838212880863
 42
-0.0089029805623114
 10
723.3505077619346
 20
-1492.176437433441
 10
723.3832531372532
 20
-1492.031406002917
 42
-0.0080318257098979
 10
723.6128017515931
 20
-1491.085696371066
 10
723.6247866780421
 20
-1491.039565735873
 42
-0.0074265721318216
 10
723.9087982168918
 20
-1490.009501157494
 10
723.9286777600115
 20
-1489.941367096894
 42
-0.0069711922701359
 10
724.2559823385155
 20
-1488.875099356575
 10
724.3159342856163
 20
-1488.68907799822
 42
-0.0052070422892412
 10
724.5453595108803
 20
-1488.001805921174
 10
724.5626407030625
 20
-1487.951778640528
 42
-0.0009167004449074
 10
724.7657325903419
 20
-1487.367322792402
 42
-0.0025162726943517
 10
724.9728302206076
 20
-1486.784281528231
 10
725.0100548324086
 20
-1486.681131982338
 42
-0.0028212681456918
 10
725.258230751373
 20
-1486.005401350163
 10
725.2680615141261
 20
-1485.97909390548
 42
-0.0031964916820351
 10
725.504353771786
 20
-1485.358889143359
 10
725.5139882257796
 20
-1485.33407915323
 42
-0.0036281836452539
 10
725.7390941868862
 20
-1484.766638472323
 10
725.7485325970475
 20
-1484.743341040811
 42
-0.0041269166829571
 10
725.9631502937028
 20
-1484.225900144842
 10
725.9957832501301
 20
-1484.149021698466
 42
-0.0047472213053202
 10
726.1528280556772
 20
-1483.788600230598
 10
726.1597221368742
 20
-1483.773179633291
 42
-0.0025651659998777
 10
726.3080801707356
 20
-1483.445851577517
 42
-0.0057144634995084
 10
726.4618298645055
 20
-1483.121041904158
 10
726.4898605699061
 20
-1483.063533521765
 42
-0.0065388068374168
 10
726.673327597648
 20
-1482.699301025096
 10
726.6817860534245
 20
-1482.68304144573
 42
-0.0074510843024517
 10
726.8579682993044
 20
-1482.356353164603
 10
726.8661479698427
 20
-1482.341712387321
 42
-0.0084648979855123
 10
727.0357818229354
 20
-1482.049803376373
 10
727.0436379494196
 20
-1482.036796384729
 42
-0.0095638542810341
 10
727.2074733970177
 20
-1481.776907512744
 10
727.2149483406861
 20
-1481.765538151293
 42
-0.0107191626809732
 10
727.373749921077
 20
-1481.534926916744
 10
727.380766654813
 20
-1481.525190824373
 42
-0.0118458573898752
 10
727.5353147533206
 20
-1481.321118629069
 42
-0.0129184518194101
 10
727.6997673769192
 20
-1481.124958112902
 10
727.7299121492866
 20
-1481.090832033997
 42
-0.0217742579639059
 10
727.9065244716206
 20
-1480.907625263749
 10
727.9172700160834
 20
-1480.897408430544
 42
-0.0097266568647058
 10
728.0833276349367
 20
-1480.745560856109
 42
-0.0187720905717641
 10
728.2576752108258
 20
-1480.60349200272
 10
728.2883812014979
 20
-1480.580332920325
 42
-0.0179428207523175
 10
728.5208019214965
 20
-1480.417780743212
 10
728.5244542484129
 20
-1480.415416808324
 42
-0.0170047877700278
 10
728.7602178859427
 20
-1480.273956294173
 10
728.7640008746881
 20
-1480.271857989137
 42
-0.0160190788361421
 10
729.0009094223245
 20
-1480.150206687148
 42
-0.015110286149032
 10
729.2449412047747
 20
-1480.043523911092
 10
729.297327706983
 20
-1480.022483778199
 42
-0.0271945441887847
 10
729.6559902660416
 20
-1479.900618967493
 10
729.7250550665286
 20
-1479.881269426227
 42
-0.0237596594021
 10
730.1408519135518
 20
-1479.785818714245
 10
730.2089147672809
 20
-1479.773564026118
 42
-0.0213715440558714
 10
730.4947896987276
 20
-1479.734616994608
 10
730.5549368649505
 20
-1479.729027279907
 42
-0.0101465655808791
 10
730.7224293969397
 20
-1479.716883736643
 10
730.7317697831355
 20
-1479.716396821646
 42
-0.0100375910888071
 10
730.8809238837005
 20
-1479.711621003721
 10
730.8911831533813
 20
-1479.711498564707
 42
-0.0103625633382848
 10
731.0198911480358
 20
-1479.712629998233
 10
731.0421567992998
 20
-1479.713287356698
 42
-0.0115689250248438
 10
731.1262075368306
 20
-1479.717716862943
 42
-0.0072438037419208
 10
731.2100458162803
 20
-1479.725306062694
 10
731.2268463257426
 20
-1479.727072605417
 42
-0.0217917313136368
 10
731.3434160890564
 20
-1479.744492498138
 10
731.4090161796257
 20
-1479.757239106553
 42
-0.0332943556754043
 10
731.6134083446512
 20
-1479.811279397859
 10
731.6435809132017
 20
-1479.821447474978
 42
-0.0184824084808378
 10
731.7820859696667
 20
-1479.873898490364
 42
-0.0198002050688346
 10
731.9161603101663
 20
-1479.936782550564
 10
731.918046947543
 20
-1479.937760337443
 42
-0.0212242342985596
 10
732.0501858899407
 20
-1480.013523076234
 10
732.0520011854884
 20
-1480.014668878445
 42
-0.0226090605787664
 10
732.180505086711
 20
-1480.10414852201
 10
732.1823495284475
 20
-1480.105560774997
 42
-0.0238457052240523
 10
732.3055316097407
 20
-1480.209556670859
 10
732.3074843382996
 20
-1480.211371548625
 42
-0.0248160564147655
 10
732.4236858456
 20
-1480.330646149834
 10
732.4257894790022
 20
-1480.333031483539
 42
-0.0254109591454637
 10
732.5333946968684
 20
-1480.468319869503
 10
732.5356427187822
 20
-1480.471461417904
 42
-0.0255528488281794
 10
732.633089397579
 20
-1480.623488472137
 10
732.6354204974955
 20
-1480.627570083745
 42
-0.025214679322199
 10
732.7212015235053
 20
-1480.797072329744
 10
732.7235037626622
 20
-1480.802254411655
 42
-0.0244265635949187
 10
732.7961584564234
 20
-1480.990000983701
 10
732.8054048578922
 20
-1481.01786640204
 42
-0.0231319612912985
 10
732.8513276368841
 20
-1481.181167448841
 42
-0.0112130424364871
 10
732.8859636594224
 20
-1481.34737104903
 10
732.8871661845349
 20
-1481.353867635917
 42
-0.0210527881239106
 10
732.9128526599056
 20
-1481.534923281358
 10
732.9163632547276
 20
-1481.570328829906
 42
-0.019002989242128
 10
732.931804728272
 20
-1481.823864676175
 10
732.9326147047161
 20
-1481.859340290547
 42
-0.013797455366412
 10
732.9310658518806
 20
-1482.184371697279
 10
732.9302203969248
 20
-1482.210490441878
 42
-0.0081336634214774
 10
732.9153610617025
 20
-1482.515837909473
 42
-0.007352692357012
 10
732.8910525283275
 20
-1482.820586153762
 10
732.8897911045451
 20
-1482.833922828424
 42
-0.0066886138692098
 10
732.8540555184983
 20
-1483.164508871924
 10
732.8523984290288
 20
-1483.178130490912
 42
-0.0061359187357247
 10
732.8045478269772
 20
-1483.534894471017
 10
732.802510325905
 20
-1483.548789273842
 42
-0.0056698610061699
 10
732.741859995139
 20
-1483.932067842674
 10
732.7394545618149
 20
-1483.94622696191
 42
-0.0052721077277247
 10
732.6653223610189
 20
-1484.35635430157
 10
732.6625592121736
 20
-1484.370770936974
 42
-0.0049289272179699
 10
732.5742650940756
 20
-1484.808079448087
 10
732.571152599391
 20
-1484.822748300913
 42
-0.0047415956710942
 10
732.4679146078579
 20
-1485.287545058326
 10
732.4331463974988
 20
-1485.437352153706
 42
-0.00844044709037
 10
732.2431299539282
 20
-1486.197576178233
 10
732.2370032659413
 20
-1486.220440302391
 42
-0.0039635940259253
 10
732.0155495816547
 20
-1487.021429166648
 10
732.0021727864778
 20
-1487.06836078323
 42
-0.007247504083706
 10
731.7347258986181
 20
-1487.95758049961
 10
731.664513571784
 20
-1488.179320849603
 42
-0.0051345458825504
 10
731.3777541997284
 20
-1489.053646037403
 10
731.3562279329614
 20
-1489.117072304532
 42
-0.0019150016602468
 10
731.1006945260942
 20
-1489.86062142476
 10
731.094226921713
 20
-1489.879208889638
 42
-0.0021524362753558
 10
730.8457488706342
 20
-1490.583534711389
 10
730.8365384499358
 20
-1490.609288289696
 42
-0.0024331286821497
 10
730.6002831909018
 20
-1491.259887597809
 10
730.5912352383459
 20
-1491.284430904177
 42
-0.0027449721787009
 10
730.3666206675158
 20
-1491.883560783087
 10
730.3577306601246
 20
-1491.906883372937
 42
-0.0031083229768891
 10
730.1441881735136
 20
-1492.456807410519
 10
730.1354520418428
 20
-1492.478897126365
 42
-0.0035311343279437
 10
729.9324108562463
 20
-1492.981880252107
 10
729.9238255171036
 20
-1493.002722975605
 42
-0.0040245640946929
 10
729.7307137133042
 20
-1493.46103229821
 10
729.7222775996954
 20
-1493.480611666296
 42
-0.0046015135850557
 10
729.5385213065374
 20
-1493.896516695924
 10
729.5302351287139
 20
-1493.914813835366
 42
-0.0052768638274523
 10
729.3552576097535
 20
-1494.290586719647
 10
729.3471253991221
 20
-1494.307580058199
 42
-0.0060672675635202
 10
729.1803457863606
 20
-1494.645495681304
 10
729.1723763058844
 20
-1494.661160940291
 42
-0.0069904648871464
 10
729.0132079118775
 20
-1494.963496746965
 10
729.0054165122672
 20
-1494.977807296191
 42
-0.0080637022765761
 10
728.8532646519209
 20
-1495.246842599345
 10
728.8456756192921
 20
-1495.259770464942
 42
-0.0093006455674185
 10
728.6999349427582
 20
-1495.497784863449
 10
728.6925842760082
 20
-1495.509302832632
 42
-0.0107060778041589
 10
728.552635732576
 20
-1495.718573150001
 10
728.5455739643033
 20
-1495.728658692558
 42
-0.0122723111421032
 10
728.4107802460983
 20
-1495.911452022056
 10
728.4104540225438
 20
-1495.911872409867
 42
-0.0141836319627119
 10
728.2668724195702
 20
-1496.086442167696
 10
728.259924663921
 20
-1496.094417167957
 42
-0.0175957477219256
 10
728.1200184958835
 20
-1496.244038056365
 42
-0.00804663596625
 10
727.9725547308426
 20
-1496.386360584526
 10
727.9265201863359
 20
-1496.429381022607
 42
-0.026960026040283
 10
727.6732399403572
 20
-1496.641704281114
 10
727.6066728040563
 20
-1496.69165569574
 42
-0.017836283975767
 10
727.3667283144
 20
-1496.858673621993
 10
727.3594833433999
 20
-1496.863342134198
 42
-0.0174650732642726
 10
727.1231471459583
 20
-1497.004203099157
 42
-0.0169240130171336
 10
726.8776809000994
 20
-1497.128495358935
 10
726.8316947445428
 20
-1497.149857314502
 42
-0.0318883036833148
 10
726.4813438889213
 20
-1497.286195624012
 10
726.4129783537572
 20
-1497.307896244487
 42
-0.0284435909904703
 10
726.036928227467
 20
-1497.404113679962
 10
726.0017700669678
 20
-1497.411007275791
 42
-0.0243909341011126
 10
725.6883266060495
 20
-1497.45672830682
 10
725.6380458792836
 20
-1497.461573853722
 42
-0.0196639292935411
 10
725.4224503017512
 20
-1497.473822139236
 10
725.3706262305874
 20
-1497.474725399972
 42
-0.0100501510681542
 10
725.2582029489234
 20
-1497.474425001619
 10
725.2265430875655
 20
-1497.473703929734
 42
-0.0019752031132541
 10
725.177450750898
 20
-1497.472391769524
 10
725.1746904476727
 20
-1497.472307077698
 42
0.0065378752027283
 10
725.1311138729211
 20
-1497.471540186483
 42
-0.0167974694676746
 10
725.0875830499882
 20
-1497.469880287957
 10
725.0835037107272
 20
-1497.469587277062
 42
-0.0081283276263582
 10
725.0319439129894
 20
-1497.465040283424
 10
725.0202043391101
 20
-1497.463812365846
 42
-0.0126703440192597
 10
724.9454860433232
 20
-1497.454077574775
 10
724.9226981756399
 20
-1497.450519318859
 42
-0.0117852088429713
 10
724.8031591898036
 20
-1497.428956323701
 10
724.7477787380444
 20
-1497.417612783467
 42
-0.0251774592298886
 10
724.5209346990373
 20
-1497.359114774034
 10
724.4762155091802
 20
-1497.345147954697
 42
-0.0146525199878665
 10
724.289822521647
 20
-1497.280881427501
 42
-0.0166929435860077
 10
724.1078448655247
 20
-1497.205074294448
 10
724.1031882342472
 20
-1497.202949393832
 42
-0.019168435842719
 10
723.9180046029995
 20
-1497.109713310043
 10
723.9146720172411
 20
-1497.107872062489
 42
-0.0221181781811466
 10
723.7313617133377
 20
-1496.995738564118
 10
723.7290119093303
 20
-1496.994154266127
 42
-0.0254984685381674
 10
723.5527217589438
 20
-1496.861743116157
 10
723.5302396112431
 20
-1496.842990807221
 42
-0.0292492648804739
 10
723.4054706724
 20
-1496.725898007578
 42
-0.0159048957497949
 10
723.2916306749511
 20
-1496.59787801598
 10
723.2903118843707
 20
-1496.596296402959
 42
-0.0343813379566066
 10
723.1876746227448
 20
-1496.45442507719
 10
723.1561830913835
 20
-1496.403921685095
 42
-0.0369117275701014
 10
723.0702905894864
 20
-1496.240444444147
 42
-0.0191751379914061
 10
723.0030972039293
 20
-1496.068039838141
 10
723.0013338801698
 20
-1496.062946493466
 42
-0.0378178042222172
 10
722.9515391613855
 20
-1495.874005717385
 10
722.9455438656552
 20
-1495.841445099187
 42
-0.0184846046461579
 10
722.9248266663609
 20
-1495.699692278643
 42
-0.0179866351307866
 10
722.9144936612871
 20
-1495.556801465561
 10
722.9144372188414
 20
-1495.555243778949
 42
-0.0085497186124572
 10
722.9130049377377
 20
-1495.48037061394
 42
-0.0085497186124572
  0
MTEXT
  5
6B
330
23
100
AcDbEntity
  8
0
 62
     7
390
1D
100
AcDbMText
 10
605.8454995004997
 20
-1395.391100756294
 30
0.0
 40
24.4326171875
 41
0.0
 46
0.0
 71
     1
 72
     1
  1
1:10
  7
ＭＳ ゴシック
 73
     1
 44
0.7828267384257843
  0
MTEXT
  5
6C
330
23
100
AcDbEntity
  8
0
 62
     7
390
1D
100
AcDbMText
 10
552.8454995004997
 20
-1366.808639818794
 30
0.0
 40
16.28841145833333
 41
0.0
 46
0.0
 71
     1
 72
     1
  1
縮尺
  7
ＭＳ ゴシック
 73
     1
 44
0.7828267384257843
  0
LINE
  5
6D
330
23
100
AcDbEntity
  8
0
  6
Continuous
 62
     7
370
     5
390
1D
100
AcDbLine
 10
545.8454995004997
 20
-1443.393717943794
 30
0.0
 11
545.8454995004997
 21
-1358.393717943794
 31
0.0
  0
MTEXT
  5
6E
330
23
100
AcDbEntity
  8
0
 62
     7
390
1D
100
AcDbMText
 10
301.8454995004998
 20
-1366.808639818794
 30
0.0
 40
16.28841145833333
 41
0.0
 46
0.0
 71
     1
 72
     1
  1
容量
  7
ＭＳ ゴシック
 73
     1
 44
0.7828267384257843
  0
MTEXT
  5
6F
330
23
100
AcDbEntity
  8
0
 62
     7
390
1D
100
AcDbMText
 10
354.8454995004998
 20
-1395.391100756294
 30
0.0
 40
24.4326171875
 41
0.0
 46
0.0
 71
     1
 72
     1
  1
7.9L
  7
ＭＳ ゴシック
 73
     1
 44
0.7828267384257843
  0
LINE
  5
70
330
23
100
AcDbEntity
  8
0
  6
Continuous
 62
     7
370
     5
390
1D
100
AcDbLine
 10
294.8454995004998
 20
-1443.393717943794
 30
0.0
 11
294.8454995004998
 21
-1358.393717943794
 31
0.0
  0
MTEXT
  5
71
330
23
100
AcDbEntity
  8
0
 62
     7
390
1D
100
AcDbMText
 10
50.84549950049978
 20
-1281.808639818794
 30
0.0
 40
16.28841145833333
 41
0.0
 46
0.0
 71
     1
 72
     1
  1
品番
  7
ＭＳ ゴシック
 73
     1
 44
0.7828267384257843
  0
MTEXT
  5
72
330
23
100
AcDbEntity
  8
0
 62
     7
390
1D
100
AcDbMText
 10
50.84549950049978
 20
-1366.808639818794
 30
0.0
 40
16.28841145833333
 41
0.0
 46
0.0
 71
     1
 72
     1
  1
重量
  7
ＭＳ ゴシック
 73
     1
 44
0.7828267384257843
  0
MTEXT
  5
73
330
23
100
AcDbEntity
  8
0
 62
     7
390
1D
100
AcDbMText
 10
103.8454995004998
 20
-1310.391100756294
 30
0.0
 40
24.4326171875
 41
0.0
 46
0.0
 71
     1
 72
     1
  1
ARJ70-0103(旧品番:AQI70-0103)
  7
ＭＳ ゴシック
 73
     1
 44
0.7828267384257843
  0
MTEXT
  5
74
330
23
100
AcDbEntity
  8
0
 62
     7
390
1D
100
AcDbMText
 10
103.8454995004998
 20
-1395.391100756294
 30
0.0
 40
24.4326171875
 41
0.0
 46
0.0
 71
     1
 72
     1
  1
17kg
  7
ＭＳ ゴシック
 73
     1
 44
0.7828267384257843
  0
LINE
  5
75
330
23
100
AcDbEntity
  8
0
  6
Continuous
 62
     7
370
     5
390
1D
100
AcDbLine
 10
43.84549950049978
 20
-1528.393717943794
 30
0.0
 11
43.84549950049978
 21
-1273.393717943794
 31
0.0
  0
MTEXT
  5
76
330
23
100
AcDbEntity
  8
0
 62
     7
390
1D
100
AcDbMText
 10
-1093.15450049976
 20
-1395.391100756294
 30
0.0
 40
24.4326171875
 41
0.0
 46
0.0
 71
     1
 72
     1
  1
壁掛け,カウンタ ートップ/オーバーフロー付き/壁取付ボルト付属/\P陶器/ホワイト
  7
ＭＳ ゴシック
 73
     1
 44
1.304711230709641
  0
ENDBLK
  5
77
330
23
100
AcDbEntity
  8
template
390
1D
100
AcDbBlockEnd
  0
BLOCK
  5
78
330
24
100
AcDbEntity
  8
notes
390
1D
100
AcDbBlockBegin
  2
*D3
 70
     1
 10
0.0
 20
0.0
 30
0.0
  3
*D3
  1
*D3
  0
LINE
  5
79
330
24
100
AcDbEntity
  8
0
  6
Continuous
 62
     0
370
    -2
390
1D
100
AcDbLine
 10
-668.8024847539967
 20
937.2677641805283
 30
0.0
 11
-668.8024847539967
 21
1072.267764180528
 31
0.0
  0
LINE
  5
7A
330
24
100
AcDbEntity
  8
0
  6
Continuous
 62
     0
370
    -2
390
1D
100
AcDbLine
 10
-128.7938389279076
 20
937.2677641805283
 30
0.0
 11
-128.7938389279076
 21
1072.267764180528
 31
0.0
  0
LINE
  5
7B
330
24
100
AcDbEntity
  8
0
  6
Continuous
 62
     0
370
    -2
390
1D
100
AcDbLine
 10
-668.8024847539967
 20
1072.267764180528
 30
0.0
 11
-128.7938389279076
 21
1072.267764180528
 31
0.0
  0
CIRCLE
  5
7C
102
{ACAD_REACTORS
330
7D
102
}
330
24
100
AcDbEntity
  8
0
  6
Continuous
 62
     0
370
    -2
390
1D
100
AcDbCircle
 10
-668.8024847539967
 20
1072.267764180528
 30
0.0
 40
1.9998779296875
  0
HATCH
  5
7D
330
24
100
AcDbEntity
  8
0
  6
Continuous
 62
     0
370
    -2
390
1D
100
AcDbHatch
 10
0.0
 20
0.0
 30
0.0
210
0.0
220
0.0
230
1.0
  2
SOLID
 70
     1
 71
     1
 91
        1
 92
        1
 93
        1
 72
     2
 10
-668.8024847539967
 20
1072.267764180528
 40
1.9998779296875
 50
0.0
 51
360.0
 73
     0
 97
        1
330
7C
 75
     0
 76
     1
 98
        1
 10
0.0
 20
0.0
  0
CIRCLE
  5
7E
102
{ACAD_REACTORS
330
7F
102
}
330
24
100
AcDbEntity
  8
0
  6
Continuous
 62
     0
370
    -2
390
1D
100
AcDbCircle
 10
-128.7938389279076
 20
1072.267764180528
 30
0.0
 40
1.9998779296875
  0
HATCH
  5
7F
330
24
100
AcDbEntity
  8
0
  6
Continuous
 62
     0
370
    -2
390
1D
100
AcDbHatch
 10
0.0
 20
0.0
 30
0.0
210
0.0
220
0.0
230
1.0
  2
SOLID
 70
     1
 71
     1
 91
        1
 92
        1
 93
        1
 72
     2
 10
-128.7938389279076
 20
1072.267764180528
 40
1.9998779296875
 50
0.0
 51
360.0
 73
     0
 97
        1
330
7E
 75
     0
 76
     1
 98
        1
 10
0.0
 20
0.0
  0
MTEXT
  5
80
330
24
100
AcDbEntity
  8
0
 62
     0
390
1D
100
AcDbMText
 10
-422.6106635231276
 20
1106.145381368028
 30
0.0
 40
24.4326171875
 41
0.0
 46
0.0
 71
     1
 72
     1
  1
540
  7
ＭＳ ゴシック
 73
     1
 44
0.7828267384257843
  0
POINT
  5
81
330
24
100
AcDbEntity
  8
Defpoints
 62
     0
370
     0
390
1D
100
AcDbPoint
 10
-128.7938389279076
 20
912.2677641805283
 30
0.0
  0
POINT
  5
82
330
24
100
AcDbEntity
  8
Defpoints
 62
     0
370
     0
390
1D
100
AcDbPoint
 10
-668.8024847539967
 20
912.2677641805283
 30
0.0
  0
POINT
  5
83
330
24
100
AcDbEntity
  8
Defpoints
 62
     0
370
     0
390
1D
100
AcDbPoint
 10
-668.8024847539967
 20
1072.267764180528
 30
0.0
  0
ENDBLK
  5
84
330
24
100
AcDbEntity
  8
notes
390
1D
100
AcDbBlockEnd
  0
BLOCK
  5
85
330
25
100
AcDbEntity
  8
notes
390
1D
100
AcDbBlockBegin
  2
*D4
 70
     1
 10
0.0
 20
0.0
 30
0.0
  3
*D4
  1
*D4
  0
LINE
  5
86
330
25
100
AcDbEntity
  8
0
  6
Continuous
 62
     0
370
    -2
390
1D
100
AcDbLine
 10
-498.7981618409515
 20
882.5177641805144
 30
0.0
 11
-498.7981618409515
 21
1022.267764180528
 31
0.0
  0
LINE
  5
87
330
25
100
AcDbEntity
  8
0
  6
Continuous
 62
     0
370
    -2
390
1D
100
AcDbLine
 10
-398.7779425672877
 20
892.2659641805174
 30
0.0
 11
-398.7779425672877
 21
1022.267764180528
 31
0.0
  0
LINE
  5
88
330
25
100
AcDbEntity
  8
0
  6
Continuous
 62
     0
370
    -2
390
1D
100
AcDbLine
 10
-498.7981618409515
 20
1022.267764180528
 30
0.0
 11
-398.7779425672877
 21
1022.267764180528
 31
0.0
  0
CIRCLE
  5
89
102
{ACAD_REACTORS
330
8A
102
}
330
25
100
AcDbEntity
  8
0
  6
Continuous
 62
     0
370
    -2
390
1D
100
AcDbCircle
 10
-498.7981618409515
 20
1022.267764180528
 30
0.0
 40
1.9998779296875
  0
HATCH
  5
8A
330
25
100
AcDbEntity
  8
0
  6
Continuous
 62
     0
370
    -2
390
1D
100
AcDbHatch
 10
0.0
 20
0.0
 30
0.0
210
0.0
220
0.0
230
1.0
  2
SOLID
 70
     1
 71
     1
 91
        1
 92
        1
 93
        1
 72
     2
 10
-498.7981618409515
 20
1022.267764180528
 40
1.9998779296875
 50
0.0
 51
360.0
 73
     0
 97
        1
330
89
 75
     0
 76
     1
 98
        1
 10
0.0
 20
0.0
  0
CIRCLE
  5
8B
102
{ACAD_REACTORS
330
8C
102
}
330
25
100
AcDbEntity
  8
0
  6
Continuous
 62
     0
370
    -2
390
1D
100
AcDbCircle
 10
-398.7779425672877
 20
1022.267764180528
 30
0.0
 40
1.9998779296875
  0
HATCH
  5
8C
330
25
100
AcDbEntity
  8
0
  6
Continuous
 62
     0
370
    -2
390
1D
100
AcDbHatch
 10
0.0
 20
0.0
 30
0.0
210
0.0
220
0.0
230
1.0
  2
SOLID
 70
     1
 71
     1
 91
        1
 92
        1
 93
        1
 72
     2
 10
-398.7779425672877
 20
1022.267764180528
 40
1.9998779296875
 50
0.0
 51
360.0
 73
     0
 97
        1
330
8B
 75
     0
 76
     1
 98
        1
 10
0.0
 20
0.0
  0
MTEXT
  5
8D
330
25
100
AcDbEntity
  8
0
 62
     0
390
1D
100
AcDbMText
 10
-472.6005538862951
 20
1056.145381368028
 30
0.0
 40
24.4326171875
 41
0.0
 46
0.0
 71
     1
 72
     1
  1
100
  7
ＭＳ ゴシック
 73
     1
 44
0.7828267384257843
  0
POINT
  5
8E
330
25
100
AcDbEntity
  8
Defpoints
 62
     0
370
     0
390
1D
100
AcDbPoint
 10
-398.7779425672877
 20
867.2659641805174
 30
0.0
  0
POINT
  5
8F
330
25
100
AcDbEntity
  8
Defpoints
 62
     0
370
     0
390
1D
100
AcDbPoint
 10
-498.7981618409515
 20
857.5177641805144
 30
0.0
  0
POINT
  5
90
330
25
100
AcDbEntity
  8
Defpoints
 62
     0
370
     0
390
1D
100
AcDbPoint
 10
-498.7981618409515
 20
1022.267764180528
 30
0.0
  0
ENDBLK
  5
91
330
25
100
AcDbEntity
  8
notes
390
1D
100
AcDbBlockEnd
  0
BLOCK
  5
92
330
26
100
AcDbEntity
  8
notes
390
1D
100
AcDbBlockBegin
  2
*D5
 70
     1
 10
0.0
 20
0.0
 30
0.0
  3
*D5
  1
*D5
  0
LINE
  5
93
330
26
100
AcDbEntity
  8
0
  6
Continuous
 62
     0
370
    -2
390
1D
100
AcDbLine
 10
-398.7779425672877
 20
892.2659641805174
 30
0.0
 11
-398.7779425672877
 21
1022.267764180528
 31
0.0
  0
LINE
  5
94
330
26
100
AcDbEntity
  8
0
  6
Continuous
 62
     0
370
    -2
390
1D
100
AcDbLine
 10
-298.7981618409515
 20
882.5177641805144
 30
0.0
 11
-298.7981618409515
 21
1022.267764180528
 31
0.0
  0
LINE
  5
95
330
26
100
AcDbEntity
  8
0
  6
Continuous
 62
     0
370
    -2
390
1D
100
AcDbLine
 10
-398.7779425672877
 20
1022.267764180528
 30
0.0
 11
-298.7981618409515
 21
1022.267764180528
 31
0.0
  0
CIRCLE
  5
96
102
{ACAD_REACTORS
330
97
102
}
330
26
100
AcDbEntity
  8
0
  6
Continuous
 62
     0
370
    -2
390
1D
100
AcDbCircle
 10
-398.7779425672877
 20
1022.267764180528
 30
0.0
 40
1.9998779296875
  0
HATCH
  5
97
330
26
100
AcDbEntity
  8
0
  6
Continuous
 62
     0
370
    -2
390
1D
100
AcDbHatch
 10
0.0
 20
0.0
 30
0.0
210
0.0
220
0.0
230
1.0
  2
SOLID
 70
     1
 71
     1
 91
        1
 92
        1
 93
        1
 72
     2
 10
-398.7779425672877
 20
1022.267764180528
 40
1.9998779296875
 50
0.0
 51
360.0
 73
     0
 97
        1
330
96
 75
     0
 76
     1
 98
        1
 10
0.0
 20
0.0
  0
CIRCLE
  5
98
102
{ACAD_REACTORS
330
99
102
}
330
26
100
AcDbEntity
  8
0
  6
Continuous
 62
     0
370
    -2
390
1D
100
AcDbCircle
 10
-298.7981618409515
 20
1022.267764180528
 30
0.0
 40
1.9998779296875
  0
HATCH
  5
99
330
26
100
AcDbEntity
  8
0
  6
Continuous
 62
     0
370
    -2
390
1D
100
AcDbHatch
 10
0.0
 20
0.0
 30
0.0
210
0.0
220
0.0
230
1.0
  2
SOLID
 70
     1
 71
     1
 91
        1
 92
        1
 93
        1
 72
     2
 10
-298.7981618409515
 20
1022.267764180528
 40
1.9998779296875
 50
0.0
 51
360.0
 73
     0
 97
        1
330
98
 75
     0
 76
     1
 98
        1
 10
0.0
 20
0.0
  0
MTEXT
  5
9A
330
26
100
AcDbEntity
  8
0
 62
     0
390
1D
100
AcDbMText
 10
-372.6005538862951
 20
1056.145381368028
 30
0.0
 40
24.4326171875
 41
0.0
 46
0.0
 71
     1
 72
     1
  1
100
  7
ＭＳ ゴシック
 73
     1
 44
0.7828267384257843
  0
POINT
  5
9B
330
26
100
AcDbEntity
  8
Defpoints
 62
     0
370
     0
390
1D
100
AcDbPoint
 10
-298.7981618409515
 20
857.5177641805144
 30
0.0
  0
POINT
  5
9C
330
26
100
AcDbEntity
  8
Defpoints
 62
     0
370
     0
390
1D
100
AcDbPoint
 10
-398.7779425672877
 20
867.2659641805174
 30
0.0
  0
POINT
  5
9D
330
26
100
AcDbEntity
  8
Defpoints
 62
     0
370
     0
390
1D
100
AcDbPoint
 10
-398.7779425672877
 20
1022.267764180528
 30
0.0
  0
ENDBLK
  5
9E
330
26
100
AcDbEntity
  8
notes
390
1D
100
AcDbBlockEnd
  0
BLOCK
  5
9F
330
27
100
AcDbEntity
  8
notes
390
1D
100
AcDbBlockBegin
  2
*D6
 70
     1
 10
0.0
 20
0.0
 30
0.0
  3
*D6
  1
*D6
  0
LINE
  5
A0
330
27
100
AcDbEntity
  8
0
  6
Continuous
 62
     0
370
    -2
390
1D
100
AcDbLine
 10
-386.4174376906614
 20
874.6534382612917
 30
0.0
 11
-274.7981618409509
 21
986.5000000000122
 31
0.0
  0
CIRCLE
  5
A1
102
{ACAD_REACTORS
330
A2
102
}
330
27
100
AcDbEntity
  8
0
  6
Continuous
 62
     0
370
    -2
390
1D
100
AcDbCircle
 10
-386.4174376906614
 20
874.6534382612917
 30
0.0
 40
1.9998779296875
  0
HATCH
  5
A2
330
27
100
AcDbEntity
  8
0
  6
Continuous
 62
     0
370
    -2
390
1D
100
AcDbHatch
 10
0.0
 20
0.0
 30
0.0
210
0.0
220
0.0
230
1.0
  2
SOLID
 70
     1
 71
     1
 91
        1
 92
        1
 93
        1
 72
     2
 10
-386.4174376906614
 20
874.6534382612917
 40
1.9998779296875
 50
0.0
 51
360.0
 73
     0
 97
        1
330
A1
 75
     0
 76
     1
 98
        1
 10
0.0
 20
0.0
  0
LINE
  5
A3
330
27
100
AcDbEntity
  8
0
  6
Continuous
 62
     0
370
    -2
390
1D
100
AcDbLine
 10
-274.7981618409509
 20
986.5000000000122
 30
0.0
 11
-151.2981618409509
 21
986.5000000000122
 31
0.0
  0
MTEXT
  5
A4
330
27
100
AcDbEntity
  8
0
 62
     0
390
1D
100
AcDbMText
 10
-214.7981618409509
 20
1020.377617187512
 30
0.0
 40
24.4326171875
 41
0.0
 46
0.0
 71
     1
 72
     1
  1
φ35
  7
ＭＳ ゴシック
 73
     1
 44
0.7828267384257843
  0
POINT
  5
A5
330
27
100
AcDbEntity
  8
Defpoints
 62
     0
370
     0
390
1D
100
AcDbPoint
 10
-411.1384474439141
 20
849.8820900997648
 30
0.0
  0
POINT
  5
A6
330
27
100
AcDbEntity
  8
Defpoints
 62
     0
370
     0
390
1D
100
AcDbPoint
 10
-386.4174376906614
 20
874.6534382612917
 30
0.0
  0
ENDBLK
  5
A7
330
27
100
AcDbEntity
  8
notes
390
1D
100
AcDbBlockEnd
  0
BLOCK
  5
A8
330
28
100
AcDbEntity
  8
notes
390
1D
100
AcDbBlockBegin
  2
*D7
 70
     1
 10
0.0
 20
0.0
 30
0.0
  3
*D7
  1
*D7
  0
LINE
  5
A9
330
28
100
AcDbEntity
  8
0
  6
Continuous
 62
     0
370
    -2
390
1D
100
AcDbLine
 10
-739.7779425672877
 20
557.8346861538461
 30
0.0
 11
-739.7779425672877
 21
242.2677641805282
 31
0.0
  0
LINE
  5
AA
330
28
100
AcDbEntity
  8
0
  6
Continuous
 62
     0
370
    -2
390
1D
100
AcDbLine
 10
-59.77794256728774
 20
557.834686153846
 30
0.0
 11
-59.77794256728774
 21
242.2677641805282
 31
0.0
  0
LINE
  5
AB
330
28
100
AcDbEntity
  8
0
  6
Continuous
 62
     0
370
    -2
390
1D
100
AcDbLine
 10
-739.7779425672877
 20
242.2677641805282
 30
0.0
 11
-59.77794256728774
 21
242.2677641805282
 31
0.0
  0
CIRCLE
  5
AC
102
{ACAD_REACTORS
330
AD
102
}
330
28
100
AcDbEntity
  8
0
  6
Continuous
 62
     0
370
    -2
390
1D
100
AcDbCircle
 10
-739.7779425672877
 20
242.2677641805282
 30
0.0
 40
1.9998779296875
  0
HATCH
  5
AD
330
28
100
AcDbEntity
  8
0
  6
Continuous
 62
     0
370
    -2
390
1D
100
AcDbHatch
 10
0.0
 20
0.0
 30
0.0
210
0.0
220
0.0
230
1.0
  2
SOLID
 70
     1
 71
     1
 91
        1
 92
        1
 93
        1
 72
     2
 10
-739.7779425672877
 20
242.2677641805282
 40
1.9998779296875
 50
0.0
 51
360.0
 73
     0
 97
        1
330
AC
 75
     0
 76
     1
 98
        1
 10
0.0
 20
0.0
  0
CIRCLE
  5
AE
102
{ACAD_REACTORS
330
AF
102
}
330
28
100
AcDbEntity
  8
0
  6
Continuous
 62
     0
370
    -2
390
1D
100
AcDbCircle
 10
-59.77794256728774
 20
242.2677641805282
 30
0.0
 40
1.9998779296875
  0
HATCH
  5
AF
330
28
100
AcDbEntity
  8
0
  6
Continuous
 62
     0
370
    -2
390
1D
100
AcDbHatch
 10
0.0
 20
0.0
 30
0.0
210
0.0
220
0.0
230
1.0
  2
SOLID
 70
     1
 71
     1
 91
        1
 92
        1
 93
        1
 72
     2
 10
-59.77794256728774
 20
242.2677641805282
 40
1.9998779296875
 50
0.0
 51
360.0
 73
     0
 97
        1
330
AE
 75
     0
 76
     1
 98
        1
 10
0.0
 20
0.0
  0
MTEXT
  5
B0
330
28
100
AcDbEntity
  8
0
 62
     0
390
1D
100
AcDbMText
 10
-423.5904442494632
 20
276.1453813680282
 30
0.0
 40
24.4326171875
 41
0.0
 46
0.0
 71
     1
 72
     1
  1
680
  7
ＭＳ ゴシック
 73
     1
 44
0.7828267384257843
  0
POINT
  5
B1
330
28
100
AcDbEntity
  8
Defpoints
 62
     0
370
     0
390
1D
100
AcDbPoint
 10
-59.77794256728774
 20
582.834686153846
 30
0.0
  0
POINT
  5
B2
330
28
100
AcDbEntity
  8
Defpoints
 62
     0
370
     0
390
1D
100
AcDbPoint
 10
-739.7779425672877
 20
582.8346861538461
 30
0.0
  0
POINT
  5
B3
330
28
100
AcDbEntity
  8
Defpoints
 62
     0
370
     0
390
1D
100
AcDbPoint
 10
-739.7779425672877
 20
242.2677641805282
 30
0.0
  0
ENDBLK
  5
B4
330
28
100
AcDbEntity
  8
notes
390
1D
100
AcDbBlockEnd
  0
BLOCK
  5
B5
330
29
100
AcDbEntity
  8
notes
390
1D
100
AcDbBlockBegin
  2
*D8
 70
     1
 10
0.0
 20
0.0
 30
0.0
  3
*D8
  1
*D8
  0
LINE
  5
B6
330
29
100
AcDbEntity
  8
0
  6
Continuous
 62
     0
370
    -2
390
1D
100
AcDbLine
 10
-714.7779425672877
 20
504.3013216357673
 30
0.0
 11
-714.7779425672877
 21
292.2677641805283
 31
0.0
  0
LINE
  5
B7
330
29
100
AcDbEntity
  8
0
  6
Continuous
 62
     0
370
    -2
390
1D
100
AcDbLine
 10
-84.77794256728785
 20
504.3013216357672
 30
0.0
 11
-84.77794256728785
 21
292.2677641805283
 31
0.0
  0
LINE
  5
B8
330
29
100
AcDbEntity
  8
0
  6
Continuous
 62
     0
370
    -2
390
1D
100
AcDbLine
 10
-714.7779425672877
 20
292.2677641805283
 30
0.0
 11
-84.77794256728785
 21
292.2677641805283
 31
0.0
  0
CIRCLE
  5
B9
102
{ACAD_REACTORS
330
BA
102
}
330
29
100
AcDbEntity
  8
0
  6
Continuous
 62
     0
370
    -2
390
1D
100
AcDbCircle
 10
-714.7779425672877
 20
292.2677641805283
 30
0.0
 40
1.9998779296875
  0
HATCH
  5
BA
330
29
100
AcDbEntity
  8
0
  6
Continuous
 62
     0
370
    -2
390
1D
100
AcDbHatch
 10
0.0
 20
0.0
 30
0.0
210
0.0
220
0.0
230
1.0
  2
SOLID
 70
     1
 71
     1
 91
        1
 92
        1
 93
        1
 72
     2
 10
-714.7779425672877
 20
292.2677641805283
 40
1.9998779296875
 50
0.0
 51
360.0
 73
     0
 97
        1
330
B9
 75
     0
 76
     1
 98
        1
 10
0.0
 20
0.0
  0
CIRCLE
  5
BB
102
{ACAD_REACTORS
330
BC
102
}
330
29
100
AcDbEntity
  8
0
  6
Continuous
 62
     0
370
    -2
390
1D
100
AcDbCircle
 10
-84.77794256728785
 20
292.2677641805283
 30
0.0
 40
1.9998779296875
  0
HATCH
  5
BC
330
29
100
AcDbEntity
  8
0
  6
Continuous
 62
     0
370
    -2
390
1D
100
AcDbHatch
 10
0.0
 20
0.0
 30
0.0
210
0.0
220
0.0
230
1.0
  2
SOLID
 70
     1
 71
     1
 91
        1
 92
        1
 93
        1
 72
     2
 10
-84.77794256728785
 20
292.2677641805283
 40
1.9998779296875
 50
0.0
 51
360.0
 73
     0
 97
        1
330
BB
 75
     0
 76
     1
 98
        1
 10
0.0
 20
0.0
  0
MTEXT
  5
BD
330
29
100
AcDbEntity
  8
0
 62
     0
390
1D
100
AcDbMText
 10
-423.5904442494632
 20
326.1453813680282
 30
0.0
 40
24.4326171875
 41
0.0
 46
0.0
 71
     1
 72
     1
  1
630
  7
ＭＳ ゴシック
 73
     1
 44
0.7828267384257843
  0
POINT
  5
BE
330
29
100
AcDbEntity
  8
Defpoints
 62
     0
370
     0
390
1D
100
AcDbPoint
 10
-84.77794256728785
 20
529.3013216357672
 30
0.0
  0
POINT
  5
BF
330
29
100
AcDbEntity
  8
Defpoints
 62
     0
370
     0
390
1D
100
AcDbPoint
 10
-714.7779425672877
 20
529.3013216357673
 30
0.0
  0
POINT
  5
C0
330
29
100
AcDbEntity
  8
Defpoints
 62
     0
370
     0
390
1D
100
AcDbPoint
 10
-714.7779425672877
 20
292.2677641805283
 30
0.0
  0
ENDBLK
  5
C1
330
29
100
AcDbEntity
  8
notes
390
1D
100
AcDbBlockEnd
  0
BLOCK
  5
C2
330
2A
100
AcDbEntity
  8
notes
390
1D
100
AcDbBlockBegin
  2
*D9
 70
     1
 10
0.0
 20
0.0
 30
0.0
  3
*D9
  1
*D9
  0
LINE
  5
C3
330
2A
100
AcDbEntity
  8
0
  6
Continuous
 62
     0
370
    -2
390
1D
100
AcDbLine
 10
-683.9398459780302
 20
922.2677641805283
 30
0.0
 11
-839.7779425672877
 21
922.2677641805283
 31
0.0
  0
LINE
  5
C4
330
2A
100
AcDbEntity
  8
0
  6
Continuous
 62
     0
370
    -2
390
1D
100
AcDbLine
 10
-694.8084788661948
 20
802.2936508795653
 30
0.0
 11
-839.7779425672877
 21
802.2936508795653
 31
0.0
  0
LINE
  5
C5
330
2A
100
AcDbEntity
  8
0
  6
Continuous
 62
     0
370
    -2
390
1D
100
AcDbLine
 10
-839.7779425672877
 20
922.2677641805283
 30
0.0
 11
-839.7779425672877
 21
802.2936508795653
 31
0.0
  0
CIRCLE
  5
C6
102
{ACAD_REACTORS
330
C7
102
}
330
2A
100
AcDbEntity
  8
0
  6
Continuous
 62
     0
370
    -2
390
1D
100
AcDbCircle
 10
-839.7779425672877
 20
922.2677641805283
 30
0.0
 40
1.9998779296875
  0
HATCH
  5
C7
330
2A
100
AcDbEntity
  8
0
  6
Continuous
 62
     0
370
    -2
390
1D
100
AcDbHatch
 10
0.0
 20
0.0
 30
0.0
210
0.0
220
0.0
230
1.0
  2
SOLID
 70
     1
 71
     1
 91
        1
 92
        1
 93
        1
 72
     2
 10
-839.7779425672877
 20
922.2677641805283
 40
1.9998779296875
 50
0.0
 51
360.0
 73
     0
 97
        1
330
C6
 75
     0
 76
     1
 98
        1
 10
0.0
 20
0.0
  0
CIRCLE
  5
C8
102
{ACAD_REACTORS
330
C9
102
}
330
2A
100
AcDbEntity
  8
0
  6
Continuous
 62
     0
370
    -2
390
1D
100
AcDbCircle
 10
-839.7779425672877
 20
802.2936508795653
 30
0.0
 40
1.9998779296875
  0
HATCH
  5
C9
330
2A
100
AcDbEntity
  8
0
  6
Continuous
 62
     0
370
    -2
390
1D
100
AcDbHatch
 10
0.0
 20
0.0
 30
0.0
210
0.0
220
0.0
230
1.0
  2
SOLID
 70
     1
 71
     1
 91
        1
 92
        1
 93
        1
 72
     2
 10
-839.7779425672877
 20
802.2936508795653
 40
1.9998779296875
 50
0.0
 51
360.0
 73
     0
 97
        1
330
C8
 75
     0
 76
     1
 98
        1
 10
0.0
 20
0.0
  0
MTEXT
  5
CA
330
2A
100
AcDbEntity
  8
0
 62
     0
390
1D
100
AcDbMText
 10
-873.6555597547876
 20
838.4682058478713
 30
0.0
 40
24.4326171875
 41
0.0
 46
0.0
 71
     1
 72
     1
  1
120
  7
ＭＳ ゴシック
 11
0.0
 21
1.0
 31
0.0
 73
     1
 44
0.7828267384257843
  0
POINT
  5
CB
330
2A
100
AcDbEntity
  8
Defpoints
 62
     0
370
     0
390
1D
100
AcDbPoint
 10
-669.8084788661948
 20
802.2936508795653
 30
0.0
  0
POINT
  5
CC
330
2A
100
AcDbEntity
  8
Defpoints
 62
     0
370
     0
390
1D
100
AcDbPoint
 10
-658.9398459780302
 20
922.2677641805283
 30
0.0
  0
POINT
  5
CD
330
2A
100
AcDbEntity
  8
Defpoints
 62
     0
370
     0
390
1D
100
AcDbPoint
 10
-839.7779425672877
 20
922.2677641805283
 30
0.0
  0
ENDBLK
  5
CE
330
2A
100
AcDbEntity
  8
notes
390
1D
100
AcDbBlockEnd
  0
BLOCK
  5
CF
330
2B
100
AcDbEntity
  8
notes
390
1D
100
AcDbBlockBegin
  2
*D10
 70
     1
 10
0.0
 20
0.0
 30
0.0
  3
*D10
  1
*D10
  0
LINE
  5
D0
330
2B
100
AcDbEntity
  8
0
  6
Continuous
 62
     0
370
    -2
390
1D
100
AcDbLine
 10
-694.8084788661948
 20
802.2936508795653
 30
0.0
 11
-839.7779425672877
 21
802.2936508795653
 31
0.0
  0
LINE
  5
D1
330
2B
100
AcDbEntity
  8
0
  6
Continuous
 62
     0
370
    -2
390
1D
100
AcDbLine
 10
-582.1863946012843
 20
417.2936508795653
 30
0.0
 11
-839.7779425672877
 21
417.2936508795653
 31
0.0
  0
LINE
  5
D2
330
2B
100
AcDbEntity
  8
0
  6
Continuous
 62
     0
370
    -2
390
1D
100
AcDbLine
 10
-839.7779425672877
 20
802.2936508795653
 30
0.0
 11
-839.7779425672877
 21
417.2936508795653
 31
0.0
  0
CIRCLE
  5
D3
102
{ACAD_REACTORS
330
D4
102
}
330
2B
100
AcDbEntity
  8
0
  6
Continuous
 62
     0
370
    -2
390
1D
100
AcDbCircle
 10
-839.7779425672877
 20
802.2936508795653
 30
0.0
 40
1.9998779296875
  0
HATCH
  5
D4
330
2B
100
AcDbEntity
  8
0
  6
Continuous
 62
     0
370
    -2
390
1D
100
AcDbHatch
 10
0.0
 20
0.0
 30
0.0
210
0.0
220
0.0
230
1.0
  2
SOLID
 70
     1
 71
     1
 91
        1
 92
        1
 93
        1
 72
     2
 10
-839.7779425672877
 20
802.2936508795653
 40
1.9998779296875
 50
0.0
 51
360.0
 73
     0
 97
        1
330
D3
 75
     0
 76
     1
 98
        1
 10
0.0
 20
0.0
  0
CIRCLE
  5
D5
102
{ACAD_REACTORS
330
D6
102
}
330
2B
100
AcDbEntity
  8
0
  6
Continuous
 62
     0
370
    -2
390
1D
100
AcDbCircle
 10
-839.7779425672877
 20
417.2936508795653
 30
0.0
 40
1.9998779296875
  0
HATCH
  5
D6
330
2B
100
AcDbEntity
  8
0
  6
Continuous
 62
     0
370
    -2
390
1D
100
AcDbHatch
 10
0.0
 20
0.0
 30
0.0
210
0.0
220
0.0
230
1.0
  2
SOLID
 70
     1
 71
     1
 91
        1
 92
        1
 93
        1
 72
     2
 10
-839.7779425672877
 20
417.2936508795653
 40
1.9998779296875
 50
0.0
 51
360.0
 73
     0
 97
        1
330
D5
 75
     0
 76
     1
 98
        1
 10
0.0
 20
0.0
  0
MTEXT
  5
D7
330
2B
100
AcDbEntity
  8
0
 62
     0
390
1D
100
AcDbMText
 10
-873.6555597547876
 20
585.9811491973898
 30
0.0
 40
24.4326171875
 41
0.0
 46
0.0
 71
     1
 72
     1
  1
385
  7
ＭＳ ゴシック
 11
0.0
 21
1.0
 31
0.0
 73
     1
 44
0.7828267384257843
  0
POINT
  5
D8
330
2B
100
AcDbEntity
  8
Defpoints
 62
     0
370
     0
390
1D
100
AcDbPoint
 10
-557.1863946012843
 20
417.2936508795653
 30
0.0
  0
POINT
  5
D9
330
2B
100
AcDbEntity
  8
Defpoints
 62
     0
370
     0
390
1D
100
AcDbPoint
 10
-669.8084788661948
 20
802.2936508795653
 30
0.0
  0
POINT
  5
DA
330
2B
100
AcDbEntity
  8
Defpoints
 62
     0
370
     0
390
1D
100
AcDbPoint
 10
-839.7779425672877
 20
802.2936508795653
 30
0.0
  0
ENDBLK
  5
DB
330
2B
100
AcDbEntity
  8
notes
390
1D
100
AcDbBlockEnd
  0
BLOCK
  5
DC
330
2C
100
AcDbEntity
  8
notes
390
1D
100
AcDbBlockBegin
  2
*D11
 70
     1
 10
0.0
 20
0.0
 30
0.0
  3
*D11
  1
*D11
  0
LINE
  5
DD
330
2C
100
AcDbEntity
  8
0
  6
Continuous
 62
     0
370
    -2
390
1D
100
AcDbLine
 10
-113.9660391565456
 20
922.2677641805283
 30
0.0
 11
40.22205743271226
 21
922.2677641805283
 31
0.0
  0
LINE
  5
DE
330
2C
100
AcDbEntity
  8
0
  6
Continuous
 62
     0
370
    -2
390
1D
100
AcDbLine
 10
-324.822814962426
 20
392.2677641805283
 30
0.0
 11
40.22205743271226
 21
392.2677641805283
 31
0.0
  0
LINE
  5
DF
330
2C
100
AcDbEntity
  8
0
  6
Continuous
 62
     0
370
    -2
390
1D
100
AcDbLine
 10
40.22205743271226
 20
922.2677641805283
 30
0.0
 11
40.22205743271226
 21
392.2677641805283
 31
0.0
  0
CIRCLE
  5
E0
102
{ACAD_REACTORS
330
E1
102
}
330
2C
100
AcDbEntity
  8
0
  6
Continuous
 62
     0
370
    -2
390
1D
100
AcDbCircle
 10
40.22205743271226
 20
922.2677641805283
 30
0.0
 40
1.9998779296875
  0
HATCH
  5
E1
330
2C
100
AcDbEntity
  8
0
  6
Continuous
 62
     0
370
    -2
390
1D
100
AcDbHatch
 10
0.0
 20
0.0
 30
0.0
210
0.0
220
0.0
230
1.0
  2
SOLID
 70
     1
 71
     1
 91
        1
 92
        1
 93
        1
 72
     2
 10
40.22205743271226
 20
922.2677641805283
 40
1.9998779296875
 50
0.0
 51
360.0
 73
     0
 97
        1
330
E0
 75
     0
 76
     1
 98
        1
 10
0.0
 20
0.0
  0
CIRCLE
  5
E2
102
{ACAD_REACTORS
330
E3
102
}
330
2C
100
AcDbEntity
  8
0
  6
Continuous
 62
     0
370
    -2
390
1D
100
AcDbCircle
 10
40.22205743271226
 20
392.2677641805283
 30
0.0
 40
1.9998779296875
  0
HATCH
  5
E3
330
2C
100
AcDbEntity
  8
0
  6
Continuous
 62
     0
370
    -2
390
1D
100
AcDbHatch
 10
0.0
 20
0.0
 30
0.0
210
0.0
220
0.0
230
1.0
  2
SOLID
 70
     1
 71
     1
 91
        1
 92
        1
 93
        1
 72
     2
 10
40.22205743271226
 20
392.2677641805283
 40
1.9998779296875
 50
0.0
 51
360.0
 73
     0
 97
        1
330
E2
 75
     0
 76
     1
 98
        1
 10
0.0
 20
0.0
  0
MTEXT
  5
E4
330
2C
100
AcDbEntity
  8
0
 62
     0
390
1D
100
AcDbMText
 10
6.344440245212269
 20
633.4552624983527
 30
0.0
 40
24.4326171875
 41
0.0
 46
0.0
 71
     1
 72
     1
  1
530
  7
ＭＳ ゴシック
 11
0.0
 21
1.0
 31
0.0
 73
     1
 44
0.7828267384257843
  0
POINT
  5
E5
330
2C
100
AcDbEntity
  8
Defpoints
 62
     0
370
     0
390
1D
100
AcDbPoint
 10
-349.822814962426
 20
392.2677641805283
 30
0.0
  0
POINT
  5
E6
330
2C
100
AcDbEntity
  8
Defpoints
 62
     0
370
     0
390
1D
100
AcDbPoint
 10
-138.9660391565456
 20
922.2677641805283
 30
0.0
  0
POINT
  5
E7
330
2C
100
AcDbEntity
  8
Defpoints
 62
     0
370
     0
390
1D
100
AcDbPoint
 10
40.22205743271226
 20
922.2677641805283
 30
0.0
  0
ENDBLK
  5
E8
330
2C
100
AcDbEntity
  8
notes
390
1D
100
AcDbBlockEnd
  0
BLOCK
  5
E9
330
2D
100
AcDbEntity
  8
notes
390
1D
100
AcDbBlockBegin
  2
*D12
 70
     1
 10
0.0
 20
0.0
 30
0.0
  3
*D12
  1
*D12
  0
LINE
  5
EA
330
2D
100
AcDbEntity
  8
0
  6
Continuous
 62
     0
370
    -2
390
1D
100
AcDbLine
 10
634.8961301006833
 20
-293.6544337030232
 30
0.0
 11
642.7711301006833
 21
-293.6544337030232
 31
0.0
  0
LINE
  5
EB
330
2D
100
AcDbEntity
  8
0
  6
Continuous
 62
     0
370
    -2
390
1D
100
AcDbLine
 10
634.8961301006833
 20
-423.6544337030231
 30
0.0
 11
642.7711301006833
 21
-423.6544337030231
 31
0.0
  0
LINE
  5
EC
330
2D
100
AcDbEntity
  8
0
  6
Continuous
 62
     0
370
    -2
390
1D
100
AcDbLine
 10
642.7711301006833
 20
-293.6544337030232
 30
0.0
 11
642.7711301006833
 21
-144.3419337030231
 31
0.0
  0
LINE
  5
ED
330
2D
100
AcDbEntity
  8
0
  6
Continuous
 62
     0
370
    -2
390
1D
100
AcDbLine
 10
642.7711301006833
 20
-293.6544337030232
 30
0.0
 11
642.7711301006833
 21
-423.6544337030231
 31
0.0
  0
CIRCLE
  5
EE
102
{ACAD_REACTORS
330
EF
102
}
330
2D
100
AcDbEntity
  8
0
  6
Continuous
 62
     0
370
    -2
390
1D
100
AcDbCircle
 10
642.7711301006833
 20
-293.6544337030232
 30
0.0
 40
1.9998779296875
  0
HATCH
  5
EF
330
2D
100
AcDbEntity
  8
0
  6
Continuous
 62
     0
370
    -2
390
1D
100
AcDbHatch
 10
0.0
 20
0.0
 30
0.0
210
0.0
220
0.0
230
1.0
  2
SOLID
 70
     1
 71
     1
 91
        1
 92
        1
 93
        1
 72
     2
 10
642.7711301006833
 20
-293.6544337030232
 40
1.9998779296875
 50
0.0
 51
360.0
 73
     0
 97
        1
330
EE
 75
     0
 76
     1
 98
        1
 10
0.0
 20
0.0
  0
CIRCLE
  5
F0
102
{ACAD_REACTORS
330
F1
102
}
330
2D
100
AcDbEntity
  8
0
  6
Continuous
 62
     0
370
    -2
390
1D
100
AcDbCircle
 10
642.7711301006833
 20
-423.6544337030231
 30
0.0
 40
1.9998779296875
  0
HATCH
  5
F1
330
2D
100
AcDbEntity
  8
0
  6
Continuous
 62
     0
370
    -2
390
1D
100
AcDbHatch
 10
0.0
 20
0.0
 30
0.0
210
0.0
220
0.0
230
1.0
  2
SOLID
 70
     1
 71
     1
 91
        1
 92
        1
 93
        1
 72
     2
 10
642.7711301006833
 20
-423.6544337030231
 40
1.9998779296875
 50
0.0
 51
360.0
 73
     0
 97
        1
330
F0
 75
     0
 76
     1
 98
        1
 10
0.0
 20
0.0
  0
MTEXT
  5
F2
330
2D
100
AcDbEntity
  8
0
 62
     0
390
1D
100
AcDbMText
 10
608.8935129131833
 20
-287.2169337030231
 30
0.0
 40
24.4326171875
 41
0.0
 46
0.0
 71
     1
 72
     1
  1
130(深さ)
  7
ＭＳ ゴシック
 11
0.0
 21
1.0
 31
0.0
 73
     1
 44
0.7828267384257843
  0
POINT
  5
F3
330
2D
100
AcDbEntity
  8
Defpoints
 62
     0
370
     0
390
1D
100
AcDbPoint
 10
659.8961301006833
 20
-423.6544337030231
 30
0.0
  0
POINT
  5
F4
330
2D
100
AcDbEntity
  8
Defpoints
 62
     0
370
     0
390
1D
100
AcDbPoint
 10
659.8961301006833
 20
-293.6544337030232
 30
0.0
  0
POINT
  5
F5
330
2D
100
AcDbEntity
  8
Defpoints
 62
     0
370
     0
390
1D
100
AcDbPoint
 10
642.7711301006833
 20
-293.6544337030232
 30
0.0
  0
ENDBLK
  5
F6
330
2D
100
AcDbEntity
  8
notes
390
1D
100
AcDbBlockEnd
  0
BLOCK
  5
F7
330
2E
100
AcDbEntity
  8
notes
390
1D
100
AcDbBlockBegin
  2
*D13
 70
     1
 10
0.0
 20
0.0
 30
0.0
  3
*D13
  1
*D13
  0
LINE
  5
F8
330
2E
100
AcDbEntity
  8
0
  6
Continuous
 62
     0
370
    -2
390
1D
100
AcDbLine
 10
854.940141130964
 20
-268.6548398062105
 30
0.0
 11
854.940141130964
 21
-193.6544337030231
 31
0.0
  0
LINE
  5
F9
330
2E
100
AcDbEntity
  8
0
  6
Continuous
 62
     0
370
    -2
390
1D
100
AcDbLine
 10
794.940141130964
 20
-268.6548398062105
 30
0.0
 11
794.940141130964
 21
-193.6544337030231
 31
0.0
  0
LINE
  5
FA
330
2E
100
AcDbEntity
  8
0
  6
Continuous
 62
     0
370
    -2
390
1D
100
AcDbLine
 10
854.940141130964
 20
-193.6544337030231
 30
0.0
 11
794.940141130964
 21
-193.6544337030231
 31
0.0
  0
CIRCLE
  5
FB
102
{ACAD_REACTORS
330
FC
102
}
330
2E
100
AcDbEntity
  8
0
  6
Continuous
 62
     0
370
    -2
390
1D
100
AcDbCircle
 10
854.940141130964
 20
-193.6544337030231
 30
0.0
 40
1.9998779296875
  0
HATCH
  5
FC
330
2E
100
AcDbEntity
  8
0
  6
Continuous
 62
     0
370
    -2
390
1D
100
AcDbHatch
 10
0.0
 20
0.0
 30
0.0
210
0.0
220
0.0
230
1.0
  2
SOLID
 70
     1
 71
     1
 91
        1
 92
        1
 93
        1
 72
     2
 10
854.940141130964
 20
-193.6544337030231
 40
1.9998779296875
 50
0.0
 51
360.0
 73
     0
 97
        1
330
FB
 75
     0
 76
     1
 98
        1
 10
0.0
 20
0.0
  0
CIRCLE
  5
FD
102
{ACAD_REACTORS
330
FE
102
}
330
2E
100
AcDbEntity
  8
0
  6
Continuous
 62
     0
370
    -2
390
1D
100
AcDbCircle
 10
794.940141130964
 20
-193.6544337030231
 30
0.0
 40
1.9998779296875
  0
HATCH
  5
FE
330
2E
100
AcDbEntity
  8
0
  6
Continuous
 62
     0
370
    -2
390
1D
100
AcDbHatch
 10
0.0
 20
0.0
 30
0.0
210
0.0
220
0.0
230
1.0
  2
SOLID
 70
     1
 71
     1
 91
        1
 92
        1
 93
        1
 72
     2
 10
794.940141130964
 20
-193.6544337030231
 40
1.9998779296875
 50
0.0
 51
360.0
 73
     0
 97
        1
330
FD
 75
     0
 76
     1
 98
        1
 10
0.0
 20
0.0
  0
MTEXT
  5
FF
330
2E
100
AcDbEntity
  8
0
 62
     0
390
1D
100
AcDbMText
 10
809.065141130964
 20
-159.7768165155231
 30
0.0
 40
24.4326171875
 41
0.0
 46
0.0
 71
     1
 72
     1
  1
60
  7
ＭＳ ゴシック
 73
     1
 44
0.7828267384257843
  0
POINT
  5
100
330
2E
100
AcDbEntity
  8
Defpoints
 62
     0
370
     0
390
1D
100
AcDbPoint
 10
794.940141130964
 20
-293.6548398062105
 30
0.0
  0
POINT
  5
101
330
2E
100
AcDbEntity
  8
Defpoints
 62
     0
370
     0
390
1D
100
AcDbPoint
 10
854.940141130964
 20
-293.6548398062105
 30
0.0
  0
POINT
  5
102
330
2E
100
AcDbEntity
  8
Defpoints
 62
     0
370
     0
390
1D
100
AcDbPoint
 10
854.940141130964
 20
-193.6544337030231
 30
0.0
  0
ENDBLK
  5
103
330
2E
100
AcDbEntity
  8
notes
390
1D
100
AcDbBlockEnd
  0
BLOCK
  5
104
330
2F
100
AcDbEntity
  8
notes
390
1D
100
AcDbBlockBegin
  2
*D14
 70
     1
 10
0.0
 20
0.0
 30
0.0
  3
*D14
  1
*D14
  0
LINE
  5
105
330
2F
100
AcDbEntity
  8
0
  6
Continuous
 62
     0
370
    -2
390
1D
100
AcDbLine
 10
309.0222113152533
 20
-293.6548398062105
 30
0.0
 11
225.4045010334725
 21
-293.6548398062105
 31
0.0
  0
LINE
  5
106
330
2F
100
AcDbEntity
  8
0
  6
Continuous
 62
     0
370
    -2
390
1D
100
AcDbLine
 10
608.2897220505157
 20
-463.6544337030231
 30
0.0
 11
225.4045010334725
 21
-463.6544337030231
 31
0.0
  0
LINE
  5
107
330
2F
100
AcDbEntity
  8
0
  6
Continuous
 62
     0
370
    -2
390
1D
100
AcDbLine
 10
225.4045010334725
 20
-293.6548398062105
 30
0.0
 11
225.4045010334725
 21
-463.6544337030231
 31
0.0
  0
CIRCLE
  5
108
102
{ACAD_REACTORS
330
109
102
}
330
2F
100
AcDbEntity
  8
0
  6
Continuous
 62
     0
370
    -2
390
1D
100
AcDbCircle
 10
225.4045010334725
 20
-293.6548398062105
 30
0.0
 40
1.9998779296875
  0
HATCH
  5
109
330
2F
100
AcDbEntity
  8
0
  6
Continuous
 62
     0
370
    -2
390
1D
100
AcDbHatch
 10
0.0
 20
0.0
 30
0.0
210
0.0
220
0.0
230
1.0
  2
SOLID
 70
     1
 71
     1
 91
        1
 92
        1
 93
        1
 72
     2
 10
225.4045010334725
 20
-293.6548398062105
 40
1.9998779296875
 50
0.0
 51
360.0
 73
     0
 97
        1
330
108
 75
     0
 76
     1
 98
        1
 10
0.0
 20
0.0
  0
CIRCLE
  5
10A
102
{ACAD_REACTORS
330
10B
102
}
330
2F
100
AcDbEntity
  8
0
  6
Continuous
 62
     0
370
    -2
390
1D
100
AcDbCircle
 10
225.4045010334725
 20
-463.6544337030231
 30
0.0
 40
1.9998779296875
  0
HATCH
  5
10B
330
2F
100
AcDbEntity
  8
0
  6
Continuous
 62
     0
370
    -2
390
1D
100
AcDbHatch
 10
0.0
 20
0.0
 30
0.0
210
0.0
220
0.0
230
1.0
  2
SOLID
 70
     1
 71
     1
 91
        1
 92
        1
 93
        1
 72
     2
 10
225.4045010334725
 20
-463.6544337030231
 40
1.9998779296875
 50
0.0
 51
360.0
 73
     0
 97
        1
330
10A
 75
     0
 76
     1
 98
        1
 10
0.0
 20
0.0
  0
MTEXT
  5
10C
330
2F
100
AcDbEntity
  8
0
 62
     0
390
1D
100
AcDbMText
 10
191.5268838459725
 20
-402.4671384367922
 30
0.0
 40
24.4326171875
 41
0.0
 46
0.0
 71
     1
 72
     1
  1
170
  7
ＭＳ ゴシック
 11
0.0
 21
1.0
 31
0.0
 73
     1
 44
0.7828267384257843
  0
POINT
  5
10D
330
2F
100
AcDbEntity
  8
Defpoints
 62
     0
370
     0
390
1D
100
AcDbPoint
 10
633.2897220505157
 20
-463.6544337030231
 30
0.0
  0
POINT
  5
10E
330
2F
100
AcDbEntity
  8
Defpoints
 62
     0
370
     0
390
1D
100
AcDbPoint
 10
334.0222113152533
 20
-293.6548398062105
 30
0.0
  0
POINT
  5
10F
330
2F
100
AcDbEntity
  8
Defpoints
 62
     0
370
     0
390
1D
100
AcDbPoint
 10
225.4045010334725
 20
-293.6548398062105
 30
0.0
  0
ENDBLK
  5
110
330
2F
100
AcDbEntity
  8
notes
390
1D
100
AcDbBlockEnd
  0
BLOCK
  5
111
330
30
100
AcDbEntity
  8
notes
390
1D
100
AcDbBlockBegin
  2
*D15
 70
     1
 10
0.0
 20
0.0
 30
0.0
  3
*D15
  1
*D15
  0
LINE
  5
112
330
30
100
AcDbEntity
  8
0
  6
Continuous
 62
     0
370
    -2
390
1D
100
AcDbLine
 10
-613.7981618409522
 20
-348.6544337030231
 30
0.0
 11
-839.7779425672877
 21
-348.6544337030231
 31
0.0
  0
LINE
  5
113
330
30
100
AcDbEntity
  8
0
  6
Continuous
 62
     0
370
    -2
390
1D
100
AcDbLine
 10
-758.2623778662589
 20
-293.6544337030376
 30
0.0
 11
-839.7779425672877
 21
-293.6544337030376
 31
0.0
  0
LINE
  5
114
330
30
100
AcDbEntity
  8
0
  6
Continuous
 62
     0
370
    -2
390
1D
100
AcDbLine
 10
-839.7779425672877
 20
-348.6544337030231
 30
0.0
 11
-839.7779425672877
 21
-293.6544337030376
 31
0.0
  0
CIRCLE
  5
115
102
{ACAD_REACTORS
330
116
102
}
330
30
100
AcDbEntity
  8
0
  6
Continuous
 62
     0
370
    -2
390
1D
100
AcDbCircle
 10
-839.7779425672877
 20
-348.6544337030231
 30
0.0
 40
1.9998779296875
  0
HATCH
  5
116
330
30
100
AcDbEntity
  8
0
  6
Continuous
 62
     0
370
    -2
390
1D
100
AcDbHatch
 10
0.0
 20
0.0
 30
0.0
210
0.0
220
0.0
230
1.0
  2
SOLID
 70
     1
 71
     1
 91
        1
 92
        1
 93
        1
 72
     2
 10
-839.7779425672877
 20
-348.6544337030231
 40
1.9998779296875
 50
0.0
 51
360.0
 73
     0
 97
        1
330
115
 75
     0
 76
     1
 98
        1
 10
0.0
 20
0.0
  0
CIRCLE
  5
117
102
{ACAD_REACTORS
330
118
102
}
330
30
100
AcDbEntity
  8
0
  6
Continuous
 62
     0
370
    -2
390
1D
100
AcDbCircle
 10
-839.7779425672877
 20
-293.6544337030376
 30
0.0
 40
1.9998779296875
  0
HATCH
  5
118
330
30
100
AcDbEntity
  8
0
  6
Continuous
 62
     0
370
    -2
390
1D
100
AcDbHatch
 10
0.0
 20
0.0
 30
0.0
210
0.0
220
0.0
230
1.0
  2
SOLID
 70
     1
 71
     1
 91
        1
 92
        1
 93
        1
 72
     2
 10
-839.7779425672877
 20
-293.6544337030376
 40
1.9998779296875
 50
0.0
 51
360.0
 73
     0
 97
        1
330
117
 75
     0
 76
     1
 98
        1
 10
0.0
 20
0.0
  0
MTEXT
  5
119
330
30
100
AcDbEntity
  8
0
 62
     0
390
1D
100
AcDbMText
 10
-873.6555597547876
 20
-337.0294337030303
 30
0.0
 40
24.4326171875
 41
0.0
 46
0.0
 71
     1
 72
     1
  1
55
  7
ＭＳ ゴシック
 11
0.0
 21
1.0
 31
0.0
 73
     1
 44
0.7828267384257843
  0
POINT
  5
11A
330
30
100
AcDbEntity
  8
Defpoints
 62
     0
370
     0
390
1D
100
AcDbPoint
 10
-733.2623778662589
 20
-293.6544337030376
 30
0.0
  0
POINT
  5
11B
330
30
100
AcDbEntity
  8
Defpoints
 62
     0
370
     0
390
1D
100
AcDbPoint
 10
-588.7981618409522
 20
-348.6544337030231
 30
0.0
  0
POINT
  5
11C
330
30
100
AcDbEntity
  8
Defpoints
 62
     0
370
     0
390
1D
100
AcDbPoint
 10
-839.7779425672877
 20
-348.6544337030231
 30
0.0
  0
ENDBLK
  5
11D
330
30
100
AcDbEntity
  8
notes
390
1D
100
AcDbBlockEnd
  0
BLOCK
  5
11E
330
31
100
AcDbEntity
  8
notes
390
1D
100
AcDbBlockBegin
  2
*D16
 70
     1
 10
0.0
 20
0.0
 30
0.0
  3
*D16
  1
*D16
  0
LINE
  5
11F
330
31
100
AcDbEntity
  8
0
  6
Continuous
 62
     0
370
    -2
390
1D
100
AcDbLine
 10
694.6018381590478
 20
652.0
 30
0.0
 11
740.0
 21
652.0
 31
0.0
  0
LINE
  5
120
330
31
100
AcDbEntity
  8
0
  6
Continuous
 62
     0
370
    -2
390
1D
100
AcDbLine
 10
694.6018381590478
 20
922.0
 30
0.0
 11
740.0
 21
922.0
 31
0.0
  0
LINE
  5
121
330
31
100
AcDbEntity
  8
0
  6
Continuous
 62
     0
370
    -2
390
1D
100
AcDbLine
 10
740.0
 20
652.0
 30
0.0
 11
740.0
 21
922.0
 31
0.0
  0
CIRCLE
  5
122
102
{ACAD_REACTORS
330
123
102
}
330
31
100
AcDbEntity
  8
0
  6
Continuous
 62
     0
370
    -2
390
1D
100
AcDbCircle
 10
740.0
 20
652.0
 30
0.0
 40
1.9998779296875
  0
HATCH
  5
123
330
31
100
AcDbEntity
  8
0
  6
Continuous
 62
     0
370
    -2
390
1D
100
AcDbHatch
 10
0.0
 20
0.0
 30
0.0
210
0.0
220
0.0
230
1.0
  2
SOLID
 70
     1
 71
     1
 91
        1
 92
        1
 93
        1
 72
     2
 10
740.0
 20
652.0
 40
1.9998779296875
 50
0.0
 51
360.0
 73
     0
 97
        1
330
122
 75
     0
 76
     1
 98
        1
 10
0.0
 20
0.0
  0
CIRCLE
  5
124
102
{ACAD_REACTORS
330
125
102
}
330
31
100
AcDbEntity
  8
0
  6
Continuous
 62
     0
370
    -2
390
1D
100
AcDbCircle
 10
740.0
 20
922.0
 30
0.0
 40
1.9998779296875
  0
HATCH
  5
125
330
31
100
AcDbEntity
  8
0
  6
Continuous
 62
     0
370
    -2
390
1D
100
AcDbHatch
 10
0.0
 20
0.0
 30
0.0
210
0.0
220
0.0
230
1.0
  2
SOLID
 70
     1
 71
     1
 91
        1
 92
        1
 93
        1
 72
     2
 10
740.0
 20
922.0
 40
1.9998779296875
 50
0.0
 51
360.0
 73
     0
 97
        1
330
124
 75
     0
 76
     1
 98
        1
 10
0.0
 20
0.0
  0
MTEXT
  5
126
330
31
100
AcDbEntity
  8
0
 62
     0
390
1D
100
AcDbMText
 10
706.1223828125
 20
763.1874983178245
 30
0.0
 40
24.4326171875
 41
0.0
 46
0.0
 71
     1
 72
     1
  1
270
  7
ＭＳ ゴシック
 11
0.0
 21
1.0
 31
0.0
 73
     1
 44
0.7828267384257843
  0
POINT
  5
127
330
31
100
AcDbEntity
  8
Defpoints
 62
     0
370
     0
390
1D
100
AcDbPoint
 10
669.6018381590478
 20
922.0
 30
0.0
  0
POINT
  5
128
330
31
100
AcDbEntity
  8
Defpoints
 62
     0
370
     0
390
1D
100
AcDbPoint
 10
669.6018381590478
 20
652.0
 30
0.0
  0
POINT
  5
129
330
31
100
AcDbEntity
  8
Defpoints
 62
     0
370
     0
390
1D
100
AcDbPoint
 10
740.0
 20
652.0
 30
0.0
  0
ENDBLK
  5
12A
330
31
100
AcDbEntity
  8
notes
390
1D
100
AcDbBlockEnd
  0
BLOCK
  5
12B
330
32
100
AcDbEntity
  8
notes
390
1D
100
AcDbBlockBegin
  2
*D17
 70
     1
 10
0.0
 20
0.0
 30
0.0
  3
*D17
  1
*D17
  0
LINE
  5
12C
330
32
100
AcDbEntity
  8
0
  6
Continuous
 62
     0
370
    -2
390
1D
100
AcDbLine
 10
359.6018381590478
 20
627.0
 30
0.0
 11
359.6018381590478
 21
552.0
 31
0.0
  0
LINE
  5
12D
330
32
100
AcDbEntity
  8
0
  6
Continuous
 62
     0
370
    -2
390
1D
100
AcDbLine
 10
669.6018381590478
 20
627.0
 30
0.0
 11
669.6018381590478
 21
552.0
 31
0.0
  0
LINE
  5
12E
330
32
100
AcDbEntity
  8
0
  6
Continuous
 62
     0
370
    -2
390
1D
100
AcDbLine
 10
359.6018381590478
 20
552.0
 30
0.0
 11
669.6018381590478
 21
552.0
 31
0.0
  0
CIRCLE
  5
12F
102
{ACAD_REACTORS
330
130
102
}
330
32
100
AcDbEntity
  8
0
  6
Continuous
 62
     0
370
    -2
390
1D
100
AcDbCircle
 10
359.6018381590478
 20
552.0
 30
0.0
 40
1.9998779296875
  0
HATCH
  5
130
330
32
100
AcDbEntity
  8
0
  6
Continuous
 62
     0
370
    -2
390
1D
100
AcDbHatch
 10
0.0
 20
0.0
 30
0.0
210
0.0
220
0.0
230
1.0
  2
SOLID
 70
     1
 71
     1
 91
        1
 92
        1
 93
        1
 72
     2
 10
359.6018381590478
 20
552.0
 40
1.9998779296875
 50
0.0
 51
360.0
 73
     0
 97
        1
330
12F
 75
     0
 76
     1
 98
        1
 10
0.0
 20
0.0
  0
CIRCLE
  5
131
102
{ACAD_REACTORS
330
132
102
}
330
32
100
AcDbEntity
  8
0
  6
Continuous
 62
     0
370
    -2
390
1D
100
AcDbCircle
 10
669.6018381590478
 20
552.0
 30
0.0
 40
1.9998779296875
  0
HATCH
  5
132
330
32
100
AcDbEntity
  8
0
  6
Continuous
 62
     0
370
    -2
390
1D
100
AcDbHatch
 10
0.0
 20
0.0
 30
0.0
210
0.0
220
0.0
230
1.0
  2
SOLID
 70
     1
 71
     1
 91
        1
 92
        1
 93
        1
 72
     2
 10
669.6018381590478
 20
552.0
 40
1.9998779296875
 50
0.0
 51
360.0
 73
     0
 97
        1
330
131
 75
     0
 76
     1
 98
        1
 10
0.0
 20
0.0
  0
MTEXT
  5
133
330
32
100
AcDbEntity
  8
0
 62
     0
390
1D
100
AcDbMText
 10
490.7893364768722
 20
585.8776171874999
 30
0.0
 40
24.4326171875
 41
0.0
 46
0.0
 71
     1
 72
     1
  1
310
  7
ＭＳ ゴシック
 73
     1
 44
0.7828267384257843
  0
POINT
  5
134
330
32
100
AcDbEntity
  8
Defpoints
 62
     0
370
     0
390
1D
100
AcDbPoint
 10
669.6018381590478
 20
652.0
 30
0.0
  0
POINT
  5
135
330
32
100
AcDbEntity
  8
Defpoints
 62
     0
370
     0
390
1D
100
AcDbPoint
 10
359.6018381590478
 20
652.0
 30
0.0
  0
POINT
  5
136
330
32
100
AcDbEntity
  8
Defpoints
 62
     0
370
     0
390
1D
100
AcDbPoint
 10
359.6018381590478
 20
552.0
 30
0.0
  0
ENDBLK
  5
137
330
32
100
AcDbEntity
  8
notes
390
1D
100
AcDbBlockEnd
  0
BLOCK
  5
138
330
33
100
AcDbEntity
  8
notes
390
1D
100
AcDbBlockBegin
  2
*D18
 70
     1
 10
0.0
 20
0.0
 30
0.0
  3
*D18
  1
*D18
  0
LINE
  5
139
330
33
100
AcDbEntity
  8
0
  6
Continuous
 62
     0
370
    -2
390
1D
100
AcDbLine
 10
854.940141130964
 20
-498.4347784503283
 30
0.0
 11
854.940141130964
 21
-562.1997499648709
 31
0.0
  0
LINE
  5
13A
330
33
100
AcDbEntity
  8
0
  6
Continuous
 62
     0
370
    -2
390
1D
100
AcDbLine
 10
654.940141130964
 20
-498.4347784503283
 30
0.0
 11
654.940141130964
 21
-562.1997499648709
 31
0.0
  0
LINE
  5
13B
330
33
100
AcDbEntity
  8
0
  6
Continuous
 62
     0
370
    -2
390
1D
100
AcDbLine
 10
854.940141130964
 20
-562.1997499648709
 30
0.0
 11
654.940141130964
 21
-562.1997499648709
 31
0.0
  0
CIRCLE
  5
13C
102
{ACAD_REACTORS
330
13D
102
}
330
33
100
AcDbEntity
  8
0
  6
Continuous
 62
     0
370
    -2
390
1D
100
AcDbCircle
 10
854.940141130964
 20
-562.1997499648709
 30
0.0
 40
1.9998779296875
  0
HATCH
  5
13D
330
33
100
AcDbEntity
  8
0
  6
Continuous
 62
     0
370
    -2
390
1D
100
AcDbHatch
 10
0.0
 20
0.0
 30
0.0
210
0.0
220
0.0
230
1.0
  2
SOLID
 70
     1
 71
     1
 91
        1
 92
        1
 93
        1
 72
     2
 10
854.940141130964
 20
-562.1997499648709
 40
1.9998779296875
 50
0.0
 51
360.0
 73
     0
 97
        1
330
13C
 75
     0
 76
     1
 98
        1
 10
0.0
 20
0.0
  0
CIRCLE
  5
13E
102
{ACAD_REACTORS
330
13F
102
}
330
33
100
AcDbEntity
  8
0
  6
Continuous
 62
     0
370
    -2
390
1D
100
AcDbCircle
 10
654.940141130964
 20
-562.1997499648709
 30
0.0
 40
1.9998779296875
  0
HATCH
  5
13F
330
33
100
AcDbEntity
  8
0
  6
Continuous
 62
     0
370
    -2
390
1D
100
AcDbHatch
 10
0.0
 20
0.0
 30
0.0
210
0.0
220
0.0
230
1.0
  2
SOLID
 70
     1
 71
     1
 91
        1
 92
        1
 93
        1
 72
     2
 10
654.940141130964
 20
-562.1997499648709
 40
1.9998779296875
 50
0.0
 51
360.0
 73
     0
 97
        1
330
13E
 75
     0
 76
     1
 98
        1
 10
0.0
 20
0.0
  0
MTEXT
  5
140
330
33
100
AcDbEntity
  8
0
 62
     0
390
1D
100
AcDbMText
 10
731.1276394487885
 20
-528.3221327773708
 30
0.0
 40
24.4326171875
 41
0.0
 46
0.0
 71
     1
 72
     1
  1
200
  7
ＭＳ ゴシック
 73
     1
 44
0.7828267384257843
  0
POINT
  5
141
330
33
100
AcDbEntity
  8
Defpoints
 62
     0
370
     0
390
1D
100
AcDbPoint
 10
654.940141130964
 20
-473.4347784503283
 30
0.0
  0
POINT
  5
142
330
33
100
AcDbEntity
  8
Defpoints
 62
     0
370
     0
390
1D
100
AcDbPoint
 10
854.940141130964
 20
-473.4347784503283
 30
0.0
  0
POINT
  5
143
330
33
100
AcDbEntity
  8
Defpoints
 62
     0
370
     0
390
1D
100
AcDbPoint
 10
854.940141130964
 20
-562.1997499648709
 30
0.0
  0
ENDBLK
  5
144
330
33
100
AcDbEntity
  8
notes
390
1D
100
AcDbBlockEnd
  0
BLOCK
  5
145
330
34
100
AcDbEntity
  8
notes
390
1D
100
AcDbBlockBegin
  2
*D19
 70
     1
 10
0.0
 20
0.0
 30
0.0
  3
*D19
  1
*D19
  0
LINE
  5
146
330
34
100
AcDbEntity
  8
0
  6
Continuous
 62
     0
370
    -2
390
1D
100
AcDbLine
 10
854.940141130964
 20
-498.6544337030231
 30
0.0
 11
854.940141130964
 21
-612.1997499648709
 31
0.0
  0
LINE
  5
147
330
34
100
AcDbEntity
  8
0
  6
Continuous
 62
     0
370
    -2
390
1D
100
AcDbLine
 10
454.9401411309648
 20
-498.6544337030231
 30
0.0
 11
454.9401411309648
 21
-612.1997499648709
 31
0.0
  0
LINE
  5
148
330
34
100
AcDbEntity
  8
0
  6
Continuous
 62
     0
370
    -2
390
1D
100
AcDbLine
 10
854.940141130964
 20
-612.1997499648709
 30
0.0
 11
454.9401411309648
 21
-612.1997499648709
 31
0.0
  0
CIRCLE
  5
149
102
{ACAD_REACTORS
330
14A
102
}
330
34
100
AcDbEntity
  8
0
  6
Continuous
 62
     0
370
    -2
390
1D
100
AcDbCircle
 10
854.940141130964
 20
-612.1997499648709
 30
0.0
 40
1.9998779296875
  0
HATCH
  5
14A
330
34
100
AcDbEntity
  8
0
  6
Continuous
 62
     0
370
    -2
390
1D
100
AcDbHatch
 10
0.0
 20
0.0
 30
0.0
210
0.0
220
0.0
230
1.0
  2
SOLID
 70
     1
 71
     1
 91
        1
 92
        1
 93
        1
 72
     2
 10
854.940141130964
 20
-612.1997499648709
 40
1.9998779296875
 50
0.0
 51
360.0
 73
     0
 97
        1
330
149
 75
     0
 76
     1
 98
        1
 10
0.0
 20
0.0
  0
CIRCLE
  5
14B
102
{ACAD_REACTORS
330
14C
102
}
330
34
100
AcDbEntity
  8
0
  6
Continuous
 62
     0
370
    -2
390
1D
100
AcDbCircle
 10
454.9401411309648
 20
-612.1997499648709
 30
0.0
 40
1.9998779296875
  0
HATCH
  5
14C
330
34
100
AcDbEntity
  8
0
  6
Continuous
 62
     0
370
    -2
390
1D
100
AcDbHatch
 10
0.0
 20
0.0
 30
0.0
210
0.0
220
0.0
230
1.0
  2
SOLID
 70
     1
 71
     1
 91
        1
 92
        1
 93
        1
 72
     2
 10
454.9401411309648
 20
-612.1997499648709
 40
1.9998779296875
 50
0.0
 51
360.0
 73
     0
 97
        1
330
14B
 75
     0
 76
     1
 98
        1
 10
0.0
 20
0.0
  0
MTEXT
  5
14D
330
34
100
AcDbEntity
  8
0
 62
     0
390
1D
100
AcDbMText
 10
631.1276394487888
 20
-578.3221327773708
 30
0.0
 40
24.4326171875
 41
0.0
 46
0.0
 71
     1
 72
     1
  1
400
  7
ＭＳ ゴシック
 73
     1
 44
0.7828267384257843
  0
POINT
  5
14E
330
34
100
AcDbEntity
  8
Defpoints
 62
     0
370
     0
390
1D
100
AcDbPoint
 10
454.9401411309648
 20
-473.6544337030231
 30
0.0
  0
POINT
  5
14F
330
34
100
AcDbEntity
  8
Defpoints
 62
     0
370
     0
390
1D
100
AcDbPoint
 10
854.940141130964
 20
-473.6544337030231
 30
0.0
  0
POINT
  5
150
330
34
100
AcDbEntity
  8
Defpoints
 62
     0
370
     0
390
1D
100
AcDbPoint
 10
854.940141130964
 20
-612.1997499648709
 30
0.0
  0
ENDBLK
  5
151
330
34
100
AcDbEntity
  8
notes
390
1D
100
AcDbBlockEnd
  0
BLOCK
  5
152
330
35
100
AcDbEntity
  8
notes
390
1D
100
AcDbBlockBegin
  2
*D20
 70
     1
 10
0.0
 20
0.0
 30
0.0
  3
*D20
  1
*D20
  0
LINE
  5
153
330
35
100
AcDbEntity
  8
0
  6
Continuous
 62
     0
370
    -2
390
1D
100
AcDbLine
 10
-568.848592558134
 20
-498.6544337030231
 30
0.0
 11
-568.848592558134
 21
-562.1997499648709
 31
0.0
  0
LINE
  5
154
330
35
100
AcDbEntity
  8
0
  6
Continuous
 62
     0
370
    -2
390
1D
100
AcDbLine
 10
-228.848592558134
 20
-498.6544337030231
 30
0.0
 11
-228.848592558134
 21
-562.1997499648709
 31
0.0
  0
LINE
  5
155
330
35
100
AcDbEntity
  8
0
  6
Continuous
 62
     0
370
    -2
390
1D
100
AcDbLine
 10
-568.848592558134
 20
-562.1997499648709
 30
0.0
 11
-228.848592558134
 21
-562.1997499648709
 31
0.0
  0
CIRCLE
  5
156
102
{ACAD_REACTORS
330
157
102
}
330
35
100
AcDbEntity
  8
0
  6
Continuous
 62
     0
370
    -2
390
1D
100
AcDbCircle
 10
-568.848592558134
 20
-562.1997499648709
 30
0.0
 40
1.9998779296875
  0
HATCH
  5
157
330
35
100
AcDbEntity
  8
0
  6
Continuous
 62
     0
370
    -2
390
1D
100
AcDbHatch
 10
0.0
 20
0.0
 30
0.0
210
0.0
220
0.0
230
1.0
  2
SOLID
 70
     1
 71
     1
 91
        1
 92
        1
 93
        1
 72
     2
 10
-568.848592558134
 20
-562.1997499648709
 40
1.9998779296875
 50
0.0
 51
360.0
 73
     0
 97
        1
330
156
 75
     0
 76
     1
 98
        1
 10
0.0
 20
0.0
  0
CIRCLE
  5
158
102
{ACAD_REACTORS
330
159
102
}
330
35
100
AcDbEntity
  8
0
  6
Continuous
 62
     0
370
    -2
390
1D
100
AcDbCircle
 10
-228.848592558134
 20
-562.1997499648709
 30
0.0
 40
1.9998779296875
  0
HATCH
  5
159
330
35
100
AcDbEntity
  8
0
  6
Continuous
 62
     0
370
    -2
390
1D
100
AcDbHatch
 10
0.0
 20
0.0
 30
0.0
210
0.0
220
0.0
230
1.0
  2
SOLID
 70
     1
 71
     1
 91
        1
 92
        1
 93
        1
 72
     2
 10
-228.848592558134
 20
-562.1997499648709
 40
1.9998779296875
 50
0.0
 51
360.0
 73
     0
 97
        1
330
158
 75
     0
 76
     1
 98
        1
 10
0.0
 20
0.0
  0
MTEXT
  5
15A
330
35
100
AcDbEntity
  8
0
 62
     0
390
1D
100
AcDbMText
 10
-422.6610942403095
 20
-528.3221327773708
 30
0.0
 40
24.4326171875
 41
0.0
 46
0.0
 71
     1
 72
     1
  1
340
  7
ＭＳ ゴシック
 73
     1
 44
0.7828267384257843
  0
POINT
  5
15B
330
35
100
AcDbEntity
  8
Defpoints
 62
     0
370
     0
390
1D
100
AcDbPoint
 10
-228.848592558134
 20
-473.6544337030231
 30
0.0
  0
POINT
  5
15C
330
35
100
AcDbEntity
  8
Defpoints
 62
     0
370
     0
390
1D
100
AcDbPoint
 10
-568.848592558134
 20
-473.6544337030231
 30
0.0
  0
POINT
  5
15D
330
35
100
AcDbEntity
  8
Defpoints
 62
     0
370
     0
390
1D
100
AcDbPoint
 10
-568.848592558134
 20
-562.1997499648709
 30
0.0
  0
ENDBLK
  5
15E
330
35
100
AcDbEntity
  8
notes
390
1D
100
AcDbBlockEnd
  0
BLOCK
  5
15F
330
36
100
AcDbEntity
  8
notes
390
1D
100
AcDbBlockBegin
  2
*D21
 70
     1
 10
0.0
 20
0.0
 30
0.0
  3
*D21
  1
*D21
  0
LINE
  5
160
330
36
100
AcDbEntity
  8
0
  6
Continuous
 62
     0
370
    -2
390
1D
100
AcDbLine
 10
-38.99271895004418
 20
-293.654433703014
 30
0.0
 11
41.18610676667655
 21
-293.654433703014
 31
0.0
  0
LINE
  5
161
330
36
100
AcDbEntity
  8
0
  6
Continuous
 62
     0
370
    -2
390
1D
100
AcDbLine
 10
-203.748592558134
 20
-473.6544337030231
 30
0.0
 11
41.18610676667655
 21
-473.6544337030231
 31
0.0
  0
LINE
  5
162
330
36
100
AcDbEntity
  8
0
  6
Continuous
 62
     0
370
    -2
390
1D
100
AcDbLine
 10
41.18610676667655
 20
-293.654433703014
 30
0.0
 11
41.18610676667655
 21
-473.6544337030231
 31
0.0
  0
CIRCLE
  5
163
102
{ACAD_REACTORS
330
164
102
}
330
36
100
AcDbEntity
  8
0
  6
Continuous
 62
     0
370
    -2
390
1D
100
AcDbCircle
 10
41.18610676667655
 20
-293.654433703014
 30
0.0
 40
1.9998779296875
  0
HATCH
  5
164
330
36
100
AcDbEntity
  8
0
  6
Continuous
 62
     0
370
    -2
390
1D
100
AcDbHatch
 10
0.0
 20
0.0
 30
0.0
210
0.0
220
0.0
230
1.0
  2
SOLID
 70
     1
 71
     1
 91
        1
 92
        1
 93
        1
 72
     2
 10
41.18610676667655
 20
-293.654433703014
 40
1.9998779296875
 50
0.0
 51
360.0
 73
     0
 97
        1
330
163
 75
     0
 76
     1
 98
        1
 10
0.0
 20
0.0
  0
CIRCLE
  5
165
102
{ACAD_REACTORS
330
166
102
}
330
36
100
AcDbEntity
  8
0
  6
Continuous
 62
     0
370
    -2
390
1D
100
AcDbCircle
 10
41.18610676667655
 20
-473.6544337030231
 30
0.0
 40
1.9998779296875
  0
HATCH
  5
166
330
36
100
AcDbEntity
  8
0
  6
Continuous
 62
     0
370
    -2
390
1D
100
AcDbHatch
 10
0.0
 20
0.0
 30
0.0
210
0.0
220
0.0
230
1.0
  2
SOLID
 70
     1
 71
     1
 91
        1
 92
        1
 93
        1
 72
     2
 10
41.18610676667655
 20
-473.6544337030231
 40
1.9998779296875
 50
0.0
 51
360.0
 73
     0
 97
        1
330
165
 75
     0
 76
     1
 98
        1
 10
0.0
 20
0.0
  0
MTEXT
  5
167
330
36
100
AcDbEntity
  8
0
 62
     0
390
1D
100
AcDbMText
 10
7.308489579176552
 20
-407.466935385194
 30
0.0
 40
24.4326171875
 41
0.0
 46
0.0
 71
     1
 72
     1
  1
180
  7
ＭＳ ゴシック
 11
0.0
 21
1.0
 31
0.0
 73
     1
 44
0.7828267384257843
  0
POINT
  5
168
330
36
100
AcDbEntity
  8
Defpoints
 62
     0
370
     0
390
1D
100
AcDbPoint
 10
-228.748592558134
 20
-473.6544337030231
 30
0.0
  0
POINT
  5
169
330
36
100
AcDbEntity
  8
Defpoints
 62
     0
370
     0
390
1D
100
AcDbPoint
 10
-63.99271895004418
 20
-293.654433703014
 30
0.0
  0
POINT
  5
16A
330
36
100
AcDbEntity
  8
Defpoints
 62
     0
370
     0
390
1D
100
AcDbPoint
 10
41.18610676667655
 20
-293.654433703014
 30
0.0
  0
ENDBLK
  5
16B
330
36
100
AcDbEntity
  8
notes
390
1D
100
AcDbBlockEnd
  0
BLOCK
  5
16C
330
37
100
AcDbEntity
  8
notes
390
1D
100
AcDbBlockBegin
  2
*D22
 70
     1
 10
0.0
 20
0.0
 30
0.0
  3
*D22
  1
*D22
  0
LINE
  5
16D
330
37
100
AcDbEntity
  8
0
  6
Continuous
 62
     0
370
    -2
390
1D
100
AcDbLine
 10
-535.6073039026752
 20
-313.6544337030231
 30
0.0
 11
-535.6073039026752
 21
-193.6544337030231
 31
0.0
  0
LINE
  5
16E
330
37
100
AcDbEntity
  8
0
  6
Continuous
 62
     0
370
    -2
390
1D
100
AcDbLine
 10
-265.6073039026752
 20
-313.6544337030231
 30
0.0
 11
-265.6073039026752
 21
-193.6544337030231
 31
0.0
  0
LINE
  5
16F
330
37
100
AcDbEntity
  8
0
  6
Continuous
 62
     0
370
    -2
390
1D
100
AcDbLine
 10
-535.6073039026752
 20
-193.6544337030231
 30
0.0
 11
-265.6073039026752
 21
-193.6544337030231
 31
0.0
  0
CIRCLE
  5
170
102
{ACAD_REACTORS
330
171
102
}
330
37
100
AcDbEntity
  8
0
  6
Continuous
 62
     0
370
    -2
390
1D
100
AcDbCircle
 10
-535.6073039026752
 20
-193.6544337030231
 30
0.0
 40
1.9998779296875
  0
HATCH
  5
171
330
37
100
AcDbEntity
  8
0
  6
Continuous
 62
     0
370
    -2
390
1D
100
AcDbHatch
 10
0.0
 20
0.0
 30
0.0
210
0.0
220
0.0
230
1.0
  2
SOLID
 70
     1
 71
     1
 91
        1
 92
        1
 93
        1
 72
     2
 10
-535.6073039026752
 20
-193.6544337030231
 40
1.9998779296875
 50
0.0
 51
360.0
 73
     0
 97
        1
330
170
 75
     0
 76
     1
 98
        1
 10
0.0
 20
0.0
  0
CIRCLE
  5
172
102
{ACAD_REACTORS
330
173
102
}
330
37
100
AcDbEntity
  8
0
  6
Continuous
 62
     0
370
    -2
390
1D
100
AcDbCircle
 10
-265.6073039026752
 20
-193.6544337030231
 30
0.0
 40
1.9998779296875
  0
HATCH
  5
173
330
37
100
AcDbEntity
  8
0
  6
Continuous
 62
     0
370
    -2
390
1D
100
AcDbHatch
 10
0.0
 20
0.0
 30
0.0
210
0.0
220
0.0
230
1.0
  2
SOLID
 70
     1
 71
     1
 91
        1
 92
        1
 93
        1
 72
     2
 10
-265.6073039026752
 20
-193.6544337030231
 40
1.9998779296875
 50
0.0
 51
360.0
 73
     0
 97
        1
330
172
 75
     0
 76
     1
 98
        1
 10
0.0
 20
0.0
  0
MTEXT
  5
174
330
37
100
AcDbEntity
  8
0
 62
     0
390
1D
100
AcDbMText
 10
-424.4198055848507
 20
-159.7768165155231
 30
0.0
 40
24.4326171875
 41
0.0
 46
0.0
 71
     1
 72
     1
  1
270
  7
ＭＳ ゴシック
 73
     1
 44
0.7828267384257843
  0
POINT
  5
175
330
37
100
AcDbEntity
  8
Defpoints
 62
     0
370
     0
390
1D
100
AcDbPoint
 10
-265.6073039026752
 20
-338.6544337030231
 30
0.0
  0
POINT
  5
176
330
37
100
AcDbEntity
  8
Defpoints
 62
     0
370
     0
390
1D
100
AcDbPoint
 10
-535.6073039026752
 20
-338.6544337030231
 30
0.0
  0
POINT
  5
177
330
37
100
AcDbEntity
  8
Defpoints
 62
     0
370
     0
390
1D
100
AcDbPoint
 10
-535.6073039026752
 20
-193.6544337030231
 30
0.0
  0
ENDBLK
  5
178
330
37
100
AcDbEntity
  8
notes
390
1D
100
AcDbBlockEnd
  0
BLOCK
  5
179
330
38
100
AcDbEntity
  8
notes
390
1D
100
AcDbBlockBegin
  2
*D23
 70
     1
 10
0.0
 20
0.0
 30
0.0
  3
*D23
  1
*D23
  0
LINE
  5
17A
330
38
100
AcDbEntity
  8
0
  6
Continuous
 62
     0
370
    -2
390
1D
100
AcDbLine
 10
-258.7981618409516
 20
852.2677641805144
 30
0.0
 11
-202.7981618409522
 21
852.2677641805144
 31
0.0
  0
LINE
  5
17B
330
38
100
AcDbEntity
  8
0
  6
Continuous
 62
     0
370
    -2
390
1D
100
AcDbLine
 10
-258.7981618409516
 20
922.2677641805283
 30
0.0
 11
-202.7981618409522
 21
922.2677641805283
 31
0.0
  0
LINE
  5
17C
330
38
100
AcDbEntity
  8
0
  6
Continuous
 62
     0
370
    -2
390
1D
100
AcDbLine
 10
-202.7981618409522
 20
852.2677641805144
 30
0.0
 11
-202.7981618409522
 21
922.2677641805283
 31
0.0
  0
CIRCLE
  5
17D
102
{ACAD_REACTORS
330
17E
102
}
330
38
100
AcDbEntity
  8
0
  6
Continuous
 62
     0
370
    -2
390
1D
100
AcDbCircle
 10
-202.7981618409522
 20
852.2677641805144
 30
0.0
 40
1.9998779296875
  0
HATCH
  5
17E
330
38
100
AcDbEntity
  8
0
  6
Continuous
 62
     0
370
    -2
390
1D
100
AcDbHatch
 10
0.0
 20
0.0
 30
0.0
210
0.0
220
0.0
230
1.0
  2
SOLID
 70
     1
 71
     1
 91
        1
 92
        1
 93
        1
 72
     2
 10
-202.7981618409522
 20
852.2677641805144
 40
1.9998779296875
 50
0.0
 51
360.0
 73
     0
 97
        1
330
17D
 75
     0
 76
     1
 98
        1
 10
0.0
 20
0.0
  0
CIRCLE
  5
17F
102
{ACAD_REACTORS
330
180
102
}
330
38
100
AcDbEntity
  8
0
  6
Continuous
 62
     0
370
    -2
390
1D
100
AcDbCircle
 10
-202.7981618409522
 20
922.2677641805283
 30
0.0
 40
1.9998779296875
  0
HATCH
  5
180
330
38
100
AcDbEntity
  8
0
  6
Continuous
 62
     0
370
    -2
390
1D
100
AcDbHatch
 10
0.0
 20
0.0
 30
0.0
210
0.0
220
0.0
230
1.0
  2
SOLID
 70
     1
 71
     1
 91
        1
 92
        1
 93
        1
 72
     2
 10
-202.7981618409522
 20
922.2677641805283
 40
1.9998779296875
 50
0.0
 51
360.0
 73
     0
 97
        1
330
17F
 75
     0
 76
     1
 98
        1
 10
0.0
 20
0.0
  0
MTEXT
  5
181
330
38
100
AcDbEntity
  8
0
 62
     0
390
1D
100
AcDbMText
 10
-236.6757790284522
 20
871.3927641805213
 30
0.0
 40
24.4326171875
 41
0.0
 46
0.0
 71
     1
 72
     1
  1
70
  7
ＭＳ ゴシック
 11
0.0
 21
1.0
 31
0.0
 73
     1
 44
0.7828267384257843
  0
POINT
  5
182
330
38
100
AcDbEntity
  8
Defpoints
 62
     0
370
     0
390
1D
100
AcDbPoint
 10
-283.7981618409516
 20
922.2677641805283
 30
0.0
  0
POINT
  5
183
330
38
100
AcDbEntity
  8
Defpoints
 62
     0
370
     0
390
1D
100
AcDbPoint
 10
-283.7981618409516
 20
852.2677641805144
 30
0.0
  0
POINT
  5
184
330
38
100
AcDbEntity
  8
Defpoints
 62
     0
370
     0
390
1D
100
AcDbPoint
 10
-202.7981618409522
 20
852.2677641805144
 30
0.0
  0
ENDBLK
  5
185
330
38
100
AcDbEntity
  8
notes
390
1D
100
AcDbBlockEnd
  0
BLOCK
  5
186
330
39
100
AcDbEntity
  8
ARJ70-0103
390
1D
100
AcDbBlockBegin
  2
グループ-1
 70
     0
 10
0.0
 20
0.0
 30
0.0
  3
グループ-1
  1
グループ-1
  0
LINE
  5
187
330
39
100
AcDbEntity
  8
0
  6
Continuous
 62
     7
370
     5
390
1D
100
AcDbLine
 10
647.7261948773166
 20
812.3804028610565
 30
0.0
 11
610.7261948773127
 21
775.3804028610565
 31
0.0
  0
LINE
  5
188
330
39
100
AcDbEntity
  8
0
  6
Continuous
 62
     7
370
     5
390
1D
100
AcDbLine
 10
627.7261948773127
 20
812.3804028610565
 30
0.0
 11
590.7261948773127
 21
775.3804028610565
 31
0.0
  0
LINE
  5
189
330
39
100
AcDbEntity
  8
0
  6
Continuous
 62
     7
370
     5
390
1D
100
AcDbLine
 10
607.7261948773127
 20
812.3804028610565
 30
0.0
 11
570.7261948773127
 21
775.3804028610565
 31
0.0
  0
ENDBLK
  5
18A
330
39
100
AcDbEntity
  8
ARJ70-0103
390
1D
100
AcDbBlockEnd
  0
BLOCK
  5
18B
330
3A
100
AcDbEntity
  8
ARJ70-0103
390
1D
100
AcDbBlockBegin
  2
グループ-2
 70
     0
 10
0.0
 20
0.0
 30
0.0
  3
グループ-2
  1
グループ-2
  0
LINE
  5
18C
330
3A
100
AcDbEntity
  8
0
  6
STYLE_03
 62
     7
370
    15
390
1D
100
AcDbLine
 10
-555.3022432605039
 20
-581.8715815503078
 30
0.0
 11
-555.3022432605039
 21
-610.8095592030231
 31
0.0
  0
LINE
  5
18D
330
3A
100
AcDbEntity
  8
0
  6
STYLE_03
 62
     7
370
    15
390
1D
100
AcDbLine
 10
-598.6030814214005
 20
-581.8715815503078
 30
0.0
 11
-598.6030814214005
 21
-610.8095592030231
 31
0.0
  0
ENDBLK
  5
18E
330
3A
100
AcDbEntity
  8
ARJ70-0103
390
1D
100
AcDbBlockEnd
  0
BLOCK
  5
18F
330
3B
100
AcDbEntity
  8
ARJ70-0103
390
1D
100
AcDbBlockBegin
  2
グループ-3
 70
     0
 10
0.0
 20
0.0
 30
0.0
  3
グループ-3
  1
グループ-3
  0
LINE
  5
190
330
3B
100
AcDbEntity
  8
0
  6
STYLE_03
 62
     7
370
    15
390
1D
100
AcDbLine
 10
-541.8377138543556
 20
-570.6547623096191
 30
0.0
 11
-555.3022417880898
 21
-581.8715815503078
 31
0.0
  0
LINE
  5
191
330
3B
100
AcDbEntity
  8
0
  6
STYLE_03
 62
     7
370
    15
390
1D
100
AcDbLine
 10
-612.0676108275488
 20
-570.6547623096191
 30
0.0
 11
-598.6030799489863
 21
-581.8715815503078
 31
0.0
  0
ENDBLK
  5
192
330
3B
100
AcDbEntity
  8
ARJ70-0103
390
1D
100
AcDbBlockEnd
  0
BLOCK
  5
26B
330
26A
100
AcDbEntity
  8
0
100
AcDbBlockBegin
  2
*D27
 70
     1
 10
0.0
 20
0.0
 30
0.0
  3
*D27
  1
*D27
  0
LINE
  5
26D
330
26A
100
AcDbEntity
  8
template
  6
Continuous
 62
     0
370
    -2
100
AcDbLine
 10
-671.8152143454859
 20
747.4406041649212
 30
0.0
 11
-671.8152143454859
 21
770.1968714832719
 31
0.0
  0
LINE
  5
26E
330
26A
100
AcDbEntity
  8
template
  6
Continuous
 62
     0
370
    -2
100
AcDbLine
 10
-668.8178060912053
 20
747.439075937507
 30
0.0
 11
-668.8178060912053
 21
770.1968714832719
 31
0.0
  0
LINE
  5
26F
330
26A
100
AcDbEntity
  8
template
  6
Continuous
 62
     0
370
    -2
100
AcDbLine
 10
-703.5652143454859
 20
750.1968714832757
 30
0.0
 11
-735.3152143454859
 21
750.1968714832757
 31
0.0
  0
LINE
  5
270
330
26A
100
AcDbEntity
  8
template
  6
Continuous
 62
     0
370
    -2
100
AcDbLine
 10
-637.0678060912053
 20
750.1968714832757
 30
0.0
 11
-605.3178060912053
 21
750.1968714832757
 31
0.0
  0
INSERT
  5
271
330
26A
100
AcDbEntity
  8
template
 62
     0
370
    -2
100
AcDbBlockReference
  2
VW_FILLEDARROW
 10
-671.8152143454859
 20
750.1968714832757
 30
0.0
 41
31.75
 42
31.75
 43
31.75
  0
INSERT
  5
272
330
26A
100
AcDbEntity
  8
template
 62
     0
370
    -2
100
AcDbBlockReference
  2
VW_FILLEDARROW
 10
-668.8178060912053
 20
750.1968714832757
 30
0.0
 41
31.75
 42
31.75
 43
31.75
 50
180.0
  0
MTEXT
  5
273
330
26A
100
AcDbEntity
  8
template
  6
Continuous
 62
     0
370
     0
100
AcDbMText
 10
-670.3165102183456
 20
763.4131800770267
 30
0.0
 40
24.4326171875
 41
0.0
 46
0.0
 71
     5
 72
     1
  1
\A1;3
  7
ＭＳ ゴシック
 73
     1
 44
1.0
  0
POINT
  5
274
330
26A
100
AcDbEntity
  8
Defpoints
 62
     0
100
AcDbPoint
 10
-671.8152143454859
 20
747.4406041649212
 30
0.0
  0
POINT
  5
275
330
26A
100
AcDbEntity
  8
Defpoints
 62
     0
100
AcDbPoint
 10
-668.8178060912053
 20
747.439075937507
 30
0.0
  0
POINT
  5
276
330
26A
100
AcDbEntity
  8
Defpoints
 62
     0
100
AcDbPoint
 10
-668.8178060912053
 20
750.1968714832757
 30
0.0
  0
ENDBLK
  5
26C
330
26A
100
AcDbEntity
  8
0
100
AcDbBlockEnd
  0
ENDSEC
  0
SECTION
  2
ENTITIES
  0
INSERT
  5
193
330
A
100
AcDbEntity
  8
template
 62
     7
390
1D
100
AcDbBlockReference
  2
グループ
 10
178.1545005
 20
147.1551255
 30
0.0
  0
DIMENSION
  5
194
330
A
100
AcDbEntity
  8
notes
  6
Continuous
 62
     7
370
     5
390
1D
100
AcDbDimension
  2
*D3
 10
-668.8024847539967
 20
1072.267764180528
 30
0.0
 11
-398.7981618409522
 21
1072.267764180528
 31
0.0
 70
    32
 71
     5
 42
0.0
 73
     0
 74
     0
 75
     0
  3
tform線あり
100
AcDbAlignedDimension
 13
-128.7938389279076
 23
912.2677641805283
 33
0.0
 14
-668.8024847539967
 24
912.2677641805283
 34
0.0
100
AcDbRotatedDimension
1001
ACAD
1000
DSTYLE
1002
{
1070
   279
1070
     2
1070
   340
1005
3C
1070
   147
1040
5.0
1002
}
  0
DIMENSION
  5
195
330
A
100
AcDbEntity
  8
notes
  6
Continuous
 62
     7
370
     5
390
1D
100
AcDbDimension
  2
*D4
 10
-498.7981618409515
 20
1022.267764180528
 30
0.0
 11
-448.7880522041196
 21
1022.267764180528
 31
0.0
 70
    32
 71
     5
 42
0.0
 73
     0
 74
     0
 75
     0
  3
tform線あり
100
AcDbAlignedDimension
 13
-398.7779425672877
 23
867.2659641805174
 33
0.0
 14
-498.7981618409515
 24
857.5177641805144
 34
0.0
100
AcDbRotatedDimension
1001
ACAD
1000
DSTYLE
1002
{
1070
   279
1070
     2
1070
   340
1005
3C
1070
   147
1040
5.0
1002
}
  0
DIMENSION
  5
196
330
A
100
AcDbEntity
  8
notes
  6
Continuous
 62
     7
370
     5
390
1D
100
AcDbDimension
  2
*D5
 10
-398.7779425672877
 20
1022.267764180528
 30
0.0
 11
-348.7880522041196
 21
1022.267764180528
 31
0.0
 70
    32
 71
     5
 42
0.0
 73
     0
 74
     0
 75
     0
  3
tform線あり
100
AcDbAlignedDimension
 13
-298.7981618409515
 23
857.5177641805144
 33
0.0
 14
-398.7779425672877
 24
867.2659641805174
 34
0.0
100
AcDbRotatedDimension
1001
ACAD
1000
DSTYLE
1002
{
1070
   279
1070
     2
1070
   340
1005
3C
1070
   147
1040
5.0
1002
}
  0
DIMENSION
  5
197
330
A
100
AcDbEntity
  8
notes
  6
Continuous
 62
     7
370
     5
390
1D
100
AcDbDimension
  2
*D6
 10
-411.1384474439141
 20
849.8820900997648
 30
0.0
 11
-214.798161840951
 21
986.5000000000123
 31
0.0
 70
     3
 71
     5
 42
0.0
 73
     0
 74
     0
 75
     0
  3
tform線あり
100
AcDbDiametricDimension
 15
-386.4174376906614
 25
874.6534382612917
 35
0.0
 40
158.0142908536666
1001
ACAD
1000
DSTYLE
1002
{
1070
   289
1070
     0
1070
   342
1005
4D
1070
   340
1005
3C
1070
    73
1070
     1
1070
    74
1070
     1
1070
     3
1000

1070
   174
1070
     0
1070
   147
1040
5.0
1002
}
  0
DIMENSION
  5
198
330
A
100
AcDbEntity
  8
notes
  6
Continuous
 62
     7
370
     5
390
1D
100
AcDbDimension
  2
*D7
 10
-739.7779425672877
 20
242.2677641805282
 30
0.0
 11
-399.7779425672877
 21
242.2677641805282
 31
0.0
 70
    32
 71
     5
 42
0.0
 73
     0
 74
     0
 75
     0
  3
tform線あり
100
AcDbAlignedDimension
 13
-59.77794256728774
 23
582.834686153846
 33
0.0
 14
-739.7779425672877
 24
582.8346861538461
 34
0.0
100
AcDbRotatedDimension
1001
ACAD
1000
DSTYLE
1002
{
1070
   279
1070
     2
1070
   340
1005
3C
1070
   147
1040
5.0
1002
}
  0
DIMENSION
  5
199
330
A
100
AcDbEntity
  8
notes
  6
Continuous
 62
     7
370
     5
390
1D
100
AcDbDimension
  2
*D8
 10
-714.7779425672877
 20
292.2677641805283
 30
0.0
 11
-399.7779425672877
 21
292.2677641805283
 31
0.0
 70
    32
 71
     5
 42
0.0
 73
     0
 74
     0
 75
     0
  3
tform線あり
100
AcDbAlignedDimension
 13
-84.77794256728785
 23
529.3013216357672
 33
0.0
 14
-714.7779425672877
 24
529.3013216357673
 34
0.0
100
AcDbRotatedDimension
1001
ACAD
1000
DSTYLE
1002
{
1070
   279
1070
     2
1070
   340
1005
3C
1070
   147
1040
5.0
1002
}
  0
DIMENSION
  5
19A
330
A
100
AcDbEntity
  8
notes
  6
Continuous
 62
     7
370
     5
390
1D
100
AcDbDimension
  2
*D9
 10
-839.7779425672877
 20
922.2677641805283
 30
0.0
 11
-839.7779425672877
 21
862.2807075300468
 31
0.0
 70
    32
 71
     5
 42
0.0
 73
     0
 74
     0
 75
     0
  3
tform線あり
100
AcDbAlignedDimension
 13
-669.8084788661948
 23
802.2936508795653
 33
0.0
 14
-658.9398459780302
 24
922.2677641805283
 34
0.0
 50
90.0
100
AcDbRotatedDimension
1001
ACAD
1000
DSTYLE
1002
{
1070
   279
1070
     2
1070
   340
1005
3C
1070
   147
1040
5.0
1002
}
  0
DIMENSION
  5
19B
330
A
100
AcDbEntity
  8
notes
  6
Continuous
 62
     7
370
     5
390
1D
100
AcDbDimension
  2
*D10
 10
-839.7779425672877
 20
802.2936508795653
 30
0.0
 11
-839.7779425672877
 21
609.7936508795653
 31
0.0
 70
    32
 71
     5
 42
0.0
 73
     0
 74
     0
 75
     0
  3
tform線あり
100
AcDbAlignedDimension
 13
-557.1863946012843
 23
417.2936508795653
 33
0.0
 14
-669.8084788661948
 24
802.2936508795653
 34
0.0
 50
90.0
100
AcDbRotatedDimension
1001
ACAD
1000
DSTYLE
1002
{
1070
   279
1070
     2
1070
   340
1005
3C
1070
   147
1040
5.0
1002
}
  0
DIMENSION
  5
19C
330
A
100
AcDbEntity
  8
notes
  6
Continuous
 62
     7
370
     5
390
1D
100
AcDbDimension
  2
*D11
 10
40.22205743271226
 20
922.2677641805283
 30
0.0
 11
40.22205743271226
 21
657.2677641805283
 31
0.0
 70
    32
 71
     5
 42
0.0
 73
     0
 74
     0
 75
     0
  3
tform線あり
100
AcDbAlignedDimension
 13
-349.822814962426
 23
392.2677641805283
 33
0.0
 14
-138.9660391565456
 24
922.2677641805283
 34
0.0
 50
90.0
100
AcDbRotatedDimension
1001
ACAD
1000
DSTYLE
1002
{
1070
   279
1070
     2
1070
   340
1005
3C
1070
   147
1040
5.0
1002
}
  0
DIMENSION
  5
19D
330
A
100
AcDbEntity
  8
notes
  6
Continuous
 62
     7
370
     5
390
1D
100
AcDbDimension
  2
*D12
 10
642.7711301006833
 20
-293.6544337030232
 30
0.0
 11
637.7711301006833
 21
-287.2169337030231
 31
0.0
 70
   128
 71
     5
 42
0.0
 73
     0
 74
     0
 75
     0
  3
tform線あり
100
AcDbAlignedDimension
 13
659.8961301006833
 23
-423.6544337030231
 33
0.0
 14
659.8961301006833
 24
-293.6544337030232
 34
0.0
 50
90.0
100
AcDbRotatedDimension
1001
ACAD
1000
DSTYLE
1002
{
1070
   279
1070
     2
1070
   340
1005
3C
1070
     3
1000
<>(深さ)
1070
   174
1070
     0
1070
   147
1040
5.0
1002
}
  0
DIMENSION
  5
19E
330
A
100
AcDbEntity
  8
notes
  6
Continuous
 62
     7
370
     5
390
1D
100
AcDbDimension
  2
*D13
 10
854.940141130964
 20
-193.6544337030231
 30
0.0
 11
824.940141130964
 21
-193.6544337030231
 31
0.0
 70
    32
 71
     5
 42
0.0
 73
     0
 74
     0
 75
     0
  3
tform線あり
100
AcDbAlignedDimension
 13
794.940141130964
 23
-293.6548398062105
 33
0.0
 14
854.940141130964
 24
-293.6548398062105
 34
0.0
100
AcDbRotatedDimension
1001
ACAD
1000
DSTYLE
1002
{
1070
   279
1070
     2
1070
   340
1005
3C
1070
   147
1040
5.0
1002
}
  0
DIMENSION
  5
19F
330
A
100
AcDbEntity
  8
notes
  6
Continuous
 62
     7
370
     5
390
1D
100
AcDbDimension
  2
*D14
 10
225.4045010334725
 20
-293.6548398062105
 30
0.0
 11
225.4045010334725
 21
-378.6546367546167
 31
0.0
 70
    32
 71
     5
 42
0.0
 73
     0
 74
     0
 75
     0
  3
tform線あり
100
AcDbAlignedDimension
 13
633.2897220505157
 23
-463.6544337030231
 33
0.0
 14
334.0222113152533
 24
-293.6548398062105
 34
0.0
 50
90.0
100
AcDbRotatedDimension
1001
ACAD
1000
DSTYLE
1002
{
1070
   271
1070
     0
1070
   279
1070
     2
1070
   340
1005
3C
1070
   147
1040
5.0
1002
}
  0
DIMENSION
  5
1A0
330
A
100
AcDbEntity
  8
notes
  6
Continuous
 62
     7
370
     5
390
1D
100
AcDbDimension
  2
*D15
 10
-839.7779425672877
 20
-348.6544337030231
 30
0.0
 11
-839.7779425672877
 21
-321.1544337030303
 31
0.0
 70
    32
 71
     5
 42
0.0
 73
     0
 74
     0
 75
     0
  3
tform線あり
100
AcDbAlignedDimension
 13
-733.2623778662589
 23
-293.6544337030376
 33
0.0
 14
-588.7981618409522
 24
-348.6544337030231
 34
0.0
 50
90.0
100
AcDbRotatedDimension
1001
ACAD
1000
DSTYLE
1002
{
1070
   279
1070
     2
1070
   340
1005
3C
1070
   147
1040
5.0
1002
}
  0
DIMENSION
  5
1A1
330
A
100
AcDbEntity
  8
notes
  6
Continuous
 62
     7
370
     5
390
1D
100
AcDbDimension
  2
*D16
 10
740.0
 20
652.0
 30
0.0
 11
740.0
 21
787.0
 31
0.0
 70
    32
 71
     5
 42
0.0
 73
     0
 74
     0
 75
     0
  3
tform線あり
100
AcDbAlignedDimension
 13
669.6018381590478
 23
922.0
 33
0.0
 14
669.6018381590478
 24
652.0
 34
0.0
 50
90.0
100
AcDbRotatedDimension
1001
ACAD
1000
DSTYLE
1002
{
1070
   279
1070
     2
1070
   340
1005
3C
1070
   147
1040
5.0
1002
}
  0
DIMENSION
  5
1A2
330
A
100
AcDbEntity
  8
notes
  6
Continuous
 62
     7
370
     5
390
1D
100
AcDbDimension
  2
*D17
 10
359.6018381590478
 20
552.0
 30
0.0
 11
514.6018381590478
 21
552.0
 31
0.0
 70
    32
 71
     5
 42
0.0
 73
     0
 74
     0
 75
     0
  3
tform線あり
100
AcDbAlignedDimension
 13
669.6018381590478
 23
652.0
 33
0.0
 14
359.6018381590478
 24
652.0
 34
0.0
100
AcDbRotatedDimension
1001
ACAD
1000
DSTYLE
1002
{
1070
   279
1070
     2
1070
   340
1005
3C
1070
   147
1040
5.0
1002
}
  0
DIMENSION
  5
1A3
330
A
100
AcDbEntity
  8
notes
  6
Continuous
 62
     7
370
     5
390
1D
100
AcDbDimension
  2
*D18
 10
854.940141130964
 20
-562.1997499648709
 30
0.0
 11
754.940141130964
 21
-562.1997499648709
 31
0.0
 70
    32
 71
     5
 42
0.0
 73
     0
 74
     0
 75
     0
  3
tform線あり
100
AcDbAlignedDimension
 13
654.940141130964
 23
-473.4347784503283
 33
0.0
 14
854.940141130964
 24
-473.4347784503283
 34
0.0
100
AcDbRotatedDimension
1001
ACAD
1000
DSTYLE
1002
{
1070
   279
1070
     2
1070
   340
1005
3C
1070
   147
1040
5.0
1002
}
  0
DIMENSION
  5
1A4
330
A
100
AcDbEntity
  8
notes
  6
Continuous
 62
     7
370
     5
390
1D
100
AcDbDimension
  2
*D19
 10
854.940141130964
 20
-612.1997499648709
 30
0.0
 11
654.9401411309643
 21
-612.1997499648709
 31
0.0
 70
    32
 71
     5
 42
0.0
 73
     0
 74
     0
 75
     0
  3
tform線あり
100
AcDbAlignedDimension
 13
454.9401411309648
 23
-473.6544337030231
 33
0.0
 14
854.940141130964
 24
-473.6544337030231
 34
0.0
100
AcDbRotatedDimension
1001
ACAD
1000
DSTYLE
1002
{
1070
   279
1070
     2
1070
   340
1005
3C
1070
   147
1040
5.0
1002
}
  0
DIMENSION
  5
1A5
330
A
100
AcDbEntity
  8
notes
  6
Continuous
 62
     7
370
     5
390
1D
100
AcDbDimension
  2
*D20
 10
-568.848592558134
 20
-562.1997499648709
 30
0.0
 11
-398.848592558134
 21
-562.1997499648709
 31
0.0
 70
    32
 71
     5
 42
0.0
 73
     0
 74
     0
 75
     0
  3
tform線あり
100
AcDbAlignedDimension
 13
-228.848592558134
 23
-473.6544337030231
 33
0.0
 14
-568.848592558134
 24
-473.6544337030231
 34
0.0
100
AcDbRotatedDimension
1001
ACAD
1000
DSTYLE
1002
{
1070
   279
1070
     2
1070
   340
1005
3C
1070
   147
1040
5.0
1002
}
  0
DIMENSION
  5
1A6
330
A
100
AcDbEntity
  8
notes
  6
Continuous
 62
     7
370
     5
390
1D
100
AcDbDimension
  2
*D21
 10
41.18610676667655
 20
-293.654433703014
 30
0.0
 11
41.18610676667655
 21
-383.6544337030185
 31
0.0
 70
    32
 71
     5
 42
0.0
 73
     0
 74
     0
 75
     0
  3
tform線あり
100
AcDbAlignedDimension
 13
-228.748592558134
 23
-473.6544337030231
 33
0.0
 14
-63.99271895004418
 24
-293.654433703014
 34
0.0
 50
90.0
100
AcDbRotatedDimension
1001
ACAD
1000
DSTYLE
1002
{
1070
   279
1070
     2
1070
   340
1005
3C
1070
   147
1040
5.0
1002
}
  0
DIMENSION
  5
1A7
330
A
100
AcDbEntity
  8
notes
  6
Continuous
 62
     7
370
     5
390
1D
100
AcDbDimension
  2
*D22
 10
-535.6073039026752
 20
-193.6544337030231
 30
0.0
 11
-400.6073039026752
 21
-193.6544337030231
 31
0.0
 70
    32
 71
     5
 42
0.0
 73
     0
 74
     0
 75
     0
  3
tform線あり
100
AcDbAlignedDimension
 13
-265.6073039026752
 23
-338.6544337030231
 33
0.0
 14
-535.6073039026752
 24
-338.6544337030231
 34
0.0
100
AcDbRotatedDimension
1001
ACAD
1000
DSTYLE
1002
{
1070
   279
1070
     2
1070
   340
1005
3C
1070
   147
1040
5.0
1002
}
  0
DIMENSION
  5
1A8
330
A
100
AcDbEntity
  8
notes
  6
Continuous
 62
     7
370
     5
390
1D
100
AcDbDimension
  2
*D23
 10
-202.7981618409522
 20
852.2677641805144
 30
0.0
 11
-202.7981618409522
 21
887.2677641805213
 31
0.0
 70
    32
 71
     5
 42
0.0
 73
     0
 74
     0
 75
     0
  3
tform線あり
100
AcDbAlignedDimension
 13
-283.7981618409516
 23
922.2677641805283
 33
0.0
 14
-283.7981618409516
 24
852.2677641805144
 34
0.0
 50
90.0
100
AcDbRotatedDimension
1001
ACAD
1000
DSTYLE
1002
{
1070
   279
1070
     2
1070
   340
1005
3C
1070
   147
1040
5.0
1002
}
  0
MTEXT
  5
1A9
330
A
100
AcDbEntity
  8
notes
 62
     7
390
1D
100
AcDbMText
 10
-788.1060349263726
 20
192.1691391917218
 30
0.0
 40
24.4326171875
 41
834.3078730854204
 46
0.0
 71
     1
 72
     1
  1
＝φ30もしくはφ35の水栓取付用穴あけ加工を承ります。\P  必要な場合、ご注文の際にご指示ください。
  7
ＭＳ ゴシック
 73
     1
 44
1.043768984567712
  0
MTEXT
  5
1AA
330
A
100
AcDbEntity
  8
notes
 62
     7
390
1D
100
AcDbMText
 10
153.5548734417575
 20
192.1691391917218
 30
0.0
 40
24.4326171875
 41
772.5526963529462
 46
0.0
 71
     1
 72
     1
  1
※陶器製品には寸法公差があります。\P  洗面器の収め方をご確認の上、必ず現物を合わせて\P  カウンターの切込を行ってください。
  7
ＭＳ ゴシック
 73
     1
 44
1.043768984567712
  0
MTEXT
  5
1AB
330
A
100
AcDbEntity
  8
notes
 62
     7
390
1D
100
AcDbMText
 10
-187.3050337513903
 20
-218.8961415910869
 30
0.0
 40
24.4326171875
 41
0.0
 46
0.0
 71
     1
 72
     1
  1
壁取付ボルト穴(2ヶ所)
  7
ＭＳ ゴシック
 73
     1
 44
0.7828267384257843
  0
MTEXT
  5
1AC
330
A
100
AcDbEntity
  8
notes
 62
     7
390
1D
100
AcDbMText
 10
377.2060048257144
 20
1171.073171315145
 30
0.0
 40
24.4326171875
 41
0.0
 46
0.0
 71
     1
 72
     1
  1
カウンター切込寸法
  7
ＭＳ ゴシック
 73
     1
 44
0.7828267384257843
  0
CIRCLE
  5
1AD
330
A
100
AcDbEntity
  8
notes
  6
STYLE_03
 62
     7
370
    15
390
1D
100
AcDbCircle
 10
-805.5902420725486
 20
178.0
 30
0.0
 40
15.0
  0
LINE
  5
1AE
330
A
100
AcDbEntity
  8
notes
  6
Continuous
 62
     7
370
     5
390
1D
100
AcDbLine
 10
-260.6073039026752
 20
-348.6544337030231
 30
0.0
 11
-171.391139936743
 21
-248.2083766969003
 31
0.0
  0
MTEXT
  5
1AF
330
A
100
AcDbEntity
  8
notes
 62
     7
390
1D
100
AcDbMText
 10
153.5548734417575
 20
46.80255723651941
 30
0.0
 40
24.4326171875
 41
0.0
 46
0.0
 71
     1
 72
     1
  1
※カウンタートップ置きの場合も壁固定が必要です。
  7
ＭＳ ゴシック
 73
     1
 44
0.7828267384257843
  0
CIRCLE
  5
1B0
330
A
100
AcDbEntity
  8
ARJ70-0103
  6
Continuous
 62
     7
370
    15
390
1D
100
AcDbCircle
 10
-398.7981618409522
 20
722.2677641805283
 30
0.0
 40
28.43776901720321
  0
CIRCLE
  5
1B1
330
A
100
AcDbEntity
  8
ARJ70-0103
  6
Continuous
 62
     7
370
    15
390
1D
100
AcDbCircle
 10
-398.7981618409522
 20
722.2677641805283
 30
0.0
 40
18.95064484843533
  0
CIRCLE
  5
1B2
330
A
100
AcDbEntity
  8
ARJ70-0103
  6
Continuous
 62
     7
370
    15
390
1D
100
AcDbCircle
 10
-398.7779425672877
 20
862.2677641805283
 30
0.0
 40
17.4982
  0
LINE
  5
1B5
330
A
100
AcDbEntity
  8
ARJ70-0103
  6
Continuous
 62
     7
370
    15
390
1D
100
AcDbLine
 10
854.940141130964
 20
-293.6548398062105
 30
0.0
 11
854.940141130964
 21
-473.6544337030231
 31
0.0
  0
LINE
  5
1B6
330
A
100
AcDbEntity
  8
ARJ70-0103
  6
Continuous
 62
     7
370
    15
390
1D
100
AcDbLine
 10
854.940141130964
 20
-473.6544337030231
 30
0.0
 11
454.9401411309648
 21
-473.6544337030231
 31
0.0
  0
LINE
  5
1B7
330
A
100
AcDbEntity
  8
ARJ70-0103
  6
Continuous
 62
     7
370
    15
390
1D
100
AcDbLine
 10
854.940141130964
 20
-293.6548398062105
 30
0.0
 11
331.190522771823
 21
-293.6548398062105
 31
0.0
  0
LINE
  5
1B8
330
A
100
AcDbEntity
  8
ARJ70-0103
  6
STYLE_03
 62
     7
370
    15
390
1D
100
AcDbLine
 10
618.5277736208451
 20
-423.6544337030231
 30
0.0
 11
690.0550910899748
 21
-423.6544337030231
 31
0.0
  0
LINE
  5
1B9
330
A
100
AcDbEntity
  8
ARJ70-0103
  6
Continuous
 62
     7
370
    15
390
1D
100
AcDbLine
 10
752.2894509552633
 20
-293.6544337030232
 30
0.0
 11
344.6365240775879
 21
-293.6544337030232
 31
0.0
  0
LINE
  5
1BA
330
A
100
AcDbEntity
  8
ARJ70-0103
  6
Continuous
 62
     7
370
    15
390
1D
100
AcDbLine
 10
778.3831531576699
 20
-293.6544337030232
 30
0.0
 11
734.6869468282931
 21
-293.6544337030232
 31
0.0
  0
LINE
  5
1BB
330
A
100
AcDbEntity
  8
ARJ70-0103
  6
Continuous
 62
     7
370
    15
390
1D
100
AcDbLine
 10
813.0094977490497
 20
-293.6544337030232
 30
0.0
 11
778.3831531576699
 21
-293.6544337030232
 31
0.0
  0
LINE
  5
1BC
330
A
100
AcDbEntity
  8
ARJ70-0103
  6
Continuous
 62
     7
370
    15
390
1D
100
AcDbLine
 10
854.940141130964
 20
-293.6544337030232
 30
0.0
 11
813.0094977490497
 21
-293.6544337030232
 31
0.0
  0
LINE
  5
1BD
330
A
100
AcDbEntity
  8
ARJ70-0103
  6
STYLE_03
 62
     7
370
    15
390
1D
100
AcDbLine
 10
676.5905602114123
 20
-434.8712529437119
 30
0.0
 11
655.4479995670905
 21
-434.8712529437119
 31
0.0
  0
LINE
  5
1BE
330
A
100
AcDbEntity
  8
ARJ70-0103
  6
STYLE_03
 62
     7
370
    15
390
1D
100
AcDbLine
 10
633.2897220505157
 20
-434.8712529437119
 30
0.0
 11
633.2897220505157
 21
-463.6544337030231
 31
0.0
  0
LINE
  5
1BF
330
A
100
AcDbEntity
  8
ARJ70-0103
  6
STYLE_03
 62
     7
370
    15
390
1D
100
AcDbLine
 10
633.2897220505157
 20
-434.8712529437119
 30
0.0
 11
655.4479995670905
 21
-434.8712529437119
 31
0.0
  0
LINE
  5
1C0
330
A
100
AcDbEntity
  8
ARJ70-0103
  6
STYLE_03
 62
     7
370
    15
390
1D
100
AcDbLine
 10
737.5990629570666
 20
-328.1274076586003
 30
0.0
 11
728.6962151335878
 21
-328.1274076586003
 31
0.0
  0
LINE
  5
1C1
330
A
100
AcDbEntity
  8
ARJ70-0103
  6
STYLE_03
 62
     7
370
    15
390
1D
100
AcDbLine
 10
735.5199222582427
 20
-352.731235466105
 30
0.0
 11
726.6511578975623
 21
-352.731235466105
 31
0.0
  0
LINE
  5
1C2
330
A
100
AcDbEntity
  8
ARJ70-0103
  6
STYLE_03
 62
     7
370
    15
390
1D
100
AcDbLine
 10
691.352518534689
 20
-422.5735932893077
 30
0.0
 11
676.5905602114123
 21
-434.8712529437119
 31
0.0
  0
LINE
  5
1C3
330
A
100
AcDbEntity
  8
ARJ70-0103
  6
STYLE_03
 62
     7
370
    15
390
1D
100
AcDbLine
 10
676.5905602114123
 20
-463.6544337030231
 30
0.0
 11
633.2897220505157
 21
-463.6544337030231
 31
0.0
  0
LINE
  5
1C4
330
A
100
AcDbEntity
  8
ARJ70-0103
  6
Continuous
 62
     7
370
    15
390
1D
100
AcDbLine
 10
854.940141130964
 20
-330.7536052491731
 30
0.0
 11
854.940141130964
 21
-364.9504982092675
 31
0.0
  0
LINE
  5
1C5
330
A
100
AcDbEntity
  8
ARJ70-0103
  6
Continuous
 62
     7
370
    15
390
1D
100
AcDbLine
 10
854.940141130964
 20
-293.6544337030232
 30
0.0
 11
854.940141130964
 21
-330.7536052491731
 31
0.0
  0
ARC
  5
1C6
330
A
100
AcDbEntity
  8
ARJ70-0103
  6
STYLE_03
 62
     7
370
    15
390
1D
100
AcDbCircle
 10
736.937833885138
 20
-299.5188828379092
 30
0.0
 40
5.864449134886172
100
AcDbArc
 50
89.9999999999978
 51
179.9999999999944
  0
LINE
  5
1C7
330
A
100
AcDbEntity
  8
ARJ70-0103
  6
STYLE_03
 62
     7
370
    15
390
1D
100
AcDbLine
 10
731.1911938657789
 20
-298.1007475687431
 30
0.0
 11
723.9584851875244
 21
-385.1216455361724
 31
0.0
  0
LINE
  5
1C8
330
A
100
AcDbEntity
  8
ARJ70-0103
  6
STYLE_03
 62
     7
370
    15
390
1D
100
AcDbLine
 10
619.8251941167815
 20
-423.6544337030231
 30
0.0
 11
633.2897220505157
 21
-434.8712529437119
 31
0.0
  0
ARC
  5
1C9
330
A
100
AcDbEntity
  8
ARJ70-0103
  6
STYLE_03
 62
     7
370
    15
390
1D
100
AcDbCircle
 10
344.7595799817734
 20
-299.3970969031903
 30
0.0
 40
5.743979127540173
100
AcDbArc
 50
24.87362883389888
 51
91.22756198460388
  0
ARC
  5
1CA
330
A
100
AcDbEntity
  8
ARJ70-0103
  6
STYLE_03
 62
     7
370
    15
390
1D
100
AcDbCircle
 10
699.0508915198035
 20
-431.6338893454657
 30
0.0
 40
11.88923509916315
100
AcDbArc
 50
107.2301791235535
 51
130.3539664541856
  0
LINE
  5
1CB
330
A
100
AcDbEntity
  8
ARJ70-0103
  6
STYLE_03
 62
     7
370
    15
390
1D
100
AcDbLine
 10
676.5905602114123
 20
-434.8712529437119
 30
0.0
 11
676.5905602114123
 21
-463.6544337030231
 31
0.0
  0
ARC
  5
1CC
330
A
100
AcDbEntity
  8
ARJ70-0103
  6
Continuous
 62
     7
370
    15
390
1D
100
AcDbCircle
 10
331.190522771823
 20
-299.6548398062104
 30
0.0
 40
5.999999999999659
100
AcDbArc
 50
90.0
 51
195.3477969143583
  0
LINE
  5
1CD
330
A
100
AcDbEntity
  8
ARJ70-0103
  6
Continuous
 62
     7
370
    15
390
1D
100
AcDbLine
 10
777.440141130964
 20
-293.6544337030232
 30
0.0
 11
777.440141130964
 21
-308.6544337030232
 31
0.0
  0
LINE
  5
1CE
330
A
100
AcDbEntity
  8
ARJ70-0103
  6
Continuous
 62
     7
370
    15
390
1D
100
AcDbLine
 10
812.440141130964
 20
-293.6544337030232
 30
0.0
 11
812.440141130964
 21
-308.6544337030232
 31
0.0
  0
CIRCLE
  5
1CF
330
A
100
AcDbEntity
  8
ARJ70-0103
  6
STYLE_03
 62
     7
370
    15
390
1D
100
AcDbCircle
 10
-498.7981618409515
 20
852.3
 30
0.0
 40
15.00000000000001
  0
CIRCLE
  5
1D0
330
A
100
AcDbEntity
  8
ARJ70-0103
  6
STYLE_03
 62
     7
370
    15
390
1D
100
AcDbCircle
 10
-298.7981618409515
 20
852.2677641805144
 30
0.0
 40
14.99999999999994
  0
CIRCLE
  5
1D1
330
A
100
AcDbEntity
  8
ARJ70-0103
  6
STYLE_03
 62
     7
370
     5
390
1D
100
AcDbCircle
 10
514.6018865990546
 20
722.3
 30
0.0
 40
18.95064484843536
  0
CIRCLE
  5
1D4
330
A
100
AcDbEntity
  8
ARJ70-0103
  6
STYLE_03
 62
     7
370
     5
390
1D
100
AcDbCircle
 10
514.6221058727191
 20
849.7677641805174
 30
0.0
 40
17.4982
  0
CIRCLE
  5
1DC
330
A
100
AcDbEntity
  8
ARJ70-0103
  6
STYLE_03
 62
     7
370
     5
390
1D
100
AcDbCircle
 10
414.6018865990553
 20
837.2677641805144
 30
0.0
 40
15.0
  0
CIRCLE
  5
1DD
330
A
100
AcDbEntity
  8
ARJ70-0103
  6
STYLE_03
 62
     7
370
     5
390
1D
100
AcDbCircle
 10
614.6018865990553
 20
837.2677641805144
 30
0.0
 40
15.0
  0
LINE
  5
1DE
330
A
100
AcDbEntity
  8
ARJ70-0103
  6
Continuous
 62
     7
370
     5
390
1D
100
AcDbLine
 10
194.1380569939259
 20
922.2677641805283
 30
0.0
 11
834.1380569939259
 21
922.2677641805283
 31
0.0
  0
POLYLINE
  5
1DF
330
A
100
AcDbEntity
  8
ARJ70-0103
  6
Continuous
 62
     7
370
    15
390
1D
100
AcDb2dPolyline
 66
     1
 10
0.0
 20
0.0
 30
0.0
 70
     1
 75
     5
  0
VERTEX
  5
1E0
330
1DF
100
AcDbEntity
  8
ARJ70-0103
  6
Continuous
 62
     7
370
    15
390
1D
100
AcDbVertex
100
AcDb2dVertex
 10
359.6018381590478
 20
922.0
 30
0.0
  0
VERTEX
  5
1E1
330
1DF
100
AcDbEntity
  8
ARJ70-0103
  6
Continuous
 62
     7
370
    15
390
1D
100
AcDbVertex
100
AcDb2dVertex
 10
669.6018381590478
 20
922.0
 30
0.0
  0
VERTEX
  5
1E2
330
1DF
100
AcDbEntity
  8
ARJ70-0103
  6
Continuous
 62
     7
370
    15
390
1D
100
AcDbVertex
100
AcDb2dVertex
 10
669.6018381590478
 20
652.0
 30
0.0
  0
VERTEX
  5
1E3
330
1DF
100
AcDbEntity
  8
ARJ70-0103
  6
Continuous
 62
     7
370
    15
390
1D
100
AcDbVertex
100
AcDb2dVertex
 10
359.6018381590478
 20
652.0
 30
0.0
  0
SEQEND
  5
1E4
330
1DF
100
AcDbEntity
  8
ARJ70-0103
  6
Continuous
 62
     7
370
    15
390
1D
  0
INSERT
  5
1E5
330
A
100
AcDbEntity
  8
ARJ70-0103
 62
     7
390
1D
100
AcDbBlockReference
  2
グループ-1
 10
178.1545005
 20
147.1551255
 30
0.0
  0
ARC
  5
1E6
330
A
100
AcDbEntity
  8
ARJ70-0103
  6
STYLE_03
 62
     7
370
    15
390
1D
100
AcDbCircle
 10
681.3204603670531
 20
-379.7154078901688
 30
0.0
 40
42.9793969952603
100
AcDbArc
 50
289.3047989959393
 51
352.7738095097245
  0
ARC
  5
1E7
330
A
100
AcDbEntity
  8
ARJ70-0103
  6
Continuous
 62
     7
370
    15
390
1D
100
AcDbCircle
 10
767.2664132140841
 20
-233.6028550751701
 30
0.0
 40
447.0090892237779
100
AcDbArc
 50
188.7032532333689
 51
196.8911793178447
  0
ARC
  5
1E8
330
A
100
AcDbEntity
  8
ARJ70-0103
  6
STYLE_03
 62
     7
370
    15
390
1D
100
AcDbCircle
 10
508.2620259921802
 20
-249.2378508946587
 30
0.0
 40
165.3346556522692
100
AcDbArc
 50
196.7841636644822
 51
247.5116345781361
  0
ARC
  5
1E9
330
A
100
AcDbEntity
  8
ARJ70-0103
  6
STYLE_03
 62
     7
370
    15
390
1D
100
AcDbCircle
 10
613.0978448881536
 20
241.1363719552341
 30
0.0
 40
664.7358960765345
100
AcDbArc
 50
255.3540279889667
 51
270.4713006702448
  0
LINE
  5
1EA
330
A
100
AcDbEntity
  8
ARJ70-0103
  6
Continuous
 62
     7
370
    15
390
1D
100
AcDbLine
 10
454.9401411309648
 20
-473.6544337030231
 30
0.0
 11
454.9401411309648
 21
-463.6544337030231
 31
0.0
  0
ARC
  5
1EB
330
A
100
AcDbEntity
  8
ARJ70-0103
  6
Continuous
 62
     7
370
    15
390
1D
100
AcDbCircle
 10
489.9206464070721
 20
-307.465491788557
 30
0.0
 40
160.0581810646748
100
AcDbArc
 50
196.9019618771705
 51
257.3761953189245
  0
LINE
  5
1EC
330
A
100
AcDbEntity
  8
ARJ70-0103
  6
Continuous
 62
     7
370
    15
390
1D
100
AcDbLine
 10
-671.5321390804621
 20
-293.6544337030231
 30
0.0
 11
-63.99271895004418
 21
-293.654433703014
 31
0.0
  0
LINE
  5
1ED
330
A
100
AcDbEntity
  8
ARJ70-0103
  6
Continuous
 62
     7
370
    15
390
1D
100
AcDbLine
 10
-671.5321390804621
 20
-293.6544337030231
 30
0.0
 11
-693.049238739719
 21
-293.6544337030231
 31
0.0
  0
ARC
  5
1EE
330
A
100
AcDbEntity
  8
ARJ70-0103
  6
Continuous
 62
     7
370
    15
390
1D
100
AcDbCircle
 10
-735.071519927982
 20
-298.6544337030376
 30
0.0
 40
5.0
100
AcDbArc
 50
90.0
 51
207.0441079427808
  0
LINE
  5
1EF
330
A
100
AcDbEntity
  8
ARJ70-0103
  6
Continuous
 62
     7
370
    15
390
1D
100
AcDbLine
 10
-735.071519927982
 20
-293.6544337030305
 30
0.0
 11
-693.049238739719
 21
-293.6544337030231
 31
0.0
  0
LINE
  5
1F0
330
A
100
AcDbEntity
  8
ARJ70-0103
  6
STYLE_03
 62
     7
370
    15
390
1D
100
AcDbLine
 10
-535.6073039026752
 20
-368.6544337030231
 30
0.0
 11
-535.6073039026752
 21
-328.6544337030231
 31
0.0
  0
LINE
  5
1F1
330
A
100
AcDbEntity
  8
ARJ70-0103
  6
STYLE_03
 62
     7
370
    15
390
1D
100
AcDbLine
 10
-515.6073039026752
 20
-348.6544337030231
 30
0.0
 11
-555.6073039026752
 21
-348.6544337030231
 31
0.0
  0
CIRCLE
  5
1F2
330
A
100
AcDbEntity
  8
ARJ70-0103
  6
STYLE_03
 62
     7
370
    15
390
1D
100
AcDbCircle
 10
-535.6073039026752
 20
-348.6544337030231
 30
0.0
 40
10.0
  0
LINE
  5
1F3
330
A
100
AcDbEntity
  8
ARJ70-0103
  6
STYLE_03
 62
     7
370
    15
390
1D
100
AcDbLine
 10
-265.6073039026752
 20
-368.6544337030231
 30
0.0
 11
-265.6073039026752
 21
-328.6544337030231
 31
0.0
  0
LINE
  5
1F4
330
A
100
AcDbEntity
  8
ARJ70-0103
  6
STYLE_03
 62
     7
370
    15
390
1D
100
AcDbLine
 10
-245.6073039026752
 20
-348.6544337030231
 30
0.0
 11
-285.6073039026752
 21
-348.6544337030231
 31
0.0
  0
CIRCLE
  5
1F5
330
A
100
AcDbEntity
  8
ARJ70-0103
  6
STYLE_03
 62
     7
370
    15
390
1D
100
AcDbCircle
 10
-265.6073039026752
 20
-348.6544337030231
 30
0.0
 40
10.0
  0
LINE
  5
1F6
330
A
100
AcDbEntity
  8
ARJ70-0103
  6
Continuous
 62
     7
370
    15
390
1D
100
AcDbLine
 10
-568.7981618409522
 20
-473.6544337030231
 30
0.0
 11
-228.7981618409522
 21
-473.6544337030231
 31
0.0
  0
ARC
  5
1F7
330
A
100
AcDbEntity
  8
ARJ70-0103
  6
Continuous
 62
     7
370
    15
390
1D
100
AcDbCircle
 10
-63.99271895004418
 20
-298.654433703014
 30
0.0
 40
5.000000000000009
100
AcDbArc
 50
337.2000009013931
 51
90.00000000000001
  0
LINE
  5
1F9
330
A
100
AcDbEntity
  8
ARJ70-0103
  6
Continuous
 62
     7
370
    15
390
1D
100
AcDbLine
 10
-658.0604837191091
 20
922.2677641805283
 30
0.0
 11
-137.7366768976241
 21
922.2677641805283
 31
0.0
  0
LINE
  5
1FA
330
A
100
AcDbEntity
  8
ARJ70-0103
  6
Continuous
 62
     7
370
    15
390
1D
100
AcDbLine
 10
-658.8024847539967
 20
922.2677641805283
 30
0.0
 11
-138.7938389279076
 21
922.2677641805283
 31
0.0
  0
LINE
  5
1FB
330
A
100
AcDbEntity
  8
ARJ70-0103
  6
Continuous
 62
     7
370
    15
390
1D
100
AcDbLine
 10
-128.7981618409522
 20
912.2677641805283
 30
0.0
 11
-128.753400380579
 21
747.3189882291915
 31
0.0
  0
ARC
  5
1FE
330
A
100
AcDbEntity
  8
ARJ70-0103
  6
Continuous
 62
     7
370
    15
390
1D
100
AcDbCircle
 10
-658.8024847539967
 20
912.2677641805283
 30
0.0
 40
10.0
100
AcDbArc
 50
90.0
 51
180.0
  0
ARC
  5
1FF
330
A
100
AcDbEntity
  8
ARJ70-0103
  6
Continuous
 62
     7
370
    15
390
1D
100
AcDbCircle
 10
-138.7938389279076
 20
912.2677641805283
 30
0.0
 40
10.0
100
AcDbArc
 50
0.0
 51
90.0
  0
LINE
  5
200
330
A
100
AcDbEntity
  8
ARJ70-0103
  6
STYLE_03
 62
     7
370
    15
390
1D
100
AcDbLine
 10
-437.1642032206805
 20
-423.499636809619
 30
0.0
 11
-360.4321204612238
 21
-423.499636809619
 31
0.0
  0
LINE
  5
201
330
A
100
AcDbEntity
  8
ARJ70-0103
  6
STYLE_03
 62
     7
370
    15
390
1D
100
AcDbLine
 10
-420.4485809214004
 20
-434.7164560503078
 30
0.0
 11
-377.1477427605039
 21
-434.7164560503078
 31
0.0
  0
LINE
  5
202
330
A
100
AcDbEntity
  8
ARJ70-0103
  6
STYLE_03
 62
     7
370
    15
390
1D
100
AcDbLine
 10
-420.4485809214004
 20
-463.6544337030231
 30
0.0
 11
-377.1477427605039
 21
-463.6544337030231
 31
0.0
  0
INSERT
  5
203
330
A
100
AcDbEntity
  8
ARJ70-0103
 62
     7
390
1D
100
AcDbBlockReference
  2
グループ-2
 10
178.1545005
 20
147.1551255
 30
0.0
  0
INSERT
  5
204
330
A
100
AcDbEntity
  8
ARJ70-0103
 62
     7
390
1D
100
AcDbBlockReference
  2
グループ-3
 10
178.1545005
 20
147.1551255
 30
0.0
  0
SPLINE
  5
205
330
A
100
AcDbEntity
  8
ARJ70-0103
  6
STYLE_03
 62
     7
370
    15
390
1D
100
AcDbSpline
210
0.0
220
0.0
230
1.0
 70
     8
 71
     2
 72
    14
 73
    11
 74
     0
 42
0.000000001
 43
0.000001
 40
0.0
 40
0.0
 40
0.0
 40
1.0
 40
1.0
 40
2.0
 40
3.0
 40
4.0
 40
5.0
 40
6.0
 40
6.0
 40
7.0
 40
7.0
 40
7.0
 10
-360.4321204612233
 20
-423.499636809619
 30
0.0
 10
-355.5486580462617
 20
-423.577035256321
 30
0.0
 10
-350.6651956313001
 20
-423.6544337030231
 30
0.0
 10
-321.3243868338957
 20
-422.5914073717375
 30
0.0
 10
-263.161411038815
 20
-414.6262760382352
 30
0.0
 10
-191.8576178425094
 20
-390.3741347335837
 30
0.0
 10
-132.5324575199268
 20
-354.774956290046
 30
0.0
 10
-101.4043047989692
 20
-321.3120384047627
 30
0.0
 10
-89.99592349321475
 20
-303.2142959000138
 30
0.0
 10
-88.47479123293638
 20
-300.0976850641914
 30
0.0
 10
-86.95365897265802
 20
-296.9810742283689
 30
0.0
  0
ARC
  5
206
330
A
100
AcDbEntity
  8
ARJ70-0103
  6
STYLE_03
 62
     7
370
    15
390
1D
100
AcDbCircle
 10
-81.74250452739662
 20
-299.3970969031903
 30
0.0
 40
5.743979127540129
100
AcDbArc
 50
88.77243801539613
 51
155.1263711661011
  0
SPLINE
  5
207
330
A
100
AcDbEntity
  8
ARJ70-0103
  6
STYLE_03
 62
     7
370
    15
390
1D
100
AcDbSpline
210
0.0
220
0.0
230
1.0
 70
     8
 71
     2
 72
    14
 73
    11
 74
     0
 42
0.000000001
 43
0.000001
 40
0.0
 40
0.0
 40
0.0
 40
1.0
 40
1.0
 40
2.0
 40
3.0
 40
4.0
 40
5.0
 40
6.0
 40
6.0
 40
7.0
 40
7.0
 40
7.0
 10
-437.1642032206802
 20
-423.499636809619
 30
0.0
 10
-442.0476656356418
 20
-423.577035256321
 30
0.0
 10
-446.9311280506034
 20
-423.6544337030231
 30
0.0
 10
-476.2719368480078
 20
-422.5914073717375
 30
0.0
 10
-534.4349126430885
 20
-414.6262760382352
 30
0.0
 10
-605.7387058393941
 20
-390.3741347335837
 30
0.0
 10
-665.0638661619774
 20
-354.774956290046
 30
0.0
 10
-696.192018882935
 20
-321.3120384047627
 30
0.0
 10
-707.6004001886895
 20
-303.2142959000138
 30
0.0
 10
-709.1215324489679
 20
-300.0976850641914
 30
0.0
 10
-710.6426647092462
 20
-296.9810742283689
 30
0.0
  0
ARC
  5
208
330
A
100
AcDbEntity
  8
ARJ70-0103
  6
STYLE_03
 62
     7
370
    15
390
1D
100
AcDbCircle
 10
-715.8538191545076
 20
-299.3970969031903
 30
0.0
 40
5.743979127540046
100
AcDbArc
 50
24.87362883389883
 51
91.2275619846039
  0
LINE
  5
209
330
A
100
AcDbEntity
  8
ARJ70-0103
  6
Continuous
 62
     7
370
    15
390
1D
100
AcDbLine
 10
-568.848592558134
 20
-473.6544337030231
 30
0.0
 11
-568.848592558134
 21
-466.8305027217451
 31
0.0
  0
LINE
  5
20A
330
A
100
AcDbEntity
  8
ARJ70-0103
  6
Continuous
 62
     7
370
    15
390
1D
100
AcDbLine
 10
-228.748592558134
 20
-473.6544337030231
 30
0.0
 11
-228.748592558134
 21
-466.8555327275177
 31
0.0
  0
ARC
  5
20B
330
A
100
AcDbEntity
  8
ARJ70-0103
  6
Continuous
 62
     7
370
    15
390
1D
100
AcDbCircle
 10
-572.8485925581342
 20
-466.8305027217451
 30
0.0
 40
4.000000000000227
100
AcDbArc
 50
0.0
 51
68.93292841692636
  0
ARC
  5
20C
330
A
100
AcDbEntity
  8
ARJ70-0103
  6
Continuous
 62
     7
370
    15
390
1D
100
AcDbCircle
 10
-224.7485925581341
 20
-466.8555327275177
 30
0.0
 40
3.999999999999841
100
AcDbArc
 50
111.0538492134868
 51
180.0
  0
ARC
  5
20D
330
A
100
AcDbEntity
  8
ARJ70-0103
  6
Continuous
 62
     7
370
    15
390
1D
100
AcDbCircle
 10
-464.4576913434685
 20
-185.18074271685
 30
0.0
 40
297.8235642645719
100
AcDbArc
 50
202.8700952595736
 51
248.9329284169294
  0
ARC
  5
20E
330
A
100
AcDbEntity
  8
ARJ70-0103
  6
Continuous
 62
     7
370
    15
390
1D
100
AcDbCircle
 10
-333.280032930739
 20
-185.18074271685
 30
0.0
 40
297.823564264572
100
AcDbArc
 50
291.053849213488
 51
337.2000009013918
  0
ELLIPSE
  5
260
330
A
100
AcDbEntity
  8
template
  6
Continuous
370
     0
100
AcDbEllipse
 10
-398.7779425672879
 20
609.7936508795652
 30
0.0
 11
-315.0202192736642
 21
4.651123716419500E-14
 31
0.0
210
0.0
220
0.0
230
1.0
 40
0.6110718863501535
 41
0.0
 42
6.283185307179586
  0
ELLIPSE
  5
261
330
A
100
AcDbEntity
  8
template
  6
Continuous
370
     0
100
AcDbEllipse
 10
-398.7978678832492
 20
609.7906215534883
 30
0.0
 11
339.9791534636693
 21
0.01773195633387559
 31
0.0
210
0.0
220
0.0
230
1.0
 40
0.6396907659999236
 41
3.141592653589793
 42
6.283185307179586
  0
ELLIPSE
  5
264
330
A
100
AcDbEntity
  8
template
  6
Continuous
370
     0
100
AcDbEllipse
 10
-398.7978678832492
 20
609.7906215534883
 30
0.0
 11
339.9791534636693
 21
0.01773195633381874
 31
0.0
210
0.0
220
0.0
230
1.0
 40
0.6591185070367167
 41
0.0
 42
0.6480405916876132
  0
ELLIPSE
  5
266
330
A
100
AcDbEntity
  8
template
  6
Continuous
370
     0
100
AcDbEllipse
 10
-398.7978678832492
 20
609.7906215534883
 30
0.0
 11
339.9791534636693
 21
0.01773195633381874
 31
0.0
210
0.0
220
0.0
230
1.0
 40
0.6591185070367167
 41
2.493393090473755
 42
3.141592653589793
  0
LINE
  5
277
330
A
100
AcDbEntity
  8
template
  6
Continuous
370
     0
100
AcDbLine
 10
-668.8024847539967
 20
912.2677641805283
 30
0.0
 11
-668.8024847539967
 21
747.3189882291919
 31
0.0
  0
ARC
  5
27D
330
A
100
AcDbEntity
  8
template
  6
Continuous
370
     0
100
AcDbCircle
 10
-671.8024847539967
 20
747.3189882291919
 30
0.0
 40
3.000000000000001
100
AcDbArc
 50
311.6292772091129
 51
0.0
  0
ARC
  5
280
330
A
100
AcDbEntity
  8
template
  6
Continuous
370
     0
100
AcDbCircle
 10
-125.753400380579
 20
747.3189882291915
 30
0.0
 40
3.000000000000001
100
AcDbArc
 50
180.0
 51
228.3707227908868
  0
ARC
  5
287
330
A
100
AcDbEntity
  8
ARJ70-0103
  6
STYLE_03
 62
     7
370
    15
390
1D
100
AcDbCircle
 10
254.5975636860102
 20
912.3
 30
0.0
 40
10.0
100
AcDbArc
 50
90.0
 51
180.0
  0
LINE
  5
288
330
A
100
AcDbEntity
  8
template
  6
STYLE_03
370
     0
100
AcDbLine
 10
244.5975636860102
 20
912.3
 30
0.0
 11
244.5975636860102
 21
747.3512240486635
 31
0.0
  0
LINE
  5
289
330
A
100
AcDbEntity
  8
ARJ70-0103
  6
STYLE_11
 62
     7
370
    15
390
1D
100
AcDbLine
 10
255.3395647208978
 20
922.3
 30
0.0
 11
775.6633715423828
 21
922.3
 31
0.0
  0
LINE
  5
28A
330
A
100
AcDbEntity
  8
ARJ70-0103
  6
STYLE_11
 62
     7
370
    15
390
1D
100
AcDbLine
 10
254.5975636860102
 20
922.3
 30
0.0
 11
774.6062095120993
 21
922.3
 31
0.0
  0
ARC
  5
28B
330
A
100
AcDbEntity
  8
ARJ70-0103
  6
STYLE_03
 62
     7
370
    15
390
1D
100
AcDbCircle
 10
774.6062095120993
 20
912.3
 30
0.0
 40
10.0
100
AcDbArc
 50
0.0
 51
90.0
  0
LINE
  5
28C
330
A
100
AcDbEntity
  8
ARJ70-0103
  6
STYLE_03
 62
     7
370
    15
390
1D
100
AcDbLine
 10
784.6018865990548
 20
912.3
 30
0.0
 11
784.6466480594279
 21
747.3512240486632
 31
0.0
  0
ELLIPSE
  5
28D
330
A
100
AcDbEntity
  8
template
  6
STYLE_03
370
     0
100
AcDbEllipse
 10
514.6021805567577
 20
609.82285737296
 30
0.0
 11
339.9791534636693
 21
0.01773195633381874
 31
0.0
210
0.0
220
0.0
230
1.0
 40
0.6591185070367167
 41
0.0
 42
0.6480405916876132
  0
ARC
  5
28E
330
A
100
AcDbEntity
  8
template
  6
STYLE_03
370
     0
100
AcDbCircle
 10
787.6466480594279
 20
747.3512240486632
 30
0.0
 40
3.000000000000001
100
AcDbArc
 50
180.0
 51
228.3707227908868
  0
ELLIPSE
  5
28F
330
A
100
AcDbEntity
  8
template
  6
STYLE_03
370
     0
100
AcDbEllipse
 10
514.6021805567577
 20
609.82285737296
 30
0.0
 11
339.9791534636693
 21
0.01773195633381874
 31
0.0
210
0.0
220
0.0
230
1.0
 40
0.6591185070367167
 41
2.493393090473755
 42
3.141592653589793
  0
ARC
  5
290
330
A
100
AcDbEntity
  8
template
  6
STYLE_03
370
     0
100
AcDbCircle
 10
241.5975636860102
 20
747.3512240486635
 30
0.0
 40
3.000000000000001
100
AcDbArc
 50
311.6292772091132
 51
0.0
  0
ELLIPSE
  5
291
330
A
100
AcDbEntity
  8
template
  6
STYLE_03
370
     0
100
AcDbEllipse
 10
514.6021805567577
 20
609.82285737296
 30
0.0
 11
339.9791534636693
 21
0.01773195633387559
 31
0.0
210
0.0
220
0.0
230
1.0
 40
0.6396907659999236
 41
3.141592653589793
 42
6.283185307179586
  0
ENDSEC
  0
SECTION
  2
OBJECTS
  0
DICTIONARY
  5
19
330
0
100
AcDbDictionary
281
     1
  3
ACAD_DETAILVIEWSTYLE
350
25C
  3
ACAD_GROUP
350
1A
  3
ACAD_IMAGE_VARS
350
252
  3
ACAD_LAYOUT
350
1E
  3
ACAD_MATERIAL
350
24A
  3
ACAD_MLEADERSTYLE
350
25A
  3
ACAD_MLINESTYLE
350
1B
  3
ACAD_PLOTSETTINGS
350
22
  3
ACAD_PLOTSTYLENAME
350
1F
  3
ACAD_SCALELIST
350
20F
  3
ACAD_SECTIONVIEWSTYLE
350
25D
  3
ACAD_TABLESTYLE
350
24E
  3
ACAD_VISUALSTYLE
350
231
  3
ACDB_RECOMPOSE_DATA
350
297
  3
AcDbVariableDictionary
350
253
  3
APPDATA
350
250
  0
SUN
  5
251
330
15
100
AcDbSun
 90
        1
290
     0
 63
     7
421
 16777215
 40
1.0
291
     1
 91
  2455826
 92
 54000000
292
     0
 70
     2
 71
   256
280
     1
  0
DICTIONARY
  5
25C
102
{ACAD_REACTORS
330
19
102
}
330
19
100
AcDbDictionary
281
     1
  0
DICTIONARY
  5
1A
102
{ACAD_REACTORS
330
19
102
}
330
19
100
AcDbDictionary
281
     1
  0
RASTERVARIABLES
  5
252
102
{ACAD_REACTORS
330
19
102
}
330
19
100
AcDbRasterVariables
 90
        0
 70
     1
 71
     1
 72
     1
  0
DICTIONARY
  5
1E
102
{ACAD_REACTORS
330
19
102
}
330
19
100
AcDbDictionary
281
     1
  3
Layout1
350
21
  3
Model
350
20
  0
DICTIONARY
  5
24A
102
{ACAD_REACTORS
330
19
102
}
330
19
100
AcDbDictionary
281
     1
  3
ByBlock
350
24C
  3
ByLayer
350
24B
  3
Global
350
24D
  0
DICTIONARY
  5
25A
102
{ACAD_REACTORS
330
19
102
}
330
19
100
AcDbDictionary
281
     1
  0
DICTIONARY
  5
1B
102
{ACAD_REACTORS
330
19
102
}
330
19
100
AcDbDictionary
281
     1
  3
Standard
350
1C
  0
DICTIONARY
  5
22
102
{ACAD_REACTORS
330
19
102
}
330
19
100
AcDbDictionary
281
     1
  0
ACDBDICTIONARYWDFLT
  5
1F
102
{ACAD_REACTORS
330
19
102
}
330
19
100
AcDbDictionary
281
     1
  3
Normal
350
1D
100
AcDbDictionaryWithDefault
340
1D
  0
DICTIONARY
  5
20F
102
{ACAD_REACTORS
330
19
102
}
330
19
100
AcDbDictionary
281
     1
  3
A0
350
210
  3
A1
350
211
  3
A2
350
212
  3
A3
350
213
  3
A4
350
214
  3
A5
350
215
  3
A6
350
216
  3
A7
350
217
  3
A8
350
218
  3
A9
350
219
  3
B0
350
21A
  3
B1
350
21B
  3
B2
350
21C
  3
B3
350
21D
  3
B4
350
21E
  3
B5
350
21F
  3
B6
350
220
  3
B7
350
221
  3
B8
350
222
  3
B9
350
223
  3
C0
350
224
  3
C1
350
225
  3
C2
350
226
  3
C3
350
227
  3
C4
350
228
  3
C5
350
229
  3
C6
350
22A
  3
C7
350
22B
  3
C8
350
22C
  3
C9
350
22D
  3
D0
350
22E
  3
D1
350
22F
  3
D2
350
230
  0
DICTIONARY
  5
25D
102
{ACAD_REACTORS
330
19
102
}
330
19
100
AcDbDictionary
281
     1
  0
DICTIONARY
  5
24E
102
{ACAD_REACTORS
330
19
102
}
330
19
100
AcDbDictionary
281
     1
  3
Standard
350
24F
  0
DICTIONARY
  5
231
102
{ACAD_REACTORS
330
19
102
}
330
19
100
AcDbDictionary
281
     1
  3
2dWireframe
350
236
  3
Basic
350
239
  3
Brighten
350
23D
  3
ColorChange
350
241
  3
Conceptual
350
23B
  3
Dim
350
23C
  3
EdgeColorOff
350
244
  3
Facepattern
350
240
  3
Flat
350
232
  3
FlatWithEdges
350
233
  3
Gouraud
350
234
  3
GouraudWithEdges
350
235
  3
Hidden
350
238
  3
JitterOff
350
242
  3
Linepattern
350
23F
  3
OverhangOff
350
243
  3
Realistic
350
23A
  3
Shaded
350
249
  3
Shaded with edges
350
248
  3
Shades of Gray
350
245
  3
Sketchy
350
246
  3
Thicken
350
23E
  3
Wireframe
350
237
  3
X-Ray
350
247
  0
XRECORD
  5
297
102
{ACAD_REACTORS
330
19
102
}
330
19
100
AcDbXrecord
280
     1
 90
        1
330
24F
  0
DICTIONARY
  5
253
102
{ACAD_REACTORS
330
19
102
}
330
19
100
AcDbDictionary
281
     1
  3
CANNOSCALE
350
254
  3
CTABLESTYLE
350
259
  3
LIGHTINGUNITS
350
255
  3
MSLTSCALE
350
25B
  3
XCLIPFRAME
350
298
  0
DICTIONARY
  5
250
102
{ACAD_REACTORS
330
19
102
}
330
19
100
AcDbDictionary
281
     1
  0
LAYOUT
  5
21
102
{ACAD_REACTORS
330
1E
102
}
330
1E
100
AcDbPlotSettings
  1

  2

  4

  6

 40
0.0
 41
0.0
 42
0.0
 43
0.0
 44
0.0
 45
0.0
 46
0.0
 47
0.0
 48
0.0
 49
0.0
140
0.0
141
0.0
142
1.0
143
1.0
 70
     0
 72
     0
 73
     0
 74
     0
  7

 75
     0
 76
     0
 77
     2
 78
   300
147
1.0
148
0.0
149
0.0
100
AcDbLayout
  1
Layout1
 70
     0
 71
     0
 10
0.0
 20
0.0
 11
0.0
 21
0.0
 12
0.0
 22
0.0
 32
0.0
 14
0.0
 24
0.0
 34
0.0
 15
0.0
 25
0.0
 35
0.0
146
0.0
 13
0.0
 23
0.0
 33
0.0
 16
0.0
 26
0.0
 36
0.0
 17
0.0
 27
0.0
 37
0.0
 76
     0
330
B
  0
LAYOUT
  5
20
102
{ACAD_REACTORS
330
1E
102
}
330
1E
100
AcDbPlotSettings
  1

  2

  4

  6

 40
0.0
 41
0.0
 42
0.0
 43
0.0
 44
0.0
 45
0.0
 46
0.0
 47
0.0
 48
0.0
 49
0.0
140
0.0
141
0.0
142
1.0
143
1.0
 70
  1024
 72
     0
 73
     0
 74
     0
  7

 75
     0
 76
     0
 77
     2
 78
   300
147
1.0
148
0.0
149
0.0
100
AcDbLayout
  1
Model
 70
     0
 71
     1
 10
0.0
 20
0.0
 11
0.0
 21
0.0
 12
0.0
 22
0.0
 32
0.0
 14
0.0
 24
0.0
 34
0.0
 15
0.0
 25
0.0
 35
0.0
146
0.0
 13
0.0
 23
0.0
 33
0.0
 16
0.0
 26
0.0
 36
0.0
 17
0.0
 27
0.0
 37
0.0
 76
     0
330
A
331
15
  0
MATERIAL
  5
24C
102
{ACAD_REACTORS
330
24A
102
}
330
24A
100
AcDbMaterial
  1
ByBlock
 72
     1
 94
      127
  0
MATERIAL
  5
24B
102
{ACAD_REACTORS
330
24A
102
}
330
24A
100
AcDbMaterial
  1
ByLayer
 72
     1
 94
      127
  0
MATERIAL
  5
24D
102
{ACAD_REACTORS
330
24A
102
}
330
24A
100
AcDbMaterial
  1
Global
 72
     1
 94
      127
  0
MLINESTYLE
  5
1C
102
{ACAD_REACTORS
330
1B
102
}
330
1B
100
AcDbMlineStyle
  2
Standard
 70
     0
  3

 62
     0
 51
90.0
 52
90.0
 71
     2
 49
0.5
 62
   256
  6
BYLAYER
 49
-0.5
 62
   256
  6
BYLAYER
  0
ACDBPLACEHOLDER
  5
1D
102
{ACAD_REACTORS
330
1F
102
}
330
1F
  0
SCALE
  5
210
102
{ACAD_REACTORS
330
20F
102
}
330
20F
100
AcDbScale
 70
     0
300
1:1
140
1.0
141
1.0
290
     1
  0
SCALE
  5
211
102
{ACAD_REACTORS
330
20F
102
}
330
20F
100
AcDbScale
 70
     0
300
1:2
140
1.0
141
2.0
290
     0
  0
SCALE
  5
212
102
{ACAD_REACTORS
330
20F
102
}
330
20F
100
AcDbScale
 70
     0
300
1:4
140
1.0
141
4.0
290
     0
  0
SCALE
  5
213
102
{ACAD_REACTORS
330
20F
102
}
330
20F
100
AcDbScale
 70
     0
300
1:5
140
1.0
141
5.0
290
     0
  0
SCALE
  5
214
102
{ACAD_REACTORS
330
20F
102
}
330
20F
100
AcDbScale
 70
     0
300
1:8
140
1.0
141
8.0
290
     0
  0
SCALE
  5
215
102
{ACAD_REACTORS
330
20F
102
}
330
20F
100
AcDbScale
 70
     0
300
1:10
140
1.0
141
10.0
290
     0
  0
SCALE
  5
216
102
{ACAD_REACTORS
330
20F
102
}
330
20F
100
AcDbScale
 70
     0
300
1:16
140
1.0
141
16.0
290
     0
  0
SCALE
  5
217
102
{ACAD_REACTORS
330
20F
102
}
330
20F
100
AcDbScale
 70
     0
300
1:20
140
1.0
141
20.0
290
     0
  0
SCALE
  5
218
102
{ACAD_REACTORS
330
20F
102
}
330
20F
100
AcDbScale
 70
     0
300
1:30
140
1.0
141
30.0
290
     0
  0
SCALE
  5
219
102
{ACAD_REACTORS
330
20F
102
}
330
20F
100
AcDbScale
 70
     0
300
1:40
140
1.0
141
40.0
290
     0
  0
SCALE
  5
21A
102
{ACAD_REACTORS
330
20F
102
}
330
20F
100
AcDbScale
 70
     0
300
1:50
140
1.0
141
50.0
290
     0
  0
SCALE
  5
21B
102
{ACAD_REACTORS
330
20F
102
}
330
20F
100
AcDbScale
 70
     0
300
1:100
140
1.0
141
100.0
290
     0
  0
SCALE
  5
21C
102
{ACAD_REACTORS
330
20F
102
}
330
20F
100
AcDbScale
 70
     0
300
2:1
140
2.0
141
1.0
290
     0
  0
SCALE
  5
21D
102
{ACAD_REACTORS
330
20F
102
}
330
20F
100
AcDbScale
 70
     0
300
4:1
140
4.0
141
1.0
290
     0
  0
SCALE
  5
21E
102
{ACAD_REACTORS
330
20F
102
}
330
20F
100
AcDbScale
 70
     0
300
8:1
140
8.0
141
1.0
290
     0
  0
SCALE
  5
21F
102
{ACAD_REACTORS
330
20F
102
}
330
20F
100
AcDbScale
 70
     0
300
10:1
140
10.0
141
1.0
290
     0
  0
SCALE
  5
220
102
{ACAD_REACTORS
330
20F
102
}
330
20F
100
AcDbScale
 70
     0
300
100:1
140
100.0
141
1.0
290
     0
  0
SCALE
  5
221
102
{ACAD_REACTORS
330
20F
102
}
330
20F
100
AcDbScale
 70
     0
300
1/128" = 1'-0"
140
0.0078125
141
12.0
290
     0
  0
SCALE
  5
222
102
{ACAD_REACTORS
330
20F
102
}
330
20F
100
AcDbScale
 70
     0
300
1/64" = 1'-0"
140
0.015625
141
12.0
290
     0
  0
SCALE
  5
223
102
{ACAD_REACTORS
330
20F
102
}
330
20F
100
AcDbScale
 70
     0
300
1/32" = 1'-0"
140
0.03125
141
12.0
290
     0
  0
SCALE
  5
224
102
{ACAD_REACTORS
330
20F
102
}
330
20F
100
AcDbScale
 70
     0
300
1/16" = 1'-0"
140
0.0625
141
12.0
290
     0
  0
SCALE
  5
225
102
{ACAD_REACTORS
330
20F
102
}
330
20F
100
AcDbScale
 70
     0
300
3/32" = 1'-0"
140
0.09375
141
12.0
290
     0
  0
SCALE
  5
226
102
{ACAD_REACTORS
330
20F
102
}
330
20F
100
AcDbScale
 70
     0
300
1/8" = 1'-0"
140
0.125
141
12.0
290
     0
  0
SCALE
  5
227
102
{ACAD_REACTORS
330
20F
102
}
330
20F
100
AcDbScale
 70
     0
300
3/16" = 1'-0"
140
0.1875
141
12.0
290
     0
  0
SCALE
  5
228
102
{ACAD_REACTORS
330
20F
102
}
330
20F
100
AcDbScale
 70
     0
300
1/4" = 1'-0"
140
0.25
141
12.0
290
     0
  0
SCALE
  5
229
102
{ACAD_REACTORS
330
20F
102
}
330
20F
100
AcDbScale
 70
     0
300
3/8" = 1'-0"
140
0.375
141
12.0
290
     0
  0
SCALE
  5
22A
102
{ACAD_REACTORS
330
20F
102
}
330
20F
100
AcDbScale
 70
     0
300
1/2" = 1'-0"
140
0.5
141
12.0
290
     0
  0
SCALE
  5
22B
102
{ACAD_REACTORS
330
20F
102
}
330
20F
100
AcDbScale
 70
     0
300
3/4" = 1'-0"
140
0.75
141
12.0
290
     0
  0
SCALE
  5
22C
102
{ACAD_REACTORS
330
20F
102
}
330
20F
100
AcDbScale
 70
     0
300
1" = 1'-0"
140
1.0
141
12.0
290
     0
  0
SCALE
  5
22D
102
{ACAD_REACTORS
330
20F
102
}
330
20F
100
AcDbScale
 70
     0
300
1-1/2" = 1'-0"
140
1.5
141
12.0
290
     0
  0
SCALE
  5
22E
102
{ACAD_REACTORS
330
20F
102
}
330
20F
100
AcDbScale
 70
     0
300
3" = 1'-0"
140
3.0
141
12.0
290
     0
  0
SCALE
  5
22F
102
{ACAD_REACTORS
330
20F
102
}
330
20F
100
AcDbScale
 70
     0
300
6" = 1'-0"
140
6.0
141
12.0
290
     0
  0
SCALE
  5
230
102
{ACAD_REACTORS
330
20F
102
}
330
20F
100
AcDbScale
 70
     0
300
1'-0" = 1'-0"
140
12.0
141
12.0
290
     0
  0
TABLESTYLE
  5
24F
102
{ACAD_REACTORS
330
24E
102
}
102
{ACAD_XDICTIONARY
360
295
102
}
330
24E
100
AcDbTableStyle
  3
Standard
 70
     0
 71
     0
 40
0.06
 41
0.06
280
     0
281
     0
  7
Standard
140
4.5
170
     2
 62
     0
 63
   257
283
     0
 90
        4
 91
        0
  1

274
    -2
284
     1
 64
     0
275
    -2
285
     1
 65
     0
276
    -2
286
     1
 66
     0
277
    -2
287
     1
 67
     0
278
    -2
288
     1
 68
     0
279
    -2
289
     1
 69
     0
  7
Standard
140
6.0
170
     5
 62
     0
 63
   257
283
     0
 90
        4
 91
        0
  1

274
    -2
284
     1
 64
     0
275
    -2
285
     1
 65
     0
276
    -2
286
     1
 66
     0
277
    -2
287
     1
 67
     0
278
    -2
288
     1
 68
     0
279
    -2
289
     1
 69
     0
  7
Standard
140
4.5
170
     5
 62
     0
 63
   257
283
     0
 90
        4
 91
        0
  1

274
    -2
284
     1
 64
     0
275
    -2
285
     1
 65
     0
276
    -2
286
     1
 66
     0
277
    -2
287
     1
 67
     0
278
    -2
288
     1
 68
     0
279
    -2
289
     1
 69
     0
  0
VISUALSTYLE
  5
236
102
{ACAD_REACTORS
330
231
102
}
330
231
100
AcDbVisualStyle
  2
2dWireframe
 70
     4
 71
     0
 72
     2
 73
     0
 90
        0
 40
0.6
 41
30.0
 62
     5
 63
     7
421
 16777215
 74
     1
 91
        4
 64
     7
 65
   257
 75
     1
175
     1
 42
1.0
 92
        0
 66
   257
 43
1.0
 76
     1
 77
     6
 78
     2
 67
     7
 79
     5
170
     0
171
     0
290
     0
174
     0
 93
        1
 44
0.0
173
     0
291
     0
 45
0.0
  0
VISUALSTYLE
  5
239
102
{ACAD_REACTORS
330
231
102
}
330
231
100
AcDbVisualStyle
  2
Basic
 70
     7
 71
     1
 72
     0
 73
     1
 90
        0
 40
0.6
 41
30.0
 62
     5
 63
     7
421
 16777215
 74
     0
 91
        4
 64
     7
 65
   257
 75
     1
175
     1
 42
1.0
 92
        8
 66
     7
 43
1.0
 76
     1
 77
     6
 78
     2
 67
     7
 79
     5
170
     0
171
     0
290
     0
174
     0
 93
        1
 44
0.0
173
     0
291
     1
 45
0.0
  0
VISUALSTYLE
  5
23D
102
{ACAD_REACTORS
330
231
102
}
330
231
100
AcDbVisualStyle
  2
Brighten
 70
    12
 71
     2
 72
     2
 73
     0
 90
        0
 40
0.6
 41
30.0
 62
     5
 63
     7
421
 16777215
 74
     1
 91
        4
 64
     7
 65
   257
 75
     1
175
     1
 42
1.0
 92
        8
 66
     7
 43
1.0
 76
     1
 77
     6
 78
     2
 67
     7
 79
     5
170
     0
171
     0
290
     0
174
     0
 93
        1
 44
50.0
173
     0
291
     1
 45
0.0
  0
VISUALSTYLE
  5
241
102
{ACAD_REACTORS
330
231
102
}
330
231
100
AcDbVisualStyle
  2
ColorChange
 70
    16
 71
     2
 72
     2
 73
     3
 90
        0
 40
0.6
 41
30.0
 62
     5
 63
     8
421
  8421504
 74
     1
 91
        4
 64
     7
 65
   257
 75
     1
175
     1
 42
1.0
 92
        8
 66
     8
424
  8421504
 43
1.0
 76
     1
 77
     6
 78
     2
 67
     7
 79
     5
170
     0
171
     0
290
     0
174
     0
 93
        1
 44
0.0
173
     0
291
     1
 45
0.0
  0
VISUALSTYLE
  5
23B
102
{ACAD_REACTORS
330
231
102
}
330
231
100
AcDbVisualStyle
  2
Conceptual
 70
     9
 71
     3
 72
     2
 73
     0
 90
        0
 40
0.6
 41
30.0
 62
     5
 63
     7
421
 16777215
 74
     2
 91
        2
 64
     7
 65
   257
 75
     1
175
     1
 42
179.0
 92
        8
 66
     7
 43
1.0
 76
     1
 77
     6
 78
     2
 67
     7
 79
     3
170
     0
171
     0
290
     0
174
     0
 93
        1
 44
0.0
173
     0
291
     0
 45
0.0
  0
VISUALSTYLE
  5
23C
102
{ACAD_REACTORS
330
231
102
}
330
231
100
AcDbVisualStyle
  2
Dim
 70
    11
 71
     2
 72
     2
 73
     0
 90
        0
 40
0.6
 41
30.0
 62
     5
 63
     7
421
 16777215
 74
     1
 91
        4
 64
     7
 65
   257
 75
     1
175
     1
 42
1.0
 92
        8
 66
     7
 43
1.0
 76
     1
 77
     6
 78
     2
 67
     7
 79
     5
170
     0
171
     0
290
     0
174
     0
 93
        1
 44
-50.0
173
     0
291
     1
 45
0.0
  0
VISUALSTYLE
  5
244
102
{ACAD_REACTORS
330
231
102
}
330
231
100
AcDbVisualStyle
  2
EdgeColorOff
 70
    22
 71
     2
 72
     2
 73
     0
 90
        0
 40
0.6
 41
30.0
 62
     5
 63
     7
421
 16777215
 74
     1
 91
        4
 64
     7
 65
   257
 75
     1
175
     1
 42
1.0
 92
        8
 66
     7
 43
1.0
 76
     1
 77
     6
 78
     2
 67
     7
 79
     5
170
     0
171
     0
290
     0
174
     0
 93
        1
 44
0.0
173
     0
291
     1
 45
0.0
  0
VISUALSTYLE
  5
240
102
{ACAD_REACTORS
330
231
102
}
330
231
100
AcDbVisualStyle
  2
Facepattern
 70
    15
 71
     2
 72
     2
 73
     0
 90
        0
 40
0.6
 41
30.0
 62
     5
 63
     7
421
 16777215
 74
     1
 91
        4
 64
     7
 65
   257
 75
     1
175
     1
 42
1.0
 92
        8
 66
     7
 43
1.0
 76
     1
 77
     6
 78
     2
 67
     7
 79
     5
170
     0
171
     0
290
     0
174
     0
 93
        1
 44
0.0
173
     0
291
     1
 45
0.0
  0
VISUALSTYLE
  5
232
102
{ACAD_REACTORS
330
231
102
}
330
231
100
AcDbVisualStyle
  2
Flat
 70
     0
 71
     2
 72
     1
 73
     1
 90
        2
 40
0.6
 41
30.0
 62
     5
 63
     7
421
 16777215
 74
     0
 91
        0
 64
     7
 65
   257
 75
     1
175
     1
 42
1.0
 92
        8
 66
     7
 43
1.0
 76
     1
 77
     6
 78
     2
 67
     7
 79
     5
170
     0
171
     0
290
     0
174
     0
 93
       13
 44
0.0
173
     0
291
     1
 45
0.0
  0
VISUALSTYLE
  5
233
102
{ACAD_REACTORS
330
231
102
}
330
231
100
AcDbVisualStyle
  2
FlatWithEdges
 70
     1
 71
     2
 72
     1
 73
     1
 90
        2
 40
0.6
 41
30.0
 62
     5
 63
     7
421
 16777215
 74
     1
 91
        0
 64
     7
 65
   257
 75
     1
175
     1
 42
1.0
 92
        0
 66
   257
 43
1.0
 76
     1
 77
     6
 78
     2
 67
     7
 79
     5
170
     0
171
     0
290
     0
174
     0
 93
       13
 44
0.0
173
     0
291
     1
 45
0.0
  0
VISUALSTYLE
  5
234
102
{ACAD_REACTORS
330
231
102
}
330
231
100
AcDbVisualStyle
  2
Gouraud
 70
     2
 71
     2
 72
     2
 73
     1
 90
        2
 40
0.6
 41
30.0
 62
     5
 63
     7
421
 16777215
 74
     0
 91
        0
 64
     7
 65
   257
 75
     1
175
     1
 42
1.0
 92
        0
 66
     7
 43
1.0
 76
     1
 77
     6
 78
     2
 67
     7
 79
     5
170
     0
171
     0
290
     0
174
     0
 93
       13
 44
0.0
173
     0
291
     1
 45
0.0
  0
VISUALSTYLE
  5
235
102
{ACAD_REACTORS
330
231
102
}
330
231
100
AcDbVisualStyle
  2
GouraudWithEdges
 70
     3
 71
     2
 72
     2
 73
     1
 90
        2
 40
0.6
 41
30.0
 62
     5
 63
     7
421
 16777215
 74
     1
 91
        0
 64
     7
 65
   257
 75
     1
175
     1
 42
1.0
 92
        0
 66
   257
 43
1.0
 76
     1
 77
     6
 78
     2
 67
     7
 79
     5
170
     0
171
     0
290
     0
174
     0
 93
       13
 44
0.0
173
     0
291
     1
 45
0.0
  0
VISUALSTYLE
  5
238
102
{ACAD_REACTORS
330
231
102
}
330
231
100
AcDbVisualStyle
  2
Hidden
 70
     6
 71
     1
 72
     2
 73
     2
 90
        0
 40
0.6
 41
30.0
 62
     5
 63
     7
421
 16777215
 74
     2
 91
        2
 64
     7
 65
   257
 75
     2
175
     1
 42
40.0
 92
        0
 66
   257
 43
1.0
 76
     1
 77
     6
 78
     2
 67
     7
 79
     3
170
     0
171
     0
290
     0
174
     0
 93
        1
 44
0.0
173
     0
291
     0
 45
0.0
  0
VISUALSTYLE
  5
242
102
{ACAD_REACTORS
330
231
102
}
330
231
100
AcDbVisualStyle
  2
JitterOff
 70
    20
 71
     2
 72
     2
 73
     0
 90
        0
 40
0.6
 41
30.0
 62
     5
 63
     7
421
 16777215
 74
     1
 91
        4
 64
     7
 65
   257
 75
     1
175
     1
 42
1.0
 92
       10
 66
     7
 43
1.0
 76
     1
 77
     6
 78
     2
 67
     7
 79
     5
170
     0
171
     0
290
     0
174
     0
 93
        1
 44
0.0
173
     0
291
     1
 45
0.0
  0
VISUALSTYLE
  5
23F
102
{ACAD_REACTORS
330
231
102
}
330
231
100
AcDbVisualStyle
  2
Linepattern
 70
    14
 71
     2
 72
     2
 73
     0
 90
        0
 40
0.6
 41
30.0
 62
     5
 63
     7
421
 16777215
 74
     1
 91
        4
 64
     7
 65
   257
 75
     7
175
     7
 42
1.0
 92
        8
 66
     7
 43
1.0
 76
     1
 77
     6
 78
     2
 67
     7
 79
     5
170
     0
171
     0
290
     0
174
     0
 93
        1
 44
0.0
173
     0
291
     1
 45
0.0
  0
VISUALSTYLE
  5
243
102
{ACAD_REACTORS
330
231
102
}
330
231
100
AcDbVisualStyle
  2
OverhangOff
 70
    21
 71
     2
 72
     2
 73
     0
 90
        0
 40
0.6
 41
30.0
 62
     5
 63
     7
421
 16777215
 74
     1
 91
        4
 64
     7
 65
   257
 75
     1
175
     1
 42
1.0
 92
        9
 66
     7
 43
1.0
 76
     1
 77
     6
 78
     2
 67
     7
 79
     5
170
     0
171
     0
290
     0
174
     0
 93
        1
 44
0.0
173
     0
291
     1
 45
0.0
  0
VISUALSTYLE
  5
23A
102
{ACAD_REACTORS
330
231
102
}
330
231
100
AcDbVisualStyle
  2
Realistic
 70
     8
 71
     2
 72
     3
 73
     0
 90
        2
 40
0.6
 41
30.0
 62
     5
 63
     7
421
 16777215
 74
     0
 91
        0
 64
     7
 65
   257
 75
     1
175
     1
 42
1.0
 92
        8
 66
   257
 43
1.0
 76
     1
 77
     6
 78
     2
 67
     7
 79
     3
170
     0
171
     0
290
     0
174
     0
 93
       13
 44
0.0
173
     0
291
     0
 45
0.0
  0
VISUALSTYLE
  5
249
102
{ACAD_REACTORS
330
231
102
}
330
231
100
AcDbVisualStyle
  2
Shaded
 70
    27
 71
     2
 72
     2
 73
     1
 90
        2
 40
0.6
 41
30.0
 62
     5
 63
     7
421
 16777215
 74
     0
 91
        4
 64
     7
 65
   257
 75
     1
175
     1
 42
1.0
 92
        8
 66
   257
 43
1.0
 76
     1
 77
     6
 78
     2
 67
     8
425
  7895160
 79
     3
170
     0
171
     0
290
     0
174
     0
 93
        5
 44
0.0
173
     0
291
     0
 45
0.0
  0
VISUALSTYLE
  5
248
102
{ACAD_REACTORS
330
231
102
}
330
231
100
AcDbVisualStyle
  2
Shaded with edges
 70
    26
 71
     2
 72
     2
 73
     1
 90
        2
 40
0.6
 41
30.0
 62
     5
 63
     7
421
 16777215
 74
     1
 91
       10
 64
     7
 65
   257
 75
     2
175
     1
 42
1.0
 92
        8
 66
   257
 43
1.0
 76
     1
 77
     6
 78
     2
 67
     7
 79
     3
170
     0
171
     0
290
     0
174
     0
 93
        5
 44
0.0
173
     0
291
     0
 45
0.0
  0
VISUALSTYLE
  5
245
102
{ACAD_REACTORS
330
231
102
}
330
231
100
AcDbVisualStyle
  2
Shades of Gray
 70
    23
 71
     2
 72
     2
 73
     3
 90
        0
 40
0.6
 41
30.0
 62
     5
 63
     7
421
 16777215
 74
     2
 91
        2
 64
     7
 65
     7
 75
     1
175
     1
 42
40.0
 92
        8
 66
     7
 43
1.0
 76
     1
 77
     6
 78
     2
 67
     7
 79
     3
170
     0
171
     0
290
     0
174
     0
 93
        1
 44
0.0
173
     0
291
     0
 45
0.0
  0
VISUALSTYLE
  5
246
102
{ACAD_REACTORS
330
231
102
}
330
231
100
AcDbVisualStyle
  2
Sketchy
 70
    24
 71
     1
 72
     2
 73
     2
 90
        0
 40
0.6
 41
30.0
 62
     5
 63
     7
421
 16777215
 74
     2
 91
        2
 64
     7
 65
     7
 75
     1
175
     1
 42
40.0
 92
       11
 66
     7
 43
1.0
 76
     1
 77
     6
 78
     2
 67
     7
 79
     6
170
     0
171
     0
290
     0
174
     0
 93
        1
 44
0.0
173
     0
291
     0
 45
0.0
  0
VISUALSTYLE
  5
23E
102
{ACAD_REACTORS
330
231
102
}
330
231
100
AcDbVisualStyle
  2
Thicken
 70
    13
 71
     2
 72
     2
 73
     0
 90
        0
 40
0.6
 41
30.0
 62
     5
 63
     7
421
 16777215
 74
     1
 91
        4
 64
     7
 65
   257
 75
     1
175
     1
 42
1.0
 92
       12
 66
     7
 43
1.0
 76
     1
 77
     6
 78
     2
 67
     7
 79
     5
170
     0
171
     0
290
     0
174
     0
 93
        1
 44
0.0
173
     0
291
     1
 45
0.0
  0
VISUALSTYLE
  5
237
102
{ACAD_REACTORS
330
231
102
}
330
231
100
AcDbVisualStyle
  2
Wireframe
 70
     5
 71
     0
 72
     2
 73
     0
 90
        0
 40
0.6
 41
30.0
 62
     5
 63
     7
421
 16777215
 74
     1
 91
        4
 64
     7
 65
   257
 75
     1
175
     1
 42
1.0
 92
        0
 66
   257
 43
1.0
 76
     1
 77
     6
 78
     2
 67
     7
 79
     3
170
     0
171
     0
290
     0
174
     0
 93
        1
 44
0.0
173
     0
291
     0
 45
0.0
  0
VISUALSTYLE
  5
247
102
{ACAD_REACTORS
330
231
102
}
330
231
100
AcDbVisualStyle
  2
X-Ray
 70
    25
 71
     2
 72
     2
 73
     1
 90
        1
 40
0.5
 41
30.0
 62
     5
 63
     7
421
 16777215
 74
     1
 91
        0
 64
     7
 65
   257
 75
     1
175
     1
 42
1.0
 92
        8
 66
     7
 43
1.0
 76
     1
 77
     6
 78
     2
 67
     7
 79
     3
170
     0
171
     0
290
     0
174
     0
 93
       13
 44
0.0
173
     0
291
     0
 45
0.0
  0
DICTIONARYVAR
  5
254
102
{ACAD_REACTORS
330
253
102
}
330
253
100
DictionaryVariables
280
     0
  1
1:1
  0
DICTIONARYVAR
  5
259
102
{ACAD_REACTORS
330
253
102
}
330
253
100
DictionaryVariables
280
     0
  1
Standard
  0
DICTIONARYVAR
  5
255
102
{ACAD_REACTORS
330
253
102
}
330
253
100
DictionaryVariables
280
     0
  1
0
  0
DICTIONARYVAR
  5
25B
102
{ACAD_REACTORS
330
253
102
}
330
253
100
DictionaryVariables
280
     0
  1
0
  0
DICTIONARYVAR
  5
298
102
{ACAD_REACTORS
330
253
102
}
330
253
100
DictionaryVariables
280
     0
  1
0
  0
DICTIONARY
  5
295
330
24F
100
AcDbDictionary
280
     1
281
     1
  3
ACAD_ROUNDTRIP_2008_TABLESTYLE_CELLSTYLEMAP
360
296
  0
CELLSTYLEMAP
  5
296
102
{ACAD_REACTORS
330
295
102
}
330
295
100
AcDbCellStyleMap
 90
        3
300
CELLSTYLE
  1
TABLEFORMAT_BEGIN
 90
        5
170
     1
 91
        0
 92
        0
 62
   257
 93
        1
300
CONTENTFORMAT
  1
CONTENTFORMAT_BEGIN
 90
        0
 91
        0
 92
        4
 93
        0
300

 40
0.0
140
1.0
 94
        5
 62
     0
340
17
144
6.0
309
CONTENTFORMAT_END
171
     1
301
MARGIN
  1
CELLMARGIN_BEGIN
 40
1.5
 40
1.5
 40
1.5
 40
1.5
 40
1.5
 40
1.5
309
CELLMARGIN_END
 94
        6
 95
        1
302
GRIDFORMAT
  1
GRIDFORMAT_BEGIN
 90
        0
 91
        1
 62
     0
 92
       -2
340
11
 93
        0
 40
0.045
309
GRIDFORMAT_END
 95
        2
302
GRIDFORMAT
  1
GRIDFORMAT_BEGIN
 90
        0
 91
        1
 62
     0
 92
       -2
340
11
 93
        0
 40
0.045
309
GRIDFORMAT_END
 95
        4
302
GRIDFORMAT
  1
GRIDFORMAT_BEGIN
 90
        0
 91
        1
 62
     0
 92
       -2
340
11
 93
        0
 40
0.045
309
GRIDFORMAT_END
 95
        8
302
GRIDFORMAT
  1
GRIDFORMAT_BEGIN
 90
        0
 91
        1
 62
     0
 92
       -2
340
11
 93
        0
 40
0.045
309
GRIDFORMAT_END
 95
       16
302
GRIDFORMAT
  1
GRIDFORMAT_BEGIN
 90
        0
 91
        1
 62
     0
 92
       -2
340
11
 93
        0
 40
0.045
309
GRIDFORMAT_END
 95
       32
302
GRIDFORMAT
  1
GRIDFORMAT_BEGIN
 90
        0
 91
        1
 62
     0
 92
       -2
340
11
 93
        0
 40
0.045
309
GRIDFORMAT_END
309
TABLEFORMAT_END
  1
CELLSTYLE_BEGIN
 90
        1
 91
        1
300
_TITLE
309
CELLSTYLE_END
300
CELLSTYLE
  1
TABLEFORMAT_BEGIN
 90
        5
170
     1
 91
        0
 92
        0
 62
   257
 93
        1
300
CONTENTFORMAT
  1
CONTENTFORMAT_BEGIN
 90
        0
 91
        0
 92
        4
 93
        0
300

 40
0.0
140
1.0
 94
        5
 62
     0
340
17
144
4.5
309
CONTENTFORMAT_END
171
     1
301
MARGIN
  1
CELLMARGIN_BEGIN
 40
1.5
 40
1.5
 40
1.5
 40
1.5
 40
1.5
 40
1.5
309
CELLMARGIN_END
 94
        6
 95
        1
302
GRIDFORMAT
  1
GRIDFORMAT_BEGIN
 90
        0
 91
        1
 62
     0
 92
       -2
340
11
 93
        0
 40
0.045
309
GRIDFORMAT_END
 95
        2
302
GRIDFORMAT
  1
GRIDFORMAT_BEGIN
 90
        0
 91
        1
 62
     0
 92
       -2
340
11
 93
        0
 40
0.045
309
GRIDFORMAT_END
 95
        4
302
GRIDFORMAT
  1
GRIDFORMAT_BEGIN
 90
        0
 91
        1
 62
     0
 92
       -2
340
11
 93
        0
 40
0.045
309
GRIDFORMAT_END
 95
        8
302
GRIDFORMAT
  1
GRIDFORMAT_BEGIN
 90
        0
 91
        1
 62
     0
 92
       -2
340
11
 93
        0
 40
0.045
309
GRIDFORMAT_END
 95
       16
302
GRIDFORMAT
  1
GRIDFORMAT_BEGIN
 90
        0
 91
        1
 62
     0
 92
       -2
340
11
 93
        0
 40
0.045
309
GRIDFORMAT_END
 95
       32
302
GRIDFORMAT
  1
GRIDFORMAT_BEGIN
 90
        0
 91
        1
 62
     0
 92
       -2
340
11
 93
        0
 40
0.045
309
GRIDFORMAT_END
309
TABLEFORMAT_END
  1
CELLSTYLE_BEGIN
 90
        2
 91
        1
300
_HEADER
309
CELLSTYLE_END
300
CELLSTYLE
  1
TABLEFORMAT_BEGIN
 90
        5
170
     1
 91
        0
 92
        0
 62
   257
 93
        1
300
CONTENTFORMAT
  1
CONTENTFORMAT_BEGIN
 90
        0
 91
        0
 92
        4
 93
        0
300

 40
0.0
140
1.0
 94
        2
 62
     0
340
17
144
4.5
309
CONTENTFORMAT_END
171
     1
301
MARGIN
  1
CELLMARGIN_BEGIN
 40
1.5
 40
1.5
 40
1.5
 40
1.5
 40
1.5
 40
1.5
309
CELLMARGIN_END
 94
        6
 95
        1
302
GRIDFORMAT
  1
GRIDFORMAT_BEGIN
 90
        0
 91
        1
 62
     0
 92
       -2
340
11
 93
        0
 40
0.045
309
GRIDFORMAT_END
 95
        2
302
GRIDFORMAT
  1
GRIDFORMAT_BEGIN
 90
        0
 91
        1
 62
     0
 92
       -2
340
11
 93
        0
 40
0.045
309
GRIDFORMAT_END
 95
        4
302
GRIDFORMAT
  1
GRIDFORMAT_BEGIN
 90
        0
 91
        1
 62
     0
 92
       -2
340
11
 93
        0
 40
0.045
309
GRIDFORMAT_END
 95
        8
302
GRIDFORMAT
  1
GRIDFORMAT_BEGIN
 90
        0
 91
        1
 62
     0
 92
       -2
340
11
 93
        0
 40
0.045
309
GRIDFORMAT_END
 95
       16
302
GRIDFORMAT
  1
GRIDFORMAT_BEGIN
 90
        0
 91
        1
 62
     0
 92
       -2
340
11
 93
        0
 40
0.045
309
GRIDFORMAT_END
 95
       32
302
GRIDFORMAT
  1
GRIDFORMAT_BEGIN
 90
        0
 91
        1
 62
     0
 92
       -2
340
11
 93
        0
 40
0.045
309
GRIDFORMAT_END
309
TABLEFORMAT_END
  1
CELLSTYLE_BEGIN
 90
        3
 91
        2
300
_DATA
309
CELLSTYLE_END
  0
ENDSEC
  0
EOF
