  0
SECTION
  2
HEADER
  9
$ACADVER
  1
AC1015
  9
$ACADMAINTVER
 70
               6
  9
$DWGCODEPAGE
  3
ANSI_932
  9
$INSBASE
 10
0.0
 20
0.0
 30
0.0
  9
$EXTMIN
 10
509.72892457466992
 20
-350.2367258313925
 30
-14.851944444444445
  9
$EXTMAX
 10
2609.7289245746697
 20
2619.7632741686075
 30
14.851944444444445
  9
$LIMMIN
 10
0.0
 20
0.0
  9
$LIMMAX
 10
0.0
 20
0.0
  9
$ORTHOMODE
 70
               0
  9
$REGENMODE
 70
               1
  9
$FILLMODE
 70
               1
  9
$QTEXTMODE
 70
               0
  9
$MIRRTEXT
 70
               1
  9
$LTSCALE
 40
50.799999999999997
  9
$ATTMODE
 70
               1
  9
$TEXTSIZE
 40
0.2
  9
$TRACEWID
 40
1.0
  9
$TEXTSTYLE
  7
Standard
  9
$CLAYER
  8
notes
  9
$CELTYPE
  6
Continuous
  9
$CECOLOR
 62
             256
  9
$CELTSCALE
 40
1.0
  9
$DISPSILH
 70
               0
  9
$DIMSCALE
 40
1.0
  9
$DIMASZ
 40
31.75
  9
$DIMEXO
 40
0.0
  9
$DIMDLI
 40
6.9999999999999396
  9
$DIMRND
 40
0.0
  9
$DIMDLE
 40
0.0
  9
$DIMEXE
 40
19.999999999996199
  9
$DIMTP
 40
0.0
  9
$DIMTM
 40
0.0
  9
$DIMTXT
 40
24.432617187500004
  9
$DIMCEN
 40
0.0
  9
$DIMTSZ
 40
0.0
  9
$DIMTOL
 70
               0
  9
$DIMLIM
 70
               0
  9
$DIMTIH
 70
               0
  9
$DIMTOH
 70
               0
  9
$DIMSE1
 70
               0
  9
$DIMSE2
 70
               0
  9
$DIMTAD
 70
               1
  9
$DIMZIN
 70
              11
  9
$DIMBLK
  1
VW_FILLEDARROW
  9
$DIMASO
 70
               1
  9
$DIMSHO
 70
               1
  9
$DIMPOST
  1
<>
  9
$DIMAPOST
  1
[]
  9
$DIMALT
 70
               0
  9
$DIMALTD
 70
               3
  9
$DIMALTF
 40
0.0393700787401575
  9
$DIMLFAC
 40
1.0
  9
$DIMTOFL
 70
               0
  9
$DIMTVP
 40
0.0
  9
$DIMTIX
 70
               1
  9
$DIMSOXD
 70
               0
  9
$DIMSAH
 70
               0
  9
$DIMBLK1
  1

  9
$DIMBLK2
  1

  9
$DIMSTYLE
  2
JIS
  9
$DIMCLRD
 70
               0
  9
$DIMCLRE
 70
               0
  9
$DIMCLRT
 70
               0
  9
$DIMTFAC
 40
1.0
  9
$DIMGAP
 40
1.00000000000108
  9
$DIMJUST
 70
               0
  9
$DIMSD1
 70
               0
  9
$DIMSD2
 70
               0
  9
$DIMTOLJ
 70
               1
  9
$DIMTZIN
 70
              11
  9
$DIMALTZ
 70
              15
  9
$DIMALTTZ
 70
              15
  9
$DIMUPT
 70
               0
  9
$DIMDEC
 70
               1
  9
$DIMTDEC
 70
               1
  9
$DIMALTU
 70
               4
  9
$DIMALTTD
 70
               2
  9
$DIMTXSTY
  7
ＭＳ ゴシック
  9
$DIMAUNIT
 70
               0
  9
$DIMADEC
 70
               2
  9
$DIMALTRND
 40
0.0
  9
$DIMAZIN
 70
               0
  9
$DIMDSEP
 70
              46
  9
$DIMATFIT
 70
               0
  9
$DIMFRAC
 70
               2
  9
$DIMLDRBLK
  1

  9
$DIMLUNIT
 70
               2
  9
$DIMLWD
 70
              -2
  9
$DIMLWE
 70
              -2
  9
$DIMTMOVE
 70
               0
  9
$LUNITS
 70
               2
  9
$LUPREC
 70
               4
  9
$SKETCHINC
 40
0.1
  9
$FILLETRAD
 40
0.0
  9
$AUNITS
 70
               0
  9
$AUPREC
 70
               0
  9
$MENU
  1
acad
  9
$ELEVATION
 40
0.0
  9
$PELEVATION
 40
0.0
  9
$THICKNESS
 40
0.0
  9
$LIMCHECK
 70
               0
  9
$CHAMFERA
 40
0.0
  9
$CHAMFERB
 40
0.0
  9
$CHAMFERC
 40
0.0
  9
$CHAMFERD
 40
0.0
  9
$SKPOLY
 70
               0
  9
$TDCREATE
 40
2455951.453414352
  9
$TDUCREATE
 40
0.000000000
  9
$TDUPDATE
 40
2455951.453414352
  9
$TDUUPDATE
 40
0.000000000
  9
$TDINDWG
 40
0.0000000000
  9
$TDUSRTIMER
 40
0.0000000000
  9
$USRTIMER
 70
               1
  9
$ANGBASE
 50
0.0
  9
$ANGDIR
 70
               0
  9
$PDMODE
 70
               1
  9
$PDSIZE
 40
-2.0
  9
$PLINEWID
 40
0.0
  9
$SPLFRAME
 70
               0
  9
$SPLINETYPE
 70
               6
  9
$SPLINESEGS
 70
               8
  9
$HANDSEED
  5
220
  9
$SURFTAB1
 70
               6
  9
$SURFTAB2
 70
               6
  9
$SURFTYPE
 70
               6
  9
$SURFU
 70
               6
  9
$SURFV
 70
               6
  9
$UCSBASE
  2

  9
$UCSNAME
  2

  9
$UCSORG
 10
0.0
 20
0.0
 30
0.0
  9
$UCSXDIR
 10
1.0
 20
0.0
 30
0.0
  9
$UCSYDIR
 10
0.0
 20
1.0
 30
0.0
  9
$UCSORTHOREF
  2

  9
$UCSORTHOVIEW
 70
               0
  9
$UCSORGTOP
 10
0.0
 20
0.0
 30
0.0
  9
$UCSORGBOTTOM
 10
0.0
 20
0.0
 30
0.0
  9
$UCSORGLEFT
 10
0.0
 20
0.0
 30
0.0
  9
$UCSORGRIGHT
 10
0.0
 20
0.0
 30
0.0
  9
$UCSORGFRONT
 10
0.0
 20
0.0
 30
0.0
  9
$UCSORGBACK
 10
0.0
 20
0.0
 30
0.0
  9
$PUCSBASE
  2

  9
$PUCSNAME
  2

  9
$PUCSORG
 10
0.0
 20
0.0
 30
0.0
  9
$PUCSXDIR
 10
1.0
 20
0.0
 30
0.0
  9
$PUCSYDIR
 10
0.0
 20
1.0
 30
0.0
  9
$PUCSORTHOREF
  2

  9
$PUCSORTHOVIEW
 70
               0
  9
$PUCSORGTOP
 10
0.0
 20
0.0
 30
0.0
  9
$PUCSORGBOTTOM
 10
0.0
 20
0.0
 30
0.0
  9
$PUCSORGLEFT
 10
0.0
 20
0.0
 30
0.0
  9
$PUCSORGRIGHT
 10
0.0
 20
0.0
 30
0.0
  9
$PUCSORGFRONT
 10
0.0
 20
0.0
 30
0.0
  9
$PUCSORGBACK
 10
0.0
 20
0.0
 30
0.0
  9
$USERI1
 70
               0
  9
$USERI2
 70
               0
  9
$USERI3
 70
               0
  9
$USERI4
 70
               0
  9
$USERI5
 70
               0
  9
$USERR1
 40
0.0
  9
$USERR2
 40
0.0
  9
$USERR3
 40
0.0
  9
$USERR4
 40
0.0
  9
$USERR5
 40
0.0
  9
$WORLDVIEW
 70
               1
  9
$SHADEDGE
 70
               3
  9
$SHADEDIF
 70
              70
  9
$TILEMODE
 70
               1
  9
$MAXACTVP
 70
              64
  9
$PINSBASE
 10
0.0
 20
0.0
 30
0.0
  9
$PLIMCHECK
 70
               0
  9
$PEXTMIN
 10
1.0000000000000000E+20
 20
1.0000000000000000E+20
 30
1.0000000000000000E+20
  9
$PEXTMAX
 10
-1.0000000000000000E+20
 20
-1.0000000000000000E+20
 30
-1.0000000000000000E+20
  9
$PLIMMIN
 10
0.0
 20
0.0
  9
$PLIMMAX
 10
12.0
 20
9.0
  9
$UNITMODE
 70
               0
  9
$VISRETAIN
 70
               0
  9
$PLINEGEN
 70
               1
  9
$PSLTSCALE
 70
               0
  9
$TREEDEPTH
 70
            3020
  9
$CMLSTYLE
  2
Standard
  9
$CMLJUST
 70
               0
  9
$CMLSCALE
 40
1.0
  9
$PROXYGRAPHICS
 70
               0
  9
$MEASUREMENT
 70
               1
  9
$CELWEIGHT
370
               0
  9
$ENDCAPS
280
               0
  9
$JOINSTYLE
280
               0
  9
$LWDISPLAY
290
               1
  9
$INSUNITS
 70
               4
  9
$HYPERLINKBASE
  1

  9
$STYLESHEET
  1

  9
$XEDIT
290
               1
  9
$CEPSNTYPE
380
               0
  9
$PSTYLEMODE
290
               1
  9
$FINGERPRINTGUID
  2

  9
$VERSIONGUID
  2

  9
$EXTNAMES
290
               1
  9
$PSVPSCALE
 40
0.0
  0
ENDSEC
  0
SECTION
  2
CLASSES
  0
CLASS
  1
LWPOLYLINE
  2
AcDbPolyline
  3
AutoCAD 2000
 90
        0
280
               0
281
               1
  0
CLASS
  1
IMAGE
  2
AcDbRasterImage
  3
ISM
 90
      127
280
               0
281
               1
  0
CLASS
  1
OLE2FRAME
  2
AcDbOle2Frame
  3
AutoCAD 2000
 90
        0
280
               0
281
               1
  0
CLASS
  1
HATCH
  2
AcDbHatch
  3
AutoCAD 2000
 90
        0
280
               0
281
               1
  0
CLASS
  1
DICTIONARYVAR
  2
AcDbDictionaryVar
  3
AutoCAD 2000
 90
        0
280
               0
281
               0
  0
CLASS
  1
RASTERVARIABLES
  2
AcDbRasterVariables
  3
ISM
 90
        0
280
               0
281
               0
  0
CLASS
  1
IMAGEDEF
  2
AcDbRasterImageDef
  3
ISM
 90
        0
280
               0
281
               0
  0
CLASS
  1
IMAGEDEF_REACTOR
  2
AcDbRasterImageDefReactor
  3
ISM
 90
        1
280
               0
281
               0
  0
CLASS
  1
IDBUFFER
  2
AcDbIdBuffer
  3
AutoCAD 2000
 90
        0
280
               0
281
               0
  0
CLASS
  1
SPATIAL_FILTER
  2
AcDbSpatialFilter
  3
AutoCAD 2000
 90
        0
280
               0
281
               0
  0
CLASS
  1
XRECORD
  2
AcDbXrecord
  3
AutoCAD 2000
 90
        0
280
               0
281
               0
  0
CLASS
  1
SORTENTSTABLE
  2
AcDbSortentsTable
  3
AutoCAD 2000
 90
        0
280
               0
281
               0
  0
CLASS
  1
LAYER_INDEX
  2
AcDbLayerIndex
  3
AutoCAD 2000
 90
        0
280
               0
281
               0
  0
CLASS
  1
SPATIAL_INDEX
  2
AcDbSpatialIndex
  3
AutoCAD 2000
 90
        0
280
               0
281
               0
  0
CLASS
  1
OBJECT_PTR
  2
CAseDLPNTableRecord
  3
"ASE-LPNTableRecord"
 90
        1
280
               0
281
               0
  0
CLASS
  1
LAYOUT
  2
AcDbLayout
  3
AutoCAD 2000
 90
        0
280
               0
281
               0
  0
CLASS
  1
PLOTSETTINGS
  2
AcDbPlotSettings
  3
AutoCAD 2000
 90
        0
280
               0
281
               0
  0
CLASS
  1
ACDBDICTIONARYWDFLT
  2
AcDbDictionaryWithDefault
  3
AutoCAD 2000
 90
        0
280
               0
281
               0
  0
CLASS
  1
ACDBPLACEHOLDER
  2
AcDbPlaceHolder
  3
AutoCAD 2000
 90
        0
280
               0
281
               0
  0
ENDSEC
  0
SECTION
  2
TABLES
  0
TABLE
  2
VPORT
  5
7
100
AcDbSymbolTable
 70
               1
  0
VPORT
  5
15
100
AcDbSymbolTableRecord
100
AcDbViewportTableRecord
  2
*ACTIVE
 70
               0
 10
0.0
 20
0.0
 11
1.0
 21
1.0
 12
1559.7289245746699
 22
1134.7632741686075
 13
0.0
 23
0.0
 14
1.0
 24
1.0
 15
0.0
 25
0.0
 16
0.0
 26
0.0
 36
1.0
 17
0.0
 27
0.0
 37
0.0
 40
2970.0
 41
0.688564
 42
50.0
 43
0.0
 44
0.0
 50
0.0
 51
0.0
 71
               0
 72
            2000
 73
               1
 74
               1
 75
               0
 76
               0
 77
               0
 78
               0
281
               0
 65
               0
110
0.0
120
0.0
130
0.0
111
1.0
121
0.0
131
0.0
112
0.0
122
1.0
132
0.0
345
0
346
0
 79
               0
146
0.0
  0
ENDTAB
  0
TABLE
  2
LTYPE
  5
4
100
AcDbSymbolTable
 70
              14
  0
LTYPE
  5
11
100
AcDbSymbolTableRecord
100
AcDbLinetypeTableRecord
  2
ByBlock
 70
              64
  3

 72
              65
 73
               0
 40
0.0
  0
LTYPE
  5
12
100
AcDbSymbolTableRecord
100
AcDbLinetypeTableRecord
  2
ByLayer
 70
              64
  3

 72
              65
 73
               0
 40
0.0
  0
LTYPE
  5
13
100
AcDbSymbolTableRecord
100
AcDbLinetypeTableRecord
  2
Continuous
 70
              64
  3
Solid line
 72
              65
 73
               0
 40
0.0
  0
LTYPE
  5
3B
100
AcDbSymbolTableRecord
100
AcDbLinetypeTableRecord
  2
STYLE_01
 70
               0
  3

 72
              65
 73
               2
 40
0.1476377952755905
 49
0.1181102362204724
 74
               0
 49
-0.0295275590551181
 74
               0
  0
LTYPE
  5
3C
100
AcDbSymbolTableRecord
100
AcDbLinetypeTableRecord
  2
STYLE_02
 70
               0
  3

 72
              65
 73
               2
 40
0.6944250000000001
 49
0.48607
 74
               0
 49
-0.2083550000000001
 74
               0
  0
LTYPE
  5
3D
100
AcDbSymbolTableRecord
100
AcDbLinetypeTableRecord
  2
STYLE_03
 70
               0
  3

 72
              65
 73
               2
 40
1.25
 49
1.0416400000000001
 74
               0
 49
-0.2083599999999999
 74
               0
  0
LTYPE
  5
3E
100
AcDbSymbolTableRecord
100
AcDbLinetypeTableRecord
  2
STYLE_04
 70
               0
  3

 72
              65
 73
               2
 40
1.5277099999999999
 49
1.3194249999999998
 74
               0
 49
-0.208285
 74
               0
  0
LTYPE
  5
3F
100
AcDbSymbolTableRecord
100
AcDbLinetypeTableRecord
  2
STYLE_05
 70
               0
  3

 72
              65
 73
               2
 40
0.20828
 49
0.069425
 74
               0
 49
-0.138855
 74
               0
  0
LTYPE
  5
40
100
AcDbSymbolTableRecord
100
AcDbLinetypeTableRecord
  2
STYLE_06
 70
               0
  3

 72
              65
 73
               4
 40
1.0416400000000001
 49
0.625
 74
               0
 49
-0.20828
 74
               0
 49
0.06943
 74
               0
 49
-0.13893
 74
               0
  0
LTYPE
  5
41
100
AcDbSymbolTableRecord
100
AcDbLinetypeTableRecord
  2
STYLE_07
 70
               0
  3

 72
              65
 73
               6
 40
1.875
 49
0.625
 74
               0
 49
-0.20828
 74
               0
 49
0.6250000000000001
 74
               0
 49
-0.2083599999999999
 74
               0
 49
0.06943
 74
               0
 49
-0.1389299999999999
 74
               0
  0
LTYPE
  5
42
100
AcDbSymbolTableRecord
100
AcDbLinetypeTableRecord
  2
STYLE_08
 70
               0
  3

 72
              65
 73
               6
 40
1.25
 49
0.625
 74
               0
 49
-0.20828
 74
               0
 49
0.06943
 74
               0
 49
-0.13893
 74
               0
 49
0.0694299999999999
 74
               0
 49
-0.13893
 74
               0
  0
LTYPE
  5
43
100
AcDbSymbolTableRecord
100
AcDbLinetypeTableRecord
  2
STYLE_09
 70
               0
  3

 72
              65
 73
               4
 40
5.0
 49
3.75
 74
               0
 49
-0.2777849999999998
 74
               0
 49
0.6944300000000003
 74
               0
 49
-0.2777849999999998
 74
               0
  0
LTYPE
  5
44
100
AcDbSymbolTableRecord
100
AcDbLinetypeTableRecord
  2
STYLE_10
 70
               0
  3

 72
              65
 73
               6
 40
5.9375
 49
3.75
 74
               0
 49
-0.2777849999999998
 74
               0
 49
0.6944300000000003
 74
               0
 49
-0.2777849999999998
 74
               0
 49
0.625
 74
               0
 49
-0.3125
 74
               0
  0
LTYPE
  5
45
100
AcDbSymbolTableRecord
100
AcDbLinetypeTableRecord
  2
STYLE_11
 70
               0
  3

 72
              65
 73
               2
 40
0.3937007874015748
 49
0.1968503937007874
 74
               0
 49
-0.1968503937007874
 74
               0
  0
ENDTAB
  0
TABLE
  2
LAYER
  5
2
100
AcDbSymbolTable
 70
               5
  0
LAYER
  5
14
100
AcDbSymbolTableRecord
100
AcDbLayerTableRecord
  2
0
 70
               0
 62
               7
  6
Continuous
290
               1
370
              -3
390
1D
  0
LAYER
  5
46
100
AcDbSymbolTableRecord
100
AcDbLayerTableRecord
  2
Defpoints
 70
               0
 62
               7
  6
Continuous
290
               0
370
              -3
390
1D
  0
LAYER
  5
47
100
AcDbSymbolTableRecord
100
AcDbLayerTableRecord
  2
template
 70
               0
 62
               7
  6
Continuous
290
               1
370
              -3
390
1D
  0
LAYER
  5
48
100
AcDbSymbolTableRecord
100
AcDbLayerTableRecord
  2
notes
 70
               0
 62
               7
  6
Continuous
290
               1
370
              -3
390
1D
  0
LAYER
  5
49
100
AcDbSymbolTableRecord
100
AcDbLayerTableRecord
  2
ARJ70-1401
 70
               0
 62
               7
  6
Continuous
290
               1
370
              -3
390
1D
  0
ENDTAB
  0
TABLE
  2
STYLE
  5
3
100
AcDbSymbolTable
 70
               2
  0
STYLE
  5
17
100
AcDbSymbolTableRecord
100
AcDbTextStyleTableRecord
  2
Standard
 70
               0
 40
0.0
 41
1.0
 50
0.0
 71
               0
 42
0.0
  3
txt
  4
BIGFONT.SHX
  0
STYLE
  5
3A
100
AcDbSymbolTableRecord
100
AcDbTextStyleTableRecord
  2
ＭＳ ゴシック
 70
               0
 40
0.0
 41
1.0
 50
0.0
 71
               0
 42
0.0
  3

  4
ＭＳ ゴシック
1001
ACAD
1000
ＭＳ ゴシック
1071
        0
  0
ENDTAB
  0
TABLE
  2
VIEW
  5
5
100
AcDbSymbolTable
 70
               0
  0
ENDTAB
  0
TABLE
  2
UCS
  5
6
100
AcDbSymbolTable
 70
               0
  0
ENDTAB
  0
TABLE
  2
APPID
  5
8
100
AcDbSymbolTable
 70
               1
  0
APPID
  5
16
100
AcDbSymbolTableRecord
100
AcDbRegAppTableRecord
  2
ACAD
 70
               0
  0
ENDTAB
  0
TABLE
  2
DIMSTYLE
  5
9
100
AcDbSymbolTable
 70
               3
100
AcDbDimStyleTable
 71
               0
  0
DIMSTYLE
105
18
100
AcDbSymbolTableRecord
100
AcDbDimStyleTableRecord
  2
Standard
 70
               0
  3

  4

 40
1.0
 41
0.18
 42
0.0625
 43
0.38
 44
0.18
 45
0.0
 46
0.0
 47
0.0
 48
0.0
 71
               0
 72
               0
 73
               1
 74
               1
 75
               0
 76
               0
 77
               0
 78
               0
 79
               0
140
0.18
141
0.09
142
0.0
143
25.399999999999999
144
1.0
145
0.0
146
1.0
147
0.09
148
0.0
170
               0
171
               2
172
               0
173
               0
174
               0
175
               0
176
               0
177
               0
178
               0
179
               0
271
               4
272
               4
273
               2
274
               2
275
               0
276
               0
277
               2
278
              46
279
               0
280
               0
281
               0
282
               0
283
               1
284
               0
285
               0
286
               0
288
               0
289
               3
340
17
341
0
342
0
343
0
344
0
371
              -2
372
              -2
  0
DIMSTYLE
105
52
100
AcDbSymbolTableRecord
100
AcDbDimStyleTableRecord
  2
tform線あり
 70
               0
  3
<>
  4
[]
 40
1.0
 41
3.999755859375
 42
24.999999999999996
 43
0.9999999999999999
 44
0.0
 45
0.0
 46
0.0
 47
0.0
 48
0.0
 71
               0
 72
               0
 73
               0
 74
               0
 75
               0
 76
               0
 77
               1
 78
              11
 79
               0
140
24.432617187500004
141
0.0
142
0.0
143
0.0393700787401575
144
1.0
145
0.0
146
1.0
147
0.4999999999999999
148
0.0
170
               0
171
               3
172
               0
173
               0
174
               1
175
               0
176
               0
177
               0
178
               0
179
               2
271
               1
272
               1
273
               4
274
               2
275
               0
276
               2
277
               2
278
              46
279
               0
280
               0
281
               0
282
               0
283
               1
284
              11
285
              15
286
              15
288
               0
289
               0
340
3A
341
4A
342
4A
343
0
344
0
371
              -2
372
              -2
  0
DIMSTYLE
105
57
100
AcDbSymbolTableRecord
100
AcDbDimStyleTableRecord
  2
JIS
 70
               0
  3
<>
  4
[]
 40
1.0
 41
31.75
 42
0.0
 43
6.9999999999999396
 44
19.999999999996199
 45
0.0
 46
0.0
 47
0.0
 48
0.0
 71
               0
 72
               0
 73
               0
 74
               0
 75
               0
 76
               0
 77
               1
 78
              11
 79
               0
140
24.432617187500004
141
0.0
142
0.0
143
0.0393700787401575
144
1.0
145
0.0
146
1.0
147
1.00000000000108
148
0.0
170
               0
171
               3
172
               0
173
               0
174
               1
175
               0
176
               0
177
               0
178
               0
179
               2
271
               1
272
               1
273
               4
274
               2
275
               0
276
               2
277
               2
278
              46
279
               0
280
               0
281
               0
282
               0
283
               1
284
              11
285
              15
286
              15
288
               0
289
               0
340
3A
341
53
342
53
343
0
344
0
371
              -2
372
              -2
  0
ENDTAB
  0
TABLE
  2
BLOCK_RECORD
  5
1
100
AcDbSymbolTable
 70
              25
  0
BLOCK_RECORD
  5
A
100
AcDbSymbolTableRecord
100
AcDbBlockTableRecord
  2
*MODEL_SPACE
340
20
  0
BLOCK_RECORD
  5
B
100
AcDbSymbolTableRecord
100
AcDbBlockTableRecord
  2
*PAPER_SPACE
340
21
  0
BLOCK_RECORD
  5
4A
100
AcDbSymbolTableRecord
100
AcDbBlockTableRecord
  2
_DOT
340
0
  0
BLOCK_RECORD
  5
53
100
AcDbSymbolTableRecord
100
AcDbBlockTableRecord
  2
VW_FILLEDARROW
340
0
  0
BLOCK_RECORD
  5
23
100
AcDbSymbolTableRecord
100
AcDbBlockTableRecord
  2
グループ
340
0
102
{BLKREFS
331
186
102
}
  0
BLOCK_RECORD
  5
24
100
AcDbSymbolTableRecord
100
AcDbBlockTableRecord
  2
*D3
340
0
  0
BLOCK_RECORD
  5
25
100
AcDbSymbolTableRecord
100
AcDbBlockTableRecord
  2
*D4
340
0
  0
BLOCK_RECORD
  5
26
100
AcDbSymbolTableRecord
100
AcDbBlockTableRecord
  2
*D5
340
0
  0
BLOCK_RECORD
  5
27
100
AcDbSymbolTableRecord
100
AcDbBlockTableRecord
  2
*D6
340
0
  0
BLOCK_RECORD
  5
28
100
AcDbSymbolTableRecord
100
AcDbBlockTableRecord
  2
*D7
340
0
  0
BLOCK_RECORD
  5
29
100
AcDbSymbolTableRecord
100
AcDbBlockTableRecord
  2
*D8
340
0
  0
BLOCK_RECORD
  5
2A
100
AcDbSymbolTableRecord
100
AcDbBlockTableRecord
  2
*D9
340
0
  0
BLOCK_RECORD
  5
2B
100
AcDbSymbolTableRecord
100
AcDbBlockTableRecord
  2
*D10
340
0
  0
BLOCK_RECORD
  5
2C
100
AcDbSymbolTableRecord
100
AcDbBlockTableRecord
  2
*D11
340
0
  0
BLOCK_RECORD
  5
2D
100
AcDbSymbolTableRecord
100
AcDbBlockTableRecord
  2
*D12
340
0
  0
BLOCK_RECORD
  5
2E
100
AcDbSymbolTableRecord
100
AcDbBlockTableRecord
  2
*D13
340
0
  0
BLOCK_RECORD
  5
2F
100
AcDbSymbolTableRecord
100
AcDbBlockTableRecord
  2
*D14
340
0
  0
BLOCK_RECORD
  5
30
100
AcDbSymbolTableRecord
100
AcDbBlockTableRecord
  2
*D15
340
0
  0
BLOCK_RECORD
  5
31
100
AcDbSymbolTableRecord
100
AcDbBlockTableRecord
  2
*D16
340
0
  0
BLOCK_RECORD
  5
32
100
AcDbSymbolTableRecord
100
AcDbBlockTableRecord
  2
*D17
340
0
  0
BLOCK_RECORD
  5
33
100
AcDbSymbolTableRecord
100
AcDbBlockTableRecord
  2
*D18
340
0
  0
BLOCK_RECORD
  5
34
100
AcDbSymbolTableRecord
100
AcDbBlockTableRecord
  2
*D19
340
0
  0
BLOCK_RECORD
  5
35
100
AcDbSymbolTableRecord
100
AcDbBlockTableRecord
  2
*D20
340
0
  0
BLOCK_RECORD
  5
36
100
AcDbSymbolTableRecord
100
AcDbBlockTableRecord
  2
*D21
340
0
  0
BLOCK_RECORD
  5
37
100
AcDbSymbolTableRecord
100
AcDbBlockTableRecord
  2
*D22
340
0
  0
BLOCK_RECORD
  5
38
100
AcDbSymbolTableRecord
100
AcDbBlockTableRecord
  2
*D23
340
0
  0
BLOCK_RECORD
  5
39
100
AcDbSymbolTableRecord
100
AcDbBlockTableRecord
  2
*D24
340
0
  0
ENDTAB
  0
ENDSEC
  0
SECTION
  2
BLOCKS
  0
BLOCK
  5
D
100
AcDbEntity
  8
0
390
0
100
AcDbBlockBegin
  2
*MODEL_SPACE
 70
               0
 10
0.0
 20
0.0
 30
0.0
  3
*MODEL_SPACE
  1

  0
ENDBLK
  5
E
100
AcDbEntity
  8
0
390
0
100
AcDbBlockEnd
  0
BLOCK
  5
F
100
AcDbEntity
 67
               1
  8
0
390
0
100
AcDbBlockBegin
  2
*PAPER_SPACE
 70
               0
 10
0.0
 20
0.0
 30
0.0
  3
*PAPER_SPACE
  1

  0
ENDBLK
  5
10
100
AcDbEntity
 67
               1
  8
0
390
0
100
AcDbBlockEnd
  0
BLOCK
  5
4B
100
AcDbEntity
  8
0
390
0
100
AcDbBlockBegin
  2
_DOT
 70
               0
 10
0.0
 20
0.0
 30
0.0
  3
_DOT
  1

  0
POLYLINE
  5
4C
100
AcDbEntity
  8
0
370
              -2
390
0
  6
ByBlock
 62
               0
100
AcDb2dPolyline
 66
               1
 10
0.0
 20
0.0
 30
0.0
 70
               1
 40
0.5
 41
0.5
  0
VERTEX
  5
4D
100
AcDbEntity
  8
0
370
              -2
390
0
  6
ByBlock
 62
               0
100
AcDbVertex
100
AcDb2dVertex
 10
-0.25
 20
0.0
 30
0.0
 42
1.0
  0
VERTEX
  5
4E
100
AcDbEntity
  8
0
370
              -2
390
0
  6
ByBlock
 62
               0
100
AcDbVertex
100
AcDb2dVertex
 10
0.25
 20
0.0
 30
0.0
 42
1.0
  0
SEQEND
  5
4F
100
AcDbEntity
  8
0
390
0
  0
LINE
  5
50
100
AcDbEntity
  8
0
370
              -2
390
0
  6
ByBlock
 62
               0
100
AcDbLine
 10
-0.5
 20
0.0
 30
0.0
 11
-1.0
 21
0.0
 31
0.0
  0
ENDBLK
  5
51
100
AcDbEntity
  8
0
390
0
100
AcDbBlockEnd
  0
BLOCK
  5
54
100
AcDbEntity
  8
0
370
              -2
390
0
  6
ByBlock
 62
               0
100
AcDbBlockBegin
  2
VW_FILLEDARROW
 70
               0
 10
0.0
 20
0.0
 30
0.0
  3
VW_FILLEDARROW
  1

  0
SOLID
  5
55
100
AcDbEntity
  8
0
370
              -2
390
0
 62
               0
100
AcDbTrace
 10
0.0
 20
0.0
 30
0.0
 11
-0.9921874999999999
 21
-0.2658558393652545
 31
0.0
 12
-0.9921874999999999
 22
0.2658558393652548
 32
0.0
 13
-0.9921874999999999
 23
0.2658558393652548
 33
0.0
  0
ENDBLK
  5
56
100
AcDbEntity
  8
0
390
0
100
AcDbBlockEnd
  0
BLOCK
  5
58
100
AcDbEntity
  8
template
390
0
100
AcDbBlockBegin
  2
グループ
 70
               0
 10
0.0
 20
0.0
 30
0.0
  3
グループ
  1

  0
LWPOLYLINE
  5
59
100
AcDbEntity
  8
0
370
              15
390
0
  6
Continuous
 62
               7
100
AcDbPolyline
 90
        8
 70
             129
 10
887.42850780307481
 20
-1334.4897210236859
 10
887.42850780307481
 20
-1340.4871097172618
 10
877.92731088507151
 20
-1340.4871097172618
 10
877.92731088507151
 20
-1364.9380729807706
 10
869.57193362328871
 20
-1364.9380729807706
 10
869.57193362328871
 20
-1340.4871097172618
 10
860.23897667697929
 20
-1340.4871097172618
 10
860.23897667697929
 20
-1334.4897210236859
  0
LWPOLYLINE
  5
5A
100
AcDbEntity
  8
0
370
              15
390
0
  6
Continuous
 62
               7
100
AcDbPolyline
 90
      101
 70
             128
 10
900.15679963363175
 20
-1335.2179695166224
 10
900.17214966241681
 20
-1335.2136087599372
 42
-0.0222221607812452
 10
900.46215423908779
 20
-1335.1449842946927
 10
900.47794800307383
 20
-1335.1419808715971
 42
-0.0146883565588934
 10
900.74065070830557
 20
-1335.0999776846463
 42
-0.0127458844187264
 10
901.00528967545358
 20
-1335.0724407165742
 10
901.06774475377142
 20
-1335.0675472939856
 42
-0.0198099018564238
 10
901.45859386324787
 20
-1335.0524621365889
 10
901.51040533269202
 20
-1335.052515912254
 42
-0.014761738276327
 10
902.00502879366297
 20
-1335.0676359374988
 10
902.07772024854614
 20
-1335.072008544387
 42
-0.0162624549002029
 10
902.46787387800578
 20
-1335.108241419659
 10
902.58940626927017
 20
-1335.1235279786561
 42
-0.0080020874659354
 10
902.73498530035658
 20
-1335.1442108259239
 10
902.77330477094858
 20
-1335.1502821037345
 42
-0.0053821929678317
 10
902.84178887626638
 20
-1335.1618896275565
 10
902.11538317706777
 20
-1337.3428180832705
 42
0.01086677573739
 10
902.04806610694311
 20
-1337.3296309680516
 10
902.01059808374748
 20
-1337.3231332254561
 42
0.0170663203307341
 10
901.8673812968334
 20
-1337.3033036281645
 10
901.79950596414892
 20
-1337.2962564575769
 42
0.022016237527672
 10
901.51912655629246
 20
-1337.2795740968068
 10
901.44127098924127
 20
-1337.2783747295402
 42
0.028260691578763
 10
901.10563466566362
 20
-1337.2921780065094
 10
901.06172139189073
 20
-1337.2964779965132
 42
0.0169677213689564
 10
900.8157968969324
 20
-1337.3290150460648
 42
0.0190576269861447
 10
900.57288893435577
 20
-1337.3791619181704
 10
900.56662974624146
 20
-1337.3807048922806
 42
0.0213685642848188
 10
900.31624526176222
 20
-1337.4539051773859
 10
900.3107553668475
 20
-1337.4557681734445
 42
0.0237595297595475
 10
900.05726048195015
 20
-1337.5554526953395
 10
900.05215840791914
 20
-1337.5577444708183
 42
0.0261857468820483
 10
899.79998763169021
 20
-1337.6872808081923
 10
899.78956144260201
 20
-1337.6933462826614
 42
0.0272553062022719
 10
899.55313166736369
 20
-1337.8487184886053
 10
899.51836865385451
 20
-1337.8743796366973
 42
0.03259968931689
 10
899.36821331020269
 20
-1338.001127509669
 10
899.34450388107882
 20
-1338.0239455381825
 42
0.0138050960634597
 10
899.25262072486953
 20
-1338.1173951997334
 42
0.0125280103795566
 10
899.16577819203962
 20
-1338.2155585263292
 10
899.14209774712765
 20
-1338.2437170245209
 42
0.0205218024740018
 10
899.01699767161551
 20
-1338.4055103387479
 10
898.99453133112684
 20
-1338.437170068577
 42
0.0163110129586428
 10
898.83882095187516
 20
-1338.6725005036476
 10
898.83609705582455
 20
-1338.6769242656324
 42
0.0131897341900631
 10
898.68929653491591
 20
-1338.930056358002
 10
898.68759643955218
 20
-1338.9331745971326
 42
0.0107895576063121
 10
898.54981973734573
 20
-1339.199389806759
 10
898.5490868478164
 20
-1339.2008840394142
 42
0.0091371507222248
 10
898.4206068991648
 20
-1339.4754092371782
 10
898.3908612677576
 20
-1339.5421157443325
 42
0.0135418326351088
 10
898.21914732868436
 20
-1339.9570535296054
 10
898.18554252025513
 20
-1340.0449196718735
 42
0.0092834542406019
 10
898.01431346033087
 20
-1340.5188181701878
 10
897.98869633262177
 20
-1340.5940592399559
 42
0.0054261043575737
 10
897.88105818432018
 20
-1340.9218232130465
 10
897.8635321980961
 20
-1340.9772113754241
 42
0.0008225090817605
 10
897.79486214631277
 20
-1341.1954801334257
 10
896.8101730143793
 20
-1344.2203714266823
 10
900.04279685445317
 20
-1344.2203714266823
 10
899.53860442459973
 20
-1346.1248497250347
 10
896.28254814261641
 20
-1346.1248497250347
 10
890.45339911026258
 20
-1364.9380727910395
 10
888.62830149995227
 20
-1364.9380727910395
 10
894.4629795354532
 20
-1346.1248497250347
 10
892.05786316641286
 20
-1346.1248497250347
 10
892.5620555962663
 20
-1344.2203714266823
 10
894.99060440721632
 20
-1344.2203714266823
 10
895.85075932540497
 20
-1341.5839584259834
 42
-0.0005863560652156
 10
895.88749400360086
 20
-1341.4671320057159
 10
895.96358183726886
 20
-1341.2261397063062
 42
-0.0087522378926788
 10
896.16304998072587
 20
-1340.6308636191593
 10
896.25531425614099
 20
-1340.3707234506417
 42
-0.0077400953830428
 10
896.51324791527031
 20
-1339.6777187730986
 10
896.52901288684905
 20
-1339.637287889713
 42
-0.0082369946330594
 10
896.77609735746114
 20
-1339.0332088235168
 42
-0.0085725238362489
 10
897.04334345346786
 20
-1338.4377827842213
 10
897.14497305447071
 20
-1338.2213616822462
 42
-0.0168109410597172
 10
897.43191748320146
 20
-1337.6601541561402
 10
897.55776087369225
 20
-1337.4331901230855
 42
-0.0007817726868056
 10
897.61204522371713
 20
-1337.3356458781118
 10
897.61217352972994
 20
-1337.3354161693833
 42
-0.0036626142161349
 10
897.6670613937556
 20
-1337.2388182894067
 42
-0.0080221150672844
 10
897.72418564916472
 20
-1337.1435390546499
 10
897.75488560052349
 20
-1337.0941481055315
 42
-0.0202139325568902
 10
897.88254134033173
 20
-1336.9061665048482
 10
897.93660880551784
 20
-1336.8330876406094
 42
-0.0249323791798366
 10
898.19577159923824
 20
-1336.5170423984537
 10
898.219911413364
 20
-1336.4904281255426
 42
-0.0242132121540895
 10
898.55959215490702
 20
-1336.1505446393378
 10
898.60750372765358
 20
-1336.1070355031552
 42
-0.0251017527859385
 10
898.8914854282973
 20
-1335.8740427573875
 10
898.89293090511035
 20
-1335.8729734998092
 42
-0.0130868069035934
 10
899.19119155506837
 20
-1335.6641930312662
 10
899.19275337421232
 20
-1335.6631595909905
 42
-0.0290329526388077
 10
899.50386451560439
 20
-1335.4823340893618
 10
899.53371007759426
 20
-1335.4672317065204
 42
-0.0160250190047949
 10
899.79961449135521
 20
-1335.3432155963092
 42
-0.0267600374780309
 10
900.07489056882525
 20
-1335.24246727576
 10
900.10162648834478
 20
-1335.2342747169348
 42
-0.0049981587669928
 10
900.15679963363175
 20
-1335.2179695166224
 42
-0.0049981587669928
  0
LWPOLYLINE
  5
5B
100
AcDbEntity
  8
0
370
              15
390
0
  6
Continuous
 62
               7
100
AcDbPolyline
 90
      118
 70
             128
 10
919.97116719807866
 20
-1344.2943547545096
 10
921.84628912257813
 20
-1344.2943547545096
 10
921.00825021697824
 20
-1346.9759212809097
 42
-0.0010587229244717
 10
921.03970603257608
 20
-1346.939016747524
 10
921.09790012318217
 20
-1346.8710344913786
 42
-0.0071874740413046
 10
921.24827534127417
 20
-1346.7003937993563
 10
921.38999811454244
 20
-1346.5441576580365
 42
-0.0148118053513779
 10
921.84012740725132
 20
-1346.0765438120272
 10
921.92734974215728
 20
-1345.9911464911695
 42
-0.0086273358692718
 10
922.26289854316542
 20
-1345.6737708571534
 10
922.30673225939165
 20
-1345.6337212128201
 42
-0.0103138323115429
 10
922.56475596162477
 20
-1345.407558075482
 10
922.61053036796045
 20
-1345.3690760282145
 42
-0.0060206748564274
 10
922.78337843206407
 20
-1345.2272813774675
 10
922.78540956295512
 20
-1345.2256556718321
 42
-0.0067069027290416
 10
922.95770237761258
 20
-1345.0915050380413
 10
922.96025114354586
 20
-1345.0895748681605
 42
-0.0076184352049488
 10
923.13115640940987
 20
-1344.9641999929222
 42
-0.0089652861668072
 10
923.30611737214338
 20
-1344.84456673259
 10
923.34246909228841
 20
-1344.820655519107
 42
-0.0156916245939222
 10
923.5384285894495
 20
-1344.7003930326323
 42
-0.0023299011069693
 10
923.73869063340589
 20
-1344.5872150931043
 10
923.75407476580915
 20
-1344.5786150980266
 42
-0.0107669341481016
 10
923.98831159091708
 20
-1344.4542149646736
 10
924.0105763919853
 20
-1344.4429982147271
 42
-0.0078058045897393
 10
924.29416650993721
 20
-1344.3056367590891
 10
924.30407359764718
 20
-1344.3010276312202
 42
-0.0181829330470019
 10
924.61438300226393
 20
-1344.1701638901241
 10
924.66843844482628
 20
-1344.1496487701822
 42
-0.0208411536031712
 10
925.01752341227984
 20
-1344.0335583076881
 10
925.03187951240784
 20
-1344.0294398627343
 42
-0.022279981713889
 10
925.3605993063245
 20
-1343.9507982965943
 10
925.369488269567
 20
-1343.9490862860082
 42
-0.0215509523880639
 10
925.68595923784142
 20
-1343.9021705974747
 10
925.72844119889055
 20
-1343.8977330706839
 42
-0.0182545924872353
 10
925.96254997819551
 20
-1343.881889245293
 10
926.00195099454572
 20
-1343.8806647002136
 42
-0.0072962856529007
 10
926.15787387423256
 20
-1343.8780953716916
 10
926.18697354480855
 20
-1343.8780405362879
 42
-0.0059227516318757
 10
926.2847230439495
 20
-1343.8790142480784
 10
926.31396526146034
 20
-1343.8796520146825
 42
-0.0011833111901854
 10
926.35321654515383
 20
-1343.8806010189917
 10
925.55782994954666
 20
-1346.4193349640907
 42
0.0143932051598805
 10
925.53142856719546
 20
-1346.4091359940453
 10
925.52415659477879
 20
-1346.4065647751881
 42
0.0234388603530011
 10
925.48232572884706
 20
-1346.393945539473
 10
925.47364406593397
 20
-1346.3917645774677
 42
0.019916274298183
 10
925.41335523185228
 20
-1346.3791478421322
 10
925.39254129404776
 20
-1346.3756506427042
 42
0.0293643550666261
 10
925.28946643528752
 20
-1346.3645005970509
 10
925.26478125456833
 20
-1346.3632889800324
 42
0.0214606686863714
 10
925.11164033861519
 20
-1346.3623504196148
 10
925.10226842779787
 20
-1346.3626953311591
 42
0.0167564054173993
 10
924.93074823668678
 20
-1346.3747723735273
 10
924.92228844393048
 20
-1346.3756537139543
 42
0.0137677553240766
 10
924.73493513066455
 20
-1346.400403022498
 10
924.72758339115785
 20
-1346.4015809424659
 42
0.0118497261482254
 10
924.52708562705527
 20
-1346.4385982926551
 10
924.52093561980928
 20
-1346.4398851553751
 42
0.0106421143889724
 10
924.31005473252526
 20
-1346.4887175309498
 10
924.30514592413522
 20
-1346.489964873635
 42
0.0099746379706321
 10
924.08668745497073
 20
-1346.5501394019504
 10
924.02513941480242
 20
-1346.5684212805804
 42
0.0191613675859732
 10
923.68915495228691
 20
-1346.6823986608674
 10
923.60109517953742
 20
-1346.7160855711929
 42
0.0205274080144368
 10
923.21578840764073
 20
-1346.881913979018
 10
923.15813912565829
 20
-1346.9095819435906
 42
0.0181256912196064
 10
922.89986218499178
 20
-1347.0452657625683
 10
922.84690680168444
 20
-1347.0755833757792
 42
0.0140709242402873
 10
922.7019518670495
 20
-1347.1640780492173
 10
922.67570299843271
 20
-1347.1811348679316
 42
0.0086667884395987
 10
922.58677683688848
 20
-1347.2411375358156
 42
0.0036408192034625
 10
922.49934359883844
 20
-1347.30331839362
 10
922.46411672438649
 20
-1347.3287593395207
 42
0.0052260781272892
 10
922.30788802701056
 20
-1347.4440917261436
 10
922.29168117073573
 20
-1347.4563198367732
 42
0.0050024435898219
 10
922.10567782767976
 20
-1347.5996024050332
 10
922.09035967116176
 20
-1347.6116484274812
 42
0.013613871027649
 10
921.87991840284246
 20
-1347.7866149323893
 10
921.84625052704291
 20
-1347.8161939051088
 42
0.017281518691684
 10
921.58184698537809
 20
-1348.0651905777345
 10
921.57928463953772
 20
-1348.0677763948793
 42
0.0189403857992159
 10
921.3287028409577
 20
-1348.3405816596844
 10
921.29607134742764
 20
-1348.3789255911747
 42
0.0185044199499275
 10
921.10411490844263
 20
-1348.6221741723034
 42
0.0088565243898951
 10
920.9256548018152
 20
-1348.8756905924522
 10
920.91647682216569
 20
-1348.8892319722136
 42
0.0157195347234652
 10
920.73325621582853
 20
-1349.1787541815343
 10
920.687173273908
 20
-1349.2569063785377
 42
0.0095451879775554
 10
920.52208772376309
 20
-1349.5495010209065
 10
920.51093980483915
 20
-1349.570171693028
 42
0.0100351706251944
 10
920.3788960556742
 20
-1349.8272272535294
 42
0.0086935915418291
 10
920.25656490388019
 20
-1350.0890603989335
 10
920.25324416246565
 20
-1350.0965027219056
 42
0.0072580174866602
 10
920.13289771052291
 20
-1350.3770947134833
 10
920.1296360772144
 20
-1350.3850147395065
 42
0.0060005122616345
 10
920.01043540887065
 20
-1350.6846244101146
 10
920.00722443053007
 20
-1350.6929859380166
 42
0.0049017786975175
 10
919.88832427167199
 20
-1351.0119149186223
 10
919.88515846528219
 20
-1351.0206678558511
 42
0.0039415167599449
 10
919.76572218723106
 20
-1351.3592099182486
 10
919.76259108457339
 20
-1351.3683131191406
 42
0.0031035838769637
 10
919.64178629887556
 20
-1351.7267529809285
 10
919.63867625434989
 20
-1351.736173602289
 42
0.0025070747154479
 10
919.51577490303816
 20
-1352.1148208192214
 10
919.47848100660917
 20
-1352.2317124844858
 42
0.0029081910283904
 10
919.28646270880756
 20
-1352.8458761427471
 10
919.24565954028128
 20
-1352.9790993850534
 42
0.0009266453734212
 10
918.97724216592712
 20
-1353.8613238451076
 10
918.95635469334729
 20
-1353.9304357241422
 42
-0.0005809993666308
 10
918.67901801273479
 20
-1354.8442438308516
 10
918.61273621446219
 20
-1355.0617287630105
 42
-0.0012018708165088
 10
918.46575190503268
 20
-1355.539891427532
 10
918.41343205345208
 20
-1355.7086505684463
 42
-0.0002691059599173
 10
918.36986257229853
 20
-1355.8489181887398
 10
915.53690667400929
 20
-1364.9380727910395
 10
913.71891778203076
 20
-1364.9380727910395
 10
919.97116719807866
 20
-1344.2943547545096
  0
SPLINE
  5
5C
100
AcDbEntity
  8
0
370
              15
390
0
  6
Continuous
 62
               7
100
AcDbSpline
210
0.0
220
0.0
230
1.0
 70
              13
 71
               2
 72
             782
 73
             779
 74
               0
 42
0.000001
 43
0.000001
 40
0.0
 40
0.0
 40
0.0
 40
1.0
 40
1.0
 40
2.0
 40
2.0
 40
3.0
 40
3.0
 40
4.0
 40
4.0
 40
5.0
 40
5.0
 40
6.0
 40
6.0
 40
7.0
 40
7.0
 40
8.0
 40
8.0
 40
9.0
 40
9.0
 40
10.0
 40
10.0
 40
11.0
 40
11.0
 40
12.0
 40
12.0
 40
13.0
 40
13.0
 40
14.0
 40
14.0
 40
15.0
 40
15.0
 40
16.0
 40
16.0
 40
17.0
 40
17.0
 40
18.0
 40
18.0
 40
19.0
 40
19.0
 40
20.0
 40
20.0
 40
21.0
 40
21.0
 40
22.0
 40
22.0
 40
23.0
 40
23.0
 40
24.0
 40
24.0
 40
25.0
 40
25.0
 40
26.0
 40
26.0
 40
27.0
 40
27.0
 40
28.0
 40
28.0
 40
29.0
 40
29.0
 40
30.0
 40
30.0
 40
31.0
 40
31.0
 40
32.0
 40
32.0
 40
33.0
 40
33.0
 40
34.0
 40
34.0
 40
35.0
 40
35.0
 40
36.0
 40
36.0
 40
37.0
 40
37.0
 40
38.0
 40
38.0
 40
39.0
 40
39.0
 40
40.0
 40
40.0
 40
41.0
 40
41.0
 40
42.0
 40
42.0
 40
43.0
 40
43.0
 40
44.0
 40
44.0
 40
45.0
 40
45.0
 40
46.0
 40
46.0
 40
47.0
 40
47.0
 40
48.0
 40
48.0
 40
49.0
 40
49.0
 40
50.0
 40
50.0
 40
51.0
 40
51.0
 40
52.0
 40
52.0
 40
53.0
 40
53.0
 40
54.0
 40
54.0
 40
55.0
 40
55.0
 40
56.0
 40
56.0
 40
57.0
 40
57.0
 40
58.0
 40
58.0
 40
59.0
 40
59.0
 40
60.0
 40
60.0
 40
61.0
 40
61.0
 40
62.0
 40
62.0
 40
63.0
 40
63.0
 40
64.0
 40
64.0
 40
65.0
 40
65.0
 40
66.0
 40
66.0
 40
67.0
 40
67.0
 40
68.0
 40
68.0
 40
69.0
 40
69.0
 40
70.0
 40
70.0
 40
71.0
 40
71.0
 40
72.0
 40
72.0
 40
73.0
 40
73.0
 40
74.0
 40
74.0
 40
75.0
 40
75.0
 40
76.0
 40
76.0
 40
77.0
 40
77.0
 40
78.0
 40
78.0
 40
79.0
 40
79.0
 40
80.0
 40
80.0
 40
81.0
 40
81.0
 40
82.0
 40
82.0
 40
83.0
 40
83.0
 40
84.0
 40
84.0
 40
85.0
 40
85.0
 40
86.0
 40
86.0
 40
87.0
 40
87.0
 40
88.0
 40
88.0
 40
89.0
 40
89.0
 40
90.0
 40
90.0
 40
91.0
 40
91.0
 40
92.0
 40
92.0
 40
93.0
 40
93.0
 40
94.0
 40
94.0
 40
95.0
 40
95.0
 40
96.0
 40
96.0
 40
97.0
 40
97.0
 40
98.0
 40
98.0
 40
99.0
 40
99.0
 40
100.0
 40
100.0
 40
101.0
 40
101.0
 40
102.0
 40
102.0
 40
103.0
 40
103.0
 40
104.0
 40
104.0
 40
105.0
 40
105.0
 40
106.0
 40
106.0
 40
107.0
 40
107.0
 40
108.0
 40
108.0
 40
109.0
 40
109.0
 40
110.0
 40
110.0
 40
111.0
 40
111.0
 40
112.0
 40
112.0
 40
113.0
 40
113.0
 40
114.0
 40
114.0
 40
115.0
 40
115.0
 40
116.0
 40
116.0
 40
117.0
 40
117.0
 40
118.0
 40
118.0
 40
119.0
 40
119.0
 40
120.0
 40
120.0
 40
121.0
 40
121.0
 40
122.0
 40
122.0
 40
123.0
 40
123.0
 40
124.0
 40
124.0
 40
125.0
 40
125.0
 40
126.0
 40
126.0
 40
127.0
 40
127.0
 40
128.0
 40
128.0
 40
129.0
 40
129.0
 40
130.0
 40
130.0
 40
131.0
 40
131.0
 40
132.0
 40
132.0
 40
133.0
 40
133.0
 40
134.0
 40
134.0
 40
135.0
 40
135.0
 40
136.0
 40
136.0
 40
137.0
 40
137.0
 40
138.0
 40
138.0
 40
139.0
 40
139.0
 40
140.0
 40
140.0
 40
141.0
 40
141.0
 40
142.0
 40
142.0
 40
143.0
 40
143.0
 40
144.0
 40
144.0
 40
145.0
 40
145.0
 40
146.0
 40
146.0
 40
147.0
 40
147.0
 40
148.0
 40
148.0
 40
149.0
 40
149.0
 40
150.0
 40
150.0
 40
151.0
 40
151.0
 40
152.0
 40
152.0
 40
153.0
 40
153.0
 40
154.0
 40
154.0
 40
155.0
 40
155.0
 40
156.0
 40
156.0
 40
157.0
 40
157.0
 40
158.0
 40
158.0
 40
159.0
 40
159.0
 40
160.0
 40
160.0
 40
161.0
 40
161.0
 40
162.0
 40
162.0
 40
163.0
 40
163.0
 40
164.0
 40
164.0
 40
165.0
 40
165.0
 40
166.0
 40
166.0
 40
167.0
 40
167.0
 40
168.0
 40
168.0
 40
169.0
 40
169.0
 40
170.0
 40
170.0
 40
171.0
 40
171.0
 40
172.0
 40
172.0
 40
173.0
 40
173.0
 40
174.0
 40
174.0
 40
175.0
 40
175.0
 40
176.0
 40
176.0
 40
177.0
 40
177.0
 40
178.0
 40
178.0
 40
179.0
 40
179.0
 40
180.0
 40
180.0
 40
181.0
 40
181.0
 40
182.0
 40
182.0
 40
183.0
 40
183.0
 40
184.0
 40
184.0
 40
185.0
 40
185.0
 40
186.0
 40
186.0
 40
187.0
 40
187.0
 40
188.0
 40
188.0
 40
189.0
 40
189.0
 40
190.0
 40
190.0
 40
191.0
 40
191.0
 40
192.0
 40
192.0
 40
193.0
 40
193.0
 40
194.0
 40
194.0
 40
195.0
 40
195.0
 40
196.0
 40
196.0
 40
197.0
 40
197.0
 40
198.0
 40
198.0
 40
199.0
 40
199.0
 40
200.0
 40
200.0
 40
201.0
 40
201.0
 40
202.0
 40
202.0
 40
203.0
 40
203.0
 40
204.0
 40
204.0
 40
205.0
 40
205.0
 40
206.0
 40
206.0
 40
207.0
 40
207.0
 40
208.0
 40
208.0
 40
209.0
 40
209.0
 40
210.0
 40
210.0
 40
211.0
 40
211.0
 40
212.0
 40
212.0
 40
213.0
 40
213.0
 40
214.0
 40
214.0
 40
215.0
 40
215.0
 40
216.0
 40
216.0
 40
217.0
 40
217.0
 40
218.0
 40
218.0
 40
219.0
 40
219.0
 40
220.0
 40
220.0
 40
221.0
 40
221.0
 40
222.0
 40
222.0
 40
223.0
 40
223.0
 40
224.0
 40
224.0
 40
225.0
 40
225.0
 40
226.0
 40
226.0
 40
227.0
 40
227.0
 40
228.0
 40
228.0
 40
229.0
 40
229.0
 40
230.0
 40
230.0
 40
231.0
 40
231.0
 40
232.0
 40
232.0
 40
233.0
 40
233.0
 40
234.0
 40
234.0
 40
235.0
 40
235.0
 40
236.0
 40
236.0
 40
237.0
 40
237.0
 40
238.0
 40
238.0
 40
239.0
 40
239.0
 40
240.0
 40
240.0
 40
241.0
 40
241.0
 40
242.0
 40
242.0
 40
243.0
 40
243.0
 40
244.0
 40
244.0
 40
245.0
 40
245.0
 40
246.0
 40
246.0
 40
247.0
 40
247.0
 40
248.0
 40
248.0
 40
249.0
 40
249.0
 40
250.0
 40
250.0
 40
251.0
 40
251.0
 40
252.0
 40
252.0
 40
253.0
 40
253.0
 40
254.0
 40
254.0
 40
255.0
 40
255.0
 40
256.0
 40
256.0
 40
257.0
 40
257.0
 40
258.0
 40
258.0
 40
259.0
 40
259.0
 40
260.0
 40
260.0
 40
261.0
 40
261.0
 40
262.0
 40
262.0
 40
263.0
 40
263.0
 40
264.0
 40
264.0
 40
265.0
 40
265.0
 40
266.0
 40
266.0
 40
267.0
 40
267.0
 40
268.0
 40
268.0
 40
269.0
 40
269.0
 40
270.0
 40
270.0
 40
271.0
 40
271.0
 40
272.0
 40
272.0
 40
273.0
 40
273.0
 40
274.0
 40
274.0
 40
275.0
 40
275.0
 40
276.0
 40
276.0
 40
277.0
 40
277.0
 40
278.0
 40
278.0
 40
279.0
 40
279.0
 40
280.0
 40
280.0
 40
281.0
 40
281.0
 40
282.0
 40
282.0
 40
283.0
 40
283.0
 40
284.0
 40
284.0
 40
285.0
 40
285.0
 40
286.0
 40
286.0
 40
287.0
 40
287.0
 40
288.0
 40
288.0
 40
289.0
 40
289.0
 40
290.0
 40
290.0
 40
291.0
 40
291.0
 40
292.0
 40
292.0
 40
293.0
 40
293.0
 40
294.0
 40
294.0
 40
295.0
 40
295.0
 40
296.0
 40
296.0
 40
297.0
 40
297.0
 40
298.0
 40
298.0
 40
299.0
 40
299.0
 40
300.0
 40
300.0
 40
301.0
 40
301.0
 40
302.0
 40
302.0
 40
303.0
 40
303.0
 40
304.0
 40
304.0
 40
305.0
 40
305.0
 40
306.0
 40
306.0
 40
307.0
 40
307.0
 40
308.0
 40
308.0
 40
309.0
 40
309.0
 40
310.0
 40
310.0
 40
311.0
 40
311.0
 40
312.0
 40
312.0
 40
313.0
 40
313.0
 40
314.0
 40
314.0
 40
315.0
 40
315.0
 40
316.0
 40
316.0
 40
317.0
 40
317.0
 40
318.0
 40
318.0
 40
319.0
 40
319.0
 40
320.0
 40
320.0
 40
321.0
 40
321.0
 40
322.0
 40
322.0
 40
323.0
 40
323.0
 40
324.0
 40
324.0
 40
325.0
 40
325.0
 40
326.0
 40
326.0
 40
327.0
 40
327.0
 40
328.0
 40
328.0
 40
329.0
 40
329.0
 40
330.0
 40
330.0
 40
331.0
 40
331.0
 40
332.0
 40
332.0
 40
333.0
 40
333.0
 40
334.0
 40
334.0
 40
335.0
 40
335.0
 40
336.0
 40
336.0
 40
337.0
 40
337.0
 40
338.0
 40
338.0
 40
339.0
 40
339.0
 40
340.0
 40
340.0
 40
341.0
 40
341.0
 40
342.0
 40
342.0
 40
343.0
 40
343.0
 40
344.0
 40
344.0
 40
345.0
 40
345.0
 40
346.0
 40
346.0
 40
347.0
 40
347.0
 40
348.0
 40
348.0
 40
349.0
 40
349.0
 40
350.0
 40
350.0
 40
351.0
 40
351.0
 40
352.0
 40
352.0
 40
353.0
 40
353.0
 40
354.0
 40
354.0
 40
355.0
 40
355.0
 40
356.0
 40
356.0
 40
357.0
 40
357.0
 40
358.0
 40
358.0
 40
359.0
 40
359.0
 40
360.0
 40
360.0
 40
361.0
 40
361.0
 40
362.0
 40
362.0
 40
363.0
 40
363.0
 40
364.0
 40
364.0
 40
365.0
 40
365.0
 40
366.0
 40
366.0
 40
367.0
 40
367.0
 40
368.0
 40
368.0
 40
369.0
 40
369.0
 40
370.0
 40
370.0
 40
371.0
 40
371.0
 40
372.0
 40
372.0
 40
373.0
 40
373.0
 40
374.0
 40
374.0
 40
375.0
 40
375.0
 40
376.0
 40
376.0
 40
377.0
 40
377.0
 40
378.0
 40
378.0
 40
379.0
 40
379.0
 40
380.0
 40
380.0
 40
381.0
 40
381.0
 40
382.0
 40
382.0
 40
383.0
 40
383.0
 40
384.0
 40
384.0
 40
385.0
 40
385.0
 40
386.0
 40
386.0
 40
387.0
 40
387.0
 40
388.0
 40
388.0
 40
389.0
 40
389.0
 40
389.0
 10
930.29987164881129
 20
-1344.2834283911473
 30
0.0
 41
1.0
 10
931.11829575753177
 20
-1344.2834283911473
 30
0.0
 41
1.0
 10
931.93671986625225
 20
-1344.2834283911473
 30
0.0
 41
1.0
 10
931.52296613073554
 20
-1345.626054655397
 30
0.0
 41
1.0
 10
931.10921239521872
 20
-1346.9686809196467
 30
0.0
 41
1.0
 10
931.12755189037239
 20
-1346.9399801467571
 30
0.0
 41
0.9999957264353334
 10
931.14605888718984
 20
-1346.9113870966273
 30
0.0
 41
1.0
 10
931.17648821134094
 20
-1346.8643742182301
 30
0.0
 41
1.0
 10
931.20691753549204
 20
-1346.8173613398328
 30
0.0
 41
1.0
 10
931.28628318059964
 20
-1346.6947425329274
 30
0.0
 41
0.9995394069080855
 10
931.37294157215149
 20
-1346.5771644711858
 30
0.0
 41
1.0
 10
931.40869843441078
 20
-1346.5286495785929
 30
0.0
 41
1.0
 10
931.44445529667007
 20
-1346.4801346859999
 30
0.0
 41
1.0
 10
931.57818196448875
 20
-1346.2986944108727
 30
0.0
 41
0.9994460617143494
 10
931.72368244577569
 20
-1346.1265520132242
 30
0.0
 41
1.0
 10
931.72807062674997
 20
-1346.1213603328424
 30
0.0
 41
1.0
 10
931.73245880772436
 20
-1346.1161686524608
 30
0.0
 41
1.0
 10
931.86918292706207
 20
-1345.9544096155764
 30
0.0
 41
0.9994359394933763
 10
932.01645715741506
 20
-1345.8021934144101
 30
0.0
 41
1.0
 10
932.01884051137063
 20
-1345.7997300840348
 30
0.0
 41
1.0
 10
932.02122386532608
 20
-1345.7972667536592
 30
0.0
 41
1.0
 10
932.1637313877693
 20
-1345.6499772132429
 30
0.0
 41
0.9995293688567944
 10
932.31500306874864
 20
-1345.5117040010814
 30
0.0
 41
1.0
 10
932.33429682801261
 20
-1345.4940681154296
 30
0.0
 41
1.0
 10
932.35359058727659
 20
-1345.4764322297779
 30
0.0
 41
1.0
 10
932.46627474973218
 20
-1345.373430788916
 30
0.0
 41
0.999708761480295
 10
932.58379763868584
 20
-1345.2759865081193
 30
0.0
 41
1.0
 10
932.60296371186837
 20
-1345.2600949296057
 30
0.0
 41
1.0
 10
932.62212978505079
 20
-1345.244203351092
 30
0.0
 41
1.0
 10
932.70132052765098
 20
-1345.1785422273133
 30
0.0
 41
0.9999595338700135
 10
932.78167979849604
 20
-1345.1143164966666
 30
0.0
 41
1.0
 10
932.86203906934838
 20
-1345.0500907660137
 30
0.0
 41
0.9999749417498401
 10
932.943299603691
 20
-1344.987009212068
 30
0.0
 41
1.0
 10
932.96428574986589
 20
-1344.9707179247566
 30
0.0
 41
1.0
 10
932.98527189604079
 20
-1344.9544266374453
 30
0.0
 41
1.0
 10
933.06983978133303
 20
-1344.8887776276119
 30
0.0
 41
0.9999792037130209
 10
933.15524738109707
 20
-1344.8242248459724
 30
0.0
 41
1.0
 10
933.1760722070195
 20
-1344.8084850237065
 30
0.0
 41
1.0
 10
933.19689703294193
 20
-1344.7927452014403
 30
0.0
 41
1.0
 10
933.24065498087236
 20
-1344.7596720643246
 30
0.0
 41
0.9999993373740191
 10
933.28433666700971
 20
-1344.7264982689048
 30
0.0
 41
1.0
 10
933.3280183531507
 20
-1344.6933244734823
 30
0.0
 41
0.9999160953816699
 10
933.37254476406838
 20
-1344.6612934082855
 30
0.0
 41
1.0
 10
933.40536665148989
 20
-1344.6376822526991
 30
0.0
 41
1.0
 10
933.4381885389115
 20
-1344.6140710971126
 30
0.0
 41
1.0
 10
933.54835872466924
 20
-1344.5348177207452
 30
0.0
 41
0.9980964527231613
 10
933.66744771817002
 20
-1344.4697302478892
 30
0.0
 41
1.0
 10
933.70448032509717
 20
-1344.4494902682964
 30
0.0
 41
1.0
 10
933.74151293202442
 20
-1344.4292502887038
 30
0.0
 41
1.0
 10
933.92083994529833
 20
-1344.3312400380021
 30
0.0
 41
0.9984572810572789
 10
934.10992851165884
 20
-1344.2537177766549
 30
0.0
 41
1.0
 10
934.1135747810539
 20
-1344.2522228843172
 30
0.0
 41
1.0
 10
934.11722105044896
 20
-1344.2507279919796
 30
0.0
 41
1.0
 10
934.29901707801707
 20
-1344.1761955153088
 30
0.0
 41
0.9987838528033893
 10
934.48726973657699
 20
-1344.1199298751428
 30
0.0
 41
1.0
 10
934.49150768577658
 20
-1344.1186632214524
 30
0.0
 41
1.0
 10
934.49574563497617
 20
-1344.1173965677619
 30
0.0
 41
1.0
 10
934.67552239513714
 20
-1344.0636642349768
 30
0.0
 41
0.999065281620722
 10
934.85926832685209
 20
-1344.025660555435
 30
0.0
 41
1.0
 10
934.86445672788182
 20
-1344.0245874523289
 30
0.0
 41
1.0
 10
934.86964512891166
 20
-1344.0235143492228
 30
0.0
 41
1.0
 10
935.04301425856659
 20
-1343.9876568758932
 30
0.0
 41
0.9992909934270359
 10
935.21859002502629
 20
-1343.9649464434265
 30
0.0
 41
1.0
 10
935.39416579148281
 20
-1343.94223601096
 30
0.0
 41
0.9994553539448302
 10
935.57085722457441
 20
-1343.9311567067539
 30
0.0
 41
1.0
 10
935.60629163237172
 20
-1343.928934818706
 30
0.0
 41
1.0
 10
935.64172604016903
 20
-1343.9267129306581
 30
0.0
 41
1.0
 10
935.80795180673806
 20
-1343.9162898682464
 30
0.0
 41
0.999092809829273
 10
935.97446159864103
 20
-1343.920049509481
 30
0.0
 41
1.0
 10
936.01302343391387
 20
-1343.920920201014
 30
0.0
 41
1.0
 10
936.05158526918672
 20
-1343.9217908925471
 30
0.0
 41
1.0
 10
936.14097139054468
 20
-1343.9238091507154
 30
0.0
 41
0.999838208920621
 10
936.23022707332984
 20
-1343.9290412772434
 30
0.0
 41
1.0
 10
936.23065697954735
 20
-1343.9290664781456
 30
0.0
 41
1.0
 10
936.23108688576485
 20
-1343.9290916790476
 30
0.0
 41
1.0
 10
936.31948275611376
 20
-1343.9342734037714
 30
0.0
 41
0.9997558016759435
 10
936.40756333331683
 20
-1343.943355919138
 30
0.0
 41
1.0
 10
936.40803947174277
 20
-1343.9434050166201
 30
0.0
 41
1.0
 10
936.40851561016859
 20
-1343.9434541141022
 30
0.0
 41
1.0
 10
936.49564391051354
 20
-1343.9524384345038
 30
0.0
 41
0.9996565144182056
 10
936.58218176385981
 20
-1343.9659757411937
 30
0.0
 41
1.0
 10
936.58264768923641
 20
-1343.9660486269249
 30
0.0
 41
1.0
 10
936.5831136146129
 20
-1343.9661215126562
 30
0.0
 41
1.0
 10
936.66871961720074
 20
-1343.9795130478824
 30
0.0
 41
0.9995321806866535
 10
936.75334669752976
 20
-1343.9981135363118
 30
0.0
 41
1.0
 10
936.75373589210335
 20
-1343.9981990787783
 30
0.0
 41
1.0
 10
936.75412508667705
 20
-1343.9982846212445
 30
0.0
 41
1.0
 10
936.83797377785925
 20
-1344.0167140247415
 30
0.0
 41
0.9993819199219618
 10
936.92032031205395
 20
-1344.0409894080017
 30
0.0
 41
1.0
 10
936.92055874555274
 20
-1344.0410596971112
 30
0.0
 41
1.0
 10
936.92079717905153
 20
-1344.0411299862208
 30
0.0
 41
1.0
 10
937.00266684625024
 20
-1344.0652647912625
 30
0.0
 41
0.9992088568505916
 10
937.0823593652384
 20
-1344.0958300270568
 30
0.0
 41
1.0
 10
937.16204035611736
 20
-1344.1263896277901
 30
0.0
 41
0.9990226101773474
 10
937.23871102602459
 20
-1344.1638670594048
 30
0.0
 41
1.0
 10
937.31537016782215
 20
-1344.2013388559576
 30
0.0
 41
0.9988424273972117
 10
937.38807379503419
 20
-1344.2460036312104
 30
0.0
 41
1.0
 10
937.38834150341393
 20
-1344.2461680952829
 30
0.0
 41
1.0
 10
937.38860921179366
 20
-1344.2463325593553
 30
0.0
 41
1.0
 10
937.46184825576449
 20
-1344.2913262627528
 30
0.0
 41
0.9986928844491282
 10
937.53011112247418
 20
-1344.3435619970323
 30
0.0
 41
1.0
 10
937.530692414697
 20
-1344.3440068102602
 30
0.0
 41
1.0
 10
937.53127370691982
 20
-1344.3444516234881
 30
0.0
 41
1.0
 10
937.60069915807503
 20
-1344.3975769842236
 30
0.0
 41
0.998600726227902
 10
937.66412532784193
 20
-1344.4577377539172
 30
0.0
 41
1.0
 10
937.66501974329913
 20
-1344.4585861217522
 30
0.0
 41
1.0
 10
937.66591415875632
 20
-1344.4594344895872
 30
0.0
 41
1.0
 10
937.73112915943716
 20
-1344.5212919949508
 30
0.0
 41
0.9985581491382038
 10
937.78933677113901
 20
-1344.5897844852225
 30
0.0
 41
1.0
 10
937.79859522473487
 20
-1344.6006788429243
 30
0.0
 41
1.0
 10
937.80785367833073
 20
-1344.611573200626
 30
0.0
 41
1.0
 10
937.8845781972235
 20
-1344.7018544063005
 30
0.0
 41
0.9970460233520153
 10
937.94657009838295
 20
-1344.8028214904823
 30
0.0
 41
1.0
 10
937.96103946346238
 20
-1344.8263879495635
 30
0.0
 41
1.0
 10
937.97550882854193
 20
-1344.8499544086444
 30
0.0
 41
1.0
 10
938.0152455285546
 20
-1344.9146741326767
 30
0.0
 41
0.9988468816636342
 10
938.0485918993063
 20
-1344.9829065851047
 30
0.0
 41
1.0
 10
938.05562792179842
 20
-1344.9973035062435
 30
0.0
 41
1.0
 10
938.06266394429053
 20
-1345.011700427382
 30
0.0
 41
1.0
 10
938.08193827005812
 20
-1345.0511390375332
 30
0.0
 41
0.9998431189996929
 10
938.09980359755286
 20
-1345.0912355919731
 30
0.0
 41
1.0
 10
938.11766892508149
 20
-1345.1313321464893
 30
0.0
 41
0.9999989990028213
 10
938.13564764851083
 20
-1345.1713779840891
 30
0.0
 41
1.0
 10
938.1418199600846
 20
-1345.1851262008558
 30
0.0
 41
1.0
 10
938.14799227165827
 20
-1345.1988744176228
 30
0.0
 41
1.0
 10
938.17831561826858
 20
-1345.2664166888314
 30
0.0
 41
0.9998790356321278
 10
938.20652349840657
 20
-1345.3348694407691
 30
0.0
 41
1.0
 10
938.2133586796906
 20
-1345.3514565421956
 30
0.0
 41
1.0
 10
938.22019386097452
 20
-1345.3680436436221
 30
0.0
 41
1.0
 10
938.24375152335631
 20
-1345.4252115985112
 30
0.0
 41
0.9998227574561287
 10
938.26514027174494
 20
-1345.4832259067871
 30
0.0
 41
1.0
 10
938.28652902013437
 20
-1345.5412402150646
 30
0.0
 41
0.9996797971040683
 10
938.30495530509347
 20
-1345.6002623341826
 30
0.0
 41
1.0
 10
938.30885910781899
 20
-1345.6127667923515
 30
0.0
 41
1.0
 10
938.31276291054451
 20
-1345.6252712505204
 30
0.0
 41
1.0
 10
938.33899680095487
 20
-1345.7093022859765
 30
0.0
 41
0.9979274938734355
 10
938.35422132443409
 20
-1345.7960066446369
 30
0.0
 41
1.0
 10
938.35644501169486
 20
-1345.808670645456
 30
0.0
 41
1.0
 10
938.35866869895574
 20
-1345.8213346462751
 30
0.0
 41
1.0
 10
938.36959863865468
 20
-1345.8835811535689
 30
0.0
 41
0.9994985982137418
 10
938.37656680383157
 20
-1345.9463946547112
 30
0.0
 41
1.0
 10
938.38353496900834
 20
-1346.0092081558485
 30
0.0
 41
0.9996372611200992
 10
938.38711083477608
 20
-1346.0723057345308
 30
0.0
 41
1.0
 10
938.38727941226557
 20
-1346.0752803516152
 30
0.0
 41
1.0
 10
938.38744798975495
 20
-1346.0782549686999
 30
0.0
 41
1.0
 10
938.39136101050121
 20
-1346.1473017815445
 30
0.0
 41
0.9997730630736238
 10
938.39232932398932
 20
-1346.2164526055763
 30
0.0
 41
1.0
 10
938.39238643040744
 20
-1346.22053078472
 30
0.0
 41
1.0
 10
938.39244353682557
 20
-1346.2246089638638
 30
0.0
 41
1.0
 10
938.39352606314981
 20
-1346.3019161461852
 30
0.0
 41
0.9998772614069083
 10
938.39218597641798
 20
-1346.3792192927531
 30
0.0
 41
1.0
 10
938.3920967132193
 20
-1346.3843684565845
 30
0.0
 41
1.0
 10
938.39200745002063
 20
-1346.389517620416
 30
0.0
 41
1.0
 10
938.39048883689145
 20
-1346.4771190946506
 30
0.0
 41
0.9999415567326905
 10
938.38707652664505
 20
-1346.5646672563362
 30
0.0
 41
1.0
 10
938.38683520596987
 20
-1346.570858716068
 30
0.0
 41
1.0
 10
938.38659388529481
 20
-1346.5770501758
 30
0.0
 41
1.0
 10
938.38269893369795
 20
-1346.6769812569587
 30
0.0
 41
0.9999716810434098
 10
938.37730035057973
 20
-1346.7768423951793
 30
0.0
 41
1.0
 10
938.37408755179104
 20
-1346.8362716448339
 30
0.0
 41
1.0
 10
938.37087475300245
 20
-1346.8957008944885
 30
0.0
 41
1.0
 10
938.36280084384975
 20
-1347.0450492957716
 30
0.0
 41
0.9999819129906373
 10
938.35293105223286
 20
-1347.1942897734855
 30
0.0
 41
1.0
 10
938.34306126061631
 20
-1347.3435302511969
 30
0.0
 41
1.0
 10
938.34062194005242
 20
-1347.3807232970462
 30
0.0
 41
1.0
 10
938.36332017388281
 20
-1347.3419822997175
 30
0.0
 41
0.9999982127994569
 10
938.38616473264733
 20
-1347.3033274057443
 30
0.0
 41
1.0
 10
938.41307429252788
 20
-1347.2577941916961
 30
0.0
 41
1.0
 10
938.43998385240855
 20
-1347.2122609776482
 30
0.0
 41
1.0
 10
938.51664753093405
 20
-1347.082539655579
 30
0.0
 41
0.9998609190057378
 10
938.59759484379663
 20
-1346.9554472736486
 30
0.0
 41
1.0
 10
938.6272431652792
 20
-1346.9088975406898
 30
0.0
 41
1.0
 10
938.65689148676188
 20
-1346.8623478077313
 30
0.0
 41
1.0
 10
938.7391637069984
 20
-1346.7331752377372
 30
0.0
 41
0.99990676097348
 10
938.82493271646081
 20
-1346.6062975482982
 30
0.0
 41
1.0
 10
938.82733741966047
 20
-1346.6027402822451
 30
0.0
 41
1.0
 10
938.82974212286013
 20
-1346.5991830161922
 30
0.0
 41
1.0
 10
938.91070172592117
 20
-1346.479419858862
 30
0.0
 41
0.9998784952150989
 10
938.99535533560618
 20
-1346.3622386421484
 30
0.0
 41
1.0
 10
939.08000894528686
 20
-1346.2450574254403
 30
0.0
 41
0.9998532968284253
 10
939.16862656610863
 20
-1346.1308445169711
 30
0.0
 41
1.0
 10
939.18858835510105
 20
-1346.1051171959493
 30
0.0
 41
1.0
 10
939.20855014409358
 20
-1346.0793898749273
 30
0.0
 41
1.0
 10
939.32703419385189
 20
-1345.9266842639597
 30
0.0
 41
0.9991551975795396
 10
939.45765864347482
 20
-1345.7842247018768
 30
0.0
 41
1.0
 10
939.46116825945319
 20
-1345.780397100254
 30
0.0
 41
1.0
 10
939.46467787543156
 20
-1345.7765694986313
 30
0.0
 41
1.0
 10
939.58828309309649
 20
-1345.6417651397951
 30
0.0
 41
0.9997418144181018
 10
939.71788523279884
 20
-1345.5127157291809
 30
0.0
 41
1.0
 10
939.84748737249879
 20
-1345.3836663185689
 30
0.0
 41
0.9989238204633436
 10
939.98848992074886
 20
-1345.2671813565307
 30
0.0
 41
1.0
 10
940.03373759888882
 20
-1345.2298013649215
 30
0.0
 41
1.0
 10
940.07898527702889
 20
-1345.1924213733125
 30
0.0
 41
1.0
 10
940.21922533425129
 20
-1345.0765663200209
 30
0.0
 41
0.9990825084096853
 10
940.36886526685498
 20
-1344.973137322188
 30
0.0
 41
1.0
 10
940.37891063090854
 20
-1344.9661941091108
 30
0.0
 41
1.0
 10
940.38895599496209
 20
-1344.9592508960336
 30
0.0
 41
1.0
 10
940.51850519945401
 20
-1344.8697083243583
 30
0.0
 41
0.9998164899825488
 10
940.65138940283521
 20
-1344.7851940828386
 30
0.0
 41
1.0
 10
940.6632349633619
 20
-1344.7776603163124
 30
0.0
 41
1.0
 10
940.67508052388871
 20
-1344.7701265497863
 30
0.0
 41
1.0
 10
940.78427360621254
 20
-1344.7006798413217
 30
0.0
 41
0.9997473449130691
 10
940.89647756346085
 20
-1344.6362108835067
 30
0.0
 41
1.0
 10
941.00868152070916
 20
-1344.5717419256916
 30
0.0
 41
0.9999327861147479
 10
941.12235013146881
 20
-1344.5098919340123
 30
0.0
 41
1.0
 10
941.12290213403207
 20
-1344.5095915753318
 30
0.0
 41
1.0
 10
941.12345413659523
 20
-1344.5092912166513
 30
0.0
 41
1.0
 10
941.23822675247948
 20
-1344.4468405076118
 30
0.0
 41
0.9996956420483157
 10
941.35594007832071
 20
-1344.3901270406363
 30
0.0
 41
1.0
 10
941.38638048321218
 20
-1344.3754610639071
 30
0.0
 41
1.0
 10
941.41682088810353
 20
-1344.3607950871778
 30
0.0
 41
1.0
 10
941.51979799484729
 20
-1344.3111814287342
 30
0.0
 41
0.9998070570175864
 10
941.6246443837905
 20
-1344.2656508418322
 30
0.0
 41
1.0
 10
941.72949077273347
 20
-1344.2201202549306
 30
0.0
 41
0.9997827436147611
 10
941.83614370934311
 20
-1344.1789990836187
 30
0.0
 41
1.0
 10
941.85536655897363
 20
-1344.1715875099867
 30
0.0
 41
1.0
 10
941.87458940860415
 20
-1344.1641759363547
 30
0.0
 41
1.0
 10
942.01968804447756
 20
-1344.1082316177778
 30
0.0
 41
0.9988031841976367
 10
942.16955840708204
 20
-1344.0667315536102
 30
0.0
 41
1.0
 10
942.19447565544601
 20
-1344.0598318078032
 30
0.0
 41
1.0
 10
942.2193929038101
 20
-1344.052932061996
 30
0.0
 41
1.0
 10
942.38666292945641
 20
-1344.0066139195894
 30
0.0
 41
0.9984748040550027
 10
942.55801983810409
 20
-1343.9790196873248
 30
0.0
 41
1.0
 10
942.56275897435319
 20
-1343.9782565268115
 30
0.0
 41
1.0
 10
942.56749811060229
 20
-1343.9774933662979
 30
0.0
 41
1.0
 10
942.72937674675313
 20
-1343.95142545506
 30
0.0
 41
0.9984436495479933
 10
942.89315149047775
 20
-1343.9435475012413
 30
0.0
 41
1.0
 10
942.91484869860903
 20
-1343.9425038140416
 30
0.0
 41
1.0
 10
942.93654590674032
 20
-1343.941460126842
 30
0.0
 41
1.0
 10
943.05692623420236
 20
-1343.9356695474225
 30
0.0
 41
0.9987954789335233
 10
943.17729447911233
 20
-1343.9417060751648
 30
0.0
 41
1.0
 10
943.19725927160812
 20
-1343.9427073195034
 30
0.0
 41
1.0
 10
943.21722406410402
 20
-1343.9437085638422
 30
0.0
 41
1.0
 10
943.29766272402367
 20
-1343.9477426029073
 30
0.0
 41
0.9997941595877502
 10
943.37787150211659
 20
-1343.9550366688281
 30
0.0
 41
1.0
 10
943.45808028021463
 20
-1343.9623307347497
 30
0.0
 41
0.9998589466236496
 10
943.53799882707324
 20
-1343.9723145892003
 30
0.0
 41
1.0
 10
943.57040502887787
 20
-1343.976362946119
 30
0.0
 41
1.0
 10
943.60281123068251
 20
-1343.9804113030377
 30
0.0
 41
1.0
 10
943.74754218115311
 20
-1343.998491871326
 30
0.0
 41
0.999349506324908
 10
943.89059342491794
 20
-1344.0269575810676
 30
0.0
 41
1.0
 10
943.92352712207162
 20
-1344.0335110442827
 30
0.0
 41
1.0
 10
943.95646081922541
 20
-1344.0400645074978
 30
0.0
 41
1.0
 10
944.0657546424286
 20
-1344.0618128416329
 30
0.0
 41
0.9996788715561211
 10
944.17380621438463
 20
-1344.0890706409959
 30
0.0
 41
1.0
 10
944.17586921692418
 20
-1344.089591067569
 30
0.0
 41
1.0
 10
944.17793221946386
 20
-1344.0901114941421
 30
0.0
 41
1.0
 10
944.28185778634179
 20
-1344.1163284403592
 30
0.0
 41
0.9995480654492639
 10
944.38402002157045
 20
-1344.1487433969833
 30
0.0
 41
1.0
 10
944.38570966369957
 20
-1344.1492795018971
 30
0.0
 41
1.0
 10
944.38739930582858
 20
-1344.1498156068112
 30
0.0
 41
1.0
 10
944.48618225679979
 20
-1344.1811583536078
 30
0.0
 41
0.9993867959456058
 10
944.58252941524245
 20
-1344.2193377228975
 30
0.0
 41
1.0
 10
944.58377236432659
 20
-1344.2198302647935
 30
0.0
 41
1.0
 10
944.58501531341074
 20
-1344.2203228066894
 30
0.0
 41
1.0
 10
944.67887657368453
 20
-1344.2575170921871
 30
0.0
 41
0.9992050256521701
 10
944.76947624871832
 20
-1344.302070991426
 30
0.0
 41
1.0
 10
944.77021093143173
 20
-1344.3024322838874
 30
0.0
 41
1.0
 10
944.77094561414515
 20
-1344.3027935763487
 30
0.0
 41
1.0
 10
944.86007592375256
 20
-1344.3466248906652
 30
0.0
 41
0.9990222350741896
 10
944.94498598514542
 20
-1344.398158158363
 30
0.0
 41
1.0
 10
944.94516987042812
 20
-1344.3982697612678
 30
0.0
 41
1.0
 10
944.9453537557107
 20
-1344.3983813641726
 30
0.0
 41
1.0
 10
945.02989604653862
 20
-1344.449691426061
 30
0.0
 41
0.9988642743805378
 10
945.10917058115797
 20
-1344.5088156135866
 30
0.0
 41
1.0
 10
945.18844511577777
 20
-1344.5679398011125
 30
0.0
 41
0.9987681233310948
 10
945.26146890005373
 20
-1344.6346304925132
 30
0.0
 41
1.0
 10
945.26179782801933
 20
-1344.6349308937272
 30
0.0
 41
1.0
 10
945.26212675598481
 20
-1344.6352312949411
 30
0.0
 41
1.0
 10
945.33580839619253
 20
-1344.7025227887702
 30
0.0
 41
0.9987496570898327
 10
945.40240220151964
 20
-1344.7768356028569
 30
0.0
 41
1.0
 10
945.4031743712801
 20
-1344.7776972762149
 30
0.0
 41
1.0
 10
945.40394654104057
 20
-1344.7785589495727
 30
0.0
 41
1.0
 10
945.47208468588769
 20
-1344.8545951103738
 30
0.0
 41
0.9988147669826568
 10
945.53250694011274
 20
-1344.9368961172163
 30
0.0
 41
1.0
 10
945.53362626619094
 20
-1344.9384207485696
 30
0.0
 41
1.0
 10
945.53474559226913
 20
-1344.9399453799226
 30
0.0
 41
1.0
 10
945.59740649865012
 20
-1345.0252956494712
 30
0.0
 41
0.9989452636216534
 10
945.65197341161115
 20
-1345.1160343386284
 30
0.0
 41
1.0
 10
945.6533221376967
 20
-1345.1182771196545
 30
0.0
 41
1.0
 10
945.65467086378226
 20
-1345.1205199006804
 30
0.0
 41
1.0
 10
945.71193522891508
 20
-1345.2157441518905
 30
0.0
 41
0.9991046436070149
 10
945.76094444223668
 20
-1345.3154685849161
 30
0.0
 41
1.0
 10
945.76240830382665
 20
-1345.3184472649887
 30
0.0
 41
1.0
 10
945.76387216541661
 20
-1345.321425945061
 30
0.0
 41
1.0
 10
945.81580910191849
 20
-1345.4271077382316
 30
0.0
 41
0.9992763831100686
 10
945.85956223047356
 20
-1345.5364318001875
 30
0.0
 41
1.0
 10
945.86104150013682
 20
-1345.540127987721
 30
0.0
 41
1.0
 10
945.86252076980008
 20
-1345.5438241752545
 30
0.0
 41
1.0
 10
945.90923243768202
 20
-1345.6605406122781
 30
0.0
 41
0.9994163472883417
 10
945.94786546887065
 20
-1345.7801742007389
 30
0.0
 41
1.0
 10
945.94910362111762
 20
-1345.7840083445224
 30
0.0
 41
1.0
 10
945.95034177336458
 20
-1345.7878424883058
 30
0.0
 41
1.0
 10
945.99022533438279
 20
-1345.9113485497871
 30
0.0
 41
0.9997268055890305
 10
946.02429339029436
 20
-1346.0365835817363
 30
0.0
 41
1.0
 10
946.02522357056341
 20
-1346.040002947843
 30
0.0
 41
1.0
 10
946.02615375083235
 20
-1346.0434223139498
 30
0.0
 41
1.0
 10
946.05836144620537
 20
-1346.1618186136823
 30
0.0
 41
0.9996701318999964
 10
946.08444706297678
 20
-1346.2817125669503
 30
0.0
 41
1.0
 10
946.11053267974671
 20
-1346.40160652021
 30
0.0
 41
0.9995785451109173
 10
946.12961625708647
 20
-1346.5228122812418
 30
0.0
 41
1.0
 10
946.13383603926059
 20
-1346.5496134360089
 30
0.0
 41
1.0
 10
946.13805582143459
 20
-1346.576414590776
 30
0.0
 41
1.0
 10
946.16463079737298
 20
-1346.7452005644782
 30
0.0
 41
0.9979925101216898
 10
946.16965638329941
 20
-1346.9159918925702
 30
0.0
 41
1.0
 10
946.17048119572405
 20
-1346.9440226160468
 30
0.0
 41
1.0
 10
946.17130600814858
 20
-1346.9720533395234
 30
0.0
 41
1.0
 10
946.17468196922607
 20
-1347.0867832206548
 30
0.0
 41
0.9995314902262715
 10
946.17103177708725
 20
-1347.2015047044138
 30
0.0
 41
1.0
 10
946.16738158494911
 20
-1347.3162261881623
 30
0.0
 41
0.9996245486943958
 10
946.15745248981807
 20
-1347.4305754592879
 30
0.0
 41
1.0
 10
946.15728944182376
 20
-1347.4324532154242
 30
0.0
 41
1.0
 10
946.15712639382946
 20
-1347.4343309715603
 30
0.0
 41
1.0
 10
946.14687120270935
 20
-1347.5524357549598
 30
0.0
 41
0.9997286095001247
 10
946.13112587913804
 20
-1347.6699346638538
 30
0.0
 41
1.0
 10
946.13073238648803
 20
-1347.6728710885536
 30
0.0
 41
1.0
 10
946.13033889383792
 20
-1347.6758075132532
 30
0.0
 41
1.0
 10
946.1138065849666
 20
-1347.7991792715475
 30
0.0
 41
0.9998265533969509
 10
946.09269112623451
 20
-1347.9218497463316
 30
0.0
 41
1.0
 10
946.09201458409666
 20
-1347.9257801248434
 30
0.0
 41
1.0
 10
946.09133804195881
 20
-1347.9297105033552
 30
0.0
 41
1.0
 10
946.06886949895124
 20
-1348.060241735162
 30
0.0
 41
0.9999022530854566
 10
946.04276003434097
 20
-1348.1900937038019
 30
0.0
 41
1.0
 10
946.04178139317605
 20
-1348.1949608461869
 30
0.0
 41
1.0
 10
946.04080275201125
 20
-1348.1998279885715
 30
0.0
 41
1.0
 10
946.01273600506909
 20
-1348.339414241992
 30
0.0
 41
0.9999524761934924
 10
945.98195303623277
 20
-1348.4784267351627
 30
0.0
 41
1.0
 10
945.98067692905875
 20
-1348.4841894944584
 30
0.0
 41
1.0
 10
945.97940082188484
 20
-1348.4899522537539
 30
0.0
 41
1.0
 10
945.9460656386982
 20
-1348.6404902655274
 30
0.0
 41
0.9999813588737747
 10
945.91089463790081
 20
-1348.7906099781899
 30
0.0
 41
1.0
 10
945.90934071244556
 20
-1348.7972425686069
 30
0.0
 41
1.0
 10
945.9077867869903
 20
-1348.8038751590238
 30
0.0
 41
1.0
 10
945.86950793528536
 20
-1348.9672600525073
 30
0.0
 41
0.9999955237628675
 10
945.83025205729962
 20
-1349.1304129561363
 30
0.0
 41
1.0
 10
945.8179704216659
 20
-1349.1814571466566
 30
0.0
 41
1.0
 10
945.80568878603208
 20
-1349.2325013371772
 30
0.0
 41
1.0
 10
945.74186963677914
 20
-1349.4977426218452
 30
0.0
 41
0.9999993604332911
 10
945.67745068963188
 20
-1349.7628388724434
 30
0.0
 41
1.0
 10
945.67273185407635
 20
-1349.7822577805189
 30
0.0
 41
1.0
 10
945.66801301852081
 20
-1349.8016766885944
 30
0.0
 41
1.0
 10
945.594156400261
 20
-1350.1056107553518
 30
0.0
 41
0.999965991472191
 10
945.51529680437613
 20
-1350.4082853019086
 30
0.0
 41
1.0
 10
945.51034411544492
 20
-1350.4272944390932
 30
0.0
 41
1.0
 10
945.50539142651382
 20
-1350.4463035762776
 30
0.0
 41
1.0
 10
945.4166264527704
 20
-1350.7869963971896
 30
0.0
 41
0.9999441976024506
 10
945.32068341980812
 20
-1351.1257378224846
 30
0.0
 41
1.0
 10
945.303982901381
 20
-1351.1847015350179
 30
0.0
 41
1.0
 10
945.28728238295389
 20
-1351.2436652475512
 30
0.0
 41
1.0
 10
945.15793831313897
 20
-1351.7003340979063
 30
0.0
 41
0.9999625120735777
 10
945.02070554581542
 20
-1352.1546946319029
 30
0.0
 41
1.0
 10
944.98491560273226
 20
-1352.2731906585304
 30
0.0
 41
1.0
 10
944.9491256596491
 20
-1352.391686685158
 30
0.0
 41
1.0
 10
944.87460545560907
 20
-1352.6384137632572
 30
0.0
 41
0.9999793386305091
 10
944.79691943247121
 20
-1352.8841624024938
 30
0.0
 41
1.0
 10
944.7192334093337
 20
-1353.1299110417299
 30
0.0
 41
1.0
 10
944.708453850463
 20
-1353.1639289461045
 30
0.0
 41
1.0
 10
942.85808079719391
 20
-1359.0510008685719
 30
0.0
 41
1.0
 10
941.0077077439247
 20
-1364.9380727910395
 30
0.0
 41
1.0
 10
940.04645105390114
 20
-1364.9380727910395
 30
0.0
 41
1.0
 10
939.08519436387758
 20
-1364.9380727910395
 30
0.0
 41
1.0
 10
940.70413914255596
 20
-1359.7900442892501
 30
0.0
 41
1.0
 10
942.32308392123446
 20
-1354.6420157874607
 30
0.0
 41
1.0
 10
942.36824974440469
 20
-1354.497984565204
 30
0.0
 41
1.0
 10
942.41341556757482
 20
-1354.3539533429473
 30
0.0
 41
1.0
 10
942.58371998493863
 20
-1353.8108623137816
 30
0.0
 41
0.999991165788255
 10
942.74945279662597
 20
-1353.2663587823947
 30
0.0
 41
1.0
 10
942.77914874012708
 20
-1353.1687948423421
 30
0.0
 41
1.0
 10
942.80884468362819
 20
-1353.0712309022895
 30
0.0
 41
1.0
 10
942.91518560830661
 20
-1352.7218552510299
 30
0.0
 41
0.9999952428160223
 10
943.01936919763125
 20
-1352.3718302266816
 30
0.0
 41
1.0
 10
943.02442866796468
 20
-1352.3548319524029
 30
0.0
 41
1.0
 10
943.02948813829823
 20
-1352.3378336781243
 30
0.0
 41
1.0
 10
943.12355278695372
 20
-1352.0218052023399
 30
0.0
 41
0.9999931687505125
 10
943.21527862482981
 20
-1351.7050899890614
 30
0.0
 41
1.0
 10
943.22021388928897
 20
-1351.6880492797914
 30
0.0
 41
1.0
 10
943.22514915374825
 20
-1351.6710085705213
 30
0.0
 41
1.0
 10
943.30700446270384
 20
-1351.3883747757895
 30
0.0
 41
0.9999893840823655
 10
943.3862516891603
 20
-1351.1049986465443
 30
0.0
 41
1.0
 10
943.4654989156154
 20
-1350.8216225173046
 30
0.0
 41
0.9999833980059574
 10
943.54147515635339
 20
-1350.5373519342897
 30
0.0
 41
1.0
 10
943.55047909307973
 20
-1350.5036630557961
 30
0.0
 41
1.0
 10
943.55948302980607
 20
-1350.4699741773027
 30
0.0
 41
1.0
 10
943.62844757867151
 20
-1350.2119383450099
 30
0.0
 41
0.9999233658066331
 10
943.69100254989064
 20
-1349.9522741862913
 30
0.0
 41
1.0
 10
943.75355752111091
 20
-1349.6926100275689
 30
0.0
 41
1.0
 10
943.79304093996848
 20
-1349.5288033631427
 30
0.0
 41
1.0
 10
943.79801954394748
 20
-1349.5081484012653
 30
0.0
 41
1.0
 10
943.80299814792636
 20
-1349.4874934393879
 30
0.0
 41
1.0
 10
943.83252435882855
 20
-1349.3649966987068
 30
0.0
 41
0.9999868670869415
 10
943.86079344282223
 20
-1349.2422037530712
 30
0.0
 41
1.0
 10
943.86469092998141
 20
-1349.225274165648
 30
0.0
 41
1.0
 10
943.86858841714059
 20
-1349.2083445782248
 30
0.0
 41
1.0
 10
943.88906252682125
 20
-1349.1194108074139
 30
0.0
 41
0.9999778173351102
 10
943.9083501249338
 20
-1349.0302121901952
 30
0.0
 41
1.0
 10
943.92763772305125
 20
-1348.9410135729549
 30
0.0
 41
0.9999602692864088
 10
943.94533208168252
 20
-1348.8514852845262
 30
0.0
 41
1.0
 10
943.94853591375886
 20
-1348.8352748296466
 30
0.0
 41
1.0
 10
943.95173974583531
 20
-1348.8190643747671
 30
0.0
 41
1.0
 10
943.9758417686221
 20
-1348.6971151765647
 30
0.0
 41
0.9995617985320554
 10
943.9926851158408
 20
-1348.573953428858
 30
0.0
 41
1.0
 10
943.99514960574652
 20
-1348.5559326114958
 30
0.0
 41
1.0
 10
943.99761409565224
 20
-1348.5379117941338
 30
0.0
 41
1.0
 10
944.0178973567007
 20
-1348.3895967444309
 30
0.0
 41
0.9991121410639861
 10
944.0256227102891
 20
-1348.2401006456248
 30
0.0
 41
1.0
 10
944.02654150031367
 20
-1348.2223208090484
 30
0.0
 41
1.0
 10
944.02746029033824
 20
-1348.2045409724719
 30
0.0
 41
1.0
 10
944.03334806387738
 20
-1348.0906045468182
 30
0.0
 41
0.9989792494905241
 10
944.02892897176002
 20
-1347.97660171092
 30
0.0
 41
1.0
 10
944.02828099989131
 20
-1347.9598854649921
 30
0.0
 41
1.0
 10
944.02763302802259
 20
-1347.9431692190642
 30
0.0
 41
1.0
 10
944.02450987964266
 20
-1347.8625988750209
 30
0.0
 41
0.9997820295393856
 10
944.01802588226701
 20
-1347.7822291532777
 30
0.0
 41
1.0
 10
944.01154188489136
 20
-1347.7018594315339
 30
0.0
 41
0.9998335105973902
 10
944.00212968937967
 20
-1347.6217798150842
 30
0.0
 41
1.0
 10
944.00053476470327
 20
-1347.6082100846008
 30
0.0
 41
1.0
 10
943.99893984002688
 20
-1347.5946403541175
 30
0.0
 41
1.0
 10
943.98633779516285
 20
-1347.487421276704
 30
0.0
 41
0.9996876457879258
 10
943.96839388236424
 20
-1347.3809658489861
 30
0.0
 41
1.0
 10
943.96616221921897
 20
-1347.3677261137443
 30
0.0
 41
1.0
 10
943.96393055607371
 20
-1347.3544863785025
 30
0.0
 41
1.0
 10
943.95013473465224
 20
-1347.2726402345418
 30
0.0
 41
0.9995547496494763
 10
943.93148141275992
 20
-1347.1917627373523
 30
0.0
 41
1.0
 10
943.93110745588865
 20
-1347.1901413266467
 30
0.0
 41
1.0
 10
943.93073349901726
 20
-1347.188519915941
 30
0.0
 41
1.0
 10
943.91282809086772
 20
-1347.1108852401628
 30
0.0
 41
0.9994899427175575
 10
943.89000318218791
 20
-1347.0345519573266
 30
0.0
 41
1.0
 10
943.88954465544703
 20
-1347.0330185075372
 30
0.0
 41
1.0
 10
943.88908612870603
 20
-1347.0314850577481
 30
0.0
 41
1.0
 10
943.8671782735089
 20
-1346.9582186744935
 30
0.0
 41
0.9993784877591198
 10
943.84016263840203
 20
-1346.8866779693333
 30
0.0
 41
1.0
 10
943.83963094742512
 20
-1346.8852699866127
 30
0.0
 41
1.0
 10
943.83909925644821
 20
-1346.8838620038921
 30
0.0
 41
1.0
 10
943.81314700329528
 20
-1346.8151372641737
 30
0.0
 41
0.9992430832254525
 10
943.78193046813612
 20
-1346.7486381121059
 30
0.0
 41
1.0
 10
943.7813483520797
 20
-1346.7473980569889
 30
0.0
 41
1.0
 10
943.78076623602328
 20
-1346.7461580018721
 30
0.0
 41
1.0
 10
943.75071393297708
 20
-1346.6821389600382
 30
0.0
 41
0.9990789632797902
 10
943.71528330620004
 20
-1346.6209323482881
 30
0.0
 41
1.0
 10
943.7146876000179
 20
-1346.6199032624286
 30
0.0
 41
1.0
 10
943.71409189383576
 20
-1346.6188741765693
 30
0.0
 41
1.0
 10
943.67985267942322
 20
-1346.559725736538
 30
0.0
 41
0.9988874801119577
 10
943.64019340339132
 20
-1346.5040660241207
 30
0.0
 41
1.0
 10
943.63963787732678
 20
-1346.5032863724455
 30
0.0
 41
1.0
 10
943.63908235126223
 20
-1346.5025067207705
 30
0.0
 41
1.0
 10
943.60053412735874
 20
-1346.448406311702
 30
0.0
 41
0.9986762060692644
 10
943.55663165608303
 20
-1346.3985525972635
 30
0.0
 41
1.0
 10
943.55618769575119
 20
-1346.3980484554472
 30
0.0
 41
1.0
 10
943.55574373541936
 20
-1346.397544313631
 30
0.0
 41
1.0
 10
943.5127291848072
 20
-1346.3486988828249
 30
0.0
 41
0.9984621642489411
 10
943.46457162802903
 20
-1346.3049155823533
 30
0.0
 41
1.0
 10
943.46432499351238
 20
-1346.3046913501898
 30
0.0
 41
1.0
 10
943.46407835899572
 20
-1346.3044671180262
 30
0.0
 41
1.0
 10
943.41641407125121
 20
-1346.2611322818821
 30
0.0
 41
0.9982724693850277
 10
943.36399543940979
 20
-1346.2236879313646
 30
0.0
 41
1.0
 10
943.31157680756803
 20
-1346.1862435808464
 30
0.0
 41
0.9981399180157394
 10
943.25499074417451
 20
-1346.155457061403
 30
0.0
 41
1.0
 10
943.25494508209636
 20
-1346.155432218246
 30
0.0
 41
1.0
 10
943.25489942001809
 20
-1346.155407375089
 30
0.0
 41
1.0
 10
943.19822203246781
 20
-1346.1245711693311
 30
0.0
 41
0.9980927086836943
 10
943.13817668140155
 20
-1346.1009543604787
 30
0.0
 41
1.0
 10
943.13773651168981
 20
-1346.1007812346038
 30
0.0
 41
1.0
 10
943.13729634197807
 20
-1346.1006081087287
 30
0.0
 41
1.0
 10
943.07637065148754
 20
-1346.076645048126
 30
0.0
 41
0.9981411356561379
 10
943.01298213008727
 20
-1346.0602724066202
 30
0.0
 41
1.0
 10
943.01210001338666
 20
-1346.060044564415
 30
0.0
 41
1.0
 10
943.01121789668605
 20
-1346.0598167222097
 30
0.0
 41
1.0
 10
942.94606514188501
 20
-1346.0429883962934
 30
0.0
 41
0.9983031812935299
 10
942.87939771289132
 20
-1346.0338490351173
 30
0.0
 41
1.0
 10
942.87052668748538
 20
-1346.0326329164457
 30
0.0
 41
1.0
 10
942.86165566207933
 20
-1346.031416797774
 30
0.0
 41
1.0
 10
942.80730601957623
 20
-1346.023966067783
 30
0.0
 41
0.9983887708263414
 10
942.75246217028428
 20
-1346.0227213941498
 30
0.0
 41
1.0
 10
942.74439876506869
 20
-1346.022538396275
 30
0.0
 41
1.0
 10
942.73633535985311
 20
-1346.0223553984001
 30
0.0
 41
1.0
 10
942.69761832099346
 20
-1346.0214767205166
 30
0.0
 41
0.9998869563078761
 10
942.65889236778878
 20
-1346.0217625898763
 30
0.0
 41
1.0
 10
942.62016641458081
 20
-1346.022048459236
 30
0.0
 41
0.9999972320124223
 10
942.58144223536431
 20
-1346.0225165587651
 30
0.0
 41
1.0
 10
942.56208921878988
 20
-1346.0227504988543
 30
0.0
 41
1.0
 10
942.54273620221534
 20
-1346.0229844389437
 30
0.0
 41
1.0
 10
942.46530598984828
 20
-1346.0239204186516
 30
0.0
 41
0.99973049450882
 10
942.38800268361433
 20
-1346.0284495124374
 30
0.0
 41
1.0
 10
942.37895304190647
 20
-1346.0289797184275
 30
0.0
 41
1.0
 10
942.3699034001985
 20
-1346.0295099244177
 30
0.0
 41
1.0
 10
942.27450081055349
 20
-1346.0350994301834
 30
0.0
 41
0.9997888306415969
 10
942.1794084747122
 20
-1346.0446043946722
 30
0.0
 41
1.0
 10
942.17068741313824
 20
-1346.0454761093044
 30
0.0
 41
1.0
 10
942.16196635156427
 20
-1346.0463478239367
 30
0.0
 41
1.0
 10
942.04943189257574
 20
-1346.0575962176902
 30
0.0
 41
0.9984170238191028
 10
941.93887274522422
 20
-1346.081412299626
 30
0.0
 41
1.0
 10
941.90249161423799
 20
-1346.0892493354322
 30
0.0
 41
1.0
 10
941.86611048325176
 20
-1346.0970863712382
 30
0.0
 41
1.0
 10
941.75091941483049
 20
-1346.1219002377477
 30
0.0
 41
0.9976592854199005
 10
941.64019124842548
 20
-1346.1621989148948
 30
0.0
 41
1.0
 10
941.52946308202092
 20
-1346.2024975920419
 30
0.0
 41
0.9993255074352395
 10
941.42199128323045
 20
-1346.2508144905341
 30
0.0
 41
1.0
 10
941.41736610430678
 20
-1346.252893866734
 30
0.0
 41
1.0
 10
941.4127409253831
 20
-1346.2549732429338
 30
0.0
 41
1.0
 10
941.29601876874676
 20
-1346.3074488938255
 30
0.0
 41
0.9976475078275494
 10
941.18757142443644
 20
-1346.3753968834837
 30
0.0
 41
1.0
 10
941.16922903030184
 20
-1346.386889362298
 30
0.0
 41
1.0
 10
941.15088663616723
 20
-1346.3983818411125
 30
0.0
 41
1.0
 10
941.06668444461513
 20
-1346.4511389618808
 30
0.0
 41
0.9995131336407198
 10
940.98593672965615
 20
-1346.5090451738349
 30
0.0
 41
1.0
 10
940.9051890147008
 20
-1346.5669513857868
 30
0.0
 41
0.9995810107606381
 10
940.82792736697183
 20
-1346.6294330682526
 30
0.0
 41
1.0
 10
940.82495733576081
 20
-1346.6318349397179
 30
0.0
 41
1.0
 10
940.82198730454979
 20
-1346.6342368111832
 30
0.0
 41
1.0
 10
940.73878559439936
 20
-1346.7015222365794
 30
0.0
 41
0.9996617837954935
 10
940.65919490726219
 20
-1346.773042692141
 30
0.0
 41
1.0
 10
940.64706415638625
 20
-1346.7839434251307
 30
0.0
 41
1.0
 10
940.63493340551031
 20
-1346.7948441581204
 30
0.0
 41
1.0
 10
940.56665787811323
 20
-1346.8561967735932
 30
0.0
 41
0.9997267750052307
 10
940.5013243698304
 20
-1346.9206733101178
 30
0.0
 41
1.0
 10
940.43599086154472
 20
-1346.9851498466451
 30
0.0
 41
0.9999667288956335
 10
940.37171791838898
 20
-1347.0506836535487
 30
0.0
 41
1.0
 10
940.30289047061933
 20
-1347.1208613123015
 30
0.0
 41
1.0
 10
940.2340630228498
 20
-1347.1910389710542
 30
0.0
 41
1.0
 10
940.03213518415043
 20
-1347.3969280954675
 30
0.0
 41
0.9988205335174498
 10
939.85112956717023
 20
-1347.6214323275296
 30
0.0
 41
1.0
 10
939.82048960226712
 20
-1347.6594355779575
 30
0.0
 41
1.0
 10
939.78984963736411
 20
-1347.6974388283854
 30
0.0
 41
1.0
 10
939.54756409057325
 20
-1347.9979495613081
 30
0.0
 41
0.9997077826755066
 10
939.32008613946664
 20
-1348.3098193555268
 30
0.0
 41
1.0
 10
939.31836272433782
 20
-1348.3121821389041
 30
0.0
 41
1.0
 10
939.31663930920899
 20
-1348.3145449222814
 30
0.0
 41
1.0
 10
939.08571452784224
 20
-1348.6311402832575
 30
0.0
 41
0.9989147567078731
 10
938.88525102495805
 20
-1348.9678497444438
 30
0.0
 41
1.0
 10
938.86050987965314
 20
-1349.0094063249928
 30
0.0
 41
1.0
 10
938.83576873434811
 20
-1349.0509629055418
 30
0.0
 41
1.0
 10
938.68055743570801
 20
-1349.3116642899995
 30
0.0
 41
0.9997476598181834
 10
938.53721244819849
 20
-1349.5790740385817
 30
0.0
 41
1.0
 10
938.39386746068885
 20
-1349.8464837871641
 30
0.0
 41
0.9996258967109621
 10
938.26535920875722
 20
-1350.1213317237882
 30
0.0
 41
1.0
 10
938.25215929930528
 20
-1350.1495631238886
 30
0.0
 41
1.0
 10
938.23895938985345
 20
-1350.1777945239887
 30
0.0
 41
1.0
 10
938.09875066885752
 20
-1350.4776669219336
 30
0.0
 41
0.9998735413946722
 10
937.96814932213738
 20
-1350.7818465214004
 30
0.0
 41
1.0
 10
937.96470649407797
 20
-1350.7898651068626
 30
0.0
 41
1.0
 10
937.96126366601868
 20
-1350.7978836923246
 30
0.0
 41
1.0
 10
937.83754797541678
 20
-1351.0860261208686
 30
0.0
 41
0.9999377418858403
 10
937.72029317324223
 20
-1351.3768575885433
 30
0.0
 41
1.0
 10
937.60303837106585
 20
-1351.6676890562221
 30
0.0
 41
0.9999508299510196
 10
937.49157442768887
 20
-1351.9607887330428
 30
0.0
 41
1.0
 10
937.48849365902686
 20
-1351.9688897590054
 30
0.0
 41
1.0
 10
937.48541289036484
 20
-1351.9769907849682
 30
0.0
 41
1.0
 10
937.3677874096627
 20
-1352.2862925137165
 30
0.0
 41
0.999960922843368
 10
937.2556488067878
 20
-1352.5976255297346
 30
0.0
 41
1.0
 10
937.25269279643851
 20
-1352.6058323701432
 30
0.0
 41
1.0
 10
937.24973678608922
 20
-1352.6140392105517
 30
0.0
 41
1.0
 10
937.13168616252074
 20
-1352.9417859073733
 30
0.0
 41
0.9999674607398844
 10
937.01893863645125
 20
-1353.2713945273713
 30
0.0
 41
1.0
 10
936.96754024588631
 20
-1353.4216537230704
 30
0.0
 41
1.0
 10
936.91614185532126
 20
-1353.5719129187698
 30
0.0
 41
1.0
 10
936.80013124856396
 20
-1353.911060901271
 30
0.0
 41
0.9999287532305496
 10
936.69224984459424
 20
-1354.2528816402441
 30
0.0
 41
1.0
 10
936.64577258847737
 20
-1354.4001441845444
 30
0.0
 41
1.0
 10
936.5992953323605
 20
-1354.5474067288449
 30
0.0
 41
1.0
 10
936.58436844063885
 20
-1354.5947023791714
 30
0.0
 41
0.9999998222956358
 10
936.56949793189301
 20
-1354.6420157874607
 30
0.0
 41
1.0
 10
934.94884179509756
 20
-1359.7900442892501
 30
0.0
 41
1.0
 10
933.32818565830212
 20
-1364.9380727910395
 30
0.0
 41
1.0
 10
932.42287721441119
 20
-1364.9380727910395
 30
0.0
 41
1.0
 10
931.51756877052026
 20
-1364.9380727910395
 30
0.0
 41
1.0
 10
933.3696531819063
 20
-1359.0510008685719
 30
0.0
 41
1.0
 10
935.22173759329235
 20
-1353.1639289461045
 30
0.0
 41
1.0
 10
935.23185935159506
 20
-1353.1318857326548
 30
0.0
 41
1.0
 10
935.3044670204448
 20
-1352.901586190829
 30
0.0
 41
1.0
 10
935.37707468928966
 20
-1352.6712866490188
 30
0.0
 41
0.9999825681973007
 10
935.44695772850241
 20
-1352.4401457539502
 30
0.0
 41
1.0
 10
935.49524879066519
 20
-1352.2804211704477
 30
0.0
 41
1.0
 10
935.54353985282796
 20
-1352.1206965869451
 30
0.0
 41
1.0
 10
935.64069220614408
 20
-1351.7993613651734
 30
0.0
 41
0.9999672528959805
 10
935.7326310117669
 20
-1351.4764958195883
 30
0.0
 41
1.0
 10
935.73541989543469
 20
-1351.4667019742051
 30
0.0
 41
1.0
 10
935.73820877910248
 20
-1351.4569081288221
 30
0.0
 41
1.0
 10
935.82456981738926
 20
-1351.1536302740058
 30
0.0
 41
0.9999899749175409
 10
935.90821142692494
 20
-1350.8495911855493
 30
0.0
 41
1.0
 10
935.91831734594075
 20
-1350.8128559478773
 30
0.0
 41
1.0
 10
935.92842326495656
 20
-1350.7761207102053
 30
0.0
 41
1.0
 10
935.99185303645743
 20
-1350.5455520971054
 30
0.0
 41
0.9999214200502784
 10
936.04948246483741
 20
-1350.3134657548876
 30
0.0
 41
1.0
 10
936.06224831702173
 20
-1350.2620548694763
 30
0.0
 41
1.0
 10
936.07501416920604
 20
-1350.2106439840647
 30
0.0
 41
1.0
 10
936.10711189322069
 20
-1350.0813794126557
 30
0.0
 41
0.9999828681658809
 10
936.1376941452105
 20
-1349.9517479382109
 30
0.0
 41
1.0
 10
936.16827639720566
 20
-1349.8221164637453
 30
0.0
 41
0.9999389844479769
 10
936.1959873859945
 20
-1349.6918410078467
 30
0.0
 41
1.0
 10
936.20312512971509
 20
-1349.6582849040078
 30
0.0
 41
1.0
 10
936.21026287343557
 20
-1349.6247288001687
 30
0.0
 41
1.0
 10
936.25224934966468
 20
-1349.4273411365959
 30
0.0
 41
0.9998933699440634
 10
936.28845361406809
 20
-1349.2288115288318
 30
0.0
 41
1.0
 10
936.28982643928407
 20
-1349.2212835081368
 30
0.0
 41
1.0
 10
936.29119926450016
 20
-1349.2137554874419
 30
0.0
 41
1.0
 10
936.33014917933497
 20
-1349.000169838291
 30
0.0
 41
0.9996850305193886
 10
936.35833285559352
 20
-1348.7848988328556
 30
0.0
 41
1.0
 10
936.36032788896273
 20
-1348.7696604787347
 30
0.0
 41
1.0
 10
936.36232292233183
 20
-1348.7544221246142
 30
0.0
 41
1.0
 10
936.38973078479091
 20
-1348.5450768974588
 30
0.0
 41
0.9994697936707095
 10
936.40345534401104
 20
-1348.3343917021243
 30
0.0
 41
1.0
 10
936.40393241326069
 20
-1348.3270682299139
 30
0.0
 41
1.0
 10
936.40440948251035
 20
-1348.3197447577038
 30
0.0
 41
1.0
 10
936.4171799032307
 20
-1348.1237065067944
 30
0.0
 41
0.9991804893136803
 10
936.41405158695784
 20
-1347.92727765682
 30
0.0
 41
1.0
 10
936.41396770813571
 20
-1347.9220108554073
 30
0.0
 41
1.0
 10
936.41388382931359
 20
-1347.9167440539943
 30
0.0
 41
1.0
 10
936.41092327068509
 20
-1347.7308488068463
 30
0.0
 41
0.9988448329321524
 10
936.39013172506134
 20
-1347.5460962170132
 30
0.0
 41
1.0
 10
936.38853765135832
 20
-1347.531931361242
 30
0.0
 41
1.0
 10
936.3869435776553
 20
-1347.5177665054707
 30
0.0
 41
1.0
 10
936.36934017943759
 20
-1347.3613436271798
 30
0.0
 41
0.9985503209458704
 10
936.33502390713807
 20
-1347.2077194430906
 30
0.0
 41
1.0
 10
936.32743791506732
 20
-1347.1737591156921
 30
0.0
 41
1.0
 10
936.31985192299646
 20
-1347.1397987882938
 30
0.0
 41
1.0
 10
936.30070763483911
 20
-1347.0540952590043
 30
0.0
 41
0.999103678137127
 10
936.2743827731872
 20
-1346.9703181716764
 30
0.0
 41
1.0
 10
936.27040054773101
 20
-1346.9576450091652
 30
0.0
 41
1.0
 10
936.26641832227483
 20
-1346.944971846654
 30
0.0
 41
1.0
 10
936.24805791153585
 20
-1346.8865410843507
 30
0.0
 41
0.9998874504367591
 10
936.22795270385768
 20
-1346.8286874821281
 30
0.0
 41
1.0
 10
936.2078474961794
 20
-1346.770833879905
 30
0.0
 41
0.9994041637543277
 10
936.18379888324512
 20
-1346.7145051760156
 30
0.0
 41
1.0
 10
936.17960209902094
 20
-1346.7046751115331
 30
0.0
 41
1.0
 10
936.17540531479665
 20
-1346.6948450470506
 30
0.0
 41
1.0
 10
936.14752648380227
 20
-1346.6295448810838
 30
0.0
 41
0.999184684070209
 10
936.11447012710926
 20
-1346.5667068498037
 30
0.0
 41
1.0
 10
936.11333352071415
 20
-1346.5645462333491
 30
0.0
 41
1.0
 10
936.11219691431916
 20
-1346.5623856168943
 30
0.0
 41
1.0
 10
936.08141377041625
 20
-1346.5038688185234
 30
0.0
 41
0.9989253167921961
 10
936.04534434636116
 20
-1346.4484538901334
 30
0.0
 41
1.0
 10
936.04429022168654
 20
-1346.4468343953704
 30
0.0
 41
1.0
 10
936.04323609701191
 20
-1346.4452149006077
 30
0.0
 41
1.0
 10
936.00927492230596
 20
-1346.3930389617426
 30
0.0
 41
0.9986467172835135
 10
935.97007776966893
 20
-1346.3446729281136
 30
0.0
 41
1.0
 10
935.96920364096763
 20
-1346.3435943258346
 30
0.0
 41
1.0
 10
935.96832951226645
 20
-1346.3425157235558
 30
0.0
 41
1.0
 10
935.93088061703031
 20
-1346.2963068944825
 30
0.0
 41
0.9984001104267284
 10
935.8884538865143
 20
-1346.254621787115
 30
0.0
 41
1.0
 10
935.8878667484048
 20
-1346.2540449122337
 30
0.0
 41
1.0
 10
935.88727961029542
 20
-1346.2534680373524
 30
0.0
 41
1.0
 10
935.84602715599658
 20
-1346.2129366797458
 30
0.0
 41
0.9982442159082056
 10
935.80027105466161
 20
-1346.1775681184861
 30
0.0
 41
1.0
 10
935.80005625919955
 20
-1346.1774020858427
 30
0.0
 41
1.0
 10
935.79984146373749
 20
-1346.1772360531993
 30
0.0
 41
1.0
 10
935.75451495332561
 20
-1346.1421995572257
 30
0.0
 41
0.9982450060835437
 10
935.70536397425417
 20
-1346.1127677741924
 30
0.0
 41
1.0
 10
935.65621299518295
 20
-1346.0833359911592
 30
0.0
 41
0.998392263963522
 10
935.60404668901754
 20
-1346.0596563565045
 30
0.0
 41
1.0
 10
935.60381981169303
 20
-1346.0595533710232
 30
0.0
 41
1.0
 10
935.60359293436863
 20
-1346.0594503855418
 30
0.0
 41
1.0
 10
935.55097287355488
 20
-1346.0355647799249
 30
0.0
 41
0.998651714715001
 10
935.49615990068673
 20
-1346.0172636608031
 30
0.0
 41
1.0
 10
935.49548197925901
 20
-1346.0170373143717
 30
0.0
 41
1.0
 10
935.49480405783129
 20
-1346.0168109679403
 30
0.0
 41
1.0
 10
935.43863524210644
 20
-1345.9980571559552
 30
0.0
 41
0.9989435598956151
 10
935.38098185495323
 20
-1345.9845394537203
 30
0.0
 41
1.0
 10
935.37990173537298
 20
-1345.9842862034677
 30
0.0
 41
1.0
 10
935.37882161579273
 20
-1345.9840329532151
 30
0.0
 41
1.0
 10
935.31900798947822
 20
-1345.9700087504746
 30
0.0
 41
0.9992249241239819
 10
935.25827648058089
 20
-1345.9607334077596
 30
0.0
 41
1.0
 10
935.25686279228967
 20
-1345.9605174993517
 30
0.0
 41
1.0
 10
935.25544910399856
 20
-1345.9603015909438
 30
0.0
 41
1.0
 10
935.19189021852048
 20
-1345.950594431413
 30
0.0
 41
0.9994396597833773
 10
935.12782428198466
 20
-1345.9451615090672
 30
0.0
 41
1.0
 10
935.10868361450559
 20
-1345.9435383413484
 30
0.0
 41
1.0
 10
935.08954294702653
 20
-1345.9419151736297
 30
0.0
 41
1.0
 10
934.98719567553383
 20
-1345.9332359158468
 30
0.0
 41
0.9987693403121468
 10
934.88449205194672
 20
-1345.9347389792995
 30
0.0
 41
1.0
 10
934.87423771772069
 20
-1345.9348890510737
 30
0.0
 41
1.0
 10
934.86398338349477
 20
-1345.9350391228479
 30
0.0
 41
1.0
 10
934.75442761731483
 20
-1345.9366424671352
 30
0.0
 41
0.9989753644966377
 10
934.64546561729708
 20
-1345.9481454740603
 30
0.0
 41
1.0
 10
934.53650361728069
 20
-1345.9596484809856
 30
0.0
 41
0.9983190067306238
 10
934.42960480631621
 20
-1345.9836834727723
 30
0.0
 41
1.0
 10
934.42070385470925
 20
-1345.9856847513352
 30
0.0
 41
1.0
 10
934.41180290310217
 20
-1345.9876860298978
 30
0.0
 41
1.0
 10
934.28710218892525
 20
-1346.0157235788095
 30
0.0
 41
0.9985539388303673
 10
934.16613243524841
 20
-1346.0569872548544
 30
0.0
 41
1.0
 10
934.16378700428686
 20
-1346.0577872986707
 30
0.0
 41
1.0
 10
934.16144157332519
 20
-1346.058587342487
 30
0.0
 41
1.0
 10
934.03578095772582
 20
-1346.1014511061646
 30
0.0
 41
0.9988468746493592
 10
933.91481061542436
 20
-1346.1561691912277
 30
0.0
 41
1.0
 10
933.91162779343665
 20
-1346.1576088657871
 30
0.0
 41
1.0
 10
933.90844497144894
 20
-1346.1590485403467
 30
0.0
 41
1.0
 10
933.7811089851715
 20
-1346.2166459745288
 30
0.0
 41
0.9991322885919013
 10
933.65900840111556
 20
-1346.2846413067102
 30
0.0
 41
1.0
 10
933.64140639007053
 20
-1346.2944435087006
 30
0.0
 41
1.0
 10
933.6238043790255
 20
-1346.304245710691
 30
0.0
 41
1.0
 10
933.52162769796894
 20
-1346.3611458264713
 30
0.0
 41
0.9993860037849071
 10
933.423686693896
 20
-1346.4250618420597
 30
0.0
 41
1.0
 10
933.41806838104367
 20
-1346.4287283367546
 30
0.0
 41
1.0
 10
933.41245006819133
 20
-1346.4323948314495
 30
0.0
 41
1.0
 10
933.32574568982091
 20
-1346.4889778576494
 30
0.0
 41
0.9998821494952946
 10
933.24081931400974
 20
-1346.548196087725
 30
0.0
 41
1.0
 10
933.15589293819937
 20
-1346.6074143178
 30
0.0
 41
0.9997976482743735
 10
933.07341730780047
 20
-1346.670000725838
 30
0.0
 41
1.0
 10
933.058781042992
 20
-1346.6811074156205
 30
0.0
 41
1.0
 10
933.04414477818352
 20
-1346.6922141054031
 30
0.0
 41
1.0
 10
932.93239661816938
 20
-1346.777013893005
 30
0.0
 41
0.999809163080035
 10
932.82404634014154
 20
-1346.8661142437068
 30
0.0
 41
1.0
 10
932.81104058766459
 20
-1346.8768093441524
 30
0.0
 41
1.0
 10
932.79803483518776
 20
-1346.8875044445981
 30
0.0
 41
1.0
 10
932.66367305220672
 20
-1346.9979949961905
 30
0.0
 41
0.9995035112317322
 10
932.53653717444615
 20
-1347.1167288132026
 30
0.0
 41
1.0
 10
932.52688986405678
 20
-1347.1257385593626
 30
0.0
 41
1.0
 10
932.5172425536673
 20
-1347.1347483055224
 30
0.0
 41
1.0
 10
932.39381949090239
 20
-1347.2500146772779
 30
0.0
 41
0.9994630424299179
 10
932.2782110851183
 20
-1347.3731174205132
 30
0.0
 41
1.0
 10
932.27452824634543
 20
-1347.3770390000277
 30
0.0
 41
1.0
 10
932.27084540757244
 20
-1347.3809605795425
 30
0.0
 41
1.0
 10
932.16260267933308
 20
-1347.4962201637497
 30
0.0
 41
0.9995160693750003
 10
932.06173664980236
 20
-1347.617987581621
 30
0.0
 41
1.0
 10
932.05980292972254
 20
-1347.6203220058283
 30
0.0
 41
1.0
 10
932.0578692096426
 20
-1347.6226564300352
 30
0.0
 41
1.0
 10
931.96087062027175
 20
-1347.7397549994919
 30
0.0
 41
0.999656147051488
 10
931.87014440160453
 20
-1347.8617777619427
 30
0.0
 41
1.0
 10
931.8639867356992
 20
-1347.8700595509895
 30
0.0
 41
1.0
 10
931.85782906979398
 20
-1347.8783413400361
 30
0.0
 41
1.0
 10
931.77941818293493
 20
-1347.9838005243969
 30
0.0
 41
0.999834905517257
 10
931.70489090100637
 20
-1348.0920391080554
 30
0.0
 41
1.0
 10
931.63036361908121
 20
-1348.2002776917086
 30
0.0
 41
0.9999728109567746
 10
931.55744072317952
 20
-1348.3096036172506
 30
0.0
 41
1.0
 10
931.55612550776004
 20
-1348.3115753867646
 30
0.0
 41
1.0
 10
931.55481029234056
 20
-1348.3135471562789
 30
0.0
 41
1.0
 10
931.47925696559821
 20
-1348.4268166208522
 30
0.0
 41
0.9999972147275646
 10
931.40423915521956
 20
-1348.5404414636953
 30
0.0
 41
1.0
 10
931.39926761260381
 20
-1348.5479715521574
 30
0.0
 41
1.0
 10
931.39429606998817
 20
-1348.5555016406197
 30
0.0
 41
1.0
 10
931.30933517437586
 20
-1348.6841866603902
 30
0.0
 41
0.9999371979005065
 10
931.22727982497884
 20
-1348.8147435741557
 30
0.0
 41
1.0
 10
931.22377094060994
 20
-1348.8203265022321
 30
0.0
 41
1.0
 10
931.22026205624115
 20
-1348.8259094303082
 30
0.0
 41
1.0
 10
931.13118893810929
 20
-1348.9676322002222
 30
0.0
 41
0.9998272025610072
 10
931.0474455472264
 20
-1349.1125680769662
 30
0.0
 41
1.0
 10
931.03223037520434
 20
-1349.1389011914193
 30
0.0
 41
1.0
 10
931.01701520318238
 20
-1349.1652343058727
 30
0.0
 41
1.0
 10
930.9028414682532
 20
-1349.362836411527
 30
0.0
 41
0.9995217214838156
 10
930.80110177869676
 20
-1349.5671187393903
 30
0.0
 41
1.0
 10
930.79345821606125
 20
-1349.5824661890942
 30
0.0
 41
1.0
 10
930.78581465342575
 20
-1349.597813638798
 30
0.0
 41
1.0
 10
930.69890936083539
 20
-1349.7723100968808
 30
0.0
 41
0.9998269762607489
 10
930.6185548945648
 20
-1349.9499183836012
 30
0.0
 41
1.0
 10
930.53820042829489
 20
-1350.1275266703203
 30
0.0
 41
0.9998944747388798
 10
930.4630396337318
 20
-1350.307394395945
 30
0.0
 41
1.0
 10
930.45808596413849
 20
-1350.3192490508673
 30
0.0
 41
1.0
 10
930.4531322945453
 20
-1350.3311037057897
 30
0.0
 41
1.0
 10
930.37248523399069
 20
-1350.5241006458127
 30
0.0
 41
0.9999506734408782
 10
930.29568770508899
 20
-1350.7186614506641
 30
0.0
 41
1.0
 10
930.28108773981285
 20
-1350.7556493724833
 30
0.0
 41
1.0
 10
930.26648777453659
 20
-1350.7926372943027
 30
0.0
 41
1.0
 10
930.21889017618219
 20
-1350.913222255529
 30
0.0
 41
0.9999912393946779
 10
930.17230373216285
 20
-1351.0342014582161
 30
0.0
 41
1.0
 10
930.12571728813919
 20
-1351.155180660915
 30
0.0
 41
0.9999927113991551
 10
930.08005599374542
 20
-1351.276512068416
 30
0.0
 41
1.0
 10
930.06608756234812
 20
-1351.313629050414
 30
0.0
 41
1.0
 10
930.05211913095081
 20
-1351.3507460324117
 30
0.0
 41
1.0
 10
929.97852097376142
 20
-1351.5463114039105
 30
0.0
 41
0.9999487550950048
 10
929.90889734879408
 20
-1351.743326769081
 30
0.0
 41
1.0
 10
929.88530373885351
 20
-1351.8100900793843
 30
0.0
 41
1.0
 10
929.86171012891282
 20
-1351.8768533896878
 30
0.0
 41
1.0
 10
929.76702449454433
 20
-1352.1447872245067
 30
0.0
 41
0.9999808436937928
 10
929.67566290590366
 20
-1352.413872655769
 30
0.0
 41
1.0
 10
929.58430131725902
 20
-1352.6829580870431
 30
0.0
 41
0.999987393292162
 10
929.49564660854469
 20
-1352.9529474420451
 30
0.0
 41
1.0
 10
929.47555425167502
 20
-1353.0141367747988
 30
0.0
 41
1.0
 10
929.45546189480547
 20
-1353.0753261075527
 30
0.0
 41
1.0
 10
929.32662247234975
 20
-1353.4676941280684
 30
0.0
 41
0.9999794883025784
 10
929.20281968739141
 20
-1353.8616803343466
 30
0.0
 41
1.0
 10
929.19166742795414
 20
-1353.897170944583
 30
0.0
 41
1.0
 10
929.18051516851688
 20
-1353.9326615548193
 30
0.0
 41
1.0
 10
929.03795700462047
 20
-1354.3863343069024
 30
0.0
 41
0.999998276168228
 10
928.89708456460289
 20
-1354.840533329033
 30
0.0
 41
1.0
 10
927.30894423203029
 20
-1359.8893030600361
 30
0.0
 41
1.0
 10
925.72080389945768
 20
-1364.9380727910395
 30
0.0
 41
1.0
 10
924.77205328798129
 20
-1364.9380727910395
 30
0.0
 41
1.0
 10
923.82330267650491
 20
-1364.9380727910395
 30
0.0
 41
1.0
 10
927.06158716265804
 20
-1354.6107505910934
 30
0.0
 41
1.0
 10
930.29987164881129
 20
-1344.2834283911473
 30
0.0
 41
1.0
  0
LWPOLYLINE
  5
5D
100
AcDbEntity
  8
0
370
              15
390
0
  6
Continuous
 62
               7
100
AcDbPolyline
 90
      232
 70
             128
 10
904.59632587498425
 20
-1345.3677712226624
 42
0.000437080068672
 10
904.54344870090802
 20
-1345.4364378619239
 10
904.50416446978477
 20
-1345.4875449748151
 42
0.0030481992175739
 10
904.37382575265565
 20
-1345.6592666671727
 10
904.33531408091517
 20
-1345.7106534509476
 42
0.0042058245754892
 10
904.13132903024484
 20
-1345.9876591960219
 10
904.07892390774464
 20
-1346.0600920428019
 42
0.0120948898743192
 10
903.78287999098518
 20
-1346.4908416473481
 10
903.68668749185622
 20
-1346.6383223825837
 42
0.0141601263949725
 10
903.38304344493929
 20
-1347.1339917193113
 10
903.34350617751534
 20
-1347.2028356867397
 42
0.0071131081299427
 10
903.13823385427486
 20
-1347.5723384855812
 42
0.0068458791003174
 10
902.94335432742503
 20
-1347.9474300490706
 10
902.93654246497408
 20
-1347.9609917627808
 42
0.0064120880286279
 10
902.73840021493595
 20
-1348.3684162376867
 10
902.73086552941277
 20
-1348.3844280944211
 42
0.0058857236449179
 10
902.52811013754115
 20
-1348.8288042054558
 10
902.51993521124712
 20
-1348.84729435909
 42
0.0053189741894369
 10
902.31123089857567
 20
-1349.3332578330173
 10
902.30248309289823
 20
-1349.3542397112042
 42
0.0047503650418229
 10
902.08650936674837
 20
-1349.8864391444115
 10
902.07724111839934
 20
-1349.9099155205217
 42
0.0042071762170169
 10
901.85269373467349
 20
-1350.4930091145864
 10
901.84294433232299
 20
-1350.5189752894612
 42
0.0036680086484977
 10
901.60848968900757
 20
-1351.1576106740015
 10
901.59828190916312
 20
-1351.1860592083367
 42
0.0032573142627019
 10
901.35264962318979
 20
-1351.8849118681092
 10
901.28399910235566
 20
-1352.0843749521432
 42
0.0026133366648819
 10
900.93555390359779
 20
-1353.114238235815
 10
900.87229711609723
 20
-1353.3044690712077
 42
0.0020592950740407
 10
900.65843404712996
 20
-1353.9565727238212
 10
900.65538225597174
 20
-1353.9660092122156
 42
0.0025609928536041
 10
900.45356175448103
 20
-1354.6011544345968
 10
900.45097038735139
 20
-1354.6094567755467
 42
0.003136235624023
 10
900.26147960167737
 20
-1355.2302196317169
 10
900.2593485587447
 20
-1355.2373609379454
 42
0.003722991802947
 10
900.08254817182365
 20
-1355.8463462399022
 10
900.08086958262231
 20
-1355.8522931300586
 42
0.004307762370812
 10
899.91712878055216
 20
-1356.4521118618454
 42
0.0047654161822918
 10
899.76430005803491
 20
-1357.0547979507533
 10
899.72983544919703
 20
-1357.1963597278977
 42
0.0112969368444821
 10
899.53397109105401
 20
-1358.0880518885192
 10
899.50596470195683
 20
-1358.2308799346197
 42
0.0130056762572012
 10
899.30512745831015
 20
-1359.4178210062646
 10
899.28458770816314
 20
-1359.5618991197409
 42
0.013872153214435
 10
899.18088470362522
 20
-1360.4687286055673
 10
899.16158921571764
 20
-1360.6922263274882
 42
0.0071254697007628
 10
899.12824256979479
 20
-1361.1554133363397
 10
899.12328159563106
 20
-1361.2414173309071
 42
0.0028881799200266
 10
899.10814330234166
 20
-1361.5331590407422
 42
0.006029729713342
 10
899.09821110256621
 20
-1361.8251079768513
 10
899.09714882089895
 20
-1361.873500348793
 42
0.0229523164159499
 10
899.10487984868473
 20
-1362.1962551950737
 10
899.10910562220488
 20
-1362.2566587290873
 42
0.0123673300669651
 10
899.12818426872343
 20
-1362.4577794542647
 42
0.0128577674471499
 10
899.15737965912945
 20
-1362.65767730419
 10
899.16450553251673
 20
-1362.6990061187885
 42
0.028571785376387
 10
899.22899953421245
 20
-1362.977122270102
 10
899.24266805787863
 20
-1363.0237770395781
 42
0.031628309915651
 10
899.35847863779304
 20
-1363.3427915414049
 10
899.36152732954861
 20
-1363.3497779137306
 42
0.0338984824238197
 10
899.51095904051579
 20
-1363.6373438779196
 10
899.51326776988617
 20
-1363.6411349071964
 42
0.0350228718357741
 10
899.69562806055922
 20
-1363.8981868918725
 10
899.6965133123341
 20
-1363.8992659696364
 42
0.0347476747524966
 10
899.91093799957434
 20
-1364.1264510168567
 42
0.0331337701912438
 10
900.15418132532056
 20
-1364.3225796789336
 10
900.15528142383687
 20
-1364.3233523821063
 42
0.0305233319079946
 10
900.42382611940991
 20
-1364.4884805521976
 10
900.4270561639114
 20
-1364.4902045640606
 42
0.0273744481151985
 10
900.71960987548573
 20
-1364.6263427079509
 10
900.72471441062328
 20
-1364.6283862924206
 42
0.0240964406194192
 10
901.04019148626662
 20
-1364.7373700187013
 10
901.04677481547901
 20
-1364.7392947583771
 42
0.0209636179811545
 10
901.38417496813429
 20
-1364.8227629063097
 10
901.39180742858025
 20
-1364.8243148193105
 42
0.0181388704692253
 10
901.75012982057876
 20
-1364.8837309125245
 10
901.75841066895691
 20
-1364.8847970963416
 42
0.0156086547586099
 10
902.13659803314579
 20
-1364.9215332829183
 10
902.17979328547779
 20
-1364.9243717853974
 42
0.0137148329024564
 10
902.50746643077161
 20
-1364.9368920406487
 10
902.55340262070911
 20
-1364.9373864737638
 42
0.0051057823885116
 10
902.78954820728984
 20
-1364.9375167281728
 42
0.0052256693316559
 10
903.02564549107444
 20
-1364.9327679037085
 10
903.09587227481791
 20
-1364.9306209376946
 42
0.0161507179048285
 10
903.47160935291924
 20
-1364.906970567368
 10
903.49162231329228
 20
-1364.9050603720805
 42
0.0101216737832246
 10
903.90564953478167
 20
-1364.8570674417151
 10
903.93970282420969
 20
-1364.8524197449053
 42
0.0245291776398438
 10
904.41649247976136
 20
-1364.763344666829
 10
904.50131579528636
 20
-1364.7431487464828
 42
0.0143509212558649
 10
904.85794689922443
 20
-1364.6473441127046
 42
0.0156557857036023
 10
905.20816296395299
 20
-1364.5303328968853
 10
905.21566417844633
 20
-1364.5275627351316
 42
0.0170137333631044
 10
905.57226017413097
 20
-1364.3819051202588
 10
905.57936409653519
 20
-1364.3787172846967
 42
0.018310536441182
 10
905.93871376469951
 20
-1364.2013822428733
 10
905.94566052934022
 20
-1364.1976318080001
 42
0.0194899958151807
 10
906.30414127031997
 20
-1363.9856528261121
 10
906.31115514966086
 20
-1363.9811274838144
 42
0.020486985295494
 10
906.66516945175636
 20
-1363.7316074687274
 10
906.67243506034185
 20
-1363.7260274033802
 42
0.0212516938554647
 10
907.01842499144493
 20
-1363.4361234064902
 10
907.0649416855257
 20
-1363.3936560963919
 42
0.0215248918249256
 10
907.32496785441322
 20
-1363.1348918173976
 10
907.36999758879153
 20
-1363.0860476960502
 42
0.0114578554954825
 10
907.52478974247106
 20
-1362.9102247625892
 10
907.53598427846237
 20
-1362.8969059990382
 42
0.0061531305135825
 10
907.66245892445215
 20
-1362.7426164657381
 42
0.0006325587127649
 10
907.78683740863687
 20
-1362.5866130900208
 10
907.80987754365538
 20
-1362.5576395694031
 42
0.0041897761555912
 10
907.97833294762904
 20
-1362.3421201933402
 10
908.0367950675203
 20
-1362.266018846356
 42
0.0092993880040216
 10
908.31340699475095
 20
-1361.8917400824625
 10
908.39580148794062
 20
-1361.7758030789068
 42
0.0159321727083017
 10
908.7424079705853
 20
-1361.2536288581475
 10
908.78676410597836
 20
-1361.181949293891
 42
0.0085547317021975
 10
909.02127587130008
 20
-1360.7880743446729
 42
0.0084601156888836
 10
909.24225204873653
 20
-1360.3864474956515
 10
909.25036752257256
 20
-1360.3710878133677
 42
0.0081429654285546
 10
909.47361679301264
 20
-1359.9313663008215
 10
909.48247695719408
 20
-1359.9131874588074
 42
0.0076574581327635
 10
909.70888446776291
 20
-1359.43000458355
 10
909.71836410848448
 20
-1359.4089401052515
 42
0.0070682724198872
 10
909.94880901629028
 20
-1358.8769028004726
 10
909.95879930027297
 20
-1358.8529136114585
 42
0.006455951444835
 10
910.1941325084548
 20
-1358.2666013449393
 10
910.20454186661959
 20
-1358.2396664194976
 42
0.0058311413908231
 10
910.44558860338225
 20
-1357.593634325114
 10
910.45634368076992
 20
-1357.5637499839531
 42
0.0052312425819428
 10
910.70392495881447
 20
-1356.8525475701076
 10
910.71496879519054
 20
-1356.8197208580491
 42
0.0046680544796336
 10
910.9698972229213
 20
-1356.037894542306
 10
911.01188937297923
 20
-1355.9049113049684
 42
0.0041666856445823
 10
911.21517538536364
 20
-1355.2419425299965
 10
911.25283782602685
 20
-1355.1153614223447
 42
0.0015170975157229
 10
911.37402440444043
 20
-1354.7034930708492
 42
-0.0004887993117738
 10
911.49436417753168
 20
-1354.2913746589161
 10
911.57084143505858
 20
-1354.0304172728661
 42
0.0002583378929462
 10
911.84405600512616
 20
-1353.0963605696757
 10
911.92582885470028
 20
-1352.816261310101
 42
0.0006636169672884
 10
912.11969661471085
 20
-1352.148908386517
 10
912.12479326907157
 20
-1352.1312768035896
 42
0.0010589131324638
 10
912.30624196997451
 20
-1351.498545460588
 10
912.31122404046937
 20
-1351.4810325535173
 42
0.001565552446299
 10
912.47949424763783
 20
-1350.8824158743671
 10
912.48432444805553
 20
-1350.8650237154216
 42
0.0021640440480012
 10
912.63861442003872
 20
-1350.299996697413
 10
912.64324863946661
 20
-1350.2827319674268
 42
0.0028763871851085
 10
912.78276435752173
 20
-1349.7507640165722
 10
912.78715022168672
 20
-1349.7336400384265
 42
0.0037310511946254
 10
912.91110691352583
 20
-1349.234192444394
 10
912.91518213381414
 20
-1349.2172321731514
 42
0.0047652197770852
 10
913.02280603432325
 20
-1348.7497544048433
 10
913.02649663364809
 20
-1348.7329948496865
 42
0.0060276699303047
 10
913.11702673280024
 20
-1348.2969190545491
 10
913.12024542308689
 20
-1348.2804178402525
 42
0.0075824337757439
 10
913.19293473250491
 20
-1347.8751506758138
 10
913.19558010988624
 20
-1347.8589957283566
 42
0.0095130624611646
 10
913.24969534551633
 20
-1347.4839063752916
 10
913.25668156939946
 20
-1347.4279728171705
 42
0.012105465323273
 10
913.28327289997685
 20
-1347.1630769887011
 10
913.28413938973597
 20
-1347.1516735457767
 42
0.0069050827391867
 10
913.29922820777415
 20
-1346.9087323189278
 10
913.30036350744206
 20
-1346.8852060618949
 42
0.0169063976686719
 10
913.30319078642287
 20
-1346.6890133345823
 10
913.30202013489179
 20
-1346.6286775732397
 42
0.0052007732895035
 10
913.29976668629865
 20
-1346.553084183081
 42
0.0054038123299897
 10
913.27980317446111
 20
-1346.4330658870786
 10
913.27471731858941
 20
-1346.4044074004898
 42
0.011205046046723
 10
913.23933295653137
 20
-1346.2280809621532
 10
913.22150799449014
 20
-1346.1485393754301
 42
0.0240764468009334
 10
913.13061062834436
 20
-1345.8183023399299
 10
913.11205186553093
 20
-1345.7616821749359
 42
0.0256812331834335
 10
912.968688945341
 20
-1345.3899579686777
 10
912.96327951951946
 20
-1345.3778266336876
 42
0.026836050121676
 10
912.79385227866976
 20
-1345.0468334996669
 10
912.78831587103434
 20
-1345.0373138293539
 42
0.0274670231729367
 10
912.59611489462145
 20
-1344.7450264544373
 10
912.59073359465924
 20
-1344.7377473068964
 42
0.0275035967098132
 10
912.37916071509699
 20
-1344.482231416592
 10
912.37409121413134
 20
-1344.4767523289624
 42
0.0269557673522201
 10
912.14668767069088
 20
-1344.2561100429994
 10
912.1419446129089
 20
-1344.2519800885391
 42
0.02591248022068
 10
911.9023897814775
 20
-1344.064289561386
 10
911.89785893629551
 20
-1344.0611040590557
 42
0.0245162153005956
 10
911.64994258320075
 20
-1343.9043710499454
 10
911.64541603687724
 20
-1343.901810852745
 42
0.0229282588842563
 10
911.39299648004919
 20
-1343.7739426602457
 10
911.38821598621303
 20
-1343.7717903604839
 42
0.0212984135700765
 10
911.13517803375066
 20
-1343.6705914432414
 10
911.12987374878333
 20
-1343.6687278804823
 42
0.0197555462347386
 10
910.88009541105816
 20
-1343.5919124625166
 42
0.0183511896789388
 10
910.62516668559556
 20
-1343.534329555551
 10
910.53880148887163
 20
-1343.5181267651658
 42
0.0338057877144312
 10
910.25329413961174
 20
-1343.4843183600256
 10
910.16228873457169
 20
-1343.4797387047643
 42
0.0091990524490717
 10
910.0564416259358
 20
-1343.4763628488422
 42
0.0028333980789336
 10
909.95052770994016
 20
-1343.4755347413256
 10
909.94961225689349
 20
-1343.4755327715015
 42
-0.002361982780504
 10
909.84186624179608
 20
-1343.474791930423
 10
909.80546107161172
 20
-1343.4743696239598
 42
0.000882459847429
 10
909.62490508166582
 20
-1343.4725938457207
 10
909.58104364935593
 20
-1343.4722398841959
 42
0.0038132665763906
 10
909.31276075348512
 20
-1343.4721209481293
 10
909.29622709868363
 20
-1343.472239714273
 42
0.0060665569335579
 10
908.9949466070974
 20
-1343.4780600136937
 10
908.98069627506698
 20
-1343.4785083216614
 42
0.0080356953336687
 10
908.65123755872389
 20
-1343.4941760437284
 10
908.6391675436405
 20
-1343.4949446266687
 42
0.0098996399106022
 10
908.28640445898736
 20
-1343.5244298558671
 10
908.27635874961493
 20
-1343.5254701520651
 42
0.0117740981366489
 10
907.90520189126732
 20
-1343.5727623995947
 10
907.89697919478363
 20
-1343.5740075161657
 42
0.013743521513845
 10
907.51239037529592
 20
-1343.6431044897281
 10
907.50573333617513
 20
-1343.644490385961
 42
0.0158359869388291
 10
907.11273624237162
 20
-1343.739382474442
 10
907.1073230555055
 20
-1343.7408724153122
 42
0.0180554124029893
 10
906.71100801089278
 20
-1343.8655104315512
 10
906.70645122280973
 20
-1343.8671264678173
 42
0.0203657431285382
 10
906.31197370499672
 20
-1344.0253868093337
 10
906.30783016599105
 20
-1344.0272484307748
 42
0.0226819684657288
 10
905.92039410978555
 20
-1344.222891009447
 10
905.91619431876927
 20
-1344.2252566013658
 42
0.024863498460645
 10
905.54101237758812
 20
-1344.4618832473127
 10
905.49281744880375
 20
-1344.4957402891387
 42
0.0267044190884283
 10
905.21852475188757
 20
-1344.7111806650069
 42
0.0139303002198896
 10
904.96235758595515
 20
-1344.9484195059126
 10
904.95750420022785
 20
-1344.9531721687788
 42
0.0283460963446713
 10
904.71343160599952
 20
-1345.2209028292252
 10
904.6737631008441
 20
-1345.269704406697
 42
0.0070695364819168
 10
904.59632587498425
 20
-1345.3677712226624
 42
0.0070695364819168
  0
LWPOLYLINE
  5
5E
100
AcDbEntity
  8
0
370
              15
390
0
  6
Continuous
 62
               7
100
AcDbPolyline
 90
      226
 70
             128
 10
901.06750543773785
 20
-1361.0893600288464
 42
-0.0026277636607057
 10
901.06742755393782
 20
-1361.0225881030794
 10
901.06764491216984
 20
-1360.9694328856604
 42
-0.0088680296727914
 10
901.07142152846302
 20
-1360.7964171032543
 10
901.07376788757529
 20
-1360.7371370778037
 42
-0.0077381705613145
 10
901.0898139983392
 20
-1360.4458765819957
 10
901.09068190951155
 20
-1360.4335883483204
 42
-0.0068872530533739
 10
901.11731398926042
 20
-1360.1183665962437
 10
901.11851821344578
 20
-1360.1061256172325
 42
-0.0062130021487007
 10
901.15611193027416
 20
-1359.767255925989
 10
901.15761583380868
 20
-1359.7550820540775
 42
-0.0056726929671088
 10
901.20653769331125
 20
-1359.3928868319626
 10
901.20831113895542
 20
-1359.3807930317189
 42
-0.0052341884495975
 10
901.26892172521445
 20
-1358.9955997762063
 10
901.27093971399199
 20
-1358.9835948462085
 42
-0.0049768450167908
 10
901.34367839542222
 20
-1358.5757502787549
 10
901.36792741014017
 20
-1358.4472022957698
 42
-0.0089029805623325
 10
901.5050082619357
 20
-1357.7854268483438
 10
901.53775363725345
 20
-1357.640395417824
 42
-0.0080318257098789
 10
901.76730225159611
 20
-1356.6946857859632
 10
901.77928717804241
 20
-1356.6485551507803
 42
-0.0074265721317039
 10
902.06329871689502
 20
-1355.6184905723906
 10
902.08317826001212
 20
-1355.5503565117999
 42
-0.0069711922701489
 10
902.41048283851569
 20
-1354.4840887714822
 10
902.47043478562273
 20
-1354.298067413107
 42
-0.0052070422891852
 10
902.69986001088046
 20
-1353.6107953360804
 10
902.71714120301669
 20
-1353.5607680555675
 42
-0.0009167004448999
 10
902.92023309034221
 20
-1352.9763122073091
 42
-0.0025162726942414
 10
903.1273307206061
 20
-1352.3932709431429
 10
903.16455533241526
 20
-1352.2901213972273
 42
-0.0028212681456475
 10
903.41273125137332
 20
-1351.6143907650703
 10
903.42256201412954
 20
-1351.5880833203785
 42
-0.0031964916822847
 10
903.65885427178625
 20
-1350.9678785582664
 10
903.66848872578259
 20
-1350.9430685681298
 42
-0.0036281836451334
 10
903.89359468688644
 20
-1350.3756278872302
 10
903.90303309704245
 20
-1350.3523304557307
 42
-0.0041269166829688
 10
904.11765079370309
 20
-1349.8348895597489
 10
904.15028375012287
 20
-1349.7580111133902
 42
-0.0047472213055819
 10
904.30732855567749
 20
-1349.3975896455045
 10
904.31422263688762
 20
-1349.3821690481682
 42
-0.0025651659997371
 10
904.46258067073586
 20
-1349.054840992424
 42
-0.0057144634995036
 10
904.61633036450621
 20
-1348.7300313190635
 10
904.64436106990468
 20
-1348.6725229366748
 42
-0.0065388068374285
 10
904.82782809764819
 20
-1348.3082904400023
 10
904.8362865534267
 20
-1348.2920308606328
 42
-0.007451084301985
 10
905.01246879930454
 20
-1347.96534257951
 10
905.02064846983956
 20
-1347.9507018022341
 42
-0.0084648979853902
 10
905.19028232293567
 20
-1347.6587927912801
 10
905.19813844942382
 20
-1347.6457857996293
 42
-0.0095638542805224
 10
905.36197389701795
 20
-1347.3858969276507
 10
905.36944884069226
 20
-1347.3745275661913
 42
-0.0107191626804486
 10
905.52825042107725
 20
-1347.1439163316513
 10
905.53526715480825
 20
-1347.1341802392867
 42
-0.0118458573903881
 10
905.68981525332083
 20
-1346.9301080439759
 42
-0.0129184518188581
 10
905.85426787692609
 20
-1346.7339475278013
 10
905.88441264928611
 20
-1346.6998214489054
 42
-0.0217742579635611
 10
906.06102497162078
 20
-1346.516614678656
 10
906.07177051607789
 20
-1346.5063978454561
 42
-0.0097266568654902
 10
906.23782813493699
 20
-1346.3545502710156
 42
-0.018772090571699
 10
906.41217571082905
 20
-1346.2124814176245
 10
906.44288170150253
 20
-1346.1893223352288
 42
-0.0179428207517514
 10
906.67530242149678
 20
-1346.0267701581186
 10
906.67895474840714
 20
-1346.0244062232343
 42
-0.0170047877699453
 10
906.91471838594293
 20
-1345.8829457090792
 10
906.91850137469044
 20
-1345.8808474040425
 42
-0.0160190788363567
 10
907.15540992232479
 20
-1345.7591961020548
 42
-0.015110286149134
 10
907.39944170477168
 20
-1345.6525133260002
 10
907.45182820698324
 20
-1345.6314731931056
 42
-0.027194544188635
 10
907.81049076604165
 20
-1345.5096083823996
 10
907.8795555665323
 20
-1345.4902588411326
 42
-0.0237596594021453
 10
908.29535241355211
 20
-1345.3948081291519
 10
908.3634152672787
 20
-1345.3825534410257
 42
-0.0213715440556681
 10
908.64929019872784
 20
-1345.3436064095151
 10
908.70943736494382
 20
-1345.3380166948143
 42
-0.0101465655820661
 10
908.87692989693994
 20
-1345.3258731515502
 10
908.88627028313783
 20
-1345.325386236553
 42
-0.0100375910882628
 10
909.03542438370073
 20
-1345.3206104186277
 10
909.04568365337718
 20
-1345.3204879796133
 42
-0.0103625633384215
 10
909.17439164803591
 20
-1345.3216194131398
 10
909.19665729930432
 20
-1345.3222767716047
 42
-0.0115689250234876
 10
909.28070803683079
 20
-1345.32670627785
 42
-0.0072438037434452
 10
909.36454631627225
 20
-1345.3342954775994
 10
909.38134682574275
 20
-1345.3360620203234
 42
-0.0217917313138771
 10
909.49791658905451
 20
-1345.3534819130441
 10
909.56351667962474
 20
-1345.3662285214591
 42
-0.0332943556755175
 10
909.7679088446514
 20
-1345.4202688127662
 10
909.79808141319847
 20
-1345.4304368898836
 42
-0.0184824084810419
 10
909.93658646966696
 20
-1345.4828879052711
 42
-0.0198002050700385
 10
910.07066081016603
 20
-1345.5457719654703
 10
910.07254744754323
 20
-1345.5467497523503
 42
-0.0212242342969898
 10
910.20468638994623
 20
-1345.6225124911439
 10
910.20650168548855
 20
-1345.6236582933516
 42
-0.0226090605795186
 10
910.33500558671119
 20
-1345.7131379369168
 10
910.33685002844777
 20
-1345.7145501899035
 42
-0.0238457052221405
 10
910.46003210974118
 20
-1345.8185460857662
 10
910.46198483829971
 20
-1345.820360963532
 42
-0.0248160564147562
 10
910.57818634559999
 20
-1345.9396355647405
 10
910.58028997900237
 20
-1345.9420208984452
 42
-0.0254109591447604
 10
910.68789519686857
 20
-1346.0773092844097
 10
910.6901432187824
 20
-1346.0804508328101
 42
-0.0255528488295252
 10
910.78758989757898
 20
-1346.2324778870436
 10
910.78992099749576
 20
-1346.2365594986522
 42
-0.0252146793224302
 10
910.87570202350514
 20
-1346.4060617446498
 10
910.87800426266244
 20
-1346.411243826562
 42
-0.0244265635952732
 10
910.95065895642369
 20
-1346.5989903986081
 10
910.95990535789247
 20
-1346.626855816947
 42
-0.0231319612898874
 10
911.00582813688436
 20
-1346.7901568637481
 42
-0.0112130424360945
 10
911.04046415942207
 20
-1346.9563604639329
 10
911.04166668453513
 20
-1346.9628570508239
 42
-0.0210527881240268
 10
911.06735315990591
 20
-1347.1439126962655
 10
911.07086375472772
 20
-1347.1793182448125
 42
-0.0190029892428993
 10
911.08630522827241
 20
-1347.4328540910865
 10
911.08711520471638
 20
-1347.4683297054539
 42
-0.0137974553661589
 10
911.08556635188074
 20
-1347.7933611121884
 10
911.08472089692532
 20
-1347.8194798567802
 42
-0.0081336634214535
 10
911.06986156170274
 20
-1348.1248273243793
 42
-0.0073526923571413
 10
911.04555302832921
 20
-1348.4295755686537
 10
911.04429160454538
 20
-1348.4429122433305
 42
-0.0066886138693956
 10
911.00855601849855
 20
-1348.7734982868303
 10
911.00689892902892
 20
-1348.7871199058191
 42
-0.0061359187351422
 10
910.9590483269767
 20
-1349.1438838859283
 10
910.95701082590517
 20
-1349.1577786887483
 42
-0.0056698610060989
 10
910.89636049513717
 20
-1349.5410572575922
 10
910.89395506181518
 20
-1349.555216376817
 42
-0.0052721077270442
 10
910.81982286101356
 20
-1349.9653437165048
 10
910.81705971217377
 20
-1349.9797603518809
 42
-0.0049289272182416
 10
910.72876559407382
 20
-1350.4170688630029
 10
910.72565309939114
 20
-1350.4317377158193
 42
-0.0047415956715274
 10
910.62241510785896
 20
-1350.8965344732294
 10
910.5876468974991
 20
-1351.0463415686131
 42
-0.0084404470902943
 10
910.39763045392806
 20
-1351.8065655931414
 10
910.39150376594159
 20
-1351.8294297172977
 42
-0.003963594025745
 10
910.17005008165881
 20
-1352.6304185815407
 10
910.15667328647805
 20
-1352.677350198137
 42
-0.0072475040837424
 10
909.88922639861698
 20
-1353.5665699145206
 10
909.81901407179248
 20
-1353.7883102644839
 42
-0.0051345458826775
 10
909.5322546997287
 20
-1354.6626354523103
 10
909.5107284329689
 20
-1354.7260617194174
 42
-0.0019150016603301
 10
909.2551950260945
 20
-1355.4696108396663
 10
909.24872742168634
 20
-1355.4881983046218
 42
-0.0021524362752204
 10
909.00024937063449
 20
-1356.1925241262957
 10
908.99103894993755
 20
-1356.2182777045984
 42
-0.0024331286818788
 10
908.75478369090206
 20
-1356.8688770127155
 10
908.74573573835244
 20
-1356.8934203190672
 42
-0.0027449721786554
 10
908.52112116751607
 20
-1357.4925501979942
 10
908.51223116012341
 20
-1357.5158727878477
 42
-0.0031083229768958
 10
908.29868867351388
 20
-1358.0657968254261
 10
908.28995254184531
 20
-1358.0878865412662
 42
-0.0035311343282267
 10
908.08691135624645
 20
-1358.590869667014
 10
908.07832601710413
 20
-1358.6117123905115
 42
-0.0040245640950515
 10
907.88521421330438
 20
-1359.0700217131166
 10
907.87677809970262
 20
-1359.0896010811857
 42
-0.0046015135852397
 10
907.69302180653756
 20
-1359.505506110831
 10
907.68473562870508
 20
-1359.5238032502925
 42
-0.0052768638270867
 10
907.50975810975365
 20
-1359.8995761345534
 10
907.50162589913009
 20
-1359.9165694730896
 42
-0.0060672675643335
 10
907.33484628636074
 20
-1360.2544850962108
 10
907.32687680587821
 20
-1360.27015035521
 42
-0.0069904648870204
 10
907.16770841187781
 20
-1360.5724861618719
 10
907.15991701227256
 20
-1360.5867967110889
 42
-0.0080637022769591
 10
907.00776515192115
 20
-1360.8558320142522
 10
907.00017611928638
 20
-1360.868759879859
 42
-0.0093006455659528
 10
906.85443544275836
 20
-1361.1067742783562
 10
906.84708477601259
 20
-1361.1182922475325
 42
-0.0107060778045797
 10
906.7071362325762
 20
-1361.3275625649082
 10
906.70007446429338
 20
-1361.3376481074788
 42
-0.0122723111405004
 10
906.56528074609855
 20
-1361.5204414369632
 10
906.56495452254558
 20
-1361.5208618247714
 42
-0.0141836319628715
 10
906.42137291957033
 20
-1361.6954315826024
 10
906.41442516391783
 20
-1361.7034065828677
 42
-0.0175957477207675
 10
906.27451899588368
 20
-1361.8530274712718
 42
-0.0080466359667425
 10
906.12705523084094
 20
-1361.9953499994349
 10
906.08102068633605
 20
-1362.0383704375142
 42
-0.0269600260398421
 10
905.82774044035625
 20
-1362.250693696021
 10
905.76117330406089
 20
-1362.3006451106437
 42
-0.0178362839758901
 10
905.52122881440027
 20
-1362.4676630368997
 10
905.51398384339655
 20
-1362.4723315491067
 42
-0.0174650732648243
 10
905.2776476459585
 20
-1362.6131925140637
 42
-0.0169240130160951
 10
905.03218140009892
 20
-1362.7374847738422
 10
904.98619524454307
 20
-1362.7588467294083
 42
-0.0318883036841081
 10
904.63584438892201
 20
-1362.8951850389187
 10
904.56747885375717
 20
-1362.9168856593942
 42
-0.0284435909899725
 10
904.19142872746727
 20
-1363.0131030948687
 10
904.15627056696576
 20
-1363.0199966906978
 42
-0.0243909341008827
 10
903.84282710604975
 20
-1363.0657177217272
 10
903.79254637928307
 20
-1363.0705632686286
 42
-0.0196639292930969
 10
903.57695080175131
 20
-1363.0828115541424
 10
903.52512673058823
 20
-1363.0837148148792
 42
-0.010050151068206
 10
903.41270344892359
 20
-1363.083414416526
 10
903.38104358759097
 20
-1363.0826933446408
 42
-0.0019752031155657
 10
903.33195125089821
 20
-1363.0813811844309
 10
903.32919094766658
 20
-1363.0812964926045
 42
0.0065378752007836
 10
903.28561437292137
 20
-1363.0805296013898
 42
-0.0167974694633442
 10
903.24208354998916
 20
-1363.0788697028638
 10
903.23800421072747
 20
-1363.0785766919689
 42
-0.0081283276274033
 10
903.18644441299239
 20
-1363.0740296983313
 10
903.17470483911029
 20
-1363.0728017807526
 42
-0.0126703440181839
 10
903.09998654331741
 20
-1363.0630669896811
 10
903.07719867564015
 20
-1363.0595087337658
 42
-0.0117852088434891
 10
902.95765968980254
 20
-1363.0379457386075
 10
902.90227923804468
 20
-1363.0266021983741
 42
-0.0251774592302268
 10
902.67543519903836
 20
-1362.9681041889414
 10
902.63071600918681
 20
-1362.9541373696061
 42
-0.0146525199894823
 10
902.44432302164728
 20
-1362.8898708424076
 42
-0.0166929435859923
 10
902.26234536552317
 20
-1362.8140637093543
 10
902.25768873424749
 20
-1362.8119388087391
 42
-0.0191684358433512
 10
902.07250510299798
 20
-1362.718702724949
 10
902.06917251724121
 20
-1362.7168614773959
 42
-0.0221181781806163
 10
901.8858622133373
 20
-1362.6047279790239
 10
901.88351240933059
 20
-1362.603143681034
 42
-0.0254984685376553
 10
901.70722225894531
 20
-1362.4707325310646
 10
901.68474011124374
 20
-1362.4519802221287
 42
-0.0292492648804605
 10
901.55997117240031
 20
-1362.3348874224851
 42
-0.0159048957498429
 10
901.44613117494964
 20
-1362.2068674308853
 10
901.44481238437083
 20
-1362.2052858178658
 42
-0.0343813379558831
 10
901.34217512274449
 20
-1362.0634144920962
 10
901.31068359138328
 20
-1362.0129111000015
 42
-0.0369117275701862
 10
901.22479108948653
 20
-1361.849433859054
 42
-0.0191751379902623
 10
901.1575977039297
 20
-1361.6770292530482
 10
901.15583438017006
 20
-1361.6719359083731
 42
-0.0378178042228332
 10
901.10603966138569
 20
-1361.4829951322913
 10
901.100044365656
 20
-1361.4504345140977
 42
-0.0184846046466747
 10
901.07932716636105
 20
-1361.3086816935499
 42
-0.0179866351308685
 10
901.06899416128738
 20
-1361.1657908804682
 10
901.06893771884165
 20
-1361.1642331938563
 42
-0.0085497186138666
 10
901.06750543773785
 20
-1361.0893600288464
 42
-0.0085497186138666
  0
ENDBLK
  5
5F
100
AcDbEntity
  8
template
390
0
100
AcDbBlockEnd
  0
BLOCK
  5
60
100
AcDbEntity
  8
notes
390
0
100
AcDbBlockBegin
  2
*D3
 70
               1
 10
0.0
 20
0.0
 30
0.0
  3
*D3
  1

  0
LINE
  5
61
100
AcDbEntity
  8
0
370
              -2
390
0
  6
Continuous
 62
               0
100
AcDbLine
 10
775.305100454995
 20
2004.3619025205069
 30
0.0
 11
775.305100454995
 21
2148.0
 31
0.0
  0
LINE
  5
62
100
AcDbEntity
  8
0
370
              -2
390
0
  6
Continuous
 62
               0
100
AcDbLine
 10
1475.305100454995
 20
2004.3619025205069
 30
0.0
 11
1475.305100454995
 21
2148.0
 31
0.0
  0
LINE
  5
63
100
AcDbEntity
  8
0
370
              -2
390
0
  6
Continuous
 62
               0
100
AcDbLine
 10
775.305100454995
 20
2148.0
 30
0.0
 11
1475.305100454995
 21
2148.0
 31
0.0
  0
CIRCLE
  5
64
102
{ACAD_REACTORS
330
65
102
}
100
AcDbEntity
  8
0
370
              -2
390
0
  6
Continuous
 62
               0
100
AcDbCircle
 10
775.305100454995
 20
2148.0
 30
0.0
 40
1.9998779296875
  0
HATCH
  5
65
100
AcDbEntity
  8
0
370
              -2
390
0
  6
Continuous
 62
               0
100
AcDbHatch
 10
0.0
 20
0.0
 30
0.0
210
0.0
220
0.0
230
1.0
  2
SOLID
 70
               1
 71
               1
 91
        1
 92
        1
 93
        1
 72
               2
 10
775.305100454995
 20
2148.0
 40
1.9998779296875
 50
0.0
 51
360.0
 73
               0
 97
        1
330
64
 75
               0
 76
               1
 98
        1
 10
0.0
 20
0.0
  0
CIRCLE
  5
66
102
{ACAD_REACTORS
330
67
102
}
100
AcDbEntity
  8
0
370
              -2
390
0
  6
Continuous
 62
               0
100
AcDbCircle
 10
1475.305100454995
 20
2148.0
 30
0.0
 40
1.9998779296875
  0
HATCH
  5
67
100
AcDbEntity
  8
0
370
              -2
390
0
  6
Continuous
 62
               0
100
AcDbHatch
 10
0.0
 20
0.0
 30
0.0
210
0.0
220
0.0
230
1.0
  2
SOLID
 70
               1
 71
               1
 91
        1
 92
        1
 93
        1
 72
               2
 10
1475.305100454995
 20
2148.0
 40
1.9998779296875
 50
0.0
 51
360.0
 73
               0
 97
        1
330
66
 75
               0
 76
               1
 98
        1
 10
0.0
 20
0.0
  0
MTEXT
  5
68
100
AcDbEntity
  8
0
390
0
 62
               0
100
AcDbMText
 10
1101.4925987728195
 20
2181.8776171874997
 30
0.0
 40
24.432617187500004
 41
0.0
 71
               1
 72
               1
  1
700
  7
ＭＳ ゴシック
 73
               1
 44
0.7828267384257843
  0
POINT
  5
69
100
AcDbEntity
  8
Defpoints
370
               0
390
0
 62
               0
100
AcDbPoint
 10
1475.305100454995
 20
1979.3619025205069
 30
0.0
  0
POINT
  5
6A
100
AcDbEntity
  8
Defpoints
370
               0
390
0
 62
               0
100
AcDbPoint
 10
775.305100454995
 20
1979.3619025205069
 30
0.0
  0
POINT
  5
6B
100
AcDbEntity
  8
Defpoints
370
               0
390
0
 62
               0
100
AcDbPoint
 10
775.305100454995
 20
2148.0
 30
0.0
  0
ENDBLK
  5
6C
100
AcDbEntity
  8
notes
390
0
100
AcDbBlockEnd
  0
BLOCK
  5
6D
100
AcDbEntity
  8
notes
390
0
100
AcDbBlockBegin
  2
*D4
 70
               1
 10
0.0
 20
0.0
 30
0.0
  3
*D4
  1

  0
LINE
  5
6E
100
AcDbEntity
  8
0
370
              -2
390
0
  6
Continuous
 62
               0
100
AcDbLine
 10
825.305100454995
 20
2005.0
 30
0.0
 11
825.305100454995
 21
2086.0
 31
0.0
  0
LINE
  5
6F
100
AcDbEntity
  8
0
370
              -2
390
0
  6
Continuous
 62
               0
100
AcDbLine
 10
1425.305100454995
 20
2005.0
 30
0.0
 11
1425.305100454995
 21
2086.0
 31
0.0
  0
LINE
  5
70
100
AcDbEntity
  8
0
370
              -2
390
0
  6
Continuous
 62
               0
100
AcDbLine
 10
825.305100454995
 20
2086.0
 30
0.0
 11
1425.305100454995
 21
2086.0
 31
0.0
  0
CIRCLE
  5
71
102
{ACAD_REACTORS
330
72
102
}
100
AcDbEntity
  8
0
370
              -2
390
0
  6
Continuous
 62
               0
100
AcDbCircle
 10
825.305100454995
 20
2086.0
 30
0.0
 40
1.9998779296875
  0
HATCH
  5
72
100
AcDbEntity
  8
0
370
              -2
390
0
  6
Continuous
 62
               0
100
AcDbHatch
 10
0.0
 20
0.0
 30
0.0
210
0.0
220
0.0
230
1.0
  2
SOLID
 70
               1
 71
               1
 91
        1
 92
        1
 93
        1
 72
               2
 10
825.305100454995
 20
2086.0
 40
1.9998779296875
 50
0.0
 51
360.0
 73
               0
 97
        1
330
71
 75
               0
 76
               1
 98
        1
 10
0.0
 20
0.0
  0
CIRCLE
  5
73
102
{ACAD_REACTORS
330
74
102
}
100
AcDbEntity
  8
0
370
              -2
390
0
  6
Continuous
 62
               0
100
AcDbCircle
 10
1425.305100454995
 20
2086.0
 30
0.0
 40
1.9998779296875
  0
HATCH
  5
74
100
AcDbEntity
  8
0
370
              -2
390
0
  6
Continuous
 62
               0
100
AcDbHatch
 10
0.0
 20
0.0
 30
0.0
210
0.0
220
0.0
230
1.0
  2
SOLID
 70
               1
 71
               1
 91
        1
 92
        1
 93
        1
 72
               2
 10
1425.305100454995
 20
2086.0
 40
1.9998779296875
 50
0.0
 51
360.0
 73
               0
 97
        1
330
73
 75
               0
 76
               1
 98
        1
 10
0.0
 20
0.0
  0
MTEXT
  5
75
100
AcDbEntity
  8
0
390
0
 62
               0
100
AcDbMText
 10
1101.4925987728195
 20
2119.8776171875002
 30
0.0
 40
24.432617187500004
 41
0.0
 71
               1
 72
               1
  1
600
  7
ＭＳ ゴシック
 73
               1
 44
0.7828267384257843
  0
POINT
  5
76
100
AcDbEntity
  8
Defpoints
370
               0
390
0
 62
               0
100
AcDbPoint
 10
1425.305100454995
 20
1980.0
 30
0.0
  0
POINT
  5
77
100
AcDbEntity
  8
Defpoints
370
               0
390
0
 62
               0
100
AcDbPoint
 10
825.305100454995
 20
1980.0
 30
0.0
  0
POINT
  5
78
100
AcDbEntity
  8
Defpoints
370
               0
390
0
 62
               0
100
AcDbPoint
 10
825.305100454995
 20
2086.0
 30
0.0
  0
ENDBLK
  5
79
100
AcDbEntity
  8
notes
390
0
100
AcDbBlockEnd
  0
BLOCK
  5
7A
100
AcDbEntity
  8
notes
390
0
100
AcDbBlockBegin
  2
*D5
 70
               1
 10
0.0
 20
0.0
 30
0.0
  3
*D5
  1

  0
LINE
  5
7B
100
AcDbEntity
  8
0
370
              -2
390
0
  6
Continuous
 62
               0
100
AcDbLine
 10
1139.6105333606283
 20
1929.2603674953878
 30
0.0
 11
1255.8682597842787
 21
2009.0
 31
0.0
  0
CIRCLE
  5
7C
102
{ACAD_REACTORS
330
7D
102
}
100
AcDbEntity
  8
0
370
              -2
390
0
  6
Continuous
 62
               0
100
AcDbCircle
 10
1139.6105333606283
 20
1929.2603674953878
 30
0.0
 40
1.9998779296875
  0
HATCH
  5
7D
100
AcDbEntity
  8
0
370
              -2
390
0
  6
Continuous
 62
               0
100
AcDbHatch
 10
0.0
 20
0.0
 30
0.0
210
0.0
220
0.0
230
1.0
  2
SOLID
 70
               1
 71
               1
 91
        1
 92
        1
 93
        1
 72
               2
 10
1139.6105333606283
 20
1929.2603674953878
 40
1.9998779296875
 50
0.0
 51
360.0
 73
               0
 97
        1
330
7C
 75
               0
 76
               1
 98
        1
 10
0.0
 20
0.0
  0
LINE
  5
7E
100
AcDbEntity
  8
0
370
              -2
390
0
  6
Continuous
 62
               0
100
AcDbLine
 10
1255.8682597842787
 20
2009.0
 30
0.0
 11
1339.3682597842787
 21
2009.0
 31
0.0
  0
MTEXT
  5
7F
100
AcDbEntity
  8
0
390
0
 62
               0
100
AcDbMText
 10
1275.8682597842787
 20
2042.8776171874999
 30
0.0
 40
24.432617187500004
 41
0.0
 71
               1
 72
               1
  1
φ35
  7
ＭＳ ゴシック
 73
               1
 44
0.7828267384257843
  0
POINT
  5
80
100
AcDbEntity
  8
Defpoints
370
               0
390
0
 62
               0
100
AcDbPoint
 10
1110.747345271044
 20
1909.4634896277785
 30
0.0
  0
POINT
  5
81
100
AcDbEntity
  8
Defpoints
370
               0
390
0
 62
               0
100
AcDbPoint
 10
1139.6105333606283
 20
1929.2603674953878
 30
0.0
  0
ENDBLK
  5
82
100
AcDbEntity
  8
notes
390
0
100
AcDbBlockEnd
  0
BLOCK
  5
83
100
AcDbEntity
  8
notes
390
0
100
AcDbBlockBegin
  2
*D6
 70
               1
 10
0.0
 20
0.0
 30
0.0
  3
*D6
  1

  0
LINE
  5
84
100
AcDbEntity
  8
0
370
              -2
390
0
  6
Continuous
 62
               0
100
AcDbLine
 10
1125.178939315836
 20
1961.8619285615832
 30
0.0
 11
1125.178939315836
 21
2034.0
 31
0.0
  0
LINE
  5
85
100
AcDbEntity
  8
0
370
              -2
390
0
  6
Continuous
 62
               0
100
AcDbLine
 10
1025.178939315836
 20
1961.8619285615832
 30
0.0
 11
1025.178939315836
 21
2034.0
 31
0.0
  0
LINE
  5
86
100
AcDbEntity
  8
0
370
              -2
390
0
  6
Continuous
 62
               0
100
AcDbLine
 10
1125.178939315836
 20
2034.0
 30
0.0
 11
1025.178939315836
 21
2034.0
 31
0.0
  0
CIRCLE
  5
87
102
{ACAD_REACTORS
330
88
102
}
100
AcDbEntity
  8
0
370
              -2
390
0
  6
Continuous
 62
               0
100
AcDbCircle
 10
1125.178939315836
 20
2034.0
 30
0.0
 40
1.9998779296875
  0
HATCH
  5
88
100
AcDbEntity
  8
0
370
              -2
390
0
  6
Continuous
 62
               0
100
AcDbHatch
 10
0.0
 20
0.0
 30
0.0
210
0.0
220
0.0
230
1.0
  2
SOLID
 70
               1
 71
               1
 91
        1
 92
        1
 93
        1
 72
               2
 10
1125.178939315836
 20
2034.0
 40
1.9998779296875
 50
0.0
 51
360.0
 73
               0
 97
        1
330
87
 75
               0
 76
               1
 98
        1
 10
0.0
 20
0.0
  0
CIRCLE
  5
89
102
{ACAD_REACTORS
330
8A
102
}
100
AcDbEntity
  8
0
370
              -2
390
0
  6
Continuous
 62
               0
100
AcDbCircle
 10
1025.178939315836
 20
2034.0
 30
0.0
 40
1.9998779296875
  0
HATCH
  5
8A
100
AcDbEntity
  8
0
370
              -2
390
0
  6
Continuous
 62
               0
100
AcDbHatch
 10
0.0
 20
0.0
 30
0.0
210
0.0
220
0.0
230
1.0
  2
SOLID
 70
               1
 71
               1
 91
        1
 92
        1
 93
        1
 72
               2
 10
1025.178939315836
 20
2034.0
 40
1.9998779296875
 50
0.0
 51
360.0
 73
               0
 97
        1
330
89
 75
               0
 76
               1
 98
        1
 10
0.0
 20
0.0
  0
MTEXT
  5
8B
100
AcDbEntity
  8
0
390
0
 62
               0
100
AcDbMText
 10
1051.3664376336606
 20
2067.8776171875002
 30
0.0
 40
24.432617187500004
 41
0.0
 71
               1
 72
               1
  1
100
  7
ＭＳ ゴシック
 73
               1
 44
0.7828267384257843
  0
POINT
  5
8C
100
AcDbEntity
  8
Defpoints
370
               0
390
0
 62
               0
100
AcDbPoint
 10
1025.178939315836
 20
1936.8619285615832
 30
0.0
  0
POINT
  5
8D
100
AcDbEntity
  8
Defpoints
370
               0
390
0
 62
               0
100
AcDbPoint
 10
1125.178939315836
 20
1936.8619285615832
 30
0.0
  0
POINT
  5
8E
100
AcDbEntity
  8
Defpoints
370
               0
390
0
 62
               0
100
AcDbPoint
 10
1125.178939315836
 20
2034.0
 30
0.0
  0
ENDBLK
  5
8F
100
AcDbEntity
  8
notes
390
0
100
AcDbBlockEnd
  0
BLOCK
  5
90
100
AcDbEntity
  8
notes
390
0
100
AcDbBlockBegin
  2
*D7
 70
               1
 10
0.0
 20
0.0
 30
0.0
  3
*D7
  1

  0
LINE
  5
91
100
AcDbEntity
  8
0
370
              -2
390
0
  6
Continuous
 62
               0
100
AcDbLine
 10
1125.178939315836
 20
1961.8619285615832
 30
0.0
 11
1125.178939315836
 21
2034.0
 31
0.0
  0
LINE
  5
92
100
AcDbEntity
  8
0
370
              -2
390
0
  6
Continuous
 62
               0
100
AcDbLine
 10
1225.178939315836
 20
1961.8619285615832
 30
0.0
 11
1225.178939315836
 21
2034.0
 31
0.0
  0
LINE
  5
93
100
AcDbEntity
  8
0
370
              -2
390
0
  6
Continuous
 62
               0
100
AcDbLine
 10
1125.178939315836
 20
2034.0
 30
0.0
 11
1225.178939315836
 21
2034.0
 31
0.0
  0
CIRCLE
  5
94
102
{ACAD_REACTORS
330
95
102
}
100
AcDbEntity
  8
0
370
              -2
390
0
  6
Continuous
 62
               0
100
AcDbCircle
 10
1125.178939315836
 20
2034.0
 30
0.0
 40
1.9998779296875
  0
HATCH
  5
95
100
AcDbEntity
  8
0
370
              -2
390
0
  6
Continuous
 62
               0
100
AcDbHatch
 10
0.0
 20
0.0
 30
0.0
210
0.0
220
0.0
230
1.0
  2
SOLID
 70
               1
 71
               1
 91
        1
 92
        1
 93
        1
 72
               2
 10
1125.178939315836
 20
2034.0
 40
1.9998779296875
 50
0.0
 51
360.0
 73
               0
 97
        1
330
94
 75
               0
 76
               1
 98
        1
 10
0.0
 20
0.0
  0
CIRCLE
  5
96
102
{ACAD_REACTORS
330
97
102
}
100
AcDbEntity
  8
0
370
              -2
390
0
  6
Continuous
 62
               0
100
AcDbCircle
 10
1225.178939315836
 20
2034.0
 30
0.0
 40
1.9998779296875
  0
HATCH
  5
97
100
AcDbEntity
  8
0
370
              -2
390
0
  6
Continuous
 62
               0
100
AcDbHatch
 10
0.0
 20
0.0
 30
0.0
210
0.0
220
0.0
230
1.0
  2
SOLID
 70
               1
 71
               1
 91
        1
 92
        1
 93
        1
 72
               2
 10
1225.178939315836
 20
2034.0
 40
1.9998779296875
 50
0.0
 51
360.0
 73
               0
 97
        1
330
96
 75
               0
 76
               1
 98
        1
 10
0.0
 20
0.0
  0
MTEXT
  5
98
100
AcDbEntity
  8
0
390
0
 62
               0
100
AcDbMText
 10
1151.3664376336606
 20
2067.8776171875002
 30
0.0
 40
24.432617187500004
 41
0.0
 71
               1
 72
               1
  1
100
  7
ＭＳ ゴシック
 73
               1
 44
0.7828267384257843
  0
POINT
  5
99
100
AcDbEntity
  8
Defpoints
370
               0
390
0
 62
               0
100
AcDbPoint
 10
1225.178939315836
 20
1936.8619285615832
 30
0.0
  0
POINT
  5
9A
100
AcDbEntity
  8
Defpoints
370
               0
390
0
 62
               0
100
AcDbPoint
 10
1125.178939315836
 20
1936.8619285615832
 30
0.0
  0
POINT
  5
9B
100
AcDbEntity
  8
Defpoints
370
               0
390
0
 62
               0
100
AcDbPoint
 10
1125.178939315836
 20
2034.0
 30
0.0
  0
ENDBLK
  5
9C
100
AcDbEntity
  8
notes
390
0
100
AcDbBlockEnd
  0
BLOCK
  5
9D
100
AcDbEntity
  8
notes
390
0
100
AcDbBlockBegin
  2
*D8
 70
               1
 10
0.0
 20
0.0
 30
0.0
  3
*D8
  1

  0
LINE
  5
9E
100
AcDbEntity
  8
0
370
              -2
390
0
  6
Continuous
 62
               0
100
AcDbLine
 10
1500.305100454995
 20
1979.3619025205069
 30
0.0
 11
1575.305100454995
 21
1979.3619025205069
 31
0.0
  0
LINE
  5
9F
100
AcDbEntity
  8
0
370
              -2
390
0
  6
Continuous
 62
               0
100
AcDbLine
 10
1349.9511635529334
 20
1499.3619025205069
 30
0.0
 11
1575.305100454995
 21
1499.3619025205069
 31
0.0
  0
LINE
  5
A0
100
AcDbEntity
  8
0
370
              -2
390
0
  6
Continuous
 62
               0
100
AcDbLine
 10
1575.305100454995
 20
1979.3619025205069
 30
0.0
 11
1575.305100454995
 21
1499.3619025205069
 31
0.0
  0
CIRCLE
  5
A1
102
{ACAD_REACTORS
330
A2
102
}
100
AcDbEntity
  8
0
370
              -2
390
0
  6
Continuous
 62
               0
100
AcDbCircle
 10
1575.305100454995
 20
1979.3619025205069
 30
0.0
 40
1.9998779296875
  0
HATCH
  5
A2
100
AcDbEntity
  8
0
370
              -2
390
0
  6
Continuous
 62
               0
100
AcDbHatch
 10
0.0
 20
0.0
 30
0.0
210
0.0
220
0.0
230
1.0
  2
SOLID
 70
               1
 71
               1
 91
        1
 92
        1
 93
        1
 72
               2
 10
1575.305100454995
 20
1979.3619025205069
 40
1.9998779296875
 50
0.0
 51
360.0
 73
               0
 97
        1
330
A1
 75
               0
 76
               1
 98
        1
 10
0.0
 20
0.0
  0
CIRCLE
  5
A3
102
{ACAD_REACTORS
330
A4
102
}
100
AcDbEntity
  8
0
370
              -2
390
0
  6
Continuous
 62
               0
100
AcDbCircle
 10
1575.305100454995
 20
1499.3619025205069
 30
0.0
 40
1.9998779296875
  0
HATCH
  5
A4
100
AcDbEntity
  8
0
370
              -2
390
0
  6
Continuous
 62
               0
100
AcDbHatch
 10
0.0
 20
0.0
 30
0.0
210
0.0
220
0.0
230
1.0
  2
SOLID
 70
               1
 71
               1
 91
        1
 92
        1
 93
        1
 72
               2
 10
1575.305100454995
 20
1499.3619025205069
 40
1.9998779296875
 50
0.0
 51
360.0
 73
               0
 97
        1
330
A3
 75
               0
 76
               1
 98
        1
 10
0.0
 20
0.0
  0
MTEXT
  5
A5
100
AcDbEntity
  8
0
390
0
 62
               0
100
AcDbMText
 10
1541.4274832674951
 20
1715.5494008383314
 30
0.0
 40
24.432617187500004
 41
0.0
 71
               1
 72
               1
  1
480
  7
ＭＳ ゴシック
 11
0.0
 21
1.0
 31
0.0
 73
               1
 44
0.7828267384257843
  0
POINT
  5
A6
100
AcDbEntity
  8
Defpoints
370
               0
390
0
 62
               0
100
AcDbPoint
 10
1324.9511635529334
 20
1499.3619025205069
 30
0.0
  0
POINT
  5
A7
100
AcDbEntity
  8
Defpoints
370
               0
390
0
 62
               0
100
AcDbPoint
 10
1475.305100454995
 20
1979.3619025205069
 30
0.0
  0
POINT
  5
A8
100
AcDbEntity
  8
Defpoints
370
               0
390
0
 62
               0
100
AcDbPoint
 10
1575.305100454995
 20
1979.3619025205069
 30
0.0
  0
ENDBLK
  5
A9
100
AcDbEntity
  8
notes
390
0
100
AcDbBlockEnd
  0
BLOCK
  5
AA
100
AcDbEntity
  8
notes
390
0
100
AcDbBlockBegin
  2
*D9
 70
               1
 10
0.0
 20
0.0
 30
0.0
  3
*D9
  1

  0
LINE
  5
AB
100
AcDbEntity
  8
0
370
              -2
390
0
  6
Continuous
 62
               0
100
AcDbLine
 10
750.305100454995
 20
1979.3619025205069
 30
0.0
 11
675.305100454995
 21
1979.3619025205069
 31
0.0
  0
LINE
  5
AC
100
AcDbEntity
  8
0
370
              -2
390
0
  6
Continuous
 62
               0
100
AcDbLine
 10
750.305100454995
 20
1859.3619025205069
 30
0.0
 11
675.305100454995
 21
1859.3619025205069
 31
0.0
  0
LINE
  5
AD
100
AcDbEntity
  8
0
370
              -2
390
0
  6
Continuous
 62
               0
100
AcDbLine
 10
675.305100454995
 20
1979.3619025205069
 30
0.0
 11
675.305100454995
 21
1859.3619025205069
 31
0.0
  0
CIRCLE
  5
AE
102
{ACAD_REACTORS
330
AF
102
}
100
AcDbEntity
  8
0
370
              -2
390
0
  6
Continuous
 62
               0
100
AcDbCircle
 10
675.305100454995
 20
1979.3619025205069
 30
0.0
 40
1.9998779296875
  0
HATCH
  5
AF
100
AcDbEntity
  8
0
370
              -2
390
0
  6
Continuous
 62
               0
100
AcDbHatch
 10
0.0
 20
0.0
 30
0.0
210
0.0
220
0.0
230
1.0
  2
SOLID
 70
               1
 71
               1
 91
        1
 92
        1
 93
        1
 72
               2
 10
675.305100454995
 20
1979.3619025205069
 40
1.9998779296875
 50
0.0
 51
360.0
 73
               0
 97
        1
330
AE
 75
               0
 76
               1
 98
        1
 10
0.0
 20
0.0
  0
CIRCLE
  5
B0
102
{ACAD_REACTORS
330
B1
102
}
100
AcDbEntity
  8
0
370
              -2
390
0
  6
Continuous
 62
               0
100
AcDbCircle
 10
675.305100454995
 20
1859.3619025205069
 30
0.0
 40
1.9998779296875
  0
HATCH
  5
B1
100
AcDbEntity
  8
0
370
              -2
390
0
  6
Continuous
 62
               0
100
AcDbHatch
 10
0.0
 20
0.0
 30
0.0
210
0.0
220
0.0
230
1.0
  2
SOLID
 70
               1
 71
               1
 91
        1
 92
        1
 93
        1
 72
               2
 10
675.305100454995
 20
1859.3619025205069
 40
1.9998779296875
 50
0.0
 51
360.0
 73
               0
 97
        1
330
B0
 75
               0
 76
               1
 98
        1
 10
0.0
 20
0.0
  0
MTEXT
  5
B2
100
AcDbEntity
  8
0
390
0
 62
               0
100
AcDbMText
 10
641.42748326749495
 20
1895.5494008383314
 30
0.0
 40
24.432617187500004
 41
0.0
 71
               1
 72
               1
  1
120
  7
ＭＳ ゴシック
 11
0.0
 21
1.0
 31
0.0
 73
               1
 44
0.7828267384257843
  0
POINT
  5
B3
100
AcDbEntity
  8
Defpoints
370
               0
390
0
 62
               0
100
AcDbPoint
 10
775.305100454995
 20
1859.3619025205069
 30
0.0
  0
POINT
  5
B4
100
AcDbEntity
  8
Defpoints
370
               0
390
0
 62
               0
100
AcDbPoint
 10
775.305100454995
 20
1979.3619025205069
 30
0.0
  0
POINT
  5
B5
100
AcDbEntity
  8
Defpoints
370
               0
390
0
 62
               0
100
AcDbPoint
 10
675.305100454995
 20
1979.3619025205069
 30
0.0
  0
ENDBLK
  5
B6
100
AcDbEntity
  8
notes
390
0
100
AcDbBlockEnd
  0
BLOCK
  5
B7
100
AcDbEntity
  8
notes
390
0
100
AcDbBlockBegin
  2
*D10
 70
               1
 10
0.0
 20
0.0
 30
0.0
  3
*D10
  1

  0
LINE
  5
B8
100
AcDbEntity
  8
0
370
              -2
390
0
  6
Continuous
 62
               0
100
AcDbLine
 10
750.305100454995
 20
1859.3619025205069
 30
0.0
 11
675.305100454995
 21
1859.3619025205069
 31
0.0
  0
LINE
  5
B9
100
AcDbEntity
  8
0
370
              -2
390
0
  6
Continuous
 62
               0
100
AcDbLine
 10
750.305100454995
 20
1529.3619025205069
 30
0.0
 11
675.305100454995
 21
1529.3619025205069
 31
0.0
  0
LINE
  5
BA
100
AcDbEntity
  8
0
370
              -2
390
0
  6
Continuous
 62
               0
100
AcDbLine
 10
675.305100454995
 20
1859.3619025205069
 30
0.0
 11
675.305100454995
 21
1529.3619025205069
 31
0.0
  0
CIRCLE
  5
BB
102
{ACAD_REACTORS
330
BC
102
}
100
AcDbEntity
  8
0
370
              -2
390
0
  6
Continuous
 62
               0
100
AcDbCircle
 10
675.305100454995
 20
1859.3619025205069
 30
0.0
 40
1.9998779296875
  0
HATCH
  5
BC
100
AcDbEntity
  8
0
370
              -2
390
0
  6
Continuous
 62
               0
100
AcDbHatch
 10
0.0
 20
0.0
 30
0.0
210
0.0
220
0.0
230
1.0
  2
SOLID
 70
               1
 71
               1
 91
        1
 92
        1
 93
        1
 72
               2
 10
675.305100454995
 20
1859.3619025205069
 40
1.9998779296875
 50
0.0
 51
360.0
 73
               0
 97
        1
330
BB
 75
               0
 76
               1
 98
        1
 10
0.0
 20
0.0
  0
CIRCLE
  5
BD
102
{ACAD_REACTORS
330
BE
102
}
100
AcDbEntity
  8
0
370
              -2
390
0
  6
Continuous
 62
               0
100
AcDbCircle
 10
675.305100454995
 20
1529.3619025205069
 30
0.0
 40
1.9998779296875
  0
HATCH
  5
BE
100
AcDbEntity
  8
0
370
              -2
390
0
  6
Continuous
 62
               0
100
AcDbHatch
 10
0.0
 20
0.0
 30
0.0
210
0.0
220
0.0
230
1.0
  2
SOLID
 70
               1
 71
               1
 91
        1
 92
        1
 93
        1
 72
               2
 10
675.305100454995
 20
1529.3619025205069
 40
1.9998779296875
 50
0.0
 51
360.0
 73
               0
 97
        1
330
BD
 75
               0
 76
               1
 98
        1
 10
0.0
 20
0.0
  0
MTEXT
  5
BF
100
AcDbEntity
  8
0
390
0
 62
               0
100
AcDbMText
 10
641.42748326749495
 20
1670.5494008383314
 30
0.0
 40
24.432617187500004
 41
0.0
 71
               1
 72
               1
  1
330
  7
ＭＳ ゴシック
 11
0.0
 21
1.0
 31
0.0
 73
               1
 44
0.7828267384257843
  0
POINT
  5
C0
100
AcDbEntity
  8
Defpoints
370
               0
390
0
 62
               0
100
AcDbPoint
 10
775.305100454995
 20
1529.3619025205069
 30
0.0
  0
POINT
  5
C1
100
AcDbEntity
  8
Defpoints
370
               0
390
0
 62
               0
100
AcDbPoint
 10
775.305100454995
 20
1859.3619025205069
 30
0.0
  0
POINT
  5
C2
100
AcDbEntity
  8
Defpoints
370
               0
390
0
 62
               0
100
AcDbPoint
 10
675.305100454995
 20
1859.3619025205069
 30
0.0
  0
ENDBLK
  5
C3
100
AcDbEntity
  8
notes
390
0
100
AcDbBlockEnd
  0
BLOCK
  5
C4
100
AcDbEntity
  8
notes
390
0
100
AcDbBlockBegin
  2
*D11
 70
               1
 10
0.0
 20
0.0
 30
0.0
  3
*D11
  1

  0
LINE
  5
C5
100
AcDbEntity
  8
0
370
              -2
390
0
  6
Continuous
 62
               0
100
AcDbLine
 10
805.305100454995
 20
1474.3619025205069
 30
0.0
 11
805.305100454995
 21
1399.3619025205069
 31
0.0
  0
LINE
  5
C6
100
AcDbEntity
  8
0
370
              -2
390
0
  6
Continuous
 62
               0
100
AcDbLine
 10
1445.3051004549952
 20
1474.3619025205069
 30
0.0
 11
1445.3051004549952
 21
1399.3619025205069
 31
0.0
  0
LINE
  5
C7
100
AcDbEntity
  8
0
370
              -2
390
0
  6
Continuous
 62
               0
100
AcDbLine
 10
805.305100454995
 20
1399.3619025205069
 30
0.0
 11
1445.3051004549952
 21
1399.3619025205069
 31
0.0
  0
CIRCLE
  5
C8
102
{ACAD_REACTORS
330
C9
102
}
100
AcDbEntity
  8
0
370
              -2
390
0
  6
Continuous
 62
               0
100
AcDbCircle
 10
805.305100454995
 20
1399.3619025205069
 30
0.0
 40
1.9998779296875
  0
HATCH
  5
C9
100
AcDbEntity
  8
0
370
              -2
390
0
  6
Continuous
 62
               0
100
AcDbHatch
 10
0.0
 20
0.0
 30
0.0
210
0.0
220
0.0
230
1.0
  2
SOLID
 70
               1
 71
               1
 91
        1
 92
        1
 93
        1
 72
               2
 10
805.305100454995
 20
1399.3619025205069
 40
1.9998779296875
 50
0.0
 51
360.0
 73
               0
 97
        1
330
C8
 75
               0
 76
               1
 98
        1
 10
0.0
 20
0.0
  0
CIRCLE
  5
CA
102
{ACAD_REACTORS
330
CB
102
}
100
AcDbEntity
  8
0
370
              -2
390
0
  6
Continuous
 62
               0
100
AcDbCircle
 10
1445.3051004549952
 20
1399.3619025205069
 30
0.0
 40
1.9998779296875
  0
HATCH
  5
CB
100
AcDbEntity
  8
0
370
              -2
390
0
  6
Continuous
 62
               0
100
AcDbHatch
 10
0.0
 20
0.0
 30
0.0
210
0.0
220
0.0
230
1.0
  2
SOLID
 70
               1
 71
               1
 91
        1
 92
        1
 93
        1
 72
               2
 10
1445.3051004549952
 20
1399.3619025205069
 40
1.9998779296875
 50
0.0
 51
360.0
 73
               0
 97
        1
330
CA
 75
               0
 76
               1
 98
        1
 10
0.0
 20
0.0
  0
MTEXT
  5
CC
100
AcDbEntity
  8
0
390
0
 62
               0
100
AcDbMText
 10
1101.4925987728195
 20
1433.2395197080068
 30
0.0
 40
24.432617187500004
 41
0.0
 71
               1
 72
               1
  1
640
  7
ＭＳ ゴシック
 73
               1
 44
0.7828267384257843
  0
POINT
  5
CD
100
AcDbEntity
  8
Defpoints
370
               0
390
0
 62
               0
100
AcDbPoint
 10
1445.3051004549952
 20
1499.3619025205069
 30
0.0
  0
POINT
  5
CE
100
AcDbEntity
  8
Defpoints
370
               0
390
0
 62
               0
100
AcDbPoint
 10
805.305100454995
 20
1499.3619025205069
 30
0.0
  0
POINT
  5
CF
100
AcDbEntity
  8
Defpoints
370
               0
390
0
 62
               0
100
AcDbPoint
 10
805.305100454995
 20
1399.3619025205069
 30
0.0
  0
ENDBLK
  5
D0
100
AcDbEntity
  8
notes
390
0
100
AcDbBlockEnd
  0
BLOCK
  5
D1
100
AcDbEntity
  8
notes
390
0
100
AcDbBlockBegin
  2
*D12
 70
               1
 10
0.0
 20
0.0
 30
0.0
  3
*D12
  1

  0
LINE
  5
D2
100
AcDbEntity
  8
0
370
              -2
390
0
  6
Continuous
 62
               0
100
AcDbLine
 10
2310.8539729697668
 20
824.930548134373
 30
0.0
 11
2310.8539729697668
 21
882.930548134373
 31
0.0
  0
LINE
  5
D3
100
AcDbEntity
  8
0
370
              -2
390
0
  6
Continuous
 62
               0
100
AcDbLine
 10
2370.8539730529492
 20
826.45402578405731
 30
0.0
 11
2370.8539730529492
 21
882.930548134373
 31
0.0
  0
LINE
  5
D4
100
AcDbEntity
  8
0
370
              -2
390
0
  6
Continuous
 62
               0
100
AcDbLine
 10
2310.8539729697668
 20
882.930548134373
 30
0.0
 11
2370.8539730529492
 21
882.930548134373
 31
0.0
  0
CIRCLE
  5
D5
102
{ACAD_REACTORS
330
D6
102
}
100
AcDbEntity
  8
0
370
              -2
390
0
  6
Continuous
 62
               0
100
AcDbCircle
 10
2310.8539729697668
 20
882.930548134373
 30
0.0
 40
1.9998779296875
  0
HATCH
  5
D6
100
AcDbEntity
  8
0
370
              -2
390
0
  6
Continuous
 62
               0
100
AcDbHatch
 10
0.0
 20
0.0
 30
0.0
210
0.0
220
0.0
230
1.0
  2
SOLID
 70
               1
 71
               1
 91
        1
 92
        1
 93
        1
 72
               2
 10
2310.8539729697668
 20
882.930548134373
 40
1.9998779296875
 50
0.0
 51
360.0
 73
               0
 97
        1
330
D5
 75
               0
 76
               1
 98
        1
 10
0.0
 20
0.0
  0
CIRCLE
  5
D7
102
{ACAD_REACTORS
330
D8
102
}
100
AcDbEntity
  8
0
370
              -2
390
0
  6
Continuous
 62
               0
100
AcDbCircle
 10
2370.8539730529492
 20
882.930548134373
 30
0.0
 40
1.9998779296875
  0
HATCH
  5
D8
100
AcDbEntity
  8
0
370
              -2
390
0
  6
Continuous
 62
               0
100
AcDbHatch
 10
0.0
 20
0.0
 30
0.0
210
0.0
220
0.0
230
1.0
  2
SOLID
 70
               1
 71
               1
 91
        1
 92
        1
 93
        1
 72
               2
 10
2370.8539730529492
 20
882.930548134373
 40
1.9998779296875
 50
0.0
 51
360.0
 73
               0
 97
        1
330
D7
 75
               0
 76
               1
 98
        1
 10
0.0
 20
0.0
  0
MTEXT
  5
D9
100
AcDbEntity
  8
0
390
0
 62
               0
100
AcDbMText
 10
2324.978973011358
 20
916.80816532187305
 30
0.0
 40
24.432617187500004
 41
0.0
 71
               1
 72
               1
  1
60
  7
ＭＳ ゴシック
 73
               1
 44
0.7828267384257843
  0
POINT
  5
DA
100
AcDbEntity
  8
Defpoints
370
               0
390
0
 62
               0
100
AcDbPoint
 10
2370.8539730529492
 20
801.45402578405731
 30
0.0
  0
POINT
  5
DB
100
AcDbEntity
  8
Defpoints
370
               0
390
0
 62
               0
100
AcDbPoint
 10
2310.8539729697668
 20
799.930548134373
 30
0.0
  0
POINT
  5
DC
100
AcDbEntity
  8
Defpoints
370
               0
390
0
 62
               0
100
AcDbPoint
 10
2310.8539729697668
 20
882.930548134373
 30
0.0
  0
ENDBLK
  5
DD
100
AcDbEntity
  8
notes
390
0
100
AcDbBlockEnd
  0
BLOCK
  5
DE
100
AcDbEntity
  8
notes
390
0
100
AcDbBlockBegin
  2
*D13
 70
               1
 10
0.0
 20
0.0
 30
0.0
  3
*D13
  1

  0
LINE
  5
DF
100
AcDbEntity
  8
0
370
              -2
390
0
  6
Continuous
 62
               0
100
AcDbLine
 10
2370.853964507965
 20
619.95245822764321
 30
0.0
 11
2370.853964507965
 21
513.88452743443861
 31
0.0
  0
LINE
  5
E0
100
AcDbEntity
  8
0
370
              -2
390
0
  6
Continuous
 62
               0
100
AcDbLine
 10
2155.853964507965
 20
594.95389365740323
 30
0.0
 11
2155.853964507965
 21
513.88452743443861
 31
0.0
  0
LINE
  5
E1
100
AcDbEntity
  8
0
370
              -2
390
0
  6
Continuous
 62
               0
100
AcDbLine
 10
2370.853964507965
 20
513.88452743443861
 30
0.0
 11
2155.853964507965
 21
513.88452743443861
 31
0.0
  0
CIRCLE
  5
E2
102
{ACAD_REACTORS
330
E3
102
}
100
AcDbEntity
  8
0
370
              -2
390
0
  6
Continuous
 62
               0
100
AcDbCircle
 10
2370.853964507965
 20
513.88452743443861
 30
0.0
 40
1.9998779296875
  0
HATCH
  5
E3
100
AcDbEntity
  8
0
370
              -2
390
0
  6
Continuous
 62
               0
100
AcDbHatch
 10
0.0
 20
0.0
 30
0.0
210
0.0
220
0.0
230
1.0
  2
SOLID
 70
               1
 71
               1
 91
        1
 92
        1
 93
        1
 72
               2
 10
2370.853964507965
 20
513.88452743443861
 40
1.9998779296875
 50
0.0
 51
360.0
 73
               0
 97
        1
330
E2
 75
               0
 76
               1
 98
        1
 10
0.0
 20
0.0
  0
CIRCLE
  5
E4
102
{ACAD_REACTORS
330
E5
102
}
100
AcDbEntity
  8
0
370
              -2
390
0
  6
Continuous
 62
               0
100
AcDbCircle
 10
2155.853964507965
 20
513.88452743443861
 30
0.0
 40
1.9998779296875
  0
HATCH
  5
E5
100
AcDbEntity
  8
0
370
              -2
390
0
  6
Continuous
 62
               0
100
AcDbHatch
 10
0.0
 20
0.0
 30
0.0
210
0.0
220
0.0
230
1.0
  2
SOLID
 70
               1
 71
               1
 91
        1
 92
        1
 93
        1
 72
               2
 10
2155.853964507965
 20
513.88452743443861
 40
1.9998779296875
 50
0.0
 51
360.0
 73
               0
 97
        1
330
E4
 75
               0
 76
               1
 98
        1
 10
0.0
 20
0.0
  0
MTEXT
  5
E6
100
AcDbEntity
  8
0
390
0
 62
               0
100
AcDbMText
 10
2239.5414628257895
 20
547.76214462193866
 30
0.0
 40
24.432617187500004
 41
0.0
 71
               1
 72
               1
  1
215
  7
ＭＳ ゴシック
 73
               1
 44
0.7828267384257843
  0
POINT
  5
E7
100
AcDbEntity
  8
Defpoints
370
               0
390
0
 62
               0
100
AcDbPoint
 10
2155.853964507965
 20
619.95389365740323
 30
0.0
  0
POINT
  5
E8
100
AcDbEntity
  8
Defpoints
370
               0
390
0
 62
               0
100
AcDbPoint
 10
2370.853964507965
 20
644.95245822764321
 30
0.0
  0
POINT
  5
E9
100
AcDbEntity
  8
Defpoints
370
               0
390
0
 62
               0
100
AcDbPoint
 10
2370.853964507965
 20
513.88452743443861
 30
0.0
  0
ENDBLK
  5
EA
100
AcDbEntity
  8
notes
390
0
100
AcDbBlockEnd
  0
BLOCK
  5
EB
100
AcDbEntity
  8
notes
390
0
100
AcDbBlockBegin
  2
*D14
 70
               1
 10
0.0
 20
0.0
 30
0.0
  3
*D14
  1

  0
LINE
  5
EC
100
AcDbEntity
  8
0
370
              -2
390
0
  6
Continuous
 62
               0
100
AcDbLine
 10
2370.8540300772629
 20
619.95245822764321
 30
0.0
 11
2370.8540300772629
 21
463.88452743443861
 31
0.0
  0
LINE
  5
ED
100
AcDbEntity
  8
0
370
              -2
390
0
  6
Continuous
 62
               0
100
AcDbLine
 10
1960.8540300772629
 20
619.95256979897624
 30
0.0
 11
1960.8540300772629
 21
463.88452743443861
 31
0.0
  0
LINE
  5
EE
100
AcDbEntity
  8
0
370
              -2
390
0
  6
Continuous
 62
               0
100
AcDbLine
 10
2370.8540300772629
 20
463.88452743443861
 30
0.0
 11
1960.8540300772629
 21
463.88452743443861
 31
0.0
  0
CIRCLE
  5
EF
102
{ACAD_REACTORS
330
F0
102
}
100
AcDbEntity
  8
0
370
              -2
390
0
  6
Continuous
 62
               0
100
AcDbCircle
 10
2370.8540300772629
 20
463.88452743443861
 30
0.0
 40
1.9998779296875
  0
HATCH
  5
F0
100
AcDbEntity
  8
0
370
              -2
390
0
  6
Continuous
 62
               0
100
AcDbHatch
 10
0.0
 20
0.0
 30
0.0
210
0.0
220
0.0
230
1.0
  2
SOLID
 70
               1
 71
               1
 91
        1
 92
        1
 93
        1
 72
               2
 10
2370.8540300772629
 20
463.88452743443861
 40
1.9998779296875
 50
0.0
 51
360.0
 73
               0
 97
        1
330
EF
 75
               0
 76
               1
 98
        1
 10
0.0
 20
0.0
  0
CIRCLE
  5
F1
102
{ACAD_REACTORS
330
F2
102
}
100
AcDbEntity
  8
0
370
              -2
390
0
  6
Continuous
 62
               0
100
AcDbCircle
 10
1960.8540300772629
 20
463.88452743443861
 30
0.0
 40
1.9998779296875
  0
HATCH
  5
F2
100
AcDbEntity
  8
0
370
              -2
390
0
  6
Continuous
 62
               0
100
AcDbHatch
 10
0.0
 20
0.0
 30
0.0
210
0.0
220
0.0
230
1.0
  2
SOLID
 70
               1
 71
               1
 91
        1
 92
        1
 93
        1
 72
               2
 10
1960.8540300772629
 20
463.88452743443861
 40
1.9998779296875
 50
0.0
 51
360.0
 73
               0
 97
        1
330
F1
 75
               0
 76
               1
 98
        1
 10
0.0
 20
0.0
  0
MTEXT
  5
F3
100
AcDbEntity
  8
0
390
0
 62
               0
100
AcDbMText
 10
2142.0415283950874
 20
497.76214462193866
 30
0.0
 40
24.432617187500004
 41
0.0
 71
               1
 72
               1
  1
410
  7
ＭＳ ゴシック
 73
               1
 44
0.7828267384257843
  0
POINT
  5
F4
100
AcDbEntity
  8
Defpoints
370
               0
390
0
 62
               0
100
AcDbPoint
 10
1960.8540300772629
 20
644.95256979897624
 30
0.0
  0
POINT
  5
F5
100
AcDbEntity
  8
Defpoints
370
               0
390
0
 62
               0
100
AcDbPoint
 10
2370.8540300772629
 20
644.95245822764321
 30
0.0
  0
POINT
  5
F6
100
AcDbEntity
  8
Defpoints
370
               0
390
0
 62
               0
100
AcDbPoint
 10
2370.8540300772629
 20
463.88452743443861
 30
0.0
  0
ENDBLK
  5
F7
100
AcDbEntity
  8
notes
390
0
100
AcDbBlockEnd
  0
BLOCK
  5
F8
100
AcDbEntity
  8
notes
390
0
100
AcDbBlockBegin
  2
*D15
 70
               1
 10
0.0
 20
0.0
 30
0.0
  3
*D15
  1

  0
LINE
  5
F9
100
AcDbEntity
  8
0
370
              -2
390
0
  6
Continuous
 62
               0
100
AcDbLine
 10
1430.3051004549952
 20
617.0
 30
0.0
 11
1430.3051004549952
 21
514.95397930006561
 31
0.0
  0
LINE
  5
FA
100
AcDbEntity
  8
0
370
              -2
390
0
  6
Continuous
 62
               0
100
AcDbLine
 10
820.305100454995
 20
617.0
 30
0.0
 11
820.305100454995
 21
514.95397930006561
 31
0.0
  0
LINE
  5
FB
100
AcDbEntity
  8
0
370
              -2
390
0
  6
Continuous
 62
               0
100
AcDbLine
 10
1430.3051004549952
 20
514.95397930006561
 30
0.0
 11
820.305100454995
 21
514.95397930006561
 31
0.0
  0
CIRCLE
  5
FC
102
{ACAD_REACTORS
330
FD
102
}
100
AcDbEntity
  8
0
370
              -2
390
0
  6
Continuous
 62
               0
100
AcDbCircle
 10
1430.3051004549952
 20
514.95397930006561
 30
0.0
 40
1.9998779296875
  0
HATCH
  5
FD
100
AcDbEntity
  8
0
370
              -2
390
0
  6
Continuous
 62
               0
100
AcDbHatch
 10
0.0
 20
0.0
 30
0.0
210
0.0
220
0.0
230
1.0
  2
SOLID
 70
               1
 71
               1
 91
        1
 92
        1
 93
        1
 72
               2
 10
1430.3051004549952
 20
514.95397930006561
 40
1.9998779296875
 50
0.0
 51
360.0
 73
               0
 97
        1
330
FC
 75
               0
 76
               1
 98
        1
 10
0.0
 20
0.0
  0
CIRCLE
  5
FE
102
{ACAD_REACTORS
330
FF
102
}
100
AcDbEntity
  8
0
370
              -2
390
0
  6
Continuous
 62
               0
100
AcDbCircle
 10
820.305100454995
 20
514.95397930006561
 30
0.0
 40
1.9998779296875
  0
HATCH
  5
FF
100
AcDbEntity
  8
0
370
              -2
390
0
  6
Continuous
 62
               0
100
AcDbHatch
 10
0.0
 20
0.0
 30
0.0
210
0.0
220
0.0
230
1.0
  2
SOLID
 70
               1
 71
               1
 91
        1
 92
        1
 93
        1
 72
               2
 10
820.305100454995
 20
514.95397930006561
 40
1.9998779296875
 50
0.0
 51
360.0
 73
               0
 97
        1
330
FE
 75
               0
 76
               1
 98
        1
 10
0.0
 20
0.0
  0
MTEXT
  5
100
100
AcDbEntity
  8
0
390
0
 62
               0
100
AcDbMText
 10
1101.4925987728195
 20
548.83159648756566
 30
0.0
 40
24.432617187500004
 41
0.0
 71
               1
 72
               1
  1
610
  7
ＭＳ ゴシック
 73
               1
 44
0.7828267384257843
  0
POINT
  5
101
100
AcDbEntity
  8
Defpoints
370
               0
390
0
 62
               0
100
AcDbPoint
 10
820.305100454995
 20
642.0
 30
0.0
  0
POINT
  5
102
100
AcDbEntity
  8
Defpoints
370
               0
390
0
 62
               0
100
AcDbPoint
 10
1430.3051004549952
 20
642.0
 30
0.0
  0
POINT
  5
103
100
AcDbEntity
  8
Defpoints
370
               0
390
0
 62
               0
100
AcDbPoint
 10
1430.3051004549952
 20
514.95397930006561
 30
0.0
  0
ENDBLK
  5
104
100
AcDbEntity
  8
notes
390
0
100
AcDbBlockEnd
  0
BLOCK
  5
105
100
AcDbEntity
  8
notes
390
0
100
AcDbBlockBegin
  2
*D16
 70
               1
 10
0.0
 20
0.0
 30
0.0
  3
*D16
  1

  0
LINE
  5
106
100
AcDbEntity
  8
0
370
              -2
390
0
  6
Continuous
 62
               0
100
AcDbLine
 10
2176.0
 20
799.930548134373
 30
0.0
 11
2158.0
 21
799.930548134373
 31
0.0
  0
LINE
  5
107
100
AcDbEntity
  8
0
370
              -2
390
0
  6
Continuous
 62
               0
100
AcDbLine
 10
2176.0
 20
664.930548134373
 30
0.0
 11
2158.0
 21
664.930548134373
 31
0.0
  0
LINE
  5
108
100
AcDbEntity
  8
0
370
              -2
390
0
  6
Continuous
 62
               0
100
AcDbLine
 10
2158.0
 20
799.930548134373
 30
0.0
 11
2158.0
 21
951.805548134373
 31
0.0
  0
LINE
  5
109
100
AcDbEntity
  8
0
370
              -2
390
0
  6
Continuous
 62
               0
100
AcDbLine
 10
2158.0
 20
799.930548134373
 30
0.0
 11
2158.0
 21
664.930548134373
 31
0.0
  0
CIRCLE
  5
10A
102
{ACAD_REACTORS
330
10B
102
}
100
AcDbEntity
  8
0
370
              -2
390
0
  6
Continuous
 62
               0
100
AcDbCircle
 10
2158.0
 20
799.930548134373
 30
0.0
 40
1.9998779296875
  0
HATCH
  5
10B
100
AcDbEntity
  8
0
370
              -2
390
0
  6
Continuous
 62
               0
100
AcDbHatch
 10
0.0
 20
0.0
 30
0.0
210
0.0
220
0.0
230
1.0
  2
SOLID
 70
               1
 71
               1
 91
        1
 92
        1
 93
        1
 72
               2
 10
2158.0
 20
799.930548134373
 40
1.9998779296875
 50
0.0
 51
360.0
 73
               0
 97
        1
330
10A
 75
               0
 76
               1
 98
        1
 10
0.0
 20
0.0
  0
CIRCLE
  5
10C
102
{ACAD_REACTORS
330
10D
102
}
100
AcDbEntity
  8
0
370
              -2
390
0
  6
Continuous
 62
               0
100
AcDbCircle
 10
2158.0
 20
664.930548134373
 30
0.0
 40
1.9998779296875
  0
HATCH
  5
10D
100
AcDbEntity
  8
0
370
              -2
390
0
  6
Continuous
 62
               0
100
AcDbHatch
 10
0.0
 20
0.0
 30
0.0
210
0.0
220
0.0
230
1.0
  2
SOLID
 70
               1
 71
               1
 91
        1
 92
        1
 93
        1
 72
               2
 10
2158.0
 20
664.930548134373
 40
1.9998779296875
 50
0.0
 51
360.0
 73
               0
 97
        1
330
10C
 75
               0
 76
               1
 98
        1
 10
0.0
 20
0.0
  0
MTEXT
  5
10E
100
AcDbEntity
  8
0
390
0
 62
               0
100
AcDbMText
 10
2124.1223828124998
 20
808.930548134373
 30
0.0
 40
24.432617187500004
 41
0.0
 71
               1
 72
               1
  1
135(深さ)
  7
ＭＳ ゴシック
 11
0.0
 21
1.0
 31
0.0
 73
               1
 44
0.7828267384257843
  0
POINT
  5
10F
100
AcDbEntity
  8
Defpoints
370
               0
390
0
 62
               0
100
AcDbPoint
 10
2151.0
 20
664.930548134373
 30
0.0
  0
POINT
  5
110
100
AcDbEntity
  8
Defpoints
370
               0
390
0
 62
               0
100
AcDbPoint
 10
2151.0
 20
799.930548134373
 30
0.0
  0
POINT
  5
111
100
AcDbEntity
  8
Defpoints
370
               0
390
0
 62
               0
100
AcDbPoint
 10
2158.0
 20
799.930548134373
 30
0.0
  0
ENDBLK
  5
112
100
AcDbEntity
  8
notes
390
0
100
AcDbBlockEnd
  0
BLOCK
  5
113
100
AcDbEntity
  8
notes
390
0
100
AcDbBlockBegin
  2
*D17
 70
               1
 10
0.0
 20
0.0
 30
0.0
  3
*D17
  1

  0
LINE
  5
114
100
AcDbEntity
  8
0
370
              -2
390
0
  6
Continuous
 62
               0
100
AcDbLine
 10
985.305100454995
 20
784.95395725646927
 30
0.0
 11
985.305100454995
 21
901.0
 31
0.0
  0
LINE
  5
115
100
AcDbEntity
  8
0
370
              -2
390
0
  6
Continuous
 62
               0
100
AcDbLine
 10
1265.305100454995
 20
784.95395725646927
 30
0.0
 11
1265.305100454995
 21
901.0
 31
0.0
  0
LINE
  5
116
100
AcDbEntity
  8
0
370
              -2
390
0
  6
Continuous
 62
               0
100
AcDbLine
 10
985.305100454995
 20
901.0
 30
0.0
 11
1265.305100454995
 21
901.0
 31
0.0
  0
CIRCLE
  5
117
102
{ACAD_REACTORS
330
118
102
}
100
AcDbEntity
  8
0
370
              -2
390
0
  6
Continuous
 62
               0
100
AcDbCircle
 10
985.305100454995
 20
901.0
 30
0.0
 40
1.9998779296875
  0
HATCH
  5
118
100
AcDbEntity
  8
0
370
              -2
390
0
  6
Continuous
 62
               0
100
AcDbHatch
 10
0.0
 20
0.0
 30
0.0
210
0.0
220
0.0
230
1.0
  2
SOLID
 70
               1
 71
               1
 91
        1
 92
        1
 93
        1
 72
               2
 10
985.305100454995
 20
901.0
 40
1.9998779296875
 50
0.0
 51
360.0
 73
               0
 97
        1
330
117
 75
               0
 76
               1
 98
        1
 10
0.0
 20
0.0
  0
CIRCLE
  5
119
102
{ACAD_REACTORS
330
11A
102
}
100
AcDbEntity
  8
0
370
              -2
390
0
  6
Continuous
 62
               0
100
AcDbCircle
 10
1265.305100454995
 20
901.0
 30
0.0
 40
1.9998779296875
  0
HATCH
  5
11A
100
AcDbEntity
  8
0
370
              -2
390
0
  6
Continuous
 62
               0
100
AcDbHatch
 10
0.0
 20
0.0
 30
0.0
210
0.0
220
0.0
230
1.0
  2
SOLID
 70
               1
 71
               1
 91
        1
 92
        1
 93
        1
 72
               2
 10
1265.305100454995
 20
901.0
 40
1.9998779296875
 50
0.0
 51
360.0
 73
               0
 97
        1
330
119
 75
               0
 76
               1
 98
        1
 10
0.0
 20
0.0
  0
MTEXT
  5
11B
100
AcDbEntity
  8
0
390
0
 62
               0
100
AcDbMText
 10
1101.4925987728195
 20
934.87761718749994
 30
0.0
 40
24.432617187500004
 41
0.0
 71
               1
 72
               1
  1
280
  7
ＭＳ ゴシック
 73
               1
 44
0.7828267384257843
  0
POINT
  5
11C
100
AcDbEntity
  8
Defpoints
370
               0
390
0
 62
               0
100
AcDbPoint
 10
1265.305100454995
 20
759.95395725646927
 30
0.0
  0
POINT
  5
11D
100
AcDbEntity
  8
Defpoints
370
               0
390
0
 62
               0
100
AcDbPoint
 10
985.305100454995
 20
759.95395725646927
 30
0.0
  0
POINT
  5
11E
100
AcDbEntity
  8
Defpoints
370
               0
390
0
 62
               0
100
AcDbPoint
 10
985.305100454995
 20
901.0
 30
0.0
  0
ENDBLK
  5
11F
100
AcDbEntity
  8
notes
390
0
100
AcDbBlockEnd
  0
BLOCK
  5
120
100
AcDbEntity
  8
notes
390
0
100
AcDbBlockBegin
  2
*D18
 70
               1
 10
0.0
 20
0.0
 30
0.0
  3
*D18
  1

  0
LINE
  5
121
100
AcDbEntity
  8
0
370
              -2
390
0
  6
Continuous
 62
               0
100
AcDbLine
 10
1871.6056958127501
 20
799.95232370651115
 30
0.0
 11
1790.7679456980463
 21
799.95232370651115
 31
0.0
  0
LINE
  5
122
100
AcDbEntity
  8
0
370
              -2
390
0
  6
Continuous
 62
               0
100
AcDbLine
 10
1943.4457980843581
 20
644.95278831283838
 30
0.0
 11
1790.7679456980463
 21
644.95278831283838
 31
0.0
  0
LINE
  5
123
100
AcDbEntity
  8
0
370
              -2
390
0
  6
Continuous
 62
               0
100
AcDbLine
 10
1790.7679456980463
 20
799.95232370651115
 30
0.0
 11
1790.7679456980463
 21
644.95278831283838
 31
0.0
  0
CIRCLE
  5
124
102
{ACAD_REACTORS
330
125
102
}
100
AcDbEntity
  8
0
370
              -2
390
0
  6
Continuous
 62
               0
100
AcDbCircle
 10
1790.7679456980463
 20
799.95232370651115
 30
0.0
 40
1.9998779296875
  0
HATCH
  5
125
100
AcDbEntity
  8
0
370
              -2
390
0
  6
Continuous
 62
               0
100
AcDbHatch
 10
0.0
 20
0.0
 30
0.0
210
0.0
220
0.0
230
1.0
  2
SOLID
 70
               1
 71
               1
 91
        1
 92
        1
 93
        1
 72
               2
 10
1790.7679456980463
 20
799.95232370651115
 40
1.9998779296875
 50
0.0
 51
360.0
 73
               0
 97
        1
330
124
 75
               0
 76
               1
 98
        1
 10
0.0
 20
0.0
  0
CIRCLE
  5
126
102
{ACAD_REACTORS
330
127
102
}
100
AcDbEntity
  8
0
370
              -2
390
0
  6
Continuous
 62
               0
100
AcDbCircle
 10
1790.7679456980463
 20
644.95278831283838
 30
0.0
 40
1.9998779296875
  0
HATCH
  5
127
100
AcDbEntity
  8
0
370
              -2
390
0
  6
Continuous
 62
               0
100
AcDbHatch
 10
0.0
 20
0.0
 30
0.0
210
0.0
220
0.0
230
1.0
  2
SOLID
 70
               1
 71
               1
 91
        1
 92
        1
 93
        1
 72
               2
 10
1790.7679456980463
 20
644.95278831283838
 40
1.9998779296875
 50
0.0
 51
360.0
 73
               0
 97
        1
330
126
 75
               0
 76
               1
 98
        1
 10
0.0
 20
0.0
  0
MTEXT
  5
128
100
AcDbEntity
  8
0
390
0
 62
               0
100
AcDbMText
 10
1756.8903285105464
 20
698.64005432749923
 30
0.0
 40
24.432617187500004
 41
0.0
 71
               1
 72
               1
  1
155
  7
ＭＳ ゴシック
 11
0.0
 21
1.0
 31
0.0
 73
               1
 44
0.7828267384257843
  0
POINT
  5
129
100
AcDbEntity
  8
Defpoints
370
               0
390
0
 62
               0
100
AcDbPoint
 10
1968.4457980843581
 20
644.95278831283838
 30
0.0
  0
POINT
  5
12A
100
AcDbEntity
  8
Defpoints
370
               0
390
0
 62
               0
100
AcDbPoint
 10
1896.6056958127501
 20
799.95232370651115
 30
0.0
  0
POINT
  5
12B
100
AcDbEntity
  8
Defpoints
370
               0
390
0
 62
               0
100
AcDbPoint
 10
1790.7679456980463
 20
799.95232370651115
 30
0.0
  0
ENDBLK
  5
12C
100
AcDbEntity
  8
notes
390
0
100
AcDbBlockEnd
  0
BLOCK
  5
12D
100
AcDbEntity
  8
notes
390
0
100
AcDbBlockBegin
  2
*D19
 70
               1
 10
0.0
 20
0.0
 30
0.0
  3
*D19
  1

  0
LINE
  5
12E
100
AcDbEntity
  8
0
370
              -2
390
0
  6
Continuous
 62
               0
100
AcDbLine
 10
945.30510045499523
 20
744.95395725646938
 30
0.0
 11
675.305100454995
 21
744.95395725646938
 31
0.0
  0
LINE
  5
12F
100
AcDbEntity
  8
0
370
              -2
390
0
  6
Continuous
 62
               0
100
AcDbLine
 10
756.17869524743514
 20
799.9539793000655
 30
0.0
 11
675.305100454995
 21
799.9539793000655
 31
0.0
  0
LINE
  5
130
100
AcDbEntity
  8
0
370
              -2
390
0
  6
Continuous
 62
               0
100
AcDbLine
 10
675.305100454995
 20
744.95395725646938
 30
0.0
 11
675.305100454995
 21
799.9539793000655
 31
0.0
  0
CIRCLE
  5
131
102
{ACAD_REACTORS
330
132
102
}
100
AcDbEntity
  8
0
370
              -2
390
0
  6
Continuous
 62
               0
100
AcDbCircle
 10
675.305100454995
 20
744.95395725646938
 30
0.0
 40
1.9998779296875
  0
HATCH
  5
132
100
AcDbEntity
  8
0
370
              -2
390
0
  6
Continuous
 62
               0
100
AcDbHatch
 10
0.0
 20
0.0
 30
0.0
210
0.0
220
0.0
230
1.0
  2
SOLID
 70
               1
 71
               1
 91
        1
 92
        1
 93
        1
 72
               2
 10
675.305100454995
 20
744.95395725646938
 40
1.9998779296875
 50
0.0
 51
360.0
 73
               0
 97
        1
330
131
 75
               0
 76
               1
 98
        1
 10
0.0
 20
0.0
  0
CIRCLE
  5
133
102
{ACAD_REACTORS
330
134
102
}
100
AcDbEntity
  8
0
370
              -2
390
0
  6
Continuous
 62
               0
100
AcDbCircle
 10
675.305100454995
 20
799.9539793000655
 30
0.0
 40
1.9998779296875
  0
HATCH
  5
134
100
AcDbEntity
  8
0
370
              -2
390
0
  6
Continuous
 62
               0
100
AcDbHatch
 10
0.0
 20
0.0
 30
0.0
210
0.0
220
0.0
230
1.0
  2
SOLID
 70
               1
 71
               1
 91
        1
 92
        1
 93
        1
 72
               2
 10
675.305100454995
 20
799.9539793000655
 40
1.9998779296875
 50
0.0
 51
360.0
 73
               0
 97
        1
330
133
 75
               0
 76
               1
 98
        1
 10
0.0
 20
0.0
  0
MTEXT
  5
135
100
AcDbEntity
  8
0
390
0
 62
               0
100
AcDbMText
 10
641.42748326749495
 20
756.57896827826744
 30
0.0
 40
24.432617187500004
 41
0.0
 71
               1
 72
               1
  1
55
  7
ＭＳ ゴシック
 11
0.0
 21
1.0
 31
0.0
 73
               1
 44
0.7828267384257843
  0
POINT
  5
136
100
AcDbEntity
  8
Defpoints
370
               0
390
0
 62
               0
100
AcDbPoint
 10
781.17869524743514
 20
799.9539793000655
 30
0.0
  0
POINT
  5
137
100
AcDbEntity
  8
Defpoints
370
               0
390
0
 62
               0
100
AcDbPoint
 10
970.30510045499523
 20
744.95395725646938
 30
0.0
  0
POINT
  5
138
100
AcDbEntity
  8
Defpoints
370
               0
390
0
 62
               0
100
AcDbPoint
 10
675.305100454995
 20
744.95395725646938
 30
0.0
  0
ENDBLK
  5
139
100
AcDbEntity
  8
notes
390
0
100
AcDbBlockEnd
  0
BLOCK
  5
13A
100
AcDbEntity
  8
notes
390
0
100
AcDbBlockBegin
  2
*D20
 70
               1
 10
0.0
 20
0.0
 30
0.0
  3
*D20
  1

  0
LINE
  5
13B
100
AcDbEntity
  8
0
370
              -2
390
0
  6
Continuous
 62
               0
100
AcDbLine
 10
1494.179305102057
 20
799.9539793000655
 30
0.0
 11
1575.305100454995
 21
799.9539793000655
 31
0.0
  0
LINE
  5
13C
100
AcDbEntity
  8
0
370
              -2
390
0
  6
Continuous
 62
               0
100
AcDbLine
 10
1178.1051136492097
 20
614.9539793000655
 30
0.0
 11
1575.3051004549952
 21
614.9539793000655
 31
0.0
  0
LINE
  5
13D
100
AcDbEntity
  8
0
370
              -2
390
0
  6
Continuous
 62
               0
100
AcDbLine
 10
1575.305100454995
 20
799.9539793000655
 30
0.0
 11
1575.3051004549952
 21
614.9539793000655
 31
0.0
  0
CIRCLE
  5
13E
102
{ACAD_REACTORS
330
13F
102
}
100
AcDbEntity
  8
0
370
              -2
390
0
  6
Continuous
 62
               0
100
AcDbCircle
 10
1575.305100454995
 20
799.9539793000655
 30
0.0
 40
1.9998779296875
  0
HATCH
  5
13F
100
AcDbEntity
  8
0
370
              -2
390
0
  6
Continuous
 62
               0
100
AcDbHatch
 10
0.0
 20
0.0
 30
0.0
210
0.0
220
0.0
230
1.0
  2
SOLID
 70
               1
 71
               1
 91
        1
 92
        1
 93
        1
 72
               2
 10
1575.305100454995
 20
799.9539793000655
 40
1.9998779296875
 50
0.0
 51
360.0
 73
               0
 97
        1
330
13E
 75
               0
 76
               1
 98
        1
 10
0.0
 20
0.0
  0
CIRCLE
  5
140
102
{ACAD_REACTORS
330
141
102
}
100
AcDbEntity
  8
0
370
              -2
390
0
  6
Continuous
 62
               0
100
AcDbCircle
 10
1575.3051004549952
 20
614.9539793000655
 30
0.0
 40
1.9998779296875
  0
HATCH
  5
141
100
AcDbEntity
  8
0
370
              -2
390
0
  6
Continuous
 62
               0
100
AcDbHatch
 10
0.0
 20
0.0
 30
0.0
210
0.0
220
0.0
230
1.0
  2
SOLID
 70
               1
 71
               1
 91
        1
 92
        1
 93
        1
 72
               2
 10
1575.3051004549952
 20
614.9539793000655
 40
1.9998779296875
 50
0.0
 51
360.0
 73
               0
 97
        1
330
140
 75
               0
 76
               1
 98
        1
 10
0.0
 20
0.0
  0
MTEXT
  5
142
100
AcDbEntity
  8
0
390
0
 62
               0
100
AcDbMText
 10
1541.4274832674951
 20
683.6414776178899
 30
0.0
 40
24.432617187500004
 41
0.0
 71
               1
 72
               1
  1
185
  7
ＭＳ ゴシック
 11
0.0
 21
1.0
 31
0.0
 73
               1
 44
0.7828267384257843
  0
POINT
  5
143
100
AcDbEntity
  8
Defpoints
370
               0
390
0
 62
               0
100
AcDbPoint
 10
1153.1051136492097
 20
614.9539793000655
 30
0.0
  0
POINT
  5
144
100
AcDbEntity
  8
Defpoints
370
               0
390
0
 62
               0
100
AcDbPoint
 10
1469.179305102057
 20
799.9539793000655
 30
0.0
  0
POINT
  5
145
100
AcDbEntity
  8
Defpoints
370
               0
390
0
 62
               0
100
AcDbPoint
 10
1575.305100454995
 20
799.9539793000655
 30
0.0
  0
ENDBLK
  5
146
100
AcDbEntity
  8
notes
390
0
100
AcDbBlockEnd
  0
BLOCK
  5
147
100
AcDbEntity
  8
notes
390
0
100
AcDbBlockBegin
  2
*D21
 70
               1
 10
0.0
 20
0.0
 30
0.0
  3
*D21
  1

  0
LINE
  5
148
100
AcDbEntity
  8
0
370
              -2
390
0
  6
Continuous
 62
               0
100
AcDbLine
 10
982.67893931583603
 20
1909.3619285615832
 30
0.0
 11
949.95116355293339
 21
1909.3619285615832
 31
0.0
  0
LINE
  5
149
100
AcDbEntity
  8
0
370
              -2
390
0
  6
Continuous
 62
               0
100
AcDbLine
 10
982.67893931583603
 20
1979.3619057658052
 30
0.0
 11
949.95116355293339
 21
1979.3619057658052
 31
0.0
  0
LINE
  5
14A
100
AcDbEntity
  8
0
370
              -2
390
0
  6
Continuous
 62
               0
100
AcDbLine
 10
949.95116355293339
 20
1909.3619285615832
 30
0.0
 11
949.95116355293339
 21
1979.3619057658052
 31
0.0
  0
CIRCLE
  5
14B
102
{ACAD_REACTORS
330
14C
102
}
100
AcDbEntity
  8
0
370
              -2
390
0
  6
Continuous
 62
               0
100
AcDbCircle
 10
949.95116355293339
 20
1909.3619285615832
 30
0.0
 40
1.9998779296875
  0
HATCH
  5
14C
100
AcDbEntity
  8
0
370
              -2
390
0
  6
Continuous
 62
               0
100
AcDbHatch
 10
0.0
 20
0.0
 30
0.0
210
0.0
220
0.0
230
1.0
  2
SOLID
 70
               1
 71
               1
 91
        1
 92
        1
 93
        1
 72
               2
 10
949.95116355293339
 20
1909.3619285615832
 40
1.9998779296875
 50
0.0
 51
360.0
 73
               0
 97
        1
330
14B
 75
               0
 76
               1
 98
        1
 10
0.0
 20
0.0
  0
CIRCLE
  5
14D
102
{ACAD_REACTORS
330
14E
102
}
100
AcDbEntity
  8
0
370
              -2
390
0
  6
Continuous
 62
               0
100
AcDbCircle
 10
949.95116355293339
 20
1979.3619057658052
 30
0.0
 40
1.9998779296875
  0
HATCH
  5
14E
100
AcDbEntity
  8
0
370
              -2
390
0
  6
Continuous
 62
               0
100
AcDbHatch
 10
0.0
 20
0.0
 30
0.0
210
0.0
220
0.0
230
1.0
  2
SOLID
 70
               1
 71
               1
 91
        1
 92
        1
 93
        1
 72
               2
 10
949.95116355293339
 20
1979.3619057658052
 40
1.9998779296875
 50
0.0
 51
360.0
 73
               0
 97
        1
330
14D
 75
               0
 76
               1
 98
        1
 10
0.0
 20
0.0
  0
MTEXT
  5
14F
100
AcDbEntity
  8
0
390
0
 62
               0
100
AcDbMText
 10
916.07354636543334
 20
1928.4869171636942
 30
0.0
 40
24.432617187500004
 41
0.0
 71
               1
 72
               1
  1
70
  7
ＭＳ ゴシック
 11
0.0
 21
1.0
 31
0.0
 73
               1
 44
0.7828267384257843
  0
POINT
  5
150
100
AcDbEntity
  8
Defpoints
370
               0
390
0
 62
               0
100
AcDbPoint
 10
1007.678939315836
 20
1979.3619057658052
 30
0.0
  0
POINT
  5
151
100
AcDbEntity
  8
Defpoints
370
               0
390
0
 62
               0
100
AcDbPoint
 10
1007.678939315836
 20
1909.3619285615832
 30
0.0
  0
POINT
  5
152
100
AcDbEntity
  8
Defpoints
370
               0
390
0
 62
               0
100
AcDbPoint
 10
949.95116355293339
 20
1909.3619285615832
 30
0.0
  0
ENDBLK
  5
153
100
AcDbEntity
  8
notes
390
0
100
AcDbBlockEnd
  0
BLOCK
  5
154
100
AcDbEntity
  8
notes
390
0
100
AcDbBlockBegin
  2
*D22
 70
               1
 10
0.0
 20
0.0
 30
0.0
  3
*D22
  1

  0
LINE
  5
155
100
AcDbEntity
  8
0
370
              -2
390
0
  6
Continuous
 62
               0
100
AcDbLine
 10
1947.7931193065674
 20
1674.3618700234292
 30
0.0
 11
1947.7931193065674
 21
1600.0
 31
0.0
  0
LINE
  5
156
100
AcDbEntity
  8
0
370
              -2
390
0
  6
Continuous
 62
               0
100
AcDbLine
 10
2197.793119306567
 20
1674.3618700234292
 30
0.0
 11
2197.793119306567
 21
1600.0
 31
0.0
  0
LINE
  5
157
100
AcDbEntity
  8
0
370
              -2
390
0
  6
Continuous
 62
               0
100
AcDbLine
 10
1947.7931193065674
 20
1600.0
 30
0.0
 11
2197.793119306567
 21
1600.0
 31
0.0
  0
CIRCLE
  5
158
102
{ACAD_REACTORS
330
159
102
}
100
AcDbEntity
  8
0
370
              -2
390
0
  6
Continuous
 62
               0
100
AcDbCircle
 10
1947.7931193065674
 20
1600.0
 30
0.0
 40
1.9998779296875
  0
HATCH
  5
159
100
AcDbEntity
  8
0
370
              -2
390
0
  6
Continuous
 62
               0
100
AcDbHatch
 10
0.0
 20
0.0
 30
0.0
210
0.0
220
0.0
230
1.0
  2
SOLID
 70
               1
 71
               1
 91
        1
 92
        1
 93
        1
 72
               2
 10
1947.7931193065674
 20
1600.0
 40
1.9998779296875
 50
0.0
 51
360.0
 73
               0
 97
        1
330
158
 75
               0
 76
               1
 98
        1
 10
0.0
 20
0.0
  0
CIRCLE
  5
15A
102
{ACAD_REACTORS
330
15B
102
}
100
AcDbEntity
  8
0
370
              -2
390
0
  6
Continuous
 62
               0
100
AcDbCircle
 10
2197.793119306567
 20
1600.0
 30
0.0
 40
1.9998779296875
  0
HATCH
  5
15B
100
AcDbEntity
  8
0
370
              -2
390
0
  6
Continuous
 62
               0
100
AcDbHatch
 10
0.0
 20
0.0
 30
0.0
210
0.0
220
0.0
230
1.0
  2
SOLID
 70
               1
 71
               1
 91
        1
 92
        1
 93
        1
 72
               2
 10
2197.793119306567
 20
1600.0
 40
1.9998779296875
 50
0.0
 51
360.0
 73
               0
 97
        1
330
15A
 75
               0
 76
               1
 98
        1
 10
0.0
 20
0.0
  0
MTEXT
  5
15C
100
AcDbEntity
  8
0
390
0
 62
               0
100
AcDbMText
 10
2048.9806176243919
 20
1633.8776171874999
 30
0.0
 40
24.432617187500004
 41
0.0
 71
               1
 72
               1
  1
250
  7
ＭＳ ゴシック
 73
               1
 44
0.7828267384257843
  0
POINT
  5
15D
100
AcDbEntity
  8
Defpoints
370
               0
390
0
 62
               0
100
AcDbPoint
 10
2197.793119306567
 20
1699.3618700234292
 30
0.0
  0
POINT
  5
15E
100
AcDbEntity
  8
Defpoints
370
               0
390
0
 62
               0
100
AcDbPoint
 10
1947.7931193065674
 20
1699.3618700234292
 30
0.0
  0
POINT
  5
15F
100
AcDbEntity
  8
Defpoints
370
               0
390
0
 62
               0
100
AcDbPoint
 10
1947.7931193065674
 20
1600.0
 30
0.0
  0
ENDBLK
  5
160
100
AcDbEntity
  8
notes
390
0
100
AcDbBlockEnd
  0
BLOCK
  5
161
100
AcDbEntity
  8
notes
390
0
100
AcDbBlockBegin
  2
*D23
 70
               1
 10
0.0
 20
0.0
 30
0.0
  3
*D23
  1

  0
LINE
  5
162
100
AcDbEntity
  8
0
370
              -2
390
0
  6
Continuous
 62
               0
100
AcDbLine
 10
2222.793119306567
 20
1699.3618700234292
 30
0.0
 11
2292.6511482076721
 21
1699.3618700234292
 31
0.0
  0
LINE
  5
163
100
AcDbEntity
  8
0
370
              -2
390
0
  6
Continuous
 62
               0
100
AcDbLine
 10
2222.793119306567
 20
1949.3618700234292
 30
0.0
 11
2292.6511482076721
 21
1949.3618700234292
 31
0.0
  0
LINE
  5
164
100
AcDbEntity
  8
0
370
              -2
390
0
  6
Continuous
 62
               0
100
AcDbLine
 10
2292.6511482076721
 20
1699.3618700234292
 30
0.0
 11
2292.6511482076721
 21
1949.3618700234292
 31
0.0
  0
CIRCLE
  5
165
102
{ACAD_REACTORS
330
166
102
}
100
AcDbEntity
  8
0
370
              -2
390
0
  6
Continuous
 62
               0
100
AcDbCircle
 10
2292.6511482076721
 20
1699.3618700234292
 30
0.0
 40
1.9998779296875
  0
HATCH
  5
166
100
AcDbEntity
  8
0
370
              -2
390
0
  6
Continuous
 62
               0
100
AcDbHatch
 10
0.0
 20
0.0
 30
0.0
210
0.0
220
0.0
230
1.0
  2
SOLID
 70
               1
 71
               1
 91
        1
 92
        1
 93
        1
 72
               2
 10
2292.6511482076721
 20
1699.3618700234292
 40
1.9998779296875
 50
0.0
 51
360.0
 73
               0
 97
        1
330
165
 75
               0
 76
               1
 98
        1
 10
0.0
 20
0.0
  0
CIRCLE
  5
167
102
{ACAD_REACTORS
330
168
102
}
100
AcDbEntity
  8
0
370
              -2
390
0
  6
Continuous
 62
               0
100
AcDbCircle
 10
2292.6511482076721
 20
1949.3618700234292
 30
0.0
 40
1.9998779296875
  0
HATCH
  5
168
100
AcDbEntity
  8
0
370
              -2
390
0
  6
Continuous
 62
               0
100
AcDbHatch
 10
0.0
 20
0.0
 30
0.0
210
0.0
220
0.0
230
1.0
  2
SOLID
 70
               1
 71
               1
 91
        1
 92
        1
 93
        1
 72
               2
 10
2292.6511482076721
 20
1949.3618700234292
 40
1.9998779296875
 50
0.0
 51
360.0
 73
               0
 97
        1
330
167
 75
               0
 76
               1
 98
        1
 10
0.0
 20
0.0
  0
MTEXT
  5
169
100
AcDbEntity
  8
0
390
0
 62
               0
100
AcDbMText
 10
2258.773531020172
 20
1800.5493683412537
 30
0.0
 40
24.432617187500004
 41
0.0
 71
               1
 72
               1
  1
250
  7
ＭＳ ゴシック
 11
0.0
 21
1.0
 31
0.0
 73
               1
 44
0.7828267384257843
  0
POINT
  5
16A
100
AcDbEntity
  8
Defpoints
370
               0
390
0
 62
               0
100
AcDbPoint
 10
2197.793119306567
 20
1949.3618700234292
 30
0.0
  0
POINT
  5
16B
100
AcDbEntity
  8
Defpoints
370
               0
390
0
 62
               0
100
AcDbPoint
 10
2197.793119306567
 20
1699.3618700234292
 30
0.0
  0
POINT
  5
16C
100
AcDbEntity
  8
Defpoints
370
               0
390
0
 62
               0
100
AcDbPoint
 10
2292.6511482076721
 20
1699.3618700234292
 30
0.0
  0
ENDBLK
  5
16D
100
AcDbEntity
  8
notes
390
0
100
AcDbBlockEnd
  0
BLOCK
  5
16E
100
AcDbEntity
  8
notes
390
0
100
AcDbBlockBegin
  2
*D24
 70
               1
 10
0.0
 20
0.0
 30
0.0
  3
*D24
  1

  0
LINE
  5
16F
100
AcDbEntity
  8
0
370
              -2
390
0
  6
Continuous
 62
               0
100
AcDbLine
 10
2222.793119306567
 20
1949.3618700234292
 30
0.0
 11
2292.6511482076721
 21
1949.3618700234292
 31
0.0
  0
LINE
  5
170
100
AcDbEntity
  8
0
370
              -2
390
0
  6
Continuous
 62
               0
100
AcDbLine
 10
2222.6511482076721
 20
1979.3619480444968
 30
0.0
 11
2292.6511482076721
 21
1979.3619480444968
 31
0.0
  0
LINE
  5
171
100
AcDbEntity
  8
0
370
              -2
390
0
  6
Continuous
 62
               0
100
AcDbLine
 10
2292.6511482076721
 20
1979.3619480444968
 30
0.0
 11
2292.6511482076721
 21
2018.75
 31
0.0
  0
LINE
  5
172
100
AcDbEntity
  8
0
370
              -2
390
0
  6
Continuous
 62
               0
100
AcDbLine
 10
2292.6511482076721
 20
1949.3618700234292
 30
0.0
 11
2292.6511482076721
 21
1979.3619480444968
 31
0.0
  0
CIRCLE
  5
173
102
{ACAD_REACTORS
330
174
102
}
100
AcDbEntity
  8
0
370
              -2
390
0
  6
Continuous
 62
               0
100
AcDbCircle
 10
2292.6511482076721
 20
1949.3618700234292
 30
0.0
 40
1.9998779296875
  0
HATCH
  5
174
100
AcDbEntity
  8
0
370
              -2
390
0
  6
Continuous
 62
               0
100
AcDbHatch
 10
0.0
 20
0.0
 30
0.0
210
0.0
220
0.0
230
1.0
  2
SOLID
 70
               1
 71
               1
 91
        1
 92
        1
 93
        1
 72
               2
 10
2292.6511482076721
 20
1949.3618700234292
 40
1.9998779296875
 50
0.0
 51
360.0
 73
               0
 97
        1
330
173
 75
               0
 76
               1
 98
        1
 10
0.0
 20
0.0
  0
CIRCLE
  5
175
102
{ACAD_REACTORS
330
176
102
}
100
AcDbEntity
  8
0
370
              -2
390
0
  6
Continuous
 62
               0
100
AcDbCircle
 10
2292.6511482076721
 20
1979.3619480444968
 30
0.0
 40
1.9998779296875
  0
HATCH
  5
176
100
AcDbEntity
  8
0
370
              -2
390
0
  6
Continuous
 62
               0
100
AcDbHatch
 10
0.0
 20
0.0
 30
0.0
210
0.0
220
0.0
230
1.0
  2
SOLID
 70
               1
 71
               1
 91
        1
 92
        1
 93
        1
 72
               2
 10
2292.6511482076721
 20
1979.3619480444968
 40
1.9998779296875
 50
0.0
 51
360.0
 73
               0
 97
        1
330
175
 75
               0
 76
               1
 98
        1
 10
0.0
 20
0.0
  0
MTEXT
  5
177
100
AcDbEntity
  8
0
390
0
 62
               0
100
AcDbMText
 10
2258.773531020172
 20
1987.0
 30
0.0
 40
24.432617187500004
 41
0.0
 71
               1
 72
               1
  1
30
  7
ＭＳ ゴシック
 11
0.0
 21
1.0
 31
0.0
 73
               1
 44
0.7828267384257843
  0
POINT
  5
178
100
AcDbEntity
  8
Defpoints
370
               0
390
0
 62
               0
100
AcDbPoint
 10
2197.6511482076721
 20
1979.3619480444968
 30
0.0
  0
POINT
  5
179
100
AcDbEntity
  8
Defpoints
370
               0
390
0
 62
               0
100
AcDbPoint
 10
2197.793119306567
 20
1949.3618700234292
 30
0.0
  0
POINT
  5
17A
100
AcDbEntity
  8
Defpoints
370
               0
390
0
 62
               0
100
AcDbPoint
 10
2292.6511482076721
 20
1949.3618700234292
 30
0.0
  0
ENDBLK
  5
17B
100
AcDbEntity
  8
notes
390
0
100
AcDbBlockEnd
  0
ENDSEC
  0
SECTION
  2
ENTITIES
  0
MTEXT
  5
17C
100
AcDbEntity
  8
template
390
0
 62
               7
100
AcDbMText
 10
591.72892457491048
 20
-12.654355065092886
 30
0.0
 40
16.288411458333332
 41
0.0
 71
               1
 72
               1
  1
品名
  7
ＭＳ ゴシック
 73
               1
 44
0.7828267384257843
  0
MTEXT
  5
17D
100
AcDbEntity
  8
template
390
0
 62
               7
100
AcDbMText
 10
591.72892457491048
 20
-97.654355065092886
 30
0.0
 40
16.288411458333332
 41
0.0
 71
               1
 72
               1
  1
仕様
  7
ＭＳ ゴシック
 73
               1
 44
0.7828267384257843
  0
MTEXT
  5
17E
100
AcDbEntity
  8
template
390
0
 62
               7
100
AcDbMText
 10
644.72892457491048
 20
-41.236816002593059
 30
0.0
 40
24.432617187500004
 41
0.0
 71
               1
 72
               1
  1
洗面器 -POZZI GINORI,Fantasia2-
  7
ＭＳ ゴシック
 73
               1
 44
0.7828267384257843
  0
LINE
  5
17F
100
AcDbEntity
  8
template
370
               5
390
0
  6
Continuous
 62
               7
100
AcDbLine
 10
2534.7289245744287
 20
-89.239433190092996
 30
0.0
 11
584.72892457442845
 21
-89.239433190092996
 31
0.0
  0
LWPOLYLINE
  5
180
100
AcDbEntity
  8
template
370
               5
390
0
  6
Continuous
 62
               7
100
AcDbPolyline
 90
        5
 70
             128
 10
2534.7289245749107
 20
2540.7605668099068
 10
584.72892457491048
 20
2540.7605668099068
 10
584.72892457491048
 20
-259.239433190093
 10
2534.7289245749107
 20
-259.239433190093
 10
2534.7289245749107
 20
2540.7605668099068
  0
LINE
  5
181
100
AcDbEntity
  8
template
370
               5
390
0
  6
Continuous
 62
               7
100
AcDbLine
 10
2534.7289245744287
 20
-4.2394331900929956
 30
0.0
 11
584.72892457442845
 21
-4.2394331900929956
 31
0.0
  0
LINE
  5
182
100
AcDbEntity
  8
template
370
               5
390
0
  6
Continuous
 62
               7
100
AcDbLine
 10
2534.7289245749107
 20
-174.239433190093
 30
0.0
 11
1781.7289245749109
 21
-174.239433190093
 31
0.0
  0
MTEXT
  5
183
100
AcDbEntity
  8
template
390
0
 62
               7
100
AcDbMText
 10
644.72892457491048
 20
-126.23681600259306
 30
0.0
 40
24.432617187500004
 41
0.0
 71
               1
 72
               1
  1
壁付/カウンタ ートップ兼用,壁付/半埋込兼用,カウンタートップ/半埋込兼用\Pオーバーフロー付,オーバーフロー無,壁取付ボルト付属
  7
ＭＳ ゴシック
 73
               1
 44
1.1307497332816883
  0
MTEXT
  5
184
100
AcDbEntity
  8
template
390
0
 62
               7
100
AcDbMText
 10
584.72892457511375
 20
-271.09325524694987
 30
0.0
 40
21.717881944444446
 41
0.0
 71
               1
 72
               1
  1
111208S
  7
ＭＳ ゴシック
 73
               1
 44
0.7828267384257843
  0
MTEXT
  5
185
100
AcDbEntity
  8
template
390
0
 62
               7
100
AcDbMText
 10
1811.6003308271706
 20
-204.14982766340063
 30
0.0
 40
24.432617187500004
 41
0.0
 71
               1
 72
               1
  1
大洋金物株式会社 ティーフォルム事業部
  7
ＭＳ ゴシック
 73
               1
 44
0.7828267384257843
  0
INSERT
  5
186
100
AcDbEntity
  8
template
390
0
 62
               7
100
AcDbBlockReference
  2
グループ
 10
1559.7289245746697
 20
1134.7632741686075
 30
0.0
  0
MTEXT
  5
187
100
AcDbEntity
  8
template
390
0
 62
               7
100
AcDbMText
 10
2343.7289245751699
 20
-126.23681600259306
 30
0.0
 40
24.432617187500004
 41
0.0
 71
               1
 72
               1
  1
1:10
  7
ＭＳ ゴシック
 73
               1
 44
0.7828267384257843
  0
MTEXT
  5
188
100
AcDbEntity
  8
template
390
0
 62
               7
100
AcDbMText
 10
2290.7289245751699
 20
-97.654355065092886
 30
0.0
 40
16.288411458333332
 41
0.0
 71
               1
 72
               1
  1
縮尺
  7
ＭＳ ゴシック
 73
               1
 44
0.7828267384257843
  0
LINE
  5
189
100
AcDbEntity
  8
template
370
               5
390
0
  6
Continuous
 62
               7
100
AcDbLine
 10
2283.7289245751699
 20
-174.239433190093
 30
0.0
 11
2283.7289245751699
 21
-89.239433190092996
 31
0.0
  0
MTEXT
  5
18A
100
AcDbEntity
  8
template
390
0
 62
               7
100
AcDbMText
 10
2039.7289245751697
 20
-97.654355065092886
 30
0.0
 40
16.288411458333332
 41
0.0
 71
               1
 72
               1
  1
容量
  7
ＭＳ ゴシック
 73
               1
 44
0.7828267384257843
  0
MTEXT
  5
18B
100
AcDbEntity
  8
template
390
0
 62
               7
100
AcDbMText
 10
2092.7289245751699
 20
-126.23681600259306
 30
0.0
 40
24.432617187500004
 41
0.0
 71
               1
 72
               1
  1
8.8L
  7
ＭＳ ゴシック
 73
               1
 44
0.7828267384257843
  0
LINE
  5
18C
100
AcDbEntity
  8
template
370
               5
390
0
  6
Continuous
 62
               7
100
AcDbLine
 10
2032.7289245751697
 20
-174.239433190093
 30
0.0
 11
2032.7289245751697
 21
-89.239433190092996
 31
0.0
  0
MTEXT
  5
18D
100
AcDbEntity
  8
template
390
0
 62
               7
100
AcDbMText
 10
1788.7289245751697
 20
-12.654355065092886
 30
0.0
 40
16.288411458333332
 41
0.0
 71
               1
 72
               1
  1
品番
  7
ＭＳ ゴシック
 73
               1
 44
0.7828267384257843
  0
MTEXT
  5
18E
100
AcDbEntity
  8
template
390
0
 62
               7
100
AcDbMText
 10
1788.7289245751697
 20
-97.654355065092886
 30
0.0
 40
16.288411458333332
 41
0.0
 71
               1
 72
               1
  1
重量
  7
ＭＳ ゴシック
 73
               1
 44
0.7828267384257843
  0
MTEXT
  5
18F
100
AcDbEntity
  8
template
390
0
 62
               7
100
AcDbMText
 10
1841.7289245751697
 20
-41.236816002593059
 30
0.0
 40
24.432617187500004
 41
0.0
 71
               1
 72
               1
  1
ARJ70-1401
  7
ＭＳ ゴシック
 73
               1
 44
0.7828267384257843
  0
MTEXT
  5
190
100
AcDbEntity
  8
template
390
0
 62
               7
100
AcDbMText
 10
1841.7289245751697
 20
-126.23681600259306
 30
0.0
 40
24.432617187500004
 41
0.0
 71
               1
 72
               1
  1
18kg
  7
ＭＳ ゴシック
 73
               1
 44
0.7828267384257843
  0
LINE
  5
191
100
AcDbEntity
  8
template
370
               5
390
0
  6
Continuous
 62
               7
100
AcDbLine
 10
1781.7289245751697
 20
-259.239433190093
 30
0.0
 11
1781.7289245751697
 21
-4.2394331900929956
 31
0.0
  0
DIMENSION
  5
192
100
AcDbEntity
  8
notes
370
               5
390
0
  6
Continuous
 62
               7
100
AcDbDimension
  2
*D3
 10
775.305100454995
 20
2148.0
 30
0.0
 11
1125.305100454995
 21
2148.0
 31
0.0
 71
               5
 72
               1
 41
1.0
 42
0.0
  3
tform線あり
100
AcDbAlignedDimension
 13
1475.305100454995
 23
1979.3619025205069
 33
0.0
 14
775.305100454995
 24
1979.3619025205069
 34
0.0
100
AcDbRotatedDimension
1001
ACAD
1000
DSTYLE
1002
{
1070
             279
1070
               2
1070
             340
1005
3A
1070
             147
1040
5.0
1002
}
  0
DIMENSION
  5
193
100
AcDbEntity
  8
notes
370
               5
390
0
  6
Continuous
 62
               7
100
AcDbDimension
  2
*D4
 10
825.305100454995
 20
2086.0
 30
0.0
 11
1125.305100454995
 21
2086.0
 31
0.0
 71
               5
 72
               1
 41
1.0
 42
0.0
  3
tform線あり
100
AcDbAlignedDimension
 13
1425.305100454995
 23
1980.0
 33
0.0
 14
825.305100454995
 24
1980.0
 34
0.0
100
AcDbRotatedDimension
1001
ACAD
1000
DSTYLE
1002
{
1070
             279
1070
               2
1070
             340
1005
3A
1070
             147
1040
5.0
1002
}
  0
DIMENSION
  5
194
100
AcDbEntity
  8
notes
370
               5
390
0
  6
Continuous
 62
               7
100
AcDbDimension
  2
*D5
 10
1110.747345271044
 20
1909.4634896277785
 30
0.0
 11
1275.8682597842785
 21
2009.0000000000002
 31
0.0
 70
               3
 71
               5
 72
               1
 41
1.0
 42
0.0
  3
tform線あり
100
AcDbDiametricDimension
 15
1139.6105333606283
 25
1929.2603674953878
 35
0.0
 40
140.97612544387417
1001
ACAD
1000
DSTYLE
1002
{
1070
             289
1070
               0
1070
             342
1005
4A
1070
             340
1005
3A
1070
              73
1070
               1
1070
              74
1070
               1
1070
              75
1070
               1
1070
              76
1070
               1
1070
               3
1000

1070
             174
1070
               0
1070
             147
1040
5.0
1002
}
  0
DIMENSION
  5
195
100
AcDbEntity
  8
notes
370
               5
390
0
  6
Continuous
 62
               7
100
AcDbDimension
  2
*D6
 10
1125.178939315836
 20
2034.0
 30
0.0
 11
1075.178939315836
 21
2034.0
 31
0.0
 71
               5
 72
               1
 41
1.0
 42
0.0
  3
tform線あり
100
AcDbAlignedDimension
 13
1025.178939315836
 23
1936.8619285615832
 33
0.0
 14
1125.178939315836
 24
1936.8619285615832
 34
0.0
100
AcDbRotatedDimension
1001
ACAD
1000
DSTYLE
1002
{
1070
             279
1070
               2
1070
             340
1005
3A
1070
             147
1040
5.0
1002
}
  0
DIMENSION
  5
196
100
AcDbEntity
  8
notes
370
               5
390
0
  6
Continuous
 62
               7
100
AcDbDimension
  2
*D7
 10
1125.178939315836
 20
2034.0
 30
0.0
 11
1175.178939315836
 21
2034.0
 31
0.0
 71
               5
 72
               1
 41
1.0
 42
0.0
  3
tform線あり
100
AcDbAlignedDimension
 13
1225.178939315836
 23
1936.8619285615832
 33
0.0
 14
1125.178939315836
 24
1936.8619285615832
 34
0.0
100
AcDbRotatedDimension
1001
ACAD
1000
DSTYLE
1002
{
1070
             279
1070
               2
1070
             340
1005
3A
1070
             147
1040
5.0
1002
}
  0
DIMENSION
  5
197
100
AcDbEntity
  8
notes
370
               5
390
0
  6
Continuous
 62
               7
100
AcDbDimension
  2
*D8
 10
1575.305100454995
 20
1979.3619025205069
 30
0.0
 11
1575.305100454995
 21
1739.3619025205069
 31
0.0
 71
               5
 72
               1
 41
1.0
 42
0.0
  3
tform線あり
100
AcDbAlignedDimension
 13
1324.9511635529334
 23
1499.3619025205069
 33
0.0
 14
1475.305100454995
 24
1979.3619025205069
 34
0.0
 50
90.0
100
AcDbRotatedDimension
1001
ACAD
1000
DSTYLE
1002
{
1070
             279
1070
               2
1070
             340
1005
3A
1070
             147
1040
5.0
1002
}
  0
DIMENSION
  5
198
100
AcDbEntity
  8
notes
370
               5
390
0
  6
Continuous
 62
               7
100
AcDbDimension
  2
*D9
 10
675.305100454995
 20
1979.3619025205069
 30
0.0
 11
675.305100454995
 21
1919.3619025205069
 31
0.0
 71
               5
 72
               1
 41
1.0
 42
0.0
  3
tform線あり
100
AcDbAlignedDimension
 13
775.305100454995
 23
1859.3619025205069
 33
0.0
 14
775.305100454995
 24
1979.3619025205069
 34
0.0
 50
90.0
100
AcDbRotatedDimension
1001
ACAD
1000
DSTYLE
1002
{
1070
             279
1070
               2
1070
             340
1005
3A
1070
             147
1040
5.0
1002
}
  0
DIMENSION
  5
199
100
AcDbEntity
  8
notes
370
               5
390
0
  6
Continuous
 62
               7
100
AcDbDimension
  2
*D10
 10
675.305100454995
 20
1859.3619025205069
 30
0.0
 11
675.305100454995
 21
1694.3619025205069
 31
0.0
 71
               5
 72
               1
 41
1.0
 42
0.0
  3
tform線あり
100
AcDbAlignedDimension
 13
775.305100454995
 23
1529.3619025205069
 33
0.0
 14
775.305100454995
 24
1859.3619025205069
 34
0.0
 50
90.0
100
AcDbRotatedDimension
1001
ACAD
1000
DSTYLE
1002
{
1070
             279
1070
               2
1070
             340
1005
3A
1070
             147
1040
5.0
1002
}
  0
DIMENSION
  5
19A
100
AcDbEntity
  8
notes
370
               5
390
0
  6
Continuous
 62
               7
100
AcDbDimension
  2
*D11
 10
805.305100454995
 20
1399.3619025205069
 30
0.0
 11
1125.305100454995
 21
1399.3619025205069
 31
0.0
 71
               5
 72
               1
 41
1.0
 42
0.0
  3
tform線あり
100
AcDbAlignedDimension
 13
1445.3051004549952
 23
1499.3619025205069
 33
0.0
 14
805.305100454995
 24
1499.3619025205069
 34
0.0
100
AcDbRotatedDimension
1001
ACAD
1000
DSTYLE
1002
{
1070
             279
1070
               2
1070
             340
1005
3A
1070
             147
1040
5.0
1002
}
  0
DIMENSION
  5
19B
100
AcDbEntity
  8
notes
370
               5
390
0
  6
Continuous
 62
               7
100
AcDbDimension
  2
*D12
 10
2310.8539729697668
 20
882.930548134373
 30
0.0
 11
2340.853973011358
 21
882.930548134373
 31
0.0
 71
               5
 72
               1
 41
1.0
 42
0.0
  3
tform線あり
100
AcDbAlignedDimension
 13
2370.8539730529492
 23
801.45402578405731
 33
0.0
 14
2310.8539729697668
 24
799.930548134373
 34
0.0
100
AcDbRotatedDimension
1001
ACAD
1000
DSTYLE
1002
{
1070
             279
1070
               2
1070
             340
1005
3A
1070
             147
1040
5.0
1002
}
  0
DIMENSION
  5
19C
100
AcDbEntity
  8
notes
370
               5
390
0
  6
Continuous
 62
               7
100
AcDbDimension
  2
*D13
 10
2370.853964507965
 20
513.88452743443861
 30
0.0
 11
2263.353964507965
 21
513.88452743443861
 31
0.0
 71
               5
 72
               1
 41
1.0
 42
0.0
  3
tform線あり
100
AcDbAlignedDimension
 13
2155.853964507965
 23
619.95389365740323
 33
0.0
 14
2370.853964507965
 24
644.95245822764321
 34
0.0
100
AcDbRotatedDimension
1001
ACAD
1000
DSTYLE
1002
{
1070
             279
1070
               2
1070
             340
1005
3A
1070
             147
1040
5.0
1002
}
  0
DIMENSION
  5
19D
100
AcDbEntity
  8
notes
370
               5
390
0
  6
Continuous
 62
               7
100
AcDbDimension
  2
*D14
 10
2370.8540300772629
 20
463.88452743443861
 30
0.0
 11
2165.8540300772629
 21
463.88452743443861
 31
0.0
 71
               5
 72
               1
 41
1.0
 42
0.0
  3
tform線あり
100
AcDbAlignedDimension
 13
1960.8540300772629
 23
644.95256979897624
 33
0.0
 14
2370.8540300772629
 24
644.95245822764321
 34
0.0
100
AcDbRotatedDimension
1001
ACAD
1000
DSTYLE
1002
{
1070
             279
1070
               2
1070
             340
1005
3A
1070
             147
1040
5.0
1002
}
  0
DIMENSION
  5
19E
100
AcDbEntity
  8
notes
370
               5
390
0
  6
Continuous
 62
               7
100
AcDbDimension
  2
*D15
 10
1430.3051004549952
 20
514.95397930006561
 30
0.0
 11
1125.305100454995
 21
514.95397930006561
 31
0.0
 71
               5
 72
               1
 41
1.0
 42
0.0
  3
tform線あり
100
AcDbAlignedDimension
 13
820.305100454995
 23
642.0
 33
0.0
 14
1430.3051004549952
 24
642.0
 34
0.0
100
AcDbRotatedDimension
1001
ACAD
1000
DSTYLE
1002
{
1070
             279
1070
               2
1070
             340
1005
3A
1070
             147
1040
5.0
1002
}
  0
DIMENSION
  5
19F
100
AcDbEntity
  8
notes
370
               5
390
0
  6
Continuous
 62
               7
100
AcDbDimension
  2
*D16
 10
2158.0
 20
799.930548134373
 30
0.0
 11
2163.0
 21
808.930548134373
 31
0.0
 70
             128
 71
               5
 72
               1
 41
1.0
 42
0.0
  3
tform線あり
100
AcDbAlignedDimension
 13
2151.0
 23
664.930548134373
 33
0.0
 14
2151.0
 24
799.930548134373
 34
0.0
 50
90.0
100
AcDbRotatedDimension
1001
ACAD
1000
DSTYLE
1002
{
1070
             279
1070
               2
1070
             340
1005
3A
1070
               3
1000
<>(深さ)
1070
             174
1070
               0
1070
             147
1040
5.0
1002
}
  0
DIMENSION
  5
1A0
100
AcDbEntity
  8
notes
370
               5
390
0
  6
Continuous
 62
               7
100
AcDbDimension
  2
*D17
 10
985.305100454995
 20
901.0
 30
0.0
 11
1125.305100454995
 21
901.0
 31
0.0
 71
               5
 72
               1
 41
1.0
 42
0.0
  3
tform線あり
100
AcDbAlignedDimension
 13
1265.305100454995
 23
759.95395725646927
 33
0.0
 14
985.305100454995
 24
759.95395725646927
 34
0.0
100
AcDbRotatedDimension
1001
ACAD
1000
DSTYLE
1002
{
1070
             279
1070
               2
1070
             340
1005
3A
1070
             147
1040
5.0
1002
}
  0
DIMENSION
  5
1A1
100
AcDbEntity
  8
notes
370
               5
390
0
  6
Continuous
 62
               7
100
AcDbDimension
  2
*D18
 10
1790.7679456980463
 20
799.95232370651115
 30
0.0
 11
1790.7679456980463
 21
722.45255600967471
 31
0.0
 71
               5
 72
               1
 41
1.0
 42
0.0
  3
tform線あり
100
AcDbAlignedDimension
 13
1968.4457980843581
 23
644.95278831283838
 33
0.0
 14
1896.6056958127501
 24
799.95232370651115
 34
0.0
 50
90.0
100
AcDbRotatedDimension
1001
ACAD
1000
DSTYLE
1002
{
1070
             279
1070
               2
1070
             340
1005
3A
1070
             147
1040
5.0
1002
}
  0
DIMENSION
  5
1A2
100
AcDbEntity
  8
notes
370
               5
390
0
  6
Continuous
 62
               7
100
AcDbDimension
  2
*D19
 10
675.305100454995
 20
744.95395725646938
 30
0.0
 11
675.305100454995
 21
772.45396827826744
 31
0.0
 71
               5
 72
               1
 41
1.0
 42
0.0
  3
tform線あり
100
AcDbAlignedDimension
 13
781.17869524743514
 23
799.9539793000655
 33
0.0
 14
970.30510045499523
 24
744.95395725646938
 34
0.0
 50
90.0
100
AcDbRotatedDimension
1001
ACAD
1000
DSTYLE
1002
{
1070
             279
1070
               2
1070
             340
1005
3A
1070
             147
1040
5.0
1002
}
  0
DIMENSION
  5
1A3
100
AcDbEntity
  8
notes
370
               5
390
0
  6
Continuous
 62
               7
100
AcDbDimension
  2
*D20
 10
1575.305100454995
 20
799.9539793000655
 30
0.0
 11
1575.305100454995
 21
707.4539793000655
 31
0.0
 71
               5
 72
               1
 41
1.0
 42
0.0
  3
tform線あり
100
AcDbAlignedDimension
 13
1153.1051136492097
 23
614.9539793000655
 33
0.0
 14
1469.179305102057
 24
799.9539793000655
 34
0.0
 50
90.0
100
AcDbRotatedDimension
1001
ACAD
1000
DSTYLE
1002
{
1070
             279
1070
               2
1070
             340
1005
3A
1070
             147
1040
5.0
1002
}
  0
MTEXT
  5
1A4
100
AcDbEntity
  8
notes
390
0
 62
               7
100
AcDbMText
 10
715.61165389117173
 20
1297.7881075257383
 30
0.0
 40
24.432617187500004
 41
842.88315656391467
 71
               1
 72
               1
  1
＝φ30もしくはφ35の水栓取付用穴あけ加工を承ります。\P   必要な場合、ご注文の際にご指示ください。
  7
ＭＳ ゴシック
 73
               1
 44
1.0437689845677123
  0
CIRCLE
  5
1A5
100
AcDbEntity
  8
notes
370
              15
390
0
  6
STYLE_11
 62
               7
100
AcDbCircle
 10
689.95116355293339
 20
1286.0
 30
0.0
 40
17.500000000000114
  0
MTEXT
  5
1A6
100
AcDbEntity
  8
notes
390
0
 62
               7
100
AcDbMText
 10
1932.125
 20
2143.8776171875002
 30
0.0
 40
24.432617187500004
 41
0.0
 71
               1
 72
               1
  1
カウンター切込寸法
  7
ＭＳ ゴシック
 73
               1
 44
0.7828267384257843
  0
MTEXT
  5
1A7
100
AcDbEntity
  8
notes
390
0
 62
               7
100
AcDbMText
 10
1696.0021966159611
 20
1227.7703717771947
 30
0.0
 40
24.432617187500004
 41
764.7717154610109
 71
               1
 72
               1
  1
※陶器製品には寸法公差があります。\P  洗面器の収め方をご確認の上、必ず現物を合わせて\P  カウンターに切込を行ってください。
  7
ＭＳ ゴシック
 73
               1
 44
1.0437689845677123
  0
MTEXT
  5
1A8
100
AcDbEntity
  8
notes
390
0
 62
               7
100
AcDbMText
 10
1698.7738582473551
 20
1288.129813803461
 30
0.0
 40
24.432617187500004
 41
0.0
 71
               1
 72
               1
  1
※カウンタートップ置きの場合も壁固定が必要です。\P
  7
ＭＳ ゴシック
 73
               1
 44
0.7828267384257843
  0
DIMENSION
  5
1A9
100
AcDbEntity
  8
notes
370
               5
390
0
  6
Continuous
 62
               7
100
AcDbDimension
  2
*D21
 10
949.95116355293339
 20
1909.3619285615832
 30
0.0
 11
949.95116355293339
 21
1944.3619171636942
 31
0.0
 71
               5
 72
               1
 41
1.0
 42
0.0
  3
tform線あり
100
AcDbAlignedDimension
 13
1007.678939315836
 23
1979.3619057658052
 33
0.0
 14
1007.678939315836
 24
1909.3619285615832
 34
0.0
 50
90.0
100
AcDbRotatedDimension
1001
ACAD
1000
DSTYLE
1002
{
1070
             279
1070
               2
1070
             340
1005
3A
1070
             147
1040
5.0
1002
}
  0
DIMENSION
  5
1AA
100
AcDbEntity
  8
notes
370
               5
390
0
  6
Continuous
 62
               7
100
AcDbDimension
  2
*D22
 10
1947.7931193065674
 20
1600.0
 30
0.0
 11
2072.7931193065674
 21
1600.0
 31
0.0
 71
               5
 72
               1
 41
1.0
 42
0.0
  3
tform線あり
100
AcDbAlignedDimension
 13
2197.793119306567
 23
1699.3618700234292
 33
0.0
 14
1947.7931193065674
 24
1699.3618700234292
 34
0.0
100
AcDbRotatedDimension
1001
ACAD
1000
DSTYLE
1002
{
1070
             279
1070
               2
1070
             340
1005
3A
1070
             147
1040
5.0
1002
}
  0
DIMENSION
  5
1AB
100
AcDbEntity
  8
notes
370
               5
390
0
  6
Continuous
 62
               7
100
AcDbDimension
  2
*D23
 10
2292.6511482076721
 20
1699.3618700234292
 30
0.0
 11
2292.6511482076721
 21
1824.3618700234292
 31
0.0
 71
               5
 72
               1
 41
1.0
 42
0.0
  3
tform線あり
100
AcDbAlignedDimension
 13
2197.793119306567
 23
1949.3618700234292
 33
0.0
 14
2197.793119306567
 24
1699.3618700234292
 34
0.0
 50
90.0
100
AcDbRotatedDimension
1001
ACAD
1000
DSTYLE
1002
{
1070
             279
1070
               2
1070
             340
1005
3A
1070
             147
1040
5.0
1002
}
  0
DIMENSION
  5
1AC
100
AcDbEntity
  8
notes
370
               5
390
0
  6
Continuous
 62
               7
100
AcDbDimension
  2
*D24
 10
2292.6511482076721
 20
1949.3618700234292
 30
0.0
 11
2297.6511482076721
 21
1987.0
 31
0.0
 70
             128
 71
               5
 72
               1
 41
1.0
 42
0.0
  3
tform線あり
100
AcDbAlignedDimension
 13
2197.6511482076721
 23
1979.3619480444968
 33
0.0
 14
2197.793119306567
 24
1949.3618700234292
 34
0.0
 50
90.0
100
AcDbRotatedDimension
1001
ACAD
1000
DSTYLE
1002
{
1070
             279
1070
               2
1070
             340
1005
3A
1070
             174
1070
               0
1070
             147
1040
5.0
1002
}
  0
LINE
  5
1AD
100
AcDbEntity
  8
ARJ70-1401
370
              35
390
0
  6
Continuous
 62
               7
100
AcDbLine
 10
1125.178939315836
 20
1979.3619285615832
 30
0.0
 11
1426.9115950456121
 21
1979.361870023452
 31
0.0
  0
LINE
  5
1AE
100
AcDbEntity
  8
ARJ70-1401
370
              35
390
0
  6
Continuous
 62
               7
100
AcDbLine
 10
1125.1789431290699
 20
1979.3619285615832
 30
0.0
 11
823.44616844622692
 21
1979.3618700234292
 31
0.0
  0
LWPOLYLINE
  5
1AF
100
AcDbEntity
  8
ARJ70-1401
370
              35
390
0
  6
Continuous
 62
               7
100
AcDbPolyline
 90
      147
 70
             128
 10
1125.154883308734
 20
1859.3635777405079
 42
-0.0003206487108652
 10
1129.4093641382728
 20
1859.2972699178245
 10
1134.5059431021091
 20
1859.2145684016459
 42
-0.0021918976770782
 10
1148.952233971143
 20
1858.9167992716775
 10
1158.0950232128719
 20
1858.6882457568813
 42
-0.0033088026326724
 10
1180.1915752262757
 20
1857.9895276994816
 10
1184.4100662981359
 20
1857.828183846266
 42
-0.0018202511214132
 10
1198.0629300423157
 20
1857.2562221896542
 42
-0.00187351455485
 10
1211.7111905204461
 20
1856.5834164784637
 10
1214.3631360046265
 20
1856.4427230274694
 42
-0.0042007168680178
 10
1233.3029831311458
 20
1855.2782651269545
 10
1236.7083835307676
 20
1855.0401608774307
 42
-0.0047952010787342
 10
1257.5931899302789
 20
1853.3784909030862
 10
1258.7118774959329
 20
1853.2786790417381
 42
-0.0054707116997716
 10
1277.322955200651
 20
1851.4126967163879
 10
1278.3496311896267
 20
1851.2984011939855
 42
-0.006245214123701
 10
1294.8613674543165
 20
1849.2511254365072
 10
1295.7953583746576
 20
1849.1234565909285
 42
-0.0071221262733585
 10
1310.3821164230571
 20
1846.917483817916
 10
1311.2228218256832
 20
1846.7780667681827
 42
-0.0080919704633897
 10
1324.0588288051683
 20
1844.4353893069667
 10
1324.8058638765349
 20
1844.2865187150096
 42
-0.0091237682498405
 10
1336.0650254490643
 20
1841.8283625898564
 10
1336.7184450696291
 20
1841.6731621255781
 42
-0.0101499352472069
 10
1346.5740711135363
 20
1839.1198493176475
 10
1347.134693725232
 20
1838.9623980412189
 42
-0.0110521662140286
 10
1355.759114378463
 20
1836.333238890101
 42
-0.011584416522025
 10
1364.2555093829687
 20
1833.3165414105256
 10
1365.9123711438115
 20
1832.6846710990153
 42
-0.0224536010928928
 10
1375.3953071369165
 20
1828.5716620597454
 10
1376.3922788112538
 20
1828.0849700320553
 42
-0.0087558956962088
 10
1383.631807683772
 20
1824.3924912769169
 10
1384.1349481030256
 20
1824.1246635621328
 42
-0.0094530195147533
 10
1390.2392613463137
 20
1820.7256346987745
 10
1390.7813211938922
 20
1820.4102329416535
 42
-0.0041524105803615
 10
1395.7129581186821
 20
1817.4856318254522
 42
-0.0093533063086414
 10
1400.5631283808495
 20
1814.4293354459635
 10
1401.408410417459
 20
1813.8743310513839
 42
-0.0106454960054333
 10
1406.8354014990582
 20
1810.1432958025302
 10
1407.0477445650179
 20
1809.9905532454811
 42
-0.0119820520215484
 10
1411.8829538208815
 20
1806.3335558953604
 10
1412.0632665956111
 20
1806.1902613519633
 42
-0.0133288080838014
 10
1416.3541978475741
 20
1802.5895586695383
 10
1416.5029064254134
 20
1802.457859491225
 42
-0.0145918807209517
 10
1420.2964296732639
 20
1798.8954159869529
 10
1420.4146751003411
 20
1798.7776948551291
 42
-0.0156464397502061
 10
1423.7568425086617
 20
1795.2353491073782
 42
-0.0162995723811476
 10
1426.8659075152621
 20
1791.4870119131483
 10
1427.444161454323
 20
1790.7417044805215
 42
-0.0326947376166514
 10
1431.2217473790934
 20
1785.1540939378251
 10
1431.4819227080161
 20
1784.7091430217174
 42
-0.0176030146964437
 10
1434.2715514505339
 20
1779.5280409012807
 42
-0.0235776205545727
 10
1436.6243927588832
 20
1774.1376860770163
 10
1436.8064614794828
 20
1773.6603838621056
 42
-0.0210986565572857
 10
1438.9396405920065
 20
1767.2709669719902
 10
1438.9422859127053
 20
1767.2617687933812
 42
-0.0179252899762438
 10
1440.5666412778062
 20
1760.7424409460327
 42
-0.0144393225391218
 10
1441.7662077798768
 20
1754.1302112198514
 10
1441.7681904642984
 20
1754.117144595853
 42
-0.0108410405723787
 10
1442.635620597965
 20
1747.4253226410483
 10
1442.638607173393
 20
1747.3975762188938
 42
-0.0070255866589656
 10
1443.2716990859383
 20
1740.6225553952499
 10
1443.343849537772
 20
1739.7125877973936
 42
-0.0064453497630344
 10
1443.9150314614508
 20
1731.1013724143031
 10
1443.9669183749945
 20
1730.1295819918955
 42
-0.0053881703659809
 10
1444.4169879208055
 20
1719.5625722799537
 10
1444.4759397772339
 20
1717.7087810994162
 42
-0.00515649479973
 10
1444.7226326897483
 20
1706.2242176148193
 10
1444.7415568898523
 20
1704.5292075755929
 42
-0.0017590938869262
 10
1444.8034701398981
 20
1696.4319021372398
 42
-0.0012859295786268
 10
1444.8160696536679
 20
1688.3343464715394
 10
1444.8159008649402
 20
1688.1681985447885
 42
-0.0025370108264365
 10
1444.7645646269623
 20
1679.7385751042175
 10
1444.7628554425403
 20
1679.5854824530957
 42
-0.0043175459541378
 10
1444.5899076965832
 20
1670.8514276406627
 10
1444.5864299132263
 20
1670.7291498381819
 42
-0.00599157069731
 10
1444.2235800121052
 20
1661.756381106075
 10
1444.1608257198423
 20
1660.559876142529
 42
-0.0077502077193802
 10
1443.6895411446862
 20
1653.6296930241938
 42
-0.0044518703942486
 10
1443.0492394333082
 20
1646.7125166448343
 10
1443.0461177995269
 20
1646.6817781489808
 42
-0.0103785632888176
 10
1442.1935962065154
 20
1639.7265237762999
 10
1441.9672004975178
 20
1638.1510196593233
 42
-0.0115993754822173
 10
1440.645982050326
 20
1630.2611462968719
 10
1440.5667531500021
 20
1629.8472087594041
 42
-0.0111445607869353
 10
1439.0649370226924
 20
1622.8493435343648
 10
1439.0617159282449
 20
1622.8358118726992
 42
-0.012949870527365
 10
1437.2318691922048
 20
1615.9458887969408
 10
1437.2272557158985
 20
1615.9301703085494
 42
-0.014864940480129
 10
1435.0275663503116
 20
1609.1844956718471
 10
1435.0228103278764
 20
1609.1712591076991
 42
-0.0168759513880788
 10
1432.4103762667587
 20
1602.6056682954347
 10
1432.4079038406614
 20
1602.6000175139091
 42
-0.0189223978041087
 10
1429.3383542793049
 20
1596.250136089116
 42
-0.0209180384428196
 10
1425.7737465215725
 20
1590.1656572356223
 10
1425.7694170398468
 20
1590.1589290635413
 42
-0.0227381997433303
 10
1421.6792884719275
 20
1584.3962888917645
 10
1421.6614845654233
 20
1584.3734771495579
 42
-0.0243735316235386
 10
1417.010387078748
 20
1578.9781761479521
 10
1416.9719461742807
 20
1578.9377469663714
 42
-0.0243485426625267
 10
1411.7374561824915
 20
1573.9435053325913
 10
1411.6750552633337
 20
1573.8895187972344
 42
-0.021407604164144
 10
1405.8754281651609
 20
1569.2907858011299
 10
1405.7936044762969
 20
1569.2314259335712
 42
-0.0186858632124491
 10
1399.4751013142009
 20
1564.9986151439282
 10
1399.3811633596192
 20
1564.9406490044416
 42
-0.0162266087177103
 10
1392.590197788069
 20
1561.0485685114272
 10
1392.4907434469458
 20
1560.9957792118003
 42
-0.0140521483886718
 10
1385.2740508958523
 20
1557.421426972619
 10
1385.1750429583938
 20
1557.3758076122742
 42
-0.0121544041201226
 10
1377.5801620188759
 20
1554.0977265615479
 10
1377.4866860589914
 20
1554.0600487346928
 42
-0.010503366984821
 10
1369.5620797387633
 20
1551.0577502767601
 10
1369.4783228516449
 20
1551.0280146632763
 42
-0.0090813818458881
 10
1361.2732438548605
 20
1548.2817726446626
 10
1361.0382158343969
 20
1548.2078273735692
 42
-0.0084017099006883
 10
1352.2695433528952
 20
1545.6100881014913
 10
1351.5396863907024
 20
1545.4071416157183
 42
-0.0090540214257297
 10
1341.2193047728726
 20
1542.7377606919763
 10
1340.6444366649257
 20
1542.6001255441029
 42
-0.0080685425009806
 10
1329.0844832640098
 20
1540.0289276538588
 10
1329.0136472890822
 20
1540.0143675377305
 42
-0.0071751164081956
 10
1317.238312902349
 20
1537.7695930007424
 10
1317.1795762743213
 20
1537.7592670024505
 42
-0.0063614119881467
 10
1305.2298146989249
 20
1535.8148688244889
 10
1305.1850000942109
 20
1535.8081609219457
 42
-0.0056178431525364
 10
1293.1021057805356
 20
1534.1381516995996
 10
1293.0727250515056
 20
1534.1344268179369
 42
-0.0049288661732284
 10
1280.8982901078618
 20
1532.7127469639217
 10
1280.8851750545077
 20
1532.7113463427474
 42
-0.0043058303011205
 10
1268.6613866237976
 20
1531.5122584348733
 10
1268.6490094220767
 20
1531.5111518230196
 42
-0.0037407655858589
 10
1256.43338448139
 20
1530.5110479482478
 10
1256.4106661050437
 20
1530.509358980109
 42
-0.0031916027918905
 10
1244.2277129263505
 20
1529.6817929861993
 10
1244.194164364267
 20
1529.6797291374451
 42
-0.0026519783622867
 10
1232.0694117942296
 20
1528.9983675431783
 10
1232.0245963680622
 20
1528.9960874795447
 42
-0.0021246426438596
 10
1219.983475469726
 20
1528.4347620166125
 42
-0.0015794647594924
 10
1207.9384779636555
 20
1527.9626523356314
 10
1203.6094548051474
 20
1527.8066685416356
 42
-0.0025311276733819
 10
1182.9016736826284
 20
1527.1654694130675
 10
1179.7628354330022
 20
1527.0841803555986
 42
-0.0024436841625874
 10
1154.4458542635612
 20
1526.5523272881978
 42
-0.0038410321367414
 10
1129.1246328282286
 20
1526.3387304919804
 10
1127.9080865133787
 20
1526.3378141174321
 42
-0.0004904134229317
 10
1125.180807502752
 20
1526.338435054342
 42
-0.0004904134229317
  0
LWPOLYLINE
  5
1B0
100
AcDbEntity
  8
ARJ70-1401
370
              35
390
0
  6
Continuous
 62
               7
100
AcDbPolyline
 90
      147
 70
             128
 10
1125.1544443840739
 20
1859.3635777405079
 42
0.0003301217990126
 10
1120.9006771195222
 20
1859.2962232154041
 10
1115.8082885995686
 20
1859.2122267921486
 42
0.0022613824602338
 10
1101.371161214455
 20
1858.9087748304203
 10
1092.2366364660984
 20
1858.6754418311366
 42
0.0034203749934779
 10
1070.1941631732889
 20
1857.9614736326389
 10
1065.9775761105111
 20
1857.7960143711525
 42
0.0018844841792132
 10
1052.375366328286
 20
1857.2109094023283
 42
0.0019655270451781
 10
1038.7780735393892
 20
1856.5210860532327
 10
1037.6160333450534
 20
1856.4575522295763
 42
0.0032015749150297
 10
1021.7035973324206
 20
1855.485318576893
 10
1019.379964341496
 20
1855.3284068537096
 42
0.0048102790198611
 10
998.84174191640818
 20
1853.7428652653689
 10
997.30401880625141
 20
1853.6092604010505
 42
0.0055106978215645
 10
978.33100111184103
 20
1851.7498962742991
 10
977.27467327850502
 20
1851.6346085926309
 42
0.0063042303476428
 10
960.46065191791399
 20
1849.5846969909562
 10
959.49995074488379
 20
1849.4552589603534
 42
0.0072046339047353
 10
944.66512329767795
 20
1847.2384459688496
 10
943.80070743996816
 20
1847.0965118235654
 42
0.008205185800173
 10
930.7653976633693
 20
1844.7358683448006
 10
929.99771158057592
 20
1844.5837925663714
 42
0.0092758001706854
 10
918.58256850767725
 20
1842.1015845699271
 10
917.91160587370609
 20
1841.9425946934484
 42
0.0103484626661892
 10
907.93789572779747
 20
1839.3601318127946
 10
907.36285247088358
 20
1839.1984682366897
 42
0.0113017674365084
 10
898.65287285279601
 20
1836.5359837872375
 42
0.0118727628796588
 10
890.07582720820915
 20
1833.4729026878574
 10
888.41069256354569
 20
1832.8332707654922
 42
0.0231081224844505
 10
878.88593283984324
 20
1828.6599401921505
 10
877.85670388579922
 20
1828.1510748543897
 42
0.009024330959462
 10
870.65063745766929
 20
1824.4249706932426
 10
870.13296442115688
 20
1824.145338977582
 42
0.0095940746966503
 10
864.09499168616355
 20
1820.732559610175
 10
863.55005009386025
 20
1820.4105985081853
 42
0.0041807565094154
 10
858.69191225031341
 20
1817.4852510638093
 42
0.0094147352039317
 10
853.91578142374522
 20
1814.4293415404991
 10
853.08400393846853
 20
1813.8748009242729
 42
0.010703219693876
 10
847.73748782919654
 20
1810.142579953585
 10
847.530066649638
 20
1809.9910815116086
 42
0.0120312058109381
 10
842.76633661330743
 20
1806.3327510114707
 10
842.59047954138634
 20
1806.1908459057272
 42
0.0133632746353586
 10
838.36279555820192
 20
1802.5886706038973
 10
838.21803319070023
 20
1802.4584919353133
 42
0.0146047527643841
 10
834.4802906307284
 20
1798.8944614806969
 10
834.36544008314399
 20
1798.7783588044367
 42
0.0156311957720726
 10
831.07234542545712
 20
1795.2343576230019
 42
0.0162616364704192
 10
828.01195366200955
 20
1791.4878209821925
 10
827.44019563914878
 20
1790.7394699984716
 42
0.0325013406931867
 10
823.72157889823723
 20
1785.1546954386952
 10
823.46589065931948
 20
1784.7106598648247
 42
0.0174521976729002
 10
820.71701221197691
 20
1779.5265664128817
 42
0.023331973871364
 10
818.40070898579722
 20
1774.1383490624769
 10
818.22147635702333
 20
1773.6612274005995
 42
0.0208399344630355
 10
816.11995039196722
 20
1767.2698327886267
 10
816.11782439802846
 20
1767.2623263948085
 42
0.0176836459762484
 10
814.51774744130216
 20
1760.7417070951419
 42
0.0142335073584701
 10
813.33658880349083
 20
1754.1308488309091
 10
813.33447624028076
 20
1754.11671196732
 42
0.0106818261128265
 10
812.48028280993196
 20
1747.4256983283938
 10
812.47727743794712
 20
1747.3973477797026
 42
0.0069208714473451
 10
811.85381076896158
 20
1740.6227519908703
 10
811.78272641542981
 20
1739.712443560373
 42
0.0063485664788717
 10
811.22020698017275
 20
1731.1014579598968
 10
811.16909571554663
 20
1730.1294749929762
 42
0.0053068537370191
 10
810.7258490572716
 20
1719.5626761638546
 10
810.66778678441369
 20
1717.7087862005333
 42
0.0050784863941272
 10
810.42482795846263
 20
1706.2241913886528
 10
810.40619061514963
 20
1704.529208852467
 42
0.0017324581475826
 10
810.34521478281886
 20
1696.4319000463238
 42
0.001266462149533
 10
810.33280604981553
 20
1688.3343485329121
 10
810.33297228417086
 20
1688.1682003939927
 42
0.0024985937777846
 10
810.38353122573142
 20
1679.7385738263633
 10
810.38521434135373
 20
1679.5854981322798
 42
0.0042522061884063
 10
810.55554373538348
 20
1670.8514214081742
 10
810.55896720626015
 20
1670.7292022460695
 42
0.0059010882387587
 10
810.91632590716199
 20
1661.7563535326785
 10
810.97812875832767
 20
1660.5598653182717
 42
0.0076339476900766
 10
811.44226955473482
 20
1653.6298201171858
 42
0.0043853904960285
 10
812.07289612806744
 20
1646.7123929761578
 10
812.07593386775534
 20
1646.6820203858815
 42
0.0102257044338772
 10
812.91557231219781
 20
1639.7265528431237
 10
813.13858951229088
 20
1638.1506743818131
 42
0.0114329479315806
 10
814.43965465962606
 20
1630.2616981901392
 10
814.51788584790086
 20
1629.8466825000523
 42
0.0109900338341319
 10
815.99670683805755
 20
1622.8500001097609
 10
816.00019963313741
 20
1622.8351011582679
 42
0.0127784858785349
 10
817.80191456612761
 20
1615.9467790805811
 10
817.80698525463436
 20
1615.9292367531364
 42
0.0146813774737709
 10
819.97268495811034
 20
1609.1856578473255
 10
819.97819922235408
 20
1609.1700745135456
 42
0.0166877831959625
 10
822.55002624821327
 20
1602.6071269886504
 10
822.55371262147287
 20
1602.5985717899291
 42
0.0187411013122553
 10
825.57524127447562
 20
1596.2518880977323
 42
0.0207590968911977
 10
829.08759220443471
 20
1590.1643870827452
 10
829.0897829626665
 20
1590.1609299946786
 42
0.0226201044954879
 10
833.12035900586648
 20
1584.3948415898237
 10
833.13512199529237
 20
1584.3756338392043
 42
0.0243156473412055
 10
837.71893316585044
 20
1578.9766159326844
 10
837.75332916104708
 20
1578.9398818775085
 42
0.0243645676492692
 10
842.91233660631656
 20
1573.9419877060479
 10
842.96994711400589
 20
1573.8913759881675
 42
0.0214817302562209
 10
848.68566785901965
 20
1569.2894821923642
 10
848.76250231082554
 20
1569.2328819003287
 42
0.0187945301036949
 10
854.98895314915444
 20
1564.997597173774
 10
855.07808149535845
 20
1564.9417511485012
 42
0.0163521253632647
 10
861.76942855016432
 20
1561.0477975315866
 10
861.86442869525467
 20
1560.996595739289
 42
0.0141825659232914
 10
868.97460572130376
 20
1557.4208542442084
 10
869.06961371774196
 20
1557.3764039413916
 42
0.0122821601312801
 10
876.55181447532368
 20
1554.097306430449
 10
876.64179298564704
 20
1554.0604801745594
 42
0.0106239766618925
 10
884.44832727932487
 20
1551.0574446577612
 10
884.52910652074399
 20
1551.0283249442036
 42
0.0091925933559184
 10
892.61151908141903
 20
1548.2815508226322
 10
892.84154516924286
 20
1548.2080660295053
 42
0.008509549262201
 10
901.47873510409772
 20
1545.6099393753989
 10
902.19622981028624
 20
1545.4073611542472
 42
0.0091755283869674
 10
912.36162632749699
 20
1542.7376473647942
 10
912.92655401788352
 20
1542.6003115934627
 42
0.008180791869489
 10
924.31287895277853
 20
1540.028798514451
 10
924.38141763118654
 20
1540.0144939234292
 42
0.0072776232077258
 10
935.97957485713687
 20
1537.7695054180849
 10
936.0364584033905
 20
1537.7593514046728
 42
0.0064541248993925
 10
947.80616247939088
 20
1535.8148104595334
 10
947.8495504512623
 20
1535.8082162313822
 42
0.0057009480481253
 10
959.75017509322049
 20
1534.1381135348913
 10
959.77853868085015
 20
1534.1344623145494
 42
0.0050025877454615
 10
971.7691585664187
 20
1532.7127225317772
 10
971.78164415150673
 20
1532.7113686332739
 42
0.0043697701235011
 10
983.82042388891159
 20
1531.5122721313846
 10
983.83284565427618
 20
1531.5111444602799
 42
0.0037975038348258
 10
995.86334121855975
 20
1530.5110561436777
 10
995.88588045601421
 20
1530.5093547319534
 42
0.0032402156934295
 10
1007.8842563160359
 20
1529.6817977304427
 10
1007.9174105200021
 20
1529.6797267862721
 42
0.0026924902901442
 10
1019.8585100733649
 20
1528.998370196339
 10
1019.9027223904357
 20
1528.9960862369533
 42
0.0021571631782033
 10
1031.7614881692439
 20
1528.4347634449919
 42
0.0016036666452208
 10
1043.6241899142096
 20
1527.9626512129335
 10
1047.8875972123114
 20
1527.8066700891322
 42
0.0025699620090707
 10
1068.2819235236288
 20
1527.1654693255273
 10
1071.3732737931255
 20
1527.0841793434247
 42
0.0024812163290512
 10
1096.3068958727688
 20
1526.5523277296672
 42
0.0039000683314891
 10
1121.2448233594068
 20
1526.3387304994255
 10
1122.4429236252709
 20
1526.3378141333594
 42
0.00049800974622
 10
1125.12891267243
 20
1526.338435054342
 42
0.00049800974622
  0
LWPOLYLINE
  5
1B1
100
AcDbEntity
  8
ARJ70-1401
370
              35
390
0
  6
Continuous
 62
               7
100
AcDbPolyline
 90
      109
 70
             128
 10
823.3337559631625
 20
1979.3619121206702
 42
0.0056760957451362
 10
821.5323010662155
 20
1977.9581778869647
 10
820.22539479659622
 20
1976.9157488524954
 42
0.0237648417892356
 10
816.00249192586307
 20
1973.2058787723709
 10
814.77192112254738
 20
1972.0165991934448
 42
0.0239837632285107
 10
808.87610094660795
 20
1965.744720732841
 10
808.84046498424584
 20
1965.7029697613516
 42
0.0233909624019269
 10
803.63125728122782
 20
1958.987792391217
 10
803.6272052410344
 20
1958.9820316495702
 42
0.022155480942625
 10
799.05740493618737
 20
1951.8319538987757
 42
0.0203766658195586
 10
795.11091720061881
 20
1944.3183851253464
 10
795.09618558499358
 20
1944.287326768228
 42
0.0182424456369487
 10
791.71343313178454
 20
1936.4272815088211
 10
791.68870087178584
 20
1936.3635032364689
 42
0.0159313762690309
 10
788.804787977719
 20
1928.1605282597477
 10
788.51397185317467
 20
1927.2406777011602
 42
0.0134795290624051
 10
786.54344633927985
 20
1920.3686871465188
 42
0.0069641734071702
 10
784.85500467676343
 20
1913.4200450841568
 10
784.67018069886649
 20
1912.6104328668021
 42
0.0132318370665655
 10
782.93749216536014
 20
1903.9731866938553
 10
782.62256697667613
 20
1902.1551065882938
 42
0.0105362043940018
 10
780.74909891816139
 20
1889.796356002189
 10
780.72752569775639
 20
1889.6305357407005
 42
0.0082923077288787
 10
779.28290073752817
 20
1876.8767015667725
 10
779.27057861252899
 20
1876.7490148618099
 42
0.0063373502364909
 10
778.17821501581204
 20
1863.702001143467
 10
778.17225617406734
 20
1863.6180438205633
 42
0.0046219438518262
 10
777.35570621973909
 20
1850.3817212616054
 10
777.35380251837319
 20
1850.3454022526294
 42
0.002960447425613
 10
776.73467089940516
 20
1837.0252275730666
 10
776.3071906231246
 20
1826.4828195669406
 42
0.0071865044312951
 10
775.40673400352034
 20
1792.0612200903702
 10
775.3050961728062
 20
1783.4342885699109
 42
0.0035400528498212
 10
775.16905538656181
 20
1754.4948057602105
 10
775.17491431692349
 20
1752.0322879664654
 42
0.0055085714673789
 10
775.49660302478333
 20
1728.0204217470271
 10
775.5702982502288
 20
1725.0023710670566
 42
0.0021016561903282
 10
776.08468080025284
 20
1707.0323125256396
 10
776.12076374082972
 20
1705.9332851709428
 42
0.0011425849871015
 10
776.6745484368322
 20
1690.1647089527833
 10
776.76349788330754
 20
1687.7868702174715
 42
0.0019208532074418
 10
777.21771452480834
 20
1676.7769819371379
 42
0.0041627439929131
 10
777.80583706740947
 20
1665.7737351222099
 10
777.81459620745477
 20
1665.6320084454169
 42
0.0062217350598006
 10
778.65210654810051
 20
1654.360626707215
 10
778.66123051007708
 20
1654.2555462921853
 42
0.0082816661610275
 10
779.8469369853018
 20
1642.8040662596995
 10
779.87228540330887
 20
1642.5933782589968
 42
0.0104246666628514
 10
781.4666358881891
 20
1631.3274135330387
 10
781.58189006733221
 20
1630.6196873583492
 42
0.0118184320585822
 10
783.41170480785206
 20
1620.8456768636381
 10
783.52619163146153
 20
1620.305108609597
 42
0.0111633987269946
 10
785.55022506578018
 20
1611.7006875642073
 10
785.55341099138116
 20
1611.6883829588282
 42
0.0129156460787328
 10
787.98208154110807
 20
1603.2165131065608
 10
787.98798124800805
 20
1603.1977744869412
 42
0.0148116462372709
 10
790.86924885463009
 20
1594.9114994015711
 10
790.87660740489184
 20
1594.8921994816585
 42
0.016841323953501
 10
794.25984400223342
 20
1586.8438842960381
 10
794.26597088413303
 20
1586.8305817966552
 42
0.0189564723848647
 10
798.20236976162118
 20
1579.0721544292833
 42
0.0210795508744609
 10
802.7455664888729
 20
1571.655157210821
 42
0.0231048335095381
 10
807.92427715966926
 20
1564.6697303332187
 10
807.93838539558874
 20
1564.6524312353483
 42
0.024917952609315
 10
813.79185018419537
 20
1558.163734430344
 10
813.82805678554621
 20
1558.1274119645766
 42
0.0232852295390528
 10
820.35546316396949
 20
1552.1621134045954
 10
820.41610357906211
 20
1552.1116687176013
 42
0.0205398170972041
 10
827.56747215123698
 20
1546.6435296020511
 10
827.64710136447752
 20
1546.58767067402
 42
0.0180223834104846
 10
835.36301410826445
 20
1541.5799219384849
 10
835.45389109458256
 20
1541.5254917811876
 42
0.0157218731573204
 10
843.67616118912167
 20
1536.945694266386
 10
843.77091940003493
 20
1536.8967517112551
 42
0.013666062880595
 10
852.44107350001468
 20
1532.7146899899542
 10
852.53298222207127
 20
1532.6734144764928
 42
0.0118472777378662
 10
861.59163797145948
 20
1528.8604906882581
 10
861.67494373712043
 20
1528.8277270255644
 42
0.0102631666216795
 10
871.0618253178751
 20
1525.3566454207953
 10
871.33477277687462
 20
1525.2620362752816
 42
0.0095590889691678
 10
881.40142555494026
 20
1521.9869085829264
 10
882.28838815916356
 20
1521.7169781676457
 42
0.0104381694200334
 10
894.26199993526211
 20
1518.3444557058863
 10
894.95743441136256
 20
1518.164157592855
 42
0.0092827582319115
 10
908.45234813714239
 20
1514.9315929533782
 10
908.5226603025659
 20
1514.9161247038023
 42
0.0082272420687022
 10
922.26407649148416
 20
1512.1293084193483
 10
922.32099335909845
 20
1512.1187373217963
 42
0.007260513793947
 10
936.25665610206977
 20
1509.7392728737984
 10
936.2972977176172
 20
1509.732939357028
 42
0.0063717676731343
 10
950.37441793009759
 20
1507.7225782491455
 10
950.39645690674729
 20
1507.7197169244871
 42
0.0055505758452114
 10
964.56541176650501
 20
1506.0398764703723
 10
964.57657818622715
 20
1506.038678083296
 42
0.004797337733066
 10
978.75862112350183
 20
1504.6541533750242
 10
978.78167729249355
 20
1504.6521256329725
 42
0.0040736450901783
 10
992.9400910268198
 20
1503.5230862593799
 10
992.9755077119728
 20
1503.520552215356
 42
0.0033619476536426
 10
1007.078431131159
 20
1502.6067632016643
 10
1007.1270531566187
 20
1502.6039409343837
 42
0.0026669885748292
 10
1021.1428162876998
 20
1501.8653843996913
 42
0.0019512711132583
 10
1035.1648958376177
 20
1501.2563101229312
 10
1040.212897575982
 20
1501.05677501585
 42
0.0030025278496982
 10
1064.3382129654383
 20
1500.2482276595806
 10
1069.6031380943975
 20
1500.1034220382007
 42
0.0029684886614952
 10
1095.8872981577395
 20
1499.5366492761764
 10
1096.0751968181116
 20
1499.5337135000887
 42
0.003689969345675
 10
1121.9885009588468
 20
1499.3201033273535
 42
0.0005564804140798
 10
1125.1789486941091
 20
1499.3209002691315
 42
0.0005564804140798
  0
LWPOLYLINE
  5
1B2
100
AcDbEntity
  8
ARJ70-1401
370
              35
390
0
  6
Continuous
 62
               7
100
AcDbPolyline
 90
      109
 70
             128
 10
1427.0241415932919
 20
1979.3619121206702
 42
-0.0056760957451998
 10
1428.8255964902469
 20
1977.9581778869585
 10
1430.1325027598582
 20
1976.9157488524952
 42
-0.0237648417891478
 10
1434.35540563059
 20
1973.2058787723724
 10
1435.5859764339073
 20
1972.016599193445
 42
-0.0239837632285763
 10
1441.4817966098472
 20
1965.744720732841
 10
1441.5174325722121
 20
1965.7029697613486
 42
-0.0233909624019388
 10
1446.7266402752271
 20
1958.9877923912165
 10
1446.7306923154231
 20
1958.9820316495661
 42
-0.0221554809425999
 10
1451.3004926202671
 20
1951.8319538987753
 42
-0.0203766658195831
 10
1455.2469803558363
 20
1944.3183851253448
 10
1455.261711971461
 20
1944.2873267682276
 42
-0.0182424456369746
 10
1458.6444644246678
 20
1936.4272815088245
 10
1458.6691966846679
 20
1936.3635032364682
 42
-0.0159313762689664
 10
1461.5531095787355
 20
1928.1605282597438
 10
1461.8439257032785
 20
1927.2406777011611
 42
-0.0134795290624236
 10
1463.8144512171743
 20
1920.3686871465181
 42
-0.0069641734071841
 10
1465.5028928796924
 20
1913.4200450841504
 10
1465.6877168575879
 20
1912.6104328668016
 42
-0.013231837066566
 10
1467.4204053910942
 20
1903.973186693856
 10
1467.7353305797783
 20
1902.1551065882934
 42
-0.0105362043939899
 10
1469.6087986382931
 20
1889.7963560021894
 10
1469.6303718586983
 20
1889.6305357406995
 42
-0.0082923077288904
 10
1471.0749968189264
 20
1876.8767015667731
 10
1471.0873189439255
 20
1876.7490148618094
 42
-0.0063373502364811
 10
1472.1796825406418
 20
1863.7020011434729
 10
1472.1856413823868
 20
1863.6180438205631
 42
-0.0046219438518082
 10
1473.0021913367159
 20
1850.3817212616
 10
1473.0040950380817
 20
1850.3454022526289
 42
-0.0029604474256411
 10
1473.6232266570507
 20
1837.0252275730495
 10
1474.0507069333303
 20
1826.4828195669402
 42
-0.0071865044312951
 10
1474.9511635529334
 20
1792.0612200903765
 10
1475.0528013836472
 20
1783.4342885699243
 42
-0.0035400528497937
 10
1475.1888421698925
 20
1754.4948057602096
 10
1475.182983239531
 20
1752.0322879664793
 42
-0.0055085714673751
 10
1474.8612945316734
 20
1728.0204217470259
 10
1474.7875993062287
 20
1725.00237106707
 42
-0.0021016561903447
 10
1474.2732167562051
 20
1707.0323125256391
 10
1474.237133815629
 20
1705.9332851709692
 42
-0.0011425849871743
 10
1473.6833491196235
 20
1690.1647089527828
 10
1473.5943996731478
 20
1687.7868702174778
 42
-0.0019208532074273
 10
1473.140183031644
 20
1676.7769819371374
 42
-0.0041627439929148
 10
1472.5520604890417
 20
1665.7737351222299
 10
1472.5433013489951
 20
1665.6320084454164
 42
-0.0062217350597683
 10
1471.7057910083479
 20
1654.3606267072246
 10
1471.6966670463705
 20
1654.2555462921846
 42
-0.0082816661609982
 10
1470.5109605711448
 20
1642.8040662596998
 10
1470.4856121531373
 20
1642.5933782589934
 42
-0.0104246666627576
 10
1468.8912616682592
 20
1631.3274135330382
 10
1468.7760074891157
 20
1630.6196873583449
 42
-0.011818432058524
 10
1466.9461927486011
 20
1620.8456768636379
 10
1466.8317059249912
 20
1620.3051086095932
 42
-0.0111633987269629
 10
1464.8076724906794
 20
1611.7006875642073
 10
1464.8044865650768
 20
1611.6883829588219
 42
-0.012915646078736
 10
1462.3758160153582
 20
1603.2165131065603
 10
1462.3699163084573
 20
1603.1977744869378
 42
-0.0148116462372662
 10
1459.4886487018432
 20
1594.9114994015704
 10
1459.4812901515822
 20
1594.8921994816601
 42
-0.016841323953572
 10
1456.0980535542458
 20
1586.8438842960377
 10
1456.0919266723472
 20
1586.8305817966568
 42
-0.0189564723849189
 10
1452.1555277948612
 20
1579.0721544292826
 42
-0.0210823954146999
 10
1447.6123310676101
 20
1571.6551572108201
 42
-0.023104833509619
 10
1442.4336203968114
 20
1564.6697303332185
 10
1442.4195121608909
 20
1564.6524312353472
 42
-0.0249179526094387
 10
1436.5660473722769
 20
1558.1637344303435
 10
1436.5298407709254
 20
1558.1274119645755
 42
-0.0232852295390841
 10
1430.002434392492
 20
1552.1621134045968
 10
1429.9417939773969
 20
1552.1116687176004
 42
-0.020539817097202
 10
1422.7904254052064
 20
1546.6435296020504
 10
1422.7107961919662
 20
1546.5876706740196
 42
-0.0180223834104075
 10
1414.9948834481654
 20
1541.5799219384853
 10
1414.9040064618464
 20
1541.5254917811876
 42
-0.0157218731572722
 10
1406.6817363672949
 20
1536.9456942663858
 10
1406.5869781563824
 20
1536.8967517112553
 42
-0.0136660628804904
 10
1397.9168240563931
 20
1532.7146899899533
 10
1397.8249153343395
 20
1532.6734144764935
 42
-0.0118472777377918
 10
1388.7662595849465
 20
1528.8604906882563
 10
1388.6829538192917
 20
1528.8277270255649
 42
-0.0102631666215814
 10
1379.2960722385442
 20
1525.3566454207944
 10
1379.02312477955
 20
1525.2620362752825
 42
-0.0095590889690704
 10
1368.9564720015051
 20
1521.9869085829255
 10
1368.0695093972904
 20
1521.7169781676466
 42
-0.0104381694200001
 10
1356.0958976212332
 20
1518.3444557058856
 10
1355.4004631451382
 20
1518.164157592855
 42
-0.0092827582319803
 10
1341.9055494194113
 20
1514.9315929533775
 10
1341.8352372539862
 20
1514.9161247038014
 42
-0.0082272420688009
 10
1328.0938210651152
 20
1512.1293084193483
 10
1328.036904197492
 20
1512.1187373217947
 42
-0.0072605137940741
 10
1314.1012414545478
 20
1509.7392728737993
 10
1314.0605998389806
 20
1509.7329393570258
 42
-0.0063717676732563
 10
1299.9834796264843
 20
1507.7225782491462
 10
1299.9614406498097
 20
1507.7197169244846
 42
-0.0055478404445614
 10
1285.7924857899498
 20
1506.03987647037
 10
1285.7813193702493
 20
1506.0386780832962
 42
-0.0047973377330804
 10
1271.5992764327934
 20
1504.654153375023
 10
1271.5762202638098
 20
1504.652125632972
 42
-0.0040736450901579
 10
1257.417806529284
 20
1503.5230862593794
 10
1257.3823898441246
 20
1503.5205522153553
 42
-0.003361947653558
 10
1243.2794664247567
 20
1502.6067632016648
 10
1243.2308443992704
 20
1502.6039409343828
 42
-0.0026669885747537
 10
1229.2150812680679
 20
1501.8653843996922
 42
-0.0019512711131587
 10
1215.1930017180396
 20
1501.2563101229302
 10
1210.1449999797787
 20
1501.0567750158532
 42
-0.0030025278495711
 10
1186.0196845904165
 20
1500.2482276595808
 10
1180.7547594616508
 20
1500.1034220382035
 42
-0.0029684886615817
 10
1154.470599398564
 20
1499.5366492761755
 10
1154.2827007382739
 20
1499.5337135000891
 42
-0.0036899693457257
 10
1128.3693965976372
 20
1499.3201033273535
 42
-0.0005564197893318
 10
1125.178948862346
 20
1499.3209002691315
 42
-0.0005564197893318
  0
SPLINE
  5
1B3
100
AcDbEntity
  8
ARJ70-1401
370
              35
390
0
  6
Continuous
 62
               7
100
AcDbSpline
210
0.0
220
0.0
230
1.0
 70
               0
 71
               3
 72
               9
 73
               5
 74
               0
 42
0.000001
 43
0.000001
 40
0.0
 40
0.0
 40
0.0
 40
0.0
 40
1.0
 40
2.0
 40
2.0
 40
2.0
 40
2.0
 10
1125.1789711418689
 20
1858.0950098616813
 30
-0.0002558629138015
 10
1114.1805003770469
 20
1858.115920511641
 30
-0.000255862911812
 10
1114.1805003770469
 20
1857.7068810419892
 30
-0.0002558629160753
 10
1114.1805003770469
 20
1857.2978415723373
 30
-0.000255862911812
 10
1125.1789711418689
 20
1857.3187522222975
 30
-0.0002558629138015
  0
SPLINE
  5
1B4
100
AcDbEntity
  8
ARJ70-1401
370
              35
390
0
  6
Continuous
 62
               7
100
AcDbSpline
210
0.0
220
0.0
230
1.0
 70
               0
 71
               3
 72
               9
 73
               5
 74
               0
 42
0.000001
 43
0.000001
 40
0.0
 40
0.0
 40
0.0
 40
0.0
 40
1.0
 40
2.0
 40
2.0
 40
2.0
 40
2.0
 10
1125.178916862608
 20
1858.0950098616813
 30
-0.0002558629138015
 10
1136.1773876274301
 20
1858.115920511641
 30
-0.000255862911812
 10
1136.1773876274301
 20
1857.7068810419892
 30
-0.0002558629160753
 10
1136.1773876274301
 20
1857.2978415723373
 30
-0.000255862911812
 10
1125.178916862608
 20
1857.3187522222975
 30
-0.0002558629138015
  0
LWPOLYLINE
  5
1B5
100
AcDbEntity
  8
ARJ70-1401
370
              35
390
0
  6
Continuous
 62
               7
100
AcDbPolyline
 90
       49
 70
             128
 10
1890.7613544788169
 20
793.81881482288134
 42
-0.0041848644210564
 10
1890.7598998726955
 20
793.92146118766505
 10
1890.7597520854326
 20
793.94693964044166
 42
-0.0083829687625619
 10
1890.7614362565516
 20
794.10052684695984
 10
1890.7635319476885
 20
794.1760805061416
 42
-0.0167559341790844
 10
1890.7821745711256
 20
794.48012186773258
 10
1890.7870133326364
 20
794.53103868079688
 42
-0.0166903732167377
 10
1890.8378222199303
 20
794.925421059516
 10
1890.8381324729489
 20
794.92732535856226
 42
-0.0165931055185617
 10
1890.9143142709529
 20
795.31367374650574
 10
1890.9146751576932
 20
795.31522998063554
 42
-0.0164771505626192
 10
1891.0154000487084
 20
795.69261679899876
 10
1891.0157778901039
 20
795.69386575504768
 42
-0.0163513497665279
 10
1891.1402083979442
 20
796.06136413972126
 10
1891.1405767574215
 20
796.06234523392095
 42
-0.0162240560959694
 10
1891.2878687611947
 20
796.41903052260579
 10
1891.2882072966861
 20
796.41978040057597
 42
-0.0161028934534371
 10
1891.4575113390006
 20
796.7647313433622
 10
1891.4578045375558
 20
796.76528306732257
 42
-0.0159944295412212
 10
1891.6482670754178
 20
797.09758233972036
 10
1891.6485024048143
 20
797.09796407762155
 42
-0.0159044355821446
 10
1891.8592680647992
 20
797.41669972190198
 10
1891.8594362939441
 20
797.41693734466298
 42
-0.015836503758435
 10
1892.0896459673916
 20
797.721198567599
 42
-0.0158015695906231
 10
1892.3385384205956
 20
798.01019844537586
 42
-0.0157806462203772
 10
1892.6050792499805
 20
798.28281445122343
 42
-0.0157896276091627
 10
1892.8883966470494
 20
798.53815528829432
 42
-0.0158368692883977
 10
1893.1873945647362
 20
798.77516398748071
 10
1893.1876275016741
 20
798.77533690871348
 42
-0.0159044663703193
 10
1893.5015328656841
 20
798.99323117168183
 10
1893.5019095143805
 20
798.99347524432449
 42
-0.0159946276036329
 10
1893.8298332762806
 20
799.19137741036252
 10
1893.8303782270013
 20
799.191682951247
 42
-0.0161030833124831
 10
1894.1714273119578
 20
799.36871674519409
 10
1894.17216941775
 20
799.36907211281971
 42
-0.0162242863220921
 10
1894.5254460858114
 20
799.52436356751605
 10
1894.5264186387885
 20
799.52475394126088
 42
-0.0163515978903518
 10
1894.8910209137559
 20
799.65743295304492
 10
1894.8922610310794
 20
799.6578388343529
 42
-0.0164774118017791
 10
1895.2672834313341
 20
799.76704060679867
 10
1895.2688311043726
 20
799.76743645285819
 42
-0.0165933659032733
 10
1895.6533657656037
 20
799.85230280061273
 10
1895.7029574937339
 20
799.86153376732602
 42
-0.0166818634400811
 10
1896.0002191134479
 20
799.90666494771824
 42
-0.0083821197783624
 10
1896.2994930984655
 20
799.93685815858794
 10
1896.3014628436651
 20
799.9370235792187
 42
-0.0167693879128421
 10
1896.605695812751
 20
799.95232370651115
 10
1896.6571653309429
 20
799.95318398944562
 42
-0.0041787272463652
 10
1896.7598304189441
 20
799.95404202322936
 42
-0.0041787272463652
  0
SPLINE
  5
1B6
100
AcDbEntity
  8
ARJ70-1401
370
              35
390
0
  6
Continuous
 62
               7
100
AcDbSpline
210
0.0
220
0.0
230
1.0
 70
               0
 71
               3
 72
               8
 73
               4
 74
               0
 42
0.000001
 43
0.000001
 40
0.0
 40
0.0
 40
0.0
 40
0.0
 40
1.0
 40
1.0
 40
1.0
 40
1.0
 10
1959.2242735945779
 20
646.75402011266522
 30
-0.0000000000009937
 10
1899.4401310871681
 20
700.96524999614542
 30
-0.000000000000926
 10
1891.4047988495781
 20
768.89186012040238
 30
-0.0000000000009301
 10
1890.8539549696129
 20
793.8188134663684
 30
-0.0000000000009316
  0
LWPOLYLINE
  5
1B7
100
AcDbEntity
  8
ARJ70-1401
370
              35
390
0
  6
Continuous
 62
               7
100
AcDbPolyline
 90
       33
 70
             128
 10
1959.2242739997969
 20
646.75402055953725
 42
0.0014215636069635
 10
1959.2626058176963
 20
646.72425538560947
 10
1959.3106405861104
 20
646.68717417423272
 42
0.0085312535557238
 10
1959.4468584392041
 20
646.58567994726741
 10
1959.5158896791847
 20
646.53605449859162
 42
0.0113873665028077
 10
1959.7962759787672
 20
646.34402031280422
 10
1959.8167382388338
 20
646.33068007920042
 42
0.0114099208567325
 10
1960.1470970000696
 20
646.12589169368232
 10
1960.1473043886358
 20
646.12576959476507
 42
0.0114406676376369
 10
1960.4870933211309
 20
645.93605256987894
 10
1960.4873855454825
 20
645.93589807137539
 42
0.0114791342049156
 10
1960.8361013234676
 20
645.76165485725221
 10
1960.8364861786167
 20
645.76147347403628
 42
0.0115242220205525
 10
1961.1936231021498
 20
645.60310700273533
 10
1961.1941102072453
 20
645.6029043044731
 42
0.0115747007908043
 10
1961.5591616071865
 20
645.46081683417151
 10
1961.5597615748052
 20
645.46059916352112
 42
0.0116291143624508
 10
1961.9322197314259
 20
645.33519209436929
 10
1961.932944162538
 20
645.33496679347002
 42
0.0116858112793153
 10
1962.3123004316951
 20
645.22664039364042
 10
1962.3131617703027
 20
645.22641606659533
 42
0.0117429617662601
 10
1962.6989067425011
 20
645.13556922150997
 10
1962.6999180905684
 20
645.13535597419389
 42
0.0117985836458341
 10
1963.0915418006366
 20
645.06238595767695
 10
1963.0927166841325
 20
645.06219561013961
 42
0.0118505749180362
 10
1963.4897088676034
 20
645.00749788816324
 10
1963.5403587015148
 20
645.00173877356872
 42
0.0118933366719332
 10
1963.8434026429791
 20
644.9745642454784
 10
1963.8677968732773
 20
644.97296052921388
 42
0.0059635066224589
 10
1964.1228624266705
 20
644.95924513910859
 42
0.008956911907491
 10
1964.3782008285646
 20
644.95314648156682
 10
1964.4040697550049
 20
644.95299212702855
 42
0.0014916867537588
 10
1964.4554395190048
 20
644.95283887252424
 42
0.0014916867537588
  0
LINE
  5
1B8
100
AcDbEntity
  8
ARJ70-1401
370
              35
390
0
  6
Continuous
 62
               7
100
AcDbLine
 10
2020.3473170693001
 20
644.95256979897624
 30
0.0
 11
1982.8241304356038
 21
644.95256979897624
 31
0.0
  0
LINE
  5
1B9
100
AcDbEntity
  8
ARJ70-1401
370
              35
390
0
  6
Continuous
 62
               7
100
AcDbLine
 10
2030.8536328790128
 20
644.95278831283929
 30
0.0
 11
2010.7617392175789
 21
644.95278831283838
 31
0.0
  0
LINE
  5
1BA
100
AcDbEntity
  8
ARJ70-1401
370
              35
390
0
  6
Continuous
 62
               7
100
AcDbLine
 10
2074.8365919975122
 20
644.95300003134423
 30
0.0
 11
2115.5053197474817
 21
644.95300003134423
 31
0.0
  0
LINE
  5
1BB
100
AcDbEntity
  8
ARJ70-1401
370
              35
390
0
  6
Continuous
 62
               7
100
AcDbLine
 10
2189.4919595643159
 20
620.61149558848535
 30
0.0
 11
2190.7677061234331
 21
642.930548134373
 31
0.0
  0
LINE
  5
1BC
100
AcDbEntity
  8
ARJ70-1401
370
              35
390
0
  6
Continuous
 62
               7
100
AcDbLine
 10
2122.2160288334881
 20
620.61149558848535
 30
0.0
 11
2121.2319535440229
 21
642.82778979494026
 31
0.0
  0
LWPOLYLINE
  5
1BD
100
AcDbEntity
  8
ARJ70-1401
370
              35
390
0
  6
Continuous
 62
               7
100
AcDbPolyline
 90
       49
 70
             128
 10
2128.2062513886312
 20
614.95389365740323
 42
-0.0039709695752743
 10
2128.1092253107504
 20
614.95466424476081
 10
2128.0851266714508
 20
614.95504705479698
 42
-0.0079504997984611
 10
2127.939982820757
 20
614.95966192779065
 10
2127.8684788480055
 20
614.96307419033542
 42
-0.0158817693032153
 10
2127.5811272779401
 20
614.98595127207989
 10
2127.5330549940036
 20
614.99131938723417
 42
-0.0158164001223167
 10
2127.1597522443108
 20
615.04500645380847
 10
2127.1581299850513
 20
615.04529239192618
 42
-0.0157275327831336
 10
2126.7921754940526
 20
615.12173311889092
 10
2126.7908407431341
 20
615.12205603951134
 42
-0.0156255284175812
 10
2126.4330395668676
 20
615.22054929143064
 10
2126.4319602081209
 20
615.22088302148563
 42
-0.015517331889983
 10
2126.0831165793124
 20
615.34072206112512
 10
2126.0822617643744
 20
615.3410457042371
 42
-0.0154094438989296
 10
2125.7431780836437
 20
615.48151897374339
 10
2125.7425191901657
 20
615.4818160404991
 42
-0.0153077688787731
 10
2125.4139951957536
 20
615.64220813656175
 10
2125.4135063408276
 20
615.64246562516121
 42
-0.0152173714874504
 10
2125.0963388169794
 20
615.82205818808234
 10
2125.0959978731512
 20
615.82226519082644
 42
-0.0151427295389348
 10
2124.7909794775533
 20
616.02033863698637
 10
2124.790765755909
 20
616.02048681293059
 42
-0.0150865371115103
 10
2124.4986887132654
 20
616.23631851661605
 42
-0.0150581875313682
 10
2124.2202340747212
 20
616.46927184528602
 42
-0.0150404495278542
 10
2123.9563869994345
 20
616.71846931205266
 42
-0.0150474629212262
 10
2123.7079244728016
 20
616.9831767481561
 42
-0.0150868483845014
 10
2123.4757765681538
 20
617.26246312711851
 10
2123.475616996835
 20
617.26266733030582
 42
-0.0151427424175892
 10
2123.2604612787627
 20
617.55588606059769
 10
2123.2602349801673
 20
617.55621489555597
 42
-0.0152175269391683
 10
2123.0628365313869
 20
617.86261810950168
 10
2123.0625515833035
 20
617.86309144870438
 42
-0.0153079139064476
 10
2122.8836745393269
 20
618.18192831744693
 10
2122.8833403396202
 20
618.18256922416651
 42
-0.0154096217797367
 10
2122.7237473156219
 20
618.5130853632312
 10
2122.7233754201834
 20
618.51392032595061
 42
-0.0155175243412549
 10
2122.5838263706332
 20
618.85535804959977
 10
2122.5834315972584
 20
618.85641660488557
 42
-0.0156257330520289
 10
2122.4646827501119
 20
619.20801537566149
 10
2122.4642842024932
 20
619.2093295055563
 42
-0.0157277397163232
 10
2122.3670870687374
 20
619.57032665693123
 10
2122.366709043522
 20
619.57192991538568
 42
-0.0158165690581672
 10
2122.291809543995
 20
619.94156162165359
 10
2122.2837048365573
 20
619.98926375991982
 42
-0.0158761244785462
 10
2122.2444702673415
 20
620.27481228937347
 10
2122.2395045340872
 20
620.32202340114736
 42
-0.0079539004332424
 10
2122.2223352861606
 20
620.51466894920156
 42
-0.0039710783581207
 10
2122.2160288334881
 20
620.61149558848535
 42
-0.0039710783581207
  0
LWPOLYLINE
  5
1BE
100
AcDbEntity
  8
ARJ70-1401
370
              35
390
0
  6
Continuous
 62
               7
100
AcDbPolyline
 90
       11
 70
             128
 10
2120.9189535529999
 20
644.95274042174026
 10
2120.9204086826367
 20
644.94665579950333
 42
-0.0085556199253863
 10
2121.0119292095269
 20
644.53278159450713
 42
-0.0091453405120681
 10
2121.0887422926644
 20
644.11593616405821
 10
2121.0900415527435
 20
644.10808197355402
 42
-0.0091718985309744
 10
2121.1538455345953
 20
643.67295257520664
 10
2121.1556070574502
 20
643.65918451385687
 42
-0.0091940367388766
 10
2121.2009288633062
 20
643.24451387386489
 10
2121.2021281165016
 20
643.23129516628887
 42
-0.0080588724879863
 10
2121.2311469528759
 20
642.84176074172308
 10
2121.2319535440229
 20
642.82778979494026
  0
LINE
  5
1BF
100
AcDbEntity
  8
ARJ70-1401
370
              35
390
0
  6
Continuous
 62
               7
100
AcDbLine
 10
2183.5260189670271
 20
614.95389365740323
 30
0.0
 11
2128.2062513886312
 21
614.95389365740323
 31
0.0
  0
LWPOLYLINE
  5
1C0
100
AcDbEntity
  8
ARJ70-1401
370
              35
390
0
  6
Continuous
 62
               7
100
AcDbPolyline
 90
       34
 70
             128
 10
2183.5260189670271
 20
614.95389365740323
 42
0.0021335330156102
 10
2183.57824723966
 20
614.95411651990571
 10
2183.61723246871
 20
614.95444923257139
 42
0.0085536578508051
 10
2183.7473731456962
 20
614.9577869034581
 10
2183.7859631781994
 20
614.9594375525096
 42
0.0085386928444167
 10
2183.993015014199
 20
614.97183920392945
 10
2184.0441914122166
 20
614.97578254055554
 42
0.0170365453989689
 10
2184.3484915655677
 20
615.00969053479491
 10
2184.350062742662
 20
615.0099200321697
 42
0.0084888911552466
 10
2184.6492345811985
 20
615.05882012905988
 10
2184.6499404678052
 20
615.05894784701218
 42
0.0168882546982252
 10
2184.9447186306802
 20
615.12263156633617
 10
2184.9458751880679
 20
615.12292262850633
 42
0.0084043473244391
 10
2185.2348787973788
 20
615.2008417579998
 42
0.0167099714424071
 10
2185.519487357039
 20
615.29313326246711
 10
2185.5665315348306
 20
615.31014559517723
 42
0.0165857620006016
 10
2185.9331265636083
 20
615.45663698491262
 10
2185.9339165236106
 20
615.45698345823837
 42
0.0164666344804735
 10
2186.2884825555566
 20
615.62662594882136
 10
2186.2890579046802
 20
615.62692489016422
 42
0.0163609884854855
 10
2186.6306036869573
 20
615.81882872928907
 10
2186.6309965973815
 20
615.81906673048468
 42
0.0162738207944177
 10
2186.9585321230888
 20
616.03233694581706
 10
2186.9587603632408
 20
616.03249637146769
 42
0.0162120307111216
 10
2187.2713149568394
 20
616.26624802208073
 10
2187.309524317619
 20
616.2968042180047
 42
0.0161729298639442
 10
2187.531932601235
 20
616.48677629972735
 42
0.0080847486950834
 10
2187.7449606590976
 20
616.68739848163261
 42
0.0161736432997894
 10
2187.9479569458813
 20
616.89806066614108
 42
0.0080997002566486
 10
2188.1405851955551
 20
617.11842928929525
 10
2188.1407086612153
 20
617.1185752404167
 42
0.0162343017312635
 10
2188.3225541856773
 20
617.34826225943664
 10
2188.3516558383017
 20
617.38757816466102
 42
0.002037227160606
 10
2188.3805942240142
 20
617.42700845333241
 42
0.002037227160606
  0
LWPOLYLINE
  5
1C1
100
AcDbEntity
  8
ARJ70-1401
370
              35
390
0
  6
Continuous
 62
               7
100
AcDbPolyline
 90
       25
 70
             128
 10
2188.3805942240142
 20
617.42700845333241
 42
-0.001817481712474
 10
2188.432225876551
 20
617.49742467569956
 10
2188.4969541308901
 20
617.58503269301161
 42
-0.0108899554038139
 10
2188.6835561100256
 20
617.82641261372305
 10
2188.7244722955998
 20
617.8770226611523
 42
-0.0072441293682554
 10
2189.0030110737243
 20
618.2115222665517
 10
2189.0307552621434
 20
618.24387556706984
 42
-0.0144482288443705
 10
2189.3807580225684
 20
618.62893006815511
 10
2189.4409917098978
 20
618.69146660379886
 42
-0.0144040674902625
 10
2189.9339788915295
 20
619.17464208560352
 10
2189.9344343217622
 20
619.17506342976833
 42
-0.0143692586813511
 10
2190.4534601516452
 20
619.62827212150466
 42
-0.0143533522915358
 10
2190.9973688485461
 20
620.05074370570151
 42
-0.0143376046385064
 10
2191.5642727174495
 20
620.44110140142209
 42
-0.0143353464499931
 10
2192.1527380103362
 20
620.79838816393408
 42
-0.014356272771105
 10
2192.7609025765491
 20
621.12143433492997
 10
2192.7613323972282
 20
621.12164705916678
 42
-0.014385148059087
 10
2193.3879208414069
 20
621.40962225988142
 10
2193.3886234839424
 20
621.40992101835309
 42
-0.0144258933897152
 10
2194.0321753682556
 20
621.66189138316338
 10
2194.0730359840736
 20
621.67654485894798
 42
-0.0144733702306773
 10
2194.6516408188945
 20
621.86533228680628
 10
2194.6928419993933
 20
621.87746789363018
 42
-0.0108899651821463
 10
2195.1974896256634
 20
622.01423938085202
 42
-0.0018175568869581
 10
2195.2823229442092
 20
622.03493225720433
 42
-0.0018175568869581
  0
SPLINE
  5
1C2
100
AcDbEntity
  8
ARJ70-1401
370
              35
390
0
  6
Continuous
 62
               7
100
AcDbSpline
210
0.0
220
0.0
230
1.0
 70
               8
 71
               3
 72
               8
 73
               4
 74
               0
 42
0.000001
 43
0.000001
 40
0.0
 40
0.0
 40
0.0
 40
0.0
 40
1.0
 40
1.0
 40
1.0
 40
1.0
 10
1896.8019890545938
 20
799.95398763708533
 30
0.0000000099449415
 10
2054.819317026745
 20
799.95398763708533
 30
-0.0000003069066208
 10
2212.8366449988939
 20
799.95398763708533
 30
0.0000094713150582
 10
2370.8539729710469
 20
799.95398763708533
 30
-0.0002922902370228
  0
LINE
  5
1C3
100
AcDbEntity
  8
ARJ70-1401
370
              35
390
0
  6
Continuous
 62
               7
100
AcDbLine
 10
2370.8539730529492
 20
801.45402578405731
 30
0.0
 11
2370.853964507965
 21
644.95245822764321
 31
0.0
  0
SPLINE
  5
1C4
100
AcDbEntity
  8
ARJ70-1401
370
              35
390
0
  6
Continuous
 62
               7
100
AcDbSpline
210
0.0
220
0.0
230
1.0
 70
               0
 71
               3
 72
              12
 73
               8
 74
               0
 42
0.000001
 43
0.000001
 40
0.0
 40
0.0
 40
0.0
 40
0.0
 40
1.0
 40
2.0
 40
3.0
 40
4.0
 40
5.0
 40
5.0
 40
5.0
 40
5.0
 10
2241.0
 20
644.95250529602174
 30
-0.0000000933106383
 10
2237.6567074935338
 20
641.87088768636897
 30
-0.0000000933106498
 10
2228.4636140277403
 20
634.49667061837681
 30
-0.0000000933106789
 10
2214.9905021179984
 20
627.40928404893782
 30
-0.0000000933107104
 10
2203.7494513707434
 20
623.87593990043422
 30
-0.0000000933107236
 10
2197.8724971865431
 20
622.54008244482384
 30
-0.000000093310726
 10
2195.9283980356704
 20
622.1562132279156
 30
-0.0000000933107262
 10
2195.2796740963468
 20
622.03427378419531
 30
-0.0000000933107263
  0
LINE
  5
1C5
100
AcDbEntity
  8
ARJ70-1401
370
              35
390
0
  6
Continuous
 62
               7
100
AcDbLine
 10
2247.9393498396489
 20
644.9524582276423
 30
0.0
 11
2370.8540300772629
 21
644.95245822764321
 31
0.0
  0
LINE
  5
1C6
100
AcDbEntity
  8
ARJ70-1401
370
              35
390
0
  6
Continuous
 62
               7
100
AcDbLine
 10
2115.5053197474817
 20
644.95300003134423
 30
0.0
 11
2252.9393748900388
 21
644.95245822764821
 31
0.0
  0
LINE
  5
1C7
100
AcDbEntity
  8
ARJ70-1401
370
              35
390
0
  6
Continuous
 62
               7
100
AcDbLine
 10
2068.1273728931019
 20
644.95275084257025
 30
0.0
 11
2111.0437196292687
 21
644.95275084256934
 31
0.0
  0
LINE
  5
1C8
100
AcDbEntity
  8
ARJ70-1401
370
              35
390
0
  6
Continuous
 62
               7
100
AcDbLine
 10
2030.8540537080758
 20
644.95274732973337
 30
0.0
 11
2068.1273728931001
 21
644.95274732973337
 31
0.0
  0
SPLINE
  5
1C9
100
AcDbEntity
  8
ARJ70-1401
370
              35
390
0
  6
Continuous
 62
               7
100
AcDbSpline
210
0.0
220
0.0
230
1.0
 70
               0
 71
               3
 72
               8
 73
               4
 74
               0
 42
0.000001
 43
0.000001
 40
0.0
 40
0.0
 40
0.0
 40
0.0
 40
1.0
 40
1.0
 40
1.0
 40
1.0
 10
2370.8539711867829
 20
801.45402578405731
 30
-0.000255736181316
 10
2361.1253480569158
 20
800.86627769802442
 30
-0.0001911259815601
 10
2351.3967248526988
 20
800.37433303412342
 30
-0.0001428391580704
 10
2341.6681015929139
 20
799.95398763708533
 30
-0.0001067517085418
  0
LINE
  5
1CA
100
AcDbEntity
  8
ARJ70-1401
370
              35
390
0
  6
Continuous
 62
               7
100
AcDbLine
 10
2040.8536351771281
 20
644.95278831283838
 30
0.0
 11
1964.4319575388731
 21
644.95278831283838
 31
0.0
  0
LINE
  5
1CB
100
AcDbEntity
  8
ARJ70-1401
370
              15
390
0
  6
STYLE_01
 62
               7
100
AcDbLine
 10
1125.1790001747461
 20
653.48231308044353
 30
0.0
 11
1103.9852952142851
 21
653.48231308044353
 31
0.0
  0
LINE
  5
1CC
100
AcDbEntity
  8
ARJ70-1401
370
              15
390
0
  6
STYLE_01
 62
               7
100
AcDbLine
 10
1125.1790001747461
 20
648.25404159606944
 30
0.0
 11
1101.342774161777
 21
648.25404159606944
 31
0.0
  0
LINE
  5
1CD
100
AcDbEntity
  8
ARJ70-1401
370
              35
390
0
  6
Continuous
 62
               7
100
AcDbLine
 10
1125.1321388582489
 20
644.95370103301536
 30
0.0
 11
1426.3257712632069
 21
644.95400291592648
 31
0.0
  0
LINE
  5
1CE
100
AcDbEntity
  8
ARJ70-1401
370
              35
390
0
  6
Continuous
 62
               7
100
AcDbLine
 10
1398.2661966917881
 20
799.95395725646938
 30
0.0
 11
1468.9814529741409
 21
799.95403184782447
 31
0.0
  0
LINE
  5
1CF
100
AcDbEntity
  8
ARJ70-1401
370
              15
390
0
  6
STYLE_01
 62
               7
100
AcDbLine
 10
1125.1790001747461
 20
622.95403944715042
 30
0.0
 11
1102.241519150522
 21
622.95403944715042
 31
0.0
  0
LWPOLYLINE
  5
1D0
100
AcDbEntity
  8
ARJ70-1401
370
              15
390
0
  6
STYLE_01
 62
               7
100
AcDbPolyline
 90
       10
 70
             128
 10
1098.3726157396652
 20
644.83195183849136
 10
1098.3774731965977
 20
644.79765222878279
 42
-0.0051948382169117
 10
1098.4250175175234
 20
644.43481727125163
 10
1098.4279779340247
 20
644.41024576387417
 42
-0.0039566855025428
 10
1098.4633430589995
 20
644.09577997591146
 42
-0.0039572723974493
 10
1098.4937266497236
 20
643.78079385016815
 10
1098.5002665177474
 20
643.70687855754818
 42
-0.0076645012435025
 10
1098.5341302537192
 20
643.24330224273399
 10
1098.5384010885382
 20
643.1692257984995
 10
1098.5389681067593
 20
643.15934863375344
  0
LINE
  5
1D1
100
AcDbEntity
  8
ARJ70-1401
370
              15
390
0
  6
STYLE_01
 62
               7
100
AcDbLine
 10
1099.2489821225258
 20
625.74182813051971
 30
0.0
 11
1098.538974420456
 21
643.15931463172444
 31
0.0
  0
SPLINE
  5
1D2
100
AcDbEntity
  8
ARJ70-1401
370
              15
390
0
  6
Continuous
 62
               7
100
AcDbSpline
210
0.0
220
0.0
230
1.0
 70
               0
 71
               3
 72
              17
 73
              13
 74
               0
 42
0.000001
 43
0.000001
 40
0.0
 40
0.0
 40
0.0
 40
0.0
 40
1.0
 40
2.0
 40
3.0
 40
4.0
 40
5.0
 40
6.0
 40
7.0
 40
8.0
 40
9.0
 40
10.0
 40
10.0
 40
10.0
 40
10.0
 10
810.53144827133178
 20
794.87818638056035
 30
-0.000255742302015
 10
818.18584329507905
 20
774.75034109268142
 30
-0.000255736181681
 10
835.70767333749677
 20
743.78620201658543
 30
-0.0002557361817634
 10
865.98767277783531
 20
716.79559862971735
 30
-0.0002557361795272
 10
897.13058060873368
 20
700.15670897088842
 30
-0.0002557361796902
 10
927.45385383996233
 20
688.0449606101364
 30
-0.0002557361837551
 10
957.5721359699279
 20
679.9504648383155
 30
-0.0002557361801504
 10
987.85121929743605
 20
674.36252763515847
 30
-0.0002557361854839
 10
1017.3983383554383
 20
670.58492571067052
 30
-0.0002557359871411
 10
1045.1203583681934
 20
667.98693427882142
 30
-0.0002557353213139
 10
1069.4901900756527
 20
666.06792350940248
 30
-0.0002557339369794
 10
1080.7771767021534
 20
665.42352056428547
 30
-0.0002557323719464
 10
1084.5490355551196
 20
665.29067003455941
 30
-0.0002557313880129
  0
LINE
  5
1D3
100
AcDbEntity
  8
ARJ70-1401
370
              35
390
0
  6
Continuous
 62
               7
100
AcDbLine
 10
1125.1790001747461
 20
614.95404446696546
 30
0.0
 11
1152.8388450813391
 21
614.95404446696546
 31
0.0
  0
LINE
  5
1D4
100
AcDbEntity
  8
ARJ70-1401
370
              15
390
0
  6
STYLE_01
 62
               7
100
AcDbLine
 10
1125.1790001747461
 20
664.95404496818639
 30
0.0
 11
1086.5909973352279
 21
664.95404496818639
 31
0.0
  0
LWPOLYLINE
  5
1D5
100
AcDbEntity
  8
ARJ70-1401
370
              15
390
0
  6
STYLE_01
 62
               7
100
AcDbPolyline
 90
       34
 70
             128
 10
1102.3374583346169
 20
652.16563367613742
 42
0.0014608563877214
 10
1102.3370073466574
 20
652.18319542346489
 10
1102.3356308484242
 20
652.23131800950455
 42
0.0174906633956157
 10
1102.3284021154529
 20
652.34487066319912
 10
1102.3236537365221
 20
652.39289616949577
 42
0.0116146769095322
 10
1102.3067652118625
 20
652.53089050697372
 10
1102.306732801914
 20
652.5311124422376
 42
0.0115747433951824
 10
1102.28354001252
 20
652.66773357362786
 10
1102.2835051930342
 20
652.66791335790504
 42
0.0115402487454924
 10
1102.2541015692173
 20
652.80295920696437
 10
1102.2540676097719
 20
652.8030995174563
 42
0.0115101773809023
 10
1102.2185462658558
 20
652.93636818258483
 10
1102.2185161818929
 20
652.93647143946919
 42
0.0114855238434047
 10
1102.1769704440565
 20
653.06776129350669
 10
1102.1769470710342
 20
653.06782965515231
 42
0.0114670672794342
 10
1102.1294704077511
 20
653.19693933148392
 42
0.0114522480433229
 10
1102.0761423935023
 20
653.32370313855506
 42
0.0114505194756721
 10
1102.0170825758446
 20
653.44785358221873
 42
0.0114560394202099
 10
1101.9523872151983
 20
653.56919127457149
 42
0.0114688023970005
 10
1101.8821524908642
 20
653.68751691274099
 42
0.0114803177078286
 10
1101.8065304993852
 20
653.80255021666221
 10
1101.8064744544597
 20
653.80263134900906
 42
0.0115034798715802
 10
1101.72553095123
 20
653.91422784938618
 10
1101.7254492029012
 20
653.91433526677861
 42
0.0115323276245526
 10
1101.6392839482137
 20
654.02229645531611
 10
1101.6391727684431
 20
654.02242935279207
 42
0.0115656884975477
 10
1101.5478858013778
 20
654.12655682429795
 10
1101.5477413300664
 20
654.12671412388886
 42
0.0116031455868605
 10
1101.4514333411908
 20
654.22680906665812
 10
1101.4452228639377
 20
654.2329709686619
 42
0.0116413735616444
 10
1101.3563203980107
 20
654.31716276174018
 10
1101.349916782641
 20
654.32295032722664
 42
0.0087564765013641
 10
1101.2706498086616
 20
654.39210850990582
 42
0.0014608266818142
 10
1101.257178851243
 20
654.40338516092936
 42
0.0014608266818142
  0
LWPOLYLINE
  5
1D6
100
AcDbEntity
  8
ARJ70-1401
370
              35
390
0
  6
Continuous
 62
               7
100
AcDbPolyline
 90
       11
 70
             128
 10
1125.178937918442
 20
801.45427803904442
 42
-0.000130130677498
 10
1134.4951114266792
 20
801.45185339906175
 10
1146.1403555352094
 20
801.44579178452386
 42
-0.0006606954401518
 10
1178.7469372686194
 20
801.38573321693457
 10
1195.05036625613
 20
801.33416034142442
 42
-0.0006918115647516
 10
1260.2633163307887
 20
801.0376397750158
 10
1269.5794603088339
 20
800.98238927052239
 42
-0.000474722861528
 10
1334.7929266658352
 20
800.53371383273509
 10
1339.4508451625484
 20
800.49724418852816
 42
-0.0002137084414486
 10
1395.3478512612521
 20
800.03570005327185
 42
-0.0000197122686356
 10
1404.6640168607721
 20
799.95442656222542
 42
-0.0000197122686356
  0
LWPOLYLINE
  5
1D7
100
AcDbEntity
  8
ARJ70-1401
370
              15
390
0
  6
STYLE_01
 62
               7
100
AcDbPolyline
 90
       60
 70
             128
 10
1098.3726157396652
 20
644.83195183849136
 42
-0.0030481697957918
 10
1098.3660523819353
 20
644.88024875046199
 10
1098.3583655989116
 20
644.93951819661584
 42
-0.0193311281381007
 10
1098.3432000057699
 20
645.10698056895706
 10
1098.3400673531553
 20
645.16756948737361
 42
-0.0132537520278478
 10
1098.3354181614875
 20
645.35237842474135
 10
1098.335420550118
 20
645.35414188819357
 42
-0.0134871540815232
 10
1098.3405566989811
 20
645.53540858950942
 10
1098.3406458726085
 20
645.53701949261369
 42
-0.0137410386472447
 10
1098.3553731392187
 20
645.71452100613999
 10
1098.355534154181
 20
645.71597539688946
 42
-0.013980829965551
 10
1098.3796710790634
 20
645.88948827617435
 10
1098.3798883017398
 20
645.8907833724104
 42
-0.0142045335791366
 10
1098.4132540512628
 20
646.06008293768025
 10
1098.4135112721415
 20
646.06121723946853
 42
-0.0144101861831814
 10
1098.4559255133815
 20
646.22607747193422
 10
1098.4562060808321
 20
646.22705086025292
 42
-0.0145958968337793
 10
1098.5074888379827
 20
646.38724431330513
 10
1098.5077758118186
 20
646.38805813669023
 42
-0.0147598762910948
 10
1098.5677473012618
 20
646.54335585902072
 10
1098.5680236149892
 20
646.5440129794215
 42
-0.0149005141155607
 10
1098.636504085523
 20
646.69418449001682
 10
1098.6367527565649
 20
646.69468938803527
 42
-0.0150162786222757
 10
1098.7135622349258
 20
646.83950255562343
 10
1098.7137664133802
 20
646.83986106697421
 42
-0.0151062557340054
 10
1098.7987248151132
 20
646.9790825139703
 10
1098.7988686354361
 20
646.97930293117292
 42
-0.0151683969697756
 10
1098.8917942487574
 20
647.11269643725643
 10
1098.8918599815242
 20
647.11278494593626
 42
-0.0152056624191814
 10
1098.9925750583814
 20
647.24011813345987
 42
-0.0152070346963068
 10
1099.1008697450484
 20
647.36111992188262
 42
-0.0151902246781787
 10
1099.2163417850511
 20
647.47534499634367
 10
1099.2164781756164
 20
647.47547195324739
 42
-0.0151408378954843
 10
1099.3389427883531
 20
647.58273275536499
 10
1099.3392034975163
 20
647.5829475043962
 42
-0.0150644932494816
 10
1099.4684544823322
 20
647.68303343541947
 10
1099.4688489101611
 20
647.68332028173404
 42
-0.0149615324213374
 10
1099.6046793869491
 20
647.77601944607545
 10
1099.6052167113162
 20
647.7763630492318
 42
-0.0148331357881638
 10
1099.7474214973165
 20
647.86146443148914
 10
1099.7481092574519
 20
647.86184878347251
 42
-0.0146806304949693
 10
1099.89648467048
 20
647.93914182714445
 10
1099.8973288829752
 20
647.93955055644574
 42
-0.0145055626791266
 10
1100.0516727838949
 20
648.00882499776412
 10
1100.0526779259503
 20
648.00924154591837
 42
-0.0143096454914419
 10
1100.2127897053638
 20
648.07028722683935
 10
1100.2139587417842
 20
648.07069502979232
 42
-0.0140947217008715
 10
1100.3796392840034
 20
648.12330172223847
 10
1100.3809737165707
 20
648.12368437960049
 42
-0.013862723828476
 10
1100.5520253404477
 20
648.16764162207619
 10
1100.5535252785176
 20
648.1679830520485
 42
-0.0136156360602245
 10
1100.7297516588153
 20
648.20308000173964
 10
1100.7314159075854
 20
648.20336457906888
 42
-0.0133554729026481
 10
1100.9126219815348
 20
648.22938987598366
 10
1100.9144481509493
 20
648.22960255183045
 42
-0.0130833115959668
 10
1101.1004400043194
 20
648.2463445393787
 10
1101.1024242954036
 20
648.24647092577788
 42
-0.012783232254768
 10
1101.2930083713231
 20
648.25372471680328
 10
1101.2940315330488
 20
648.25373748387472
 42
-0.0031195407504365
 10
1101.342774161777
 20
648.2540415960674
 42
-0.0031195407504365
  0
LWPOLYLINE
  5
1D8
100
AcDbEntity
  8
ARJ70-1401
370
              15
390
0
  6
STYLE_01
 62
               7
100
AcDbPolyline
 90
       49
 70
             128
 10
1097.5191552681533
 20
614.95404429763551
 42
-0.0039709695742398
 10
1097.4221291902645
 20
614.95481488499308
 10
1097.3980305509729
 20
614.95519769502903
 42
-0.0079504997995532
 10
1097.2528867002843
 20
614.95981256802224
 10
1097.1813827275278
 20
614.96322483056736
 42
-0.0158817693028921
 10
1096.8940311574615
 20
614.98610191231194
 10
1096.845958873525
 20
614.99147002746622
 42
-0.0158164001226307
 10
1096.4726561238331
 20
615.04515709404041
 10
1096.4710338645757
 20
615.04544303215766
 42
-0.0157275327830625
 10
1096.1050793735747
 20
615.12188375912297
 10
1096.1037446226546
 20
615.12220667974373
 42
-0.0156255284173229
 10
1095.7459434463899
 20
615.22069993166269
 10
1095.7448640876428
 20
615.22103366171791
 42
-0.0155173318896227
 10
1095.3960204588348
 20
615.34087270135694
 10
1095.3951656438962
 20
615.34119634446915
 42
-0.0154094438995822
 10
1095.0560819631664
 20
615.48166961397533
 10
1095.0554230696903
 20
615.48196668073012
 42
-0.0153077688774592
 10
1094.7268990752757
 20
615.6423587767938
 10
1094.7264102203485
 20
615.64261626539383
 42
-0.0152173714883012
 10
1094.4092426965012
 20
615.82220882831405
 10
1094.4089017526746
 20
615.82241583105701
 42
-0.0151427295391999
 10
1094.1038833570758
 20
616.02048927721842
 10
1094.1036696354313
 20
616.02063745316286
 42
-0.0150865371101927
 10
1093.8115925927875
 20
616.2364691568481
 42
-0.0150581875323635
 10
1093.5331379542431
 20
616.46942248551773
 42
-0.0150404495281751
 10
1093.269290878957
 20
616.71861995228471
 42
-0.0150474629198231
 10
1093.0208283523241
 20
616.98332738838769
 42
-0.0150868483853057
 10
1092.7886804476752
 20
617.26261376735124
 10
1092.7885208763578
 20
617.26281797053696
 42
-0.0151427424172627
 10
1092.573365158288
 20
617.55603670082428
 10
1092.5731388596894
 20
617.55636553578756
 42
-0.0152175269393669
 10
1092.3757404109065
 20
617.86276874973692
 10
1092.3754554628256
 20
617.86324208893598
 42
-0.0153079139064235
 10
1092.1965784188496
 20
618.18207895767728
 10
1092.1962442191425
 20
618.18271986439811
 42
-0.0154096217796889
 10
1092.0366511951438
 20
618.51323600346348
 10
1092.0362792997055
 20
618.51407096618254
 42
-0.0155175243410499
 10
1091.8967302501551
 20
618.85550868983216
 10
1091.8963354767805
 20
618.85656724511739
 42
-0.0156257330519311
 10
1091.7775866296329
 20
619.20816601589593
 10
1091.7771880820151
 20
619.20948014578789
 42
-0.0157277397161461
 10
1091.679990948259
 20
619.57047729716328
 10
1091.6796129230436
 20
619.5720805556175
 42
-0.0158165690593964
 10
1091.6047134235166
 20
619.94171226188701
 10
1091.5966087160791
 20
619.9894144001521
 42
-0.0158761244765367
 10
1091.5573741468634
 20
620.27496292960552
 10
1091.5524084136089
 20
620.32217404137998
 42
-0.0079539004356263
 10
1091.5352391656822
 20
620.51481958943361
 42
-0.003971078357537
 10
1091.5289327130095
 20
620.6116462287174
 42
-0.003971078357537
  0
LWPOLYLINE
  5
1D9
100
AcDbEntity
  8
ARJ70-1401
370
              15
390
0
  6
STYLE_01
 62
               7
100
AcDbPolyline
 90
       61
 70
             128
 10
1102.241519150522
 20
622.95403944715042
 42
-0.0027025544939324
 10
1102.2010806731878
 20
622.95425802312423
 10
1102.1512730171185
 20
622.9547964744072
 42
-0.0169152386674621
 10
1102.0114317850071
 20
622.96104277857046
 10
1101.9611975684199
 20
622.96499250010675
 42
-0.0115208013178746
 10
1101.8066794156528
 20
622.98073099818987
 10
1101.8055576396232
 20
622.98087143765338
 42
-0.0116748112913414
 10
1101.6541724196168
 20
623.00342514492195
 10
1101.6531493654713
 20
623.00360206853611
 42
-0.0118416047817657
 10
1101.5050296248794
 20
623.03284564101375
 10
1101.5041061905304
 20
623.03305078880385
 42
-0.0119984354665612
 10
1101.3593855705831
 20
623.06886585059362
 10
1101.3585620717174
 20
623.06909074785904
 42
-0.0121443161063962
 10
1101.2173748147609
 20
623.11135910837982
 10
1101.2166509512567
 20
623.1115951178374
 42
-0.0122782902430248
 10
1101.0791319315517
 20
623.16019871669278
 10
1101.0785067599008
 20
623.16043709586972
 42
-0.0123994485048162
 10
1100.9447915072419
 20
623.21525794310617
 10
1100.9442634165243
 20
623.21548990764757
 42
-0.0125069371517872
 10
1100.8144881372525
 20
623.27641001686209
 10
1100.8140548451668
 20
623.27662680210835
 42
-0.0125999936041392
 10
1100.6883564168052
 20
623.34352813296562
 10
1100.6880149220594
 20
623.34372108441562
 42
-0.0126778811272176
 10
1100.5665309555543
 20
623.41648542787402
 10
1100.5662777097286
 20
623.41664597352974
 42
-0.0127401831920013
 10
1100.4491462922861
 20
623.49515507536466
 10
1100.4489765275121
 20
623.4952752417463
 42
-0.0127858312229876
 10
1100.3363372196961
 20
623.57940989206838
 10
1100.3362477208582
 20
623.57948037774531
 42
-0.0128164101913191
 10
1100.2282374208567
 20
623.66912396549003
 42
-0.0128300649661497
 10
1100.124981546513
 20
623.76417020630856
 42
-0.0128179771112229
 10
1100.0267056458497
 20
623.86441996966494
 42
-0.0128028601230971
 10
1099.9336477263942
 20
623.9696228716416
 10
1099.9335438142764
 20
623.96974658838349
 42
-0.0127651393059821
 10
1099.8457829980275
 20
624.07982105277938
 10
1099.8456299165582
 20
624.08002344688123
 42
-0.0127109760176319
 10
1099.7632928866933
 20
624.19483712899842
 10
1099.7630984257103
 20
624.19512338592438
 42
-0.0126408475110062
 10
1099.6863113893371
 20
624.31454470485323
 10
1099.6860837105132
 20
624.31491928465039
 42
-0.0125552801847797
 10
1099.6149726114938
 20
624.43881730092676
 10
1099.6147201073031
 20
624.43928400641107
 42
-0.0124549148778242
 10
1099.549410682007
 20
624.5675284537906
 10
1099.5491419121277
 20
624.56809040995267
 42
-0.0123404852431938
 10
1099.4897597612164
 20
624.70055170106798
 10
1099.4894833819267
 20
624.70121135377576
 42
-0.0122128060579971
 10
1099.4361540395455
 20
624.83776057879788
 10
1099.4358787355754
 20
624.83851970095282
 42
-0.0120727593478956
 10
1099.3887277364361
 20
624.979028617724
 10
1099.3884621556499
 20
624.97988832353064
 42
-0.0119212801795237
 10
1099.3476150987306
 20
625.12422934005281
 10
1099.3473677907421
 20
625.12519010651317
 42
-0.0117593427088983
 10
1099.312950398778
 20
625.27323625656686
 10
1099.3127297583021
 20
625.2742979514835
 42
-0.0115879562775198
 10
1099.2848679354306
 20
625.42592286502395
 10
1099.2846821504729
 20
625.42708478457405
 42
-0.0114075301884531
 10
1099.2635018464687
 20
625.58216263991096
 10
1099.2633588756087
 20
625.58342332735424
 42
-0.0112069693441777
 10
1099.2489821225258
 20
625.74182813051971
 10
1099.2489377482898
 20
625.74247874040577
 42
-0.0027504307043572
 10
1099.2464078729506
 20
625.78284041269137
 42
-0.0027504307043572
  0
LWPOLYLINE
  5
1DA
100
AcDbEntity
  8
ARJ70-1401
370
              35
390
0
  6
Continuous
 62
               7
100
AcDbPolyline
 90
       18
 70
             128
 10
1159.7866674529021
 20
642.3647549742285
 10
1159.7882981557223
 20
642.39258910243279
 42
-0.0068018109311954
 10
1159.8106756796328
 20
642.70231995993379
 10
1159.8115182497818
 20
642.71212446911386
 42
-0.0060224709454627
 10
1159.8399111307231
 20
643.00159987579275
 10
1159.8399794817294
 20
643.00221978581453
 42
-0.0060142921018368
 10
1159.8751804855665
 20
643.28968993589069
 10
1159.8752588016296
 20
643.29027144021802
 42
-0.0060050430990639
 10
1159.917188720621
 20
643.57565154797953
 10
1159.9172753975463
 20
643.57619593930235
 42
-0.0059946274920204
 10
1159.9658550681954
 20
643.85940120932298
 10
1159.9659486168628
 20
643.85990989387187
 42
-0.0059831836646115
 10
1160.0210987495088
 20
644.14085536943674
 42
-0.0059706695545757
 10
1160.082949182628
 20
644.42040227130246
 10
1160.0969908270399
 20
644.48045755692237
 42
-0.011158852448825
 10
1160.1991160155085
 20
644.87709694303578
 10
1160.2158863519564
 20
644.93669007049095
 10
1160.2207024054701
 20
644.95375504381343
  0
LWPOLYLINE
  5
1DB
100
AcDbEntity
  8
ARJ70-1401
370
              15
390
0
  6
STYLE_01
 62
               7
100
AcDbPolyline
 90
       25
 70
             128
 10
1091.5365413002883
 20
662.49276640505434
 42
0.001567391677166
 10
1091.4785349841063
 20
662.54072948055864
 10
1091.4059477274441
 20
662.60036681793576
 42
0.0093936728698516
 10
1091.1995505932468
 20
662.76354473399647
 10
1091.0951848980094
 20
662.84291646138581
 42
0.0124938113397694
 10
1090.6693080269099
 20
663.15031652377388
 10
1090.6383944750053
 20
663.17147581133918
 42
0.0124619929540972
 10
1090.1371749987493
 20
663.49650365767434
 10
1090.136751990944
 20
663.49676322664936
 42
0.0124364625056299
 10
1089.6208336497848
 20
663.79594322423623
 10
1089.6205597481257
 20
663.79609308359284
 42
0.0124180502048181
 10
1089.0909679870892
 20
664.0689839564543
 42
0.0124050266168437
 10
1088.5486055288407
 20
664.31520475412538
 42
0.0124065604399677
 10
1087.9947755240919
 20
664.53418355581823
 42
0.0124166749834915
 10
1087.4305078737057
 20
664.72549784521891
 42
0.0124266320799094
 10
1086.8572231646565
 20
664.88862436903332
 10
1086.8568298024161
 20
664.8887258038377
 42
0.0124486846214707
 10
1086.2753518187787
 20
665.02332548446475
 10
1086.2747706551927
 20
665.02344485163769
 42
0.0124780941006869
 10
1085.6861411992118
 20
665.12911151555204
 10
1085.6490260211499
 20
665.13482218885815
 42
0.012511682170986
 10
1085.1271700022012
 20
665.2017982636346
 10
1085.0901602654287
 20
665.20560967379402
 42
0.0094083743745087
 10
1084.6399357764806
 20
665.24342977935964
 42
0.0015697582830771
 10
1084.5646536746601
 20
665.24809194721354
 42
0.0015697582830771
  0
LWPOLYLINE
  5
1DC
100
AcDbEntity
  8
ARJ70-1401
370
              35
390
0
  6
Continuous
 62
               7
100
AcDbPolyline
 90
       49
 70
             128
 10
1152.8388450813391
 20
614.95404446696546
 42
0.0039709695753966
 10
1152.9358711592249
 20
614.95481505432315
 10
1152.9599697985195
 20
614.95519786435921
 42
0.0079504997982944
 10
1153.1051136492106
 20
614.95981273735265
 10
1153.1766176219646
 20
614.96322499989742
 42
0.0158817693035097
 10
1153.4639691920297
 20
614.98610208164166
 10
1153.5120414759676
 20
614.99147019679629
 42
0.0158164001228581
 10
1153.8853442256591
 20
615.04515726337081
 10
1153.8869664849176
 20
615.04544320148841
 42
0.015727532782439
 10
1154.2529209759173
 20
615.12188392845337
 10
1154.2542557268357
 20
615.12220684907368
 42
0.0156255284173736
 10
1154.6120569031023
 20
615.22070010099264
 10
1154.6131362618498
 20
615.22103383104798
 42
0.0155173318907636
 10
1154.9619798906574
 20
615.34087287068712
 10
1154.9628347055934
 20
615.34119651379842
 42
0.0154094438982219
 10
1155.3019183863257
 20
615.48166978330562
 10
1155.3025772798051
 20
615.48196685006189
 42
0.0153077688788045
 10
1155.6311012742167
 20
615.64235894612398
 10
1155.6315901291423
 20
615.64261643472321
 42
0.0152173714871875
 10
1155.9487576529907
 20
615.82220899764422
 10
1155.9490985968193
 20
615.82241600038844
 42
0.015142729539831
 10
1156.2541169924164
 20
616.02048944654837
 10
1156.2543307140604
 20
616.0206376224927
 42
0.0150865371103566
 10
1156.5464077567042
 20
616.23646932617805
 42
0.0150480640427046
 10
1156.8248623952486
 20
616.46942265484768
 42
0.0150403125597412
 10
1157.0887094705352
 20
616.71862012161432
 42
0.0150577923989274
 10
1157.3371719971681
 20
616.98332755771753
 42
0.0150868483848904
 10
1157.5693199018167
 20
617.26261393668085
 10
1157.5694794731344
 20
617.26281813986702
 42
0.0151427424168655
 10
1157.7846351912069
 20
617.55603687015798
 10
1157.7848614898028
 20
617.55636570511729
 42
0.0152175269406635
 10
1157.9822599385834
 20
617.86276891906357
 10
1157.9825448866663
 20
617.86324225826615
 42
0.0153079139054471
 10
1158.1614219306423
 20
618.1820791270078
 10
1158.1617561303492
 20
618.18272003372829
 42
0.0154096217798079
 10
1158.321349154349
 20
618.51323617279502
 10
1158.321721049786
 20
618.51407113551181
 42
0.0155175243411461
 10
1158.4612700993359
 20
618.85550885915916
 10
1158.4616648727113
 20
618.85656741444632
 42
0.0156257330521094
 10
1158.5804137198584
 20
619.20816618522326
 10
1158.5808122674766
 20
619.20948031511728
 42
0.0157277397163069
 10
1158.6780094012329
 20
619.57047746649403
 10
1158.6783874264479
 20
619.57208072494677
 42
0.0158165690592431
 10
1158.7532869259751
 20
619.94171243121707
 10
1158.7613916334119
 20
619.98941456947864
 42
0.0158761244765079
 10
1158.8006262026283
 20
620.27496309893434
 10
1158.8055919358831
 20
620.3221742107113
 42
0.0079539004356508
 10
1158.8227611838095
 20
620.51481975876266
 42
0.0039708607908322
 10
1158.829067636482
 20
620.61164639804645
 42
0.0039708607908322
  0
LINE
  5
1DD
100
AcDbEntity
  8
ARJ70-1401
370
              35
390
0
  6
Continuous
 62
               7
100
AcDbLine
 10
1398.2661966917881
 20
799.95395725646938
 30
0.0
 11
1125.1790001747461
 21
799.95395725646938
 31
0.0
  0
LINE
  5
1DE
100
AcDbEntity
  8
ARJ70-1401
370
              15
390
0
  6
STYLE_01
 62
               7
100
AcDbLine
 10
1102.8884344140361
 20
622.95403944715042
 30
0.0
 11
1103.070487934393
 21
614.95404429763551
 31
0.0
  0
LINE
  5
1DF
100
AcDbEntity
  8
ARJ70-1401
370
              15
390
0
  6
STYLE_01
 62
               7
100
AcDbLine
 10
1102.3374583346169
 20
652.16563367613742
 30
0.0
 11
1102.4264732771348
 21
648.2540415960674
 31
0.0
  0
LINE
  5
1E0
100
AcDbEntity
  8
ARJ70-1401
370
              35
390
0
  6
Continuous
 62
               7
100
AcDbLine
 10
1158.8055919358828
 20
620.32217421070857
 30
0.0
 11
1159.7866674529021
 21
642.3647549742285
 31
0.0
  0
LINE
  5
1E1
100
AcDbEntity
  8
ARJ70-1401
370
              15
390
0
  6
STYLE_01
 62
               7
100
AcDbLine
 10
1091.5365413002883
 20
662.49276640505434
 30
0.0
 11
1101.257217819068
 21
654.40369293307151
 31
0.0
  0
SPLINE
  5
1E2
100
AcDbEntity
  8
ARJ70-1401
370
              15
390
0
  6
Continuous
 62
               7
100
AcDbSpline
210
0.0
220
0.0
230
1.0
 70
               0
 71
               3
 72
              23
 73
              19
 74
               0
 42
0.000001
 43
0.000001
 40
0.0
 40
0.0
 40
0.0
 40
0.0
 40
1.0
 40
2.0
 40
3.0
 40
4.0
 40
5.0
 40
6.0
 40
7.0
 40
8.0
 40
9.0
 40
10.0
 40
11.0
 40
12.0
 40
13.0
 40
14.0
 40
15.0
 40
16.0
 40
16.0
 40
16.0
 40
16.0
 10
805.20511704141131
 20
799.04181527092749
 30
-0.0002557361813169
 10
805.35904035392082
 20
799.03179296186647
 30
-0.0002557363503439
 10
805.66415724283854
 20
799.00009450453342
 30
-0.0002557366862428
 10
806.11215828201944
 20
798.91874621331647
 30
-0.0002557371819192
 10
806.54899994110542
 20
798.8047582292935
 30
-0.0002557376677171
 10
806.9731971341987
 20
798.6592914648794
 30
-0.0002557381419298
 10
807.38326477540124
 20
798.48350683248634
 30
-0.0002557386028507
 10
807.77771777881458
 20
798.27856524452739
 30
-0.0002557390487734
 10
808.15507105854124
 20
798.04562761341742
 30
-0.0002557394779911
 10
808.51383952868366
 20
797.78585485156839
 30
-0.0002557398887974
 10
808.85253810334302
 20
797.5004078713954
 30
-0.0002557402794856
 10
809.16968169662107
 20
797.19044758530947
 30
-0.0002557406483491
 10
809.46378522262034
 20
796.8571349057255
 30
-0.0002557409936814
 10
809.73336359544248
 20
796.50163074505542
 30
-0.0002557413137758
 10
809.97693172919003
 20
796.12509601571435
 30
-0.0002557416069258
 10
810.19300453796473
 20
795.72869163011444
 30
-0.0002557418714248
 10
810.38009693586787
 20
795.31357850066945
 30
-0.0002557421055662
 10
810.48451486995759
 20
795.02513786008433
 30
-0.0002557422402844
 10
810.53139873989096
 20
794.87818638662236
 30
-0.000255742302015
  0
LWPOLYLINE
  5
1E3
100
AcDbEntity
  8
ARJ70-1401
370
              15
390
0
  6
STYLE_01
 62
               7
100
AcDbPolyline
 90
       11
 70
             128
 10
781.17869524743548
 20
799.9539793000655
 42
-0.0003130575473794
 10
781.53292309651329
 20
799.95375751264055
 10
782.68426313893997
 20
799.95231576917467
 42
-0.0040992658990953
 10
785.34096507787035
 20
799.927207286054
 10
787.20048381012714
 20
799.89438485643996
 42
-0.0044767372020978
 10
791.45177305164771
 20
799.78126275241561
 42
-0.0021696207357742
 10
795.70278211357015
 20
799.61156480537375
 42
-0.0041663672868603
 10
799.95266042910453
 20
799.38794186487439
 10
800.66123421559143
 20
799.34473425051135
 42
-0.0029799090377532
 10
804.91194620729357
 20
799.0600959836928
 42
-0.0002372278287935
 10
805.26616210926454
 20
799.03408645164848
 42
-0.0002372278287935
  0
SPLINE
  5
1E4
100
AcDbEntity
  8
ARJ70-1401
370
              35
390
0
  6
Continuous
 62
               7
100
AcDbSpline
210
0.0
220
0.0
230
1.0
 70
               0
 71
               3
 72
               8
 73
               4
 74
               0
 42
0.000001
 43
0.000001
 40
0.0
 40
0.0
 40
0.0
 40
0.0
 40
1.0
 40
1.0
 40
1.0
 40
1.0
 10
1425.769421964957
 20
644.9539793499174
 30
-0.0002557361813117
 10
1428.1442916745971
 20
644.95397915610954
 30
-0.0002557361813117
 10
1430.3261279434259
 20
645.93750086045941
 30
-0.0002557361813117
 10
1431.8851276058269
 20
647.55130364784247
 30
-0.0002557361813116
  0
SPLINE
  5
1E5
100
AcDbEntity
  8
ARJ70-1401
370
              35
390
0
  6
Continuous
 62
               7
100
AcDbSpline
210
0.0
220
0.0
230
1.0
 70
               0
 71
               3
 72
               8
 73
               4
 74
               0
 42
0.000001
 43
0.000001
 40
0.0
 40
0.0
 40
0.0
 40
0.0
 40
1.0
 40
1.0
 40
1.0
 40
1.0
 10
1475.179102897084
 20
793.90395567875851
 30
-0.0002557361813164
 10
1474.9749585986251
 20
769.41905859035239
 30
-0.0002557361813184
 10
1472.0635484725451
 20
689.87135363735649
 30
-0.0002557361813229
 10
1431.8851180515819
 20
647.55130440901451
 30
-0.0002557361813116
  0
SPLINE
  5
1E6
100
AcDbEntity
  8
ARJ70-1401
370
              35
390
0
  6
Continuous
 62
               7
100
AcDbSpline
210
0.0
220
0.0
230
1.0
 70
               0
 71
               3
 72
              17
 73
              13
 74
               0
 42
0.000001
 43
0.000001
 40
0.0
 40
0.0
 40
0.0
 40
0.0
 40
1.0
 40
2.0
 40
3.0
 40
4.0
 40
5.0
 40
6.0
 40
7.0
 40
8.0
 40
9.0
 40
10.0
 40
10.0
 40
10.0
 40
10.0
 10
1469.179305102057
 20
799.9539793000655
 30
-0.000255736181316
 10
1469.51263145703
 20
799.95397965166251
 30
-0.000255736181316
 10
1470.1665053872659
 20
799.89964269579139
 30
-0.000255736181316
 10
1471.0964808881031
 20
799.6677279729355
 30
-0.000255736181316
 10
1471.9631219390401
 20
799.29800764917047
 30
-0.000255736181316
 10
1472.7539294846861
 20
798.80308541264037
 30
-0.000255736181316
 10
1473.4564044696599
 20
798.19556495148834
 30
-0.0002557361813161
 10
1474.0580478385739
 20
797.48804995385638
 30
-0.0002557361813161
 10
1474.5463605360419
 20
796.69314410788741
 30
-0.0002557361813162
 10
1474.908843506679
 20
795.82345110172434
 30
-0.0002557361813162
 10
1475.132997695099
 20
794.89157462350943
 30
-0.0002557361813163
 10
1475.1818819289781
 20
794.23727044876034
 30
-0.0002557361813164
 10
1475.1791028970849
 20
793.90395567875851
 30
-0.0002557361813164
  0
LWPOLYLINE
  5
1E7
100
AcDbEntity
  8
ARJ70-1401
370
              15
390
0
  6
STYLE_01
 62
               7
100
AcDbPolyline
 90
       19
 70
             128
 10
1125.1790001747461
 20
797.15338267228447
 42
-0.0001676467747477
 10
1121.326557213177
 20
797.15467437159577
 10
1108.7333973847719
 20
797.16311918329995
 42
-0.0013902965550388
 10
1079.6949138637583
 20
797.26333656860947
 10
1067.2932808012781
 20
797.3406216905862
 42
-0.0005431512833508
 10
1035.3306347959976
 20
797.57453081704512
 42
-0.000373385549706
 10
1003.3684613164551
 20
797.86702948889661
 10
1002.9192987756342
 20
797.87147540753381
 42
-0.0001940168070612
 10
970.0591498031547
 20
798.20948519026319
 10
969.47704308270568
 20
798.21569882406504
 42
-0.000028130003529
 10
935.45283236976491
 20
798.58080091957345
 10
934.73780587905321
 20
798.58851385481603
 42
0.0001190972470456
 10
899.28347364196952
 20
798.96251099628
 10
898.43552590826255
 20
798.97125374473228
 42
0.000235674540338
 10
861.28503682909786
 20
799.33678050639287
 10
852.39050272158988
 20
799.42010175246014
 42
0.0006632683951056
 10
797.45018710169302
 20
799.86187977440659
 10
789.01280524226047
 20
799.91853210739566
 42
0.0000659171846054
 10
783.62020200117945
 20
799.95402948118851
 42
0.0000659171846054
  0
LWPOLYLINE
  5
1E8
100
AcDbEntity
  8
ARJ70-1401
370
              15
390
0
  6
STYLE_01
 62
               7
100
AcDbPolyline
 90
      144
 70
             128
 10
1132.9571125114935
 20
759.17552585589453
 42
0.0034253736809962
 10
1133.0547447898625
 20
759.27450508583956
 10
1133.2246811912928
 20
759.44916322455106
 42
0.0260919223443576
 10
1133.6369393626371
 20
759.91965546615234
 10
1133.7015266669782
 20
760.00162380690733
 42
0.0127709440738921
 10
1134.2013073613059
 20
760.67034802725107
 10
1134.2016012844824
 20
760.67076299981409
 42
0.025069915164151
 10
1134.6495260546039
 20
761.37555758647125
 10
1134.7873394289245
 20
761.61849476773534
 42
0.0246846411875761
 10
1135.163464356998
 20
762.36512489789834
 10
1135.220022663744
 20
762.49270057036574
 42
0.0123014028669271
 10
1135.4334678886985
 20
763.00801184114493
 42
0.0123223500056309
 10
1135.6212683639478
 20
763.53315008722541
 42
0.0123575455010843
 10
1135.7829114374367
 20
764.06685879586644
 10
1135.8200121949712
 20
764.20124198703149
 42
0.0250708917317023
 10
1136.0017433129392
 20
765.01683076495897
 10
1136.0369315781309
 20
765.22292363100973
 42
0.0192385000901059
 10
1136.1275057430651
 20
765.91230268316031
 42
0.0131044844994791
 10
1136.1733509407386
 20
766.60636980956508
 10
1136.1761165843336
 20
766.67590963875523
 42
0.0264828513950662
 10
1136.1651085276108
 20
767.50957541679338
 10
1136.155913236777
 20
767.6483381485948
 42
0.0129455681522234
 10
1136.1047555958103
 20
768.20247094307786
 42
0.0127950810561466
 10
1136.0251518046596
 20
768.75324157862497
 10
1136.0016320449854
 20
768.89097922366307
 42
0.0250699151237233
 10
1135.819997655932
 20
769.70607489695203
 10
1135.7456638990691
 20
769.97530619716008
 42
0.024684641191664
 10
1135.4836771582143
 20
770.76921391245344
 10
1135.4334602973306
 20
770.89941629780253
 42
0.0123014028678161
 10
1135.2200087693182
 20
771.41472495776918
 42
0.0123223500051002
 10
1134.9814749440129
 20
771.91884876219171
 42
0.012357545501263
 10
1134.7183848103523
 20
772.41053672264172
 10
1134.6495957418394
 20
772.53179418563593
 42
0.0250708917309196
 10
1134.2013906921754
 20
773.2370058470359
 10
1134.0805428899719
 20
773.40761737111086
 42
0.0192385000911631
 10
1133.657123893614
 20
773.95912757991914
 42
0.0131044844989302
 10
1133.1987617720947
 20
774.482324601757
 10
1133.1515452926515
 20
774.53345229188108
 42
0.0264828513945877
 10
1132.5542706962015
 20
775.11515914521965
 10
1132.4496485750672
 20
775.20677716134765
 42
0.0129455681538603
 10
1132.0216436035712
 20
775.56243430316829
 42
0.0127950810545718
 10
1131.5759015717663
 20
775.89559957390998
 10
1131.4618753673778
 20
775.97636381518396
 42
0.02506991512414
 10
1130.7570807812835
 20
776.4242885848862
 10
1130.5141435996484
 20
776.56210195942299
 42
0.0246846411912676
 10
1129.76751346949
 20
776.93822688750367
 10
1129.6399377970208
 20
776.99478519425088
 42
0.0123014028689263
 10
1129.1246265262437
 20
777.20823041920414
 42
0.0123223500039823
 10
1128.5994882801629
 20
777.39603089445302
 42
0.0123575455018479
 10
1128.0657795715231
 20
777.5576739679417
 10
1127.9313963803565
 20
777.59477472547655
 42
0.0250708917309337
 10
1127.115807602429
 20
777.77650584344474
 10
1126.9097147363786
 20
777.81169410863686
 42
0.0192385000913271
 10
1126.2203356842283
 20
777.9022682735706
 42
0.0131044844984628
 10
1125.5262685578246
 20
777.94811347124346
 10
1125.4567287286336
 20
777.95087911483859
 42
0.0264828513950607
 10
1124.6230629505949
 20
777.93987105811664
 10
1124.484300218794
 20
777.93067576728322
 42
0.0129455681533508
 10
1123.9301674243106
 20
777.87951812631582
 42
0.0127950810551215
 10
1123.3793967887666
 20
777.79991433516454
 10
1123.2416591437257
 20
777.77639457549014
 42
0.0250699151237288
 10
1122.4265634704354
 20
777.59476018643659
 10
1122.1573321702276
 20
777.52042642957394
 42
0.0246846411916917
 10
1121.3634244549353
 20
777.25843968871993
 10
1121.2332220695866
 20
777.20822282783661
 42
0.0123014028678838
 10
1120.7179134096198
 20
776.99477129982415
 42
0.0123223500049554
 10
1120.2137896051968
 20
776.75623747451891
 42
0.0123575455016333
 10
1119.7221016447438
 20
776.49314734085669
 10
1119.6008441817523
 20
776.42435827234533
 42
0.0250708917307403
 10
1118.8956325203521
 20
775.97615322268098
 10
1118.7250209962781
 20
775.85530542047786
 42
0.019238500091507
 10
1118.1735107874697
 20
775.43188642411928
 42
0.0131044844984099
 10
1117.6503137656307
 20
774.97352430259878
 10
1117.5991860755075
 20
774.92630782315644
 42
0.0264828513949498
 10
1117.0174792221687
 20
774.32903322670643
 10
1116.9258612060405
 20
774.22441110557168
 42
0.0129455681531802
 10
1116.5702040642202
 20
773.79640613407673
 42
0.0127950810554536
 10
1116.2370387934795
 20
773.35066410227375
 10
1116.1562745522046
 20
773.23663789788361
 42
0.0250699151235509
 10
1115.7083497825015
 20
772.53184331178772
 10
1115.5705364079652
 20
772.28890613015415
 42
0.0246846411922724
 10
1115.1944114798848
 20
771.54227599999501
 10
1115.1378531731389
 20
771.41470032752761
 42
0.0123014028671066
 10
1114.9244079481846
 20
770.89938905674853
 42
0.0123223500053577
 10
1114.736607472935
 20
770.37425081066772
 42
0.0123575455011461
 10
1114.5749643994461
 20
769.84054210202703
 10
1114.5378636419114
 20
769.7061589108614
 42
0.0250708917317581
 10
1114.3561325239436
 20
768.89057013293461
 10
1114.3209442587518
 20
768.6844772668826
 42
0.0192385000901832
 10
1114.2303700938178
 20
767.99509821473282
 42
0.0131044844994802
 10
1114.1845248961445
 20
767.30103108832827
 10
1114.1817592525495
 20
767.23149125913812
 42
0.0264828513948008
 10
1114.1927673092723
 20
766.39782548110009
 10
1114.2019626001056
 20
766.25906274929912
 42
0.0129455681523918
 10
1114.2531202410723
 20
765.70492995481561
 42
0.0127950810562503
 10
1114.3327240322228
 20
765.15415931927168
 10
1114.3562437918974
 20
765.0164216742304
 42
0.0250699151234291
 10
1114.5378781809516
 20
764.20132600093996
 10
1114.6122119378133
 20
763.93209470073555
 42
0.0246846411919002
 10
1114.8741986786688
 20
763.13818698544026
 10
1114.924415539555
 20
763.00798460008514
 42
0.0123014028674391
 10
1115.1378670675647
 20
762.4926759401244
 42
0.0123223500053971
 10
1115.3764008928697
 20
761.98855213570175
 42
0.0123575455012344
 10
1115.6394910265303
 20
761.49686417525061
 10
1115.7082800950427
 20
761.37560671225719
 42
0.0250708917315921
 10
1116.1564851447079
 20
760.67039505085654
 10
1116.2773329469105
 20
760.49978352678386
 42
0.0192385000903551
 10
1116.7007519432693
 20
759.94827331797455
 42
0.0131044844991368
 10
1117.1591140647884
 20
759.42507629613624
 10
1117.2063305442316
 20
759.37394860601239
 42
0.0264828513951214
 10
1117.8036051406821
 20
758.79224175267439
 10
1117.9082272618166
 20
758.70062373654639
 42
0.0129455681522191
 10
1118.3362322333121
 20
758.34496659472529
 42
0.0127950810564109
 10
1118.7819742651168
 20
758.01180132398304
 10
1118.896000469505
 20
757.93103708270951
 42
0.0250699151232196
 10
1119.6007950555995
 20
757.48311231300795
 10
1119.8437322372356
 20
757.34529893847048
 42
0.0246846411920662
 10
1120.5903623673935
 20
756.96917401039047
 10
1120.7179380398579
 20
756.91261570364554
 42
0.012301402867119
 10
1121.2332493106396
 20
756.69917047868967
 42
0.0123223500055104
 10
1121.7583875567202
 20
756.51137000344011
 42
0.0123575455013821
 10
1122.2920962653607
 20
756.34972692995166
 10
1122.4264794565267
 20
756.3126261724168
 42
0.0250708917312639
 10
1123.2420682344546
 20
756.13089505444884
 10
1123.4481611005053
 20
756.09570678925695
 42
0.0192385000908077
 10
1124.1375401526554
 20
756.00513262432321
 42
0.0131044844987829
 10
1124.831607279061
 20
755.95928742665001
 10
1124.9011471082504
 20
755.95652178305488
 42
0.0264828513954611
 10
1125.7348128862886
 20
755.96752983977751
 10
1125.8735756180893
 20
755.97672513061116
 42
0.0129455681519943
 10
1126.4277084125729
 20
756.02788277157799
 42
0.0127950810563523
 10
1126.9784790481176
 20
756.10748656272858
 10
1127.1162166931576
 20
756.1310063224031
 42
0.0250699151233281
 10
1127.9313123664474
 20
756.31264071145677
 10
1128.2005436666554
 20
756.38697446831952
 42
0.0246846411919436
 10
1128.9944513819485
 20
756.64896120917388
 42
0.0122964757336618
 10
1129.7676436655058
 20
756.96922455419917
 42
0.0246966666143018
 10
1130.5142567804467
 20
757.34535028953712
 42
0.0124476150280009
 10
1131.2310949316652
 20
757.77598899189843
 42
0.0253644782176344
 10
1131.9121542946996
 20
758.25871385571145
 10
1132.0217580517769
 20
758.34507786492611
 42
0.0129794142416191
 10
1132.4495709108526
 20
758.70055963400216
 42
0.013184720496485
 10
1132.8581428718326
 20
759.07787174820226
 42
0.00334486351208
 10
1132.9571125114935
 20
759.17552585589453
 42
0.00334486351208
  0
LINE
  5
1E9
100
AcDbEntity
  8
ARJ70-1401
370
              15
390
0
  6
STYLE_01
 62
               7
100
AcDbLine
 10
1125.178875662139
 20
653.48231308044353
 30
0.0
 11
1146.3725806226
 21
653.48231308044353
 31
0.0
  0
LINE
  5
1EA
100
AcDbEntity
  8
ARJ70-1401
370
              15
390
0
  6
STYLE_01
 62
               7
100
AcDbLine
 10
1125.178875662139
 20
648.25404159606944
 30
0.0
 11
1149.0151016751081
 21
648.25404159606944
 31
0.0
  0
LINE
  5
1EB
100
AcDbEntity
  8
ARJ70-1401
370
              15
390
0
  6
STYLE_01
 62
               7
100
AcDbLine
 10
1125.178875662139
 20
622.95403944715042
 30
0.0
 11
1148.1163566863629
 21
622.95403944715042
 31
0.0
  0
LWPOLYLINE
  5
1EC
100
AcDbEntity
  8
ARJ70-1401
370
              15
390
0
  6
STYLE_01
 62
               7
100
AcDbPolyline
 90
       10
 70
             128
 10
1151.9852600972199
 20
644.83195183849136
 10
1151.9804026402871
 20
644.79765222878098
 42
0.0051948382159712
 10
1151.9328583193619
 20
644.43481727125084
 10
1151.9298979028606
 20
644.41024576387349
 42
0.0039566855032058
 10
1151.8945327778856
 20
644.09577997591123
 42
0.0039572723970513
 10
1151.8641491871597
 20
643.78079385014655
 10
1151.857609319138
 20
643.70687855754852
 42
0.0076645012435224
 10
1151.8237455831659
 20
643.24330224273376
 10
1151.8194747483471
 20
643.16922579849927
 10
1151.8189077301261
 20
643.15934863375344
  0
LINE
  5
1ED
100
AcDbEntity
  8
ARJ70-1401
370
              15
390
0
  6
STYLE_01
 62
               7
100
AcDbLine
 10
1151.111467963935
 20
625.78284041269137
 30
0.0
 11
1151.8189014164291
 21
643.15931463172444
 31
0.0
  0
SPLINE
  5
1EE
100
AcDbEntity
  8
ARJ70-1401
370
              15
390
0
  6
Continuous
 62
               7
100
AcDbSpline
210
0.0
220
0.0
230
1.0
 70
               0
 71
               3
 72
              17
 73
              13
 74
               0
 42
0.000001
 43
0.000001
 40
0.0
 40
0.0
 40
0.0
 40
0.0
 40
1.0
 40
2.0
 40
3.0
 40
4.0
 40
5.0
 40
6.0
 40
7.0
 40
8.0
 40
9.0
 40
10.0
 40
10.0
 40
10.0
 40
10.0
 10
1439.8264275655531
 20
794.87818638056035
 30
-0.000255742302015
 10
1432.1720325418059
 20
774.75034109268142
 30
-0.000255736181681
 10
1414.6502024993879
 20
743.78620201658543
 30
-0.0002557361817634
 10
1384.37020305905
 20
716.79559862971735
 30
-0.0002557361795272
 10
1353.227295228151
 20
700.15670897088842
 30
-0.0002557361796902
 10
1322.9040219969229
 20
688.0449606101364
 30
-0.0002557361837551
 10
1292.7857398669571
 20
679.9504648383155
 30
-0.0002557361801504
 10
1262.5066565394491
 20
674.36252763515847
 30
-0.0002557361854839
 10
1232.9595374814469
 20
670.58492571067052
 30
-0.0002557359871411
 10
1205.237517468692
 20
667.98693427882142
 30
-0.0002557353213139
 10
1180.8676857612329
 20
666.06792350940248
 30
-0.0002557339369794
 10
1169.580699134732
 20
665.42352056428547
 30
-0.0002557323719464
 10
1165.808840281765
 20
665.29067003455941
 30
-0.0002557313880129
  0
LINE
  5
1EF
100
AcDbEntity
  8
ARJ70-1401
370
              15
390
0
  6
STYLE_01
 62
               7
100
AcDbLine
 10
1125.178875662139
 20
664.95404496818639
 30
0.0
 11
1163.7668785016569
 21
664.95404496818639
 31
0.0
  0
LWPOLYLINE
  5
1F0
100
AcDbEntity
  8
ARJ70-1401
370
              15
390
0
  6
STYLE_01
 62
               7
100
AcDbPolyline
 90
       36
 70
             128
 10
1148.0204175022679
 20
652.16563367613742
 42
-0.0014606531573477
 10
1148.0208684830895
 20
652.18319542365816
 10
1148.0214949923488
 20
652.20509890495123
 42
-0.0087568358131534
 10
1148.0243242778708
 20
652.26641674261737
 10
1148.026266137701
 20
652.29689745936787
 42
-0.0116419207204943
 10
1148.0368937256503
 20
652.41887969094341
 10
1148.0378554107926
 20
652.42757206280908
 42
-0.0116027401799255
 10
1148.0563291605663
 20
652.56524201178468
 10
1148.0563624957713
 20
652.56545314240429
 42
-0.0115657703388766
 10
1148.0811167100674
 20
652.70169940046367
 10
1148.0811516127342
 20
652.7018690891357
 42
-0.0115322613680705
 10
1148.1120933985808
 20
652.83648953768363
 10
1148.1121266484743
 20
652.83662030876758
 42
-0.0115035138587621
 10
1148.1491628792949
 20
652.96941325633838
 10
1148.1491916206426
 20
652.9695078431148
 42
-0.0114801712236978
 10
1148.19222870983
 20
653.10027113421381
 42
-0.0114690706265651
 10
1148.2411950529181
 20
653.22886485701883
 42
-0.0114559196331452
 10
1148.2959657365832
 20
653.35499535315694
 42
-0.0114506664741904
 10
1148.3564437566451
 20
653.4784617304548
 42
-0.0114522181929573
 10
1148.4225330101826
 20
653.59906491891957
 42
-0.0114670914845299
 10
1148.4940986906183
 20
653.71654558620276
 10
1148.4941376763531
 20
653.71660640027039
 42
-0.0114855474383004
 10
1148.5710994819704
 20
653.83079904924512
 10
1148.5711616269598
 20
653.83088683709195
 42
-0.0115102098740901
 10
1148.6534200401575
 20
653.94159305746427
 10
1148.6535087861962
 20
653.94170692348609
 42
-0.0115402871471108
 10
1148.7409639747395
 20
654.04872821695699
 10
1148.7410830947988
 20
654.04886730861506
 42
-0.0115747878570721
 10
1148.8336348832443
 20
654.15200517884796
 10
1148.8337885065564
 20
654.15216860039686
 42
-0.0116125234625426
 10
1148.9313363507713
 20
654.25122463319485
 10
1148.9439384483255
 20
654.26344070392156
 42
-0.0116506660963225
 10
1149.0210153018811
 20
654.33474939738505
 10
1149.0340783124852
 20
654.34628174853788
 42
-0.0058401906622462
 10
1149.0872262524035
 20
654.39210869312944
 42
-0.0014609765468064
 10
1149.1006969856419
 20
654.40338516092936
 42
-0.0014609765468064
  0
LWPOLYLINE
  5
1F1
100
AcDbEntity
  8
ARJ70-1401
370
              15
390
0
  6
STYLE_01
 62
               7
100
AcDbPolyline
 90
       61
 70
             128
 10
1151.9852600972199
 20
644.83195183849136
 42
0.0031046202302381
 10
1151.9918179976421
 20
644.88024945761754
 10
1151.9964436471043
 20
644.91597908335439
 42
0.0127974328870359
 10
1152.0088780980905
 20
645.03609498417234
 10
1152.0117436473306
 20
645.07296731535439
 42
0.0130851296458017
 10
1152.0213363656715
 20
645.25946522603022
 10
1152.0213827318621
 20
645.26130315889714
 42
0.013355558874322
 10
1152.0211104172968
 20
645.44436901563358
 10
1152.0210628152215
 20
645.4460567615904
 42
0.0136157336196459
 10
1152.0111083818076
 20
645.62546872719849
 10
1152.0109813740009
 20
645.62700179775311
 42
0.0138628209090739
 10
1151.9915266376229
 20
645.80253699942728
 10
1151.9913355256954
 20
645.80391201305042
 42
0.0140948166542671
 10
1151.9625616187477
 20
645.97534640168794
 10
1151.9623223397805
 20
645.9765612040751
 42
0.0143097364796333
 10
1151.9244098287177
 20
646.14366944256869
 10
1151.9241388313108
 20
646.14472321235189
 42
0.0145056493626397
 10
1151.8772678510297
 20
646.30727857877594
 10
1151.8769819507547
 20
646.30817192324025
 42
0.0146807066347932
 10
1151.8213323611608
 20
646.46594622371515
 10
1151.8210485855323
 20
646.46668123488644
 42
0.01483321694397
 10
1151.7568001255181
 20
646.61944476803762
 10
1151.7565355110951
 20
646.62002514235746
 42
0.0149615557302752
 10
1151.6838680450987
 20
646.76754656117907
 10
1151.6836395860566
 20
646.76797734133743
 42
0.0150646692422843
 10
1151.6027330047373
 20
646.91002406119321
 10
1151.6025568289685
 20
646.91031278531068
 42
0.0151404770589283
 10
1151.5135925076727
 20
647.04664929960632
 10
1151.513486611841
 20
647.04680131991188
 42
0.0151913821873264
 10
1151.4166420654731
 20
647.17719616714862
 42
0.0152069627051711
 10
1151.3120791190318
 20
647.30143694184756
 42
0.0152044097048914
 10
1151.2001827370391
 20
647.41906330458494
 10
1151.2001036075803
 20
647.41914157668498
 42
0.0151688046218497
 10
1151.0811100306992
 20
647.52991024850655
 10
1151.0809123847553
 20
647.53008334604965
 42
0.0151060745241809
 10
1150.9550285719602
 20
647.63378331291597
 10
1150.9547022814991
 20
647.63403595356908
 42
0.0150162636241708
 10
1150.8221358158269
 20
647.73045490922505
 10
1150.8216709732428
 20
647.73077210723829
 42
0.0149004370396847
 10
1150.6826277849079
 20
647.81969872625973
 10
1150.6820160915622
 20
647.820064731093
 42
0.0147598043432405
 10
1150.5367006283714
 20
647.90128824073213
 10
1150.5359352974897
 20
647.90168684390972
 42
0.0145958133484916
 10
1150.3845504692733
 20
647.97499685853859
 10
1150.383626256244
 20
647.97541157153398
 42
0.0144100976484332
 10
1150.2263734343958
 20
648.04059790279132
 10
1150.2252866228932
 20
648.04101214243803
 42
0.0142044402847475
 10
1150.0623656639059
 20
648.09786461856152
 10
1150.0611140282317
 20
648.09826188229783
 42
0.0139807337927689
 10
1149.8927233218305
 20
648.14657017800778
 10
1149.891306066419
 20
648.1469342063865
 42
0.0137409409049227
 10
1149.7176426049143
 20
648.18648768705225
 10
1149.7160602845838
 20
648.18680261042391
 42
0.0134870542343255
 10
1149.5373197501485
 20
648.21739019407573
 10
1149.5355741758631
 20
648.21764066117748
 42
0.0132209760127531
 10
1149.3519510468964
 20
648.23905073249716
 10
1149.3276754816543
 20
648.24123247922023
 42
0.0129217633112137
 10
1149.1841770280735
 20
648.25039886682885
 10
1149.1607454150717
 20
648.25128850479518
 42
0.006350061037156
 10
1149.0638421744779
 20
648.25373575843366
 42
0.0031372900492772
 10
1149.0151016751081
 20
648.2540415960674
 42
0.0031372900492772
  0
LWPOLYLINE
  5
1F2
100
AcDbEntity
  8
ARJ70-1401
370
              15
390
0
  6
STYLE_01
 62
               7
100
AcDbPolyline
 90
       49
 70
             128
 10
1152.838720568732
 20
614.95404429763551
 42
0.0039709695740318
 10
1152.9357466466081
 20
614.95481488499286
 10
1152.9598452859123
 20
614.95519769502891
 42
0.0079504998007064
 10
1153.1049891366065
 20
614.95981256802247
 10
1153.1764931093576
 20
614.96322483056747
 42
0.0158817693017664
 10
1153.4638446794256
 20
614.98610191231228
 10
1153.511916963359
 20
614.99147002746622
 42
0.0158164001235252
 10
1153.8852197130523
 20
615.04515709404052
 10
1153.8868419723108
 20
615.04544303215812
 42
0.0157275327823515
 10
1154.2527964633109
 20
615.12188375912319
 10
1154.2541312142296
 20
615.12220667974361
 42
0.0156255284174109
 10
1154.6119323904954
 20
615.22069993166235
 10
1154.6130117492414
 20
615.22103366171723
 42
0.0155173318907847
 10
1154.9618553780501
 20
615.34087270135694
 10
1154.962710192988
 20
615.34119634446893
 42
0.0154094438983193
 10
1155.3017938737189
 20
615.48166961397567
 10
1155.302452767196
 20
615.48196668073092
 42
0.0153077688779065
 10
1155.6309767616094
 20
615.64235877679369
 10
1155.6314656165362
 20
615.64261626539349
 42
0.0152173714884367
 10
1155.9486331403837
 20
615.82220882831405
 10
1155.9489740842125
 20
615.82241583105838
 42
0.0151427295386706
 10
1156.2539924798098
 20
616.02048927721842
 10
1156.2542062014538
 20
616.02063745316264
 42
0.0150865371109827
 10
1156.5462832440976
 20
616.2364691568481
 42
0.0150480640424221
 10
1156.8247378826418
 20
616.46942248551773
 42
0.0150403125599264
 10
1157.0885849579281
 20
616.7186199522846
 42
0.0150577923984842
 10
1157.337047484561
 20
616.98332738838781
 42
0.0150868483851399
 10
1157.5691953892097
 20
617.26261376735101
 10
1157.5693549605273
 20
617.26281797053718
 42
0.0151427424169063
 10
1157.7845106785994
 20
617.55603670082769
 10
1157.7847369771957
 20
617.55636553578768
 42
0.0152175269402039
 10
1157.9821354259773
 20
617.86276874973521
 10
1157.9824203740593
 20
617.8632420889362
 42
0.0153079139055968
 10
1158.1612974180346
 20
618.18207895767659
 10
1158.1616316177422
 20
618.18271986439811
 42
0.0154096217798918
 10
1158.3212246417415
 20
618.51323600346427
 10
1158.3215965371792
 20
618.5140709661822
 42
0.0155175243410235
 10
1158.4611455867296
 20
618.85550868983137
 10
1158.4615403601044
 20
618.85656724511739
 42
0.0156257330526863
 10
1158.5802892072511
 20
619.2081660158949
 10
1158.5806877548694
 20
619.20948014578812
 42
0.015727739715005
 10
1158.6778848886252
 20
619.57047729716328
 10
1158.6782629138406
 20
619.57208055561728
 42
0.0158165690603155
 10
1158.7531624133676
 20
619.94171226188553
 10
1158.7612671208046
 20
619.98941440014937
 42
0.0158761244753721
 10
1158.8005016900211
 20
620.27496292960552
 10
1158.8054674232758
 20
620.32217404137975
 42
0.0079539004371377
 10
1158.8226366712024
 20
620.51481958943384
 42
0.0039708607909301
 10
1158.828943123875
 20
620.6116462287174
 42
0.0039708607909301
  0
LWPOLYLINE
  5
1F3
100
AcDbEntity
  8
ARJ70-1401
370
              15
390
0
  6
STYLE_01
 62
               7
100
AcDbPolyline
 90
       61
 70
             128
 10
1148.1163566863629
 20
622.95403944715042
 42
0.0027403820601792
 10
1148.1567951303853
 20
622.95426108238792
 10
1148.1867869866142
 20
622.95458985131177
 42
0.0112165583205619
 10
1148.2871327195162
 20
622.95794201041019
 10
1148.3176892808183
 20
622.95964963081587
 42
0.0114087279773332
 10
1148.4737233826424
 20
622.97194587401634
 10
1148.4748940136005
 20
622.97206505403346
 42
0.0115879979613893
 10
1148.6278620363712
 20
622.99122936430092
 10
1148.6289345987739
 20
622.99138906305643
 42
0.0117593911860885
 10
1148.7787037480257
 20
623.01730251338438
 10
1148.7796770689581
 20
623.01749459615644
 42
0.0119213277410797
 10
1148.9261139911714
 20
623.05003869747634
 10
1148.9269874594952
 20
623.05025479079575
 42
0.0120728051934712
 10
1149.0699582170651
 20
623.08931126626851
 10
1149.0707318210507
 20
623.08954280725379
 42
0.0122128496861698
 10
1149.2101018592252
 20
623.13499353867348
 10
1149.2107762178057
 20
623.13523183002121
 42
0.0123405258554974
 10
1149.3464103368378
 20
623.18695879980896
 10
1149.3469867239851
 20
623.18719506963578
 42
0.0124549527189166
 10
1149.4787490589531
 20
623.24508029888852
 10
1149.4792294240572
 20
623.24530576614541
 42
0.0125553117083743
 10
1149.6069834277921
 20
623.30923124587105
 10
1149.6073703958871
 20
623.30943718327921
 42
0.0126408832712005
 10
1149.7309788479415
 20
623.37928481610231
 10
1149.7312757619691
 20
623.37946264234813
 42
0.0127109757257417
 10
1149.8506007130925
 20
623.45511412545147
 10
1149.8508114618153
 20
623.45525537464289
 42
0.0127652410832065
 10
1149.9657144862495
 20
623.53659233038968
 10
1149.965844154787
 20
623.53668918112896
 42
0.0128026096418481
 10
1150.0761853959179
 20
623.62359221795282
 42
0.0128187862870243
 10
1150.1818797138403
 20
623.715987900865
 42
0.0128299304417806
 10
1150.2826628070836
 20
623.81365226798459
 42
0.012815719615643
 10
1150.3783228076272
 20
623.91637075432573
 10
1150.3783987258494
 20
623.91645658318669
 42
0.0127860544651384
 10
1150.4688238873068
 20
624.02411177368595
 10
1150.4689533693486
 20
624.02427418488048
 42
0.0127400855608457
 10
1150.5540180947826
 20
624.1367347535604
 10
1150.5541928654961
 20
624.13697847606909
 42
0.0126778771761966
 10
1150.6337706565898
 20
624.25411238467052
 10
1150.6339827626855
 20
624.25444228618869
 42
0.0125999559826053
 10
1150.7079475587291
 20
624.37611827942033
 10
1150.7081887114039
 20
624.37653848891773
 42
0.0125069034819149
 10
1150.7764146804852
 20
624.50262596166351
 10
1150.7766763951413
 20
624.50313994435567
 42
0.0123994089190971
 10
1150.8390378775662
 20
624.6335089695425
 10
1150.8393115375338
 20
624.63411951054752
 42
0.0122782481278583
 10
1150.8956829744452
 20
624.76864084028819
 10
1150.8959599008526
 20
624.76935004770155
 42
0.0121442712780646
 10
1150.9462157660219
 20
624.90789510773743
 10
1150.9464872846293
 20
624.90870442285143
 42
0.0119983886920471
 10
1150.990502018926
 20
625.05114529874209
 10
1150.9907595236009
 20
625.05205551405163
 42
0.0118415565330321
 10
1151.0284074733634
 20
625.1982649301134
 10
1151.0286424851724
 20
625.19927621408999
 42
0.0116747608425424
 10
1151.0597978458497
 20
625.34912750573676
 10
1151.0600020669267
 20
625.35023943284148
 42
0.0115350145250849
 10
1151.0845277480989
 20
625.50360802410353
 10
1151.0874155217793
 20
625.52478914022879
 42
0.0168735847333631
 10
1151.1075287972508
 20
625.72176480663848
 10
1151.1089396305131
 20
625.74247614728108
 42
0.0027288171742553
 10
1151.111467963935
 20
625.78284041269137
 42
0.0027288171742553
  0
LWPOLYLINE
  5
1F4
100
AcDbEntity
  8
ARJ70-1401
370
              15
390
0
  6
STYLE_01
 62
               7
100
AcDbPolyline
 90
       25
 70
             128
 10
1158.8213345365971
 20
662.49276640505434
 42
-0.0015673916770066
 10
1158.8793408527863
 20
662.54072948056478
 10
1158.9519281094413
 20
662.60036681793622
 42
-0.0093936728709105
 10
1159.1583252436371
 20
662.76354473399601
 10
1159.2626909388757
 20
662.84291646138593
 42
-0.0124938113389997
 10
1159.6885678099738
 20
663.15031652377274
 10
1159.7194813618808
 20
663.17147581133963
 42
-0.0124619929545468
 10
1160.2207008381361
 20
663.49650365767434
 10
1160.221123845942
 20
663.4967632266497
 42
-0.0124364625053429
 10
1160.7370421871001
 20
663.795943224236
 10
1160.7373160887601
 20
663.79609308359306
 42
-0.012418050204732
 10
1161.2669078497954
 20
664.06898395645442
 42
-0.0124104662521221
 10
1161.8092703080442
 20
664.31520475412526
 42
-0.0124047035100391
 10
1162.363100312793
 20
664.53418355581766
 42
-0.0124073386790632
 10
1162.9273679631794
 20
664.72549784521891
 42
-0.0124266320802111
 10
1163.5006526722277
 20
664.88862436903355
 10
1163.5010460344688
 20
664.88872580383816
 42
-0.0124486846214623
 10
1164.0825240181023
 20
665.02332548446441
 10
1164.0831051816922
 20
665.02344485163815
 42
-0.0124780941011498
 10
1164.6717346376745
 20
665.12911151555204
 10
1164.7088498157377
 20
665.13482218885838
 42
-0.0125116821702102
 10
1165.2307058346839
 20
665.20179826363426
 10
1165.2677155714546
 20
665.20560967379356
 42
-0.0094083743746031
 10
1165.7179400604045
 20
665.24342977935987
 42
-0.0015698543607345
 10
1165.793222162225
 20
665.24809194721354
 42
-0.0015698543607345
  0
LINE
  5
1F5
100
AcDbEntity
  8
ARJ70-1401
370
              15
390
0
  6
STYLE_01
 62
               7
100
AcDbLine
 10
1147.4694414228491
 20
622.95403944715042
 30
0.0
 11
1147.2873879024919
 21
614.95404429763551
 31
0.0
  0
LINE
  5
1F6
100
AcDbEntity
  8
ARJ70-1401
370
              15
390
0
  6
STYLE_01
 62
               7
100
AcDbLine
 10
1148.0204175022679
 20
652.16563367613742
 30
0.0
 11
1147.93140255975
 21
648.2540415960674
 31
0.0
  0
LINE
  5
1F7
100
AcDbEntity
  8
ARJ70-1401
370
              15
390
0
  6
STYLE_01
 62
               7
100
AcDbLine
 10
1158.8213345365971
 20
662.49276640505434
 30
0.0
 11
1149.1006580178159
 21
654.40369293307151
 31
0.0
  0
SPLINE
  5
1F8
100
AcDbEntity
  8
ARJ70-1401
370
              15
390
0
  6
Continuous
 62
               7
100
AcDbSpline
210
0.0
220
0.0
230
1.0
 70
               0
 71
               3
 72
              23
 73
              19
 74
               0
 42
0.000001
 43
0.000001
 40
0.0
 40
0.0
 40
0.0
 40
0.0
 40
1.0
 40
2.0
 40
3.0
 40
4.0
 40
5.0
 40
6.0
 40
7.0
 40
8.0
 40
9.0
 40
10.0
 40
11.0
 40
12.0
 40
13.0
 40
14.0
 40
15.0
 40
16.0
 40
16.0
 40
16.0
 40
16.0
 10
1445.152758795474
 20
799.04181527092749
 30
-0.0002557361813169
 10
1444.9988354829641
 20
799.03179296186647
 30
-0.0002557363503439
 10
1444.693718594046
 20
799.00009450453342
 30
-0.0002557366862428
 10
1444.2457175548659
 20
798.91874621331647
 30
-0.0002557371819192
 10
1443.8088758957799
 20
798.8047582292935
 30
-0.0002557376677171
 10
1443.3846787026871
 20
798.6592914648794
 30
-0.0002557381419298
 10
1442.974611061484
 20
798.48350683248634
 30
-0.0002557386028507
 10
1442.580158058071
 20
798.27856524452739
 30
-0.0002557390487734
 10
1442.202804778344
 20
798.04562761341742
 30
-0.0002557394779911
 10
1441.8440363082009
 20
797.78585485156839
 30
-0.0002557398887974
 10
1441.5053377335421
 20
797.5004078713954
 30
-0.0002557402794856
 10
1441.1881941402639
 20
797.19044758530947
 30
-0.0002557406483491
 10
1440.894090614265
 20
796.8571349057255
 30
-0.0002557409936814
 10
1440.6245122414421
 20
796.50163074505542
 30
-0.0002557413137758
 10
1440.3809441076951
 20
796.12509601571435
 30
-0.0002557416069258
 10
1440.1648712989211
 20
795.72869163011444
 30
-0.0002557418714248
 10
1439.977778901017
 20
795.31357850066945
 30
-0.0002557421055662
 10
1439.873360966928
 20
795.02513786008433
 30
-0.0002557422402844
 10
1439.826477096994
 20
794.87818638662236
 30
-0.000255742302015
  0
LWPOLYLINE
  5
1F9
100
AcDbEntity
  8
ARJ70-1401
370
              15
390
0
  6
STYLE_01
 62
               7
100
AcDbPolyline
 90
       11
 70
             128
 10
1469.17918058945
 20
799.9539793000655
 42
0.0003130575474237
 10
1468.8249527403682
 20
799.95375751264044
 10
1467.6736126979454
 20
799.95231576917422
 42
0.0040992658989243
 10
1465.016910759017
 20
799.92720728605332
 10
1463.1573920267581
 20
799.89438485643973
 42
0.0044767372021893
 10
1458.9061027852374
 20
799.7812627524155
 42
0.0021711210311983
 10
1454.6550937233153
 20
799.61156480537352
 42
0.0041663672869153
 10
1450.4052154077835
 20
799.38794186487451
 10
1449.6966416212924
 20
799.34473425051112
 42
0.0029799090377253
 10
1445.445929629592
 20
799.0600959836928
 42
0.0002372262612265
 10
1445.091713727621
 20
799.03408645164848
 42
0.0002372262612265
  0
LWPOLYLINE
  5
1FA
100
AcDbEntity
  8
ARJ70-1401
370
              15
390
0
  6
STYLE_01
 62
               7
100
AcDbPolyline
 90
       19
 70
             128
 10
1125.178875662139
 20
797.15338267228447
 42
0.0001676467747477
 10
1129.0313186237295
 20
797.15467437159577
 10
1141.6244784521132
 20
797.16311918329984
 42
0.0013902965550438
 10
1170.6629619731248
 20
797.26333656860947
 10
1183.0645950356163
 20
797.34062169058654
 42
0.000543151283338
 10
1215.0272410408875
 20
797.57453081704534
 42
0.0003733855496688
 10
1246.9894145203796
 20
797.8670294888957
 10
1247.438577061251
 20
797.87147540753335
 42
0.0001940168071327
 10
1280.2987260336677
 20
798.20948519026228
 10
1280.8808327541797
 20
798.21569882406493
 42
0.000028130003529
 10
1314.9050434682399
 20
798.58080091958561
 10
1315.6200699578326
 20
798.58851385481614
 42
-0.0001190972471039
 10
1351.0744021950693
 20
798.96251099628171
 10
1351.9223499286225
 20
798.97125374473251
 42
-0.0002356745404264
 10
1389.0728390078666
 20
799.33678050639446
 10
1397.9673731152957
 20
799.42010175246094
 42
-0.000663268395116
 10
1452.9076887351716
 20
799.86187977440659
 10
1461.345070594625
 20
799.91853210739566
 42
-0.000065916422469
 10
1466.7376738357059
 20
799.95402948118851
 42
-0.000065916422469
  0
LINE
  5
1FB
100
AcDbEntity
  8
ARJ70-1401
370
              35
390
0
  6
Continuous
 62
               7
100
AcDbLine
 10
1125.225861491243
 20
644.95370103301536
 30
0.0
 11
824.03222908628516
 21
644.95400291592648
 31
0.0
  0
LINE
  5
1FC
100
AcDbEntity
  8
ARJ70-1401
370
              35
390
0
  6
Continuous
 62
               7
100
AcDbLine
 10
852.0918036577043
 20
799.95395725646938
 30
0.0
 11
781.37654737535115
 21
799.95403184782447
 31
0.0
  0
LINE
  5
1FD
100
AcDbEntity
  8
ARJ70-1401
370
              35
390
0
  6
Continuous
 62
               7
100
AcDbLine
 10
1125.1790001747461
 20
614.95404446696546
 30
0.0
 11
1097.5191552681533
 21
614.95404446696546
 31
0.0
  0
LWPOLYLINE
  5
1FE
100
AcDbEntity
  8
ARJ70-1401
370
              35
390
0
  6
Continuous
 62
               7
100
AcDbPolyline
 90
       11
 70
             128
 10
1125.179062431049
 20
801.45427803904442
 42
0.000130130677498
 10
1115.8628889227327
 20
801.45185339906175
 10
1104.2176448142818
 20
801.44579178452409
 42
0.0006606954401728
 10
1071.6110630808864
 20
801.38573321693468
 10
1055.3076340933615
 20
801.33416034142431
 42
0.0006918115647516
 10
990.09468401873778
 20
801.03763977501592
 10
980.77854004062874
 20
800.98238927052239
 42
0.0004747228615718
 10
915.56507368365669
 20
800.53371383273566
 10
910.90715518685795
 20
800.49724418852816
 42
0.0002137084415135
 10
855.0101490882405
 20
800.03570005327185
 42
0.0000197122784918
 10
845.69398348872039
 20
799.95442656222542
 42
0.0000197122784918
  0
LWPOLYLINE
  5
1FF
100
AcDbEntity
  8
ARJ70-1401
370
              35
390
0
  6
Continuous
 62
               7
100
AcDbPolyline
 90
       18
 70
             128
 10
1090.5713328965896
 20
642.3647549742285
 10
1090.5697021937694
 20
642.39258910243507
 42
0.0068018109313801
 10
1090.5473246698591
 20
642.70231995993333
 10
1090.5464820997101
 20
642.712124469115
 42
0.0060224709456967
 10
1090.5180892187686
 20
643.00159987579252
 10
1090.518020867763
 20
643.00221978581089
 42
0.0060142921019095
 10
1090.4828198639252
 20
643.28968993589058
 10
1090.4827415478617
 20
643.29027144022257
 42
0.0060050430982503
 10
1090.440811628871
 20
643.57565154797953
 10
1090.4407249519456
 20
643.57619593930235
 42
0.0059946274924718
 10
1090.392145281297
 20
643.85940120932298
 10
1090.3920517326308
 20
643.85990989386528
 42
0.0059831836651868
 10
1090.3369015999833
 20
644.14085536943639
 42
0.0059706695536633
 10
1090.2750511668639
 20
644.42040227130246
 10
1090.261009522452
 20
644.48045755692215
 42
0.0111588524493625
 10
1090.1588843339823
 20
644.87709694303976
 10
1090.1421139975355
 20
644.93669007049073
 10
1090.1372979440218
 20
644.95375504381343
  0
LWPOLYLINE
  5
200
100
AcDbEntity
  8
ARJ70-1401
370
              35
390
0
  6
Continuous
 62
               7
100
AcDbPolyline
 90
       49
 70
             128
 10
1097.5191552681533
 20
614.95404446696546
 42
-0.0039709695757898
 10
1097.4221291902772
 20
614.95481505432303
 10
1097.3980305509729
 20
614.95519786435921
 42
-0.0079504997992782
 10
1097.2528867002811
 20
614.95981273735299
 10
1097.1813827275278
 20
614.96322499989788
 42
-0.0158817693014427
 10
1096.8940311574593
 20
614.98610208164223
 10
1096.8459588735282
 20
614.99147019679583
 42
-0.0158164001247852
 10
1096.4726561238331
 20
615.04515726337047
 10
1096.4710338645707
 20
615.04544320148864
 42
-0.0157275327812554
 10
1096.1050793735747
 20
615.12188392845337
 10
1096.103744622659
 20
615.12220684907311
 42
-0.015625528418031
 10
1095.7459434463899
 20
615.22070010099253
 10
1095.7448640876398
 20
615.22103383104866
 42
-0.0155173318896048
 10
1095.3960204588348
 20
615.34087287068655
 10
1095.3951656439001
 20
615.3411965137974
 42
-0.0154094439008091
 10
1095.0560819631664
 20
615.48166978330551
 10
1095.0554230696875
 20
615.48196685006155
 42
-0.0153077688756475
 10
1094.7268990752757
 20
615.64235894612398
 10
1094.726410220349
 20
615.64261643472389
 42
-0.0152173714899077
 10
1094.4092426965015
 20
615.822208997644
 10
1094.408901752674
 20
615.82241600038765
 42
-0.01514272953799
 10
1094.1038833570758
 20
616.02048944654859
 10
1094.1036696354331
 20
616.02063762249179
 42
-0.0150865371114725
 10
1093.8115925927875
 20
616.23646932617828
 42
-0.0150581875308313
 10
1093.5331379542431
 20
616.46942265484756
 42
-0.015040449529613
 10
1093.2692908789568
 20
616.71862012161432
 42
-0.0150474629194132
 10
1093.0208283523241
 20
616.98332755771753
 42
-0.015086848385406
 10
1092.7886804476759
 20
617.26261393668017
 10
1092.7885208763578
 20
617.26281813986668
 42
-0.0151427424171159
 10
1092.5733651582864
 20
617.55603687015628
 10
1092.5731388596894
 20
617.55636570511729
 42
-0.0152175269400528
 10
1092.3757404109072
 20
617.86276891906584
 10
1092.3754554628258
 20
617.8632422582657
 42
-0.0153079139059262
 10
1092.196578418851
 20
618.1820791270045
 10
1092.1962442191427
 20
618.18272003372761
 42
-0.0154096217796709
 10
1092.0366511951411
 20
618.51323617279775
 10
1092.0362792997053
 20
618.51407113551181
 42
-0.0155175243417226
 10
1091.8967302501551
 20
618.8555088591603
 10
1091.8963354767802
 20
618.85656741444666
 42
-0.0156257330513453
 10
1091.7775866296329
 20
619.20816618522599
 10
1091.7771880820153
 20
619.20948031511693
 42
-0.0157277397160079
 10
1091.6799909482597
 20
619.57047746648959
 10
1091.6796129230436
 20
619.57208072494666
 42
-0.015816569059565
 10
1091.6047134235164
 20
619.94171243121548
 10
1091.5966087160796
 20
619.98941456947819
 42
-0.0158761244774376
 10
1091.5573741468634
 20
620.27496309893445
 10
1091.5524084136089
 20
620.32217421070834
 42
-0.0079539004347485
 10
1091.5352391656822
 20
620.51481975876288
 42
-0.0039710783576139
 10
1091.5289327130095
 20
620.61164639804645
 42
-0.0039710783576139
  0
LINE
  5
201
100
AcDbEntity
  8
ARJ70-1401
370
              35
390
0
  6
Continuous
 62
               7
100
AcDbLine
 10
852.0918036577043
 20
799.95395725646938
 30
0.0
 11
1125.1790001747461
 21
799.95395725646938
 31
0.0
  0
LINE
  5
202
100
AcDbEntity
  8
ARJ70-1401
370
              35
390
0
  6
Continuous
 62
               7
100
AcDbLine
 10
1091.5524084136086
 20
620.32217421071016
 30
0.0
 11
1090.5713328965896
 21
642.3647549742285
 31
0.0
  0
SPLINE
  5
203
100
AcDbEntity
  8
ARJ70-1401
370
              35
390
0
  6
Continuous
 62
               7
100
AcDbSpline
210
0.0
220
0.0
230
1.0
 70
               0
 71
               3
 72
               8
 73
               4
 74
               0
 42
0.000001
 43
0.000001
 40
0.0
 40
0.0
 40
0.0
 40
0.0
 40
1.0
 40
1.0
 40
1.0
 40
1.0
 10
824.5885783845348
 20
644.9539793499174
 30
-0.0002557361813117
 10
822.21370867489463
 20
644.95397915610954
 30
-0.0002557361813117
 10
820.03187240606553
 20
645.93750086045941
 30
-0.0002557361813117
 10
818.47287274366522
 20
647.55130364784247
 30
-0.0002557361813116
  0
SPLINE
  5
204
100
AcDbEntity
  8
ARJ70-1401
370
              35
390
0
  6
Continuous
 62
               7
100
AcDbSpline
210
0.0
220
0.0
230
1.0
 70
               0
 71
               3
 72
               8
 73
               4
 74
               0
 42
0.000001
 43
0.000001
 40
0.0
 40
0.0
 40
0.0
 40
0.0
 40
1.0
 40
1.0
 40
1.0
 40
1.0
 10
775.17889745240757
 20
793.90395567875851
 30
-0.0002557361813164
 10
775.38304175086716
 20
769.41905859035239
 30
-0.0002557361813184
 10
778.29445187694739
 20
689.87135363735649
 30
-0.0002557361813229
 10
818.47288229790968
 20
647.55130440901451
 30
-0.0002557361813116
  0
SPLINE
  5
205
100
AcDbEntity
  8
ARJ70-1401
370
              35
390
0
  6
Continuous
 62
               7
100
AcDbSpline
210
0.0
220
0.0
230
1.0
 70
               0
 71
               3
 72
              17
 73
              13
 74
               0
 42
0.000001
 43
0.000001
 40
0.0
 40
0.0
 40
0.0
 40
0.0
 40
1.0
 40
2.0
 40
3.0
 40
4.0
 40
5.0
 40
6.0
 40
7.0
 40
8.0
 40
9.0
 40
10.0
 40
10.0
 40
10.0
 40
10.0
 10
781.17869524743514
 20
799.9539793000655
 30
-0.000255736181316
 10
780.84536889246215
 20
799.95397965166251
 30
-0.000255736181316
 10
780.19149496222576
 20
799.89964269579139
 30
-0.000255736181316
 10
779.26151946138827
 20
799.6677279729355
 30
-0.000255736181316
 10
778.39487841045252
 20
799.29800764917047
 30
-0.000255736181316
 10
777.60407086480541
 20
798.80308541264037
 30
-0.000255736181316
 10
776.90159587983203
 20
798.19556495148834
 30
-0.0002557361813161
 10
776.29995251091816
 20
797.48804995385638
 30
-0.0002557361813161
 10
775.81163981345003
 20
796.69314410788741
 30
-0.0002557361813162
 10
775.44915684281307
 20
795.82345110172434
 30
-0.0002557361813162
 10
775.22500265439271
 20
794.89157462350943
 30
-0.0002557361813163
 10
775.17611842051451
 20
794.23727044876034
 30
-0.0002557361813164
 10
775.17889745240723
 20
793.90395567875851
 30
-0.0002557361813164
  0
CIRCLE
  5
206
100
AcDbEntity
  8
ARJ70-1401
370
               5
390
0
  6
Continuous
 62
               7
100
AcDbCircle
 10
1125.178939315836
 20
1919.3619285615832
 30
0.0
 40
17.500000000000014
  0
LINE
  5
207
100
AcDbEntity
  8
ARJ70-1401
370
               5
390
0
  6
Continuous
 62
               7
100
AcDbLine
 10
2328.3539729697668
 20
799.930548134373
 30
0.0
 11
2328.3539729697668
 21
784.930548134373
 31
0.0
  0
LINE
  5
208
100
AcDbEntity
  8
ARJ70-1401
370
               5
390
0
  6
Continuous
 62
               7
100
AcDbLine
 10
2293.3539729697668
 20
799.930548134373
 30
0.0
 11
2293.3539729697668
 21
784.930548134373
 31
0.0
  0
CIRCLE
  5
209
100
AcDbEntity
  8
ARJ70-1401
370
               5
390
0
  6
Continuous
 62
               7
100
AcDbCircle
 10
1125.305100454995
 20
1764.3619285371069
 30
0.0
 40
22.500000000000025
  0
CIRCLE
  5
20A
100
AcDbEntity
  8
ARJ70-1401
370
               5
390
0
  6
Continuous
 62
               7
100
AcDbCircle
 10
1125.305100454995
 20
1764.3619285371069
 30
0.0
 40
36.0
  0
CIRCLE
  5
20B
100
AcDbEntity
  8
ARJ70-1401
370
               5
390
0
  6
STYLE_02
 62
               7
100
AcDbCircle
 10
1225.178939315836
 20
1909.3619285615832
 30
0.0
 40
17.500000000000014
  0
CIRCLE
  5
20C
100
AcDbEntity
  8
ARJ70-1401
370
               5
390
0
  6
STYLE_02
 62
               7
100
AcDbCircle
 10
1025.178939315836
 20
1909.3619285615832
 30
0.0
 40
17.500000000000014
  0
LINE
  5
20D
100
AcDbEntity
  8
ARJ70-1401
370
              15
390
0
  6
STYLE_11
 62
               7
100
AcDbLine
 10
1250.3051004549952
 20
744.95395725646938
 30
0.0
 11
1280.3051004549948
 21
744.95395725646938
 31
0.0
  0
LINE
  5
20E
100
AcDbEntity
  8
ARJ70-1401
370
              15
390
0
  6
STYLE_11
 62
               7
100
AcDbLine
 10
1265.305100454995
 20
729.95395725646972
 30
0.0
 11
1265.305100454995
 21
759.95395725646927
 31
0.0
  0
CIRCLE
  5
20F
100
AcDbEntity
  8
ARJ70-1401
370
              15
390
0
  6
STYLE_11
 62
               7
100
AcDbCircle
 10
1265.2740205240389
 20
745.17780207664646
 30
0.0
 40
10.0
  0
LINE
  5
210
100
AcDbEntity
  8
ARJ70-1401
370
              15
390
0
  6
STYLE_11
 62
               7
100
AcDbLine
 10
970.30510045499523
 20
744.95395725646938
 30
0.0
 11
1000.3051004549948
 21
744.95395725646938
 31
0.0
  0
LINE
  5
211
100
AcDbEntity
  8
ARJ70-1401
370
              15
390
0
  6
STYLE_11
 62
               7
100
AcDbLine
 10
985.305100454995
 20
729.95395725646972
 30
0.0
 11
985.305100454995
 21
759.95395725646927
 31
0.0
  0
CIRCLE
  5
212
100
AcDbEntity
  8
ARJ70-1401
370
              15
390
0
  6
STYLE_11
 62
               7
100
AcDbCircle
 10
985.27402052403875
 20
745.17780207664646
 30
0.0
 40
10.0
  0
LWPOLYLINE
  5
213
100
AcDbEntity
  8
ARJ70-1401
370
               5
390
0
  6
STYLE_02
 62
               7
100
AcDbPolyline
 90
      109
 70
             128
 10
1771.0337406179015
 20
1979.3619121206702
 42
0.0056760957451595
 10
1769.2322857209435
 20
1977.958177886956
 10
1767.9253794513352
 20
1976.9157488524954
 42
0.0237648417892239
 10
1763.7024765806043
 20
1973.2058787723731
 10
1762.4719057772863
 20
1972.0165991934446
 42
0.0239837632285148
 10
1756.5760856013469
 20
1965.744720732841
 10
1756.5404496389817
 20
1965.7029697613482
 42
0.0233909624019421
 10
1751.3312419359668
 20
1958.987792391217
 10
1751.3271898957714
 20
1958.9820316495675
 42
0.0221554809426281
 10
1746.7573895909263
 20
1951.8319538987757
 42
0.0203766658195606
 10
1742.8109018553571
 20
1944.318385125345
 10
1742.7961702397324
 20
1944.287326768228
 42
0.0182424456369373
 10
1739.4134177865246
 20
1936.4272815088241
 10
1739.3886855265248
 20
1936.3635032364689
 42
0.0159313762690383
 10
1736.5047726324569
 20
1928.1605282597448
 10
1736.213956507914
 20
1927.2406777011611
 42
0.0134795290624174
 10
1734.2434309940188
 20
1920.3686871465188
 42
0.0069641734071762
 10
1732.554989331501
 20
1913.4200450841513
 10
1732.3701653536054
 20
1912.6104328668021
 42
0.013231837066567
 10
1730.637476820099
 20
1903.973186693855
 10
1730.3225516314151
 20
1902.1551065882938
 42
0.0105362043940024
 10
1728.4490835729007
 20
1889.7963560021908
 10
1728.4275103524953
 20
1889.6305357407005
 42
0.0082923077288854
 10
1726.9828853922672
 20
1876.8767015667727
 10
1726.9705632672681
 20
1876.7490148618099
 42
0.0063373502364909
 10
1725.8781996705516
 20
1863.7020011434724
 10
1725.8722408288063
 20
1863.6180438205633
 42
0.0046219438518382
 10
1725.0556908744777
 20
1850.3817212615972
 10
1725.0537871731121
 20
1850.3454022526294
 42
0.002960447425613
 10
1724.4346555541433
 20
1837.0252275730484
 10
1724.0071752778636
 20
1826.4828195669406
 42
0.0071865044312932
 10
1723.1067186582593
 20
1792.0612200903759
 10
1723.0050808275453
 20
1783.4342885699327
 42
0.0035400528498212
 10
1722.8690400413007
 20
1754.4948057602105
 10
1722.8748989716623
 20
1752.0322879664818
 42
0.0055085714673738
 10
1723.1965876795223
 20
1728.0204217470271
 10
1723.2702829049674
 20
1725.0023710670675
 42
0.0021016561903117
 10
1723.7846654549917
 20
1707.0323125256396
 10
1723.820748395568
 20
1705.9332851709592
 42
0.0011425849871015
 10
1724.3745330915713
 20
1690.1647089527833
 10
1724.463482538046
 20
1687.7868702174824
 42
0.0019208532074418
 10
1724.9176991795473
 20
1676.7769819371379
 42
0.0041627439929031
 10
1725.5058217221472
 20
1665.7737351222272
 10
1725.5145808621937
 20
1665.6320084454169
 42
0.0062217350598062
 10
1726.3520912028387
 20
1654.3606267072255
 10
1726.361215164816
 20
1654.2555462921853
 42
0.0082816661610191
 10
1727.5469216400404
 20
1642.8040662597014
 10
1727.5722700580484
 20
1642.5933782589923
 42
0.0104246666628561
 10
1729.1666205429281
 20
1631.3274135330387
 10
1729.2818747220715
 20
1630.6196873583469
 42
0.0118184320585833
 10
1731.1116894625911
 20
1620.8456768636381
 10
1731.2261762862013
 20
1620.3051086095936
 42
0.0111633987270009
 10
1733.2502097205193
 20
1611.7006875642073
 10
1733.2533956461216
 20
1611.6883829588223
 42
0.0129156460787387
 10
1735.682066195847
 20
1603.2165131065608
 10
1735.6879659027477
 20
1603.1977744869391
 42
0.0148116462372714
 10
1738.569233509369
 20
1594.9114994015711
 10
1738.5765920596302
 20
1594.8921994816603
 42
0.0168413239534952
 10
1741.9598286569724
 20
1586.8438842960381
 10
1741.9659555388707
 20
1586.8305817966577
 42
0.0189564723848584
 10
1745.9023544163601
 20
1579.0721544292833
 42
0.0210795508744629
 10
1750.4455511436117
 20
1571.655157210821
 42
0.0231048335095344
 10
1755.6242618144079
 20
1564.6697303332189
 10
1755.6383700503277
 20
1564.6524312353483
 42
0.0249179526093201
 10
1761.4918348389347
 20
1558.1637344303438
 10
1761.5280414402851
 20
1558.1274119645766
 42
0.0232852295390507
 10
1768.0554478187078
 20
1552.1621134045961
 10
1768.1160882338011
 20
1552.1116687176013
 42
0.0205398170972034
 10
1775.2674568059758
 20
1546.6435296020513
 10
1775.3470860192165
 20
1546.58767067402
 42
0.0180223834104866
 10
1783.0629987630032
 20
1541.5799219384853
 10
1783.1538757493215
 20
1541.5254917811876
 42
0.0157218731573204
 10
1791.3761458438612
 20
1536.9456942663855
 10
1791.4709040547739
 20
1536.8967517112551
 42
0.0136660628805971
 10
1800.141058154755
 20
1532.7146899899535
 10
1800.2329668768102
 20
1532.6734144764928
 42
0.0118472777378657
 10
1809.2916226261998
 20
1528.8604906882576
 10
1809.3749283918594
 20
1528.8277270255644
 42
0.0102631666216774
 10
1818.7618099726119
 20
1525.356645420796
 10
1819.0347574316136
 20
1525.2620362752816
 42
0.009559088969167
 10
1829.1014102096785
 20
1521.9869085829266
 10
1829.9883728139025
 20
1521.7169781676457
 42
0.0104381694200294
 10
1841.9619845900011
 20
1518.344455705886
 10
1842.6574190661015
 20
1518.164157592855
 42
0.0092827582319085
 10
1856.1523327918819
 20
1514.931592953378
 10
1856.222644957305
 20
1514.9161247038023
 42
0.0082272420687081
 10
1869.9640611462253
 20
1512.1293084193478
 10
1870.0209780138375
 20
1512.1187373217963
 42
0.0072605137939393
 10
1883.9566407568059
 20
1509.7392728737989
 10
1883.997282372356
 20
1509.732939357028
 42
0.0063717676731408
 10
1898.0744025848405
 20
1507.722578249145
 10
1898.0964415614862
 20
1507.7197169244871
 42
0.0055505758452151
 10
1912.2653964212441
 20
1506.0398764703723
 10
1912.2765628409661
 20
1506.038678083296
 42
0.0047973377330703
 10
1926.4586057782408
 20
1504.6541533750242
 10
1926.4816619472313
 20
1504.6521256329725
 42
0.0040736450901715
 10
1940.6400756815588
 20
1503.5230862593799
 10
1940.6754923667054
 20
1503.5205522153565
 42
0.0033619476536426
 10
1954.778415785898
 20
1502.6067632016643
 10
1954.8270378113543
 20
1502.6039409343839
 42
0.0026669885748318
 10
1968.8428009424388
 20
1501.8653843996913
 42
0.0019512711132619
 10
1982.8648804923635
 20
1501.2563101229307
 10
1987.9128822307209
 20
1501.05677501585
 42
0.0030025278496982
 10
2012.0381976201786
 20
1500.2482276595806
 10
2017.3031227491394
 20
1500.1034220382007
 42
0.0029684886615022
 10
2043.5872828124784
 20
1499.5366492761764
 10
2043.7751814728449
 20
1499.5337135000887
 42
0.0036899693456731
 10
2069.6884856135857
 20
1499.3201033273535
 42
0.0005564804140798
 10
2072.878933348848
 20
1499.3209002691315
 42
0.0005564804140798
  0
LWPOLYLINE
  5
214
100
AcDbEntity
  8
ARJ70-1401
370
               5
390
0
  6
STYLE_02
 62
               7
100
AcDbPolyline
 90
      109
 70
             128
 10
2374.7241262480306
 20
1979.3619121206702
 42
-0.0056760957452243
 10
2376.5255811449824
 20
1977.9581778869608
 10
2377.8324874145969
 20
1976.9157488524952
 42
-0.0237648417891496
 10
2382.0553902853285
 20
1973.2058787723727
 10
2383.285961088648
 20
1972.0165991934427
 42
-0.0239837632285664
 10
2389.1817812645859
 20
1965.744720732841
 10
2389.2174172269488
 20
1965.7029697613511
 42
-0.0233909624019442
 10
2394.4266249299658
 20
1958.9877923912165
 10
2394.4306769701616
 20
1958.9820316495666
 42
-0.0221554809426012
 10
2399.0004772750058
 20
1951.8319538987753
 42
-0.0203766658195838
 10
2402.9469650105748
 20
1944.3183851253448
 10
2402.9616966261997
 20
1944.2873267682276
 42
-0.0182424456369773
 10
2406.3444490794059
 20
1936.4272815088264
 10
2406.3691813394066
 20
1936.3635032364682
 42
-0.0159313762689659
 10
2409.2530942334747
 20
1928.1605282597418
 10
2409.5439103580165
 20
1927.2406777011624
 42
-0.0134795290624257
 10
2411.5144358719131
 20
1920.3686871465181
 42
-0.0069641734071861
 10
2413.2028775344293
 20
1913.4200450841581
 10
2413.3877015123267
 20
1912.6104328668016
 42
-0.013231837066576
 10
2415.1203900458313
 20
1903.9731866938641
 10
2415.435315234517
 20
1902.1551065882934
 42
-0.0105362043939879
 10
2417.3087832930323
 20
1889.7963560021858
 10
2417.330356513437
 20
1889.6305357406995
 42
-0.0082923077288954
 10
2418.7749814736649
 20
1876.876701566775
 10
2418.787303598664
 20
1876.7490148618094
 42
-0.0063373502364887
 10
2419.8796671953796
 20
1863.7020011434838
 10
2419.8856260371258
 20
1863.6180438205631
 42
-0.0046219438518097
 10
2420.7021759914542
 20
1850.3817212616095
 10
2420.7040796928204
 20
1850.3454022526289
 42
-0.0029604474256434
 10
2421.3232113117892
 20
1837.0252275730491
 10
2421.750691588069
 20
1826.4828195669402
 42
-0.0071865044312932
 10
2422.6511482076721
 20
1792.0612200903784
 10
2422.7527860383861
 20
1783.4342885699116
 42
-0.0035400528497898
 10
2422.888826824631
 20
1754.4948057602096
 10
2422.8829678942698
 20
1752.0322879664811
 42
-0.0055085714673751
 10
2422.5612791864123
 20
1728.0204217470259
 10
2422.4875839609667
 20
1725.00237106705
 42
-0.0021016561903381
 10
2421.9732014109436
 20
1707.0323125256391
 10
2421.9371184703677
 20
1705.9332851709728
 42
-0.0011425849871743
 10
2421.3833337743622
 20
1690.1647089527828
 10
2421.2943843278854
 20
1687.7868702174574
 42
-0.001920853207431
 10
2420.8401676863828
 20
1676.7769819371374
 42
-0.0041627439929065
 10
2420.2520451437795
 20
1665.7737351222177
 10
2420.2432860037338
 20
1665.6320084454164
 42
-0.0062217350597705
 10
2419.4057756630864
 20
1654.3606267072223
 10
2419.396651701109
 20
1654.2555462921846
 42
-0.0082816661610049
 10
2418.2109452258837
 20
1642.8040662597018
 10
2418.1855968078758
 20
1642.5933782589934
 42
-0.0104246666627602
 10
2416.5912463229979
 20
1631.3274135330382
 10
2416.475992143854
 20
1630.6196873583435
 42
-0.0118184320585205
 10
2414.6461774033396
 20
1620.8456768636379
 10
2414.5316905797299
 20
1620.3051086095938
 42
-0.0111633987269679
 10
2412.5076571454183
 20
1611.7006875642073
 10
2412.5044712198164
 20
1611.6883829588251
 42
-0.0129156460787371
 10
2410.0758006700971
 20
1603.2165131065603
 10
2410.0699009631962
 20
1603.1977744869387
 42
-0.0148116462372644
 10
2407.1886333565817
 20
1594.9114994015704
 10
2407.1812748063207
 20
1594.8921994816601
 42
-0.0168413239535699
 10
2403.7980382089845
 20
1586.8438842960377
 10
2403.7919113270859
 20
1586.830581796657
 42
-0.018956472384916
 10
2399.8555124495997
 20
1579.0721544292826
 42
-0.0210823954147019
 10
2395.312315722349
 20
1571.6551572108201
 42
-0.0231048335096211
 10
2390.1336050515501
 20
1564.6697303332189
 10
2390.1194968156296
 20
1564.6524312353472
 42
-0.0249179526094401
 10
2384.2660320270152
 20
1558.1637344303431
 10
2384.2298254256639
 20
1558.1274119645755
 42
-0.023285229539077
 10
2377.7024190472307
 20
1552.1621134045968
 10
2377.6417786321354
 20
1552.1116687176004
 42
-0.0205398170972149
 10
2370.4904100599479
 20
1546.6435296020522
 10
2370.4107808467052
 20
1546.5876706740196
 42
-0.0180223834104068
 10
2362.694868102903
 20
1541.5799219384849
 10
2362.6039911165853
 20
1541.5254917811876
 42
-0.0157218731572696
 10
2354.3817210220327
 20
1536.9456942663851
 10
2354.2869628111212
 20
1536.8967517112553
 42
-0.0136660628804848
 10
2345.6168087111309
 20
1532.7146899899531
 10
2345.5248999890782
 20
1532.6734144764935
 42
-0.0118472777377971
 10
2336.4662442396857
 20
1528.8604906882565
 10
2336.3829384740302
 20
1528.8277270255649
 42
-0.0102631666215868
 10
2326.9960568932834
 20
1525.3566454207946
 10
2326.7231094342887
 20
1525.2620362752825
 42
-0.0095590889690741
 10
2316.6564566562438
 20
1521.9869085829255
 10
2315.7694940520291
 20
1521.7169781676466
 42
-0.0104381694199974
 10
2303.7958822759715
 20
1518.3444557058856
 10
2303.1004477998767
 20
1518.164157592855
 42
-0.0092827582319758
 10
2289.60553407415
 20
1514.9315929533775
 10
2289.5352219087249
 20
1514.9161247038014
 42
-0.0082272420688009
 10
2275.7938057198544
 20
1512.1293084193483
 10
2275.736888852231
 20
1512.1187373217947
 42
-0.0072605137940741
 10
2261.8012261092854
 20
1509.7392728737991
 10
2261.7605844937193
 20
1509.7329393570258
 42
-0.0063717676732563
 10
2247.6834642812237
 20
1507.7225782491462
 10
2247.6614253045482
 20
1507.7197169244846
 42
-0.0055478404445652
 10
2233.4924704446885
 20
1506.03987647037
 10
2233.4813040249855
 20
1506.038678083296
 42
-0.0047973377330732
 10
2219.2992610875322
 20
1504.654153375023
 10
2219.276204918553
 20
1504.6521256329725
 42
-0.0040736450901545
 10
2205.1177911840227
 20
1503.5230862593794
 10
2205.0823744988638
 20
1503.5205522153553
 42
-0.003361947653558
 10
2190.9794510794954
 20
1502.6067632016648
 10
2190.9308290540002
 20
1502.6039409343823
 42
-0.0026669885747485
 10
2176.9150659228067
 20
1501.8653843996922
 42
-0.0019512711131587
 10
2162.8929863727776
 20
1501.2563101229302
 10
2157.8449846345175
 20
1501.0567750158532
 42
-0.0030025278495665
 10
2133.7196692451594
 20
1500.2482276595808
 10
2128.4547441163886
 20
1500.1034220382035
 42
-0.0029684886615817
 10
2102.1705840533027
 20
1499.5366492761755
 10
2101.9826853930108
 20
1499.5337135000891
 42
-0.0036899693457276
 10
2076.0693812523759
 20
1499.3201033273535
 42
-0.0005564197893318
 10
2072.878933517085
 20
1499.3209002691315
 42
-0.0005564197893318
  0
CIRCLE
  5
215
100
AcDbEntity
  8
ARJ70-1401
370
               5
390
0
  6
STYLE_02
 62
               7
100
AcDbCircle
 10
2072.8789239705748
 20
1919.3619285615832
 30
0.0
 40
17.499999999999787
  0
CIRCLE
  5
216
100
AcDbEntity
  8
ARJ70-1401
370
               5
390
0
  6
STYLE_02
 62
               7
100
AcDbCircle
 10
2073.005085109734
 20
1764.3619285371069
 30
0.0
 40
22.499999999999741
  0
CIRCLE
  5
217
100
AcDbEntity
  8
ARJ70-1401
370
               5
390
0
  6
STYLE_02
 62
               7
100
AcDbCircle
 10
2172.8789239705748
 20
1909.3619285615832
 30
0.0
 40
17.500000000000014
  0
CIRCLE
  5
218
100
AcDbEntity
  8
ARJ70-1401
370
               5
390
0
  6
STYLE_02
 62
               7
100
AcDbCircle
 10
1972.878923970575
 20
1909.3619285615832
 30
0.0
 40
17.500000000000014
  0
LINE
  5
219
100
AcDbEntity
  8
ARJ70-1401
370
               5
390
0
  6
Continuous
 62
               7
100
AcDbLine
 10
1697.9350904054625
 20
1979.3618700234292
 30
0.0
 11
2447.9350904054622
 21
1979.361987121529
 31
0.0
  0
POLYLINE
  5
21A
100
AcDbEntity
  8
ARJ70-1401
370
              15
390
0
  6
Continuous
 62
               7
100
AcDb2dPolyline
 66
               1
 10
0.0
 20
0.0
 30
0.0
 70
               1
 75
               5
  0
VERTEX
  5
21B
100
AcDbEntity
  8
ARJ70-1401
370
              15
390
0
  6
Continuous
 62
               7
100
AcDbVertex
100
AcDb2dVertex
 10
1947.7931193065674
 20
1949.3618700234292
 30
0.0
  0
VERTEX
  5
21C
100
AcDbEntity
  8
ARJ70-1401
370
              15
390
0
  6
Continuous
 62
               7
100
AcDbVertex
100
AcDb2dVertex
 10
2197.793119306567
 20
1949.3618700234292
 30
0.0
  0
VERTEX
  5
21D
100
AcDbEntity
  8
ARJ70-1401
370
              15
390
0
  6
Continuous
 62
               7
100
AcDbVertex
100
AcDb2dVertex
 10
2197.793119306567
 20
1699.3618700234292
 30
0.0
  0
VERTEX
  5
21E
100
AcDbEntity
  8
ARJ70-1401
370
              15
390
0
  6
Continuous
 62
               7
100
AcDbVertex
100
AcDb2dVertex
 10
1947.7931193065674
 20
1699.3618700234292
 30
0.0
  0
SEQEND
  5
21F
100
AcDbEntity
  8
ARJ70-1401
370
              15
390
0
  6
Continuous
 62
               7
  0
ENDSEC
  0
SECTION
  2
OBJECTS
  0
DICTIONARY
  5
19
100
AcDbDictionary
280
               0
281
               1
  3
ACAD_GROUP
350
1A
  3
ACAD_MLINESTYLE
350
1B
  3
ACAD_LAYOUT
350
1E
  3
ACAD_PLOTSETTINGS
350
22
  3
ACAD_PLOTSTYLENAME
350
1F
  0
DICTIONARY
  5
1A
102
{ACAD_REACTORS
330
19
102
}
100
AcDbDictionary
280
               0
281
               1
  0
DICTIONARY
  5
1B
102
{ACAD_REACTORS
330
19
102
}
100
AcDbDictionary
280
               0
281
               1
  3
Standard
350
1C
  0
MLINESTYLE
  5
1C
102
{ACAD_REACTORS
330
1B
102
}
100
AcDbMlineStyle
  2
Standard
 70
               0
  3

 62
               0
 51
90.0
 52
90.0
 71
               2
 49
0.5
 62
             256
  6
ByLayer
 49
-0.5
 62
             256
  6
ByLayer
  0
ACDBDICTIONARYWDFLT
  5
1F
102
{ACAD_REACTORS
330
19
102
}
100
AcDbDictionary
281
               1
  3
Normal
350
1D
100
AcDbDictionaryWithDefault
340
1D
  0
ACDBPLACEHOLDER
  5
1D
102
{ACAD_REACTORS
330
1F
102
}
  0
LAYOUT
  5
20
102
{ACAD_REACTORS
330
1E
102
}
100
AcDbPlotSettings
  1

  2

  4

  6

 40
0.0
 41
0.0
 42
0.0
 43
0.0
 44
0.0
 45
0.0
 46
0.0
 47
0.0
 48
0.0
 49
0.0
140
0.0
141
0.0
142
1.0
143
1.0
 70
            1024
 72
               0
 73
               0
 74
               0
  7

 75
               0
147
1.0
148
0.0
149
0.0
100
AcDbLayout
  1
Model
 70
               0
 71
               0
 10
0.0
 20
0.0
 11
0.0
 21
0.0
 12
0.0
 22
0.0
 32
0.0
 14
0.0
 24
0.0
 34
0.0
 15
0.0
 25
0.0
 35
0.0
146
0.0
 13
0.0
 23
0.0
 33
0.0
 16
0.0
 26
0.0
 36
0.0
 17
0.0
 27
0.0
 37
0.0
 76
               0
330
A
331
0
345
0
346
0
  0
LAYOUT
  5
21
102
{ACAD_REACTORS
330
1E
102
}
100
AcDbPlotSettings
  1

  2

  4

  6

 40
0.0
 41
0.0
 42
0.0
 43
0.0
 44
0.0
 45
0.0
 46
0.0
 47
0.0
 48
0.0
 49
0.0
140
0.0
141
0.0
142
1.0
143
1.0
 70
               0
 72
               0
 73
               0
 74
               0
  7

 75
               0
147
1.0
148
0.0
149
0.0
100
AcDbLayout
  1
Layout1
 70
               0
 71
               0
 10
0.0
 20
0.0
 11
0.0
 21
0.0
 12
0.0
 22
0.0
 32
0.0
 14
0.0
 24
0.0
 34
0.0
 15
0.0
 25
0.0
 35
0.0
146
0.0
 13
0.0
 23
0.0
 33
0.0
 16
0.0
 26
0.0
 36
0.0
 17
0.0
 27
0.0
 37
0.0
 76
               0
330
B
331
0
345
0
346
0
  0
DICTIONARY
  5
1E
102
{ACAD_REACTORS
330
19
102
}
100
AcDbDictionary
280
               0
281
               1
  3
Layout1
350
21
  3
Model
350
20
  0
DICTIONARY
  5
22
102
{ACAD_REACTORS
330
19
102
}
100
AcDbDictionary
280
               0
281
               1
  0
ENDSEC
  0
EOF
