  0
SECTION
  2
HEADER
  9
$ACADVER
  1
AC1021
  9
$ACADMAINTVER
 70
    25
  9
$DWGCODEPAGE
  3
ANSI_932
  9
$LASTSAVEDBY
  1
howeNelson
  9
$INSBASE
 10
0.0
 20
0.0
 30
0.0
  9
$EXTMIN
 10
0.0
 20
0.0
 30
-0.0000000000000071
  9
$EXTMAX
 10
210.0
 20
297.0
 30
0.0000000000000142
  9
$LIMMIN
 10
0.0
 20
0.0
  9
$LIMMAX
 10
210.0
 20
297.0
  9
$ORTHOMODE
 70
     0
  9
$REGENMODE
 70
     1
  9
$FILLMODE
 70
     1
  9
$QTEXTMODE
 70
     0
  9
$MIRRTEXT
 70
     1
  9
$LTSCALE
 40
0.5
  9
$ATTMODE
 70
     1
  9
$TEXTSIZE
 40
2.5
  9
$TRACEWID
 40
1.0
  9
$TEXTSTYLE
  7
ＭＳ ゴシック
  9
$CLAYER
  8
DIM
  9
$CELTYPE
  6
ByLayer
  9
$CECOLOR
 62
   256
  9
$CELTSCALE
 40
1.0
  9
$DISPSILH
 70
     0
  9
$DIMSCALE
 40
1.0
  9
$DIMASZ
 40
1.0
  9
$DIMEXO
 40
2.0
  9
$DIMDLI
 40
0.9999999999999999
  9
$DIMRND
 40
0.0
  9
$DIMDLE
 40
0.0
  9
$DIMEXE
 40
0.0
  9
$DIMTP
 40
0.0
  9
$DIMTM
 40
0.0
  9
$DIMTXT
 40
3.0
  9
$DIMCEN
 40
0.0
  9
$DIMTSZ
 40
0.0
  9
$DIMTOL
 70
     0
  9
$DIMLIM
 70
     0
  9
$DIMTIH
 70
     0
  9
$DIMTOH
 70
     0
  9
$DIMSE1
 70
     0
  9
$DIMSE2
 70
     0
  9
$DIMTAD
 70
     1
  9
$DIMZIN
 70
    11
  9
$DIMBLK
  1
DOT
  9
$DIMASO
 70
     1
  9
$DIMSHO
 70
     1
  9
$DIMPOST
  1
<>
  9
$DIMAPOST
  1
[]
  9
$DIMALT
 70
     0
  9
$DIMALTD
 70
     1
  9
$DIMALTF
 40
1.0
  9
$DIMLFAC
 40
1.0
  9
$DIMTOFL
 70
     0
  9
$DIMTVP
 40
0.0
  9
$DIMTIX
 70
     1
  9
$DIMSOXD
 70
     0
  9
$DIMSAH
 70
     0
  9
$DIMBLK1
  1

  9
$DIMBLK2
  1

  9
$DIMSTYLE
  2
tfrom線あり
  9
$DIMCLRD
 70
     0
  9
$DIMCLRE
 70
     0
  9
$DIMCLRT
 70
     0
  9
$DIMTFAC
 40
1.0
  9
$DIMGAP
 40
1.0
  9
$DIMJUST
 70
     0
  9
$DIMSD1
 70
     0
  9
$DIMSD2
 70
     0
  9
$DIMTOLJ
 70
     1
  9
$DIMTZIN
 70
    11
  9
$DIMALTZ
 70
    11
  9
$DIMALTTZ
 70
    11
  9
$DIMUPT
 70
     0
  9
$DIMDEC
 70
     0
  9
$DIMTDEC
 70
     1
  9
$DIMALTU
 70
     2
  9
$DIMALTTD
 70
     2
  9
$DIMTXSTY
  7
ＭＳ ゴシック
  9
$DIMAUNIT
 70
     0
  9
$DIMADEC
 70
     2
  9
$DIMALTRND
 40
0.0
  9
$DIMAZIN
 70
     0
  9
$DIMDSEP
 70
    46
  9
$DIMATFIT
 70
     0
  9
$DIMFRAC
 70
     2
  9
$DIMLDRBLK
  1
DOT
  9
$DIMLUNIT
 70
     2
  9
$DIMLWD
 70
    -2
  9
$DIMLWE
 70
    -2
  9
$DIMTMOVE
 70
     0
  9
$DIMFXL
 40
1.0
  9
$DIMFXLON
 70
     0
  9
$DIMJOGANG
 40
0.7853981633974483
  9
$DIMTFILL
 70
     0
  9
$DIMTFILLCLR
 70
     0
  9
$DIMARCSYM
 70
     0
  9
$DIMLTYPE
  6

  9
$DIMLTEX1
  6

  9
$DIMLTEX2
  6

  9
$LUNITS
 70
     2
  9
$LUPREC
 70
     0
  9
$SKETCHINC
 40
0.1
  9
$FILLETRAD
 40
0.0
  9
$AUNITS
 70
     0
  9
$AUPREC
 70
     0
  9
$MENU
  1
acad
  9
$ELEVATION
 40
0.0
  9
$PELEVATION
 40
0.0
  9
$THICKNESS
 40
0.0
  9
$LIMCHECK
 70
     0
  9
$CHAMFERA
 40
0.0
  9
$CHAMFERB
 40
0.0
  9
$CHAMFERC
 40
0.0
  9
$CHAMFERD
 40
0.0
  9
$SKPOLY
 70
     0
  9
$TDCREATE
 40
2447893.375
  9
$TDUCREATE
 40
0.0
  9
$TDUPDATE
 40
2458022.442494375
  9
$TDUUPDATE
 40
2458022.067494375
  9
$TDINDWG
 40
0.1328020949
  9
$TDUSRTIMER
 40
2458022.066894653
  9
$USRTIMER
 70
     1
  9
$ANGBASE
 50
0.0
  9
$ANGDIR
 70
     0
  9
$PDMODE
 70
     1
  9
$PDSIZE
 40
-2.0
  9
$PLINEWID
 40
0.0
  9
$SPLFRAME
 70
     0
  9
$SPLINETYPE
 70
     6
  9
$SPLINESEGS
 70
     8
  9
$HANDSEED
  5
209D
  9
$SURFTAB1
 70
     6
  9
$SURFTAB2
 70
     6
  9
$SURFTYPE
 70
     6
  9
$SURFU
 70
     6
  9
$SURFV
 70
     6
  9
$UCSBASE
  2

  9
$UCSNAME
  2

  9
$UCSORG
 10
0.0
 20
0.0
 30
0.0
  9
$UCSXDIR
 10
1.0
 20
0.0
 30
0.0
  9
$UCSYDIR
 10
0.0
 20
1.0
 30
0.0
  9
$UCSORTHOREF
  2

  9
$UCSORTHOVIEW
 70
     0
  9
$UCSORGTOP
 10
0.0
 20
0.0
 30
0.0
  9
$UCSORGBOTTOM
 10
0.0
 20
0.0
 30
0.0
  9
$UCSORGLEFT
 10
0.0
 20
0.0
 30
0.0
  9
$UCSORGRIGHT
 10
0.0
 20
0.0
 30
0.0
  9
$UCSORGFRONT
 10
0.0
 20
0.0
 30
0.0
  9
$UCSORGBACK
 10
0.0
 20
0.0
 30
0.0
  9
$PUCSBASE
  2

  9
$PUCSNAME
  2

  9
$PUCSORG
 10
0.0
 20
0.0
 30
0.0
  9
$PUCSXDIR
 10
1.0
 20
0.0
 30
0.0
  9
$PUCSYDIR
 10
0.0
 20
1.0
 30
0.0
  9
$PUCSORTHOREF
  2

  9
$PUCSORTHOVIEW
 70
     0
  9
$PUCSORGTOP
 10
0.0
 20
0.0
 30
0.0
  9
$PUCSORGBOTTOM
 10
0.0
 20
0.0
 30
0.0
  9
$PUCSORGLEFT
 10
0.0
 20
0.0
 30
0.0
  9
$PUCSORGRIGHT
 10
0.0
 20
0.0
 30
0.0
  9
$PUCSORGFRONT
 10
0.0
 20
0.0
 30
0.0
  9
$PUCSORGBACK
 10
0.0
 20
0.0
 30
0.0
  9
$USERI1
 70
     0
  9
$USERI2
 70
     0
  9
$USERI3
 70
     0
  9
$USERI4
 70
     0
  9
$USERI5
 70
     0
  9
$USERR1
 40
0.0
  9
$USERR2
 40
0.0
  9
$USERR3
 40
0.0
  9
$USERR4
 40
0.0
  9
$USERR5
 40
0.0
  9
$WORLDVIEW
 70
     1
  9
$SHADEDGE
 70
     3
  9
$SHADEDIF
 70
    70
  9
$TILEMODE
 70
     1
  9
$MAXACTVP
 70
    64
  9
$PINSBASE
 10
0.0
 20
0.0
 30
0.0
  9
$PLIMCHECK
 70
     0
  9
$PEXTMIN
 10
0.0
 20
0.0
 30
0.0
  9
$PEXTMAX
 10
0.0
 20
0.0
 30
0.0
  9
$PLIMMIN
 10
-7.5
 20
-20.0
  9
$PLIMMAX
 10
412.5
 20
277.0
  9
$UNITMODE
 70
     0
  9
$VISRETAIN
 70
     0
  9
$PLINEGEN
 70
     1
  9
$PSLTSCALE
 70
     0
  9
$TREEDEPTH
 70
  3020
  9
$CMLSTYLE
  2
Standard
  9
$CMLJUST
 70
     0
  9
$CMLSCALE
 40
1.0
  9
$PROXYGRAPHICS
 70
     0
  9
$MEASUREMENT
 70
     1
  9
$CELWEIGHT
370
    -1
  9
$ENDCAPS
280
     0
  9
$JOINSTYLE
280
     0
  9
$LWDISPLAY
290
     1
  9
$INSUNITS
 70
     4
  9
$HYPERLINKBASE
  1

  9
$STYLESHEET
  1

  9
$XEDIT
290
     1
  9
$CEPSNTYPE
380
     0
  9
$PSTYLEMODE
290
     1
  9
$FINGERPRINTGUID
  2

  9
$VERSIONGUID
  2

  9
$EXTNAMES
290
     1
  9
$PSVPSCALE
 40
0.0
  9
$OLESTARTUP
290
     0
  9
$SORTENTS
280
   127
  9
$INDEXCTL
280
     0
  9
$HIDETEXT
280
     1
  9
$XCLIPFRAME
290
     0
  9
$HALOGAP
280
     0
  9
$OBSCOLOR
 70
   257
  9
$OBSLTYPE
280
     0
  9
$INTERSECTIONDISPLAY
280
     0
  9
$INTERSECTIONCOLOR
 70
   257
  9
$DIMASSOC
280
     2
  9
$PROJECTNAME
  1

  9
$CAMERADISPLAY
290
     0
  9
$LENSLENGTH
 40
50.0
  9
$CAMERAHEIGHT
 40
0.0
  9
$STEPSPERSEC
 40
2.0
  9
$STEPSIZE
 40
6.0
  9
$3DDWFPREC
 40
2.0
  9
$PSOLWIDTH
 40
0.25
  9
$PSOLHEIGHT
 40
4.0
  9
$LOFTANG1
 40
1.570796326794897
  9
$LOFTANG2
 40
1.570796326794897
  9
$LOFTMAG1
 40
0.0
  9
$LOFTMAG2
 40
0.0
  9
$LOFTPARAM
 70
     7
  9
$LOFTNORMALS
280
     1
  9
$LATITUDE
 40
37.795
  9
$LONGITUDE
 40
-122.394
  9
$NORTHDIRECTION
 40
0.0
  9
$TIMEZONE
 70
 -8000
  9
$LIGHTGLYPHDISPLAY
280
     1
  9
$TILEMODELIGHTSYNCH
280
     1
  9
$SOLIDHIST
280
     1
  9
$SHOWHIST
280
     1
  9
$DWFFRAME
280
     2
  9
$DGNFRAME
280
     2
  9
$REALWORLDSCALE
290
     1
  9
$INTERFERECOLOR
 62
   256
  9
$CSHADOW
280
     0
  9
$SHADOWPLANELOCATION
 40
0.0
  0
ENDSEC
  0
SECTION
  2
CLASSES
  0
CLASS
  1
LWPOLYLINE
  2
AcDbPolyline
  3
ObjectDBX Classes
 90
        0
 91
        1
280
     0
281
     1
  0
CLASS
  1
IMAGE
  2
AcDbRasterImage
  3
ISM
 90
      127
 91
        5
280
     0
281
     1
  0
CLASS
  1
OLE2FRAME
  2
AcDbOle2Frame
  3
ObjectDBX Classes
 90
        0
 91
        1
280
     0
281
     1
  0
CLASS
  1
HATCH
  2
AcDbHatch
  3
ObjectDBX Classes
 90
        0
 91
        1
280
     0
281
     1
  0
CLASS
  1
DICTIONARYVAR
  2
AcDbDictionaryVar
  3
ObjectDBX Classes
 90
        0
 91
        4
280
     0
281
     0
  0
CLASS
  1
RASTERVARIABLES
  2
AcDbRasterVariables
  3
ISM
 90
        0
 91
        4
280
     0
281
     0
  0
CLASS
  1
IMAGEDEF
  2
AcDbRasterImageDef
  3
ISM
 90
        0
 91
        4
280
     0
281
     0
  0
CLASS
  1
IMAGEDEF_REACTOR
  2
AcDbRasterImageDefReactor
  3
ISM
 90
        1
 91
        4
280
     0
281
     0
  0
CLASS
  1
IDBUFFER
  2
AcDbIdBuffer
  3
ObjectDBX Classes
 90
        0
 91
        4
280
     0
281
     0
  0
CLASS
  1
SPATIAL_FILTER
  2
AcDbSpatialFilter
  3
ObjectDBX Classes
 90
        0
 91
        4
280
     0
281
     0
  0
CLASS
  1
XRECORD
  2
AcDbXrecord
  3
ObjectDBX Classes
 90
        0
 91
        1
280
     0
281
     0
  0
CLASS
  1
SORTENTSTABLE
  2
AcDbSortentsTable
  3
ObjectDBX Classes
 90
        0
 91
        4
280
     0
281
     0
  0
CLASS
  1
LAYER_INDEX
  2
AcDbLayerIndex
  3
ObjectDBX Classes
 90
        0
 91
        4
280
     0
281
     0
  0
CLASS
  1
SPATIAL_INDEX
  2
AcDbSpatialIndex
  3
AutoCAD 2000
 90
        0
 91
        4
280
     0
281
     0
  0
CLASS
  1
OBJECT_PTR
  2
CAseDLPNTableRecord
  3
ASE-LPNTableRecord
 90
        1
 91
        4
280
     0
281
     0
  0
CLASS
  1
LAYOUT
  2
AcDbLayout
  3
ObjectDBX Classes
 90
        0
 91
        1
280
     0
281
     0
  0
CLASS
  1
PLOTSETTINGS
  2
AcDbPlotSettings
  3
ObjectDBX Classes
 90
        0
 91
        4
280
     0
281
     0
  0
CLASS
  1
ACDBDICTIONARYWDFLT
  2
AcDbDictionaryWithDefault
  3
ObjectDBX Classes
 90
        0
 91
        4
280
     0
281
     0
  0
CLASS
  1
ACDBPLACEHOLDER
  2
AcDbPlaceHolder
  3
ObjectDBX Classes
 90
        0
 91
        1
280
     0
281
     0
  0
CLASS
  1
SCALE
  2
AcDbScale
  3
ObjectDBX Classes
 90
     1153
 91
        4
280
     0
281
     0
  0
CLASS
  1
MATERIAL
  2
AcDbMaterial
  3
ObjectDBX Classes
 90
     1153
 91
        4
280
     0
281
     0
  0
CLASS
  1
VISUALSTYLE
  2
AcDbVisualStyle
  3
ObjectDBX Classes
 90
     4095
 91
        4
280
     0
281
     0
  0
CLASS
  1
TABLESTYLE
  2
AcDbTableStyle
  3
ObjectDBX Classes
 90
     4095
 91
        4
280
     0
281
     0
  0
CLASS
  1
DIMASSOC
  2
AcDbDimAssoc
  3
"AcDbDimAssoc|Product Desc:     AcDim ARX App For Dimension|Company:          Autodesk, Inc.|WEB Address:      www.autodesk.com"
 90
        0
 91
        4
280
     0
281
     0
  0
CLASS
  1
CELLSTYLEMAP
  2
AcDbCellStyleMap
  3
ObjectDBX Classes
 90
     1152
 91
        4
280
     0
281
     0
  0
CLASS
  1
SUN
  2
AcDbSun
  3
SCENEOE
 90
     1153
 91
        4
280
     0
281
     0
  0
CLASS
  1
MLEADERSTYLE
  2
AcDbMLeaderStyle
  3
ACDB_MLEADERSTYLE_CLASS
 90
     4095
 91
        4
280
     0
281
     0
  0
CLASS
  1
FIELD
  2
AcDbField
  3
ObjectDBX Classes
 90
     1152
 91
        4
280
     0
281
     0
  0
CLASS
  1
FIELDLIST
  2
AcDbFieldList
  3
ObjectDBX Classes
 90
     1152
 91
        4
280
     0
281
     0
  0
ENDSEC
  0
SECTION
  2
TABLES
  0
TABLE
  2
VPORT
  5
7
330
0
100
AcDbSymbolTable
 70
     1
  0
VPORT
  5
15
330
7
100
AcDbSymbolTableRecord
100
AcDbViewportTableRecord
  2
*ACTIVE
 70
     0
 10
0.0
 20
0.0
 11
1.0
 21
1.0
 12
196.0201356708996
 22
74.90128546983397
 13
0.0
 23
0.0
 14
1.0
 24
1.0
 15
0.0
 25
0.0
 16
0.0
 26
0.0
 36
1.0
 17
-91.0201356708996
 27
73.59871453016603
 37
-46.86809886248109
 40
302.94
 41
2.178082191780822
 42
50.0
 43
0.0
 44
0.0
 50
0.0
 51
0.0
 71
    16
 72
  2000
 73
     1
 74
     1
 75
     0
 76
     0
 77
     0
 78
     0
281
     0
 65
     1
110
0.0
120
0.0
130
0.0
111
1.0
121
0.0
131
0.0
112
0.0
122
1.0
132
0.0
 79
     0
146
0.0
348
26C
 60
     3
 61
     5
292
     1
282
     1
141
0.0
142
0.0
 63
   256
361
904
  0
ENDTAB
  0
TABLE
  2
LTYPE
  5
4
330
0
100
AcDbSymbolTable
 70
    21
  0
LTYPE
  5
11
330
4
100
AcDbSymbolTableRecord
100
AcDbLinetypeTableRecord
  2
ByBlock
 70
     0
  3

 72
    65
 73
     0
 40
0.0
  0
LTYPE
  5
12
330
4
100
AcDbSymbolTableRecord
100
AcDbLinetypeTableRecord
  2
ByLayer
 70
     0
  3

 72
    65
 73
     0
 40
0.0
  0
LTYPE
  5
13
330
4
100
AcDbSymbolTableRecord
100
AcDbLinetypeTableRecord
  2
Continuous
 70
     0
  3
Solid line
 72
    65
 73
     0
 40
0.0
  0
LTYPE
  5
3A
330
4
100
AcDbSymbolTableRecord
100
AcDbLinetypeTableRecord
  2
STYLE_01
 70
     0
  3

 72
    65
 73
     2
 40
0.2460629921259842
 49
0.1230314960629921
 74
     0
 49
-0.1230314960629921
 74
     0
  0
LTYPE
  5
3B
330
4
100
AcDbSymbolTableRecord
100
AcDbLinetypeTableRecord
  2
STYLE_02
 70
     0
  3

 72
    65
 73
     2
 40
0.6944250000000001
 49
0.48607
 74
     0
 49
-0.2083550000000001
 74
     0
  0
LTYPE
  5
3C
330
4
100
AcDbSymbolTableRecord
100
AcDbLinetypeTableRecord
  2
STYLE_03
 70
     0
  3

 72
    65
 73
     2
 40
1.25
 49
1.04164
 74
     0
 49
-0.2083599999999999
 74
     0
  0
LTYPE
  5
3D
330
4
100
AcDbSymbolTableRecord
100
AcDbLinetypeTableRecord
  2
STYLE_04
 70
     0
  3

 72
    65
 73
     2
 40
1.52771
 49
1.319425
 74
     0
 49
-0.208285
 74
     0
  0
LTYPE
  5
3E
330
4
100
AcDbSymbolTableRecord
100
AcDbLinetypeTableRecord
  2
STYLE_05
 70
     0
  3

 72
    65
 73
     2
 40
0.20828
 49
0.069425
 74
     0
 49
-0.138855
 74
     0
  0
LTYPE
  5
3F
330
4
100
AcDbSymbolTableRecord
100
AcDbLinetypeTableRecord
  2
STYLE_06
 70
     0
  3

 72
    65
 73
     4
 40
1.04164
 49
0.625
 74
     0
 49
-0.20828
 74
     0
 49
0.06943
 74
     0
 49
-0.13893
 74
     0
  0
LTYPE
  5
40
330
4
100
AcDbSymbolTableRecord
100
AcDbLinetypeTableRecord
  2
STYLE_07
 70
     0
  3

 72
    65
 73
     6
 40
1.875
 49
0.625
 74
     0
 49
-0.20828
 74
     0
 49
0.6250000000000001
 74
     0
 49
-0.2083599999999999
 74
     0
 49
0.06943
 74
     0
 49
-0.1389299999999999
 74
     0
  0
LTYPE
  5
41
330
4
100
AcDbSymbolTableRecord
100
AcDbLinetypeTableRecord
  2
STYLE_08
 70
     0
  3

 72
    65
 73
     6
 40
1.25
 49
0.625
 74
     0
 49
-0.20828
 74
     0
 49
0.06943
 74
     0
 49
-0.13893
 74
     0
 49
0.0694299999999999
 74
     0
 49
-0.13893
 74
     0
  0
LTYPE
  5
42
330
4
100
AcDbSymbolTableRecord
100
AcDbLinetypeTableRecord
  2
STYLE_09
 70
     0
  3

 72
    65
 73
     4
 40
5.0
 49
3.75
 74
     0
 49
-0.2777849999999998
 74
     0
 49
0.6944300000000003
 74
     0
 49
-0.2777849999999998
 74
     0
  0
LTYPE
  5
43
330
4
100
AcDbSymbolTableRecord
100
AcDbLinetypeTableRecord
  2
STYLE_10
 70
     0
  3

 72
    65
 73
     6
 40
5.9375
 49
3.75
 74
     0
 49
-0.2777849999999998
 74
     0
 49
0.6944300000000003
 74
     0
 49
-0.2777849999999998
 74
     0
 49
0.625
 74
     0
 49
-0.3125
 74
     0
  0
LTYPE
  5
44
330
4
100
AcDbSymbolTableRecord
100
AcDbLinetypeTableRecord
  2
STYLE_11
 70
     0
  3

 72
    65
 73
     2
 40
0.0694444881889764
 49
0.0347222440944882
 74
     0
 49
-0.0347222440944882
 74
     0
  0
LTYPE
  5
45
330
4
100
AcDbSymbolTableRecord
100
AcDbLinetypeTableRecord
  2
STYLE_12
 70
     0
  3

 72
    65
 73
     2
 40
0.3937007874015748
 49
0.1968503937007874
 74
     0
 49
-0.1968503937007874
 74
     0
  0
LTYPE
  5
46
330
4
100
AcDbSymbolTableRecord
100
AcDbLinetypeTableRecord
  2
STYLE_13
 70
     0
  3

 72
    65
 73
     2
 40
0.5905511811023622
 49
0.2952755905511811
 74
     0
 49
-0.2952755905511811
 74
     0
  0
LTYPE
  5
47
330
4
100
AcDbSymbolTableRecord
100
AcDbLinetypeTableRecord
  2
STYLE_14
 70
     0
  3

 72
    65
 73
     2
 40
1.968503937007874
 49
0.9842519685039369
 74
     0
 49
-0.9842519685039369
 74
     0
  0
LTYPE
  5
48
330
4
100
AcDbSymbolTableRecord
100
AcDbLinetypeTableRecord
  2
STYLE_15
 70
     0
  3

 72
    65
 73
     2
 40
0.1875
 49
0.125
 74
     0
 49
-0.0625
 74
     0
  0
LTYPE
  5
49
330
4
100
AcDbSymbolTableRecord
100
AcDbLinetypeTableRecord
  2
STYLE_16
 70
     0
  3

 72
    65
 73
     2
 40
0.3690944881889764
 49
0.2460629921259843
 74
     0
 49
-0.1230314960629922
 74
     0
  0
LTYPE
  5
908
330
4
100
AcDbSymbolTableRecord
100
AcDbLinetypeTableRecord
  2
AI-LINETYPE-1
 70
     0
  3
Adobe Illustrator Linetype No. 1
 72
    65
 73
     4
 40
2.116668062491661
 49
1.058334031245831
 74
     0
 49
-0.3527780104152769
 74
     0
 49
0.3527780104152769
 74
     0
 49
-0.3527780104152769
 74
     0
  0
LTYPE
  5
909
330
4
100
AcDbSymbolTableRecord
100
AcDbLinetypeTableRecord
  2
AI-LINETYPE-2
 70
     0
  3
Adobe Illustrator Linetype No. 2
 72
    65
 73
     4
 40
2.116668062491661
 49
1.058334031245831
 74
     0
 49
-0.3527780104152769
 74
     0
 49
0.3527780104152769
 74
     0
 49
-0.3527780104152769
 74
     0
  0
LTYPE
  5
D6C
330
4
100
AcDbSymbolTableRecord
100
AcDbLinetypeTableRecord
  2
BORDER
 70
     0
  3
Border __  __  . __  __  . __  __  . __  __  . 
 72
    65
 73
     6
 40
44.45
 49
12.7
 74
     0
 49
-6.35
 74
     0
 49
12.7
 74
     0
 49
-6.35
 74
     0
 49
0.0
 74
     0
 49
-6.35
 74
     0
  0
LTYPE
  5
D6D
330
4
100
AcDbSymbolTableRecord
100
AcDbLinetypeTableRecord
  2
HIDDEN
 70
     0
  3
Hidden _ _ _ _ _ _ _ _ _ _ _ _ _ _ _ _ _ _ _ _ 
 72
    65
 73
     2
 40
9.524999999999999
 49
6.35
 74
     0
 49
-3.175
 74
     0
  0
ENDTAB
  0
TABLE
  2
LAYER
  5
2
102
{ACAD_XDICTIONARY
360
2E1
102
}
330
0
100
AcDbSymbolTable
 70
    10
  0
LAYER
  5
14
330
2
100
AcDbSymbolTableRecord
100
AcDbLayerTableRecord
  2
0
 70
     0
 62
     7
  6
Continuous
370
    -3
390
1D
347
266
  0
LAYER
  5
4B
330
2
100
AcDbSymbolTableRecord
100
AcDbLayerTableRecord
  2
TEMPLATE
 70
     0
 62
     7
  6
Continuous
370
    20
390
1D
347
266
  0
LAYER
  5
4C
330
2
100
AcDbSymbolTableRecord
100
AcDbLayerTableRecord
  2
DIM
 70
     0
 62
     3
  6
Continuous
370
    13
390
1D
347
266
  0
LAYER
  5
4D
330
2
100
AcDbSymbolTableRecord
100
AcDbLayerTableRecord
  2
MODEL
 70
     0
 62
     7
  6
Continuous
370
    20
390
1D
347
266
  0
LAYER
  5
667
330
2
100
AcDbSymbolTableRecord
100
AcDbLayerTableRecord
  2
LOGO
 70
     0
 62
     7
  6
Continuous
370
    -3
390
1D
347
266
  0
LAYER
  5
88C
330
2
100
AcDbSymbolTableRecord
100
AcDbLayerTableRecord
  2
HIDDEN
 70
     0
 62
     8
  6
HIDDEN
370
    20
390
1D
347
266
1001
AcAecLayerStandard
1000

1000

  0
LAYER
  5
D6B
330
2
100
AcDbSymbolTableRecord
100
AcDbLayerTableRecord
  2
BORDER
 70
     0
 62
     4
  6
BORDER
290
     0
370
    20
390
1D
347
266
1001
AcAecLayerStandard
1000

1000

  0
LAYER
  5
D8C
330
2
100
AcDbSymbolTableRecord
100
AcDbLayerTableRecord
  2
Defpoints
 70
     0
 62
     7
  6
Continuous
290
     0
370
    -3
390
1D
347
266
  0
LAYER
  5
1160
330
2
100
AcDbSymbolTableRecord
100
AcDbLayerTableRecord
  2
PRINT BORDER
 70
     0
 62
     4
  6
BORDER
290
     0
370
    20
390
1D
347
266
1001
AcAecLayerStandard
1000

1000

  0
LAYER
  5
1654
330
2
100
AcDbSymbolTableRecord
100
AcDbLayerTableRecord
  2
1_10
 70
     0
 62
     7
  6
Continuous
370
    -3
390
1D
347
266
  0
ENDTAB
  0
TABLE
  2
STYLE
  5
3
330
0
100
AcDbSymbolTable
 70
     4
  0
STYLE
  5
17
330
3
100
AcDbSymbolTableRecord
100
AcDbTextStyleTableRecord
  2
Standard
 70
     0
 40
0.0
 41
1.0
 50
0.0
 71
     0
 42
2.5
  3
txt
  4
BIGFONT.SHX
  0
STYLE
  5
39
330
3
100
AcDbSymbolTableRecord
100
AcDbTextStyleTableRecord
  2
ＭＳ ゴシック
 70
     0
 40
0.0
 41
1.0
 50
0.0
 71
     0
 42
2.5
  3
msgothic.ttc
  4
ＭＳ ゴシック
1001
ACAD
1000
ＭＳ ゴシック
1071
        0
  0
STYLE
  5
384
330
3
100
AcDbSymbolTableRecord
100
AcDbTextStyleTableRecord
  2
ARIAL
 70
     0
 40
0.0
 41
1.0
 50
0.0
 71
     0
 42
12.0
  3
ARIAL.TTF
  4

1001
ACAD
1000
Arial
1071
       34
  0
STYLE
  5
385
330
3
100
AcDbSymbolTableRecord
100
AcDbTextStyleTableRecord
  2
ROMANS
 70
     0
 40
0.0
 41
1.0
 50
0.0
 71
     0
 42
5.0
  3
romans.shx
  4

  0
ENDTAB
  0
TABLE
  2
VIEW
  5
5
330
0
100
AcDbSymbolTable
 70
     0
  0
ENDTAB
  0
TABLE
  2
UCS
  5
6
330
0
100
AcDbSymbolTable
 70
     0
  0
ENDTAB
  0
TABLE
  2
APPID
  5
8
330
0
100
AcDbSymbolTable
 70
     3
  0
APPID
  5
16
330
8
100
AcDbSymbolTableRecord
100
AcDbRegAppTableRecord
  2
ACAD
 70
     0
  0
APPID
  5
7AC
330
8
100
AcDbSymbolTableRecord
100
AcDbRegAppTableRecord
  2
AcAecLayerStandard
 70
     0
  0
APPID
  5
E29
330
8
100
AcDbSymbolTableRecord
100
AcDbRegAppTableRecord
  2
ACAD_MLEADERVER
 70
     0
  0
ENDTAB
  0
TABLE
  2
DIMSTYLE
  5
9
330
0
100
AcDbSymbolTable
 70
     5
100
AcDbDimStyleTable
  0
DIMSTYLE
105
18
102
{ACAD_REACTORS
102
}
330
9
100
AcDbSymbolTableRecord
100
AcDbDimStyleTableRecord
  2
Standard
 70
     0
178
     0
340
17
  0
DIMSTYLE
105
56
330
9
100
AcDbSymbolTableRecord
100
AcDbDimStyleTableRecord
  2
tform線あり
 70
     0
  3
<>
  4
[]
 41
9.999389648437498
 42
25.0
 43
0.9999999999999999
 44
0.0
 73
     0
 74
     0
 77
     1
 78
    11
140
24.4326171875
141
0.0
143
1.0
146
0.8
147
0.4999999999999999
171
     1
172
     1
174
     1
178
     0
179
     2
271
     1
272
     1
276
     2
284
    11
285
    11
286
    11
289
     0
340
39
341
4E
342
4E
  0
DIMSTYLE
105
57
102
{ACAD_REACTORS
330
2007
330
200A
330
2010
330
2013
330
2015
330
2081
102
}
330
9
100
AcDbSymbolTableRecord
100
AcDbDimStyleTableRecord
  2
tfrom線あり
 70
     0
  3
<>
  4
[]
 41
1.0
 42
2.0
 43
0.9999999999999999
 44
0.0
 73
     0
 74
     0
 77
     1
 78
    11
140
3.0
141
0.0
143
1.0
147
1.0
171
     1
174
     1
178
     0
179
     2
271
     0
272
     1
276
     2
284
    11
285
    11
286
    11
289
     0
340
39
341
4E
342
4E
  0
DIMSTYLE
105
5C
330
9
100
AcDbSymbolTableRecord
100
AcDbDimStyleTableRecord
  2
JIS
 70
     0
  3
<>
  4
[]
 41
9.0
 42
0.0
 43
6.99999999999994
 44
19.9999999999962
 73
     0
 74
     0
 77
     1
 78
    11
140
24.4326171875
141
0.0
143
1.0
147
10.0
171
     1
174
     1
178
     0
179
     2
271
     1
272
     1
276
     2
284
    11
285
    11
286
    11
289
     0
340
39
341
4E
342
4E
  0
DIMSTYLE
105
383
330
9
100
AcDbSymbolTableRecord
100
AcDbDimStyleTableRecord
  2
ARIAL
 70
     0
 41
10.0
 42
3.0
 43
0.5
 44
3.0
 73
     0
 74
     0
 77
     1
 78
     8
140
12.0
141
0.0
146
0.5
147
4.0
171
     1
172
     1
178
     0
271
     1
289
     0
340
384
  0
ENDTAB
  0
TABLE
  2
BLOCK_RECORD
  5
1
330
0
100
AcDbSymbolTable
 70
    66
  0
BLOCK_RECORD
  5
A
330
1
100
AcDbSymbolTableRecord
100
AcDbBlockTableRecord
  2
*MODEL_SPACE
340
20
 70
     0
280
     1
281
     0
  0
BLOCK_RECORD
  5
B
330
1
100
AcDbSymbolTableRecord
100
AcDbBlockTableRecord
  2
*PAPER_SPACE
340
21
 70
     0
280
     1
281
     0
  0
BLOCK_RECORD
  5
4E
330
1
100
AcDbSymbolTableRecord
100
AcDbBlockTableRecord
  2
_DOT
340
0
102
{BLKREFS
331
D96
331
D97
331
DA5
331
DA6
331
E53
331
E54
331
1200
331
1201
331
124E
331
124F
331
125D
331
125E
331
1270
331
1271
331
1281
331
1282
331
1290
331
1291
331
129D
331
129E
331
12AA
331
12AB
331
12B7
331
12B8
331
12C4
331
12C5
331
12D1
331
12D2
331
12E0
331
12E1
331
12F9
331
12FA
331
1308
331
1309
331
1315
331
1316
331
1322
331
1323
331
13EE
331
13EF
331
13F9
331
13FA
331
1405
331
1406
331
1411
331
1412
331
141E
331
141F
331
142A
331
142B
331
1436
331
1437
331
1442
331
1443
331
144E
331
144F
331
145A
331
145B
331
1466
331
1467
331
1472
331
1473
331
147E
331
147F
331
148A
331
148B
331
1496
331
1497
331
14A2
331
14A3
331
15D9
331
15DA
331
1606
331
1607
331
19B3
331
19B4
331
19C4
331
19C5
331
19D3
331
19D4
331
19E0
331
19E1
331
1D2A
331
1D2B
331
1D36
331
1D37
331
1D42
331
1D43
331
1D4E
331
1D4F
331
1D60
331
1D61
331
1DA9
331
1DAA
331
1DB9
331
1DBA
331
1DDA
331
1DDB
331
201D
331
201E
331
202A
331
202B
331
2037
331
2038
331
2044
331
2045
331
2051
331
2052
331
208A
331
208B
102
}
 70
     0
280
     1
281
     0
  0
BLOCK_RECORD
  5
68A
330
1
100
AcDbSymbolTableRecord
100
AcDbBlockTableRecord
  2
名称未設定-1
340
0
102
{BLKREFS
331
6B5
102
}
 70
     1
280
     1
281
     0
  0
BLOCK_RECORD
  5
68D
330
1
100
AcDbSymbolTableRecord
100
AcDbBlockTableRecord
  2
block 2
340
0
102
{BLKREFS
331
68C
331
1343
102
}
 70
     0
280
     1
281
     0
  0
BLOCK_RECORD
  5
690
330
1
100
AcDbSymbolTableRecord
100
AcDbBlockTableRecord
  2
block 3
340
0
102
{BLKREFS
331
68F
102
}
 70
     0
280
     1
281
     0
  0
BLOCK_RECORD
  5
693
330
1
100
AcDbSymbolTableRecord
100
AcDbBlockTableRecord
  2
block 4
340
0
102
{BLKREFS
331
692
102
}
 70
     0
280
     1
281
     0
  0
BLOCK_RECORD
  5
6A2
330
1
100
AcDbSymbolTableRecord
100
AcDbBlockTableRecord
  2
block 5
340
0
102
{BLKREFS
331
6A1
102
}
 70
     0
280
     1
281
     0
  0
BLOCK_RECORD
  5
D90
330
1
100
AcDbSymbolTableRecord
100
AcDbBlockTableRecord
  2
*D6
340
0
 70
     0
280
     1
281
     0
  0
BLOCK_RECORD
  5
D9F
330
1
100
AcDbSymbolTableRecord
100
AcDbBlockTableRecord
  2
*D7
340
0
 70
     0
280
     1
281
     0
  0
BLOCK_RECORD
  5
E4D
330
1
100
AcDbSymbolTableRecord
100
AcDbBlockTableRecord
  2
*D8
340
0
 70
     0
280
     1
281
     0
  0
BLOCK_RECORD
  5
11FC
330
1
100
AcDbSymbolTableRecord
100
AcDbBlockTableRecord
  2
*D9
340
0
 70
     0
280
     1
281
     0
  0
BLOCK_RECORD
  5
1249
330
1
100
AcDbSymbolTableRecord
100
AcDbBlockTableRecord
  2
*D10
340
0
 70
     0
280
     1
281
     0
  0
BLOCK_RECORD
  5
1258
330
1
100
AcDbSymbolTableRecord
100
AcDbBlockTableRecord
  2
*D11
340
0
 70
     0
280
     1
281
     0
  0
BLOCK_RECORD
  5
126A
330
1
100
AcDbSymbolTableRecord
100
AcDbBlockTableRecord
  2
*D12
340
0
 70
     0
280
     1
281
     0
  0
BLOCK_RECORD
  5
127C
330
1
100
AcDbSymbolTableRecord
100
AcDbBlockTableRecord
  2
*D13
340
0
 70
     0
280
     1
281
     0
  0
BLOCK_RECORD
  5
128B
330
1
100
AcDbSymbolTableRecord
100
AcDbBlockTableRecord
  2
*D14
340
0
 70
     0
280
     1
281
     0
  0
BLOCK_RECORD
  5
1298
330
1
100
AcDbSymbolTableRecord
100
AcDbBlockTableRecord
  2
*D15
340
0
 70
     0
280
     1
281
     0
  0
BLOCK_RECORD
  5
12A5
330
1
100
AcDbSymbolTableRecord
100
AcDbBlockTableRecord
  2
*D16
340
0
 70
     0
280
     1
281
     0
  0
BLOCK_RECORD
  5
12B2
330
1
100
AcDbSymbolTableRecord
100
AcDbBlockTableRecord
  2
*D17
340
0
 70
     0
280
     1
281
     0
  0
BLOCK_RECORD
  5
12BF
330
1
100
AcDbSymbolTableRecord
100
AcDbBlockTableRecord
  2
*D18
340
0
 70
     0
280
     1
281
     0
  0
BLOCK_RECORD
  5
12CC
330
1
100
AcDbSymbolTableRecord
100
AcDbBlockTableRecord
  2
*D19
340
0
 70
     0
280
     1
281
     0
  0
BLOCK_RECORD
  5
12DB
330
1
100
AcDbSymbolTableRecord
100
AcDbBlockTableRecord
  2
*D20
340
0
 70
     0
280
     1
281
     0
  0
BLOCK_RECORD
  5
12F4
330
1
100
AcDbSymbolTableRecord
100
AcDbBlockTableRecord
  2
*D21
340
0
 70
     0
280
     1
281
     0
  0
BLOCK_RECORD
  5
1303
330
1
100
AcDbSymbolTableRecord
100
AcDbBlockTableRecord
  2
*D22
340
0
 70
     0
280
     1
281
     0
  0
BLOCK_RECORD
  5
1310
330
1
100
AcDbSymbolTableRecord
100
AcDbBlockTableRecord
  2
*D23
340
0
 70
     0
280
     1
281
     0
  0
BLOCK_RECORD
  5
131D
330
1
100
AcDbSymbolTableRecord
100
AcDbBlockTableRecord
  2
*D24
340
0
 70
     0
280
     1
281
     0
  0
BLOCK_RECORD
  5
13E8
330
1
100
AcDbSymbolTableRecord
100
AcDbBlockTableRecord
  2
*D25
340
0
 70
     0
280
     1
281
     0
  0
BLOCK_RECORD
  5
13F3
330
1
100
AcDbSymbolTableRecord
100
AcDbBlockTableRecord
  2
*D26
340
0
 70
     0
280
     1
281
     0
  0
BLOCK_RECORD
  5
13FF
330
1
100
AcDbSymbolTableRecord
100
AcDbBlockTableRecord
  2
*D27
340
0
 70
     0
280
     1
281
     0
  0
BLOCK_RECORD
  5
140B
330
1
100
AcDbSymbolTableRecord
100
AcDbBlockTableRecord
  2
*D28
340
0
 70
     0
280
     1
281
     0
  0
BLOCK_RECORD
  5
1418
330
1
100
AcDbSymbolTableRecord
100
AcDbBlockTableRecord
  2
*D29
340
0
 70
     0
280
     1
281
     0
  0
BLOCK_RECORD
  5
1424
330
1
100
AcDbSymbolTableRecord
100
AcDbBlockTableRecord
  2
*D30
340
0
 70
     0
280
     1
281
     0
  0
BLOCK_RECORD
  5
1430
330
1
100
AcDbSymbolTableRecord
100
AcDbBlockTableRecord
  2
*D31
340
0
 70
     0
280
     1
281
     0
  0
BLOCK_RECORD
  5
143C
330
1
100
AcDbSymbolTableRecord
100
AcDbBlockTableRecord
  2
*D32
340
0
 70
     0
280
     1
281
     0
  0
BLOCK_RECORD
  5
1448
330
1
100
AcDbSymbolTableRecord
100
AcDbBlockTableRecord
  2
*D33
340
0
 70
     0
280
     1
281
     0
  0
BLOCK_RECORD
  5
1454
330
1
100
AcDbSymbolTableRecord
100
AcDbBlockTableRecord
  2
*D34
340
0
 70
     0
280
     1
281
     0
  0
BLOCK_RECORD
  5
1460
330
1
100
AcDbSymbolTableRecord
100
AcDbBlockTableRecord
  2
*D35
340
0
 70
     0
280
     1
281
     0
  0
BLOCK_RECORD
  5
146C
330
1
100
AcDbSymbolTableRecord
100
AcDbBlockTableRecord
  2
*D36
340
0
 70
     0
280
     1
281
     0
  0
BLOCK_RECORD
  5
1478
330
1
100
AcDbSymbolTableRecord
100
AcDbBlockTableRecord
  2
*D37
340
0
 70
     0
280
     1
281
     0
  0
BLOCK_RECORD
  5
1484
330
1
100
AcDbSymbolTableRecord
100
AcDbBlockTableRecord
  2
*D38
340
0
 70
     0
280
     1
281
     0
  0
BLOCK_RECORD
  5
1490
330
1
100
AcDbSymbolTableRecord
100
AcDbBlockTableRecord
  2
*D39
340
0
 70
     0
280
     1
281
     0
  0
BLOCK_RECORD
  5
149C
330
1
100
AcDbSymbolTableRecord
100
AcDbBlockTableRecord
  2
*D40
340
0
 70
     0
280
     1
281
     0
  0
BLOCK_RECORD
  5
15D3
330
1
100
AcDbSymbolTableRecord
100
AcDbBlockTableRecord
  2
*D41
340
0
 70
     0
280
     1
281
     0
  0
BLOCK_RECORD
  5
15FF
330
1
100
AcDbSymbolTableRecord
100
AcDbBlockTableRecord
  2
*D42
340
0
 70
     0
280
     1
281
     0
  0
BLOCK_RECORD
  5
19AE
330
1
100
AcDbSymbolTableRecord
100
AcDbBlockTableRecord
  2
*D43
340
0
 70
     0
280
     1
281
     0
  0
BLOCK_RECORD
  5
19BF
330
1
100
AcDbSymbolTableRecord
100
AcDbBlockTableRecord
  2
*D44
340
0
 70
     0
280
     1
281
     0
  0
BLOCK_RECORD
  5
19CE
330
1
100
AcDbSymbolTableRecord
100
AcDbBlockTableRecord
  2
*D45
340
0
 70
     0
280
     1
281
     0
  0
BLOCK_RECORD
  5
19DB
330
1
100
AcDbSymbolTableRecord
100
AcDbBlockTableRecord
  2
*D46
340
0
 70
     0
280
     1
281
     0
  0
BLOCK_RECORD
  5
1D24
330
1
100
AcDbSymbolTableRecord
100
AcDbBlockTableRecord
  2
*D47
340
0
 70
     0
280
     1
281
     0
  0
BLOCK_RECORD
  5
1D30
330
1
100
AcDbSymbolTableRecord
100
AcDbBlockTableRecord
  2
*D48
340
0
 70
     0
280
     1
281
     0
  0
BLOCK_RECORD
  5
1D3C
330
1
100
AcDbSymbolTableRecord
100
AcDbBlockTableRecord
  2
*D49
340
0
 70
     0
280
     1
281
     0
  0
BLOCK_RECORD
  5
1D48
330
1
100
AcDbSymbolTableRecord
100
AcDbBlockTableRecord
  2
*D50
340
0
 70
     0
280
     1
281
     0
  0
BLOCK_RECORD
  5
1D5A
330
1
100
AcDbSymbolTableRecord
100
AcDbBlockTableRecord
  2
*D51
340
0
 70
     0
280
     1
281
     0
  0
BLOCK_RECORD
  5
1DA3
330
1
100
AcDbSymbolTableRecord
100
AcDbBlockTableRecord
  2
*D52
340
0
 70
     0
280
     1
281
     0
  0
BLOCK_RECORD
  5
1DB3
330
1
100
AcDbSymbolTableRecord
100
AcDbBlockTableRecord
  2
*D53
340
0
 70
     0
280
     1
281
     0
  0
BLOCK_RECORD
  5
1DD4
330
1
100
AcDbSymbolTableRecord
100
AcDbBlockTableRecord
  2
*D54
340
0
 70
     0
280
     1
281
     0
  0
BLOCK_RECORD
  5
1F52
330
1
100
AcDbSymbolTableRecord
100
AcDbBlockTableRecord
  2
*D55
340
0
 70
     0
280
     1
281
     0
  0
BLOCK_RECORD
  5
1F62
330
1
100
AcDbSymbolTableRecord
100
AcDbBlockTableRecord
  2
*D56
340
0
 70
     0
280
     1
281
     0
  0
BLOCK_RECORD
  5
1F75
330
1
100
AcDbSymbolTableRecord
100
AcDbBlockTableRecord
  2
*D57
340
0
 70
     0
280
     1
281
     0
  0
BLOCK_RECORD
  5
1F84
330
1
100
AcDbSymbolTableRecord
100
AcDbBlockTableRecord
  2
*D58
340
0
 70
     0
280
     1
281
     0
  0
BLOCK_RECORD
  5
1F93
330
1
100
AcDbSymbolTableRecord
100
AcDbBlockTableRecord
  2
*D59
340
0
 70
     0
280
     1
281
     0
  0
BLOCK_RECORD
  5
2017
330
1
100
AcDbSymbolTableRecord
100
AcDbBlockTableRecord
  2
*D60
340
0
 70
     0
280
     1
281
     0
  0
BLOCK_RECORD
  5
2024
330
1
100
AcDbSymbolTableRecord
100
AcDbBlockTableRecord
  2
*D61
340
0
 70
     0
280
     1
281
     0
  0
BLOCK_RECORD
  5
2031
330
1
100
AcDbSymbolTableRecord
100
AcDbBlockTableRecord
  2
*D62
340
0
 70
     0
280
     1
281
     0
  0
BLOCK_RECORD
  5
203E
330
1
100
AcDbSymbolTableRecord
100
AcDbBlockTableRecord
  2
*D63
340
0
 70
     0
280
     1
281
     0
  0
BLOCK_RECORD
  5
204B
330
1
100
AcDbSymbolTableRecord
100
AcDbBlockTableRecord
  2
*D64
340
0
 70
     0
280
     1
281
     0
  0
BLOCK_RECORD
  5
2084
330
1
100
AcDbSymbolTableRecord
100
AcDbBlockTableRecord
  2
*D65
340
0
 70
     0
280
     1
281
     0
  0
ENDTAB
  0
ENDSEC
  0
SECTION
  2
BLOCKS
  0
BLOCK
  5
D
330
A
100
AcDbEntity
  8
0
390
1D
100
AcDbBlockBegin
  2
*MODEL_SPACE
 70
     0
 10
0.0
 20
0.0
 30
0.0
  3
*MODEL_SPACE
  1
*MODEL_SPACE
  0
ENDBLK
  5
E
330
A
100
AcDbEntity
  8
0
390
1D
100
AcDbBlockEnd
  0
BLOCK
  5
F
330
B
100
AcDbEntity
 67
     1
  8
0
390
1D
100
AcDbBlockBegin
  2
*PAPER_SPACE
 70
     0
 10
0.0
 20
0.0
 30
0.0
  3
*PAPER_SPACE
  1
*PAPER_SPACE
  0
ENDBLK
  5
10
330
B
100
AcDbEntity
 67
     1
  8
0
390
1D
100
AcDbBlockEnd
  0
BLOCK
  5
1DF2
330
4E
100
AcDbEntity
  8
0
390
1D
100
AcDbBlockBegin
  2
_DOT
 70
     0
 10
0.0
 20
0.0
 30
0.0
  3
_DOT
  1
_DOT
  0
POLYLINE
  5
1DF4
330
4E
100
AcDbEntity
  8
0
  6
ByBlock
 62
     0
370
    -2
390
1D
100
AcDb2dPolyline
 66
     1
 10
0.0
 20
0.0
 30
0.0
 70
     1
 40
0.5
 41
0.5
  0
VERTEX
  5
1DF5
330
1DF4
100
AcDbEntity
  8
0
  6
ByBlock
 62
     0
370
    -2
390
1D
100
AcDbVertex
100
AcDb2dVertex
 10
-0.25
 20
0.0
 30
0.0
 42
1.0
  0
VERTEX
  5
1DF6
330
1DF4
100
AcDbEntity
  8
0
  6
ByBlock
 62
     0
370
    -2
390
1D
100
AcDbVertex
100
AcDb2dVertex
 10
0.25
 20
0.0
 30
0.0
 42
1.0
  0
SEQEND
  5
1DF7
330
1DF4
100
AcDbEntity
  8
0
390
1D
  0
LINE
  5
1DF8
330
4E
100
AcDbEntity
  8
0
  6
ByBlock
 62
     0
370
    -2
390
1D
100
AcDbLine
 10
-0.5
 20
0.0
 30
0.0
 11
-1.0
 21
0.0
 31
0.0
  0
ENDBLK
  5
1DF9
330
4E
100
AcDbEntity
  8
0
390
1D
100
AcDbBlockEnd
  0
BLOCK
  5
68B
330
68A
100
AcDbEntity
  8
0
100
AcDbBlockBegin
  2
名称未設定-1
 70
     0
 10
0.0
 20
0.0
 30
0.0
  3
名称未設定-1
  1
名称未設定-1
  0
INSERT
  5
68F
330
68A
100
AcDbEntity
  8
LOGO
100
AcDbBlockReference
  2
block 3
 10
0.0
 20
0.0
 30
0.0
  0
ENDBLK
  5
6B1
330
68A
100
AcDbEntity
  8
0
100
AcDbBlockEnd
  0
BLOCK
  5
68E
330
68D
100
AcDbEntity
  8
0
100
AcDbBlockBegin
  2
block 2
 70
     0
 10
0.0
 20
0.0
 30
0.0
  3
block 2
  1
block 2
  0
ENDBLK
  5
6B0
330
68D
100
AcDbEntity
  8
0
100
AcDbBlockEnd
  0
BLOCK
  5
691
330
690
100
AcDbEntity
  8
0
100
AcDbBlockBegin
  2
block 3
 70
     0
 10
0.0
 20
0.0
 30
0.0
  3
block 3
  1
block 3
  0
INSERT
  5
692
330
690
100
AcDbEntity
  8
LOGO
100
AcDbBlockReference
  2
block 4
 10
0.0
 20
0.0
 30
0.0
  0
INSERT
  5
6A1
330
690
100
AcDbEntity
  8
LOGO
100
AcDbBlockReference
  2
block 5
 10
0.0
 20
0.0
 30
0.0
  0
ENDBLK
  5
6AF
330
690
100
AcDbEntity
  8
0
100
AcDbBlockEnd
  0
BLOCK
  5
694
330
693
100
AcDbEntity
  8
0
100
AcDbBlockBegin
  2
block 4
 70
     0
 10
0.0
 20
0.0
 30
0.0
  3
block 4
  1
block 4
  0
POLYLINE
  5
695
330
693
100
AcDbEntity
  8
LOGO
370
     0
100
AcDb2dPolyline
 66
     1
 10
0.0
 20
0.0
 30
0.0
  0
VERTEX
  5
696
330
695
100
AcDbEntity
  8
LOGO
370
     0
100
AcDbVertex
100
AcDb2dVertex
 10
83.79545727667795
 20
167.6444858234922
 30
0.0
  0
VERTEX
  5
697
330
695
100
AcDbEntity
  8
LOGO
370
     0
100
AcDbVertex
100
AcDb2dVertex
 10
83.79545727667795
 20
159.7968976406313
 30
0.0
  0
VERTEX
  5
698
330
695
100
AcDbEntity
  8
LOGO
370
     0
100
AcDbVertex
100
AcDb2dVertex
 10
71.3631329975216
 20
159.7968976406313
 30
0.0
  0
VERTEX
  5
699
330
695
100
AcDbEntity
  8
LOGO
370
     0
100
AcDbVertex
100
AcDb2dVertex
 10
71.3631329975216
 20
127.8027915271048
 30
0.0
  0
VERTEX
  5
69A
330
695
100
AcDbEntity
  8
LOGO
370
     0
100
AcDbVertex
100
AcDb2dVertex
 10
60.43011526263018
 20
127.8027915271048
 30
0.0
  0
VERTEX
  5
69B
330
695
100
AcDbEntity
  8
LOGO
370
     0
100
AcDbVertex
100
AcDb2dVertex
 10
60.43011526263018
 20
159.7968976406313
 30
0.0
  0
VERTEX
  5
69C
330
695
100
AcDbEntity
  8
LOGO
370
     0
100
AcDbVertex
100
AcDb2dVertex
 10
48.21793273020759
 20
159.7968976406313
 30
0.0
  0
VERTEX
  5
69D
330
695
100
AcDbEntity
  8
LOGO
370
     0
100
AcDbVertex
100
AcDb2dVertex
 10
48.21793273020759
 20
167.6444858234922
 30
0.0
  0
VERTEX
  5
69E
330
695
100
AcDbEntity
  8
LOGO
370
     0
100
AcDbVertex
100
AcDb2dVertex
 10
83.79545727667795
 20
167.6444858234922
 30
0.0
  0
SEQEND
  5
69F
330
695
100
AcDbEntity
  8
LOGO
370
     0
  0
HATCH
  5
6A0
330
693
100
AcDbEntity
  8
LOGO
 62
   250
420
  2234388
100
AcDbHatch
 10
0.0
 20
0.0
 30
0.0
210
0.0
220
0.0
230
1.0
  2
SOLID
 70
     1
 71
     0
 91
        1
 92
        1
 93
        8
 72
     1
 10
83.79545727667795
 20
167.6444858234922
 11
83.79545727667795
 21
159.7968976406313
 72
     1
 10
83.79545727667795
 20
159.7968976406313
 11
71.3631329975216
 21
159.7968976406313
 72
     1
 10
71.3631329975216
 20
159.7968976406313
 11
71.3631329975216
 21
127.8027915271048
 72
     1
 10
71.3631329975216
 20
127.8027915271048
 11
60.43011526263018
 21
127.8027915271048
 72
     1
 10
60.43011526263018
 20
127.8027915271048
 11
60.43011526263018
 21
159.7968976406313
 72
     1
 10
60.43011526263018
 20
159.7968976406313
 11
48.21793273020759
 21
159.7968976406313
 72
     1
 10
48.21793273020759
 20
159.7968976406313
 11
48.21793273020759
 21
167.6444858234922
 72
     1
 10
48.21793273020759
 20
167.6444858234922
 11
83.79545727667795
 21
167.6444858234922
 97
        0
 75
     2
 76
     1
 98
        0
  0
ENDBLK
  5
6AE
330
693
100
AcDbEntity
  8
0
100
AcDbBlockEnd
  0
BLOCK
  5
6A3
330
6A2
100
AcDbEntity
  8
0
100
AcDbBlockBegin
  2
block 5
 70
     0
 10
0.0
 20
0.0
 30
0.0
  3
block 5
  1
block 5
  0
SPLINE
  5
6A4
330
6A2
100
AcDbEntity
  8
LOGO
370
     0
100
AcDbSpline
210
0.0
220
0.0
230
1.0
 70
    11
 71
     3
 72
    56
 73
    52
 74
     0
 42
0.000000001
 43
0.0000000001
 40
0.0
 40
0.0
 40
0.0
 40
0.0
 40
1.0
 40
1.0
 40
1.0
 40
2.0
 40
2.0
 40
2.0
 40
3.0
 40
3.0
 40
3.0
 40
4.0
 40
4.0
 40
4.0
 40
5.0
 40
5.0
 40
5.0
 40
6.0
 40
6.0
 40
6.0
 40
7.0
 40
7.0
 40
7.0
 40
8.0
 40
8.0
 40
8.0
 40
9.0
 40
9.0
 40
9.0
 40
10.0
 40
10.0
 40
10.0
 40
11.0
 40
11.0
 40
11.0
 40
12.0
 40
12.0
 40
12.0
 40
13.0
 40
13.0
 40
13.0
 40
14.0
 40
14.0
 40
14.0
 40
15.0
 40
15.0
 40
15.0
 40
16.0
 40
16.0
 40
16.0
 40
17.0
 40
17.0
 40
17.0
 40
17.0
 10
100.4504378777679
 20
166.69157178364
 30
0.0
 10
101.9848844191641
 20
167.1313385124438
 30
0.0
 10
103.9637485713373
 20
166.7649523658846
 30
0.0
 10
103.9637485713373
 20
166.7649523658846
 30
0.0
 10
103.9637485713373
 20
166.7649523658846
 30
0.0
 10
103.0132460999156
 20
163.911205638077
 30
0.0
 10
103.0132460999156
 20
163.911205638077
 30
0.0
 10
103.0132460999156
 20
163.911205638077
 30
0.0
 10
101.0674548862189
 20
164.3601018759394
 30
0.0
 10
99.57090442016032
 20
163.1805004036133
 30
0.0
 10
98.40508333886608
 20
162.258247733807
 30
0.0
 10
97.65301849830304
 20
159.804132345923
 30
0.0
 10
97.3598406791005
 20
158.8699940888517
 30
0.0
 10
97.3598406791005
 20
158.8699940888517
 30
0.0
 10
96.07137411762282
 20
154.9119212747295
 30
0.0
 10
96.07137411762282
 20
154.9119212747295
 30
0.0
 10
96.07137411762282
 20
154.9119212747295
 30
0.0
 10
100.3012651448482
 20
154.9119212747295
 30
0.0
 10
100.3012651448482
 20
154.9119212747295
 30
0.0
 10
100.3012651448482
 20
154.9119212747295
 30
0.0
 10
99.64152892419852
 20
152.4199098115079
 30
0.0
 10
99.64152892419852
 20
152.4199098115079
 30
0.0
 10
99.64152892419852
 20
152.4199098115079
 30
0.0
 10
95.38097652692731
 20
152.4199098115079
 30
0.0
 10
95.38097652692731
 20
152.4199098115079
 30
0.0
 10
95.38097652692731
 20
152.4199098115079
 30
0.0
 10
87.75353009080013
 20
127.8027915271048
 30
0.0
 10
87.75353009080013
 20
127.8027915271048
 30
0.0
 10
87.75353009080013
 20
127.8027915271048
 30
0.0
 10
85.36538832498108
 20
127.8027915271048
 30
0.0
 10
85.36538832498108
 20
127.8027915271048
 30
0.0
 10
85.36538832498108
 20
127.8027915271048
 30
0.0
 10
93.00006946639998
 20
152.4199098115079
 30
0.0
 10
93.00006946639998
 20
152.4199098115079
 30
0.0
 10
93.00006946639998
 20
152.4199098115079
 30
0.0
 10
89.85297266450198
 20
152.4199098115079
 30
0.0
 10
89.85297266450198
 20
152.4199098115079
 30
0.0
 10
89.85297266450198
 20
152.4199098115079
 30
0.0
 10
90.51270888515164
 20
154.9119212747295
 30
0.0
 10
90.51270888515164
 20
154.9119212747295
 30
0.0
 10
90.51270888515164
 20
154.9119212747295
 30
0.0
 10
93.6904670570955
 20
154.9119212747295
 30
0.0
 10
93.6904670570955
 20
154.9119212747295
 30
0.0
 10
93.6904670570955
 20
154.9119212747295
 30
0.0
 10
94.81598049462158
 20
158.3616699146644
 30
0.0
 10
94.81598049462158
 20
158.3616699146644
 30
0.0
 10
95.7237637538445
 20
161.2605474231013
 30
0.0
 10
96.4968436907311
 20
162.8139420021662
 30
0.0
 10
97.15657991138076
 20
163.9844139654337
 30
0.0
 10
97.81183750494507
 20
165.1523021053827
 30
0.0
 10
99.1047826935081
 20
166.3084769129547
 30
0.0
 10
100.4504378777679
 20
166.69157178364
 30
0.0
  0
HATCH
  5
6A5
330
6A2
100
AcDbEntity
  8
LOGO
 62
   250
420
  2234388
100
AcDbHatch
 10
0.0
 20
0.0
 30
0.0
210
0.0
220
0.0
230
1.0
  2
SOLID
 70
     1
 71
     0
 91
        1
 92
        1
 93
        1
 72
     4
 94
        3
 73
     0
 74
     1
 95
       56
 96
       52
 40
0.0
 40
0.0
 40
0.0
 40
0.0
 40
1.0
 40
1.0
 40
1.0
 40
2.0
 40
2.0
 40
2.0
 40
3.0
 40
3.0
 40
3.0
 40
4.0
 40
4.0
 40
4.0
 40
5.0
 40
5.0
 40
5.0
 40
6.0
 40
6.0
 40
6.0
 40
7.0
 40
7.0
 40
7.0
 40
8.0
 40
8.0
 40
8.0
 40
9.0
 40
9.0
 40
9.0
 40
10.0
 40
10.0
 40
10.0
 40
11.0
 40
11.0
 40
11.0
 40
12.0
 40
12.0
 40
12.0
 40
13.0
 40
13.0
 40
13.0
 40
14.0
 40
14.0
 40
14.0
 40
15.0
 40
15.0
 40
15.0
 40
16.0
 40
16.0
 40
16.0
 40
17.0
 40
17.0
 40
17.0
 40
17.0
 10
100.4504378777679
 20
166.69157178364
 10
101.9848844191641
 20
167.1313385124438
 10
103.9637485713373
 20
166.7649523658846
 10
103.9637485713373
 20
166.7649523658846
 10
103.9637485713373
 20
166.7649523658846
 10
103.0132460999156
 20
163.911205638077
 10
103.0132460999156
 20
163.911205638077
 10
103.0132460999156
 20
163.911205638077
 10
101.0674548862189
 20
164.3601018759394
 10
99.57090442016032
 20
163.1805004036133
 10
98.40508333886608
 20
162.258247733807
 10
97.65301849830304
 20
159.804132345923
 10
97.3598406791005
 20
158.8699940888517
 10
97.3598406791005
 20
158.8699940888517
 10
96.07137411762282
 20
154.9119212747295
 10
96.07137411762282
 20
154.9119212747295
 10
96.07137411762282
 20
154.9119212747295
 10
100.3012651448482
 20
154.9119212747295
 10
100.3012651448482
 20
154.9119212747295
 10
100.3012651448482
 20
154.9119212747295
 10
99.64152892419852
 20
152.4199098115079
 10
99.64152892419852
 20
152.4199098115079
 10
99.64152892419852
 20
152.4199098115079
 10
95.38097652692731
 20
152.4199098115079
 10
95.38097652692731
 20
152.4199098115079
 10
95.38097652692731
 20
152.4199098115079
 10
87.75353009080013
 20
127.8027915271048
 10
87.75353009080013
 20
127.8027915271048
 10
87.75353009080013
 20
127.8027915271048
 10
85.36538832498108
 20
127.8027915271048
 10
85.36538832498108
 20
127.8027915271048
 10
85.36538832498108
 20
127.8027915271048
 10
93.00006946639998
 20
152.4199098115079
 10
93.00006946639998
 20
152.4199098115079
 10
93.00006946639998
 20
152.4199098115079
 10
89.85297266450198
 20
152.4199098115079
 10
89.85297266450198
 20
152.4199098115079
 10
89.85297266450198
 20
152.4199098115079
 10
90.51270888515164
 20
154.9119212747295
 10
90.51270888515164
 20
154.9119212747295
 10
90.51270888515164
 20
154.9119212747295
 10
93.6904670570955
 20
154.9119212747295
 10
93.6904670570955
 20
154.9119212747295
 10
93.6904670570955
 20
154.9119212747295
 10
94.81598049462158
 20
158.3616699146644
 10
94.81598049462158
 20
158.3616699146644
 10
95.7237637538445
 20
161.2605474231013
 10
96.4968436907311
 20
162.8139420021662
 10
97.15657991138076
 20
163.9844139654337
 10
97.81183750494507
 20
165.1523021053827
 10
99.1047826935081
 20
166.3084769129547
 10
100.4504378777679
 20
166.69157178364
 97
        0
 75
     2
 76
     1
 98
        0
  0
SPLINE
  5
6A6
330
6A2
100
AcDbEntity
  8
LOGO
370
     0
100
AcDbSpline
210
0.0
220
0.0
230
1.0
 70
    11
 71
     3
 72
    38
 73
    34
 74
     0
 42
0.000000001
 43
0.0000000001
 40
0.0
 40
0.0
 40
0.0
 40
0.0
 40
1.0
 40
1.0
 40
1.0
 40
2.0
 40
2.0
 40
2.0
 40
3.0
 40
3.0
 40
3.0
 40
4.0
 40
4.0
 40
4.0
 40
5.0
 40
5.0
 40
5.0
 40
6.0
 40
6.0
 40
6.0
 40
7.0
 40
7.0
 40
7.0
 40
8.0
 40
8.0
 40
8.0
 40
9.0
 40
9.0
 40
9.0
 40
10.0
 40
10.0
 40
10.0
 40
11.0
 40
11.0
 40
11.0
 40
11.0
 10
126.377554584636
 20
154.8151140277308
 30
0.0
 10
126.377554584636
 20
154.8151140277308
 30
0.0
 10
128.8311532078563
 20
154.8151140277308
 30
0.0
 10
128.8311532078563
 20
154.8151140277308
 30
0.0
 10
128.8311532078563
 20
154.8151140277308
 30
0.0
 10
127.7345785914971
 20
151.3062819612468
 30
0.0
 10
127.7345785914971
 20
151.3062819612468
 30
0.0
 10
128.571392836906
 20
152.2922689395754
 30
0.0
 10
129.8860421413442
 20
153.604506675583
 30
0.0
 10
131.0163787157314
 20
154.2664822097754
 30
0.0
 10
132.7044766171327
 20
155.2500576196734
 30
0.0
 10
133.6642808525008
 20
155.3847609420097
 30
0.0
 10
134.7284715499351
 20
155.3565111403944
 30
0.0
 10
134.7284715499351
 20
155.3565111403944
 30
0.0
 10
133.6877075172549
 20
152.0345756272799
 30
0.0
 10
133.6877075172549
 20
152.0345756272799
 30
0.0
 10
133.011434827367
 20
152.3184516825359
 30
0.0
 10
130.930940291334
 20
151.7768823149844
 30
0.0
 10
129.739280976855
 20
150.9162968950455
 30
0.0
 10
128.66613302525
 20
150.1454562717016
 30
0.0
 10
127.9192358313239
 20
149.4857200510519
 30
0.0
 10
127.0393578639405
 20
147.8282835196966
 30
0.0
 10
126.164647543194
 20
146.1699857139017
 30
0.0
 10
125.4742499524985
 20
143.5262176944419
 30
0.0
 10
124.2822461282437
 20
139.6959580071401
 30
0.0
 10
124.2822461282437
 20
139.6959580071401
 30
0.0
 10
120.5753209406769
 20
127.8027915271048
 30
0.0
 10
120.5753209406769
 20
127.8027915271048
 30
0.0
 10
120.5753209406769
 20
127.8027915271048
 30
0.0
 10
118.1964809388044
 20
127.8027915271048
 30
0.0
 10
118.1964809388044
 20
127.8027915271048
 30
0.0
 10
118.1964809388044
 20
127.8027915271048
 30
0.0
 10
126.377554584636
 20
154.8151140277308
 30
0.0
 10
126.377554584636
 20
154.8151140277308
 30
0.0
  0
HATCH
  5
6A7
330
6A2
100
AcDbEntity
  8
LOGO
 62
   250
420
  2234388
100
AcDbHatch
 10
0.0
 20
0.0
 30
0.0
210
0.0
220
0.0
230
1.0
  2
SOLID
 70
     1
 71
     0
 91
        1
 92
        1
 93
        1
 72
     4
 94
        3
 73
     0
 74
     1
 95
       38
 96
       34
 40
0.0
 40
0.0
 40
0.0
 40
0.0
 40
1.0
 40
1.0
 40
1.0
 40
2.0
 40
2.0
 40
2.0
 40
3.0
 40
3.0
 40
3.0
 40
4.0
 40
4.0
 40
4.0
 40
5.0
 40
5.0
 40
5.0
 40
6.0
 40
6.0
 40
6.0
 40
7.0
 40
7.0
 40
7.0
 40
8.0
 40
8.0
 40
8.0
 40
9.0
 40
9.0
 40
9.0
 40
10.0
 40
10.0
 40
10.0
 40
11.0
 40
11.0
 40
11.0
 40
11.0
 10
126.377554584636
 20
154.8151140277308
 10
126.377554584636
 20
154.8151140277308
 10
128.8311532078563
 20
154.8151140277308
 10
128.8311532078563
 20
154.8151140277308
 10
128.8311532078563
 20
154.8151140277308
 10
127.7345785914971
 20
151.3062819612468
 10
127.7345785914971
 20
151.3062819612468
 10
128.571392836906
 20
152.2922689395754
 10
129.8860421413442
 20
153.604506675583
 10
131.0163787157314
 20
154.2664822097754
 10
132.7044766171327
 20
155.2500576196734
 10
133.6642808525008
 20
155.3847609420097
 10
134.7284715499351
 20
155.3565111403944
 10
134.7284715499351
 20
155.3565111403944
 10
133.6877075172549
 20
152.0345756272799
 10
133.6877075172549
 20
152.0345756272799
 10
133.011434827367
 20
152.3184516825359
 10
130.930940291334
 20
151.7768823149844
 10
129.739280976855
 20
150.9162968950455
 10
128.66613302525
 20
150.1454562717016
 10
127.9192358313239
 20
149.4857200510519
 10
127.0393578639405
 20
147.8282835196966
 10
126.164647543194
 20
146.1699857139017
 10
125.4742499524985
 20
143.5262176944419
 10
124.2822461282437
 20
139.6959580071401
 10
124.2822461282437
 20
139.6959580071401
 10
120.5753209406769
 20
127.8027915271048
 10
120.5753209406769
 20
127.8027915271048
 10
120.5753209406769
 20
127.8027915271048
 10
118.1964809388044
 20
127.8027915271048
 10
118.1964809388044
 20
127.8027915271048
 10
118.1964809388044
 20
127.8027915271048
 10
126.377554584636
 20
154.8151140277308
 10
126.377554584636
 20
154.8151140277308
 97
        0
 75
     2
 76
     1
 98
        0
  0
SPLINE
  5
6A8
330
6A2
100
AcDbEntity
  8
LOGO
370
     0
100
AcDbSpline
210
0.0
220
0.0
230
1.0
 70
    11
 71
     3
 72
   104
 73
   100
 74
     0
 42
0.000000001
 43
0.0000000001
 40
0.0
 40
0.0
 40
0.0
 40
0.0
 40
1.0
 40
1.0
 40
1.0
 40
2.0
 40
2.0
 40
2.0
 40
3.0
 40
3.0
 40
3.0
 40
4.0
 40
4.0
 40
4.0
 40
5.0
 40
5.0
 40
5.0
 40
6.0
 40
6.0
 40
6.0
 40
7.0
 40
7.0
 40
7.0
 40
8.0
 40
8.0
 40
8.0
 40
9.0
 40
9.0
 40
9.0
 40
10.0
 40
10.0
 40
10.0
 40
11.0
 40
11.0
 40
11.0
 40
12.0
 40
12.0
 40
12.0
 40
13.0
 40
13.0
 40
13.0
 40
14.0
 40
14.0
 40
14.0
 40
15.0
 40
15.0
 40
15.0
 40
16.0
 40
16.0
 40
16.0
 40
17.0
 40
17.0
 40
17.0
 40
18.0
 40
18.0
 40
18.0
 40
19.0
 40
19.0
 40
19.0
 40
20.0
 40
20.0
 40
20.0
 40
21.0
 40
21.0
 40
21.0
 40
22.0
 40
22.0
 40
22.0
 40
23.0
 40
23.0
 40
23.0
 40
24.0
 40
24.0
 40
24.0
 40
25.0
 40
25.0
 40
25.0
 40
26.0
 40
26.0
 40
26.0
 40
27.0
 40
27.0
 40
27.0
 40
28.0
 40
28.0
 40
28.0
 40
29.0
 40
29.0
 40
29.0
 40
30.0
 40
30.0
 40
30.0
 40
31.0
 40
31.0
 40
31.0
 40
32.0
 40
32.0
 40
32.0
 40
33.0
 40
33.0
 40
33.0
 40
33.0
 10
139.8926730891197
 20
154.8294111834263
 30
0.0
 10
139.8926730891197
 20
154.8294111834263
 30
0.0
 10
142.0344903652445
 20
154.8294111834263
 30
0.0
 10
142.0344903652445
 20
154.8294111834263
 30
0.0
 10
142.0344903652445
 20
154.8294111834263
 30
0.0
 10
140.9516961399171
 20
151.3157559800812
 30
0.0
 10
140.9516961399171
 20
151.3157559800812
 30
0.0
 10
141.8928968473923
 20
152.7887075264977
 30
0.0
 10
142.7341897198865
 20
153.4484437471474
 30
0.0
 10
143.8552245303272
 20
154.2926649527359
 30
0.0
 10
144.9803934580775
 20
155.1296514530327
 30
0.0
 10
146.3139908001845
 20
155.3044901642492
 30
0.0
 10
147.241066606852
 20
155.3044901642492
 30
0.0
 10
148.3855280820469
 20
155.3044901642492
 30
0.0
 10
149.4969166187653
 20
155.0752189084569
 30
0.0
 10
150.0784491203092
 20
153.8172414621372
 30
0.0
 10
150.5228667310863
 20
152.833838307127
 30
0.0
 10
150.5414702589793
 20
152.7201500811143
 30
0.0
 10
150.4140016419347
 20
150.7765981809602
 30
0.0
 10
151.5818897818837
 20
152.7699317437168
 30
0.0
 10
152.4424752018226
 20
153.6256940267945
 30
0.0
 10
153.9038856707499
 20
154.4507949398263
 30
0.0
 10
155.4455669174378
 20
155.3044901642492
 30
0.0
 10
156.339225275853
 20
155.3659851592288
 30
0.0
 10
157.3748216618963
 20
155.2147453676543
 30
0.0
 10
158.911679771723
 20
154.9877134254046
 30
0.0
 10
159.8859534176746
 20
154.4390816074493
 30
0.0
 10
160.3965169054045
 20
152.7816450760939
 30
0.0
 10
160.9070803931344
 20
151.1219692311958
 30
0.0
 10
160.6328506116007
 20
150.2303779314354
 30
0.0
 10
159.9992971339115
 20
147.597634224801
 30
0.0
 10
159.7105979417943
 20
146.4014962832367
 30
0.0
 10
159.2947746424084
 20
144.9400858143094
 30
0.0
 10
158.7463150793409
 20
143.2092687007094
 30
0.0
 10
158.7463150793409
 20
143.2092687007094
 30
0.0
 10
153.9038856707499
 20
127.8027915271048
 30
0.0
 10
153.9038856707499
 20
127.8027915271048
 30
0.0
 10
153.9038856707499
 20
127.8027915271048
 30
0.0
 10
151.3882752878863
 20
127.8027915271048
 30
0.0
 10
151.3882752878863
 20
127.8027915271048
 30
0.0
 10
151.3882752878863
 20
127.8027915271048
 30
0.0
 10
155.6250565106276
 20
141.2751908193897
 30
0.0
 10
155.6250565106276
 20
141.2751908193897
 30
0.0
 10
156.5094131050963
 20
144.0936252951782
 30
0.0
 10
157.109893644309
 20
146.1506931664571
 30
0.0
 10
157.4220195011804
 20
147.4415712963654
 30
0.0
 10
157.8095929989511
 20
149.0530157726519
 30
0.0
 10
157.9656559273867
 20
149.5826995529385
 30
0.0
 10
157.7816877071116
 20
150.7529992613181
 30
0.0
 10
157.6111553680925
 20
151.8430281919372
 30
0.0
 10
157.0582171779396
 20
152.5547853887321
 30
0.0
 10
156.1170164704645
 20
152.5547853887321
 30
0.0
 10
155.1096698860365
 20
152.5547853887321
 30
0.0
 10
154.2962823053817
 20
152.4412694176073
 30
0.0
 10
153.156643967048
 20
151.2945686288697
 30
0.0
 10
152.0170056287143
 20
150.1476955852443
 30
0.0
 10
151.076149431015
 20
148.7930831468137
 30
0.0
 10
150.3337308641742
 20
147.2290087646991
 30
0.0
 10
149.5957909244188
 20
145.6683794803425
 30
0.0
 10
148.8530278478023
 20
143.6822806228776
 30
0.0
 10
148.0964843801539
 20
141.2751908193897
 30
0.0
 10
148.0964843801539
 20
141.2751908193897
 30
0.0
 10
143.8552245303272
 20
127.8027915271048
 30
0.0
 10
143.8552245303272
 20
127.8027915271048
 30
0.0
 10
143.8552245303272
 20
127.8027915271048
 30
0.0
 10
141.486030802177
 20
127.8027915271048
 30
0.0
 10
141.486030802177
 20
127.8027915271048
 30
0.0
 10
141.486030802177
 20
127.8027915271048
 30
0.0
 10
146.3329388378533
 20
143.2092687007094
 30
0.0
 10
146.3329388378533
 20
143.2092687007094
 30
0.0
 10
146.8483254624444
 20
144.8408669988801
 30
0.0
 10
147.2314203331297
 20
146.1837661049335
 30
0.0
 10
147.4867020769946
 20
147.224185627838
 30
0.0
 10
147.9169947869641
 20
149.0197705792876
 30
0.0
 10
148.0306830129768
 20
150.2400242051577
 30
0.0
 10
147.709255392159
 20
151.3157559800812
 30
0.0
 10
147.3874832615654
 20
152.3916600098926
 30
0.0
 10
146.8245542879144
 20
152.6683013598569
 30
0.0
 10
145.8840425999909
 20
152.6683013598569
 30
0.0
 10
145.0989048209514
 20
152.6683013598569
 30
0.0
 10
144.3282364524954
 20
152.3275811915945
 30
0.0
 10
143.4531816219731
 20
151.6538923250251
 30
0.0
 10
142.34627171234
 20
150.8074318058939
 30
0.0
 10
141.901854101563
 20
150.1097995099067
 30
0.0
 10
141.3578731655808
 20
149.289521733736
 30
0.0
 10
140.6299240093235
 20
148.192602607601
 30
0.0
 10
140.2850697237515
 20
147.455696197173
 30
0.0
 10
139.6652966370942
 20
145.8385673095858
 30
0.0
 10
139.0506911970739
 20
144.2214384219986
 30
0.0
 10
138.463991048893
 20
142.3252566160164
 30
0.0
 10
138.0571250036777
 20
141.0154304484394
 30
0.0
 10
138.0571250036777
 20
141.0154304484394
 30
0.0
 10
133.9009590684727
 20
127.8027915271048
 30
0.0
 10
133.9009590684727
 20
127.8027915271048
 30
0.0
 10
133.9009590684727
 20
127.8027915271048
 30
0.0
 10
131.4180771143097
 20
127.8027915271048
 30
0.0
 10
131.4180771143097
 20
127.8027915271048
 30
0.0
 10
131.4180771143097
 20
127.8027915271048
 30
0.0
 10
139.8926730891197
 20
154.8294111834263
 30
0.0
 10
139.8926730891197
 20
154.8294111834263
 30
0.0
  0
HATCH
  5
6A9
330
6A2
100
AcDbEntity
  8
LOGO
 62
   250
420
  2234388
100
AcDbHatch
 10
0.0
 20
0.0
 30
0.0
210
0.0
220
0.0
230
1.0
  2
SOLID
 70
     1
 71
     0
 91
        1
 92
        1
 93
        1
 72
     4
 94
        3
 73
     0
 74
     1
 95
      104
 96
      100
 40
0.0
 40
0.0
 40
0.0
 40
0.0
 40
1.0
 40
1.0
 40
1.0
 40
2.0
 40
2.0
 40
2.0
 40
3.0
 40
3.0
 40
3.0
 40
4.0
 40
4.0
 40
4.0
 40
5.0
 40
5.0
 40
5.0
 40
6.0
 40
6.0
 40
6.0
 40
7.0
 40
7.0
 40
7.0
 40
8.0
 40
8.0
 40
8.0
 40
9.0
 40
9.0
 40
9.0
 40
10.0
 40
10.0
 40
10.0
 40
11.0
 40
11.0
 40
11.0
 40
12.0
 40
12.0
 40
12.0
 40
13.0
 40
13.0
 40
13.0
 40
14.0
 40
14.0
 40
14.0
 40
15.0
 40
15.0
 40
15.0
 40
16.0
 40
16.0
 40
16.0
 40
17.0
 40
17.0
 40
17.0
 40
18.0
 40
18.0
 40
18.0
 40
19.0
 40
19.0
 40
19.0
 40
20.0
 40
20.0
 40
20.0
 40
21.0
 40
21.0
 40
21.0
 40
22.0
 40
22.0
 40
22.0
 40
23.0
 40
23.0
 40
23.0
 40
24.0
 40
24.0
 40
24.0
 40
25.0
 40
25.0
 40
25.0
 40
26.0
 40
26.0
 40
26.0
 40
27.0
 40
27.0
 40
27.0
 40
28.0
 40
28.0
 40
28.0
 40
29.0
 40
29.0
 40
29.0
 40
30.0
 40
30.0
 40
30.0
 40
31.0
 40
31.0
 40
31.0
 40
32.0
 40
32.0
 40
32.0
 40
33.0
 40
33.0
 40
33.0
 40
33.0
 10
139.8926730891197
 20
154.8294111834263
 10
139.8926730891197
 20
154.8294111834263
 10
142.0344903652445
 20
154.8294111834263
 10
142.0344903652445
 20
154.8294111834263
 10
142.0344903652445
 20
154.8294111834263
 10
140.9516961399171
 20
151.3157559800812
 10
140.9516961399171
 20
151.3157559800812
 10
141.8928968473923
 20
152.7887075264977
 10
142.7341897198865
 20
153.4484437471474
 10
143.8552245303272
 20
154.2926649527359
 10
144.9803934580775
 20
155.1296514530327
 10
146.3139908001845
 20
155.3044901642492
 10
147.241066606852
 20
155.3044901642492
 10
148.3855280820469
 20
155.3044901642492
 10
149.4969166187653
 20
155.0752189084569
 10
150.0784491203092
 20
153.8172414621372
 10
150.5228667310863
 20
152.833838307127
 10
150.5414702589793
 20
152.7201500811143
 10
150.4140016419347
 20
150.7765981809602
 10
151.5818897818837
 20
152.7699317437168
 10
152.4424752018226
 20
153.6256940267945
 10
153.9038856707499
 20
154.4507949398263
 10
155.4455669174378
 20
155.3044901642492
 10
156.339225275853
 20
155.3659851592288
 10
157.3748216618963
 20
155.2147453676543
 10
158.911679771723
 20
154.9877134254046
 10
159.8859534176746
 20
154.4390816074493
 10
160.3965169054045
 20
152.7816450760939
 10
160.9070803931344
 20
151.1219692311958
 10
160.6328506116007
 20
150.2303779314354
 10
159.9992971339115
 20
147.597634224801
 10
159.7105979417943
 20
146.4014962832367
 10
159.2947746424084
 20
144.9400858143094
 10
158.7463150793409
 20
143.2092687007094
 10
158.7463150793409
 20
143.2092687007094
 10
153.9038856707499
 20
127.8027915271048
 10
153.9038856707499
 20
127.8027915271048
 10
153.9038856707499
 20
127.8027915271048
 10
151.3882752878863
 20
127.8027915271048
 10
151.3882752878863
 20
127.8027915271048
 10
151.3882752878863
 20
127.8027915271048
 10
155.6250565106276
 20
141.2751908193897
 10
155.6250565106276
 20
141.2751908193897
 10
156.5094131050963
 20
144.0936252951782
 10
157.109893644309
 20
146.1506931664571
 10
157.4220195011804
 20
147.4415712963654
 10
157.8095929989511
 20
149.0530157726519
 10
157.9656559273867
 20
149.5826995529385
 10
157.7816877071116
 20
150.7529992613181
 10
157.6111553680925
 20
151.8430281919372
 10
157.0582171779396
 20
152.5547853887321
 10
156.1170164704645
 20
152.5547853887321
 10
155.1096698860365
 20
152.5547853887321
 10
154.2962823053817
 20
152.4412694176073
 10
153.156643967048
 20
151.2945686288697
 10
152.0170056287143
 20
150.1476955852443
 10
151.076149431015
 20
148.7930831468137
 10
150.3337308641742
 20
147.2290087646991
 10
149.5957909244188
 20
145.6683794803425
 10
148.8530278478023
 20
143.6822806228776
 10
148.0964843801539
 20
141.2751908193897
 10
148.0964843801539
 20
141.2751908193897
 10
143.8552245303272
 20
127.8027915271048
 10
143.8552245303272
 20
127.8027915271048
 10
143.8552245303272
 20
127.8027915271048
 10
141.486030802177
 20
127.8027915271048
 10
141.486030802177
 20
127.8027915271048
 10
141.486030802177
 20
127.8027915271048
 10
146.3329388378533
 20
143.2092687007094
 10
146.3329388378533
 20
143.2092687007094
 10
146.8483254624444
 20
144.8408669988801
 10
147.2314203331297
 20
146.1837661049335
 10
147.4867020769946
 20
147.224185627838
 10
147.9169947869641
 20
149.0197705792876
 10
148.0306830129768
 20
150.2400242051577
 10
147.709255392159
 20
151.3157559800812
 10
147.3874832615654
 20
152.3916600098926
 10
146.8245542879144
 20
152.6683013598569
 10
145.8840425999909
 20
152.6683013598569
 10
145.0989048209514
 20
152.6683013598569
 10
144.3282364524954
 20
152.3275811915945
 10
143.4531816219731
 20
151.6538923250251
 10
142.34627171234
 20
150.8074318058939
 10
141.901854101563
 20
150.1097995099067
 10
141.3578731655808
 20
149.289521733736
 10
140.6299240093235
 20
148.192602607601
 10
140.2850697237515
 20
147.455696197173
 10
139.6652966370942
 20
145.8385673095858
 10
139.0506911970739
 20
144.2214384219986
 10
138.463991048893
 20
142.3252566160164
 10
138.0571250036777
 20
141.0154304484394
 10
138.0571250036777
 20
141.0154304484394
 10
133.9009590684727
 20
127.8027915271048
 10
133.9009590684727
 20
127.8027915271048
 10
133.9009590684727
 20
127.8027915271048
 10
131.4180771143097
 20
127.8027915271048
 10
131.4180771143097
 20
127.8027915271048
 10
131.4180771143097
 20
127.8027915271048
 10
139.8926730891197
 20
154.8294111834263
 10
139.8926730891197
 20
154.8294111834263
 97
        0
 75
     2
 76
     1
 98
        0
  0
SPLINE
  5
6AA
330
6A2
100
AcDbEntity
  8
LOGO
370
     0
100
AcDbSpline
210
0.0
220
0.0
230
1.0
 70
    11
 71
     3
 72
    29
 73
    25
 74
     0
 42
0.000000001
 43
0.0000000001
 40
0.0
 40
0.0
 40
0.0
 40
0.0
 40
1.0
 40
1.0
 40
1.0
 40
2.0
 40
2.0
 40
2.0
 40
3.0
 40
3.0
 40
3.0
 40
4.0
 40
4.0
 40
4.0
 40
5.0
 40
5.0
 40
5.0
 40
6.0
 40
6.0
 40
6.0
 40
7.0
 40
7.0
 40
7.0
 40
8.0
 40
8.0
 40
8.0
 40
8.0
 10
101.6420971922469
 20
132.8388354296931
 30
0.0
 10
101.630039350094
 20
134.7164137077823
 30
0.0
 10
102.2236296937908
 20
138.0598810818841
 30
0.0
 10
103.7487744712405
 20
142.5378191476827
 30
0.0
 10
105.819967243327
 20
148.5896501242061
 30
0.0
 10
107.0602024361932
 20
150.8074318058939
 30
0.0
 10
108.1522984254671
 20
151.8833358357054
 30
0.0
 10
109.741177511439
 20
153.4532668840085
 30
0.0
 10
111.8740375333931
 20
153.5290590346837
 30
0.0
 10
112.5075910110823
 20
153.4532668840085
 30
0.0
 10
113.4012493694975
 20
153.3490526768302
 30
0.0
 10
114.6683563248758
 20
152.7580461564518
 30
0.0
 10
114.7493161221879
 20
150.7838328862519
 30
0.0
 10
114.8106388622796
 20
149.0909118479895
 30
0.0
 10
114.3186789024427
 20
145.9191825971221
 30
0.0
 10
112.6164561002338
 20
140.9489400617108
 30
0.0
 10
110.6444821435766
 20
135.1746117095912
 30
0.0
 10
109.4669477299053
 20
132.8960240524753
 30
0.0
 10
108.5212683953448
 20
131.9072809959403
 30
0.0
 10
106.7346406980658
 20
130.0538184021569
 30
0.0
 10
104.8222669326213
 20
130.2336525051225
 30
0.0
 10
104.5408024457958
 20
130.2336525051225
 30
0.0
 10
104.1721769856939
 20
130.2336525051225
 30
0.0
 10
101.6465758193322
 20
130.6305277668397
 30
0.0
 10
101.6420971922469
 20
132.8388354296931
 30
0.0
  0
SPLINE
  5
6AB
330
6A2
100
AcDbEntity
  8
LOGO
370
     0
100
AcDbSpline
210
0.0
220
0.0
230
1.0
 70
    11
 71
     3
 72
    32
 73
    28
 74
     0
 42
0.000000001
 43
0.0000000001
 40
0.0
 40
0.0
 40
0.0
 40
0.0
 40
1.0
 40
1.0
 40
1.0
 40
2.0
 40
2.0
 40
2.0
 40
3.0
 40
3.0
 40
3.0
 40
4.0
 40
4.0
 40
4.0
 40
5.0
 40
5.0
 40
5.0
 40
6.0
 40
6.0
 40
6.0
 40
7.0
 40
7.0
 40
7.0
 40
8.0
 40
8.0
 40
8.0
 40
9.0
 40
9.0
 40
9.0
 40
9.0
 10
106.2595617172429
 20
153.4105476718098
 30
0.0
 10
104.8222669326213
 20
151.5474388043041
 30
0.0
 10
103.7177685914188
 20
149.8758773721411
 30
0.0
 10
101.9232171692965
 20
144.6141795664062
 30
0.0
 10
100.2754269116635
 20
139.7999999594306
 30
0.0
 10
99.22777268346732
 20
136.3052927937542
 30
0.0
 10
99.06964269637689
 20
132.039572749846
 30
0.0
 10
98.94665270641765
 20
128.8673267343149
 30
0.0
 10
100.8807305877373
 20
127.8027915271048
 30
0.0
 10
103.7129454545577
 20
127.8027915271048
 30
0.0
 10
104.9352661390825
 20
127.8027915271048
 30
0.0
 10
108.0151835347002
 20
127.8827177950895
 30
0.0
 10
110.2045431598849
 20
130.5926316915021
 30
0.0
 10
111.7417457794874
 20
132.4984597712065
 30
0.0
 10
113.155269389579
 20
134.475256864725
 30
0.0
 10
115.0562743324223
 20
140.9489400617108
 30
0.0
 10
116.6361961642235
 20
146.3680788349845
 30
0.0
 10
117.7282921534974
 20
149.8639917848761
 30
0.0
 10
117.6480213757369
 20
151.8595646611754
 30
0.0
 10
117.6480213757369
 20
151.8595646611754
 30
0.0
 10
117.6480213757369
 20
151.8595646611754
 30
0.0
 10
117.6480213757369
 20
151.8595646611754
 30
0.0
 10
117.13229024137
 20
155.18150017429
 30
0.0
 10
114.7162431837115
 20
155.886194920681
 30
0.0
 10
113.3351034925446
 20
155.886194920681
 30
0.0
 10
111.9829026225447
 20
155.886194920681
 30
0.0
 10
108.3414342923792
 20
156.1251124501957
 30
0.0
 10
106.2595617172429
 20
153.4105476718098
 30
0.0
  0
HATCH
  5
6AC
330
6A2
100
AcDbEntity
  8
LOGO
 62
   250
420
  2234388
100
AcDbHatch
 10
0.0
 20
0.0
 30
0.0
210
0.0
220
0.0
230
1.0
  2
SOLID
 70
     1
 71
     0
 91
        2
 92
        1
 93
        1
 72
     4
 94
        3
 73
     0
 74
     1
 95
       29
 96
       25
 40
0.0
 40
0.0
 40
0.0
 40
0.0
 40
1.0
 40
1.0
 40
1.0
 40
2.0
 40
2.0
 40
2.0
 40
3.0
 40
3.0
 40
3.0
 40
4.0
 40
4.0
 40
4.0
 40
5.0
 40
5.0
 40
5.0
 40
6.0
 40
6.0
 40
6.0
 40
7.0
 40
7.0
 40
7.0
 40
8.0
 40
8.0
 40
8.0
 40
8.0
 10
101.6420971922469
 20
132.8388354296931
 10
101.630039350094
 20
134.7164137077823
 10
102.2236296937908
 20
138.0598810818841
 10
103.7487744712405
 20
142.5378191476827
 10
105.819967243327
 20
148.5896501242061
 10
107.0602024361932
 20
150.8074318058939
 10
108.1522984254671
 20
151.8833358357054
 10
109.741177511439
 20
153.4532668840085
 10
111.8740375333931
 20
153.5290590346837
 10
112.5075910110823
 20
153.4532668840085
 10
113.4012493694975
 20
153.3490526768302
 10
114.6683563248758
 20
152.7580461564518
 10
114.7493161221879
 20
150.7838328862519
 10
114.8106388622796
 20
149.0909118479895
 10
114.3186789024427
 20
145.9191825971221
 10
112.6164561002338
 20
140.9489400617108
 10
110.6444821435766
 20
135.1746117095912
 10
109.4669477299053
 20
132.8960240524753
 10
108.5212683953448
 20
131.9072809959403
 10
106.7346406980658
 20
130.0538184021569
 10
104.8222669326213
 20
130.2336525051225
 10
104.5408024457958
 20
130.2336525051225
 10
104.1721769856939
 20
130.2336525051225
 10
101.6465758193322
 20
130.6305277668397
 10
101.6420971922469
 20
132.8388354296931
 97
        0
 92
        1
 93
        1
 72
     4
 94
        3
 73
     0
 74
     1
 95
       32
 96
       28
 40
0.0
 40
0.0
 40
0.0
 40
0.0
 40
1.0
 40
1.0
 40
1.0
 40
2.0
 40
2.0
 40
2.0
 40
3.0
 40
3.0
 40
3.0
 40
4.0
 40
4.0
 40
4.0
 40
5.0
 40
5.0
 40
5.0
 40
6.0
 40
6.0
 40
6.0
 40
7.0
 40
7.0
 40
7.0
 40
8.0
 40
8.0
 40
8.0
 40
9.0
 40
9.0
 40
9.0
 40
9.0
 10
106.2595617172429
 20
153.4105476718098
 10
104.8222669326213
 20
151.5474388043041
 10
103.7177685914188
 20
149.8758773721411
 10
101.9232171692965
 20
144.6141795664062
 10
100.2754269116635
 20
139.7999999594306
 10
99.22777268346732
 20
136.3052927937542
 10
99.06964269637689
 20
132.039572749846
 10
98.94665270641765
 20
128.8673267343149
 10
100.8807305877373
 20
127.8027915271048
 10
103.7129454545577
 20
127.8027915271048
 10
104.9352661390825
 20
127.8027915271048
 10
108.0151835347002
 20
127.8827177950895
 10
110.2045431598849
 20
130.5926316915021
 10
111.7417457794874
 20
132.4984597712065
 10
113.155269389579
 20
134.475256864725
 10
115.0562743324223
 20
140.9489400617108
 10
116.6361961642235
 20
146.3680788349845
 10
117.7282921534974
 20
149.8639917848761
 10
117.6480213757369
 20
151.8595646611754
 10
117.6480213757369
 20
151.8595646611754
 10
117.6480213757369
 20
151.8595646611754
 10
117.6480213757369
 20
151.8595646611754
 10
117.13229024137
 20
155.18150017429
 10
114.7162431837115
 20
155.886194920681
 10
113.3351034925446
 20
155.886194920681
 10
111.9829026225447
 20
155.886194920681
 10
108.3414342923792
 20
156.1251124501957
 10
106.2595617172429
 20
153.4105476718098
 97
        0
 75
     2
 76
     1
 98
        0
  0
ENDBLK
  5
6AD
330
6A2
100
AcDbEntity
  8
0
100
AcDbBlockEnd
  0
BLOCK
  5
D91
330
D90
100
AcDbEntity
  8
0
100
AcDbBlockBegin
  2
*D6
 70
     1
 10
0.0
 20
0.0
 30
0.0
  3
*D6
  1
*D6
  0
LINE
  5
D93
330
D90
100
AcDbEntity
  8
DIM
 62
     0
370
    -2
100
AcDbLine
 10
194.9013848396499
 20
991.8781341107873
 30
0.0
 11
194.9013848396499
 21
940.5413793571681
 31
0.0
  0
LINE
  5
D94
330
D90
100
AcDbEntity
  8
DIM
 62
     0
370
    -2
100
AcDbLine
 10
521.6879737609329
 20
991.8781341107873
 30
0.0
 11
521.6879737609329
 21
940.5413793571681
 31
0.0
  0
LINE
  5
D95
330
D90
100
AcDbEntity
  8
DIM
 62
     0
370
    -2
100
AcDbLine
 10
200.9013848396499
 20
940.5413793571681
 30
0.0
 11
515.6879737609329
 21
940.5413793571681
 31
0.0
  0
INSERT
  5
D96
330
D90
100
AcDbEntity
  8
DIM
 62
     0
370
    -2
100
AcDbBlockReference
  2
_DOT
 10
194.9013848396499
 20
940.5413793571681
 30
0.0
 41
6.0
 42
6.0
 43
6.0
 50
180.0
  0
INSERT
  5
D97
330
D90
100
AcDbEntity
  8
DIM
 62
     0
370
    -2
100
AcDbBlockReference
  2
_DOT
 10
521.6879737609329
 20
940.5413793571681
 30
0.0
 41
6.0
 42
6.0
 43
6.0
  0
MTEXT
  5
D98
330
D90
100
AcDbEntity
  8
DIM
 62
     0
100
AcDbMText
 10
358.2946793002914
 20
956.5413793571681
 30
0.0
 40
12.0
 41
0.0
 46
0.0
 71
     5
 72
     1
  1
\A1;327
  7
ＭＳ ゴシック
 73
     1
 44
1.0
  0
POINT
  5
D99
330
D90
100
AcDbEntity
  8
Defpoints
 62
     0
100
AcDbPoint
 10
194.9013848396499
 20
1011.878134110787
 30
0.0
  0
POINT
  5
D9A
330
D90
100
AcDbEntity
  8
Defpoints
 62
     0
100
AcDbPoint
 10
521.6879737609329
 20
1011.878134110787
 30
0.0
  0
POINT
  5
D9B
330
D90
100
AcDbEntity
  8
Defpoints
 62
     0
100
AcDbPoint
 10
521.6879737609329
 20
940.5413793571681
 30
0.0
  0
ENDBLK
  5
D92
330
D90
100
AcDbEntity
  8
0
100
AcDbBlockEnd
  0
BLOCK
  5
DA0
330
D9F
100
AcDbEntity
  8
0
100
AcDbBlockBegin
  2
*D7
 70
     1
 10
0.0
 20
0.0
 30
0.0
  3
*D7
  1
*D7
  0
LINE
  5
DA2
330
D9F
100
AcDbEntity
  8
DIM
 62
     0
370
    -2
100
AcDbLine
 10
541.6879737609329
 20
1259.176093294461
 30
0.0
 11
592.27223683134
 21
1259.176093294461
 31
0.0
  0
LINE
  5
DA3
330
D9F
100
AcDbEntity
  8
DIM
 62
     0
370
    -2
100
AcDbLine
 10
541.6879737609329
 20
1011.878134110787
 30
0.0
 11
592.27223683134
 21
1011.878134110787
 31
0.0
  0
LINE
  5
DA4
330
D9F
100
AcDbEntity
  8
DIM
 62
     0
370
    -2
100
AcDbLine
 10
592.27223683134
 20
1253.176093294461
 30
0.0
 11
592.27223683134
 21
1017.878134110787
 31
0.0
  0
INSERT
  5
DA5
330
D9F
100
AcDbEntity
  8
DIM
 62
     0
370
    -2
100
AcDbBlockReference
  2
_DOT
 10
592.27223683134
 20
1259.176093294461
 30
0.0
 41
6.0
 42
6.0
 43
6.0
 50
90.0
  0
INSERT
  5
DA6
330
D9F
100
AcDbEntity
  8
DIM
 62
     0
370
    -2
100
AcDbBlockReference
  2
_DOT
 10
592.27223683134
 20
1011.878134110787
 30
0.0
 41
6.0
 42
6.0
 43
6.0
 50
270.0
  0
MTEXT
  5
DA7
330
D9F
100
AcDbEntity
  8
DIM
 62
     0
100
AcDbMText
 10
576.27223683134
 20
1135.527113702624
 30
0.0
 40
12.0
 41
0.0
 46
0.0
 71
     5
 72
     1
  1
\A1;247
  7
ＭＳ ゴシック
 11
0.0
 21
1.0
 31
0.0
 73
     1
 44
1.0
  0
POINT
  5
DA8
330
D9F
100
AcDbEntity
  8
Defpoints
 62
     0
100
AcDbPoint
 10
521.6879737609329
 20
1259.176093294461
 30
0.0
  0
POINT
  5
DA9
330
D9F
100
AcDbEntity
  8
Defpoints
 62
     0
100
AcDbPoint
 10
521.6879737609329
 20
1011.878134110787
 30
0.0
  0
POINT
  5
DAA
330
D9F
100
AcDbEntity
  8
Defpoints
 62
     0
100
AcDbPoint
 10
592.27223683134
 20
1011.878134110787
 30
0.0
  0
ENDBLK
  5
DA1
330
D9F
100
AcDbEntity
  8
0
100
AcDbBlockEnd
  0
BLOCK
  5
E4E
330
E4D
100
AcDbEntity
  8
0
100
AcDbBlockBegin
  2
*D8
 70
     1
 10
0.0
 20
0.0
 30
0.0
  3
*D8
  1
*D8
  0
LINE
  5
E50
330
E4D
100
AcDbEntity
  8
HIDDEN
  6
HIDDEN
 62
     0
 48
0.05
370
    -2
100
AcDbLine
 10
322.9663994169097
 20
836.4046647230323
 30
0.0
 11
322.9663994169097
 21
978.7578717201168
 31
0.0
  0
LINE
  5
E51
330
E4D
100
AcDbEntity
  8
HIDDEN
  6
HIDDEN
 62
     0
 48
0.05
370
    -2
100
AcDbLine
 10
640.9209183673471
 20
836.4046647230323
 30
0.0
 11
640.9209183673471
 21
978.7578717201168
 31
0.0
  0
LINE
  5
E52
330
E4D
100
AcDbEntity
  8
HIDDEN
  6
HIDDEN
 62
     0
 48
0.05
370
    -2
100
AcDbLine
 10
325.9663994169097
 20
978.7578717201168
 30
0.0
 11
637.9209183673471
 21
978.7578717201168
 31
0.0
  0
INSERT
  5
E53
330
E4D
100
AcDbEntity
  8
HIDDEN
 62
     0
370
    -2
100
AcDbBlockReference
  2
_DOT
 10
322.9663994169097
 20
978.7578717201168
 30
0.0
 41
3.0
 42
3.0
 43
3.0
 50
180.0
  0
INSERT
  5
E54
330
E4D
100
AcDbEntity
  8
HIDDEN
 62
     0
370
    -2
100
AcDbBlockReference
  2
_DOT
 10
640.9209183673471
 20
978.7578717201168
 30
0.0
 41
3.0
 42
3.0
 43
3.0
  0
MTEXT
  5
E55
330
E4D
100
AcDbEntity
  8
HIDDEN
  6
HIDDEN
 62
     0
 48
0.05
100
AcDbMText
 10
481.9436588921284
 20
994.7578717201168
 30
0.0
 40
12.0
 41
0.0
 46
0.0
 71
     5
 72
     1
  1
\A1;318
  7
ＭＳ ゴシック
 73
     1
 44
1.0
  0
POINT
  5
E56
330
E4D
100
AcDbEntity
  8
Defpoints
 62
     0
100
AcDbPoint
 10
322.9663994169097
 20
826.4046647230323
 30
0.0
  0
POINT
  5
E57
330
E4D
100
AcDbEntity
  8
Defpoints
 62
     0
100
AcDbPoint
 10
640.9209183673471
 20
826.4046647230323
 30
0.0
  0
POINT
  5
E58
330
E4D
100
AcDbEntity
  8
Defpoints
 62
     0
100
AcDbPoint
 10
640.9209183673471
 20
978.7578717201168
 30
0.0
  0
ENDBLK
  5
E4F
330
E4D
100
AcDbEntity
  8
0
100
AcDbBlockEnd
  0
BLOCK
  5
11FD
330
11FC
100
AcDbEntity
  8
0
100
AcDbBlockBegin
  2
*D9
 70
     1
 10
0.0
 20
0.0
 30
0.0
  3
*D9
  1
*D141
  0
LINE
  5
11FE
330
11FC
100
AcDbEntity
  8
DIM
  6
Continuous
 62
     0
370
    -2
100
AcDbLine
 10
1448.56022934476
 20
1077.090453293982
 30
0.0
 11
1448.56022934476
 21
1203.742453293982
 31
0.0
  0
LINE
  5
11FF
330
11FC
100
AcDbEntity
  8
DIM
  6
Continuous
 62
     0
370
    -2
100
AcDbLine
 10
1448.56022934476
 20
1074.090453293982
 30
0.0
 11
1448.56022934476
 21
1004.488599905444
 31
0.0
  0
INSERT
  5
1200
330
11FC
100
AcDbEntity
  8
DIM
 62
     0
370
    -2
100
AcDbBlockReference
  2
_DOT
 10
1448.56022934476
 20
1077.090453293982
 30
0.0
 41
3.0
 42
3.0
 43
3.0
 50
90.0
  0
INSERT
  5
1201
330
11FC
100
AcDbEntity
  8
DIM
 62
     0
370
    -2
100
AcDbBlockReference
  2
_DOT
 10
1448.56022934476
 20
1001.488599905444
 30
0.0
 41
3.0
 42
3.0
 43
3.0
 50
270.0
  0
MTEXT
  5
1202
330
11FC
100
AcDbEntity
  8
DIM
 62
     0
 48
0.05
100
AcDbMText
 10
1431.49822934476
 20
1164.858453293982
 30
0.0
 40
12.0
 41
0.0
 46
0.0
 71
     5
 72
     1
  1
\A1;75(深さ)
  7
ＭＳ ゴシック
 11
0.0
 21
1.0
 31
0.0
 73
     1
 44
1.0
  0
POINT
  5
1203
330
11FC
100
AcDbEntity
  8
Defpoints
 62
     0
100
AcDbPoint
 10
1471.671489326533
 20
1077.090453293982
 30
0.0
  0
POINT
  5
1204
330
11FC
100
AcDbEntity
  8
Defpoints
 62
     0
100
AcDbPoint
 10
1448.56022934476
 20
1001.488599905444
 30
0.0
  0
POINT
  5
1205
330
11FC
100
AcDbEntity
  8
Defpoints
 62
     0
100
AcDbPoint
 10
1448.56022934476
 20
1001.488599905444
 30
0.0
  0
ENDBLK
  5
1206
330
11FC
100
AcDbEntity
  8
0
100
AcDbBlockEnd
  0
BLOCK
  5
124A
330
1249
100
AcDbEntity
  8
0
100
AcDbBlockBegin
  2
*D10
 70
     1
 10
0.0
 20
0.0
 30
0.0
  3
*D10
  1
*D145
  0
LINE
  5
124B
330
1249
100
AcDbEntity
  8
DIM
  6
Continuous
 62
     0
370
    -2
100
AcDbLine
 10
1467.244907837198
 20
1959.395394639839
 30
0.0
 11
1617.583641015255
 21
1959.395394639839
 31
0.0
  0
LINE
  5
124C
330
1249
100
AcDbEntity
  8
DIM
  6
Continuous
 62
     0
370
    -2
100
AcDbLine
 10
1467.244907837198
 20
2124.395394639839
 30
0.0
 11
1617.583641015255
 21
2124.395394639839
 31
0.0
  0
LINE
  5
124D
330
1249
100
AcDbEntity
  8
DIM
  6
Continuous
 62
     0
370
    -2
100
AcDbLine
 10
1617.583641015255
 20
1962.395394639839
 30
0.0
 11
1617.583641015255
 21
2121.395394639839
 31
0.0
  0
INSERT
  5
124E
330
1249
100
AcDbEntity
  8
DIM
 62
     0
370
    -2
100
AcDbBlockReference
  2
_DOT
 10
1617.583641015255
 20
1959.395394639839
 30
0.0
 41
3.0
 42
3.0
 43
3.0
 50
270.0
  0
INSERT
  5
124F
330
1249
100
AcDbEntity
  8
DIM
 62
     0
370
    -2
100
AcDbBlockReference
  2
_DOT
 10
1617.583641015255
 20
2124.395394639839
 30
0.0
 41
3.0
 42
3.0
 43
3.0
 50
90.0
  0
MTEXT
  5
1250
330
1249
100
AcDbEntity
  8
DIM
 62
     0
 48
0.05
100
AcDbMText
 10
1601.583641015255
 20
2041.895394639839
 30
0.0
 40
12.0
 41
0.0
 46
0.0
 71
     5
 72
     1
  1
\A1;165
  7
ＭＳ ゴシック
 11
0.0
 21
1.0
 31
0.0
 73
     1
 44
1.0
  0
POINT
  5
1251
330
1249
100
AcDbEntity
  8
Defpoints
 62
     0
100
AcDbPoint
 10
1457.244907837198
 20
1959.395394639839
 30
0.0
  0
POINT
  5
1252
330
1249
100
AcDbEntity
  8
Defpoints
 62
     0
100
AcDbPoint
 10
1457.244907837198
 20
2124.395394639839
 30
0.0
  0
POINT
  5
1253
330
1249
100
AcDbEntity
  8
Defpoints
 62
     0
100
AcDbPoint
 10
1617.583641015255
 20
2124.395394639839
 30
0.0
  0
ENDBLK
  5
1254
330
1249
100
AcDbEntity
  8
0
100
AcDbBlockEnd
  0
BLOCK
  5
1259
330
1258
100
AcDbEntity
  8
0
100
AcDbBlockBegin
  2
*D11
 70
     1
 10
0.0
 20
0.0
 30
0.0
  3
*D11
  1
*D146
  0
LINE
  5
125A
330
1258
100
AcDbEntity
  8
DIM
  6
Continuous
 62
     0
370
    -2
100
AcDbLine
 10
1357.244907837198
 20
1949.395394639839
 30
0.0
 11
1357.244907837198
 21
1789.071925503803
 31
0.0
  0
LINE
  5
125B
330
1258
100
AcDbEntity
  8
DIM
  6
Continuous
 62
     0
370
    -2
100
AcDbLine
 10
1457.244907837198
 20
1949.395394639839
 30
0.0
 11
1457.244907837198
 21
1789.071925503803
 31
0.0
  0
LINE
  5
125C
330
1258
100
AcDbEntity
  8
DIM
  6
Continuous
 62
     0
370
    -2
100
AcDbLine
 10
1360.244907837198
 20
1789.071925503803
 30
0.0
 11
1454.244907837198
 21
1789.071925503803
 31
0.0
  0
INSERT
  5
125D
330
1258
100
AcDbEntity
  8
DIM
 62
     0
370
    -2
100
AcDbBlockReference
  2
_DOT
 10
1357.244907837198
 20
1789.071925503803
 30
0.0
 41
3.0
 42
3.0
 43
3.0
 50
180.0
  0
INSERT
  5
125E
330
1258
100
AcDbEntity
  8
DIM
 62
     0
370
    -2
100
AcDbBlockReference
  2
_DOT
 10
1457.244907837198
 20
1789.071925503803
 30
0.0
 41
3.0
 42
3.0
 43
3.0
  0
MTEXT
  5
125F
330
1258
100
AcDbEntity
  8
DIM
 62
     0
 48
0.05
100
AcDbMText
 10
1407.244907837198
 20
1805.071925503803
 30
0.0
 40
12.0
 41
0.0
 46
0.0
 71
     5
 72
     1
  1
\A1;100
  7
ＭＳ ゴシック
 73
     1
 44
1.0
  0
POINT
  5
1260
330
1258
100
AcDbEntity
  8
Defpoints
 62
     0
100
AcDbPoint
 10
1357.244907837198
 20
1959.395394639839
 30
0.0
  0
POINT
  5
1261
330
1258
100
AcDbEntity
  8
Defpoints
 62
     0
100
AcDbPoint
 10
1457.244907837198
 20
1959.395394639839
 30
0.0
  0
POINT
  5
1262
330
1258
100
AcDbEntity
  8
Defpoints
 62
     0
100
AcDbPoint
 10
1457.244907837198
 20
1789.071925503803
 30
0.0
  0
ENDBLK
  5
1263
330
1258
100
AcDbEntity
  8
0
100
AcDbBlockEnd
  0
BLOCK
  5
126B
330
126A
100
AcDbEntity
  8
0
100
AcDbBlockBegin
  2
*D12
 70
     1
 10
0.0
 20
0.0
 30
0.0
  3
*D12
  1
*D149
  0
LINE
  5
126C
330
126A
100
AcDbEntity
  8
DIM
  6
Continuous
 62
     0
370
    -2
100
AcDbLine
 10
1467.244907837198
 20
2124.395394639839
 30
0.0
 11
1617.583641015255
 21
2124.395394639839
 31
0.0
  0
LINE
  5
126D
330
126A
100
AcDbEntity
  8
DIM
  6
Continuous
 62
     0
370
    -2
100
AcDbLine
 10
1467.244907837198
 20
2139.395394639839
 30
0.0
 11
1617.583641015255
 21
2139.395394639839
 31
0.0
  0
LINE
  5
126E
330
126A
100
AcDbEntity
  8
DIM
  6
Continuous
 62
     0
370
    -2
100
AcDbLine
 10
1617.583641015255
 20
2139.395394639839
 30
0.0
 11
1617.583641015255
 21
2199.123394639839
 31
0.0
  0
LINE
  5
126F
330
126A
100
AcDbEntity
  8
DIM
  6
Continuous
 62
     0
370
    -2
100
AcDbLine
 10
1617.583641015255
 20
2127.395394639839
 30
0.0
 11
1617.583641015255
 21
2136.395394639839
 31
0.0
  0
INSERT
  5
1270
330
126A
100
AcDbEntity
  8
DIM
 62
     0
370
    -2
100
AcDbBlockReference
  2
_DOT
 10
1617.583641015255
 20
2124.395394639839
 30
0.0
 41
3.0
 42
3.0
 43
3.0
 50
270.0
  0
INSERT
  5
1271
330
126A
100
AcDbEntity
  8
DIM
 62
     0
370
    -2
100
AcDbBlockReference
  2
_DOT
 10
1617.583641015255
 20
2139.395394639839
 30
0.0
 41
3.0
 42
3.0
 43
3.0
 50
90.0
  0
MTEXT
  5
1272
330
126A
100
AcDbEntity
  8
DIM
 62
     0
 48
0.05
100
AcDbMText
 10
1601.583641015255
 20
2182.547394639839
 30
0.0
 40
12.0
 41
0.0
 46
0.0
 71
     5
 72
     1
  1
\A1;15
  7
ＭＳ ゴシック
 11
0.0
 21
1.0
 31
0.0
 73
     1
 44
1.0
  0
POINT
  5
1273
330
126A
100
AcDbEntity
  8
Defpoints
 62
     0
100
AcDbPoint
 10
1457.244907837198
 20
2124.395394639839
 30
0.0
  0
POINT
  5
1274
330
126A
100
AcDbEntity
  8
Defpoints
 62
     0
100
AcDbPoint
 10
1457.244907837198
 20
2139.395394639839
 30
0.0
  0
POINT
  5
1275
330
126A
100
AcDbEntity
  8
Defpoints
 62
     0
100
AcDbPoint
 10
1617.583641015255
 20
2139.395394639839
 30
0.0
  0
ENDBLK
  5
1276
330
126A
100
AcDbEntity
  8
0
100
AcDbBlockEnd
  0
BLOCK
  5
127D
330
127C
100
AcDbEntity
  8
0
100
AcDbBlockBegin
  2
*D13
 70
     1
 10
0.0
 20
0.0
 30
0.0
  3
*D13
  1
*D152
  0
LINE
  5
127E
330
127C
100
AcDbEntity
  8
DIM
  6
Continuous
 62
     0
370
    -2
100
AcDbLine
 10
528.3625009477164
 20
2149.395394639839
 30
0.0
 11
528.3625009477164
 21
2233.454839079049
 31
0.0
  0
LINE
  5
127F
330
127C
100
AcDbEntity
  8
DIM
  6
Continuous
 62
     0
370
    -2
100
AcDbLine
 10
808.3625009477164
 20
2149.395394639839
 30
0.0
 11
808.3625009477164
 21
2233.454839079049
 31
0.0
  0
LINE
  5
1280
330
127C
100
AcDbEntity
  8
DIM
  6
Continuous
 62
     0
370
    -2
100
AcDbLine
 10
531.3625009477164
 20
2233.454839079049
 30
0.0
 11
805.3625009477164
 21
2233.454839079049
 31
0.0
  0
INSERT
  5
1281
330
127C
100
AcDbEntity
  8
DIM
 62
     0
370
    -2
100
AcDbBlockReference
  2
_DOT
 10
528.3625009477164
 20
2233.454839079049
 30
0.0
 41
3.0
 42
3.0
 43
3.0
 50
180.0
  0
INSERT
  5
1282
330
127C
100
AcDbEntity
  8
DIM
 62
     0
370
    -2
100
AcDbBlockReference
  2
_DOT
 10
808.3625009477164
 20
2233.454839079049
 30
0.0
 41
3.0
 42
3.0
 43
3.0
  0
MTEXT
  5
1283
330
127C
100
AcDbEntity
  8
DIM
 62
     0
 48
0.05
100
AcDbMText
 10
668.3625009477164
 20
2249.454839079049
 30
0.0
 40
12.0
 41
0.0
 46
0.0
 71
     5
 72
     1
  1
\A1;280
  7
ＭＳ ゴシック
 73
     1
 44
1.0
  0
POINT
  5
1284
330
127C
100
AcDbEntity
  8
Defpoints
 62
     0
100
AcDbPoint
 10
528.3625009477164
 20
2139.395394639839
 30
0.0
  0
POINT
  5
1285
330
127C
100
AcDbEntity
  8
Defpoints
 62
     0
100
AcDbPoint
 10
808.3625009477164
 20
2139.395394639839
 30
0.0
  0
POINT
  5
1286
330
127C
100
AcDbEntity
  8
Defpoints
 62
     0
100
AcDbPoint
 10
808.3625009477164
 20
2233.454839079049
 30
0.0
  0
ENDBLK
  5
1287
330
127C
100
AcDbEntity
  8
0
100
AcDbBlockEnd
  0
BLOCK
  5
128C
330
128B
100
AcDbEntity
  8
0
100
AcDbBlockBegin
  2
*D14
 70
     1
 10
0.0
 20
0.0
 30
0.0
  3
*D14
  1
*D153
  0
LINE
  5
128D
330
128B
100
AcDbEntity
  8
DIM
  6
Continuous
 62
     0
370
    -2
100
AcDbLine
 10
818.3625009477164
 20
2139.395394639839
 30
0.0
 11
943.0573581501604
 21
2139.395394639839
 31
0.0
  0
LINE
  5
128E
330
128B
100
AcDbEntity
  8
DIM
  6
Continuous
 62
     0
370
    -2
100
AcDbLine
 10
818.3625009477164
 20
1869.395394639839
 30
0.0
 11
943.0573581501604
 21
1869.395394639839
 31
0.0
  0
LINE
  5
128F
330
128B
100
AcDbEntity
  8
DIM
  6
Continuous
 62
     0
370
    -2
100
AcDbLine
 10
943.0573581501604
 20
2136.395394639839
 30
0.0
 11
943.0573581501604
 21
1872.395394639839
 31
0.0
  0
INSERT
  5
1290
330
128B
100
AcDbEntity
  8
DIM
 62
     0
370
    -2
100
AcDbBlockReference
  2
_DOT
 10
943.0573581501604
 20
2139.395394639839
 30
0.0
 41
3.0
 42
3.0
 43
3.0
 50
90.0
  0
INSERT
  5
1291
330
128B
100
AcDbEntity
  8
DIM
 62
     0
370
    -2
100
AcDbBlockReference
  2
_DOT
 10
943.0573581501604
 20
1869.395394639839
 30
0.0
 41
3.0
 42
3.0
 43
3.0
 50
270.0
  0
MTEXT
  5
1292
330
128B
100
AcDbEntity
  8
DIM
 62
     0
 48
0.05
100
AcDbMText
 10
927.0573581501604
 20
2004.395394639839
 30
0.0
 40
12.0
 41
0.0
 46
0.0
 71
     5
 72
     1
  1
\A1;270
  7
ＭＳ ゴシック
 11
0.0
 21
1.0
 31
0.0
 73
     1
 44
1.0
  0
POINT
  5
1293
330
128B
100
AcDbEntity
  8
Defpoints
 62
     0
100
AcDbPoint
 10
808.3625009477164
 20
2139.395394639839
 30
0.0
  0
POINT
  5
1294
330
128B
100
AcDbEntity
  8
Defpoints
 62
     0
100
AcDbPoint
 10
808.3625009477164
 20
1869.395394639839
 30
0.0
  0
POINT
  5
1295
330
128B
100
AcDbEntity
  8
Defpoints
 62
     0
100
AcDbPoint
 10
943.0573581501604
 20
1869.395394639839
 30
0.0
  0
ENDBLK
  5
1296
330
128B
100
AcDbEntity
  8
0
100
AcDbBlockEnd
  0
BLOCK
  5
1299
330
1298
100
AcDbEntity
  8
0
100
AcDbBlockBegin
  2
*D15
 70
     1
 10
0.0
 20
0.0
 30
0.0
  3
*D15
  1
*D155
  0
LINE
  5
129A
330
1298
100
AcDbEntity
  8
DIM
  6
Continuous
 62
     0
370
    -2
100
AcDbLine
 10
548.3625009477164
 20
1863.614156196345
 30
0.0
 11
548.3625009477164
 21
1767.203892626843
 31
0.0
  0
LINE
  5
129B
330
1298
100
AcDbEntity
  8
DIM
  6
Continuous
 62
     0
370
    -2
100
AcDbLine
 10
788.3625009477164
 20
1863.614156310718
 30
0.0
 11
788.3625009477164
 21
1767.203892626843
 31
0.0
  0
LINE
  5
129C
330
1298
100
AcDbEntity
  8
DIM
  6
Continuous
 62
     0
370
    -2
100
AcDbLine
 10
551.3625009477164
 20
1767.203892626843
 30
0.0
 11
785.3625009477164
 21
1767.203892626843
 31
0.0
  0
INSERT
  5
129D
330
1298
100
AcDbEntity
  8
DIM
 62
     0
370
    -2
100
AcDbBlockReference
  2
_DOT
 10
548.3625009477164
 20
1767.203892626843
 30
0.0
 41
3.0
 42
3.0
 43
3.0
 50
180.0
  0
INSERT
  5
129E
330
1298
100
AcDbEntity
  8
DIM
 62
     0
370
    -2
100
AcDbBlockReference
  2
_DOT
 10
788.3625009477164
 20
1767.203892626843
 30
0.0
 41
3.0
 42
3.0
 43
3.0
  0
MTEXT
  5
129F
330
1298
100
AcDbEntity
  8
DIM
 62
     0
 48
0.05
100
AcDbMText
 10
668.3625009477164
 20
1783.203892626843
 30
0.0
 40
12.0
 41
0.0
 46
0.0
 71
     5
 72
     1
  1
\A1;240
  7
ＭＳ ゴシック
 73
     1
 44
1.0
  0
POINT
  5
12A0
330
1298
100
AcDbEntity
  8
Defpoints
 62
     0
100
AcDbPoint
 10
548.3625009477164
 20
1873.614156196345
 30
0.0
  0
POINT
  5
12A1
330
1298
100
AcDbEntity
  8
Defpoints
 62
     0
100
AcDbPoint
 10
788.3625009477164
 20
1873.614156310718
 30
0.0
  0
POINT
  5
12A2
330
1298
100
AcDbEntity
  8
Defpoints
 62
     0
100
AcDbPoint
 10
788.3625009477164
 20
1767.203892626843
 30
0.0
  0
ENDBLK
  5
12A3
330
1298
100
AcDbEntity
  8
0
100
AcDbBlockEnd
  0
BLOCK
  5
12A6
330
12A5
100
AcDbEntity
  8
0
100
AcDbBlockBegin
  2
*D16
 70
     1
 10
0.0
 20
0.0
 30
0.0
  3
*D16
  1
*D156
  0
LINE
  5
12A7
330
12A5
100
AcDbEntity
  8
DIM
  6
Continuous
 62
     0
370
    -2
100
AcDbLine
 10
519.7737366072784
 20
2059.395394639839
 30
0.0
 11
430.3828704682785
 21
2059.395394639839
 31
0.0
  0
LINE
  5
12A8
330
12A5
100
AcDbEntity
  8
DIM
  6
Continuous
 62
     0
370
    -2
100
AcDbLine
 10
519.7737366072784
 20
1889.395394639839
 30
0.0
 11
430.3828704682785
 21
1889.395394639839
 31
0.0
  0
LINE
  5
12A9
330
12A5
100
AcDbEntity
  8
DIM
  6
Continuous
 62
     0
370
    -2
100
AcDbLine
 10
430.3828704682785
 20
2056.395394639839
 30
0.0
 11
430.3828704682785
 21
1892.395394639839
 31
0.0
  0
INSERT
  5
12AA
330
12A5
100
AcDbEntity
  8
DIM
 62
     0
370
    -2
100
AcDbBlockReference
  2
_DOT
 10
430.3828704682785
 20
2059.395394639839
 30
0.0
 41
3.0
 42
3.0
 43
3.0
 50
90.0
  0
INSERT
  5
12AB
330
12A5
100
AcDbEntity
  8
DIM
 62
     0
370
    -2
100
AcDbBlockReference
  2
_DOT
 10
430.3828704682785
 20
1889.395394639839
 30
0.0
 41
3.0
 42
3.0
 43
3.0
 50
270.0
  0
MTEXT
  5
12AC
330
12A5
100
AcDbEntity
  8
DIM
 62
     0
 48
0.05
100
AcDbMText
 10
414.3828704682785
 20
1974.395394639839
 30
0.0
 40
12.0
 41
0.0
 46
0.0
 71
     5
 72
     1
  1
\A1;170
  7
ＭＳ ゴシック
 11
0.0
 21
1.0
 31
0.0
 73
     1
 44
1.0
  0
POINT
  5
12AD
330
12A5
100
AcDbEntity
  8
Defpoints
 62
     0
100
AcDbPoint
 10
529.7737366072784
 20
2059.395394639839
 30
0.0
  0
POINT
  5
12AE
330
12A5
100
AcDbEntity
  8
Defpoints
 62
     0
100
AcDbPoint
 10
529.7737366072784
 20
1889.395394639839
 30
0.0
  0
POINT
  5
12AF
330
12A5
100
AcDbEntity
  8
Defpoints
 62
     0
100
AcDbPoint
 10
430.3828704682785
 20
1889.395394639839
 30
0.0
  0
ENDBLK
  5
12B0
330
12A5
100
AcDbEntity
  8
0
100
AcDbBlockEnd
  0
BLOCK
  5
12B3
330
12B2
100
AcDbEntity
  8
0
100
AcDbBlockBegin
  2
*D17
 70
     1
 10
0.0
 20
0.0
 30
0.0
  3
*D17
  1
*D157
  0
LINE
  5
12B4
330
12B2
100
AcDbEntity
  8
DIM
  6
Continuous
 62
     0
370
    -2
100
AcDbLine
 10
1568.564717193186
 20
977.0904532939817
 30
0.0
 11
1568.564717193186
 21
890.2354896300342
 31
0.0
  0
LINE
  5
12B5
330
12B2
100
AcDbEntity
  8
DIM
  6
Continuous
 62
     0
370
    -2
100
AcDbLine
 10
1448.564717193186
 20
977.0904532939817
 30
0.0
 11
1448.564717193186
 21
890.2354896300342
 31
0.0
  0
LINE
  5
12B6
330
12B2
100
AcDbEntity
  8
DIM
  6
Continuous
 62
     0
370
    -2
100
AcDbLine
 10
1565.564717193186
 20
890.2354896300342
 30
0.0
 11
1451.564717193186
 21
890.2354896300342
 31
0.0
  0
INSERT
  5
12B7
330
12B2
100
AcDbEntity
  8
DIM
 62
     0
370
    -2
100
AcDbBlockReference
  2
_DOT
 10
1568.564717193186
 20
890.2354896300342
 30
0.0
 41
3.0
 42
3.0
 43
3.0
  0
INSERT
  5
12B8
330
12B2
100
AcDbEntity
  8
DIM
 62
     0
370
    -2
100
AcDbBlockReference
  2
_DOT
 10
1448.564717193186
 20
890.2354896300342
 30
0.0
 41
3.0
 42
3.0
 43
3.0
 50
180.0
  0
MTEXT
  5
12B9
330
12B2
100
AcDbEntity
  8
DIM
 62
     0
 48
0.05
100
AcDbMText
 10
1508.564717193186
 20
906.2354896300342
 30
0.0
 40
12.0
 41
0.0
 46
0.0
 71
     5
 72
     1
  1
\A1;120
  7
ＭＳ ゴシック
 73
     1
 44
1.0
  0
POINT
  5
12BA
330
12B2
100
AcDbEntity
  8
Defpoints
 62
     0
100
AcDbPoint
 10
1568.564717193186
 20
987.0904532939817
 30
0.0
  0
POINT
  5
12BB
330
12B2
100
AcDbEntity
  8
Defpoints
 62
     0
100
AcDbPoint
 10
1448.564717193186
 20
987.0904532939817
 30
0.0
  0
POINT
  5
12BC
330
12B2
100
AcDbEntity
  8
Defpoints
 62
     0
100
AcDbPoint
 10
1448.564717193186
 20
890.2354896300342
 30
0.0
  0
ENDBLK
  5
12BD
330
12B2
100
AcDbEntity
  8
0
100
AcDbBlockEnd
  0
BLOCK
  5
12C0
330
12BF
100
AcDbEntity
  8
0
100
AcDbBlockBegin
  2
*D18
 70
     1
 10
0.0
 20
0.0
 30
0.0
  3
*D18
  1
*D158
  0
LINE
  5
12C1
330
12BF
100
AcDbEntity
  8
DIM
  6
Continuous
 62
     0
370
    -2
100
AcDbLine
 10
1568.564717193186
 20
1087.090453293982
 30
0.0
 11
1568.564717193186
 21
1170.031259957072
 31
0.0
  0
LINE
  5
12C2
330
12BF
100
AcDbEntity
  8
DIM
  6
Continuous
 62
     0
370
    -2
100
AcDbLine
 10
1523.564717193186
 20
1087.090453293982
 30
0.0
 11
1523.564717193186
 21
1170.031259957072
 31
0.0
  0
LINE
  5
12C3
330
12BF
100
AcDbEntity
  8
DIM
  6
Continuous
 62
     0
370
    -2
100
AcDbLine
 10
1565.564717193186
 20
1170.031259957072
 30
0.0
 11
1526.564717193186
 21
1170.031259957072
 31
0.0
  0
INSERT
  5
12C4
330
12BF
100
AcDbEntity
  8
DIM
 62
     0
370
    -2
100
AcDbBlockReference
  2
_DOT
 10
1568.564717193186
 20
1170.031259957072
 30
0.0
 41
3.0
 42
3.0
 43
3.0
  0
INSERT
  5
12C5
330
12BF
100
AcDbEntity
  8
DIM
 62
     0
370
    -2
100
AcDbBlockReference
  2
_DOT
 10
1523.564717193186
 20
1170.031259957072
 30
0.0
 41
3.0
 42
3.0
 43
3.0
 50
180.0
  0
MTEXT
  5
12C6
330
12BF
100
AcDbEntity
  8
DIM
 62
     0
 48
0.05
100
AcDbMText
 10
1546.064717193186
 20
1186.031259957072
 30
0.0
 40
12.0
 41
0.0
 46
0.0
 71
     5
 72
     1
  1
\A1;45
  7
ＭＳ ゴシック
 73
     1
 44
1.0
  0
POINT
  5
12C7
330
12BF
100
AcDbEntity
  8
Defpoints
 62
     0
100
AcDbPoint
 10
1568.564717193186
 20
1077.090453293982
 30
0.0
  0
POINT
  5
12C8
330
12BF
100
AcDbEntity
  8
Defpoints
 62
     0
100
AcDbPoint
 10
1523.564717193186
 20
1077.090453293982
 30
0.0
  0
POINT
  5
12C9
330
12BF
100
AcDbEntity
  8
Defpoints
 62
     0
100
AcDbPoint
 10
1523.564717193186
 20
1170.031259957072
 30
0.0
  0
ENDBLK
  5
12CA
330
12BF
100
AcDbEntity
  8
0
100
AcDbBlockEnd
  0
BLOCK
  5
12CD
330
12CC
100
AcDbEntity
  8
0
100
AcDbBlockBegin
  2
*D19
 70
     1
 10
0.0
 20
0.0
 30
0.0
  3
*D19
  1
*D159
  0
LINE
  5
12CE
330
12CC
100
AcDbEntity
  8
DIM
  6
Continuous
 62
     0
370
    -2
100
AcDbLine
 10
525.0132733540179
 20
2139.395394639839
 30
0.0
 11
430.3828704682785
 21
2139.395394639839
 31
0.0
  0
LINE
  5
12CF
330
12CC
100
AcDbEntity
  8
DIM
  6
Continuous
 62
     0
370
    -2
100
AcDbLine
 10
525.0132733540179
 20
2059.395394639839
 30
0.0
 11
430.3828704682785
 21
2059.395394639839
 31
0.0
  0
LINE
  5
12D0
330
12CC
100
AcDbEntity
  8
DIM
  6
Continuous
 62
     0
370
    -2
100
AcDbLine
 10
430.3828704682785
 20
2136.395394639839
 30
0.0
 11
430.3828704682785
 21
2062.395394639839
 31
0.0
  0
INSERT
  5
12D1
330
12CC
100
AcDbEntity
  8
DIM
 62
     0
370
    -2
100
AcDbBlockReference
  2
_DOT
 10
430.3828704682785
 20
2139.395394639839
 30
0.0
 41
3.0
 42
3.0
 43
3.0
 50
90.0
  0
INSERT
  5
12D2
330
12CC
100
AcDbEntity
  8
DIM
 62
     0
370
    -2
100
AcDbBlockReference
  2
_DOT
 10
430.3828704682785
 20
2059.395394639839
 30
0.0
 41
3.0
 42
3.0
 43
3.0
 50
270.0
  0
MTEXT
  5
12D3
330
12CC
100
AcDbEntity
  8
DIM
 62
     0
 48
0.05
100
AcDbMText
 10
414.3828704682785
 20
2099.395394639839
 30
0.0
 40
12.0
 41
0.0
 46
0.0
 71
     5
 72
     1
  1
\A1;80
  7
ＭＳ ゴシック
 11
0.0
 21
1.0
 31
0.0
 73
     1
 44
1.0
  0
POINT
  5
12D4
330
12CC
100
AcDbEntity
  8
Defpoints
 62
     0
100
AcDbPoint
 10
535.0132733540179
 20
2139.395394639839
 30
0.0
  0
POINT
  5
12D5
330
12CC
100
AcDbEntity
  8
Defpoints
 62
     0
100
AcDbPoint
 10
535.0132733540179
 20
2059.395394639839
 30
0.0
  0
POINT
  5
12D6
330
12CC
100
AcDbEntity
  8
Defpoints
 62
     0
100
AcDbPoint
 10
430.3828704682785
 20
2059.395394639839
 30
0.0
  0
ENDBLK
  5
12D7
330
12CC
100
AcDbEntity
  8
0
100
AcDbBlockEnd
  0
BLOCK
  5
12DC
330
12DB
100
AcDbEntity
  8
0
100
AcDbBlockBegin
  2
*D20
 70
     1
 10
0.0
 20
0.0
 30
0.0
  3
*D20
  1
*D160
  0
LINE
  5
12DD
330
12DB
100
AcDbEntity
  8
DIM
  6
Continuous
 62
     0
370
    -2
100
AcDbLine
 10
1288.564717193186
 20
1077.090453293982
 30
0.0
 11
1220.336957394863
 21
1077.090453293982
 31
0.0
  0
LINE
  5
12DE
330
12DB
100
AcDbEntity
  8
DIM
  6
Continuous
 62
     0
370
    -2
100
AcDbLine
 10
1288.564717193186
 20
987.0904532939817
 30
0.0
 11
1220.336957394863
 21
987.0904532939817
 31
0.0
  0
LINE
  5
12DF
330
12DB
100
AcDbEntity
  8
DIM
  6
Continuous
 62
     0
370
    -2
100
AcDbLine
 10
1220.336957394863
 20
1074.090453293982
 30
0.0
 11
1220.336957394863
 21
990.0904532939817
 31
0.0
  0
INSERT
  5
12E0
330
12DB
100
AcDbEntity
  8
DIM
 62
     0
370
    -2
100
AcDbBlockReference
  2
_DOT
 10
1220.336957394863
 20
1077.090453293982
 30
0.0
 41
3.0
 42
3.0
 43
3.0
 50
90.0
  0
INSERT
  5
12E1
330
12DB
100
AcDbEntity
  8
DIM
 62
     0
370
    -2
100
AcDbBlockReference
  2
_DOT
 10
1220.336957394863
 20
987.0904532939817
 30
0.0
 41
3.0
 42
3.0
 43
3.0
 50
270.0
  0
MTEXT
  5
12E2
330
12DB
100
AcDbEntity
  8
DIM
 62
     0
 48
0.05
100
AcDbMText
 10
1204.336957394863
 20
1032.090453293982
 30
0.0
 40
12.0
 41
0.0
 46
0.0
 71
     5
 72
     1
  1
\A1;90
  7
ＭＳ ゴシック
 11
0.0
 21
1.0
 31
0.0
 73
     1
 44
1.0
  0
POINT
  5
12E3
330
12DB
100
AcDbEntity
  8
Defpoints
 62
     0
100
AcDbPoint
 10
1298.564717193186
 20
1077.090453293982
 30
0.0
  0
POINT
  5
12E4
330
12DB
100
AcDbEntity
  8
Defpoints
 62
     0
100
AcDbPoint
 10
1298.564717193186
 20
987.0904532939817
 30
0.0
  0
POINT
  5
12E5
330
12DB
100
AcDbEntity
  8
Defpoints
 62
     0
100
AcDbPoint
 10
1220.336957394863
 20
987.0904532939817
 30
0.0
  0
ENDBLK
  5
12E6
330
12DB
100
AcDbEntity
  8
0
100
AcDbBlockEnd
  0
BLOCK
  5
12F5
330
12F4
100
AcDbEntity
  8
0
100
AcDbBlockBegin
  2
*D21
 70
     1
 10
0.0
 20
0.0
 30
0.0
  3
*D21
  1
*D153
  0
LINE
  5
12F6
330
12F4
100
AcDbEntity
  8
DIM
  6
Continuous
 62
     0
370
    -2
100
AcDbLine
 10
528.3625009477164
 20
1087.090453293982
 30
0.0
 11
528.3625009477164
 21
1136.059191016741
 31
0.0
  0
LINE
  5
12F7
330
12F4
100
AcDbEntity
  8
DIM
  6
Continuous
 62
     0
370
    -2
100
AcDbLine
 10
568.5369402446107
 20
1087.090453293982
 30
0.0
 11
568.5369402446107
 21
1136.059191016741
 31
0.0
  0
LINE
  5
12F8
330
12F4
100
AcDbEntity
  8
DIM
  6
Continuous
 62
     0
370
    -2
100
AcDbLine
 10
531.3625009477164
 20
1136.059191016741
 30
0.0
 11
565.5369402446107
 21
1136.059191016741
 31
0.0
  0
INSERT
  5
12F9
330
12F4
100
AcDbEntity
  8
DIM
 62
     0
370
    -2
100
AcDbBlockReference
  2
_DOT
 10
528.3625009477164
 20
1136.059191016741
 30
0.0
 41
3.0
 42
3.0
 43
3.0
 50
180.0
  0
INSERT
  5
12FA
330
12F4
100
AcDbEntity
  8
DIM
 62
     0
370
    -2
100
AcDbBlockReference
  2
_DOT
 10
568.5369402446107
 20
1136.059191016741
 30
0.0
 41
3.0
 42
3.0
 43
3.0
  0
MTEXT
  5
12FB
330
12F4
100
AcDbEntity
  8
DIM
 62
     0
 48
0.05
100
AcDbMText
 10
548.4497205961636
 20
1152.059191016741
 30
0.0
 40
12.0
 41
0.0
 46
0.0
 71
     5
 72
     1
  1
\A1;40
  7
ＭＳ ゴシック
 73
     1
 44
1.0
  0
POINT
  5
12FC
330
12F4
100
AcDbEntity
  8
Defpoints
 62
     0
100
AcDbPoint
 10
528.3625009477164
 20
1077.090453293982
 30
0.0
  0
POINT
  5
12FD
330
12F4
100
AcDbEntity
  8
Defpoints
 62
     0
100
AcDbPoint
 10
568.5369402446107
 20
1077.090453293982
 30
0.0
  0
POINT
  5
12FE
330
12F4
100
AcDbEntity
  8
Defpoints
 62
     0
100
AcDbPoint
 10
568.5369402446107
 20
1136.059191016741
 30
0.0
  0
ENDBLK
  5
12FF
330
12F4
100
AcDbEntity
  8
0
100
AcDbBlockEnd
  0
BLOCK
  5
1304
330
1303
100
AcDbEntity
  8
0
100
AcDbBlockBegin
  2
*D22
 70
     1
 10
0.0
 20
0.0
 30
0.0
  3
*D22
  1
*D154
  0
LINE
  5
1305
330
1303
100
AcDbEntity
  8
DIM
  6
Continuous
 62
     0
370
    -2
100
AcDbLine
 10
516.0369402446107
 20
1047.090453293982
 30
0.0
 11
460.4197949721854
 21
1047.090453293982
 31
0.0
  0
LINE
  5
1306
330
1303
100
AcDbEntity
  8
DIM
  6
Continuous
 62
     0
370
    -2
100
AcDbLine
 10
518.3625009477164
 20
1077.090453293982
 30
0.0
 11
460.4197949721854
 21
1077.090453293982
 31
0.0
  0
LINE
  5
1307
330
1303
100
AcDbEntity
  8
DIM
  6
Continuous
 62
     0
370
    -2
100
AcDbLine
 10
460.4197949721854
 20
1050.090453293982
 30
0.0
 11
460.4197949721854
 21
1074.090453293982
 31
0.0
  0
INSERT
  5
1308
330
1303
100
AcDbEntity
  8
DIM
 62
     0
370
    -2
100
AcDbBlockReference
  2
_DOT
 10
460.4197949721854
 20
1047.090453293982
 30
0.0
 41
3.0
 42
3.0
 43
3.0
 50
270.0
  0
INSERT
  5
1309
330
1303
100
AcDbEntity
  8
DIM
 62
     0
370
    -2
100
AcDbBlockReference
  2
_DOT
 10
460.4197949721854
 20
1077.090453293982
 30
0.0
 41
3.0
 42
3.0
 43
3.0
 50
90.0
  0
MTEXT
  5
130A
330
1303
100
AcDbEntity
  8
DIM
 62
     0
 48
0.05
100
AcDbMText
 10
444.4197949721854
 20
1062.090453293982
 30
0.0
 40
12.0
 41
0.0
 46
0.0
 71
     5
 72
     1
  1
\A1;30
  7
ＭＳ ゴシック
 11
0.0
 21
1.0
 31
0.0
 73
     1
 44
1.0
  0
POINT
  5
130B
330
1303
100
AcDbEntity
  8
Defpoints
 62
     0
100
AcDbPoint
 10
526.0369402446107
 20
1047.090453293982
 30
0.0
  0
POINT
  5
130C
330
1303
100
AcDbEntity
  8
Defpoints
 62
     0
100
AcDbPoint
 10
528.3625009477164
 20
1077.090453293982
 30
0.0
  0
POINT
  5
130D
330
1303
100
AcDbEntity
  8
Defpoints
 62
     0
100
AcDbPoint
 10
460.4197949721854
 20
1077.090453293982
 30
0.0
  0
ENDBLK
  5
130E
330
1303
100
AcDbEntity
  8
0
100
AcDbBlockEnd
  0
BLOCK
  5
1311
330
1310
100
AcDbEntity
  8
0
100
AcDbBlockBegin
  2
*D23
 70
     1
 10
0.0
 20
0.0
 30
0.0
  3
*D23
  1
*D156
  0
LINE
  5
1312
330
1310
100
AcDbEntity
  8
DIM
  6
Continuous
 62
     0
370
    -2
100
AcDbLine
 10
808.3625009477164
 20
1087.090453293982
 30
0.0
 11
808.3625009477164
 21
1136.059191016741
 31
0.0
  0
LINE
  5
1313
330
1310
100
AcDbEntity
  8
DIM
  6
Continuous
 62
     0
370
    -2
100
AcDbLine
 10
768.1880616508221
 20
1087.090453293982
 30
0.0
 11
768.1880616508221
 21
1136.059191016741
 31
0.0
  0
LINE
  5
1314
330
1310
100
AcDbEntity
  8
DIM
  6
Continuous
 62
     0
370
    -2
100
AcDbLine
 10
805.3625009477164
 20
1136.059191016741
 30
0.0
 11
771.1880616508221
 21
1136.059191016741
 31
0.0
  0
INSERT
  5
1315
330
1310
100
AcDbEntity
  8
DIM
 62
     0
370
    -2
100
AcDbBlockReference
  2
_DOT
 10
808.3625009477164
 20
1136.059191016741
 30
0.0
 41
3.0
 42
3.0
 43
3.0
  0
INSERT
  5
1316
330
1310
100
AcDbEntity
  8
DIM
 62
     0
370
    -2
100
AcDbBlockReference
  2
_DOT
 10
768.1880616508221
 20
1136.059191016741
 30
0.0
 41
3.0
 42
3.0
 43
3.0
 50
180.0
  0
MTEXT
  5
1317
330
1310
100
AcDbEntity
  8
DIM
 62
     0
 48
0.05
100
AcDbMText
 10
788.2752812992692
 20
1152.059191016741
 30
0.0
 40
12.0
 41
0.0
 46
0.0
 71
     5
 72
     1
  1
\A1;40
  7
ＭＳ ゴシック
 73
     1
 44
1.0
  0
POINT
  5
1318
330
1310
100
AcDbEntity
  8
Defpoints
 62
     0
100
AcDbPoint
 10
808.3625009477164
 20
1077.090453293982
 30
0.0
  0
POINT
  5
1319
330
1310
100
AcDbEntity
  8
Defpoints
 62
     0
100
AcDbPoint
 10
768.1880616508221
 20
1077.090453293982
 30
0.0
  0
POINT
  5
131A
330
1310
100
AcDbEntity
  8
Defpoints
 62
     0
100
AcDbPoint
 10
768.1880616508221
 20
1136.059191016741
 30
0.0
  0
ENDBLK
  5
131B
330
1310
100
AcDbEntity
  8
0
100
AcDbBlockEnd
  0
BLOCK
  5
131E
330
131D
100
AcDbEntity
  8
0
100
AcDbBlockBegin
  2
*D24
 70
     1
 10
0.0
 20
0.0
 30
0.0
  3
*D24
  1
*D157
  0
LINE
  5
131F
330
131D
100
AcDbEntity
  8
DIM
  6
Continuous
 62
     0
370
    -2
100
AcDbLine
 10
818.3625009477164
 20
1077.090453293982
 30
0.0
 11
897.2941195370731
 21
1077.090453293982
 31
0.0
  0
LINE
  5
1320
330
131D
100
AcDbEntity
  8
DIM
  6
Continuous
 62
     0
370
    -2
100
AcDbLine
 10
818.3625009477164
 20
1040.090453293982
 30
0.0
 11
897.2941195370731
 21
1040.090453293982
 31
0.0
  0
LINE
  5
1321
330
131D
100
AcDbEntity
  8
DIM
  6
Continuous
 62
     0
370
    -2
100
AcDbLine
 10
897.2941195370731
 20
1074.090453293982
 30
0.0
 11
897.2941195370731
 21
1043.090453293982
 31
0.0
  0
INSERT
  5
1322
330
131D
100
AcDbEntity
  8
DIM
 62
     0
370
    -2
100
AcDbBlockReference
  2
_DOT
 10
897.2941195370731
 20
1077.090453293982
 30
0.0
 41
3.0
 42
3.0
 43
3.0
 50
90.0
  0
INSERT
  5
1323
330
131D
100
AcDbEntity
  8
DIM
 62
     0
370
    -2
100
AcDbBlockReference
  2
_DOT
 10
897.2941195370731
 20
1040.090453293982
 30
0.0
 41
3.0
 42
3.0
 43
3.0
 50
270.0
  0
MTEXT
  5
1324
330
131D
100
AcDbEntity
  8
DIM
 62
     0
 48
0.05
100
AcDbMText
 10
881.2941195370731
 20
1058.590453293982
 30
0.0
 40
12.0
 41
0.0
 46
0.0
 71
     5
 72
     1
  1
\A1;37
  7
ＭＳ ゴシック
 11
0.0
 21
1.0
 31
0.0
 73
     1
 44
1.0
  0
POINT
  5
1325
330
131D
100
AcDbEntity
  8
Defpoints
 62
     0
100
AcDbPoint
 10
808.3625009477164
 20
1077.090453293982
 30
0.0
  0
POINT
  5
1326
330
131D
100
AcDbEntity
  8
Defpoints
 62
     0
100
AcDbPoint
 10
808.3625009477164
 20
1040.090453293982
 30
0.0
  0
POINT
  5
1327
330
131D
100
AcDbEntity
  8
Defpoints
 62
     0
100
AcDbPoint
 10
897.2941195370731
 20
1040.090453293982
 30
0.0
  0
ENDBLK
  5
1328
330
131D
100
AcDbEntity
  8
0
100
AcDbBlockEnd
  0
BLOCK
  5
13E9
330
13E8
100
AcDbEntity
  8
0
100
AcDbBlockBegin
  2
*D25
 70
     1
 10
0.0
 20
0.0
 30
0.0
  3
*D25
  1
*D26
  0
LINE
  5
13EB
330
13E8
100
AcDbEntity
  8
DIM
  6
Continuous
 62
     0
370
    -2
100
AcDbLine
 10
-56.19003582891246
 20
95.23169447363787
 30
0.0
 11
-56.19003582891244
 21
148.3366944736379
 31
0.0
  0
LINE
  5
13EC
330
13E8
100
AcDbEntity
  8
DIM
  6
Continuous
 62
     0
370
    -2
100
AcDbLine
 10
-56.19003582891246
 20
94.23169447363787
 30
0.0
 11
-56.19003582891247
 21
81.11132379593023
 31
0.0
  0
LINE
  5
13ED
330
13E8
100
AcDbEntity
  8
DIM
  6
Continuous
 62
     0
370
    -2
100
AcDbLine
 10
-56.19003582891246
 20
94.23169447363787
 30
0.0
 11
-56.19003582891246
 21
93.23169447363787
 31
0.0
  0
INSERT
  5
13EE
330
13E8
100
AcDbEntity
  8
DIM
 62
     0
370
    -2
100
AcDbBlockReference
  2
_DOT
 10
-56.19003582891246
 20
95.23169447363787
 30
0.0
 50
89.99999999999996
  0
INSERT
  5
13EF
330
13E8
100
AcDbEntity
  8
DIM
 62
     0
370
    -2
100
AcDbBlockReference
  2
_DOT
 10
-56.19003582891247
 20
80.11132379593023
 30
0.0
 50
270.0
  0
MTEXT
  5
13F0
330
13E8
100
AcDbEntity
  8
DIM
 62
     0
100
AcDbMText
 10
-58.95553582891245
 20
140.1156944736379
 30
0.0
 40
3.0
 41
0.0
 46
0.0
 71
     5
 72
     1
  1
\A1;75(深さ)
  7
ＭＳ ゴシック
 11
4.699241512694342E-16
 21
1.0
 31
0.0
 73
     1
 44
1.0
  0
POINT
  5
13F1
330
13E8
100
AcDbEntity
  8
Defpoints
 62
     0
100
AcDbPoint
 10
-51.56778383255772
 20
95.23169447363787
 30
0.0
  0
POINT
  5
13F2
330
13E8
100
AcDbEntity
  8
Defpoints
 62
     0
100
AcDbPoint
 10
-56.19003582891244
 20
80.11132379593023
 30
0.0
  0
POINT
  5
1EC8
330
13E8
100
AcDbEntity
  8
Defpoints
 62
     0
100
AcDbPoint
 10
-56.19003582891244
 20
80.11132379593023
 30
0.0
  0
ENDBLK
  5
13EA
330
13E8
100
AcDbEntity
  8
0
100
AcDbBlockEnd
  0
BLOCK
  5
13F4
330
13F3
100
AcDbEntity
  8
0
100
AcDbBlockBegin
  2
*D26
 70
     1
 10
0.0
 20
0.0
 30
0.0
  3
*D26
  1
*D27
  0
LINE
  5
13F6
330
13F3
100
AcDbEntity
  8
DIM
  6
Continuous
 62
     0
370
    -2
100
AcDbLine
 10
-52.45310013042473
 20
202.4161339089901
 30
0.0
 11
-27.60374427607144
 21
202.4161339089901
 31
0.0
  0
LINE
  5
13F7
330
13F3
100
AcDbEntity
  8
DIM
  6
Continuous
 62
     0
370
    -2
100
AcDbLine
 10
-52.45310013042473
 20
235.4161339089901
 30
0.0
 11
-27.60374427607144
 21
235.4161339089901
 31
0.0
  0
LINE
  5
13F8
330
13F3
100
AcDbEntity
  8
DIM
  6
Continuous
 62
     0
370
    -2
100
AcDbLine
 10
-27.60374427607144
 20
203.4161339089901
 30
0.0
 11
-27.60374427607144
 21
234.4161339089901
 31
0.0
  0
INSERT
  5
13F9
330
13F3
100
AcDbEntity
  8
DIM
 62
     0
370
    -2
100
AcDbBlockReference
  2
_DOT
 10
-27.60374427607144
 20
202.4161339089901
 30
0.0
 50
270.0
  0
INSERT
  5
13FA
330
13F3
100
AcDbEntity
  8
DIM
 62
     0
370
    -2
100
AcDbBlockReference
  2
_DOT
 10
-27.60374427607144
 20
235.4161339089901
 30
0.0
 50
90.0
  0
MTEXT
  5
13FB
330
13F3
100
AcDbEntity
  8
DIM
 62
     0
100
AcDbMText
 10
-30.10374427607144
 20
218.9161339089901
 30
0.0
 40
3.0
 41
0.0
 46
0.0
 71
     5
 72
     1
  1
\A1;33
  7
ＭＳ ゴシック
 11
1.076579902666818E-16
 21
1.0
 31
0.0
 73
     1
 44
1.0
  0
POINT
  5
13FC
330
13F3
100
AcDbEntity
  8
Defpoints
 62
     0
100
AcDbPoint
 10
-54.45310013042473
 20
202.4161339089901
 30
0.0
  0
POINT
  5
13FD
330
13F3
100
AcDbEntity
  8
Defpoints
 62
     0
100
AcDbPoint
 10
-54.45310013042473
 20
235.4161339089901
 30
0.0
  0
POINT
  5
13FE
330
13F3
100
AcDbEntity
  8
Defpoints
 62
     0
100
AcDbPoint
 10
-27.60374427607144
 20
235.4161339089901
 30
0.0
  0
ENDBLK
  5
13F5
330
13F3
100
AcDbEntity
  8
0
100
AcDbBlockEnd
  0
BLOCK
  5
1400
330
13FF
100
AcDbEntity
  8
0
100
AcDbBlockBegin
  2
*D27
 70
     1
 10
0.0
 20
0.0
 30
0.0
  3
*D27
  1
*D28
  0
LINE
  5
1402
330
13FF
100
AcDbEntity
  8
DIM
  6
Continuous
 62
     0
370
    -2
100
AcDbLine
 10
-74.45310013042473
 20
200.4161339089901
 30
0.0
 11
-74.45310013042473
 21
174.516586026502
 31
0.0
  0
LINE
  5
1403
330
13FF
100
AcDbEntity
  8
DIM
  6
Continuous
 62
     0
370
    -2
100
AcDbLine
 10
-54.45310013042473
 20
200.4161339089901
 30
0.0
 11
-54.45310013042473
 21
174.516586026502
 31
0.0
  0
LINE
  5
1404
330
13FF
100
AcDbEntity
  8
DIM
  6
Continuous
 62
     0
370
    -2
100
AcDbLine
 10
-73.45310013042473
 20
174.516586026502
 30
0.0
 11
-55.45310013042473
 21
174.516586026502
 31
0.0
  0
INSERT
  5
1405
330
13FF
100
AcDbEntity
  8
DIM
 62
     0
370
    -2
100
AcDbBlockReference
  2
_DOT
 10
-74.45310013042473
 20
174.516586026502
 30
0.0
 50
180.0
  0
INSERT
  5
1406
330
13FF
100
AcDbEntity
  8
DIM
 62
     0
370
    -2
100
AcDbBlockReference
  2
_DOT
 10
-54.45310013042473
 20
174.516586026502
 30
0.0
  0
MTEXT
  5
1407
330
13FF
100
AcDbEntity
  8
DIM
 62
     0
100
AcDbMText
 10
-64.45310013042473
 20
177.016586026502
 30
0.0
 40
3.0
 41
0.0
 46
0.0
 71
     5
 72
     1
  1
\A1;20
  7
ＭＳ ゴシック
 73
     1
 44
1.0
  0
POINT
  5
1408
330
13FF
100
AcDbEntity
  8
Defpoints
 62
     0
100
AcDbPoint
 10
-74.45310013042473
 20
202.4161339089901
 30
0.0
  0
POINT
  5
1409
330
13FF
100
AcDbEntity
  8
Defpoints
 62
     0
100
AcDbPoint
 10
-54.45310013042473
 20
202.4161339089901
 30
0.0
  0
POINT
  5
140A
330
13FF
100
AcDbEntity
  8
Defpoints
 62
     0
100
AcDbPoint
 10
-54.45310013042473
 20
174.516586026502
 30
0.0
  0
ENDBLK
  5
1401
330
13FF
100
AcDbEntity
  8
0
100
AcDbBlockEnd
  0
BLOCK
  5
140C
330
140B
100
AcDbEntity
  8
0
100
AcDbBlockBegin
  2
*D28
 70
     1
 10
0.0
 20
0.0
 30
0.0
  3
*D28
  1
*D29
  0
LINE
  5
140E
330
140B
100
AcDbEntity
  8
DIM
  6
Continuous
 62
     0
370
    -2
100
AcDbLine
 10
-52.45310013042473
 20
235.4161339089901
 30
0.0
 11
-27.60374427607144
 21
235.4161339089901
 31
0.0
  0
LINE
  5
140F
330
140B
100
AcDbEntity
  8
DIM
  6
Continuous
 62
     0
370
    -2
100
AcDbLine
 10
-52.45310013042473
 20
238.4161339089901
 30
0.0
 11
-27.60374427607144
 21
238.4161339089901
 31
0.0
  0
LINE
  5
1410
330
140B
100
AcDbEntity
  8
DIM
  6
Continuous
 62
     0
370
    -2
100
AcDbLine
 10
-27.60374427607144
 20
236.4161339089901
 30
0.0
 11
-27.60374427607144
 21
237.4161339089901
 31
0.0
  0
INSERT
  5
1411
330
140B
100
AcDbEntity
  8
DIM
 62
     0
370
    -2
100
AcDbBlockReference
  2
_DOT
 10
-27.60374427607144
 20
235.4161339089901
 30
0.0
 50
270.0
  0
INSERT
  5
1412
330
140B
100
AcDbEntity
  8
DIM
 62
     0
370
    -2
100
AcDbBlockReference
  2
_DOT
 10
-27.60374427607144
 20
238.4161339089901
 30
0.0
 50
90.0
  0
MTEXT
  5
1413
330
140B
100
AcDbEntity
  8
DIM
 62
     0
100
AcDbMText
 10
-30.10374427607144
 20
236.9161339089901
 30
0.0
 40
3.0
 41
0.0
 46
0.0
 71
     5
 72
     1
  1
\A1;3
  7
ＭＳ ゴシック
 11
0.0
 21
1.0
 31
0.0
 73
     1
 44
1.0
  0
POINT
  5
1414
330
140B
100
AcDbEntity
  8
Defpoints
 62
     0
100
AcDbPoint
 10
-54.45310013042473
 20
235.4161339089901
 30
0.0
  0
POINT
  5
1415
330
140B
100
AcDbEntity
  8
Defpoints
 62
     0
100
AcDbPoint
 10
-54.45310013042473
 20
238.4161339089901
 30
0.0
  0
POINT
  5
1416
330
140B
100
AcDbEntity
  8
Defpoints
 62
     0
100
AcDbPoint
 10
-27.60374427607144
 20
238.4161339089901
 30
0.0
  0
ENDBLK
  5
140D
330
140B
100
AcDbEntity
  8
0
100
AcDbBlockEnd
  0
BLOCK
  5
1419
330
1418
100
AcDbEntity
  8
0
100
AcDbBlockBegin
  2
*D29
 70
     1
 10
0.0
 20
0.0
 30
0.0
  3
*D29
  1
*D30
  0
LINE
  5
141B
330
1418
100
AcDbEntity
  8
DIM
  6
Continuous
 62
     0
370
    -2
100
AcDbLine
 10
-186.4091551234814
 20
240.4161339089901
 30
0.0
 11
-186.4091551234814
 21
251.7197382875865
 31
0.0
  0
LINE
  5
141C
330
1418
100
AcDbEntity
  8
DIM
  6
Continuous
 62
     0
370
    -2
100
AcDbLine
 10
-130.4091551234814
 20
240.4161339089901
 30
0.0
 11
-130.4091551234814
 21
251.7197382875865
 31
0.0
  0
LINE
  5
141D
330
1418
100
AcDbEntity
  8
DIM
  6
Continuous
 62
     0
370
    -2
100
AcDbLine
 10
-185.4091551234814
 20
251.7197382875865
 30
0.0
 11
-131.4091551234814
 21
251.7197382875865
 31
0.0
  0
INSERT
  5
141E
330
1418
100
AcDbEntity
  8
DIM
 62
     0
370
    -2
100
AcDbBlockReference
  2
_DOT
 10
-186.4091551234814
 20
251.7197382875865
 30
0.0
 50
180.0
  0
INSERT
  5
141F
330
1418
100
AcDbEntity
  8
DIM
 62
     0
370
    -2
100
AcDbBlockReference
  2
_DOT
 10
-130.4091551234814
 20
251.7197382875865
 30
0.0
  0
MTEXT
  5
1420
330
1418
100
AcDbEntity
  8
DIM
 62
     0
100
AcDbMText
 10
-158.4091551234814
 20
254.2197382875865
 30
0.0
 40
3.0
 41
0.0
 46
0.0
 71
     5
 72
     1
  1
\A1;56
  7
ＭＳ ゴシック
 73
     1
 44
1.0
  0
POINT
  5
1421
330
1418
100
AcDbEntity
  8
Defpoints
 62
     0
100
AcDbPoint
 10
-186.4091551234814
 20
238.4161339089901
 30
0.0
  0
POINT
  5
1422
330
1418
100
AcDbEntity
  8
Defpoints
 62
     0
100
AcDbPoint
 10
-130.4091551234814
 20
238.4161339089901
 30
0.0
  0
POINT
  5
1423
330
1418
100
AcDbEntity
  8
Defpoints
 62
     0
100
AcDbPoint
 10
-130.4091551234814
 20
251.7197382875865
 30
0.0
  0
ENDBLK
  5
141A
330
1418
100
AcDbEntity
  8
0
100
AcDbBlockEnd
  0
BLOCK
  5
1425
330
1424
100
AcDbEntity
  8
0
100
AcDbBlockBegin
  2
*D30
 70
     1
 10
0.0
 20
0.0
 30
0.0
  3
*D30
  1
*D31
  0
LINE
  5
1427
330
1424
100
AcDbEntity
  8
DIM
  6
Continuous
 62
     0
370
    -2
100
AcDbLine
 10
-128.4091551234814
 20
238.4161339089901
 30
0.0
 11
-118.027525299637
 21
238.4161339089901
 31
0.0
  0
LINE
  5
1428
330
1424
100
AcDbEntity
  8
DIM
  6
Continuous
 62
     0
370
    -2
100
AcDbLine
 10
-128.4091551234814
 20
184.4161339089901
 30
0.0
 11
-118.027525299637
 21
184.4161339089901
 31
0.0
  0
LINE
  5
1429
330
1424
100
AcDbEntity
  8
DIM
  6
Continuous
 62
     0
370
    -2
100
AcDbLine
 10
-118.027525299637
 20
237.4161339089901
 30
0.0
 11
-118.027525299637
 21
185.4161339089901
 31
0.0
  0
INSERT
  5
142A
330
1424
100
AcDbEntity
  8
DIM
 62
     0
370
    -2
100
AcDbBlockReference
  2
_DOT
 10
-118.027525299637
 20
238.4161339089901
 30
0.0
 50
90.0
  0
INSERT
  5
142B
330
1424
100
AcDbEntity
  8
DIM
 62
     0
370
    -2
100
AcDbBlockReference
  2
_DOT
 10
-118.027525299637
 20
184.4161339089901
 30
0.0
 50
270.0
  0
MTEXT
  5
142C
330
1424
100
AcDbEntity
  8
DIM
 62
     0
100
AcDbMText
 10
-120.527525299637
 20
211.4161339089901
 30
0.0
 40
3.0
 41
0.0
 46
0.0
 71
     5
 72
     1
  1
\A1;54
  7
ＭＳ ゴシック
 11
0.0
 21
1.0
 31
0.0
 73
     1
 44
1.0
  0
POINT
  5
142D
330
1424
100
AcDbEntity
  8
Defpoints
 62
     0
100
AcDbPoint
 10
-130.4091551234814
 20
238.4161339089901
 30
0.0
  0
POINT
  5
142E
330
1424
100
AcDbEntity
  8
Defpoints
 62
     0
100
AcDbPoint
 10
-130.4091551234814
 20
184.4161339089901
 30
0.0
  0
POINT
  5
142F
330
1424
100
AcDbEntity
  8
Defpoints
 62
     0
100
AcDbPoint
 10
-118.027525299637
 20
184.4161339089901
 30
0.0
  0
ENDBLK
  5
1426
330
1424
100
AcDbEntity
  8
0
100
AcDbBlockEnd
  0
BLOCK
  5
1431
330
1430
100
AcDbEntity
  8
0
100
AcDbBlockBegin
  2
*D31
 70
     1
 10
0.0
 20
0.0
 30
0.0
  3
*D31
  1
*D32
  0
LINE
  5
1433
330
1430
100
AcDbEntity
  8
DIM
  6
Continuous
 62
     0
370
    -2
100
AcDbLine
 10
-182.4091551234814
 20
183.2598862202912
 30
0.0
 11
-182.4091551234814
 21
173.5904763663272
 31
0.0
  0
LINE
  5
1434
330
1430
100
AcDbEntity
  8
DIM
  6
Continuous
 62
     0
370
    -2
100
AcDbLine
 10
-134.4091551234814
 20
183.2598862431659
 30
0.0
 11
-134.4091551234814
 21
173.5904763663272
 31
0.0
  0
LINE
  5
1435
330
1430
100
AcDbEntity
  8
DIM
  6
Continuous
 62
     0
370
    -2
100
AcDbLine
 10
-181.4091551234814
 20
173.5904763663272
 30
0.0
 11
-135.4091551234814
 21
173.5904763663272
 31
0.0
  0
INSERT
  5
1436
330
1430
100
AcDbEntity
  8
DIM
 62
     0
370
    -2
100
AcDbBlockReference
  2
_DOT
 10
-182.4091551234814
 20
173.5904763663272
 30
0.0
 50
180.0
  0
INSERT
  5
1437
330
1430
100
AcDbEntity
  8
DIM
 62
     0
370
    -2
100
AcDbBlockReference
  2
_DOT
 10
-134.4091551234814
 20
173.5904763663272
 30
0.0
  0
MTEXT
  5
1438
330
1430
100
AcDbEntity
  8
DIM
 62
     0
100
AcDbMText
 10
-158.4091551234814
 20
176.0904763663272
 30
0.0
 40
3.0
 41
0.0
 46
0.0
 71
     5
 72
     1
  1
\A1;48
  7
ＭＳ ゴシック
 73
     1
 44
1.0
  0
POINT
  5
1439
330
1430
100
AcDbEntity
  8
Defpoints
 62
     0
100
AcDbPoint
 10
-182.4091551234814
 20
185.2598862202912
 30
0.0
  0
POINT
  5
143A
330
1430
100
AcDbEntity
  8
Defpoints
 62
     0
100
AcDbPoint
 10
-134.4091551234814
 20
185.2598862431659
 30
0.0
  0
POINT
  5
143B
330
1430
100
AcDbEntity
  8
Defpoints
 62
     0
100
AcDbPoint
 10
-134.4091551234814
 20
173.5904763663272
 30
0.0
  0
ENDBLK
  5
1432
330
1430
100
AcDbEntity
  8
0
100
AcDbBlockEnd
  0
BLOCK
  5
143D
330
143C
100
AcDbEntity
  8
0
100
AcDbBlockBegin
  2
*D32
 70
     1
 10
0.0
 20
0.0
 30
0.0
  3
*D32
  1
*D33
  0
LINE
  5
143F
330
143C
100
AcDbEntity
  8
DIM
  6
Continuous
 62
     0
370
    -2
100
AcDbLine
 10
-189.7012944138664
 20
222.4161339089901
 30
0.0
 11
-198.3672141814309
 21
222.4161339089901
 31
0.0
  0
LINE
  5
1440
330
143C
100
AcDbEntity
  8
DIM
  6
Continuous
 62
     0
370
    -2
100
AcDbLine
 10
-189.7012944138664
 20
188.4161339089901
 30
0.0
 11
-198.3672141814309
 21
188.4161339089901
 31
0.0
  0
LINE
  5
1441
330
143C
100
AcDbEntity
  8
DIM
  6
Continuous
 62
     0
370
    -2
100
AcDbLine
 10
-198.3672141814309
 20
221.4161339089901
 30
0.0
 11
-198.3672141814309
 21
189.4161339089901
 31
0.0
  0
INSERT
  5
1442
330
143C
100
AcDbEntity
  8
DIM
 62
     0
370
    -2
100
AcDbBlockReference
  2
_DOT
 10
-198.3672141814309
 20
222.4161339089901
 30
0.0
 50
90.0
  0
INSERT
  5
1443
330
143C
100
AcDbEntity
  8
DIM
 62
     0
370
    -2
100
AcDbBlockReference
  2
_DOT
 10
-198.3672141814309
 20
188.4161339089901
 30
0.0
 50
270.0
  0
MTEXT
  5
1444
330
143C
100
AcDbEntity
  8
DIM
 62
     0
100
AcDbMText
 10
-200.8672141814309
 20
205.4161339089901
 30
0.0
 40
3.0
 41
0.0
 46
0.0
 71
     5
 72
     1
  1
\A1;34
  7
ＭＳ ゴシック
 11
0.0
 21
1.0
 31
0.0
 73
     1
 44
1.0
  0
POINT
  5
1445
330
143C
100
AcDbEntity
  8
Defpoints
 62
     0
100
AcDbPoint
 10
-187.7012944138664
 20
222.4161339089901
 30
0.0
  0
POINT
  5
1446
330
143C
100
AcDbEntity
  8
Defpoints
 62
     0
100
AcDbPoint
 10
-187.7012944138664
 20
188.4161339089901
 30
0.0
  0
POINT
  5
1447
330
143C
100
AcDbEntity
  8
Defpoints
 62
     0
100
AcDbPoint
 10
-198.3672141814309
 20
188.4161339089901
 30
0.0
  0
ENDBLK
  5
143E
330
143C
100
AcDbEntity
  8
0
100
AcDbBlockEnd
  0
BLOCK
  5
1449
330
1448
100
AcDbEntity
  8
0
100
AcDbBlockBegin
  2
*D33
 70
     1
 10
0.0
 20
0.0
 30
0.0
  3
*D33
  1
*D34
  0
LINE
  5
144B
330
1448
100
AcDbEntity
  8
DIM
  6
Continuous
 62
     0
370
    -2
100
AcDbLine
 10
-32.18913825922724
 20
75.2316944736378
 30
0.0
 11
-32.18913825922724
 21
64.7373160083097
 31
0.0
  0
LINE
  5
144C
330
1448
100
AcDbEntity
  8
DIM
  6
Continuous
 62
     0
370
    -2
100
AcDbLine
 10
-56.18913825922712
 20
71.43169447363786
 30
0.0
 11
-56.18913825922712
 21
64.7373160083097
 31
0.0
  0
LINE
  5
144D
330
1448
100
AcDbEntity
  8
DIM
  6
Continuous
 62
     0
370
    -2
100
AcDbLine
 10
-33.18913825922724
 20
64.7373160083097
 30
0.0
 11
-55.18913825922712
 21
64.7373160083097
 31
0.0
  0
INSERT
  5
144E
330
1448
100
AcDbEntity
  8
DIM
 62
     0
370
    -2
100
AcDbBlockReference
  2
_DOT
 10
-32.18913825922724
 20
64.7373160083097
 30
0.0
  0
INSERT
  5
144F
330
1448
100
AcDbEntity
  8
DIM
 62
     0
370
    -2
100
AcDbBlockReference
  2
_DOT
 10
-56.18913825922712
 20
64.7373160083097
 30
0.0
 50
180.0
  0
MTEXT
  5
1450
330
1448
100
AcDbEntity
  8
DIM
 62
     0
100
AcDbMText
 10
-44.18913825922724
 20
67.2373160083097
 30
0.0
 40
3.0
 41
0.0
 46
0.0
 71
     5
 72
     1
  1
\A1;24
  7
ＭＳ ゴシック
 73
     1
 44
1.0
  0
POINT
  5
1451
330
1448
100
AcDbEntity
  8
Defpoints
 62
     0
100
AcDbPoint
 10
-32.18913825922724
 20
77.2316944736378
 30
0.0
  0
POINT
  5
1452
330
1448
100
AcDbEntity
  8
Defpoints
 62
     0
100
AcDbPoint
 10
-56.18913825922712
 20
73.43169447363786
 30
0.0
  0
POINT
  5
1453
330
1448
100
AcDbEntity
  8
Defpoints
 62
     0
100
AcDbPoint
 10
-56.18913825922712
 20
64.7373160083097
 30
0.0
  0
ENDBLK
  5
144A
330
1448
100
AcDbEntity
  8
0
100
AcDbBlockEnd
  0
BLOCK
  5
1455
330
1454
100
AcDbEntity
  8
0
100
AcDbBlockBegin
  2
*D34
 70
     1
 10
0.0
 20
0.0
 30
0.0
  3
*D34
  1
*D35
  0
LINE
  5
1457
330
1454
100
AcDbEntity
  8
DIM
  6
Continuous
 62
     0
370
    -2
100
AcDbLine
 10
-32.18913825922724
 20
97.23169447363787
 30
0.0
 11
-32.18913825922724
 21
105.4354944339657
 31
0.0
  0
LINE
  5
1458
330
1454
100
AcDbEntity
  8
DIM
  6
Continuous
 62
     0
370
    -2
100
AcDbLine
 10
-41.18913825922724
 20
97.23169447363787
 30
0.0
 11
-41.18913825922724
 21
105.4354944339657
 31
0.0
  0
LINE
  5
1459
330
1454
100
AcDbEntity
  8
DIM
  6
Continuous
 62
     0
370
    -2
100
AcDbLine
 10
-33.18913825922724
 20
105.4354944339657
 30
0.0
 11
-40.18913825922724
 21
105.4354944339657
 31
0.0
  0
INSERT
  5
145A
330
1454
100
AcDbEntity
  8
DIM
 62
     0
370
    -2
100
AcDbBlockReference
  2
_DOT
 10
-32.18913825922724
 20
105.4354944339657
 30
0.0
  0
INSERT
  5
145B
330
1454
100
AcDbEntity
  8
DIM
 62
     0
370
    -2
100
AcDbBlockReference
  2
_DOT
 10
-41.18913825922724
 20
105.4354944339657
 30
0.0
 50
180.0
  0
MTEXT
  5
145C
330
1454
100
AcDbEntity
  8
DIM
 62
     0
100
AcDbMText
 10
-36.68913825922724
 20
107.9354944339657
 30
0.0
 40
3.0
 41
0.0
 46
0.0
 71
     5
 72
     1
  1
\A1;9
  7
ＭＳ ゴシック
 73
     1
 44
1.0
  0
POINT
  5
145D
330
1454
100
AcDbEntity
  8
Defpoints
 62
     0
100
AcDbPoint
 10
-32.18913825922724
 20
95.23169447363787
 30
0.0
  0
POINT
  5
145E
330
1454
100
AcDbEntity
  8
Defpoints
 62
     0
100
AcDbPoint
 10
-41.18913825922724
 20
95.23169447363787
 30
0.0
  0
POINT
  5
145F
330
1454
100
AcDbEntity
  8
Defpoints
 62
     0
100
AcDbPoint
 10
-41.18913825922724
 20
105.4354944339657
 30
0.0
  0
ENDBLK
  5
1456
330
1454
100
AcDbEntity
  8
0
100
AcDbBlockEnd
  0
BLOCK
  5
1461
330
1460
100
AcDbEntity
  8
0
100
AcDbBlockBegin
  2
*D35
 70
     1
 10
0.0
 20
0.0
 30
0.0
  3
*D35
  1
*D36
  0
LINE
  5
1463
330
1460
100
AcDbEntity
  8
DIM
  6
Continuous
 62
     0
370
    -2
100
AcDbLine
 10
-188.6533870645185
 20
238.4161339089901
 30
0.0
 11
-198.3672141814309
 21
238.4161339089901
 31
0.0
  0
LINE
  5
1464
330
1460
100
AcDbEntity
  8
DIM
  6
Continuous
 62
     0
370
    -2
100
AcDbLine
 10
-188.6533870645185
 20
222.4161339089901
 30
0.0
 11
-198.3672141814309
 21
222.4161339089901
 31
0.0
  0
LINE
  5
1465
330
1460
100
AcDbEntity
  8
DIM
  6
Continuous
 62
     0
370
    -2
100
AcDbLine
 10
-198.3672141814309
 20
237.4161339089901
 30
0.0
 11
-198.3672141814309
 21
223.4161339089901
 31
0.0
  0
INSERT
  5
1466
330
1460
100
AcDbEntity
  8
DIM
 62
     0
370
    -2
100
AcDbBlockReference
  2
_DOT
 10
-198.3672141814309
 20
238.4161339089901
 30
0.0
 50
90.0
  0
INSERT
  5
1467
330
1460
100
AcDbEntity
  8
DIM
 62
     0
370
    -2
100
AcDbBlockReference
  2
_DOT
 10
-198.3672141814309
 20
222.4161339089901
 30
0.0
 50
270.0
  0
MTEXT
  5
1468
330
1460
100
AcDbEntity
  8
DIM
 62
     0
100
AcDbMText
 10
-200.8672141814309
 20
230.4161339089901
 30
0.0
 40
3.0
 41
0.0
 46
0.0
 71
     5
 72
     1
  1
\A1;16
  7
ＭＳ ゴシック
 11
0.0
 21
1.0
 31
0.0
 73
     1
 44
1.0
  0
POINT
  5
1469
330
1460
100
AcDbEntity
  8
Defpoints
 62
     0
100
AcDbPoint
 10
-186.6533870645185
 20
238.4161339089901
 30
0.0
  0
POINT
  5
146A
330
1460
100
AcDbEntity
  8
Defpoints
 62
     0
100
AcDbPoint
 10
-186.6533870645185
 20
222.4161339089901
 30
0.0
  0
POINT
  5
146B
330
1460
100
AcDbEntity
  8
Defpoints
 62
     0
100
AcDbPoint
 10
-198.3672141814309
 20
222.4161339089901
 30
0.0
  0
ENDBLK
  5
1462
330
1460
100
AcDbEntity
  8
0
100
AcDbBlockEnd
  0
BLOCK
  5
146D
330
146C
100
AcDbEntity
  8
0
100
AcDbBlockBegin
  2
*D36
 70
     1
 10
0.0
 20
0.0
 30
0.0
  3
*D36
  1
*D37
  0
LINE
  5
146F
330
146C
100
AcDbEntity
  8
DIM
  6
Continuous
 62
     0
370
    -2
100
AcDbLine
 10
-88.18913825922724
 20
95.23169447363787
 30
0.0
 11
-95.59505323269823
 21
95.23169447363787
 31
0.0
  0
LINE
  5
1470
330
146C
100
AcDbEntity
  8
DIM
  6
Continuous
 62
     0
370
    -2
100
AcDbLine
 10
-88.18913825922724
 20
77.2316944736378
 30
0.0
 11
-95.59505323269823
 21
77.2316944736378
 31
0.0
  0
LINE
  5
1471
330
146C
100
AcDbEntity
  8
DIM
  6
Continuous
 62
     0
370
    -2
100
AcDbLine
 10
-95.59505323269823
 20
94.23169447363787
 30
0.0
 11
-95.59505323269823
 21
78.2316944736378
 31
0.0
  0
INSERT
  5
1472
330
146C
100
AcDbEntity
  8
DIM
 62
     0
370
    -2
100
AcDbBlockReference
  2
_DOT
 10
-95.59505323269823
 20
95.23169447363787
 30
0.0
 50
90.0
  0
INSERT
  5
1473
330
146C
100
AcDbEntity
  8
DIM
 62
     0
370
    -2
100
AcDbBlockReference
  2
_DOT
 10
-95.59505323269823
 20
77.2316944736378
 30
0.0
 50
270.0
  0
MTEXT
  5
1474
330
146C
100
AcDbEntity
  8
DIM
 62
     0
100
AcDbMText
 10
-98.09505323269823
 20
86.2316944736378
 30
0.0
 40
3.0
 41
0.0
 46
0.0
 71
     5
 72
     1
  1
\A1;18
  7
ＭＳ ゴシック
 11
0.0
 21
1.0
 31
0.0
 73
     1
 44
1.0
  0
POINT
  5
1475
330
146C
100
AcDbEntity
  8
Defpoints
 62
     0
100
AcDbPoint
 10
-86.18913825922724
 20
95.23169447363787
 30
0.0
  0
POINT
  5
1476
330
146C
100
AcDbEntity
  8
Defpoints
 62
     0
100
AcDbPoint
 10
-86.18913825922724
 20
77.2316944736378
 30
0.0
  0
POINT
  5
1477
330
146C
100
AcDbEntity
  8
Defpoints
 62
     0
100
AcDbPoint
 10
-95.59505323269823
 20
77.2316944736378
 30
0.0
  0
ENDBLK
  5
146E
330
146C
100
AcDbEntity
  8
0
100
AcDbBlockEnd
  0
BLOCK
  5
1479
330
1478
100
AcDbEntity
  8
0
100
AcDbBlockBegin
  2
*D37
 70
     1
 10
0.0
 20
0.0
 30
0.0
  3
*D37
  1
*D38
  0
LINE
  5
147B
330
1478
100
AcDbEntity
  8
DIM
  6
Continuous
 62
     0
370
    -2
100
AcDbLine
 10
-186.4091551234814
 20
97.23169447363787
 30
0.0
 11
-186.4091551234814
 21
103.5905103453359
 31
0.0
  0
LINE
  5
147C
330
1478
100
AcDbEntity
  8
DIM
  6
Continuous
 62
     0
370
    -2
100
AcDbLine
 10
-178.3742672641026
 20
97.23169447363787
 30
0.0
 11
-178.3742672641026
 21
103.5905103453359
 31
0.0
  0
LINE
  5
147D
330
1478
100
AcDbEntity
  8
DIM
  6
Continuous
 62
     0
370
    -2
100
AcDbLine
 10
-185.4091551234814
 20
103.5905103453359
 30
0.0
 11
-179.3742672641026
 21
103.5905103453359
 31
0.0
  0
INSERT
  5
147E
330
1478
100
AcDbEntity
  8
DIM
 62
     0
370
    -2
100
AcDbBlockReference
  2
_DOT
 10
-186.4091551234814
 20
103.5905103453359
 30
0.0
 50
180.0
  0
INSERT
  5
147F
330
1478
100
AcDbEntity
  8
DIM
 62
     0
370
    -2
100
AcDbBlockReference
  2
_DOT
 10
-178.3742672641026
 20
103.5905103453359
 30
0.0
  0
MTEXT
  5
1480
330
1478
100
AcDbEntity
  8
DIM
 62
     0
100
AcDbMText
 10
-182.391711193792
 20
106.0905103453359
 30
0.0
 40
3.0
 41
0.0
 46
0.0
 71
     5
 72
     1
  1
\A1;8
  7
ＭＳ ゴシック
 73
     1
 44
1.0
  0
POINT
  5
1481
330
1478
100
AcDbEntity
  8
Defpoints
 62
     0
100
AcDbPoint
 10
-186.4091551234814
 20
95.23169447363787
 30
0.0
  0
POINT
  5
1482
330
1478
100
AcDbEntity
  8
Defpoints
 62
     0
100
AcDbPoint
 10
-178.3742672641026
 20
95.23169447363787
 30
0.0
  0
POINT
  5
1483
330
1478
100
AcDbEntity
  8
Defpoints
 62
     0
100
AcDbPoint
 10
-178.3742672641026
 20
103.5905103453359
 30
0.0
  0
ENDBLK
  5
147A
330
1478
100
AcDbEntity
  8
0
100
AcDbBlockEnd
  0
BLOCK
  5
1485
330
1484
100
AcDbEntity
  8
0
100
AcDbBlockBegin
  2
*D38
 70
     1
 10
0.0
 20
0.0
 30
0.0
  3
*D38
  1
*D39
  0
LINE
  5
1487
330
1484
100
AcDbEntity
  8
DIM
  6
Continuous
 62
     0
370
    -2
100
AcDbLine
 10
-188.8742672641026
 20
89.23169447363787
 30
0.0
 11
-194.727425411124
 21
89.23169447363787
 31
0.0
  0
LINE
  5
1488
330
1484
100
AcDbEntity
  8
DIM
  6
Continuous
 62
     0
370
    -2
100
AcDbLine
 10
-188.4091551234814
 20
95.23169447363787
 30
0.0
 11
-194.727425411124
 21
95.23169447363787
 31
0.0
  0
LINE
  5
1489
330
1484
100
AcDbEntity
  8
DIM
  6
Continuous
 62
     0
370
    -2
100
AcDbLine
 10
-194.727425411124
 20
90.23169447363787
 30
0.0
 11
-194.727425411124
 21
94.23169447363787
 31
0.0
  0
INSERT
  5
148A
330
1484
100
AcDbEntity
  8
DIM
 62
     0
370
    -2
100
AcDbBlockReference
  2
_DOT
 10
-194.727425411124
 20
89.23169447363787
 30
0.0
 50
270.0
  0
INSERT
  5
148B
330
1484
100
AcDbEntity
  8
DIM
 62
     0
370
    -2
100
AcDbBlockReference
  2
_DOT
 10
-194.727425411124
 20
95.23169447363787
 30
0.0
 50
90.0
  0
MTEXT
  5
148C
330
1484
100
AcDbEntity
  8
DIM
 62
     0
100
AcDbMText
 10
-197.227425411124
 20
92.23169447363787
 30
0.0
 40
3.0
 41
0.0
 46
0.0
 71
     5
 72
     1
  1
\A1;6
  7
ＭＳ ゴシック
 11
0.0
 21
1.0
 31
0.0
 73
     1
 44
1.0
  0
POINT
  5
148D
330
1484
100
AcDbEntity
  8
Defpoints
 62
     0
100
AcDbPoint
 10
-186.8742672641026
 20
89.23169447363787
 30
0.0
  0
POINT
  5
148E
330
1484
100
AcDbEntity
  8
Defpoints
 62
     0
100
AcDbPoint
 10
-186.4091551234814
 20
95.23169447363787
 30
0.0
  0
POINT
  5
148F
330
1484
100
AcDbEntity
  8
Defpoints
 62
     0
100
AcDbPoint
 10
-194.727425411124
 20
95.23169447363787
 30
0.0
  0
ENDBLK
  5
1486
330
1484
100
AcDbEntity
  8
0
100
AcDbBlockEnd
  0
BLOCK
  5
1491
330
1490
100
AcDbEntity
  8
0
100
AcDbBlockBegin
  2
*D39
 70
     1
 10
0.0
 20
0.0
 30
0.0
  3
*D39
  1
*D40
  0
LINE
  5
1493
330
1490
100
AcDbEntity
  8
DIM
  6
Continuous
 62
     0
370
    -2
100
AcDbLine
 10
-130.4091551234814
 20
97.23169447363787
 30
0.0
 11
-130.4091551234814
 21
103.8220377603797
 31
0.0
  0
LINE
  5
1494
330
1490
100
AcDbEntity
  8
DIM
  6
Continuous
 62
     0
370
    -2
100
AcDbLine
 10
-138.4440429828603
 20
97.23169447363787
 30
0.0
 11
-138.4440429828603
 21
103.8220377603797
 31
0.0
  0
LINE
  5
1495
330
1490
100
AcDbEntity
  8
DIM
  6
Continuous
 62
     0
370
    -2
100
AcDbLine
 10
-131.4091551234814
 20
103.8220377603797
 30
0.0
 11
-137.4440429828603
 21
103.8220377603797
 31
0.0
  0
INSERT
  5
1496
330
1490
100
AcDbEntity
  8
DIM
 62
     0
370
    -2
100
AcDbBlockReference
  2
_DOT
 10
-130.4091551234814
 20
103.8220377603797
 30
0.0
  0
INSERT
  5
1497
330
1490
100
AcDbEntity
  8
DIM
 62
     0
370
    -2
100
AcDbBlockReference
  2
_DOT
 10
-138.4440429828603
 20
103.8220377603797
 30
0.0
 50
180.0
  0
MTEXT
  5
1498
330
1490
100
AcDbEntity
  8
DIM
 62
     0
100
AcDbMText
 10
-134.4265990531709
 20
106.3220377603797
 30
0.0
 40
3.0
 41
0.0
 46
0.0
 71
     5
 72
     1
  1
\A1;8
  7
ＭＳ ゴシック
 73
     1
 44
1.0
  0
POINT
  5
1499
330
1490
100
AcDbEntity
  8
Defpoints
 62
     0
100
AcDbPoint
 10
-130.4091551234814
 20
95.23169447363787
 30
0.0
  0
POINT
  5
149A
330
1490
100
AcDbEntity
  8
Defpoints
 62
     0
100
AcDbPoint
 10
-138.4440429828603
 20
95.23169447363787
 30
0.0
  0
POINT
  5
149B
330
1490
100
AcDbEntity
  8
Defpoints
 62
     0
100
AcDbPoint
 10
-138.4440429828603
 20
103.8220377603797
 30
0.0
  0
ENDBLK
  5
1492
330
1490
100
AcDbEntity
  8
0
100
AcDbBlockEnd
  0
BLOCK
  5
149D
330
149C
100
AcDbEntity
  8
0
100
AcDbBlockBegin
  2
*D40
 70
     1
 10
0.0
 20
0.0
 30
0.0
  3
*D40
  1
*D41
  0
LINE
  5
149F
330
149C
100
AcDbEntity
  8
DIM
  6
Continuous
 62
     0
370
    -2
100
AcDbLine
 10
-128.4091551234814
 20
95.23169447363787
 30
0.0
 11
-121.4489985497828
 21
95.23169447363787
 31
0.0
  0
LINE
  5
14A0
330
149C
100
AcDbEntity
  8
DIM
  6
Continuous
 62
     0
370
    -2
100
AcDbLine
 10
-128.4091551234814
 20
87.83169447363787
 30
0.0
 11
-121.4489985497828
 21
87.83169447363787
 31
0.0
  0
LINE
  5
14A1
330
149C
100
AcDbEntity
  8
DIM
  6
Continuous
 62
     0
370
    -2
100
AcDbLine
 10
-121.4489985497828
 20
94.23169447363787
 30
0.0
 11
-121.4489985497828
 21
88.83169447363787
 31
0.0
  0
INSERT
  5
14A2
330
149C
100
AcDbEntity
  8
DIM
 62
     0
370
    -2
100
AcDbBlockReference
  2
_DOT
 10
-121.4489985497828
 20
95.23169447363787
 30
0.0
 50
90.0
  0
INSERT
  5
14A3
330
149C
100
AcDbEntity
  8
DIM
 62
     0
370
    -2
100
AcDbBlockReference
  2
_DOT
 10
-121.4489985497828
 20
87.83169447363787
 30
0.0
 50
270.0
  0
MTEXT
  5
14A4
330
149C
100
AcDbEntity
  8
DIM
 62
     0
100
AcDbMText
 10
-123.9489985497828
 20
91.53169447363787
 30
0.0
 40
3.0
 41
0.0
 46
0.0
 71
     5
 72
     1
  1
\A1;7
  7
ＭＳ ゴシック
 11
0.0
 21
1.0
 31
0.0
 73
     1
 44
1.0
  0
POINT
  5
14A5
330
149C
100
AcDbEntity
  8
Defpoints
 62
     0
100
AcDbPoint
 10
-130.4091551234814
 20
95.23169447363787
 30
0.0
  0
POINT
  5
14A6
330
149C
100
AcDbEntity
  8
Defpoints
 62
     0
100
AcDbPoint
 10
-130.4091551234814
 20
87.83169447363787
 30
0.0
  0
POINT
  5
14A7
330
149C
100
AcDbEntity
  8
Defpoints
 62
     0
100
AcDbPoint
 10
-121.4489985497828
 20
87.83169447363787
 30
0.0
  0
ENDBLK
  5
149E
330
149C
100
AcDbEntity
  8
0
100
AcDbBlockEnd
  0
BLOCK
  5
15D4
330
15D3
100
AcDbEntity
  8
0
100
AcDbBlockBegin
  2
*D41
 70
     1
 10
0.0
 20
0.0
 30
0.0
  3
*D41
  1
*D44
  0
LINE
  5
15D5
330
15D3
100
AcDbEntity
  8
DIM
  6
Continuous
 62
     0
370
    -2
100
AcDbLine
 10
77.93390569102849
 20
49.72799999999984
 30
0.0
 11
108.4818194962347
 21
49.72799999999984
 31
0.0
  0
LINE
  5
15D6
330
15D3
100
AcDbEntity
  8
DIM
  6
Continuous
 62
     0
370
    -2
100
AcDbLine
 10
78.8822419830476
 20
68.72799999999961
 30
0.0
 11
108.4818194962347
 21
68.72799999999961
 31
0.0
  0
LINE
  5
15D7
330
15D3
100
AcDbEntity
  8
DIM
  6
Continuous
 62
     0
370
    -2
100
AcDbLine
 10
108.4818194962347
 20
49.72799999999984
 30
0.0
 11
108.4818194962347
 21
0.0000000000000284
 31
0.0
  0
LINE
  5
15D8
330
15D3
100
AcDbEntity
  8
DIM
  6
Continuous
 62
     0
370
    -2
100
AcDbLine
 10
108.4818194962347
 20
52.72799999999984
 30
0.0
 11
108.4818194962347
 21
65.72799999999961
 31
0.0
  0
INSERT
  5
15D9
330
15D3
100
AcDbEntity
  8
DIM
 62
     0
370
    -2
100
AcDbBlockReference
  2
_DOT
 10
108.4818194962347
 20
49.72799999999984
 30
0.0
 41
3.0
 42
3.0
 43
3.0
 50
270.0
  0
INSERT
  5
15DA
330
15D3
100
AcDbEntity
  8
DIM
 62
     0
370
    -2
100
AcDbBlockReference
  2
_DOT
 10
108.4818194962347
 20
68.72799999999961
 30
0.0
 41
3.0
 42
3.0
 43
3.0
 50
90.0
  0
MTEXT
  5
15DB
330
15D3
100
AcDbEntity
  8
DIM
 62
     0
 48
0.05
100
AcDbMText
 10
92.48181949623472
 20
16.57600000000002
 30
0.0
 40
12.0
 41
0.0
 46
0.0
 71
     5
 72
     1
  1
\A1;19
  7
ＭＳ ゴシック
 11
0.0
 21
1.0
 31
0.0
 73
     1
 44
1.0
  0
POINT
  5
15DC
330
15D3
100
AcDbEntity
  8
Defpoints
 62
     0
100
AcDbPoint
 10
72.93390569102849
 20
49.72799999999984
 30
0.0
  0
POINT
  5
15DD
330
15D3
100
AcDbEntity
  8
Defpoints
 62
     0
100
AcDbPoint
 10
73.8822419830476
 20
68.72799999999961
 30
0.0
  0
POINT
  5
15DE
330
15D3
100
AcDbEntity
  8
Defpoints
 62
     0
100
AcDbPoint
 10
108.4818194962347
 20
68.72799999999961
 30
0.0
  0
ENDBLK
  5
15DF
330
15D3
100
AcDbEntity
  8
0
100
AcDbBlockEnd
  0
BLOCK
  5
1600
330
15FF
100
AcDbEntity
  8
0
100
AcDbBlockBegin
  2
*D42
 70
     1
 10
0.0
 20
0.0
 30
0.0
  3
*D42
  1
*D45
  0
LINE
  5
1602
330
15FF
100
AcDbEntity
  8
DIM
  6
Continuous
 62
     0
370
    -2
100
AcDbLine
 10
-165.1857035479584
 20
84.55285013401519
 30
0.0
 11
-163.0761207869172
 21
84.55285013401519
 31
0.0
  0
LINE
  5
1603
330
15FF
100
AcDbEntity
  8
DIM
  6
Continuous
 62
     0
370
    -2
100
AcDbLine
 10
-164.9960362895546
 20
88.35285013401513
 30
0.0
 11
-163.0761207869172
 21
88.35285013401513
 31
0.0
  0
LINE
  5
1604
330
15FF
100
AcDbEntity
  8
DIM
  6
Continuous
 62
     0
370
    -2
100
AcDbLine
 10
-163.0761207869172
 20
84.55285013401519
 30
0.0
 11
-163.0761207869172
 21
61.42685013401521
 31
0.0
  0
LINE
  5
1605
330
15FF
100
AcDbEntity
  8
DIM
  6
Continuous
 62
     0
370
    -2
100
AcDbLine
 10
-163.0761207869172
 20
85.55285013401519
 30
0.0
 11
-163.0761207869172
 21
87.35285013401513
 31
0.0
  0
INSERT
  5
1606
330
15FF
100
AcDbEntity
  8
DIM
 62
     0
370
    -2
100
AcDbBlockReference
  2
_DOT
 10
-163.0761207869172
 20
84.55285013401519
 30
0.0
 50
270.0
  0
INSERT
  5
1607
330
15FF
100
AcDbEntity
  8
DIM
 62
     0
370
    -2
100
AcDbBlockReference
  2
_DOT
 10
-163.0761207869172
 20
88.35285013401513
 30
0.0
 50
90.0
  0
MTEXT
  5
1608
330
15FF
100
AcDbEntity
  8
DIM
 62
     0
 48
0.05
100
AcDbMText
 10
-174.0761207869172
 20
71.9898501340152
 30
0.0
 40
2.0
 41
0.0
 46
0.0
 71
     5
 72
     1
  1
\A1;4
  7
ＭＳ ゴシック
 11
0.0
 21
1.0
 31
0.0
 73
     1
 44
1.0
  0
POINT
  5
1609
330
15FF
100
AcDbEntity
  8
Defpoints
 62
     0
100
AcDbPoint
 10
-170.1857035479584
 20
84.55285013401519
 30
0.0
  0
POINT
  5
160A
330
15FF
100
AcDbEntity
  8
Defpoints
 62
     0
100
AcDbPoint
 10
-169.9960362895546
 20
88.35285013401513
 30
0.0
  0
POINT
  5
160B
330
15FF
100
AcDbEntity
  8
Defpoints
 62
     0
100
AcDbPoint
 10
-163.0761207869172
 20
88.35285013401513
 30
0.0
  0
ENDBLK
  5
1601
330
15FF
100
AcDbEntity
  8
0
100
AcDbBlockEnd
  0
BLOCK
  5
19AF
330
19AE
100
AcDbEntity
  8
0
100
AcDbBlockBegin
  2
*D43
 70
     1
 10
0.0
 20
0.0
 30
0.0
  3
*D43
  1
*D72
  0
LINE
  5
19B0
330
19AE
100
AcDbEntity
  8
MODEL
  6
Continuous
 62
     0
370
    -2
100
AcDbLine
 10
3.000000000000057
 20
115.1064001690009
 30
0.0
 11
3.000000000000057
 21
3.0
 31
0.0
  0
LINE
  5
19B1
330
19AE
100
AcDbEntity
  8
MODEL
  6
Continuous
 62
     0
370
    -2
100
AcDbLine
 10
192.9991617165159
 20
90.83769431300959
 30
0.0
 11
192.9991617165159
 21
3.0
 31
0.0
  0
LINE
  5
19B2
330
19AE
100
AcDbEntity
  8
MODEL
  6
Continuous
 62
     0
370
    -2
100
AcDbLine
 10
4.000000000000057
 20
3.0
 30
0.0
 11
191.9991617165159
 21
3.0
 31
0.0
  0
INSERT
  5
19B3
330
19AE
100
AcDbEntity
  8
MODEL
 62
     0
370
    -2
100
AcDbBlockReference
  2
_DOT
 10
3.000000000000057
 20
3.0
 30
0.0
 50
180.0
  0
INSERT
  5
19B4
330
19AE
100
AcDbEntity
  8
MODEL
 62
     0
370
    -2
100
AcDbBlockReference
  2
_DOT
 10
192.9991617165159
 20
3.0
 30
0.0
  0
MTEXT
  5
19B5
330
19AE
100
AcDbEntity
  8
MODEL
 62
     0
 48
0.05
370
     0
100
AcDbMText
 10
97.99958085825799
 20
5.0
 30
0.0
 40
2.0
 41
0.0
 46
0.0
 71
     5
 72
     1
  1
\A1;190
  7
ＭＳ ゴシック
 73
     1
 44
1.0
  0
POINT
  5
19B6
330
19AE
100
AcDbEntity
  8
Defpoints
 62
     0
100
AcDbPoint
 10
3.000000000000057
 20
116.1064001690009
 30
0.0
  0
POINT
  5
19B7
330
19AE
100
AcDbEntity
  8
Defpoints
 62
     0
100
AcDbPoint
 10
192.9991617165159
 20
91.83769431300959
 30
0.0
  0
POINT
  5
19B8
330
19AE
100
AcDbEntity
  8
Defpoints
 62
     0
100
AcDbPoint
 10
192.9991617165159
 20
3.0
 30
0.0
  0
ENDBLK
  5
19B9
330
19AE
100
AcDbEntity
  8
0
100
AcDbBlockEnd
  0
BLOCK
  5
19C0
330
19BF
100
AcDbEntity
  8
0
100
AcDbBlockBegin
  2
*D44
 70
     1
 10
0.0
 20
0.0
 30
0.0
  3
*D44
  1
*D73
  0
LINE
  5
19C1
330
19BF
100
AcDbEntity
  8
MODEL
  6
Continuous
 62
     0
370
    -2
100
AcDbLine
 10
171.6948216531223
 20
92.40949238203314
 30
0.0
 11
171.6948216531223
 21
38.12551057119663
 31
0.0
  0
LINE
  5
19C2
330
19BF
100
AcDbEntity
  8
MODEL
  6
Continuous
 62
     0
370
    -2
100
AcDbLine
 10
214.3840170484787
 20
92.40949238203314
 30
0.0
 11
214.3840170484787
 21
38.12551057119663
 31
0.0
  0
LINE
  5
19C3
330
19BF
100
AcDbEntity
  8
MODEL
  6
Continuous
 62
     0
370
    -2
100
AcDbLine
 10
172.6948216531223
 20
38.12551057119663
 30
0.0
 11
213.3840170484787
 21
38.12551057119663
 31
0.0
  0
INSERT
  5
19C4
330
19BF
100
AcDbEntity
  8
MODEL
 62
     0
370
    -2
100
AcDbBlockReference
  2
_DOT
 10
171.6948216531223
 20
38.12551057119663
 30
0.0
 50
180.0
  0
INSERT
  5
19C5
330
19BF
100
AcDbEntity
  8
MODEL
 62
     0
370
    -2
100
AcDbBlockReference
  2
_DOT
 10
214.3840170484787
 20
38.12551057119663
 30
0.0
  0
MTEXT
  5
19C6
330
19BF
100
AcDbEntity
  8
MODEL
 62
     0
 48
0.05
370
     0
100
AcDbMText
 10
193.0394193508005
 20
40.33851057119663
 30
0.0
 40
2.0
 41
0.0
 46
0.0
 71
     5
 72
     1
  1
\A1;G1 1/4"
  7
ＭＳ ゴシック
 73
     1
 44
1.0
  0
POINT
  5
19C7
330
19BF
100
AcDbEntity
  8
Defpoints
 62
     0
100
AcDbPoint
 10
171.6948216531223
 20
93.40949238203314
 30
0.0
  0
POINT
  5
19C8
330
19BF
100
AcDbEntity
  8
Defpoints
 62
     0
100
AcDbPoint
 10
214.3840170484787
 20
93.40949238203314
 30
0.0
  0
POINT
  5
19C9
330
19BF
100
AcDbEntity
  8
Defpoints
 62
     0
100
AcDbPoint
 10
214.3840170484787
 20
38.12551057119663
 30
0.0
  0
ENDBLK
  5
19CA
330
19BF
100
AcDbEntity
  8
0
100
AcDbBlockEnd
  0
BLOCK
  5
19CF
330
19CE
100
AcDbEntity
  8
0
100
AcDbBlockBegin
  2
*D45
 70
     1
 10
0.0
 20
0.0
 30
0.0
  3
*D45
  1
*D74
  0
LINE
  5
19D0
330
19CE
100
AcDbEntity
  8
MODEL
  6
Continuous
 62
     0
370
    -2
100
AcDbLine
 10
213.8087183156042
 20
91.83769431300959
 30
0.0
 11
287.213991139251
 21
91.83769431300959
 31
0.0
  0
LINE
  5
19D1
330
19CE
100
AcDbEntity
  8
MODEL
  6
Continuous
 62
     0
370
    -2
100
AcDbLine
 10
213.8087183156042
 20
101.8376943130096
 30
0.0
 11
287.213991139251
 21
101.8376943130096
 31
0.0
  0
LINE
  5
19D2
330
19CE
100
AcDbEntity
  8
MODEL
  6
Continuous
 62
     0
370
    -2
100
AcDbLine
 10
287.213991139251
 20
92.83769431300959
 30
0.0
 11
287.213991139251
 21
100.8376943130096
 31
0.0
  0
INSERT
  5
19D3
330
19CE
100
AcDbEntity
  8
MODEL
 62
     0
370
    -2
100
AcDbBlockReference
  2
_DOT
 10
287.213991139251
 20
91.83769431300959
 30
0.0
 50
270.0
  0
INSERT
  5
19D4
330
19CE
100
AcDbEntity
  8
MODEL
 62
     0
370
    -2
100
AcDbBlockReference
  2
_DOT
 10
287.213991139251
 20
101.8376943130096
 30
0.0
 50
90.0
  0
MTEXT
  5
19D5
330
19CE
100
AcDbEntity
  8
MODEL
 62
     0
 48
0.05
370
     0
100
AcDbMText
 10
285.213991139251
 20
96.83769431300959
 30
0.0
 40
2.0
 41
0.0
 46
0.0
 71
     5
 72
     1
  1
\A1;10
  7
ＭＳ ゴシック
 11
0.0
 21
1.0
 31
0.0
 73
     1
 44
1.0
  0
POINT
  5
19D6
330
19CE
100
AcDbEntity
  8
Defpoints
 62
     0
100
AcDbPoint
 10
212.8087183156042
 20
91.83769431300959
 30
0.0
  0
POINT
  5
19D7
330
19CE
100
AcDbEntity
  8
Defpoints
 62
     0
100
AcDbPoint
 10
212.8087183156042
 20
101.8376943130096
 30
0.0
  0
POINT
  5
19D8
330
19CE
100
AcDbEntity
  8
Defpoints
 62
     0
100
AcDbPoint
 10
287.213991139251
 20
101.8376943130096
 30
0.0
  0
ENDBLK
  5
19D9
330
19CE
100
AcDbEntity
  8
0
100
AcDbBlockEnd
  0
BLOCK
  5
19DC
330
19DB
100
AcDbEntity
  8
0
100
AcDbBlockBegin
  2
*D46
 70
     1
 10
0.0
 20
0.0
 30
0.0
  3
*D46
  1
*D75
  0
LINE
  5
19DD
330
19DB
100
AcDbEntity
  8
MODEL
  6
Continuous
 62
     0
370
    -2
100
AcDbLine
 10
238.8087183156042
 20
101.8376943130096
 30
0.0
 11
287.213991139251
 21
101.8376943130096
 31
0.0
  0
LINE
  5
19DE
330
19DB
100
AcDbEntity
  8
MODEL
  6
Continuous
 62
     0
370
    -2
100
AcDbLine
 10
238.8087183156042
 20
148.8376943130096
 30
0.0
 11
287.213991139251
 21
148.8376943130096
 31
0.0
  0
LINE
  5
19DF
330
19DB
100
AcDbEntity
  8
MODEL
  6
Continuous
 62
     0
370
    -2
100
AcDbLine
 10
287.213991139251
 20
102.8376943130096
 30
0.0
 11
287.213991139251
 21
147.8376943130096
 31
0.0
  0
INSERT
  5
19E0
330
19DB
100
AcDbEntity
  8
MODEL
 62
     0
370
    -2
100
AcDbBlockReference
  2
_DOT
 10
287.213991139251
 20
101.8376943130096
 30
0.0
 50
270.0
  0
INSERT
  5
19E1
330
19DB
100
AcDbEntity
  8
MODEL
 62
     0
370
    -2
100
AcDbBlockReference
  2
_DOT
 10
287.213991139251
 20
148.8376943130096
 30
0.0
 50
90.0
  0
MTEXT
  5
19E2
330
19DB
100
AcDbEntity
  8
MODEL
 62
     0
 48
0.05
370
     0
100
AcDbMText
 10
285.213991139251
 20
125.3376943130096
 30
0.0
 40
2.0
 41
0.0
 46
0.0
 71
     5
 72
     1
  1
\A1;47
  7
ＭＳ ゴシック
 11
0.0
 21
1.0
 31
0.0
 73
     1
 44
1.0
  0
POINT
  5
19E3
330
19DB
100
AcDbEntity
  8
Defpoints
 62
     0
100
AcDbPoint
 10
237.8087183156042
 20
101.8376943130096
 30
0.0
  0
POINT
  5
19E4
330
19DB
100
AcDbEntity
  8
Defpoints
 62
     0
100
AcDbPoint
 10
237.8087183156042
 20
148.8376943130096
 30
0.0
  0
POINT
  5
19E5
330
19DB
100
AcDbEntity
  8
Defpoints
 62
     0
100
AcDbPoint
 10
287.213991139251
 20
148.8376943130096
 30
0.0
  0
ENDBLK
  5
19E6
330
19DB
100
AcDbEntity
  8
0
100
AcDbBlockEnd
  0
BLOCK
  5
1D25
330
1D24
100
AcDbEntity
  8
0
100
AcDbBlockBegin
  2
*D47
 70
     1
 10
0.0
 20
0.0
 30
0.0
  3
*D47
  1
*D48
  0
LINE
  5
1D27
330
1D24
100
AcDbEntity
  8
MODEL
  6
Continuous
 62
     0
370
    -2
100
AcDbLine
 10
254.029647793646
 20
186.2266470544658
 30
0.0
 11
254.029647793646
 21
74.1202468854649
 31
0.0
  0
LINE
  5
1D28
330
1D24
100
AcDbEntity
  8
MODEL
  6
Continuous
 62
     0
370
    -2
100
AcDbLine
 10
444.0288095101619
 20
161.9579411984745
 30
0.0
 11
444.0288095101619
 21
74.1202468854649
 31
0.0
  0
LINE
  5
1D29
330
1D24
100
AcDbEntity
  8
MODEL
  6
Continuous
 62
     0
370
    -2
100
AcDbLine
 10
255.029647793646
 20
74.1202468854649
 30
0.0
 11
443.0288095101619
 21
74.1202468854649
 31
0.0
  0
INSERT
  5
1D2A
330
1D24
100
AcDbEntity
  8
MODEL
 62
     0
370
    -2
100
AcDbBlockReference
  2
_DOT
 10
254.029647793646
 20
74.1202468854649
 30
0.0
 50
180.0
  0
INSERT
  5
1D2B
330
1D24
100
AcDbEntity
  8
MODEL
 62
     0
370
    -2
100
AcDbBlockReference
  2
_DOT
 10
444.0288095101619
 20
74.1202468854649
 30
0.0
  0
MTEXT
  5
1D2C
330
1D24
100
AcDbEntity
  8
MODEL
 62
     0
 48
0.05
370
     0
100
AcDbMText
 10
349.029228651904
 20
76.1202468854649
 30
0.0
 40
2.0
 41
0.0
 46
0.0
 71
     5
 72
     1
  1
\A1;190
  7
ＭＳ ゴシック
 73
     1
 44
1.0
  0
POINT
  5
1D2D
330
1D24
100
AcDbEntity
  8
Defpoints
 62
     0
100
AcDbPoint
 10
254.029647793646
 20
187.2266470544658
 30
0.0
  0
POINT
  5
1D2E
330
1D24
100
AcDbEntity
  8
Defpoints
 62
     0
100
AcDbPoint
 10
444.0288095101619
 20
162.9579411984745
 30
0.0
  0
POINT
  5
1D2F
330
1D24
100
AcDbEntity
  8
Defpoints
 62
     0
100
AcDbPoint
 10
444.0288095101619
 20
74.1202468854649
 30
0.0
  0
ENDBLK
  5
1D26
330
1D24
100
AcDbEntity
  8
0
100
AcDbBlockEnd
  0
BLOCK
  5
1D31
330
1D30
100
AcDbEntity
  8
0
100
AcDbBlockBegin
  2
*D48
 70
     1
 10
0.0
 20
0.0
 30
0.0
  3
*D48
  1
*D49
  0
LINE
  5
1D33
330
1D30
100
AcDbEntity
  8
MODEL
  6
Continuous
 62
     0
370
    -2
100
AcDbLine
 10
422.7244694467682
 20
163.529739267498
 30
0.0
 11
422.7244694467682
 21
109.2457574566615
 31
0.0
  0
LINE
  5
1D34
330
1D30
100
AcDbEntity
  8
MODEL
  6
Continuous
 62
     0
370
    -2
100
AcDbLine
 10
465.4136648421246
 20
163.529739267498
 30
0.0
 11
465.4136648421246
 21
109.2457574566615
 31
0.0
  0
LINE
  5
1D35
330
1D30
100
AcDbEntity
  8
MODEL
  6
Continuous
 62
     0
370
    -2
100
AcDbLine
 10
423.7244694467682
 20
109.2457574566615
 30
0.0
 11
464.4136648421246
 21
109.2457574566615
 31
0.0
  0
INSERT
  5
1D36
330
1D30
100
AcDbEntity
  8
MODEL
 62
     0
370
    -2
100
AcDbBlockReference
  2
_DOT
 10
422.7244694467682
 20
109.2457574566615
 30
0.0
 50
180.0
  0
INSERT
  5
1D37
330
1D30
100
AcDbEntity
  8
MODEL
 62
     0
370
    -2
100
AcDbBlockReference
  2
_DOT
 10
465.4136648421246
 20
109.2457574566615
 30
0.0
  0
MTEXT
  5
1D38
330
1D30
100
AcDbEntity
  8
MODEL
 62
     0
 48
0.05
370
     0
100
AcDbMText
 10
444.0690671444464
 20
111.4587574566615
 30
0.0
 40
2.0
 41
0.0
 46
0.0
 71
     5
 72
     1
  1
\A1;G1 1/4"
  7
ＭＳ ゴシック
 73
     1
 44
1.0
  0
POINT
  5
1D39
330
1D30
100
AcDbEntity
  8
Defpoints
 62
     0
100
AcDbPoint
 10
422.7244694467682
 20
164.529739267498
 30
0.0
  0
POINT
  5
1D3A
330
1D30
100
AcDbEntity
  8
Defpoints
 62
     0
100
AcDbPoint
 10
465.4136648421246
 20
164.529739267498
 30
0.0
  0
POINT
  5
1D3B
330
1D30
100
AcDbEntity
  8
Defpoints
 62
     0
100
AcDbPoint
 10
465.4136648421246
 20
109.2457574566615
 30
0.0
  0
ENDBLK
  5
1D32
330
1D30
100
AcDbEntity
  8
0
100
AcDbBlockEnd
  0
BLOCK
  5
1D3D
330
1D3C
100
AcDbEntity
  8
0
100
AcDbBlockBegin
  2
*D49
 70
     1
 10
0.0
 20
0.0
 30
0.0
  3
*D49
  1
*D50
  0
LINE
  5
1D3F
330
1D3C
100
AcDbEntity
  8
MODEL
  6
Continuous
 62
     0
370
    -2
100
AcDbLine
 10
464.8383661092502
 20
162.9579411984745
 30
0.0
 11
538.2436389328969
 21
162.9579411984745
 31
0.0
  0
LINE
  5
1D40
330
1D3C
100
AcDbEntity
  8
MODEL
  6
Continuous
 62
     0
370
    -2
100
AcDbLine
 10
464.8383661092502
 20
172.9579411984745
 30
0.0
 11
538.2436389328969
 21
172.9579411984745
 31
0.0
  0
LINE
  5
1D41
330
1D3C
100
AcDbEntity
  8
MODEL
  6
Continuous
 62
     0
370
    -2
100
AcDbLine
 10
538.2436389328969
 20
163.9579411984745
 30
0.0
 11
538.2436389328969
 21
171.9579411984745
 31
0.0
  0
INSERT
  5
1D42
330
1D3C
100
AcDbEntity
  8
MODEL
 62
     0
370
    -2
100
AcDbBlockReference
  2
_DOT
 10
538.2436389328969
 20
162.9579411984745
 30
0.0
 50
270.0
  0
INSERT
  5
1D43
330
1D3C
100
AcDbEntity
  8
MODEL
 62
     0
370
    -2
100
AcDbBlockReference
  2
_DOT
 10
538.2436389328969
 20
172.9579411984745
 30
0.0
 50
90.0
  0
MTEXT
  5
1D44
330
1D3C
100
AcDbEntity
  8
MODEL
 62
     0
 48
0.05
370
     0
100
AcDbMText
 10
536.2436389328969
 20
167.9579411984745
 30
0.0
 40
2.0
 41
0.0
 46
0.0
 71
     5
 72
     1
  1
\A1;10
  7
ＭＳ ゴシック
 11
0.0
 21
1.0
 31
0.0
 73
     1
 44
1.0
  0
POINT
  5
1D45
330
1D3C
100
AcDbEntity
  8
Defpoints
 62
     0
100
AcDbPoint
 10
463.8383661092502
 20
162.9579411984745
 30
0.0
  0
POINT
  5
1D46
330
1D3C
100
AcDbEntity
  8
Defpoints
 62
     0
100
AcDbPoint
 10
463.8383661092502
 20
172.9579411984745
 30
0.0
  0
POINT
  5
1D47
330
1D3C
100
AcDbEntity
  8
Defpoints
 62
     0
100
AcDbPoint
 10
538.2436389328969
 20
172.9579411984745
 30
0.0
  0
ENDBLK
  5
1D3E
330
1D3C
100
AcDbEntity
  8
0
100
AcDbBlockEnd
  0
BLOCK
  5
1D49
330
1D48
100
AcDbEntity
  8
0
100
AcDbBlockBegin
  2
*D50
 70
     1
 10
0.0
 20
0.0
 30
0.0
  3
*D50
  1
*D51
  0
LINE
  5
1D4B
330
1D48
100
AcDbEntity
  8
MODEL
  6
Continuous
 62
     0
370
    -2
100
AcDbLine
 10
489.8383661092502
 20
172.9579411984745
 30
0.0
 11
538.2436389328969
 21
172.9579411984745
 31
0.0
  0
LINE
  5
1D4C
330
1D48
100
AcDbEntity
  8
MODEL
  6
Continuous
 62
     0
370
    -2
100
AcDbLine
 10
489.8383661092502
 20
219.9579411984745
 30
0.0
 11
538.2436389328969
 21
219.9579411984745
 31
0.0
  0
LINE
  5
1D4D
330
1D48
100
AcDbEntity
  8
MODEL
  6
Continuous
 62
     0
370
    -2
100
AcDbLine
 10
538.2436389328969
 20
173.9579411984745
 30
0.0
 11
538.2436389328969
 21
218.9579411984745
 31
0.0
  0
INSERT
  5
1D4E
330
1D48
100
AcDbEntity
  8
MODEL
 62
     0
370
    -2
100
AcDbBlockReference
  2
_DOT
 10
538.2436389328969
 20
172.9579411984745
 30
0.0
 50
270.0
  0
INSERT
  5
1D4F
330
1D48
100
AcDbEntity
  8
MODEL
 62
     0
370
    -2
100
AcDbBlockReference
  2
_DOT
 10
538.2436389328969
 20
219.9579411984745
 30
0.0
 50
90.0
  0
MTEXT
  5
1D50
330
1D48
100
AcDbEntity
  8
MODEL
 62
     0
 48
0.05
370
     0
100
AcDbMText
 10
536.2436389328969
 20
196.4579411984745
 30
0.0
 40
2.0
 41
0.0
 46
0.0
 71
     5
 72
     1
  1
\A1;47
  7
ＭＳ ゴシック
 11
0.0
 21
1.0
 31
0.0
 73
     1
 44
1.0
  0
POINT
  5
1D51
330
1D48
100
AcDbEntity
  8
Defpoints
 62
     0
100
AcDbPoint
 10
488.8383661092502
 20
172.9579411984745
 30
0.0
  0
POINT
  5
1D52
330
1D48
100
AcDbEntity
  8
Defpoints
 62
     0
100
AcDbPoint
 10
488.8383661092502
 20
219.9579411984745
 30
0.0
  0
POINT
  5
1D53
330
1D48
100
AcDbEntity
  8
Defpoints
 62
     0
100
AcDbPoint
 10
538.2436389328969
 20
219.9579411984745
 30
0.0
  0
ENDBLK
  5
1D4A
330
1D48
100
AcDbEntity
  8
0
100
AcDbBlockEnd
  0
BLOCK
  5
1D5B
330
1D5A
100
AcDbEntity
  8
0
100
AcDbBlockBegin
  2
*D51
 70
     1
 10
0.0
 20
0.0
 30
0.0
  3
*D51
  1
*D51
  0
LINE
  5
1D5D
330
1D5A
100
AcDbEntity
  8
DIM
 62
     0
 48
0.05
370
    -2
100
AcDbLine
 10
33.70735146723604
 20
187.2614285714286
 30
0.0
 11
33.70735146723604
 21
208.3242857142857
 31
0.0
  0
LINE
  5
1D5E
330
1D5A
100
AcDbEntity
  8
DIM
 62
     0
 48
0.05
370
    -2
100
AcDbLine
 10
106.2602086100932
 20
187.2614285714286
 30
0.0
 11
106.2602086100932
 21
208.3242857142857
 31
0.0
  0
LINE
  5
1D5F
330
1D5A
100
AcDbEntity
  8
DIM
 62
     0
 48
0.05
370
    -2
100
AcDbLine
 10
34.70735146723604
 20
208.3242857142857
 30
0.0
 11
105.2602086100932
 21
208.3242857142857
 31
0.0
  0
INSERT
  5
1D60
330
1D5A
100
AcDbEntity
  8
DIM
 62
     0
370
    -2
100
AcDbBlockReference
  2
_DOT
 10
33.70735146723604
 20
208.3242857142857
 30
0.0
 50
180.0
  0
INSERT
  5
1D61
330
1D5A
100
AcDbEntity
  8
DIM
 62
     0
370
    -2
100
AcDbBlockReference
  2
_DOT
 10
106.2602086100932
 20
208.3242857142857
 30
0.0
  0
MTEXT
  5
1D62
330
1D5A
100
AcDbEntity
  8
DIM
 62
     0
 48
0.05
100
AcDbMText
 10
69.9837800386646
 20
210.3242857142857
 30
0.0
 40
2.0
 41
0.0
 46
0.0
 71
     5
 72
     1
  1
\A1;73
  7
ＭＳ ゴシック
 73
     1
 44
1.0
  0
POINT
  5
1D63
330
1D5A
100
AcDbEntity
  8
Defpoints
 62
     0
100
AcDbPoint
 10
33.70735146723604
 20
186.2614285714286
 30
0.0
  0
POINT
  5
1D64
330
1D5A
100
AcDbEntity
  8
Defpoints
 62
     0
100
AcDbPoint
 10
106.2602086100932
 20
186.2614285714286
 30
0.0
  0
POINT
  5
1D65
330
1D5A
100
AcDbEntity
  8
Defpoints
 62
     0
100
AcDbPoint
 10
106.2602086100932
 20
208.3242857142857
 30
0.0
  0
ENDBLK
  5
1D5C
330
1D5A
100
AcDbEntity
  8
0
100
AcDbBlockEnd
  0
BLOCK
  5
1DA4
330
1DA3
100
AcDbEntity
  8
0
100
AcDbBlockBegin
  2
*D52
 70
     1
 10
0.0
 20
0.0
 30
0.0
  3
*D52
  1
*D53
  0
LINE
  5
1DA6
330
1DA3
100
AcDbEntity
  8
DIM
 62
     0
370
    -2
100
AcDbLine
 10
34.94456861009334
 20
218.49607
 30
0.0
 11
34.94456861009334
 21
228.9517842857143
 31
0.0
  0
LINE
  5
1DA7
330
1DA3
100
AcDbEntity
  8
DIM
 62
     0
370
    -2
100
AcDbLine
 10
67.1902828958076
 20
218.49607
 30
0.0
 11
67.1902828958076
 21
228.9517842857143
 31
0.0
  0
LINE
  5
1DA8
330
1DA3
100
AcDbEntity
  8
DIM
 62
     0
370
    -2
100
AcDbLine
 10
35.94456861009334
 20
228.9517842857143
 30
0.0
 11
66.1902828958076
 21
228.9517842857143
 31
0.0
  0
INSERT
  5
1DA9
330
1DA3
100
AcDbEntity
  8
DIM
 62
     0
370
    -2
100
AcDbBlockReference
  2
_DOT
 10
34.94456861009334
 20
228.9517842857143
 30
0.0
 50
180.0
  0
INSERT
  5
1DAA
330
1DA3
100
AcDbEntity
  8
DIM
 62
     0
370
    -2
100
AcDbBlockReference
  2
_DOT
 10
67.1902828958076
 20
228.9517842857143
 30
0.0
  0
MTEXT
  5
1DAB
330
1DA3
100
AcDbEntity
  8
DIM
 62
     0
100
AcDbMText
 10
51.06742575295047
 20
230.9517842857143
 30
0.0
 40
2.0
 41
0.0
 46
0.0
 71
     5
 72
     1
  1
\A1;32
  7
ＭＳ ゴシック
 73
     1
 44
1.0
  0
POINT
  5
1DAC
330
1DA3
100
AcDbEntity
  8
Defpoints
 62
     0
100
AcDbPoint
 10
34.94456861009334
 20
217.49607
 30
0.0
  0
POINT
  5
1DAD
330
1DA3
100
AcDbEntity
  8
Defpoints
 62
     0
100
AcDbPoint
 10
67.1902828958076
 20
217.49607
 30
0.0
  0
POINT
  5
1DAE
330
1DA3
100
AcDbEntity
  8
Defpoints
 62
     0
100
AcDbPoint
 10
67.1902828958076
 20
228.9517842857143
 30
0.0
  0
ENDBLK
  5
1DA5
330
1DA3
100
AcDbEntity
  8
0
100
AcDbBlockEnd
  0
BLOCK
  5
1DB4
330
1DB3
100
AcDbEntity
  8
0
100
AcDbBlockBegin
  2
*D53
 70
     1
 10
0.0
 20
0.0
 30
0.0
  3
*D53
  1
*D54
  0
LINE
  5
1DB6
330
1DB3
100
AcDbEntity
  8
DIM
 62
     0
370
    -2
100
AcDbLine
 10
48.09228001580757
 20
28.88576446857148
 30
0.0
 11
48.09228001580757
 21
31.00003518857148
 31
0.0
  0
LINE
  5
1DB7
330
1DB3
100
AcDbEntity
  8
DIM
 62
     0
370
    -2
100
AcDbLine
 10
62.88506593580757
 20
28.88576446857148
 30
0.0
 11
62.88506593580757
 21
31.00003518857148
 31
0.0
  0
LINE
  5
1DB8
330
1DB3
100
AcDbEntity
  8
DIM
 62
     0
370
    -2
100
AcDbLine
 10
49.09228001580757
 20
31.00003518857148
 30
0.0
 11
61.88506593580757
 21
31.00003518857148
 31
0.0
  0
INSERT
  5
1DB9
330
1DB3
100
AcDbEntity
  8
DIM
 62
     0
370
    -2
100
AcDbBlockReference
  2
_DOT
 10
48.09228001580757
 20
31.00003518857148
 30
0.0
 50
180.0
  0
INSERT
  5
1DBA
330
1DB3
100
AcDbEntity
  8
DIM
 62
     0
370
    -2
100
AcDbBlockReference
  2
_DOT
 10
62.88506593580757
 20
31.00003518857148
 30
0.0
  0
MTEXT
  5
1DBB
330
1DB3
100
AcDbEntity
  8
DIM
 62
     0
100
AcDbMText
 10
55.48867297580757
 20
33.50003518857148
 30
0.0
 40
3.0
 41
0.0
 46
0.0
 71
     5
 72
     1
  1
\A1;15
  7
ＭＳ ゴシック
 73
     1
 44
1.0
  0
POINT
  5
1DBC
330
1DB3
100
AcDbEntity
  8
Defpoints
 62
     0
100
AcDbPoint
 10
48.09228001580757
 20
27.88576446857148
 30
0.0
  0
POINT
  5
1DBD
330
1DB3
100
AcDbEntity
  8
Defpoints
 62
     0
100
AcDbPoint
 10
62.88506593580757
 20
27.88576446857148
 30
0.0
  0
POINT
  5
1DBE
330
1DB3
100
AcDbEntity
  8
Defpoints
 62
     0
100
AcDbPoint
 10
62.88506593580757
 20
31.00003518857148
 30
0.0
  0
ENDBLK
  5
1DB5
330
1DB3
100
AcDbEntity
  8
0
100
AcDbBlockEnd
  0
BLOCK
  5
1DD5
330
1DD4
100
AcDbEntity
  8
0
100
AcDbBlockBegin
  2
*D54
 70
     1
 10
0.0
 20
0.0
 30
0.0
  3
*D54
  1
*D55
  0
LINE
  5
1DD7
330
1DD4
100
AcDbEntity
  8
DIM
 62
     0
370
    -2
100
AcDbLine
 10
64.11601043866457
 20
215.0060382742857
 30
0.0
 11
64.11601043866457
 21
229.91675256
 31
0.0
  0
LINE
  5
1DD8
330
1DD4
100
AcDbEntity
  8
DIM
 62
     0
370
    -2
100
AcDbLine
 10
98.05886758152175
 20
215.0060382742857
 30
0.0
 11
98.05886758152175
 21
229.91675256
 31
0.0
  0
LINE
  5
1DD9
330
1DD4
100
AcDbEntity
  8
DIM
 62
     0
370
    -2
100
AcDbLine
 10
65.11601043866457
 20
229.91675256
 30
0.0
 11
97.05886758152175
 21
229.91675256
 31
0.0
  0
INSERT
  5
1DDA
330
1DD4
100
AcDbEntity
  8
DIM
 62
     0
370
    -2
100
AcDbBlockReference
  2
_DOT
 10
64.11601043866457
 20
229.91675256
 30
0.0
 50
180.0
  0
INSERT
  5
1DDB
330
1DD4
100
AcDbEntity
  8
DIM
 62
     0
370
    -2
100
AcDbBlockReference
  2
_DOT
 10
98.05886758152175
 20
229.91675256
 30
0.0
  0
MTEXT
  5
1DDC
330
1DD4
100
AcDbEntity
  8
DIM
 62
     0
100
AcDbMText
 10
81.08743901009316
 20
232.41675256
 30
0.0
 40
3.0
 41
0.0
 46
0.0
 71
     5
 72
     1
  1
\A1;34
  7
ＭＳ ゴシック
 73
     1
 44
1.0
  0
POINT
  5
1DDD
330
1DD4
100
AcDbEntity
  8
Defpoints
 62
     0
100
AcDbPoint
 10
64.11601043866457
 20
214.0060382742857
 30
0.0
  0
POINT
  5
1DDE
330
1DD4
100
AcDbEntity
  8
Defpoints
 62
     0
100
AcDbPoint
 10
98.05886758152175
 20
214.0060382742857
 30
0.0
  0
POINT
  5
1DDF
330
1DD4
100
AcDbEntity
  8
Defpoints
 62
     0
100
AcDbPoint
 10
98.05886758152175
 20
229.91675256
 30
0.0
  0
ENDBLK
  5
1DD6
330
1DD4
100
AcDbEntity
  8
0
100
AcDbBlockEnd
  0
BLOCK
  5
1F53
330
1F52
100
AcDbEntity
  8
0
100
AcDbBlockBegin
  2
*D55
 70
     1
 10
0.0
 20
0.0
 30
0.0
  3
*D55
  1

  0
LINE
  5
1F54
330
1F52
100
AcDbEntity
  8
0
 62
     0
370
    -2
100
AcDbLine
 10
31.69225847691216
 20
93.74781157791003
 30
0.0
 11
0.3299999999999879
 21
93.74781157791003
 31
0.0
  0
LINE
  5
1F55
330
1F52
100
AcDbEntity
  8
0
 62
     0
370
    -2
100
AcDbLine
 10
25.66142384817577
 20
142.2696784625559
 30
0.0
 11
0.3299999999999909
 21
142.2696784625559
 31
0.0
  0
LINE
  5
1F56
330
1F52
100
AcDbEntity
  8
0
 62
     0
370
    -2
100
AcDbLine
 10
0.5099999999999879
 20
93.92781157791003
 30
0.0
 11
0.5099999999999894
 21
117.8287450202329
 31
0.0
  0
LINE
  5
1F57
330
1F52
100
AcDbEntity
  8
0
 62
     0
370
    -2
100
AcDbLine
 10
0.5099999999999909
 20
142.0896784625559
 30
0.0
 11
0.5099999999999895
 21
118.188745020233
 31
0.0
  0
SOLID
  5
1F58
330
1F52
100
AcDbEntity
  8
0
 62
     0
100
AcDbTrace
 10
0.4799999999999879
 20
93.92781157791003
 30
0.0
 11
0.5399999999999879
 21
93.92781157791003
 31
0.0
 12
0.5099999999999879
 22
93.74781157791003
 32
0.0
 13
0.5099999999999879
 23
93.74781157791003
 33
0.0
  0
SOLID
  5
1F59
330
1F52
100
AcDbEntity
  8
0
 62
     0
100
AcDbTrace
 10
0.5399999999999909
 20
142.0896784625559
 30
0.0
 11
0.4799999999999909
 21
142.0896784625559
 31
0.0
 12
0.5099999999999909
 22
142.2696784625559
 32
0.0
 13
0.5099999999999909
 23
142.2696784625559
 33
0.0
  0
MTEXT
  5
1F5A
330
1F52
100
AcDbEntity
  8
0
 62
     0
100
AcDbMText
 10
0.5099999999999894
 20
118.008745020233
 30
0.0
 40
0.18
 41
0.0
 46
0.0
 71
     5
 72
     1
  1
\A1;48.5219
 73
     1
 44
1.0
  0
POINT
  5
1F5B
330
1F52
100
AcDbEntity
  8
Defpoints
 62
     0
100
AcDbPoint
 10
31.75475847691216
 20
93.74781157791003
 30
0.0
  0
POINT
  5
1F5C
330
1F52
100
AcDbEntity
  8
Defpoints
 62
     0
100
AcDbPoint
 10
25.72392384817577
 20
142.2696784625559
 30
0.0
  0
POINT
  5
1F5D
330
1F52
100
AcDbEntity
  8
Defpoints
 62
     0
100
AcDbPoint
 10
0.5099999999999909
 20
142.2696784625559
 30
0.0
  0
ENDBLK
  5
1F5E
330
1F52
100
AcDbEntity
  8
0
100
AcDbBlockEnd
  0
BLOCK
  5
1F63
330
1F62
100
AcDbEntity
  8
0
100
AcDbBlockBegin
  2
*D56
 70
     1
 10
0.0
 20
0.0
 30
0.0
  3
*D56
  1

  0
LINE
  5
1F64
330
1F62
100
AcDbEntity
  8
0
 62
     0
370
    -2
100
AcDbLine
 10
24.86531318197758
 20
146.8978178829967
 30
0.0
 11
24.86531318197758
 21
172.1117978419956
 31
0.0
  0
LINE
  5
1F65
330
1F62
100
AcDbEntity
  8
0
 62
     0
370
    -2
100
AcDbLine
 10
88.9727155165999
 20
146.8978178829967
 30
0.0
 11
88.9727155165999
 21
172.1117978419956
 31
0.0
  0
LINE
  5
1F66
330
1F62
100
AcDbEntity
  8
0
 62
     0
370
    -2
100
AcDbLine
 10
25.04531318197758
 20
171.9317978419956
 30
0.0
 11
56.33401434928874
 21
171.9317978419956
 31
0.0
  0
LINE
  5
1F67
330
1F62
100
AcDbEntity
  8
0
 62
     0
370
    -2
100
AcDbLine
 10
88.7927155165999
 20
171.9317978419956
 30
0.0
 11
57.50401434928875
 21
171.9317978419956
 31
0.0
  0
SOLID
  5
1F68
330
1F62
100
AcDbEntity
  8
0
 62
     0
100
AcDbTrace
 10
25.04531318197758
 20
171.9617978419956
 30
0.0
 11
25.04531318197758
 21
171.9017978419956
 31
0.0
 12
24.86531318197758
 22
171.9317978419956
 32
0.0
 13
24.86531318197758
 23
171.9317978419956
 33
0.0
  0
SOLID
  5
1F69
330
1F62
100
AcDbEntity
  8
0
 62
     0
100
AcDbTrace
 10
88.7927155165999
 20
171.9017978419956
 30
0.0
 11
88.7927155165999
 21
171.9617978419956
 31
0.0
 12
88.9727155165999
 22
171.9317978419956
 32
0.0
 13
88.9727155165999
 23
171.9317978419956
 33
0.0
  0
MTEXT
  5
1F6A
330
1F62
100
AcDbEntity
  8
0
 62
     0
100
AcDbMText
 10
56.91901434928874
 20
171.9317978419956
 30
0.0
 40
0.18
 41
0.0
 46
0.0
 71
     5
 72
     1
  1
\A1;64.1074
 73
     1
 44
1.0
  0
POINT
  5
1F6B
330
1F62
100
AcDbEntity
  8
Defpoints
 62
     0
100
AcDbPoint
 10
24.86531318197758
 20
146.8353178829967
 30
0.0
  0
POINT
  5
1F6C
330
1F62
100
AcDbEntity
  8
Defpoints
 62
     0
100
AcDbPoint
 10
88.9727155165999
 20
146.8353178829967
 30
0.0
  0
POINT
  5
1F6D
330
1F62
100
AcDbEntity
  8
Defpoints
 62
     0
100
AcDbPoint
 10
88.9727155165999
 20
171.9317978419956
 30
0.0
  0
ENDBLK
  5
1F6E
330
1F62
100
AcDbEntity
  8
0
100
AcDbBlockEnd
  0
BLOCK
  5
1F76
330
1F75
100
AcDbEntity
  8
0
100
AcDbBlockBegin
  2
*D57
 70
     1
 10
0.0
 20
0.0
 30
0.0
  3
*D57
  1

  0
LINE
  5
1F77
330
1F75
100
AcDbEntity
  8
0
 62
     0
370
    -2
100
AcDbLine
 10
36.5215482894925
 20
48.14014217179951
 30
0.0
 11
36.5215482894925
 21
34.60562053766815
 31
0.0
  0
LINE
  5
1F78
330
1F75
100
AcDbEntity
  8
0
 62
     0
370
    -2
100
AcDbLine
 10
77.31648040908499
 20
48.14014217179951
 30
0.0
 11
77.31648040908499
 21
34.60562053766815
 31
0.0
  0
LINE
  5
1F79
330
1F75
100
AcDbEntity
  8
0
 62
     0
370
    -2
100
AcDbLine
 10
36.7015482894925
 20
34.78562053766815
 30
0.0
 11
56.30401434928874
 21
34.78562053766815
 31
0.0
  0
LINE
  5
1F7A
330
1F75
100
AcDbEntity
  8
0
 62
     0
370
    -2
100
AcDbLine
 10
77.13648040908498
 20
34.78562053766815
 30
0.0
 11
57.53401434928875
 21
34.78562053766815
 31
0.0
  0
SOLID
  5
1F7B
330
1F75
100
AcDbEntity
  8
0
 62
     0
100
AcDbTrace
 10
36.7015482894925
 20
34.81562053766815
 30
0.0
 11
36.7015482894925
 21
34.75562053766815
 31
0.0
 12
36.5215482894925
 22
34.78562053766815
 32
0.0
 13
36.5215482894925
 23
34.78562053766815
 33
0.0
  0
SOLID
  5
1F7C
330
1F75
100
AcDbEntity
  8
0
 62
     0
100
AcDbTrace
 10
77.13648040908498
 20
34.75562053766815
 30
0.0
 11
77.13648040908498
 21
34.81562053766815
 31
0.0
 12
77.31648040908499
 22
34.78562053766815
 32
0.0
 13
77.31648040908499
 23
34.78562053766815
 33
0.0
  0
MTEXT
  5
1F7D
330
1F75
100
AcDbEntity
  8
0
 62
     0
100
AcDbMText
 10
56.91901434928874
 20
34.78562053766815
 30
0.0
 40
0.18
 41
0.0
 46
0.0
 71
     5
 72
     1
  1
\A1;40.7949
 73
     1
 44
1.0
  0
POINT
  5
1F7E
330
1F75
100
AcDbEntity
  8
Defpoints
 62
     0
100
AcDbPoint
 10
36.5215482894925
 20
48.20264217179951
 30
0.0
  0
POINT
  5
1F7F
330
1F75
100
AcDbEntity
  8
Defpoints
 62
     0
100
AcDbPoint
 10
77.31648040908499
 20
48.20264217179951
 30
0.0
  0
POINT
  5
1F80
330
1F75
100
AcDbEntity
  8
Defpoints
 62
     0
100
AcDbPoint
 10
77.31648040908499
 20
34.78562053766815
 30
0.0
  0
ENDBLK
  5
1F81
330
1F75
100
AcDbEntity
  8
0
100
AcDbBlockEnd
  0
BLOCK
  5
1F85
330
1F84
100
AcDbEntity
  8
0
100
AcDbBlockBegin
  2
*D58
 70
     1
 10
0.0
 20
0.0
 30
0.0
  3
*D58
  1

  0
LINE
  5
1F86
330
1F84
100
AcDbEntity
  8
0
 62
     0
370
    -2
100
AcDbLine
 10
82.9154720418071
 20
56.60451649439857
 30
0.0
 11
90.17873393394875
 21
56.60451649439857
 31
0.0
  0
LINE
  5
1F87
330
1F84
100
AcDbEntity
  8
0
 62
     0
370
    -2
100
AcDbLine
 10
78.75599870160525
 20
46.71916634668816
 30
0.0
 11
90.17873393394875
 21
46.71916634668816
 31
0.0
  0
LINE
  5
1F88
330
1F84
100
AcDbEntity
  8
0
 62
     0
370
    -2
100
AcDbLine
 10
89.99873393394874
 20
56.42451649439857
 30
0.0
 11
89.99873393394874
 21
51.84184142054337
 31
0.0
  0
LINE
  5
1F89
330
1F84
100
AcDbEntity
  8
0
 62
     0
370
    -2
100
AcDbLine
 10
89.99873393394874
 20
46.89916634668816
 30
0.0
 11
89.99873393394874
 21
51.48184142054336
 31
0.0
  0
SOLID
  5
1F8A
330
1F84
100
AcDbEntity
  8
0
 62
     0
100
AcDbTrace
 10
90.02873393394874
 20
56.42451649439857
 30
0.0
 11
89.96873393394874
 21
56.42451649439857
 31
0.0
 12
89.99873393394874
 22
56.60451649439857
 32
0.0
 13
89.99873393394874
 23
56.60451649439857
 33
0.0
  0
SOLID
  5
1F8B
330
1F84
100
AcDbEntity
  8
0
 62
     0
100
AcDbTrace
 10
89.96873393394874
 20
46.89916634668816
 30
0.0
 11
90.02873393394874
 21
46.89916634668816
 31
0.0
 12
89.99873393394874
 22
46.71916634668816
 32
0.0
 13
89.99873393394874
 23
46.71916634668816
 33
0.0
  0
MTEXT
  5
1F8C
330
1F84
100
AcDbEntity
  8
0
 62
     0
100
AcDbMText
 10
89.99873393394874
 20
51.66184142054337
 30
0.0
 40
0.18
 41
0.0
 46
0.0
 71
     5
 72
     1
  1
\A1;9.8854
 73
     1
 44
1.0
  0
POINT
  5
1F8D
330
1F84
100
AcDbEntity
  8
Defpoints
 62
     0
100
AcDbPoint
 10
82.8529720418071
 20
56.60451649439857
 30
0.0
  0
POINT
  5
1F8E
330
1F84
100
AcDbEntity
  8
Defpoints
 62
     0
100
AcDbPoint
 10
78.69349870160525
 20
46.71916634668816
 30
0.0
  0
POINT
  5
1F8F
330
1F84
100
AcDbEntity
  8
Defpoints
 62
     0
100
AcDbPoint
 10
89.99873393394874
 20
46.71916634668816
 30
0.0
  0
ENDBLK
  5
1F90
330
1F84
100
AcDbEntity
  8
0
100
AcDbBlockEnd
  0
BLOCK
  5
1F94
330
1F93
100
AcDbEntity
  8
0
100
AcDbBlockBegin
  2
*D59
 70
     1
 10
0.0
 20
0.0
 30
0.0
  3
*D59
  1

  0
LINE
  5
1F95
330
1F93
100
AcDbEntity
  8
0
 62
     0
370
    -2
100
AcDbLine
 10
31.91901434928874
 20
54.66976162162089
 30
0.0
 11
31.91901434928874
 21
26.42248999397378
 31
0.0
  0
LINE
  5
1F96
330
1F93
100
AcDbEntity
  8
0
 62
     0
370
    -2
100
AcDbLine
 10
81.91901434928874
 20
54.66976162162089
 30
0.0
 11
81.91901434928874
 21
26.42248999397378
 31
0.0
  0
LINE
  5
1F97
330
1F93
100
AcDbEntity
  8
0
 62
     0
370
    -2
100
AcDbLine
 10
32.09901434928874
 20
26.60248999397378
 30
0.0
 11
56.36401434928874
 21
26.60248999397378
 31
0.0
  0
LINE
  5
1F98
330
1F93
100
AcDbEntity
  8
0
 62
     0
370
    -2
100
AcDbLine
 10
81.73901434928874
 20
26.60248999397378
 30
0.0
 11
57.47401434928875
 21
26.60248999397378
 31
0.0
  0
SOLID
  5
1F99
330
1F93
100
AcDbEntity
  8
0
 62
     0
100
AcDbTrace
 10
32.09901434928874
 20
26.63248999397378
 30
0.0
 11
32.09901434928874
 21
26.57248999397378
 31
0.0
 12
31.91901434928874
 22
26.60248999397378
 32
0.0
 13
31.91901434928874
 23
26.60248999397378
 33
0.0
  0
SOLID
  5
1F9A
330
1F93
100
AcDbEntity
  8
0
 62
     0
100
AcDbTrace
 10
81.73901434928874
 20
26.57248999397378
 30
0.0
 11
81.73901434928874
 21
26.63248999397378
 31
0.0
 12
81.91901434928874
 22
26.60248999397378
 32
0.0
 13
81.91901434928874
 23
26.60248999397378
 33
0.0
  0
MTEXT
  5
1F9B
330
1F93
100
AcDbEntity
  8
0
 62
     0
100
AcDbMText
 10
56.91901434928874
 20
26.60248999397378
 30
0.0
 40
0.18
 41
0.0
 46
0.0
 71
     5
 72
     1
  1
\A1;50.0000
 73
     1
 44
1.0
  0
POINT
  5
1F9C
330
1F93
100
AcDbEntity
  8
Defpoints
 62
     0
100
AcDbPoint
 10
31.91901434928874
 20
54.73226162162089
 30
0.0
  0
POINT
  5
1F9D
330
1F93
100
AcDbEntity
  8
Defpoints
 62
     0
100
AcDbPoint
 10
81.91901434928874
 20
54.73226162162089
 30
0.0
  0
POINT
  5
1F9E
330
1F93
100
AcDbEntity
  8
Defpoints
 62
     0
100
AcDbPoint
 10
81.91901434928874
 20
26.60248999397378
 30
0.0
  0
ENDBLK
  5
1F9F
330
1F93
100
AcDbEntity
  8
0
100
AcDbBlockEnd
  0
BLOCK
  5
2018
330
2017
100
AcDbEntity
  8
0
100
AcDbBlockBegin
  2
*D60
 70
     1
 10
0.0
 20
0.0
 30
0.0
  3
*D60
  1

  0
LINE
  5
201A
330
2017
100
AcDbEntity
  8
DIM
 62
     0
370
    -2
100
AcDbLine
 10
72.81604897883102
 20
152.1537067354129
 30
0.0
 11
58.90813798885797
 21
152.1537067354129
 31
0.0
  0
LINE
  5
201B
330
2017
100
AcDbEntity
  8
DIM
 62
     0
370
    -2
100
AcDbLine
 10
71.52512395361187
 20
200.6755736200588
 30
0.0
 11
58.90813798885797
 21
200.6755736200588
 31
0.0
  0
LINE
  5
201C
330
2017
100
AcDbEntity
  8
DIM
 62
     0
370
    -2
100
AcDbLine
 10
58.90813798885797
 20
153.1537067354129
 30
0.0
 11
58.90813798885797
 21
199.6755736200588
 31
0.0
  0
INSERT
  5
201D
330
2017
100
AcDbEntity
  8
DIM
 62
     0
370
    -2
100
AcDbBlockReference
  2
_DOT
 10
58.90813798885797
 20
152.1537067354129
 30
0.0
 50
270.0
  0
INSERT
  5
201E
330
2017
100
AcDbEntity
  8
DIM
 62
     0
370
    -2
100
AcDbBlockReference
  2
_DOT
 10
58.90813798885797
 20
200.6755736200588
 30
0.0
 50
90.0
  0
MTEXT
  5
201F
330
2017
100
AcDbEntity
  8
DIM
 62
     0
100
AcDbMText
 10
56.40813798885797
 20
176.4146401777359
 30
0.0
 40
3.0
 41
0.0
 46
0.0
 71
     5
 72
     1
  1
\A1;MAX. 50
  7
ＭＳ ゴシック
 11
0.0
 21
1.0
 31
0.0
 73
     1
 44
1.0
  0
POINT
  5
2020
330
2017
100
AcDbEntity
  8
Defpoints
 62
     0
100
AcDbPoint
 10
74.81604897883102
 20
152.1537067354129
 30
0.0
  0
POINT
  5
2021
330
2017
100
AcDbEntity
  8
Defpoints
 62
     0
100
AcDbPoint
 10
73.52512395361187
 20
200.6755736200588
 30
0.0
  0
POINT
  5
2022
330
2017
100
AcDbEntity
  8
Defpoints
 62
     0
100
AcDbPoint
 10
58.90813798885797
 20
200.6755736200588
 30
0.0
  0
ENDBLK
  5
2019
330
2017
100
AcDbEntity
  8
0
100
AcDbBlockEnd
  0
BLOCK
  5
2025
330
2024
100
AcDbEntity
  8
0
100
AcDbBlockBegin
  2
*D61
 70
     1
 10
0.0
 20
0.0
 30
0.0
  3
*D61
  1

  0
LINE
  5
2027
330
2024
100
AcDbEntity
  8
DIM
 62
     0
370
    -2
100
AcDbLine
 10
72.66651328741366
 20
207.2412130404996
 30
0.0
 11
72.66651328741366
 21
224.1270213697572
 31
0.0
  0
LINE
  5
2028
330
2024
100
AcDbEntity
  8
DIM
 62
     0
370
    -2
100
AcDbLine
 10
136.773915622036
 20
207.2412130404996
 30
0.0
 11
136.773915622036
 21
224.1270213697572
 31
0.0
  0
LINE
  5
2029
330
2024
100
AcDbEntity
  8
DIM
 62
     0
370
    -2
100
AcDbLine
 10
73.66651328741366
 20
224.1270213697572
 30
0.0
 11
135.773915622036
 21
224.1270213697572
 31
0.0
  0
INSERT
  5
202A
330
2024
100
AcDbEntity
  8
DIM
 62
     0
370
    -2
100
AcDbBlockReference
  2
_DOT
 10
72.66651328741366
 20
224.1270213697572
 30
0.0
 50
180.0
  0
INSERT
  5
202B
330
2024
100
AcDbEntity
  8
DIM
 62
     0
370
    -2
100
AcDbBlockReference
  2
_DOT
 10
136.773915622036
 20
224.1270213697572
 30
0.0
  0
MTEXT
  5
202C
330
2024
100
AcDbEntity
  8
DIM
 62
     0
100
AcDbMText
 10
104.7202144547248
 20
226.6270213697572
 30
0.0
 40
3.0
 41
0.0
 46
0.0
 71
     5
 72
     1
  1
\A1;%%c64
  7
ＭＳ ゴシック
 73
     1
 44
1.0
  0
POINT
  5
202D
330
2024
100
AcDbEntity
  8
Defpoints
 62
     0
100
AcDbPoint
 10
72.66651328741366
 20
205.2412130404996
 30
0.0
  0
POINT
  5
202E
330
2024
100
AcDbEntity
  8
Defpoints
 62
     0
100
AcDbPoint
 10
136.773915622036
 20
205.2412130404996
 30
0.0
  0
POINT
  5
202F
330
2024
100
AcDbEntity
  8
Defpoints
 62
     0
100
AcDbPoint
 10
136.773915622036
 20
224.1270213697572
 30
0.0
  0
ENDBLK
  5
2026
330
2024
100
AcDbEntity
  8
0
100
AcDbBlockEnd
  0
BLOCK
  5
2032
330
2031
100
AcDbEntity
  8
0
100
AcDbBlockBegin
  2
*D62
 70
     1
 10
0.0
 20
0.0
 30
0.0
  3
*D62
  1

  0
LINE
  5
2034
330
2031
100
AcDbEntity
  8
DIM
 62
     0
370
    -2
100
AcDbLine
 10
84.3227483949286
 20
104.6085373293024
 30
0.0
 11
84.3227483949286
 21
93.19151569517105
 31
0.0
  0
LINE
  5
2035
330
2031
100
AcDbEntity
  8
DIM
 62
     0
370
    -2
100
AcDbLine
 10
125.1176805145211
 20
104.6085373293024
 30
0.0
 11
125.1176805145211
 21
93.19151569517105
 31
0.0
  0
LINE
  5
2036
330
2031
100
AcDbEntity
  8
DIM
 62
     0
370
    -2
100
AcDbLine
 10
85.3227483949286
 20
93.19151569517105
 30
0.0
 11
124.1176805145211
 21
93.19151569517105
 31
0.0
  0
INSERT
  5
2037
330
2031
100
AcDbEntity
  8
DIM
 62
     0
370
    -2
100
AcDbBlockReference
  2
_DOT
 10
84.3227483949286
 20
93.19151569517105
 30
0.0
 50
180.0
  0
INSERT
  5
2038
330
2031
100
AcDbEntity
  8
DIM
 62
     0
370
    -2
100
AcDbBlockReference
  2
_DOT
 10
125.1176805145211
 20
93.19151569517105
 30
0.0
  0
MTEXT
  5
2039
330
2031
100
AcDbEntity
  8
DIM
 62
     0
100
AcDbMText
 10
104.7202144547248
 20
96.01101569517105
 30
0.0
 40
3.0
 41
0.0
 46
0.0
 71
     5
 72
     1
  1
\A1;G1 1/4"
  7
ＭＳ ゴシック
 73
     1
 44
1.0
  0
POINT
  5
203A
330
2031
100
AcDbEntity
  8
Defpoints
 62
     0
100
AcDbPoint
 10
84.3227483949286
 20
106.6085373293024
 30
0.0
  0
POINT
  5
203B
330
2031
100
AcDbEntity
  8
Defpoints
 62
     0
100
AcDbPoint
 10
125.1176805145211
 20
106.6085373293024
 30
0.0
  0
POINT
  5
203C
330
2031
100
AcDbEntity
  8
Defpoints
 62
     0
100
AcDbPoint
 10
125.1176805145211
 20
93.19151569517105
 30
0.0
  0
ENDBLK
  5
2033
330
2031
100
AcDbEntity
  8
0
100
AcDbBlockEnd
  0
BLOCK
  5
203F
330
203E
100
AcDbEntity
  8
0
100
AcDbBlockBegin
  2
*D63
 70
     1
 10
0.0
 20
0.0
 30
0.0
  3
*D63
  1

  0
LINE
  5
2041
330
203E
100
AcDbEntity
  8
DIM
 62
     0
370
    -2
100
AcDbLine
 10
132.6541721472432
 20
115.0104116519015
 30
0.0
 11
146.7534649249316
 21
115.0104116519015
 31
0.0
  0
LINE
  5
2042
330
203E
100
AcDbEntity
  8
DIM
 62
     0
370
    -2
100
AcDbLine
 10
128.4946988070413
 20
105.1250615041911
 30
0.0
 11
146.7534649249316
 21
105.1250615041911
 31
0.0
  0
LINE
  5
2043
330
203E
100
AcDbEntity
  8
DIM
 62
     0
370
    -2
100
AcDbLine
 10
146.7534649249316
 20
114.0104116519015
 30
0.0
 11
146.7534649249316
 21
106.1250615041911
 31
0.0
  0
INSERT
  5
2044
330
203E
100
AcDbEntity
  8
DIM
 62
     0
370
    -2
100
AcDbBlockReference
  2
_DOT
 10
146.7534649249316
 20
115.0104116519015
 30
0.0
 50
90.0
  0
INSERT
  5
2045
330
203E
100
AcDbEntity
  8
DIM
 62
     0
370
    -2
100
AcDbBlockReference
  2
_DOT
 10
146.7534649249316
 20
105.1250615041911
 30
0.0
 50
270.0
  0
MTEXT
  5
2046
330
203E
100
AcDbEntity
  8
DIM
 62
     0
100
AcDbMText
 10
144.2534649249316
 20
110.0677365780463
 30
0.0
 40
3.0
 41
0.0
 46
0.0
 71
     5
 72
     1
  1
\A1;10
  7
ＭＳ ゴシック
 11
0.0
 21
1.0
 31
0.0
 73
     1
 44
1.0
  0
POINT
  5
2047
330
203E
100
AcDbEntity
  8
Defpoints
 62
     0
100
AcDbPoint
 10
130.6541721472432
 20
115.0104116519015
 30
0.0
  0
POINT
  5
2048
330
203E
100
AcDbEntity
  8
Defpoints
 62
     0
100
AcDbPoint
 10
126.4946988070413
 20
105.1250615041911
 30
0.0
  0
POINT
  5
2049
330
203E
100
AcDbEntity
  8
Defpoints
 62
     0
100
AcDbPoint
 10
146.7534649249316
 20
105.1250615041911
 30
0.0
  0
ENDBLK
  5
2040
330
203E
100
AcDbEntity
  8
0
100
AcDbBlockEnd
  0
BLOCK
  5
204C
330
204B
100
AcDbEntity
  8
0
100
AcDbBlockBegin
  2
*D64
 70
     1
 10
0.0
 20
0.0
 30
0.0
  3
*D64
  1

  0
LINE
  5
204E
330
204B
100
AcDbEntity
  8
DIM
 62
     0
370
    -2
100
AcDbLine
 10
79.72021445472484
 20
111.1381567791238
 30
0.0
 11
79.72021445472484
 21
85.00838515147667
 31
0.0
  0
LINE
  5
204F
330
204B
100
AcDbEntity
  8
DIM
 62
     0
370
    -2
100
AcDbLine
 10
129.7202144547248
 20
111.1381567791238
 30
0.0
 11
129.7202144547248
 21
85.00838515147667
 31
0.0
  0
LINE
  5
2050
330
204B
100
AcDbEntity
  8
DIM
 62
     0
370
    -2
100
AcDbLine
 10
80.72021445472484
 20
85.00838515147667
 30
0.0
 11
128.7202144547248
 21
85.00838515147667
 31
0.0
  0
INSERT
  5
2051
330
204B
100
AcDbEntity
  8
DIM
 62
     0
370
    -2
100
AcDbBlockReference
  2
_DOT
 10
79.72021445472484
 20
85.00838515147667
 30
0.0
 50
180.0
  0
INSERT
  5
2052
330
204B
100
AcDbEntity
  8
DIM
 62
     0
370
    -2
100
AcDbBlockReference
  2
_DOT
 10
129.7202144547248
 20
85.00838515147667
 30
0.0
  0
MTEXT
  5
2053
330
204B
100
AcDbEntity
  8
DIM
 62
     0
100
AcDbMText
 10
104.7202144547248
 20
87.50838515147667
 30
0.0
 40
3.0
 41
0.0
 46
0.0
 71
     5
 72
     1
  1
\A1;50
  7
ＭＳ ゴシック
 73
     1
 44
1.0
  0
POINT
  5
2054
330
204B
100
AcDbEntity
  8
Defpoints
 62
     0
100
AcDbPoint
 10
79.72021445472484
 20
113.1381567791238
 30
0.0
  0
POINT
  5
2055
330
204B
100
AcDbEntity
  8
Defpoints
 62
     0
100
AcDbPoint
 10
129.7202144547248
 20
113.1381567791238
 30
0.0
  0
POINT
  5
2056
330
204B
100
AcDbEntity
  8
Defpoints
 62
     0
100
AcDbPoint
 10
129.7202144547248
 20
85.00838515147667
 30
0.0
  0
ENDBLK
  5
204D
330
204B
100
AcDbEntity
  8
0
100
AcDbBlockEnd
  0
BLOCK
  5
2085
330
2084
100
AcDbEntity
  8
0
100
AcDbBlockBegin
  2
*D65
 70
     1
 10
0.0
 20
0.0
 30
0.0
  3
*D65
  1

  0
LINE
  5
2087
330
2084
100
AcDbEntity
  8
DIM
 62
     0
370
    -2
100
AcDbLine
 10
132.6541721472432
 20
115.0104116519015
 30
0.0
 11
146.7534649249316
 21
115.0104116519015
 31
0.0
  0
LINE
  5
2088
330
2084
100
AcDbEntity
  8
DIM
 62
     0
370
    -2
100
AcDbLine
 10
135.019211090411
 20
152.1537067354129
 30
0.0
 11
146.7534649249316
 21
152.1537067354129
 31
0.0
  0
LINE
  5
2089
330
2084
100
AcDbEntity
  8
DIM
 62
     0
370
    -2
100
AcDbLine
 10
146.7534649249316
 20
116.0104116519015
 30
0.0
 11
146.7534649249316
 21
151.1537067354129
 31
0.0
  0
INSERT
  5
208A
330
2084
100
AcDbEntity
  8
DIM
 62
     0
370
    -2
100
AcDbBlockReference
  2
_DOT
 10
146.7534649249316
 20
115.0104116519015
 30
0.0
 50
270.0
  0
INSERT
  5
208B
330
2084
100
AcDbEntity
  8
DIM
 62
     0
370
    -2
100
AcDbBlockReference
  2
_DOT
 10
146.7534649249316
 20
152.1537067354129
 30
0.0
 50
90.0
  0
MTEXT
  5
208C
330
2084
100
AcDbEntity
  8
DIM
 62
     0
100
AcDbMText
 10
144.2534649249316
 20
133.5820591936572
 30
0.0
 40
3.0
 41
0.0
 46
0.0
 71
     5
 72
     1
  1
\A1;37
  7
ＭＳ ゴシック
 11
0.0
 21
1.0
 31
0.0
 73
     1
 44
1.0
  0
POINT
  5
208D
330
2084
100
AcDbEntity
  8
Defpoints
 62
     0
100
AcDbPoint
 10
130.6541721472432
 20
115.0104116519015
 30
0.0
  0
POINT
  5
208E
330
2084
100
AcDbEntity
  8
Defpoints
 62
     0
100
AcDbPoint
 10
133.019211090411
 20
152.1537067354129
 30
0.0
  0
POINT
  5
208F
330
2084
100
AcDbEntity
  8
Defpoints
 62
     0
100
AcDbPoint
 10
146.7534649249316
 20
152.1537067354129
 30
0.0
  0
ENDBLK
  5
2086
330
2084
100
AcDbEntity
  8
0
100
AcDbBlockEnd
  0
ENDSEC
  0
SECTION
  2
ENTITIES
  0
MTEXT
  5
177
330
A
100
AcDbEntity
  8
TEMPLATE
390
1D
100
AcDbMText
 10
7.920214454773076
 20
34.37317516314283
 30
0.0
 40
1.628841145833333
 41
0.0
 46
0.0
 71
     1
 72
     1
  1
品名
  7
ＭＳ ゴシック
 73
     1
 44
0.7828267384257843
  0
MTEXT
  5
178
330
A
100
AcDbEntity
  8
TEMPLATE
390
1D
100
AcDbMText
 10
7.920214454773076
 20
25.8731751631428
 30
0.0
 40
1.628841145833333
 41
0.0
 46
0.0
 71
     1
 72
     1
  1
仕様
  7
ＭＳ ゴシック
 73
     1
 44
0.7828267384257843
  0
LINE
  5
179
330
A
100
AcDbEntity
  8
TEMPLATE
390
1D
100
AcDbLine
 10
202.2202144547248
 20
26.71466735064284
 30
0.0
 11
7.220214454724874
 21
26.71466735064284
 31
0.0
  0
LWPOLYLINE
  5
17A
330
A
100
AcDbEntity
  8
TEMPLATE
390
1D
100
AcDbPolyline
 90
        5
 70
   128
 43
0.0
 10
202.2202144547248
 20
289.7146673506426
 10
7.220214454724874
 20
289.7146673506426
 10
7.220214454724874
 20
9.714667350642827
 10
202.2202144547248
 20
9.714667350642827
 10
202.2202144547248
 20
289.7146673506426
  0
LINE
  5
17B
330
A
100
AcDbEntity
  8
TEMPLATE
390
1D
100
AcDbLine
 10
202.2202144547248
 20
35.21466735064282
 30
0.0
 11
7.220214454724874
 21
35.21466735064282
 31
0.0
  0
LINE
  5
17C
330
A
100
AcDbEntity
  8
TEMPLATE
390
1D
100
AcDbLine
 10
202.2202144547732
 20
18.21466735064282
 30
0.0
 11
126.920214454773
 21
18.21466735064282
 31
0.0
  0
MTEXT
  5
17E
330
A
100
AcDbEntity
  8
TEMPLATE
390
1D
100
AcDbMText
 10
129.9073550799991
 20
15.22362790331201
 30
0.0
 40
2.44326171875
 41
0.0
 46
0.0
 71
     1
 72
     1
  1
大洋金物株式会社 ティーフォルム事業部
  7
ＭＳ ゴシック
 73
     1
 44
0.7828267384257843
  0
MTEXT
  5
180
330
A
100
AcDbEntity
  8
TEMPLATE
390
1D
100
AcDbMText
 10
183.120214454799
 20
23.01492906939282
 30
0.0
 40
2.44326171875
 41
0.0
 46
2.44326171875
 71
     1
 72
     1
  1
{1:1}
  7
ＭＳ ゴシック
 73
     1
 44
0.7828267384257843
1001
ACAD
1000
ACAD_MTEXT_DEFINED_HEIGHT_BEGIN
1070
    46
1040
2.44326171875
1000
ACAD_MTEXT_DEFINED_HEIGHT_END
  0
MTEXT
  5
181
330
A
100
AcDbEntity
  8
TEMPLATE
390
1D
100
AcDbMText
 10
177.820214454799
 20
25.8731751631428
 30
0.0
 40
1.628841145833333
 41
0.0
 46
0.0
 71
     1
 72
     1
  1
縮尺
  7
ＭＳ ゴシック
 73
     1
 44
0.7828267384257843
  0
LINE
  5
182
330
A
100
AcDbEntity
  8
TEMPLATE
390
1D
100
AcDbLine
 10
177.120214454799
 20
18.21466735064282
 30
0.0
 11
177.120214454799
 21
26.71466735064284
 31
0.0
  0
MTEXT
  5
183
330
A
100
AcDbEntity
  8
TEMPLATE
390
1D
100
AcDbMText
 10
152.720214454799
 20
25.8731751631428
 30
0.0
 40
1.628841145833333
 41
0.0
 46
0.0
 71
     1
 72
     1
  1
容量
  7
ＭＳ ゴシック
 73
     1
 44
0.7828267384257843
  0
LINE
  5
184
330
A
100
AcDbEntity
  8
TEMPLATE
390
1D
100
AcDbLine
 10
152.020214454799
 20
18.21466735064282
 30
0.0
 11
152.020214454799
 21
26.71466735064284
 31
0.0
  0
MTEXT
  5
185
330
A
100
AcDbEntity
  8
TEMPLATE
390
1D
100
AcDbMText
 10
127.620214454799
 20
34.37317516314283
 30
0.0
 40
1.628841145833333
 41
0.0
 46
0.0
 71
     1
 72
     1
  1
品番
  7
ＭＳ ゴシック
 73
     1
 44
0.7828267384257843
  0
MTEXT
  5
186
330
A
100
AcDbEntity
  8
TEMPLATE
390
1D
100
AcDbMText
 10
127.620214454799
 20
25.8731751631428
 30
0.0
 40
1.628841145833333
 41
0.0
 46
0.0
 71
     1
 72
     1
  1
重量
  7
ＭＳ ゴシック
 73
     1
 44
0.7828267384257843
  0
LINE
  5
188
330
A
100
AcDbEntity
  8
TEMPLATE
390
1D
100
AcDbLine
 10
126.920214454799
 20
9.714667350642827
 30
0.0
 11
126.920214454799
 21
35.21466735064282
 31
0.0
  0
INSERT
  5
6B5
330
A
100
AcDbEntity
  8
TEMPLATE
100
AcDbBlockReference
  2
名称未設定-1
 10
187.075074808845
 20
2.594676575665382
 30
0.0
 41
0.0762
 42
0.0762
 43
0.0762
  0
INSERT
  5
68C
330
A
100
AcDbEntity
  8
TEMPLATE
100
AcDbBlockReference
  2
block 2
 10
183.8548603540515
 20
1.674615302867274
 30
0.0
 41
0.0762
 42
0.0762
 43
0.0762
  0
LWPOLYLINE
  5
D69
330
A
100
AcDbEntity
  8
BORDER
100
AcDbPolyline
 90
        4
 70
     1
 43
0.0
 10
0.0
 20
0.0
 10
0.0
 20
297.0
 10
210.0
 20
297.0
 10
210.0
 20
0.0
  0
INSERT
  5
1343
330
A
100
AcDbEntity
  8
TEMPLATE
100
AcDbBlockReference
  2
block 2
 10
419.3486941732937
 20
4.887064282459138
 30
0.0
 41
0.0762
 42
0.0762
 43
0.0762
  0
MTEXT
  5
1EAB
102
{ACAD_XDICTIONARY
360
1EAC
102
}
330
A
100
AcDbEntity
  8
TEMPLATE
100
AcDbMText
 10
7.472865654857031
 20
8.386172105142833
 30
0.0
 40
2.2
 41
0.0
 46
22.0
 71
     1
 72
     1
  1
{20170925N}
  7
ＭＳ ゴシック
 73
     1
 44
1.0
1001
ACAD
1000
ACAD_MTEXT_DEFINED_HEIGHT_BEGIN
1070
    46
1040
22.0
1000
ACAD_MTEXT_DEFINED_HEIGHT_END
  0
MTEXT
  5
1EB1
330
A
100
AcDbEntity
  8
TEMPLATE
390
1D
100
AcDbMText
 10
13.22021445477307
 20
31.51492906939281
 30
0.0
 40
2.44326171875
 41
0.0
 46
2.70469072265625
 71
     1
 72
     1
  1
{排水目皿　-SILFRA-}
  7
ＭＳ ゴシック
 73
     1
 44
0.7828267384257843
1001
ACAD
1000
ACAD_MTEXT_DEFINED_HEIGHT_BEGIN
1070
    46
1040
2.70469072265625
1000
ACAD_MTEXT_DEFINED_HEIGHT_END
  0
MTEXT
  5
1EB2
330
A
100
AcDbEntity
  8
TEMPLATE
390
1D
100
AcDbMText
 10
132.920214454799
 20
31.51492906939281
 30
0.0
 40
2.44326171875
 41
0.0
 46
2.44326171875
 71
     1
 72
     1
  1
{ATB73-1903}
  7
ＭＳ ゴシック
 73
     1
 44
0.7828267384257843
1001
ACAD
1000
ACAD_MTEXT_DEFINED_HEIGHT_BEGIN
1070
    46
1040
2.44326171875
1000
ACAD_MTEXT_DEFINED_HEIGHT_END
  0
ARC
  5
1FA7
102
{ACAD_REACTORS
330
200C
102
}
330
A
100
AcDbEntity
  8
0
100
AcDbCircle
 10
73.6322978468882
 20
205.2412130404996
 30
0.0
 40
0.9657845594745424
100
AcDbArc
 50
117.4323538132168
 51
270.009132290853
  0
ARC
  5
1FA8
330
A
100
AcDbEntity
  8
0
100
AcDbCircle
 10
105.5309976116732
 20
129.1043503736927
 30
0.0
 40
83.51164366744285
100
AcDbArc
 50
90.55627192524881
 51
112.7862875553232
  0
LINE
  5
1FAA
330
A
100
AcDbEntity
  8
0
100
AcDbLine
 10
73.52512395361187
 20
200.6755736200588
 30
0.0
 11
104.7202144547248
 21
200.6755736200588
 31
0.0
  0
LINE
  5
1FAB
102
{ACAD_REACTORS
330
2009
102
}
330
A
100
AcDbEntity
  8
0
100
AcDbLine
 10
73.52512395361187
 20
200.6755736200588
 30
0.0
 11
73.52512395361187
 21
199.6239725008073
 31
0.0
  0
LINE
  5
1FAC
330
A
100
AcDbEntity
  8
0
100
AcDbLine
 10
73.52512395361187
 20
199.6239725008073
 30
0.0
 11
104.7202144547248
 21
199.6239725008072
 31
0.0
  0
LINE
  5
1FAD
330
A
100
AcDbEntity
  8
0
100
AcDbLine
 10
104.7202144547248
 20
197.6267288184073
 30
0.0
 11
79.17682030750579
 21
197.6267288184073
 31
0.0
  0
LINE
  5
1FAE
330
A
100
AcDbEntity
  8
0
100
AcDbLine
 10
79.17682030750579
 20
197.6267288184073
 30
0.0
 11
73.52512395361187
 21
199.6239725008073
 31
0.0
  0
ARC
  5
1FAF
330
A
100
AcDbEntity
  8
0
100
AcDbCircle
 10
76.86461650424762
 20
190.6927684318606
 30
0.0
 40
7.309315499415848
100
AcDbArc
 50
359.4117684131858
 51
71.55847975355326
  0
LINE
  5
1FB0
330
A
100
AcDbEntity
  8
0
100
AcDbLine
 10
84.1735467965344
 20
190.6177280927521
 30
0.0
 11
104.7202144547248
 21
190.6177280927521
 31
0.0
  0
LINE
  5
1FB1
330
A
100
AcDbEntity
  8
0
100
AcDbLine
 10
84.1735467965344
 20
190.6177280927521
 30
0.0
 11
84.17279325310817
 21
188.3030938685054
 31
0.0
  0
LINE
  5
1FB2
330
A
100
AcDbEntity
  8
0
100
AcDbLine
 10
84.17279325310817
 20
188.3030938685054
 30
0.0
 11
104.7202144547248
 21
188.3030938685054
 31
0.0
  0
LINE
  5
1FB3
330
A
100
AcDbEntity
  8
0
100
AcDbLine
 10
104.7202144547248
 20
186.8256574098257
 30
0.0
 11
85.65762545638673
 21
186.8183621376836
 31
0.0
  0
LINE
  5
1FB4
330
A
100
AcDbEntity
  8
0
100
AcDbLine
 10
85.65762545638673
 20
186.8183621376836
 30
0.0
 11
84.17279325310817
 21
188.3030938685054
 31
0.0
  0
LINE
  5
1FB5
330
A
100
AcDbEntity
  8
0
100
AcDbLine
 10
85.65762545638673
 20
186.8183621376836
 30
0.0
 11
85.65762545638673
 21
176.9278824495208
 31
0.0
  0
LINE
  5
1FB6
330
A
100
AcDbEntity
  8
0
100
AcDbLine
 10
85.65762545638673
 20
182.015828937385
 30
0.0
 11
104.7202144547248
 21
182.015828937385
 31
0.0
  0
LINE
  5
1FB7
330
A
100
AcDbEntity
  8
0
100
AcDbLine
 10
85.65762545638673
 20
176.9278824495208
 30
0.0
 11
86.56020635213486
 21
176.9278824495208
 31
0.0
  0
SPLINE
  5
1FB8
330
A
100
AcDbEntity
  8
0
100
AcDbSpline
210
0.0
220
0.0
230
1.0
 70
  1064
 71
     3
 72
    18
 73
    14
 74
    12
 42
0.000000001
 43
0.0000000001
 44
0.0
 40
0.0
 40
0.0
 40
0.0
 40
0.0
 40
1.021463406304289
 40
2.346403835395933
 40
5.547510347517507
 40
9.33896733059969
 40
10.51617401004846
 40
11.46229237070474
 40
12.16005981260303
 40
12.87588240557871
 40
13.13513346680849
 40
13.30268326325218
 40
13.49315310164659
 40
13.49315310164659
 40
13.49315310164659
 40
13.49315310164659
 10
86.56020635213486
 20
176.9278824495208
 30
0.0
 10
86.78352709617249
 20
176.6642133788865
 30
0.0
 10
87.29651723081591
 20
176.0585390935493
 30
0.0
 10
87.63510689155078
 20
174.1805789835499
 30
0.0
 10
87.53386820191722
 20
171.4245294240275
 30
0.0
 10
87.63824171494647
 20
168.7083582945676
 30
0.0
 10
87.46579063251086
 20
166.717259048241
 30
0.0
 10
87.16549885514962
 20
165.8499163523963
 30
0.0
 10
86.83324210042294
 20
165.0542877442942
 30
0.0
 10
86.25284827059964
 20
164.9595587003529
 30
0.0
 10
85.79691115368
 20
165.0324423676168
 30
0.0
 10
85.74302194982285
 20
164.7976698116213
 30
0.0
 10
85.74430823985409
 20
164.6820601649808
 30
0.0
 10
85.74499255833986
 20
164.6205547374296
 30
0.0
 11
86.56020635213486
 21
176.9278824495208
 31
0.0
 11
87.16009057583913
 21
176.1011258900854
 31
0.0
 11
87.49220228189438
 21
174.8184844922884
 31
0.0
 11
87.57761228152404
 21
171.6185176121613
 31
0.0
 11
87.55032559817117
 21
167.8271588199241
 31
0.0
 11
87.40860919781089
 21
166.658513438293
 31
0.0
 11
87.12035371916245
 21
165.7573759729748
 31
0.0
 11
86.76478169443713
 21
165.1570028071804
 31
0.0
 11
86.06707456462756
 21
164.9969817284835
 31
0.0
 11
85.80940915167442
 21
164.9683522381553
 31
0.0
 11
85.75215017101817
 21
164.8108900413507
 31
0.0
 11
85.74499255833986
 21
164.6205547374296
 31
0.0
  0
LINE
  5
1FB9
330
A
100
AcDbEntity
  8
0
100
AcDbLine
 10
85.74499255833986
 20
164.6205547374296
 30
0.0
 11
85.74499255833986
 21
164.1871924176182
 31
0.0
  0
LINE
  5
1FBA
330
A
100
AcDbEntity
  8
0
100
AcDbLine
 10
85.74499255833986
 20
164.1871924176182
 30
0.0
 11
104.7202144547248
 21
164.1871924176182
 31
0.0
  0
LINE
  5
1FBB
330
A
100
AcDbEntity
  8
0
100
AcDbLine
 10
85.74499255833986
 20
164.1871924176182
 30
0.0
 11
84.32104036316245
 21
162.6962816307013
 31
0.0
  0
LINE
  5
1FBC
330
A
100
AcDbEntity
  8
0
100
AcDbLine
 10
84.32104036316245
 20
162.6962816307013
 30
0.0
 11
84.32204508773079
 21
152.1537067354129
 31
0.0
  0
LINE
  5
1FBD
330
A
100
AcDbEntity
  8
0
100
AcDbLine
 10
85.74499255833986
 20
164.1871924176182
 30
0.0
 11
85.65797710998562
 21
152.1537067354129
 31
0.0
  0
LINE
  5
1FBE
330
A
100
AcDbEntity
  8
0
100
AcDbLine
 10
84.32104036316245
 20
162.6962816307013
 30
0.0
 11
104.7194609112986
 21
162.6962816307013
 31
0.0
  0
LINE
  5
1FBF
330
A
100
AcDbEntity
  8
0
100
AcDbLine
 10
79.55595858234825
 20
152.1537067354129
 30
0.0
 11
104.7202144547248
 21
152.1537067354129
 31
0.0
  0
ARC
  5
1FC0
330
A
100
AcDbEntity
  8
0
100
AcDbCircle
 10
79.35259730160858
 20
143.1975866101874
 30
0.0
 40
8.958428629395536
100
AcDbArc
 50
88.69924240770379
 51
117.174691910238
  0
LINE
  5
1FC1
330
A
100
AcDbEntity
  8
0
100
AcDbLine
 10
75.2612379857876
 20
151.1671676817883
 30
0.0
 11
75.26189105675701
 21
149.6804767380584
 31
0.0
  0
LINE
  5
1FC2
330
A
100
AcDbEntity
  8
0
100
AcDbLine
 10
75.26189105675701
 20
149.6804767380584
 30
0.0
 11
104.7202144547248
 21
149.6804767380584
 31
0.0
  0
LINE
  5
1FC3
330
A
100
AcDbEntity
  8
0
100
AcDbLine
 10
75.26189105675701
 20
149.6804767380584
 30
0.0
 11
74.66135140805127
 21
149.6804767380584
 31
0.0
  0
LINE
  5
1FC4
330
A
100
AcDbEntity
  8
0
100
AcDbLine
 10
73.99929444421335
 20
148.9913144101461
 30
0.0
 11
73.99929444421335
 21
144.3569156632806
 31
0.0
  0
LINE
  5
1FC5
330
A
100
AcDbEntity
  8
0
100
AcDbLine
 10
74.67924483950637
 20
143.7306455623528
 30
0.0
 11
104.7202144547248
 21
143.7306455623528
 31
0.0
  0
LINE
  5
1FC6
330
A
100
AcDbEntity
  8
0
100
AcDbLine
 10
79.72021445472484
 20
115.5216499197038
 30
0.0
 11
79.72021445472484
 21
143.7306455623528
 31
0.0
  0
LINE
  5
1FC7
330
A
100
AcDbEntity
  8
0
100
AcDbLine
 10
80.40566334254824
 20
115.0104116519015
 30
0.0
 11
104.7202144547248
 21
115.0104116519015
 31
0.0
  0
LINE
  5
1FC8
330
A
100
AcDbEntity
  8
0
100
AcDbLine
 10
84.3227483949286
 20
115.0225027541669
 30
0.0
 11
84.3227483949286
 21
106.6085373293024
 31
0.0
  0
LINE
  5
1FC9
102
{ACAD_REACTORS
330
2012
102
}
330
A
100
AcDbEntity
  8
0
100
AcDbLine
 10
84.3227483949286
 20
106.6085373293024
 30
0.0
 11
104.7202144547248
 21
106.6085373293024
 31
0.0
  0
LINE
  5
1FCA
330
A
100
AcDbEntity
  8
0
100
AcDbLine
 10
104.7188580765576
 20
105.1250615041911
 30
0.0
 11
85.8058223302126
 21
105.1250615041911
 31
0.0
  0
LINE
  5
1FCB
330
A
100
AcDbEntity
  8
0
100
AcDbLine
 10
85.8058223302126
 20
105.1250615041911
 30
0.0
 11
84.3227483949286
 21
106.6085373293024
 31
0.0
  0
LINE
  5
1FCC
330
A
100
AcDbEntity
  8
0
100
AcDbLine
 10
85.8058223302126
 20
105.1250615041911
 30
0.0
 11
85.81536721361157
 21
113.0442000791623
 31
0.0
  0
LINE
  5
1FCD
330
A
100
AcDbEntity
  8
0
100
AcDbLine
 10
104.7202144547248
 20
113.0442000791623
 30
0.0
 11
84.32234650510127
 21
113.0434967719645
 31
0.0
  0
ARC
  5
1FCE
330
A
100
AcDbEntity
  8
0
100
AcDbCircle
 10
80.33287600650063
 20
115.6279522263925
 30
0.0
 40
0.6218153724632808
100
AcDbArc
 50
189.8433362838654
 51
276.72223697725
  0
ARC
  5
1FCF
330
A
100
AcDbEntity
  8
0
100
AcDbCircle
 10
74.63822442669101
 20
144.3683600934905
 30
0.0
 40
0.6390324698258538
100
AcDbArc
 50
181.0261647687742
 51
273.6804289634426
  0
ARC
  5
1FD0
330
A
100
AcDbEntity
  8
0
100
AcDbCircle
 10
74.69865534083995
 20
148.9820499991371
 30
0.0
 40
0.6994222566101839
100
AcDbArc
 50
93.05734129834266
 51
179.2410490678071
  0
LINE
  5
1FD1
330
A
100
AcDbEntity
  8
0
100
AcDbLine
 10
75.2612379857876
 20
151.1671676817883
 30
0.0
 11
104.7202144547248
 21
151.1671676817883
 31
0.0
  0
LINE
  5
1FD2
330
A
100
AcDbEntity
  8
0
100
AcDbLine
 10
104.7202144547248
 20
176.953216653355
 30
0.0
 11
99.76938390814345
 21
176.9162489184652
 31
0.0
  0
LINE
  5
1FD3
330
A
100
AcDbEntity
  8
0
100
AcDbLine
 10
96.79846359587594
 20
173.9438717555736
 30
0.0
 11
96.79846359587594
 21
168.0039401077184
 31
0.0
  0
ARC
  5
1FD4
330
A
100
AcDbEntity
  8
0
100
AcDbCircle
 10
99.66646991057546
 20
174.0481918055257
 30
0.0
 40
2.869902941560612
100
AcDbArc
 50
87.94494715922349
 51
182.0831420928507
  0
ARC
  5
1FD5
330
A
100
AcDbEntity
  8
0
100
AcDbCircle
 10
99.66646991057546
 20
167.8996200577663
 30
0.0
 40
2.869902941560612
100
AcDbArc
 50
177.9168579071493
 51
272.0550528407765
  0
LINE
  5
1FD6
330
A
100
AcDbEntity
  8
0
100
AcDbLine
 10
104.7202144547248
 20
164.994595209937
 30
0.0
 11
99.76938390814345
 21
165.0315629448268
 31
0.0
  0
LINE
  5
1FDD
330
A
100
AcDbEntity
  8
0
100
AcDbLine
 10
135.9153049558378
 20
200.6755736200588
 30
0.0
 11
104.7202144547248
 21
200.6755736200588
 31
0.0
  0
LINE
  5
1FDE
330
A
100
AcDbEntity
  8
0
100
AcDbLine
 10
135.9153049558378
 20
200.6755736200588
 30
0.0
 11
135.9153049558378
 21
199.6239725008073
 31
0.0
  0
LINE
  5
1FDF
330
A
100
AcDbEntity
  8
0
100
AcDbLine
 10
135.9153049558378
 20
199.6239725008073
 30
0.0
 11
104.7202144547248
 21
199.6239725008072
 31
0.0
  0
LINE
  5
1FE0
330
A
100
AcDbEntity
  8
0
100
AcDbLine
 10
104.7202144547248
 20
197.6267288184073
 30
0.0
 11
130.2636086019439
 21
197.6267288184073
 31
0.0
  0
LINE
  5
1FE1
330
A
100
AcDbEntity
  8
0
100
AcDbLine
 10
130.2636086019439
 20
197.6267288184073
 30
0.0
 11
135.9153049558378
 21
199.6239725008073
 31
0.0
  0
ARC
  5
1FE2
330
A
100
AcDbEntity
  8
0
100
AcDbCircle
 10
132.5758124052021
 20
190.6927684318606
 30
0.0
 40
7.309315499415848
100
AcDbArc
 50
108.4415202464467
 51
180.5882315868142
  0
LINE
  5
1FE3
330
A
100
AcDbEntity
  8
0
100
AcDbLine
 10
125.2668821129153
 20
190.6177280927521
 30
0.0
 11
104.7202144547248
 21
190.6177280927521
 31
0.0
  0
LINE
  5
1FE4
330
A
100
AcDbEntity
  8
0
100
AcDbLine
 10
125.2668821129153
 20
190.6177280927521
 30
0.0
 11
125.2676356563415
 21
188.3030938685054
 31
0.0
  0
LINE
  5
1FE5
330
A
100
AcDbEntity
  8
0
100
AcDbLine
 10
125.2676356563415
 20
188.3030938685054
 30
0.0
 11
104.7202144547248
 21
188.3030938685054
 31
0.0
  0
LINE
  5
1FE6
330
A
100
AcDbEntity
  8
0
100
AcDbLine
 10
104.7202144547248
 20
186.8256574098257
 30
0.0
 11
123.7828034530629
 21
186.8183621376836
 31
0.0
  0
LINE
  5
1FE7
330
A
100
AcDbEntity
  8
0
100
AcDbLine
 10
123.7828034530629
 20
186.8183621376836
 30
0.0
 11
125.2676356563415
 21
188.3030938685054
 31
0.0
  0
LINE
  5
1FE8
330
A
100
AcDbEntity
  8
0
100
AcDbLine
 10
123.7828034530629
 20
186.8183621376836
 30
0.0
 11
123.7828034530629
 21
176.9278824495208
 31
0.0
  0
LINE
  5
1FE9
330
A
100
AcDbEntity
  8
0
100
AcDbLine
 10
123.7828034530629
 20
182.015828937385
 30
0.0
 11
104.7202144547248
 21
182.015828937385
 31
0.0
  0
LINE
  5
1FEA
330
A
100
AcDbEntity
  8
0
100
AcDbLine
 10
123.7828034530629
 20
176.9278824495208
 30
0.0
 11
122.8802225573148
 21
176.9278824495208
 31
0.0
  0
SPLINE
  5
1FEB
330
A
100
AcDbEntity
  8
0
100
AcDbSpline
210
0.0
220
0.0
230
1.0
 70
  1064
 71
     3
 72
    18
 73
    14
 74
    12
 42
0.000000001
 43
0.0000000001
 44
0.0
 40
0.0
 40
0.0
 40
0.0
 40
0.0
 40
1.021463406304239
 40
2.346403835395898
 40
5.547510347517473
 40
9.338967330599656
 40
10.51617401004843
 40
11.46229237070469
 40
12.16005981260303
 40
12.87588240557864
 40
13.13513346680838
 40
13.30268326325209
 40
13.4931531016465
 40
13.4931531016465
 40
13.4931531016465
 40
13.4931531016465
 10
122.8802225573148
 20
176.9278824495208
 30
0.0
 10
122.6569018132772
 20
176.6642133788865
 30
0.0
 10
122.1439116786338
 20
176.0585390935493
 30
0.0
 10
121.8053220178989
 20
174.1805789835499
 30
0.0
 10
121.9065607075324
 20
171.4245294240275
 30
0.0
 10
121.8021871945031
 20
168.7083582945675
 30
0.0
 10
121.9746382769388
 20
166.7172590482411
 30
0.0
 10
122.2749300543
 20
165.8499163523962
 30
0.0
 10
122.6071868090268
 20
165.0542877442943
 30
0.0
 10
123.18758063885
 20
164.959558700353
 30
0.0
 10
123.6435177557697
 20
165.0324423676167
 30
0.0
 10
123.6974069596268
 20
164.7976698116213
 30
0.0
 10
123.6961206695955
 20
164.6820601649808
 30
0.0
 10
123.6954363511098
 20
164.6205547374296
 30
0.0
 11
122.8802225573148
 21
176.9278824495208
 31
0.0
 11
122.2803383336106
 21
176.1011258900854
 31
0.0
 11
121.9482266275553
 21
174.8184844922884
 31
0.0
 11
121.8628166279256
 21
171.6185176121613
 31
0.0
 11
121.8901033112785
 21
167.8271588199241
 31
0.0
 11
122.0318197116388
 21
166.658513438293
 31
0.0
 11
122.3200751902872
 21
165.7573759729748
 31
0.0
 11
122.6756472150126
 21
165.1570028071804
 31
0.0
 11
123.3733543448221
 21
164.9969817284835
 31
0.0
 11
123.6310197577752
 21
164.9683522381553
 31
0.0
 11
123.6882787384315
 21
164.8108900413507
 31
0.0
 11
123.6954363511098
 21
164.6205547374296
 31
0.0
  0
LINE
  5
1FEC
330
A
100
AcDbEntity
  8
0
100
AcDbLine
 10
123.6954363511098
 20
164.6205547374296
 30
0.0
 11
123.6954363511098
 21
164.1871924176182
 31
0.0
  0
LINE
  5
1FED
330
A
100
AcDbEntity
  8
0
100
AcDbLine
 10
123.6954363511098
 20
164.1871924176182
 30
0.0
 11
104.7202144547248
 21
164.1871924176182
 31
0.0
  0
LINE
  5
1FEE
330
A
100
AcDbEntity
  8
0
100
AcDbLine
 10
123.6954363511098
 20
164.1871924176182
 30
0.0
 11
125.1193885462872
 21
162.6962816307013
 31
0.0
  0
LINE
  5
1FEF
330
A
100
AcDbEntity
  8
0
100
AcDbLine
 10
125.1193885462872
 20
162.6962816307013
 30
0.0
 11
125.1183838217189
 21
152.1537067354129
 31
0.0
  0
LINE
  5
1FF0
330
A
100
AcDbEntity
  8
0
100
AcDbLine
 10
123.6954363511098
 20
164.1871924176182
 30
0.0
 11
123.782451799464
 21
152.1537067354129
 31
0.0
  0
LINE
  5
1FF1
330
A
100
AcDbEntity
  8
0
100
AcDbLine
 10
125.1193885462872
 20
162.6962816307013
 30
0.0
 11
104.7209679981511
 21
162.6962816307013
 31
0.0
  0
LINE
  5
1FF2
330
A
100
AcDbEntity
  8
0
100
AcDbLine
 10
129.8844703271014
 20
152.1537067354129
 30
0.0
 11
104.7202144547248
 21
152.1537067354129
 31
0.0
  0
ARC
  5
1FF3
330
A
100
AcDbEntity
  8
0
100
AcDbCircle
 10
130.0878316078411
 20
143.1975866101874
 30
0.0
 40
8.958428629395536
100
AcDbArc
 50
62.82530808976184
 51
91.30075759229622
  0
LINE
  5
1FF4
330
A
100
AcDbEntity
  8
0
100
AcDbLine
 10
134.1791909236621
 20
151.1671676817883
 30
0.0
 11
134.1785378526927
 21
149.6804767380584
 31
0.0
  0
LINE
  5
1FF5
330
A
100
AcDbEntity
  8
0
100
AcDbLine
 10
134.1785378526927
 20
149.6804767380584
 30
0.0
 11
104.7202144547248
 21
149.6804767380584
 31
0.0
  0
LINE
  5
1FF6
330
A
100
AcDbEntity
  8
0
100
AcDbLine
 10
134.1785378526927
 20
149.6804767380584
 30
0.0
 11
134.7790775013984
 21
149.6804767380584
 31
0.0
  0
LINE
  5
1FF7
330
A
100
AcDbEntity
  8
0
100
AcDbLine
 10
135.4411344652363
 20
148.9913144101461
 30
0.0
 11
135.4411344652363
 21
144.3569156632806
 31
0.0
  0
LINE
  5
1FF8
330
A
100
AcDbEntity
  8
0
100
AcDbLine
 10
134.7611840699433
 20
143.7306455623528
 30
0.0
 11
104.7202144547248
 21
143.7306455623528
 31
0.0
  0
LINE
  5
1FF9
330
A
100
AcDbEntity
  8
0
100
AcDbLine
 10
125.1176805145211
 20
115.0225027541669
 30
0.0
 11
125.1176805145211
 21
106.6085373293024
 31
0.0
  0
LINE
  5
1FFA
330
A
100
AcDbEntity
  8
0
100
AcDbLine
 10
125.1176805145211
 20
106.6085373293024
 30
0.0
 11
104.7202144547248
 21
106.6085373293024
 31
0.0
  0
LINE
  5
1FFB
330
A
100
AcDbEntity
  8
0
100
AcDbLine
 10
104.7215708328921
 20
105.1250615041911
 30
0.0
 11
123.6346065792371
 21
105.1250615041911
 31
0.0
  0
LINE
  5
1FFC
102
{ACAD_REACTORS
330
2012
102
}
330
A
100
AcDbEntity
  8
0
100
AcDbLine
 10
123.6346065792371
 20
105.1250615041911
 30
0.0
 11
125.1176805145211
 21
106.6085373293024
 31
0.0
  0
LINE
  5
1FFD
330
A
100
AcDbEntity
  8
0
100
AcDbLine
 10
123.6346065792371
 20
105.1250615041911
 30
0.0
 11
123.6250616958381
 21
113.0442000791623
 31
0.0
  0
LINE
  5
1FFE
330
A
100
AcDbEntity
  8
0
100
AcDbLine
 10
104.7202144547248
 20
113.0442000791623
 30
0.0
 11
125.1180824043484
 21
113.0434967719645
 31
0.0
  0
ARC
  5
1FFF
330
A
100
AcDbEntity
  8
0
100
AcDbCircle
 10
134.8022044827587
 20
144.3683600934905
 30
0.0
 40
0.6390324698258538
100
AcDbArc
 50
266.3195710365574
 51
358.9738352312258
  0
ARC
  5
2000
330
A
100
AcDbEntity
  8
0
100
AcDbCircle
 10
134.7417735686097
 20
148.9820499991371
 30
0.0
 40
0.6994222566101839
100
AcDbArc
 50
0.7589509321929393
 51
86.94265870165619
  0
LINE
  5
2001
330
A
100
AcDbEntity
  8
0
100
AcDbLine
 10
134.1791909236621
 20
151.1671676817883
 30
0.0
 11
104.7202144547248
 21
151.1671676817883
 31
0.0
  0
LINE
  5
2002
330
A
100
AcDbEntity
  8
0
100
AcDbLine
 10
104.7202144547248
 20
176.953216653355
 30
0.0
 11
109.6710450013062
 21
176.9162489184652
 31
0.0
  0
LINE
  5
2003
330
A
100
AcDbEntity
  8
0
100
AcDbLine
 10
112.6419653135737
 20
173.9438717555736
 30
0.0
 11
112.6419653135737
 21
168.0039401077184
 31
0.0
  0
ARC
  5
2004
330
A
100
AcDbEntity
  8
0
100
AcDbCircle
 10
109.7739589988742
 20
174.0481918055257
 30
0.0
 40
2.869902941560612
100
AcDbArc
 50
357.9168579071493
 51
92.05505284077653
  0
ARC
  5
2005
330
A
100
AcDbEntity
  8
0
100
AcDbCircle
 10
109.7739589988742
 20
167.8996200577663
 30
0.0
 40
2.869902941560612
100
AcDbArc
 50
267.9449471592235
 51
2.083142092850735
  0
LINE
  5
2006
330
A
100
AcDbEntity
  8
0
100
AcDbLine
 10
104.7202144547248
 20
164.994595209937
 30
0.0
 11
109.6710450013062
 21
165.0315629448268
 31
0.0
  0
DIMENSION
  5
2007
102
{ACAD_REACTORS
330
2009
102
}
102
{ACAD_XDICTIONARY
360
2008
102
}
330
A
100
AcDbEntity
  8
DIM
100
AcDbDimension
  2
*D60
 10
58.90813798885797
 20
200.6755736200588
 30
0.0
 11
58.90813798885797
 21
176.4146401777359
 31
0.0
 70
   160
  1
MAX. 50
 71
     5
 42
48.52186688464585
 73
     0
 74
     0
 75
     0
  3
tfrom線あり
100
AcDbAlignedDimension
 13
74.81604897883102
 23
152.1537067354129
 33
0.0
 14
73.52512395361187
 24
200.6755736200588
 34
0.0
 50
90.0
100
AcDbRotatedDimension
  0
DIMENSION
  5
200A
102
{ACAD_REACTORS
330
200C
102
}
102
{ACAD_XDICTIONARY
360
200B
102
}
330
A
100
AcDbEntity
  8
DIM
100
AcDbDimension
  2
*D61
 10
136.773915622036
 20
224.1270213697572
 30
0.0
 11
104.7202144547248
 21
224.1270213697572
 31
0.0
 70
   160
 71
     5
 42
64.10740233462235
 73
     0
 74
     0
 75
     0
  3
tfrom線あり
100
AcDbAlignedDimension
 13
72.66651328741366
 23
205.2412130404996
 33
0.0
 14
136.773915622036
 24
205.2412130404996
 34
0.0
100
AcDbRotatedDimension
1001
ACAD
1000
DSTYLE
1002
{
1070
     3
1000
%%c<>
1002
}
  0
LINE
  5
200D
330
A
100
AcDbEntity
  8
0
100
AcDbLine
 10
129.7202144547248
 20
115.5216499197038
 30
0.0
 11
129.7202144547248
 21
143.7306455623528
 31
0.0
  0
LINE
  5
200E
330
A
100
AcDbEntity
  8
0
100
AcDbLine
 10
129.0347655669014
 20
115.0104116519015
 30
0.0
 11
104.7202144547248
 21
115.0104116519015
 31
0.0
  0
ARC
  5
200F
330
A
100
AcDbEntity
  8
0
100
AcDbCircle
 10
129.107552902949
 20
115.6279522263925
 30
0.0
 40
0.6218153724632808
100
AcDbArc
 50
263.27776302275
 51
350.1566637161349
  0
DIMENSION
  5
2010
102
{ACAD_REACTORS
330
2012
102
}
102
{ACAD_XDICTIONARY
360
2011
102
}
330
A
100
AcDbEntity
  8
DIM
100
AcDbDimension
  2
*D62
 10
125.1176805145211
 20
93.19151569517105
 30
0.0
 11
104.7202144547248
 21
96.01101569517105
 31
0.0
 70
    32
  1
G1 1/4"
 71
     5
 42
40.79493211959249
 73
     0
 74
     0
 75
     0
  3
tfrom線あり
100
AcDbAlignedDimension
 13
84.3227483949286
 23
106.6085373293024
 33
0.0
 14
125.1176805145211
 24
106.6085373293024
 34
0.0
100
AcDbRotatedDimension
  0
DIMENSION
  5
2013
330
A
100
AcDbEntity
  8
DIM
100
AcDbDimension
  2
*D63
 10
146.7534649249316
 20
105.1250615041911
 30
0.0
 11
144.2534649249316
 21
110.0677365780463
 31
0.0
 70
    32
 71
     5
 42
9.885350147710426
 73
     0
 74
     0
 75
     0
  3
tfrom線あり
100
AcDbAlignedDimension
 13
130.6541721472432
 23
115.0104116519015
 33
0.0
 14
126.4946988070413
 24
105.1250615041911
 34
0.0
 50
90.0
100
AcDbRotatedDimension
  0
DIMENSION
  5
2015
330
A
100
AcDbEntity
  8
DIM
100
AcDbDimension
  2
*D64
 10
129.7202144547248
 20
85.00838515147667
 30
0.0
 11
104.7202144547248
 21
85.00838515147667
 31
0.0
 70
   160
 71
     5
 42
50.0
 73
     0
 74
     0
 75
     0
  3
tfrom線あり
100
AcDbAlignedDimension
 13
79.72021445472484
 23
113.1381567791238
 33
0.0
 14
129.7202144547248
 24
113.1381567791238
 34
0.0
100
AcDbRotatedDimension
  0
LINE
  5
206A
330
A
100
AcDbEntity
  8
MODEL
100
AcDbLine
 10
73.63245178188195
 20
204.2754284932928
 30
0.0
 11
104.7202144547248
 21
204.2754284932928
 31
0.0
  0
LINE
  5
206B
330
A
100
AcDbEntity
  8
MODEL
100
AcDbLine
 10
73.44710101806564
 20
206.2069975877064
 30
0.0
 11
104.7202144547248
 21
206.2069975877064
 31
0.0
  0
LINE
  5
206C
330
A
100
AcDbEntity
  8
0
100
AcDbLine
 10
88.38143376107811
 20
204.2954957672269
 30
0.0
 11
88.38143376107811
 21
200.6738655882926
 31
0.0
  0
ARC
  5
206D
330
A
100
AcDbEntity
  8
0
100
AcDbCircle
 10
103.9094312977764
 20
129.1043503736927
 30
0.0
 40
83.51164366744285
100
AcDbArc
 50
67.21371244467686
 51
89.44372807475119
  0
LINE
  5
206E
330
A
100
AcDbEntity
  8
MODEL
100
AcDbLine
 10
135.8079771275677
 20
204.2754284932928
 30
0.0
 11
104.7202144547248
 21
204.2754284932928
 31
0.0
  0
LINE
  5
206F
330
A
100
AcDbEntity
  8
MODEL
100
AcDbLine
 10
135.993327891384
 20
206.2069975877064
 30
0.0
 11
104.7202144547248
 21
206.2069975877064
 31
0.0
  0
LINE
  5
2070
330
A
100
AcDbEntity
  8
0
100
AcDbLine
 10
121.0589951483716
 20
204.2954957672269
 30
0.0
 11
121.0589951483716
 21
200.6738655882926
 31
0.0
  0
ARC
  5
2071
102
{ACAD_REACTORS
330
200C
102
}
330
A
100
AcDbEntity
  8
0
100
AcDbCircle
 10
135.8081310625615
 20
205.2412130404996
 30
0.0
 40
0.9657845594745424
100
AcDbArc
 50
269.9908677091462
 51
62.56764618678393
  0
DIMENSION
  5
2081
102
{ACAD_REACTORS
330
2083
102
}
102
{ACAD_XDICTIONARY
360
2082
102
}
330
A
100
AcDbEntity
  8
DIM
100
AcDbDimension
  2
*D65
 10
146.7534649249316
 20
152.1537067354129
 30
0.0
 11
144.2534649249316
 21
133.5820591936572
 31
0.0
 70
    32
 71
     5
 42
37.14329508351145
 73
     0
 74
     0
 75
     0
  3
tfrom線あり
100
AcDbAlignedDimension
 13
130.6541721472432
 23
115.0104116519015
 33
0.0
 14
133.019211090411
 24
152.1537067354129
 34
0.0
 50
90.0
100
AcDbRotatedDimension
1001
ACAD
1000
DSTYLE
1002
{
1070
   144
1040
1.0
1002
}
  0
MTEXT
  5
2090
330
A
100
AcDbEntity
  8
TEMPLATE
390
1D
100
AcDbMText
 10
12.52543452760361
 20
23.30937245713399
 30
0.0
 40
2.44326171875
 41
0.0
 46
2.47991064453125
 71
     1
 72
     1
  1
{クローム}
  7
ＭＳ ゴシック
 73
     1
 44
0.9331787841240657
1001
ACAD
1000
ACAD_MTEXT_DEFINED_HEIGHT_BEGIN
1070
    46
1040
2.47991064453125
1000
ACAD_MTEXT_DEFINED_HEIGHT_END
  0
VIEWPORT
  5
349
330
B
100
AcDbEntity
 67
     1
  8
0
100
AcDbViewport
 10
202.5
 20
128.5
 30
0.0
 40
486.0
 41
308.4
 68
     1
 69
     1
 12
202.5
 22
128.5
 13
0.0
 23
0.0
 14
0.5
 24
0.5
 15
0.0
 25
0.0
 16
0.0
 26
0.0
 36
1.0
 17
0.0
 27
0.0
 37
0.0
 42
50.0
 43
0.0
 44
0.0
 45
308.4
 50
0.0
 51
0.0
 72
   100
 90
   557152
  1

281
     0
 71
     1
 74
     0
110
0.0
120
0.0
130
0.0
111
1.0
121
0.0
131
0.0
112
0.0
122
1.0
132
0.0
 79
     0
146
0.0
170
     0
 61
     5
348
26C
292
     1
282
     1
141
0.0
142
0.0
 63
   256
  0
VIEWPORT
  5
34A
330
B
100
AcDbEntity
 67
     1
  8
0
100
AcDbViewport
 10
202.5
 20
128.5
 30
0.0
 40
324.0
 41
205.6
 68
     2
 69
     2
 12
986.6781359294573
 22
1427.077061889956
 13
0.0
 23
0.0
 14
0.5
 24
0.5
 15
0.0
 25
0.0
 16
0.0
 26
0.0
 36
1.0
 17
0.0
 27
0.0
 37
0.0
 42
50.0
 43
0.0
 44
0.0
 45
2890.021615685494
 50
0.0
 51
0.0
 72
   100
 90
   557152
  1

281
     0
 71
     1
 74
     0
110
0.0
120
0.0
130
0.0
111
1.0
121
0.0
131
0.0
112
0.0
122
1.0
132
0.0
 79
     0
146
0.0
170
     0
 61
     5
348
26C
292
     1
282
     1
141
0.0
142
0.0
 63
   256
  0
ENDSEC
  0
SECTION
  2
OBJECTS
  0
DICTIONARY
  5
19
330
0
100
AcDbDictionary
281
     1
  3
ACAD_COLOR
350
674
  3
ACAD_DETAILVIEWSTYLE
350
BBF
  3
ACAD_FIELDLIST
350
1E8E
  3
ACAD_GROUP
350
1A
  3
ACAD_IMAGE_VARS
350
27B
  3
ACAD_LAYOUT
350
1E
  3
ACAD_MATERIAL
350
263
  3
ACAD_MLEADERSTYLE
350
336
  3
ACAD_MLINESTYLE
350
1B
  3
ACAD_PLOTSETTINGS
350
22
  3
ACAD_PLOTSTYLENAME
350
1F
  3
ACAD_SCALELIST
350
241
  3
ACAD_SECTIONVIEWSTYLE
350
BC0
  3
ACAD_TABLESTYLE
350
278
  3
ACAD_VISUALSTYLE
350
267
  3
ACDB_RECOMPOSE_DATA
350
209C
  3
AcDbVariableDictionary
350
330
  3
APPDATA
350
27A
  3
DimOffsetDictionary
350
E38
  0
SUN
  5
904
330
15
100
AcDbSun
 90
        1
290
     0
 63
     7
421
 16777215
 40
1.0
291
     1
 91
  2455826
 92
 54000000
292
     0
 70
     2
 71
   256
280
     1
  0
DICTIONARY
  5
2E1
330
2
100
AcDbDictionary
280
     1
281
     1
  3
ACAD_LAYERSTATES
360
2E2
  3
ACLYDICTIONARY
360
DDE
  0
DICTIONARY
  5
1EAC
330
1EAB
100
AcDbDictionary
280
     1
281
     1
  3
ACAD_FIELD
360
1EAD
  0
DICTIONARY
  5
2008
330
2007
100
AcDbDictionary
280
     1
281
     1
  3
ACAD_DIMASSOC
360
2009
  0
DICTIONARY
  5
200B
330
200A
100
AcDbDictionary
280
     1
281
     1
  3
ACAD_DIMASSOC
360
200C
  0
DICTIONARY
  5
2011
330
2010
100
AcDbDictionary
280
     1
281
     1
  3
ACAD_DIMASSOC
360
2012
  0
DICTIONARY
  5
2082
330
2081
100
AcDbDictionary
280
     1
281
     1
  3
ACAD_DIMASSOC
360
2083
  0
DICTIONARY
  5
674
102
{ACAD_REACTORS
330
19
102
}
330
19
100
AcDbDictionary
281
     1
  0
DICTIONARY
  5
BBF
102
{ACAD_REACTORS
330
19
102
}
330
19
100
AcDbDictionary
281
     1
  0
FIELDLIST
  5
1E8E
102
{ACAD_REACTORS
330
19
102
}
330
19
100
AcDbIdSet
 90
        1
330
1EAE
100
AcDbFieldList
  0
DICTIONARY
  5
1A
102
{ACAD_REACTORS
330
19
102
}
330
19
100
AcDbDictionary
281
     1
  0
RASTERVARIABLES
  5
27B
102
{ACAD_REACTORS
330
19
102
}
330
19
100
AcDbRasterVariables
 90
        0
 70
     1
 71
     1
 72
     1
  0
DICTIONARY
  5
1E
102
{ACAD_REACTORS
330
19
102
}
330
19
100
AcDbDictionary
281
     1
  3
Layout1
350
21
  3
Model
350
20
  0
DICTIONARY
  5
263
102
{ACAD_REACTORS
330
19
102
}
330
19
100
AcDbDictionary
281
     1
  3
ByBlock
350
265
  3
ByLayer
350
264
  3
Global
350
266
  0
DICTIONARY
  5
336
102
{ACAD_REACTORS
330
19
102
}
330
19
100
AcDbDictionary
281
     1
  3
Standard
350
D59
  0
DICTIONARY
  5
1B
102
{ACAD_REACTORS
330
19
102
}
330
19
100
AcDbDictionary
281
     1
  3
Standard
350
1C
  0
DICTIONARY
  5
22
102
{ACAD_REACTORS
330
19
102
}
330
19
100
AcDbDictionary
281
     1
  0
ACDBDICTIONARYWDFLT
  5
1F
102
{ACAD_REACTORS
330
19
102
}
330
19
100
AcDbDictionary
281
     1
  3
Normal
350
1D
100
AcDbDictionaryWithDefault
340
1D
  0
DICTIONARY
  5
241
102
{ACAD_REACTORS
330
19
102
}
330
19
100
AcDbDictionary
281
     1
  3
A0
350
242
  3
A1
350
243
  3
A2
350
244
  3
A3
350
245
  3
A4
350
246
  3
A5
350
247
  3
A6
350
248
  3
A7
350
249
  3
A8
350
24A
  3
A9
350
24B
  3
B0
350
24C
  3
B1
350
24D
  3
B2
350
24E
  3
B3
350
24F
  3
B4
350
250
  3
B5
350
251
  3
B6
350
252
  3
B7
350
253
  3
B8
350
254
  3
B9
350
255
  3
C0
350
256
  3
C1
350
257
  3
C2
350
258
  3
C3
350
259
  3
C4
350
25A
  3
C5
350
25B
  3
C6
350
25C
  3
C7
350
25D
  3
C8
350
25E
  3
C9
350
25F
  3
D0
350
260
  3
D1
350
261
  3
D2
350
262
  0
DICTIONARY
  5
BC0
102
{ACAD_REACTORS
330
19
102
}
330
19
100
AcDbDictionary
281
     1
  0
DICTIONARY
  5
278
102
{ACAD_REACTORS
330
19
102
}
330
19
100
AcDbDictionary
281
     1
  3
Standard
350
279
  0
DICTIONARY
  5
267
102
{ACAD_REACTORS
330
19
102
}
330
19
100
AcDbDictionary
281
     1
  3
2dWireframe
350
26C
  3
3D Hidden
350
26E
  3
3dWireframe
350
26D
  3
Basic
350
26F
  3
Brighten
350
273
  3
ColorChange
350
277
  3
Conceptual
350
271
  3
Dim
350
272
  3
EdgeColorOff
350
8FE
  3
Facepattern
350
276
  3
Flat
350
268
  3
FlatWithEdges
350
269
  3
Gouraud
350
26A
  3
GouraudWithEdges
350
26B
  3
Hidden
350
8FB
  3
JitterOff
350
8FC
  3
Linepattern
350
275
  3
OverhangOff
350
8FD
  3
Realistic
350
270
  3
Shaded
350
903
  3
Shaded with edges
350
902
  3
Shades of Gray
350
8FF
  3
Sketchy
350
900
  3
Thicken
350
274
  3
Wireframe
350
8FA
  3
X-Ray
350
901
  0
XRECORD
  5
209C
102
{ACAD_REACTORS
330
19
102
}
330
19
100
AcDbXrecord
280
     1
 90
        1
330
279
  0
DICTIONARY
  5
330
102
{ACAD_REACTORS
330
19
102
}
330
19
100
AcDbDictionary
281
     1
  3
CANNOSCALE
350
331
  3
CMLEADERSTYLE
350
D5E
  3
CTABLESTYLE
350
335
  3
HPTRANSPARENCY
350
D52
  3
XCLIPFRAME
350
896
  0
DICTIONARY
  5
27A
102
{ACAD_REACTORS
330
19
102
}
330
19
100
AcDbDictionary
281
     1
  0
DICTIONARY
  5
E38
102
{ACAD_REACTORS
330
19
102
}
330
19
100
AcDbDictionary
281
     1
  3
DIMRAILANGLE
350
1DFC
  3
DIMRAILFIRSTOFFSET
350
1DFA
  3
DIMRAILOFFSET
350
1DFB
  3
DIMRAILSENABLED
350
1DFD
  0
DICTIONARY
  5
2E2
102
{ACAD_REACTORS
330
2E1
102
}
330
2E1
100
AcDbDictionary
281
     1
  0
DICTIONARY
  5
DDE
102
{ACAD_REACTORS
330
2E1
102
}
330
2E1
100
AcDbDictionary
281
     1
1001
ACAD
1000
<All
  0
DICTIONARY
  5
1EAD
102
{ACAD_REACTORS
330
1EAC
102
}
330
1EAC
100
AcDbDictionary
280
     1
281
     1
  3
TEXT
360
1EAE
  0
DIMASSOC
  5
2009
102
{ACAD_REACTORS
330
2008
102
}
330
2008
100
AcDbDimAssoc
330
2007
 90
        2
 70
     0
 71
     1
  1
AcDbOsnapPointRef
 72
    13
331
1FAB
 73
     0
 91
        0
 40
0.0
 10
0.0
 20
0.0
 30
0.0
 75
     0
  0
DIMASSOC
  5
200C
102
{ACAD_REACTORS
330
200B
102
}
330
200B
100
AcDbDimAssoc
330
200A
 90
        1
 70
     0
 71
     1
  1
AcDbOsnapPointRef
 72
     5
331
1FA7
 73
     0
 91
        0
 40
3.141592653589793
 10
0.0
 20
0.0
 30
0.0
 75
     0
  0
DIMASSOC
  5
2012
102
{ACAD_REACTORS
330
2011
102
}
330
2011
100
AcDbDimAssoc
330
2010
 90
        3
 70
     0
 71
     1
  1
AcDbOsnapPointRef
 72
    13
331
1FC9
 73
     0
 91
        0
 40
0.0
 10
0.0
 20
0.0
 30
0.0
 75
     0
  1
AcDbOsnapPointRef
 72
     1
331
1FFC
 73
     0
 91
        0
 40
0.0
 10
0.0
 20
0.0
 30
0.0
 75
     0
  0
DIMASSOC
  5
2083
102
{ACAD_REACTORS
330
2082
102
}
330
2082
100
AcDbDimAssoc
330
2081
 90
        0
 70
     0
 71
     1
  0
LAYOUT
  5
21
102
{ACAD_REACTORS
330
1E
102
}
330
1E
100
AcDbPlotSettings
  1

  2
none_device
  4
ISO_A3_(420.00_x_297.00_MM)
  6

 40
7.5
 41
20.0
 42
7.5
 43
20.0
 44
420.0
 45
297.0
 46
0.0
 47
0.0
 48
0.0
 49
0.0
140
0.0
141
0.0
142
1.0
143
1.0
 70
     0
 72
     1
 73
     0
 74
     0
  7

 75
     0
 76
     0
 77
     2
 78
   300
147
1.0
148
0.0
149
0.0
100
AcDbLayout
  1
Layout1
 70
     0
 71
     0
 10
-7.5
 20
-20.0
 11
412.5
 21
277.0
 12
0.0
 22
0.0
 32
0.0
 14
0.0
 24
0.0
 34
0.0
 15
0.0
 25
0.0
 35
0.0
146
0.0
 13
0.0
 23
0.0
 33
0.0
 16
0.0
 26
0.0
 36
0.0
 17
0.0
 27
0.0
 37
0.0
 76
     0
330
B
331
349
  0
LAYOUT
  5
20
102
{ACAD_REACTORS
330
1E
102
}
330
1E
100
AcDbPlotSettings
  1

  2
none_device
  4
ISO_A3_(420.00_x_297.00_MM)
  6

 40
7.5
 41
20.0
 42
7.5
 43
20.0
 44
420.0
 45
297.0
 46
0.0
 47
0.0
 48
0.0
 49
0.0
140
0.0
141
0.0
142
1.0
143
1.0
 70
  1024
 72
     1
 73
     0
 74
     0
  7

 75
     0
 76
     0
 77
     2
 78
   300
147
1.0
148
0.0
149
0.0
100
AcDbLayout
  1
Model
 70
     0
 71
     1
 10
0.0
 20
0.0
 11
210.0
 21
297.0
 12
0.0
 22
0.0
 32
0.0
 14
0.0
 24
0.0
 34
-0.0000000000000071
 15
210.0
 25
297.0
 35
0.0000000000000142
146
0.0
 13
0.0
 23
0.0
 33
0.0
 16
0.0
 26
0.0
 36
0.0
 17
0.0
 27
0.0
 37
0.0
 76
     0
330
A
331
15
  0
MATERIAL
  5
265
102
{ACAD_REACTORS
330
263
102
}
330
263
100
AcDbMaterial
  1
ByBlock
 72
     1
 94
      127
  0
MATERIAL
  5
264
102
{ACAD_REACTORS
330
263
102
}
330
263
100
AcDbMaterial
  1
ByLayer
 72
     1
 94
      127
  0
MATERIAL
  5
266
102
{ACAD_REACTORS
330
263
102
}
330
263
100
AcDbMaterial
  1
Global
 72
     1
 94
      127
  0
MLEADERSTYLE
  5
D59
102
{ACAD_REACTORS
330
336
102
}
330
336
100
AcDbMLeaderStyle
170
     2
171
     1
172
     0
 90
        2
 40
0.0
 41
0.0
173
     1
 91
-1056964608
340
11
 92
       -2
290
     1
 42
2.0
291
     1
 43
8.0
  3
Standard
341
0
 44
4.0
300

342
17
174
     1
178
     6
175
     1
176
     0
 93
-1056964608
 45
4.0
292
     0
297
     0
 46
4.0
343
0
 94
-1056964608
 47
1.0
 49
1.0
140
1.0
293
     1
141
0.0
294
     1
177
     0
142
1.0
295
     0
296
     0
143
3.75
1001
ACAD_MLEADERVER
1070
     2
  0
MLINESTYLE
  5
1C
102
{ACAD_REACTORS
330
1B
102
}
330
1B
100
AcDbMlineStyle
  2
Standard
 70
     0
  3

 62
     0
 51
90.0
 52
90.0
 71
     2
 49
0.5
 62
   256
  6
BYLAYER
 49
-0.5
 62
   256
  6
BYLAYER
  0
ACDBPLACEHOLDER
  5
1D
102
{ACAD_REACTORS
330
1F
102
}
330
1F
  0
SCALE
  5
242
102
{ACAD_REACTORS
330
241
102
}
330
241
100
AcDbScale
 70
     0
300
1:1
140
1.0
141
1.0
290
     1
  0
SCALE
  5
243
102
{ACAD_REACTORS
330
241
102
}
330
241
100
AcDbScale
 70
     0
300
1:2
140
1.0
141
2.0
290
     0
  0
SCALE
  5
244
102
{ACAD_REACTORS
330
241
102
}
330
241
100
AcDbScale
 70
     0
300
1:4
140
1.0
141
4.0
290
     0
  0
SCALE
  5
245
102
{ACAD_REACTORS
330
241
102
}
330
241
100
AcDbScale
 70
     0
300
1:5
140
1.0
141
5.0
290
     0
  0
SCALE
  5
246
102
{ACAD_REACTORS
330
241
102
}
330
241
100
AcDbScale
 70
     0
300
1:8
140
1.0
141
8.0
290
     0
  0
SCALE
  5
247
102
{ACAD_REACTORS
330
241
102
}
330
241
100
AcDbScale
 70
     0
300
1:10
140
1.0
141
10.0
290
     0
  0
SCALE
  5
248
102
{ACAD_REACTORS
330
241
102
}
330
241
100
AcDbScale
 70
     0
300
1:16
140
1.0
141
16.0
290
     0
  0
SCALE
  5
249
102
{ACAD_REACTORS
330
241
102
}
330
241
100
AcDbScale
 70
     0
300
1:20
140
1.0
141
20.0
290
     0
  0
SCALE
  5
24A
102
{ACAD_REACTORS
330
241
102
}
330
241
100
AcDbScale
 70
     0
300
1:30
140
1.0
141
30.0
290
     0
  0
SCALE
  5
24B
102
{ACAD_REACTORS
330
241
102
}
330
241
100
AcDbScale
 70
     0
300
1:40
140
1.0
141
40.0
290
     0
  0
SCALE
  5
24C
102
{ACAD_REACTORS
330
241
102
}
330
241
100
AcDbScale
 70
     0
300
1:50
140
1.0
141
50.0
290
     0
  0
SCALE
  5
24D
102
{ACAD_REACTORS
330
241
102
}
330
241
100
AcDbScale
 70
     0
300
1:100
140
1.0
141
100.0
290
     0
  0
SCALE
  5
24E
102
{ACAD_REACTORS
330
241
102
}
330
241
100
AcDbScale
 70
     0
300
2:1
140
2.0
141
1.0
290
     0
  0
SCALE
  5
24F
102
{ACAD_REACTORS
330
241
102
}
330
241
100
AcDbScale
 70
     0
300
4:1
140
4.0
141
1.0
290
     0
  0
SCALE
  5
250
102
{ACAD_REACTORS
330
241
102
}
330
241
100
AcDbScale
 70
     0
300
8:1
140
8.0
141
1.0
290
     0
  0
SCALE
  5
251
102
{ACAD_REACTORS
330
241
102
}
330
241
100
AcDbScale
 70
     0
300
10:1
140
10.0
141
1.0
290
     0
  0
SCALE
  5
252
102
{ACAD_REACTORS
330
241
102
}
330
241
100
AcDbScale
 70
     0
300
100:1
140
100.0
141
1.0
290
     0
  0
SCALE
  5
253
102
{ACAD_REACTORS
330
241
102
}
330
241
100
AcDbScale
 70
     0
300
1/128" = 1'-0"
140
0.0078125
141
12.0
290
     0
  0
SCALE
  5
254
102
{ACAD_REACTORS
330
241
102
}
330
241
100
AcDbScale
 70
     0
300
1/64" = 1'-0"
140
0.015625
141
12.0
290
     0
  0
SCALE
  5
255
102
{ACAD_REACTORS
330
241
102
}
330
241
100
AcDbScale
 70
     0
300
1/32" = 1'-0"
140
0.03125
141
12.0
290
     0
  0
SCALE
  5
256
102
{ACAD_REACTORS
330
241
102
}
330
241
100
AcDbScale
 70
     0
300
1/16" = 1'-0"
140
0.0625
141
12.0
290
     0
  0
SCALE
  5
257
102
{ACAD_REACTORS
330
241
102
}
330
241
100
AcDbScale
 70
     0
300
3/32" = 1'-0"
140
0.09375
141
12.0
290
     0
  0
SCALE
  5
258
102
{ACAD_REACTORS
330
241
102
}
330
241
100
AcDbScale
 70
     0
300
1/8" = 1'-0"
140
0.125
141
12.0
290
     0
  0
SCALE
  5
259
102
{ACAD_REACTORS
330
241
102
}
330
241
100
AcDbScale
 70
     0
300
3/16" = 1'-0"
140
0.1875
141
12.0
290
     0
  0
SCALE
  5
25A
102
{ACAD_REACTORS
330
241
102
}
330
241
100
AcDbScale
 70
     0
300
1/4" = 1'-0"
140
0.25
141
12.0
290
     0
  0
SCALE
  5
25B
102
{ACAD_REACTORS
330
241
102
}
330
241
100
AcDbScale
 70
     0
300
3/8" = 1'-0"
140
0.375
141
12.0
290
     0
  0
SCALE
  5
25C
102
{ACAD_REACTORS
330
241
102
}
330
241
100
AcDbScale
 70
     0
300
1/2" = 1'-0"
140
0.5
141
12.0
290
     0
  0
SCALE
  5
25D
102
{ACAD_REACTORS
330
241
102
}
330
241
100
AcDbScale
 70
     0
300
3/4" = 1'-0"
140
0.75
141
12.0
290
     0
  0
SCALE
  5
25E
102
{ACAD_REACTORS
330
241
102
}
330
241
100
AcDbScale
 70
     0
300
1" = 1'-0"
140
1.0
141
12.0
290
     0
  0
SCALE
  5
25F
102
{ACAD_REACTORS
330
241
102
}
330
241
100
AcDbScale
 70
     0
300
1-1/2" = 1'-0"
140
1.5
141
12.0
290
     0
  0
SCALE
  5
260
102
{ACAD_REACTORS
330
241
102
}
330
241
100
AcDbScale
 70
     0
300
3" = 1'-0"
140
3.0
141
12.0
290
     0
  0
SCALE
  5
261
102
{ACAD_REACTORS
330
241
102
}
330
241
100
AcDbScale
 70
     0
300
6" = 1'-0"
140
6.0
141
12.0
290
     0
  0
SCALE
  5
262
102
{ACAD_REACTORS
330
241
102
}
330
241
100
AcDbScale
 70
     0
300
1'-0" = 1'-0"
140
12.0
141
12.0
290
     0
  0
TABLESTYLE
  5
279
102
{ACAD_REACTORS
330
278
102
}
102
{ACAD_XDICTIONARY
360
209A
102
}
330
278
100
AcDbTableStyle
  3
Standard
 70
     0
 71
     0
 40
0.06
 41
0.06
280
     0
281
     0
  7
Standard
140
4.5
170
     2
 62
     0
 63
   257
283
     0
 90
        4
 91
        0
  1

274
    -2
284
     1
 64
     0
275
    -2
285
     1
 65
     0
276
    -2
286
     1
 66
     0
277
    -2
287
     1
 67
     0
278
    -2
288
     1
 68
     0
279
    -2
289
     1
 69
     0
  7
Standard
140
6.0
170
     5
 62
     0
 63
   257
283
     0
 90
        4
 91
        0
  1

274
    -2
284
     1
 64
     0
275
    -2
285
     1
 65
     0
276
    -2
286
     1
 66
     0
277
    -2
287
     1
 67
     0
278
    -2
288
     1
 68
     0
279
    -2
289
     1
 69
     0
  7
Standard
140
4.5
170
     5
 62
     0
 63
   257
283
     0
 90
        4
 91
        0
  1

274
    -2
284
     1
 64
     0
275
    -2
285
     1
 65
     0
276
    -2
286
     1
 66
     0
277
    -2
287
     1
 67
     0
278
    -2
288
     1
 68
     0
279
    -2
289
     1
 69
     0
  0
VISUALSTYLE
  5
26C
102
{ACAD_REACTORS
330
267
102
}
330
267
100
AcDbVisualStyle
  2
2dWireframe
 70
     4
 71
     0
 72
     2
 73
     0
 90
        0
 40
-0.6
 41
-30.0
 62
     5
 63
     7
421
 16777215
 74
     1
 91
        4
 64
     7
 65
   257
 75
     1
175
     1
 42
1.0
 92
        0
 66
   257
 43
1.0
 76
     1
 77
     6
 78
     2
 67
     7
 79
     5
170
     0
171
     0
290
     0
174
     0
 93
        1
 44
0.0
173
     0
291
     0
 45
0.0
  0
VISUALSTYLE
  5
26E
102
{ACAD_REACTORS
330
267
102
}
330
267
100
AcDbVisualStyle
  2
3D Hidden
 70
     6
 71
     1
 72
     2
 73
     2
 90
        0
 40
-0.6
 41
-30.0
 62
     5
 63
     7
421
 16777215
 74
     2
 91
        2
 64
     7
 65
   257
 75
     2
175
     1
 42
40.0
 92
        0
 66
   257
 43
1.0
 76
     1
 77
     6
 78
     2
 67
     7
 79
     3
170
     0
171
     0
290
     0
174
     0
 93
        1
 44
0.0
173
     0
291
     0
 45
0.0
  0
VISUALSTYLE
  5
26D
102
{ACAD_REACTORS
330
267
102
}
330
267
100
AcDbVisualStyle
  2
3dWireframe
 70
     5
 71
     0
 72
     2
 73
     0
 90
        0
 40
-0.6
 41
-30.0
 62
     5
 63
     7
421
 16777215
 74
     1
 91
        4
 64
     7
 65
   257
 75
     1
175
     1
 42
1.0
 92
        0
 66
   257
 43
1.0
 76
     1
 77
     6
 78
     2
 67
     7
 79
     5
170
     0
171
     0
290
     0
174
     0
 93
        1
 44
0.0
173
     0
291
     0
 45
0.0
  0
VISUALSTYLE
  5
26F
102
{ACAD_REACTORS
330
267
102
}
330
267
100
AcDbVisualStyle
  2
Basic
 70
     7
 71
     1
 72
     0
 73
     1
 90
        0
 40
-0.6
 41
-30.0
 62
     5
 63
     7
421
 16777215
 74
     0
 91
        4
 64
     7
 65
   257
 75
     1
175
     1
 42
1.0
 92
        8
 66
     7
 43
1.0
 76
     1
 77
     6
 78
     2
 67
     7
 79
     5
170
     0
171
     0
290
     0
174
     0
 93
        1
 44
0.0
173
     0
291
     1
 45
0.0
  0
VISUALSTYLE
  5
273
102
{ACAD_REACTORS
330
267
102
}
330
267
100
AcDbVisualStyle
  2
Brighten
 70
    12
 71
     2
 72
     2
 73
     0
 90
        0
 40
-0.6
 41
-30.0
 62
     5
 63
     7
421
 16777215
 74
     1
 91
        4
 64
     7
 65
   257
 75
     1
175
     1
 42
1.0
 92
        8
 66
     7
 43
1.0
 76
     1
 77
     6
 78
     2
 67
     7
 79
     5
170
     0
171
     0
290
     0
174
     0
 93
        1
 44
50.0
173
     0
291
     1
 45
0.0
  0
VISUALSTYLE
  5
277
102
{ACAD_REACTORS
330
267
102
}
330
267
100
AcDbVisualStyle
  2
ColorChange
 70
    16
 71
     2
 72
     2
 73
     3
 90
        0
 40
-0.6
 41
-30.0
 62
     5
 63
     8
421
  8421504
 74
     1
 91
        4
 64
     7
 65
   257
 75
     1
175
     1
 42
1.0
 92
        8
 66
     8
424
  8421504
 43
1.0
 76
     1
 77
     6
 78
     2
 67
     7
 79
     5
170
     0
171
     0
290
     0
174
     0
 93
        1
 44
0.0
173
     0
291
     1
 45
0.0
  0
VISUALSTYLE
  5
271
102
{ACAD_REACTORS
330
267
102
}
330
267
100
AcDbVisualStyle
  2
Conceptual
 70
     9
 71
     3
 72
     2
 73
     0
 90
        0
 40
-0.6
 41
-30.0
 62
     5
 63
     7
421
 16777215
 74
     2
 91
        2
 64
     7
 65
   257
 75
     1
175
     1
 42
40.0
 92
        8
 66
     7
 43
1.0
 76
     1
 77
     6
 78
     2
 67
     7
 79
     3
170
     0
171
     0
290
     0
174
     0
 93
        1
 44
0.0
173
     0
291
     0
 45
0.0
  0
VISUALSTYLE
  5
272
102
{ACAD_REACTORS
330
267
102
}
330
267
100
AcDbVisualStyle
  2
Dim
 70
    11
 71
     2
 72
     2
 73
     0
 90
        0
 40
-0.6
 41
-30.0
 62
     5
 63
     7
421
 16777215
 74
     1
 91
        4
 64
     7
 65
   257
 75
     1
175
     1
 42
1.0
 92
        8
 66
     7
 43
1.0
 76
     1
 77
     6
 78
     2
 67
     7
 79
     5
170
     0
171
     0
290
     0
174
     0
 93
        1
 44
-50.0
173
     0
291
     1
 45
0.0
  0
VISUALSTYLE
  5
8FE
102
{ACAD_REACTORS
330
267
102
}
330
267
100
AcDbVisualStyle
  2
EdgeColorOff
 70
    22
 71
     2
 72
     2
 73
     0
 90
        0
 40
0.6
 41
30.0
 62
     5
 63
     7
421
 16777215
 74
     1
 91
        4
 64
     7
 65
   257
 75
     1
175
     1
 42
1.0
 92
        8
 66
     7
 43
1.0
 76
     1
 77
     6
 78
     2
 67
     7
 79
     5
170
     0
171
     0
290
     0
174
     0
 93
        1
 44
0.0
173
     0
291
     1
 45
0.0
  0
VISUALSTYLE
  5
276
102
{ACAD_REACTORS
330
267
102
}
330
267
100
AcDbVisualStyle
  2
Facepattern
 70
    15
 71
     2
 72
     2
 73
     0
 90
        0
 40
-0.6
 41
-30.0
 62
     5
 63
     7
421
 16777215
 74
     1
 91
        4
 64
     7
 65
   257
 75
     1
175
     1
 42
1.0
 92
        8
 66
     7
 43
1.0
 76
     1
 77
     6
 78
     2
 67
     7
 79
     5
170
     0
171
     0
290
     0
174
     0
 93
        1
 44
0.0
173
     0
291
     1
 45
0.0
  0
VISUALSTYLE
  5
268
102
{ACAD_REACTORS
330
267
102
}
330
267
100
AcDbVisualStyle
  2
Flat
 70
     0
 71
     2
 72
     1
 73
     1
 90
        2
 40
-0.6
 41
30.0
 62
     5
 63
     7
421
 16777215
 74
     0
 91
        4
 64
     7
 65
   257
 75
     1
175
     1
 42
1.0
 92
        8
 66
     7
 43
1.0
 76
     1
 77
     6
 78
     2
 67
     7
 79
     5
170
     0
171
     0
290
     0
174
     0
 93
       13
 44
0.0
173
     0
291
     1
 45
0.0
  0
VISUALSTYLE
  5
269
102
{ACAD_REACTORS
330
267
102
}
330
267
100
AcDbVisualStyle
  2
FlatWithEdges
 70
     1
 71
     2
 72
     1
 73
     1
 90
        2
 40
-0.6
 41
30.0
 62
     5
 63
     7
421
 16777215
 74
     1
 91
        4
 64
     7
 65
   257
 75
     1
175
     1
 42
1.0
 92
        0
 66
   257
 43
1.0
 76
     1
 77
     6
 78
     2
 67
     7
 79
     5
170
     0
171
     0
290
     0
174
     0
 93
       13
 44
0.0
173
     0
291
     1
 45
0.0
  0
VISUALSTYLE
  5
26A
102
{ACAD_REACTORS
330
267
102
}
330
267
100
AcDbVisualStyle
  2
Gouraud
 70
     2
 71
     2
 72
     2
 73
     1
 90
        2
 40
-0.6
 41
30.0
 62
     5
 63
     7
421
 16777215
 74
     0
 91
        4
 64
     7
 65
   257
 75
     1
175
     1
 42
1.0
 92
        0
 66
     7
 43
1.0
 76
     1
 77
     6
 78
     2
 67
     7
 79
     5
170
     0
171
     0
290
     0
174
     0
 93
       13
 44
0.0
173
     0
291
     1
 45
0.0
  0
VISUALSTYLE
  5
26B
102
{ACAD_REACTORS
330
267
102
}
330
267
100
AcDbVisualStyle
  2
GouraudWithEdges
 70
     3
 71
     2
 72
     2
 73
     1
 90
        2
 40
-0.6
 41
30.0
 62
     5
 63
     7
421
 16777215
 74
     1
 91
        4
 64
     7
 65
   257
 75
     1
175
     1
 42
1.0
 92
        0
 66
   257
 43
1.0
 76
     1
 77
     6
 78
     2
 67
     7
 79
     5
170
     0
171
     0
290
     0
174
     0
 93
       13
 44
0.0
173
     0
291
     1
 45
0.0
  0
VISUALSTYLE
  5
8FB
102
{ACAD_REACTORS
330
267
102
}
330
267
100
AcDbVisualStyle
  2
Hidden
 70
     6
 71
     1
 72
     2
 73
     2
 90
        0
 40
0.6
 41
30.0
 62
     5
 63
     7
421
 16777215
 74
     2
 91
        2
 64
     7
 65
   257
 75
     2
175
     1
 42
40.0
 92
        0
 66
   257
 43
1.0
 76
     1
 77
     6
 78
     2
 67
     7
 79
     3
170
     0
171
     0
290
     0
174
     0
 93
        1
 44
0.0
173
     0
291
     0
 45
0.0
  0
VISUALSTYLE
  5
8FC
102
{ACAD_REACTORS
330
267
102
}
330
267
100
AcDbVisualStyle
  2
JitterOff
 70
    20
 71
     2
 72
     2
 73
     0
 90
        0
 40
0.6
 41
30.0
 62
     5
 63
     7
421
 16777215
 74
     1
 91
        4
 64
     7
 65
   257
 75
     1
175
     1
 42
1.0
 92
       10
 66
     7
 43
1.0
 76
     1
 77
     6
 78
     2
 67
     7
 79
     5
170
     0
171
     0
290
     0
174
     0
 93
        1
 44
0.0
173
     0
291
     1
 45
0.0
  0
VISUALSTYLE
  5
275
102
{ACAD_REACTORS
330
267
102
}
330
267
100
AcDbVisualStyle
  2
Linepattern
 70
    14
 71
     2
 72
     2
 73
     0
 90
        0
 40
-0.6
 41
-30.0
 62
     5
 63
     7
421
 16777215
 74
     1
 91
        4
 64
     7
 65
   257
 75
     7
175
     7
 42
1.0
 92
        8
 66
     7
 43
1.0
 76
     1
 77
     6
 78
     2
 67
     7
 79
     5
170
     0
171
     0
290
     0
174
     0
 93
        1
 44
0.0
173
     0
291
     1
 45
0.0
  0
VISUALSTYLE
  5
8FD
102
{ACAD_REACTORS
330
267
102
}
330
267
100
AcDbVisualStyle
  2
OverhangOff
 70
    21
 71
     2
 72
     2
 73
     0
 90
        0
 40
0.6
 41
30.0
 62
     5
 63
     7
421
 16777215
 74
     1
 91
        4
 64
     7
 65
   257
 75
     1
175
     1
 42
1.0
 92
        9
 66
     7
 43
1.0
 76
     1
 77
     6
 78
     2
 67
     7
 79
     5
170
     0
171
     0
290
     0
174
     0
 93
        1
 44
0.0
173
     0
291
     1
 45
0.0
  0
VISUALSTYLE
  5
270
102
{ACAD_REACTORS
330
267
102
}
330
267
100
AcDbVisualStyle
  2
Realistic
 70
     8
 71
     2
 72
     2
 73
     0
 90
        0
 40
-0.6
 41
-30.0
 62
     5
 63
     7
421
 16777215
 74
     1
 91
        0
 64
     7
 65
   257
 75
     1
175
     1
 42
1.0
 92
        8
 66
     8
424
  7895160
 43
1.0
 76
     1
 77
     6
 78
     2
 67
     7
 79
     5
170
     0
171
     0
290
     0
174
     0
 93
       13
 44
0.0
173
     0
291
     0
 45
0.0
  0
VISUALSTYLE
  5
903
102
{ACAD_REACTORS
330
267
102
}
330
267
100
AcDbVisualStyle
  2
Shaded
 70
    27
 71
     2
 72
     2
 73
     1
 90
        2
 40
0.6
 41
30.0
 62
     5
 63
     7
421
 16777215
 74
     0
 91
        4
 64
     7
 65
   257
 75
     1
175
     1
 42
1.0
 92
        8
 66
   257
 43
1.0
 76
     1
 77
     6
 78
     2
 67
     8
425
  7895160
 79
     3
170
     0
171
     0
290
     0
174
     0
 93
        5
 44
0.0
173
     0
291
     0
 45
0.0
  0
VISUALSTYLE
  5
902
102
{ACAD_REACTORS
330
267
102
}
330
267
100
AcDbVisualStyle
  2
Shaded with edges
 70
    26
 71
     2
 72
     2
 73
     1
 90
        2
 40
0.6
 41
30.0
 62
     5
 63
     7
421
 16777215
 74
     1
 91
       10
 64
     7
 65
   257
 75
     2
175
     1
 42
1.0
 92
        8
 66
   257
 43
1.0
 76
     1
 77
     6
 78
     2
 67
     7
 79
     3
170
     0
171
     0
290
     0
174
     0
 93
        5
 44
0.0
173
     0
291
     0
 45
0.0
  0
VISUALSTYLE
  5
8FF
102
{ACAD_REACTORS
330
267
102
}
330
267
100
AcDbVisualStyle
  2
Shades of Gray
 70
    23
 71
     2
 72
     2
 73
     3
 90
        0
 40
0.6
 41
30.0
 62
     5
 63
     7
421
 16777215
 74
     2
 91
        2
 64
     7
 65
     7
 75
     1
175
     1
 42
40.0
 92
        8
 66
     7
 43
1.0
 76
     1
 77
     6
 78
     2
 67
     7
 79
     3
170
     0
171
     0
290
     0
174
     0
 93
        1
 44
0.0
173
     0
291
     0
 45
0.0
  0
VISUALSTYLE
  5
900
102
{ACAD_REACTORS
330
267
102
}
330
267
100
AcDbVisualStyle
  2
Sketchy
 70
    24
 71
     1
 72
     2
 73
     2
 90
        0
 40
0.6
 41
30.0
 62
     5
 63
     7
421
 16777215
 74
     2
 91
        2
 64
     7
 65
     7
 75
     1
175
     1
 42
40.0
 92
       11
 66
     7
 43
1.0
 76
     1
 77
     6
 78
     2
 67
     7
 79
     6
170
     0
171
     0
290
     0
174
     0
 93
        1
 44
0.0
173
     0
291
     0
 45
0.0
  0
VISUALSTYLE
  5
274
102
{ACAD_REACTORS
330
267
102
}
330
267
100
AcDbVisualStyle
  2
Thicken
 70
    13
 71
     2
 72
     2
 73
     0
 90
        0
 40
-0.6
 41
-30.0
 62
     5
 63
     7
421
 16777215
 74
     1
 91
        4
 64
     7
 65
   257
 75
     1
175
     1
 42
1.0
 92
       12
 66
     7
 43
1.0
 76
     1
 77
     6
 78
     2
 67
     7
 79
     5
170
     0
171
     0
290
     0
174
     0
 93
        1
 44
0.0
173
     0
291
     1
 45
0.0
  0
VISUALSTYLE
  5
8FA
102
{ACAD_REACTORS
330
267
102
}
330
267
100
AcDbVisualStyle
  2
Wireframe
 70
     5
 71
     0
 72
     2
 73
     0
 90
        0
 40
0.6
 41
30.0
 62
     5
 63
     7
421
 16777215
 74
     1
 91
        4
 64
     7
 65
   257
 75
     1
175
     1
 42
1.0
 92
        0
 66
   257
 43
1.0
 76
     1
 77
     6
 78
     2
 67
     7
 79
     3
170
     0
171
     0
290
     0
174
     0
 93
        1
 44
0.0
173
     0
291
     0
 45
0.0
  0
VISUALSTYLE
  5
901
102
{ACAD_REACTORS
330
267
102
}
330
267
100
AcDbVisualStyle
  2
X-Ray
 70
    25
 71
     2
 72
     2
 73
     1
 90
        1
 40
0.5
 41
30.0
 62
     5
 63
     7
421
 16777215
 74
     1
 91
        0
 64
     7
 65
   257
 75
     1
175
     1
 42
1.0
 92
        8
 66
     7
 43
1.0
 76
     1
 77
     6
 78
     2
 67
     7
 79
     3
170
     0
171
     0
290
     0
174
     0
 93
       13
 44
0.0
173
     0
291
     0
 45
0.0
  0
DICTIONARYVAR
  5
331
102
{ACAD_REACTORS
330
330
102
}
330
330
100
DictionaryVariables
280
     0
  1
1:1
  0
DICTIONARYVAR
  5
D5E
102
{ACAD_REACTORS
330
330
102
}
330
330
100
DictionaryVariables
280
     0
  1
Standard
  0
DICTIONARYVAR
  5
335
102
{ACAD_REACTORS
330
330
102
}
330
330
100
DictionaryVariables
280
     0
  1
Standard
  0
DICTIONARYVAR
  5
D52
102
{ACAD_REACTORS
330
330
102
}
330
330
100
DictionaryVariables
280
     0
  1
ByLayer
  0
DICTIONARYVAR
  5
896
102
{ACAD_REACTORS
330
330
102
}
330
330
100
DictionaryVariables
280
     0
  1
0
  0
DICTIONARYVAR
  5
1DFC
102
{ACAD_REACTORS
330
E38
102
}
330
E38
100
DictionaryVariables
280
     0
  1
0.261799
  0
DICTIONARYVAR
  5
1DFA
102
{ACAD_REACTORS
330
E38
102
}
330
E38
100
DictionaryVariables
280
     0
  1
0.400000
  0
DICTIONARYVAR
  5
1DFB
102
{ACAD_REACTORS
330
E38
102
}
330
E38
100
DictionaryVariables
280
     0
  1
0.250000
  0
DICTIONARYVAR
  5
1DFD
102
{ACAD_REACTORS
330
E38
102
}
330
E38
100
DictionaryVariables
280
     0
  1
1
  0
FIELD
  5
1EAE
102
{ACAD_REACTORS
330
1EAD
102
}
330
1EAD
100
AcDbField
  1
_text
  2
{%<\_FldIdx 0>%N}
 90
        1
360
1EAF
 97
        0
 91
       63
 92
        0
 94
        8
 95
        2
 96
        0
300

 93
        1
  6
ACFD_FIELDTEXT_CHECKSUM
 93
        2
 90
        2
140
4557.0
 94
        0
300

302

304
ACVALUE_END
  7
ACFD_FIELD_VALUE
 93
        6
 90
        4
  1
{20170925N}
 94
        0
300

302

304
ACVALUE_END
301
{20170925N}
 98
       11
  0
DICTIONARY
  5
209A
330
279
100
AcDbDictionary
280
     1
281
     1
  3
ACAD_ROUNDTRIP_2008_TABLESTYLE_CELLSTYLEMAP
360
209B
  0
FIELD
  5
1EAF
330
1EAE
100
AcDbField
  1
AcVar
  2
\AcVar Date \f "yyyyMMdd"
 90
        0
 97
        0
 91
       63
 92
        0
 94
        8
 95
        2
 96
        0
300

 93
        1
  6
Variable
 93
        2
 90
        4
  1
Date
 94
        0
300

302

304
ACVALUE_END
  7
ACFD_FIELD_VALUE
 93
        6
 90
        8
 92
       16
310
E1070900000019000A0025000B000000
 94
        0
300
yyyyMMdd
302

304
ACVALUE_END
301
20170925
 98
        8
  0
CELLSTYLEMAP
  5
209B
102
{ACAD_REACTORS
330
209A
102
}
330
209A
100
AcDbCellStyleMap
 90
        3
300
CELLSTYLE
  1
TABLEFORMAT_BEGIN
 90
        5
170
     1
 91
        0
 92
    32768
 62
   257
 93
        1
300
CONTENTFORMAT
  1
CONTENTFORMAT_BEGIN
 90
        0
 91
        0
 92
        4
 93
        0
300

 40
0.0
140
1.0
 94
        5
 62
     0
340
17
144
6.0
309
CONTENTFORMAT_END
171
     1
301
MARGIN
  1
CELLMARGIN_BEGIN
 40
0.06
 40
0.06
 40
0.06
 40
0.06
 40
0.18
 40
0.18
309
CELLMARGIN_END
 94
        6
 95
        1
302
GRIDFORMAT
  1
GRIDFORMAT_BEGIN
 90
        0
 91
        1
 62
     0
 92
       -2
340
0
 93
        0
 40
0.045
309
GRIDFORMAT_END
 95
        2
302
GRIDFORMAT
  1
GRIDFORMAT_BEGIN
 90
        0
 91
        1
 62
     0
 92
       -2
340
0
 93
        0
 40
0.045
309
GRIDFORMAT_END
 95
        4
302
GRIDFORMAT
  1
GRIDFORMAT_BEGIN
 90
        0
 91
        1
 62
     0
 92
       -2
340
0
 93
        0
 40
0.045
309
GRIDFORMAT_END
 95
        8
302
GRIDFORMAT
  1
GRIDFORMAT_BEGIN
 90
        0
 91
        1
 62
     0
 92
       -2
340
0
 93
        0
 40
0.045
309
GRIDFORMAT_END
 95
       16
302
GRIDFORMAT
  1
GRIDFORMAT_BEGIN
 90
        0
 91
        1
 62
     0
 92
       -2
340
0
 93
        0
 40
0.045
309
GRIDFORMAT_END
 95
       32
302
GRIDFORMAT
  1
GRIDFORMAT_BEGIN
 90
        0
 91
        1
 62
     0
 92
       -2
340
0
 93
        0
 40
0.045
309
GRIDFORMAT_END
309
TABLEFORMAT_END
  1
CELLSTYLE_BEGIN
 90
        1
 91
        1
300
_TITLE
309
CELLSTYLE_END
300
CELLSTYLE
  1
TABLEFORMAT_BEGIN
 90
        5
170
     1
 91
        0
 92
        0
 62
   257
 93
        1
300
CONTENTFORMAT
  1
CONTENTFORMAT_BEGIN
 90
        0
 91
        0
 92
        4
 93
        0
300

 40
0.0
140
1.0
 94
        5
 62
     0
340
17
144
4.5
309
CONTENTFORMAT_END
171
     1
301
MARGIN
  1
CELLMARGIN_BEGIN
 40
0.06
 40
0.06
 40
0.06
 40
0.06
 40
0.18
 40
0.18
309
CELLMARGIN_END
 94
        6
 95
        1
302
GRIDFORMAT
  1
GRIDFORMAT_BEGIN
 90
        0
 91
        1
 62
     0
 92
       -2
340
0
 93
        0
 40
0.045
309
GRIDFORMAT_END
 95
        2
302
GRIDFORMAT
  1
GRIDFORMAT_BEGIN
 90
        0
 91
        1
 62
     0
 92
       -2
340
0
 93
        0
 40
0.045
309
GRIDFORMAT_END
 95
        4
302
GRIDFORMAT
  1
GRIDFORMAT_BEGIN
 90
        0
 91
        1
 62
     0
 92
       -2
340
0
 93
        0
 40
0.045
309
GRIDFORMAT_END
 95
        8
302
GRIDFORMAT
  1
GRIDFORMAT_BEGIN
 90
        0
 91
        1
 62
     0
 92
       -2
340
0
 93
        0
 40
0.045
309
GRIDFORMAT_END
 95
       16
302
GRIDFORMAT
  1
GRIDFORMAT_BEGIN
 90
        0
 91
        1
 62
     0
 92
       -2
340
0
 93
        0
 40
0.045
309
GRIDFORMAT_END
 95
       32
302
GRIDFORMAT
  1
GRIDFORMAT_BEGIN
 90
        0
 91
        1
 62
     0
 92
       -2
340
0
 93
        0
 40
0.045
309
GRIDFORMAT_END
309
TABLEFORMAT_END
  1
CELLSTYLE_BEGIN
 90
        2
 91
        1
300
_HEADER
309
CELLSTYLE_END
300
CELLSTYLE
  1
TABLEFORMAT_BEGIN
 90
        5
170
     1
 91
        0
 92
        0
 62
   257
 93
        1
300
CONTENTFORMAT
  1
CONTENTFORMAT_BEGIN
 90
        0
 91
        0
 92
        4
 93
        0
300

 40
0.0
140
1.0
 94
        2
 62
     0
340
17
144
4.5
309
CONTENTFORMAT_END
171
     1
301
MARGIN
  1
CELLMARGIN_BEGIN
 40
0.06
 40
0.06
 40
0.06
 40
0.06
 40
0.18
 40
0.18
309
CELLMARGIN_END
 94
        6
 95
        1
302
GRIDFORMAT
  1
GRIDFORMAT_BEGIN
 90
        0
 91
        1
 62
     0
 92
       -2
340
0
 93
        0
 40
0.045
309
GRIDFORMAT_END
 95
        2
302
GRIDFORMAT
  1
GRIDFORMAT_BEGIN
 90
        0
 91
        1
 62
     0
 92
       -2
340
0
 93
        0
 40
0.045
309
GRIDFORMAT_END
 95
        4
302
GRIDFORMAT
  1
GRIDFORMAT_BEGIN
 90
        0
 91
        1
 62
     0
 92
       -2
340
0
 93
        0
 40
0.045
309
GRIDFORMAT_END
 95
        8
302
GRIDFORMAT
  1
GRIDFORMAT_BEGIN
 90
        0
 91
        1
 62
     0
 92
       -2
340
0
 93
        0
 40
0.045
309
GRIDFORMAT_END
 95
       16
302
GRIDFORMAT
  1
GRIDFORMAT_BEGIN
 90
        0
 91
        1
 62
     0
 92
       -2
340
0
 93
        0
 40
0.045
309
GRIDFORMAT_END
 95
       32
302
GRIDFORMAT
  1
GRIDFORMAT_BEGIN
 90
        0
 91
        1
 62
     0
 92
       -2
340
0
 93
        0
 40
0.045
309
GRIDFORMAT_END
309
TABLEFORMAT_END
  1
CELLSTYLE_BEGIN
 90
        3
 91
        2
300
_DATA
309
CELLSTYLE_END
  0
ENDSEC
  0
EOF
