  0
SECTION
  2
HEADER
  9
$ACADVER
  1
AC1021
  9
$ACADMAINTVER
 70
    25
  9
$DWGCODEPAGE
  3
ANSI_932
  9
$LASTSAVEDBY
  1
Shimosaki
  9
$INSBASE
 10
0.0
 20
0.0
 30
0.0
  9
$EXTMIN
 10
-487.500000000121
 20
-709.3807037781035
 30
-7.417152777777776
  9
$EXTMAX
 10
487.500000000121
 20
709.3807037781039
 30
7.417152777777776
  9
$LIMMIN
 10
-524.9999999998795
 20
-739.9891487769107
  9
$LIMMAX
 10
525.0000000001207
 20
745.0108512230897
  9
$ORTHOMODE
 70
     0
  9
$REGENMODE
 70
     1
  9
$FILLMODE
 70
     1
  9
$QTEXTMODE
 70
     0
  9
$MIRRTEXT
 70
     1
  9
$LTSCALE
 40
63.5
  9
$ATTMODE
 70
     1
  9
$TEXTSIZE
 40
0.0
  9
$TRACEWID
 40
1.0
  9
$TEXTSTYLE
  7
Standard
  9
$CLAYER
  8
AWK73-9903
  9
$CELTYPE
  6
Continuous
  9
$CECOLOR
 62
   256
  9
$CELTSCALE
 40
1.0
  9
$DISPSILH
 70
     0
  9
$DIMSCALE
 40
1.0
  9
$DIMASZ
 40
15.875
  9
$DIMEXO
 40
0.0
  9
$DIMDLI
 40
6.99999999999994
  9
$DIMRND
 40
0.0
  9
$DIMDLE
 40
0.0
  9
$DIMEXE
 40
9.9999999999981
  9
$DIMTP
 40
0.0
  9
$DIMTM
 40
0.0
  9
$DIMTXT
 40
12.21630859375
  9
$DIMCEN
 40
0.0
  9
$DIMTSZ
 40
0.0
  9
$DIMTOL
 70
     0
  9
$DIMLIM
 70
     0
  9
$DIMTIH
 70
     0
  9
$DIMTOH
 70
     0
  9
$DIMSE1
 70
     0
  9
$DIMSE2
 70
     0
  9
$DIMTAD
 70
     1
  9
$DIMZIN
 70
    11
  9
$DIMBLK
  1
VW_FILLEDARROW
  9
$DIMASO
 70
     1
  9
$DIMSHO
 70
     1
  9
$DIMPOST
  1
<>
  9
$DIMAPOST
  1
[]
  9
$DIMALT
 70
     0
  9
$DIMALTD
 70
     3
  9
$DIMALTF
 40
0.0393700787401575
  9
$DIMLFAC
 40
1.0
  9
$DIMTOFL
 70
     0
  9
$DIMTVP
 40
0.0
  9
$DIMTIX
 70
     1
  9
$DIMSOXD
 70
     0
  9
$DIMSAH
 70
     0
  9
$DIMBLK1
  1

  9
$DIMBLK2
  1

  9
$DIMSTYLE
  2
JIS
  9
$DIMCLRD
 70
     0
  9
$DIMCLRE
 70
     0
  9
$DIMCLRT
 70
     0
  9
$DIMTFAC
 40
1.0
  9
$DIMGAP
 40
1.00000000000108
  9
$DIMJUST
 70
     0
  9
$DIMSD1
 70
     0
  9
$DIMSD2
 70
     0
  9
$DIMTOLJ
 70
     1
  9
$DIMTZIN
 70
    11
  9
$DIMALTZ
 70
    15
  9
$DIMALTTZ
 70
    15
  9
$DIMUPT
 70
     0
  9
$DIMDEC
 70
     1
  9
$DIMTDEC
 70
     1
  9
$DIMALTU
 70
     4
  9
$DIMALTTD
 70
     2
  9
$DIMTXSTY
  7
ＭＳ ゴシック
  9
$DIMAUNIT
 70
     0
  9
$DIMADEC
 70
     2
  9
$DIMALTRND
 40
0.0
  9
$DIMAZIN
 70
     0
  9
$DIMDSEP
 70
    46
  9
$DIMATFIT
 70
     0
  9
$DIMFRAC
 70
     2
  9
$DIMLDRBLK
  1

  9
$DIMLUNIT
 70
     2
  9
$DIMLWD
 70
    -2
  9
$DIMLWE
 70
    -2
  9
$DIMTMOVE
 70
     0
  9
$DIMFXL
 40
1.0
  9
$DIMFXLON
 70
     0
  9
$DIMJOGANG
 40
0.7853981633974483
  9
$DIMTFILL
 70
     0
  9
$DIMTFILLCLR
 70
     0
  9
$DIMARCSYM
 70
     0
  9
$DIMLTYPE
  6

  9
$DIMLTEX1
  6

  9
$DIMLTEX2
  6

  9
$LUNITS
 70
     2
  9
$LUPREC
 70
     4
  9
$SKETCHINC
 40
0.1
  9
$FILLETRAD
 40
0.0
  9
$AUNITS
 70
     0
  9
$AUPREC
 70
     0
  9
$MENU
  1
acad
  9
$ELEVATION
 40
0.0
  9
$PELEVATION
 40
0.0
  9
$THICKNESS
 40
0.0
  9
$LIMCHECK
 70
     0
  9
$CHAMFERA
 40
0.0
  9
$CHAMFERB
 40
0.0
  9
$CHAMFERC
 40
0.0
  9
$CHAMFERD
 40
0.0
  9
$SKPOLY
 70
     0
  9
$TDCREATE
 40
2447893.375
  9
$TDUCREATE
 40
0.0
  9
$TDUPDATE
 40
2457233.556737361
  9
$TDUUPDATE
 40
2457233.181737361
  9
$TDINDWG
 40
0.0109049421
  9
$TDUSRTIMER
 40
2457233.17607956
  9
$USRTIMER
 70
     1
  9
$ANGBASE
 50
0.0
  9
$ANGDIR
 70
     0
  9
$PDMODE
 70
     1
  9
$PDSIZE
 40
-2.0
  9
$PLINEWID
 40
0.0
  9
$SPLFRAME
 70
     0
  9
$SPLINETYPE
 70
     6
  9
$SPLINESEGS
 70
     8
  9
$HANDSEED
  5
1D6
  9
$SURFTAB1
 70
     6
  9
$SURFTAB2
 70
     6
  9
$SURFTYPE
 70
     6
  9
$SURFU
 70
     6
  9
$SURFV
 70
     6
  9
$UCSBASE
  2

  9
$UCSNAME
  2

  9
$UCSORG
 10
0.0
 20
0.0
 30
0.0
  9
$UCSXDIR
 10
1.0
 20
0.0
 30
0.0
  9
$UCSYDIR
 10
0.0
 20
1.0
 30
0.0
  9
$UCSORTHOREF
  2

  9
$UCSORTHOVIEW
 70
     0
  9
$UCSORGTOP
 10
0.0
 20
0.0
 30
0.0
  9
$UCSORGBOTTOM
 10
0.0
 20
0.0
 30
0.0
  9
$UCSORGLEFT
 10
0.0
 20
0.0
 30
0.0
  9
$UCSORGRIGHT
 10
0.0
 20
0.0
 30
0.0
  9
$UCSORGFRONT
 10
0.0
 20
0.0
 30
0.0
  9
$UCSORGBACK
 10
0.0
 20
0.0
 30
0.0
  9
$PUCSBASE
  2

  9
$PUCSNAME
  2

  9
$PUCSORG
 10
0.0
 20
0.0
 30
0.0
  9
$PUCSXDIR
 10
1.0
 20
0.0
 30
0.0
  9
$PUCSYDIR
 10
0.0
 20
1.0
 30
0.0
  9
$PUCSORTHOREF
  2

  9
$PUCSORTHOVIEW
 70
     0
  9
$PUCSORGTOP
 10
0.0
 20
0.0
 30
0.0
  9
$PUCSORGBOTTOM
 10
0.0
 20
0.0
 30
0.0
  9
$PUCSORGLEFT
 10
0.0
 20
0.0
 30
0.0
  9
$PUCSORGRIGHT
 10
0.0
 20
0.0
 30
0.0
  9
$PUCSORGFRONT
 10
0.0
 20
0.0
 30
0.0
  9
$PUCSORGBACK
 10
0.0
 20
0.0
 30
0.0
  9
$USERI1
 70
     0
  9
$USERI2
 70
     0
  9
$USERI3
 70
     0
  9
$USERI4
 70
     0
  9
$USERI5
 70
     0
  9
$USERR1
 40
0.0
  9
$USERR2
 40
0.0
  9
$USERR3
 40
0.0
  9
$USERR4
 40
0.0
  9
$USERR5
 40
0.0
  9
$WORLDVIEW
 70
     1
  9
$SHADEDGE
 70
     3
  9
$SHADEDIF
 70
    70
  9
$TILEMODE
 70
     1
  9
$MAXACTVP
 70
    64
  9
$PINSBASE
 10
0.0
 20
0.0
 30
0.0
  9
$PLIMCHECK
 70
     0
  9
$PEXTMIN
 10
1.000000000000000E+20
 20
1.000000000000000E+20
 30
1.000000000000000E+20
  9
$PEXTMAX
 10
-1.000000000000000E+20
 20
-1.000000000000000E+20
 30
-1.000000000000000E+20
  9
$PLIMMIN
 10
0.0
 20
0.0
  9
$PLIMMAX
 10
0.0
 20
0.0
  9
$UNITMODE
 70
     0
  9
$VISRETAIN
 70
     0
  9
$PLINEGEN
 70
     1
  9
$PSLTSCALE
 70
     0
  9
$TREEDEPTH
 70
  3020
  9
$CMLSTYLE
  2
Standard
  9
$CMLJUST
 70
     0
  9
$CMLSCALE
 40
1.0
  9
$PROXYGRAPHICS
 70
     0
  9
$MEASUREMENT
 70
     1
  9
$CELWEIGHT
370
     0
  9
$ENDCAPS
280
     0
  9
$JOINSTYLE
280
     0
  9
$LWDISPLAY
290
     1
  9
$INSUNITS
 70
     4
  9
$HYPERLINKBASE
  1

  9
$STYLESHEET
  1

  9
$XEDIT
290
     1
  9
$CEPSNTYPE
380
     0
  9
$PSTYLEMODE
290
     1
  9
$FINGERPRINTGUID
  2

  9
$VERSIONGUID
  2

  9
$EXTNAMES
290
     1
  9
$PSVPSCALE
 40
0.0
  9
$OLESTARTUP
290
     0
  9
$SORTENTS
280
   127
  9
$INDEXCTL
280
     0
  9
$HIDETEXT
280
     1
  9
$XCLIPFRAME
290
     0
  9
$HALOGAP
280
     0
  9
$OBSCOLOR
 70
   257
  9
$OBSLTYPE
280
     0
  9
$INTERSECTIONDISPLAY
280
     0
  9
$INTERSECTIONCOLOR
 70
   257
  9
$DIMASSOC
280
     2
  9
$PROJECTNAME
  1

  9
$CAMERADISPLAY
290
     0
  9
$LENSLENGTH
 40
50.0
  9
$CAMERAHEIGHT
 40
0.0
  9
$STEPSPERSEC
 40
2.0
  9
$STEPSIZE
 40
6.0
  9
$3DDWFPREC
 40
2.0
  9
$PSOLWIDTH
 40
0.25
  9
$PSOLHEIGHT
 40
4.0
  9
$LOFTANG1
 40
1.570796326794897
  9
$LOFTANG2
 40
1.570796326794897
  9
$LOFTMAG1
 40
0.0
  9
$LOFTMAG2
 40
0.0
  9
$LOFTPARAM
 70
     7
  9
$LOFTNORMALS
280
     1
  9
$LATITUDE
 40
37.795
  9
$LONGITUDE
 40
-122.394
  9
$NORTHDIRECTION
 40
0.0
  9
$TIMEZONE
 70
 -8000
  9
$LIGHTGLYPHDISPLAY
280
     1
  9
$TILEMODELIGHTSYNCH
280
     1
  9
$SOLIDHIST
280
     1
  9
$SHOWHIST
280
     1
  9
$DWFFRAME
280
     2
  9
$DGNFRAME
280
     2
  9
$REALWORLDSCALE
290
     1
  9
$INTERFERECOLOR
 62
   256
  9
$CSHADOW
280
     0
  9
$SHADOWPLANELOCATION
 40
0.0
  0
ENDSEC
  0
SECTION
  2
CLASSES
  0
CLASS
  1
LWPOLYLINE
  2
AcDbPolyline
  3
ObjectDBX Classes
 90
        0
 91
        1
280
     0
281
     1
  0
CLASS
  1
IMAGE
  2
AcDbRasterImage
  3
ISM
 90
      127
 91
        7
280
     0
281
     1
  0
CLASS
  1
OLE2FRAME
  2
AcDbOle2Frame
  3
ObjectDBX Classes
 90
        0
 91
        1
280
     0
281
     1
  0
CLASS
  1
HATCH
  2
AcDbHatch
  3
ObjectDBX Classes
 90
        0
 91
        1
280
     0
281
     1
  0
CLASS
  1
DICTIONARYVAR
  2
AcDbDictionaryVar
  3
ObjectDBX Classes
 90
        0
 91
        6
280
     0
281
     0
  0
CLASS
  1
RASTERVARIABLES
  2
AcDbRasterVariables
  3
ISM
 90
        0
 91
        9
280
     0
281
     0
  0
CLASS
  1
IMAGEDEF
  2
AcDbRasterImageDef
  3
ISM
 90
        0
 91
        6
280
     0
281
     0
  0
CLASS
  1
IMAGEDEF_REACTOR
  2
AcDbRasterImageDefReactor
  3
ISM
 90
        1
 91
        6
280
     0
281
     0
  0
CLASS
  1
IDBUFFER
  2
AcDbIdBuffer
  3
ObjectDBX Classes
 90
        0
 91
        6
280
     0
281
     0
  0
CLASS
  1
SPATIAL_FILTER
  2
AcDbSpatialFilter
  3
ObjectDBX Classes
 90
        0
 91
        6
280
     0
281
     0
  0
CLASS
  1
XRECORD
  2
AcDbXrecord
  3
ObjectDBX Classes
 90
        0
 91
        1
280
     0
281
     0
  0
CLASS
  1
SORTENTSTABLE
  2
AcDbSortentsTable
  3
ObjectDBX Classes
 90
        0
 91
        6
280
     0
281
     0
  0
CLASS
  1
LAYER_INDEX
  2
AcDbLayerIndex
  3
ObjectDBX Classes
 90
        0
 91
        6
280
     0
281
     0
  0
CLASS
  1
SPATIAL_INDEX
  2
AcDbSpatialIndex
  3
AutoCAD 2000
 90
        0
 91
        6
280
     0
281
     0
  0
CLASS
  1
OBJECT_PTR
  2
CAseDLPNTableRecord
  3
ASE-LPNTableRecord
 90
        1
 91
        6
280
     0
281
     0
  0
CLASS
  1
LAYOUT
  2
AcDbLayout
  3
ObjectDBX Classes
 90
        0
 91
        1
280
     0
281
     0
  0
CLASS
  1
PLOTSETTINGS
  2
AcDbPlotSettings
  3
ObjectDBX Classes
 90
        0
 91
        6
280
     0
281
     0
  0
CLASS
  1
ACDBDICTIONARYWDFLT
  2
AcDbDictionaryWithDefault
  3
ObjectDBX Classes
 90
        0
 91
        9
280
     0
281
     0
  0
CLASS
  1
ACDBPLACEHOLDER
  2
AcDbPlaceHolder
  3
ObjectDBX Classes
 90
        0
 91
        1
280
     0
281
     0
  0
CLASS
  1
SCALE
  2
AcDbScale
  3
ObjectDBX Classes
 90
     1153
 91
        9
280
     0
281
     0
  0
CLASS
  1
VISUALSTYLE
  2
AcDbVisualStyle
  3
ObjectDBX Classes
 90
     4095
 91
        9
280
     0
281
     0
  0
CLASS
  1
MATERIAL
  2
AcDbMaterial
  3
ObjectDBX Classes
 90
     1153
 91
        9
280
     0
281
     0
  0
CLASS
  1
TABLESTYLE
  2
AcDbTableStyle
  3
ObjectDBX Classes
 90
     4095
 91
        9
280
     0
281
     0
  0
CLASS
  1
SUN
  2
AcDbSun
  3
SCENEOE
 90
     1153
 91
        9
280
     0
281
     0
  0
CLASS
  1
DIMASSOC
  2
AcDbDimAssoc
  3
"AcDbDimAssoc|Product Desc:     AcDim ARX App For Dimension|Company:          Autodesk, Inc.|WEB Address:      www.autodesk.com"
 90
        0
 91
        6
280
     0
281
     0
  0
CLASS
  1
CELLSTYLEMAP
  2
AcDbCellStyleMap
  3
ObjectDBX Classes
 90
     1152
 91
        6
280
     0
281
     0
  0
ENDSEC
  0
SECTION
  2
TABLES
  0
TABLE
  2
VPORT
  5
7
330
0
100
AcDbSymbolTable
 70
     1
  0
VPORT
  5
15
330
7
100
AcDbSymbolTableRecord
100
AcDbViewportTableRecord
  2
*ACTIVE
 70
     0
 10
0.0
 20
0.0
 11
1.0
 21
1.0
 12
479.5449011999908
 22
200.6676030653336
 13
0.0
 23
0.0
 14
1.0
 24
1.0
 15
0.0
 25
0.0
 16
0.0
 26
0.0
 36
1.0
 17
0.0
 27
0.0
 37
0.0
 40
759.607215657794
 41
2.184105960264901
 42
50.0
 43
0.0
 44
0.0
 50
0.0
 51
0.0
 71
    16
 72
  2000
 73
     1
 74
     1
 75
     0
 76
     0
 77
     0
 78
     0
281
     0
 65
     0
110
0.0
120
0.0
130
0.0
111
1.0
121
0.0
131
0.0
112
0.0
122
1.0
132
0.0
 79
     0
146
0.0
348
192
 60
     3
 61
     5
292
     1
282
     1
141
0.0
142
0.0
 63
   250
361
1AC
  0
ENDTAB
  0
TABLE
  2
LTYPE
  5
4
330
0
100
AcDbSymbolTable
 70
    11
  0
LTYPE
  5
11
330
4
100
AcDbSymbolTableRecord
100
AcDbLinetypeTableRecord
  2
ByBlock
 70
     0
  3

 72
    65
 73
     0
 40
0.0
  0
LTYPE
  5
12
330
4
100
AcDbSymbolTableRecord
100
AcDbLinetypeTableRecord
  2
ByLayer
 70
     0
  3

 72
    65
 73
     0
 40
0.0
  0
LTYPE
  5
13
330
4
100
AcDbSymbolTableRecord
100
AcDbLinetypeTableRecord
  2
Continuous
 70
     0
  3
Solid line
 72
    65
 73
     0
 40
0.0
  0
LTYPE
  5
2E
330
4
100
AcDbSymbolTableRecord
100
AcDbLinetypeTableRecord
  2
STYLE_01
 70
     0
  3

 72
    65
 73
     4
 40
0.2507334515368015
 49
0.1567110542731474
 74
     0
 49
-0.0313407990878847
 74
     0
 49
0.0313407990878847
 74
     0
 49
-0.0313407990878847
 74
     0
  0
LTYPE
  5
2F
330
4
100
AcDbSymbolTableRecord
100
AcDbLinetypeTableRecord
  2
STYLE_02
 70
     0
  3

 72
    65
 73
     4
 40
0.2507334515368015
 49
0.1567110542731474
 74
     0
 49
-0.0313407990878847
 74
     0
 49
0.0313407990878847
 74
     0
 49
-0.0313407990878847
 74
     0
  0
LTYPE
  5
30
330
4
100
AcDbSymbolTableRecord
100
AcDbLinetypeTableRecord
  2
STYLE_03
 70
     0
  3

 72
    65
 73
     2
 40
0.5
 49
0.416656
 74
     0
 49
-0.083344
 74
     0
  0
LTYPE
  5
31
330
4
100
AcDbSymbolTableRecord
100
AcDbLinetypeTableRecord
  2
STYLE_04
 70
     0
  3

 72
    65
 73
     2
 40
0.611084
 49
0.52777
 74
     0
 49
-0.083314
 74
     0
  0
LTYPE
  5
32
330
4
100
AcDbSymbolTableRecord
100
AcDbLinetypeTableRecord
  2
STYLE_05
 70
     0
  3

 72
    65
 73
     2
 40
0.083312
 49
0.02777
 74
     0
 49
-0.055542
 74
     0
  0
LTYPE
  5
33
330
4
100
AcDbSymbolTableRecord
100
AcDbLinetypeTableRecord
  2
STYLE_06
 70
     0
  3

 72
    65
 73
     4
 40
0.416656
 49
0.25
 74
     0
 49
-0.083312
 74
     0
 49
0.027772
 74
     0
 49
-0.055572
 74
     0
  0
LTYPE
  5
34
330
4
100
AcDbSymbolTableRecord
100
AcDbLinetypeTableRecord
  2
STYLE_07
 70
     0
  3

 72
    65
 73
     6
 40
0.75
 49
0.25
 74
     0
 49
-0.083312
 74
     0
 49
0.2500000000000001
 74
     0
 49
-0.083344
 74
     0
 49
0.027772
 74
     0
 49
-0.055572
 74
     0
  0
LTYPE
  5
35
330
4
100
AcDbSymbolTableRecord
100
AcDbLinetypeTableRecord
  2
STYLE_08
 70
     0
  3

 72
    65
 73
     6
 40
0.5
 49
0.25
 74
     0
 49
-0.083312
 74
     0
 49
0.027772
 74
     0
 49
-0.055572
 74
     0
 49
0.027772
 74
     0
 49
-0.055572
 74
     0
  0
LTYPE
  5
36
330
4
100
AcDbSymbolTableRecord
100
AcDbLinetypeTableRecord
  2
STYLE_09
 70
     0
  3

 72
    65
 73
     4
 40
2.0
 49
1.5
 74
     0
 49
-0.1111139999999999
 74
     0
 49
0.2777720000000001
 74
     0
 49
-0.1111139999999999
 74
     0
  0
LTYPE
  5
37
330
4
100
AcDbSymbolTableRecord
100
AcDbLinetypeTableRecord
  2
STYLE_10
 70
     0
  3

 72
    65
 73
     6
 40
2.375
 49
1.5
 74
     0
 49
-0.1111139999999999
 74
     0
 49
0.2777720000000001
 74
     0
 49
-0.1111139999999999
 74
     0
 49
0.25
 74
     0
 49
-0.125
 74
     0
  0
ENDTAB
  0
TABLE
  2
LAYER
  5
2
102
{ACAD_XDICTIONARY
360
1CD
102
}
330
0
100
AcDbSymbolTable
 70
     5
  0
LAYER
  5
14
330
2
100
AcDbSymbolTableRecord
100
AcDbLayerTableRecord
  2
0
 70
     0
 62
     7
  6
Continuous
370
    -3
390
1D
347
1A9
  0
LAYER
  5
38
330
2
100
AcDbSymbolTableRecord
100
AcDbLayerTableRecord
  2
Defpoints
 70
     0
 62
     7
  6
Continuous
290
     0
370
    -3
390
1D
347
1A9
  0
LAYER
  5
39
330
2
100
AcDbSymbolTableRecord
100
AcDbLayerTableRecord
  2
template
 70
     0
 62
     7
  6
Continuous
370
    13
390
1D
347
1A9
  0
LAYER
  5
3A
330
2
100
AcDbSymbolTableRecord
100
AcDbLayerTableRecord
  2
notes
 70
     0
 62
     7
  6
Continuous
370
    13
390
1D
347
1A9
  0
LAYER
  5
3B
330
2
100
AcDbSymbolTableRecord
100
AcDbLayerTableRecord
  2
AWK73-9903
 70
     0
 62
     7
  6
Continuous
370
    20
390
1D
347
1A9
  0
ENDTAB
  0
TABLE
  2
STYLE
  5
3
330
0
100
AcDbSymbolTable
 70
     2
  0
STYLE
  5
17
330
3
100
AcDbSymbolTableRecord
100
AcDbTextStyleTableRecord
  2
Standard
 70
     0
 40
0.0
 41
1.0
 50
0.0
 71
     0
 42
0.0
  3
txt
  4
BIGFONT.SHX
  0
STYLE
  5
2D
330
3
100
AcDbSymbolTableRecord
100
AcDbTextStyleTableRecord
  2
ＭＳ ゴシック
 70
     0
 40
0.0
 41
1.0
 50
0.0
 71
     0
 42
0.0
  3
msgothic.ttc
  4
ＭＳ ゴシック
1001
ACAD
1000
ＭＳ ゴシック
1071
        0
  0
ENDTAB
  0
TABLE
  2
VIEW
  5
5
330
0
100
AcDbSymbolTable
 70
     0
  0
ENDTAB
  0
TABLE
  2
UCS
  5
6
330
0
100
AcDbSymbolTable
 70
     0
  0
ENDTAB
  0
TABLE
  2
APPID
  5
8
330
0
100
AcDbSymbolTable
 70
     1
  0
APPID
  5
16
330
8
100
AcDbSymbolTableRecord
100
AcDbRegAppTableRecord
  2
ACAD
 70
     0
  0
ENDTAB
  0
TABLE
  2
DIMSTYLE
  5
9
330
0
100
AcDbSymbolTable
 70
     3
100
AcDbDimStyleTable
  0
DIMSTYLE
105
18
330
9
100
AcDbSymbolTableRecord
100
AcDbDimStyleTableRecord
  2
Standard
 70
     0
178
     0
340
17
  0
DIMSTYLE
105
44
330
9
100
AcDbSymbolTableRecord
100
AcDbDimStyleTableRecord
  2
tfrom線あり
 70
     0
  3
<>
  4
[]
 41
1.9998779296875
 42
12.5
 43
0.9999999999999999
 44
0.0
 73
     0
 74
     0
 77
     1
 78
    11
140
12.21630859375
141
0.0
143
0.0393700787401575
147
0.4999999999999999
171
     3
174
     1
178
     0
179
     2
271
     1
272
     1
273
     4
276
     2
284
    11
285
    15
286
    15
289
     0
340
2D
341
3C
342
3C
  0
DIMSTYLE
105
49
330
9
100
AcDbSymbolTableRecord
100
AcDbDimStyleTableRecord
  2
JIS
 70
     0
  3
<>
  4
[]
 41
15.875
 42
0.0
 43
6.99999999999994
 44
9.9999999999981
 73
     0
 74
     0
 77
     1
 78
    11
140
12.21630859375
141
0.0
143
0.0393700787401575
147
1.00000000000108
171
     3
174
     1
178
     0
179
     2
271
     1
272
     1
273
     4
276
     2
284
    11
285
    15
286
    15
289
     0
340
2D
341
45
342
45
  0
ENDTAB
  0
TABLE
  2
BLOCK_RECORD
  5
1
330
0
100
AcDbSymbolTable
 70
    13
  0
BLOCK_RECORD
  5
A
330
1
100
AcDbSymbolTableRecord
100
AcDbBlockTableRecord
  2
*MODEL_SPACE
340
20
 70
     0
280
     1
281
     0
  0
BLOCK_RECORD
  5
B
330
1
100
AcDbSymbolTableRecord
100
AcDbBlockTableRecord
  2
*PAPER_SPACE
340
21
 70
     0
280
     1
281
     0
  0
BLOCK_RECORD
  5
3C
330
1
100
AcDbSymbolTableRecord
100
AcDbBlockTableRecord
  2
_DOT
340
0
102
{BLKREFS
331
56
331
57
331
71
331
72
331
7E
331
7F
331
0
331
0
331
98
331
99
331
A5
331
A6
331
B2
331
B3
331
0
331
0
331
176
331
177
331
0
331
0
331
8B
331
0
331
8C
331
0
331
C0
331
BF
102
}
 70
     0
280
     1
281
     0
  0
BLOCK_RECORD
  5
45
330
1
100
AcDbSymbolTableRecord
100
AcDbBlockTableRecord
  2
VW_FILLEDARROW
340
0
 70
     0
280
     1
281
     0
  0
BLOCK_RECORD
  5
23
330
1
100
AcDbSymbolTableRecord
100
AcDbBlockTableRecord
  2
グループ
340
0
102
{BLKREFS
331
D8
102
}
 70
     0
280
     1
281
     0
  0
BLOCK_RECORD
  5
24
330
1
100
AcDbSymbolTableRecord
100
AcDbBlockTableRecord
  2
*D3
340
0
 70
     0
280
     1
281
     0
  0
BLOCK_RECORD
  5
25
330
1
100
AcDbSymbolTableRecord
100
AcDbBlockTableRecord
  2
*D4
340
0
 70
     0
280
     1
281
     0
  0
BLOCK_RECORD
  5
26
330
1
100
AcDbSymbolTableRecord
100
AcDbBlockTableRecord
  2
*D5
340
0
 70
     0
280
     1
281
     0
  0
BLOCK_RECORD
  5
27
330
1
100
AcDbSymbolTableRecord
100
AcDbBlockTableRecord
  2
*D6
340
0
 70
     0
280
     1
281
     0
  0
BLOCK_RECORD
  5
28
330
1
100
AcDbSymbolTableRecord
100
AcDbBlockTableRecord
  2
*D7
340
0
 70
     0
280
     1
281
     0
  0
BLOCK_RECORD
  5
29
330
1
100
AcDbSymbolTableRecord
100
AcDbBlockTableRecord
  2
*D8
340
0
 70
     0
280
     1
281
     0
  0
BLOCK_RECORD
  5
2A
330
1
100
AcDbSymbolTableRecord
100
AcDbBlockTableRecord
  2
*D9
340
0
 70
     0
280
     1
281
     0
  0
BLOCK_RECORD
  5
2B
330
1
100
AcDbSymbolTableRecord
100
AcDbBlockTableRecord
  2
*D10
340
0
 70
     0
280
     1
281
     0
  0
BLOCK_RECORD
  5
2C
330
1
100
AcDbSymbolTableRecord
100
AcDbBlockTableRecord
  2
*D11
340
0
 70
     0
280
     1
281
     0
  0
BLOCK_RECORD
  5
170
330
1
100
AcDbSymbolTableRecord
100
AcDbBlockTableRecord
  2
*D12
340
0
 70
     0
280
     1
281
     0
  0
ENDTAB
  0
ENDSEC
  0
SECTION
  2
BLOCKS
  0
BLOCK
  5
D
330
A
100
AcDbEntity
  8
0
390
1D
100
AcDbBlockBegin
  2
*MODEL_SPACE
 70
     0
 10
0.0
 20
0.0
 30
0.0
  3
*MODEL_SPACE
  1
*MODEL_SPACE
  0
ENDBLK
  5
E
330
A
100
AcDbEntity
  8
0
390
1D
100
AcDbBlockEnd
  0
BLOCK
  5
F
330
B
100
AcDbEntity
 67
     1
  8
0
390
1D
100
AcDbBlockBegin
  2
*PAPER_SPACE
 70
     0
 10
0.0
 20
0.0
 30
0.0
  3
*PAPER_SPACE
  1
*PAPER_SPACE
  0
ENDBLK
  5
10
330
B
100
AcDbEntity
 67
     1
  8
0
390
1D
100
AcDbBlockEnd
  0
BLOCK
  5
3D
330
3C
100
AcDbEntity
  8
0
390
1D
100
AcDbBlockBegin
  2
_DOT
 70
     0
 10
0.0
 20
0.0
 30
0.0
  3
_DOT
  1
_DOT
  0
POLYLINE
  5
3E
330
3C
100
AcDbEntity
  8
0
  6
ByBlock
 62
     0
370
    -2
390
1D
100
AcDb2dPolyline
 66
     1
 10
0.0
 20
0.0
 30
0.0
 70
     1
 40
0.5
 41
0.5
  0
VERTEX
  5
3F
330
3E
100
AcDbEntity
  8
0
  6
ByBlock
 62
     0
370
    -2
390
1D
100
AcDbVertex
100
AcDb2dVertex
 10
-0.25
 20
0.0
 30
0.0
 42
1.0
  0
VERTEX
  5
40
330
3E
100
AcDbEntity
  8
0
  6
ByBlock
 62
     0
370
    -2
390
1D
100
AcDbVertex
100
AcDb2dVertex
 10
0.25
 20
0.0
 30
0.0
 42
1.0
  0
SEQEND
  5
41
330
3E
100
AcDbEntity
  8
0
390
1D
  0
LINE
  5
42
330
3C
100
AcDbEntity
  8
0
  6
ByBlock
 62
     0
370
    -2
390
1D
100
AcDbLine
 10
-0.5
 20
0.0
 30
0.0
 11
-1.0
 21
0.0
 31
0.0
  0
ENDBLK
  5
43
330
3C
100
AcDbEntity
  8
0
390
1D
100
AcDbBlockEnd
  0
BLOCK
  5
46
330
45
100
AcDbEntity
  8
0
  6
ByBlock
 62
     0
370
    -2
390
1D
100
AcDbBlockBegin
  2
VW_FILLEDARROW
 70
     0
 10
0.0
 20
0.0
 30
0.0
  3
VW_FILLEDARROW
  1
VW_FILLEDARROW
  0
SOLID
  5
47
330
45
100
AcDbEntity
  8
0
 62
     0
370
    -2
390
1D
100
AcDbTrace
 10
0.0
 20
0.0
 30
0.0
 11
-0.9999389648437499
 21
-0.2679328381102956
 31
0.0
 12
-0.9999389648437499
 22
0.2679328381102958
 32
0.0
 13
-0.9999389648437499
 23
0.2679328381102958
 33
0.0
  0
ENDBLK
  5
48
330
45
100
AcDbEntity
  8
0
390
1D
100
AcDbBlockEnd
  0
BLOCK
  5
4A
330
23
100
AcDbEntity
  8
template
390
1D
100
AcDbBlockBegin
  2
グループ
 70
     0
 10
0.0
 20
0.0
 30
0.0
  3
グループ
  1
グループ
  0
LWPOLYLINE
  5
4B
330
23
100
AcDbEntity
  8
0
  6
Continuous
 62
     7
370
    15
390
1D
100
AcDbPolyline
 90
        8
 70
   129
 43
0.0
 10
-4899.968889373907
 20
-4440.537542831155
 10
-4899.968889373907
 20
-4443.536237177943
 10
-4904.719487832908
 20
-4443.536237177943
 10
-4904.719487832908
 20
-4455.761718809697
 10
-4908.8971764638
 20
-4455.761718809697
 10
-4908.8971764638
 20
-4443.536237177943
 10
-4913.563654936955
 20
-4443.536237177943
 10
-4913.563654936955
 20
-4440.537542831155
  0
LWPOLYLINE
  5
4C
330
23
100
AcDbEntity
  8
0
  6
Continuous
 62
     7
370
    15
390
1D
100
AcDbPolyline
 90
      101
 70
   128
 43
0.0
 10
-4893.604743458628
 20
-4440.901667077623
 10
-4893.597068444243
 20
-4440.899486699283
 42
-0.0222221607819417
 10
-4893.4520661559
 20
-4440.865174466659
 10
-4893.444169273901
 20
-4440.86367275511
 42
-0.0146883565616513
 10
-4893.312817921291
 20
-4440.842671161636
 42
-0.0127458844199064
 10
-4893.180498437725
 20
-4440.828902677599
 10
-4893.149270898559
 20
-4440.826455966305
 42
-0.0198099018571903
 10
-4892.953846343823
 20
-4440.818913387607
 10
-4892.927940609098
 20
-4440.81894027544
 42
-0.0147617382777972
 10
-4892.680628878618
 20
-4440.826500288062
 10
-4892.644283151167
 20
-4440.828686591506
 42
-0.0162624548998574
 10
-4892.449206336441
 20
-4440.846803029141
 10
-4892.38844014082
 20
-4440.854446308638
 42
-0.0080020874643577
 10
-4892.315650625265
 20
-4440.864787732274
 10
-4892.296490889963
 20
-4440.86782337118
 42
-0.00538219296405
 10
-4892.262248837311
 20
-4440.87362713309
 10
-4892.62545168691
 20
-4441.964091360947
 42
0.0108667757335595
 10
-4892.659110221972
 20
-4441.957497803338
 10
-4892.677844233571
 20
-4441.95424893204
 42
0.0170663203278057
 10
-4892.74945262701
 20
-4441.944334133396
 10
-4892.78339029337
 20
-4441.940810548101
 42
0.0220162375282073
 10
-4892.923579997308
 20
-4441.932469367715
 10
-4892.962507780818
 20
-4441.931869684082
 42
0.0282606915755281
 10
-4893.130325942613
 20
-4441.938771322566
 10
-4893.152282579488
 20
-4441.940921317567
 42
0.016967721363385
 10
-4893.275244826978
 20
-4441.957189842344
 42
0.0190576269849892
 10
-4893.396698808277
 20
-4441.982263278399
 10
-4893.399828402324
 20
-4441.983034765452
 42
0.0213685642809869
 10
-4893.525020644557
 20
-4442.019634908002
 10
-4893.52776559202
 20
-4442.020566406034
 42
0.0237595297581516
 10
-4893.654513034461
 20
-4442.070408666978
 10
-4893.657064071484
 20
-4442.071554554721
 42
0.0261857468831082
 10
-4893.783149459598
 20
-4442.136322723408
 10
-4893.788362554146
 20
-4442.139355460645
 42
0.027255306203696
 10
-4893.906577441762
 20
-4442.217041563616
 10
-4893.923958948519
 20
-4442.229872137663
 42
0.0325996893184641
 10
-4893.999036620343
 20
-4442.293246074147
 10
-4894.01089133491
 20
-4442.304655088408
 42
0.0138050960693188
 10
-4894.056832913009
 20
-4442.351379919179
 42
0.0125280103844298
 10
-4894.100254179416
 20
-4442.400461582467
 10
-4894.11209440188
 20
-4442.414540831573
 42
0.020521802476918
 10
-4894.174644439635
 20
-4442.495437488685
 10
-4894.185877609881
 20
-4442.5112673536
 42
0.0163110129591359
 10
-4894.263732799506
 20
-4442.628932571136
 10
-4894.265094747532
 20
-4442.631144452129
 42
0.0131897341935303
 10
-4894.338495007997
 20
-4442.757710498332
 10
-4894.339345055669
 20
-4442.759269617878
 42
0.0107895576017142
 10
-4894.408233406768
 20
-4442.892377222684
 10
-4894.408599851537
 20
-4442.893124339019
 42
0.0091371507202549
 10
-4894.47283982587
 20
-4443.030386937918
 10
-4894.487712641566
 20
-4443.063740191478
 42
0.013541832636018
 10
-4894.573569611107
 20
-4443.271209084126
 10
-4894.590372015317
 20
-4443.315142155249
 42
0.0092834542419223
 10
-4894.675986545279
 20
-4443.552091404406
 10
-4894.688795109148
 20
-4443.589711939333
 42
0.0054261043622418
 10
-4894.742614183284
 20
-4443.753593925835
 10
-4894.751377176424
 20
-4443.781288007113
 42
0.0008225090854303
 10
-4894.785712202288
 20
-4443.890422386025
 10
-4895.278056768255
 20
-4445.402868032653
 10
-4893.661744848217
 20
-4445.402868032653
 10
-4893.913841063144
 20
-4446.355107181829
 10
-4895.541869204136
 20
-4446.355107181829
 10
-4898.456443720313
 20
-4455.761718714832
 10
-4899.368992525468
 20
-4455.761718714832
 10
-4896.451653507717
 20
-4446.355107181829
 10
-4897.654211692238
 20
-4446.355107181829
 10
-4897.402115477311
 20
-4445.402868032653
 10
-4896.187841071836
 20
-4445.402868032653
 10
-4895.757763612742
 20
-4444.084661532303
 42
-0.0005863560597009
 10
-4895.739396273548
 20
-4444.026248321866
 10
-4895.701352356809
 20
-4443.905752172465
 42
-0.0087522378940111
 10
-4895.601618285077
 20
-4443.608114128881
 10
-4895.555486147377
 20
-4443.478044044642
 42
-0.0077400953833773
 10
-4895.426519317809
 20
-4443.131541705861
 10
-4895.41863683201
 20
-4443.111326264144
 42
-0.0082369946330029
 10
-4895.295094596713
 20
-4442.80928673107
 42
-0.0085725238371047
 10
-4895.161471548714
 20
-4442.51157371143
 10
-4895.110656748205
 20
-4442.403363160426
 42
-0.0168109410597544
 10
-4894.967184533843
 20
-4442.122759397382
 10
-4894.90426283852
 20
-4442.009277380716
 42
-0.0007817726854831
 10
-4894.877120663586
 20
-4441.960505258368
 10
-4894.877056510558
 20
-4441.960390403966
 42
-0.0036626142253389
 10
-4894.849612578566
 20
-4441.912091464015
 42
-0.0080221150637267
 10
-4894.821050450863
 20
-4441.864451846639
 10
-4894.805700475183
 20
-4441.839756372077
 42
-0.0202139325528674
 10
-4894.741872605274
 20
-4441.74576557173
 10
-4894.714838872686
 20
-4441.709226139616
 42
-0.0249323791792055
 10
-4894.585257475824
 20
-4441.551203518537
 10
-4894.573187568762
 20
-4441.537896382083
 42
-0.0242132121558457
 10
-4894.403347197999
 20
-4441.367954638989
 10
-4894.379391411616
 20
-4441.346200070888
 42
-0.0251017527858479
 10
-4894.237400561296
 20
-4441.229703698005
 10
-4894.236677822886
 20
-4441.229169069215
 42
-0.0130868069021396
 10
-4894.087547497909
 20
-4441.124778834945
 10
-4894.086766588339
 20
-4441.124262114808
 42
-0.0290329526391264
 10
-4893.931211017642
 20
-4441.033849363993
 10
-4893.916288236652
 20
-4441.026298172575
 42
-0.0160250190062339
 10
-4893.783336029766
 20
-4440.964290117467
 42
-0.0267600374785292
 10
-4893.645697991029
 20
-4440.913915957191
 10
-4893.632330031272
 20
-4440.90981967778
 42
-0.0049981587789819
 10
-4893.604743458628
 20
-4440.901667077623
 42
-0.0049981587789819
  0
LWPOLYLINE
  5
4D
330
23
100
AcDbEntity
  8
0
  6
Continuous
 62
     7
370
    15
390
1D
100
AcDbPolyline
 90
      118
 70
   128
 43
0.0
 10
-4883.697559676405
 20
-4445.439859696567
 10
-4882.759998714155
 20
-4445.439859696567
 10
-4883.179018166955
 20
-4446.780642959767
 42
-0.001058722913356
 10
-4883.163290259125
 20
-4446.762190693036
 10
-4883.134193213853
 20
-4446.728199565001
 42
-0.0071874740430736
 10
-4883.059005604819
 20
-4446.642879219004
 10
-4882.988144218172
 20
-4446.564761148331
 42
-0.0148118053520625
 10
-4882.763079571813
 20
-4446.330954225321
 10
-4882.719468404361
 20
-4446.288255564892
 42
-0.0086273358691213
 10
-4882.551694003861
 20
-4446.129567747888
 10
-4882.529777145747
 20
-4446.109542925721
 42
-0.0103138323112219
 10
-4882.400765294632
 20
-4445.996461357054
 10
-4882.377878091446
 20
-4445.977220333405
 42
-0.006020674859452
 10
-4882.291454059412
 20
-4445.906323008046
 10
-4882.290438493974
 20
-4445.905510155234
 42
-0.0067069027330742
 10
-4882.204292086638
 20
-4445.838434838332
 10
-4882.203017703667
 20
-4445.837469753388
 42
-0.0076184352020135
 10
-4882.117565070739
 20
-4445.774782315773
 42
-0.0089652861710189
 10
-4882.030084589374
 20
-4445.714965685608
 10
-4882.011908729297
 20
-4445.703010078863
 42
-0.0156916245956034
 10
-4881.91392898072
 20
-4445.642878835628
 42
-0.0023299011098731
 10
-4881.813797958766
 20
-4445.586289865879
 10
-4881.80610589254
 20
-4445.581989868326
 42
-0.0107669341488824
 10
-4881.688987479986
 20
-4445.519789801649
 10
-4881.677855079452
 20
-4445.514181426675
 42
-0.0078058045871038
 10
-4881.536060020497
 20
-4445.445500698866
 10
-4881.531106476621
 20
-4445.443196134922
 42
-0.018182933046162
 10
-4881.375951774303
 20
-4445.377764264371
 10
-4881.348924053033
 20
-4445.367506704403
 42
-0.0208411536029264
 10
-4881.174381569304
 20
-4445.309461473156
 10
-4881.167203519248
 20
-4445.307402250682
 42
-0.022279981717038
 10
-4881.002843622282
 20
-4445.268081467609
 10
-4880.998399140656
 20
-4445.267225462315
 42
-0.0215509523870397
 10
-4880.840163656523
 20
-4445.243767618049
 10
-4880.818922675999
 20
-4445.241548854654
 42
-0.0182545924886619
 10
-4880.701868286346
 20
-4445.233626941959
 10
-4880.682167778128
 20
-4445.233014669418
 42
-0.0072962856518353
 10
-4880.604206338328
 20
-4445.231730005158
 10
-4880.589656503088
 20
-4445.231702587456
 42
-0.005922751640318
 10
-4880.54078175347
 20
-4445.232189443352
 10
-4880.526160644601
 20
-4445.232508326656
 42
-0.0011833111865849
 10
-4880.506535002867
 20
-4445.232982828808
 10
-4880.904228300671
 20
-4446.502349801357
 42
0.0143932051417266
 10
-4880.917428991846
 20
-4446.497250316334
 10
-4880.921064978054
 20
-4446.495964706906
 42
0.0234388603650029
 10
-4880.941980411025
 20
-4446.489655089047
 10
-4880.946321242477
 20
-4446.488564608046
 42
0.0199162743100786
 10
-4880.976465659523
 20
-4446.482256240378
 10
-4880.98687262842
 20
-4446.480507640665
 42
0.0293643550680609
 10
-4881.038410057797
 20
-4446.474932617838
 10
-4881.05075264816
 20
-4446.474326809328
 42
0.0214606686828334
 10
-4881.127323106134
 20
-4446.473857529119
 10
-4881.132009061545
 20
-4446.474029984892
 42
0.0167564054200099
 10
-4881.217769157114
 20
-4446.480068506077
 10
-4881.22199905348
 20
-4446.480509176289
 42
0.013767755326141
 10
-4881.315675710116
 20
-4446.492883830561
 10
-4881.319351579865
 20
-4446.493472790545
 42
0.0118497261472926
 10
-4881.419600461921
 20
-4446.51198146564
 10
-4881.422675465539
 20
-4446.512624896999
 42
0.0106421143862307
 10
-4881.528115909176
 20
-4446.537041084785
 10
-4881.530570313376
 20
-4446.53766475613
 42
0.0099746379727324
 10
-4881.639799547976
 20
-4446.567752020293
 10
-4881.670573568043
 20
-4446.576892959602
 42
0.0191613675851025
 10
-4881.838565799301
 20
-4446.633881649745
 10
-4881.882595685676
 20
-4446.650725104909
 42
0.0205274080145655
 10
-4882.075249071624
 20
-4446.733639308821
 10
-4882.104073712606
 20
-4446.747473291102
 42
0.0181256912185975
 10
-4882.233212182948
 20
-4446.815315200596
 10
-4882.2596898746
 20
-4446.830474007201
 42
0.0140709242396457
 10
-4882.33216734192
 20
-4446.874721343921
 10
-4882.345291776232
 20
-4446.88324975328
 42
0.0086667884438522
 10
-4882.389754857
 20
-4446.91325108722
 42
0.0036408192058583
 10
-4882.433471475996
 20
-4446.944341516101
 10
-4882.451084913251
 20
-4446.957061989073
 42
0.0052260781307763
 10
-4882.529199261941
 20
-4447.014728182386
 10
-4882.537302690076
 20
-4447.020842237698
 42
0.0050024435902339
 10
-4882.630304361615
 20
-4447.092483521837
 10
-4882.637963439864
 20
-4447.098506533053
 42
0.0136138710306258
 10
-4882.743184074016
 20
-4447.185989785502
 10
-4882.760018011923
 20
-4447.200779271867
 42
0.017281518694543
 10
-4882.892219782753
 20
-4447.325277608177
 10
-4882.893500955675
 20
-4447.326570516751
 42
0.01894038580004
 10
-4883.018791854965
 20
-4447.462973149155
 10
-4883.035107601731
 20
-4447.482145114902
 42
0.0185044199522823
 10
-4883.131085821223
 20
-4447.603769405464
 42
0.0088565243934485
 10
-4883.220315874549
 20
-4447.730527615558
 10
-4883.224904864361
 20
-4447.737298305419
 42
0.0157195347258468
 10
-4883.316515167536
 20
-4447.882059410089
 10
-4883.339556638473
 20
-4447.921135508551
 42
0.0095451879730292
 10
-4883.422099413563
 20
-4448.067432829765
 10
-4883.427673373028
 20
-4448.077768165833
 42
0.0100351706233676
 10
-4883.493695247607
 20
-4448.206295946076
 42
0.0086935915406091
 10
-4883.554860823507
 20
-4448.337212518784
 10
-4883.556521194211
 20
-4448.340933680265
 42
0.0072580174844791
 10
-4883.616694420177
 20
-4448.481229676038
 10
-4883.618325236837
 20
-4448.485189689065
 42
0.0060005122583661
 10
-4883.677925571014
 20
-4448.634994524383
 10
-4883.679531060179
 20
-4448.639175288321
 42
0.0049017786997076
 10
-4883.738981139608
 20
-4448.798639778623
 10
-4883.740564042803
 20
-4448.803016247238
 42
0.0039415167615558
 10
-4883.800282181824
 20
-4448.972287278423
 10
-4883.801847733157
 20
-4448.976838878883
 42
0.0031035838772007
 10
-4883.862250126022
 20
-4449.156058809825
 10
-4883.863805148269
 20
-4449.160769120457
 42
0.0025070747158742
 10
-4883.925255823907
 20
-4449.350092728864
 10
-4883.94390277214
 20
-4449.408538561554
 42
0.0029081910283236
 10
-4884.039911921049
 20
-4449.715620390712
 10
-4884.060313505304
 20
-4449.782232011838
 42
0.0009266453728596
 10
-4884.194522192354
 20
-4450.223344241449
 10
-4884.204965928698
 20
-4450.257900181142
 42
-0.0005809993673593
 10
-4884.343634269077
 20
-4450.714804234738
 10
-4884.376775168228
 20
-4450.823546700867
 42
-0.0012018708171554
 10
-4884.450267322928
 20
-4451.062628033078
 10
-4884.476427248605
 20
-4451.147007603168
 42
-0.0002691059537547
 10
-4884.498211989295
 20
-4451.217141413682
 10
-4885.91468993844
 20
-4455.761718714832
 10
-4886.823684384429
 20
-4455.761718714832
 10
-4883.697559676405
 20
-4445.439859696567
  0
SPLINE
  5
4E
330
23
100
AcDbEntity
  8
0
  6
Continuous
 62
     7
370
    15
390
1D
100
AcDbSpline
210
0.0
220
0.0
230
1.0
 70
    15
 71
     2
 72
   782
 73
   779
 74
     0
 42
0.000000001
 43
0.000001
 40
0.0
 40
0.0
 40
0.0
 40
1.0
 40
1.0
 40
2.0
 40
2.0
 40
3.0
 40
3.0
 40
4.0
 40
4.0
 40
5.0
 40
5.0
 40
6.0
 40
6.0
 40
7.0
 40
7.0
 40
8.0
 40
8.0
 40
9.0
 40
9.0
 40
10.0
 40
10.0
 40
11.0
 40
11.0
 40
12.0
 40
12.0
 40
13.0
 40
13.0
 40
14.0
 40
14.0
 40
15.0
 40
15.0
 40
16.0
 40
16.0
 40
17.0
 40
17.0
 40
18.0
 40
18.0
 40
19.0
 40
19.0
 40
20.0
 40
20.0
 40
21.0
 40
21.0
 40
22.0
 40
22.0
 40
23.0
 40
23.0
 40
24.0
 40
24.0
 40
25.0
 40
25.0
 40
26.0
 40
26.0
 40
27.0
 40
27.0
 40
28.0
 40
28.0
 40
29.0
 40
29.0
 40
30.0
 40
30.0
 40
31.0
 40
31.0
 40
32.0
 40
32.0
 40
33.0
 40
33.0
 40
34.0
 40
34.0
 40
35.0
 40
35.0
 40
36.0
 40
36.0
 40
37.0
 40
37.0
 40
38.0
 40
38.0
 40
39.0
 40
39.0
 40
40.0
 40
40.0
 40
41.0
 40
41.0
 40
42.0
 40
42.0
 40
43.0
 40
43.0
 40
44.0
 40
44.0
 40
45.0
 40
45.0
 40
46.0
 40
46.0
 40
47.0
 40
47.0
 40
48.0
 40
48.0
 40
49.0
 40
49.0
 40
50.0
 40
50.0
 40
51.0
 40
51.0
 40
52.0
 40
52.0
 40
53.0
 40
53.0
 40
54.0
 40
54.0
 40
55.0
 40
55.0
 40
56.0
 40
56.0
 40
57.0
 40
57.0
 40
58.0
 40
58.0
 40
59.0
 40
59.0
 40
60.0
 40
60.0
 40
61.0
 40
61.0
 40
62.0
 40
62.0
 40
63.0
 40
63.0
 40
64.0
 40
64.0
 40
65.0
 40
65.0
 40
66.0
 40
66.0
 40
67.0
 40
67.0
 40
68.0
 40
68.0
 40
69.0
 40
69.0
 40
70.0
 40
70.0
 40
71.0
 40
71.0
 40
72.0
 40
72.0
 40
73.0
 40
73.0
 40
74.0
 40
74.0
 40
75.0
 40
75.0
 40
76.0
 40
76.0
 40
77.0
 40
77.0
 40
78.0
 40
78.0
 40
79.0
 40
79.0
 40
80.0
 40
80.0
 40
81.0
 40
81.0
 40
82.0
 40
82.0
 40
83.0
 40
83.0
 40
84.0
 40
84.0
 40
85.0
 40
85.0
 40
86.0
 40
86.0
 40
87.0
 40
87.0
 40
88.0
 40
88.0
 40
89.0
 40
89.0
 40
90.0
 40
90.0
 40
91.0
 40
91.0
 40
92.0
 40
92.0
 40
93.0
 40
93.0
 40
94.0
 40
94.0
 40
95.0
 40
95.0
 40
96.0
 40
96.0
 40
97.0
 40
97.0
 40
98.0
 40
98.0
 40
99.0
 40
99.0
 40
100.0
 40
100.0
 40
101.0
 40
101.0
 40
102.0
 40
102.0
 40
103.0
 40
103.0
 40
104.0
 40
104.0
 40
105.0
 40
105.0
 40
106.0
 40
106.0
 40
107.0
 40
107.0
 40
108.0
 40
108.0
 40
109.0
 40
109.0
 40
110.0
 40
110.0
 40
111.0
 40
111.0
 40
112.0
 40
112.0
 40
113.0
 40
113.0
 40
114.0
 40
114.0
 40
115.0
 40
115.0
 40
116.0
 40
116.0
 40
117.0
 40
117.0
 40
118.0
 40
118.0
 40
119.0
 40
119.0
 40
120.0
 40
120.0
 40
121.0
 40
121.0
 40
122.0
 40
122.0
 40
123.0
 40
123.0
 40
124.0
 40
124.0
 40
125.0
 40
125.0
 40
126.0
 40
126.0
 40
127.0
 40
127.0
 40
128.0
 40
128.0
 40
129.0
 40
129.0
 40
130.0
 40
130.0
 40
131.0
 40
131.0
 40
132.0
 40
132.0
 40
133.0
 40
133.0
 40
134.0
 40
134.0
 40
135.0
 40
135.0
 40
136.0
 40
136.0
 40
137.0
 40
137.0
 40
138.0
 40
138.0
 40
139.0
 40
139.0
 40
140.0
 40
140.0
 40
141.0
 40
141.0
 40
142.0
 40
142.0
 40
143.0
 40
143.0
 40
144.0
 40
144.0
 40
145.0
 40
145.0
 40
146.0
 40
146.0
 40
147.0
 40
147.0
 40
148.0
 40
148.0
 40
149.0
 40
149.0
 40
150.0
 40
150.0
 40
151.0
 40
151.0
 40
152.0
 40
152.0
 40
153.0
 40
153.0
 40
154.0
 40
154.0
 40
155.0
 40
155.0
 40
156.0
 40
156.0
 40
157.0
 40
157.0
 40
158.0
 40
158.0
 40
159.0
 40
159.0
 40
160.0
 40
160.0
 40
161.0
 40
161.0
 40
162.0
 40
162.0
 40
163.0
 40
163.0
 40
164.0
 40
164.0
 40
165.0
 40
165.0
 40
166.0
 40
166.0
 40
167.0
 40
167.0
 40
168.0
 40
168.0
 40
169.0
 40
169.0
 40
170.0
 40
170.0
 40
171.0
 40
171.0
 40
172.0
 40
172.0
 40
173.0
 40
173.0
 40
174.0
 40
174.0
 40
175.0
 40
175.0
 40
176.0
 40
176.0
 40
177.0
 40
177.0
 40
178.0
 40
178.0
 40
179.0
 40
179.0
 40
180.0
 40
180.0
 40
181.0
 40
181.0
 40
182.0
 40
182.0
 40
183.0
 40
183.0
 40
184.0
 40
184.0
 40
185.0
 40
185.0
 40
186.0
 40
186.0
 40
187.0
 40
187.0
 40
188.0
 40
188.0
 40
189.0
 40
189.0
 40
190.0
 40
190.0
 40
191.0
 40
191.0
 40
192.0
 40
192.0
 40
193.0
 40
193.0
 40
194.0
 40
194.0
 40
195.0
 40
195.0
 40
196.0
 40
196.0
 40
197.0
 40
197.0
 40
198.0
 40
198.0
 40
199.0
 40
199.0
 40
200.0
 40
200.0
 40
201.0
 40
201.0
 40
202.0
 40
202.0
 40
203.0
 40
203.0
 40
204.0
 40
204.0
 40
205.0
 40
205.0
 40
206.0
 40
206.0
 40
207.0
 40
207.0
 40
208.0
 40
208.0
 40
209.0
 40
209.0
 40
210.0
 40
210.0
 40
211.0
 40
211.0
 40
212.0
 40
212.0
 40
213.0
 40
213.0
 40
214.0
 40
214.0
 40
215.0
 40
215.0
 40
216.0
 40
216.0
 40
217.0
 40
217.0
 40
218.0
 40
218.0
 40
219.0
 40
219.0
 40
220.0
 40
220.0
 40
221.0
 40
221.0
 40
222.0
 40
222.0
 40
223.0
 40
223.0
 40
224.0
 40
224.0
 40
225.0
 40
225.0
 40
226.0
 40
226.0
 40
227.0
 40
227.0
 40
228.0
 40
228.0
 40
229.0
 40
229.0
 40
230.0
 40
230.0
 40
231.0
 40
231.0
 40
232.0
 40
232.0
 40
233.0
 40
233.0
 40
234.0
 40
234.0
 40
235.0
 40
235.0
 40
236.0
 40
236.0
 40
237.0
 40
237.0
 40
238.0
 40
238.0
 40
239.0
 40
239.0
 40
240.0
 40
240.0
 40
241.0
 40
241.0
 40
242.0
 40
242.0
 40
243.0
 40
243.0
 40
244.0
 40
244.0
 40
245.0
 40
245.0
 40
246.0
 40
246.0
 40
247.0
 40
247.0
 40
248.0
 40
248.0
 40
249.0
 40
249.0
 40
250.0
 40
250.0
 40
251.0
 40
251.0
 40
252.0
 40
252.0
 40
253.0
 40
253.0
 40
254.0
 40
254.0
 40
255.0
 40
255.0
 40
256.0
 40
256.0
 40
257.0
 40
257.0
 40
258.0
 40
258.0
 40
259.0
 40
259.0
 40
260.0
 40
260.0
 40
261.0
 40
261.0
 40
262.0
 40
262.0
 40
263.0
 40
263.0
 40
264.0
 40
264.0
 40
265.0
 40
265.0
 40
266.0
 40
266.0
 40
267.0
 40
267.0
 40
268.0
 40
268.0
 40
269.0
 40
269.0
 40
270.0
 40
270.0
 40
271.0
 40
271.0
 40
272.0
 40
272.0
 40
273.0
 40
273.0
 40
274.0
 40
274.0
 40
275.0
 40
275.0
 40
276.0
 40
276.0
 40
277.0
 40
277.0
 40
278.0
 40
278.0
 40
279.0
 40
279.0
 40
280.0
 40
280.0
 40
281.0
 40
281.0
 40
282.0
 40
282.0
 40
283.0
 40
283.0
 40
284.0
 40
284.0
 40
285.0
 40
285.0
 40
286.0
 40
286.0
 40
287.0
 40
287.0
 40
288.0
 40
288.0
 40
289.0
 40
289.0
 40
290.0
 40
290.0
 40
291.0
 40
291.0
 40
292.0
 40
292.0
 40
293.0
 40
293.0
 40
294.0
 40
294.0
 40
295.0
 40
295.0
 40
296.0
 40
296.0
 40
297.0
 40
297.0
 40
298.0
 40
298.0
 40
299.0
 40
299.0
 40
300.0
 40
300.0
 40
301.0
 40
301.0
 40
302.0
 40
302.0
 40
303.0
 40
303.0
 40
304.0
 40
304.0
 40
305.0
 40
305.0
 40
306.0
 40
306.0
 40
307.0
 40
307.0
 40
308.0
 40
308.0
 40
309.0
 40
309.0
 40
310.0
 40
310.0
 40
311.0
 40
311.0
 40
312.0
 40
312.0
 40
313.0
 40
313.0
 40
314.0
 40
314.0
 40
315.0
 40
315.0
 40
316.0
 40
316.0
 40
317.0
 40
317.0
 40
318.0
 40
318.0
 40
319.0
 40
319.0
 40
320.0
 40
320.0
 40
321.0
 40
321.0
 40
322.0
 40
322.0
 40
323.0
 40
323.0
 40
324.0
 40
324.0
 40
325.0
 40
325.0
 40
326.0
 40
326.0
 40
327.0
 40
327.0
 40
328.0
 40
328.0
 40
329.0
 40
329.0
 40
330.0
 40
330.0
 40
331.0
 40
331.0
 40
332.0
 40
332.0
 40
333.0
 40
333.0
 40
334.0
 40
334.0
 40
335.0
 40
335.0
 40
336.0
 40
336.0
 40
337.0
 40
337.0
 40
338.0
 40
338.0
 40
339.0
 40
339.0
 40
340.0
 40
340.0
 40
341.0
 40
341.0
 40
342.0
 40
342.0
 40
343.0
 40
343.0
 40
344.0
 40
344.0
 40
345.0
 40
345.0
 40
346.0
 40
346.0
 40
347.0
 40
347.0
 40
348.0
 40
348.0
 40
349.0
 40
349.0
 40
350.0
 40
350.0
 40
351.0
 40
351.0
 40
352.0
 40
352.0
 40
353.0
 40
353.0
 40
354.0
 40
354.0
 40
355.0
 40
355.0
 40
356.0
 40
356.0
 40
357.0
 40
357.0
 40
358.0
 40
358.0
 40
359.0
 40
359.0
 40
360.0
 40
360.0
 40
361.0
 40
361.0
 40
362.0
 40
362.0
 40
363.0
 40
363.0
 40
364.0
 40
364.0
 40
365.0
 40
365.0
 40
366.0
 40
366.0
 40
367.0
 40
367.0
 40
368.0
 40
368.0
 40
369.0
 40
369.0
 40
370.0
 40
370.0
 40
371.0
 40
371.0
 40
372.0
 40
372.0
 40
373.0
 40
373.0
 40
374.0
 40
374.0
 40
375.0
 40
375.0
 40
376.0
 40
376.0
 40
377.0
 40
377.0
 40
378.0
 40
378.0
 40
379.0
 40
379.0
 40
380.0
 40
380.0
 40
381.0
 40
381.0
 40
382.0
 40
382.0
 40
383.0
 40
383.0
 40
384.0
 40
384.0
 40
385.0
 40
385.0
 40
386.0
 40
386.0
 40
387.0
 40
387.0
 40
388.0
 40
388.0
 40
389.0
 40
389.0
 40
389.0
 10
-4878.533207451039
 20
-4445.434396514886
 30
0.0
 41
1.0
 10
-4878.123995396678
 20
-4445.434396514886
 30
0.0
 41
1.0
 10
-4877.714783342318
 20
-4445.434396514886
 30
0.0
 41
1.0
 10
-4877.921660210077
 20
-4446.10570964701
 30
0.0
 41
1.0
 10
-4878.128537077835
 20
-4446.777022779135
 30
0.0
 41
1.0
 10
-4878.119367330242
 20
-4446.762672392665
 30
0.0
 41
0.9999957264380714
 10
-4878.110113831817
 20
-4446.748375867575
 30
0.0
 41
1.0
 10
-4878.094899169758
 20
-4446.724869428402
 30
0.0
 41
1.0
 10
-4878.079684507698
 20
-4446.701362989228
 30
0.0
 41
1.0
 10
-4878.040001685147
 20
-4446.640053585779
 30
0.0
 41
0.9995394069080065
 10
-4877.996672489373
 20
-4446.581264554911
 30
0.0
 41
1.0
 10
-4877.978794058245
 20
-4446.557007108617
 30
0.0
 41
1.0
 10
-4877.960915627116
 20
-4446.532749662321
 30
0.0
 41
1.0
 10
-4877.894052293204
 20
-4446.442029524753
 30
0.0
 41
0.9994460617141757
 10
-4877.821302052556
 20
-4446.355958325925
 30
0.0
 41
1.0
 10
-4877.819107962066
 20
-4446.35336248573
 30
0.0
 41
1.0
 10
-4877.816913871576
 20
-4446.350766645535
 30
0.0
 41
1.0
 10
-4877.748551811909
 20
-4446.269887127096
 30
0.0
 41
0.9994359394934281
 10
-4877.674914696737
 20
-4446.193779026516
 30
0.0
 41
1.0
 10
-4877.673723019756
 20
-4446.192547361326
 30
0.0
 41
1.0
 10
-4877.672531342776
 20
-4446.191315696135
 30
0.0
 41
1.0
 10
-4877.601277581558
 20
-4446.117670925932
 30
0.0
 41
0.9995293688568394
 10
-4877.525641741069
 20
-4446.048534319852
 30
0.0
 41
1.0
 10
-4877.51599486144
 20
-4446.039716377029
 30
0.0
 41
1.0
 10
-4877.506347981812
 20
-4446.030898434206
 30
0.0
 41
1.0
 10
-4877.450005900581
 20
-4445.979397713773
 30
0.0
 41
0.9997087614802435
 10
-4877.391244456101
 20
-4445.930675573372
 30
0.0
 41
1.0
 10
-4877.381661419518
 20
-4445.922729784123
 30
0.0
 41
1.0
 10
-4877.372078382937
 20
-4445.914783994874
 30
0.0
 41
1.0
 10
-4877.33248301163
 20
-4445.881953432979
 30
0.0
 41
0.9999595338694549
 10
-4877.292303376196
 20
-4445.849840567646
 30
0.0
 41
1.0
 10
-4877.252123740773
 20
-4445.817727702321
 30
0.0
 41
0.9999749417512767
 10
-4877.211493473606
 20
-4445.786186925351
 30
0.0
 41
1.0
 10
-4877.201000400509
 20
-4445.778041281688
 30
0.0
 41
1.0
 10
-4877.190507327412
 20
-4445.769895638025
 30
0.0
 41
1.0
 10
-4877.148223384773
 20
-4445.737071133114
 30
0.0
 41
0.9999792037117421
 10
-4877.105519584896
 20
-4445.704794742298
 30
0.0
 41
1.0
 10
-4877.095107171971
 20
-4445.696924831193
 30
0.0
 41
1.0
 10
-4877.084694759046
 20
-4445.689054920087
 30
0.0
 41
1.0
 10
-4877.062815785044
 20
-4445.672518351501
 30
0.0
 41
0.9999993374216323
 10
-4877.04097494194
 20
-4445.655931453764
 30
0.0
 41
1.0
 10
-4877.019134098873
 20
-4445.639344556056
 30
0.0
 41
0.9999160953818675
 10
-4876.996870893417
 20
-4445.623329023459
 30
0.0
 41
1.0
 10
-4876.980459949702
 20
-4445.611523445663
 30
0.0
 41
1.0
 10
-4876.964049005988
 20
-4445.599717867868
 30
0.0
 41
1.0
 10
-4876.908963913108
 20
-4445.560091179684
 30
0.0
 41
0.9980964527231351
 10
-4876.849419416359
 20
-4445.527547443256
 30
0.0
 41
1.0
 10
-4876.830903112896
 20
-4445.51742745346
 30
0.0
 41
1.0
 10
-4876.812386809432
 20
-4445.507307463664
 30
0.0
 41
1.0
 10
-4876.722723302794
 20
-4445.458302338313
 30
0.0
 41
0.9984572810573724
 10
-4876.628179019615
 20
-4445.41954120764
 30
0.0
 41
1.0
 10
-4876.626355884915
 20
-4445.41879376147
 30
0.0
 41
1.0
 10
-4876.624532750214
 20
-4445.4180463153
 30
0.0
 41
1.0
 10
-4876.533634736433
 20
-4445.380780076965
 30
0.0
 41
0.9987838528035334
 10
-4876.439508407156
 20
-4445.352647256883
 30
0.0
 41
1.0
 10
-4876.437389432554
 20
-4445.352013930037
 30
0.0
 41
1.0
 10
-4876.435270457953
 20
-4445.351380603192
 30
0.0
 41
1.0
 10
-4876.345382077874
 20
-4445.3245144368
 30
0.0
 41
0.9990652816207439
 10
-4876.253509112018
 20
-4445.30551259703
 30
0.0
 41
1.0
 10
-4876.250914911504
 20
-4445.304976045476
 30
0.0
 41
1.0
 10
-4876.24832071099
 20
-4445.304439493923
 30
0.0
 41
1.0
 10
-4876.161636146162
 20
-4445.286510757259
 30
0.0
 41
0.9992909934272285
 10
-4876.073848262931
 20
-4445.275155541025
 30
0.0
 41
1.0
 10
-4875.986060379701
 20
-4445.263800324792
 30
0.0
 41
0.9994553539448298
 10
-4875.897714663154
 20
-4445.258260672689
 30
0.0
 41
1.0
 10
-4875.879997459255
 20
-4445.257149728665
 30
0.0
 41
1.0
 10
-4875.862280255355
 20
-4445.256038784642
 30
0.0
 41
1.0
 10
-4875.779167372072
 20
-4445.250827253435
 30
0.0
 41
0.9990928098290779
 10
-4875.695912476123
 20
-4445.252707074053
 30
0.0
 41
1.0
 10
-4875.676631558482
 20
-4445.253142419819
 30
0.0
 41
1.0
 10
-4875.65735064084
 20
-4445.253577765586
 30
0.0
 41
1.0
 10
-4875.612657580166
 20
-4445.25458689467
 30
0.0
 41
0.9998382089208677
 10
-4875.568029738779
 20
-4445.257202957933
 30
0.0
 41
1.0
 10
-4875.567814785667
 20
-4445.257215558384
 30
0.0
 41
1.0
 10
-4875.567599832555
 20
-4445.257228158835
 30
0.0
 41
1.0
 10
-4875.523401897384
 20
-4445.259819021197
 30
0.0
 41
0.999755801675838
 10
-4875.479361608786
 20
-4445.264360278881
 30
0.0
 41
1.0
 10
-4875.479123539562
 20
-4445.264384827624
 30
0.0
 41
1.0
 10
-4875.478885470337
 20
-4445.264409376366
 30
0.0
 41
1.0
 10
-4875.435321320175
 20
-4445.268901536566
 30
0.0
 41
0.99965651441818
 10
-4875.392052393514
 20
-4445.275670189909
 30
0.0
 41
1.0
 10
-4875.391819430823
 20
-4445.275706632775
 30
0.0
 41
1.0
 10
-4875.39158646813
 20
-4445.275743075641
 30
0.0
 41
1.0
 10
-4875.34878346684
 20
-4445.282438843255
 30
0.0
 41
0.9995321806869576
 10
-4875.30646992668
 20
-4445.291739087468
 30
0.0
 41
1.0
 10
-4875.306275329396
 20
-4445.291781858701
 30
0.0
 41
1.0
 10
-4875.306080732112
 20
-4445.291824629933
 30
0.0
 41
1.0
 10
-4875.264156386517
 20
-4445.301039331682
 30
0.0
 41
0.999381919921762
 10
-4875.222983119417
 20
-4445.313177023313
 30
0.0
 41
1.0
 10
-4875.222863902667
 20
-4445.313212167868
 30
0.0
 41
1.0
 10
-4875.222744685917
 20
-4445.313247312423
 30
0.0
 41
1.0
 10
-4875.181809852317
 20
-4445.325314714944
 30
0.0
 41
0.9992088568504375
 10
-4875.141963592825
 20
-4445.340597332841
 30
0.0
 41
1.0
 10
-4875.102123097386
 20
-4445.355877133206
 30
0.0
 41
0.9990226101769472
 10
-4875.063787762432
 20
-4445.374615849014
 30
0.0
 41
1.0
 10
-4875.02545819154
 20
-4445.393351747287
 30
0.0
 41
0.9988424273972605
 10
-4874.98910637794
 20
-4445.41568413491
 30
0.0
 41
1.0
 10
-4874.988972523744
 20
-4445.41576636695
 30
0.0
 41
1.0
 10
-4874.988838669547
 20
-4445.41584859899
 30
0.0
 41
1.0
 10
-4874.952219147556
 20
-4445.438345450693
 30
0.0
 41
0.9986928844493589
 10
-4874.918087714196
 20
-4445.464463317837
 30
0.0
 41
1.0
 10
-4874.91779706809
 20
-4445.464685724446
 30
0.0
 41
1.0
 10
-4874.917506421984
 20
-4445.464908131056
 30
0.0
 41
1.0
 10
-4874.88279369641
 20
-4445.491470811421
 30
0.0
 41
0.9986007262274141
 10
-4874.85108061153
 20
-4445.521551196265
 30
0.0
 41
1.0
 10
-4874.850633403798
 20
-4445.521975380186
 30
0.0
 41
1.0
 10
-4874.850186196067
 20
-4445.522399564106
 30
0.0
 41
1.0
 10
-4874.817578695717
 20
-4445.553328316797
 30
0.0
 41
0.9985581491385197
 10
-4874.788474889859
 20
-4445.587574561942
 30
0.0
 41
1.0
 10
-4874.783845663069
 20
-4445.593021740784
 30
0.0
 41
1.0
 10
-4874.779216436279
 20
-4445.598468919625
 30
0.0
 41
1.0
 10
-4874.740854176831
 20
-4445.643609522464
 30
0.0
 41
0.9970460233522147
 10
-4874.709858226252
 20
-4445.694093064557
 30
0.0
 41
1.0
 10
-4874.702623543713
 20
-4445.705876294094
 30
0.0
 41
1.0
 10
-4874.695388861175
 20
-4445.717659523631
 30
0.0
 41
1.0
 10
-4874.675520511168
 20
-4445.750019385649
 30
0.0
 41
0.9988468816634011
 10
-4874.658847325791
 20
-4445.784135611864
 30
0.0
 41
1.0
 10
-4874.655329314542
 20
-4445.791334072441
 30
0.0
 41
1.0
 10
-4874.651811303293
 20
-4445.798532533016
 30
0.0
 41
1.0
 10
-4874.642174140412
 20
-4445.818251838085
 30
0.0
 41
0.9998431190001605
 10
-4874.633241476668
 20
-4445.838300115299
 30
0.0
 41
1.0
 10
-4874.624308813036
 20
-4445.858348392261
 30
0.0
 41
0.9999989990020436
 10
-4874.615319451441
 20
-4445.878371310796
 30
0.0
 41
1.0
 10
-4874.612233295528
 20
-4445.88524541946
 30
0.0
 41
1.0
 10
-4874.609147139616
 20
-4445.892119528124
 30
0.0
 41
1.0
 10
-4874.593985466307
 20
-4445.925890663737
 30
0.0
 41
0.9998790356322415
 10
-4874.579881526233
 20
-4445.960117039715
 30
0.0
 41
1.0
 10
-4874.5764639356
 20
-4445.968410590405
 30
0.0
 41
1.0
 10
-4874.573046344968
 20
-4445.976704141096
 30
0.0
 41
1.0
 10
-4874.561267513772
 20
-4446.005288118553
 30
0.0
 41
0.999822757455953
 10
-4874.550573139571
 20
-4446.034295272706
 30
0.0
 41
1.0
 10
-4874.53987876538
 20
-4446.063302426836
 30
0.0
 41
0.9996797971040923
 10
-4874.530665622903
 20
-4446.092813486388
 30
0.0
 41
1.0
 10
-4874.528713721538
 20
-4446.09906571548
 30
0.0
 41
1.0
 10
-4874.526761820172
 20
-4446.105317944573
 30
0.0
 41
1.0
 10
-4874.513644874967
 20
-4446.147333462302
 30
0.0
 41
0.9979274938742069
 10
-4874.506032613226
 20
-4446.190685641634
 30
0.0
 41
1.0
 10
-4874.504920769596
 20
-4446.197017642046
 30
0.0
 41
1.0
 10
-4874.503808925965
 20
-4446.203349642458
 30
0.0
 41
1.0
 10
-4874.498343956117
 20
-4446.2344728961
 30
0.0
 41
0.999498598213493
 10
-4874.494859873528
 20
-4446.265879646668
 30
0.0
 41
1.0
 10
-4874.49137579094
 20
-4446.297286397232
 30
0.0
 41
0.9996372611198046
 10
-4874.489587858057
 20
-4446.328835186567
 30
0.0
 41
1.0
 10
-4874.489503569312
 20
-4446.330322495114
 30
0.0
 41
1.0
 10
-4874.489419280567
 20
-4446.331809803662
 30
0.0
 41
1.0
 10
-4874.487462770194
 20
-4446.366333210098
 30
0.0
 41
0.9997730630739319
 10
-4874.48697861345
 20
-4446.400908622129
 30
0.0
 41
1.0
 10
-4874.486950060241
 20
-4446.402947711687
 30
0.0
 41
1.0
 10
-4874.486921507032
 20
-4446.404986801244
 30
0.0
 41
1.0
 10
-4874.486380243869
 20
-4446.443640392391
 30
0.0
 41
0.9998772614069754
 10
-4874.487050287235
 20
-4446.482291965659
 30
0.0
 41
1.0
 10
-4874.487094918835
 20
-4446.484866547589
 30
0.0
 41
1.0
 10
-4874.487139550434
 20
-4446.48744112952
 30
0.0
 41
1.0
 10
-4874.487898857
 20
-4446.531241866672
 30
0.0
 41
0.9999415567323032
 10
-4874.489605012124
 20
-4446.575015947545
 30
0.0
 41
1.0
 10
-4874.489725672461
 20
-4446.578111677378
 30
0.0
 41
1.0
 10
-4874.489846332797
 20
-4446.581207407212
 30
0.0
 41
1.0
 10
-4874.491793808595
 20
-4446.631172947776
 30
0.0
 41
0.9999716810421541
 10
-4874.494493100153
 20
-4446.681103516877
 30
0.0
 41
1.0
 10
-4874.496099499544
 20
-4446.710818141653
 30
0.0
 41
1.0
 10
-4874.497705898936
 20
-4446.740532766429
 30
0.0
 41
1.0
 10
-4874.501742853515
 20
-4446.815206967134
 30
0.0
 41
0.9999819129893781
 10
-4874.506677749328
 20
-4446.889827206054
 30
0.0
 41
1.0
 10
-4874.511612645136
 20
-4446.964447444911
 30
0.0
 41
1.0
 10
-4874.512832305418
 20
-4446.983043967835
 30
0.0
 41
1.0
 10
-4874.5014831885
 20
-4446.963673469167
 30
0.0
 41
0.9999982128242535
 10
-4874.490060909117
 20
-4446.944346022178
 30
0.0
 41
1.0
 10
-4874.476606129179
 20
-4446.921579415157
 30
0.0
 41
1.0
 10
-4874.46315134924
 20
-4446.898812808136
 30
0.0
 41
1.0
 10
-4874.424819509981
 20
-4446.833952147106
 30
0.0
 41
0.9998609190055748
 10
-4874.384345853551
 20
-4446.770405956144
 30
0.0
 41
1.0
 10
-4874.369521692806
 20
-4446.747131089659
 30
0.0
 41
1.0
 10
-4874.354697532061
 20
-4446.723856223174
 30
0.0
 41
1.0
 10
-4874.313561421945
 20
-4446.65926993818
 30
0.0
 41
0.9999067609733143
 10
-4874.270676917215
 20
-4446.595831093461
 30
0.0
 41
1.0
 10
-4874.269474565614
 20
-4446.594052460434
 30
0.0
 41
1.0
 10
-4874.268272214014
 20
-4446.592273827408
 30
0.0
 41
1.0
 10
-4874.227792412483
 20
-4446.532392248742
 30
0.0
 41
0.9998784952150204
 10
-4874.185465607641
 20
-4446.473801640386
 30
0.0
 41
1.0
 10
-4874.143138802799
 20
-4446.41521103203
 30
0.0
 41
0.9998532968284033
 10
-4874.098829992387
 20
-4446.358104577794
 30
0.0
 41
1.0
 10
-4874.088849097889
 20
-4446.345240917281
 30
0.0
 41
1.0
 10
-4874.078868203391
 20
-4446.332377256767
 30
0.0
 41
1.0
 10
-4874.019626178514
 20
-4446.256024451287
 30
0.0
 41
0.9991551975796464
 10
-4873.954313953707
 20
-4446.184794670251
 30
0.0
 41
1.0
 10
-4873.95255914571
 20
-4446.18288086943
 30
0.0
 41
1.0
 10
-4873.950804337711
 20
-4446.180967068609
 30
0.0
 41
1.0
 10
-4873.889001728887
 20
-4446.1135648892
 30
0.0
 41
0.9997418144180615
 10
-4873.824200659044
 20
-4446.049040183902
 30
0.0
 41
1.0
 10
-4873.759399589192
 20
-4445.984515478594
 30
0.0
 41
0.9989238204633488
 10
-4873.688898315066
 20
-4445.926272997574
 30
0.0
 41
1.0
 10
-4873.666274475998
 20
-4445.907583001772
 30
0.0
 41
1.0
 10
-4873.643650636931
 20
-4445.888893005969
 30
0.0
 41
1.0
 10
-4873.573530608319
 20
-4445.830965479323
 30
0.0
 41
0.9990825084098052
 10
-4873.498710642017
 20
-4445.779250980406
 30
0.0
 41
1.0
 10
-4873.493687959985
 20
-4445.775779373864
 30
0.0
 41
1.0
 10
-4873.488665277954
 20
-4445.772307767323
 30
0.0
 41
1.0
 10
-4873.423890675712
 20
-4445.727536481488
 30
0.0
 41
0.9998164899827946
 10
-4873.357448574026
 20
-4445.685279360731
 30
0.0
 41
1.0
 10
-4873.351525793763
 20
-4445.681512477468
 30
0.0
 41
1.0
 10
-4873.345603013501
 20
-4445.677745594206
 30
0.0
 41
1.0
 10
-4873.291006472338
 20
-4445.643022239973
 30
0.0
 41
0.9997473449132394
 10
-4873.234904493714
 20
-4445.610787761065
 30
0.0
 41
1.0
 10
-4873.178802515095
 20
-4445.578553282161
 30
0.0
 41
0.9999327861141142
 10
-4873.12196820972
 20
-4445.547628286324
 30
0.0
 41
1.0
 10
-4873.121692208433
 20
-4445.547478106981
 30
0.0
 41
1.0
 10
-4873.121416207146
 20
-4445.547327927638
 30
0.0
 41
1.0
 10
-4873.064029899204
 20
-4445.516102573118
 30
0.0
 41
0.9996956420482902
 10
-4873.005173236285
 20
-4445.487745839631
 30
0.0
 41
1.0
 10
-4872.989953033834
 20
-4445.480412851264
 30
0.0
 41
1.0
 10
-4872.974732831383
 20
-4445.473079862896
 30
0.0
 41
1.0
 10
-4872.923244278016
 20
-4445.448273033677
 30
0.0
 41
0.999807057017748
 10
-4872.870821083549
 20
-4445.425507740229
 30
0.0
 41
1.0
 10
-4872.818397889082
 20
-4445.402742446779
 30
0.0
 41
0.9997827436145321
 10
-4872.765071420778
 20
-4445.382181861124
 30
0.0
 41
1.0
 10
-4872.75545999596
 20
-4445.378476074307
 30
0.0
 41
1.0
 10
-4872.745848571142
 20
-4445.37477028749
 30
0.0
 41
1.0
 10
-4872.673299253207
 20
-4445.346798128201
 30
0.0
 41
0.998803184197423
 10
-4872.598364071904
 20
-4445.326048096118
 30
0.0
 41
1.0
 10
-4872.585905447722
 20
-4445.322598223214
 30
0.0
 41
1.0
 10
-4872.57344682354
 20
-4445.319148350311
 30
0.0
 41
1.0
 10
-4872.489811810716
 20
-4445.295989279107
 30
0.0
 41
0.9984748040547428
 10
-4872.404133356393
 20
-4445.282192162975
 30
0.0
 41
1.0
 10
-4872.401763788266
 20
-4445.281810582717
 30
0.0
 41
1.0
 10
-4872.39939422014
 20
-4445.281429002461
 30
0.0
 41
1.0
 10
-4872.318454902066
 20
-4445.268395046842
 30
0.0
 41
0.9984436495481221
 10
-4872.236567530205
 20
-4445.264456069932
 30
0.0
 41
1.0
 10
-4872.225718926139
 20
-4445.263934226332
 30
0.0
 41
1.0
 10
-4872.214870322073
 20
-4445.263412382732
 30
0.0
 41
1.0
 10
-4872.154680158343
 20
-4445.260517093023
 30
0.0
 41
0.9987954789337306
 10
-4872.094496035888
 20
-4445.263535356894
 30
0.0
 41
1.0
 10
-4872.084513639635
 20
-4445.264035979064
 30
0.0
 41
1.0
 10
-4872.07453124338
 20
-4445.264536601233
 30
0.0
 41
1.0
 10
-4872.034311913427
 20
-4445.266553620766
 30
0.0
 41
0.9997941595879071
 10
-4871.994207524385
 20
-4445.270200653726
 30
0.0
 41
1.0
 10
-4871.954103135334
 20
-4445.273847686687
 30
0.0
 41
0.9998589466237748
 10
-4871.914143861902
 20
-4445.278839613912
 30
0.0
 41
1.0
 10
-4871.897940761002
 20
-4445.280863792372
 30
0.0
 41
1.0
 10
-4871.881737660103
 20
-4445.28288797083
 30
0.0
 41
1.0
 10
-4871.809372184879
 20
-4445.291928254972
 30
0.0
 41
0.9993495063245451
 10
-4871.73784656301
 20
-4445.306161109841
 30
0.0
 41
1.0
 10
-4871.721379714408
 20
-4445.309437841453
 30
0.0
 41
1.0
 10
-4871.704912865805
 20
-4445.312714573066
 30
0.0
 41
1.0
 10
-4871.650265954217
 20
-4445.323588740132
 30
0.0
 41
0.9996788715565472
 10
-4871.596240168252
 20
-4445.33721763981
 30
0.0
 41
1.0
 10
-4871.595208666992
 20
-4445.337477853094
 30
0.0
 41
1.0
 10
-4871.594177165733
 20
-4445.337738066378
 30
0.0
 41
1.0
 10
-4871.542214382283
 20
-4445.350846539489
 30
0.0
 41
0.9995480654491695
 10
-4871.491133264659
 20
-4445.367054017804
 30
0.0
 41
1.0
 10
-4871.490288443589
 20
-4445.367322070262
 30
0.0
 41
1.0
 10
-4871.489443622519
 20
-4445.367590122721
 30
0.0
 41
1.0
 10
-4871.440052147039
 20
-4445.383261496117
 30
0.0
 41
0.9993867959457121
 10
-4871.391878567823
 20
-4445.402351180761
 30
0.0
 41
1.0
 10
-4871.391257093283
 20
-4445.402597451708
 30
0.0
 41
1.0
 10
-4871.390635618744
 20
-4445.402843722655
 30
0.0
 41
1.0
 10
-4871.343704988604
 20
-4445.421440865403
 30
0.0
 41
0.9992050256517305
 10
-4871.298405151085
 20
-4445.443717815025
 30
0.0
 41
1.0
 10
-4871.29803780973
 20
-4445.443898461254
 30
0.0
 41
1.0
 10
-4871.297670468375
 20
-4445.444079107484
 30
0.0
 41
1.0
 10
-4871.25310531357
 20
-4445.465994764643
 30
0.0
 41
0.9990222350739931
 10
-4871.210650282872
 20
-4445.491761398494
 30
0.0
 41
1.0
 10
-4871.210558340234
 20
-4445.491817199943
 30
0.0
 41
1.0
 10
-4871.210466397597
 20
-4445.491873001394
 30
0.0
 41
1.0
 10
-4871.168195252179
 20
-4445.51752803234
 30
0.0
 41
0.9988642743802162
 10
-4871.128557984865
 20
-4445.547090126105
 30
0.0
 41
1.0
 10
-4871.08892071755
 20
-4445.576652219874
 30
0.0
 41
0.9987681233316602
 10
-4871.052408825406
 20
-4445.60999756558
 30
0.0
 41
1.0
 10
-4871.052244361429
 20
-4445.610147766181
 30
0.0
 41
1.0
 10
-4871.052079897452
 20
-4445.610297966783
 30
0.0
 41
1.0
 10
-4871.015239077351
 20
-4445.643943713694
 30
0.0
 41
0.9987496570894866
 10
-4870.98194217469
 20
-4445.681100120734
 30
0.0
 41
1.0
 10
-4870.981556089807
 20
-4445.681530957416
 30
0.0
 41
1.0
 10
-4870.981170004924
 20
-4445.681961794098
 30
0.0
 41
1.0
 10
-4870.947100932496
 20
-4445.719979874504
 30
0.0
 41
0.9988147669828856
 10
-4870.91688980538
 20
-4445.76113037793
 30
0.0
 41
1.0
 10
-4870.916330142345
 20
-4445.761892693602
 30
0.0
 41
1.0
 10
-4870.91577047931
 20
-4445.762655009274
 30
0.0
 41
1.0
 10
-4870.88444002612
 20
-4445.805330144047
 30
0.0
 41
0.9989452636218945
 10
-4870.857156569638
 20
-4445.850699488625
 30
0.0
 41
1.0
 10
-4870.856482206596
 20
-4445.851820879138
 30
0.0
 41
1.0
 10
-4870.855807843553
 20
-4445.852942269652
 30
0.0
 41
1.0
 10
-4870.827175660987
 20
-4445.900554395255
 30
0.0
 41
0.999104643606916
 10
-4870.802671054328
 20
-4445.950416611766
 30
0.0
 41
1.0
 10
-4870.801939123532
 20
-4445.951905951804
 30
0.0
 41
1.0
 10
-4870.801207192736
 20
-4445.953395291843
 30
0.0
 41
1.0
 10
-4870.775238724487
 20
-4446.006236188423
 30
0.0
 41
0.9992763831098593
 10
-4870.753362160212
 20
-4446.060898219395
 30
0.0
 41
1.0
 10
-4870.752622525379
 20
-4446.062746313168
 30
0.0
 41
1.0
 10
-4870.751882890545
 20
-4446.064594406939
 30
0.0
 41
1.0
 10
-4870.728527056604
 20
-4446.122952625449
 30
0.0
 41
0.9994163472882
 10
-4870.70921054101
 20
-4446.182769419678
 30
0.0
 41
1.0
 10
-4870.708591464883
 20
-4446.18468649158
 30
0.0
 41
1.0
 10
-4870.707972388756
 20
-4446.186603563481
 30
0.0
 41
1.0
 10
-4870.688030608251
 20
-4446.248356594213
 30
0.0
 41
0.9997268055893044
 10
-4870.670996580297
 20
-4446.31097411018
 30
0.0
 41
1.0
 10
-4870.670531490158
 20
-4446.312683793247
 30
0.0
 41
1.0
 10
-4870.67006640002
 20
-4446.314393476315
 30
0.0
 41
1.0
 10
-4870.653962552338
 20
-4446.373591626168
 30
0.0
 41
0.9996701319004124
 10
-4870.640919743955
 20
-4446.433538602787
 30
0.0
 41
1.0
 10
-4870.627876935568
 20
-4446.493485579439
 30
0.0
 41
0.9995785451113127
 10
-4870.618335146894
 20
-4446.554088459974
 30
0.0
 41
1.0
 10
-4870.616225255811
 20
-4446.567489037338
 30
0.0
 41
1.0
 10
-4870.614115364727
 20
-4446.580889614702
 30
0.0
 41
1.0
 10
-4870.600827876758
 20
-4446.665282601552
 30
0.0
 41
0.9979925101216087
 10
-4870.598315083795
 20
-4446.750678265597
 30
0.0
 41
1.0
 10
-4870.597902677582
 20
-4446.764693627343
 30
0.0
 41
1.0
 10
-4870.59749027137
 20
-4446.778708989088
 30
0.0
 41
1.0
 10
-4870.595802290832
 20
-4446.836073929647
 30
0.0
 41
0.9995314902264328
 10
-4870.597627386901
 20
-4446.89343467152
 30
0.0
 41
1.0
 10
-4870.59945248297
 20
-4446.950795413395
 30
0.0
 41
0.9996245486946466
 10
-4870.604417030535
 20
-4447.007970048957
 30
0.0
 41
1.0
 10
-4870.604498554532
 20
-4447.008908927024
 30
0.0
 41
1.0
 10
-4870.60458007853
 20
-4447.009847805092
 30
0.0
 41
1.0
 10
-4870.609707674087
 20
-4447.068900196777
 30
0.0
 41
0.9997286094999807
 10
-4870.617580335871
 20
-4447.127649651211
 30
0.0
 41
1.0
 10
-4870.617777082198
 20
-4447.129117863575
 30
0.0
 41
1.0
 10
-4870.617973828525
 20
-4447.130586075938
 30
0.0
 41
1.0
 10
-4870.626239982963
 20
-4447.1922719551
 30
0.0
 41
0.9998265533971301
 10
-4870.636797712332
 20
-4447.253607192507
 30
0.0
 41
1.0
 10
-4870.637135983398
 20
-4447.255572381748
 30
0.0
 41
1.0
 10
-4870.637474254465
 20
-4447.257537570989
 30
0.0
 41
1.0
 10
-4870.648708525972
 20
-4447.322803186911
 30
0.0
 41
0.9999022530855868
 10
-4870.661763258282
 20
-4447.38772917125
 30
0.0
 41
1.0
 10
-4870.662252578861
 20
-4447.390162742424
 30
0.0
 41
1.0
 10
-4870.662741899439
 20
-4447.392596313597
 30
0.0
 41
1.0
 10
-4870.676775272919
 20
-4447.462389440348
 30
0.0
 41
0.9999524761940229
 10
-4870.692166757346
 20
-4447.531895686974
 30
0.0
 41
1.0
 10
-4870.692804810924
 20
-4447.534777066581
 30
0.0
 41
1.0
 10
-4870.693442864502
 20
-4447.537658446188
 30
0.0
 41
1.0
 10
-4870.710110456091
 20
-4447.612927452055
 30
0.0
 41
0.9999813588715873
 10
-4870.727695956485
 20
-4447.687987308367
 30
0.0
 41
1.0
 10
-4870.728472919218
 20
-4447.691303603596
 30
0.0
 41
1.0
 10
-4870.72924988195
 20
-4447.694619898824
 30
0.0
 41
1.0
 10
-4870.748389307777
 20
-4447.776312345464
 30
0.0
 41
0.9999955237718341
 10
-4870.768017246741
 20
-4447.857888797159
 30
0.0
 41
1.0
 10
-4870.774158064584
 20
-4447.883410892529
 30
0.0
 41
1.0
 10
-4870.780298882428
 20
-4447.908932987901
 30
0.0
 41
1.0
 10
-4870.812208457121
 20
-4448.041553630501
 30
0.0
 41
0.9999993604351761
 10
-4870.844417930773
 20
-4448.174101756129
 30
0.0
 41
1.0
 10
-4870.846777348479
 20
-4448.183811209869
 30
0.0
 41
1.0
 10
-4870.849136766185
 20
-4448.19352066361
 30
0.0
 41
1.0
 10
-4870.886065075309
 20
-4448.34548769697
 30
0.0
 41
0.9999659914732458
 10
-4870.925494873247
 20
-4448.49682497023
 30
0.0
 41
1.0
 10
-4870.927971217718
 20
-4448.506329538841
 30
0.0
 41
1.0
 10
-4870.930447562188
 20
-4448.515834107451
 30
0.0
 41
1.0
 10
-4870.974830049062
 20
-4448.686180517918
 30
0.0
 41
0.9999441976023699
 10
-4871.022801565547
 20
-4448.855551230576
 30
0.0
 41
1.0
 10
-4871.031151824757
 20
-4448.885033086832
 30
0.0
 41
1.0
 10
-4871.039502083968
 20
-4448.914514943088
 30
0.0
 41
1.0
 10
-4871.104174118872
 20
-4449.142849368256
 30
0.0
 41
0.999962512073414
 10
-4871.172790502531
 20
-4449.370029635245
 30
0.0
 41
1.0
 10
-4871.190685474075
 20
-4449.429277648565
 30
0.0
 41
1.0
 10
-4871.208580445618
 20
-4449.488525661886
 30
0.0
 41
1.0
 10
-4871.245840547639
 20
-4449.611889200938
 30
0.0
 41
0.9999793386312948
 10
-4871.284683559208
 20
-4449.734763520559
 30
0.0
 41
1.0
 10
-4871.323526570777
 20
-4449.857637840177
 30
0.0
 41
1.0
 10
-4871.328916350213
 20
-4449.874646792364
 30
0.0
 41
1.0
 10
-4872.254102876847
 20
-4452.818182753597
 30
0.0
 41
1.0
 10
-4873.179289403482
 20
-4455.761718714832
 30
0.0
 41
1.0
 10
-4873.659917748493
 20
-4455.761718714832
 30
0.0
 41
1.0
 10
-4874.140546093506
 20
-4455.761718714832
 30
0.0
 41
1.0
 10
-4873.331073704167
 20
-4453.187704463937
 30
0.0
 41
1.0
 10
-4872.521601314827
 20
-4450.613690213042
 30
0.0
 41
1.0
 10
-4872.499018403245
 20
-4450.541674601922
 30
0.0
 41
1.0
 10
-4872.476435491662
 20
-4450.469658990801
 30
0.0
 41
1.0
 10
-4872.391283282976
 20
-4450.198113476205
 30
0.0
 41
0.9999911657906004
 10
-4872.308416877131
 20
-4449.92586171051
 30
0.0
 41
1.0
 10
-4872.293568905376
 20
-4449.877079740468
 30
0.0
 41
1.0
 10
-4872.278720933621
 20
-4449.828297770426
 30
0.0
 41
1.0
 10
-4872.225550471287
 20
-4449.653609944811
 30
0.0
 41
0.9999952428143903
 10
-4872.173458676629
 20
-4449.478597432652
 30
0.0
 41
1.0
 10
-4872.170928941474
 20
-4449.470098295551
 30
0.0
 41
1.0
 10
-4872.168399206318
 20
-4449.461599158451
 30
0.0
 41
1.0
 10
-4872.121366881976
 20
-4449.303584920512
 30
0.0
 41
0.9999931687510166
 10
-4872.075503963029
 20
-4449.145227313842
 30
0.0
 41
1.0
 10
-4872.07303633081
 20
-4449.136706959245
 30
0.0
 41
1.0
 10
-4872.070568698592
 20
-4449.128186604648
 30
0.0
 41
1.0
 10
-4872.029641044104
 20
-4448.986869707246
 30
0.0
 41
0.9999893840802544
 10
-4871.990017430864
 20
-4448.845181642584
 30
0.0
 41
1.0
 10
-4871.950393817637
 20
-4448.703493577967
 30
0.0
 41
0.9999833980081064
 10
-4871.912405697269
 20
-4448.561358286463
 30
0.0
 41
1.0
 10
-4871.90790372891
 20
-4448.544513847231
 30
0.0
 41
1.0
 10
-4871.903401760551
 20
-4448.527669407998
 30
0.0
 41
1.0
 10
-4871.868919486114
 20
-4448.398651491835
 30
0.0
 41
0.9999233658063614
 10
-4871.837642000499
 20
-4448.268819412458
 30
0.0
 41
1.0
 10
-4871.806364514889
 20
-4448.138987333096
 30
0.0
 41
1.0
 10
-4871.78662280546
 20
-4448.057084000883
 30
0.0
 41
1.0
 10
-4871.784133503477
 20
-4448.046756519971
 30
0.0
 41
1.0
 10
-4871.781644201494
 20
-4448.036429039057
 30
0.0
 41
1.0
 10
-4871.766881096037
 20
-4447.975180668691
 30
0.0
 41
0.9999868670841766
 10
-4871.752746554033
 20
-4447.913784195847
 30
0.0
 41
1.0
 10
-4871.750797810453
 20
-4447.905319402131
 30
0.0
 41
1.0
 10
-4871.748849066872
 20
-4447.896854608414
 30
0.0
 41
1.0
 10
-4871.738612012034
 20
-4447.852387723018
 30
0.0
 41
0.9999778173346867
 10
-4871.728968212978
 20
-4447.80778841441
 30
0.0
 41
1.0
 10
-4871.71932441391
 20
-4447.76318910575
 30
0.0
 41
0.9999602692862506
 10
-4871.710477234587
 20
-4447.718424961489
 30
0.0
 41
1.0
 10
-4871.708875318556
 20
-4447.710319734093
 30
0.0
 41
1.0
 10
-4871.707273402527
 20
-4447.702214506696
 30
0.0
 41
1.0
 10
-4871.695222391135
 20
-4447.641239907603
 30
0.0
 41
0.9995617985321295
 10
-4871.686800717526
 20
-4447.579659033757
 30
0.0
 41
1.0
 10
-4871.685568472572
 20
-4447.570648625072
 30
0.0
 41
1.0
 10
-4871.684336227619
 20
-4447.561638216387
 30
0.0
 41
1.0
 10
-4871.674194597094
 20
-4447.487480691532
 30
0.0
 41
0.9991121410637293
 10
-4871.6703319203
 20
-4447.412732642124
 30
0.0
 41
1.0
 10
-4871.669872525288
 20
-4447.403842723841
 30
0.0
 41
1.0
 10
-4871.669413130276
 20
-4447.394952805558
 30
0.0
 41
1.0
 10
-4871.666469243506
 20
-4447.337984592727
 30
0.0
 41
0.9989792494908039
 10
-4871.668678789565
 20
-4447.280983174773
 30
0.0
 41
1.0
 10
-4871.669002775499
 20
-4447.272625051812
 30
0.0
 41
1.0
 10
-4871.669326761434
 20
-4447.264266928851
 30
0.0
 41
1.0
 10
-4871.670888335623
 20
-4447.223981756826
 30
0.0
 41
0.999782029539107
 10
-4871.674130334311
 20
-4447.183796895952
 30
0.0
 41
1.0
 10
-4871.677372333
 20
-4447.14361203507
 30
0.0
 41
0.9998335105974021
 10
-4871.682078430757
 20
-4447.103572226835
 30
0.0
 41
1.0
 10
-4871.682875893093
 20
-4447.096787361603
 30
0.0
 41
1.0
 10
-4871.683673355431
 20
-4447.09000249637
 30
0.0
 41
1.0
 10
-4871.689974377862
 20
-4447.036392957674
 30
0.0
 41
0.9996876457879038
 10
-4871.698946334259
 20
-4446.983165243828
 30
0.0
 41
1.0
 10
-4871.700062165834
 20
-4446.976545376196
 30
0.0
 41
1.0
 10
-4871.701177997407
 20
-4446.969925508563
 30
0.0
 41
1.0
 10
-4871.708075908118
 20
-4446.929002436584
 30
0.0
 41
0.9995547496498282
 10
-4871.717402569064
 20
-4446.888563687988
 30
0.0
 41
1.0
 10
-4871.717589547501
 20
-4446.887752982625
 30
0.0
 41
1.0
 10
-4871.717776525939
 20
-4446.886942277262
 30
0.0
 41
1.0
 10
-4871.726729230013
 20
-4446.848124939383
 30
0.0
 41
0.9994899427174634
 10
-4871.73814168435
 20
-4446.809958297976
 30
0.0
 41
1.0
 10
-4871.738370947723
 20
-4446.809191573073
 30
0.0
 41
1.0
 10
-4871.738600211095
 20
-4446.808424848171
 30
0.0
 41
1.0
 10
-4871.749554138692
 20
-4446.771791656551
 30
0.0
 41
0.9993784877587379
 10
-4871.763061956243
 20
-4446.736021303979
 30
0.0
 41
1.0
 10
-4871.763327801729
 20
-4446.735317312624
 30
0.0
 41
1.0
 10
-4871.763593647216
 20
-4446.734613321269
 30
0.0
 41
1.0
 10
-4871.776569773795
 20
-4446.700250951404
 30
0.0
 41
0.9992430832262347
 10
-4871.792178041376
 20
-4446.667001375365
 30
0.0
 41
1.0
 10
-4871.792469099402
 20
-4446.66638134781
 30
0.0
 41
1.0
 10
-4871.792760157429
 20
-4446.665761320255
 30
0.0
 41
1.0
 10
-4871.807786308954
 20
-4446.633751799334
 30
0.0
 41
0.9990789632795959
 10
-4871.825501622345
 20
-4446.603148493456
 30
0.0
 41
1.0
 10
-4871.825799475435
 20
-4446.602633950526
 30
0.0
 41
1.0
 10
-4871.826097328526
 20
-4446.602119407597
 30
0.0
 41
1.0
 10
-4871.843216935733
 20
-4446.572545187581
 30
0.0
 41
0.9988874801123884
 10
-4871.863046573749
 20
-4446.544715331373
 30
0.0
 41
1.0
 10
-4871.863324336784
 20
-4446.544325505531
 30
0.0
 41
1.0
 10
-4871.863602099819
 20
-4446.543935679689
 30
0.0
 41
1.0
 10
-4871.882876211768
 20
-4446.516885475158
 30
0.0
 41
0.9986762060690312
 10
-4871.904827447403
 20
-4446.491958617944
 30
0.0
 41
1.0
 10
-4871.905049427565
 20
-4446.49170654704
 30
0.0
 41
1.0
 10
-4871.905271407728
 20
-4446.491454476135
 30
0.0
 41
1.0
 10
-4871.926778683037
 20
-4446.467031760728
 30
0.0
 41
0.9984621642487135
 10
-4871.95085746143
 20
-4446.445140110489
 30
0.0
 41
1.0
 10
-4871.950980778684
 20
-4446.445027994412
 30
0.0
 41
1.0
 10
-4871.951104095937
 20
-4446.444915878335
 30
0.0
 41
1.0
 10
-4871.974936239814
 20
-4446.423248460257
 30
0.0
 41
0.9982724693859654
 10
-4872.00114555574
 20
-4446.404526284994
 30
0.0
 41
1.0
 10
-4872.027354871657
 20
-4446.385804109738
 30
0.0
 41
0.9981399180175847
 10
-4872.055647903349
 20
-4446.370410850017
 30
0.0
 41
1.0
 10
-4872.055670734392
 20
-4446.370398428437
 30
0.0
 41
1.0
 10
-4872.055693565435
 20
-4446.370386006856
 30
0.0
 41
1.0
 10
-4872.084032259206
 20
-4446.354967903981
 30
0.0
 41
0.9980927086848869
 10
-4872.114054934734
 20
-4446.343159499555
 30
0.0
 41
1.0
 10
-4872.114275019594
 20
-4446.343072936615
 30
0.0
 41
1.0
 10
-4872.114495104455
 20
-4446.342986373676
 30
0.0
 41
1.0
 10
-4872.144957949704
 20
-4446.331004843374
 30
0.0
 41
0.9981411356561248
 10
-4872.176652210407
 20
-4446.32281852262
 30
0.0
 41
1.0
 10
-4872.177093268754
 20
-4446.322704601518
 30
0.0
 41
1.0
 10
-4872.177534327102
 20
-4446.322590680416
 30
0.0
 41
1.0
 10
-4872.210110704504
 20
-4446.314176517459
 30
0.0
 41
0.9983031812940727
 10
-4872.243444418999
 20
-4446.30960683687
 30
0.0
 41
1.0
 10
-4872.247879931701
 20
-4446.308998777535
 30
0.0
 41
1.0
 10
-4872.252315444404
 20
-4446.308390718199
 30
0.0
 41
1.0
 10
-4872.279490265656
 20
-4446.304665353204
 30
0.0
 41
0.998388770826117
 10
-4872.306912190302
 20
-4446.304043016387
 30
0.0
 41
1.0
 10
-4872.310943892889
 20
-4446.30395151745
 30
0.0
 41
1.0
 10
-4872.314975595476
 20
-4446.303860018513
 30
0.0
 41
1.0
 10
-4872.334334114928
 20
-4446.303420679571
 30
0.0
 41
0.9998869563083058
 10
-4872.35369709155
 20
-4446.30356361425
 30
0.0
 41
1.0
 10
-4872.373060068237
 20
-4446.303706548931
 30
0.0
 41
0.9999972320062027
 10
-4872.392422157929
 20
-4446.303940598696
 30
0.0
 41
1.0
 10
-4872.402098666133
 20
-4446.30405756874
 30
0.0
 41
1.0
 10
-4872.411775174336
 20
-4446.304174538784
 30
0.0
 41
1.0
 10
-4872.450490280511
 20
-4446.304642528637
 30
0.0
 41
0.9997304945086719
 10
-4872.489141933621
 20
-4446.30690707553
 30
0.0
 41
1.0
 10
-4872.493666754483
 20
-4446.307172178525
 30
0.0
 41
1.0
 10
-4872.498191575345
 20
-4446.307437281521
 30
0.0
 41
1.0
 10
-4872.545892870172
 20
-4446.310232034403
 30
0.0
 41
0.9997888306414088
 10
-4872.593439038098
 20
-4446.314984516649
 30
0.0
 41
1.0
 10
-4872.597799568881
 20
-4446.315420373965
 30
0.0
 41
1.0
 10
-4872.602160099663
 20
-4446.31585623128
 30
0.0
 41
1.0
 10
-4872.658427329156
 20
-4446.321480428157
 30
0.0
 41
0.9984170238193445
 10
-4872.713706902828
 20
-4446.333388469124
 30
0.0
 41
1.0
 10
-4872.73189746832
 20
-4446.337306987027
 30
0.0
 41
1.0
 10
-4872.750088033814
 20
-4446.34122550493
 30
0.0
 41
1.0
 10
-4872.807683568027
 20
-4446.353632438186
 30
0.0
 41
0.997659285420104
 10
-4872.863047651232
 20
-4446.37378177676
 30
0.0
 41
1.0
 10
-4872.918411734428
 20
-4446.39393111533
 30
0.0
 41
0.9993255074354309
 10
-4872.972147633818
 20
-4446.418089564573
 30
0.0
 41
1.0
 10
-4872.974460223286
 20
-4446.419129252676
 30
0.0
 41
1.0
 10
-4872.976772812753
 20
-4446.420168940778
 30
0.0
 41
1.0
 10
-4873.03513389107
 20
-4446.446406766224
 30
0.0
 41
0.9976475078278441
 10
-4873.089357563227
 20
-4446.480380761054
 30
0.0
 41
1.0
 10
-4873.098528760298
 20
-4446.486127000464
 30
0.0
 41
1.0
 10
-4873.107699957369
 20
-4446.491873239874
 30
0.0
 41
1.0
 10
-4873.149801053141
 20
-4446.518251800256
 30
0.0
 41
0.9995131336403575
 10
-4873.190174910616
 20
-4446.54720490623
 30
0.0
 41
1.0
 10
-4873.230548768093
 20
-4446.576158012204
 30
0.0
 41
0.999581010760493
 10
-4873.269179591955
 20
-4446.607398853435
 30
0.0
 41
1.0
 10
-4873.270664607562
 20
-4446.60859978917
 30
0.0
 41
1.0
 10
-4873.27214962317
 20
-4446.609800724904
 30
0.0
 41
1.0
 10
-4873.313750478242
 20
-4446.643443437599
 30
0.0
 41
0.9996617837954105
 10
-4873.353545821806
 20
-4446.679203665376
 30
0.0
 41
1.0
 10
-4873.359611197237
 20
-4446.684654031865
 30
0.0
 41
1.0
 10
-4873.365676572668
 20
-4446.690104398353
 30
0.0
 41
1.0
 10
-4873.399814336376
 20
-4446.7207807061
 30
0.0
 41
0.9997267750056256
 10
-4873.432481090529
 20
-4446.753018974371
 30
0.0
 41
1.0
 10
-4873.465147844678
 20
-4446.78525724264
 30
0.0
 41
0.9999667288961167
 10
-4873.497284316258
 20
-4446.818024146094
 30
0.0
 41
1.0
 10
-4873.531698040139
 20
-4446.853112975467
 30
0.0
 41
1.0
 10
-4873.566111764019
 20
-4446.888201804839
 30
0.0
 41
1.0
 10
-4873.667075683368
 20
-4446.991146367044
 30
0.0
 41
0.9988205335174394
 10
-4873.757578491858
 20
-4447.103398483075
 30
0.0
 41
1.0
 10
-4873.77289847431
 20
-4447.12240010829
 30
0.0
 41
1.0
 10
-4873.788218456762
 20
-4447.141401733505
 30
0.0
 41
1.0
 10
-4873.909361230156
 20
-4447.291657099964
 30
0.0
 41
0.9997077826755818
 10
-4874.023100205708
 20
-4447.447591997071
 30
0.0
 41
1.0
 10
-4874.023961913274
 20
-4447.448773388762
 30
0.0
 41
1.0
 10
-4874.02482362084
 20
-4447.449954780453
 30
0.0
 41
1.0
 10
-4874.140286011521
 20
-4447.608252460937
 30
0.0
 41
0.9989147567079116
 10
-4874.240517762962
 20
-4447.776607191527
 30
0.0
 41
1.0
 10
-4874.252888335615
 20
-4447.797385481803
 30
0.0
 41
1.0
 10
-4874.265258908268
 20
-4447.818163772078
 30
0.0
 41
1.0
 10
-4874.342864557588
 20
-4447.948514464308
 30
0.0
 41
0.9997476598182177
 10
-4874.414537051345
 20
-4448.082219338603
 30
0.0
 41
1.0
 10
-4874.486209545102
 20
-4448.215924212899
 30
0.0
 41
0.9996258967109143
 10
-4874.550463671069
 20
-4448.353348181215
 30
0.0
 41
1.0
 10
-4874.557063625787
 20
-4448.367463881247
 30
0.0
 41
1.0
 10
-4874.563663580505
 20
-4448.38157958128
 30
0.0
 41
1.0
 10
-4874.63376794101
 20
-4448.531515780266
 30
0.0
 41
0.9998735413945637
 10
-4874.699068614375
 20
-4448.683605580012
 30
0.0
 41
1.0
 10
-4874.700790028404
 20
-4448.687614872741
 30
0.0
 41
1.0
 10
-4874.702511442432
 20
-4448.691624165468
 30
0.0
 41
1.0
 10
-4874.764369287734
 20
-4448.835695379742
 30
0.0
 41
0.999937741886174
 10
-4874.822996688823
 20
-4448.981111113584
 30
0.0
 41
1.0
 10
-4874.881624089915
 20
-4449.126526847432
 30
0.0
 41
0.99995082995077
 10
-4874.937356061607
 20
-4449.273076685852
 30
0.0
 41
1.0
 10
-4874.938896445934
 20
-4449.277127198824
 30
0.0
 41
1.0
 10
-4874.940436830262
 20
-4449.281177711797
 30
0.0
 41
1.0
 10
-4874.999249570618
 20
-4449.435828576185
 30
0.0
 41
0.9999609228438866
 10
-4875.055318872061
 20
-4449.591495084207
 30
0.0
 41
1.0
 10
-4875.05679687723
 20
-4449.595598504397
 30
0.0
 41
1.0
 10
-4875.0582748824
 20
-4449.599701924588
 30
0.0
 41
1.0
 10
-4875.117300194172
 20
-4449.763575272966
 30
0.0
 41
0.9999674607402822
 10
-4875.173673957194
 20
-4449.928379582925
 30
0.0
 41
1.0
 10
-4875.199373152485
 20
-4450.003509180802
 30
0.0
 41
1.0
 10
-4875.225072347777
 20
-4450.078638778678
 30
0.0
 41
1.0
 10
-4875.283077651159
 20
-4450.248212769939
 30
0.0
 41
0.9999287532310646
 10
-4875.337018353148
 20
-4450.419123139434
 30
0.0
 41
1.0
 10
-4875.360256981311
 20
-4450.492754411918
 30
0.0
 41
1.0
 10
-4875.383495609474
 20
-4450.566385684401
 30
0.0
 41
1.0
 10
-4875.39095905523
 20
-4450.590033509231
 30
0.0
 41
0.9999998224893932
 10
-4875.398394309498
 20
-4450.613690213042
 30
0.0
 41
1.0
 10
-4876.208722377896
 20
-4453.187704463937
 30
0.0
 41
1.0
 10
-4877.019050446293
 20
-4455.761718714832
 30
0.0
 41
1.0
 10
-4877.471704668239
 20
-4455.761718714832
 30
0.0
 41
1.0
 10
-4877.924358890185
 20
-4455.761718714832
 30
0.0
 41
1.0
 10
-4876.998316684491
 20
-4452.818182753597
 30
0.0
 41
1.0
 10
-4876.072274478798
 20
-4449.874646792364
 30
0.0
 41
1.0
 10
-4876.067213599646
 20
-4449.85862518564
 30
0.0
 41
1.0
 10
-4876.030909765222
 20
-4449.743475414727
 30
0.0
 41
1.0
 10
-4875.9946059308
 20
-4449.628325643826
 30
0.0
 41
0.9999825681975777
 10
-4875.959664411198
 20
-4449.512755196304
 30
0.0
 41
1.0
 10
-4875.935518880115
 20
-4449.432892904546
 30
0.0
 41
1.0
 10
-4875.911373349032
 20
-4449.353030612789
 30
0.0
 41
1.0
 10
-4875.862797172374
 20
-4449.192363001901
 30
0.0
 41
0.9999672528970442
 10
-4875.81682776956
 20
-4449.030930229106
 30
0.0
 41
1.0
 10
-4875.815433327723
 20
-4449.026033306403
 30
0.0
 41
1.0
 10
-4875.814038885886
 20
-4449.021136383701
 30
0.0
 41
1.0
 10
-4875.770858366746
 20
-4448.869497456302
 30
0.0
 41
0.9999899749126058
 10
-4875.729037561981
 20
-4448.717477912087
 30
0.0
 41
1.0
 10
-4875.72398460248
 20
-4448.699110293274
 30
0.0
 41
1.0
 10
-4875.718931642979
 20
-4448.680742674462
 30
0.0
 41
1.0
 10
-4875.687216757222
 20
-4448.565458367888
 30
0.0
 41
0.999921420050274
 10
-4875.658402043025
 20
-4448.449415196756
 30
0.0
 41
1.0
 10
-4875.652019116918
 20
-4448.423709753988
 30
0.0
 41
1.0
 10
-4875.64563619081
 20
-4448.398004311221
 30
0.0
 41
1.0
 10
-4875.62958732882
 20
-4448.333372025584
 30
0.0
 41
0.9999828681666147
 10
-4875.614296202839
 20
-4448.268556288418
 30
0.0
 41
1.0
 10
-4875.599005076838
 20
-4448.203740551169
 30
0.0
 41
0.9999389844477815
 10
-4875.58514958244
 20
-4448.138602823204
 30
0.0
 41
1.0
 10
-4875.581580710583
 20
-4448.1218247713
 30
0.0
 41
1.0
 10
-4875.578011838727
 20
-4448.105046719396
 30
0.0
 41
1.0
 10
-4875.557018600611
 20
-4448.006352887606
 30
0.0
 41
0.9998933699441203
 10
-4875.538916468409
 20
-4447.907088083723
 30
0.0
 41
1.0
 10
-4875.538230055801
 20
-4447.903324073378
 30
0.0
 41
1.0
 10
-4875.537543643194
 20
-4447.899560063033
 30
0.0
 41
1.0
 10
-4875.518068685778
 20
-4447.792767238465
 30
0.0
 41
0.9996850305195063
 10
-4875.503976847649
 20
-4447.685131735754
 30
0.0
 41
1.0
 10
-4875.502979330962
 20
-4447.677512558679
 30
0.0
 41
1.0
 10
-4875.501981814276
 20
-4447.669893381603
 30
0.0
 41
1.0
 10
-4875.488277883048
 20
-4447.565220768032
 30
0.0
 41
0.9994697936705764
 10
-4875.481415603439
 20
-4447.459878170373
 30
0.0
 41
1.0
 10
-4875.481177068812
 20
-4447.456216434241
 30
0.0
 41
1.0
 10
-4875.480938534186
 20
-4447.452554698109
 30
0.0
 41
1.0
 10
-4875.474553323827
 20
-4447.354535572682
 30
0.0
 41
0.9991804893133809
 10
-4875.476117481965
 20
-4447.256321147722
 30
0.0
 41
1.0
 10
-4875.476159421376
 20
-4447.253687747018
 30
0.0
 41
1.0
 10
-4875.476201360787
 20
-4447.251054346315
 30
0.0
 41
1.0
 10
-4875.477681640102
 20
-4447.158106722738
 30
0.0
 41
0.9988448329322153
 10
-4875.488077412914
 20
-4447.065730427818
 30
0.0
 41
1.0
 10
-4875.488874449766
 20
-4447.058647999928
 30
0.0
 41
1.0
 10
-4875.489671486618
 20
-4447.051565572038
 30
0.0
 41
1.0
 10
-4875.498473185726
 20
-4446.973354132898
 30
0.0
 41
0.9985503209455175
 10
-4875.515631321876
 20
-4446.896542040857
 30
0.0
 41
1.0
 10
-4875.51942431791
 20
-4446.879561877161
 30
0.0
 41
1.0
 10
-4875.523217313945
 20
-4446.862581713465
 30
0.0
 41
1.0
 10
-4875.532789458024
 20
-4446.819729948817
 30
0.0
 41
0.9991036781370167
 10
-4875.545951888851
 20
-4446.77784140515
 30
0.0
 41
1.0
 10
-4875.54794300157
 20
-4446.771504823922
 30
0.0
 41
1.0
 10
-4875.549934114289
 20
-4446.765168242693
 30
0.0
 41
1.0
 10
-4875.559114319668
 20
-4446.735952861514
 30
0.0
 41
0.9998874504372302
 10
-4875.569166923515
 20
-4446.707026060376
 30
0.0
 41
1.0
 10
-4875.579219527356
 20
-4446.678099259259
 30
0.0
 41
0.9994041637543691
 10
-4875.591243833826
 20
-4446.649934907309
 30
0.0
 41
1.0
 10
-4875.593342225935
 20
-4446.645019875075
 30
0.0
 41
1.0
 10
-4875.595440618044
 20
-4446.640104842842
 30
0.0
 41
1.0
 10
-4875.609380033542
 20
-4446.607454759856
 30
0.0
 41
0.9991846840701479
 10
-4875.62590821189
 20
-4446.576035744214
 30
0.0
 41
1.0
 10
-4875.626476515084
 20
-4446.574955435994
 30
0.0
 41
1.0
 10
-4875.627044818278
 20
-4446.573875127773
 30
0.0
 41
1.0
 10
-4875.642436390232
 20
-4446.544616728581
 30
0.0
 41
0.9989253167921388
 10
-4875.660471102264
 20
-4446.516909264379
 30
0.0
 41
1.0
 10
-4875.660998164602
 20
-4446.516099516997
 30
0.0
 41
1.0
 10
-4875.661525226939
 20
-4446.515289769614
 30
0.0
 41
1.0
 10
-4875.678505814292
 20
-4446.489201800183
 30
0.0
 41
0.9986467172840555
 10
-4875.69810439061
 20
-4446.465018783369
 30
0.0
 41
1.0
 10
-4875.698541454965
 20
-4446.464479482223
 30
0.0
 41
1.0
 10
-4875.698978519321
 20
-4446.463940181077
 30
0.0
 41
1.0
 10
-4875.717702966934
 20
-4446.440835766548
 30
0.0
 41
0.9984001104258409
 10
-4875.738916332187
 20
-4446.41999321287
 30
0.0
 41
1.0
 10
-4875.739209901239
 20
-4446.419704775433
 30
0.0
 41
1.0
 10
-4875.73950347029
 20
-4446.419416337995
 30
0.0
 41
1.0
 10
-4875.760129697443
 20
-4446.399150659188
 30
0.0
 41
0.9982442159078462
 10
-4875.783007748114
 20
-4446.381466378555
 30
0.0
 41
1.0
 10
-4875.783115145851
 20
-4446.381383362228
 30
0.0
 41
1.0
 10
-4875.783222543589
 20
-4446.381300345902
 30
0.0
 41
1.0
 10
-4875.805885798788
 20
-4446.36378209792
 30
0.0
 41
0.9982450060818551
 10
-4875.830461288318
 20
-4446.349066206409
 30
0.0
 41
1.0
 10
-4875.855036777859
 20
-4446.334350314888
 30
0.0
 41
0.9983922639621137
 10
-4875.881119930949
 20
-4446.322510497559
 30
0.0
 41
1.0
 10
-4875.881233369605
 20
-4446.322459004821
 30
0.0
 41
1.0
 10
-4875.881346808261
 20
-4446.322407512083
 30
0.0
 41
1.0
 10
-4875.907656838671
 20
-4446.310464709272
 30
0.0
 41
0.9986517147141191
 10
-4875.935063325109
 20
-4446.30131414971
 30
0.0
 41
1.0
 10
-4875.935402285819
 20
-4446.301200976496
 30
0.0
 41
1.0
 10
-4875.935741246529
 20
-4446.301087803282
 30
0.0
 41
1.0
 10
-4875.963825654385
 20
-4446.291710897292
 30
0.0
 41
0.9989435598953477
 10
-4875.992652347955
 20
-4446.284952046176
 30
0.0
 41
1.0
 10
-4875.993192407752
 20
-4446.284825421048
 30
0.0
 41
1.0
 10
-4875.993732467548
 20
-4446.28469879592
 30
0.0
 41
1.0
 10
-4876.023639280703
 20
-4446.277686694551
 30
0.0
 41
0.9992249241240634
 10
-4876.05400503515
 20
-4446.273049023192
 30
0.0
 41
1.0
 10
-4876.054711879297
 20
-4446.272941068988
 30
0.0
 41
1.0
 10
-4876.055418723445
 20
-4446.272833114785
 30
0.0
 41
1.0
 10
-4876.087198166193
 20
-4446.267979535018
 30
0.0
 41
0.9994396597831078
 10
-4876.11923113447
 20
-4446.265263073844
 30
0.0
 41
1.0
 10
-4876.128801468201
 20
-4446.264451489986
 30
0.0
 41
1.0
 10
-4876.138371801931
 20
-4446.263639906127
 30
0.0
 41
1.0
 10
-4876.189545437685
 20
-4446.259300277235
 30
0.0
 41
0.998769340311951
 10
-4876.240897249483
 20
-4446.260051808962
 30
0.0
 41
1.0
 10
-4876.246024416587
 20
-4446.260126844849
 30
0.0
 41
1.0
 10
-4876.25115158369
 20
-4446.260201880736
 30
0.0
 41
1.0
 10
-4876.305929466785
 20
-4446.26100355288
 30
0.0
 41
0.9989753644969768
 10
-4876.360410466796
 20
-4446.266755056342
 30
0.0
 41
1.0
 10
-4876.414891466805
 20
-4446.272506559805
 30
0.0
 41
0.9983190067311407
 10
-4876.468340872287
 20
-4446.284524055698
 30
0.0
 41
1.0
 10
-4876.47279134809
 20
-4446.285524694979
 30
0.0
 41
1.0
 10
-4876.477241823894
 20
-4446.286525334261
 30
0.0
 41
1.0
 10
-4876.539592180985
 20
-4446.300544108718
 30
0.0
 41
0.9985539388305782
 10
-4876.600077057827
 20
-4446.321175946741
 30
0.0
 41
1.0
 10
-4876.601249773305
 20
-4446.321575968648
 30
0.0
 41
1.0
 10
-4876.602422488781
 20
-4446.321975990555
 30
0.0
 41
1.0
 10
-4876.665252796583
 20
-4446.343407872395
 30
0.0
 41
0.9988468746492772
 10
-4876.725737967732
 20
-4446.370766914926
 30
0.0
 41
1.0
 10
-4876.727329378726
 20
-4446.371486752206
 30
0.0
 41
1.0
 10
-4876.728920789719
 20
-4446.372206589485
 30
0.0
 41
1.0
 10
-4876.792588782859
 20
-4446.401005306577
 30
0.0
 41
0.9991322885920643
 10
-4876.853639074888
 20
-4446.435002972667
 30
0.0
 41
1.0
 10
-4876.862440080412
 20
-4446.439904073664
 30
0.0
 41
1.0
 10
-4876.871241085936
 20
-4446.44480517466
 30
0.0
 41
1.0
 10
-4876.922329426461
 20
-4446.473255232549
 30
0.0
 41
0.9993860037850781
 10
-4876.971299928497
 20
-4446.505213240342
 30
0.0
 41
1.0
 10
-4876.974109084927
 20
-4446.507046487692
 30
0.0
 41
1.0
 10
-4876.976918241357
 20
-4446.508879735042
 30
0.0
 41
1.0
 10
-4877.020270430536
 20
-4446.537171248138
 30
0.0
 41
0.9998821494953012
 10
-4877.062733618439
 20
-4446.566780363175
 30
0.0
 41
1.0
 10
-4877.105196806351
 20
-4446.596389478216
 30
0.0
 41
0.9997976482742683
 10
-4877.146434621557
 20
-4446.62768268224
 30
0.0
 41
1.0
 10
-4877.153752753955
 20
-4446.633236027126
 30
0.0
 41
1.0
 10
-4877.161070886353
 20
-4446.638789372013
 30
0.0
 41
1.0
 10
-4877.21694496636
 20
-4446.681189265814
 30
0.0
 41
0.9998091630799552
 10
-4877.271120105373
 20
-4446.725739441165
 30
0.0
 41
1.0
 10
-4877.277622981612
 20
-4446.731086991388
 30
0.0
 41
1.0
 10
-4877.28412585785
 20
-4446.736434541611
 30
0.0
 41
1.0
 10
-4877.351306749342
 20
-4446.791679817408
 30
0.0
 41
0.9995035112316547
 10
-4877.414874688223
 20
-4446.851046725915
 30
0.0
 41
1.0
 10
-4877.419698343412
 20
-4446.85555159899
 30
0.0
 41
1.0
 10
-4877.424521998601
 20
-4446.860056472065
 30
0.0
 41
1.0
 10
-4877.486233529989
 20
-4446.917689657947
 30
0.0
 41
0.9994630424300017
 10
-4877.544037732885
 20
-4446.979241029569
 30
0.0
 41
1.0
 10
-4877.545879152274
 20
-4446.981201819328
 30
0.0
 41
1.0
 10
-4877.547720571662
 20
-4446.983162609088
 30
0.0
 41
1.0
 10
-4877.60184193578
 20
-4447.04079240119
 30
0.0
 41
0.999516069374983
 10
-4877.652274950543
 20
-4447.101676110122
 30
0.0
 41
1.0
 10
-4877.653241810582
 20
-4447.102843322224
 30
0.0
 41
1.0
 10
-4877.65420867062
 20
-4447.104010534326
 30
0.0
 41
1.0
 10
-4877.702707965307
 20
-4447.162559819057
 30
0.0
 41
0.999656147051595
 10
-4877.748071074642
 20
-4447.223571200283
 30
0.0
 41
1.0
 10
-4877.751149907585
 20
-4447.227712094794
 30
0.0
 41
1.0
 10
-4877.754228740529
 20
-4447.231852989305
 30
0.0
 41
1.0
 10
-4877.793434183967
 20
-4447.284582581498
 30
0.0
 41
0.9998349055174525
 10
-4877.830697824941
 20
-4447.338701873339
 30
0.0
 41
1.0
 10
-4877.86796146589
 20
-4447.392821165147
 30
0.0
 41
0.9999728109574793
 10
-4877.90442291383
 20
-4447.4474841279
 30
0.0
 41
1.0
 10
-4877.905080521552
 20
-4447.448470012676
 30
0.0
 41
1.0
 10
-4877.905738129274
 20
-4447.449455897451
 30
0.0
 41
1.0
 10
-4877.943514792604
 20
-4447.506090629677
 30
0.0
 41
0.9999972147318211
 10
-4877.981023697756
 20
-4447.562903051041
 30
0.0
 41
1.0
 10
-4877.983509469103
 20
-4447.566668095331
 30
0.0
 41
1.0
 10
-4877.985995240449
 20
-4447.570433139622
 30
0.0
 41
1.0
 10
-4878.028475688268
 20
-4447.634775649526
 30
0.0
 41
0.9999371979004414
 10
-4878.069503362979
 20
-4447.70005410643
 30
0.0
 41
1.0
 10
-4878.071257805152
 20
-4447.702845570448
 30
0.0
 41
1.0
 10
-4878.073012247323
 20
-4447.705637034466
 30
0.0
 41
1.0
 10
-4878.117548806391
 20
-4447.776498419424
 30
0.0
 41
0.9998272025610001
 10
-4878.159420501835
 20
-4447.8489663578
 30
0.0
 41
1.0
 10
-4878.167028087844
 20
-4447.862132915025
 30
0.0
 41
1.0
 10
-4878.174635673853
 20
-4447.875299472248
 30
0.0
 41
1.0
 10
-4878.231722541323
 20
-4447.974100525084
 30
0.0
 41
0.9995217214837504
 10
-4878.282592386104
 20
-4448.076241689024
 30
0.0
 41
1.0
 10
-4878.28641416741
 20
-4448.083915413852
 30
0.0
 41
1.0
 10
-4878.290235948716
 20
-4448.09158913868
 30
0.0
 41
1.0
 10
-4878.333688595018
 20
-4448.178837367736
 30
0.0
 41
0.9998269762608242
 10
-4878.373865828162
 20
-4448.267641511113
 30
0.0
 41
1.0
 10
-4878.414043061301
 20
-4448.356445654481
 30
0.0
 41
0.9998944747388037
 10
-4878.451623458585
 20
-4448.446379517302
 30
0.0
 41
1.0
 10
-4878.454100293379
 20
-4448.452306844757
 30
0.0
 41
1.0
 10
-4878.456577128173
 20
-4448.458234172212
 30
0.0
 41
1.0
 10
-4878.496900658449
 20
-4448.554732642217
 30
0.0
 41
0.9999506734410213
 10
-4878.5352994229
 20
-4448.652013044644
 30
0.0
 41
1.0
 10
-4878.542599405517
 20
-4448.670507005502
 30
0.0
 41
1.0
 10
-4878.549899388135
 20
-4448.68900096636
 30
0.0
 41
1.0
 10
-4878.573698187334
 20
-4448.74929344703
 30
0.0
 41
0.9999912393936308
 10
-4878.596991409362
 20
-4448.80978304842
 30
0.0
 41
1.0
 10
-4878.620284631349
 20
-4448.870272649703
 30
0.0
 41
0.9999927113966378
 10
-4878.643115278522
 20
-4448.930938353388
 30
0.0
 41
1.0
 10
-4878.650099494245
 20
-4448.949496844452
 30
0.0
 41
1.0
 10
-4878.657083709969
 20
-4448.968055335517
 30
0.0
 41
1.0
 10
-4878.693882788558
 20
-4449.065838021251
 30
0.0
 41
0.9999487550945456
 10
-4878.728694601037
 20
-4449.164345703824
 30
0.0
 41
1.0
 10
-4878.74049140603
 20
-4449.197727359039
 30
0.0
 41
1.0
 10
-4878.752288211022
 20
-4449.231109014255
 30
0.0
 41
1.0
 10
-4878.799631028189
 20
-4449.365075931614
 30
0.0
 41
0.9999808436928543
 10
-4878.845311822492
 20
-4449.499618647196
 30
0.0
 41
1.0
 10
-4878.890992616811
 20
-4449.634161362819
 30
0.0
 41
0.9999873932911426
 10
-4878.935319971166
 20
-4449.769156040316
 30
0.0
 41
1.0
 10
-4878.945366149604
 20
-4449.799750706702
 30
0.0
 41
1.0
 10
-4878.955412328041
 20
-4449.830345373088
 30
0.0
 41
1.0
 10
-4879.01983203928
 20
-4450.026529383379
 30
0.0
 41
0.9999794883030549
 10
-4879.08173343177
 20
-4450.223522486551
 30
0.0
 41
1.0
 10
-4879.087309561452
 20
-4450.241267791554
 30
0.0
 41
1.0
 10
-4879.092885691135
 20
-4450.259013096558
 30
0.0
 41
1.0
 10
-4879.164164773108
 20
-4450.485849472681
 30
0.0
 41
0.9999982761819741
 10
-4879.234600993143
 20
-4450.712948983829
 30
0.0
 41
1.0
 10
-4880.028671159429
 20
-4453.237333849331
 30
0.0
 41
1.0
 10
-4880.822741325715
 20
-4455.761718714832
 30
0.0
 41
1.0
 10
-4881.297116631454
 20
-4455.761718714832
 30
0.0
 41
1.0
 10
-4881.771491937192
 20
-4455.761718714832
 30
0.0
 41
1.0
 10
-4880.152349694115
 20
-4450.598057614859
 30
0.0
 41
1.0
 10
-4878.533207451039
 20
-4445.434396514886
 30
0.0
 41
1.0
  0
LWPOLYLINE
  5
4F
330
23
100
AcDbEntity
  8
0
  6
Continuous
 62
     7
370
    15
390
1D
100
AcDbPolyline
 90
      232
 70
   128
 43
0.0
 10
-4891.384980337953
 20
-4445.976567930643
 42
0.000437080062671
 10
-4891.411418925021
 20
-4446.010901250314
 10
-4891.431061040552
 20
-4446.036454806719
 42
0.003048199215821
 10
-4891.49623039912
 20
-4446.122315652903
 10
-4891.515486234986
 20
-4446.148009044786
 42
0.0042058245747006
 10
-4891.617478760316
 20
-4446.286511917315
 10
-4891.643681321571
 20
-4446.322728340713
 42
0.0120948898756573
 10
-4891.791703279957
 20
-4446.538103142994
 10
-4891.839799529507
 20
-4446.61184351059
 42
0.0141601263935905
 10
-4891.991621552975
 20
-4446.859678178967
 10
-4892.01139018669
 20
-4446.894100162686
 42
0.0071131081290997
 10
-4892.114026348307
 20
-4447.078851562102
 42
0.0068458791018026
 10
-4892.211466111726
 20
-4447.266397343834
 10
-4892.214872042958
 20
-4447.273178200702
 42
0.0064120880291323
 10
-4892.313943167979
 20
-4447.476890438161
 10
-4892.317710510738
 20
-4447.484896366523
 42
0.0058857236408524
 10
-4892.419088206651
 20
-4447.707084421989
 10
-4892.423175669821
 20
-4447.716329498857
 42
0.005318974188825
 10
-4892.52752782615
 20
-4447.959311235805
 10
-4892.531901728995
 20
-4447.969802174914
 42
0.0047503650442581
 10
-4892.639888592083
 20
-4448.235901891552
 10
-4892.644522716245
 20
-4448.247640079573
 42
0.0042071762177856
 10
-4892.756796408122
 20
-4448.539186876642
 10
-4892.761671109283
 20
-4448.552169964043
 42
0.0036680086457829
 10
-4892.878898430913
 20
-4448.871487656235
 10
-4892.884002320863
 20
-4448.885711923481
 42
0.003257314261462
 10
-4893.006818463805
 20
-4449.235138253238
 10
-4893.041143724249
 20
-4449.334869795332
 42
0.0026133366646217
 10
-4893.215366323646
 20
-4449.84980143722
 10
-4893.24699471743
 20
-4449.94491685502
 42
0.0020592950746371
 10
-4893.353926251879
 20
-4450.270968681223
 10
-4893.355452147449
 20
-4450.275686925393
 42
0.0025609928546337
 10
-4893.456362398204
 20
-4450.59325953661
 10
-4893.457658081767
 20
-4450.597410707081
 42
0.0031362356244611
 10
-4893.552403474605
 20
-4450.907792135171
 10
-4893.553468996061
 20
-4450.911362788253
 42
0.0037229918035882
 10
-4893.641869189532
 20
-4451.215855439263
 10
-4893.642708484147
 20
-4451.218828884392
 42
0.0043077623714242
 10
-4893.724578885169
 20
-4451.518738250235
 42
0.0047654161806026
 10
-4893.800993246413
 20
-4451.82008129463
 10
-4893.818225550845
 20
-4451.890862183261
 42
0.0112969368447205
 10
-4893.916157729916
 20
-4452.33670826356
 10
-4893.930160924467
 20
-4452.408122286622
 42
0.0130056762563934
 10
-4894.03057954629
 20
-4453.001592822444
 10
-4894.040849421365
 20
-4453.073631879194
 42
0.0138721532141677
 10
-4894.092700923632
 20
-4453.527046622095
 10
-4894.102348667589
 20
-4453.638795483083
 42
0.0071254697001658
 10
-4894.119021990547
 20
-4453.870388987481
 10
-4894.121502477627
 20
-4453.913390984736
 42
0.0028881799191497
 10
-4894.129071624273
 20
-4454.059261839683
 42
0.0060297297142363
 10
-4894.13403772416
 20
-4454.205236307712
 10
-4894.134568864994
 20
-4454.229432493687
 42
0.0229523164121333
 10
-4894.130703351102
 20
-4454.390809916849
 10
-4894.128590464342
 20
-4454.421011683858
 42
0.0123673300701073
 10
-4894.119051141082
 20
-4454.521572046444
 42
0.0128577674524265
 10
-4894.104453445876
 20
-4454.621520971427
 10
-4894.100890509186
 20
-4454.642185378706
 42
0.0285717853794439
 10
-4894.068643508339
 20
-4454.78124345436
 10
-4894.061809246505
 20
-4454.804570839102
 42
0.0316283099169744
 10
-4894.003903956547
 20
-4454.964078090014
 10
-4894.002379610667
 20
-4454.967571276182
 42
0.0338984824275179
 10
-4893.927663755187
 20
-4455.111354258272
 10
-4893.926509390507
 20
-4455.1132497729
 42
0.0350228718313501
 10
-4893.835329245165
 20
-4455.241775765248
 10
-4893.834886619268
 20
-4455.242315304142
 42
0.0347476747550125
 10
-4893.727674275657
 20
-4455.35590782774
 42
0.0331337701939769
 10
-4893.60605261278
 20
-4455.453972158782
 10
-4893.605502563526
 20
-4455.454358510366
 42
0.030523331907515
 10
-4893.471230215741
 20
-4455.536922595409
 10
-4893.469615193489
 20
-4455.537784601342
 42
0.0273744481155578
 10
-4893.323338337695
 20
-4455.605853673291
 10
-4893.320786070133
 20
-4455.606875465523
 42
0.0240964406193075
 10
-4893.163047532311
 20
-4455.661367328662
 10
-4893.159755867705
 20
-4455.6623296985
 42
0.0209636179829142
 10
-4892.991055791365
 20
-4455.704063772469
 10
-4892.987239561155
 20
-4455.704839728967
 42
0.0181388704710911
 10
-4892.808078365135
 20
-4455.734547775577
 10
-4892.803937940966
 20
-4455.735080867483
 42
0.0156086547571704
 10
-4892.614844258896
 20
-4455.753448960769
 10
-4892.593246632697
 20
-4455.754868212011
 42
0.0137148329056265
 10
-4892.429410060058
 20
-4455.761128339636
 10
-4892.406441965071
 20
-4455.761375556194
 42
0.0051057823867501
 10
-4892.2883691718
 20
-4455.761440683398
 42
0.0052256693289773
 10
-4892.170320529892
 20
-4455.759066271166
 10
-4892.135207138035
 20
-4455.75799278816
 42
0.016150717903681
 10
-4891.947338598981
 20
-4455.746167602996
 10
-4891.937332118798
 20
-4455.745212505352
 42
0.0101216737834496
 10
-4891.730318508047
 20
-4455.721216040169
 10
-4891.71329186334
 20
-4455.718892191764
 42
0.0245291776407266
 10
-4891.474897035567
 20
-4455.674354652727
 10
-4891.432485377806
 20
-4455.664256692555
 42
0.0143509212548715
 10
-4891.254169825832
 20
-4455.616354375665
 42
0.0156557857021879
 10
-4891.079061793467
 20
-4455.557848767754
 10
-4891.075311186221
 20
-4455.556463686878
 42
0.0170137333626642
 10
-4890.897013188373
 20
-4455.483634879439
 10
-4890.893461227177
 20
-4455.48204096166
 42
0.0183105364415122
 10
-4890.713786393093
 20
-4455.393373440748
 10
-4890.710313010774
 20
-4455.391498223313
 42
0.019489995814859
 10
-4890.531072640282
 20
-4455.285508732366
 10
-4890.527565700614
 20
-4455.283246061219
 42
0.0204869852965138
 10
-4890.350558549571
 20
-4455.15848605368
 10
-4890.346925745273
 20
-4455.155696021002
 42
0.0212516938565618
 10
-4890.173930779716
 20
-4455.010744022552
 10
-4890.150672432672
 20
-4454.989510367499
 42
0.0215248918299651
 10
-4890.020659348238
 20
-4454.860128228011
 10
-4889.998144481034
 20
-4454.835706167321
 42
0.0114578554998227
 10
-4889.920748404209
 20
-4454.747794700606
 10
-4889.91515113621
 20
-4454.741135318826
 42
0.006153130519885
 10
-4889.851913813218
 20
-4454.663990552181
 42
0.00063255870807
 10
-4889.789724571323
 20
-4454.585988864572
 10
-4889.778204503617
 20
-4454.571502104014
 42
0.0041897761534348
 10
-4889.693976801624
 20
-4454.463742415975
 10
-4889.664745741684
 20
-4454.42569174249
 42
0.0092993880023608
 10
-4889.526439778067
 20
-4454.23855236054
 10
-4889.485242531476
 20
-4454.180583858766
 42
0.0159321727093895
 10
-4889.311939290152
 20
-4453.919496748385
 10
-4889.28976122245
 20
-4453.883656966248
 42
0.0085547317046024
 10
-4889.172505339794
 20
-4453.686719491649
 42
0.0084601156884956
 10
-4889.062017251068
 20
-4453.485906067123
 10
-4889.057959514158
 20
-4453.478226225996
 42
0.0081429654288231
 10
-4888.94633487894
 20
-4453.258365469727
 10
-4888.941904796848
 20
-4453.249276048716
 42
0.0076574581332312
 10
-4888.828701041562
 20
-4453.007684611087
 10
-4888.823961221202
 20
-4452.997152371938
 42
0.0070682724211136
 10
-4888.708738767294
 20
-4452.731133719535
 10
-4888.703743625308
 20
-4452.719139125042
 42
0.0064559514460841
 10
-4888.586077021201
 20
-4452.425982991741
 10
-4888.580872342134
 20
-4452.41251552906
 42
0.0058311413911814
 10
-4888.460348973747
 20
-4452.089499481854
 10
-4888.45497143506
 20
-4452.074557311289
 42
0.0052312425819972
 10
-4888.331180796062
 20
-4451.718956104437
 10
-4888.325658877849
 20
-4451.702542748337
 42
0.0046680544804943
 10
-4888.198194663992
 20
-4451.311629590489
 10
-4888.177198588947
 20
-4451.245137971771
 42
0.0041666856444407
 10
-4888.075555582763
 20
-4450.91365358431
 10
-4888.05672436245
 20
-4450.850363030549
 42
0.0015170975154393
 10
-4887.996131073224
 20
-4450.644428854736
 42
-0.0004887993112627
 10
-4887.935961186629
 20
-4450.438369648601
 10
-4887.897722557915
 20
-4450.307890955744
 42
0.0002583378924359
 10
-4887.761115273208
 20
-4449.840862605267
 10
-4887.720228848205
 20
-4449.700812974741
 42
0.0006636169665146
 10
-4887.623294968089
 20
-4449.36713651257
 10
-4887.620746640959
 20
-4449.358320721281
 42
0.0010589131312319
 10
-4887.530022290457
 20
-4449.041955049606
 10
-4887.527531255221
 20
-4449.033198596111
 42
0.0015655524470791
 10
-4887.443396151626
 20
-4448.733890256495
 10
-4887.4409810514
 20
-4448.725194176962
 42
0.0021640440479146
 10
-4887.363836065425
 20
-4448.442680668019
 10
-4887.361518955689
 20
-4448.434048302945
 42
0.0028763871868479
 10
-4887.291761096683
 20
-4448.168064327598
 10
-4887.289568164609
 20
-4448.159502338554
 42
0.0037310511957748
 10
-4887.227589818682
 20
-4447.909778541509
 10
-4887.225552208526
 20
-4447.901298405841
 42
0.0047652197790716
 10
-4887.171740258283
 20
-4447.667559521734
 10
-4887.169894958632
 20
-4447.659179744206
 42
0.0060276699296945
 10
-4887.124629909044
 20
-4447.441141846586
 10
-4887.123020563909
 20
-4447.432891239479
 42
0.0075824337724175
 10
-4887.086675909191
 20
-4447.230257657218
 10
-4887.085353220505
 20
-4447.222180183516
 42
0.0095130624609369
 10
-4887.058295602686
 20
-4447.034635506958
 10
-4887.054802490742
 20
-4447.006668727876
 42
0.0121054653246845
 10
-4887.041506825456
 20
-4446.874220813663
 10
-4887.041073580576
 20
-4446.868519092201
 42
0.0069050827379775
 10
-4887.033529171557
 20
-4446.747048478775
 10
-4887.032961521722
 20
-4446.735285350242
 42
0.0169063976677761
 10
-4887.031547882232
 20
-4446.637188986603
 10
-4887.032133207998
 20
-4446.607021105921
 42
0.0052007732955361
 10
-4887.033259932295
 20
-4446.569224410852
 42
0.005403812335648
 10
-4887.043241688221
 20
-4446.509215262809
 10
-4887.04578461615
 20
-4446.494886019556
 42
0.0112050460489318
 10
-4887.063476797181
 20
-4446.406722800379
 10
-4887.072389278199
 20
-4446.366952007027
 42
0.0240764467998834
 10
-4887.117837961274
 20
-4446.201833489275
 10
-4887.127117342681
 20
-4446.173523406775
 42
0.0256812331862775
 10
-4887.198798802774
 20
-4445.98766130365
 10
-4887.201503515686
 20
-4445.981595636153
 42
0.0268360501242147
 10
-4887.286217136109
 20
-4445.816099069145
 10
-4887.288985339923
 20
-4445.811339233995
 42
0.0274670231693571
 10
-4887.385085828134
 20
-4445.66519554653
 10
-4887.387776478113
 20
-4445.661555972762
 42
0.0275035967078844
 10
-4887.493562917896
 20
-4445.533798027607
 10
-4887.496097668385
 20
-4445.531058483785
 42
0.0269557673513057
 10
-4887.609799440099
 20
-4445.420737340812
 10
-4887.612170968981
 20
-4445.41867236359
 42
0.0259124802205688
 10
-4887.731948384706
 20
-4445.324827100005
 10
-4887.734213807297
 20
-4445.32323434884
 42
0.0245162153025438
 10
-4887.858171983844
 20
-4445.244867844285
 10
-4887.860435257017
 20
-4445.243587745678
 42
0.0229282588880739
 10
-4887.98664503542
 20
-4445.179653649435
 10
-4887.989035282358
 20
-4445.178577499545
 42
0.0212984135748368
 10
-4888.115554258569
 20
-4445.127978040933
 10
-4888.118206401039
 20
-4445.127046259558
 42
0.0197555462320123
 10
-4888.243095569916
 20
-4445.08863855057
 42
0.0183511896834929
 10
-4888.370559932659
 20
-4445.059847097085
 10
-4888.413742531016
 20
-4445.051745701893
 42
0.0338057877160462
 10
-4888.556496205638
 20
-4445.034841499325
 10
-4888.60199890817
 20
-4445.032551671694
 42
0.0091990524547136
 10
-4888.654922462476
 20
-4445.030863743734
 42
0.0028333980875272
 10
-4888.707879420473
 20
-4445.030449689975
 10
-4888.708337146997
 20
-4445.030448705063
 42
-0.0023619827799281
 10
-4888.762210154515
 20
-4445.030078284524
 10
-4888.780412739638
 20
-4445.029867131292
 42
0.000882459846564
 10
-4888.870690734516
 20
-4445.028979242173
 10
-4888.892621450766
 20
-4445.02880226141
 42
0.0038132665733061
 10
-4889.026762898662
 20
-4445.028742793376
 10
-4889.035029726103
 20
-4445.028802176448
 42
0.0060665569302256
 10
-4889.185669971883
 20
-4445.031712326158
 10
-4889.192795137911
 20
-4445.031936480143
 42
0.0080356953365372
 10
-4889.357524496099
 20
-4445.039770341177
 10
-4889.363559503624
 20
-4445.040154632647
 42
0.0098996399093885
 10
-4889.539941045944
 20
-4445.054897247244
 10
-4889.544963900637
 20
-4445.055417395344
 42
0.0117740981376331
 10
-4889.730542329826
 20
-4445.079063519112
 10
-4889.734653678052
 20
-4445.079686077395
 42
0.0137435215161768
 10
-4889.926948087794
 20
-4445.114234564176
 10
-4889.930276607356
 20
-4445.114927512293
 42
0.0158359869378598
 10
-4890.126775154245
 20
-4445.16237355653
 10
-4890.129481747692
 20
-4445.163118526969
 42
0.0180554124038578
 10
-4890.327639269988
 20
-4445.225437535085
 10
-4890.329917664039
 20
-4445.226245553221
 42
0.0203657431278416
 10
-4890.527156422948
 20
-4445.30537572398
 10
-4890.529228192448
 20
-4445.3063065347
 42
0.0226819684669434
 10
-4890.722946220553
 20
-4445.404127824037
 10
-4890.72504611606
 20
-4445.405310619995
 42
0.0248634984598718
 10
-4890.912637086652
 20
-4445.52362394297
 10
-4890.936734551048
 20
-4445.540552463886
 42
0.0267044190897776
 10
-4891.073880899501
 20
-4445.648272651815
 42
0.0139303002188981
 10
-4891.201964482469
 20
-4445.766892072271
 10
-4891.20439117533
 20
-4445.769268403701
 42
0.0283460963432153
 10
-4891.326427472446
 20
-4445.903133733926
 10
-4891.346261725022
 20
-4445.927534522661
 42
0.0070695364833285
 10
-4891.384980337953
 20
-4445.976567930643
 42
0.0070695364833285
  0
LWPOLYLINE
  5
50
330
23
100
AcDbEntity
  8
0
  6
Continuous
 62
     7
370
    15
390
1D
100
AcDbPolyline
 90
      226
 70
   128
 43
0.0
 10
-4893.149390556576
 20
-4453.837362333735
 42
-0.0026277636630189
 10
-4893.149429498476
 20
-4453.803976370881
 10
-4893.14932081936
 20
-4453.777398762142
 42
-0.0088680296742511
 10
-4893.147432511215
 20
-4453.690890870979
 10
-4893.146259331657
 20
-4453.661250858214
 42
-0.0077381705598211
 10
-4893.138236276275
 20
-4453.51562061031
 10
-4893.137802320689
 20
-4453.509476493472
 42
-0.0068872530503256
 10
-4893.124486280813
 20
-4453.351865617432
 10
-4893.123884168721
 20
-4453.345745127928
 42
-0.0062130021515882
 10
-4893.105087310312
 20
-4453.176310282342
 10
-4893.10433535854
 20
-4453.170223346351
 42
-0.0056726929640308
 10
-4893.079874428782
 20
-4452.989125735246
 10
-4893.078987705967
 20
-4452.983078835172
 42
-0.0052341884455948
 10
-4893.04868241283
 20
-4452.790482207372
 10
-4893.047673418449
 20
-4452.784479742417
 42
-0.0049768450179439
 10
-4893.011304077738
 20
-4452.580557458718
 10
-4892.999179570374
 20
-4452.516283467197
 42
-0.0089029805637272
 10
-4892.930639144474
 20
-4452.185395743477
 10
-4892.914266456817
 20
-4452.112880028224
 42
-0.0080318257107076
 10
-4892.799492149644
 20
-4451.640025212285
 10
-4892.793499686423
 20
-4451.616959894702
 42
-0.0074265721315338
 10
-4892.651493916998
 20
-4451.101927605511
 10
-4892.641554145432
 20
-4451.067860575188
 42
-0.0069711922695436
 10
-4892.477901856187
 20
-4450.534726705053
 10
-4892.44792588264
 20
-4450.44171602589
 42
-0.0052070422905619
 10
-4892.333213270004
 20
-4450.098079987352
 10
-4892.32457267403
 20
-4450.073066347368
 42
-0.0009167004471328
 10
-4892.223026730273
 20
-4449.780838422967
 42
-0.002516272694906
 10
-4892.119477915165
 20
-4449.489317790946
 10
-4892.100865609244
 20
-4449.437743017945
 42
-0.0028212681456426
 10
-4891.976777649757
 20
-4449.099877701847
 10
-4891.971862268356
 20
-4449.08672397944
 42
-0.0031964916832269
 10
-4891.853716139551
 20
-4448.776621598445
 10
-4891.848898912581
 20
-4448.764216603448
 42
-0.0036281836469159
 10
-4891.736345932
 20
-4448.480496262928
 10
-4891.731626726935
 20
-4448.468847547208
 42
-0.0041269166829319
 10
-4891.624317878593
 20
-4448.210127099186
 10
-4891.608001400376
 20
-4448.171687875992
 42
-0.0047472213065481
 10
-4891.529478997605
 20
-4447.991477142064
 10
-4891.526031956956
 20
-4447.983766843297
 42
-0.0025651659984143
 10
-4891.451852940077
 20
-4447.820102815524
 42
-0.0057144635005455
 10
-4891.374978093208
 20
-4447.657697978879
 10
-4891.360962740509
 20
-4447.628943787686
 42
-0.0065388068391299
 10
-4891.26922922662
 20
-4447.446827539314
 10
-4891.264999998749
 20
-4447.438697749662
 42
-0.0074510843044963
 10
-4891.176908875792
 20
-4447.275353609068
 10
-4891.172819040514
 20
-4447.26803322041
 42
-0.0084648979832255
 10
-4891.088002113976
 20
-4447.122078714952
 10
-4891.084074050736
 20
-4447.115575219133
 42
-0.0095638542827274
 10
-4891.002156326936
 20
-4446.985630783138
 10
-4890.998418855111
 20
-4446.979946102428
 42
-0.0107191626855882
 10
-4890.919018064906
 20
-4446.864640485137
 10
-4890.91550969804
 20
-4446.859772438955
 42
-0.0118458573881574
 10
-4890.838235648784
 20
-4446.7577363413
 42
-0.0129184518208823
 10
-4890.75600933699
 20
-4446.659656083222
 10
-4890.7409369508
 20
-4446.642593043762
 42
-0.02177425796114
 10
-4890.652630789635
 20
-4446.55098965864
 10
-4890.64725801741
 20
-4446.545881242044
 42
-0.0097266568652868
 10
-4890.564229207976
 20
-4446.469957454819
 42
-0.018772090576832
 10
-4890.477055420034
 20
-4446.398923028129
 10
-4890.461702424693
 20
-4446.387343486927
 42
-0.0179428207514494
 10
-4890.345492064696
 20
-4446.306067398371
 10
-4890.34366590124
 20
-4446.304885430928
 42
-0.0170047877652979
 10
-4890.225784082473
 20
-4446.234155173852
 10
-4890.223892588102
 20
-4446.233106021335
 42
-0.0160190788359942
 10
-4890.105438314282
 20
-4446.17228037034
 42
-0.0151102861476195
 10
-4889.983422423056
 20
-4446.118938982311
 10
-4889.957229171952
 20
-4446.108418915865
 42
-0.0271945441874166
 10
-4889.77789789242
 20
-4446.047486510511
 10
-4889.743365492177
 20
-4446.037811739878
 42
-0.0237596594034584
 10
-4889.535467068668
 20
-4445.990086383888
 10
-4889.501435641806
 20
-4445.983959039825
 42
-0.0213715440538014
 10
-4889.358498176081
 20
-4445.964485524069
 10
-4889.328424592986
 20
-4445.961690666721
 42
-0.0101465655864693
 10
-4889.244678326975
 20
-4445.955618895086
 10
-4889.240008133882
 20
-4445.955375437588
 42
-0.0100375910870007
 10
-4889.165431083595
 20
-4445.952987528626
 10
-4889.160301448761
 20
-4445.952926309119
 42
-0.0103625633407554
 10
-4889.095947451427
 20
-4445.953492025881
 10
-4889.084814625798
 20
-4445.953820705114
 42
-0.0115689250301968
 10
-4889.04278925703
 20
-4445.956035458237
 42
-0.0072438037360754
 10
-4889.000870117276
 20
-4445.959830058115
 10
-4888.992469862573
 20
-4445.960713329474
 42
-0.0217917313103177
 10
-4888.93418498092
 20
-4445.969423275834
 10
-4888.901384935626
 20
-4445.975796580043
 42
-0.0332943556700664
 10
-4888.799188853118
 20
-4446.002816725695
 10
-4888.784102568854
 20
-4446.007900764251
 42
-0.0184824084872695
 10
-4888.714850040611
 20
-4446.034126271948
 42
-0.0198002050643446
 10
-4888.647812870364
 20
-4446.065568302045
 10
-4888.646869551672
 20
-4446.066057195487
 42
-0.0212242342996794
 10
-4888.580800080477
 20
-4446.10393856488
 10
-4888.5798924327
 20
-4446.104511465988
 42
-0.0226090605791038
 10
-4888.515640482089
 20
-4446.14925128777
 10
-4888.514718261221
 20
-4446.149957414264
 42
-0.0238457052261834
 10
-4888.453127220585
 20
-4446.201955362186
 10
-4888.452150856295
 20
-4446.202862801078
 42
-0.0248160564099081
 10
-4888.394050102637
 20
-4446.26250010169
 10
-4888.392998285943
 20
-4446.263692768534
 42
-0.0254109591480648
 10
-4888.339195677013
 20
-4446.331336961513
 10
-4888.338071666053
 20
-4446.332907735718
 42
-0.0255528488199142
 10
-4888.289348326646
 20
-4446.408921262848
 10
-4888.288182776696
 20
-4446.410962068638
 42
-0.0252146793194743
 10
-4888.245292263691
 20
-4446.495713191637
 10
-4888.244141144112
 20
-4446.498304232593
 42
-0.024426563594018
 10
-4888.207813797231
 20
-4446.59217751862
 10
-4888.203190596499
 20
-4446.606110227784
 42
-0.023131961298031
 10
-4888.180229207002
 20
-4446.687760751186
 42
-0.0112130424395413
 10
-4888.162911195731
 20
-4446.770862551296
 10
-4888.162309933177
 20
-4446.774110844724
 42
-0.0210527881260786
 10
-4888.149466695492
 20
-4446.864638667431
 10
-4888.14771139808
 20
-4446.882341441718
 42
-0.0190029892391515
 10
-4888.139990661308
 20
-4447.009109364875
 10
-4888.139585673086
 20
-4447.026847172039
 42
-0.0137974553655494
 10
-4888.140360099504
 20
-4447.189362875406
 10
-4888.14078282698
 20
-4447.202422247669
 42
-0.0081336634211045
 10
-4888.148212494593
 20
-4447.355095981502
 42
-0.0073526923560699
 10
-4888.16036676128
 20
-4447.50747010364
 10
-4888.160997473172
 20
-4447.514138440977
 42
-0.0066886138732866
 10
-4888.178865266186
 20
-4447.679431462652
 10
-4888.17969381093
 20
-4447.686242272222
 42
-0.0061359187313058
 10
-4888.203619111963
 20
-4447.864624262327
 10
-4888.204637862492
 20
-4447.871571663686
 42
-0.0056698610067402
 10
-4888.234963027879
 20
-4448.063210948126
 10
-4888.236165744536
 20
-4448.070290507721
 42
-0.0052721077259727
 10
-4888.273231844934
 20
-4448.275354177548
 10
-4888.274613419358
 20
-4448.282562495253
 42
-0.0049289272190497
 10
-4888.318760478394
 20
-4448.50121675075
 10
-4888.320316725749
 20
-4448.508551177221
 42
-0.0047415956694258
 10
-4888.371935721539
 20
-4448.74094955603
 10
-4888.389319826694
 20
-4448.815853103619
 42
-0.0084404470911726
 10
-4888.484328048467
 20
-4449.195965115832
 10
-4888.487391392473
 20
-4449.207397177961
 42
-0.0039635940247785
 10
-4888.59811823462
 20
-4449.607891610101
 10
-4888.604806632206
 20
-4449.631357418381
 42
-0.0072475040834206
 10
-4888.738530076143
 20
-4450.075967276595
 10
-4888.773636239543
 20
-4450.186837451536
 42
-0.0051345458828829
 10
-4888.91701592558
 20
-4450.624000045467
 10
-4888.927779058899
 20
-4450.655713178841
 42
-0.0019150016605004
 10
-4889.055545762397
 20
-4451.027487739146
 10
-4889.058779564552
 20
-4451.036781471481
 42
-0.0021524362767356
 10
-4889.183018590127
 20
-4451.38894438246
 10
-4889.187623800445
 20
-4451.401821171527
 42
-0.0024331286829682
 10
-4889.305751429993
 20
-4451.72712082567
 10
-4889.310275406282
 20
-4451.739392478887
 42
-0.0027449721769617
 10
-4889.422582691686
 20
-4452.038957418309
 10
-4889.427027695421
 20
-4452.050618713337
 42
-0.0031083229759336
 10
-4889.533798938688
 20
-4452.325580732026
 10
-4889.538167004543
 20
-4452.336625589998
 42
-0.0035311343259392
 10
-4889.639687597321
 20
-4452.588117152819
 10
-4889.64398026691
 20
-4452.598538514612
 42
-0.0040245640954171
 10
-4889.740536168792
 20
-4452.82769317587
 10
-4889.744754225609
 20
-4452.83748285994
 42
-0.0046015135845822
 10
-4889.836632372176
 20
-4453.045435374727
 10
-4889.840775461077
 20
-4453.054583944426
 42
-0.0052768638260439
 10
-4889.928264220567
 20
-4453.242470386589
 10
-4889.932330325898
 20
-4453.250967055897
 42
-0.0060672675600292
 10
-4890.015720132264
 20
-4453.419924867418
 10
-4890.019704872494
 20
-4453.427757496896
 42
-0.006990464883192
 10
-4890.099289069505
 20
-4453.578925400248
 10
-4890.10318476931
 20
-4453.586080674862
 42
-0.0080637022738381
 10
-4890.179260699484
 20
-4453.720598326438
 10
-4890.183055215791
 20
-4453.727062259224
 42
-0.0093006455671976
 10
-4890.255925554065
 20
-4453.84606945849
 10
-4890.259600887431
 20
-4453.851828443066
 42
-0.0107060778056153
 10
-4890.329575159156
 20
-4453.956463601766
 10
-4890.333106043296
 20
-4453.961506373048
 42
-0.0122723111461744
 10
-4890.400502902396
 20
-4454.052903037794
 10
-4890.400666014165
 20
-4454.053113231689
 42
-0.0141836319654611
 10
-4890.47245681566
 20
-4454.140398110613
 10
-4890.475930693479
 20
-4454.144385610739
 42
-0.0175957477183621
 10
-4890.545883777502
 20
-4454.219196054948
 42
-0.0080466359678906
 10
-4890.619615660013
 20
-4454.290357319019
 10
-4890.642632932277
 20
-4454.311867538069
 42
-0.0269600260422768
 10
-4890.769273055264
 20
-4454.418029167321
 10
-4890.802556623409
 20
-4454.443004874631
 42
-0.0178362839775584
 10
-4890.922528868245
 20
-4454.526513837762
 10
-4890.926151353744
 20
-4454.528848093863
 42
-0.017465073264715
 10
-4891.044319452465
 20
-4454.599278576344
 42
-0.0169240130200332
 10
-4891.167052575395
 20
-4454.661424706233
 10
-4891.190045653173
 20
-4454.672105684016
 42
-0.0318883036831039
 10
-4891.365221080986
 20
-4454.740274838772
 10
-4891.39940384856
 20
-4454.751125149007
 42
-0.0284435909920815
 10
-4891.587428911711
 20
-4454.799233866746
 10
-4891.605007991953
 20
-4454.802680664659
 42
-0.0243909341027417
 10
-4891.761729722419
 20
-4454.825541180176
 10
-4891.786870085814
 20
-4454.827963953628
 42
-0.0196639292879157
 10
-4891.894667874569
 20
-4454.834088096383
 10
-4891.920579910176
 20
-4454.834539726752
 42
-0.0100501510625229
 10
-4891.976791550982
 20
-4454.834389527576
 10
-4891.992621481665
 20
-4454.834028991632
 42
-0.0019752031135597
 10
-4892.017167649996
 20
-4454.833372911527
 10
-4892.018547801625
 20
-4454.833330565614
 42
0.0065378752218441
 10
-4892.040336088983
 20
-4454.832947120007
 42
-0.0167974694686795
 10
-4892.06210150044
 20
-4454.832117170745
 10
-4892.06414117008
 20
-4454.831970665296
 42
-0.0081283276298233
 10
-4892.089921068987
 20
-4454.829697168473
 10
-4892.095790855888
 20
-4454.829083209688
 42
-0.0126703440170551
 10
-4892.133150003791
 20
-4454.824215814151
 10
-4892.144543937624
 20
-4454.822436686194
 42
-0.0117852088452906
 10
-4892.204313430562
 20
-4454.811655188611
 10
-4892.232003656422
 20
-4454.805983418499
 42
-0.0251774592204326
 10
-4892.345425675942
 20
-4454.776734413778
 10
-4892.367785270859
 20
-4454.769751004113
 42
-0.0146525199904459
 10
-4892.460981764621
 20
-4454.737617740516
 42
-0.0166929435817752
 10
-4892.551970592668
 20
-4454.699714173997
 10
-4892.554298908321
 20
-4454.698651723682
 42
-0.0191684358419649
 10
-4892.646890723949
 20
-4454.652033681785
 10
-4892.648557016824
 20
-4454.651113058009
 42
-0.022118178179899
 10
-4892.740212168786
 20
-4454.595046308817
 10
-4892.741387070779
 20
-4454.594254159829
 42
-0.0254984685433972
 10
-4892.829532145962
 20
-4454.528048584853
 10
-4892.840773219825
 20
-4454.518672430375
 42
-0.029249264872994
 10
-4892.903157689245
 20
-4454.460126030554
 42
-0.0159048957511662
 10
-4892.960077687976
 20
-4454.396116034746
 10
-4892.960737083259
 20
-4454.395325228244
 42
-0.0343813379632891
 10
-4893.012055714065
 20
-4454.32438956537
 10
-4893.027801479751
 20
-4454.299137869316
 42
-0.0369117275712326
 10
-4893.070747730701
 20
-4454.217399248839
 42
-0.0191751379982877
 10
-4893.104344423476
 20
-4454.131196945847
 10
-4893.105226085359
 20
-4454.128650273498
 42
-0.0378178042211182
 10
-4893.130123444751
 20
-4454.034179885462
 10
-4893.13312109262
 20
-4454.017899576344
 42
-0.0184846046387038
 10
-4893.143479692264
 20
-4453.947023166087
 42
-0.0179866351226372
 10
-4893.148646194801
 20
-4453.875577759548
 10
-4893.148674416024
 20
-4453.87479891624
 42
-0.0085497186017329
 10
-4893.149390556576
 20
-4453.837362333735
 42
-0.0085497186017329
  0
ENDBLK
  5
51
330
23
100
AcDbEntity
  8
template
390
1D
100
AcDbBlockEnd
  0
BLOCK
  5
52
330
24
100
AcDbEntity
  8
notes
390
1D
100
AcDbBlockBegin
  2
*D3
 70
     1
 10
0.0
 20
0.0
 30
0.0
  3
*D3
  1
*D3
  0
LINE
  5
53
330
24
100
AcDbEntity
  8
notes
 62
     0
370
    -2
100
AcDbLine
 10
288.5
 20
45.0
 30
0.0
 11
329.5153039419665
 21
45.0
 31
0.0
  0
LINE
  5
54
330
24
100
AcDbEntity
  8
notes
 62
     0
370
    -2
100
AcDbLine
 10
288.5
 20
115.0
 30
0.0
 11
329.5153039419665
 21
115.0
 31
0.0
  0
LINE
  5
55
330
24
100
AcDbEntity
  8
notes
 62
     0
370
    -2
100
AcDbLine
 10
329.5153039419665
 20
46.9998779296875
 30
0.0
 11
329.5153039419665
 21
113.0001220703125
 31
0.0
  0
INSERT
  5
56
102
{ACAD_REACTORS
330
57
102
}
330
24
100
AcDbEntity
  8
notes
 62
     0
370
    -2
100
AcDbBlockReference
  2
_DOT
 10
329.5153039419665
 20
45.0
 30
0.0
 41
1.9998779296875
 42
1.9998779296875
 43
1.9998779296875
 50
270.0
  0
INSERT
  5
57
330
24
100
AcDbEntity
  8
notes
 62
     0
370
    -2
100
AcDbBlockReference
  2
_DOT
 10
329.5153039419665
 20
115.0
 30
0.0
 41
1.9998779296875
 42
1.9998779296875
 43
1.9998779296875
 50
90.0
  0
MTEXT
  5
58
102
{ACAD_REACTORS
330
59
102
}
330
24
100
AcDbEntity
  8
notes
  6
Continuous
 62
     0
100
AcDbMText
 10
319.9176286489978
 20
80.0
 30
0.0
 40
12.21630859375
 41
0.0
 46
0.0
 71
     5
 72
     1
  1
\A1;φ70
  7
ＭＳ ゴシック
 11
0.0
 21
1.0
 31
0.0
 73
     1
 44
1.0
  0
POINT
  5
59
330
24
100
AcDbEntity
  8
Defpoints
 62
     0
100
AcDbPoint
 10
276.0
 20
45.0
 30
0.0
  0
POINT
  5
5A
330
24
100
AcDbEntity
  8
Defpoints
 62
     0
100
AcDbPoint
 10
276.0
 20
115.0
 30
0.0
  0
POINT
  5
5B
330
24
100
AcDbEntity
  8
Defpoints
 62
     0
100
AcDbPoint
 10
329.5153039419665
 20
115.0
 30
0.0
  0
ENDBLK
  5
5E
330
24
100
AcDbEntity
  8
notes
390
1D
100
AcDbBlockEnd
  0
BLOCK
  5
5F
330
25
100
AcDbEntity
  8
notes
390
1D
100
AcDbBlockBegin
  2
*D4
 70
     1
 10
0.0
 20
0.0
 30
0.0
  3
*D4
  1
*D4
  0
LINE
  5
60
330
25
100
AcDbEntity
  8
0
  6
Continuous
 62
     0
370
    -2
390
1D
100
AcDbLine
 10
171.8611727848329
 20
64.36211976880895
 30
0.0
 11
171.2711176823796
 21
64.36211976880895
 31
0.0
  0
LINE
  5
61
330
25
100
AcDbEntity
  8
0
  6
Continuous
 62
     0
370
    -2
390
1D
100
AcDbLine
 10
171.8611727848329
 20
96.35526835582368
 30
0.0
 11
171.2711176823796
 21
96.35526835582368
 31
0.0
  0
LINE
  5
62
330
25
100
AcDbEntity
  8
0
  6
Continuous
 62
     0
370
    -2
390
1D
100
AcDbLine
 10
171.2711176823796
 20
96.35526835582368
 30
0.0
 11
171.2711176823796
 21
136.1052683558237
 31
0.0
  0
LINE
  5
63
330
25
100
AcDbEntity
  8
0
  6
Continuous
 62
     0
370
    -2
390
1D
100
AcDbLine
 10
171.2711176823796
 20
64.36211976880895
 30
0.0
 11
171.2711176823796
 21
96.35526835582368
 31
0.0
  0
CIRCLE
  5
64
102
{ACAD_REACTORS
330
65
102
}
330
25
100
AcDbEntity
  8
0
  6
Continuous
 62
     0
370
    -2
390
1D
100
AcDbCircle
 10
171.2711176823796
 20
64.36211976880895
 30
0.0
 40
0.99993896484375
  0
HATCH
  5
65
330
25
100
AcDbEntity
  8
0
  6
Continuous
 62
     0
370
    -2
390
1D
100
AcDbHatch
 10
0.0
 20
0.0
 30
0.0
210
0.0
220
0.0
230
1.0
  2
SOLID
 70
     1
 71
     1
 91
        1
 92
        1
 93
        1
 72
     2
 10
171.2711176823796
 20
64.36211976880895
 40
0.99993896484375
 50
0.0
 51
360.0
 73
     0
 97
        1
330
64
 75
     0
 76
     1
 98
        1
 10
0.0
 20
0.0
  0
CIRCLE
  5
66
102
{ACAD_REACTORS
330
67
102
}
330
25
100
AcDbEntity
  8
0
  6
Continuous
 62
     0
370
    -2
390
1D
100
AcDbCircle
 10
171.2711176823796
 20
96.35526835582368
 30
0.0
 40
0.99993896484375
  0
HATCH
  5
67
330
25
100
AcDbEntity
  8
0
  6
Continuous
 62
     0
370
    -2
390
1D
100
AcDbHatch
 10
0.0
 20
0.0
 30
0.0
210
0.0
220
0.0
230
1.0
  2
SOLID
 70
     1
 71
     1
 91
        1
 92
        1
 93
        1
 72
     2
 10
171.2711176823796
 20
96.35526835582368
 40
0.99993896484375
 50
0.0
 51
360.0
 73
     0
 97
        1
330
66
 75
     0
 76
     1
 98
        1
 10
0.0
 20
0.0
  0
MTEXT
  5
68
330
25
100
AcDbEntity
  8
0
 62
     0
390
1D
100
AcDbMText
 10
154.3323090886297
 20
104.3552683558237
 30
0.0
 40
12.21630859375
 41
0.0
 46
0.0
 71
     1
 72
     1
  1
φ32
  7
ＭＳ ゴシック
 11
0.0
 21
1.0
 31
0.0
 73
     1
 44
0.7828267384257843
  0
POINT
  5
69
330
25
100
AcDbEntity
  8
Defpoints
 62
     0
370
     0
390
1D
100
AcDbPoint
 10
184.3611727848329
 20
96.35526835582368
 30
0.0
  0
POINT
  5
6A
330
25
100
AcDbEntity
  8
Defpoints
 62
     0
370
     0
390
1D
100
AcDbPoint
 10
184.3611727848329
 20
64.36211976880895
 30
0.0
  0
POINT
  5
6B
330
25
100
AcDbEntity
  8
Defpoints
 62
     0
370
     0
390
1D
100
AcDbPoint
 10
171.2711176823796
 20
64.36211976880895
 30
0.0
  0
ENDBLK
  5
6C
330
25
100
AcDbEntity
  8
notes
390
1D
100
AcDbBlockEnd
  0
BLOCK
  5
6D
330
26
100
AcDbEntity
  8
notes
390
1D
100
AcDbBlockBegin
  2
*D5
 70
     1
 10
0.0
 20
0.0
 30
0.0
  3
*D5
  1
*D5
  0
LINE
  5
6E
330
26
100
AcDbEntity
  8
notes
 62
     0
370
    -2
100
AcDbLine
 10
1.361172784832888
 20
-12.5
 30
0.0
 11
1.361172784832888
 21
-106.6447316441763
 31
0.0
  0
LINE
  5
6F
330
26
100
AcDbEntity
  8
notes
 62
     0
370
    -2
100
AcDbLine
 10
281.3611727848329
 20
51.50342570649264
 30
0.0
 11
281.3611727848329
 21
-106.6447316441763
 31
0.0
  0
LINE
  5
70
330
26
100
AcDbEntity
  8
notes
 62
     0
370
    -2
100
AcDbLine
 10
3.361050714520388
 20
-106.6447316441763
 30
0.0
 11
279.3612948551454
 21
-106.6447316441763
 31
0.0
  0
INSERT
  5
71
102
{ACAD_REACTORS
330
72
102
}
330
26
100
AcDbEntity
  8
notes
 62
     0
370
    -2
100
AcDbBlockReference
  2
_DOT
 10
1.361172784832888
 20
-106.6447316441763
 30
0.0
 41
1.9998779296875
 42
1.9998779296875
 43
1.9998779296875
 50
180.0
  0
INSERT
  5
72
330
26
100
AcDbEntity
  8
notes
 62
     0
370
    -2
100
AcDbBlockReference
  2
_DOT
 10
281.3611727848329
 20
-106.6447316441763
 30
0.0
 41
1.9998779296875
 42
1.9998779296875
 43
1.9998779296875
  0
MTEXT
  5
73
102
{ACAD_REACTORS
330
74
102
}
330
26
100
AcDbEntity
  8
notes
  6
Continuous
 62
     0
100
AcDbMText
 10
141.3611727848329
 20
-98.0365773473013
 30
0.0
 40
12.21630859375
 41
0.0
 46
0.0
 71
     5
 72
     1
  1
\A1;280
  7
ＭＳ ゴシック
 73
     1
 44
1.0
  0
POINT
  5
74
330
26
100
AcDbEntity
  8
Defpoints
 62
     0
100
AcDbPoint
 10
1.361172784832888
 20
0.0
 30
0.0
  0
POINT
  5
75
330
26
100
AcDbEntity
  8
Defpoints
 62
     0
100
AcDbPoint
 10
281.3611727848329
 20
64.00342570649264
 30
0.0
  0
POINT
  5
76
330
26
100
AcDbEntity
  8
Defpoints
 62
     0
100
AcDbPoint
 10
281.3611727848329
 20
-106.6447316441763
 30
0.0
  0
ENDBLK
  5
79
330
26
100
AcDbEntity
  8
notes
390
1D
100
AcDbBlockEnd
  0
BLOCK
  5
7A
330
27
100
AcDbEntity
  8
notes
390
1D
100
AcDbBlockBegin
  2
*D6
 70
     1
 10
0.0
 20
0.0
 30
0.0
  3
*D6
  1
*D6
  0
LINE
  5
7B
330
27
100
AcDbEntity
  8
notes
 62
     0
370
    -2
100
AcDbLine
 10
-36.13882721516711
 20
-5.0
 30
0.0
 11
-109.9078155256266
 21
-5.0
 31
0.0
  0
LINE
  5
7C
330
27
100
AcDbEntity
  8
notes
 62
     0
370
    -2
100
AcDbLine
 10
-33.63882721516711
 20
205.0
 30
0.0
 11
-109.9078155256266
 21
205.0
 31
0.0
  0
LINE
  5
7D
330
27
100
AcDbEntity
  8
notes
 62
     0
370
    -2
100
AcDbLine
 10
-109.9078155256266
 20
-3.0001220703125
 30
0.0
 11
-109.9078155256266
 21
203.0001220703125
 31
0.0
  0
INSERT
  5
7E
102
{ACAD_REACTORS
330
7F
102
}
330
27
100
AcDbEntity
  8
notes
 62
     0
370
    -2
100
AcDbBlockReference
  2
_DOT
 10
-109.9078155256266
 20
-5.0
 30
0.0
 41
1.9998779296875
 42
1.9998779296875
 43
1.9998779296875
 50
270.0
  0
INSERT
  5
7F
330
27
100
AcDbEntity
  8
notes
 62
     0
370
    -2
100
AcDbBlockReference
  2
_DOT
 10
-109.9078155256266
 20
205.0
 30
0.0
 41
1.9998779296875
 42
1.9998779296875
 43
1.9998779296875
 50
90.0
  0
MTEXT
  5
80
102
{ACAD_REACTORS
330
81
102
}
330
27
100
AcDbEntity
  8
notes
  6
Continuous
 62
     0
100
AcDbMText
 10
-118.5159698225016
 20
100.0
 30
0.0
 40
12.21630859375
 41
0.0
 46
0.0
 71
     5
 72
     1
  1
\A1;150-210
  7
ＭＳ ゴシック
 11
6.767073673905717E-17
 21
1.0
 31
0.0
 73
     1
 44
1.0
  0
POINT
  5
81
330
27
100
AcDbEntity
  8
Defpoints
 62
     0
100
AcDbPoint
 10
-23.63882721516711
 20
-5.0
 30
0.0
  0
POINT
  5
82
330
27
100
AcDbEntity
  8
Defpoints
 62
     0
100
AcDbPoint
 10
-21.13882721516711
 20
205.0
 30
0.0
  0
POINT
  5
83
330
27
100
AcDbEntity
  8
Defpoints
 62
     0
100
AcDbPoint
 10
-109.9078155256266
 20
205.0
 30
0.0
  0
ENDBLK
  5
86
330
27
100
AcDbEntity
  8
notes
390
1D
100
AcDbBlockEnd
  0
BLOCK
  5
87
330
28
100
AcDbEntity
  8
notes
390
1D
100
AcDbBlockBegin
  2
*D7
 70
     1
 10
0.0
 20
0.0
 30
0.0
  3
*D7
  1
*D7
  0
LINE
  5
88
330
28
100
AcDbEntity
  8
notes
 62
     0
370
    -2
100
AcDbLine
 10
23.86117278483289
 20
217.5
 30
0.0
 11
23.86117278483289
 21
252.0
 31
0.0
  0
LINE
  5
89
330
28
100
AcDbEntity
  8
notes
 62
     0
370
    -2
100
AcDbLine
 10
-21.13882721516711
 20
217.5
 30
0.0
 11
-21.13882721516711
 21
252.0
 31
0.0
  0
LINE
  5
8A
330
28
100
AcDbEntity
  8
notes
 62
     0
370
    -2
100
AcDbLine
 10
21.86129485514539
 20
252.0
 30
0.0
 11
-19.13894928547961
 21
252.0
 31
0.0
  0
INSERT
  5
8B
102
{ACAD_REACTORS
330
8C
102
}
330
28
100
AcDbEntity
  8
notes
 62
     0
370
    -2
100
AcDbBlockReference
  2
_DOT
 10
23.86117278483289
 20
252.0
 30
0.0
 41
1.9998779296875
 42
1.9998779296875
 43
1.9998779296875
  0
INSERT
  5
8C
330
28
100
AcDbEntity
  8
notes
 62
     0
370
    -2
100
AcDbBlockReference
  2
_DOT
 10
-21.13882721516711
 20
252.0
 30
0.0
 41
1.9998779296875
 42
1.9998779296875
 43
1.9998779296875
 50
180.0
  0
MTEXT
  5
8D
102
{ACAD_REACTORS
102
}
330
28
100
AcDbEntity
  8
notes
  6
Continuous
 62
     0
100
AcDbMText
 10
1.361172784832888
 20
261.9091911621094
 30
0.0
 40
12.21630859375
 41
0.0
 46
0.0
 71
     5
 72
     1
  1
\A1;G1.1/4"
  7
ＭＳ ゴシック
 73
     1
 44
1.0
  0
POINT
  5
1BF
330
28
100
AcDbEntity
  8
Defpoints
 62
     0
100
AcDbPoint
 10
23.86117278483289
 20
205.0
 30
0.0
  0
POINT
  5
1C0
330
28
100
AcDbEntity
  8
Defpoints
 62
     0
100
AcDbPoint
 10
-21.13882721516711
 20
205.0
 30
0.0
  0
POINT
  5
1C1
330
28
100
AcDbEntity
  8
Defpoints
 62
     0
100
AcDbPoint
 10
-21.13882721516711
 20
252.0
 30
0.0
  0
ENDBLK
  5
93
330
28
100
AcDbEntity
  8
notes
390
1D
100
AcDbBlockEnd
  0
BLOCK
  5
94
330
29
100
AcDbEntity
  8
AWK73-9903
390
1D
100
AcDbBlockBegin
  2
*D8
 70
     1
 10
0.0
 20
0.0
 30
0.0
  3
*D8
  1
*D8
  0
LINE
  5
95
330
29
100
AcDbEntity
  8
notes
 62
     0
370
    -2
100
AcDbLine
 10
-246.7310116895405
 20
-12.5
 30
0.0
 11
-246.7310116895405
 21
-50.0
 31
0.0
  0
LINE
  5
96
330
29
100
AcDbEntity
  8
notes
 62
     0
370
    -2
100
AcDbLine
 10
-296.7310116895405
 20
-12.5
 30
0.0
 11
-296.7310116895405
 21
-50.0
 31
0.0
  0
LINE
  5
97
330
29
100
AcDbEntity
  8
notes
 62
     0
370
    -2
100
AcDbLine
 10
-248.730889619228
 20
-50.0
 30
0.0
 11
-294.731133759853
 21
-50.0
 31
0.0
  0
INSERT
  5
98
102
{ACAD_REACTORS
330
99
102
}
330
29
100
AcDbEntity
  8
notes
 62
     0
370
    -2
100
AcDbBlockReference
  2
_DOT
 10
-246.7310116895405
 20
-50.0
 30
0.0
 41
1.9998779296875
 42
1.9998779296875
 43
1.9998779296875
  0
INSERT
  5
99
330
29
100
AcDbEntity
  8
notes
 62
     0
370
    -2
100
AcDbBlockReference
  2
_DOT
 10
-296.7310116895405
 20
-50.0
 30
0.0
 41
1.9998779296875
 42
1.9998779296875
 43
1.9998779296875
 50
180.0
  0
MTEXT
  5
9A
102
{ACAD_REACTORS
330
9B
102
}
330
29
100
AcDbEntity
  8
notes
  6
Continuous
 62
     0
100
AcDbMText
 10
-271.7310116895405
 20
-40.40232470703125
 30
0.0
 40
12.21630859375
 41
0.0
 46
0.0
 71
     5
 72
     1
  1
\A1;φ50
  7
ＭＳ ゴシック
 73
     1
 44
1.0
  0
POINT
  5
9B
330
29
100
AcDbEntity
  8
Defpoints
 62
     0
100
AcDbPoint
 10
-246.7310116895405
 20
0.0
 30
0.0
  0
POINT
  5
9C
330
29
100
AcDbEntity
  8
Defpoints
 62
     0
100
AcDbPoint
 10
-296.7310116895405
 20
0.0
 30
0.0
  0
POINT
  5
9D
330
29
100
AcDbEntity
  8
Defpoints
 62
     0
100
AcDbPoint
 10
-296.7310116895405
 20
-50.0
 30
0.0
  0
ENDBLK
  5
A0
330
29
100
AcDbEntity
  8
AWK73-9903
390
1D
100
AcDbBlockEnd
  0
BLOCK
  5
A1
330
2A
100
AcDbEntity
  8
AWK73-9903
390
1D
100
AcDbBlockBegin
  2
*D9
 70
     1
 10
0.0
 20
0.0
 30
0.0
  3
*D9
  1
*D9
  0
LINE
  5
A2
330
2A
100
AcDbEntity
  8
notes
 62
     0
370
    -2
100
AcDbLine
 10
-33.63882721516711
 20
205.0
 30
0.0
 11
-62.90781552562656
 21
205.0
 31
0.0
  0
LINE
  5
A3
330
2A
100
AcDbEntity
  8
notes
 62
     0
370
    -2
100
AcDbLine
 10
-36.13882721516711
 20
80.0
 30
0.0
 11
-62.90781552562657
 21
80.0
 31
0.0
  0
LINE
  5
A4
330
2A
100
AcDbEntity
  8
notes
 62
     0
370
    -2
100
AcDbLine
 10
-62.90781552562656
 20
203.0001220703125
 30
0.0
 11
-62.90781552562657
 21
81.9998779296875
 31
0.0
  0
INSERT
  5
A5
102
{ACAD_REACTORS
330
A6
102
}
330
2A
100
AcDbEntity
  8
notes
 62
     0
370
    -2
100
AcDbBlockReference
  2
_DOT
 10
-62.90781552562656
 20
205.0
 30
0.0
 41
1.9998779296875
 42
1.9998779296875
 43
1.9998779296875
 50
90.0
  0
INSERT
  5
A6
330
2A
100
AcDbEntity
  8
notes
 62
     0
370
    -2
100
AcDbBlockReference
  2
_DOT
 10
-62.90781552562657
 20
80.0
 30
0.0
 41
1.9998779296875
 42
1.9998779296875
 43
1.9998779296875
 50
270.0
  0
MTEXT
  5
A7
102
{ACAD_REACTORS
330
A8
102
}
330
2A
100
AcDbEntity
  8
notes
  6
Continuous
 62
     0
100
AcDbMText
 10
-71.51596982250156
 20
142.5
 30
0.0
 40
12.21630859375
 41
0.0
 46
0.0
 71
     5
 72
     1
  1
\A1;65-125
  7
ＭＳ ゴシック
 11
5.684341886080802E-17
 21
1.0
 31
0.0
 73
     1
 44
1.0
  0
POINT
  5
A8
330
2A
100
AcDbEntity
  8
Defpoints
 62
     0
100
AcDbPoint
 10
-21.13882721516711
 20
205.0
 30
0.0
  0
POINT
  5
A9
330
2A
100
AcDbEntity
  8
Defpoints
 62
     0
100
AcDbPoint
 10
-23.63882721516711
 20
80.0
 30
0.0
  0
POINT
  5
AA
330
2A
100
AcDbEntity
  8
Defpoints
 62
     0
100
AcDbPoint
 10
-62.90781552562657
 20
80.0
 30
0.0
  0
ENDBLK
  5
AD
330
2A
100
AcDbEntity
  8
AWK73-9903
390
1D
100
AcDbBlockEnd
  0
BLOCK
  5
AE
330
2B
100
AcDbEntity
  8
AWK73-9903
390
1D
100
AcDbBlockBegin
  2
*D10
 70
     1
 10
0.0
 20
0.0
 30
0.0
  3
*D10
  1
*D10
  0
LINE
  5
AF
330
2B
100
AcDbEntity
  8
notes
 62
     0
370
    -2
100
AcDbLine
 10
61.36117278483289
 20
42.5
 30
0.0
 11
61.36117278483289
 21
-40.0
 31
0.0
  0
LINE
  5
B0
330
2B
100
AcDbEntity
  8
notes
 62
     0
370
    -2
100
AcDbLine
 10
1.361172784832888
 20
-12.5
 30
0.0
 11
1.361172784832888
 21
-40.0
 31
0.0
  0
LINE
  5
B1
330
2B
100
AcDbEntity
  8
notes
 62
     0
370
    -2
100
AcDbLine
 10
59.36129485514539
 20
-40.0
 30
0.0
 11
3.361050714520388
 21
-40.0
 31
0.0
  0
INSERT
  5
B2
102
{ACAD_REACTORS
330
B3
102
}
330
2B
100
AcDbEntity
  8
notes
 62
     0
370
    -2
100
AcDbBlockReference
  2
_DOT
 10
61.36117278483289
 20
-40.0
 30
0.0
 41
1.9998779296875
 42
1.9998779296875
 43
1.9998779296875
  0
INSERT
  5
B3
330
2B
100
AcDbEntity
  8
notes
 62
     0
370
    -2
100
AcDbBlockReference
  2
_DOT
 10
1.361172784832888
 20
-40.0
 30
0.0
 41
1.9998779296875
 42
1.9998779296875
 43
1.9998779296875
 50
180.0
  0
MTEXT
  5
B4
102
{ACAD_REACTORS
330
B5
102
}
330
2B
100
AcDbEntity
  8
notes
  6
Continuous
 62
     0
100
AcDbMText
 10
31.36117278483289
 20
-31.391845703125
 30
0.0
 40
12.21630859375
 41
0.0
 46
0.0
 71
     5
 72
     1
  1
\A1;60
  7
ＭＳ ゴシック
 73
     1
 44
1.0
  0
POINT
  5
B5
330
2B
100
AcDbEntity
  8
Defpoints
 62
     0
100
AcDbPoint
 10
61.36117278483289
 20
55.0
 30
0.0
  0
POINT
  5
B6
330
2B
100
AcDbEntity
  8
Defpoints
 62
     0
100
AcDbPoint
 10
1.361172784832888
 20
0.0
 30
0.0
  0
POINT
  5
B7
330
2B
100
AcDbEntity
  8
Defpoints
 62
     0
100
AcDbPoint
 10
1.361172784832888
 20
-40.0
 30
0.0
  0
ENDBLK
  5
BA
330
2B
100
AcDbEntity
  8
AWK73-9903
390
1D
100
AcDbBlockEnd
  0
BLOCK
  5
BB
330
2C
100
AcDbEntity
  8
AWK73-9903
390
1D
100
AcDbBlockBegin
  2
*D11
 70
     1
 10
0.0
 20
0.0
 30
0.0
  3
*D11
  1
*D11
  0
LINE
  5
BC
330
2C
100
AcDbEntity
  8
notes
 62
     0
370
    -2
100
AcDbLine
 10
276.0
 20
127.5
 30
0.0
 11
276.0
 21
139.0
 31
0.0
  0
LINE
  5
BD
330
2C
100
AcDbEntity
  8
notes
 62
     0
370
    -2
100
AcDbLine
 10
264.0
 20
127.5
 30
0.0
 11
264.0
 21
139.0
 31
0.0
  0
LINE
  5
BE
330
2C
100
AcDbEntity
  8
notes
 62
     0
370
    -2
100
AcDbLine
 10
274.0001220703125
 20
139.0
 30
0.0
 11
265.9998779296875
 21
139.0
 31
0.0
  0
INSERT
  5
BF
102
{ACAD_REACTORS
330
C0
102
}
330
2C
100
AcDbEntity
  8
notes
 62
     0
370
    -2
100
AcDbBlockReference
  2
_DOT
 10
276.0
 20
139.0
 30
0.0
 41
1.9998779296875
 42
1.9998779296875
 43
1.9998779296875
  0
INSERT
  5
C0
330
2C
100
AcDbEntity
  8
notes
 62
     0
370
    -2
100
AcDbBlockReference
  2
_DOT
 10
264.0
 20
139.0
 30
0.0
 41
1.9998779296875
 42
1.9998779296875
 43
1.9998779296875
 50
180.0
  0
MTEXT
  5
C1
102
{ACAD_REACTORS
330
C2
102
}
330
2C
100
AcDbEntity
  8
notes
  6
Continuous
 62
     0
100
AcDbMText
 10
270.0
 20
147.608154296875
 30
0.0
 40
12.21630859375
 41
0.0
 46
0.0
 71
     5
 72
     1
  1
\A1;12
  7
ＭＳ ゴシック
 73
     1
 44
1.0
  0
POINT
  5
C2
330
2C
100
AcDbEntity
  8
Defpoints
 62
     0
100
AcDbPoint
 10
276.0
 20
115.0
 30
0.0
  0
POINT
  5
C3
330
2C
100
AcDbEntity
  8
Defpoints
 62
     0
100
AcDbPoint
 10
264.0
 20
115.0
 30
0.0
  0
POINT
  5
C4
330
2C
100
AcDbEntity
  8
Defpoints
 62
     0
100
AcDbPoint
 10
264.0
 20
139.0
 30
0.0
  0
ENDBLK
  5
C7
330
2C
100
AcDbEntity
  8
AWK73-9903
390
1D
100
AcDbBlockEnd
  0
BLOCK
  5
171
330
170
100
AcDbEntity
  8
0
100
AcDbBlockBegin
  2
*D12
 70
     1
 10
0.0
 20
0.0
 30
0.0
  3
*D12
  1
*D12
  0
LINE
  5
173
330
170
100
AcDbEntity
  8
notes
 62
     0
370
    -2
100
AcDbLine
 10
196.8611727848329
 20
96.35526835582368
 30
0.0
 11
196.2711176823796
 21
96.35526835582368
 31
0.0
  0
LINE
  5
174
330
170
100
AcDbEntity
  8
notes
 62
     0
370
    -2
100
AcDbLine
 10
196.8611727848329
 20
64.36211976880895
 30
0.0
 11
196.2711176823796
 21
64.36211976880895
 31
0.0
  0
LINE
  5
175
330
170
100
AcDbEntity
  8
notes
 62
     0
370
    -2
100
AcDbLine
 10
196.2711176823796
 20
94.35539042613618
 30
0.0
 11
196.2711176823796
 21
66.36199769849645
 31
0.0
  0
INSERT
  5
176
330
170
100
AcDbEntity
  8
notes
 62
     0
370
    -2
100
AcDbBlockReference
  2
_DOT
 10
196.2711176823796
 20
96.35526835582368
 30
0.0
 41
1.9998779296875
 42
1.9998779296875
 43
1.9998779296875
 50
90.0
  0
INSERT
  5
177
330
170
100
AcDbEntity
  8
notes
 62
     0
370
    -2
100
AcDbBlockReference
  2
_DOT
 10
196.2711176823796
 20
64.36211976880895
 30
0.0
 41
1.9998779296875
 42
1.9998779296875
 43
1.9998779296875
 50
270.0
  0
MTEXT
  5
178
330
170
100
AcDbEntity
  8
notes
  6
Continuous
 62
     0
100
AcDbMText
 10
186.6734423894108
 20
118.1841296839487
 30
0.0
 40
12.21630859375
 41
0.0
 46
0.0
 71
     5
 72
     1
  1
\A1;φ32
  7
ＭＳ ゴシック
 11
0.0
 21
1.0
 31
0.0
 73
     1
 44
1.0
  0
POINT
  5
179
330
170
100
AcDbEntity
  8
Defpoints
 62
     0
100
AcDbPoint
 10
209.3611727848329
 20
96.35526835582368
 30
0.0
  0
POINT
  5
17A
330
170
100
AcDbEntity
  8
Defpoints
 62
     0
100
AcDbPoint
 10
209.3611727848329
 20
64.36211976880895
 30
0.0
  0
POINT
  5
17B
330
170
100
AcDbEntity
  8
Defpoints
 62
     0
100
AcDbPoint
 10
196.2711176823796
 20
64.36211976880895
 30
0.0
  0
ENDBLK
  5
172
330
170
100
AcDbEntity
  8
0
100
AcDbBlockEnd
  0
ENDSEC
  0
SECTION
  2
ENTITIES
  0
MTEXT
  5
C8
330
A
100
AcDbEntity
  8
template
 62
     7
390
1D
100
AcDbMText
 10
-483.9999999998799
 20
-567.3267571593979
 30
0.0
 40
8.144205729166666
 41
0.0
 46
0.0
 71
     1
 72
     1
  1
品名
  7
ＭＳ ゴシック
 73
     1
 44
0.7828267384257843
  0
MTEXT
  5
C9
330
A
100
AcDbEntity
  8
template
 62
     7
390
1D
100
AcDbMText
 10
-483.9999999998799
 20
-609.8267571593979
 30
0.0
 40
8.144205729166666
 41
0.0
 46
0.0
 71
     1
 72
     1
  1
仕様
  7
ＭＳ ゴシック
 73
     1
 44
0.7828267384257843
  0
MTEXT
  5
CA
330
A
100
AcDbEntity
  8
template
 62
     7
390
1D
100
AcDbMText
 10
-457.4999999998799
 20
-581.6179876281476
 30
0.0
 40
12.21630859375
 41
0.0
 46
0.0
 71
     1
 72
     1
  1
ボトルトラップ  -valpra-
  7
ＭＳ ゴシック
 73
     1
 44
0.7828267384257843
  0
LINE
  5
CB
330
A
100
AcDbEntity
  8
template
  6
Continuous
 62
     7
370
     5
390
1D
100
AcDbLine
 10
487.499999999879
 20
-605.6192962218975
 30
0.0
 11
-487.500000000121
 21
-605.6192962218975
 31
0.0
  0
LINE
  5
CC
330
A
100
AcDbEntity
  8
template
  6
Continuous
 62
     7
370
     5
390
1D
100
AcDbLine
 10
487.499999999879
 20
-563.1192962218975
 30
0.0
 11
-487.500000000121
 21
-563.1192962218975
 31
0.0
  0
LINE
  5
CD
330
A
100
AcDbEntity
  8
template
  6
Continuous
 62
     7
370
     5
390
1D
100
AcDbLine
 10
487.500000000121
 20
-648.1192962218975
 30
0.0
 11
111.000000000121
 21
-648.1192962218975
 31
0.0
  0
MTEXT
  5
CE
330
A
100
AcDbEntity
  8
template
 62
     7
390
1D
100
AcDbMText
 10
-487.4999999997781
 20
-696.5462072503251
 30
0.0
 40
10.85894097222222
 41
0.0
 46
0.0
 71
     1
 72
     1
  1
120209SO
  7
ＭＳ ゴシック
 73
     1
 44
0.7828267384257843
  0
MTEXT
  5
CF
330
A
100
AcDbEntity
  8
template
 62
     7
390
1D
100
AcDbMText
 10
365.5000000002501
 20
-609.8267571593979
 30
0.0
 40
8.144205729166666
 41
0.0
 46
0.0
 71
     1
 72
     1
  1
縮尺
  7
ＭＳ ゴシック
 73
     1
 44
0.7828267384257843
  0
LINE
  5
D0
330
A
100
AcDbEntity
  8
template
  6
Continuous
 62
     7
370
     5
390
1D
100
AcDbLine
 10
362.0000000002501
 20
-648.1192962218975
 30
0.0
 11
362.0000000002501
 21
-605.6192962218975
 31
0.0
  0
MTEXT
  5
D1
330
A
100
AcDbEntity
  8
template
 62
     7
390
1D
100
AcDbMText
 10
240.0000000002501
 20
-609.8267571593979
 30
0.0
 40
8.144205729166666
 41
0.0
 46
0.0
 71
     1
 72
     1
  1
容量
  7
ＭＳ ゴシック
 73
     1
 44
0.7828267384257843
  0
LINE
  5
D2
330
A
100
AcDbEntity
  8
template
  6
Continuous
 62
     7
370
     5
390
1D
100
AcDbLine
 10
236.5000000002501
 20
-648.1192962218975
 30
0.0
 11
236.5000000002501
 21
-605.6192962218975
 31
0.0
  0
MTEXT
  5
D3
330
A
100
AcDbEntity
  8
template
 62
     7
390
1D
100
AcDbMText
 10
114.5000000002501
 20
-567.3267571593979
 30
0.0
 40
8.144205729166666
 41
0.0
 46
0.0
 71
     1
 72
     1
  1
品番
  7
ＭＳ ゴシック
 73
     1
 44
0.7828267384257843
  0
MTEXT
  5
D4
330
A
100
AcDbEntity
  8
template
 62
     7
390
1D
100
AcDbMText
 10
114.5000000002501
 20
-609.8267571593979
 30
0.0
 40
8.144205729166666
 41
0.0
 46
0.0
 71
     1
 72
     1
  1
重量
  7
ＭＳ ゴシック
 73
     1
 44
0.7828267384257843
  0
MTEXT
  5
D5
330
A
100
AcDbEntity
  8
template
 62
     7
390
1D
100
AcDbMText
 10
141.0000000002501
 20
-581.6179876281476
 30
0.0
 40
12.21630859375
 41
0.0
 46
0.0
 71
     1
 72
     1
  1
AWK73-9903 
  7
ＭＳ ゴシック
 73
     1
 44
0.7828267384257843
  0
LINE
  5
D6
330
A
100
AcDbEntity
  8
template
  6
Continuous
 62
     7
370
     5
390
1D
100
AcDbLine
 10
111.0000000002501
 20
-690.6192962218975
 30
0.0
 11
111.0000000002501
 21
-563.1192962218975
 31
0.0
  0
MTEXT
  5
D7
330
A
100
AcDbEntity
  8
template
 62
     7
390
1D
100
AcDbMText
 10
125.9357031262507
 20
-663.0744934585509
 30
0.0
 40
12.21630859375
 41
0.0
 46
0.0
 71
     1
 72
     1
  1
大洋金物株式会社 ティーフォルム事業部
  7
ＭＳ ゴシック
 73
     1
 44
0.7828267384257843
  0
INSERT
  5
D8
330
A
100
AcDbEntity
  8
template
 62
     7
390
1D
100
AcDbBlockReference
  2
グループ
 10
5343.683143275444
 20
3779.674739776765
 30
0.0
  0
LWPOLYLINE
  5
D9
330
A
100
AcDbEntity
  8
template
  6
Continuous
 62
     7
370
     5
390
1D
100
AcDbPolyline
 90
        5
 70
   128
 43
0.0
 10
487.500000000121
 20
709.3807037781039
 10
-487.4999999998799
 20
709.3807037781039
 10
-487.4999999998799
 20
-690.6192962218975
 10
487.500000000121
 20
-690.6192962218975
 10
487.500000000121
 20
709.3807037781039
  0
MTEXT
  5
DA
330
A
100
AcDbEntity
  8
template
 62
     7
390
1D
100
AcDbMText
 10
141.0000000002501
 20
-581.6179876281476
 30
0.0
 40
12.21630859375
 41
0.0
 46
0.0
 71
     1
 72
     1
  1
AWK73-9903 
  7
ＭＳ ゴシック
 73
     1
 44
0.7828267384257843
  0
DIMENSION
  5
DB
330
A
100
AcDbEntity
  8
notes
 62
     7
390
1D
100
AcDbDimension
  2
*D3
 10
329.5153039419665
 20
115.0
 30
0.0
 11
319.9176286489978
 21
80.0
 31
0.0
 70
    32
 71
     5
 42
70.0
 73
     0
 74
     0
 75
     0
  3
tfrom線あり
100
AcDbAlignedDimension
 13
276.0
 23
45.0
 33
0.0
 14
276.0
 24
115.0
 34
0.0
 50
90.0
100
AcDbRotatedDimension
1001
ACAD
1000
DSTYLE
1002
{
1070
   279
1070
     2
1070
   340
1005
2D
1070
     3
1000
φ<>
1070
   147
1040
2.5
1002
}
  0
DIMENSION
  5
DC
330
A
100
AcDbEntity
  8
notes
 62
     7
390
1D
100
AcDbDimension
  2
*D12
 10
196.2711176823796
 20
64.36211976880895
 30
0.0
 11
186.6734423894108
 21
118.1841296839487
 31
0.0
 70
   160
 71
     5
 42
31.99314858701473
 73
     0
 74
     0
 75
     0
  3
tfrom線あり
100
AcDbAlignedDimension
 13
209.3611727848329
 23
96.35526835582368
 33
0.0
 14
209.3611727848329
 24
64.36211976880895
 34
0.0
 50
90.0
100
AcDbRotatedDimension
1001
ACAD
1000
DSTYLE
1002
{
1070
   279
1070
     2
1070
   340
1005
2D
1070
     3
1000
φ<>
1070
   174
1070
     0
1070
   147
1040
2.5
1002
}
  0
DIMENSION
  5
DD
330
A
100
AcDbEntity
  8
notes
 62
     7
390
1D
100
AcDbDimension
  2
*D5
 10
281.3611727848329
 20
-106.6447316441763
 30
0.0
 11
141.3611727848329
 21
-98.0365773473013
 31
0.0
 70
    32
 71
     5
 42
280.0
 73
     0
 74
     0
 75
     0
  3
tfrom線あり
100
AcDbAlignedDimension
 13
1.361172784832888
 23
0.0
 33
0.0
 14
281.3611727848329
 24
64.00342570649264
 34
0.0
100
AcDbRotatedDimension
1001
ACAD
1000
DSTYLE
1002
{
1070
   279
1070
     2
1070
   340
1005
2D
1070
   147
1040
2.5
1002
}
  0
DIMENSION
  5
DE
330
A
100
AcDbEntity
  8
notes
 62
     7
390
1D
100
AcDbDimension
  2
*D6
 10
-109.9078155256266
 20
205.0
 30
0.0
 11
-118.5159698225016
 21
100.0
 31
0.0
 70
    32
 71
     5
 42
210.0
 73
     0
 74
     0
 75
     0
  3
tfrom線あり
100
AcDbAlignedDimension
 13
-23.63882721516711
 23
-5.0
 33
0.0
 14
-21.13882721516711
 24
205.0
 34
0.0
 50
90.0
100
AcDbRotatedDimension
1001
ACAD
1000
DSTYLE
1002
{
1070
   279
1070
     2
1070
   340
1005
2D
1070
     3
1000
150-<>
1070
   147
1040
2.5
1002
}
  0
DIMENSION
  5
DF
330
A
100
AcDbEntity
  8
notes
 62
     7
390
1D
100
AcDbDimension
  2
*D7
 10
-21.13882721516711
 20
252.0
 30
0.0
 11
1.361172784832888
 21
261.9091911621094
 31
0.0
 70
    32
  1
G1.1/4"
 71
     5
 42
45.0
 73
     0
 74
     1
 75
     1
  3
tfrom線あり
100
AcDbAlignedDimension
 13
23.86117278483289
 23
205.0
 33
0.0
 14
-21.13882721516711
 24
205.0
 34
0.0
100
AcDbRotatedDimension
1001
ACAD
1000
DSTYLE
1002
{
1070
   172
1070
     1
1070
   175
1070
     0
1070
   279
1070
     2
1070
   340
1005
2D
1070
   147
1040
2.5
1002
}
  0
POLYLINE
  5
E0
330
A
100
AcDbEntity
  8
AWK73-9903
  6
Continuous
390
1D
100
AcDb2dPolyline
 66
     1
 10
0.0
 20
0.0
 30
0.0
  0
VERTEX
  5
1AF
330
E0
100
AcDbEntity
  8
AWK73-9903
  6
Continuous
390
1D
100
AcDbVertex
100
AcDb2dVertex
 10
-23.63882721516711
 20
114.0
 30
0.0
  0
VERTEX
  5
1B0
330
E0
100
AcDbEntity
  8
AWK73-9903
  6
Continuous
390
1D
100
AcDbVertex
100
AcDb2dVertex
 10
26.36117278483289
 20
114.0
 30
0.0
  0
VERTEX
  5
1B1
330
E0
100
AcDbEntity
  8
AWK73-9903
  6
Continuous
390
1D
100
AcDbVertex
100
AcDb2dVertex
 10
26.36117278483289
 20
105.0
 30
0.0
  0
SEQEND
  5
1BD
330
E0
100
AcDbEntity
  8
AWK73-9903
  6
Continuous
390
1D
  0
POLYLINE
  5
E6
330
A
100
AcDbEntity
  8
AWK73-9903
  6
Continuous
390
1D
100
AcDb2dPolyline
 66
     1
 10
0.0
 20
0.0
 30
0.0
 70
     1
 75
     5
  0
VERTEX
  5
E7
330
E6
100
AcDbEntity
  8
AWK73-9903
  6
Continuous
390
1D
100
AcDbVertex
100
AcDb2dVertex
 10
-23.63882721516711
 20
126.0
 30
0.0
  0
VERTEX
  5
E8
330
E6
100
AcDbEntity
  8
AWK73-9903
  6
Continuous
390
1D
100
AcDbVertex
100
AcDb2dVertex
 10
26.36117278483289
 20
126.0
 30
0.0
  0
VERTEX
  5
E9
330
E6
100
AcDbEntity
  8
AWK73-9903
  6
Continuous
390
1D
100
AcDbVertex
100
AcDb2dVertex
 10
26.36117278483289
 20
114.0
 30
0.0
  0
VERTEX
  5
EA
330
E6
100
AcDbEntity
  8
AWK73-9903
  6
Continuous
390
1D
100
AcDbVertex
100
AcDb2dVertex
 10
-23.63882721516711
 20
114.0
 30
0.0
  0
SEQEND
  5
EB
330
E6
100
AcDbEntity
  8
AWK73-9903
  6
Continuous
390
1D
  0
POLYLINE
  5
EC
330
A
100
AcDbEntity
  8
AWK73-9903
  6
Continuous
390
1D
100
AcDb2dPolyline
 66
     1
 10
0.0
 20
0.0
 30
0.0
  0
VERTEX
  5
1B7
330
EC
100
AcDbEntity
  8
AWK73-9903
  6
Continuous
390
1D
100
AcDbVertex
100
AcDb2dVertex
 10
26.36117278483289
 20
105.0
 30
0.0
  0
VERTEX
  5
1B8
330
EC
100
AcDbEntity
  8
AWK73-9903
  6
Continuous
390
1D
100
AcDbVertex
100
AcDb2dVertex
 10
61.36117278483289
 20
105.0
 30
0.0
  0
VERTEX
  5
1B9
330
EC
100
AcDbEntity
  8
AWK73-9903
  6
Continuous
390
1D
100
AcDbVertex
100
AcDb2dVertex
 10
61.36117278483289
 20
55.0
 30
0.0
  0
VERTEX
  5
1BA
330
EC
100
AcDbEntity
  8
AWK73-9903
  6
Continuous
390
1D
100
AcDbVertex
100
AcDb2dVertex
 10
26.36117278483289
 20
55.0
 30
0.0
  0
SEQEND
  5
1BB
330
EC
100
AcDbEntity
  8
AWK73-9903
  6
Continuous
390
1D
  0
LWPOLYLINE
  5
F2
330
A
100
AcDbEntity
  8
AWK73-9903
  6
Continuous
390
1D
100
AcDbPolyline
 90
        5
 70
   128
 43
0.0
 10
23.86117278483289
 20
192.3202387024794
 10
-21.13882721516711
 20
192.3202387024794
 10
-21.13882721516711
 20
205.0
 10
23.86117278483289
 20
205.0
 10
23.86117278483289
 20
192.3202387024794
  0
LWPOLYLINE
  5
F3
330
A
100
AcDbEntity
  8
AWK73-9903
  6
Continuous
390
1D
100
AcDbPolyline
 90
        5
 70
   128
 43
0.0
 10
264.0
 20
64.00342570649264
 10
61.36117278483289
 20
64.00342570649264
 10
61.36117278483289
 20
96.0
 10
264.0
 20
96.0
 10
264.0
 20
64.00342570649264
  0
LWPOLYLINE
  5
F4
330
A
100
AcDbEntity
  8
AWK73-9903
  6
Continuous
390
1D
100
AcDbPolyline
 90
        5
 70
   128
 43
0.0
 10
276.0
 20
45.0
 10
264.0
 20
45.0
 10
264.0
 20
115.0
 10
276.0
 20
115.0
 10
276.0
 20
45.0
  0
LINE
  5
F5
330
A
100
AcDbEntity
  8
AWK73-9903
  6
STYLE_06
 62
   250
370
     5
390
1D
100
AcDbLine
 10
1.361172784832888
 20
80.0
 30
0.0
 11
336.0275066061786
 21
80.0
 31
0.0
  0
LINE
  5
F6
330
A
100
AcDbEntity
  8
AWK73-9903
  6
STYLE_06
 62
   250
370
     5
390
1D
100
AcDbLine
 10
1.361172784832888
 20
235.9758250320237
 30
0.0
 11
1.361172784832888
 21
-31.39295768988131
 31
0.0
  0
LWPOLYLINE
  5
F7
330
A
100
AcDbEntity
  8
AWK73-9903
  6
Continuous
390
1D
100
AcDbPolyline
 90
        5
 70
   128
 43
0.0
 10
17.36117278483289
 20
126.0
 10
-14.63882721516711
 20
126.0
 10
-14.63882721516711
 20
192.3202387024794
 10
17.36117278483289
 20
192.3202387024794
 10
17.36117278483289
 20
126.0
  0
POLYLINE
  5
F8
330
A
100
AcDbEntity
  8
AWK73-9903
  6
Continuous
390
1D
100
AcDb2dPolyline
 66
     1
 10
0.0
 20
0.0
 30
0.0
 70
     1
 75
     5
  0
VERTEX
  5
F9
330
F8
100
AcDbEntity
  8
AWK73-9903
  6
Continuous
390
1D
100
AcDbVertex
100
AcDb2dVertex
 10
-296.7310116895405
 20
114.0
 30
0.0
  0
VERTEX
  5
FA
330
F8
100
AcDbEntity
  8
AWK73-9903
  6
Continuous
390
1D
100
AcDbVertex
100
AcDb2dVertex
 10
-246.7310116895405
 20
114.0
 30
0.0
  0
VERTEX
  5
FB
330
F8
100
AcDbEntity
  8
AWK73-9903
  6
Continuous
390
1D
100
AcDbVertex
100
AcDb2dVertex
 10
-246.7310116895405
 20
0.0
 30
0.0
  0
VERTEX
  5
FC
330
F8
100
AcDbEntity
  8
AWK73-9903
  6
Continuous
390
1D
100
AcDbVertex
100
AcDb2dVertex
 10
-296.7310116895405
 20
0.0
 30
0.0
  0
SEQEND
  5
FD
330
F8
100
AcDbEntity
  8
AWK73-9903
  6
Continuous
390
1D
  0
POLYLINE
  5
FE
330
A
100
AcDbEntity
  8
AWK73-9903
  6
Continuous
390
1D
100
AcDb2dPolyline
 66
     1
 10
0.0
 20
0.0
 30
0.0
 70
     1
 75
     5
  0
VERTEX
  5
FF
330
FE
100
AcDbEntity
  8
AWK73-9903
  6
Continuous
390
1D
100
AcDbVertex
100
AcDb2dVertex
 10
-296.7310116895405
 20
126.0
 30
0.0
  0
VERTEX
  5
100
330
FE
100
AcDbEntity
  8
AWK73-9903
  6
Continuous
390
1D
100
AcDbVertex
100
AcDb2dVertex
 10
-246.7310116895405
 20
126.0
 30
0.0
  0
VERTEX
  5
101
330
FE
100
AcDbEntity
  8
AWK73-9903
  6
Continuous
390
1D
100
AcDbVertex
100
AcDb2dVertex
 10
-246.7310116895405
 20
114.0
 30
0.0
  0
VERTEX
  5
102
330
FE
100
AcDbEntity
  8
AWK73-9903
  6
Continuous
390
1D
100
AcDbVertex
100
AcDb2dVertex
 10
-296.7310116895405
 20
114.0
 30
0.0
  0
SEQEND
  5
103
330
FE
100
AcDbEntity
  8
AWK73-9903
  6
Continuous
390
1D
  0
LWPOLYLINE
  5
104
330
A
100
AcDbEntity
  8
AWK73-9903
  6
Continuous
390
1D
100
AcDbPolyline
 90
        5
 70
   128
 43
0.0
 10
-249.2310116895405
 20
192.3202387024794
 10
-294.2310116895405
 20
192.3202387024794
 10
-294.2310116895405
 20
205.0
 10
-249.2310116895405
 20
205.0
 10
-249.2310116895405
 20
192.3202387024794
  0
LINE
  5
105
330
A
100
AcDbEntity
  8
AWK73-9903
  6
STYLE_06
 62
   250
370
     5
390
1D
100
AcDbLine
 10
-271.7310116895405
 20
235.9758250320237
 30
0.0
 11
-271.7310116895405
 21
-31.39295768988131
 31
0.0
  0
LWPOLYLINE
  5
106
330
A
100
AcDbEntity
  8
AWK73-9903
  6
Continuous
390
1D
100
AcDbPolyline
 90
        5
 70
   128
 43
0.0
 10
-255.7310116895405
 20
126.0
 10
-287.7310116895405
 20
126.0
 10
-287.7310116895405
 20
192.3202387024794
 10
-255.7310116895405
 20
192.3202387024794
 10
-255.7310116895405
 20
126.0
  0
ARC
  5
107
330
A
100
AcDbEntity
  8
AWK73-9903
  6
Continuous
390
1D
100
AcDbCircle
 10
-271.6999999999998
 20
80.0
 30
0.0
 40
34.99999999999481
100
AcDbArc
 50
317.3505066261974
 51
44.48780095650996
  0
ARC
  5
108
330
A
100
AcDbEntity
  8
AWK73-9903
  6
Continuous
390
1D
100
AcDbCircle
 10
-271.6999999999998
 20
80.0
 30
0.0
 40
35.0000000000117
100
AcDbArc
 50
135.6572774941493
 51
224.9999999999995
  0
ARC
  5
109
330
A
100
AcDbEntity
  8
AWK73-9903
  6
STYLE_05
390
1D
100
AcDbCircle
 10
-271.6999999999998
 20
80.0
 30
0.0
 40
35.00000000001123
100
AcDbArc
 50
44.48780095651025
 51
135.6572774941493
  0
ARC
  5
10A
330
A
100
AcDbEntity
  8
AWK73-9903
  6
STYLE_05
390
1D
100
AcDbCircle
 10
-271.6999999999998
 20
80.0
 30
0.0
 40
35.0000000000117
100
AcDbArc
 50
224.3427225058507
 51
315.5121990434898
  0
DIMENSION
  5
10B
330
A
100
AcDbEntity
  8
notes
 62
     7
390
1D
100
AcDbDimension
  2
*D8
 10
-296.7310116895405
 20
-50.0
 30
0.0
 11
-271.7310116895405
 21
-40.40232470703125
 31
0.0
 70
    32
 71
     5
 42
49.99999999999997
 73
     0
 74
     0
 75
     0
  3
tfrom線あり
100
AcDbAlignedDimension
 13
-246.7310116895405
 23
0.0
 33
0.0
 14
-296.7310116895405
 24
0.0
 34
0.0
100
AcDbRotatedDimension
1001
ACAD
1000
DSTYLE
1002
{
1070
   279
1070
     2
1070
   340
1005
2D
1070
     3
1000
φ<>
1070
   147
1040
2.5
1002
}
  0
DIMENSION
  5
10C
330
A
100
AcDbEntity
  8
notes
 62
     7
390
1D
100
AcDbDimension
  2
*D9
 10
-62.90781552562657
 20
80.0
 30
0.0
 11
-71.51596982250156
 21
142.5
 31
0.0
 70
    32
 71
     5
 42
125.0
 73
     0
 74
     0
 75
     0
  3
tfrom線あり
100
AcDbAlignedDimension
 13
-21.13882721516711
 23
205.0
 33
0.0
 14
-23.63882721516711
 24
80.0
 34
0.0
 50
90.0
100
AcDbRotatedDimension
1001
ACAD
1000
DSTYLE
1002
{
1070
   279
1070
     2
1070
   340
1005
2D
1070
     3
1000
65-<>
1070
   147
1040
2.5
1002
}
  0
MTEXT
  5
10D
330
A
100
AcDbEntity
  8
AWK73-9903
 62
     7
390
1D
100
AcDbMText
 10
415.68124932713
 20
-621.4986914062501
 30
0.0
 40
12.21630859375
 41
0.0
 46
0.0
 71
     1
 72
     1
  1
1:5
  7
ＭＳ ゴシック
 73
     1
 44
0.7828267384257843
  0
DIMENSION
  5
10E
330
A
100
AcDbEntity
  8
notes
 62
     7
390
1D
100
AcDbDimension
  2
*D10
 10
1.361172784832888
 20
-40.0
 30
0.0
 11
31.36117278483289
 21
-31.391845703125
 31
0.0
 70
    32
 71
     5
 42
60.0
 73
     0
 74
     0
 75
     0
  3
tfrom線あり
100
AcDbAlignedDimension
 13
61.36117278483289
 23
55.0
 33
0.0
 14
1.361172784832888
 24
0.0
 34
0.0
100
AcDbRotatedDimension
1001
ACAD
1000
DSTYLE
1002
{
1070
   279
1070
     2
1070
   340
1005
2D
1070
   147
1040
2.5
1002
}
  0
DIMENSION
  5
10F
330
A
100
AcDbEntity
  8
notes
 62
     7
390
1D
100
AcDbDimension
  2
*D11
 10
264.0
 20
139.0
 30
0.0
 11
270.0
 21
147.608154296875
 31
0.0
 70
    32
 71
     5
 42
12.0
 73
     0
 74
     1
 75
     1
  3
tfrom線あり
100
AcDbAlignedDimension
 13
276.0
 23
115.0
 33
0.0
 14
264.0
 24
115.0
 34
0.0
100
AcDbRotatedDimension
1001
ACAD
1000
DSTYLE
1002
{
1070
   172
1070
     1
1070
   279
1070
     2
1070
   340
1005
2D
1070
   147
1040
2.5
1002
}
  0
POLYLINE
  5
110
330
A
100
AcDbEntity
  8
AWK73-9903
  6
Continuous
390
1D
100
AcDb2dPolyline
 66
     1
 10
0.0
 20
0.0
 30
0.0
 70
     1
 75
     5
  0
VERTEX
  5
111
330
110
100
AcDbEntity
  8
AWK73-9903
  6
Continuous
390
1D
100
AcDbVertex
100
AcDb2dVertex
 10
276.0
 20
96.0
 30
0.0
  0
VERTEX
  5
112
330
110
100
AcDbEntity
  8
AWK73-9903
  6
Continuous
390
1D
100
AcDbVertex
100
AcDb2dVertex
 10
281.3611727848329
 20
96.0
 30
0.0
  0
VERTEX
  5
113
330
110
100
AcDbEntity
  8
AWK73-9903
  6
Continuous
390
1D
100
AcDbVertex
100
AcDb2dVertex
 10
281.3611727848329
 20
64.00342570649264
 30
0.0
  0
VERTEX
  5
114
330
110
100
AcDbEntity
  8
AWK73-9903
  6
Continuous
390
1D
100
AcDbVertex
100
AcDb2dVertex
 10
276.0
 20
64.00342570649264
 30
0.0
  0
SEQEND
  5
115
330
110
100
AcDbEntity
  8
AWK73-9903
  6
Continuous
390
1D
  0
ARC
  5
1AD
330
A
100
AcDbEntity
  8
AWK73-9903
  6
Continuous
100
AcDbCircle
 10
51.36364774533277
 20
80.0
 30
0.0
 40
35.35708916399119
100
AcDbArc
 50
135.0028359554422
 51
224.9971640445578
  0
POLYLINE
  5
1B2
330
A
100
AcDbEntity
  8
AWK73-9903
  6
Continuous
390
1D
100
AcDb2dPolyline
 66
     1
 10
0.0
 20
0.0
 30
0.0
  0
VERTEX
  5
1B3
330
1B2
100
AcDbEntity
  8
AWK73-9903
  6
Continuous
390
1D
100
AcDbVertex
100
AcDb2dVertex
 10
26.36117278483289
 20
55.0
 30
0.0
  0
VERTEX
  5
1B4
330
1B2
100
AcDbEntity
  8
AWK73-9903
  6
Continuous
390
1D
100
AcDbVertex
100
AcDb2dVertex
 10
26.36117278483289
 20
-5.0
 30
0.0
  0
VERTEX
  5
1B5
330
1B2
100
AcDbEntity
  8
AWK73-9903
  6
Continuous
390
1D
100
AcDbVertex
100
AcDb2dVertex
 10
-23.63882721516711
 20
-5.0
 30
0.0
  0
VERTEX
  5
1B6
330
1B2
100
AcDbEntity
  8
AWK73-9903
  6
Continuous
390
1D
100
AcDbVertex
100
AcDb2dVertex
 10
-23.63882721516711
 20
114.0
 30
0.0
  0
SEQEND
  5
1BC
330
1B2
100
AcDbEntity
  8
AWK73-9903
  6
Continuous
390
1D
  0
ENDSEC
  0
SECTION
  2
OBJECTS
  0
DICTIONARY
  5
19
330
0
100
AcDbDictionary
281
     1
  3
ACAD_DETAILVIEWSTYLE
350
1CA
  3
ACAD_GROUP
350
1A
  3
ACAD_IMAGE_VARS
350
159
  3
ACAD_LAYOUT
350
1E
  3
ACAD_MATERIAL
350
1A6
  3
ACAD_MLEADERSTYLE
350
1C8
  3
ACAD_MLINESTYLE
350
1B
  3
ACAD_PLOTSETTINGS
350
22
  3
ACAD_PLOTSTYLENAME
350
1F
  3
ACAD_SCALELIST
350
116
  3
ACAD_SECTIONVIEWSTYLE
350
1CB
  3
ACAD_TABLESTYLE
350
1AA
  3
ACAD_VISUALSTYLE
350
18D
  3
ACDB_RECOMPOSE_DATA
350
1D5
  3
AcDbVariableDictionary
350
1C2
  3
APPDATA
350
157
  0
SUN
  5
1AC
330
15
100
AcDbSun
 90
        1
290
     0
 63
     7
421
 16777215
 40
1.0
291
     1
 91
  2455826
 92
 54000000
292
     0
 70
     2
 71
   256
280
     1
  0
DICTIONARY
  5
1CD
330
2
100
AcDbDictionary
280
     1
281
     1
  3
ACAD_LAYERSTATES
360
1CE
  3
ACLYDICTIONARY
360
1D0
  0
DICTIONARY
  5
1CA
102
{ACAD_REACTORS
330
19
102
}
330
19
100
AcDbDictionary
281
     1
  0
DICTIONARY
  5
1A
102
{ACAD_REACTORS
330
19
102
}
330
19
100
AcDbDictionary
281
     1
  0
RASTERVARIABLES
  5
159
102
{ACAD_REACTORS
330
19
102
}
330
19
100
AcDbRasterVariables
 90
        0
 70
     1
 71
     1
 72
     1
  0
DICTIONARY
  5
1E
102
{ACAD_REACTORS
330
19
102
}
330
19
100
AcDbDictionary
281
     1
  3
Layout1
350
21
  3
Model
350
20
  0
DICTIONARY
  5
1A6
102
{ACAD_REACTORS
330
19
102
}
330
19
100
AcDbDictionary
281
     1
  3
ByBlock
350
1A8
  3
ByLayer
350
1A7
  3
Global
350
1A9
  0
DICTIONARY
  5
1C8
102
{ACAD_REACTORS
330
19
102
}
330
19
100
AcDbDictionary
281
     1
  0
DICTIONARY
  5
1B
102
{ACAD_REACTORS
330
19
102
}
330
19
100
AcDbDictionary
281
     1
  3
Standard
350
1C
  0
DICTIONARY
  5
22
102
{ACAD_REACTORS
330
19
102
}
330
19
100
AcDbDictionary
281
     1
  0
ACDBDICTIONARYWDFLT
  5
1F
102
{ACAD_REACTORS
330
19
102
}
330
19
100
AcDbDictionary
281
     1
  3
Normal
350
1D
100
AcDbDictionaryWithDefault
340
1D
  0
DICTIONARY
  5
116
102
{ACAD_REACTORS
330
19
102
}
330
19
100
AcDbDictionary
281
     1
  3
A0
350
117
  3
A1
350
118
  3
A2
350
119
  3
A3
350
11A
  3
A4
350
11B
  3
A5
350
11C
  3
A6
350
11D
  3
A7
350
11E
  3
A8
350
11F
  3
A9
350
120
  3
B0
350
121
  3
B1
350
122
  3
B2
350
123
  3
B3
350
124
  3
B4
350
125
  3
B5
350
126
  3
B6
350
127
  3
B7
350
128
  3
B8
350
129
  3
B9
350
12A
  3
C0
350
12B
  3
C1
350
12C
  3
C2
350
12D
  3
C3
350
12E
  3
C4
350
12F
  3
C5
350
130
  3
C6
350
131
  3
C7
350
132
  3
C8
350
133
  3
C9
350
134
  3
D0
350
135
  3
D1
350
136
  3
D2
350
137
  0
DICTIONARY
  5
1CB
102
{ACAD_REACTORS
330
19
102
}
330
19
100
AcDbDictionary
281
     1
  0
DICTIONARY
  5
1AA
102
{ACAD_REACTORS
330
19
102
}
330
19
100
AcDbDictionary
281
     1
  3
Standard
350
1AB
  0
DICTIONARY
  5
18D
102
{ACAD_REACTORS
330
19
102
}
330
19
100
AcDbDictionary
281
     1
  3
2dWireframe
350
192
  3
Basic
350
195
  3
Brighten
350
199
  3
ColorChange
350
19D
  3
Conceptual
350
197
  3
Dim
350
198
  3
EdgeColorOff
350
1A0
  3
Facepattern
350
19C
  3
Flat
350
18E
  3
FlatWithEdges
350
18F
  3
Gouraud
350
190
  3
GouraudWithEdges
350
191
  3
Hidden
350
194
  3
JitterOff
350
19E
  3
Linepattern
350
19B
  3
OverhangOff
350
19F
  3
Realistic
350
196
  3
Shaded
350
1A5
  3
Shaded with edges
350
1A4
  3
Shades of Gray
350
1A1
  3
Sketchy
350
1A2
  3
Thicken
350
19A
  3
Wireframe
350
193
  3
X-Ray
350
1A3
  0
XRECORD
  5
1D5
102
{ACAD_REACTORS
330
19
102
}
330
19
100
AcDbXrecord
280
     1
 90
        1
330
1AB
  0
DICTIONARY
  5
1C2
102
{ACAD_REACTORS
330
19
102
}
330
19
100
AcDbDictionary
281
     1
  3
CANNOSCALE
350
1D2
  3
CTABLESTYLE
350
1C7
  3
LIGHTINGUNITS
350
1C3
  3
MSLTSCALE
350
1C9
  0
DICTIONARY
  5
157
102
{ACAD_REACTORS
330
19
102
}
330
19
100
AcDbDictionary
281
     1
  0
DICTIONARY
  5
1CE
102
{ACAD_REACTORS
330
1CD
102
}
330
1CD
100
AcDbDictionary
281
     1
  3
ARGON_LAYERP_1
350
1CF
  0
DICTIONARY
  5
1D0
102
{ACAD_REACTORS
330
1CD
102
}
330
1CD
100
AcDbDictionary
281
     1
1001
ACAD
1000
<All
  0
LAYOUT
  5
21
102
{ACAD_REACTORS
330
1E
102
}
330
1E
100
AcDbPlotSettings
  1

  2

  4

  6

 40
0.0
 41
0.0
 42
0.0
 43
0.0
 44
0.0
 45
0.0
 46
0.0
 47
0.0
 48
0.0
 49
0.0
140
0.0
141
0.0
142
1.0
143
1.0
 70
     0
 72
     0
 73
     0
 74
     0
  7

 75
     0
 76
     0
 77
     2
 78
   300
147
1.0
148
0.0
149
0.0
100
AcDbLayout
  1
Layout1
 70
     0
 71
     0
 10
0.0
 20
0.0
 11
0.0
 21
0.0
 12
0.0
 22
0.0
 32
0.0
 14
0.0
 24
0.0
 34
0.0
 15
0.0
 25
0.0
 35
0.0
146
0.0
 13
0.0
 23
0.0
 33
0.0
 16
0.0
 26
0.0
 36
0.0
 17
0.0
 27
0.0
 37
0.0
 76
     0
330
B
  0
LAYOUT
  5
20
102
{ACAD_REACTORS
330
1E
102
}
330
1E
100
AcDbPlotSettings
  1

  2

  4

  6

 40
0.0
 41
0.0
 42
0.0
 43
0.0
 44
0.0
 45
0.0
 46
0.0
 47
0.0
 48
0.0
 49
0.0
140
0.0
141
0.0
142
1.0
143
1.0
 70
  1024
 72
     0
 73
     0
 74
     0
  7

 75
     0
 76
     0
 77
     2
 78
   300
147
1.0
148
0.0
149
0.0
100
AcDbLayout
  1
Model
 70
     0
 71
     1
 10
-524.9999999998795
 20
-739.9891487769107
 11
525.0000000001207
 21
745.0108512230897
 12
0.0
 22
0.0
 32
0.0
 14
0.0
 24
0.0
 34
0.0
 15
0.0
 25
0.0
 35
0.0
146
0.0
 13
0.0
 23
0.0
 33
0.0
 16
0.0
 26
0.0
 36
0.0
 17
0.0
 27
0.0
 37
0.0
 76
     0
330
A
331
15
  0
MATERIAL
  5
1A8
102
{ACAD_REACTORS
330
1A6
102
}
330
1A6
100
AcDbMaterial
  1
ByBlock
 72
     1
 94
      127
  0
MATERIAL
  5
1A7
102
{ACAD_REACTORS
330
1A6
102
}
330
1A6
100
AcDbMaterial
  1
ByLayer
 72
     1
 94
      127
  0
MATERIAL
  5
1A9
102
{ACAD_REACTORS
330
1A6
102
}
330
1A6
100
AcDbMaterial
  1
Global
 72
     1
 94
      127
  0
MLINESTYLE
  5
1C
102
{ACAD_REACTORS
330
1B
102
}
330
1B
100
AcDbMlineStyle
  2
Standard
 70
     0
  3

 62
     0
 51
90.0
 52
90.0
 71
     2
 49
0.5
 62
   256
  6
BYLAYER
 49
-0.5
 62
   256
  6
BYLAYER
  0
ACDBPLACEHOLDER
  5
1D
102
{ACAD_REACTORS
330
1F
102
}
330
1F
  0
SCALE
  5
117
102
{ACAD_REACTORS
330
116
102
}
330
116
100
AcDbScale
 70
     0
300
1:1
140
1.0
141
1.0
290
     1
  0
SCALE
  5
118
102
{ACAD_REACTORS
330
116
102
}
330
116
100
AcDbScale
 70
     0
300
1:2
140
1.0
141
2.0
290
     0
  0
SCALE
  5
119
102
{ACAD_REACTORS
330
116
102
}
330
116
100
AcDbScale
 70
     0
300
1:4
140
1.0
141
4.0
290
     0
  0
SCALE
  5
11A
102
{ACAD_REACTORS
330
116
102
}
330
116
100
AcDbScale
 70
     0
300
1:5
140
1.0
141
5.0
290
     0
  0
SCALE
  5
11B
102
{ACAD_REACTORS
330
116
102
}
330
116
100
AcDbScale
 70
     0
300
1:8
140
1.0
141
8.0
290
     0
  0
SCALE
  5
11C
102
{ACAD_REACTORS
330
116
102
}
330
116
100
AcDbScale
 70
     0
300
1:10
140
1.0
141
10.0
290
     0
  0
SCALE
  5
11D
102
{ACAD_REACTORS
330
116
102
}
330
116
100
AcDbScale
 70
     0
300
1:16
140
1.0
141
16.0
290
     0
  0
SCALE
  5
11E
102
{ACAD_REACTORS
330
116
102
}
330
116
100
AcDbScale
 70
     0
300
1:20
140
1.0
141
20.0
290
     0
  0
SCALE
  5
11F
102
{ACAD_REACTORS
330
116
102
}
330
116
100
AcDbScale
 70
     0
300
1:30
140
1.0
141
30.0
290
     0
  0
SCALE
  5
120
102
{ACAD_REACTORS
330
116
102
}
330
116
100
AcDbScale
 70
     0
300
1:40
140
1.0
141
40.0
290
     0
  0
SCALE
  5
121
102
{ACAD_REACTORS
330
116
102
}
330
116
100
AcDbScale
 70
     0
300
1:50
140
1.0
141
50.0
290
     0
  0
SCALE
  5
122
102
{ACAD_REACTORS
330
116
102
}
330
116
100
AcDbScale
 70
     0
300
1:100
140
1.0
141
100.0
290
     0
  0
SCALE
  5
123
102
{ACAD_REACTORS
330
116
102
}
330
116
100
AcDbScale
 70
     0
300
2:1
140
2.0
141
1.0
290
     0
  0
SCALE
  5
124
102
{ACAD_REACTORS
330
116
102
}
330
116
100
AcDbScale
 70
     0
300
4:1
140
4.0
141
1.0
290
     0
  0
SCALE
  5
125
102
{ACAD_REACTORS
330
116
102
}
330
116
100
AcDbScale
 70
     0
300
8:1
140
8.0
141
1.0
290
     0
  0
SCALE
  5
126
102
{ACAD_REACTORS
330
116
102
}
330
116
100
AcDbScale
 70
     0
300
10:1
140
10.0
141
1.0
290
     0
  0
SCALE
  5
127
102
{ACAD_REACTORS
330
116
102
}
330
116
100
AcDbScale
 70
     0
300
100:1
140
100.0
141
1.0
290
     0
  0
SCALE
  5
128
102
{ACAD_REACTORS
330
116
102
}
330
116
100
AcDbScale
 70
     0
300
1/128" = 1'-0"
140
0.0078125
141
12.0
290
     0
  0
SCALE
  5
129
102
{ACAD_REACTORS
330
116
102
}
330
116
100
AcDbScale
 70
     0
300
1/64" = 1'-0"
140
0.015625
141
12.0
290
     0
  0
SCALE
  5
12A
102
{ACAD_REACTORS
330
116
102
}
330
116
100
AcDbScale
 70
     0
300
1/32" = 1'-0"
140
0.03125
141
12.0
290
     0
  0
SCALE
  5
12B
102
{ACAD_REACTORS
330
116
102
}
330
116
100
AcDbScale
 70
     0
300
1/16" = 1'-0"
140
0.0625
141
12.0
290
     0
  0
SCALE
  5
12C
102
{ACAD_REACTORS
330
116
102
}
330
116
100
AcDbScale
 70
     0
300
3/32" = 1'-0"
140
0.09375
141
12.0
290
     0
  0
SCALE
  5
12D
102
{ACAD_REACTORS
330
116
102
}
330
116
100
AcDbScale
 70
     0
300
1/8" = 1'-0"
140
0.125
141
12.0
290
     0
  0
SCALE
  5
12E
102
{ACAD_REACTORS
330
116
102
}
330
116
100
AcDbScale
 70
     0
300
3/16" = 1'-0"
140
0.1875
141
12.0
290
     0
  0
SCALE
  5
12F
102
{ACAD_REACTORS
330
116
102
}
330
116
100
AcDbScale
 70
     0
300
1/4" = 1'-0"
140
0.25
141
12.0
290
     0
  0
SCALE
  5
130
102
{ACAD_REACTORS
330
116
102
}
330
116
100
AcDbScale
 70
     0
300
3/8" = 1'-0"
140
0.375
141
12.0
290
     0
  0
SCALE
  5
131
102
{ACAD_REACTORS
330
116
102
}
330
116
100
AcDbScale
 70
     0
300
1/2" = 1'-0"
140
0.5
141
12.0
290
     0
  0
SCALE
  5
132
102
{ACAD_REACTORS
330
116
102
}
330
116
100
AcDbScale
 70
     0
300
3/4" = 1'-0"
140
0.75
141
12.0
290
     0
  0
SCALE
  5
133
102
{ACAD_REACTORS
330
116
102
}
330
116
100
AcDbScale
 70
     0
300
1" = 1'-0"
140
1.0
141
12.0
290
     0
  0
SCALE
  5
134
102
{ACAD_REACTORS
330
116
102
}
330
116
100
AcDbScale
 70
     0
300
1-1/2" = 1'-0"
140
1.5
141
12.0
290
     0
  0
SCALE
  5
135
102
{ACAD_REACTORS
330
116
102
}
330
116
100
AcDbScale
 70
     0
300
3" = 1'-0"
140
3.0
141
12.0
290
     0
  0
SCALE
  5
136
102
{ACAD_REACTORS
330
116
102
}
330
116
100
AcDbScale
 70
     0
300
6" = 1'-0"
140
6.0
141
12.0
290
     0
  0
SCALE
  5
137
102
{ACAD_REACTORS
330
116
102
}
330
116
100
AcDbScale
 70
     0
300
1'-0" = 1'-0"
140
12.0
141
12.0
290
     0
  0
TABLESTYLE
  5
1AB
102
{ACAD_REACTORS
330
1AA
102
}
102
{ACAD_XDICTIONARY
360
1D3
102
}
330
1AA
100
AcDbTableStyle
  3
Standard
 70
     0
 71
     0
 40
0.06
 41
0.06
280
     0
281
     0
  7
Standard
140
4.5
170
     2
 62
     0
 63
   257
283
     0
 90
        4
 91
        0
  1

274
    -2
284
     1
 64
     0
275
    -2
285
     1
 65
     0
276
    -2
286
     1
 66
     0
277
    -2
287
     1
 67
     0
278
    -2
288
     1
 68
     0
279
    -2
289
     1
 69
     0
  7
Standard
140
6.0
170
     5
 62
     0
 63
   257
283
     0
 90
        4
 91
        0
  1

274
    -2
284
     1
 64
     0
275
    -2
285
     1
 65
     0
276
    -2
286
     1
 66
     0
277
    -2
287
     1
 67
     0
278
    -2
288
     1
 68
     0
279
    -2
289
     1
 69
     0
  7
Standard
140
4.5
170
     5
 62
     0
 63
   257
283
     0
 90
        4
 91
        0
  1

274
    -2
284
     1
 64
     0
275
    -2
285
     1
 65
     0
276
    -2
286
     1
 66
     0
277
    -2
287
     1
 67
     0
278
    -2
288
     1
 68
     0
279
    -2
289
     1
 69
     0
  0
VISUALSTYLE
  5
192
102
{ACAD_REACTORS
330
18D
102
}
330
18D
100
AcDbVisualStyle
  2
2dWireframe
 70
     4
 71
     0
 72
     2
 73
     0
 90
        0
 40
0.6
 41
30.0
 62
     5
 63
     7
421
 16777215
 74
     1
 91
        4
 64
     7
 65
   257
 75
     1
175
     1
 42
1.0
 92
        0
 66
   257
 43
1.0
 76
     1
 77
     6
 78
     2
 67
     7
 79
     5
170
     0
171
     0
290
     0
174
     0
 93
        1
 44
0.0
173
     0
291
     0
 45
0.0
  0
VISUALSTYLE
  5
195
102
{ACAD_REACTORS
330
18D
102
}
330
18D
100
AcDbVisualStyle
  2
Basic
 70
     7
 71
     1
 72
     0
 73
     1
 90
        0
 40
0.6
 41
30.0
 62
     5
 63
     7
421
 16777215
 74
     0
 91
        4
 64
     7
 65
   257
 75
     1
175
     1
 42
1.0
 92
        8
 66
     7
 43
1.0
 76
     1
 77
     6
 78
     2
 67
     7
 79
     5
170
     0
171
     0
290
     0
174
     0
 93
        1
 44
0.0
173
     0
291
     1
 45
0.0
  0
VISUALSTYLE
  5
199
102
{ACAD_REACTORS
330
18D
102
}
330
18D
100
AcDbVisualStyle
  2
Brighten
 70
    12
 71
     2
 72
     2
 73
     0
 90
        0
 40
0.6
 41
30.0
 62
     5
 63
     7
421
 16777215
 74
     1
 91
        4
 64
     7
 65
   257
 75
     1
175
     1
 42
1.0
 92
        8
 66
     7
 43
1.0
 76
     1
 77
     6
 78
     2
 67
     7
 79
     5
170
     0
171
     0
290
     0
174
     0
 93
        1
 44
50.0
173
     0
291
     1
 45
0.0
  0
VISUALSTYLE
  5
19D
102
{ACAD_REACTORS
330
18D
102
}
330
18D
100
AcDbVisualStyle
  2
ColorChange
 70
    16
 71
     2
 72
     2
 73
     3
 90
        0
 40
0.6
 41
30.0
 62
     5
 63
     8
421
  8421504
 74
     1
 91
        4
 64
     7
 65
   257
 75
     1
175
     1
 42
1.0
 92
        8
 66
     8
424
  8421504
 43
1.0
 76
     1
 77
     6
 78
     2
 67
     7
 79
     5
170
     0
171
     0
290
     0
174
     0
 93
        1
 44
0.0
173
     0
291
     1
 45
0.0
  0
VISUALSTYLE
  5
197
102
{ACAD_REACTORS
330
18D
102
}
330
18D
100
AcDbVisualStyle
  2
Conceptual
 70
     9
 71
     3
 72
     2
 73
     0
 90
        0
 40
0.6
 41
30.0
 62
     5
 63
     7
421
 16777215
 74
     2
 91
        2
 64
     7
 65
   257
 75
     1
175
     1
 42
179.0
 92
        8
 66
     7
 43
1.0
 76
     1
 77
     6
 78
     2
 67
     7
 79
     3
170
     0
171
     0
290
     0
174
     0
 93
        1
 44
0.0
173
     0
291
     0
 45
0.0
  0
VISUALSTYLE
  5
198
102
{ACAD_REACTORS
330
18D
102
}
330
18D
100
AcDbVisualStyle
  2
Dim
 70
    11
 71
     2
 72
     2
 73
     0
 90
        0
 40
0.6
 41
30.0
 62
     5
 63
     7
421
 16777215
 74
     1
 91
        4
 64
     7
 65
   257
 75
     1
175
     1
 42
1.0
 92
        8
 66
     7
 43
1.0
 76
     1
 77
     6
 78
     2
 67
     7
 79
     5
170
     0
171
     0
290
     0
174
     0
 93
        1
 44
-50.0
173
     0
291
     1
 45
0.0
  0
VISUALSTYLE
  5
1A0
102
{ACAD_REACTORS
330
18D
102
}
330
18D
100
AcDbVisualStyle
  2
EdgeColorOff
 70
    22
 71
     2
 72
     2
 73
     0
 90
        0
 40
0.6
 41
30.0
 62
     5
 63
     7
421
 16777215
 74
     1
 91
        4
 64
     7
 65
   257
 75
     1
175
     1
 42
1.0
 92
        8
 66
     7
 43
1.0
 76
     1
 77
     6
 78
     2
 67
     7
 79
     5
170
     0
171
     0
290
     0
174
     0
 93
        1
 44
0.0
173
     0
291
     1
 45
0.0
  0
VISUALSTYLE
  5
19C
102
{ACAD_REACTORS
330
18D
102
}
330
18D
100
AcDbVisualStyle
  2
Facepattern
 70
    15
 71
     2
 72
     2
 73
     0
 90
        0
 40
0.6
 41
30.0
 62
     5
 63
     7
421
 16777215
 74
     1
 91
        4
 64
     7
 65
   257
 75
     1
175
     1
 42
1.0
 92
        8
 66
     7
 43
1.0
 76
     1
 77
     6
 78
     2
 67
     7
 79
     5
170
     0
171
     0
290
     0
174
     0
 93
        1
 44
0.0
173
     0
291
     1
 45
0.0
  0
VISUALSTYLE
  5
18E
102
{ACAD_REACTORS
330
18D
102
}
330
18D
100
AcDbVisualStyle
  2
Flat
 70
     0
 71
     2
 72
     1
 73
     1
 90
        2
 40
0.6
 41
30.0
 62
     5
 63
     7
421
 16777215
 74
     0
 91
        0
 64
     7
 65
   257
 75
     1
175
     1
 42
1.0
 92
        8
 66
     7
 43
1.0
 76
     1
 77
     6
 78
     2
 67
     7
 79
     5
170
     0
171
     0
290
     0
174
     0
 93
       13
 44
0.0
173
     0
291
     1
 45
0.0
  0
VISUALSTYLE
  5
18F
102
{ACAD_REACTORS
330
18D
102
}
330
18D
100
AcDbVisualStyle
  2
FlatWithEdges
 70
     1
 71
     2
 72
     1
 73
     1
 90
        2
 40
0.6
 41
30.0
 62
     5
 63
     7
421
 16777215
 74
     1
 91
        0
 64
     7
 65
   257
 75
     1
175
     1
 42
1.0
 92
        0
 66
   257
 43
1.0
 76
     1
 77
     6
 78
     2
 67
     7
 79
     5
170
     0
171
     0
290
     0
174
     0
 93
       13
 44
0.0
173
     0
291
     1
 45
0.0
  0
VISUALSTYLE
  5
190
102
{ACAD_REACTORS
330
18D
102
}
330
18D
100
AcDbVisualStyle
  2
Gouraud
 70
     2
 71
     2
 72
     2
 73
     1
 90
        2
 40
0.6
 41
30.0
 62
     5
 63
     7
421
 16777215
 74
     0
 91
        0
 64
     7
 65
   257
 75
     1
175
     1
 42
1.0
 92
        0
 66
     7
 43
1.0
 76
     1
 77
     6
 78
     2
 67
     7
 79
     5
170
     0
171
     0
290
     0
174
     0
 93
       13
 44
0.0
173
     0
291
     1
 45
0.0
  0
VISUALSTYLE
  5
191
102
{ACAD_REACTORS
330
18D
102
}
330
18D
100
AcDbVisualStyle
  2
GouraudWithEdges
 70
     3
 71
     2
 72
     2
 73
     1
 90
        2
 40
0.6
 41
30.0
 62
     5
 63
     7
421
 16777215
 74
     1
 91
        0
 64
     7
 65
   257
 75
     1
175
     1
 42
1.0
 92
        0
 66
   257
 43
1.0
 76
     1
 77
     6
 78
     2
 67
     7
 79
     5
170
     0
171
     0
290
     0
174
     0
 93
       13
 44
0.0
173
     0
291
     1
 45
0.0
  0
VISUALSTYLE
  5
194
102
{ACAD_REACTORS
330
18D
102
}
330
18D
100
AcDbVisualStyle
  2
Hidden
 70
     6
 71
     1
 72
     2
 73
     2
 90
        0
 40
0.6
 41
30.0
 62
     5
 63
     7
421
 16777215
 74
     2
 91
        2
 64
     7
 65
   257
 75
     2
175
     1
 42
40.0
 92
        0
 66
   257
 43
1.0
 76
     1
 77
     6
 78
     2
 67
     7
 79
     3
170
     0
171
     0
290
     0
174
     0
 93
        1
 44
0.0
173
     0
291
     0
 45
0.0
  0
VISUALSTYLE
  5
19E
102
{ACAD_REACTORS
330
18D
102
}
330
18D
100
AcDbVisualStyle
  2
JitterOff
 70
    20
 71
     2
 72
     2
 73
     0
 90
        0
 40
0.6
 41
30.0
 62
     5
 63
     7
421
 16777215
 74
     1
 91
        4
 64
     7
 65
   257
 75
     1
175
     1
 42
1.0
 92
       10
 66
     7
 43
1.0
 76
     1
 77
     6
 78
     2
 67
     7
 79
     5
170
     0
171
     0
290
     0
174
     0
 93
        1
 44
0.0
173
     0
291
     1
 45
0.0
  0
VISUALSTYLE
  5
19B
102
{ACAD_REACTORS
330
18D
102
}
330
18D
100
AcDbVisualStyle
  2
Linepattern
 70
    14
 71
     2
 72
     2
 73
     0
 90
        0
 40
0.6
 41
30.0
 62
     5
 63
     7
421
 16777215
 74
     1
 91
        4
 64
     7
 65
   257
 75
     7
175
     7
 42
1.0
 92
        8
 66
     7
 43
1.0
 76
     1
 77
     6
 78
     2
 67
     7
 79
     5
170
     0
171
     0
290
     0
174
     0
 93
        1
 44
0.0
173
     0
291
     1
 45
0.0
  0
VISUALSTYLE
  5
19F
102
{ACAD_REACTORS
330
18D
102
}
330
18D
100
AcDbVisualStyle
  2
OverhangOff
 70
    21
 71
     2
 72
     2
 73
     0
 90
        0
 40
0.6
 41
30.0
 62
     5
 63
     7
421
 16777215
 74
     1
 91
        4
 64
     7
 65
   257
 75
     1
175
     1
 42
1.0
 92
        9
 66
     7
 43
1.0
 76
     1
 77
     6
 78
     2
 67
     7
 79
     5
170
     0
171
     0
290
     0
174
     0
 93
        1
 44
0.0
173
     0
291
     1
 45
0.0
  0
VISUALSTYLE
  5
196
102
{ACAD_REACTORS
330
18D
102
}
330
18D
100
AcDbVisualStyle
  2
Realistic
 70
     8
 71
     2
 72
     3
 73
     0
 90
        2
 40
0.6
 41
30.0
 62
     5
 63
     7
421
 16777215
 74
     0
 91
        0
 64
     7
 65
   257
 75
     1
175
     1
 42
1.0
 92
        8
 66
   257
 43
1.0
 76
     1
 77
     6
 78
     2
 67
     7
 79
     3
170
     0
171
     0
290
     0
174
     0
 93
       13
 44
0.0
173
     0
291
     0
 45
0.0
  0
VISUALSTYLE
  5
1A5
102
{ACAD_REACTORS
330
18D
102
}
330
18D
100
AcDbVisualStyle
  2
Shaded
 70
    27
 71
     2
 72
     2
 73
     1
 90
        2
 40
0.6
 41
30.0
 62
     5
 63
     7
421
 16777215
 74
     0
 91
        4
 64
     7
 65
   257
 75
     1
175
     1
 42
1.0
 92
        8
 66
   257
 43
1.0
 76
     1
 77
     6
 78
     2
 67
     8
425
  7895160
 79
     3
170
     0
171
     0
290
     0
174
     0
 93
        5
 44
0.0
173
     0
291
     0
 45
0.0
  0
VISUALSTYLE
  5
1A4
102
{ACAD_REACTORS
330
18D
102
}
330
18D
100
AcDbVisualStyle
  2
Shaded with edges
 70
    26
 71
     2
 72
     2
 73
     1
 90
        2
 40
0.6
 41
30.0
 62
     5
 63
     7
421
 16777215
 74
     1
 91
       10
 64
     7
 65
   257
 75
     2
175
     1
 42
1.0
 92
        8
 66
   257
 43
1.0
 76
     1
 77
     6
 78
     2
 67
     7
 79
     3
170
     0
171
     0
290
     0
174
     0
 93
        5
 44
0.0
173
     0
291
     0
 45
0.0
  0
VISUALSTYLE
  5
1A1
102
{ACAD_REACTORS
330
18D
102
}
330
18D
100
AcDbVisualStyle
  2
Shades of Gray
 70
    23
 71
     2
 72
     2
 73
     3
 90
        0
 40
0.6
 41
30.0
 62
     5
 63
     7
421
 16777215
 74
     2
 91
        2
 64
     7
 65
     7
 75
     1
175
     1
 42
40.0
 92
        8
 66
     7
 43
1.0
 76
     1
 77
     6
 78
     2
 67
     7
 79
     3
170
     0
171
     0
290
     0
174
     0
 93
        1
 44
0.0
173
     0
291
     0
 45
0.0
  0
VISUALSTYLE
  5
1A2
102
{ACAD_REACTORS
330
18D
102
}
330
18D
100
AcDbVisualStyle
  2
Sketchy
 70
    24
 71
     1
 72
     2
 73
     2
 90
        0
 40
0.6
 41
30.0
 62
     5
 63
     7
421
 16777215
 74
     2
 91
        2
 64
     7
 65
     7
 75
     1
175
     1
 42
40.0
 92
       11
 66
     7
 43
1.0
 76
     1
 77
     6
 78
     2
 67
     7
 79
     6
170
     0
171
     0
290
     0
174
     0
 93
        1
 44
0.0
173
     0
291
     0
 45
0.0
  0
VISUALSTYLE
  5
19A
102
{ACAD_REACTORS
330
18D
102
}
330
18D
100
AcDbVisualStyle
  2
Thicken
 70
    13
 71
     2
 72
     2
 73
     0
 90
        0
 40
0.6
 41
30.0
 62
     5
 63
     7
421
 16777215
 74
     1
 91
        4
 64
     7
 65
   257
 75
     1
175
     1
 42
1.0
 92
       12
 66
     7
 43
1.0
 76
     1
 77
     6
 78
     2
 67
     7
 79
     5
170
     0
171
     0
290
     0
174
     0
 93
        1
 44
0.0
173
     0
291
     1
 45
0.0
  0
VISUALSTYLE
  5
193
102
{ACAD_REACTORS
330
18D
102
}
330
18D
100
AcDbVisualStyle
  2
Wireframe
 70
     5
 71
     0
 72
     2
 73
     0
 90
        0
 40
0.6
 41
30.0
 62
     5
 63
     7
421
 16777215
 74
     1
 91
        4
 64
     7
 65
   257
 75
     1
175
     1
 42
1.0
 92
        0
 66
   257
 43
1.0
 76
     1
 77
     6
 78
     2
 67
     7
 79
     3
170
     0
171
     0
290
     0
174
     0
 93
        1
 44
0.0
173
     0
291
     0
 45
0.0
  0
VISUALSTYLE
  5
1A3
102
{ACAD_REACTORS
330
18D
102
}
330
18D
100
AcDbVisualStyle
  2
X-Ray
 70
    25
 71
     2
 72
     2
 73
     1
 90
        1
 40
0.5
 41
30.0
 62
     5
 63
     7
421
 16777215
 74
     1
 91
        0
 64
     7
 65
   257
 75
     1
175
     1
 42
1.0
 92
        8
 66
     7
 43
1.0
 76
     1
 77
     6
 78
     2
 67
     7
 79
     3
170
     0
171
     0
290
     0
174
     0
 93
       13
 44
0.0
173
     0
291
     0
 45
0.0
  0
DICTIONARYVAR
  5
1D2
102
{ACAD_REACTORS
330
1C2
102
}
330
1C2
100
DictionaryVariables
280
     0
  1
1:1
  0
DICTIONARYVAR
  5
1C7
102
{ACAD_REACTORS
330
1C2
102
}
330
1C2
100
DictionaryVariables
280
     0
  1
Standard
  0
DICTIONARYVAR
  5
1C3
102
{ACAD_REACTORS
330
1C2
102
}
330
1C2
100
DictionaryVariables
280
     0
  1
0
  0
DICTIONARYVAR
  5
1C9
102
{ACAD_REACTORS
330
1C2
102
}
330
1C2
100
DictionaryVariables
280
     0
  1
0
  0
XRECORD
  5
1CF
102
{ACAD_REACTORS
330
1CE
102
}
330
1CE
100
AcDbXrecord
280
     1
 91
     1023
301

290
     0
302
AWK73-9901
330
14
 90
        8
 62
     7
370
    -3
331
13
  1
Color_7
330
38
 90
        0
 62
     7
370
    -3
331
13
  1
Color_7
330
39
 90
        8
 62
     7
370
    -3
331
13
  1
Color_7
330
3A
 90
        8
 62
     7
370
    -3
331
13
  1
Color_7
330
3B
 90
        8
 62
     7
370
    -3
331
13
  1
Color_7
  0
DICTIONARY
  5
1D3
330
1AB
100
AcDbDictionary
280
     1
281
     1
  3
ACAD_ROUNDTRIP_2008_TABLESTYLE_CELLSTYLEMAP
360
1D4
  0
CELLSTYLEMAP
  5
1D4
102
{ACAD_REACTORS
330
1D3
102
}
330
1D3
100
AcDbCellStyleMap
 90
        3
300
CELLSTYLE
  1
TABLEFORMAT_BEGIN
 90
        5
170
     1
 91
        0
 92
        0
 62
   257
 93
        1
300
CONTENTFORMAT
  1
CONTENTFORMAT_BEGIN
 90
        0
 91
        0
 92
        4
 93
        0
300

 40
0.0
140
1.0
 94
        5
 62
     0
340
17
144
6.0
309
CONTENTFORMAT_END
171
     1
301
MARGIN
  1
CELLMARGIN_BEGIN
 40
1.5
 40
1.5
 40
1.5
 40
1.5
 40
1.5
 40
1.5
309
CELLMARGIN_END
 94
        6
 95
        1
302
GRIDFORMAT
  1
GRIDFORMAT_BEGIN
 90
        0
 91
        1
 62
     0
 92
       -2
340
11
 93
        0
 40
0.045
309
GRIDFORMAT_END
 95
        2
302
GRIDFORMAT
  1
GRIDFORMAT_BEGIN
 90
        0
 91
        1
 62
     0
 92
       -2
340
11
 93
        0
 40
0.045
309
GRIDFORMAT_END
 95
        4
302
GRIDFORMAT
  1
GRIDFORMAT_BEGIN
 90
        0
 91
        1
 62
     0
 92
       -2
340
11
 93
        0
 40
0.045
309
GRIDFORMAT_END
 95
        8
302
GRIDFORMAT
  1
GRIDFORMAT_BEGIN
 90
        0
 91
        1
 62
     0
 92
       -2
340
11
 93
        0
 40
0.045
309
GRIDFORMAT_END
 95
       16
302
GRIDFORMAT
  1
GRIDFORMAT_BEGIN
 90
        0
 91
        1
 62
     0
 92
       -2
340
11
 93
        0
 40
0.045
309
GRIDFORMAT_END
 95
       32
302
GRIDFORMAT
  1
GRIDFORMAT_BEGIN
 90
        0
 91
        1
 62
     0
 92
       -2
340
11
 93
        0
 40
0.045
309
GRIDFORMAT_END
309
TABLEFORMAT_END
  1
CELLSTYLE_BEGIN
 90
        1
 91
        1
300
_TITLE
309
CELLSTYLE_END
300
CELLSTYLE
  1
TABLEFORMAT_BEGIN
 90
        5
170
     1
 91
        0
 92
        0
 62
   257
 93
        1
300
CONTENTFORMAT
  1
CONTENTFORMAT_BEGIN
 90
        0
 91
        0
 92
        4
 93
        0
300

 40
0.0
140
1.0
 94
        5
 62
     0
340
17
144
4.5
309
CONTENTFORMAT_END
171
     1
301
MARGIN
  1
CELLMARGIN_BEGIN
 40
1.5
 40
1.5
 40
1.5
 40
1.5
 40
1.5
 40
1.5
309
CELLMARGIN_END
 94
        6
 95
        1
302
GRIDFORMAT
  1
GRIDFORMAT_BEGIN
 90
        0
 91
        1
 62
     0
 92
       -2
340
11
 93
        0
 40
0.045
309
GRIDFORMAT_END
 95
        2
302
GRIDFORMAT
  1
GRIDFORMAT_BEGIN
 90
        0
 91
        1
 62
     0
 92
       -2
340
11
 93
        0
 40
0.045
309
GRIDFORMAT_END
 95
        4
302
GRIDFORMAT
  1
GRIDFORMAT_BEGIN
 90
        0
 91
        1
 62
     0
 92
       -2
340
11
 93
        0
 40
0.045
309
GRIDFORMAT_END
 95
        8
302
GRIDFORMAT
  1
GRIDFORMAT_BEGIN
 90
        0
 91
        1
 62
     0
 92
       -2
340
11
 93
        0
 40
0.045
309
GRIDFORMAT_END
 95
       16
302
GRIDFORMAT
  1
GRIDFORMAT_BEGIN
 90
        0
 91
        1
 62
     0
 92
       -2
340
11
 93
        0
 40
0.045
309
GRIDFORMAT_END
 95
       32
302
GRIDFORMAT
  1
GRIDFORMAT_BEGIN
 90
        0
 91
        1
 62
     0
 92
       -2
340
11
 93
        0
 40
0.045
309
GRIDFORMAT_END
309
TABLEFORMAT_END
  1
CELLSTYLE_BEGIN
 90
        2
 91
        1
300
_HEADER
309
CELLSTYLE_END
300
CELLSTYLE
  1
TABLEFORMAT_BEGIN
 90
        5
170
     1
 91
        0
 92
        0
 62
   257
 93
        1
300
CONTENTFORMAT
  1
CONTENTFORMAT_BEGIN
 90
        0
 91
        0
 92
        4
 93
        0
300

 40
0.0
140
1.0
 94
        2
 62
     0
340
17
144
4.5
309
CONTENTFORMAT_END
171
     1
301
MARGIN
  1
CELLMARGIN_BEGIN
 40
1.5
 40
1.5
 40
1.5
 40
1.5
 40
1.5
 40
1.5
309
CELLMARGIN_END
 94
        6
 95
        1
302
GRIDFORMAT
  1
GRIDFORMAT_BEGIN
 90
        0
 91
        1
 62
     0
 92
       -2
340
11
 93
        0
 40
0.045
309
GRIDFORMAT_END
 95
        2
302
GRIDFORMAT
  1
GRIDFORMAT_BEGIN
 90
        0
 91
        1
 62
     0
 92
       -2
340
11
 93
        0
 40
0.045
309
GRIDFORMAT_END
 95
        4
302
GRIDFORMAT
  1
GRIDFORMAT_BEGIN
 90
        0
 91
        1
 62
     0
 92
       -2
340
11
 93
        0
 40
0.045
309
GRIDFORMAT_END
 95
        8
302
GRIDFORMAT
  1
GRIDFORMAT_BEGIN
 90
        0
 91
        1
 62
     0
 92
       -2
340
11
 93
        0
 40
0.045
309
GRIDFORMAT_END
 95
       16
302
GRIDFORMAT
  1
GRIDFORMAT_BEGIN
 90
        0
 91
        1
 62
     0
 92
       -2
340
11
 93
        0
 40
0.045
309
GRIDFORMAT_END
 95
       32
302
GRIDFORMAT
  1
GRIDFORMAT_BEGIN
 90
        0
 91
        1
 62
     0
 92
       -2
340
11
 93
        0
 40
0.045
309
GRIDFORMAT_END
309
TABLEFORMAT_END
  1
CELLSTYLE_BEGIN
 90
        3
 91
        2
300
_DATA
309
CELLSTYLE_END
  0
ENDSEC
  0
EOF
