  0
SECTION
  2
HEADER
  9
$ACADVER
  1
AC1021
  9
$ACADMAINTVER
 70
    25
  9
$DWGCODEPAGE
  3
ANSI_932
  9
$LASTSAVEDBY
  1
howeNelson
  9
$INSBASE
 10
0.0
 20
0.0
 30
0.0
  9
$EXTMIN
 10
0.0
 20
0.0
 30
-0.0000000000000142
  9
$EXTMAX
 10
1050.0
 20
1485.0
 30
0.0000000000000142
  9
$LIMMIN
 10
0.0
 20
0.0
  9
$LIMMAX
 10
1050.0
 20
1485.0
  9
$ORTHOMODE
 70
     0
  9
$REGENMODE
 70
     1
  9
$FILLMODE
 70
     1
  9
$QTEXTMODE
 70
     0
  9
$MIRRTEXT
 70
     1
  9
$LTSCALE
 40
50.0
  9
$ATTMODE
 70
     1
  9
$TEXTSIZE
 40
2.5
  9
$TRACEWID
 40
1.0
  9
$TEXTSTYLE
  7
ＭＳ ゴシック
  9
$CLAYER
  8
DIM
  9
$CELTYPE
  6
ByLayer
  9
$CECOLOR
 62
   256
  9
$CELTSCALE
 40
0.05
  9
$DISPSILH
 70
     0
  9
$DIMSCALE
 40
1.0
  9
$DIMASZ
 40
3.0
  9
$DIMEXO
 40
5.0
  9
$DIMDLI
 40
0.9999999999999999
  9
$DIMRND
 40
0.0
  9
$DIMDLE
 40
0.0
  9
$DIMEXE
 40
0.0
  9
$DIMTP
 40
0.0
  9
$DIMTM
 40
0.0
  9
$DIMTXT
 40
12.0
  9
$DIMCEN
 40
0.0
  9
$DIMTSZ
 40
0.0
  9
$DIMTOL
 70
     0
  9
$DIMLIM
 70
     0
  9
$DIMTIH
 70
     0
  9
$DIMTOH
 70
     0
  9
$DIMSE1
 70
     0
  9
$DIMSE2
 70
     0
  9
$DIMTAD
 70
     1
  9
$DIMZIN
 70
    11
  9
$DIMBLK
  1
DOT
  9
$DIMASO
 70
     1
  9
$DIMSHO
 70
     1
  9
$DIMPOST
  1
<>
  9
$DIMAPOST
  1
[]
  9
$DIMALT
 70
     0
  9
$DIMALTD
 70
     1
  9
$DIMALTF
 40
1.0
  9
$DIMLFAC
 40
1.0
  9
$DIMTOFL
 70
     0
  9
$DIMTVP
 40
0.0
  9
$DIMTIX
 70
     1
  9
$DIMSOXD
 70
     0
  9
$DIMSAH
 70
     0
  9
$DIMBLK1
  1

  9
$DIMBLK2
  1

  9
$DIMSTYLE
  2
tfrom線あり
  9
$DIMCLRD
 70
     0
  9
$DIMCLRE
 70
     0
  9
$DIMCLRT
 70
     0
  9
$DIMTFAC
 40
1.0
  9
$DIMGAP
 40
10.0
  9
$DIMJUST
 70
     0
  9
$DIMSD1
 70
     0
  9
$DIMSD2
 70
     0
  9
$DIMTOLJ
 70
     1
  9
$DIMTZIN
 70
    11
  9
$DIMALTZ
 70
    11
  9
$DIMALTTZ
 70
    11
  9
$DIMUPT
 70
     0
  9
$DIMDEC
 70
     0
  9
$DIMTDEC
 70
     1
  9
$DIMALTU
 70
     2
  9
$DIMALTTD
 70
     2
  9
$DIMTXSTY
  7
ＭＳ ゴシック
  9
$DIMAUNIT
 70
     0
  9
$DIMADEC
 70
     2
  9
$DIMALTRND
 40
0.0
  9
$DIMAZIN
 70
     0
  9
$DIMDSEP
 70
    46
  9
$DIMATFIT
 70
     0
  9
$DIMFRAC
 70
     2
  9
$DIMLDRBLK
  1
DOT
  9
$DIMLUNIT
 70
     2
  9
$DIMLWD
 70
    -2
  9
$DIMLWE
 70
    -2
  9
$DIMTMOVE
 70
     0
  9
$DIMFXL
 40
1.0
  9
$DIMFXLON
 70
     0
  9
$DIMJOGANG
 40
0.7853981633974483
  9
$DIMTFILL
 70
     0
  9
$DIMTFILLCLR
 70
     0
  9
$DIMARCSYM
 70
     0
  9
$DIMLTYPE
  6

  9
$DIMLTEX1
  6

  9
$DIMLTEX2
  6

  9
$LUNITS
 70
     2
  9
$LUPREC
 70
     0
  9
$SKETCHINC
 40
0.1
  9
$FILLETRAD
 40
0.0
  9
$AUNITS
 70
     0
  9
$AUPREC
 70
     0
  9
$MENU
  1
acad
  9
$ELEVATION
 40
0.0
  9
$PELEVATION
 40
0.0
  9
$THICKNESS
 40
0.0
  9
$LIMCHECK
 70
     0
  9
$CHAMFERA
 40
0.0
  9
$CHAMFERB
 40
0.0
  9
$CHAMFERC
 40
0.0
  9
$CHAMFERD
 40
0.0
  9
$SKPOLY
 70
     0
  9
$TDCREATE
 40
2447893.375
  9
$TDUCREATE
 40
0.0
  9
$TDUPDATE
 40
2457569.672024155
  9
$TDUUPDATE
 40
2457569.297024155
  9
$TDINDWG
 40
0.187463669
  9
$TDUSRTIMER
 40
2457569.296492118
  9
$USRTIMER
 70
     1
  9
$ANGBASE
 50
0.0
  9
$ANGDIR
 70
     0
  9
$PDMODE
 70
     1
  9
$PDSIZE
 40
-2.0
  9
$PLINEWID
 40
0.0
  9
$SPLFRAME
 70
     0
  9
$SPLINETYPE
 70
     6
  9
$SPLINESEGS
 70
     8
  9
$HANDSEED
  5
172A
  9
$SURFTAB1
 70
     6
  9
$SURFTAB2
 70
     6
  9
$SURFTYPE
 70
     6
  9
$SURFU
 70
     6
  9
$SURFV
 70
     6
  9
$UCSBASE
  2

  9
$UCSNAME
  2

  9
$UCSORG
 10
0.0
 20
0.0
 30
0.0
  9
$UCSXDIR
 10
1.0
 20
0.0
 30
0.0
  9
$UCSYDIR
 10
0.0
 20
1.0
 30
0.0
  9
$UCSORTHOREF
  2

  9
$UCSORTHOVIEW
 70
     0
  9
$UCSORGTOP
 10
0.0
 20
0.0
 30
0.0
  9
$UCSORGBOTTOM
 10
0.0
 20
0.0
 30
0.0
  9
$UCSORGLEFT
 10
0.0
 20
0.0
 30
0.0
  9
$UCSORGRIGHT
 10
0.0
 20
0.0
 30
0.0
  9
$UCSORGFRONT
 10
0.0
 20
0.0
 30
0.0
  9
$UCSORGBACK
 10
0.0
 20
0.0
 30
0.0
  9
$PUCSBASE
  2

  9
$PUCSNAME
  2

  9
$PUCSORG
 10
0.0
 20
0.0
 30
0.0
  9
$PUCSXDIR
 10
1.0
 20
0.0
 30
0.0
  9
$PUCSYDIR
 10
0.0
 20
1.0
 30
0.0
  9
$PUCSORTHOREF
  2

  9
$PUCSORTHOVIEW
 70
     0
  9
$PUCSORGTOP
 10
0.0
 20
0.0
 30
0.0
  9
$PUCSORGBOTTOM
 10
0.0
 20
0.0
 30
0.0
  9
$PUCSORGLEFT
 10
0.0
 20
0.0
 30
0.0
  9
$PUCSORGRIGHT
 10
0.0
 20
0.0
 30
0.0
  9
$PUCSORGFRONT
 10
0.0
 20
0.0
 30
0.0
  9
$PUCSORGBACK
 10
0.0
 20
0.0
 30
0.0
  9
$USERI1
 70
     0
  9
$USERI2
 70
     0
  9
$USERI3
 70
     0
  9
$USERI4
 70
     0
  9
$USERI5
 70
     0
  9
$USERR1
 40
0.0
  9
$USERR2
 40
0.0
  9
$USERR3
 40
0.0
  9
$USERR4
 40
0.0
  9
$USERR5
 40
0.0
  9
$WORLDVIEW
 70
     1
  9
$SHADEDGE
 70
     3
  9
$SHADEDIF
 70
    70
  9
$TILEMODE
 70
     1
  9
$MAXACTVP
 70
    64
  9
$PINSBASE
 10
0.0
 20
0.0
 30
0.0
  9
$PLIMCHECK
 70
     0
  9
$PEXTMIN
 10
0.0
 20
0.0
 30
0.0
  9
$PEXTMAX
 10
0.0
 20
0.0
 30
0.0
  9
$PLIMMIN
 10
-95.87226993865028
 20
-25.69999999999999
  9
$PLIMMAX
 10
201.1277300613497
 20
184.3
  9
$UNITMODE
 70
     0
  9
$VISRETAIN
 70
     0
  9
$PLINEGEN
 70
     1
  9
$PSLTSCALE
 70
     0
  9
$TREEDEPTH
 70
  3020
  9
$CMLSTYLE
  2
Standard
  9
$CMLJUST
 70
     0
  9
$CMLSCALE
 40
1.0
  9
$PROXYGRAPHICS
 70
     0
  9
$MEASUREMENT
 70
     1
  9
$CELWEIGHT
370
    -1
  9
$ENDCAPS
280
     0
  9
$JOINSTYLE
280
     0
  9
$LWDISPLAY
290
     1
  9
$INSUNITS
 70
     4
  9
$HYPERLINKBASE
  1

  9
$STYLESHEET
  1

  9
$XEDIT
290
     1
  9
$CEPSNTYPE
380
     0
  9
$PSTYLEMODE
290
     1
  9
$FINGERPRINTGUID
  2

  9
$VERSIONGUID
  2

  9
$EXTNAMES
290
     1
  9
$PSVPSCALE
 40
0.0
  9
$OLESTARTUP
290
     0
  9
$SORTENTS
280
   127
  9
$INDEXCTL
280
     0
  9
$HIDETEXT
280
     1
  9
$XCLIPFRAME
290
     0
  9
$HALOGAP
280
     0
  9
$OBSCOLOR
 70
   257
  9
$OBSLTYPE
280
     0
  9
$INTERSECTIONDISPLAY
280
     0
  9
$INTERSECTIONCOLOR
 70
   257
  9
$DIMASSOC
280
     2
  9
$PROJECTNAME
  1

  9
$CAMERADISPLAY
290
     0
  9
$LENSLENGTH
 40
50.0
  9
$CAMERAHEIGHT
 40
0.0
  9
$STEPSPERSEC
 40
2.0
  9
$STEPSIZE
 40
6.0
  9
$3DDWFPREC
 40
2.0
  9
$PSOLWIDTH
 40
0.25
  9
$PSOLHEIGHT
 40
4.0
  9
$LOFTANG1
 40
1.570796326794897
  9
$LOFTANG2
 40
1.570796326794897
  9
$LOFTMAG1
 40
0.0
  9
$LOFTMAG2
 40
0.0
  9
$LOFTPARAM
 70
     7
  9
$LOFTNORMALS
280
     1
  9
$LATITUDE
 40
37.795
  9
$LONGITUDE
 40
-122.394
  9
$NORTHDIRECTION
 40
0.0
  9
$TIMEZONE
 70
 -8000
  9
$LIGHTGLYPHDISPLAY
280
     1
  9
$TILEMODELIGHTSYNCH
280
     1
  9
$SOLIDHIST
280
     1
  9
$SHOWHIST
280
     1
  9
$DWFFRAME
280
     2
  9
$DGNFRAME
280
     2
  9
$REALWORLDSCALE
290
     1
  9
$INTERFERECOLOR
 62
   256
  9
$CSHADOW
280
     0
  9
$SHADOWPLANELOCATION
 40
0.0
  0
ENDSEC
  0
SECTION
  2
CLASSES
  0
CLASS
  1
LWPOLYLINE
  2
AcDbPolyline
  3
ObjectDBX Classes
 90
        0
 91
        1
280
     0
281
     1
  0
CLASS
  1
IMAGE
  2
AcDbRasterImage
  3
ISM
 90
      127
 91
        8
280
     0
281
     1
  0
CLASS
  1
OLE2FRAME
  2
AcDbOle2Frame
  3
ObjectDBX Classes
 90
        0
 91
        1
280
     0
281
     1
  0
CLASS
  1
HATCH
  2
AcDbHatch
  3
ObjectDBX Classes
 90
        0
 91
        1
280
     0
281
     1
  0
CLASS
  1
DICTIONARYVAR
  2
AcDbDictionaryVar
  3
ObjectDBX Classes
 90
        0
 91
        7
280
     0
281
     0
  0
CLASS
  1
RASTERVARIABLES
  2
AcDbRasterVariables
  3
ISM
 90
        0
 91
        7
280
     0
281
     0
  0
CLASS
  1
IMAGEDEF
  2
AcDbRasterImageDef
  3
ISM
 90
        0
 91
        7
280
     0
281
     0
  0
CLASS
  1
IMAGEDEF_REACTOR
  2
AcDbRasterImageDefReactor
  3
ISM
 90
        1
 91
        7
280
     0
281
     0
  0
CLASS
  1
IDBUFFER
  2
AcDbIdBuffer
  3
ObjectDBX Classes
 90
        0
 91
        7
280
     0
281
     0
  0
CLASS
  1
SPATIAL_FILTER
  2
AcDbSpatialFilter
  3
ObjectDBX Classes
 90
        0
 91
        7
280
     0
281
     0
  0
CLASS
  1
XRECORD
  2
AcDbXrecord
  3
ObjectDBX Classes
 90
        0
 91
        1
280
     0
281
     0
  0
CLASS
  1
SORTENTSTABLE
  2
AcDbSortentsTable
  3
ObjectDBX Classes
 90
        0
 91
        7
280
     0
281
     0
  0
CLASS
  1
LAYER_INDEX
  2
AcDbLayerIndex
  3
ObjectDBX Classes
 90
        0
 91
        7
280
     0
281
     0
  0
CLASS
  1
SPATIAL_INDEX
  2
AcDbSpatialIndex
  3
AutoCAD 2000
 90
        0
 91
        7
280
     0
281
     0
  0
CLASS
  1
OBJECT_PTR
  2
CAseDLPNTableRecord
  3
ASE-LPNTableRecord
 90
        1
 91
        7
280
     0
281
     0
  0
CLASS
  1
LAYOUT
  2
AcDbLayout
  3
ObjectDBX Classes
 90
        0
 91
        1
280
     0
281
     0
  0
CLASS
  1
PLOTSETTINGS
  2
AcDbPlotSettings
  3
ObjectDBX Classes
 90
        0
 91
        7
280
     0
281
     0
  0
CLASS
  1
ACDBDICTIONARYWDFLT
  2
AcDbDictionaryWithDefault
  3
ObjectDBX Classes
 90
        0
 91
        7
280
     0
281
     0
  0
CLASS
  1
ACDBPLACEHOLDER
  2
AcDbPlaceHolder
  3
ObjectDBX Classes
 90
        0
 91
        1
280
     0
281
     0
  0
CLASS
  1
SCALE
  2
AcDbScale
  3
ObjectDBX Classes
 90
     1153
 91
        7
280
     0
281
     0
  0
CLASS
  1
MATERIAL
  2
AcDbMaterial
  3
ObjectDBX Classes
 90
     1153
 91
        7
280
     0
281
     0
  0
CLASS
  1
VISUALSTYLE
  2
AcDbVisualStyle
  3
ObjectDBX Classes
 90
     4095
 91
        7
280
     0
281
     0
  0
CLASS
  1
TABLESTYLE
  2
AcDbTableStyle
  3
ObjectDBX Classes
 90
     4095
 91
        7
280
     0
281
     0
  0
CLASS
  1
DIMASSOC
  2
AcDbDimAssoc
  3
"AcDbDimAssoc|Product Desc:     AcDim ARX App For Dimension|Company:          Autodesk, Inc.|WEB Address:      www.autodesk.com"
 90
        0
 91
        7
280
     0
281
     0
  0
CLASS
  1
CELLSTYLEMAP
  2
AcDbCellStyleMap
  3
ObjectDBX Classes
 90
     1152
 91
        7
280
     0
281
     0
  0
CLASS
  1
SUN
  2
AcDbSun
  3
SCENEOE
 90
     1153
 91
        7
280
     0
281
     0
  0
CLASS
  1
MLEADERSTYLE
  2
AcDbMLeaderStyle
  3
ACDB_MLEADERSTYLE_CLASS
 90
     4095
 91
        7
280
     0
281
     0
  0
CLASS
  1
FIELD
  2
AcDbField
  3
ObjectDBX Classes
 90
     1152
 91
        7
280
     0
281
     0
  0
CLASS
  1
FIELDLIST
  2
AcDbFieldList
  3
ObjectDBX Classes
 90
     1152
 91
        7
280
     0
281
     0
  0
ENDSEC
  0
SECTION
  2
TABLES
  0
TABLE
  2
VPORT
  5
7
330
0
100
AcDbSymbolTable
 70
     1
  0
VPORT
  5
15
330
7
100
AcDbSymbolTableRecord
100
AcDbViewportTableRecord
  2
*ACTIVE
 70
     0
 10
0.0
 20
0.0
 11
1.0
 21
1.0
 12
616.0201356708981
 22
668.901285469834
 13
0.0
 23
0.0
 14
1.0
 24
1.0
 15
0.0
 25
0.0
 16
0.0
 26
0.0
 36
1.0
 17
-91.02013567089807
 27
73.59871453016603
 37
-46.86809886248109
 40
1514.7
 41
2.410404624277457
 42
50.0
 43
0.0
 44
0.0
 50
0.0
 51
0.0
 71
    16
 72
  2000
 73
     1
 74
     1
 75
     0
 76
     0
 77
     0
 78
     0
281
     0
 65
     1
110
0.0
120
0.0
130
0.0
111
1.0
121
0.0
131
0.0
112
0.0
122
1.0
132
0.0
 79
     0
146
0.0
348
26C
 60
     3
 61
     5
292
     1
282
     1
141
0.0
142
0.0
 63
   256
361
904
  0
ENDTAB
  0
TABLE
  2
LTYPE
  5
4
330
0
100
AcDbSymbolTable
 70
    22
  0
LTYPE
  5
11
330
4
100
AcDbSymbolTableRecord
100
AcDbLinetypeTableRecord
  2
ByBlock
 70
     0
  3

 72
    65
 73
     0
 40
0.0
  0
LTYPE
  5
12
330
4
100
AcDbSymbolTableRecord
100
AcDbLinetypeTableRecord
  2
ByLayer
 70
     0
  3

 72
    65
 73
     0
 40
0.0
  0
LTYPE
  5
13
330
4
100
AcDbSymbolTableRecord
100
AcDbLinetypeTableRecord
  2
Continuous
 70
     0
  3
Solid line
 72
    65
 73
     0
 40
0.0
  0
LTYPE
  5
3A
330
4
100
AcDbSymbolTableRecord
100
AcDbLinetypeTableRecord
  2
STYLE_01
 70
     0
  3

 72
    65
 73
     2
 40
0.2460629921259842
 49
0.1230314960629921
 74
     0
 49
-0.1230314960629921
 74
     0
  0
LTYPE
  5
3B
330
4
100
AcDbSymbolTableRecord
100
AcDbLinetypeTableRecord
  2
STYLE_02
 70
     0
  3

 72
    65
 73
     2
 40
0.6944250000000001
 49
0.48607
 74
     0
 49
-0.2083550000000001
 74
     0
  0
LTYPE
  5
3C
330
4
100
AcDbSymbolTableRecord
100
AcDbLinetypeTableRecord
  2
STYLE_03
 70
     0
  3

 72
    65
 73
     2
 40
1.25
 49
1.04164
 74
     0
 49
-0.2083599999999999
 74
     0
  0
LTYPE
  5
3D
330
4
100
AcDbSymbolTableRecord
100
AcDbLinetypeTableRecord
  2
STYLE_04
 70
     0
  3

 72
    65
 73
     2
 40
1.52771
 49
1.319425
 74
     0
 49
-0.208285
 74
     0
  0
LTYPE
  5
3E
330
4
100
AcDbSymbolTableRecord
100
AcDbLinetypeTableRecord
  2
STYLE_05
 70
     0
  3

 72
    65
 73
     2
 40
0.20828
 49
0.069425
 74
     0
 49
-0.138855
 74
     0
  0
LTYPE
  5
3F
330
4
100
AcDbSymbolTableRecord
100
AcDbLinetypeTableRecord
  2
STYLE_06
 70
     0
  3

 72
    65
 73
     4
 40
1.04164
 49
0.625
 74
     0
 49
-0.20828
 74
     0
 49
0.06943
 74
     0
 49
-0.13893
 74
     0
  0
LTYPE
  5
40
330
4
100
AcDbSymbolTableRecord
100
AcDbLinetypeTableRecord
  2
STYLE_07
 70
     0
  3

 72
    65
 73
     6
 40
1.875
 49
0.625
 74
     0
 49
-0.20828
 74
     0
 49
0.6250000000000001
 74
     0
 49
-0.2083599999999999
 74
     0
 49
0.06943
 74
     0
 49
-0.1389299999999999
 74
     0
  0
LTYPE
  5
41
330
4
100
AcDbSymbolTableRecord
100
AcDbLinetypeTableRecord
  2
STYLE_08
 70
     0
  3

 72
    65
 73
     6
 40
1.25
 49
0.625
 74
     0
 49
-0.20828
 74
     0
 49
0.06943
 74
     0
 49
-0.13893
 74
     0
 49
0.0694299999999999
 74
     0
 49
-0.13893
 74
     0
  0
LTYPE
  5
42
330
4
100
AcDbSymbolTableRecord
100
AcDbLinetypeTableRecord
  2
STYLE_09
 70
     0
  3

 72
    65
 73
     4
 40
5.0
 49
3.75
 74
     0
 49
-0.2777849999999998
 74
     0
 49
0.6944300000000003
 74
     0
 49
-0.2777849999999998
 74
     0
  0
LTYPE
  5
43
330
4
100
AcDbSymbolTableRecord
100
AcDbLinetypeTableRecord
  2
STYLE_10
 70
     0
  3

 72
    65
 73
     6
 40
5.9375
 49
3.75
 74
     0
 49
-0.2777849999999998
 74
     0
 49
0.6944300000000003
 74
     0
 49
-0.2777849999999998
 74
     0
 49
0.625
 74
     0
 49
-0.3125
 74
     0
  0
LTYPE
  5
44
330
4
100
AcDbSymbolTableRecord
100
AcDbLinetypeTableRecord
  2
STYLE_11
 70
     0
  3

 72
    65
 73
     2
 40
0.0694444881889764
 49
0.0347222440944882
 74
     0
 49
-0.0347222440944882
 74
     0
  0
LTYPE
  5
45
330
4
100
AcDbSymbolTableRecord
100
AcDbLinetypeTableRecord
  2
STYLE_12
 70
     0
  3

 72
    65
 73
     2
 40
0.3937007874015748
 49
0.1968503937007874
 74
     0
 49
-0.1968503937007874
 74
     0
  0
LTYPE
  5
46
330
4
100
AcDbSymbolTableRecord
100
AcDbLinetypeTableRecord
  2
STYLE_13
 70
     0
  3

 72
    65
 73
     2
 40
0.5905511811023622
 49
0.2952755905511811
 74
     0
 49
-0.2952755905511811
 74
     0
  0
LTYPE
  5
47
330
4
100
AcDbSymbolTableRecord
100
AcDbLinetypeTableRecord
  2
STYLE_14
 70
     0
  3

 72
    65
 73
     2
 40
1.968503937007874
 49
0.9842519685039369
 74
     0
 49
-0.9842519685039369
 74
     0
  0
LTYPE
  5
48
330
4
100
AcDbSymbolTableRecord
100
AcDbLinetypeTableRecord
  2
STYLE_15
 70
     0
  3

 72
    65
 73
     2
 40
0.1875
 49
0.125
 74
     0
 49
-0.0625
 74
     0
  0
LTYPE
  5
49
330
4
100
AcDbSymbolTableRecord
100
AcDbLinetypeTableRecord
  2
STYLE_16
 70
     0
  3

 72
    65
 73
     2
 40
0.3690944881889764
 49
0.2460629921259843
 74
     0
 49
-0.1230314960629922
 74
     0
  0
LTYPE
  5
908
330
4
100
AcDbSymbolTableRecord
100
AcDbLinetypeTableRecord
  2
AI-LINETYPE-1
 70
     0
  3
Adobe Illustrator Linetype No. 1
 72
    65
 73
     4
 40
2.116668062491661
 49
1.058334031245831
 74
     0
 49
-0.3527780104152769
 74
     0
 49
0.3527780104152769
 74
     0
 49
-0.3527780104152769
 74
     0
  0
LTYPE
  5
909
330
4
100
AcDbSymbolTableRecord
100
AcDbLinetypeTableRecord
  2
AI-LINETYPE-2
 70
     0
  3
Adobe Illustrator Linetype No. 2
 72
    65
 73
     4
 40
2.116668062491661
 49
1.058334031245831
 74
     0
 49
-0.3527780104152769
 74
     0
 49
0.3527780104152769
 74
     0
 49
-0.3527780104152769
 74
     0
  0
LTYPE
  5
D6C
330
4
100
AcDbSymbolTableRecord
100
AcDbLinetypeTableRecord
  2
BORDER
 70
     0
  3
Border __  __  . __  __  . __  __  . __  __  . 
 72
    65
 73
     6
 40
44.45
 49
12.7
 74
     0
 49
-6.35
 74
     0
 49
12.7
 74
     0
 49
-6.35
 74
     0
 49
0.0
 74
     0
 49
-6.35
 74
     0
  0
LTYPE
  5
D6D
330
4
100
AcDbSymbolTableRecord
100
AcDbLinetypeTableRecord
  2
HIDDEN
 70
     0
  3
Hidden _ _ _ _ _ _ _ _ _ _ _ _ _ _ _ _ _ _ _ _ 
 72
    65
 73
     2
 40
9.524999999999999
 49
6.35
 74
     0
 49
-3.175
 74
     0
  0
LTYPE
  5
1623
330
4
100
AcDbSymbolTableRecord
100
AcDbLinetypeTableRecord
  2
CENTER
 70
     0
  3
 Center _____  _  _____  _  _____  _  _____  _ 
 72
    65
 73
     4
 40
50.8
 49
31.75
 74
     0
 49
-6.35
 74
     0
 49
6.35
 74
     0
 49
-6.35
 74
     0
  0
ENDTAB
  0
TABLE
  2
LAYER
  5
2
102
{ACAD_XDICTIONARY
360
2E1
102
}
330
0
100
AcDbSymbolTable
 70
     9
  0
LAYER
  5
14
330
2
100
AcDbSymbolTableRecord
100
AcDbLayerTableRecord
  2
0
 70
     0
 62
     7
  6
Continuous
370
    -3
390
1D
347
266
  0
LAYER
  5
4B
330
2
100
AcDbSymbolTableRecord
100
AcDbLayerTableRecord
  2
TEMPLATE
 70
     0
 62
     7
  6
Continuous
370
    20
390
1D
347
266
  0
LAYER
  5
4C
330
2
100
AcDbSymbolTableRecord
100
AcDbLayerTableRecord
  2
DIM
 70
     0
 62
     3
  6
Continuous
370
    13
390
1D
347
266
  0
LAYER
  5
4D
330
2
100
AcDbSymbolTableRecord
100
AcDbLayerTableRecord
  2
MODEL
 70
     0
 62
     7
  6
Continuous
370
    20
390
1D
347
266
  0
LAYER
  5
667
330
2
100
AcDbSymbolTableRecord
100
AcDbLayerTableRecord
  2
LOGO
 70
     0
 62
     7
  6
Continuous
370
    -3
390
1D
347
266
  0
LAYER
  5
88C
330
2
100
AcDbSymbolTableRecord
100
AcDbLayerTableRecord
  2
HIDDEN
 70
     0
 62
     8
  6
HIDDEN
370
    20
390
1D
347
266
1001
AcAecLayerStandard
1000

1000

  0
LAYER
  5
D6B
330
2
100
AcDbSymbolTableRecord
100
AcDbLayerTableRecord
  2
BORDER
 70
     0
 62
     4
  6
BORDER
290
     0
370
    20
390
1D
347
266
1001
AcAecLayerStandard
1000

1000

  0
LAYER
  5
D8C
330
2
100
AcDbSymbolTableRecord
100
AcDbLayerTableRecord
  2
Defpoints
 70
     0
 62
     7
  6
Continuous
290
     0
370
    -3
390
1D
347
266
  0
LAYER
  5
E33
330
2
100
AcDbSymbolTableRecord
100
AcDbLayerTableRecord
  2
PRINT BORDER
 70
     0
 62
     4
  6
BORDER
290
     0
370
    20
390
1D
347
266
1001
AcAecLayerStandard
1000

1000

  0
ENDTAB
  0
TABLE
  2
STYLE
  5
3
330
0
100
AcDbSymbolTable
 70
     4
  0
STYLE
  5
17
330
3
100
AcDbSymbolTableRecord
100
AcDbTextStyleTableRecord
  2
Standard
 70
     0
 40
0.0
 41
1.0
 50
0.0
 71
     0
 42
2.5
  3
txt
  4
BIGFONT.SHX
  0
STYLE
  5
39
330
3
100
AcDbSymbolTableRecord
100
AcDbTextStyleTableRecord
  2
ＭＳ ゴシック
 70
     0
 40
0.0
 41
1.0
 50
0.0
 71
     0
 42
2.5
  3
msgothic.ttc
  4
ＭＳ ゴシック
1001
ACAD
1000
ＭＳ ゴシック
1071
        0
  0
STYLE
  5
384
330
3
100
AcDbSymbolTableRecord
100
AcDbTextStyleTableRecord
  2
ARIAL
 70
     0
 40
0.0
 41
1.0
 50
0.0
 71
     0
 42
12.0
  3
ARIAL.TTF
  4

1001
ACAD
1000
Arial
1071
       34
  0
STYLE
  5
385
330
3
100
AcDbSymbolTableRecord
100
AcDbTextStyleTableRecord
  2
ROMANS
 70
     0
 40
0.0
 41
1.0
 50
0.0
 71
     0
 42
5.0
  3
romans.shx
  4

  0
ENDTAB
  0
TABLE
  2
VIEW
  5
5
330
0
100
AcDbSymbolTable
 70
     0
  0
ENDTAB
  0
TABLE
  2
UCS
  5
6
330
0
100
AcDbSymbolTable
 70
     0
  0
ENDTAB
  0
TABLE
  2
APPID
  5
8
330
0
100
AcDbSymbolTable
 70
     3
  0
APPID
  5
16
330
8
100
AcDbSymbolTableRecord
100
AcDbRegAppTableRecord
  2
ACAD
 70
     0
  0
APPID
  5
7AC
330
8
100
AcDbSymbolTableRecord
100
AcDbRegAppTableRecord
  2
AcAecLayerStandard
 70
     0
  0
APPID
  5
E29
330
8
100
AcDbSymbolTableRecord
100
AcDbRegAppTableRecord
  2
ACAD_MLEADERVER
 70
     0
  0
ENDTAB
  0
TABLE
  2
DIMSTYLE
  5
9
330
0
100
AcDbSymbolTable
 70
     5
100
AcDbDimStyleTable
  0
DIMSTYLE
105
18
330
9
100
AcDbSymbolTableRecord
100
AcDbDimStyleTableRecord
  2
Standard
 70
     0
178
     0
340
17
  0
DIMSTYLE
105
56
330
9
100
AcDbSymbolTableRecord
100
AcDbDimStyleTableRecord
  2
tform線あり
 70
     0
  3
<>
  4
[]
 41
9.999389648437498
 42
25.0
 43
0.9999999999999999
 44
0.0
 73
     0
 74
     0
 77
     1
 78
    11
140
24.4326171875
141
0.0
143
1.0
146
0.8
147
0.4999999999999999
171
     1
172
     1
174
     1
178
     0
179
     2
271
     1
272
     1
276
     2
284
    11
285
    11
286
    11
289
     0
340
39
341
4E
342
4E
  0
DIMSTYLE
105
57
102
{ACAD_REACTORS
330
F9E
330
F9F
330
FA0
330
FA1
330
FA2
330
FA8
330
FA9
330
FAB
330
FBF
330
FDA
330
10E4
330
1178
330
1348
330
1386
330
1527
102
}
330
9
100
AcDbSymbolTableRecord
100
AcDbDimStyleTableRecord
  2
tfrom線あり
 70
     0
  3
<>
  4
[]
 41
3.0
 42
5.0
 43
0.9999999999999999
 44
0.0
 73
     0
 74
     0
 77
     1
 78
    11
140
12.0
141
0.0
143
1.0
147
10.0
171
     1
174
     1
178
     0
179
     2
271
     0
272
     1
276
     2
284
    11
285
    11
286
    11
289
     0
340
39
341
4E
342
4E
  0
DIMSTYLE
105
5C
330
9
100
AcDbSymbolTableRecord
100
AcDbDimStyleTableRecord
  2
JIS
 70
     0
  3
<>
  4
[]
 41
9.0
 42
0.0
 43
6.99999999999994
 44
19.9999999999962
 73
     0
 74
     0
 77
     1
 78
    11
140
24.4326171875
141
0.0
143
1.0
147
10.0
171
     1
174
     1
178
     0
179
     2
271
     1
272
     1
276
     2
284
    11
285
    11
286
    11
289
     0
340
39
341
4E
342
4E
  0
DIMSTYLE
105
383
330
9
100
AcDbSymbolTableRecord
100
AcDbDimStyleTableRecord
  2
ARIAL
 70
     0
 41
10.0
 42
3.0
 43
0.5
 44
3.0
 73
     0
 74
     0
 77
     1
 78
     8
140
12.0
141
0.0
146
0.5
147
4.0
171
     1
172
     1
178
     0
271
     1
289
     0
340
384
  0
ENDTAB
  0
TABLE
  2
BLOCK_RECORD
  5
1
330
0
100
AcDbSymbolTable
 70
    52
  0
BLOCK_RECORD
  5
A
330
1
100
AcDbSymbolTableRecord
100
AcDbBlockTableRecord
  2
*MODEL_SPACE
340
20
 70
     0
280
     1
281
     0
  0
BLOCK_RECORD
  5
B
330
1
100
AcDbSymbolTableRecord
100
AcDbBlockTableRecord
  2
*PAPER_SPACE
340
21
 70
     0
280
     1
281
     0
  0
BLOCK_RECORD
  5
4E
330
1
100
AcDbSymbolTableRecord
100
AcDbBlockTableRecord
  2
_DOT
340
0
102
{BLKREFS
331
D96
331
D97
331
DA5
331
DA6
331
EB5
331
EB6
331
EC2
331
EC3
331
ECF
331
ED0
331
EDC
331
EDD
331
EE9
331
EEA
331
EFA
331
EFB
331
F07
331
F08
331
F15
331
F16
331
F37
331
F38
331
F5E
331
F5F
331
FED
331
FEE
331
FF9
331
FFA
331
1005
331
1006
331
0
331
1011
331
101D
331
101E
331
1028
331
1029
331
1034
331
1035
331
1040
331
1041
331
104C
331
104D
331
1058
331
1059
331
10EB
331
10EC
331
0
331
0
331
11EB
331
11EC
331
1212
331
1213
331
122E
331
122F
331
134F
331
1350
331
1362
331
1363
331
136F
331
1370
331
139A
331
139B
331
13A7
331
13A8
331
13D3
331
13D4
331
1439
331
143A
331
1447
331
1448
331
145A
331
145B
331
147E
331
147F
331
148A
331
148B
331
1496
331
1497
331
152E
331
152F
331
15B3
331
15B4
331
15C1
331
15C2
331
1607
331
1608
331
1614
331
1615
331
1183
331
1182
331
1012
102
}
 70
     0
280
     1
281
     0
  0
BLOCK_RECORD
  5
68A
330
1
100
AcDbSymbolTableRecord
100
AcDbBlockTableRecord
  2
名称未設定-1
340
0
102
{BLKREFS
331
6B5
102
}
 70
     1
280
     1
281
     0
  0
BLOCK_RECORD
  5
68D
330
1
100
AcDbSymbolTableRecord
100
AcDbBlockTableRecord
  2
block 2
340
0
102
{BLKREFS
331
68C
102
}
 70
     0
280
     1
281
     0
  0
BLOCK_RECORD
  5
690
330
1
100
AcDbSymbolTableRecord
100
AcDbBlockTableRecord
  2
block 3
340
0
102
{BLKREFS
331
68F
102
}
 70
     0
280
     1
281
     0
  0
BLOCK_RECORD
  5
693
330
1
100
AcDbSymbolTableRecord
100
AcDbBlockTableRecord
  2
block 4
340
0
102
{BLKREFS
331
692
102
}
 70
     0
280
     1
281
     0
  0
BLOCK_RECORD
  5
6A2
330
1
100
AcDbSymbolTableRecord
100
AcDbBlockTableRecord
  2
block 5
340
0
102
{BLKREFS
331
6A1
102
}
 70
     0
280
     1
281
     0
  0
BLOCK_RECORD
  5
D90
330
1
100
AcDbSymbolTableRecord
100
AcDbBlockTableRecord
  2
*D6
340
0
 70
     0
280
     1
281
     0
  0
BLOCK_RECORD
  5
D9F
330
1
100
AcDbSymbolTableRecord
100
AcDbBlockTableRecord
  2
*D7
340
0
 70
     0
280
     1
281
     0
  0
BLOCK_RECORD
  5
EB0
330
1
100
AcDbSymbolTableRecord
100
AcDbBlockTableRecord
  2
*D8
340
0
 70
     0
280
     1
281
     0
  0
BLOCK_RECORD
  5
EBD
330
1
100
AcDbSymbolTableRecord
100
AcDbBlockTableRecord
  2
*D9
340
0
 70
     0
280
     1
281
     0
  0
BLOCK_RECORD
  5
ECA
330
1
100
AcDbSymbolTableRecord
100
AcDbBlockTableRecord
  2
*D10
340
0
 70
     0
280
     1
281
     0
  0
BLOCK_RECORD
  5
ED7
330
1
100
AcDbSymbolTableRecord
100
AcDbBlockTableRecord
  2
*D11
340
0
 70
     0
280
     1
281
     0
  0
BLOCK_RECORD
  5
EE4
330
1
100
AcDbSymbolTableRecord
100
AcDbBlockTableRecord
  2
*D12
340
0
 70
     0
280
     1
281
     0
  0
BLOCK_RECORD
  5
EF6
330
1
100
AcDbSymbolTableRecord
100
AcDbBlockTableRecord
  2
*D13
340
0
 70
     0
280
     1
281
     0
  0
BLOCK_RECORD
  5
F02
330
1
100
AcDbSymbolTableRecord
100
AcDbBlockTableRecord
  2
*D14
340
0
 70
     0
280
     1
281
     0
  0
BLOCK_RECORD
  5
F10
330
1
100
AcDbSymbolTableRecord
100
AcDbBlockTableRecord
  2
*D15
340
0
 70
     0
280
     1
281
     0
  0
BLOCK_RECORD
  5
F32
330
1
100
AcDbSymbolTableRecord
100
AcDbBlockTableRecord
  2
*D16
340
0
 70
     0
280
     1
281
     0
  0
BLOCK_RECORD
  5
F59
330
1
100
AcDbSymbolTableRecord
100
AcDbBlockTableRecord
  2
*D17
340
0
 70
     0
280
     1
281
     0
  0
BLOCK_RECORD
  5
FE7
330
1
100
AcDbSymbolTableRecord
100
AcDbBlockTableRecord
  2
*D18
340
0
 70
     0
280
     1
281
     0
  0
BLOCK_RECORD
  5
FF3
330
1
100
AcDbSymbolTableRecord
100
AcDbBlockTableRecord
  2
*D19
340
0
 70
     0
280
     1
281
     0
  0
BLOCK_RECORD
  5
FFF
330
1
100
AcDbSymbolTableRecord
100
AcDbBlockTableRecord
  2
*D20
340
0
 70
     0
280
     1
281
     0
  0
BLOCK_RECORD
  5
100B
330
1
100
AcDbSymbolTableRecord
100
AcDbBlockTableRecord
  2
*D21
340
0
 70
     0
280
     1
281
     0
  0
BLOCK_RECORD
  5
1017
330
1
100
AcDbSymbolTableRecord
100
AcDbBlockTableRecord
  2
*D22
340
0
 70
     0
280
     1
281
     0
  0
BLOCK_RECORD
  5
1023
330
1
100
AcDbSymbolTableRecord
100
AcDbBlockTableRecord
  2
*D23
340
0
 70
     0
280
     1
281
     0
  0
BLOCK_RECORD
  5
102E
330
1
100
AcDbSymbolTableRecord
100
AcDbBlockTableRecord
  2
*D24
340
0
 70
     0
280
     1
281
     0
  0
BLOCK_RECORD
  5
103A
330
1
100
AcDbSymbolTableRecord
100
AcDbBlockTableRecord
  2
*D25
340
0
 70
     0
280
     1
281
     0
  0
BLOCK_RECORD
  5
1046
330
1
100
AcDbSymbolTableRecord
100
AcDbBlockTableRecord
  2
*D26
340
0
 70
     0
280
     1
281
     0
  0
BLOCK_RECORD
  5
1052
330
1
100
AcDbSymbolTableRecord
100
AcDbBlockTableRecord
  2
*D27
340
0
 70
     0
280
     1
281
     0
  0
BLOCK_RECORD
  5
10E5
330
1
100
AcDbSymbolTableRecord
100
AcDbBlockTableRecord
  2
*D28
340
0
 70
     0
280
     1
281
     0
  0
BLOCK_RECORD
  5
117B
330
1
100
AcDbSymbolTableRecord
100
AcDbBlockTableRecord
  2
*D29
340
0
 70
     0
280
     1
281
     0
  0
BLOCK_RECORD
  5
11E6
330
1
100
AcDbSymbolTableRecord
100
AcDbBlockTableRecord
  2
*D30
340
0
 70
     0
280
     1
281
     0
  0
BLOCK_RECORD
  5
120C
330
1
100
AcDbSymbolTableRecord
100
AcDbBlockTableRecord
  2
*D31
340
0
 70
     0
280
     1
281
     0
  0
BLOCK_RECORD
  5
1228
330
1
100
AcDbSymbolTableRecord
100
AcDbBlockTableRecord
  2
*D32
340
0
 70
     0
280
     1
281
     0
  0
BLOCK_RECORD
  5
1349
330
1
100
AcDbSymbolTableRecord
100
AcDbBlockTableRecord
  2
*D33
340
0
 70
     0
280
     1
281
     0
  0
BLOCK_RECORD
  5
135B
330
1
100
AcDbSymbolTableRecord
100
AcDbBlockTableRecord
  2
*D34
340
0
 70
     0
280
     1
281
     0
  0
BLOCK_RECORD
  5
1369
330
1
100
AcDbSymbolTableRecord
100
AcDbBlockTableRecord
  2
*D35
340
0
 70
     0
280
     1
281
     0
  0
BLOCK_RECORD
  5
1394
330
1
100
AcDbSymbolTableRecord
100
AcDbBlockTableRecord
  2
*D36
340
0
 70
     0
280
     1
281
     0
  0
BLOCK_RECORD
  5
13A0
330
1
100
AcDbSymbolTableRecord
100
AcDbBlockTableRecord
  2
*D37
340
0
 70
     0
280
     1
281
     0
  0
BLOCK_RECORD
  5
13CD
330
1
100
AcDbSymbolTableRecord
100
AcDbBlockTableRecord
  2
*D38
340
0
 70
     0
280
     1
281
     0
  0
BLOCK_RECORD
  5
1434
330
1
100
AcDbSymbolTableRecord
100
AcDbBlockTableRecord
  2
*D39
340
0
 70
     0
280
     1
281
     0
  0
BLOCK_RECORD
  5
1442
330
1
100
AcDbSymbolTableRecord
100
AcDbBlockTableRecord
  2
*D40
340
0
 70
     0
280
     1
281
     0
  0
BLOCK_RECORD
  5
1454
330
1
100
AcDbSymbolTableRecord
100
AcDbBlockTableRecord
  2
*D41
340
0
 70
     0
280
     1
281
     0
  0
BLOCK_RECORD
  5
1478
330
1
100
AcDbSymbolTableRecord
100
AcDbBlockTableRecord
  2
*D42
340
0
 70
     0
280
     1
281
     0
  0
BLOCK_RECORD
  5
1484
330
1
100
AcDbSymbolTableRecord
100
AcDbBlockTableRecord
  2
*D43
340
0
 70
     0
280
     1
281
     0
  0
BLOCK_RECORD
  5
1490
330
1
100
AcDbSymbolTableRecord
100
AcDbBlockTableRecord
  2
*D44
340
0
 70
     0
280
     1
281
     0
  0
BLOCK_RECORD
  5
1528
330
1
100
AcDbSymbolTableRecord
100
AcDbBlockTableRecord
  2
*D45
340
0
 70
     0
280
     1
281
     0
  0
BLOCK_RECORD
  5
15AE
330
1
100
AcDbSymbolTableRecord
100
AcDbBlockTableRecord
  2
*D46
340
0
 70
     0
280
     1
281
     0
  0
BLOCK_RECORD
  5
15BB
330
1
100
AcDbSymbolTableRecord
100
AcDbBlockTableRecord
  2
*D47
340
0
 70
     0
280
     1
281
     0
  0
BLOCK_RECORD
  5
1601
330
1
100
AcDbSymbolTableRecord
100
AcDbBlockTableRecord
  2
*D48
340
0
 70
     0
280
     1
281
     0
  0
BLOCK_RECORD
  5
160D
330
1
100
AcDbSymbolTableRecord
100
AcDbBlockTableRecord
  2
*D49
340
0
 70
     0
280
     1
281
     0
  0
ENDTAB
  0
ENDSEC
  0
SECTION
  2
BLOCKS
  0
BLOCK
  5
D
330
A
100
AcDbEntity
  8
0
390
1D
100
AcDbBlockBegin
  2
*MODEL_SPACE
 70
     0
 10
0.0
 20
0.0
 30
0.0
  3
*MODEL_SPACE
  1
*MODEL_SPACE
  0
ENDBLK
  5
E
330
A
100
AcDbEntity
  8
0
390
1D
100
AcDbBlockEnd
  0
BLOCK
  5
F
330
B
100
AcDbEntity
 67
     1
  8
0
390
1D
100
AcDbBlockBegin
  2
*PAPER_SPACE
 70
     0
 10
0.0
 20
0.0
 30
0.0
  3
*PAPER_SPACE
  1
*PAPER_SPACE
  0
ENDBLK
  5
10
330
B
100
AcDbEntity
 67
     1
  8
0
390
1D
100
AcDbBlockEnd
  0
BLOCK
  5
1091
330
4E
100
AcDbEntity
  8
0
390
1D
100
AcDbBlockBegin
  2
_DOT
 70
     0
 10
0.0
 20
0.0
 30
0.0
  3
_DOT
  1
_DOT
  0
POLYLINE
  5
1093
330
4E
100
AcDbEntity
  8
0
  6
ByBlock
 62
     0
370
    -2
390
1D
100
AcDb2dPolyline
 66
     1
 10
0.0
 20
0.0
 30
0.0
 70
     1
 40
0.5
 41
0.5
  0
VERTEX
  5
1094
330
1093
100
AcDbEntity
  8
0
  6
ByBlock
 62
     0
370
    -2
390
1D
100
AcDbVertex
100
AcDb2dVertex
 10
-0.25
 20
0.0
 30
0.0
 42
1.0
  0
VERTEX
  5
1095
330
1093
100
AcDbEntity
  8
0
  6
ByBlock
 62
     0
370
    -2
390
1D
100
AcDbVertex
100
AcDb2dVertex
 10
0.25
 20
0.0
 30
0.0
 42
1.0
  0
SEQEND
  5
1096
330
1093
100
AcDbEntity
  8
0
390
1D
  0
LINE
  5
1097
330
4E
100
AcDbEntity
  8
0
  6
ByBlock
 62
     0
370
    -2
390
1D
100
AcDbLine
 10
-0.5
 20
0.0
 30
0.0
 11
-1.0
 21
0.0
 31
0.0
  0
ENDBLK
  5
1098
330
4E
100
AcDbEntity
  8
0
390
1D
100
AcDbBlockEnd
  0
BLOCK
  5
68B
330
68A
100
AcDbEntity
  8
0
100
AcDbBlockBegin
  2
名称未設定-1
 70
     0
 10
0.0
 20
0.0
 30
0.0
  3
名称未設定-1
  1
名称未設定-1
  0
INSERT
  5
68F
330
68A
100
AcDbEntity
  8
LOGO
100
AcDbBlockReference
  2
block 3
 10
0.0
 20
0.0
 30
0.0
  0
ENDBLK
  5
6B1
330
68A
100
AcDbEntity
  8
0
100
AcDbBlockEnd
  0
BLOCK
  5
68E
330
68D
100
AcDbEntity
  8
0
100
AcDbBlockBegin
  2
block 2
 70
     0
 10
0.0
 20
0.0
 30
0.0
  3
block 2
  1
block 2
  0
ENDBLK
  5
6B0
330
68D
100
AcDbEntity
  8
0
100
AcDbBlockEnd
  0
BLOCK
  5
691
330
690
100
AcDbEntity
  8
0
100
AcDbBlockBegin
  2
block 3
 70
     0
 10
0.0
 20
0.0
 30
0.0
  3
block 3
  1
block 3
  0
INSERT
  5
692
330
690
100
AcDbEntity
  8
LOGO
100
AcDbBlockReference
  2
block 4
 10
0.0
 20
0.0
 30
0.0
  0
INSERT
  5
6A1
330
690
100
AcDbEntity
  8
LOGO
100
AcDbBlockReference
  2
block 5
 10
0.0
 20
0.0
 30
0.0
  0
ENDBLK
  5
6AF
330
690
100
AcDbEntity
  8
0
100
AcDbBlockEnd
  0
BLOCK
  5
694
330
693
100
AcDbEntity
  8
0
100
AcDbBlockBegin
  2
block 4
 70
     0
 10
0.0
 20
0.0
 30
0.0
  3
block 4
  1
block 4
  0
POLYLINE
  5
695
330
693
100
AcDbEntity
  8
LOGO
370
     0
100
AcDb2dPolyline
 66
     1
 10
0.0
 20
0.0
 30
0.0
  0
VERTEX
  5
696
330
695
100
AcDbEntity
  8
LOGO
370
     0
100
AcDbVertex
100
AcDb2dVertex
 10
83.79545727667795
 20
167.6444858234922
 30
0.0
  0
VERTEX
  5
697
330
695
100
AcDbEntity
  8
LOGO
370
     0
100
AcDbVertex
100
AcDb2dVertex
 10
83.79545727667795
 20
159.7968976406313
 30
0.0
  0
VERTEX
  5
698
330
695
100
AcDbEntity
  8
LOGO
370
     0
100
AcDbVertex
100
AcDb2dVertex
 10
71.3631329975216
 20
159.7968976406313
 30
0.0
  0
VERTEX
  5
699
330
695
100
AcDbEntity
  8
LOGO
370
     0
100
AcDbVertex
100
AcDb2dVertex
 10
71.3631329975216
 20
127.8027915271048
 30
0.0
  0
VERTEX
  5
69A
330
695
100
AcDbEntity
  8
LOGO
370
     0
100
AcDbVertex
100
AcDb2dVertex
 10
60.43011526263018
 20
127.8027915271048
 30
0.0
  0
VERTEX
  5
69B
330
695
100
AcDbEntity
  8
LOGO
370
     0
100
AcDbVertex
100
AcDb2dVertex
 10
60.43011526263018
 20
159.7968976406313
 30
0.0
  0
VERTEX
  5
69C
330
695
100
AcDbEntity
  8
LOGO
370
     0
100
AcDbVertex
100
AcDb2dVertex
 10
48.21793273020759
 20
159.7968976406313
 30
0.0
  0
VERTEX
  5
69D
330
695
100
AcDbEntity
  8
LOGO
370
     0
100
AcDbVertex
100
AcDb2dVertex
 10
48.21793273020759
 20
167.6444858234922
 30
0.0
  0
VERTEX
  5
69E
330
695
100
AcDbEntity
  8
LOGO
370
     0
100
AcDbVertex
100
AcDb2dVertex
 10
83.79545727667795
 20
167.6444858234922
 30
0.0
  0
SEQEND
  5
69F
330
695
100
AcDbEntity
  8
LOGO
370
     0
  0
HATCH
  5
6A0
330
693
100
AcDbEntity
  8
LOGO
 62
   250
420
  2234388
100
AcDbHatch
 10
0.0
 20
0.0
 30
0.0
210
0.0
220
0.0
230
1.0
  2
SOLID
 70
     1
 71
     0
 91
        1
 92
        1
 93
        8
 72
     1
 10
83.79545727667795
 20
167.6444858234922
 11
83.79545727667795
 21
159.7968976406313
 72
     1
 10
83.79545727667795
 20
159.7968976406313
 11
71.3631329975216
 21
159.7968976406313
 72
     1
 10
71.3631329975216
 20
159.7968976406313
 11
71.3631329975216
 21
127.8027915271048
 72
     1
 10
71.3631329975216
 20
127.8027915271048
 11
60.43011526263018
 21
127.8027915271048
 72
     1
 10
60.43011526263018
 20
127.8027915271048
 11
60.43011526263018
 21
159.7968976406313
 72
     1
 10
60.43011526263018
 20
159.7968976406313
 11
48.21793273020759
 21
159.7968976406313
 72
     1
 10
48.21793273020759
 20
159.7968976406313
 11
48.21793273020759
 21
167.6444858234922
 72
     1
 10
48.21793273020759
 20
167.6444858234922
 11
83.79545727667795
 21
167.6444858234922
 97
        0
 75
     2
 76
     1
 98
        0
  0
ENDBLK
  5
6AE
330
693
100
AcDbEntity
  8
0
100
AcDbBlockEnd
  0
BLOCK
  5
6A3
330
6A2
100
AcDbEntity
  8
0
100
AcDbBlockBegin
  2
block 5
 70
     0
 10
0.0
 20
0.0
 30
0.0
  3
block 5
  1
block 5
  0
SPLINE
  5
6A4
330
6A2
100
AcDbEntity
  8
LOGO
370
     0
100
AcDbSpline
210
0.0
220
0.0
230
1.0
 70
    11
 71
     3
 72
    56
 73
    52
 74
     0
 42
0.000000001
 43
0.0000000001
 40
0.0
 40
0.0
 40
0.0
 40
0.0
 40
1.0
 40
1.0
 40
1.0
 40
2.0
 40
2.0
 40
2.0
 40
3.0
 40
3.0
 40
3.0
 40
4.0
 40
4.0
 40
4.0
 40
5.0
 40
5.0
 40
5.0
 40
6.0
 40
6.0
 40
6.0
 40
7.0
 40
7.0
 40
7.0
 40
8.0
 40
8.0
 40
8.0
 40
9.0
 40
9.0
 40
9.0
 40
10.0
 40
10.0
 40
10.0
 40
11.0
 40
11.0
 40
11.0
 40
12.0
 40
12.0
 40
12.0
 40
13.0
 40
13.0
 40
13.0
 40
14.0
 40
14.0
 40
14.0
 40
15.0
 40
15.0
 40
15.0
 40
16.0
 40
16.0
 40
16.0
 40
17.0
 40
17.0
 40
17.0
 40
17.0
 10
100.4504378777679
 20
166.69157178364
 30
0.0
 10
101.9848844191641
 20
167.1313385124438
 30
0.0
 10
103.9637485713373
 20
166.7649523658846
 30
0.0
 10
103.9637485713373
 20
166.7649523658846
 30
0.0
 10
103.9637485713373
 20
166.7649523658846
 30
0.0
 10
103.0132460999156
 20
163.911205638077
 30
0.0
 10
103.0132460999156
 20
163.911205638077
 30
0.0
 10
103.0132460999156
 20
163.911205638077
 30
0.0
 10
101.0674548862189
 20
164.3601018759394
 30
0.0
 10
99.57090442016032
 20
163.1805004036133
 30
0.0
 10
98.40508333886608
 20
162.258247733807
 30
0.0
 10
97.65301849830304
 20
159.804132345923
 30
0.0
 10
97.3598406791005
 20
158.8699940888517
 30
0.0
 10
97.3598406791005
 20
158.8699940888517
 30
0.0
 10
96.07137411762282
 20
154.9119212747295
 30
0.0
 10
96.07137411762282
 20
154.9119212747295
 30
0.0
 10
96.07137411762282
 20
154.9119212747295
 30
0.0
 10
100.3012651448482
 20
154.9119212747295
 30
0.0
 10
100.3012651448482
 20
154.9119212747295
 30
0.0
 10
100.3012651448482
 20
154.9119212747295
 30
0.0
 10
99.64152892419852
 20
152.4199098115079
 30
0.0
 10
99.64152892419852
 20
152.4199098115079
 30
0.0
 10
99.64152892419852
 20
152.4199098115079
 30
0.0
 10
95.38097652692731
 20
152.4199098115079
 30
0.0
 10
95.38097652692731
 20
152.4199098115079
 30
0.0
 10
95.38097652692731
 20
152.4199098115079
 30
0.0
 10
87.75353009080013
 20
127.8027915271048
 30
0.0
 10
87.75353009080013
 20
127.8027915271048
 30
0.0
 10
87.75353009080013
 20
127.8027915271048
 30
0.0
 10
85.36538832498108
 20
127.8027915271048
 30
0.0
 10
85.36538832498108
 20
127.8027915271048
 30
0.0
 10
85.36538832498108
 20
127.8027915271048
 30
0.0
 10
93.00006946639998
 20
152.4199098115079
 30
0.0
 10
93.00006946639998
 20
152.4199098115079
 30
0.0
 10
93.00006946639998
 20
152.4199098115079
 30
0.0
 10
89.85297266450198
 20
152.4199098115079
 30
0.0
 10
89.85297266450198
 20
152.4199098115079
 30
0.0
 10
89.85297266450198
 20
152.4199098115079
 30
0.0
 10
90.51270888515164
 20
154.9119212747295
 30
0.0
 10
90.51270888515164
 20
154.9119212747295
 30
0.0
 10
90.51270888515164
 20
154.9119212747295
 30
0.0
 10
93.6904670570955
 20
154.9119212747295
 30
0.0
 10
93.6904670570955
 20
154.9119212747295
 30
0.0
 10
93.6904670570955
 20
154.9119212747295
 30
0.0
 10
94.81598049462158
 20
158.3616699146644
 30
0.0
 10
94.81598049462158
 20
158.3616699146644
 30
0.0
 10
95.7237637538445
 20
161.2605474231013
 30
0.0
 10
96.4968436907311
 20
162.8139420021662
 30
0.0
 10
97.15657991138076
 20
163.9844139654337
 30
0.0
 10
97.81183750494507
 20
165.1523021053827
 30
0.0
 10
99.1047826935081
 20
166.3084769129547
 30
0.0
 10
100.4504378777679
 20
166.69157178364
 30
0.0
  0
HATCH
  5
6A5
330
6A2
100
AcDbEntity
  8
LOGO
 62
   250
420
  2234388
100
AcDbHatch
 10
0.0
 20
0.0
 30
0.0
210
0.0
220
0.0
230
1.0
  2
SOLID
 70
     1
 71
     0
 91
        1
 92
        1
 93
        1
 72
     4
 94
        3
 73
     0
 74
     1
 95
       56
 96
       52
 40
0.0
 40
0.0
 40
0.0
 40
0.0
 40
1.0
 40
1.0
 40
1.0
 40
2.0
 40
2.0
 40
2.0
 40
3.0
 40
3.0
 40
3.0
 40
4.0
 40
4.0
 40
4.0
 40
5.0
 40
5.0
 40
5.0
 40
6.0
 40
6.0
 40
6.0
 40
7.0
 40
7.0
 40
7.0
 40
8.0
 40
8.0
 40
8.0
 40
9.0
 40
9.0
 40
9.0
 40
10.0
 40
10.0
 40
10.0
 40
11.0
 40
11.0
 40
11.0
 40
12.0
 40
12.0
 40
12.0
 40
13.0
 40
13.0
 40
13.0
 40
14.0
 40
14.0
 40
14.0
 40
15.0
 40
15.0
 40
15.0
 40
16.0
 40
16.0
 40
16.0
 40
17.0
 40
17.0
 40
17.0
 40
17.0
 10
100.4504378777679
 20
166.69157178364
 10
101.9848844191641
 20
167.1313385124438
 10
103.9637485713373
 20
166.7649523658846
 10
103.9637485713373
 20
166.7649523658846
 10
103.9637485713373
 20
166.7649523658846
 10
103.0132460999156
 20
163.911205638077
 10
103.0132460999156
 20
163.911205638077
 10
103.0132460999156
 20
163.911205638077
 10
101.0674548862189
 20
164.3601018759394
 10
99.57090442016032
 20
163.1805004036133
 10
98.40508333886608
 20
162.258247733807
 10
97.65301849830304
 20
159.804132345923
 10
97.3598406791005
 20
158.8699940888517
 10
97.3598406791005
 20
158.8699940888517
 10
96.07137411762282
 20
154.9119212747295
 10
96.07137411762282
 20
154.9119212747295
 10
96.07137411762282
 20
154.9119212747295
 10
100.3012651448482
 20
154.9119212747295
 10
100.3012651448482
 20
154.9119212747295
 10
100.3012651448482
 20
154.9119212747295
 10
99.64152892419852
 20
152.4199098115079
 10
99.64152892419852
 20
152.4199098115079
 10
99.64152892419852
 20
152.4199098115079
 10
95.38097652692731
 20
152.4199098115079
 10
95.38097652692731
 20
152.4199098115079
 10
95.38097652692731
 20
152.4199098115079
 10
87.75353009080013
 20
127.8027915271048
 10
87.75353009080013
 20
127.8027915271048
 10
87.75353009080013
 20
127.8027915271048
 10
85.36538832498108
 20
127.8027915271048
 10
85.36538832498108
 20
127.8027915271048
 10
85.36538832498108
 20
127.8027915271048
 10
93.00006946639998
 20
152.4199098115079
 10
93.00006946639998
 20
152.4199098115079
 10
93.00006946639998
 20
152.4199098115079
 10
89.85297266450198
 20
152.4199098115079
 10
89.85297266450198
 20
152.4199098115079
 10
89.85297266450198
 20
152.4199098115079
 10
90.51270888515164
 20
154.9119212747295
 10
90.51270888515164
 20
154.9119212747295
 10
90.51270888515164
 20
154.9119212747295
 10
93.6904670570955
 20
154.9119212747295
 10
93.6904670570955
 20
154.9119212747295
 10
93.6904670570955
 20
154.9119212747295
 10
94.81598049462158
 20
158.3616699146644
 10
94.81598049462158
 20
158.3616699146644
 10
95.7237637538445
 20
161.2605474231013
 10
96.4968436907311
 20
162.8139420021662
 10
97.15657991138076
 20
163.9844139654337
 10
97.81183750494507
 20
165.1523021053827
 10
99.1047826935081
 20
166.3084769129547
 10
100.4504378777679
 20
166.69157178364
 97
        0
 75
     2
 76
     1
 98
        0
  0
SPLINE
  5
6A6
330
6A2
100
AcDbEntity
  8
LOGO
370
     0
100
AcDbSpline
210
0.0
220
0.0
230
1.0
 70
    11
 71
     3
 72
    38
 73
    34
 74
     0
 42
0.000000001
 43
0.0000000001
 40
0.0
 40
0.0
 40
0.0
 40
0.0
 40
1.0
 40
1.0
 40
1.0
 40
2.0
 40
2.0
 40
2.0
 40
3.0
 40
3.0
 40
3.0
 40
4.0
 40
4.0
 40
4.0
 40
5.0
 40
5.0
 40
5.0
 40
6.0
 40
6.0
 40
6.0
 40
7.0
 40
7.0
 40
7.0
 40
8.0
 40
8.0
 40
8.0
 40
9.0
 40
9.0
 40
9.0
 40
10.0
 40
10.0
 40
10.0
 40
11.0
 40
11.0
 40
11.0
 40
11.0
 10
126.377554584636
 20
154.8151140277308
 30
0.0
 10
126.377554584636
 20
154.8151140277308
 30
0.0
 10
128.8311532078563
 20
154.8151140277308
 30
0.0
 10
128.8311532078563
 20
154.8151140277308
 30
0.0
 10
128.8311532078563
 20
154.8151140277308
 30
0.0
 10
127.7345785914971
 20
151.3062819612468
 30
0.0
 10
127.7345785914971
 20
151.3062819612468
 30
0.0
 10
128.571392836906
 20
152.2922689395754
 30
0.0
 10
129.8860421413442
 20
153.604506675583
 30
0.0
 10
131.0163787157314
 20
154.2664822097754
 30
0.0
 10
132.7044766171327
 20
155.2500576196734
 30
0.0
 10
133.6642808525008
 20
155.3847609420097
 30
0.0
 10
134.7284715499351
 20
155.3565111403944
 30
0.0
 10
134.7284715499351
 20
155.3565111403944
 30
0.0
 10
133.6877075172549
 20
152.0345756272799
 30
0.0
 10
133.6877075172549
 20
152.0345756272799
 30
0.0
 10
133.011434827367
 20
152.3184516825359
 30
0.0
 10
130.930940291334
 20
151.7768823149844
 30
0.0
 10
129.739280976855
 20
150.9162968950455
 30
0.0
 10
128.66613302525
 20
150.1454562717016
 30
0.0
 10
127.9192358313239
 20
149.4857200510519
 30
0.0
 10
127.0393578639405
 20
147.8282835196966
 30
0.0
 10
126.164647543194
 20
146.1699857139017
 30
0.0
 10
125.4742499524985
 20
143.5262176944419
 30
0.0
 10
124.2822461282437
 20
139.6959580071401
 30
0.0
 10
124.2822461282437
 20
139.6959580071401
 30
0.0
 10
120.5753209406769
 20
127.8027915271048
 30
0.0
 10
120.5753209406769
 20
127.8027915271048
 30
0.0
 10
120.5753209406769
 20
127.8027915271048
 30
0.0
 10
118.1964809388044
 20
127.8027915271048
 30
0.0
 10
118.1964809388044
 20
127.8027915271048
 30
0.0
 10
118.1964809388044
 20
127.8027915271048
 30
0.0
 10
126.377554584636
 20
154.8151140277308
 30
0.0
 10
126.377554584636
 20
154.8151140277308
 30
0.0
  0
HATCH
  5
6A7
330
6A2
100
AcDbEntity
  8
LOGO
 62
   250
420
  2234388
100
AcDbHatch
 10
0.0
 20
0.0
 30
0.0
210
0.0
220
0.0
230
1.0
  2
SOLID
 70
     1
 71
     0
 91
        1
 92
        1
 93
        1
 72
     4
 94
        3
 73
     0
 74
     1
 95
       38
 96
       34
 40
0.0
 40
0.0
 40
0.0
 40
0.0
 40
1.0
 40
1.0
 40
1.0
 40
2.0
 40
2.0
 40
2.0
 40
3.0
 40
3.0
 40
3.0
 40
4.0
 40
4.0
 40
4.0
 40
5.0
 40
5.0
 40
5.0
 40
6.0
 40
6.0
 40
6.0
 40
7.0
 40
7.0
 40
7.0
 40
8.0
 40
8.0
 40
8.0
 40
9.0
 40
9.0
 40
9.0
 40
10.0
 40
10.0
 40
10.0
 40
11.0
 40
11.0
 40
11.0
 40
11.0
 10
126.377554584636
 20
154.8151140277308
 10
126.377554584636
 20
154.8151140277308
 10
128.8311532078563
 20
154.8151140277308
 10
128.8311532078563
 20
154.8151140277308
 10
128.8311532078563
 20
154.8151140277308
 10
127.7345785914971
 20
151.3062819612468
 10
127.7345785914971
 20
151.3062819612468
 10
128.571392836906
 20
152.2922689395754
 10
129.8860421413442
 20
153.604506675583
 10
131.0163787157314
 20
154.2664822097754
 10
132.7044766171327
 20
155.2500576196734
 10
133.6642808525008
 20
155.3847609420097
 10
134.7284715499351
 20
155.3565111403944
 10
134.7284715499351
 20
155.3565111403944
 10
133.6877075172549
 20
152.0345756272799
 10
133.6877075172549
 20
152.0345756272799
 10
133.011434827367
 20
152.3184516825359
 10
130.930940291334
 20
151.7768823149844
 10
129.739280976855
 20
150.9162968950455
 10
128.66613302525
 20
150.1454562717016
 10
127.9192358313239
 20
149.4857200510519
 10
127.0393578639405
 20
147.8282835196966
 10
126.164647543194
 20
146.1699857139017
 10
125.4742499524985
 20
143.5262176944419
 10
124.2822461282437
 20
139.6959580071401
 10
124.2822461282437
 20
139.6959580071401
 10
120.5753209406769
 20
127.8027915271048
 10
120.5753209406769
 20
127.8027915271048
 10
120.5753209406769
 20
127.8027915271048
 10
118.1964809388044
 20
127.8027915271048
 10
118.1964809388044
 20
127.8027915271048
 10
118.1964809388044
 20
127.8027915271048
 10
126.377554584636
 20
154.8151140277308
 10
126.377554584636
 20
154.8151140277308
 97
        0
 75
     2
 76
     1
 98
        0
  0
SPLINE
  5
6A8
330
6A2
100
AcDbEntity
  8
LOGO
370
     0
100
AcDbSpline
210
0.0
220
0.0
230
1.0
 70
    11
 71
     3
 72
   104
 73
   100
 74
     0
 42
0.000000001
 43
0.0000000001
 40
0.0
 40
0.0
 40
0.0
 40
0.0
 40
1.0
 40
1.0
 40
1.0
 40
2.0
 40
2.0
 40
2.0
 40
3.0
 40
3.0
 40
3.0
 40
4.0
 40
4.0
 40
4.0
 40
5.0
 40
5.0
 40
5.0
 40
6.0
 40
6.0
 40
6.0
 40
7.0
 40
7.0
 40
7.0
 40
8.0
 40
8.0
 40
8.0
 40
9.0
 40
9.0
 40
9.0
 40
10.0
 40
10.0
 40
10.0
 40
11.0
 40
11.0
 40
11.0
 40
12.0
 40
12.0
 40
12.0
 40
13.0
 40
13.0
 40
13.0
 40
14.0
 40
14.0
 40
14.0
 40
15.0
 40
15.0
 40
15.0
 40
16.0
 40
16.0
 40
16.0
 40
17.0
 40
17.0
 40
17.0
 40
18.0
 40
18.0
 40
18.0
 40
19.0
 40
19.0
 40
19.0
 40
20.0
 40
20.0
 40
20.0
 40
21.0
 40
21.0
 40
21.0
 40
22.0
 40
22.0
 40
22.0
 40
23.0
 40
23.0
 40
23.0
 40
24.0
 40
24.0
 40
24.0
 40
25.0
 40
25.0
 40
25.0
 40
26.0
 40
26.0
 40
26.0
 40
27.0
 40
27.0
 40
27.0
 40
28.0
 40
28.0
 40
28.0
 40
29.0
 40
29.0
 40
29.0
 40
30.0
 40
30.0
 40
30.0
 40
31.0
 40
31.0
 40
31.0
 40
32.0
 40
32.0
 40
32.0
 40
33.0
 40
33.0
 40
33.0
 40
33.0
 10
139.8926730891197
 20
154.8294111834263
 30
0.0
 10
139.8926730891197
 20
154.8294111834263
 30
0.0
 10
142.0344903652445
 20
154.8294111834263
 30
0.0
 10
142.0344903652445
 20
154.8294111834263
 30
0.0
 10
142.0344903652445
 20
154.8294111834263
 30
0.0
 10
140.9516961399171
 20
151.3157559800812
 30
0.0
 10
140.9516961399171
 20
151.3157559800812
 30
0.0
 10
141.8928968473923
 20
152.7887075264977
 30
0.0
 10
142.7341897198865
 20
153.4484437471474
 30
0.0
 10
143.8552245303272
 20
154.2926649527359
 30
0.0
 10
144.9803934580775
 20
155.1296514530327
 30
0.0
 10
146.3139908001845
 20
155.3044901642492
 30
0.0
 10
147.241066606852
 20
155.3044901642492
 30
0.0
 10
148.3855280820469
 20
155.3044901642492
 30
0.0
 10
149.4969166187653
 20
155.0752189084569
 30
0.0
 10
150.0784491203092
 20
153.8172414621372
 30
0.0
 10
150.5228667310863
 20
152.833838307127
 30
0.0
 10
150.5414702589793
 20
152.7201500811143
 30
0.0
 10
150.4140016419347
 20
150.7765981809602
 30
0.0
 10
151.5818897818837
 20
152.7699317437168
 30
0.0
 10
152.4424752018226
 20
153.6256940267945
 30
0.0
 10
153.9038856707499
 20
154.4507949398263
 30
0.0
 10
155.4455669174378
 20
155.3044901642492
 30
0.0
 10
156.339225275853
 20
155.3659851592288
 30
0.0
 10
157.3748216618963
 20
155.2147453676543
 30
0.0
 10
158.911679771723
 20
154.9877134254046
 30
0.0
 10
159.8859534176746
 20
154.4390816074493
 30
0.0
 10
160.3965169054045
 20
152.7816450760939
 30
0.0
 10
160.9070803931344
 20
151.1219692311958
 30
0.0
 10
160.6328506116007
 20
150.2303779314354
 30
0.0
 10
159.9992971339115
 20
147.597634224801
 30
0.0
 10
159.7105979417943
 20
146.4014962832367
 30
0.0
 10
159.2947746424084
 20
144.9400858143094
 30
0.0
 10
158.7463150793409
 20
143.2092687007094
 30
0.0
 10
158.7463150793409
 20
143.2092687007094
 30
0.0
 10
153.9038856707499
 20
127.8027915271048
 30
0.0
 10
153.9038856707499
 20
127.8027915271048
 30
0.0
 10
153.9038856707499
 20
127.8027915271048
 30
0.0
 10
151.3882752878863
 20
127.8027915271048
 30
0.0
 10
151.3882752878863
 20
127.8027915271048
 30
0.0
 10
151.3882752878863
 20
127.8027915271048
 30
0.0
 10
155.6250565106276
 20
141.2751908193897
 30
0.0
 10
155.6250565106276
 20
141.2751908193897
 30
0.0
 10
156.5094131050963
 20
144.0936252951782
 30
0.0
 10
157.109893644309
 20
146.1506931664571
 30
0.0
 10
157.4220195011804
 20
147.4415712963654
 30
0.0
 10
157.8095929989511
 20
149.0530157726519
 30
0.0
 10
157.9656559273867
 20
149.5826995529385
 30
0.0
 10
157.7816877071116
 20
150.7529992613181
 30
0.0
 10
157.6111553680925
 20
151.8430281919372
 30
0.0
 10
157.0582171779396
 20
152.5547853887321
 30
0.0
 10
156.1170164704645
 20
152.5547853887321
 30
0.0
 10
155.1096698860365
 20
152.5547853887321
 30
0.0
 10
154.2962823053817
 20
152.4412694176073
 30
0.0
 10
153.156643967048
 20
151.2945686288697
 30
0.0
 10
152.0170056287143
 20
150.1476955852443
 30
0.0
 10
151.076149431015
 20
148.7930831468137
 30
0.0
 10
150.3337308641742
 20
147.2290087646991
 30
0.0
 10
149.5957909244188
 20
145.6683794803425
 30
0.0
 10
148.8530278478023
 20
143.6822806228776
 30
0.0
 10
148.0964843801539
 20
141.2751908193897
 30
0.0
 10
148.0964843801539
 20
141.2751908193897
 30
0.0
 10
143.8552245303272
 20
127.8027915271048
 30
0.0
 10
143.8552245303272
 20
127.8027915271048
 30
0.0
 10
143.8552245303272
 20
127.8027915271048
 30
0.0
 10
141.486030802177
 20
127.8027915271048
 30
0.0
 10
141.486030802177
 20
127.8027915271048
 30
0.0
 10
141.486030802177
 20
127.8027915271048
 30
0.0
 10
146.3329388378533
 20
143.2092687007094
 30
0.0
 10
146.3329388378533
 20
143.2092687007094
 30
0.0
 10
146.8483254624444
 20
144.8408669988801
 30
0.0
 10
147.2314203331297
 20
146.1837661049335
 30
0.0
 10
147.4867020769946
 20
147.224185627838
 30
0.0
 10
147.9169947869641
 20
149.0197705792876
 30
0.0
 10
148.0306830129768
 20
150.2400242051577
 30
0.0
 10
147.709255392159
 20
151.3157559800812
 30
0.0
 10
147.3874832615654
 20
152.3916600098926
 30
0.0
 10
146.8245542879144
 20
152.6683013598569
 30
0.0
 10
145.8840425999909
 20
152.6683013598569
 30
0.0
 10
145.0989048209514
 20
152.6683013598569
 30
0.0
 10
144.3282364524954
 20
152.3275811915945
 30
0.0
 10
143.4531816219731
 20
151.6538923250251
 30
0.0
 10
142.34627171234
 20
150.8074318058939
 30
0.0
 10
141.901854101563
 20
150.1097995099067
 30
0.0
 10
141.3578731655808
 20
149.289521733736
 30
0.0
 10
140.6299240093235
 20
148.192602607601
 30
0.0
 10
140.2850697237515
 20
147.455696197173
 30
0.0
 10
139.6652966370942
 20
145.8385673095858
 30
0.0
 10
139.0506911970739
 20
144.2214384219986
 30
0.0
 10
138.463991048893
 20
142.3252566160164
 30
0.0
 10
138.0571250036777
 20
141.0154304484394
 30
0.0
 10
138.0571250036777
 20
141.0154304484394
 30
0.0
 10
133.9009590684727
 20
127.8027915271048
 30
0.0
 10
133.9009590684727
 20
127.8027915271048
 30
0.0
 10
133.9009590684727
 20
127.8027915271048
 30
0.0
 10
131.4180771143097
 20
127.8027915271048
 30
0.0
 10
131.4180771143097
 20
127.8027915271048
 30
0.0
 10
131.4180771143097
 20
127.8027915271048
 30
0.0
 10
139.8926730891197
 20
154.8294111834263
 30
0.0
 10
139.8926730891197
 20
154.8294111834263
 30
0.0
  0
HATCH
  5
6A9
330
6A2
100
AcDbEntity
  8
LOGO
 62
   250
420
  2234388
100
AcDbHatch
 10
0.0
 20
0.0
 30
0.0
210
0.0
220
0.0
230
1.0
  2
SOLID
 70
     1
 71
     0
 91
        1
 92
        1
 93
        1
 72
     4
 94
        3
 73
     0
 74
     1
 95
      104
 96
      100
 40
0.0
 40
0.0
 40
0.0
 40
0.0
 40
1.0
 40
1.0
 40
1.0
 40
2.0
 40
2.0
 40
2.0
 40
3.0
 40
3.0
 40
3.0
 40
4.0
 40
4.0
 40
4.0
 40
5.0
 40
5.0
 40
5.0
 40
6.0
 40
6.0
 40
6.0
 40
7.0
 40
7.0
 40
7.0
 40
8.0
 40
8.0
 40
8.0
 40
9.0
 40
9.0
 40
9.0
 40
10.0
 40
10.0
 40
10.0
 40
11.0
 40
11.0
 40
11.0
 40
12.0
 40
12.0
 40
12.0
 40
13.0
 40
13.0
 40
13.0
 40
14.0
 40
14.0
 40
14.0
 40
15.0
 40
15.0
 40
15.0
 40
16.0
 40
16.0
 40
16.0
 40
17.0
 40
17.0
 40
17.0
 40
18.0
 40
18.0
 40
18.0
 40
19.0
 40
19.0
 40
19.0
 40
20.0
 40
20.0
 40
20.0
 40
21.0
 40
21.0
 40
21.0
 40
22.0
 40
22.0
 40
22.0
 40
23.0
 40
23.0
 40
23.0
 40
24.0
 40
24.0
 40
24.0
 40
25.0
 40
25.0
 40
25.0
 40
26.0
 40
26.0
 40
26.0
 40
27.0
 40
27.0
 40
27.0
 40
28.0
 40
28.0
 40
28.0
 40
29.0
 40
29.0
 40
29.0
 40
30.0
 40
30.0
 40
30.0
 40
31.0
 40
31.0
 40
31.0
 40
32.0
 40
32.0
 40
32.0
 40
33.0
 40
33.0
 40
33.0
 40
33.0
 10
139.8926730891197
 20
154.8294111834263
 10
139.8926730891197
 20
154.8294111834263
 10
142.0344903652445
 20
154.8294111834263
 10
142.0344903652445
 20
154.8294111834263
 10
142.0344903652445
 20
154.8294111834263
 10
140.9516961399171
 20
151.3157559800812
 10
140.9516961399171
 20
151.3157559800812
 10
141.8928968473923
 20
152.7887075264977
 10
142.7341897198865
 20
153.4484437471474
 10
143.8552245303272
 20
154.2926649527359
 10
144.9803934580775
 20
155.1296514530327
 10
146.3139908001845
 20
155.3044901642492
 10
147.241066606852
 20
155.3044901642492
 10
148.3855280820469
 20
155.3044901642492
 10
149.4969166187653
 20
155.0752189084569
 10
150.0784491203092
 20
153.8172414621372
 10
150.5228667310863
 20
152.833838307127
 10
150.5414702589793
 20
152.7201500811143
 10
150.4140016419347
 20
150.7765981809602
 10
151.5818897818837
 20
152.7699317437168
 10
152.4424752018226
 20
153.6256940267945
 10
153.9038856707499
 20
154.4507949398263
 10
155.4455669174378
 20
155.3044901642492
 10
156.339225275853
 20
155.3659851592288
 10
157.3748216618963
 20
155.2147453676543
 10
158.911679771723
 20
154.9877134254046
 10
159.8859534176746
 20
154.4390816074493
 10
160.3965169054045
 20
152.7816450760939
 10
160.9070803931344
 20
151.1219692311958
 10
160.6328506116007
 20
150.2303779314354
 10
159.9992971339115
 20
147.597634224801
 10
159.7105979417943
 20
146.4014962832367
 10
159.2947746424084
 20
144.9400858143094
 10
158.7463150793409
 20
143.2092687007094
 10
158.7463150793409
 20
143.2092687007094
 10
153.9038856707499
 20
127.8027915271048
 10
153.9038856707499
 20
127.8027915271048
 10
153.9038856707499
 20
127.8027915271048
 10
151.3882752878863
 20
127.8027915271048
 10
151.3882752878863
 20
127.8027915271048
 10
151.3882752878863
 20
127.8027915271048
 10
155.6250565106276
 20
141.2751908193897
 10
155.6250565106276
 20
141.2751908193897
 10
156.5094131050963
 20
144.0936252951782
 10
157.109893644309
 20
146.1506931664571
 10
157.4220195011804
 20
147.4415712963654
 10
157.8095929989511
 20
149.0530157726519
 10
157.9656559273867
 20
149.5826995529385
 10
157.7816877071116
 20
150.7529992613181
 10
157.6111553680925
 20
151.8430281919372
 10
157.0582171779396
 20
152.5547853887321
 10
156.1170164704645
 20
152.5547853887321
 10
155.1096698860365
 20
152.5547853887321
 10
154.2962823053817
 20
152.4412694176073
 10
153.156643967048
 20
151.2945686288697
 10
152.0170056287143
 20
150.1476955852443
 10
151.076149431015
 20
148.7930831468137
 10
150.3337308641742
 20
147.2290087646991
 10
149.5957909244188
 20
145.6683794803425
 10
148.8530278478023
 20
143.6822806228776
 10
148.0964843801539
 20
141.2751908193897
 10
148.0964843801539
 20
141.2751908193897
 10
143.8552245303272
 20
127.8027915271048
 10
143.8552245303272
 20
127.8027915271048
 10
143.8552245303272
 20
127.8027915271048
 10
141.486030802177
 20
127.8027915271048
 10
141.486030802177
 20
127.8027915271048
 10
141.486030802177
 20
127.8027915271048
 10
146.3329388378533
 20
143.2092687007094
 10
146.3329388378533
 20
143.2092687007094
 10
146.8483254624444
 20
144.8408669988801
 10
147.2314203331297
 20
146.1837661049335
 10
147.4867020769946
 20
147.224185627838
 10
147.9169947869641
 20
149.0197705792876
 10
148.0306830129768
 20
150.2400242051577
 10
147.709255392159
 20
151.3157559800812
 10
147.3874832615654
 20
152.3916600098926
 10
146.8245542879144
 20
152.6683013598569
 10
145.8840425999909
 20
152.6683013598569
 10
145.0989048209514
 20
152.6683013598569
 10
144.3282364524954
 20
152.3275811915945
 10
143.4531816219731
 20
151.6538923250251
 10
142.34627171234
 20
150.8074318058939
 10
141.901854101563
 20
150.1097995099067
 10
141.3578731655808
 20
149.289521733736
 10
140.6299240093235
 20
148.192602607601
 10
140.2850697237515
 20
147.455696197173
 10
139.6652966370942
 20
145.8385673095858
 10
139.0506911970739
 20
144.2214384219986
 10
138.463991048893
 20
142.3252566160164
 10
138.0571250036777
 20
141.0154304484394
 10
138.0571250036777
 20
141.0154304484394
 10
133.9009590684727
 20
127.8027915271048
 10
133.9009590684727
 20
127.8027915271048
 10
133.9009590684727
 20
127.8027915271048
 10
131.4180771143097
 20
127.8027915271048
 10
131.4180771143097
 20
127.8027915271048
 10
131.4180771143097
 20
127.8027915271048
 10
139.8926730891197
 20
154.8294111834263
 10
139.8926730891197
 20
154.8294111834263
 97
        0
 75
     2
 76
     1
 98
        0
  0
SPLINE
  5
6AA
330
6A2
100
AcDbEntity
  8
LOGO
370
     0
100
AcDbSpline
210
0.0
220
0.0
230
1.0
 70
    11
 71
     3
 72
    29
 73
    25
 74
     0
 42
0.000000001
 43
0.0000000001
 40
0.0
 40
0.0
 40
0.0
 40
0.0
 40
1.0
 40
1.0
 40
1.0
 40
2.0
 40
2.0
 40
2.0
 40
3.0
 40
3.0
 40
3.0
 40
4.0
 40
4.0
 40
4.0
 40
5.0
 40
5.0
 40
5.0
 40
6.0
 40
6.0
 40
6.0
 40
7.0
 40
7.0
 40
7.0
 40
8.0
 40
8.0
 40
8.0
 40
8.0
 10
101.6420971922469
 20
132.8388354296931
 30
0.0
 10
101.630039350094
 20
134.7164137077823
 30
0.0
 10
102.2236296937908
 20
138.0598810818841
 30
0.0
 10
103.7487744712405
 20
142.5378191476827
 30
0.0
 10
105.819967243327
 20
148.5896501242061
 30
0.0
 10
107.0602024361932
 20
150.8074318058939
 30
0.0
 10
108.1522984254671
 20
151.8833358357054
 30
0.0
 10
109.741177511439
 20
153.4532668840085
 30
0.0
 10
111.8740375333931
 20
153.5290590346837
 30
0.0
 10
112.5075910110823
 20
153.4532668840085
 30
0.0
 10
113.4012493694975
 20
153.3490526768302
 30
0.0
 10
114.6683563248758
 20
152.7580461564518
 30
0.0
 10
114.7493161221879
 20
150.7838328862519
 30
0.0
 10
114.8106388622796
 20
149.0909118479895
 30
0.0
 10
114.3186789024427
 20
145.9191825971221
 30
0.0
 10
112.6164561002338
 20
140.9489400617108
 30
0.0
 10
110.6444821435766
 20
135.1746117095912
 30
0.0
 10
109.4669477299053
 20
132.8960240524753
 30
0.0
 10
108.5212683953448
 20
131.9072809959403
 30
0.0
 10
106.7346406980658
 20
130.0538184021569
 30
0.0
 10
104.8222669326213
 20
130.2336525051225
 30
0.0
 10
104.5408024457958
 20
130.2336525051225
 30
0.0
 10
104.1721769856939
 20
130.2336525051225
 30
0.0
 10
101.6465758193322
 20
130.6305277668397
 30
0.0
 10
101.6420971922469
 20
132.8388354296931
 30
0.0
  0
SPLINE
  5
6AB
330
6A2
100
AcDbEntity
  8
LOGO
370
     0
100
AcDbSpline
210
0.0
220
0.0
230
1.0
 70
    11
 71
     3
 72
    32
 73
    28
 74
     0
 42
0.000000001
 43
0.0000000001
 40
0.0
 40
0.0
 40
0.0
 40
0.0
 40
1.0
 40
1.0
 40
1.0
 40
2.0
 40
2.0
 40
2.0
 40
3.0
 40
3.0
 40
3.0
 40
4.0
 40
4.0
 40
4.0
 40
5.0
 40
5.0
 40
5.0
 40
6.0
 40
6.0
 40
6.0
 40
7.0
 40
7.0
 40
7.0
 40
8.0
 40
8.0
 40
8.0
 40
9.0
 40
9.0
 40
9.0
 40
9.0
 10
106.2595617172429
 20
153.4105476718098
 30
0.0
 10
104.8222669326213
 20
151.5474388043041
 30
0.0
 10
103.7177685914188
 20
149.8758773721411
 30
0.0
 10
101.9232171692965
 20
144.6141795664062
 30
0.0
 10
100.2754269116635
 20
139.7999999594306
 30
0.0
 10
99.22777268346732
 20
136.3052927937542
 30
0.0
 10
99.06964269637689
 20
132.039572749846
 30
0.0
 10
98.94665270641765
 20
128.8673267343149
 30
0.0
 10
100.8807305877373
 20
127.8027915271048
 30
0.0
 10
103.7129454545577
 20
127.8027915271048
 30
0.0
 10
104.9352661390825
 20
127.8027915271048
 30
0.0
 10
108.0151835347002
 20
127.8827177950895
 30
0.0
 10
110.2045431598849
 20
130.5926316915021
 30
0.0
 10
111.7417457794874
 20
132.4984597712065
 30
0.0
 10
113.155269389579
 20
134.475256864725
 30
0.0
 10
115.0562743324223
 20
140.9489400617108
 30
0.0
 10
116.6361961642235
 20
146.3680788349845
 30
0.0
 10
117.7282921534974
 20
149.8639917848761
 30
0.0
 10
117.6480213757369
 20
151.8595646611754
 30
0.0
 10
117.6480213757369
 20
151.8595646611754
 30
0.0
 10
117.6480213757369
 20
151.8595646611754
 30
0.0
 10
117.6480213757369
 20
151.8595646611754
 30
0.0
 10
117.13229024137
 20
155.18150017429
 30
0.0
 10
114.7162431837115
 20
155.886194920681
 30
0.0
 10
113.3351034925446
 20
155.886194920681
 30
0.0
 10
111.9829026225447
 20
155.886194920681
 30
0.0
 10
108.3414342923792
 20
156.1251124501957
 30
0.0
 10
106.2595617172429
 20
153.4105476718098
 30
0.0
  0
HATCH
  5
6AC
330
6A2
100
AcDbEntity
  8
LOGO
 62
   250
420
  2234388
100
AcDbHatch
 10
0.0
 20
0.0
 30
0.0
210
0.0
220
0.0
230
1.0
  2
SOLID
 70
     1
 71
     0
 91
        2
 92
        1
 93
        1
 72
     4
 94
        3
 73
     0
 74
     1
 95
       29
 96
       25
 40
0.0
 40
0.0
 40
0.0
 40
0.0
 40
1.0
 40
1.0
 40
1.0
 40
2.0
 40
2.0
 40
2.0
 40
3.0
 40
3.0
 40
3.0
 40
4.0
 40
4.0
 40
4.0
 40
5.0
 40
5.0
 40
5.0
 40
6.0
 40
6.0
 40
6.0
 40
7.0
 40
7.0
 40
7.0
 40
8.0
 40
8.0
 40
8.0
 40
8.0
 10
101.6420971922469
 20
132.8388354296931
 10
101.630039350094
 20
134.7164137077823
 10
102.2236296937908
 20
138.0598810818841
 10
103.7487744712405
 20
142.5378191476827
 10
105.819967243327
 20
148.5896501242061
 10
107.0602024361932
 20
150.8074318058939
 10
108.1522984254671
 20
151.8833358357054
 10
109.741177511439
 20
153.4532668840085
 10
111.8740375333931
 20
153.5290590346837
 10
112.5075910110823
 20
153.4532668840085
 10
113.4012493694975
 20
153.3490526768302
 10
114.6683563248758
 20
152.7580461564518
 10
114.7493161221879
 20
150.7838328862519
 10
114.8106388622796
 20
149.0909118479895
 10
114.3186789024427
 20
145.9191825971221
 10
112.6164561002338
 20
140.9489400617108
 10
110.6444821435766
 20
135.1746117095912
 10
109.4669477299053
 20
132.8960240524753
 10
108.5212683953448
 20
131.9072809959403
 10
106.7346406980658
 20
130.0538184021569
 10
104.8222669326213
 20
130.2336525051225
 10
104.5408024457958
 20
130.2336525051225
 10
104.1721769856939
 20
130.2336525051225
 10
101.6465758193322
 20
130.6305277668397
 10
101.6420971922469
 20
132.8388354296931
 97
        0
 92
        1
 93
        1
 72
     4
 94
        3
 73
     0
 74
     1
 95
       32
 96
       28
 40
0.0
 40
0.0
 40
0.0
 40
0.0
 40
1.0
 40
1.0
 40
1.0
 40
2.0
 40
2.0
 40
2.0
 40
3.0
 40
3.0
 40
3.0
 40
4.0
 40
4.0
 40
4.0
 40
5.0
 40
5.0
 40
5.0
 40
6.0
 40
6.0
 40
6.0
 40
7.0
 40
7.0
 40
7.0
 40
8.0
 40
8.0
 40
8.0
 40
9.0
 40
9.0
 40
9.0
 40
9.0
 10
106.2595617172429
 20
153.4105476718098
 10
104.8222669326213
 20
151.5474388043041
 10
103.7177685914188
 20
149.8758773721411
 10
101.9232171692965
 20
144.6141795664062
 10
100.2754269116635
 20
139.7999999594306
 10
99.22777268346732
 20
136.3052927937542
 10
99.06964269637689
 20
132.039572749846
 10
98.94665270641765
 20
128.8673267343149
 10
100.8807305877373
 20
127.8027915271048
 10
103.7129454545577
 20
127.8027915271048
 10
104.9352661390825
 20
127.8027915271048
 10
108.0151835347002
 20
127.8827177950895
 10
110.2045431598849
 20
130.5926316915021
 10
111.7417457794874
 20
132.4984597712065
 10
113.155269389579
 20
134.475256864725
 10
115.0562743324223
 20
140.9489400617108
 10
116.6361961642235
 20
146.3680788349845
 10
117.7282921534974
 20
149.8639917848761
 10
117.6480213757369
 20
151.8595646611754
 10
117.6480213757369
 20
151.8595646611754
 10
117.6480213757369
 20
151.8595646611754
 10
117.6480213757369
 20
151.8595646611754
 10
117.13229024137
 20
155.18150017429
 10
114.7162431837115
 20
155.886194920681
 10
113.3351034925446
 20
155.886194920681
 10
111.9829026225447
 20
155.886194920681
 10
108.3414342923792
 20
156.1251124501957
 10
106.2595617172429
 20
153.4105476718098
 97
        0
 75
     2
 76
     1
 98
        0
  0
ENDBLK
  5
6AD
330
6A2
100
AcDbEntity
  8
0
100
AcDbBlockEnd
  0
BLOCK
  5
D91
330
D90
100
AcDbEntity
  8
0
100
AcDbBlockBegin
  2
*D6
 70
     1
 10
0.0
 20
0.0
 30
0.0
  3
*D6
  1
*D6
  0
LINE
  5
D93
330
D90
100
AcDbEntity
  8
DIM
 62
     0
370
    -2
100
AcDbLine
 10
194.9013848396499
 20
991.8781341107873
 30
0.0
 11
194.9013848396499
 21
940.5413793571681
 31
0.0
  0
LINE
  5
D94
330
D90
100
AcDbEntity
  8
DIM
 62
     0
370
    -2
100
AcDbLine
 10
521.6879737609329
 20
991.8781341107873
 30
0.0
 11
521.6879737609329
 21
940.5413793571681
 31
0.0
  0
LINE
  5
D95
330
D90
100
AcDbEntity
  8
DIM
 62
     0
370
    -2
100
AcDbLine
 10
200.9013848396499
 20
940.5413793571681
 30
0.0
 11
515.6879737609329
 21
940.5413793571681
 31
0.0
  0
INSERT
  5
D96
330
D90
100
AcDbEntity
  8
DIM
 62
     0
370
    -2
100
AcDbBlockReference
  2
_DOT
 10
194.9013848396499
 20
940.5413793571681
 30
0.0
 41
6.0
 42
6.0
 43
6.0
 50
180.0
  0
INSERT
  5
D97
330
D90
100
AcDbEntity
  8
DIM
 62
     0
370
    -2
100
AcDbBlockReference
  2
_DOT
 10
521.6879737609329
 20
940.5413793571681
 30
0.0
 41
6.0
 42
6.0
 43
6.0
  0
MTEXT
  5
D98
330
D90
100
AcDbEntity
  8
DIM
 62
     0
100
AcDbMText
 10
358.2946793002914
 20
956.5413793571681
 30
0.0
 40
12.0
 41
0.0
 46
0.0
 71
     5
 72
     1
  1
\A1;327
  7
ＭＳ ゴシック
 73
     1
 44
1.0
  0
POINT
  5
D99
330
D90
100
AcDbEntity
  8
Defpoints
 62
     0
100
AcDbPoint
 10
194.9013848396499
 20
1011.878134110787
 30
0.0
  0
POINT
  5
D9A
330
D90
100
AcDbEntity
  8
Defpoints
 62
     0
100
AcDbPoint
 10
521.6879737609329
 20
1011.878134110787
 30
0.0
  0
POINT
  5
D9B
330
D90
100
AcDbEntity
  8
Defpoints
 62
     0
100
AcDbPoint
 10
521.6879737609329
 20
940.5413793571681
 30
0.0
  0
ENDBLK
  5
D92
330
D90
100
AcDbEntity
  8
0
100
AcDbBlockEnd
  0
BLOCK
  5
DA0
330
D9F
100
AcDbEntity
  8
0
100
AcDbBlockBegin
  2
*D7
 70
     1
 10
0.0
 20
0.0
 30
0.0
  3
*D7
  1
*D7
  0
LINE
  5
DA2
330
D9F
100
AcDbEntity
  8
DIM
 62
     0
370
    -2
100
AcDbLine
 10
541.6879737609329
 20
1259.176093294461
 30
0.0
 11
592.27223683134
 21
1259.176093294461
 31
0.0
  0
LINE
  5
DA3
330
D9F
100
AcDbEntity
  8
DIM
 62
     0
370
    -2
100
AcDbLine
 10
541.6879737609329
 20
1011.878134110787
 30
0.0
 11
592.27223683134
 21
1011.878134110787
 31
0.0
  0
LINE
  5
DA4
330
D9F
100
AcDbEntity
  8
DIM
 62
     0
370
    -2
100
AcDbLine
 10
592.27223683134
 20
1253.176093294461
 30
0.0
 11
592.27223683134
 21
1017.878134110787
 31
0.0
  0
INSERT
  5
DA5
330
D9F
100
AcDbEntity
  8
DIM
 62
     0
370
    -2
100
AcDbBlockReference
  2
_DOT
 10
592.27223683134
 20
1259.176093294461
 30
0.0
 41
6.0
 42
6.0
 43
6.0
 50
90.0
  0
INSERT
  5
DA6
330
D9F
100
AcDbEntity
  8
DIM
 62
     0
370
    -2
100
AcDbBlockReference
  2
_DOT
 10
592.27223683134
 20
1011.878134110787
 30
0.0
 41
6.0
 42
6.0
 43
6.0
 50
270.0
  0
MTEXT
  5
DA7
330
D9F
100
AcDbEntity
  8
DIM
 62
     0
100
AcDbMText
 10
576.27223683134
 20
1135.527113702624
 30
0.0
 40
12.0
 41
0.0
 46
0.0
 71
     5
 72
     1
  1
\A1;247
  7
ＭＳ ゴシック
 11
0.0
 21
1.0
 31
0.0
 73
     1
 44
1.0
  0
POINT
  5
DA8
330
D9F
100
AcDbEntity
  8
Defpoints
 62
     0
100
AcDbPoint
 10
521.6879737609329
 20
1259.176093294461
 30
0.0
  0
POINT
  5
DA9
330
D9F
100
AcDbEntity
  8
Defpoints
 62
     0
100
AcDbPoint
 10
521.6879737609329
 20
1011.878134110787
 30
0.0
  0
POINT
  5
DAA
330
D9F
100
AcDbEntity
  8
Defpoints
 62
     0
100
AcDbPoint
 10
592.27223683134
 20
1011.878134110787
 30
0.0
  0
ENDBLK
  5
DA1
330
D9F
100
AcDbEntity
  8
0
100
AcDbBlockEnd
  0
BLOCK
  5
EB1
330
EB0
100
AcDbEntity
  8
0
100
AcDbBlockBegin
  2
*D8
 70
     1
 10
0.0
 20
0.0
 30
0.0
  3
*D8
  1
*D73
  0
LINE
  5
EB2
330
EB0
100
AcDbEntity
  8
DIM
  6
Continuous
 62
     0
370
    -2
100
AcDbLine
 10
398.0721020212702
 20
2119.525238800501
 30
0.0
 11
398.0721020212702
 21
2246.882556157094
 31
0.0
  0
LINE
  5
EB3
330
EB0
100
AcDbEntity
  8
DIM
  6
Continuous
 62
     0
370
    -2
100
AcDbLine
 10
758.0721020212702
 20
2119.525238800501
 30
0.0
 11
758.0721020212702
 21
2246.882556157094
 31
0.0
  0
LINE
  5
EB4
330
EB0
100
AcDbEntity
  8
DIM
  6
Continuous
 62
     0
370
    -2
100
AcDbLine
 10
401.0721020212702
 20
2246.882556157094
 30
0.0
 11
755.0721020212702
 21
2246.882556157094
 31
0.0
  0
INSERT
  5
EB5
330
EB0
100
AcDbEntity
  8
DIM
 62
     0
370
    -2
100
AcDbBlockReference
  2
_DOT
 10
398.0721020212702
 20
2246.882556157094
 30
0.0
 41
3.0
 42
3.0
 43
3.0
 50
180.0
  0
INSERT
  5
EB6
330
EB0
100
AcDbEntity
  8
DIM
 62
     0
370
    -2
100
AcDbBlockReference
  2
_DOT
 10
758.0721020212702
 20
2246.882556157094
 30
0.0
 41
3.0
 42
3.0
 43
3.0
  0
MTEXT
  5
EB7
330
EB0
100
AcDbEntity
  8
DIM
  6
HIDDEN
 62
     0
 48
0.05
100
AcDbMText
 10
578.0721020212702
 20
2262.882556157094
 30
0.0
 40
12.0
 41
0.0
 46
0.0
 71
     5
 72
     1
  1
\A1;360
  7
ＭＳ ゴシック
 73
     1
 44
1.0
  0
POINT
  5
EB8
330
EB0
100
AcDbEntity
  8
Defpoints
 62
     0
100
AcDbPoint
 10
398.0721020212702
 20
2114.525238800501
 30
0.0
  0
POINT
  5
EB9
330
EB0
100
AcDbEntity
  8
Defpoints
 62
     0
100
AcDbPoint
 10
758.0721020212702
 20
2114.525238800501
 30
0.0
  0
POINT
  5
EBA
330
EB0
100
AcDbEntity
  8
Defpoints
 62
     0
100
AcDbPoint
 10
758.0721020212702
 20
2246.882556157094
 30
0.0
  0
ENDBLK
  5
EBB
330
EB0
100
AcDbEntity
  8
0
100
AcDbBlockEnd
  0
BLOCK
  5
EBE
330
EBD
100
AcDbEntity
  8
0
100
AcDbBlockBegin
  2
*D9
 70
     1
 10
0.0
 20
0.0
 30
0.0
  3
*D9
  1
*D74
  0
LINE
  5
EBF
330
EBD
100
AcDbEntity
  8
DIM
  6
Continuous
 62
     0
370
    -2
100
AcDbLine
 10
657.8901145741739
 20
2188.79153588869
 30
0.0
 11
858.3130122149524
 21
2188.79153588869
 31
0.0
  0
LINE
  5
EC0
330
EBD
100
AcDbEntity
  8
DIM
  6
Continuous
 62
     0
370
    -2
100
AcDbLine
 10
657.8901145741739
 20
1970.79153588869
 30
0.0
 11
858.3130122149524
 21
1970.79153588869
 31
0.0
  0
LINE
  5
EC1
330
EBD
100
AcDbEntity
  8
DIM
  6
Continuous
 62
     0
370
    -2
100
AcDbLine
 10
858.3130122149524
 20
2185.79153588869
 30
0.0
 11
858.3130122149524
 21
1973.79153588869
 31
0.0
  0
INSERT
  5
EC2
330
EBD
100
AcDbEntity
  8
DIM
 62
     0
370
    -2
100
AcDbBlockReference
  2
_DOT
 10
858.3130122149524
 20
2188.79153588869
 30
0.0
 41
3.0
 42
3.0
 43
3.0
 50
90.0
  0
INSERT
  5
EC3
330
EBD
100
AcDbEntity
  8
DIM
 62
     0
370
    -2
100
AcDbBlockReference
  2
_DOT
 10
858.3130122149524
 20
1970.79153588869
 30
0.0
 41
3.0
 42
3.0
 43
3.0
 50
270.0
  0
MTEXT
  5
EC4
330
EBD
100
AcDbEntity
  8
DIM
  6
HIDDEN
 62
     0
 48
0.05
100
AcDbMText
 10
842.3130122149524
 20
2079.79153588869
 30
0.0
 40
12.0
 41
0.0
 46
0.0
 71
     5
 72
     1
  1
\A1;218
  7
ＭＳ ゴシック
 11
0.0
 21
1.0
 31
0.0
 73
     1
 44
1.0
  0
POINT
  5
EC5
330
EBD
100
AcDbEntity
  8
Defpoints
 62
     0
100
AcDbPoint
 10
652.8901145741739
 20
2188.79153588869
 30
0.0
  0
POINT
  5
EC6
330
EBD
100
AcDbEntity
  8
Defpoints
 62
     0
100
AcDbPoint
 10
652.8901145741739
 20
1970.79153588869
 30
0.0
  0
POINT
  5
EC7
330
EBD
100
AcDbEntity
  8
Defpoints
 62
     0
100
AcDbPoint
 10
858.3130122149524
 20
1970.79153588869
 30
0.0
  0
ENDBLK
  5
EC8
330
EBD
100
AcDbEntity
  8
0
100
AcDbBlockEnd
  0
BLOCK
  5
ECB
330
ECA
100
AcDbEntity
  8
0
100
AcDbBlockBegin
  2
*D10
 70
     1
 10
0.0
 20
0.0
 30
0.0
  3
*D10
  1
*D75
  0
LINE
  5
ECC
330
ECA
100
AcDbEntity
  8
DIM
  6
Continuous
 62
     0
370
    -2
100
AcDbLine
 10
398.0721020212702
 20
1049.759174269942
 30
0.0
 11
398.0721020212702
 21
905.4386710691169
 31
0.0
  0
LINE
  5
ECD
330
ECA
100
AcDbEntity
  8
DIM
  6
Continuous
 62
     0
370
    -2
100
AcDbLine
 10
513.0721020212702
 20
1000.458633181571
 30
0.0
 11
513.0721020212702
 21
905.4386710691169
 31
0.0
  0
LINE
  5
ECE
330
ECA
100
AcDbEntity
  8
DIM
  6
Continuous
 62
     0
370
    -2
100
AcDbLine
 10
401.0721020212702
 20
905.4386710691169
 30
0.0
 11
510.0721020212702
 21
905.4386710691169
 31
0.0
  0
INSERT
  5
ECF
330
ECA
100
AcDbEntity
  8
DIM
 62
     0
370
    -2
100
AcDbBlockReference
  2
_DOT
 10
398.0721020212702
 20
905.4386710691169
 30
0.0
 41
3.0
 42
3.0
 43
3.0
 50
180.0
  0
INSERT
  5
ED0
330
ECA
100
AcDbEntity
  8
DIM
 62
     0
370
    -2
100
AcDbBlockReference
  2
_DOT
 10
513.0721020212702
 20
905.4386710691169
 30
0.0
 41
3.0
 42
3.0
 43
3.0
  0
MTEXT
  5
ED1
330
ECA
100
AcDbEntity
  8
DIM
  6
HIDDEN
 62
     0
 48
0.05
100
AcDbMText
 10
455.5721020212702
 20
921.4386710691169
 30
0.0
 40
12.0
 41
0.0
 46
0.0
 71
     5
 72
     1
  1
\A1;115
  7
ＭＳ ゴシック
 73
     1
 44
1.0
  0
POINT
  5
ED2
330
ECA
100
AcDbEntity
  8
Defpoints
 62
     0
100
AcDbPoint
 10
398.0721020212702
 20
1054.759174269942
 30
0.0
  0
POINT
  5
ED3
330
ECA
100
AcDbEntity
  8
Defpoints
 62
     0
100
AcDbPoint
 10
513.0721020212702
 20
1005.458633181571
 30
0.0
  0
POINT
  5
ED4
330
ECA
100
AcDbEntity
  8
Defpoints
 62
     0
100
AcDbPoint
 10
513.0721020212702
 20
905.4386710691169
 30
0.0
  0
ENDBLK
  5
ED5
330
ECA
100
AcDbEntity
  8
0
100
AcDbBlockEnd
  0
BLOCK
  5
ED8
330
ED7
100
AcDbEntity
  8
0
100
AcDbBlockBegin
  2
*D11
 70
     1
 10
0.0
 20
0.0
 30
0.0
  3
*D11
  1
*D76
  0
LINE
  5
ED9
330
ED7
100
AcDbEntity
  8
DIM
  6
Continuous
 62
     0
370
    -2
100
AcDbLine
 10
763.0788068568988
 20
1095.519966936352
 30
0.0
 11
857.9264858544739
 21
1095.519966936352
 31
0.0
  0
LINE
  5
EDA
330
ED7
100
AcDbEntity
  8
DIM
  6
Continuous
 62
     0
370
    -2
100
AcDbLine
 10
623.7504945584734
 20
1005.519966936352
 30
0.0
 11
857.9264858544739
 21
1005.519966936352
 31
0.0
  0
LINE
  5
EDB
330
ED7
100
AcDbEntity
  8
DIM
  6
Continuous
 62
     0
370
    -2
100
AcDbLine
 10
857.9264858544739
 20
1092.519966936352
 30
0.0
 11
857.9264858544739
 21
1008.519966936352
 31
0.0
  0
INSERT
  5
EDC
330
ED7
100
AcDbEntity
  8
DIM
 62
     0
370
    -2
100
AcDbBlockReference
  2
_DOT
 10
857.9264858544739
 20
1095.519966936352
 30
0.0
 41
3.0
 42
3.0
 43
3.0
 50
90.0
  0
INSERT
  5
EDD
330
ED7
100
AcDbEntity
  8
DIM
 62
     0
370
    -2
100
AcDbBlockReference
  2
_DOT
 10
857.9264858544739
 20
1005.519966936352
 30
0.0
 41
3.0
 42
3.0
 43
3.0
 50
270.0
  0
MTEXT
  5
EDE
330
ED7
100
AcDbEntity
  8
DIM
  6
HIDDEN
 62
     0
 48
0.05
100
AcDbMText
 10
841.9264858544739
 20
1050.519966936352
 30
0.0
 40
12.0
 41
0.0
 46
0.0
 71
     5
 72
     1
  1
\A1;90
  7
ＭＳ ゴシック
 11
0.0
 21
1.0
 31
0.0
 73
     1
 44
1.0
  0
POINT
  5
EDF
330
ED7
100
AcDbEntity
  8
Defpoints
 62
     0
100
AcDbPoint
 10
758.0788068568988
 20
1095.519966936352
 30
0.0
  0
POINT
  5
EE0
330
ED7
100
AcDbEntity
  8
Defpoints
 62
     0
100
AcDbPoint
 10
618.7504945584734
 20
1005.519966936352
 30
0.0
  0
POINT
  5
EE1
330
ED7
100
AcDbEntity
  8
Defpoints
 62
     0
100
AcDbPoint
 10
857.9264858544739
 20
1005.519966936352
 30
0.0
  0
ENDBLK
  5
EE2
330
ED7
100
AcDbEntity
  8
0
100
AcDbBlockEnd
  0
BLOCK
  5
EE5
330
EE4
100
AcDbEntity
  8
0
100
AcDbBlockBegin
  2
*D12
 70
     1
 10
0.0
 20
0.0
 30
0.0
  3
*D12
  1
*D77
  0
LINE
  5
EE6
330
EE4
100
AcDbEntity
  8
DIM
  6
Continuous
 62
     0
370
    -2
100
AcDbLine
 10
412.200808849343
 20
2004.397485658447
 30
0.0
 11
412.200808849343
 21
1883.984263001092
 31
0.0
  0
LINE
  5
EE7
330
EE4
100
AcDbEntity
  8
DIM
  6
Continuous
 62
     0
370
    -2
100
AcDbLine
 10
702.200808849343
 20
2004.397485658447
 30
0.0
 11
702.200808849343
 21
1883.984263001092
 31
0.0
  0
LINE
  5
EE8
330
EE4
100
AcDbEntity
  8
DIM
  6
Continuous
 62
     0
370
    -2
100
AcDbLine
 10
415.200808849343
 20
1883.984263001092
 30
0.0
 11
699.200808849343
 21
1883.984263001092
 31
0.0
  0
INSERT
  5
EE9
330
EE4
100
AcDbEntity
  8
DIM
 62
     0
370
    -2
100
AcDbBlockReference
  2
_DOT
 10
412.200808849343
 20
1883.984263001092
 30
0.0
 41
3.0
 42
3.0
 43
3.0
 50
180.0
  0
INSERT
  5
EEA
330
EE4
100
AcDbEntity
  8
DIM
 62
     0
370
    -2
100
AcDbBlockReference
  2
_DOT
 10
702.200808849343
 20
1883.984263001092
 30
0.0
 41
3.0
 42
3.0
 43
3.0
  0
MTEXT
  5
EEB
330
EE4
100
AcDbEntity
  8
DIM
  6
HIDDEN
 62
     0
 48
0.05
100
AcDbMText
 10
557.200808849343
 20
1899.984263001092
 30
0.0
 40
12.0
 41
0.0
 46
0.0
 71
     5
 72
     1
  1
\A1;290
  7
ＭＳ ゴシック
 73
     1
 44
1.0
  0
POINT
  5
EEC
330
EE4
100
AcDbEntity
  8
Defpoints
 62
     0
100
AcDbPoint
 10
412.200808849343
 20
2009.397485658447
 30
0.0
  0
POINT
  5
EED
330
EE4
100
AcDbEntity
  8
Defpoints
 62
     0
100
AcDbPoint
 10
702.200808849343
 20
2009.397485658447
 30
0.0
  0
POINT
  5
EEE
330
EE4
100
AcDbEntity
  8
Defpoints
 62
     0
100
AcDbPoint
 10
702.200808849343
 20
1883.984263001092
 30
0.0
  0
ENDBLK
  5
EEF
330
EE4
100
AcDbEntity
  8
0
100
AcDbBlockEnd
  0
BLOCK
  5
EF7
330
EF6
100
AcDbEntity
  8
0
100
AcDbBlockBegin
  2
*D13
 70
     1
 10
0.0
 20
0.0
 30
0.0
  3
*D13
  1
*D95
  0
LINE
  5
EF8
330
EF6
100
AcDbEntity
  8
DIM
  6
Continuous
 62
     0
370
    -2
100
AcDbLine
 10
1439.317258596262
 20
1095.519966936352
 30
0.0
 11
1439.317258596262
 21
1222.351966936352
 31
0.0
  0
LINE
  5
EF9
330
EF6
100
AcDbEntity
  8
DIM
  6
Continuous
 62
     0
370
    -2
100
AcDbLine
 10
1439.317258596262
 20
1092.519966936352
 30
0.0
 11
1439.317258596262
 21
1035.51996693635
 31
0.0
  0
INSERT
  5
EFA
330
EF6
100
AcDbEntity
  8
DIM
 62
     0
370
    -2
100
AcDbBlockReference
  2
_DOT
 10
1439.317258596262
 20
1095.519966936352
 30
0.0
 41
3.0
 42
3.0
 43
3.0
 50
90.0
  0
INSERT
  5
EFB
330
EF6
100
AcDbEntity
  8
DIM
 62
     0
370
    -2
100
AcDbBlockReference
  2
_DOT
 10
1439.317258596262
 20
1032.51996693635
 30
0.0
 41
3.0
 42
3.0
 43
3.0
 50
270.0
  0
MTEXT
  5
EFC
330
EF6
100
AcDbEntity
  8
DIM
  6
HIDDEN
 62
     0
 48
0.05
100
AcDbMText
 10
1422.255258596262
 20
1183.407966936352
 30
0.0
 40
12.0
 41
0.0
 46
0.0
 71
     5
 72
     1
  1
\A1;65(深さ)
  7
ＭＳ ゴシック
 11
0.0
 21
1.0
 31
0.0
 73
     1
 44
1.0
  0
POINT
  5
EFD
330
EF6
100
AcDbEntity
  8
Defpoints
 62
     0
100
AcDbPoint
 10
1462.428518578035
 20
1095.519966936352
 30
0.0
  0
POINT
  5
EFE
330
EF6
100
AcDbEntity
  8
Defpoints
 62
     0
100
AcDbPoint
 10
1439.317258596262
 20
1032.51996693635
 30
0.0
  0
POINT
  5
EFF
330
EF6
100
AcDbEntity
  8
Defpoints
 62
     0
100
AcDbPoint
 10
1439.317258596262
 20
1032.51996693635
 30
0.0
  0
ENDBLK
  5
F00
330
EF6
100
AcDbEntity
  8
0
100
AcDbBlockEnd
  0
BLOCK
  5
F03
330
F02
100
AcDbEntity
  8
0
100
AcDbBlockBegin
  2
*D14
 70
     1
 10
0.0
 20
0.0
 30
0.0
  3
*D14
  1
*D96
  0
LINE
  5
F04
330
F02
100
AcDbEntity
  8
DIM
  6
Continuous
 62
     0
370
    -2
100
AcDbLine
 10
1439.317258596263
 20
924.6362008516055
 30
0.0
 11
1439.317258596263
 21
878.4358387466359
 31
0.0
  0
LINE
  5
F05
330
F02
100
AcDbEntity
  8
DIM
  6
Continuous
 62
     0
370
    -2
100
AcDbLine
 10
1548.477038150369
 20
1090.519966936352
 30
0.0
 11
1548.477038150369
 21
878.4358387466359
 31
0.0
  0
LINE
  5
F06
330
F02
100
AcDbEntity
  8
DIM
  6
Continuous
 62
     0
370
    -2
100
AcDbLine
 10
1442.317258596263
 20
878.4358387466359
 30
0.0
 11
1545.477038150369
 21
878.4358387466359
 31
0.0
  0
INSERT
  5
F07
330
F02
100
AcDbEntity
  8
DIM
 62
     0
370
    -2
100
AcDbBlockReference
  2
_DOT
 10
1439.317258596263
 20
878.4358387466359
 30
0.0
 41
3.0
 42
3.0
 43
3.0
 50
180.0
  0
INSERT
  5
F08
330
F02
100
AcDbEntity
  8
DIM
 62
     0
370
    -2
100
AcDbBlockReference
  2
_DOT
 10
1548.477038150369
 20
878.4358387466359
 30
0.0
 41
3.0
 42
3.0
 43
3.0
  0
MTEXT
  5
F09
330
F02
100
AcDbEntity
  8
DIM
  6
HIDDEN
 62
     0
 48
0.05
100
AcDbMText
 10
1493.897148373316
 20
894.4358387466359
 30
0.0
 40
12.0
 41
0.0
 46
0.0
 71
     5
 72
     1
  1
\A1;109
  7
ＭＳ ゴシック
 73
     1
 44
1.0
  0
POINT
  5
F0A
330
F02
100
AcDbEntity
  8
Defpoints
 62
     0
100
AcDbPoint
 10
1439.317258596263
 20
929.6362008516055
 30
0.0
  0
POINT
  5
F0B
330
F02
100
AcDbEntity
  8
Defpoints
 62
     0
100
AcDbPoint
 10
1548.477038150369
 20
1095.519966936352
 30
0.0
  0
POINT
  5
F0C
330
F02
100
AcDbEntity
  8
Defpoints
 62
     0
100
AcDbPoint
 10
1548.477038150369
 20
878.4358387466359
 30
0.0
  0
ENDBLK
  5
F0D
330
F02
100
AcDbEntity
  8
0
100
AcDbBlockEnd
  0
BLOCK
  5
F11
330
F10
100
AcDbEntity
  8
0
100
AcDbBlockBegin
  2
*D15
 70
     1
 10
0.0
 20
0.0
 30
0.0
  3
*D15
  1
*D100
  0
LINE
  5
F12
330
F10
100
AcDbEntity
  8
DIM
  6
Continuous
 62
     0
370
    -2
100
AcDbLine
 10
454.3311093892961
 20
2174.79153588869
 30
0.0
 11
283.0190573575098
 21
2174.79153588869
 31
0.0
  0
LINE
  5
F13
330
F10
100
AcDbEntity
  8
DIM
  6
Continuous
 62
     0
370
    -2
100
AcDbLine
 10
454.3311093892961
 20
1984.79153588869
 30
0.0
 11
283.0190573575097
 21
1984.79153588869
 31
0.0
  0
LINE
  5
F14
330
F10
100
AcDbEntity
  8
DIM
  6
Continuous
 62
     0
370
    -2
100
AcDbLine
 10
283.0190573575098
 20
2171.79153588869
 30
0.0
 11
283.0190573575097
 21
1987.79153588869
 31
0.0
  0
INSERT
  5
F15
330
F10
100
AcDbEntity
  8
DIM
 62
     0
370
    -2
100
AcDbBlockReference
  2
_DOT
 10
283.0190573575098
 20
2174.79153588869
 30
0.0
 41
3.0
 42
3.0
 43
3.0
 50
89.99999999999999
  0
INSERT
  5
F16
330
F10
100
AcDbEntity
  8
DIM
 62
     0
370
    -2
100
AcDbBlockReference
  2
_DOT
 10
283.0190573575097
 20
1984.79153588869
 30
0.0
 41
3.0
 42
3.0
 43
3.0
 50
270.0
  0
MTEXT
  5
F17
330
F10
100
AcDbEntity
  8
DIM
  6
HIDDEN
 62
     0
 48
0.05
100
AcDbMText
 10
267.0190573575097
 20
2079.79153588869
 30
0.0
 40
12.0
 41
0.0
 46
0.0
 71
     5
 72
     1
  1
\A1;190
  7
ＭＳ ゴシック
 11
2.991758887410952E-16
 21
1.0
 31
0.0
 73
     1
 44
1.0
  0
POINT
  5
F18
330
F10
100
AcDbEntity
  8
Defpoints
 62
     0
100
AcDbPoint
 10
459.3311093892961
 20
2174.79153588869
 30
0.0
  0
POINT
  5
F19
330
F10
100
AcDbEntity
  8
Defpoints
 62
     0
100
AcDbPoint
 10
459.3311093892961
 20
1984.79153588869
 30
0.0
  0
POINT
  5
F1A
330
F10
100
AcDbEntity
  8
Defpoints
 62
     0
100
AcDbPoint
 10
283.0190573575097
 20
1984.79153588869
 30
0.0
  0
ENDBLK
  5
F1B
330
F10
100
AcDbEntity
  8
0
100
AcDbBlockEnd
  0
BLOCK
  5
F33
330
F32
100
AcDbEntity
  8
0
100
AcDbBlockBegin
  2
*D16
 70
     1
 10
0.0
 20
0.0
 30
0.0
  3
*D16
  1
*D102
  0
LINE
  5
F34
330
F32
100
AcDbEntity
  8
MODEL
 62
     0
370
    -2
100
AcDbLine
 10
1396.817201365532
 20
1000.519966936352
 30
0.0
 11
1396.817201365532
 21
938.0427345485245
 31
0.0
  0
LINE
  5
F35
330
F32
100
AcDbEntity
  8
MODEL
 62
     0
370
    -2
100
AcDbLine
 10
1481.817315825047
 20
1000.519966936352
 30
0.0
 11
1481.817315825047
 21
938.0427345485245
 31
0.0
  0
LINE
  5
F36
330
F32
100
AcDbEntity
  8
MODEL
 62
     0
370
    -2
100
AcDbLine
 10
1399.817201365532
 20
938.0427345485245
 30
0.0
 11
1478.817315825047
 21
938.0427345485245
 31
0.0
  0
INSERT
  5
F37
330
F32
100
AcDbEntity
  8
MODEL
 62
     0
370
    -2
100
AcDbBlockReference
  2
_DOT
 10
1396.817201365532
 20
938.0427345485245
 30
0.0
 41
3.0
 42
3.0
 43
3.0
 50
180.0
  0
INSERT
  5
F38
330
F32
100
AcDbEntity
  8
MODEL
 62
     0
370
    -2
100
AcDbBlockReference
  2
_DOT
 10
1481.817315825047
 20
938.0427345485245
 30
0.0
 41
3.0
 42
3.0
 43
3.0
  0
MTEXT
  5
F39
330
F32
100
AcDbEntity
  8
MODEL
  6
HIDDEN
 62
     0
 48
0.05
100
AcDbMText
 10
1439.317258595289
 20
954.0427345485245
 30
0.0
 40
12.0
 41
0.0
 46
0.0
 71
     5
 72
     1
  1
\A1;85
  7
ＭＳ ゴシック
 73
     1
 44
1.0
  0
POINT
  5
F3A
330
F32
100
AcDbEntity
  8
Defpoints
 62
     0
100
AcDbPoint
 10
1396.817201365532
 20
1005.519966936352
 30
0.0
  0
POINT
  5
F3B
330
F32
100
AcDbEntity
  8
Defpoints
 62
     0
100
AcDbPoint
 10
1481.817315825047
 20
1005.519966936352
 30
0.0
  0
POINT
  5
F3C
330
F32
100
AcDbEntity
  8
Defpoints
 62
     0
100
AcDbPoint
 10
1481.817315825047
 20
938.0427345485245
 30
0.0
  0
ENDBLK
  5
F3D
330
F32
100
AcDbEntity
  8
0
100
AcDbBlockEnd
  0
BLOCK
  5
F5A
330
F59
100
AcDbEntity
  8
0
100
AcDbBlockBegin
  2
*D17
 70
     1
 10
0.0
 20
0.0
 30
0.0
  3
*D17
  1
*D107
  0
LINE
  5
F5B
330
F59
100
AcDbEntity
  8
MODEL
 62
     0
370
    -2
100
AcDbLine
 10
1426.980157026799
 20
2089.806143289787
 30
0.0
 11
1426.980157026799
 21
2216.058443918653
 31
0.0
  0
LINE
  5
F5C
330
F59
100
AcDbEntity
  8
MODEL
 62
     0
370
    -2
100
AcDbLine
 10
1326.980157026799
 20
2089.806143289791
 30
0.0
 11
1326.980157026799
 21
2216.058443918653
 31
0.0
  0
LINE
  5
F5D
330
F59
100
AcDbEntity
  8
MODEL
 62
     0
370
    -2
100
AcDbLine
 10
1423.980157026799
 20
2216.058443918653
 30
0.0
 11
1329.980157026799
 21
2216.058443918653
 31
0.0
  0
INSERT
  5
F5E
330
F59
100
AcDbEntity
  8
MODEL
 62
     0
370
    -2
100
AcDbBlockReference
  2
_DOT
 10
1426.980157026799
 20
2216.058443918653
 30
0.0
 41
3.0
 42
3.0
 43
3.0
  0
INSERT
  5
F5F
330
F59
100
AcDbEntity
  8
MODEL
 62
     0
370
    -2
100
AcDbBlockReference
  2
_DOT
 10
1326.980157026799
 20
2216.058443918653
 30
0.0
 41
3.0
 42
3.0
 43
3.0
 50
180.0
  0
MTEXT
  5
F60
330
F59
100
AcDbEntity
  8
MODEL
  6
HIDDEN
 62
     0
 48
0.05
100
AcDbMText
 10
1376.980157026799
 20
2232.058443918653
 30
0.0
 40
12.0
 41
0.0
 46
0.0
 71
     5
 72
     1
  1
\A1;100
  7
ＭＳ ゴシック
 73
     1
 44
1.0
  0
POINT
  5
F61
330
F59
100
AcDbEntity
  8
Defpoints
 62
     0
100
AcDbPoint
 10
1426.980157026799
 20
2084.806143289787
 30
0.0
  0
POINT
  5
F62
330
F59
100
AcDbEntity
  8
Defpoints
 62
     0
100
AcDbPoint
 10
1326.980157026799
 20
2084.806143289791
 30
0.0
  0
POINT
  5
F63
330
F59
100
AcDbEntity
  8
Defpoints
 62
     0
100
AcDbPoint
 10
1326.980157026799
 20
2216.058443918653
 30
0.0
  0
ENDBLK
  5
F64
330
F59
100
AcDbEntity
  8
0
100
AcDbBlockEnd
  0
BLOCK
  5
FE8
330
FE7
100
AcDbEntity
  8
0
100
AcDbBlockBegin
  2
*D18
 70
     1
 10
0.0
 20
0.0
 30
0.0
  3
*D18
  1
*D19
  0
LINE
  5
FEA
330
FE7
100
AcDbEntity
  8
DIM
  6
Continuous
 62
     0
370
    -2
100
AcDbLine
 10
127.9512027865765
 20
1022.554914742397
 30
0.0
 11
127.9512027865765
 21
1164.918737110053
 31
0.0
  0
LINE
  5
FEB
330
FE7
100
AcDbEntity
  8
DIM
  6
Continuous
 62
     0
370
    -2
100
AcDbLine
 10
487.9512027865765
 20
1011.953400109655
 30
0.0
 11
487.9512027865766
 21
1164.918737110053
 31
0.0
  0
LINE
  5
FEC
330
FE7
100
AcDbEntity
  8
DIM
  6
Continuous
 62
     0
370
    -2
100
AcDbLine
 10
130.9512027865765
 20
1164.918737110053
 30
0.0
 11
484.9512027865766
 21
1164.918737110053
 31
0.0
  0
INSERT
  5
FED
330
FE7
100
AcDbEntity
  8
DIM
 62
     0
370
    -2
100
AcDbBlockReference
  2
_DOT
 10
127.9512027865765
 20
1164.918737110053
 30
0.0
 41
3.0
 42
3.0
 43
3.0
 50
180.0
  0
INSERT
  5
FEE
330
FE7
100
AcDbEntity
  8
DIM
 62
     0
370
    -2
100
AcDbBlockReference
  2
_DOT
 10
487.9512027865766
 20
1164.918737110053
 30
0.0
 41
3.0
 42
3.0
 43
3.0
  0
MTEXT
  5
FEF
330
FE7
100
AcDbEntity
  8
DIM
 62
     0
 48
0.05
100
AcDbMText
 10
307.9512027865766
 20
1180.918737110053
 30
0.0
 40
12.0
 41
0.0
 46
0.0
 71
     5
 72
     1
  1
\A1;360
  7
ＭＳ ゴシック
 73
     1
 44
1.0
  0
POINT
  5
FF0
330
FE7
100
AcDbEntity
  8
Defpoints
 62
     0
100
AcDbPoint
 10
127.9512027865765
 20
1017.554914742397
 30
0.0
  0
POINT
  5
FF1
330
FE7
100
AcDbEntity
  8
Defpoints
 62
     0
100
AcDbPoint
 10
487.9512027865765
 20
1006.953400109655
 30
0.0
  0
POINT
  5
FF2
330
FE7
100
AcDbEntity
  8
Defpoints
 62
     0
100
AcDbPoint
 10
487.9512027865765
 20
1164.918737110053
 30
0.0
  0
ENDBLK
  5
FE9
330
FE7
100
AcDbEntity
  8
0
100
AcDbBlockEnd
  0
BLOCK
  5
FF4
330
FF3
100
AcDbEntity
  8
0
100
AcDbBlockBegin
  2
*D19
 70
     1
 10
0.0
 20
0.0
 30
0.0
  3
*D19
  1
*D20
  0
LINE
  5
FF6
330
FF3
100
AcDbEntity
  8
DIM
  6
Continuous
 62
     0
370
    -2
100
AcDbLine
 10
302.1040717732997
 20
1112.195624354434
 30
0.0
 11
537.4960703762924
 21
1112.195624354434
 31
0.0
  0
LINE
  5
FF7
330
FF3
100
AcDbEntity
  8
DIM
  6
Continuous
 62
     0
370
    -2
100
AcDbLine
 10
302.1040717732997
 20
894.1956243544339
 30
0.0
 11
537.4960703762924
 21
894.1956243544339
 31
0.0
  0
LINE
  5
FF8
330
FF3
100
AcDbEntity
  8
DIM
  6
Continuous
 62
     0
370
    -2
100
AcDbLine
 10
537.4960703762924
 20
1109.195624354434
 30
0.0
 11
537.4960703762924
 21
897.1956243544339
 31
0.0
  0
INSERT
  5
FF9
330
FF3
100
AcDbEntity
  8
DIM
 62
     0
370
    -2
100
AcDbBlockReference
  2
_DOT
 10
537.4960703762924
 20
1112.195624354434
 30
0.0
 41
3.0
 42
3.0
 43
3.0
 50
90.0
  0
INSERT
  5
FFA
330
FF3
100
AcDbEntity
  8
DIM
 62
     0
370
    -2
100
AcDbBlockReference
  2
_DOT
 10
537.4960703762924
 20
894.1956243544339
 30
0.0
 41
3.0
 42
3.0
 43
3.0
 50
270.0
  0
MTEXT
  5
FFB
330
FF3
100
AcDbEntity
  8
DIM
 62
     0
 48
0.05
100
AcDbMText
 10
521.4960703762924
 20
1003.195624354434
 30
0.0
 40
12.0
 41
0.0
 46
0.0
 71
     5
 72
     1
  1
\A1;218
  7
ＭＳ ゴシック
 11
0.0
 21
1.0
 31
0.0
 73
     1
 44
1.0
  0
POINT
  5
FFC
330
FF3
100
AcDbEntity
  8
Defpoints
 62
     0
100
AcDbPoint
 10
297.1040717732997
 20
1112.195624354434
 30
0.0
  0
POINT
  5
FFD
330
FF3
100
AcDbEntity
  8
Defpoints
 62
     0
100
AcDbPoint
 10
297.1040717732997
 20
894.1956243544339
 30
0.0
  0
POINT
  5
FFE
330
FF3
100
AcDbEntity
  8
Defpoints
 62
     0
100
AcDbPoint
 10
537.4960703762924
 20
894.1956243544339
 30
0.0
  0
ENDBLK
  5
FF5
330
FF3
100
AcDbEntity
  8
0
100
AcDbBlockEnd
  0
BLOCK
  5
1000
330
FFF
100
AcDbEntity
  8
0
100
AcDbBlockBegin
  2
*D20
 70
     1
 10
0.0
 20
0.0
 30
0.0
  3
*D20
  1
*D21
  0
LINE
  5
1002
330
FFF
100
AcDbEntity
  8
DIM
  6
Continuous
 62
     0
370
    -2
100
AcDbLine
 10
127.9512027865765
 20
549.1248023508463
 30
0.0
 11
127.9512027865765
 21
313.8385201568532
 31
0.0
  0
LINE
  5
1003
330
FFF
100
AcDbEntity
  8
DIM
  6
Continuous
 62
     0
370
    -2
100
AcDbLine
 10
242.9512504783904
 20
351.5032297764886
 30
0.0
 11
242.9512504783904
 21
313.8385201568532
 31
0.0
  0
LINE
  5
1004
330
FFF
100
AcDbEntity
  8
DIM
  6
Continuous
 62
     0
370
    -2
100
AcDbLine
 10
130.9512027865765
 20
313.8385201568532
 30
0.0
 11
239.9512504783904
 21
313.8385201568532
 31
0.0
  0
INSERT
  5
1005
330
FFF
100
AcDbEntity
  8
DIM
 62
     0
370
    -2
100
AcDbBlockReference
  2
_DOT
 10
127.9512027865765
 20
313.8385201568532
 30
0.0
 41
3.0
 42
3.0
 43
3.0
 50
180.0
  0
INSERT
  5
1006
330
FFF
100
AcDbEntity
  8
DIM
 62
     0
370
    -2
100
AcDbBlockReference
  2
_DOT
 10
242.9512504783904
 20
313.8385201568532
 30
0.0
 41
3.0
 42
3.0
 43
3.0
  0
MTEXT
  5
1007
330
FFF
100
AcDbEntity
  8
DIM
 62
     0
 48
0.05
100
AcDbMText
 10
185.4512027865765
 20
329.8385201568532
 30
0.0
 40
12.0
 41
0.0
 46
0.0
 71
     5
 72
     1
  1
\A1;115
  7
ＭＳ ゴシック
 73
     1
 44
1.0
  0
POINT
  5
1008
330
FFF
100
AcDbEntity
  8
Defpoints
 62
     0
100
AcDbPoint
 10
127.9512027865765
 20
554.1248023508463
 30
0.0
  0
POINT
  5
1009
330
FFF
100
AcDbEntity
  8
Defpoints
 62
     0
100
AcDbPoint
 10
242.9512504783904
 20
356.5032297764886
 30
0.0
  0
POINT
  5
100A
330
FFF
100
AcDbEntity
  8
Defpoints
 62
     0
100
AcDbPoint
 10
242.9512504783904
 20
313.8385201568532
 30
0.0
  0
ENDBLK
  5
1001
330
FFF
100
AcDbEntity
  8
0
100
AcDbBlockEnd
  0
BLOCK
  5
100C
330
100B
100
AcDbEntity
  8
0
100
AcDbBlockBegin
  2
*D21
 70
     1
 10
0.0
 20
0.0
 30
0.0
  3
*D21
  1
*D22
  0
LINE
  5
100E
330
100B
100
AcDbEntity
  8
DIM
  6
Continuous
 62
     0
370
    -2
100
AcDbLine
 10
492.9579076222051
 20
554.3682973846032
 30
0.0
 11
524.9757118075809
 21
554.3682973846032
 31
0.0
  0
LINE
  5
100F
330
100B
100
AcDbEntity
  8
DIM
  6
Continuous
 62
     0
370
    -2
100
AcDbLine
 10
492.9577176317741
 20
464.3682973846032
 30
0.0
 11
524.9757118075809
 21
464.3682973846032
 31
0.0
  0
LINE
  5
1010
330
100B
100
AcDbEntity
  8
DIM
  6
Continuous
 62
     0
370
    -2
100
AcDbLine
 10
524.9757118075809
 20
551.3682973846032
 30
0.0
 11
524.9757118075809
 21
467.3682973846032
 31
0.0
  0
INSERT
  5
1011
330
100B
100
AcDbEntity
  8
DIM
 62
     0
370
    -2
100
AcDbBlockReference
  2
_DOT
 10
524.9757118075809
 20
554.3682973846032
 30
0.0
 41
3.0
 42
3.0
 43
3.0
 50
90.0
  0
INSERT
  5
1012
330
100B
100
AcDbEntity
  8
DIM
 62
     0
370
    -2
100
AcDbBlockReference
  2
_DOT
 10
524.9757118075809
 20
464.3682973846032
 30
0.0
 41
3.0
 42
3.0
 43
3.0
 50
270.0
  0
MTEXT
  5
1013
330
100B
100
AcDbEntity
  8
DIM
 62
     0
 48
0.05
100
AcDbMText
 10
508.9757118075809
 20
509.3682973846032
 30
0.0
 40
12.0
 41
0.0
 46
0.0
 71
     5
 72
     1
  1
\A1;90
  7
ＭＳ ゴシック
 11
0.0
 21
1.0
 31
0.0
 73
     1
 44
1.0
  0
POINT
  5
1014
330
100B
100
AcDbEntity
  8
Defpoints
 62
     0
100
AcDbPoint
 10
487.9579076222051
 20
554.3682973846032
 30
0.0
  0
POINT
  5
1015
330
100B
100
AcDbEntity
  8
Defpoints
 62
     0
100
AcDbPoint
 10
487.9577176317741
 20
464.3682973846032
 30
0.0
  0
POINT
  5
1696
330
100B
100
AcDbEntity
  8
Defpoints
 62
     0
100
AcDbPoint
 10
524.9757118075809
 20
464.3682973846032
 30
0.0
  0
ENDBLK
  5
100D
330
100B
100
AcDbEntity
  8
0
100
AcDbBlockEnd
  0
BLOCK
  5
1018
330
1017
100
AcDbEntity
  8
0
100
AcDbBlockBegin
  2
*D22
 70
     1
 10
0.0
 20
0.0
 30
0.0
  3
*D22
  1
*D23
  0
LINE
  5
101A
330
1017
100
AcDbEntity
  8
DIM
  6
Continuous
 62
     0
370
    -2
100
AcDbLine
 10
142.0799096146493
 20
988.5775205731703
 30
0.0
 11
142.0799096146493
 21
840.8888845246312
 31
0.0
  0
LINE
  5
101B
330
1017
100
AcDbEntity
  8
DIM
  6
Continuous
 62
     0
370
    -2
100
AcDbLine
 10
432.0799096146493
 20
988.5775205731703
 30
0.0
 11
432.0799096146493
 21
840.8888845246312
 31
0.0
  0
LINE
  5
101C
330
1017
100
AcDbEntity
  8
DIM
  6
Continuous
 62
     0
370
    -2
100
AcDbLine
 10
145.0799096146493
 20
840.8888845246312
 30
0.0
 11
429.0799096146493
 21
840.8888845246312
 31
0.0
  0
INSERT
  5
101D
330
1017
100
AcDbEntity
  8
DIM
 62
     0
370
    -2
100
AcDbBlockReference
  2
_DOT
 10
142.0799096146493
 20
840.8888845246312
 30
0.0
 41
3.0
 42
3.0
 43
3.0
 50
180.0
  0
INSERT
  5
101E
330
1017
100
AcDbEntity
  8
DIM
 62
     0
370
    -2
100
AcDbBlockReference
  2
_DOT
 10
432.0799096146493
 20
840.8888845246312
 30
0.0
 41
3.0
 42
3.0
 43
3.0
  0
MTEXT
  5
101F
330
1017
100
AcDbEntity
  8
DIM
 62
     0
 48
0.05
100
AcDbMText
 10
287.0799096146493
 20
856.8888845246312
 30
0.0
 40
12.0
 41
0.0
 46
0.0
 71
     5
 72
     1
  1
\A1;290
  7
ＭＳ ゴシック
 73
     1
 44
1.0
  0
POINT
  5
1020
330
1017
100
AcDbEntity
  8
Defpoints
 62
     0
100
AcDbPoint
 10
142.0799096146493
 20
993.5775205731703
 30
0.0
  0
POINT
  5
1021
330
1017
100
AcDbEntity
  8
Defpoints
 62
     0
100
AcDbPoint
 10
432.0799096146493
 20
993.5775205731703
 30
0.0
  0
POINT
  5
1022
330
1017
100
AcDbEntity
  8
Defpoints
 62
     0
100
AcDbPoint
 10
432.0799096146493
 20
840.8888845246312
 30
0.0
  0
ENDBLK
  5
1019
330
1017
100
AcDbEntity
  8
0
100
AcDbBlockEnd
  0
BLOCK
  5
1024
330
1023
100
AcDbEntity
  8
0
100
AcDbBlockBegin
  2
*D23
 70
     1
 10
0.0
 20
0.0
 30
0.0
  3
*D23
  1
*D24
  0
LINE
  5
1026
330
1023
100
AcDbEntity
  8
DIM
  6
Continuous
 62
     0
370
    -2
100
AcDbLine
 10
779.3708710233752
 20
554.3682973846032
 30
0.0
 11
779.3708710233752
 21
638.2562973846032
 31
0.0
  0
LINE
  5
1027
330
1023
100
AcDbEntity
  8
DIM
  6
Continuous
 62
     0
370
    -2
100
AcDbLine
 10
779.3708710233752
 20
551.3682973846032
 30
0.0
 11
779.3708710233752
 21
494.3682973846014
 31
0.0
  0
INSERT
  5
1028
330
1023
100
AcDbEntity
  8
DIM
 62
     0
370
    -2
100
AcDbBlockReference
  2
_DOT
 10
779.3708710233752
 20
554.3682973846032
 30
0.0
 41
3.0
 42
3.0
 43
3.0
 50
90.0
  0
INSERT
  5
1029
330
1023
100
AcDbEntity
  8
DIM
 62
     0
370
    -2
100
AcDbBlockReference
  2
_DOT
 10
779.3708710233752
 20
491.3682973846014
 30
0.0
 41
3.0
 42
3.0
 43
3.0
 50
270.0
  0
MTEXT
  5
102A
330
1023
100
AcDbEntity
  8
DIM
 62
     0
 48
0.05
100
AcDbMText
 10
762.3088710233752
 20
599.3122973846032
 30
0.0
 40
12.0
 41
0.0
 46
0.0
 71
     5
 72
     1
  1
\A1;63(深さ)
  7
ＭＳ ゴシック
 11
0.0
 21
1.0
 31
0.0
 73
     1
 44
1.0
  0
POINT
  5
102B
330
1023
100
AcDbEntity
  8
Defpoints
 62
     0
100
AcDbPoint
 10
802.4821310051482
 20
554.3682973846032
 30
0.0
  0
POINT
  5
102C
330
1023
100
AcDbEntity
  8
Defpoints
 62
     0
100
AcDbPoint
 10
779.3708710233752
 20
491.3682973846014
 30
0.0
  0
POINT
  5
102D
330
1023
100
AcDbEntity
  8
Defpoints
 62
     0
100
AcDbPoint
 10
779.3708710233752
 20
491.3682973846014
 30
0.0
  0
ENDBLK
  5
1025
330
1023
100
AcDbEntity
  8
0
100
AcDbBlockEnd
  0
BLOCK
  5
102F
330
102E
100
AcDbEntity
  8
0
100
AcDbBlockBegin
  2
*D24
 70
     1
 10
0.0
 20
0.0
 30
0.0
  3
*D24
  1
*D25
  0
LINE
  5
1031
330
102E
100
AcDbEntity
  8
DIM
  6
Continuous
 62
     0
370
    -2
100
AcDbLine
 10
779.3708710224025
 20
409.0939567816065
 30
0.0
 11
779.3708710224025
 21
379.2722335590293
 31
0.0
  0
LINE
  5
1032
330
102E
100
AcDbEntity
  8
DIM
  6
Continuous
 62
     0
370
    -2
100
AcDbLine
 10
888.5306505774822
 20
548.8852179645339
 30
0.0
 11
888.5306505774822
 21
379.2722335590293
 31
0.0
  0
LINE
  5
1033
330
102E
100
AcDbEntity
  8
DIM
  6
Continuous
 62
     0
370
    -2
100
AcDbLine
 10
782.3708710224025
 20
379.2722335590293
 30
0.0
 11
885.5306505774822
 21
379.2722335590293
 31
0.0
  0
INSERT
  5
1034
330
102E
100
AcDbEntity
  8
DIM
 62
     0
370
    -2
100
AcDbBlockReference
  2
_DOT
 10
779.3708710224025
 20
379.2722335590293
 30
0.0
 41
3.0
 42
3.0
 43
3.0
 50
180.0
  0
INSERT
  5
1035
330
102E
100
AcDbEntity
  8
DIM
 62
     0
370
    -2
100
AcDbBlockReference
  2
_DOT
 10
888.5306505774822
 20
379.2722335590293
 30
0.0
 41
3.0
 42
3.0
 43
3.0
  0
MTEXT
  5
1036
330
102E
100
AcDbEntity
  8
DIM
 62
     0
 48
0.05
100
AcDbMText
 10
833.9507607999424
 20
395.2722335590293
 30
0.0
 40
12.0
 41
0.0
 46
0.0
 71
     5
 72
     1
  1
\A1;109
  7
ＭＳ ゴシック
 73
     1
 44
1.0
  0
POINT
  5
1037
330
102E
100
AcDbEntity
  8
Defpoints
 62
     0
100
AcDbPoint
 10
779.3708710224025
 20
414.0939567816065
 30
0.0
  0
POINT
  5
1038
330
102E
100
AcDbEntity
  8
Defpoints
 62
     0
100
AcDbPoint
 10
888.5306505774822
 20
553.8852179645339
 30
0.0
  0
POINT
  5
1039
330
102E
100
AcDbEntity
  8
Defpoints
 62
     0
100
AcDbPoint
 10
888.5306505774822
 20
379.2722335590293
 30
0.0
  0
ENDBLK
  5
1030
330
102E
100
AcDbEntity
  8
0
100
AcDbBlockEnd
  0
BLOCK
  5
103B
330
103A
100
AcDbEntity
  8
0
100
AcDbBlockBegin
  2
*D25
 70
     1
 10
0.0
 20
0.0
 30
0.0
  3
*D25
  1
*D26
  0
LINE
  5
103D
330
103A
100
AcDbEntity
  8
DIM
  6
Continuous
 62
     0
370
    -2
100
AcDbLine
 10
236.641448780675
 20
1098.195624354434
 30
0.0
 11
89.45174142465285
 21
1098.195624354434
 31
0.0
  0
LINE
  5
103E
330
103A
100
AcDbEntity
  8
DIM
  6
Continuous
 62
     0
370
    -2
100
AcDbLine
 10
246.8286550425992
 20
908.1956243544339
 30
0.0
 11
89.4517414246528
 21
908.1956243544339
 31
0.0
  0
LINE
  5
103F
330
103A
100
AcDbEntity
  8
DIM
  6
Continuous
 62
     0
370
    -2
100
AcDbLine
 10
89.45174142465285
 20
1095.195624354434
 30
0.0
 11
89.4517414246528
 21
911.1956243544339
 31
0.0
  0
INSERT
  5
1040
330
103A
100
AcDbEntity
  8
DIM
 62
     0
370
    -2
100
AcDbBlockReference
  2
_DOT
 10
89.45174142465285
 20
1098.195624354434
 30
0.0
 41
3.0
 42
3.0
 43
3.0
 50
89.99999999999999
  0
INSERT
  5
1041
330
103A
100
AcDbEntity
  8
DIM
 62
     0
370
    -2
100
AcDbBlockReference
  2
_DOT
 10
89.4517414246528
 20
908.1956243544339
 30
0.0
 41
3.0
 42
3.0
 43
3.0
 50
270.0
  0
MTEXT
  5
1042
330
103A
100
AcDbEntity
  8
DIM
 62
     0
 48
0.05
100
AcDbMText
 10
73.45174142465282
 20
1003.400753097732
 30
0.0
 40
12.0
 41
0.0
 46
0.0
 71
     5
 72
     1
  1
\A1;190
  7
ＭＳ ゴシック
 11
2.991758887410948E-16
 21
1.0
 31
0.0
 73
     1
 44
1.0
  0
POINT
  5
1043
330
103A
100
AcDbEntity
  8
Defpoints
 62
     0
100
AcDbPoint
 10
241.641448780675
 20
1098.195624354434
 30
0.0
  0
POINT
  5
1044
330
103A
100
AcDbEntity
  8
Defpoints
 62
     0
100
AcDbPoint
 10
251.8286550425992
 20
908.1956243544339
 30
0.0
  0
POINT
  5
1045
330
103A
100
AcDbEntity
  8
Defpoints
 62
     0
100
AcDbPoint
 10
89.4517414246528
 20
908.1956243544339
 30
0.0
  0
ENDBLK
  5
103C
330
103A
100
AcDbEntity
  8
0
100
AcDbBlockEnd
  0
BLOCK
  5
1047
330
1046
100
AcDbEntity
  8
0
100
AcDbBlockBegin
  2
*D26
 70
     1
 10
0.0
 20
0.0
 30
0.0
  3
*D26
  1
*D27
  0
LINE
  5
1049
330
1046
100
AcDbEntity
  8
DIM
 62
     0
370
    -2
100
AcDbLine
 10
736.8708137926449
 20
459.3682973846032
 30
0.0
 11
736.8708137926449
 21
414.0939567816065
 31
0.0
  0
LINE
  5
104A
330
1046
100
AcDbEntity
  8
DIM
 62
     0
370
    -2
100
AcDbLine
 10
821.8709282521602
 20
459.3682973846032
 30
0.0
 11
821.8709282521602
 21
414.0939567816065
 31
0.0
  0
LINE
  5
104B
330
1046
100
AcDbEntity
  8
DIM
 62
     0
370
    -2
100
AcDbLine
 10
739.8708137926449
 20
414.0939567816065
 30
0.0
 11
818.8709282521602
 21
414.0939567816065
 31
0.0
  0
INSERT
  5
104C
330
1046
100
AcDbEntity
  8
DIM
 62
     0
370
    -2
100
AcDbBlockReference
  2
_DOT
 10
736.8708137926449
 20
414.0939567816065
 30
0.0
 41
3.0
 42
3.0
 43
3.0
 50
180.0
  0
INSERT
  5
104D
330
1046
100
AcDbEntity
  8
DIM
 62
     0
370
    -2
100
AcDbBlockReference
  2
_DOT
 10
821.8709282521602
 20
414.0939567816065
 30
0.0
 41
3.0
 42
3.0
 43
3.0
  0
MTEXT
  5
104E
330
1046
100
AcDbEntity
  8
DIM
 62
     0
 48
0.05
100
AcDbMText
 10
779.3708710224025
 20
430.0939567816065
 30
0.0
 40
12.0
 41
0.0
 46
0.0
 71
     5
 72
     1
  1
\A1;85
  7
ＭＳ ゴシック
 73
     1
 44
1.0
  0
POINT
  5
104F
330
1046
100
AcDbEntity
  8
Defpoints
 62
     0
100
AcDbPoint
 10
736.8708137926449
 20
464.3682973846032
 30
0.0
  0
POINT
  5
1050
330
1046
100
AcDbEntity
  8
Defpoints
 62
     0
100
AcDbPoint
 10
821.8709282521602
 20
464.3682973846032
 30
0.0
  0
POINT
  5
1051
330
1046
100
AcDbEntity
  8
Defpoints
 62
     0
100
AcDbPoint
 10
821.8709282521602
 20
414.0939567816065
 30
0.0
  0
ENDBLK
  5
1048
330
1046
100
AcDbEntity
  8
0
100
AcDbBlockEnd
  0
BLOCK
  5
1053
330
1052
100
AcDbEntity
  8
0
100
AcDbBlockBegin
  2
*D27
 70
     1
 10
0.0
 20
0.0
 30
0.0
  3
*D27
  1
*D28
  0
LINE
  5
1055
330
1052
100
AcDbEntity
  8
DIM
 62
     0
370
    -2
100
AcDbLine
 10
767.0337694539119
 20
1013.210231755531
 30
0.0
 11
767.0337694539119
 21
1155.127077780613
 31
0.0
  0
LINE
  5
1056
330
1052
100
AcDbEntity
  8
DIM
 62
     0
370
    -2
100
AcDbLine
 10
667.0337694539119
 20
1013.210231755535
 30
0.0
 11
667.0337694539119
 21
1155.127077780613
 31
0.0
  0
LINE
  5
1057
330
1052
100
AcDbEntity
  8
DIM
 62
     0
370
    -2
100
AcDbLine
 10
764.0337694539119
 20
1155.127077780613
 30
0.0
 11
670.0337694539119
 21
1155.127077780613
 31
0.0
  0
INSERT
  5
1058
330
1052
100
AcDbEntity
  8
DIM
 62
     0
370
    -2
100
AcDbBlockReference
  2
_DOT
 10
767.0337694539119
 20
1155.127077780613
 30
0.0
 41
3.0
 42
3.0
 43
3.0
  0
INSERT
  5
1059
330
1052
100
AcDbEntity
  8
DIM
 62
     0
370
    -2
100
AcDbBlockReference
  2
_DOT
 10
667.0337694539119
 20
1155.127077780613
 30
0.0
 41
3.0
 42
3.0
 43
3.0
 50
180.0
  0
MTEXT
  5
105A
330
1052
100
AcDbEntity
  8
DIM
 62
     0
 48
0.05
100
AcDbMText
 10
717.0337694539119
 20
1171.127077780613
 30
0.0
 40
12.0
 41
0.0
 46
0.0
 71
     5
 72
     1
  1
\A1;100
  7
ＭＳ ゴシック
 73
     1
 44
1.0
  0
POINT
  5
105B
330
1052
100
AcDbEntity
  8
Defpoints
 62
     0
100
AcDbPoint
 10
767.0337694539119
 20
1008.210231755531
 30
0.0
  0
POINT
  5
105C
330
1052
100
AcDbEntity
  8
Defpoints
 62
     0
100
AcDbPoint
 10
667.0337694539119
 20
1008.210231755535
 30
0.0
  0
POINT
  5
105D
330
1052
100
AcDbEntity
  8
Defpoints
 62
     0
100
AcDbPoint
 10
667.0337694539119
 20
1155.127077780613
 30
0.0
  0
ENDBLK
  5
1054
330
1052
100
AcDbEntity
  8
0
100
AcDbBlockEnd
  0
BLOCK
  5
10E6
330
10E5
100
AcDbEntity
  8
0
100
AcDbBlockBegin
  2
*D28
 70
     1
 10
0.0
 20
0.0
 30
0.0
  3
*D28
  1
*D29
  0
LINE
  5
10E8
330
10E5
100
AcDbEntity
  8
DIM
 62
     0
 48
0.05
370
    -2
100
AcDbLine
 10
177.9512027865765
 20
459.5019709071976
 30
0.0
 11
177.9512027865765
 21
356.5032297764886
 31
0.0
  0
LINE
  5
10E9
330
10E5
100
AcDbEntity
  8
DIM
 62
     0
 48
0.05
370
    -2
100
AcDbLine
 10
307.9512981702044
 20
459.3682973846032
 30
0.0
 11
307.9512981702044
 21
356.5032297764886
 31
0.0
  0
LINE
  5
10EA
330
10E5
100
AcDbEntity
  8
DIM
 62
     0
 48
0.05
370
    -2
100
AcDbLine
 10
180.9512027865765
 20
356.5032297764886
 30
0.0
 11
304.9512981702044
 21
356.5032297764886
 31
0.0
  0
INSERT
  5
10EB
330
10E5
100
AcDbEntity
  8
DIM
 62
     0
370
    -2
100
AcDbBlockReference
  2
_DOT
 10
177.9512027865765
 20
356.5032297764886
 30
0.0
 41
3.0
 42
3.0
 43
3.0
 50
180.0
  0
INSERT
  5
10EC
330
10E5
100
AcDbEntity
  8
DIM
 62
     0
370
    -2
100
AcDbBlockReference
  2
_DOT
 10
307.9512981702044
 20
356.5032297764886
 30
0.0
 41
3.0
 42
3.0
 43
3.0
  0
MTEXT
  5
10ED
330
10E5
100
AcDbEntity
  8
DIM
 62
     0
 48
0.05
100
AcDbMText
 10
242.9512027865765
 20
372.5032297764886
 30
0.0
 40
12.0
 41
0.0
 46
0.0
 71
     5
 72
     1
  1
\A1;130
  7
ＭＳ ゴシック
 73
     1
 44
1.0
  0
POINT
  5
10EE
330
10E5
100
AcDbEntity
  8
Defpoints
 62
     0
100
AcDbPoint
 10
177.9512027865765
 20
464.5019709071976
 30
0.0
  0
POINT
  5
10EF
330
10E5
100
AcDbEntity
  8
Defpoints
 62
     0
100
AcDbPoint
 10
307.9512981702044
 20
464.3682973846032
 30
0.0
  0
POINT
  5
10F0
330
10E5
100
AcDbEntity
  8
Defpoints
 62
     0
100
AcDbPoint
 10
307.9512981702044
 20
356.5032297764886
 30
0.0
  0
ENDBLK
  5
10E7
330
10E5
100
AcDbEntity
  8
0
100
AcDbBlockEnd
  0
BLOCK
  5
117C
330
117B
100
AcDbEntity
  8
0
100
AcDbBlockBegin
  2
*D29
 70
     1
 10
0.0
 20
0.0
 30
0.0
  3
*D29
  1
*D30
  0
LINE
  5
117E
330
117B
100
AcDbEntity
  8
DIM
 62
     0
 48
0.05
370
    -2
100
AcDbLine
 10
123.1284434798374
 20
464.3682973846032
 30
0.0
 11
105.2412132312268
 21
464.3682973846032
 31
0.0
  0
LINE
  5
117F
330
117B
100
AcDbEntity
  8
DIM
 62
     0
 48
0.05
370
    -2
100
AcDbLine
 10
123.1284434798374
 20
447.794961031212
 30
0.0
 11
105.2412132312268
 21
447.794961031212
 31
0.0
  0
LINE
  5
1180
330
117B
100
AcDbEntity
  8
DIM
 62
     0
 48
0.05
370
    -2
100
AcDbLine
 10
105.2412132312268
 20
447.794961031212
 30
0.0
 11
105.2412132312268
 21
368.1011003564709
 31
0.0
  0
LINE
  5
1181
330
117B
100
AcDbEntity
  8
DIM
 62
     0
 48
0.05
370
    -2
100
AcDbLine
 10
105.2412132312268
 20
461.3682973846032
 30
0.0
 11
105.2412132312268
 21
450.794961031212
 31
0.0
  0
INSERT
  5
1182
330
117B
100
AcDbEntity
  8
DIM
 62
     0
370
    -2
100
AcDbBlockReference
  2
_DOT
 10
105.2412132312268
 20
464.3682973846032
 30
0.0
 41
3.0
 42
3.0
 43
3.0
 50
90.0
  0
INSERT
  5
1183
330
117B
100
AcDbEntity
  8
DIM
 62
     0
370
    -2
100
AcDbBlockReference
  2
_DOT
 10
105.2412132312268
 20
447.794961031212
 30
0.0
 41
3.0
 42
3.0
 43
3.0
 50
270.0
  0
MTEXT
  5
1184
330
117B
100
AcDbEntity
  8
DIM
 62
     0
 48
0.05
100
AcDbMText
 10
89.24121323122682
 20
400.7331003564709
 30
0.0
 40
12.0
 41
0.0
 46
0.0
 71
     5
 72
     1
  1
\A1;MAX 45
  7
ＭＳ ゴシック
 11
0.0
 21
1.0
 31
0.0
 73
     1
 44
1.0
  0
POINT
  5
1185
330
117B
100
AcDbEntity
  8
Defpoints
 62
     0
100
AcDbPoint
 10
128.1284434798374
 20
464.3682973846032
 30
0.0
  0
POINT
  5
1186
330
117B
100
AcDbEntity
  8
Defpoints
 62
     0
100
AcDbPoint
 10
128.1284434798374
 20
447.794961031212
 30
0.0
  0
POINT
  5
118A
330
117B
100
AcDbEntity
  8
Defpoints
 62
     0
100
AcDbPoint
 10
105.2412132312268
 20
447.794961031212
 30
0.0
  0
ENDBLK
  5
117D
330
117B
100
AcDbEntity
  8
0
100
AcDbBlockEnd
  0
BLOCK
  5
11E7
330
11E6
100
AcDbEntity
  8
0
100
AcDbBlockBegin
  2
*D30
 70
     1
 10
0.0
 20
0.0
 30
0.0
  3
*D30
  1
*D32
  0
LINE
  5
11E8
330
11E6
100
AcDbEntity
  8
DIM
 62
     0
 48
0.05
370
    -2
100
AcDbLine
 10
3.080666764420698
 20
54.53124864930226
 30
0.0
 11
3.080666764420698
 21
24.13
 31
0.0
  0
LINE
  5
11E9
330
11E6
100
AcDbEntity
  8
DIM
 62
     0
 48
0.05
370
    -2
100
AcDbLine
 10
50.04333323557933
 20
54.53124864930226
 30
0.0
 11
50.04333323557933
 21
24.13
 31
0.0
  0
LINE
  5
11EA
330
11E6
100
AcDbEntity
  8
DIM
 62
     0
 48
0.05
370
    -2
100
AcDbLine
 10
6.080666764420698
 20
24.13
 30
0.0
 11
47.04333323557933
 21
24.13
 31
0.0
  0
INSERT
  5
11EB
330
11E6
100
AcDbEntity
  8
DIM
 62
     0
370
    -2
100
AcDbBlockReference
  2
_DOT
 10
3.080666764420698
 20
24.13
 30
0.0
 41
3.0
 42
3.0
 43
3.0
 50
180.0
  0
INSERT
  5
11EC
330
11E6
100
AcDbEntity
  8
DIM
 62
     0
370
    -2
100
AcDbBlockReference
  2
_DOT
 10
50.04333323557933
 20
24.13
 30
0.0
 41
3.0
 42
3.0
 43
3.0
  0
MTEXT
  5
11ED
330
11E6
100
AcDbEntity
  8
DIM
 62
     0
 48
0.05
100
AcDbMText
 10
26.56200000000001
 20
6.851999999999997
 30
0.0
 40
12.0
 41
0.0
 46
0.0
 71
     5
 72
     1
  1
\A1;G1 1/4"
  7
ＭＳ ゴシック
 73
     1
 44
1.0
  0
POINT
  5
11EE
330
11E6
100
AcDbEntity
  8
Defpoints
 62
     0
100
AcDbPoint
 10
3.080666764420698
 20
59.53124864930226
 30
0.0
  0
POINT
  5
11EF
330
11E6
100
AcDbEntity
  8
Defpoints
 62
     0
100
AcDbPoint
 10
50.04333323557933
 20
59.53124864930226
 30
0.0
  0
POINT
  5
11F0
330
11E6
100
AcDbEntity
  8
Defpoints
 62
     0
100
AcDbPoint
 10
50.04333323557933
 20
24.13
 30
0.0
  0
ENDBLK
  5
11F1
330
11E6
100
AcDbEntity
  8
0
100
AcDbBlockEnd
  0
BLOCK
  5
120D
330
120C
100
AcDbEntity
  8
0
100
AcDbBlockBegin
  2
*D31
 70
     1
 10
0.0
 20
0.0
 30
0.0
  3
*D31
  1
*D33
  0
LINE
  5
120F
330
120C
100
AcDbEntity
  8
DIM
 62
     0
 48
0.05
370
    -2
100
AcDbLine
 10
-218.7841127460252
 20
384.0094519463523
 30
0.0
 11
-218.7841127460252
 21
357.4939131557725
 31
0.0
  0
LINE
  5
1210
330
120C
100
AcDbEntity
  8
DIM
 62
     0
 48
0.05
370
    -2
100
AcDbLine
 10
-182.0634782286732
 20
384.0094519463523
 30
0.0
 11
-182.0634782286732
 21
357.4939131557725
 31
0.0
  0
LINE
  5
1211
330
120C
100
AcDbEntity
  8
DIM
 62
     0
 48
0.05
370
    -2
100
AcDbLine
 10
-215.7841127460252
 20
357.4939131557725
 30
0.0
 11
-185.0634782286732
 21
357.4939131557725
 31
0.0
  0
INSERT
  5
1212
330
120C
100
AcDbEntity
  8
DIM
 62
     0
370
    -2
100
AcDbBlockReference
  2
_DOT
 10
-218.7841127460252
 20
357.4939131557725
 30
0.0
 41
3.0
 42
3.0
 43
3.0
 50
180.0
  0
INSERT
  5
1213
330
120C
100
AcDbEntity
  8
DIM
 62
     0
370
    -2
100
AcDbBlockReference
  2
_DOT
 10
-182.0634782286732
 20
357.4939131557725
 30
0.0
 41
3.0
 42
3.0
 43
3.0
  0
MTEXT
  5
1214
330
120C
100
AcDbEntity
  8
DIM
 62
     0
 48
0.05
100
AcDbMText
 10
-200.4237954873492
 20
340.2159131557725
 30
0.0
 40
12.0
 41
0.0
 46
0.0
 71
     5
 72
     1
  1
\A1;G1 1/4"
  7
ＭＳ ゴシック
 73
     1
 44
1.0
  0
POINT
  5
1215
330
120C
100
AcDbEntity
  8
Defpoints
 62
     0
100
AcDbPoint
 10
-218.7841127460252
 20
389.0094519463523
 30
0.0
  0
POINT
  5
1216
330
120C
100
AcDbEntity
  8
Defpoints
 62
     0
100
AcDbPoint
 10
-182.0634782286732
 20
389.0094519463523
 30
0.0
  0
POINT
  5
1217
330
120C
100
AcDbEntity
  8
Defpoints
 62
     0
100
AcDbPoint
 10
-182.0634782286732
 20
357.4939131557725
 30
0.0
  0
ENDBLK
  5
120E
330
120C
100
AcDbEntity
  8
0
100
AcDbBlockEnd
  0
BLOCK
  5
1229
330
1228
100
AcDbEntity
  8
0
100
AcDbBlockBegin
  2
*D32
 70
     1
 10
0.0
 20
0.0
 30
0.0
  3
*D32
  1
*D34
  0
LINE
  5
122B
330
1228
100
AcDbEntity
  8
DIM
 62
     0
 48
0.05
370
    -2
100
AcDbLine
 10
755.8895377877972
 20
466.5085970282592
 30
0.0
 11
755.8895377877972
 21
436.1073483789569
 31
0.0
  0
LINE
  5
122C
330
1228
100
AcDbEntity
  8
DIM
 62
     0
 48
0.05
370
    -2
100
AcDbLine
 10
802.8522042589558
 20
466.5085970282592
 30
0.0
 11
802.8522042589558
 21
436.1073483789569
 31
0.0
  0
LINE
  5
122D
330
1228
100
AcDbEntity
  8
DIM
 62
     0
 48
0.05
370
    -2
100
AcDbLine
 10
758.8895377877972
 20
436.1073483789569
 30
0.0
 11
799.8522042589558
 21
436.1073483789569
 31
0.0
  0
INSERT
  5
122E
330
1228
100
AcDbEntity
  8
DIM
 62
     0
370
    -2
100
AcDbBlockReference
  2
_DOT
 10
755.8895377877972
 20
436.1073483789569
 30
0.0
 41
3.0
 42
3.0
 43
3.0
 50
180.0
  0
INSERT
  5
122F
330
1228
100
AcDbEntity
  8
DIM
 62
     0
370
    -2
100
AcDbBlockReference
  2
_DOT
 10
802.8522042589558
 20
436.1073483789569
 30
0.0
 41
3.0
 42
3.0
 43
3.0
  0
MTEXT
  5
1230
330
1228
100
AcDbEntity
  8
DIM
 62
     0
 48
0.05
100
AcDbMText
 10
779.3708710233765
 20
418.8293483789569
 30
0.0
 40
12.0
 41
0.0
 46
0.0
 71
     5
 72
     1
  1
\A1;G1 1/4"
  7
ＭＳ ゴシック
 73
     1
 44
1.0
  0
POINT
  5
1231
330
1228
100
AcDbEntity
  8
Defpoints
 62
     0
100
AcDbPoint
 10
755.8895377877972
 20
471.5085970282592
 30
0.0
  0
POINT
  5
1232
330
1228
100
AcDbEntity
  8
Defpoints
 62
     0
100
AcDbPoint
 10
802.8522042589558
 20
471.5085970282592
 30
0.0
  0
POINT
  5
1233
330
1228
100
AcDbEntity
  8
Defpoints
 62
     0
100
AcDbPoint
 10
802.8522042589558
 20
436.1073483789569
 30
0.0
  0
ENDBLK
  5
122A
330
1228
100
AcDbEntity
  8
0
100
AcDbBlockEnd
  0
BLOCK
  5
134A
330
1349
100
AcDbEntity
  8
0
100
AcDbBlockBegin
  2
*D33
 70
     1
 10
0.0
 20
0.0
 30
0.0
  3
*D33
  1
*D34
  0
LINE
  5
134C
330
1349
100
AcDbEntity
  8
DIM
 62
     0
 48
0.05
370
    -2
100
AcDbLine
 10
492.9579076222051
 20
554.3682973846032
 30
0.0
 11
562.1791943975213
 21
554.3682973846032
 31
0.0
  0
LINE
  5
134D
330
1349
100
AcDbEntity
  8
DIM
 62
     0
 48
0.05
370
    -2
100
AcDbLine
 10
268.9718838211948
 20
444.3682973846032
 30
0.0
 11
562.1791943975213
 21
444.3682973846032
 31
0.0
  0
LINE
  5
134E
330
1349
100
AcDbEntity
  8
DIM
 62
     0
 48
0.05
370
    -2
100
AcDbLine
 10
562.1791943975213
 20
551.3682973846032
 30
0.0
 11
562.1791943975213
 21
447.3682973846032
 31
0.0
  0
INSERT
  5
134F
330
1349
100
AcDbEntity
  8
DIM
 62
     0
370
    -2
100
AcDbBlockReference
  2
_DOT
 10
562.1791943975213
 20
554.3682973846032
 30
0.0
 41
3.0
 42
3.0
 43
3.0
 50
90.0
  0
INSERT
  5
1350
330
1349
100
AcDbEntity
  8
DIM
 62
     0
370
    -2
100
AcDbBlockReference
  2
_DOT
 10
562.1791943975213
 20
444.3682973846032
 30
0.0
 41
3.0
 42
3.0
 43
3.0
 50
270.0
  0
MTEXT
  5
1351
330
1349
100
AcDbEntity
  8
DIM
 62
     0
 48
0.05
100
AcDbMText
 10
546.1791943975213
 20
499.3682973846032
 30
0.0
 40
12.0
 41
0.0
 46
0.0
 71
     5
 72
     1
  1
\A1;110
  7
ＭＳ ゴシック
 11
0.0
 21
1.0
 31
0.0
 73
     1
 44
1.0
  0
POINT
  5
1352
330
1349
100
AcDbEntity
  8
Defpoints
 62
     0
100
AcDbPoint
 10
487.9579076222051
 20
554.3682973846032
 30
0.0
  0
POINT
  5
1353
330
1349
100
AcDbEntity
  8
Defpoints
 62
     0
100
AcDbPoint
 10
263.9718838211948
 20
444.3682973846032
 30
0.0
  0
POINT
  5
1354
330
1349
100
AcDbEntity
  8
Defpoints
 62
     0
100
AcDbPoint
 10
562.1791943975213
 20
444.3682973846032
 30
0.0
  0
ENDBLK
  5
134B
330
1349
100
AcDbEntity
  8
0
100
AcDbBlockEnd
  0
BLOCK
  5
135C
330
135B
100
AcDbEntity
  8
0
100
AcDbBlockBegin
  2
*D34
 70
     1
 10
0.0
 20
0.0
 30
0.0
  3
*D34
  1
*D35
  0
LINE
  5
135E
330
135B
100
AcDbEntity
  8
DIM
 62
     0
 48
0.05
370
    -2
100
AcDbLine
 10
266.3115215800733
 20
409.2681007626789
 30
0.0
 11
295.0775920323202
 21
409.2681007626789
 31
0.0
  0
LINE
  5
135F
330
135B
100
AcDbEntity
  8
DIM
 62
     0
 48
0.05
370
    -2
100
AcDbLine
 10
271.4325375569766
 20
425.2444473041353
 30
0.0
 11
295.0775920323202
 21
425.2444473041353
 31
0.0
  0
LINE
  5
1360
330
135B
100
AcDbEntity
  8
DIM
 62
     0
 48
0.05
370
    -2
100
AcDbLine
 10
295.0775920323202
 20
406.2681007626789
 30
0.0
 11
295.0775920323202
 21
403.2681007626789
 31
0.0
  0
LINE
  5
1361
330
135B
100
AcDbEntity
  8
DIM
 62
     0
 48
0.05
370
    -2
100
AcDbLine
 10
295.0775920323202
 20
428.2444473041353
 30
0.0
 11
295.0775920323202
 21
431.2444473041353
 31
0.0
  0
INSERT
  5
1362
330
135B
100
AcDbEntity
  8
DIM
 62
     0
370
    -2
100
AcDbBlockReference
  2
_DOT
 10
295.0775920323202
 20
409.2681007626789
 30
0.0
 41
3.0
 42
3.0
 43
3.0
 50
90.0
  0
INSERT
  5
1363
330
135B
100
AcDbEntity
  8
DIM
 62
     0
370
    -2
100
AcDbBlockReference
  2
_DOT
 10
295.0775920323202
 20
425.2444473041353
 30
0.0
 41
3.0
 42
3.0
 43
3.0
 50
270.0
  0
MTEXT
  5
1364
330
135B
100
AcDbEntity
  8
DIM
 62
     0
 48
0.05
100
AcDbMText
 10
279.0775920323202
 20
417.2562740334071
 30
0.0
 40
12.0
 41
0.0
 46
0.0
 71
     5
 72
     1
  1
\A1;16
  7
ＭＳ ゴシック
 11
0.0
 21
1.0
 31
0.0
 73
     1
 44
1.0
  0
POINT
  5
1365
330
135B
100
AcDbEntity
  8
Defpoints
 62
     0
100
AcDbPoint
 10
261.3115215800733
 20
409.2681007626789
 30
0.0
  0
POINT
  5
1366
330
135B
100
AcDbEntity
  8
Defpoints
 62
     0
100
AcDbPoint
 10
266.4325375569766
 20
425.2444473041353
 30
0.0
  0
POINT
  5
1367
330
135B
100
AcDbEntity
  8
Defpoints
 62
     0
100
AcDbPoint
 10
295.0775920323202
 20
425.2444473041353
 30
0.0
  0
ENDBLK
  5
135D
330
135B
100
AcDbEntity
  8
0
100
AcDbBlockEnd
  0
BLOCK
  5
136A
330
1369
100
AcDbEntity
  8
0
100
AcDbBlockBegin
  2
*D35
 70
     1
 10
0.0
 20
0.0
 30
0.0
  3
*D35
  1
*D36
  0
LINE
  5
136C
330
1369
100
AcDbEntity
  8
DIM
 62
     0
 48
0.05
370
    -2
100
AcDbLine
 10
-223.7841127460252
 20
389.0094519463523
 30
0.0
 11
-251.2302364004326
 21
389.0094519463523
 31
0.0
  0
LINE
  5
136D
330
1369
100
AcDbEntity
  8
DIM
 62
     0
 48
0.05
370
    -2
100
AcDbLine
 10
-228.7841127460252
 20
409.0094519463523
 30
0.0
 11
-251.2302364004326
 21
409.0094519463523
 31
0.0
  0
LINE
  5
136E
330
1369
100
AcDbEntity
  8
DIM
 62
     0
 48
0.05
370
    -2
100
AcDbLine
 10
-251.2302364004326
 20
392.0094519463523
 30
0.0
 11
-251.2302364004326
 21
406.0094519463523
 31
0.0
  0
INSERT
  5
136F
330
1369
100
AcDbEntity
  8
DIM
 62
     0
370
    -2
100
AcDbBlockReference
  2
_DOT
 10
-251.2302364004326
 20
389.0094519463523
 30
0.0
 41
3.0
 42
3.0
 43
3.0
 50
270.0
  0
INSERT
  5
1370
330
1369
100
AcDbEntity
  8
DIM
 62
     0
370
    -2
100
AcDbBlockReference
  2
_DOT
 10
-251.2302364004326
 20
409.0094519463523
 30
0.0
 41
3.0
 42
3.0
 43
3.0
 50
90.0
  0
MTEXT
  5
1371
330
1369
100
AcDbEntity
  8
DIM
 62
     0
 48
0.05
100
AcDbMText
 10
-267.2302364004325
 20
399.0094519463523
 30
0.0
 40
12.0
 41
0.0
 46
0.0
 71
     5
 72
     1
  1
\A1;20
  7
ＭＳ ゴシック
 11
0.0
 21
1.0
 31
0.0
 73
     1
 44
1.0
  0
POINT
  5
1372
330
1369
100
AcDbEntity
  8
Defpoints
 62
     0
100
AcDbPoint
 10
-218.7841127460252
 20
389.0094519463523
 30
0.0
  0
POINT
  5
1373
330
1369
100
AcDbEntity
  8
Defpoints
 62
     0
100
AcDbPoint
 10
-223.7841127460252
 20
409.0094519463523
 30
0.0
  0
POINT
  5
1374
330
1369
100
AcDbEntity
  8
Defpoints
 62
     0
100
AcDbPoint
 10
-251.2302364004326
 20
409.0094519463523
 30
0.0
  0
ENDBLK
  5
136B
330
1369
100
AcDbEntity
  8
0
100
AcDbBlockEnd
  0
BLOCK
  5
1395
330
1394
100
AcDbEntity
  8
0
100
AcDbBlockBegin
  2
*D36
 70
     1
 10
0.0
 20
0.0
 30
0.0
  3
*D36
  1
*D37
  0
LINE
  5
1397
330
1394
100
AcDbEntity
  8
DIM
 62
     0
 48
0.05
370
    -2
100
AcDbLine
 10
221.9512043213973
 20
439.3682973846032
 30
0.0
 11
221.9512043213973
 21
412.8527585940233
 31
0.0
  0
LINE
  5
1398
330
1394
100
AcDbEntity
  8
DIM
 62
     0
 48
0.05
370
    -2
100
AcDbLine
 10
263.9512043213973
 20
439.3682973846032
 30
0.0
 11
263.9512043213973
 21
412.8527585940233
 31
0.0
  0
LINE
  5
1399
330
1394
100
AcDbEntity
  8
DIM
 62
     0
 48
0.05
370
    -2
100
AcDbLine
 10
224.9512043213973
 20
412.8527585940233
 30
0.0
 11
260.9512043213973
 21
412.8527585940233
 31
0.0
  0
INSERT
  5
139A
330
1394
100
AcDbEntity
  8
DIM
 62
     0
370
    -2
100
AcDbBlockReference
  2
_DOT
 10
221.9512043213973
 20
412.8527585940233
 30
0.0
 41
3.0
 42
3.0
 43
3.0
 50
180.0
  0
INSERT
  5
139B
330
1394
100
AcDbEntity
  8
DIM
 62
     0
370
    -2
100
AcDbBlockReference
  2
_DOT
 10
263.9512043213973
 20
412.8527585940233
 30
0.0
 41
3.0
 42
3.0
 43
3.0
  0
MTEXT
  5
139C
330
1394
100
AcDbEntity
  8
DIM
 62
     0
 48
0.05
100
AcDbMText
 10
242.9512043213973
 20
395.5747585940233
 30
0.0
 40
12.0
 41
0.0
 46
0.0
 71
     5
 72
     1
  1
\A1;G1 1/4"
  7
ＭＳ ゴシック
 73
     1
 44
1.0
  0
POINT
  5
139D
330
1394
100
AcDbEntity
  8
Defpoints
 62
     0
100
AcDbPoint
 10
221.9512043213973
 20
444.3682973846032
 30
0.0
  0
POINT
  5
139E
330
1394
100
AcDbEntity
  8
Defpoints
 62
     0
100
AcDbPoint
 10
263.9512043213973
 20
444.3682973846032
 30
0.0
  0
POINT
  5
139F
330
1394
100
AcDbEntity
  8
Defpoints
 62
     0
100
AcDbPoint
 10
263.9512043213973
 20
412.8527585940233
 30
0.0
  0
ENDBLK
  5
1396
330
1394
100
AcDbEntity
  8
0
100
AcDbBlockEnd
  0
BLOCK
  5
13A1
330
13A0
100
AcDbEntity
  8
0
100
AcDbBlockBegin
  2
*D37
 70
     1
 10
0.0
 20
0.0
 30
0.0
  3
*D37
  1
*D38
  0
LINE
  5
13A3
330
13A0
100
AcDbEntity
  8
DIM
 62
     0
 48
0.05
370
    -2
100
AcDbLine
 10
216.9512043213973
 20
444.3682973846032
 30
0.0
 11
203.7984656414008
 21
444.3682973846032
 31
0.0
  0
LINE
  5
13A4
330
13A0
100
AcDbEntity
  8
DIM
 62
     0
 48
0.05
370
    -2
100
AcDbLine
 10
208.7798533337033
 20
464.3682973846032
 30
0.0
 11
203.7984656414008
 21
464.3682973846032
 31
0.0
  0
LINE
  5
13A5
330
13A0
100
AcDbEntity
  8
DIM
 62
     0
 48
0.05
370
    -2
100
AcDbLine
 10
203.7984656414008
 20
444.3682973846032
 30
0.0
 11
203.7984656414008
 21
404.1122973846032
 31
0.0
  0
LINE
  5
13A6
330
13A0
100
AcDbEntity
  8
DIM
 62
     0
 48
0.05
370
    -2
100
AcDbLine
 10
203.7984656414008
 20
447.3682973846032
 30
0.0
 11
203.7984656414008
 21
461.3682973846032
 31
0.0
  0
INSERT
  5
13A7
330
13A0
100
AcDbEntity
  8
DIM
 62
     0
370
    -2
100
AcDbBlockReference
  2
_DOT
 10
203.7984656414008
 20
444.3682973846032
 30
0.0
 41
3.0
 42
3.0
 43
3.0
 50
270.0
  0
INSERT
  5
13A8
330
13A0
100
AcDbEntity
  8
DIM
 62
     0
370
    -2
100
AcDbBlockReference
  2
_DOT
 10
203.7984656414008
 20
464.3682973846032
 30
0.0
 41
3.0
 42
3.0
 43
3.0
 50
90.0
  0
MTEXT
  5
13A9
330
13A0
100
AcDbEntity
  8
DIM
 62
     0
 48
0.05
100
AcDbMText
 10
187.7984656414008
 20
421.2402973846032
 30
0.0
 40
12.0
 41
0.0
 46
0.0
 71
     5
 72
     1
  1
\A1;20
  7
ＭＳ ゴシック
 11
0.0
 21
1.0
 31
0.0
 73
     1
 44
1.0
  0
POINT
  5
13AA
330
13A0
100
AcDbEntity
  8
Defpoints
 62
     0
100
AcDbPoint
 10
221.9512043213973
 20
444.3682973846032
 30
0.0
  0
POINT
  5
13AB
330
13A0
100
AcDbEntity
  8
Defpoints
 62
     0
100
AcDbPoint
 10
213.7798533337033
 20
464.3682973846032
 30
0.0
  0
POINT
  5
13AE
330
13A0
100
AcDbEntity
  8
Defpoints
 62
     0
100
AcDbPoint
 10
203.7984656414008
 20
464.3682973846032
 30
0.0
  0
ENDBLK
  5
13A2
330
13A0
100
AcDbEntity
  8
0
100
AcDbBlockEnd
  0
BLOCK
  5
13CE
330
13CD
100
AcDbEntity
  8
0
100
AcDbBlockBegin
  2
*D38
 70
     1
 10
0.0
 20
0.0
 30
0.0
  3
*D38
  1
*D39
  0
LINE
  5
13D0
330
13CD
100
AcDbEntity
  8
DIM
 62
     0
 48
0.05
370
    -2
100
AcDbLine
 10
224.5908870627213
 20
439.3682973846032
 30
0.0
 11
224.5908870627213
 21
431.6878675674799
 31
0.0
  0
LINE
  5
13D1
330
13CD
100
AcDbEntity
  8
DIM
 62
     0
 48
0.05
370
    -2
100
AcDbLine
 10
261.3115215800733
 20
439.3682973846032
 30
0.0
 11
261.3115215800733
 21
431.6878675674799
 31
0.0
  0
LINE
  5
13D2
330
13CD
100
AcDbEntity
  8
DIM
 62
     0
 48
0.05
370
    -2
100
AcDbLine
 10
227.5908870627213
 20
431.6878675674799
 30
0.0
 11
258.3115215800733
 21
431.6878675674799
 31
0.0
  0
INSERT
  5
13D3
330
13CD
100
AcDbEntity
  8
DIM
 62
     0
370
    -2
100
AcDbBlockReference
  2
_DOT
 10
224.5908870627213
 20
431.6878675674799
 30
0.0
 41
3.0
 42
3.0
 43
3.0
 50
180.0
  0
INSERT
  5
13D4
330
13CD
100
AcDbEntity
  8
DIM
 62
     0
370
    -2
100
AcDbBlockReference
  2
_DOT
 10
261.3115215800733
 20
431.6878675674799
 30
0.0
 41
3.0
 42
3.0
 43
3.0
  0
MTEXT
  5
13D5
330
13CD
100
AcDbEntity
  8
DIM
 62
     0
 48
0.05
100
AcDbMText
 10
242.9512043213973
 20
447.6878675674799
 30
0.0
 40
12.0
 41
0.0
 46
0.0
 71
     5
 72
     1
  1
\A1;37
  7
ＭＳ ゴシック
 73
     1
 44
1.0
  0
POINT
  5
13D6
330
13CD
100
AcDbEntity
  8
Defpoints
 62
     0
100
AcDbPoint
 10
224.5908870627213
 20
444.3682973846032
 30
0.0
  0
POINT
  5
13D7
330
13CD
100
AcDbEntity
  8
Defpoints
 62
     0
100
AcDbPoint
 10
261.3115215800733
 20
444.3682973846032
 30
0.0
  0
POINT
  5
13D8
330
13CD
100
AcDbEntity
  8
Defpoints
 62
     0
100
AcDbPoint
 10
261.3115215800733
 20
431.6878675674799
 30
0.0
  0
ENDBLK
  5
13CF
330
13CD
100
AcDbEntity
  8
0
100
AcDbBlockEnd
  0
BLOCK
  5
1435
330
1434
100
AcDbEntity
  8
0
100
AcDbBlockBegin
  2
*D39
 70
     1
 10
0.0
 20
0.0
 30
0.0
  3
*D39
  1
*D41
  0
LINE
  5
1436
330
1434
100
AcDbEntity
  8
DIM
 62
     0
 48
0.05
370
    -2
100
AcDbLine
 10
407.9875051606225
 20
165.6455387905799
 30
0.0
 11
477.2087919359387
 21
165.6455387905799
 31
0.0
  0
LINE
  5
1437
330
1434
100
AcDbEntity
  8
DIM
 62
     0
 48
0.05
370
    -2
100
AcDbLine
 10
184.0014813596122
 20
55.64553879057991
 30
0.0
 11
477.2087919359387
 21
55.64553879057988
 31
0.0
  0
LINE
  5
1438
330
1434
100
AcDbEntity
  8
DIM
 62
     0
 48
0.05
370
    -2
100
AcDbLine
 10
477.2087919359387
 20
162.6455387905799
 30
0.0
 11
477.2087919359387
 21
58.64553879057988
 31
0.0
  0
INSERT
  5
1439
330
1434
100
AcDbEntity
  8
DIM
 62
     0
370
    -2
100
AcDbBlockReference
  2
_DOT
 10
477.2087919359387
 20
165.6455387905799
 30
0.0
 41
3.0
 42
3.0
 43
3.0
 50
90.0
  0
INSERT
  5
143A
330
1434
100
AcDbEntity
  8
DIM
 62
     0
370
    -2
100
AcDbBlockReference
  2
_DOT
 10
477.2087919359387
 20
55.64553879057988
 30
0.0
 41
3.0
 42
3.0
 43
3.0
 50
270.0
  0
MTEXT
  5
143B
330
1434
100
AcDbEntity
  8
DIM
 62
     0
 48
0.05
100
AcDbMText
 10
461.2087919359387
 20
110.6455387905799
 30
0.0
 40
12.0
 41
0.0
 46
0.0
 71
     5
 72
     1
  1
\A1;110
  7
ＭＳ ゴシック
 11
0.0
 21
1.0
 31
0.0
 73
     1
 44
1.0
  0
POINT
  5
143C
330
1434
100
AcDbEntity
  8
Defpoints
 62
     0
100
AcDbPoint
 10
402.9875051606225
 20
165.6455387905799
 30
0.0
  0
POINT
  5
143D
330
1434
100
AcDbEntity
  8
Defpoints
 62
     0
100
AcDbPoint
 10
179.0014813596122
 20
55.64553879057991
 30
0.0
  0
POINT
  5
143E
330
1434
100
AcDbEntity
  8
Defpoints
 62
     0
100
AcDbPoint
 10
477.2087919359387
 20
55.64553879057988
 30
0.0
  0
ENDBLK
  5
143F
330
1434
100
AcDbEntity
  8
0
100
AcDbBlockEnd
  0
BLOCK
  5
1443
330
1442
100
AcDbEntity
  8
0
100
AcDbBlockBegin
  2
*D40
 70
     1
 10
0.0
 20
0.0
 30
0.0
  3
*D40
  1
*D42
  0
LINE
  5
1444
330
1442
100
AcDbEntity
  8
DIM
 62
     0
 48
0.05
370
    -2
100
AcDbLine
 10
136.9808018598147
 20
50.64553879057985
 30
0.0
 11
136.9808018598147
 21
24.13
 31
0.0
  0
LINE
  5
1445
330
1442
100
AcDbEntity
  8
DIM
 62
     0
 48
0.05
370
    -2
100
AcDbLine
 10
178.9808018598147
 20
50.64553879057985
 30
0.0
 11
178.9808018598147
 21
24.13
 31
0.0
  0
LINE
  5
1446
330
1442
100
AcDbEntity
  8
DIM
 62
     0
 48
0.05
370
    -2
100
AcDbLine
 10
139.9808018598147
 20
24.13
 30
0.0
 11
175.9808018598147
 21
24.13
 31
0.0
  0
INSERT
  5
1447
330
1442
100
AcDbEntity
  8
DIM
 62
     0
370
    -2
100
AcDbBlockReference
  2
_DOT
 10
136.9808018598147
 20
24.13
 30
0.0
 41
3.0
 42
3.0
 43
3.0
 50
180.0
  0
INSERT
  5
1448
330
1442
100
AcDbEntity
  8
DIM
 62
     0
370
    -2
100
AcDbBlockReference
  2
_DOT
 10
178.9808018598147
 20
24.13
 30
0.0
 41
3.0
 42
3.0
 43
3.0
  0
MTEXT
  5
1449
330
1442
100
AcDbEntity
  8
DIM
 62
     0
 48
0.05
100
AcDbMText
 10
157.9808018598147
 20
6.851999999999997
 30
0.0
 40
12.0
 41
0.0
 46
0.0
 71
     5
 72
     1
  1
\A1;G1 1/4"
  7
ＭＳ ゴシック
 73
     1
 44
1.0
  0
POINT
  5
144A
330
1442
100
AcDbEntity
  8
Defpoints
 62
     0
100
AcDbPoint
 10
136.9808018598147
 20
55.64553879057985
 30
0.0
  0
POINT
  5
144B
330
1442
100
AcDbEntity
  8
Defpoints
 62
     0
100
AcDbPoint
 10
178.9808018598147
 20
55.64553879057985
 30
0.0
  0
POINT
  5
144C
330
1442
100
AcDbEntity
  8
Defpoints
 62
     0
100
AcDbPoint
 10
178.9808018598147
 20
24.13
 30
0.0
  0
ENDBLK
  5
144D
330
1442
100
AcDbEntity
  8
0
100
AcDbBlockEnd
  0
BLOCK
  5
1455
330
1454
100
AcDbEntity
  8
0
100
AcDbBlockBegin
  2
*D41
 70
     1
 10
0.0
 20
0.0
 30
0.0
  3
*D41
  1
*D43
  0
LINE
  5
1456
330
1454
100
AcDbEntity
  8
DIM
 62
     0
 48
0.05
370
    -2
100
AcDbLine
 10
131.9808018598147
 20
55.64553879057985
 30
0.0
 11
118.8280631798182
 21
55.64553879057985
 31
0.0
  0
LINE
  5
1457
330
1454
100
AcDbEntity
  8
DIM
 62
     0
 48
0.05
370
    -2
100
AcDbLine
 10
123.8094508721207
 20
75.64553879057985
 30
0.0
 11
118.8280631798182
 21
75.64553879057985
 31
0.0
  0
LINE
  5
1458
330
1454
100
AcDbEntity
  8
DIM
 62
     0
 48
0.05
370
    -2
100
AcDbLine
 10
118.8280631798182
 20
55.64553879057985
 30
0.0
 11
118.8280631798182
 21
15.38953879057986
 31
0.0
  0
LINE
  5
1459
330
1454
100
AcDbEntity
  8
DIM
 62
     0
 48
0.05
370
    -2
100
AcDbLine
 10
118.8280631798182
 20
58.64553879057985
 30
0.0
 11
118.8280631798182
 21
72.64553879057985
 31
0.0
  0
INSERT
  5
145A
330
1454
100
AcDbEntity
  8
DIM
 62
     0
370
    -2
100
AcDbBlockReference
  2
_DOT
 10
118.8280631798182
 20
55.64553879057985
 30
0.0
 41
3.0
 42
3.0
 43
3.0
 50
270.0
  0
INSERT
  5
145B
330
1454
100
AcDbEntity
  8
DIM
 62
     0
370
    -2
100
AcDbBlockReference
  2
_DOT
 10
118.8280631798182
 20
75.64553879057985
 30
0.0
 41
3.0
 42
3.0
 43
3.0
 50
90.0
  0
MTEXT
  5
145C
330
1454
100
AcDbEntity
  8
DIM
 62
     0
 48
0.05
100
AcDbMText
 10
102.8280631798182
 20
32.51753879057986
 30
0.0
 40
12.0
 41
0.0
 46
0.0
 71
     5
 72
     1
  1
\A1;20
  7
ＭＳ ゴシック
 11
0.0
 21
1.0
 31
0.0
 73
     1
 44
1.0
  0
POINT
  5
145D
330
1454
100
AcDbEntity
  8
Defpoints
 62
     0
100
AcDbPoint
 10
136.9808018598147
 20
55.64553879057985
 30
0.0
  0
POINT
  5
145E
330
1454
100
AcDbEntity
  8
Defpoints
 62
     0
100
AcDbPoint
 10
128.8094508721207
 20
75.64553879057985
 30
0.0
  0
POINT
  5
145F
330
1454
100
AcDbEntity
  8
Defpoints
 62
     0
100
AcDbPoint
 10
118.8280631798182
 20
75.64553879057985
 30
0.0
  0
ENDBLK
  5
1460
330
1454
100
AcDbEntity
  8
0
100
AcDbBlockEnd
  0
BLOCK
  5
1479
330
1478
100
AcDbEntity
  8
0
100
AcDbBlockBegin
  2
*D42
 70
     1
 10
0.0
 20
0.0
 30
0.0
  3
*D42
  1
*D44
  0
LINE
  5
147B
330
1478
100
AcDbEntity
  8
DIM
 62
     0
 48
0.05
370
    -2
100
AcDbLine
 10
-187.5288290191498
 20
624.9779240021662
 30
0.0
 11
-118.3075422438336
 21
624.9779240021662
 31
0.0
  0
LINE
  5
147C
330
1478
100
AcDbEntity
  8
DIM
 62
     0
 48
0.05
370
    -2
100
AcDbLine
 10
-411.5148528201602
 20
514.9779240021662
 30
0.0
 11
-118.3075422438336
 21
514.9779240021662
 31
0.0
  0
LINE
  5
147D
330
1478
100
AcDbEntity
  8
DIM
 62
     0
 48
0.05
370
    -2
100
AcDbLine
 10
-118.3075422438336
 20
621.9779240021662
 30
0.0
 11
-118.3075422438336
 21
517.9779240021662
 31
0.0
  0
INSERT
  5
147E
330
1478
100
AcDbEntity
  8
DIM
 62
     0
370
    -2
100
AcDbBlockReference
  2
_DOT
 10
-118.3075422438336
 20
624.9779240021662
 30
0.0
 41
3.0
 42
3.0
 43
3.0
 50
90.0
  0
INSERT
  5
147F
330
1478
100
AcDbEntity
  8
DIM
 62
     0
370
    -2
100
AcDbBlockReference
  2
_DOT
 10
-118.3075422438336
 20
514.9779240021662
 30
0.0
 41
3.0
 42
3.0
 43
3.0
 50
270.0
  0
MTEXT
  5
1480
330
1478
100
AcDbEntity
  8
DIM
 62
     0
 48
0.05
100
AcDbMText
 10
-134.3075422438336
 20
569.9779240021662
 30
0.0
 40
12.0
 41
0.0
 46
0.0
 71
     5
 72
     1
  1
\A1;110
  7
ＭＳ ゴシック
 11
0.0
 21
1.0
 31
0.0
 73
     1
 44
1.0
  0
POINT
  5
1481
330
1478
100
AcDbEntity
  8
Defpoints
 62
     0
100
AcDbPoint
 10
-192.5288290191498
 20
624.9779240021662
 30
0.0
  0
POINT
  5
1482
330
1478
100
AcDbEntity
  8
Defpoints
 62
     0
100
AcDbPoint
 10
-416.5148528201602
 20
514.9779240021662
 30
0.0
  0
POINT
  5
1483
330
1478
100
AcDbEntity
  8
Defpoints
 62
     0
100
AcDbPoint
 10
-118.3075422438336
 20
514.9779240021662
 30
0.0
  0
ENDBLK
  5
147A
330
1478
100
AcDbEntity
  8
0
100
AcDbBlockEnd
  0
BLOCK
  5
1485
330
1484
100
AcDbEntity
  8
0
100
AcDbBlockBegin
  2
*D43
 70
     1
 10
0.0
 20
0.0
 30
0.0
  3
*D43
  1
*D45
  0
LINE
  5
1487
330
1484
100
AcDbEntity
  8
DIM
 62
     0
 48
0.05
370
    -2
100
AcDbLine
 10
-458.5355323199576
 20
509.9779240021662
 30
0.0
 11
-458.5355323199576
 21
483.4623852115864
 31
0.0
  0
LINE
  5
1488
330
1484
100
AcDbEntity
  8
DIM
 62
     0
 48
0.05
370
    -2
100
AcDbLine
 10
-416.5355323199576
 20
509.9779240021662
 30
0.0
 11
-416.5355323199576
 21
483.4623852115864
 31
0.0
  0
LINE
  5
1489
330
1484
100
AcDbEntity
  8
DIM
 62
     0
 48
0.05
370
    -2
100
AcDbLine
 10
-455.5355323199576
 20
483.4623852115864
 30
0.0
 11
-419.5355323199576
 21
483.4623852115864
 31
0.0
  0
INSERT
  5
148A
330
1484
100
AcDbEntity
  8
DIM
 62
     0
370
    -2
100
AcDbBlockReference
  2
_DOT
 10
-458.5355323199576
 20
483.4623852115864
 30
0.0
 41
3.0
 42
3.0
 43
3.0
 50
180.0
  0
INSERT
  5
148B
330
1484
100
AcDbEntity
  8
DIM
 62
     0
370
    -2
100
AcDbBlockReference
  2
_DOT
 10
-416.5355323199576
 20
483.4623852115864
 30
0.0
 41
3.0
 42
3.0
 43
3.0
  0
MTEXT
  5
148C
330
1484
100
AcDbEntity
  8
DIM
 62
     0
 48
0.05
100
AcDbMText
 10
-437.5355323199576
 20
466.1843852115863
 30
0.0
 40
12.0
 41
0.0
 46
0.0
 71
     5
 72
     1
  1
\A1;G1 1/4"
  7
ＭＳ ゴシック
 73
     1
 44
1.0
  0
POINT
  5
148D
330
1484
100
AcDbEntity
  8
Defpoints
 62
     0
100
AcDbPoint
 10
-458.5355323199576
 20
514.9779240021662
 30
0.0
  0
POINT
  5
148E
330
1484
100
AcDbEntity
  8
Defpoints
 62
     0
100
AcDbPoint
 10
-416.5355323199576
 20
514.9779240021662
 30
0.0
  0
POINT
  5
148F
330
1484
100
AcDbEntity
  8
Defpoints
 62
     0
100
AcDbPoint
 10
-416.5355323199576
 20
483.4623852115864
 30
0.0
  0
ENDBLK
  5
1486
330
1484
100
AcDbEntity
  8
0
100
AcDbBlockEnd
  0
BLOCK
  5
1491
330
1490
100
AcDbEntity
  8
0
100
AcDbBlockBegin
  2
*D44
 70
     1
 10
0.0
 20
0.0
 30
0.0
  3
*D44
  1
*D46
  0
LINE
  5
1493
330
1490
100
AcDbEntity
  8
DIM
 62
     0
 48
0.05
370
    -2
100
AcDbLine
 10
-463.5355323199576
 20
514.9779240021662
 30
0.0
 11
-483.3512152334803
 21
514.9779240021662
 31
0.0
  0
LINE
  5
1494
330
1490
100
AcDbEntity
  8
DIM
 62
     0
 48
0.05
370
    -2
100
AcDbLine
 10
-471.7068833076517
 20
534.9779240021662
 30
0.0
 11
-483.3512152334803
 21
534.9779240021662
 31
0.0
  0
LINE
  5
1495
330
1490
100
AcDbEntity
  8
DIM
 62
     0
 48
0.05
370
    -2
100
AcDbLine
 10
-483.3512152334803
 20
517.9779240021662
 30
0.0
 11
-483.3512152334803
 21
531.9779240021662
 31
0.0
  0
INSERT
  5
1496
330
1490
100
AcDbEntity
  8
DIM
 62
     0
370
    -2
100
AcDbBlockReference
  2
_DOT
 10
-483.3512152334803
 20
514.9779240021662
 30
0.0
 41
3.0
 42
3.0
 43
3.0
 50
270.0
  0
INSERT
  5
1497
330
1490
100
AcDbEntity
  8
DIM
 62
     0
370
    -2
100
AcDbBlockReference
  2
_DOT
 10
-483.3512152334803
 20
534.9779240021662
 30
0.0
 41
3.0
 42
3.0
 43
3.0
 50
90.0
  0
MTEXT
  5
1498
330
1490
100
AcDbEntity
  8
DIM
 62
     0
 48
0.05
100
AcDbMText
 10
-499.3512152334803
 20
524.9779240021662
 30
0.0
 40
12.0
 41
0.0
 46
0.0
 71
     5
 72
     1
  1
\A1;20
  7
ＭＳ ゴシック
 11
0.0
 21
1.0
 31
0.0
 73
     1
 44
1.0
  0
POINT
  5
1499
330
1490
100
AcDbEntity
  8
Defpoints
 62
     0
100
AcDbPoint
 10
-458.5355323199576
 20
514.9779240021662
 30
0.0
  0
POINT
  5
149A
330
1490
100
AcDbEntity
  8
Defpoints
 62
     0
100
AcDbPoint
 10
-466.7068833076517
 20
534.9779240021662
 30
0.0
  0
POINT
  5
149B
330
1490
100
AcDbEntity
  8
Defpoints
 62
     0
100
AcDbPoint
 10
-483.3512152334803
 20
534.9779240021662
 30
0.0
  0
ENDBLK
  5
1492
330
1490
100
AcDbEntity
  8
0
100
AcDbBlockEnd
  0
BLOCK
  5
1529
330
1528
100
AcDbEntity
  8
0
100
AcDbBlockBegin
  2
*D45
 70
     1
 10
0.0
 20
0.0
 30
0.0
  3
*D45
  1
*D48
  0
LINE
  5
152B
330
1528
100
AcDbEntity
  8
DIM
 62
     0
 48
0.05
370
    -2
100
AcDbLine
 10
432.0799096146493
 20
988.5775205731703
 30
0.0
 11
432.0799096146493
 21
840.8888845246312
 31
0.0
  0
LINE
  5
152C
330
1528
100
AcDbEntity
  8
DIM
 62
     0
 48
0.05
370
    -2
100
AcDbLine
 10
487.9579076222051
 20
994.0552688402806
 30
0.0
 11
487.9579076222051
 21
840.8888845246312
 31
0.0
  0
LINE
  5
152D
330
1528
100
AcDbEntity
  8
DIM
 62
     0
 48
0.05
370
    -2
100
AcDbLine
 10
435.0799096146493
 20
840.8888845246312
 30
0.0
 11
484.9579076222051
 21
840.8888845246312
 31
0.0
  0
INSERT
  5
152E
330
1528
100
AcDbEntity
  8
DIM
 62
     0
370
    -2
100
AcDbBlockReference
  2
_DOT
 10
432.0799096146493
 20
840.8888845246312
 30
0.0
 41
3.0
 42
3.0
 43
3.0
 50
180.0
  0
INSERT
  5
152F
330
1528
100
AcDbEntity
  8
DIM
 62
     0
370
    -2
100
AcDbBlockReference
  2
_DOT
 10
487.9579076222051
 20
840.8888845246312
 30
0.0
 41
3.0
 42
3.0
 43
3.0
  0
MTEXT
  5
1530
330
1528
100
AcDbEntity
  8
DIM
 62
     0
 48
0.05
100
AcDbMText
 10
460.0189086184272
 20
856.8888845246312
 30
0.0
 40
12.0
 41
0.0
 46
0.0
 71
     5
 72
     1
  1
\A1;50
  7
ＭＳ ゴシック
 73
     1
 44
1.0
  0
POINT
  5
1531
330
1528
100
AcDbEntity
  8
Defpoints
 62
     0
100
AcDbPoint
 10
432.0799096146493
 20
993.5775205731703
 30
0.0
  0
POINT
  5
1532
330
1528
100
AcDbEntity
  8
Defpoints
 62
     0
100
AcDbPoint
 10
487.9579076222051
 20
999.0552688402806
 30
0.0
  0
POINT
  5
1533
330
1528
100
AcDbEntity
  8
Defpoints
 62
     0
100
AcDbPoint
 10
487.9579076222051
 20
840.8888845246312
 30
0.0
  0
ENDBLK
  5
152A
330
1528
100
AcDbEntity
  8
0
100
AcDbBlockEnd
  0
BLOCK
  5
15AF
330
15AE
100
AcDbEntity
  8
0
100
AcDbBlockBegin
  2
*D46
 70
     1
 10
0.0
 20
0.0
 30
0.0
  3
*D46
  1
*D47
  0
LINE
  5
15B0
330
15AE
100
AcDbEntity
  8
DIM
 62
     0
 48
0.05
370
    -2
100
AcDbLine
 10
40.1527386799965
 20
50.64553879057985
 30
0.0
 11
40.1527386799965
 21
24.13
 31
0.0
  0
LINE
  5
15B1
330
15AE
100
AcDbEntity
  8
DIM
 62
     0
 48
0.05
370
    -2
100
AcDbLine
 10
82.1527386799965
 20
50.64553879057985
 30
0.0
 11
82.1527386799965
 21
24.13
 31
0.0
  0
LINE
  5
15B2
330
15AE
100
AcDbEntity
  8
DIM
 62
     0
 48
0.05
370
    -2
100
AcDbLine
 10
43.1527386799965
 20
24.13
 30
0.0
 11
79.1527386799965
 21
24.13
 31
0.0
  0
INSERT
  5
15B3
330
15AE
100
AcDbEntity
  8
DIM
 62
     0
370
    -2
100
AcDbBlockReference
  2
_DOT
 10
40.1527386799965
 20
24.13
 30
0.0
 41
3.0
 42
3.0
 43
3.0
 50
180.0
  0
INSERT
  5
15B4
330
15AE
100
AcDbEntity
  8
DIM
 62
     0
370
    -2
100
AcDbBlockReference
  2
_DOT
 10
82.1527386799965
 20
24.13
 30
0.0
 41
3.0
 42
3.0
 43
3.0
  0
MTEXT
  5
15B5
330
15AE
100
AcDbEntity
  8
DIM
 62
     0
 48
0.05
100
AcDbMText
 10
61.1527386799965
 20
6.851999999999997
 30
0.0
 40
12.0
 41
0.0
 46
0.0
 71
     5
 72
     1
  1
\A1;G1 1/4"
  7
ＭＳ ゴシック
 73
     1
 44
1.0
  0
POINT
  5
15B6
330
15AE
100
AcDbEntity
  8
Defpoints
 62
     0
100
AcDbPoint
 10
40.1527386799965
 20
55.64553879057985
 30
0.0
  0
POINT
  5
15B7
330
15AE
100
AcDbEntity
  8
Defpoints
 62
     0
100
AcDbPoint
 10
82.1527386799965
 20
55.64553879057985
 30
0.0
  0
POINT
  5
15B8
330
15AE
100
AcDbEntity
  8
Defpoints
 62
     0
100
AcDbPoint
 10
82.1527386799965
 20
24.13
 30
0.0
  0
ENDBLK
  5
15B9
330
15AE
100
AcDbEntity
  8
0
100
AcDbBlockEnd
  0
BLOCK
  5
15BC
330
15BB
100
AcDbEntity
  8
0
100
AcDbBlockBegin
  2
*D47
 70
     1
 10
0.0
 20
0.0
 30
0.0
  3
*D47
  1
*D48
  0
LINE
  5
15BD
330
15BB
100
AcDbEntity
  8
DIM
 62
     0
 48
0.05
370
    -2
100
AcDbLine
 10
35.1527386799965
 20
55.64553879057985
 30
0.0
 11
22.0
 21
55.64553879057985
 31
0.0
  0
LINE
  5
15BE
330
15BB
100
AcDbEntity
  8
DIM
 62
     0
 48
0.05
370
    -2
100
AcDbLine
 10
26.98138769230252
 20
75.64553879057985
 30
0.0
 11
22.0
 21
75.64553879057985
 31
0.0
  0
LINE
  5
15BF
330
15BB
100
AcDbEntity
  8
DIM
 62
     0
 48
0.05
370
    -2
100
AcDbLine
 10
22.0
 20
55.64553879057985
 30
0.0
 11
22.0
 21
15.38953879057985
 31
0.0
  0
LINE
  5
15C0
330
15BB
100
AcDbEntity
  8
DIM
 62
     0
 48
0.05
370
    -2
100
AcDbLine
 10
22.0
 20
58.64553879057985
 30
0.0
 11
22.0
 21
72.64553879057985
 31
0.0
  0
INSERT
  5
15C1
330
15BB
100
AcDbEntity
  8
DIM
 62
     0
370
    -2
100
AcDbBlockReference
  2
_DOT
 10
22.0
 20
55.64553879057985
 30
0.0
 41
3.0
 42
3.0
 43
3.0
 50
270.0
  0
INSERT
  5
15C2
330
15BB
100
AcDbEntity
  8
DIM
 62
     0
370
    -2
100
AcDbBlockReference
  2
_DOT
 10
22.0
 20
75.64553879057985
 30
0.0
 41
3.0
 42
3.0
 43
3.0
 50
90.0
  0
MTEXT
  5
15C3
330
15BB
100
AcDbEntity
  8
DIM
 62
     0
 48
0.05
100
AcDbMText
 10
6.0
 20
32.51753879057985
 30
0.0
 40
12.0
 41
0.0
 46
0.0
 71
     5
 72
     1
  1
\A1;20
  7
ＭＳ ゴシック
 11
0.0
 21
1.0
 31
0.0
 73
     1
 44
1.0
  0
POINT
  5
15C4
330
15BB
100
AcDbEntity
  8
Defpoints
 62
     0
100
AcDbPoint
 10
40.1527386799965
 20
55.64553879057985
 30
0.0
  0
POINT
  5
15C5
330
15BB
100
AcDbEntity
  8
Defpoints
 62
     0
100
AcDbPoint
 10
31.98138769230252
 20
75.64553879057985
 30
0.0
  0
POINT
  5
15C6
330
15BB
100
AcDbEntity
  8
Defpoints
 62
     0
100
AcDbPoint
 10
22.0
 20
75.64553879057985
 30
0.0
  0
ENDBLK
  5
15C7
330
15BB
100
AcDbEntity
  8
0
100
AcDbBlockEnd
  0
BLOCK
  5
1602
330
1601
100
AcDbEntity
  8
0
100
AcDbBlockBegin
  2
*D48
 70
     1
 10
0.0
 20
0.0
 30
0.0
  3
*D48
  1
*D49
  0
LINE
  5
1604
330
1601
100
AcDbEntity
  8
DIM
 62
     0
 48
0.05
370
    -2
100
AcDbLine
 10
-449.0861215499585
 20
352.5616764909028
 30
0.0
 11
-449.0861215499585
 21
326.0461377003229
 31
0.0
  0
LINE
  5
1605
330
1601
100
AcDbEntity
  8
DIM
 62
     0
 48
0.05
370
    -2
100
AcDbLine
 10
-407.0861215499585
 20
352.5616764909028
 30
0.0
 11
-407.0861215499585
 21
326.0461377003229
 31
0.0
  0
LINE
  5
1606
330
1601
100
AcDbEntity
  8
DIM
 62
     0
 48
0.05
370
    -2
100
AcDbLine
 10
-446.0861215499585
 20
326.0461377003229
 30
0.0
 11
-410.0861215499585
 21
326.0461377003229
 31
0.0
  0
INSERT
  5
1607
330
1601
100
AcDbEntity
  8
DIM
 62
     0
370
    -2
100
AcDbBlockReference
  2
_DOT
 10
-449.0861215499585
 20
326.0461377003229
 30
0.0
 41
3.0
 42
3.0
 43
3.0
 50
180.0
  0
INSERT
  5
1608
330
1601
100
AcDbEntity
  8
DIM
 62
     0
370
    -2
100
AcDbBlockReference
  2
_DOT
 10
-407.0861215499585
 20
326.0461377003229
 30
0.0
 41
3.0
 42
3.0
 43
3.0
  0
MTEXT
  5
1609
330
1601
100
AcDbEntity
  8
DIM
 62
     0
 48
0.05
100
AcDbMText
 10
-428.0861215499585
 20
308.7681377003229
 30
0.0
 40
12.0
 41
0.0
 46
0.0
 71
     5
 72
     1
  1
\A1;G1 1/4"
  7
ＭＳ ゴシック
 73
     1
 44
1.0
  0
POINT
  5
160A
330
1601
100
AcDbEntity
  8
Defpoints
 62
     0
100
AcDbPoint
 10
-449.0861215499585
 20
357.5616764909028
 30
0.0
  0
POINT
  5
160B
330
1601
100
AcDbEntity
  8
Defpoints
 62
     0
100
AcDbPoint
 10
-407.0861215499585
 20
357.5616764909028
 30
0.0
  0
POINT
  5
160C
330
1601
100
AcDbEntity
  8
Defpoints
 62
     0
100
AcDbPoint
 10
-407.0861215499585
 20
326.0461377003229
 30
0.0
  0
ENDBLK
  5
1603
330
1601
100
AcDbEntity
  8
0
100
AcDbBlockEnd
  0
BLOCK
  5
160E
330
160D
100
AcDbEntity
  8
0
100
AcDbBlockBegin
  2
*D49
 70
     1
 10
0.0
 20
0.0
 30
0.0
  3
*D49
  1
*D50
  0
LINE
  5
1610
330
160D
100
AcDbEntity
  8
DIM
 62
     0
 48
0.05
370
    -2
100
AcDbLine
 10
-454.0861215499585
 20
357.5616764909028
 30
0.0
 11
-467.238860229955
 21
357.5616764909028
 31
0.0
  0
LINE
  5
1611
330
160D
100
AcDbEntity
  8
DIM
 62
     0
 48
0.05
370
    -2
100
AcDbLine
 10
-462.2574725376525
 20
377.5616764909028
 30
0.0
 11
-467.238860229955
 21
377.5616764909028
 31
0.0
  0
LINE
  5
1612
330
160D
100
AcDbEntity
  8
DIM
 62
     0
 48
0.05
370
    -2
100
AcDbLine
 10
-467.238860229955
 20
357.5616764909028
 30
0.0
 11
-467.238860229955
 21
317.3056764909028
 31
0.0
  0
LINE
  5
1613
330
160D
100
AcDbEntity
  8
DIM
 62
     0
 48
0.05
370
    -2
100
AcDbLine
 10
-467.238860229955
 20
360.5616764909028
 30
0.0
 11
-467.238860229955
 21
374.5616764909028
 31
0.0
  0
INSERT
  5
1614
330
160D
100
AcDbEntity
  8
DIM
 62
     0
370
    -2
100
AcDbBlockReference
  2
_DOT
 10
-467.238860229955
 20
357.5616764909028
 30
0.0
 41
3.0
 42
3.0
 43
3.0
 50
270.0
  0
INSERT
  5
1615
330
160D
100
AcDbEntity
  8
DIM
 62
     0
370
    -2
100
AcDbBlockReference
  2
_DOT
 10
-467.238860229955
 20
377.5616764909028
 30
0.0
 41
3.0
 42
3.0
 43
3.0
 50
90.0
  0
MTEXT
  5
1616
330
160D
100
AcDbEntity
  8
DIM
 62
     0
 48
0.05
100
AcDbMText
 10
-483.238860229955
 20
334.4336764909028
 30
0.0
 40
12.0
 41
0.0
 46
0.0
 71
     5
 72
     1
  1
\A1;20
  7
ＭＳ ゴシック
 11
0.0
 21
1.0
 31
0.0
 73
     1
 44
1.0
  0
POINT
  5
1617
330
160D
100
AcDbEntity
  8
Defpoints
 62
     0
100
AcDbPoint
 10
-449.0861215499585
 20
357.5616764909028
 30
0.0
  0
POINT
  5
1618
330
160D
100
AcDbEntity
  8
Defpoints
 62
     0
100
AcDbPoint
 10
-457.2574725376525
 20
377.5616764909028
 30
0.0
  0
POINT
  5
1619
330
160D
100
AcDbEntity
  8
Defpoints
 62
     0
100
AcDbPoint
 10
-467.238860229955
 20
377.5616764909028
 30
0.0
  0
ENDBLK
  5
160F
330
160D
100
AcDbEntity
  8
0
100
AcDbBlockEnd
  0
ENDSEC
  0
SECTION
  2
ENTITIES
  0
MTEXT
  5
177
330
A
100
AcDbEntity
  8
TEMPLATE
390
1D
100
AcDbMText
 10
39.60107227386538
 20
171.8658758157141
 30
0.0
 40
8.144205729166663
 41
0.0
 46
0.0
 71
     1
 72
     1
  1
品名
  7
ＭＳ ゴシック
 73
     1
 44
0.7828267384257843
  0
MTEXT
  5
178
330
A
100
AcDbEntity
  8
TEMPLATE
390
1D
100
AcDbMText
 10
39.60107227386538
 20
129.365875815714
 30
0.0
 40
8.144205729166663
 41
0.0
 46
0.0
 71
     1
 72
     1
  1
仕様
  7
ＭＳ ゴシック
 73
     1
 44
0.7828267384257843
  0
LINE
  5
179
330
A
100
AcDbEntity
  8
TEMPLATE
390
1D
100
AcDbLine
 10
1011.101072273624
 20
133.5733367532142
 30
0.0
 11
36.10107227362437
 21
133.5733367532142
 31
0.0
  0
LWPOLYLINE
  5
17A
330
A
100
AcDbEntity
  8
TEMPLATE
390
1D
100
AcDbPolyline
 90
        5
 70
   128
 43
0.0
 10
1011.101072273624
 20
1448.573336753213
 10
36.10107227362437
 20
1448.573336753213
 10
36.10107227362437
 20
48.57333675321413
 10
1011.101072273624
 20
48.57333675321413
 10
1011.101072273624
 20
1448.573336753213
  0
LINE
  5
17B
330
A
100
AcDbEntity
  8
TEMPLATE
390
1D
100
AcDbLine
 10
1011.101072273624
 20
176.0733367532141
 30
0.0
 11
36.10107227362437
 21
176.0733367532141
 31
0.0
  0
LINE
  5
17C
330
A
100
AcDbEntity
  8
TEMPLATE
390
1D
100
AcDbLine
 10
1011.101072273866
 20
91.07333675321412
 30
0.0
 11
634.601072273865
 21
91.07333675321412
 31
0.0
  0
MTEXT
  5
17E
330
A
100
AcDbEntity
  8
TEMPLATE
390
1D
100
AcDbMText
 10
649.5367753999956
 20
76.11813951656006
 30
0.0
 40
12.21630859375
 41
0.0
 46
0.0
 71
     1
 72
     1
  1
大洋金物株式会社 ティーフォルム事業部
  7
ＭＳ ゴシック
 73
     1
 44
0.7828267384257843
  0
MTEXT
  5
180
330
A
100
AcDbEntity
  8
TEMPLATE
390
1D
100
AcDbMText
 10
915.601072273995
 20
115.0746453469641
 30
0.0
 40
12.21630859375
 41
0.0
 46
12.21630859375
 71
     1
 72
     1
  1
{1:5}
  7
ＭＳ ゴシック
 73
     1
 44
0.7828267384257843
1001
ACAD
1000
ACAD_MTEXT_DEFINED_HEIGHT_BEGIN
1070
    46
1040
12.21630859375
1000
ACAD_MTEXT_DEFINED_HEIGHT_END
  0
MTEXT
  5
181
330
A
100
AcDbEntity
  8
TEMPLATE
390
1D
100
AcDbMText
 10
889.101072273995
 20
129.365875815714
 30
0.0
 40
8.144205729166663
 41
0.0
 46
0.0
 71
     1
 72
     1
  1
縮尺
  7
ＭＳ ゴシック
 73
     1
 44
0.7828267384257843
  0
LINE
  5
182
330
A
100
AcDbEntity
  8
TEMPLATE
390
1D
100
AcDbLine
 10
885.601072273995
 20
91.07333675321412
 30
0.0
 11
885.601072273995
 21
133.5733367532142
 31
0.0
  0
MTEXT
  5
183
330
A
100
AcDbEntity
  8
TEMPLATE
390
1D
100
AcDbMText
 10
763.601072273995
 20
129.365875815714
 30
0.0
 40
8.144205729166663
 41
0.0
 46
0.0
 71
     1
 72
     1
  1
容量
  7
ＭＳ ゴシック
 73
     1
 44
0.7828267384257843
  0
LINE
  5
184
330
A
100
AcDbEntity
  8
TEMPLATE
390
1D
100
AcDbLine
 10
760.101072273995
 20
91.07333675321412
 30
0.0
 11
760.101072273995
 21
133.5733367532142
 31
0.0
  0
MTEXT
  5
185
330
A
100
AcDbEntity
  8
TEMPLATE
390
1D
100
AcDbMText
 10
638.101072273995
 20
171.8658758157141
 30
0.0
 40
8.144205729166663
 41
0.0
 46
0.0
 71
     1
 72
     1
  1
品番
  7
ＭＳ ゴシック
 73
     1
 44
0.7828267384257843
  0
MTEXT
  5
186
330
A
100
AcDbEntity
  8
TEMPLATE
390
1D
100
AcDbMText
 10
638.101072273995
 20
129.365875815714
 30
0.0
 40
8.144205729166663
 41
0.0
 46
0.0
 71
     1
 72
     1
  1
重量
  7
ＭＳ ゴシック
 73
     1
 44
0.7828267384257843
  0
MTEXT
  5
187
330
A
100
AcDbEntity
  8
TEMPLATE
390
1D
100
AcDbMText
 10
664.601072273995
 20
157.5746453469641
 30
0.0
 40
12.21630859375
 41
0.0
 46
12.21630859375
 71
     1
 72
     1
  1
{BRS70-0102}
  7
ＭＳ ゴシック
 73
     1
 44
0.7828267384257843
1001
ACAD
1000
ACAD_MTEXT_DEFINED_HEIGHT_BEGIN
1070
    46
1040
12.21630859375
1000
ACAD_MTEXT_DEFINED_HEIGHT_END
  0
LINE
  5
188
330
A
100
AcDbEntity
  8
TEMPLATE
390
1D
100
AcDbLine
 10
634.601072273995
 20
48.57333675321413
 30
0.0
 11
634.601072273995
 21
176.0733367532141
 31
0.0
  0
MTEXT
  5
189
330
A
100
AcDbEntity
  8
TEMPLATE
390
1D
100
AcDbMText
 10
66.10107227386537
 20
157.5746453469641
 30
0.0
 40
12.21630859375
 41
0.0
 46
13.76777978515625
 71
     1
 72
     1
  1
{手洗器　-CLOU, First-}
  7
ＭＳ ゴシック
 73
     1
 44
0.7828267384257843
1001
ACAD
1000
ACAD_MTEXT_DEFINED_HEIGHT_BEGIN
1070
    46
1040
13.76777978515625
1000
ACAD_MTEXT_DEFINED_HEIGHT_END
  0
INSERT
  5
6B5
330
A
100
AcDbEntity
  8
TEMPLATE
100
AcDbBlockReference
  2
名称未設定-1
 10
935.3753740442249
 20
12.97338287832691
 30
0.0
 41
0.3809999999999999
 42
0.3809999999999999
 43
0.3809999999999999
  0
MTEXT
  5
7D9
330
A
100
AcDbEntity
  8
TEMPLATE
390
1D
100
AcDbMText
 10
62.62717263801819
 20
113.4059880146976
 30
0.0
 40
12.21630859375
 41
0.0
 46
49.52345361328125
 71
     1
 72
     1
  1
{カウンター置き/オーバーフローなし/\P排水目皿(水溜め不可)、カウンター固定金具付属/\P陶器}
  7
ＭＳ ゴシック
 73
     1
 44
0.8840641112754306
1001
ACAD
1000
ACAD_MTEXT_DEFINED_HEIGHT_BEGIN
1070
    46
1040
49.52345361328125
1000
ACAD_MTEXT_DEFINED_HEIGHT_END
  0
INSERT
  5
68C
330
A
100
AcDbEntity
  8
TEMPLATE
100
AcDbBlockReference
  2
block 2
 10
919.2743017702577
 20
8.373076514336368
 30
0.0
 41
0.3809999999999999
 42
0.3809999999999999
 43
0.3809999999999999
  0
MTEXT
  5
D60
330
A
100
AcDbEntity
  8
TEMPLATE
390
1D
100
AcDbMText
 10
664.601072273865
 20
115.0746453469641
 30
0.0
 40
12.21630859375
 41
0.0
 46
14.1953505859375
 71
     1
 72
     1
  1
{2.25kg}
  7
ＭＳ ゴシック
 73
     1
 44
0.7828267384257843
1001
ACAD
1000
ACAD_MTEXT_DEFINED_HEIGHT_BEGIN
1070
    46
1040
14.1953505859375
1000
ACAD_MTEXT_DEFINED_HEIGHT_END
  0
LWPOLYLINE
  5
D69
330
A
100
AcDbEntity
  8
BORDER
 48
0.05
100
AcDbPolyline
 90
        4
 70
     1
 43
0.0
 10
0.0
 20
0.0
 10
0.0
 20
1485.0
 10
1050.0
 20
1485.0
 10
1050.0
 20
0.0
  0
SPLINE
  5
F88
330
A
100
AcDbEntity
  8
MODEL
100
AcDbSpline
210
0.0
220
0.0
230
1.0
 70
     8
 71
     3
 72
     9
 73
     5
 74
     0
 42
0.000000001
 43
0.00000001
 40
0.0
 40
0.0
 40
0.0
 40
0.0
 40
0.5000000000000016
 40
1.0
 40
1.0
 40
1.0
 40
1.0
 10
128.3540557163049
 20
548.2320351700212
 30
0.0
 10
128.2662218722742
 20
549.2533871050612
 30
0.0
 10
128.0905541842128
 20
551.2960909751444
 30
0.0
 10
127.9976532524504
 20
553.3442285814524
 30
0.0
 10
127.9512027865765
 20
554.3682973846032
 30
0.0
  0
LINE
  5
F89
330
A
100
AcDbEntity
  8
MODEL
100
AcDbLine
 10
487.9579076222051
 20
554.3682973846032
 30
0.0
 11
487.9575276413432
 21
542.3682973846032
 31
0.0
  0
SPLINE
  5
F8A
330
A
100
AcDbEntity
  8
MODEL
100
AcDbSpline
210
0.0
220
0.0
230
1.0
 70
     8
 71
     3
 72
    23
 73
    19
 74
     0
 42
0.000000001
 43
0.00000001
 40
0.0
 40
0.0
 40
0.0
 40
0.0
 40
0.0923077279334962
 40
0.1749820885254479
 40
0.2480149012672557
 40
0.3114011714767565
 40
0.3544376870346456
 40
0.3915171873433028
 40
0.4226401736930324
 40
0.452606498835386
 40
0.4938921126668829
 40
0.5429481623216884
 40
0.5997684374952246
 40
0.664330537773957
 40
0.7366206089935731
 40
0.8166460915834329
 40
0.9044270662153153
 40
0.9999999999999999
 40
0.9999999999999999
 40
0.9999999999999999
 40
0.9999999999999999
 10
177.9512027865765
 20
464.3682973846032
 30
0.0
 10
175.4265299975211
 20
466.1651077610143
 30
0.0
 10
170.6406629053288
 20
469.5712107968864
 30
0.0
 10
164.3625551114144
 20
475.0507241947191
 30
0.0
 10
159.1388134898423
 20
480.2276245998394
 30
0.0
 10
155.128584552969
 20
484.7236793834952
 30
0.0
 10
152.0943682682971
 20
488.4632808867093
 30
0.0
 10
149.8464718347511
 20
491.4434928243893
 30
0.0
 10
147.9427984206247
 20
494.1318316899881
 30
0.0
 10
146.033949389295
 20
496.987863291625
 30
0.0
 10
143.8972953746395
 20
500.4135672624132
 30
0.0
 10
141.452595167864
 20
504.705105945987
 30
0.0
 10
138.8560093680478
 20
509.8027861376243
 30
0.0
 10
136.2204413438355
 20
515.7459576328754
 30
0.0
 10
133.6732231416297
 20
522.5679919600213
 30
0.0
 10
131.378806751183
 20
530.294965583266
 30
0.0
 10
129.4447994785494
 20
538.9317732083862
 30
0.0
 10
128.7277937923625
 20
545.0453453784423
 30
0.0
 10
128.3540557163049
 20
548.2320351700212
 30
0.0
  0
SPLINE
  5
F8B
330
A
100
AcDbEntity
  8
MODEL
100
AcDbSpline
210
0.0
220
0.0
230
1.0
 70
     8
 71
     3
 72
    28
 73
    24
 74
     0
 42
0.000000001
 43
0.00000001
 40
0.0
 40
0.0
 40
0.0
 40
0.0
 40
0.0562781991289961
 40
0.1091670300958003
 40
0.1586396466499167
 40
0.2046763643144797
 40
0.2472642159260328
 40
0.286395807677364
 40
0.3220678892471962
 40
0.3542810943059849
 40
0.3830385068590876
 40
0.4083448690422395
 40
0.430346663893991
 40
0.4535746774955624
 40
0.4902055829042107
 40
0.5330382099953405
 40
0.5820674463134193
 40
0.637289528225537
 40
0.6987028563364048
 40
0.7650473886222146
 40
0.8373706787582343
 40
0.9156828385844298
 40
1.0
 40
1.0
 40
1.0
 40
1.0
 10
487.9575276413432
 20
542.3682973846032
 30
0.0
 10
484.2788378477032
 20
541.905569683385
 30
0.0
 10
477.1430082435161
 20
541.0079821687393
 30
0.0
 10
466.9101577146628
 20
538.8485705374762
 30
0.0
 10
457.4726135294311
 20
536.2940846523554
 30
0.0
 10
448.8415304370408
 20
533.4118058722813
 30
0.0
 10
441.0087742829908
 20
530.3304629158331
 30
0.0
 10
433.9581856534621
 20
527.152330493677
 30
0.0
 10
427.6658282818587
 20
523.9729730094903
 30
0.0
 10
422.1064189160149
 20
520.8717625395723
 30
0.0
 10
417.2409432622278
 20
517.9343983169954
 30
0.0
 10
413.0560670649772
 20
515.180140460164
 30
0.0
 10
409.18480843464
 20
512.6127806511383
 30
0.0
 10
404.6502236490976
 20
509.69678030215
 30
0.0
 10
398.9147958376395
 20
506.1127182789271
 30
0.0
 10
391.6549453485111
 20
501.7639947916493
 30
0.0
 10
383.2403669188914
 20
496.9642276001284
 30
0.0
 10
373.6339543118136
 20
491.7899014216152
 30
0.0
 10
362.8717273619238
 20
486.3654181472582
 30
0.0
 10
350.9327716927271
 20
480.7845150377973
 30
0.0
 10
337.7933345542749
 20
475.1629068531545
 30
0.0
 10
323.3728607874343
 20
469.5384078507443
 30
0.0
 10
313.2168211713195
 20
466.1335747597611
 30
0.0
 10
307.9512981702044
 20
464.3682973846032
 30
0.0
  0
SPLINE
  5
F8C
330
A
100
AcDbEntity
  8
MODEL
100
AcDbSpline
210
0.0
220
0.0
230
1.0
 70
    24
 71
     3
 72
    38
 73
    34
 74
     0
 42
0.000000001
 43
0.00000001
 40
0.0
 40
0.0
 40
0.0
 40
0.0
 40
0.0062500000000001
 40
0.03125
 40
0.07421875
 40
0.0859375
 40
0.08984375
 40
0.1015625
 40
0.109375
 40
0.15625
 40
0.17578125
 40
0.197265625
 40
0.201171875
 40
0.21875
 40
0.234375
 40
0.2421875
 40
0.25
 40
0.2578125
 40
0.265625
 40
0.2734375
 40
0.27734375
 40
0.3125
 40
0.34375
 40
0.359375
 40
0.390625
 40
0.3984375
 40
0.41015625
 40
0.4140625
 40
0.42578125
 40
0.453125
 40
0.484375
 40
0.4921875
 40
0.5
 40
0.5
 40
0.5
 40
0.5
 10
127.9512027865765
 20
554.3682973846032
 30
0.0
 10
127.9512027865765
 20
554.3682973846032
 30
0.0
 10
128.0671054249667
 20
554.3682973846032
 30
0.0
 10
129.7034572009486
 20
554.3682973846032
 30
0.0
 10
134.4963171405595
 20
554.3682973846032
 30
0.0
 10
139.7848447152917
 20
554.3682973846032
 30
0.0
 10
142.4914917493859
 20
554.3682973846032
 30
0.0
 10
145.0170622385319
 20
554.3682973846032
 30
0.0
 10
152.9146085472
 20
554.3682973846
 30
0.0
 10
164.064969937526
 20
554.3682973846032
 30
0.0
 10
181.3085212279891
 20
554.3682973846032
 30
0.0
 10
191.5807477251417
 20
554.3682973846032
 30
0.0
 10
202.4907428674467
 20
554.3682973846032
 30
0.0
 10
212.4127423241787
 20
554.3682973846032
 30
0.0
 10
224.5611199109824
 20
554.3682973846032
 30
0.0
 10
234.6619266425384
 20
554.3682973846032
 30
0.0
 10
242.896943561316
 20
554.3682973846032
 30
0.0
 10
251.5575404070894
 20
554.3682973846032
 30
0.0
 10
260.4098852367586
 20
554.3682973846032
 30
0.0
 10
268.0291642190912
 20
554.3682973846032
 30
0.0
 10
286.6482822322557
 20
554.3682973846032
 30
0.0
 10
316.1137801810162
 20
554.3682973846032
 30
0.0
 10
352.366418743977
 20
554.3682973846032
 30
0.0
 10
386.9501645051985
 20
554.3682973846032
 30
0.0
 10
410.5678463979182
 20
554.3682973846032
 30
0.0
 10
430.3314399941498
 20
554.3682973846032
 30
0.0
 10
438.8442450296695
 20
554.3682973846032
 30
0.0
 10
448.0951811400134
 20
554.3682973846032
 30
0.0
 10
461.5040532780893
 20
554.3682973846032
 30
0.0
 10
478.1226426256815
 20
554.3682973846032
 30
0.0
 10
485.7892930605647
 20
554.3682973846
 30
0.0
 10
487.7410461632442
 20
554.3682973846032
 30
0.0
 10
487.9579076216157
 20
554.3682973846032
 30
0.0
 10
487.9579076222051
 20
554.3682973846032
 30
0.0
  0
SPLINE
  5
F8D
330
A
100
AcDbEntity
  8
MODEL
100
AcDbSpline
210
0.0
220
0.0
230
1.0
 70
     8
 71
     3
 72
    19
 73
    15
 74
     0
 42
0.000000001
 43
0.00000001
 40
0.296363861406363
 40
0.296363861406363
 40
0.296363861406363
 40
0.296363861406363
 40
0.3125
 40
0.34375
 40
0.359375
 40
0.390625
 40
0.3984375
 40
0.41015625
 40
0.4140625
 40
0.42578125
 40
0.453125
 40
0.484375
 40
0.4921875
 40
0.5
 40
0.5
 40
0.5
 40
0.5
 10
297.6511342330434
 20
546.6092949603958
 30
0.0
 10
304.4123539926597
 20
546.4725795604201
 30
0.0
 10
324.6041592595971
 20
546.056521637696
 30
0.0
 10
352.4507916882919
 20
545.465229029068
 30
0.0
 10
386.9733051031633
 20
544.7302519013272
 30
0.0
 10
410.5055835904693
 20
544.2301495222553
 30
0.0
 10
430.2023253500208
 20
543.8011663543864
 30
0.0
 10
438.6906374948355
 20
543.6127429367032
 30
0.0
 10
447.9214108111389
 20
543.4038066961064
 30
0.0
 10
461.3132266942901
 20
543.0936196371392
 30
0.0
 10
477.9796023811848
 20
542.672856504744
 30
0.0
 10
485.7474978015505
 20
542.4401119782044
 30
0.0
 10
487.7361188339398
 20
542.3757028653702
 30
0.0
 10
487.9575276407902
 20
542.3682973846032
 30
0.0
 10
487.9575276413432
 20
542.3682973846032
 30
0.0
  0
SPLINE
  5
F8E
330
A
100
AcDbEntity
  8
MODEL
100
AcDbSpline
210
0.0
220
0.0
230
1.0
 70
    24
 71
     3
 72
    38
 73
    34
 74
     0
 42
0.000000001
 43
0.00000001
 40
0.0
 40
0.0
 40
0.0
 40
0.0
 40
0.0062500000000001
 40
0.03125
 40
0.07421875
 40
0.0859375
 40
0.08984375
 40
0.1015625
 40
0.109375
 40
0.15625
 40
0.17578125
 40
0.197265625
 40
0.201171875
 40
0.21875
 40
0.234375
 40
0.2421875
 40
0.25
 40
0.2578125
 40
0.265625
 40
0.2734375
 40
0.27734375
 40
0.3125
 40
0.34375
 40
0.359375
 40
0.390625
 40
0.3984375
 40
0.41015625
 40
0.4140625
 40
0.42578125
 40
0.453125
 40
0.484375
 40
0.4921875
 40
0.5
 40
0.5
 40
0.5
 40
0.5
 10
177.9512027865765
 20
464.3682973846032
 30
0.0
 10
177.9512027865765
 20
464.3682973846032
 30
0.0
 10
178.0373605690454
 20
464.3682973846032
 30
0.0
 10
179.2510119994311
 20
464.3682973846032
 30
0.0
 10
182.7787527115777
 20
464.3682973846032
 30
0.0
 10
186.6132299534272
 20
464.3682973846032
 30
0.0
 10
188.562333447049
 20
464.3682973846032
 30
0.0
 10
190.3688905304641
 20
464.3682973846032
 30
0.0
 10
195.9456867148381
 20
464.3682973846032
 30
0.0
 10
203.5920849286756
 20
464.3682973846032
 30
0.0
 10
213.9096370866953
 20
464.3682973846032
 30
0.0
 10
219.5195227583079
 20
464.3682973846032
 30
0.0
 10
225.0461916070542
 20
464.3682973846032
 30
0.0
 10
229.9306082731907
 20
464.3682973846032
 30
0.0
 10
235.4768319832781
 20
464.3682973846032
 30
0.0
 10
239.7422306811548
 20
464.3682973846032
 30
0.0
 10
242.9512045190693
 20
464.3682973846032
 30
0.0
 10
246.1601771709518
 20
464.3682973846032
 30
0.0
 10
249.3592226362723
 20
464.3682973846032
 30
0.0
 10
252.0085507067031
 20
464.3682973846032
 30
0.0
 10
258.3222729858005
 20
464.3682973846032
 30
0.0
 10
267.5198914476475
 20
464.3682973846032
 30
0.0
 10
277.3538816627749
 20
464.3682973846032
 30
0.0
 10
285.9402148958523
 20
464.3682973846032
 30
0.0
 10
291.2688957568369
 20
464.3682973846032
 30
0.0
 10
295.5334596329828
 20
464.3682973846032
 30
0.0
 10
297.3400352242295
 20
464.3682973846032
 30
0.0
 10
299.2892030846322
 20
464.3682973846032
 30
0.0
 10
302.1012746015965
 20
464.3682973846032
 30
0.0
 10
305.6418702201825
 20
464.3682973846032
 30
0.0
 10
307.4185034516756
 20
464.3682973846032
 30
0.0
 10
307.8980186983588
 20
464.3682973846032
 30
0.0
 10
307.9512981702117
 20
464.3682973846032
 30
0.0
 10
307.9512981702044
 20
464.3682973846032
 30
0.0
  0
SPLINE
  5
F8F
330
A
100
AcDbEntity
  8
MODEL
100
AcDbSpline
210
0.0
220
0.0
230
1.0
 70
     8
 71
     3
 72
     9
 73
     5
 74
     0
 42
0.000000001
 43
0.00000001
 40
0.0
 40
0.0
 40
0.0
 40
0.0
 40
0.4623865990412394
 40
1.0
 40
1.0
 40
1.0
 40
1.0
 10
210.43426228986
 20
902.585069128347
 30
0.0
 10
209.0037744120179
 20
902.983240620151
 30
0.0
 10
205.9100690996108
 20
903.8443630934801
 30
0.0
 10
202.7843900859496
 20
904.8165941577261
 30
0.0
 10
201.1039831611176
 20
905.3392786066931
 30
0.0
  0
SPLINE
  5
F90
330
A
100
AcDbEntity
  8
MODEL
100
AcDbSpline
210
0.0
220
0.0
230
1.0
 70
     8
 71
     3
 72
    11
 73
     7
 74
     0
 42
0.000000001
 43
0.00000001
 40
0.0
 40
0.0
 40
0.0
 40
0.0
 40
0.2403935951801969
 40
0.5473044530813107
 40
0.7986095929623095
 40
1.0
 40
1.0
 40
1.0
 40
1.0
 10
141.4824034779065
 20
952.4676310030379
 30
0.0
 10
141.0526483483243
 20
953.2203402905341
 30
0.0
 10
140.074224210284
 20
954.9340346367301
 30
0.0
 10
138.7698401430441
 20
957.4766005496319
 30
0.0
 10
137.5900085786104
 20
959.9051939527951
 30
0.0
 10
136.9837352291704
 20
961.2478802884777
 30
0.0
 10
136.7140227536418
 20
961.8452003847508
 30
0.0
  0
SPLINE
  5
F91
330
A
100
AcDbEntity
  8
MODEL
100
AcDbSpline
210
0.0
220
0.0
230
1.0
 70
     8
 71
     3
 72
    11
 73
     7
 74
     0
 42
0.000000001
 43
0.00000001
 40
0.0
 40
0.0
 40
0.0
 40
0.0
 40
0.2046681533709009
 40
0.4600620889843896
 40
0.8414167343692265
 40
1.0
 40
1.0
 40
1.0
 40
1.0
 10
136.7140227537072
 20
1044.575263126463
 30
0.0
 10
136.9836475421378
 20
1045.172640022645
 30
0.0
 10
137.5897220161912
 20
1046.515450119097
 30
0.0
 10
138.8775286396028
 20
1049.160681811749
 30
0.0
 10
140.1547712425579
 20
1051.658988082143
 30
0.0
 10
141.120360916944
 20
1053.312787151039
 30
0.0
 10
141.4039608655637
 20
1053.798518661443
 30
0.0
  0
SPLINE
  5
F92
330
A
100
AcDbEntity
  8
MODEL
100
AcDbSpline
210
0.0
220
0.0
230
1.0
 70
     8
 71
     3
 72
     9
 73
     5
 74
     0
 42
0.000000001
 43
0.00000001
 40
0.0
 40
0.0
 40
0.0
 40
0.0
 40
0.2565059861568779
 40
0.9999999999999999
 40
0.9999999999999999
 40
0.9999999999999999
 40
0.9999999999999999
 10
204.6363006192894
 20
1102.161568906319
 30
0.0
 10
205.1340725856187
 20
1102.314764239267
 30
0.0
 10
207.074658744217
 20
1102.912003061029
 30
0.0
 10
208.99529760378
 20
1103.440384709271
 30
0.0
 10
210.4232810986193
 20
1103.833233301763
 30
0.0
  0
SPLINE
  5
F93
330
A
100
AcDbEntity
  8
MODEL
100
AcDbSpline
210
0.0
220
0.0
230
1.0
 70
    11
 71
     3
 72
    70
 73
    66
 74
     0
 42
0.000000001
 43
0.00000001
 40
0.0
 40
0.0
 40
0.0
 40
0.0
 40
0.0062500000000001
 40
0.03125
 40
0.07421875
 40
0.0859375
 40
0.08984375
 40
0.1015625
 40
0.109375
 40
0.15625
 40
0.17578125
 40
0.197265625
 40
0.201171875
 40
0.21875
 40
0.234375
 40
0.2421875
 40
0.25
 40
0.2578125
 40
0.265625
 40
0.2734375
 40
0.27734375
 40
0.3125
 40
0.34375
 40
0.359375
 40
0.390625
 40
0.3984375
 40
0.41015625
 40
0.4140625
 40
0.42578125
 40
0.453125
 40
0.484375
 40
0.4921875
 40
0.5
 40
0.5078125
 40
0.515625
 40
0.546875
 40
0.57421875
 40
0.5859375
 40
0.58984375
 40
0.6015625
 40
0.609375
 40
0.640625
 40
0.65625
 40
0.6875
 40
0.71484375
 40
0.71875
 40
0.7265625
 40
0.734375
 40
0.7421875
 40
0.75
 40
0.7578125
 40
0.765625
 40
0.78125
 40
0.796875
 40
0.8037109375
 40
0.828125
 40
0.84375
 40
0.890625
 40
0.8984375
 40
0.91015625
 40
0.9140625
 40
0.92578125
 40
0.96875
 40
0.99375
 40
1.0
 40
1.0
 40
1.0
 40
1.0
 10
127.9512027865765
 20
1003.210231755535
 30
0.0
 10
127.9512027865765
 20
1001.947179895657
 30
0.0
 10
128.0671054249667
 20
995.6520732142801
 30
0.0
 10
129.7034572009486
 20
980.9549283311869
 30
0.0
 10
134.4963171405595
 20
965.9020790773668
 30
0.0
 10
139.7848447152917
 20
955.444831443009
 30
0.0
 10
142.4914917493859
 20
950.655420346983
 30
0.0
 10
145.0170622385319
 20
946.6305931605768
 30
0.0
 10
152.9146085472
 20
935.542509008076
 30
0.0
 10
164.064969937526
 20
924.1771093227769
 30
0.0
 10
181.3085212279891
 20
913.1428536668179
 30
0.0
 10
191.5807477251417
 20
908.4798385709989
 30
0.0
 10
202.4907428674467
 20
904.8440242380191
 30
0.0
 10
212.4127423241787
 20
901.8993889919859
 30
0.0
 10
224.5611199109824
 20
899.0966670717878
 30
0.0
 10
234.6619266425384
 20
897.2703669175191
 30
0.0
 10
242.896943561316
 20
896.072124788983
 30
0.0
 10
251.5575404070894
 20
895.119530354403
 30
0.0
 10
260.4098852367586
 20
894.4867483205442
 30
0.0
 10
268.0291642190912
 20
894.223075521332
 30
0.0
 10
286.6482822322557
 20
894.1604294249721
 30
0.0
 10
316.1137801810162
 20
895.6592730110408
 30
0.0
 10
352.366418743977
 20
901.4002518051332
 30
0.0
 10
386.9501645051985
 20
910.1937539753437
 30
0.0
 10
410.5678463979182
 20
918.879052817638
 30
0.0
 10
430.3314399941498
 20
928.7965304817028
 30
0.0
 10
438.8442450296695
 20
933.7689046963831
 30
0.0
 10
448.0951811400134
 20
939.878055309732
 30
0.0
 10
461.5040532780893
 20
949.929153770129
 30
0.0
 10
478.1226426256815
 20
967.7167831458289
 30
0.0
 10
485.7892930605647
 20
985.2545226890782
 30
0.0
 10
487.7410461632442
 20
997.324266441037
 30
0.0
 10
488.0663383507979
 20
1003.210231754498
 30
0.0
 10
487.7410461667948
 20
1009.096197068908
 30
0.0
 10
485.7892930401338
 20
1021.165940826601
 30
0.0
 10
478.1226426020855
 20
1038.703680369343
 30
0.0
 10
461.5040520333403
 20
1056.491309959629
 30
0.0
 10
448.0951834997302
 20
1066.542407786745
 30
0.0
 10
438.8442427485841
 20
1072.651559215463
 30
0.0
 10
430.3314498292873
 20
1077.623931301391
 30
0.0
 10
410.5678212450346
 20
1087.541415112564
 30
0.0
 10
386.9500817134156
 20
1096.226724070157
 30
0.0
 10
352.3665363164816
 20
1105.020191079757
 30
0.0
 10
319.5647171001308
 20
1110.22000763711
 30
0.0
 10
293.207571531753
 20
1111.888038359774
 30
0.0
 10
277.3598825277202
 20
1112.201910234495
 30
0.0
 10
269.5523128896946
 20
1112.246701257123
 30
0.0
 10
260.4102707356485
 20
1111.935527589869
 30
0.0
 10
251.5573320449091
 20
1111.299954529708
 30
0.0
 10
242.8967028586464
 20
1110.347144687783
 30
0.0
 10
234.6618738285376
 20
1109.149786146076
 30
0.0
 10
224.5611561988096
 20
1107.324160600058
 30
0.0
 10
212.9909971522045
 20
1104.654262118957
 30
0.0
 10
202.7394605953066
 20
1101.658510180891
 30
0.0
 10
190.8168953684487
 20
1097.704971583499
 30
0.0
 10
180.2961801551917
 20
1092.696598795608
 30
0.0
 10
163.4786769608161
 20
1081.644816353046
 30
0.0
 10
152.9146085472073
 20
1070.877954503014
 30
0.0
 10
145.0170622385319
 20
1059.789870350489
 30
0.0
 10
142.4914917493859
 20
1055.765043164085
 30
0.0
 10
139.7848447152917
 20
1050.975632068059
 30
0.0
 10
134.4963171405595
 20
1040.518384433703
 30
0.0
 10
129.7034572009486
 20
1025.465535179878
 30
0.0
 10
128.0671054249667
 20
1010.768390296786
 30
0.0
 10
127.9512027865765
 20
1004.473283615409
 30
0.0
 10
127.9512027865765
 20
1003.210231755535
 30
0.0
  0
SPLINE
  5
F94
330
A
100
AcDbEntity
  8
MODEL
100
AcDbSpline
210
0.0
220
0.0
230
1.0
 70
     8
 71
     3
 72
     9
 73
     5
 74
     0
 42
0.000000001
 43
0.00000001
 40
0.0
 40
0.0
 40
0.0
 40
0.0
 40
0.4995019871355348
 40
1.0
 40
1.0
 40
1.0
 40
1.0
 10
887.5984071776991
 20
546.9439519099171
 30
0.0
 10
887.7393314557419
 20
548.1773119776983
 30
0.0
 10
888.0214610201444
 20
550.646491479564
 30
0.0
 10
888.1942071302412
 20
553.126871908679
 30
0.0
 10
888.2806662150695
 20
554.3682973846032
 30
0.0
  0
SPLINE
  5
F95
330
A
100
AcDbEntity
  8
MODEL
100
AcDbSpline
210
0.0
220
0.0
230
1.0
 70
     8
 71
     3
 72
     9
 73
     5
 74
     0
 42
0.000000001
 43
0.00000001
 40
0.0
 40
0.0
 40
0.0
 40
0.0
 40
0.500503085100547
 40
1.0
 40
1.0
 40
1.0
 40
1.0
 10
670.4738585627213
 20
554.3682973846032
 30
0.0
 10
670.5601105835674
 20
553.1266861845904
 30
0.0
 10
670.7324412312962
 20
550.645959817509
 30
0.0
 10
671.0140826763679
 20
548.1764192228791
 30
0.0
 10
671.1547617092881
 20
546.9428913146392
 30
0.0
  0
SPLINE
  5
F96
102
{ACAD_REACTORS
330
FC1
102
}
330
A
100
AcDbEntity
  8
MODEL
100
AcDbSpline
210
0.0
220
0.0
230
1.0
 70
     8
 71
     3
 72
    27
 73
    23
 74
     0
 42
0.000000001
 43
0.00000001
 40
0.0
 40
0.0
 40
0.0
 40
0.0
 40
0.0480101407297403
 40
0.0891336480986625
 40
0.123195684415298
 40
0.1512499472288201
 40
0.179531634764396
 40
0.2089595048184889
 40
0.2395393001300673
 40
0.2712771083263107
 40
0.3366144741697609
 40
0.3968538381883367
 40
0.4507491601393235
 40
0.4981654864251271
 40
0.543216864802196
 40
0.5933158369377922
 40
0.6485599827761821
 40
0.70890091327729
 40
0.7743145476490624
 40
0.8447341542495063
 40
0.9200318776508737
 40
1.0
 40
1.0
 40
1.0
 40
1.0
 10
821.8709282521602
 20
464.3682973846032
 30
0.0
 10
823.6031739309262
 20
465.0540780577201
 30
0.0
 10
826.8191898476659
 20
466.3272701846643
 30
0.0
 10
831.1195672408801
 20
468.3658349342543
 30
0.0
 10
834.6446894875414
 20
470.2086922868791
 30
0.0
 10
837.6724824275882
 20
471.9340150647251
 30
0.0
 10
840.4870559233393
 20
473.6589252154802
 30
0.0
 10
843.320538427776
 20
475.5257841107152
 30
0.0
 10
846.193019696381
 20
477.5612914410224
 30
0.0
 10
850.0813516245623
 20
480.527257555291
 30
0.0
 10
854.6582408956463
 20
484.4333741349212
 30
0.0
 10
859.5296978362542
 20
489.2222713672593
 30
0.0
 10
863.6167747604643
 20
493.785302508523
 30
0.0
 10
867.0750248346819
 20
498.1124765447742
 30
0.0
 10
870.215588899461
 20
502.4793673497181
 30
0.0
 10
873.2486274856935
 20
507.209782995086
 30
0.0
 10
876.271381777239
 20
512.5340370902984
 30
0.0
 10
879.1924460219095
 20
518.4427350772673
 30
0.0
 10
881.9104275234865
 20
524.9184473034254
 30
0.0
 10
884.3044753549923
 20
531.9100202892794
 30
0.0
 10
886.3201940107399
 20
539.3591460588684
 30
0.0
 10
887.1546628118674
 20
544.358079625835
 30
0.0
 10
887.5844476294012
 20
546.9327304073151
 30
0.0
  0
SPLINE
  5
F97
330
A
100
AcDbEntity
  8
MODEL
100
AcDbSpline
210
0.0
220
0.0
230
1.0
 70
     8
 71
     3
 72
    25
 73
    21
 74
     0
 42
0.000000001
 43
0.00000001
 40
0.0
 40
0.0
 40
0.0
 40
0.0
 40
0.074891527106934
 40
0.1472911228976333
 40
0.217232158789639
 40
0.2680992331069471
 40
0.3176129640907163
 40
0.3657871932393296
 40
0.4167558874163522
 40
0.474938279966109
 40
0.5401184769021297
 40
0.6116599452206017
 40
0.6806695821883022
 40
0.7176193416062485
 40
0.7527743925555475
 40
0.786156049275112
 40
0.8243609055619789
 40
0.8729249541515166
 40
0.9315794840118855
 40
1.0
 40
1.0
 40
1.0
 40
1.0
 10
671.169068728225
 20
546.931755988727
 30
0.0
 10
671.5474671010672
 20
544.5992161361312
 30
0.0
 10
672.2916730665822
 20
540.0117490705732
 30
0.0
 10
674.1091318226834
 20
532.9596044221973
 30
0.0
 10
676.196772157972
 20
526.6068422368623
 30
0.0
 10
678.4308499321421
 20
520.983696762639
 30
0.0
 10
680.6590307733652
 20
516.0929181291933
 30
0.0
 10
683.1622221316
 20
511.2394628454633
 30
0.0
 10
686.1049428534322
 20
506.1645974740852
 30
0.0
 10
689.7232432196113
 20
500.6765498424713
 30
0.0
 10
694.2144728025671
 20
494.7885552901273
 30
0.0
 10
699.4553289618641
 20
488.9063100188202
 30
0.0
 10
704.3791292801482
 20
484.1888922252103
 30
0.0
 10
708.5172677922103
 20
480.6732983994805
 30
0.0
 10
711.7200476708683
 20
478.1701378464811
 30
0.0
 10
715.064714605084
 20
475.7599065950192
 30
0.0
 10
718.9303250517921
 20
473.2043672870893
 30
0.0
 10
723.7610650773574
 20
470.3506567074062
 30
0.0
 10
729.8047077635499
 20
467.2217188139391
 30
0.0
 10
734.3977826097405
 20
465.3669521095132
 30
0.0
 10
736.870813792623
 20
464.3682973846032
 30
0.0
  0
SPLINE
  5
F98
330
A
100
AcDbEntity
  8
MODEL
100
AcDbSpline
210
0.0
220
0.0
230
1.0
 70
     8
 71
     3
 72
    49
 73
    45
 74
     0
 42
0.000000001
 43
0.00000001
 40
0.0
 40
0.0
 40
0.0
 40
0.0
 40
0.0139429701536649
 40
0.0432918175873231
 40
0.0734060636983094
 40
0.1077270065429862
 40
0.1426937770947678
 40
0.178117507688823
 40
0.2137561960298716
 40
0.2416512478600813
 40
0.2691588007022567
 40
0.2960222227992982
 40
0.3219802078784083
 40
0.344599274516274
 40
0.3661331398828915
 40
0.3864637336891269
 40
0.4055910619618029
 40
0.4235647193974976
 40
0.4404650755692113
 40
0.4564222492891007
 40
0.4715810895498041
 40
0.4860843831688399
 40
0.5000528791095656
 40
0.5140213750528707
 40
0.5285246686812456
 40
0.5436835089655417
 40
0.5596406827783915
 40
0.5765410391940947
 40
0.594514696987229
 40
0.6136420250848523
 40
0.633972617264707
 40
0.6555064815795303
 40
0.6781255481460857
 40
0.7045645156982928
 40
0.7319371612368076
 40
0.7599681045878558
 40
0.788385647423556
 40
0.816904369218462
 40
0.8540561389744868
 40
0.8907287901341768
 40
0.9267007831256181
 40
0.9567473153863303
 40
0.9860312992799877
 40
1.0
 40
1.0
 40
1.0
 40
1.0
 10
887.5227430718162
 20
546.9314660473312
 30
0.0
 10
887.4768241178324
 20
546.8862016794003
 30
0.0
 10
887.3342494039905
 20
546.7456594033854
 30
0.0
 10
886.5351636316925
 20
546.4957375300794
 30
0.0
 10
885.0612096613484
 20
546.1720533960713
 30
0.0
 10
882.8180897701684
 20
545.824275007845
 30
0.0
 10
879.6920777722269
 20
545.45704309803
 30
0.0
 10
875.681916801849
 20
545.0874721104444
 30
0.0
 10
871.0817164613911
 20
544.7474719045742
 30
0.0
 10
866.0842150944302
 20
544.4395761601033
 30
0.0
 10
860.9188156716712
 20
544.1648515234763
 30
0.0
 10
855.1776562854941
 20
543.9002990840302
 30
0.0
 10
849.0686944040792
 20
543.6553928232672
 30
0.0
 10
842.718993258525
 20
543.431512723974
 30
0.0
 10
836.25797315249
 20
543.2297433488482
 30
0.0
 10
829.5228711291063
 20
543.0437796913063
 30
0.0
 10
822.5768404029375
 20
542.8759841664421
 30
0.0
 10
815.4723906070583
 20
542.7283658400113
 30
0.0
 10
808.252563990435
 20
542.6027895115433
 30
0.0
 10
800.9792018757223
 20
542.501431871088
 30
0.0
 10
793.709344470845
 20
542.4263364436254
 30
0.0
 10
786.5057847931464
 20
542.3795358027262
 30
0.0
 10
779.37087102289
 20
542.362783723521
 30
0.0
 10
772.2359572503344
 20
542.3795358027371
 30
0.0
 10
765.0323975691433
 20
542.4263364436472
 30
0.0
 10
757.762540147837
 20
542.5014318712554
 30
0.0
 10
750.4891780056862
 20
542.6027895120781
 30
0.0
 10
743.26935135694
 20
542.7283658403574
 30
0.0
 10
736.1649016623785
 20
542.8759841650824
 30
0.0
 10
729.2188709889313
 20
543.0437796812764
 30
0.0
 10
722.4837692989543
 20
543.2297433626652
 30
0.0
 10
716.0227470793182
 20
543.4315126894824
 30
0.0
 10
709.6294944115514
 20
543.6569288764033
 30
0.0
 10
703.4475641922479
 20
543.9050889782072
 30
0.0
 10
697.6190779673859
 20
544.1747360359902
 30
0.0
 10
692.38778789391
 20
544.4548180384834
 30
0.0
 10
687.764897246904
 20
544.7424230563404
 30
0.0
 10
683.3516916154192
 20
545.0653859342121
 30
0.0
 10
679.379800788877
 20
545.4216694802442
 30
0.0
 10
676.0406480359022
 20
545.806706452596
 30
0.0
 10
673.7082683689962
 20
546.1661100656772
 30
0.0
 10
672.2163979328482
 20
546.4950736265994
 30
0.0
 10
671.425962652015
 20
546.7446901177343
 30
0.0
 10
671.2751917784783
 20
546.8851270425832
 30
0.0
 10
671.2264994665754
 20
546.9304819469282
 30
0.0
  0
SPLINE
  5
F99
330
A
100
AcDbEntity
  8
MODEL
100
AcDbSpline
210
0.0
220
0.0
230
1.0
 70
    24
 71
     3
 72
    49
 73
    45
 74
     0
 42
0.000000001
 43
0.00000001
 40
0.0
 40
0.0
 40
0.0
 40
0.0
 40
0.0126945276820317
 40
0.0419636865936967
 40
0.0720005283116039
 40
0.1062494084615459
 40
0.1411681270173589
 40
0.1765775013928584
 40
0.2122438720514168
 40
0.2401900954758422
 40
0.2677692281566422
 40
0.2947201879938857
 40
0.3207763942047633
 40
0.3434904372852108
 40
0.3651219561275771
 40
0.3855509023688427
 40
0.4047807309656072
 40
0.4228653385450547
 40
0.4398884150036845
 40
0.4559823061108181
 40
0.4712902578419825
 40
0.4859481874507918
 40
0.5000637673730591
 40
0.5141793472980607
 40
0.5288372769166507
 40
0.5441452286724633
 40
0.56023911987685
 40
0.5772621965913605
 40
0.5953468045466133
 40
0.6145766329589311
 40
0.6350055774834813
 40
0.6566370952140614
 40
0.6793511382190527
 40
0.705890024420738
 40
0.7333514043283973
 40
0.761454379324475
 40
0.7899225130628399
 40
0.8184649693660174
 40
0.8556065937052235
 40
0.8922311657294648
 40
0.9281281934588153
 40
0.9580974533491678
 40
0.9873017714236042
 40
1.0
 40
1.0
 40
1.0
 40
1.0
 10
888.2194576386034
 20
554.3682973846032
 30
0.0
 10
888.1886026516743
 20
554.3682973846032
 30
0.0
 10
888.0866068127004
 20
554.3682973846032
 30
0.0
 10
887.3609109522952
 20
554.3682973846032
 30
0.0
 10
885.9679375107523
 20
554.3682973846032
 30
0.0
 10
883.7987266704952
 20
554.3682973846032
 30
0.0
 10
880.7353775826493
 20
554.3682973846032
 30
0.0
 10
876.7669923235092
 20
554.3682973846032
 30
0.0
 10
872.1815395242022
 20
554.3682973846032
 30
0.0
 10
867.1747364746559
 20
554.3682973846032
 30
0.0
 10
861.9808092191895
 20
554.3682973846032
 30
0.0
 10
856.1910726867652
 20
554.3682973846032
 30
0.0
 10
850.0157592352632
 20
554.3682973846032
 30
0.0
 10
843.5864985804012
 20
554.3682973846032
 30
0.0
 10
837.0374648966902
 20
554.3682973846032
 30
0.0
 10
830.2057125264412
 20
554.3682973846032
 30
0.0
 10
823.1576147148082
 20
554.3682973846032
 30
0.0
 10
815.9482851259534
 20
554.3682973846032
 30
0.0
 10
808.6230115739393
 20
554.3682973846032
 30
0.0
 10
801.2468973001603
 20
554.3682973846
 30
0.0
 10
793.8798345776311
 20
554.3682973846032
 30
0.0
 10
786.5874728037672
 20
554.3682973846032
 30
0.0
 10
779.3708710229332
 20
554.3682973846032
 30
0.0
 10
772.1542692397059
 20
554.3682973846032
 30
0.0
 10
764.8619074621245
 20
554.3682973846032
 30
0.0
 10
757.4948447223071
 20
554.3682973846
 30
0.0
 10
750.1187304191924
 20
554.3682973846
 30
0.0
 10
742.7934568335052
 20
554.3682973846032
 30
0.0
 10
735.5841273493281
 20
554.3682973846032
 30
0.0
 10
728.5360296072042
 20
554.3682973846032
 30
0.0
 10
721.7042775395755
 20
554.3682973846032
 30
0.0
 10
715.1552418143553
 20
554.3682973846032
 30
0.0
 10
708.6819107562922
 20
554.3682973846032
 30
0.0
 10
702.4329840861321
 20
554.3682973846032
 30
0.0
 10
696.5556255034182
 20
554.3682973846032
 30
0.0
 10
691.2962221273422
 20
554.3682973846032
 30
0.0
 10
686.6653136177922
 20
554.3682973846032
 30
0.0
 10
682.2651707379634
 20
554.3682973846032
 30
0.0
 10
678.3312959275579
 20
554.3682973846032
 30
0.0
 10
675.0563186052611
 20
554.3682973846032
 30
0.0
 10
672.8001022648612
 20
554.3682973846032
 30
0.0
 10
671.3908753415092
 20
554.3682973846032
 30
0.0
 10
670.6744639127212
 20
554.3682973846032
 30
0.0
 10
670.5641673255311
 20
554.3682973846032
 30
0.0
 10
670.5307428349563
 20
554.3682973846032
 30
0.0
  0
SPLINE
  5
F9A
102
{ACAD_REACTORS
330
FC1
102
}
330
A
100
AcDbEntity
  8
MODEL
100
AcDbSpline
210
0.0
220
0.0
230
1.0
 70
    24
 71
     3
 72
    42
 73
    38
 74
     0
 42
0.000000001
 43
0.00000001
 40
0.2499998704133125
 40
0.2499998704133125
 40
0.2499998704133125
 40
0.2499998704133125
 40
0.25
 40
0.2578125
 40
0.265625
 40
0.2734375
 40
0.27734375
 40
0.3125
 40
0.34375
 40
0.359375
 40
0.390625
 40
0.3984375
 40
0.41015625
 40
0.4140625
 40
0.42578125
 40
0.453125
 40
0.484375
 40
0.4921875
 40
0.5
 40
0.5078125
 40
0.515625
 40
0.546875
 40
0.57421875
 40
0.5859375
 40
0.58984375
 40
0.6015625
 40
0.609375
 40
0.640625
 40
0.65625
 40
0.6875
 40
0.71484375
 40
0.71875
 40
0.7265625
 40
0.734375
 40
0.7421875
 40
0.75
 40
0.7500001295775868
 40
0.7500001295775868
 40
0.7500001295775868
 40
0.7500001295775868
 10
821.8709282521452
 20
464.3682973846032
 30
0.0
 10
821.8709282521311
 20
464.3682973846032
 30
0.0
 10
821.870927312463
 20
464.3682973846032
 30
0.0
 10
821.8360893117072
 20
464.3682973846032
 30
0.0
 10
821.6793280544159
 20
464.3682973846032
 30
0.0
 10
821.4637509736501
 20
464.3682973846032
 30
0.0
 10
820.7963646544451
 20
464.3682973846032
 30
0.0
 10
819.0554010998683
 20
464.3682973846032
 30
0.0
 10
815.6142755919802
 20
464.3682973846032
 30
0.0
 10
811.4599017679145
 20
464.3682973846032
 30
0.0
 10
807.9775854935581
 20
464.3682973846032
 30
0.0
 10
804.3965356598644
 20
464.3682973846032
 30
0.0
 10
802.6728163999803
 20
464.3682973846032
 30
0.0
 10
800.6046206076505
 20
464.3682973846032
 30
0.0
 10
797.2664856003619
 20
464.3682973846032
 30
0.0
 10
791.4755022760221
 20
464.3682973846032
 30
0.0
 10
785.65241368278
 20
464.3682973846032
 30
0.0
 10
781.4690451630383
 20
464.3682973846032
 30
0.0
 10
779.3708710221551
 20
464.3682973846032
 30
0.0
 10
777.2726968812642
 20
464.3682973846032
 30
0.0
 10
773.0893283615371
 20
464.3682973846032
 30
0.0
 10
767.2662397683459
 20
464.3682973846032
 30
0.0
 10
761.4752564440794
 20
464.3682973846032
 30
0.0
 10
758.1371214368344
 20
464.3682973846032
 30
0.0
 10
756.0689256445482
 20
464.3682973846032
 30
0.0
 10
754.3452063846792
 20
464.3682973846032
 30
0.0
 10
750.7641565510432
 20
464.3682973846032
 30
0.0
 10
747.2818402767523
 20
464.3682973846032
 30
0.0
 10
743.1274664527602
 20
464.3682973846032
 30
0.0
 10
740.0139705513145
 20
464.3682973846032
 30
0.0
 10
738.3404280979023
 20
464.3682973846032
 30
0.0
 10
737.6200176377172
 20
464.3682973846032
 30
0.0
 10
737.3211064873042
 20
464.3682973846032
 30
0.0
 10
737.0624139903741
 20
464.3682973846032
 30
0.0
 10
736.9056527330911
 20
464.3682973846032
 30
0.0
 10
736.8708147323421
 20
464.3682973846032
 30
0.0
 10
736.8708137926521
 20
464.3682973846032
 30
0.0
 10
736.8708137926449
 20
464.3682973846032
 30
0.0
  0
LINE
  5
F9B
330
A
100
AcDbEntity
  8
MODEL
100
AcDbLine
 10
779.1958610232693
 20
554.3682973846032
 30
0.0
 11
778.6351761995031
 21
554.3682973846032
 31
0.0
  0
DIMENSION
  5
F9E
330
A
100
AcDbEntity
  8
DIM
  6
Continuous
100
AcDbDimension
  2
*D18
 10
487.9512027865766
 20
1164.918737110053
 30
0.0
 11
307.9512027865766
 21
1164.918737110053
 31
0.0
 70
   160
 71
     5
 42
360.0
 73
     0
 74
     0
 75
     0
  3
tfrom線あり
100
AcDbAlignedDimension
 13
127.9512027865765
 23
1017.554914742397
 33
0.0
 14
487.9512027865765
 24
1006.953400109655
 34
0.0
100
AcDbRotatedDimension
  0
DIMENSION
  5
F9F
330
A
100
AcDbEntity
  8
DIM
  6
Continuous
100
AcDbDimension
  2
*D19
 10
537.4960703762924
 20
894.1956243544339
 30
0.0
 11
537.4960703762924
 21
1003.195624354434
 31
0.0
 70
   160
 71
     5
 42
218.0
 73
     0
 74
     0
 75
     0
  3
tfrom線あり
100
AcDbAlignedDimension
 13
297.1040717732997
 23
1112.195624354434
 33
0.0
 14
297.1040717732997
 24
894.1956243544339
 34
0.0
 50
90.0
100
AcDbRotatedDimension
  0
DIMENSION
  5
FA0
330
A
100
AcDbEntity
  8
DIM
  6
Continuous
100
AcDbDimension
  2
*D20
 10
242.9512504783904
 20
313.8385201568532
 30
0.0
 11
185.4512027865765
 21
313.8385201568532
 31
0.0
 70
   160
 71
     5
 42
115.0000476918139
 73
     0
 74
     0
 75
     0
  3
tfrom線あり
100
AcDbAlignedDimension
 13
127.9512027865765
 23
554.1248023508463
 33
0.0
 14
242.9512504783904
 24
356.5032297764886
 34
0.0
100
AcDbRotatedDimension
  0
DIMENSION
  5
FA1
330
A
100
AcDbEntity
  8
DIM
  6
Continuous
100
AcDbDimension
  2
*D21
 10
524.9757118075809
 20
464.3682973846032
 30
0.0
 11
524.9757118075809
 21
509.3682973846032
 31
0.0
 70
   160
 71
     5
 42
90.00000000000006
 73
     0
 74
     0
 75
     0
  3
tfrom線あり
100
AcDbAlignedDimension
 13
487.9579076222051
 23
554.3682973846032
 33
0.0
 14
487.9577176317741
 24
464.3682973846032
 34
0.0
 50
90.0
100
AcDbRotatedDimension
1001
ACAD
1000
DSTYLE
1002
{
1070
    76
1070
     0
1002
}
  0
DIMENSION
  5
FA2
330
A
100
AcDbEntity
  8
DIM
  6
Continuous
100
AcDbDimension
  2
*D22
 10
432.0799096146493
 20
840.8888845246312
 30
0.0
 11
287.0799096146493
 21
856.8888845246312
 31
0.0
 70
    32
 71
     5
 42
290.0
 73
     0
 74
     0
 75
     0
  3
tfrom線あり
100
AcDbAlignedDimension
 13
142.0799096146493
 23
993.5775205731703
 33
0.0
 14
432.0799096146493
 24
993.5775205731703
 34
0.0
 50
-0.000000000000014
100
AcDbRotatedDimension
  0
ARC
  5
FA3
330
A
100
AcDbEntity
  8
MODEL
100
AcDbCircle
 10
260.2061852759753
 20
1003.210231755534
 30
0.0
 40
8.000000000000114
100
AcDbArc
 50
270.0000000007817
 51
90.0
  0
LINE
  5
FA4
330
A
100
AcDbEntity
  8
MODEL
100
AcDbLine
 10
260.2061852760844
 20
995.2102317555339
 30
0.0
 11
224.2061852756692
 21
995.2102317555339
 31
0.0
  0
ARC
  5
FA5
330
A
100
AcDbEntity
  8
MODEL
100
AcDbCircle
 10
224.2061852759743
 20
1003.210231755534
 30
0.0
 40
8.000000000000114
100
AcDbArc
 50
90.0
 51
269.9999999978178
  0
LINE
  5
FA6
330
A
100
AcDbEntity
  8
MODEL
100
AcDbLine
 10
224.2061852759743
 20
1011.210231755534
 30
0.0
 11
260.2061852759753
 21
1011.210231755534
 31
0.0
  0
CIRCLE
  5
FA7
330
A
100
AcDbEntity
  8
HIDDEN
  6
HIDDEN
 48
0.05
370
     0
100
AcDbCircle
 10
242.2061852759753
 20
1003.210231755534
 30
0.0
 40
26.5
  0
DIMENSION
  5
FA8
330
A
100
AcDbEntity
  8
DIM
  6
Continuous
100
AcDbDimension
  2
*D23
 10
779.3708710233752
 20
491.3682973846014
 30
0.0
 11
779.3708710233752
 21
599.3122973846032
 31
0.0
 70
   160
  1
63(深さ)
 71
     5
 42
63.00000000000183
 73
     0
 74
     1
 75
     1
  3
tfrom線あり
100
AcDbAlignedDimension
 13
802.4821310051482
 23
554.3682973846032
 33
0.0
 14
779.3708710233752
 24
491.3682973846014
 34
0.0
 50
89.99999999999999
100
AcDbRotatedDimension
1001
ACAD
1000
DSTYLE
1002
{
1070
     3
1000
<>
1070
   172
1070
     1
1070
    75
1070
     1
1070
    76
1070
     1
1002
}
  0
DIMENSION
  5
FA9
330
A
100
AcDbEntity
  8
DIM
  6
Continuous
100
AcDbDimension
  2
*D24
 10
888.5306505774822
 20
379.2722335590293
 30
0.0
 11
833.9507607999424
 21
395.2722335590293
 31
0.0
 70
    32
 71
     5
 42
109.1597795550796
 73
     0
 74
     0
 75
     0
  3
tfrom線あり
100
AcDbAlignedDimension
 13
779.3708710224025
 23
414.0939567816065
 33
0.0
 14
888.5306505774822
 24
553.8852179645339
 34
0.0
 50
-0.0000000000000268
100
AcDbRotatedDimension
  0
DIMENSION
  5
FAB
330
A
100
AcDbEntity
  8
DIM
  6
Continuous
100
AcDbDimension
  2
*D25
 10
89.4517414246528
 20
908.1956243544339
 30
0.0
 11
89.45174142465282
 21
1003.400753097732
 31
0.0
 70
   160
 71
     5
 42
190.0
 73
     0
 74
     0
 75
     0
  3
tfrom線あり
100
AcDbAlignedDimension
 13
241.641448780675
 23
1098.195624354434
 33
0.0
 14
251.8286550425992
 24
908.1956243544339
 34
0.0
 50
89.99999999999999
100
AcDbRotatedDimension
  0
LINE
  5
FAC
330
A
100
AcDbEntity
  8
HIDDEN
  6
HIDDEN
 48
0.05
100
AcDbLine
 10
216.4512043213965
 20
496.2203671012392
 30
0.0
 11
269.4512043213963
 21
496.2203671012392
 31
0.0
  0
LINE
  5
FAD
330
A
100
AcDbEntity
  8
HIDDEN
  6
HIDDEN
 48
0.05
100
AcDbLine
 10
269.4512043213963
 20
496.2203671012392
 30
0.0
 11
269.4512043213963
 21
494.0960938071164
 31
0.0
  0
LINE
  5
FAE
330
A
100
AcDbEntity
  8
HIDDEN
  6
HIDDEN
 48
0.05
100
AcDbLine
 10
269.4512043213963
 20
494.0960938071164
 30
0.0
 11
216.4512043213965
 21
494.0960938071164
 31
0.0
  0
LINE
  5
FAF
330
A
100
AcDbEntity
  8
HIDDEN
  6
HIDDEN
 48
0.05
100
AcDbLine
 10
216.4512043213965
 20
494.0960938071164
 30
0.0
 11
216.4512043213965
 21
496.2203671012392
 31
0.0
  0
LINE
  5
FB0
330
A
100
AcDbEntity
  8
HIDDEN
  6
HIDDEN
 48
0.05
100
AcDbLine
 10
234.2017759108803
 20
494.0960938071164
 30
0.0
 11
238.5284731996023
 21
488.6527062716843
 31
0.0
  0
LINE
  5
FB1
330
A
100
AcDbEntity
  8
HIDDEN
  6
HIDDEN
 48
0.05
100
AcDbLine
 10
251.7006327319132
 20
494.0960938071164
 30
0.0
 11
247.3739354431909
 21
488.6527062716843
 31
0.0
  0
LINE
  5
FB2
330
A
100
AcDbEntity
  8
HIDDEN
  6
HIDDEN
 48
0.05
100
AcDbLine
 10
238.5284731996023
 20
479.8369218764681
 30
0.0
 11
237.07182865506
 21
482.0408679752725
 31
0.0
  0
LINE
  5
FB3
330
A
100
AcDbEntity
  8
HIDDEN
  6
HIDDEN
 48
0.05
100
AcDbLine
 10
238.5284731996023
 20
484.2448140740764
 30
0.0
 11
237.07182865506
 21
482.0408679752725
 31
0.0
  0
LINE
  5
FB4
330
A
100
AcDbEntity
  8
HIDDEN
  6
HIDDEN
 48
0.05
100
AcDbLine
 10
238.5284731996023
 20
484.2448140740764
 30
0.0
 11
237.07182865506
 21
486.4487601728804
 31
0.0
  0
LINE
  5
FB5
330
A
100
AcDbEntity
  8
HIDDEN
  6
HIDDEN
 48
0.05
100
AcDbLine
 10
247.3739354431909
 20
479.8369218764681
 30
0.0
 11
248.830579987733
 21
482.0408679752725
 31
0.0
  0
LINE
  5
FB6
330
A
100
AcDbEntity
  8
HIDDEN
  6
HIDDEN
 48
0.05
100
AcDbLine
 10
247.3739354431909
 20
484.2448140740764
 30
0.0
 11
248.830579987733
 21
482.0408679752725
 31
0.0
  0
LINE
  5
FB7
330
A
100
AcDbEntity
  8
HIDDEN
  6
HIDDEN
 48
0.05
100
AcDbLine
 10
247.3739354431909
 20
484.2448140740764
 30
0.0
 11
248.830579987733
 21
486.4487601728804
 31
0.0
  0
LINE
  5
FBA
330
A
100
AcDbEntity
  8
HIDDEN
  6
HIDDEN
 48
0.05
100
AcDbLine
 10
238.5284731996023
 20
488.6527062716843
 30
0.0
 11
237.07182865506
 21
486.4487601728804
 31
0.0
  0
LINE
  5
FBB
330
A
100
AcDbEntity
  8
HIDDEN
  6
HIDDEN
 48
0.05
100
AcDbLine
 10
247.3739354431909
 20
488.6527062716843
 30
0.0
 11
248.830579987733
 21
486.4487601728804
 31
0.0
  0
LINE
  5
FBC
330
A
100
AcDbEntity
  8
HIDDEN
  6
HIDDEN
 48
0.05
100
AcDbLine
 10
216.0186128584601
 20
479.3292514583511
 30
0.0
 11
269.8837957843343
 21
479.3292514583511
 31
0.0
  0
SPLINE
  5
FBD
330
A
100
AcDbEntity
  8
HIDDEN
  6
HIDDEN
 48
0.05
100
AcDbSpline
210
0.0
220
0.0
230
1.0
 70
  1064
 71
     3
 72
    17
 73
    13
 74
    11
 42
0.000000001
 43
0.0000000001
 44
0.0
 40
0.0
 40
0.0
 40
0.0
 40
0.0
 40
5.875865637039728
 40
16.67620142539151
 40
37.21756140043872
 40
60.80219812649432
 40
82.98036785477726
 40
99.90841169005255
 40
111.0531259386841
 40
112.8958287366726
 40
116.4083157124848
 40
117.9764346159079
 40
117.9764346159079
 40
117.9764346159079
 40
117.9764346159079
 10
137.1782953868433
 20
554.3682973846032
 30
0.0
 10
139.049401617075
 20
553.525938934517
 30
0.0
 10
144.3597586454855
 20
551.1352547266498
 30
0.0
 10
146.1987570688017
 20
537.4204759823173
 30
0.0
 10
153.4796393983858
 20
520.9041756418613
 30
0.0
 10
168.1706775005241
 20
504.3078822902327
 30
0.0
 10
184.976545833689
 20
489.8805420975674
 30
0.0
 10
201.3465998409064
 20
488.9385403989384
 30
0.0
 10
212.9691158171934
 20
488.7654861168157
 30
0.0
 10
215.9640446309108
 20
483.9204156306637
 30
0.0
 10
216.0253664130028
 20
481.5371819602552
 30
0.0
 10
216.020205701733
 20
479.8499975669148
 30
0.0
 10
216.0186128584601
 20
479.3292514583511
 30
0.0
 11
137.1782953868433
 21
554.3682973846032
 31
0.0
 11
142.234630150921
 21
551.3750924570843
 31
0.0
 11
146.0268812232375
 21
541.2624229309074
 31
0.0
 11
153.9274042905633
 21
522.3011675693253
 31
0.0
 11
169.0475643860177
 21
504.2010060178961
 31
0.0
 11
187.1096011733325
 21
491.3311171454072
 31
0.0
 11
203.8711044166512
 21
488.9624303545422
 31
0.0
 11
214.6034214476267
 21
485.9587614596264
 31
0.0
 11
215.5514842157058
 21
484.3786568461603
 31
0.0
 11
216.0186128584601
 21
480.8973703617742
 31
0.0
 11
216.0186128584601
 21
479.3292514583511
 31
0.0
  0
SPLINE
  5
FBE
330
A
100
AcDbEntity
  8
HIDDEN
  6
HIDDEN
 48
0.05
100
AcDbSpline
210
0.0
220
0.0
230
1.0
 70
  1064
 71
     3
 72
    19
 73
    15
 74
    13
 42
0.000000001
 43
0.0000000001
 44
0.0
 40
0.0
 40
0.0
 40
0.0
 40
0.0
 40
3.060899239142812
 40
6.743817294300399
 40
16.45568992421456
 40
38.1448292008177
 40
61.53389590460678
 40
90.60141448884563
 40
121.669589835955
 40
140.0022914942281
 40
153.9189087580432
 40
165.9872178104617
 40
173.5352708118158
 40
175.8429864298612
 40
175.8429864298612
 40
175.8429864298612
 40
175.8429864298612
 10
269.8837957843343
 20
479.3292514583511
 30
0.0
 10
269.9922365174392
 20
480.3248572784169
 30
0.0
 10
270.2311547026466
 20
482.5183903623563
 30
0.0
 10
270.3686328711008
 20
488.587824240169
 30
0.0
 10
285.5603744055014
 20
489.3995504241493
 30
0.0
 10
301.7293920388405
 20
490.0934294238783
 30
0.0
 10
325.8880134750394
 20
498.8960768787161
 30
0.0
 10
351.7738086686418
 20
508.2960540696509
 30
0.0
 10
374.730507802299
 20
521.3576191036066
 30
0.0
 10
391.5369679715642
 20
534.1390169973664
 30
0.0
 10
402.5806580932237
 20
543.970589492188
 30
0.0
 10
410.8685270367214
 20
551.4436674351409
 30
0.0
 10
417.8717077812976
 20
554.5124302266845
 30
0.0
 10
421.1685654149159
 20
554.3956429711351
 30
0.0
 10
421.9405204135953
 20
554.3682973846032
 30
0.0
 11
269.8837957843343
 21
479.3292514583511
 31
0.0
 11
270.1715053861856
 21
482.3765990488284
 31
0.0
 11
270.7482820826183
 21
486.0140726285892
 31
0.0
 11
279.9598569996074
 21
489.0909797653701
 31
0.0
 11
301.5482873784463
 21
491.1786666044134
 31
0.0
 11
323.8719205913017
 21
498.15748036122
 31
0.0
 11
350.9098885842222
 21
508.8284186263811
 31
0.0
 11
377.9263430344492
 21
524.1693021842973
 31
0.0
 11
392.5399164103696
 21
535.2386934628564
 31
0.0
 11
403.0260534841875
 21
544.3881833577423
 31
0.0
 11
412.522334035566
 21
551.8356486362243
 31
0.0
 11
419.6328047955499
 21
554.3682973846032
 31
0.0
 11
421.9405204135953
 21
554.3682973846032
 31
0.0
  0
DIMENSION
  5
FBF
102
{ACAD_REACTORS
330
FC1
102
}
102
{ACAD_XDICTIONARY
360
FC0
102
}
330
A
100
AcDbEntity
  8
DIM
100
AcDbDimension
  2
*D26
 10
821.8709282521602
 20
414.0939567816065
 30
0.0
 11
779.3708710224025
 21
430.0939567816065
 31
0.0
 70
    32
 71
     5
 42
85.00011445951532
 73
     0
 74
     0
 75
     0
  3
tfrom線あり
100
AcDbAlignedDimension
 13
736.8708137926449
 23
464.3682973846032
 33
0.0
 14
821.8709282521602
 24
464.3682973846032
 34
0.0
100
AcDbRotatedDimension
  0
LWPOLYLINE
  5
FC2
330
A
100
AcDbEntity
  8
HIDDEN
 48
0.025
100
AcDbPolyline
 90
        4
 70
     1
 43
0.0
 10
775.8048845854689
 20
494.0960938071164
 10
775.8048845854689
 20
479.3292514583511
 10
782.9368574612815
 20
479.3292514583511
 10
782.9368574612815
 20
494.0960938071164
  0
LWPOLYLINE
  5
FC3
330
A
100
AcDbEntity
  8
HIDDEN
 48
0.025
100
AcDbPolyline
 90
        4
 70
     1
 43
0.0
 10
770.6208710233752
 20
496.2203671012392
 10
770.6208710233752
 20
494.0960938071164
 10
788.1208710233752
 20
494.0960938071164
 10
788.1208710233752
 20
496.2203671012392
  0
LINE
  5
FC4
330
A
100
AcDbEntity
  8
HIDDEN
  6
HIDDEN
 48
0.05
100
AcDbLine
 10
216.0186128584601
 20
479.3292514583511
 30
0.0
 11
216.0186128585528
 21
464.3682973846032
 31
0.0
  0
LINE
  5
FC5
330
A
100
AcDbEntity
  8
HIDDEN
  6
HIDDEN
 48
0.05
100
AcDbLine
 10
269.8837957843343
 20
479.3292514583511
 30
0.0
 11
269.8837957843346
 21
464.3682973846032
 31
0.0
  0
LINE
  5
FC6
330
A
100
AcDbEntity
  8
HIDDEN
 48
0.05
100
AcDbLine
 10
806.3034624863133
 20
479.3292514583511
 30
0.0
 11
806.3034624863142
 21
464.3682973846032
 31
0.0
  0
LINE
  5
FC7
330
A
100
AcDbEntity
  8
HIDDEN
 48
0.05
100
AcDbLine
 10
752.4382795604395
 20
479.3292514583511
 30
0.0
 11
752.4382795605322
 21
464.3682973846032
 31
0.0
  0
LINE
  5
FC8
330
A
100
AcDbEntity
  8
HIDDEN
 48
0.05
100
AcDbLine
 10
752.4382795604395
 20
479.3292514583511
 30
0.0
 11
806.3034624863133
 21
479.3292514583511
 31
0.0
  0
SPLINE
  5
FC9
330
A
100
AcDbEntity
  8
HIDDEN
100
AcDbSpline
210
0.0
220
0.0
230
1.0
 70
     8
 71
     3
 72
     9
 73
     5
 74
     0
 42
0.000000001
 43
0.0000000001
 40
0.0
 40
0.0
 40
0.0
 40
0.0
 40
6.250755570473639
 40
7.129376579501861
 40
7.129376579501861
 40
7.129376579501861
 40
7.129376579501861
 10
678.1576468664923
 20
554.3682973846032
 30
0.0
 10
680.9368604792842
 20
554.3682973846032
 30
0.0
 10
683.8034770817501
 20
554.091213705957
 30
0.0
 10
684.2309777967992
 20
552.1155067683183
 30
0.0
 10
684.399567783167
 20
551.1037719825633
 30
0.0
  0
ARC
  5
FCA
330
A
100
AcDbEntity
  8
HIDDEN
 48
0.05
100
AcDbCircle
 10
756.9354804495122
 20
565.274973078637
 30
0.0
 40
73.90724975836179
100
AcDbArc
 50
191.0545237996399
 51
269.77417362131
  0
SPLINE
  5
FCB
330
A
100
AcDbEntity
  8
HIDDEN
 48
0.05
100
AcDbSpline
210
0.0
220
0.0
230
1.0
 70
     8
 71
     3
 72
    12
 73
     8
 74
     0
 42
0.000000001
 43
0.0000000001
 40
110.0105351219823
 40
110.0105351219823
 40
110.0105351219823
 40
110.0105351219823
 40
119.794940240128
 40
122.2640318620788
 40
123.8720738250673
 40
125.6354592339944
 40
127.1514855478017
 40
127.1514855478017
 40
127.1514855478017
 40
127.1514855478017
 10
756.6441821462029
 20
491.3682973846014
 30
0.0
 10
766.044512541979
 20
491.3276317421262
 30
0.0
 10
769.7645063656171
 20
491.0974302843613
 30
0.0
 10
773.5390284593784
 20
490.9446157958694
 30
0.0
 10
775.6871844528293
 20
488.7956505141303
 30
0.0
 10
775.830500407588
 20
487.2199389310483
 30
0.0
 10
775.8129827529544
 20
486.12026970802
 30
0.0
 10
775.8048845854689
 20
485.6119079591624
 30
0.0
  0
ARC
  5
FCC
330
A
100
AcDbEntity
  8
HIDDEN
 48
0.05
100
AcDbCircle
 10
801.8062615972392
 20
565.274973078637
 30
0.0
 40
73.90724975836179
100
AcDbArc
 50
270.22582637869
 51
348.9454762003601
  0
SPLINE
  5
FCD
330
A
100
AcDbEntity
  8
HIDDEN
 48
0.05
100
AcDbSpline
210
0.0
220
0.0
230
1.0
 70
     8
 71
     3
 72
    12
 73
     8
 74
     0
 42
0.000000001
 43
0.0000000001
 40
110.0105351219823
 40
110.0105351219823
 40
110.0105351219823
 40
110.0105351219823
 40
119.794940240128
 40
122.2640318620788
 40
123.8720738250673
 40
125.6354592339944
 40
127.1514855478017
 40
127.1514855478017
 40
127.1514855478017
 40
127.1514855478017
 10
802.0975599005471
 20
491.3682973846014
 30
0.0
 10
792.6972295047715
 20
491.3276317421262
 30
0.0
 10
788.9772356811343
 20
491.0974302843613
 30
0.0
 10
785.202713587373
 20
490.9446157958694
 30
0.0
 10
783.054557593922
 20
488.7956505141303
 30
0.0
 10
782.9112416391624
 20
487.2199389310483
 30
0.0
 10
782.928759293796
 20
486.12026970802
 30
0.0
 10
782.9368574612815
 20
485.6119079591624
 30
0.0
  0
SPLINE
  5
FCE
330
A
100
AcDbEntity
  8
MODEL
  6
HIDDEN
 48
0.05
100
AcDbSpline
210
0.0
220
0.0
230
1.0
 70
     8
 71
     3
 72
     9
 73
     5
 74
     0
 42
0.000000001
 43
0.00000001
 40
0.0
 40
0.0
 40
0.0
 40
0.0
 40
0.4623865990412394
 40
1.0
 40
1.0
 40
1.0
 40
1.0
 10
685.2618464677969
 20
902.585069128347
 30
0.0
 10
683.8313585899552
 20
902.983240620151
 30
0.0
 10
680.7376532775472
 20
903.8443630934801
 30
0.0
 10
677.6119742638864
 20
904.8165941577261
 30
0.0
 10
675.9315673390545
 20
905.3392786066931
 30
0.0
  0
SPLINE
  5
FCF
330
A
100
AcDbEntity
  8
MODEL
  6
HIDDEN
 48
0.05
100
AcDbSpline
210
0.0
220
0.0
230
1.0
 70
     8
 71
     3
 72
    11
 73
     7
 74
     0
 42
0.000000001
 43
0.00000001
 40
0.0
 40
0.0
 40
0.0
 40
0.0
 40
0.2403935951801969
 40
0.5473044530813107
 40
0.7986095929623095
 40
1.0
 40
1.0
 40
1.0
 40
1.0
 10
616.3099876558433
 20
952.4676310030379
 30
0.0
 10
615.8802325262611
 20
953.2203402905341
 30
0.0
 10
614.9018083882213
 20
954.9340346367301
 30
0.0
 10
613.597424320981
 20
957.4766005496319
 30
0.0
 10
612.4175927565473
 20
959.9051939527951
 30
0.0
 10
611.8113194071072
 20
961.2478802884777
 30
0.0
 10
611.5416069315781
 20
961.8452003847508
 30
0.0
  0
SPLINE
  5
FD0
330
A
100
AcDbEntity
  8
MODEL
  6
HIDDEN
 48
0.05
100
AcDbSpline
210
0.0
220
0.0
230
1.0
 70
     8
 71
     3
 72
    11
 73
     7
 74
     0
 42
0.000000001
 43
0.00000001
 40
0.0
 40
0.0
 40
0.0
 40
0.0
 40
0.2046681533709009
 40
0.4600620889843896
 40
0.8414167343692265
 40
1.0
 40
1.0
 40
1.0
 40
1.0
 10
611.5416069316441
 20
1044.575263126463
 30
0.0
 10
611.8112317200741
 20
1045.172640022645
 30
0.0
 10
612.4173061941281
 20
1046.515450119097
 30
0.0
 10
613.7051128175392
 20
1049.160681811749
 30
0.0
 10
614.9823554204952
 20
1051.658988082143
 30
0.0
 10
615.9479450948809
 20
1053.312787151039
 30
0.0
 10
616.2315450435001
 20
1053.798518661443
 30
0.0
  0
SPLINE
  5
FD1
330
A
100
AcDbEntity
  8
MODEL
  6
HIDDEN
 48
0.05
100
AcDbSpline
210
0.0
220
0.0
230
1.0
 70
     8
 71
     3
 72
     9
 73
     5
 74
     0
 42
0.000000001
 43
0.00000001
 40
0.0
 40
0.0
 40
0.0
 40
0.0
 40
0.2565059861568779
 40
0.9999999999999999
 40
0.9999999999999999
 40
0.9999999999999999
 40
0.9999999999999999
 10
679.4638847972262
 20
1102.161568906319
 30
0.0
 10
679.9616567635551
 20
1102.314764239267
 30
0.0
 10
681.9022429221543
 20
1102.912003061029
 30
0.0
 10
683.8228817817169
 20
1103.440384709271
 30
0.0
 10
685.2508652765562
 20
1103.833233301763
 30
0.0
  0
SPLINE
  5
FD2
330
A
100
AcDbEntity
  8
HIDDEN
  6
HIDDEN
 48
0.05
100
AcDbSpline
210
0.0
220
0.0
230
1.0
 70
    11
 71
     3
 72
    70
 73
    66
 74
     0
 42
0.000000001
 43
0.00000001
 40
0.0
 40
0.0
 40
0.0
 40
0.0
 40
0.0062500000000001
 40
0.03125
 40
0.07421875
 40
0.0859375
 40
0.08984375
 40
0.1015625
 40
0.109375
 40
0.15625
 40
0.17578125
 40
0.197265625
 40
0.201171875
 40
0.21875
 40
0.234375
 40
0.2421875
 40
0.25
 40
0.2578125
 40
0.265625
 40
0.2734375
 40
0.27734375
 40
0.3125
 40
0.34375
 40
0.359375
 40
0.390625
 40
0.3984375
 40
0.41015625
 40
0.4140625
 40
0.42578125
 40
0.453125
 40
0.484375
 40
0.4921875
 40
0.5
 40
0.5078125
 40
0.515625
 40
0.546875
 40
0.57421875
 40
0.5859375
 40
0.58984375
 40
0.6015625
 40
0.609375
 40
0.640625
 40
0.65625
 40
0.6875
 40
0.71484375
 40
0.71875
 40
0.7265625
 40
0.734375
 40
0.7421875
 40
0.75
 40
0.7578125
 40
0.765625
 40
0.78125
 40
0.796875
 40
0.8037109375
 40
0.828125
 40
0.84375
 40
0.890625
 40
0.8984375
 40
0.91015625
 40
0.9140625
 40
0.92578125
 40
0.96875
 40
0.99375
 40
1.0
 40
1.0
 40
1.0
 40
1.0
 10
602.7787869645133
 20
1003.210231755535
 30
0.0
 10
602.7787869645133
 20
1001.947179895657
 30
0.0
 10
602.8946896029031
 20
995.6520732142801
 30
0.0
 10
604.5310413788854
 20
980.9549283311869
 30
0.0
 10
609.3239013184964
 20
965.9020790773668
 30
0.0
 10
614.6124288932285
 20
955.444831443009
 30
0.0
 10
617.3190759273232
 20
950.655420346983
 30
0.0
 10
619.8446464164692
 20
946.6305931605768
 30
0.0
 10
627.7421927251369
 20
935.542509008076
 30
0.0
 10
638.8925541154629
 20
924.1771093227769
 30
0.0
 10
656.136105405926
 20
913.1428536668179
 30
0.0
 10
666.4083319030785
 20
908.4798385709989
 30
0.0
 10
677.3183270453835
 20
904.8440242380191
 30
0.0
 10
687.2403265021155
 20
901.8993889919859
 30
0.0
 10
699.3887040889192
 20
899.0966670717878
 30
0.0
 10
709.4895108204753
 20
897.2703669175191
 30
0.0
 10
717.7245277392533
 20
896.072124788983
 30
0.0
 10
726.3851245850262
 20
895.119530354403
 30
0.0
 10
735.2374694146954
 20
894.4867483205442
 30
0.0
 10
742.856748397028
 20
894.223075521332
 30
0.0
 10
761.4758664101921
 20
894.1604294249721
 30
0.0
 10
790.941364358953
 20
895.6592730110408
 30
0.0
 10
827.1940029219143
 20
901.4002518051332
 30
0.0
 10
861.7777486831353
 20
910.1937539753437
 30
0.0
 10
885.395430575855
 20
918.879052817638
 30
0.0
 10
905.1590241720862
 20
928.7965304817028
 30
0.0
 10
913.6718292076064
 20
933.7689046963831
 30
0.0
 10
922.9227653179503
 20
939.878055309732
 30
0.0
 10
936.3316374560261
 20
949.929153770129
 30
0.0
 10
952.9502268036183
 20
967.7167831458289
 30
0.0
 10
960.6168772385015
 20
985.2545226890782
 30
0.0
 10
962.568630341181
 20
997.324266441037
 30
0.0
 10
962.8939225287352
 20
1003.210231754498
 30
0.0
 10
962.5686303447312
 20
1009.096197068908
 30
0.0
 10
960.6168772180702
 20
1021.165940826601
 30
0.0
 10
952.9502267800224
 20
1038.703680369343
 30
0.0
 10
936.3316362112771
 20
1056.491309959629
 30
0.0
 10
922.922767677667
 20
1066.542407786745
 30
0.0
 10
913.6718269265209
 20
1072.651559215463
 30
0.0
 10
905.1590340072241
 20
1077.623931301391
 30
0.0
 10
885.3954054229714
 20
1087.541415112564
 30
0.0
 10
861.7776658913524
 20
1096.226724070157
 30
0.0
 10
827.1941204944185
 20
1105.020191079757
 30
0.0
 10
794.3923012780672
 20
1110.22000763711
 30
0.0
 10
768.0351557096899
 20
1111.888038359774
 30
0.0
 10
752.187466705657
 20
1112.201910234495
 30
0.0
 10
744.3798970676314
 20
1112.246701257123
 30
0.0
 10
735.2378549135854
 20
1111.935527589869
 30
0.0
 10
726.384916222846
 20
1111.299954529708
 30
0.0
 10
717.7242870365833
 20
1110.347144687783
 30
0.0
 10
709.4894580064745
 20
1109.149786146076
 30
0.0
 10
699.3887403767465
 20
1107.324160600058
 30
0.0
 10
687.8185813301413
 20
1104.654262118957
 30
0.0
 10
677.5670447732434
 20
1101.658510180891
 30
0.0
 10
665.6444795463851
 20
1097.704971583499
 30
0.0
 10
655.1237643331285
 20
1092.696598795608
 30
0.0
 10
638.3062611387529
 20
1081.644816353046
 30
0.0
 10
627.7421927251442
 20
1070.877954503014
 30
0.0
 10
619.8446464164692
 20
1059.789870350489
 30
0.0
 10
617.3190759273232
 20
1055.765043164085
 30
0.0
 10
614.6124288932285
 20
1050.975632068059
 30
0.0
 10
609.3239013184964
 20
1040.518384433703
 30
0.0
 10
604.5310413788854
 20
1025.465535179878
 30
0.0
 10
602.8946896029031
 20
1010.768390296786
 30
0.0
 10
602.7787869645133
 20
1004.473283615409
 30
0.0
 10
602.7787869645133
 20
1003.210231755535
 30
0.0
  0
CIRCLE
  5
FD7
330
A
100
AcDbEntity
  8
HIDDEN
  6
HIDDEN
 48
0.05
100
AcDbCircle
 10
717.0337694539119
 20
1003.210231755534
 30
0.0
 40
26.5
  0
CIRCLE
  5
FD8
102
{ACAD_REACTORS
330
FDC
102
}
330
A
100
AcDbEntity
  8
MODEL
100
AcDbCircle
 10
667.0337694539119
 20
1003.210231755535
 30
0.0
 40
5.0
  0
CIRCLE
  5
FD9
102
{ACAD_REACTORS
330
FDC
102
}
330
A
100
AcDbEntity
  8
MODEL
100
AcDbCircle
 10
767.0337694539119
 20
1003.210231755531
 30
0.0
 40
5.0
  0
DIMENSION
  5
FDA
102
{ACAD_REACTORS
330
FDC
102
}
102
{ACAD_XDICTIONARY
360
FDB
102
}
330
A
100
AcDbEntity
  8
DIM
100
AcDbDimension
  2
*D27
 10
667.0337694539119
 20
1155.127077780613
 30
0.0
 11
717.0337694539119
 21
1155.127077780613
 31
0.0
 70
   160
 71
     5
 42
100.0
 73
     0
 74
     0
 75
     0
  3
tfrom線あり
100
AcDbAlignedDimension
 13
767.0337694539119
 23
1008.210231755531
 33
0.0
 14
667.0337694539119
 24
1008.210231755535
 34
0.0
100
AcDbRotatedDimension
  0
CIRCLE
  5
FDD
102
{ACAD_REACTORS
330
12FB
102
}
330
A
100
AcDbEntity
  8
MODEL
 48
0.05
100
AcDbCircle
 10
717.0337694539119
 20
1003.210231755534
 30
0.0
 40
35.0
  0
MTEXT
  5
FDE
330
A
100
AcDbEntity
  8
MODEL
390
1D
100
AcDbMText
 10
655.5044762711739
 20
834.333503456978
 30
0.0
 40
12.0
 41
949.7161250932045
 46
26.688
 71
     1
 72
     1
  1
{\C7;φ10固定金具用穴}
  7
ＭＳ ゴシック
 73
     1
 44
0.9822934569727008
1001
ACAD
1000
ACAD_MTEXT_DEFINED_HEIGHT_BEGIN
1070
    46
1040
26.688
1000
ACAD_MTEXT_DEFINED_HEIGHT_END
  0
LINE
  5
FDF
330
A
100
AcDbEntity
  8
DIM
100
AcDbLine
 10
766.0036083958432
 20
994.9905378263641
 30
0.0
 11
717.0337694539119
 21
852.605523604029
 31
0.0
  0
LINE
  5
FE1
330
A
100
AcDbEntity
  8
DIM
100
AcDbLine
 10
668.063930511981
 20
994.9905378263641
 30
0.0
 11
717.0337694539119
 21
852.605523604029
 31
0.0
  0
MTEXT
  5
FE2
330
A
100
AcDbEntity
  8
DIM
390
1D
100
AcDbMText
 10
696.6249636057389
 20
1241.639939346116
 30
0.0
 40
12.0
 41
0.0
 46
0.0
 71
     1
 72
     1
  1
カウンター切込寸法
  7
ＭＳ ゴシック
 73
     1
 44
0.7828267384257843
  0
MTEXT
  5
FE3
330
A
100
AcDbEntity
  8
MODEL
390
1D
100
AcDbMText
 10
611.2376359742718
 20
782.045729893506
 30
0.0
 40
12.0
 41
949.7161250932047
 46
52.63573827890803
 71
     1
 72
     1
  1
{\C7;※陶器製品には寸法公差がありますので、\P　必ず現物合わせでカウンターに切込を\P　行ってください。}
  7
ＭＳ ゴシック
 73
     1
 44
0.9822934569727008
1001
ACAD
1000
ACAD_MTEXT_DEFINED_HEIGHT_BEGIN
1070
    46
1040
52.63573827890803
1000
ACAD_MTEXT_DEFINED_HEIGHT_END
  0
MTEXT
  5
FE4
330
A
100
AcDbEntity
  8
DIM
390
1D
100
AcDbMText
 10
828.9384379166165
 20
1048.310127233373
 30
0.0
 40
12.0
 41
949.7161250932045
 46
27.888
 71
     1
 72
     1
  1
{\C7;φ70}
  7
ＭＳ ゴシック
 73
     1
 44
0.9822934569727008
1001
ACAD
1000
ACAD_MTEXT_DEFINED_HEIGHT_BEGIN
1070
    46
1040
27.888
1000
ACAD_MTEXT_DEFINED_HEIGHT_END
  0
LINE
  5
FE5
330
A
100
AcDbEntity
  8
DIM
100
AcDbLine
 10
822.8483005089681
 20
1036.482655541652
 30
0.0
 11
749.5843965443444
 21
1016.073228141277
 31
0.0
  0
SPLINE
  5
FE6
330
A
100
AcDbEntity
  8
HIDDEN
100
AcDbSpline
210
0.0
220
0.0
230
1.0
 70
     8
 71
     3
 72
     9
 73
     5
 74
     0
 42
0.000000001
 43
0.0000000001
 40
0.0
 40
0.0
 40
0.0
 40
0.0
 40
6.250755570473639
 40
7.129376579501861
 40
7.129376579501861
 40
7.129376579501861
 40
7.129376579501861
 10
880.5840951802581
 20
554.3682973846032
 30
0.0
 10
877.8048815674663
 20
554.3682973846032
 30
0.0
 10
874.9382649650004
 20
554.091213705957
 30
0.0
 10
874.5107642499513
 20
552.1155067683183
 30
0.0
 10
874.3421742635835
 20
551.1037719825633
 30
0.0
  0
MTEXT
  5
10AA
330
A
100
AcDbEntity
  8
TEMPLATE
390
1D
100
AcDbMText
 10
664.601072273995
 20
198.8154661516288
 30
0.0
 40
12.21630859375
 41
0.0
 46
13.64561669921875
 71
     1
 72
     1
  1
{BRS70-0102-003(ブラック)}
  7
ＭＳ ゴシック
 73
     1
 44
0.7828267384257843
1001
ACAD
1000
ACAD_MTEXT_DEFINED_HEIGHT_BEGIN
1070
    46
1040
13.64561669921875
1000
ACAD_MTEXT_DEFINED_HEIGHT_END
  0
MTEXT
  5
10AB
330
A
100
AcDbEntity
  8
TEMPLATE
390
1D
100
AcDbMText
 10
664.601072273995
 20
219.0741149679554
 30
0.0
 40
12.21630859375
 41
0.0
 46
13.64561669921875
 71
     1
 72
     1
  1
{BRS70-0102-001(ホワイト)}
  7
ＭＳ ゴシック
 73
     1
 44
0.7828267384257843
1001
ACAD
1000
ACAD_MTEXT_DEFINED_HEIGHT_BEGIN
1070
    46
1040
13.64561669921875
1000
ACAD_MTEXT_DEFINED_HEIGHT_END
  0
DIMENSION
  5
10E4
330
A
100
AcDbEntity
  8
DIM
 48
0.05
100
AcDbDimension
  2
*D28
 10
307.9512981702044
 20
356.5032297764886
 30
0.0
 11
242.9512027865765
 21
356.5032297764886
 31
0.0
 70
   160
 71
     5
 42
130.0000953836279
 73
     0
 74
     0
 75
     0
  3
tfrom線あり
100
AcDbAlignedDimension
 13
177.9512027865765
 23
464.5019709071976
 33
0.0
 14
307.9512981702044
 24
464.3682973846032
 34
0.0
100
AcDbRotatedDimension
  0
LINE
  5
1155
330
A
100
AcDbEntity
  8
MODEL
 48
0.05
100
AcDbLine
 10
487.9577176317741
 20
464.3682973846032
 30
0.0
 11
277.9512043213965
 21
464.3682973846032
 31
0.0
  0
LINE
  5
116B
330
A
100
AcDbEntity
  8
MODEL
 48
0.05
100
AcDbLine
 10
487.9577176317741
 20
447.794961031212
 30
0.0
 11
277.9512043213965
 21
447.794961031212
 31
0.0
  0
DIMENSION
  5
1178
330
A
100
AcDbEntity
  8
DIM
 48
0.05
100
AcDbDimension
  2
*D29
 10
105.2412132312268
 20
447.794961031212
 30
0.0
 11
105.2412132312268
 21
400.7331003564709
 31
0.0
 70
   160
  1
MAX 45
 71
     5
 42
16.5733363533912
 73
     0
 74
     1
 75
     1
  3
tfrom線あり
100
AcDbAlignedDimension
 13
128.1284434798374
 23
464.3682973846032
 33
0.0
 14
128.1284434798374
 24
447.794961031212
 34
0.0
 50
90.0
100
AcDbRotatedDimension
1001
ACAD
1000
DSTYLE
1002
{
1070
    76
1070
     0
1070
    75
1070
     0
1070
   172
1070
     1
1002
}
  0
SPLINE
  5
1285
330
A
100
AcDbEntity
  8
MODEL
 48
0.05
370
     0
100
AcDbSpline
210
0.0
220
0.0
230
1.0
 70
  1064
 71
     3
 72
    23
 73
    19
 74
    17
 42
0.000000001
 43
0.0000000001
 44
0.0
 40
0.0
 40
0.0
 40
0.0
 40
0.0
 40
23.84934239369715
 40
46.49571843982939
 40
70.66504601232435
 40
95.96906156313959
 40
121.2839126919106
 40
153.9443065107068
 40
165.1951369272841
 40
204.5347328722465
 40
226.5712184356248
 40
246.900582577466
 40
273.5308710528464
 40
301.7777517441841
 40
322.7999253654033
 40
343.0374018781725
 40
372.2534817826597
 40
385.3462957876769
 40
385.3462957876769
 40
385.3462957876769
 40
385.3462957876769
 10
142.0799096146493
 20
1003.210231755535
 30
0.0
 10
142.4415249031869
 20
1011.203337185358
 30
0.0
 10
143.1465155214535
 20
1026.786373958024
 30
0.0
 10
151.9678889081278
 20
1049.004076981287
 30
0.0
 10
166.2524644870057
 20
1068.840964748339
 30
0.0
 10
187.6177781012422
 20
1082.541469617836
 30
0.0
 10
213.6041146613558
 20
1092.4646810371
 30
0.0
 10
236.4057633488057
 20
1097.033577743456
 30
0.0
 10
264.0930760607914
 20
1098.871902707215
 30
0.0
 10
288.3957838879503
 20
1098.849303468145
 30
0.0
 10
315.4368233484198
 20
1095.217871463646
 30
0.0
 10
337.8189506848374
 20
1089.761683541284
 30
0.0
 10
361.4288964037564
 20
1081.182854096522
 30
0.0
 10
384.3167226247802
 20
1070.334893555438
 30
0.0
 10
403.9501897398633
 20
1057.761414187727
 30
0.0
 10
420.4852479886139
 20
1040.928367513599
 30
0.0
 10
430.6578513917187
 20
1021.694732643612
 30
0.0
 10
431.7438415669662
 20
1007.578583223626
 30
0.0
 10
432.0799096146493
 20
1003.210231755535
 30
0.0
 11
142.0799096146493
 21
1003.210231755535
 31
0.0
 11
144.5063837085843
 21
1026.935816175803
 31
0.0
 11
152.5800389810136
 21
1048.094134600593
 31
0.0
 11
167.0621754711493
 21
1067.444176409014
 31
0.0
 11
187.9481293944507
 21
1081.729488156037
 31
0.0
 11
211.5037045142476
 21
1091.001843220822
 31
0.0
 11
243.5353104524227
 21
1097.3797382827
 31
0.0
 11
254.75651871983
 21
1098.195624354434
 31
0.0
 11
294.0933716506298
 21
1097.731070144967
 31
0.0
 11
315.9266068217227
 21
1094.745012886854
 31
0.0
 11
335.6828764423379
 21
1089.952012043005
 31
0.0
 11
360.7614093346641
 21
1080.994364346735
 31
0.0
 11
386.186287761822
 21
1068.687381542046
 31
0.0
 11
403.6593347081226
 21
1056.998736874119
 31
0.0
 11
417.7825749792133
 21
1042.504271038845
 31
0.0
 11
430.5167363243112
 21
1016.209395876137
 31
0.0
 11
432.0799096146493
 21
1003.210231755535
 31
0.0
  0
SPLINE
  5
12AE
330
A
100
AcDbEntity
  8
MODEL
 48
0.05
370
     0
100
AcDbSpline
210
0.0
220
0.0
230
1.0
 70
  1064
 71
     3
 72
    23
 73
    19
 74
    17
 42
0.000000001
 43
0.0000000001
 44
0.0
 40
0.0
 40
0.0
 40
0.0
 40
0.0
 40
23.8493423936964
 40
46.49571843982923
 40
70.66504601232397
 40
95.96906156313896
 40
121.2839126919103
 40
153.9443065107064
 40
165.1951369272836
 40
204.5347328722461
 40
226.5712184356243
 40
246.9005825774656
 40
273.5308710528461
 40
301.7777517441838
 40
322.7999253654027
 40
343.037401878172
 40
372.253481782659
 40
385.346295787676
 40
385.346295787676
 40
385.346295787676
 40
385.346295787676
 10
142.0799096146494
 20
1003.210231792949
 30
0.0
 10
142.4415249021559
 20
995.2171263630803
 30
0.0
 10
143.1465155184121
 20
979.6340895903223
 30
0.0
 10
151.9678889022194
 20
957.4163865659216
 30
0.0
 10
166.2524644785384
 20
937.5794987970271
 30
0.0
 10
187.6177780910077
 20
923.8789939247738
 30
0.0
 10
213.6041146498405
 20
913.9557825021561
 30
0.0
 10
236.4057633367012
 20
909.3868857928594
 30
0.0
 10
264.0930760484496
 20
907.5485608255278
 30
0.0
 10
288.3957838756119
 20
907.5711600614623
 30
0.0
 10
315.4368233365493
 20
911.2025920624747
 30
0.0
 10
337.8189506736715
 20
916.6587799819465
 30
0.0
 10
361.4288963936966
 20
925.2376094236645
 30
0.0
 10
384.3167226161199
 20
936.0855699617948
 30
0.0
 10
403.9501897328257
 20
948.6590493269724
 30
0.0
 10
420.4852479837477
 20
965.492095998967
 30
0.0
 10
430.6578513893338
 20
984.7257308676415
 30
0.0
 10
431.7438415664028
 20
998.8418802874871
 30
0.0
 10
432.0799096146494
 20
1003.210231755535
 30
0.0
 11
142.0799096146494
 21
1003.210231792949
 31
0.0
 11
144.5063837055234
 21
979.4846473723687
 31
0.0
 11
152.5800389752229
 21
958.3263289465365
 31
0.0
 11
167.0621754628622
 21
938.9762871362473
 31
0.0
 11
187.9481293843206
 21
924.6909753865302
 31
0.0
 11
211.5037045029213
 21
915.4186203187055
 31
0.0
 11
243.5353104402735
 21
909.0407252526954
 31
0.0
 11
254.7565187075755
 21
908.2248391795138
 31
0.0
 11
294.0933716384353
 21
908.6893933839056
 31
0.0
 11
315.9266068099134
 21
911.6754506392022
 31
0.0
 11
335.6828764311471
 21
916.4684514805017
 31
0.0
 11
360.7614093246289
 21
925.4260991735368
 31
0.0
 11
386.1862877533745
 21
937.7330819749457
 31
0.0
 11
403.6593347011832
 21
949.4217266406179
 31
0.0
 11
417.7825749741439
 21
963.9161924740699
 31
0.0
 11
430.5167363226341
 21
990.2110676351348
 31
0.0
 11
432.0799096146494
 21
1003.210231755535
 31
0.0
  0
LINE
  5
12D5
330
A
100
AcDbEntity
  8
HIDDEN
 48
0.05
100
AcDbLine
 10
210.9246693885231
 20
488.2136527575259
 30
0.0
 11
274.0399336590644
 21
488.3856422591543
 31
0.0
  0
HATCH
  5
12FB
330
A
100
AcDbEntity
  8
MODEL
 48
0.05
100
AcDbHatch
 10
0.0
 20
0.0
 30
0.0
210
0.0
220
0.0
230
1.0
  2
ANSI31
 70
     0
 71
     1
 91
        1
 92
        1
 93
        1
 72
     2
 10
717.0337694539119
 20
1003.210231755534
 40
35.0
 50
0.0
 51
360.0
 73
     1
 97
        1
330
FDD
 75
     0
 76
     1
 52
0.0
 41
3.0
 77
     0
 78
     1
 53
45.0
 43
0.0
 44
0.0
 45
-6.735192090801863
 46
6.735192090801865
 79
     0
 98
        1
 10
0.0
 20
0.0
1001
ACAD
1010
0.0
1020
0.0
1030
0.0
  0
MTEXT
  5
133D
330
A
100
AcDbEntity
  8
DIM
390
1D
100
AcDbMText
 10
65.16328436341036
 20
361.3566362372901
 30
0.0
 40
12.21630859375
 41
0.0
 46
13.32799267578125
 71
     1
 72
     1
  1
{カウンター}
  7
ＭＳ ゴシック
 11
6.123233995736766E-17
 21
1.0
 31
0.0
 73
     1
 44
0.7828267384257843
1001
ACAD
1000
ACAD_MTEXT_DEFINED_HEIGHT_BEGIN
1070
    46
1040
13.32799267578125
1000
ACAD_MTEXT_DEFINED_HEIGHT_END
  0
DIMENSION
  5
1348
330
A
100
AcDbEntity
  8
DIM
 48
0.05
100
AcDbDimension
  2
*D33
 10
562.1791943975213
 20
444.3682973846032
 30
0.0
 11
546.1791943975213
 21
499.3682973846032
 31
0.0
 70
    32
 71
     5
 42
110.0
 73
     0
 74
     0
 75
     0
  3
tfrom線あり
100
AcDbAlignedDimension
 13
487.9579076222051
 23
554.3682973846032
 33
0.0
 14
263.9718838211948
 24
444.3682973846032
 34
0.0
 50
90.0
100
AcDbRotatedDimension
  0
DIMENSION
  5
1386
330
A
100
AcDbEntity
  8
DIM
 48
0.05
100
AcDbDimension
  2
*D36
 10
263.9512043213973
 20
412.8527585940233
 30
0.0
 11
242.9512043213973
 21
412.8527585940233
 31
0.0
 70
   160
  1
G1 1/4"
 71
     5
 42
42.0
 73
     0
 74
     0
 75
     0
  3
tfrom線あり
100
AcDbAlignedDimension
 13
221.9512043213973
 23
444.3682973846032
 33
0.0
 14
263.9512043213973
 24
444.3682973846032
 34
0.0
100
AcDbRotatedDimension
1001
ACAD
1000
DSTYLE
1002
{
1070
    77
1070
     2
1002
}
  0
LINE
  5
1388
330
A
100
AcDbEntity
  8
MODEL
  6
Continuous
 48
0.05
100
AcDbLine
 10
272.1225553090914
 20
456.7725360842134
 30
0.0
 11
213.7798533337033
 21
456.7725360842134
 31
0.0
  0
LINE
  5
1389
330
A
100
AcDbEntity
  8
HIDDEN
  6
Continuous
 48
0.05
100
AcDbLine
 10
221.9512043213973
 20
456.7725360842134
 30
0.0
 11
221.9512043213973
 21
444.3682973846032
 31
0.0
  0
LINE
  5
138A
330
A
100
AcDbEntity
  8
MODEL
  6
Continuous
 48
0.05
100
AcDbLine
 10
272.1225553090914
 20
456.7725360842134
 30
0.0
 11
272.1225553090914
 21
464.3682973846032
 31
0.0
  0
LINE
  5
138C
330
A
100
AcDbEntity
  8
MODEL
  6
Continuous
 48
0.05
100
AcDbLine
 10
263.9512043213973
 20
456.7725360842134
 30
0.0
 11
263.9512043213973
 21
444.3682973846032
 31
0.0
  0
LINE
  5
138D
330
A
100
AcDbEntity
  8
MODEL
  6
Continuous
 48
0.05
100
AcDbLine
 10
221.9512043213973
 20
444.3682973846032
 30
0.0
 11
263.9512043213973
 21
444.3682973846032
 31
0.0
  0
HATCH
  5
13BE
330
A
100
AcDbEntity
  8
MODEL
  6
Continuous
 48
0.05
370
     0
100
AcDbHatch
 10
0.0
 20
0.0
 30
0.0
210
0.0
220
0.0
230
1.0
  2
ANSI31
 70
     0
 71
     0
 91
        1
 92
        1
 93
        4
 72
     1
 10
263.9512043213973
 20
456.7725360842134
 11
263.9512043213973
 21
444.3682973846032
 72
     1
 10
224.5908870627213
 20
456.7725360842134
 11
261.3115215800733
 21
456.7725360842134
 72
     1
 10
221.9512043213973
 20
456.7725360842134
 11
221.9512043213973
 21
444.3682973846032
 72
     1
 10
221.9512043213973
 20
444.3682973846032
 11
263.9512043213973
 21
444.3682973846032
 97
        0
 75
     0
 76
     1
 52
145.0
 41
1.0
 77
     0
 78
     1
 53
190.0
 43
0.0
 44
0.0
 45
0.5513329640925042
 46
-3.12676461581376
 79
     0
 98
        1
 10
0.0
 20
0.0
1001
ACAD
1010
0.0
1020
0.0
1030
0.0
  0
LINE
  5
13C3
330
A
100
AcDbEntity
  8
MODEL
  6
Continuous
 48
0.05
100
AcDbLine
 10
213.7798533337033
 20
456.7725360842134
 30
0.0
 11
213.7798533337033
 21
464.3682973846032
 31
0.0
  0
LINE
  5
13E5
330
A
100
AcDbEntity
  8
HIDDEN
 48
0.05
100
AcDbLine
 10
244.8933970474524
 20
479.3292514583511
 30
0.0
 11
244.8933970474525
 21
464.3682973846032
 31
0.0
  0
LINE
  5
13EA
330
A
100
AcDbEntity
  8
HIDDEN
 48
0.05
100
AcDbLine
 10
241.0090115953423
 20
479.3292514583511
 30
0.0
 11
241.0090115953421
 21
464.3682973846032
 31
0.0
  0
LINE
  5
14E2
330
A
100
AcDbEntity
  8
HIDDEN
  6
Continuous
 48
0.05
100
AcDbLine
 10
808.54222201107
 20
456.7725360842135
 30
0.0
 11
750.1995200356819
 21
456.7725360842135
 31
0.0
  0
LINE
  5
14E3
330
A
100
AcDbEntity
  8
HIDDEN
  6
Continuous
 48
0.05
100
AcDbLine
 10
758.3708710233759
 20
456.7725360842135
 30
0.0
 11
758.3708710233759
 21
444.3682973846032
 31
0.0
  0
LINE
  5
14E4
330
A
100
AcDbEntity
  8
HIDDEN
  6
Continuous
 48
0.05
100
AcDbLine
 10
800.3708710233759
 20
456.7725360842135
 30
0.0
 11
800.3708710233759
 21
444.3682973846032
 31
0.0
  0
LINE
  5
14E5
330
A
100
AcDbEntity
  8
HIDDEN
  6
Continuous
 48
0.05
100
AcDbLine
 10
758.3708710233759
 20
444.3682973846032
 30
0.0
 11
800.3708710233759
 21
444.3682973846032
 31
0.0
  0
LINE
  5
14E6
330
A
100
AcDbEntity
  8
HIDDEN
  6
Continuous
 48
0.05
100
AcDbLine
 10
761.0105537646998
 20
456.7725360842135
 30
0.0
 11
797.7311882820518
 21
456.7725360842135
 31
0.0
  0
HATCH
  5
14E7
330
A
100
AcDbEntity
  8
HIDDEN
  6
Continuous
 48
0.05
370
     0
100
AcDbHatch
 10
0.0
 20
0.0
 30
0.0
210
0.0
220
0.0
230
1.0
  2
ANSI31
 70
     0
 71
     0
 91
        1
 92
        1
 93
        4
 72
     1
 10
800.3708710233759
 20
456.7725360842135
 11
800.3708710233759
 21
444.3682973846032
 72
     1
 10
761.0105537646998
 20
456.7725360842135
 11
797.7311882820518
 21
456.7725360842135
 72
     1
 10
758.3708710233759
 20
456.7725360842135
 11
758.3708710233759
 21
444.3682973846032
 72
     1
 10
758.3708710233759
 20
444.3682973846032
 11
800.3708710233759
 21
444.3682973846032
 97
        0
 75
     0
 76
     1
 52
145.0
 41
1.0
 77
     0
 78
     1
 53
189.9999999999999
 43
536.4196667019785
 44
0.0000000000000568
 45
0.5513329640925042
 46
-3.12676461581376
 79
     0
 98
        1
 10
536.4196667019785
 20
0.0000000000000568
1001
ACAD
1010
0.0
1020
0.0
1030
0.0
  0
LINE
  5
14E9
330
A
100
AcDbEntity
  8
HIDDEN
  6
Continuous
 48
0.05
100
AcDbLine
 10
750.1995200356819
 20
456.7725360842135
 30
0.0
 11
750.1995200356819
 21
464.3682973846032
 31
0.0
  0
LINE
  5
14EB
330
A
100
AcDbEntity
  8
HIDDEN
  6
Continuous
 48
0.05
100
AcDbLine
 10
808.54222201107
 20
456.7725360842135
 30
0.0
 11
808.54222201107
 21
464.3682973846032
 31
0.0
  0
LINE
  5
14F9
330
A
100
AcDbEntity
  8
HIDDEN
 48
0.05
100
AcDbLine
 10
781.313063749431
 20
479.3292514583512
 30
0.0
 11
781.3130637494311
 21
464.3682973846032
 31
0.0
  0
LINE
  5
14FA
330
A
100
AcDbEntity
  8
HIDDEN
 48
0.05
100
AcDbLine
 10
777.4286782973209
 20
479.3292514583512
 30
0.0
 11
777.4286782973207
 21
464.3682973846032
 31
0.0
  0
DIMENSION
  5
1527
330
A
100
AcDbEntity
  8
DIM
 48
0.05
100
AcDbDimension
  2
*D45
 10
487.9579076222051
 20
840.8888845246312
 30
0.0
 11
460.0189086184272
 21
856.8888845246312
 31
0.0
 70
    32
  1
50
 71
     5
 42
55.87799800755579
 73
     0
 74
     0
 75
     0
  3
tfrom線あり
100
AcDbAlignedDimension
 13
432.0799096146493
 23
993.5775205731703
 33
0.0
 14
487.9579076222051
 24
999.0552688402806
 34
0.0
100
AcDbRotatedDimension
  0
LINE
  5
167B
330
A
100
AcDbEntity
  8
MODEL
 48
0.05
100
AcDbLine
 10
277.9512043213964
 20
464.3682973846032
 30
0.0
 11
277.9512043213964
 21
447.794961031212
 31
0.0
  0
LINE
  5
167C
330
A
100
AcDbEntity
  8
MODEL
 48
0.05
100
AcDbLine
 10
207.9512043213964
 20
464.3682973846032
 30
0.0
 11
207.9512043213964
 21
447.794961031212
 31
0.0
  0
LINE
  5
167D
330
A
100
AcDbEntity
  8
MODEL
 48
0.05
100
AcDbLine
 10
207.9512043213964
 20
464.3682973846032
 30
0.0
 11
127.9512027865765
 21
464.3682973846033
 31
0.0
  0
LINE
  5
167F
330
A
100
AcDbEntity
  8
MODEL
 48
0.05
100
AcDbLine
 10
207.9512043213964
 20
447.794961031212
 30
0.0
 11
127.9512027865765
 21
447.794961031212
 31
0.0
  0
MTEXT
  5
1716
102
{ACAD_XDICTIONARY
360
1717
102
}
330
A
100
AcDbEntity
  8
MODEL
 48
0.05
100
AcDbMText
 10
36.10107227396725
 20
42.78748475256335
 30
0.0
 40
11.0
 41
0.0
 46
11.0
 71
     1
 72
     1
  1
{20160629N}
  7
ＭＳ ゴシック
 73
     1
 44
1.0
1001
ACAD
1000
ACAD_MTEXT_DEFINED_HEIGHT_BEGIN
1070
    46
1040
11.0
1000
ACAD_MTEXT_DEFINED_HEIGHT_END
  0
VIEWPORT
  5
349
330
B
100
AcDbEntity
 67
     1
  8
0
100
AcDbViewport
 10
202.5
 20
128.5
 30
0.0
 40
486.0
 41
308.4
 68
     1
 69
     1
 12
202.5
 22
128.5
 13
0.0
 23
0.0
 14
0.5
 24
0.5
 15
0.0
 25
0.0
 16
0.0
 26
0.0
 36
1.0
 17
0.0
 27
0.0
 37
0.0
 42
50.0
 43
0.0
 44
0.0
 45
308.4
 50
0.0
 51
0.0
 72
   100
 90
   557152
  1

281
     0
 71
     1
 74
     0
110
0.0
120
0.0
130
0.0
111
1.0
121
0.0
131
0.0
112
0.0
122
1.0
132
0.0
 79
     0
146
0.0
170
     0
 61
     5
348
26C
292
     1
282
     1
141
0.0
142
0.0
 63
   256
  0
VIEWPORT
  5
34A
330
B
100
AcDbEntity
 67
     1
  8
0
100
AcDbViewport
 10
202.5
 20
128.5
 30
0.0
 40
324.0
 41
205.6
 68
     2
 69
     2
 12
986.6781359294573
 22
1427.077061889956
 13
0.0
 23
0.0
 14
0.5
 24
0.5
 15
0.0
 25
0.0
 16
0.0
 26
0.0
 36
1.0
 17
0.0
 27
0.0
 37
0.0
 42
50.0
 43
0.0
 44
0.0
 45
2890.021615685494
 50
0.0
 51
0.0
 72
   100
 90
   557152
  1

281
     0
 71
     1
 74
     0
110
0.0
120
0.0
130
0.0
111
1.0
121
0.0
131
0.0
112
0.0
122
1.0
132
0.0
 79
     0
146
0.0
170
     0
 61
     5
348
26C
292
     1
282
     1
141
0.0
142
0.0
 63
   256
  0
ENDSEC
  0
SECTION
  2
OBJECTS
  0
DICTIONARY
  5
19
330
0
100
AcDbDictionary
281
     1
  3
ACAD_COLOR
350
674
  3
ACAD_DETAILVIEWSTYLE
350
BBF
  3
ACAD_FIELDLIST
350
1714
  3
ACAD_GROUP
350
1A
  3
ACAD_IMAGE_VARS
350
27B
  3
ACAD_LAYOUT
350
1E
  3
ACAD_MATERIAL
350
263
  3
ACAD_MLEADERSTYLE
350
336
  3
ACAD_MLINESTYLE
350
1B
  3
ACAD_PLOTSETTINGS
350
22
  3
ACAD_PLOTSTYLENAME
350
1F
  3
ACAD_SCALELIST
350
241
  3
ACAD_SECTIONVIEWSTYLE
350
BC0
  3
ACAD_TABLESTYLE
350
278
  3
ACAD_VISUALSTYLE
350
267
  3
ACDB_RECOMPOSE_DATA
350
1729
  3
AcDbVariableDictionary
350
330
  3
APPDATA
350
27A
  3
DimOffsetDictionary
350
1099
  0
SUN
  5
904
330
15
100
AcDbSun
 90
        1
290
     0
 63
     7
421
 16777215
 40
1.0
291
     1
 91
  2455826
 92
 54000000
292
     0
 70
     2
 71
   256
280
     1
  0
DICTIONARY
  5
2E1
330
2
100
AcDbDictionary
280
     1
281
     1
  3
ACAD_LAYERSTATES
360
2E2
  3
ACLYDICTIONARY
360
DDE
  0
DICTIONARY
  5
FC0
330
FBF
100
AcDbDictionary
280
     1
281
     1
  3
ACAD_DIMASSOC
360
FC1
  0
DICTIONARY
  5
FDB
330
FDA
100
AcDbDictionary
280
     1
281
     1
  3
ACAD_DIMASSOC
360
FDC
  0
DICTIONARY
  5
1717
330
1716
100
AcDbDictionary
280
     1
281
     1
  3
ACAD_FIELD
360
1718
  0
DICTIONARY
  5
674
102
{ACAD_REACTORS
330
19
102
}
330
19
100
AcDbDictionary
281
     1
  0
DICTIONARY
  5
BBF
102
{ACAD_REACTORS
330
19
102
}
330
19
100
AcDbDictionary
281
     1
  0
FIELDLIST
  5
1714
102
{ACAD_REACTORS
330
19
102
}
330
19
100
AcDbIdSet
 90
        2
330
1710
330
1719
100
AcDbFieldList
  0
DICTIONARY
  5
1A
102
{ACAD_REACTORS
330
19
102
}
330
19
100
AcDbDictionary
281
     1
  0
RASTERVARIABLES
  5
27B
102
{ACAD_REACTORS
330
19
102
}
330
19
100
AcDbRasterVariables
 90
        0
 70
     1
 71
     1
 72
     1
  0
DICTIONARY
  5
1E
102
{ACAD_REACTORS
330
19
102
}
330
19
100
AcDbDictionary
281
     1
  3
Layout1
350
21
  3
Model
350
20
  0
DICTIONARY
  5
263
102
{ACAD_REACTORS
330
19
102
}
330
19
100
AcDbDictionary
281
     1
  3
ByBlock
350
265
  3
ByLayer
350
264
  3
Global
350
266
  0
DICTIONARY
  5
336
102
{ACAD_REACTORS
330
19
102
}
330
19
100
AcDbDictionary
281
     1
  3
Standard
350
D59
  0
DICTIONARY
  5
1B
102
{ACAD_REACTORS
330
19
102
}
330
19
100
AcDbDictionary
281
     1
  3
Standard
350
1C
  0
DICTIONARY
  5
22
102
{ACAD_REACTORS
330
19
102
}
330
19
100
AcDbDictionary
281
     1
  0
ACDBDICTIONARYWDFLT
  5
1F
102
{ACAD_REACTORS
330
19
102
}
330
19
100
AcDbDictionary
281
     1
  3
Normal
350
1D
100
AcDbDictionaryWithDefault
340
1D
  0
DICTIONARY
  5
241
102
{ACAD_REACTORS
330
19
102
}
330
19
100
AcDbDictionary
281
     1
  3
A0
350
242
  3
A1
350
243
  3
A2
350
244
  3
A3
350
245
  3
A4
350
246
  3
A5
350
247
  3
A6
350
248
  3
A7
350
249
  3
A8
350
24A
  3
A9
350
24B
  3
B0
350
24C
  3
B1
350
24D
  3
B2
350
24E
  3
B3
350
24F
  3
B4
350
250
  3
B5
350
251
  3
B6
350
252
  3
B7
350
253
  3
B8
350
254
  3
B9
350
255
  3
C0
350
256
  3
C1
350
257
  3
C2
350
258
  3
C3
350
259
  3
C4
350
25A
  3
C5
350
25B
  3
C6
350
25C
  3
C7
350
25D
  3
C8
350
25E
  3
C9
350
25F
  3
D0
350
260
  3
D1
350
261
  3
D2
350
262
  0
DICTIONARY
  5
BC0
102
{ACAD_REACTORS
330
19
102
}
330
19
100
AcDbDictionary
281
     1
  0
DICTIONARY
  5
278
102
{ACAD_REACTORS
330
19
102
}
330
19
100
AcDbDictionary
281
     1
  3
Standard
350
279
  0
DICTIONARY
  5
267
102
{ACAD_REACTORS
330
19
102
}
330
19
100
AcDbDictionary
281
     1
  3
2dWireframe
350
26C
  3
3D Hidden
350
26E
  3
3dWireframe
350
26D
  3
Basic
350
26F
  3
Brighten
350
273
  3
ColorChange
350
277
  3
Conceptual
350
271
  3
Dim
350
272
  3
EdgeColorOff
350
8FE
  3
Facepattern
350
276
  3
Flat
350
268
  3
FlatWithEdges
350
269
  3
Gouraud
350
26A
  3
GouraudWithEdges
350
26B
  3
Hidden
350
8FB
  3
JitterOff
350
8FC
  3
Linepattern
350
275
  3
OverhangOff
350
8FD
  3
Realistic
350
270
  3
Shaded
350
903
  3
Shaded with edges
350
902
  3
Shades of Gray
350
8FF
  3
Sketchy
350
900
  3
Thicken
350
274
  3
Wireframe
350
8FA
  3
X-Ray
350
901
  0
XRECORD
  5
1729
102
{ACAD_REACTORS
330
19
102
}
330
19
100
AcDbXrecord
280
     1
 90
        1
330
279
  0
DICTIONARY
  5
330
102
{ACAD_REACTORS
330
19
102
}
330
19
100
AcDbDictionary
281
     1
  3
CANNOSCALE
350
331
  3
CMLEADERSTYLE
350
D5E
  3
CTABLESTYLE
350
335
  3
HPTRANSPARENCY
350
D52
  3
XCLIPFRAME
350
896
  0
DICTIONARY
  5
27A
102
{ACAD_REACTORS
330
19
102
}
330
19
100
AcDbDictionary
281
     1
  0
DICTIONARY
  5
1099
102
{ACAD_REACTORS
330
19
102
}
330
19
100
AcDbDictionary
281
     1
  3
DIMRAILANGLE
350
109C
  3
DIMRAILFIRSTOFFSET
350
109A
  3
DIMRAILOFFSET
350
109B
  3
DIMRAILSENABLED
350
109D
  0
DICTIONARY
  5
2E2
102
{ACAD_REACTORS
330
2E1
102
}
330
2E1
100
AcDbDictionary
281
     1
  3
ARGON_LAYERP_9
350
7AA
  0
DICTIONARY
  5
DDE
102
{ACAD_REACTORS
330
2E1
102
}
330
2E1
100
AcDbDictionary
281
     1
1001
ACAD
1000
<All
  0
DIMASSOC
  5
FC1
102
{ACAD_REACTORS
330
FC0
102
}
330
FC0
100
AcDbDimAssoc
330
FBF
 90
        3
 70
     0
 71
     1
  1
AcDbOsnapPointRef
 72
     1
331
F9A
 73
     0
 91
        0
 40
0.0
 10
0.0
 20
0.0
 30
0.0
 75
     0
  1
AcDbOsnapPointRef
 72
    13
331
F96
 73
     0
 91
        0
 40
0.0
 10
0.0
 20
0.0
 30
0.0
 75
     0
  0
DIMASSOC
  5
FDC
102
{ACAD_REACTORS
330
FDB
102
}
330
FDB
100
AcDbDimAssoc
330
FDA
 90
        3
 70
     0
 71
     1
  1
AcDbOsnapPointRef
 72
     5
331
FD9
 73
     0
 91
        0
 40
1.570796326794897
 10
0.0
 20
0.0
 30
0.0
 75
     0
  1
AcDbOsnapPointRef
 72
     5
331
FD8
 73
     0
 91
        0
 40
1.570796326794897
 10
0.0
 20
0.0
 30
0.0
 75
     0
  0
DICTIONARY
  5
1718
102
{ACAD_REACTORS
330
1717
102
}
330
1717
100
AcDbDictionary
280
     1
281
     1
  3
TEXT
360
1719
  0
LAYOUT
  5
21
102
{ACAD_REACTORS
330
1E
102
}
330
1E
100
AcDbPlotSettings
  1

  2
none_device
  4
ISO_A3_(420.00_x_297.00_MM)
  6

 40
7.5
 41
20.0
 42
7.5
 43
20.0
 44
420.0
 45
297.0
 46
0.0
 47
0.0
 48
0.0
 49
0.0
140
0.0
141
0.0
142
1.0
143
1.0
 70
     0
 72
     1
 73
     0
 74
     0
  7

 75
     0
 76
     0
 77
     2
 78
   300
147
1.0
148
0.0
149
0.0
100
AcDbLayout
  1
Layout1
 70
     0
 71
     0
 10
-7.5
 20
-20.0
 11
412.5
 21
277.0
 12
0.0
 22
0.0
 32
0.0
 14
0.0
 24
0.0
 34
0.0
 15
0.0
 25
0.0
 35
0.0
146
0.0
 13
0.0
 23
0.0
 33
0.0
 16
0.0
 26
0.0
 36
0.0
 17
0.0
 27
0.0
 37
0.0
 76
     0
330
B
331
349
  0
LAYOUT
  5
20
102
{ACAD_REACTORS
330
1E
102
}
330
1E
100
AcDbPlotSettings
  1

  2
none_device
  4
ISO_A3_(420.00_x_297.00_MM)
  6

 40
7.5
 41
20.0
 42
7.5
 43
20.0
 44
420.0
 45
297.0
 46
0.0
 47
0.0
 48
0.0
 49
0.0
140
0.0
141
0.0
142
1.0
143
1.0
 70
  1024
 72
     1
 73
     0
 74
     0
  7

 75
     0
 76
     0
 77
     2
 78
   300
147
1.0
148
0.0
149
0.0
100
AcDbLayout
  1
Model
 70
     0
 71
     1
 10
0.0
 20
0.0
 11
1050.0
 21
1485.0
 12
0.0
 22
0.0
 32
0.0
 14
0.0
 24
0.0
 34
-0.0000000000000142
 15
1050.0
 25
1485.0
 35
0.0000000000000142
146
0.0
 13
0.0
 23
0.0
 33
0.0
 16
0.0
 26
0.0
 36
0.0
 17
0.0
 27
0.0
 37
0.0
 76
     0
330
A
331
15
  0
MATERIAL
  5
265
102
{ACAD_REACTORS
330
263
102
}
330
263
100
AcDbMaterial
  1
ByBlock
 72
     1
 94
      127
  0
MATERIAL
  5
264
102
{ACAD_REACTORS
330
263
102
}
330
263
100
AcDbMaterial
  1
ByLayer
 72
     1
 94
      127
  0
MATERIAL
  5
266
102
{ACAD_REACTORS
330
263
102
}
330
263
100
AcDbMaterial
  1
Global
 72
     1
 94
      127
  0
MLEADERSTYLE
  5
D59
102
{ACAD_REACTORS
330
336
102
}
330
336
100
AcDbMLeaderStyle
170
     2
171
     1
172
     0
 90
        2
 40
0.0
 41
0.0
173
     1
 91
-1056964608
340
11
 92
       -2
290
     1
 42
2.0
291
     1
 43
8.0
  3
Standard
341
0
 44
4.0
300

342
17
174
     1
178
     6
175
     1
176
     0
 93
-1056964608
 45
4.0
292
     0
297
     0
 46
4.0
343
0
 94
-1056964608
 47
1.0
 49
1.0
140
1.0
293
     1
141
0.0
294
     1
177
     0
142
1.0
295
     0
296
     0
143
3.75
1001
ACAD_MLEADERVER
1070
     2
  0
MLINESTYLE
  5
1C
102
{ACAD_REACTORS
330
1B
102
}
330
1B
100
AcDbMlineStyle
  2
Standard
 70
     0
  3

 62
     0
 51
90.0
 52
90.0
 71
     2
 49
0.5
 62
   256
  6
BYLAYER
 49
-0.5
 62
   256
  6
BYLAYER
  0
ACDBPLACEHOLDER
  5
1D
102
{ACAD_REACTORS
330
1F
102
}
330
1F
  0
SCALE
  5
242
102
{ACAD_REACTORS
330
241
102
}
330
241
100
AcDbScale
 70
     0
300
1:1
140
1.0
141
1.0
290
     1
  0
SCALE
  5
243
102
{ACAD_REACTORS
330
241
102
}
330
241
100
AcDbScale
 70
     0
300
1:2
140
1.0
141
2.0
290
     0
  0
SCALE
  5
244
102
{ACAD_REACTORS
330
241
102
}
330
241
100
AcDbScale
 70
     0
300
1:4
140
1.0
141
4.0
290
     0
  0
SCALE
  5
245
102
{ACAD_REACTORS
330
241
102
}
330
241
100
AcDbScale
 70
     0
300
1:5
140
1.0
141
5.0
290
     0
  0
SCALE
  5
246
102
{ACAD_REACTORS
330
241
102
}
330
241
100
AcDbScale
 70
     0
300
1:8
140
1.0
141
8.0
290
     0
  0
SCALE
  5
247
102
{ACAD_REACTORS
330
241
102
}
330
241
100
AcDbScale
 70
     0
300
1:10
140
1.0
141
10.0
290
     0
  0
SCALE
  5
248
102
{ACAD_REACTORS
330
241
102
}
330
241
100
AcDbScale
 70
     0
300
1:16
140
1.0
141
16.0
290
     0
  0
SCALE
  5
249
102
{ACAD_REACTORS
330
241
102
}
330
241
100
AcDbScale
 70
     0
300
1:20
140
1.0
141
20.0
290
     0
  0
SCALE
  5
24A
102
{ACAD_REACTORS
330
241
102
}
330
241
100
AcDbScale
 70
     0
300
1:30
140
1.0
141
30.0
290
     0
  0
SCALE
  5
24B
102
{ACAD_REACTORS
330
241
102
}
330
241
100
AcDbScale
 70
     0
300
1:40
140
1.0
141
40.0
290
     0
  0
SCALE
  5
24C
102
{ACAD_REACTORS
330
241
102
}
330
241
100
AcDbScale
 70
     0
300
1:50
140
1.0
141
50.0
290
     0
  0
SCALE
  5
24D
102
{ACAD_REACTORS
330
241
102
}
330
241
100
AcDbScale
 70
     0
300
1:100
140
1.0
141
100.0
290
     0
  0
SCALE
  5
24E
102
{ACAD_REACTORS
330
241
102
}
330
241
100
AcDbScale
 70
     0
300
2:1
140
2.0
141
1.0
290
     0
  0
SCALE
  5
24F
102
{ACAD_REACTORS
330
241
102
}
330
241
100
AcDbScale
 70
     0
300
4:1
140
4.0
141
1.0
290
     0
  0
SCALE
  5
250
102
{ACAD_REACTORS
330
241
102
}
330
241
100
AcDbScale
 70
     0
300
8:1
140
8.0
141
1.0
290
     0
  0
SCALE
  5
251
102
{ACAD_REACTORS
330
241
102
}
330
241
100
AcDbScale
 70
     0
300
10:1
140
10.0
141
1.0
290
     0
  0
SCALE
  5
252
102
{ACAD_REACTORS
330
241
102
}
330
241
100
AcDbScale
 70
     0
300
100:1
140
100.0
141
1.0
290
     0
  0
SCALE
  5
253
102
{ACAD_REACTORS
330
241
102
}
330
241
100
AcDbScale
 70
     0
300
1/128" = 1'-0"
140
0.0078125
141
12.0
290
     0
  0
SCALE
  5
254
102
{ACAD_REACTORS
330
241
102
}
330
241
100
AcDbScale
 70
     0
300
1/64" = 1'-0"
140
0.015625
141
12.0
290
     0
  0
SCALE
  5
255
102
{ACAD_REACTORS
330
241
102
}
330
241
100
AcDbScale
 70
     0
300
1/32" = 1'-0"
140
0.03125
141
12.0
290
     0
  0
SCALE
  5
256
102
{ACAD_REACTORS
330
241
102
}
330
241
100
AcDbScale
 70
     0
300
1/16" = 1'-0"
140
0.0625
141
12.0
290
     0
  0
SCALE
  5
257
102
{ACAD_REACTORS
330
241
102
}
330
241
100
AcDbScale
 70
     0
300
3/32" = 1'-0"
140
0.09375
141
12.0
290
     0
  0
SCALE
  5
258
102
{ACAD_REACTORS
330
241
102
}
330
241
100
AcDbScale
 70
     0
300
1/8" = 1'-0"
140
0.125
141
12.0
290
     0
  0
SCALE
  5
259
102
{ACAD_REACTORS
330
241
102
}
330
241
100
AcDbScale
 70
     0
300
3/16" = 1'-0"
140
0.1875
141
12.0
290
     0
  0
SCALE
  5
25A
102
{ACAD_REACTORS
330
241
102
}
330
241
100
AcDbScale
 70
     0
300
1/4" = 1'-0"
140
0.25
141
12.0
290
     0
  0
SCALE
  5
25B
102
{ACAD_REACTORS
330
241
102
}
330
241
100
AcDbScale
 70
     0
300
3/8" = 1'-0"
140
0.375
141
12.0
290
     0
  0
SCALE
  5
25C
102
{ACAD_REACTORS
330
241
102
}
330
241
100
AcDbScale
 70
     0
300
1/2" = 1'-0"
140
0.5
141
12.0
290
     0
  0
SCALE
  5
25D
102
{ACAD_REACTORS
330
241
102
}
330
241
100
AcDbScale
 70
     0
300
3/4" = 1'-0"
140
0.75
141
12.0
290
     0
  0
SCALE
  5
25E
102
{ACAD_REACTORS
330
241
102
}
330
241
100
AcDbScale
 70
     0
300
1" = 1'-0"
140
1.0
141
12.0
290
     0
  0
SCALE
  5
25F
102
{ACAD_REACTORS
330
241
102
}
330
241
100
AcDbScale
 70
     0
300
1-1/2" = 1'-0"
140
1.5
141
12.0
290
     0
  0
SCALE
  5
260
102
{ACAD_REACTORS
330
241
102
}
330
241
100
AcDbScale
 70
     0
300
3" = 1'-0"
140
3.0
141
12.0
290
     0
  0
SCALE
  5
261
102
{ACAD_REACTORS
330
241
102
}
330
241
100
AcDbScale
 70
     0
300
6" = 1'-0"
140
6.0
141
12.0
290
     0
  0
SCALE
  5
262
102
{ACAD_REACTORS
330
241
102
}
330
241
100
AcDbScale
 70
     0
300
1'-0" = 1'-0"
140
12.0
141
12.0
290
     0
  0
TABLESTYLE
  5
279
102
{ACAD_REACTORS
330
278
102
}
102
{ACAD_XDICTIONARY
360
1727
102
}
330
278
100
AcDbTableStyle
  3
Standard
 70
     0
 71
     0
 40
0.06
 41
0.06
280
     0
281
     0
  7
Standard
140
4.5
170
     2
 62
     0
 63
   257
283
     0
 90
        4
 91
        0
  1

274
    -2
284
     1
 64
     0
275
    -2
285
     1
 65
     0
276
    -2
286
     1
 66
     0
277
    -2
287
     1
 67
     0
278
    -2
288
     1
 68
     0
279
    -2
289
     1
 69
     0
  7
Standard
140
6.0
170
     5
 62
     0
 63
   257
283
     0
 90
        4
 91
        0
  1

274
    -2
284
     1
 64
     0
275
    -2
285
     1
 65
     0
276
    -2
286
     1
 66
     0
277
    -2
287
     1
 67
     0
278
    -2
288
     1
 68
     0
279
    -2
289
     1
 69
     0
  7
Standard
140
4.5
170
     5
 62
     0
 63
   257
283
     0
 90
        4
 91
        0
  1

274
    -2
284
     1
 64
     0
275
    -2
285
     1
 65
     0
276
    -2
286
     1
 66
     0
277
    -2
287
     1
 67
     0
278
    -2
288
     1
 68
     0
279
    -2
289
     1
 69
     0
  0
VISUALSTYLE
  5
26C
102
{ACAD_REACTORS
330
267
102
}
330
267
100
AcDbVisualStyle
  2
2dWireframe
 70
     4
 71
     0
 72
     2
 73
     0
 90
        0
 40
-0.6
 41
-30.0
 62
     5
 63
     7
421
 16777215
 74
     1
 91
        4
 64
     7
 65
   257
 75
     1
175
     1
 42
1.0
 92
        0
 66
   257
 43
1.0
 76
     1
 77
     6
 78
     2
 67
     7
 79
     5
170
     0
171
     0
290
     0
174
     0
 93
        1
 44
0.0
173
     0
291
     0
 45
0.0
  0
VISUALSTYLE
  5
26E
102
{ACAD_REACTORS
330
267
102
}
330
267
100
AcDbVisualStyle
  2
3D Hidden
 70
     6
 71
     1
 72
     2
 73
     2
 90
        0
 40
-0.6
 41
-30.0
 62
     5
 63
     7
421
 16777215
 74
     2
 91
        2
 64
     7
 65
   257
 75
     2
175
     1
 42
40.0
 92
        0
 66
   257
 43
1.0
 76
     1
 77
     6
 78
     2
 67
     7
 79
     3
170
     0
171
     0
290
     0
174
     0
 93
        1
 44
0.0
173
     0
291
     0
 45
0.0
  0
VISUALSTYLE
  5
26D
102
{ACAD_REACTORS
330
267
102
}
330
267
100
AcDbVisualStyle
  2
3dWireframe
 70
     5
 71
     0
 72
     2
 73
     0
 90
        0
 40
-0.6
 41
-30.0
 62
     5
 63
     7
421
 16777215
 74
     1
 91
        4
 64
     7
 65
   257
 75
     1
175
     1
 42
1.0
 92
        0
 66
   257
 43
1.0
 76
     1
 77
     6
 78
     2
 67
     7
 79
     5
170
     0
171
     0
290
     0
174
     0
 93
        1
 44
0.0
173
     0
291
     0
 45
0.0
  0
VISUALSTYLE
  5
26F
102
{ACAD_REACTORS
330
267
102
}
330
267
100
AcDbVisualStyle
  2
Basic
 70
     7
 71
     1
 72
     0
 73
     1
 90
        0
 40
-0.6
 41
-30.0
 62
     5
 63
     7
421
 16777215
 74
     0
 91
        4
 64
     7
 65
   257
 75
     1
175
     1
 42
1.0
 92
        8
 66
     7
 43
1.0
 76
     1
 77
     6
 78
     2
 67
     7
 79
     5
170
     0
171
     0
290
     0
174
     0
 93
        1
 44
0.0
173
     0
291
     1
 45
0.0
  0
VISUALSTYLE
  5
273
102
{ACAD_REACTORS
330
267
102
}
330
267
100
AcDbVisualStyle
  2
Brighten
 70
    12
 71
     2
 72
     2
 73
     0
 90
        0
 40
-0.6
 41
-30.0
 62
     5
 63
     7
421
 16777215
 74
     1
 91
        4
 64
     7
 65
   257
 75
     1
175
     1
 42
1.0
 92
        8
 66
     7
 43
1.0
 76
     1
 77
     6
 78
     2
 67
     7
 79
     5
170
     0
171
     0
290
     0
174
     0
 93
        1
 44
50.0
173
     0
291
     1
 45
0.0
  0
VISUALSTYLE
  5
277
102
{ACAD_REACTORS
330
267
102
}
330
267
100
AcDbVisualStyle
  2
ColorChange
 70
    16
 71
     2
 72
     2
 73
     3
 90
        0
 40
-0.6
 41
-30.0
 62
     5
 63
     8
421
  8421504
 74
     1
 91
        4
 64
     7
 65
   257
 75
     1
175
     1
 42
1.0
 92
        8
 66
     8
424
  8421504
 43
1.0
 76
     1
 77
     6
 78
     2
 67
     7
 79
     5
170
     0
171
     0
290
     0
174
     0
 93
        1
 44
0.0
173
     0
291
     1
 45
0.0
  0
VISUALSTYLE
  5
271
102
{ACAD_REACTORS
330
267
102
}
330
267
100
AcDbVisualStyle
  2
Conceptual
 70
     9
 71
     3
 72
     2
 73
     0
 90
        0
 40
-0.6
 41
-30.0
 62
     5
 63
     7
421
 16777215
 74
     2
 91
        2
 64
     7
 65
   257
 75
     1
175
     1
 42
40.0
 92
        8
 66
     7
 43
1.0
 76
     1
 77
     6
 78
     2
 67
     7
 79
     3
170
     0
171
     0
290
     0
174
     0
 93
        1
 44
0.0
173
     0
291
     0
 45
0.0
  0
VISUALSTYLE
  5
272
102
{ACAD_REACTORS
330
267
102
}
330
267
100
AcDbVisualStyle
  2
Dim
 70
    11
 71
     2
 72
     2
 73
     0
 90
        0
 40
-0.6
 41
-30.0
 62
     5
 63
     7
421
 16777215
 74
     1
 91
        4
 64
     7
 65
   257
 75
     1
175
     1
 42
1.0
 92
        8
 66
     7
 43
1.0
 76
     1
 77
     6
 78
     2
 67
     7
 79
     5
170
     0
171
     0
290
     0
174
     0
 93
        1
 44
-50.0
173
     0
291
     1
 45
0.0
  0
VISUALSTYLE
  5
8FE
102
{ACAD_REACTORS
330
267
102
}
330
267
100
AcDbVisualStyle
  2
EdgeColorOff
 70
    22
 71
     2
 72
     2
 73
     0
 90
        0
 40
0.6
 41
30.0
 62
     5
 63
     7
421
 16777215
 74
     1
 91
        4
 64
     7
 65
   257
 75
     1
175
     1
 42
1.0
 92
        8
 66
     7
 43
1.0
 76
     1
 77
     6
 78
     2
 67
     7
 79
     5
170
     0
171
     0
290
     0
174
     0
 93
        1
 44
0.0
173
     0
291
     1
 45
0.0
  0
VISUALSTYLE
  5
276
102
{ACAD_REACTORS
330
267
102
}
330
267
100
AcDbVisualStyle
  2
Facepattern
 70
    15
 71
     2
 72
     2
 73
     0
 90
        0
 40
-0.6
 41
-30.0
 62
     5
 63
     7
421
 16777215
 74
     1
 91
        4
 64
     7
 65
   257
 75
     1
175
     1
 42
1.0
 92
        8
 66
     7
 43
1.0
 76
     1
 77
     6
 78
     2
 67
     7
 79
     5
170
     0
171
     0
290
     0
174
     0
 93
        1
 44
0.0
173
     0
291
     1
 45
0.0
  0
VISUALSTYLE
  5
268
102
{ACAD_REACTORS
330
267
102
}
330
267
100
AcDbVisualStyle
  2
Flat
 70
     0
 71
     2
 72
     1
 73
     1
 90
        2
 40
-0.6
 41
30.0
 62
     5
 63
     7
421
 16777215
 74
     0
 91
        4
 64
     7
 65
   257
 75
     1
175
     1
 42
1.0
 92
        8
 66
     7
 43
1.0
 76
     1
 77
     6
 78
     2
 67
     7
 79
     5
170
     0
171
     0
290
     0
174
     0
 93
       13
 44
0.0
173
     0
291
     1
 45
0.0
  0
VISUALSTYLE
  5
269
102
{ACAD_REACTORS
330
267
102
}
330
267
100
AcDbVisualStyle
  2
FlatWithEdges
 70
     1
 71
     2
 72
     1
 73
     1
 90
        2
 40
-0.6
 41
30.0
 62
     5
 63
     7
421
 16777215
 74
     1
 91
        4
 64
     7
 65
   257
 75
     1
175
     1
 42
1.0
 92
        0
 66
   257
 43
1.0
 76
     1
 77
     6
 78
     2
 67
     7
 79
     5
170
     0
171
     0
290
     0
174
     0
 93
       13
 44
0.0
173
     0
291
     1
 45
0.0
  0
VISUALSTYLE
  5
26A
102
{ACAD_REACTORS
330
267
102
}
330
267
100
AcDbVisualStyle
  2
Gouraud
 70
     2
 71
     2
 72
     2
 73
     1
 90
        2
 40
-0.6
 41
30.0
 62
     5
 63
     7
421
 16777215
 74
     0
 91
        4
 64
     7
 65
   257
 75
     1
175
     1
 42
1.0
 92
        0
 66
     7
 43
1.0
 76
     1
 77
     6
 78
     2
 67
     7
 79
     5
170
     0
171
     0
290
     0
174
     0
 93
       13
 44
0.0
173
     0
291
     1
 45
0.0
  0
VISUALSTYLE
  5
26B
102
{ACAD_REACTORS
330
267
102
}
330
267
100
AcDbVisualStyle
  2
GouraudWithEdges
 70
     3
 71
     2
 72
     2
 73
     1
 90
        2
 40
-0.6
 41
30.0
 62
     5
 63
     7
421
 16777215
 74
     1
 91
        4
 64
     7
 65
   257
 75
     1
175
     1
 42
1.0
 92
        0
 66
   257
 43
1.0
 76
     1
 77
     6
 78
     2
 67
     7
 79
     5
170
     0
171
     0
290
     0
174
     0
 93
       13
 44
0.0
173
     0
291
     1
 45
0.0
  0
VISUALSTYLE
  5
8FB
102
{ACAD_REACTORS
330
267
102
}
330
267
100
AcDbVisualStyle
  2
Hidden
 70
     6
 71
     1
 72
     2
 73
     2
 90
        0
 40
0.6
 41
30.0
 62
     5
 63
     7
421
 16777215
 74
     2
 91
        2
 64
     7
 65
   257
 75
     2
175
     1
 42
40.0
 92
        0
 66
   257
 43
1.0
 76
     1
 77
     6
 78
     2
 67
     7
 79
     3
170
     0
171
     0
290
     0
174
     0
 93
        1
 44
0.0
173
     0
291
     0
 45
0.0
  0
VISUALSTYLE
  5
8FC
102
{ACAD_REACTORS
330
267
102
}
330
267
100
AcDbVisualStyle
  2
JitterOff
 70
    20
 71
     2
 72
     2
 73
     0
 90
        0
 40
0.6
 41
30.0
 62
     5
 63
     7
421
 16777215
 74
     1
 91
        4
 64
     7
 65
   257
 75
     1
175
     1
 42
1.0
 92
       10
 66
     7
 43
1.0
 76
     1
 77
     6
 78
     2
 67
     7
 79
     5
170
     0
171
     0
290
     0
174
     0
 93
        1
 44
0.0
173
     0
291
     1
 45
0.0
  0
VISUALSTYLE
  5
275
102
{ACAD_REACTORS
330
267
102
}
330
267
100
AcDbVisualStyle
  2
Linepattern
 70
    14
 71
     2
 72
     2
 73
     0
 90
        0
 40
-0.6
 41
-30.0
 62
     5
 63
     7
421
 16777215
 74
     1
 91
        4
 64
     7
 65
   257
 75
     7
175
     7
 42
1.0
 92
        8
 66
     7
 43
1.0
 76
     1
 77
     6
 78
     2
 67
     7
 79
     5
170
     0
171
     0
290
     0
174
     0
 93
        1
 44
0.0
173
     0
291
     1
 45
0.0
  0
VISUALSTYLE
  5
8FD
102
{ACAD_REACTORS
330
267
102
}
330
267
100
AcDbVisualStyle
  2
OverhangOff
 70
    21
 71
     2
 72
     2
 73
     0
 90
        0
 40
0.6
 41
30.0
 62
     5
 63
     7
421
 16777215
 74
     1
 91
        4
 64
     7
 65
   257
 75
     1
175
     1
 42
1.0
 92
        9
 66
     7
 43
1.0
 76
     1
 77
     6
 78
     2
 67
     7
 79
     5
170
     0
171
     0
290
     0
174
     0
 93
        1
 44
0.0
173
     0
291
     1
 45
0.0
  0
VISUALSTYLE
  5
270
102
{ACAD_REACTORS
330
267
102
}
330
267
100
AcDbVisualStyle
  2
Realistic
 70
     8
 71
     2
 72
     2
 73
     0
 90
        0
 40
-0.6
 41
-30.0
 62
     5
 63
     7
421
 16777215
 74
     1
 91
        0
 64
     7
 65
   257
 75
     1
175
     1
 42
1.0
 92
        8
 66
     8
424
  7895160
 43
1.0
 76
     1
 77
     6
 78
     2
 67
     7
 79
     5
170
     0
171
     0
290
     0
174
     0
 93
       13
 44
0.0
173
     0
291
     0
 45
0.0
  0
VISUALSTYLE
  5
903
102
{ACAD_REACTORS
330
267
102
}
330
267
100
AcDbVisualStyle
  2
Shaded
 70
    27
 71
     2
 72
     2
 73
     1
 90
        2
 40
0.6
 41
30.0
 62
     5
 63
     7
421
 16777215
 74
     0
 91
        4
 64
     7
 65
   257
 75
     1
175
     1
 42
1.0
 92
        8
 66
   257
 43
1.0
 76
     1
 77
     6
 78
     2
 67
     8
425
  7895160
 79
     3
170
     0
171
     0
290
     0
174
     0
 93
        5
 44
0.0
173
     0
291
     0
 45
0.0
  0
VISUALSTYLE
  5
902
102
{ACAD_REACTORS
330
267
102
}
330
267
100
AcDbVisualStyle
  2
Shaded with edges
 70
    26
 71
     2
 72
     2
 73
     1
 90
        2
 40
0.6
 41
30.0
 62
     5
 63
     7
421
 16777215
 74
     1
 91
       10
 64
     7
 65
   257
 75
     2
175
     1
 42
1.0
 92
        8
 66
   257
 43
1.0
 76
     1
 77
     6
 78
     2
 67
     7
 79
     3
170
     0
171
     0
290
     0
174
     0
 93
        5
 44
0.0
173
     0
291
     0
 45
0.0
  0
VISUALSTYLE
  5
8FF
102
{ACAD_REACTORS
330
267
102
}
330
267
100
AcDbVisualStyle
  2
Shades of Gray
 70
    23
 71
     2
 72
     2
 73
     3
 90
        0
 40
0.6
 41
30.0
 62
     5
 63
     7
421
 16777215
 74
     2
 91
        2
 64
     7
 65
     7
 75
     1
175
     1
 42
40.0
 92
        8
 66
     7
 43
1.0
 76
     1
 77
     6
 78
     2
 67
     7
 79
     3
170
     0
171
     0
290
     0
174
     0
 93
        1
 44
0.0
173
     0
291
     0
 45
0.0
  0
VISUALSTYLE
  5
900
102
{ACAD_REACTORS
330
267
102
}
330
267
100
AcDbVisualStyle
  2
Sketchy
 70
    24
 71
     1
 72
     2
 73
     2
 90
        0
 40
0.6
 41
30.0
 62
     5
 63
     7
421
 16777215
 74
     2
 91
        2
 64
     7
 65
     7
 75
     1
175
     1
 42
40.0
 92
       11
 66
     7
 43
1.0
 76
     1
 77
     6
 78
     2
 67
     7
 79
     6
170
     0
171
     0
290
     0
174
     0
 93
        1
 44
0.0
173
     0
291
     0
 45
0.0
  0
VISUALSTYLE
  5
274
102
{ACAD_REACTORS
330
267
102
}
330
267
100
AcDbVisualStyle
  2
Thicken
 70
    13
 71
     2
 72
     2
 73
     0
 90
        0
 40
-0.6
 41
-30.0
 62
     5
 63
     7
421
 16777215
 74
     1
 91
        4
 64
     7
 65
   257
 75
     1
175
     1
 42
1.0
 92
       12
 66
     7
 43
1.0
 76
     1
 77
     6
 78
     2
 67
     7
 79
     5
170
     0
171
     0
290
     0
174
     0
 93
        1
 44
0.0
173
     0
291
     1
 45
0.0
  0
VISUALSTYLE
  5
8FA
102
{ACAD_REACTORS
330
267
102
}
330
267
100
AcDbVisualStyle
  2
Wireframe
 70
     5
 71
     0
 72
     2
 73
     0
 90
        0
 40
0.6
 41
30.0
 62
     5
 63
     7
421
 16777215
 74
     1
 91
        4
 64
     7
 65
   257
 75
     1
175
     1
 42
1.0
 92
        0
 66
   257
 43
1.0
 76
     1
 77
     6
 78
     2
 67
     7
 79
     3
170
     0
171
     0
290
     0
174
     0
 93
        1
 44
0.0
173
     0
291
     0
 45
0.0
  0
VISUALSTYLE
  5
901
102
{ACAD_REACTORS
330
267
102
}
330
267
100
AcDbVisualStyle
  2
X-Ray
 70
    25
 71
     2
 72
     2
 73
     1
 90
        1
 40
0.5
 41
30.0
 62
     5
 63
     7
421
 16777215
 74
     1
 91
        0
 64
     7
 65
   257
 75
     1
175
     1
 42
1.0
 92
        8
 66
     7
 43
1.0
 76
     1
 77
     6
 78
     2
 67
     7
 79
     3
170
     0
171
     0
290
     0
174
     0
 93
       13
 44
0.0
173
     0
291
     0
 45
0.0
  0
DICTIONARYVAR
  5
331
102
{ACAD_REACTORS
330
330
102
}
330
330
100
DictionaryVariables
280
     0
  1
1:1
  0
DICTIONARYVAR
  5
D5E
102
{ACAD_REACTORS
330
330
102
}
330
330
100
DictionaryVariables
280
     0
  1
Standard
  0
DICTIONARYVAR
  5
335
102
{ACAD_REACTORS
330
330
102
}
330
330
100
DictionaryVariables
280
     0
  1
Standard
  0
DICTIONARYVAR
  5
D52
102
{ACAD_REACTORS
330
330
102
}
330
330
100
DictionaryVariables
280
     0
  1
ByLayer
  0
DICTIONARYVAR
  5
896
102
{ACAD_REACTORS
330
330
102
}
330
330
100
DictionaryVariables
280
     0
  1
0
  0
DICTIONARYVAR
  5
109C
102
{ACAD_REACTORS
330
1099
102
}
330
1099
100
DictionaryVariables
280
     0
  1
0.261799
  0
DICTIONARYVAR
  5
109A
102
{ACAD_REACTORS
330
1099
102
}
330
1099
100
DictionaryVariables
280
     0
  1
0.400000
  0
DICTIONARYVAR
  5
109B
102
{ACAD_REACTORS
330
1099
102
}
330
1099
100
DictionaryVariables
280
     0
  1
0.250000
  0
DICTIONARYVAR
  5
109D
102
{ACAD_REACTORS
330
1099
102
}
330
1099
100
DictionaryVariables
280
     0
  1
1
  0
XRECORD
  5
7AA
102
{ACAD_REACTORS
330
2E2
102
}
330
2E2
100
AcDbXrecord
280
     1
 91
    34815
301

290
     0
302
HIDDEN
330
14
 90
        8
 62
     7
370
    -3
331
13
  1
Color_7
440
 33554687
330
4B
 90
        8
 62
     7
370
    20
331
13
  1
Color_7
440
 33554687
330
4C
 90
        8
 62
     3
370
    13
331
13
  1
Color_3
440
 33554687
330
4D
 90
        8
 62
     7
370
    20
331
13
  1
Color_7
440
 33554687
330
667
 90
        8
 62
     7
370
    -3
331
13
  1
Color_7
440
 33554687
330
88C
 90
        8
 62
     8
370
    20
331
D6D
  1
Color_8
440
 33554687
330
D6B
 90
        0
 62
     4
370
    20
331
D6C
  1
Color_4
440
 33554687
330
D8C
 90
        0
 62
     7
370
    -3
331
13
  1
Color_7
440
 33554687
  0
FIELD
  5
1719
102
{ACAD_REACTORS
330
1718
102
}
330
1718
100
AcDbField
  1
_text
  2
{%<\_FldIdx 0>%N}
 90
        1
360
171A
 97
        0
 91
       63
 92
        0
 94
        8
 95
        2
 96
        0
300

 93
        1
  6
ACFD_FIELDTEXT_CHECKSUM
 93
        2
 90
        2
140
4567.0
 94
        0
300

302

304
ACVALUE_END
  7
ACFD_FIELD_VALUE
 93
        6
 90
        4
  1
{20160629N}
 94
        0
300

302

304
ACVALUE_END
301
{20160629N}
 98
       11
  0
DICTIONARY
  5
1727
330
279
100
AcDbDictionary
280
     1
281
     1
  3
ACAD_ROUNDTRIP_2008_TABLESTYLE_CELLSTYLEMAP
360
1728
  0
FIELD
  5
171A
330
1719
100
AcDbField
  1
AcVar
  2
\AcVar CreateDate \f "yyyyMMdd"
 90
        0
 97
        0
 91
       63
 92
        0
 94
        8
 95
        2
 96
        0
300

 93
        1
  6
Variable
 93
        2
 90
        4
  1
CreateDate
 94
        0
300

302

304
ACVALUE_END
  7
ACFD_FIELD_VALUE
 93
        6
 90
        8
 92
       16
310
E007060000001D00070007001F000000
 94
        0
300
yyyyMMdd
302

304
ACVALUE_END
301
20160629
 98
        8
  0
CELLSTYLEMAP
  5
1728
102
{ACAD_REACTORS
330
1727
102
}
330
1727
100
AcDbCellStyleMap
 90
        3
300
CELLSTYLE
  1
TABLEFORMAT_BEGIN
 90
        5
170
     1
 91
        0
 92
    32768
 62
   257
 93
        1
300
CONTENTFORMAT
  1
CONTENTFORMAT_BEGIN
 90
        0
 91
        0
 92
        4
 93
        0
300

 40
0.0
140
1.0
 94
        5
 62
     0
340
17
144
6.0
309
CONTENTFORMAT_END
171
     1
301
MARGIN
  1
CELLMARGIN_BEGIN
 40
0.06
 40
0.06
 40
0.06
 40
0.06
 40
0.18
 40
0.18
309
CELLMARGIN_END
 94
        6
 95
        1
302
GRIDFORMAT
  1
GRIDFORMAT_BEGIN
 90
        0
 91
        1
 62
     0
 92
       -2
340
0
 93
        0
 40
0.045
309
GRIDFORMAT_END
 95
        2
302
GRIDFORMAT
  1
GRIDFORMAT_BEGIN
 90
        0
 91
        1
 62
     0
 92
       -2
340
0
 93
        0
 40
0.045
309
GRIDFORMAT_END
 95
        4
302
GRIDFORMAT
  1
GRIDFORMAT_BEGIN
 90
        0
 91
        1
 62
     0
 92
       -2
340
0
 93
        0
 40
0.045
309
GRIDFORMAT_END
 95
        8
302
GRIDFORMAT
  1
GRIDFORMAT_BEGIN
 90
        0
 91
        1
 62
     0
 92
       -2
340
0
 93
        0
 40
0.045
309
GRIDFORMAT_END
 95
       16
302
GRIDFORMAT
  1
GRIDFORMAT_BEGIN
 90
        0
 91
        1
 62
     0
 92
       -2
340
0
 93
        0
 40
0.045
309
GRIDFORMAT_END
 95
       32
302
GRIDFORMAT
  1
GRIDFORMAT_BEGIN
 90
        0
 91
        1
 62
     0
 92
       -2
340
0
 93
        0
 40
0.045
309
GRIDFORMAT_END
309
TABLEFORMAT_END
  1
CELLSTYLE_BEGIN
 90
        1
 91
        1
300
_TITLE
309
CELLSTYLE_END
300
CELLSTYLE
  1
TABLEFORMAT_BEGIN
 90
        5
170
     1
 91
        0
 92
        0
 62
   257
 93
        1
300
CONTENTFORMAT
  1
CONTENTFORMAT_BEGIN
 90
        0
 91
        0
 92
        4
 93
        0
300

 40
0.0
140
1.0
 94
        5
 62
     0
340
17
144
4.5
309
CONTENTFORMAT_END
171
     1
301
MARGIN
  1
CELLMARGIN_BEGIN
 40
0.06
 40
0.06
 40
0.06
 40
0.06
 40
0.18
 40
0.18
309
CELLMARGIN_END
 94
        6
 95
        1
302
GRIDFORMAT
  1
GRIDFORMAT_BEGIN
 90
        0
 91
        1
 62
     0
 92
       -2
340
0
 93
        0
 40
0.045
309
GRIDFORMAT_END
 95
        2
302
GRIDFORMAT
  1
GRIDFORMAT_BEGIN
 90
        0
 91
        1
 62
     0
 92
       -2
340
0
 93
        0
 40
0.045
309
GRIDFORMAT_END
 95
        4
302
GRIDFORMAT
  1
GRIDFORMAT_BEGIN
 90
        0
 91
        1
 62
     0
 92
       -2
340
0
 93
        0
 40
0.045
309
GRIDFORMAT_END
 95
        8
302
GRIDFORMAT
  1
GRIDFORMAT_BEGIN
 90
        0
 91
        1
 62
     0
 92
       -2
340
0
 93
        0
 40
0.045
309
GRIDFORMAT_END
 95
       16
302
GRIDFORMAT
  1
GRIDFORMAT_BEGIN
 90
        0
 91
        1
 62
     0
 92
       -2
340
0
 93
        0
 40
0.045
309
GRIDFORMAT_END
 95
       32
302
GRIDFORMAT
  1
GRIDFORMAT_BEGIN
 90
        0
 91
        1
 62
     0
 92
       -2
340
0
 93
        0
 40
0.045
309
GRIDFORMAT_END
309
TABLEFORMAT_END
  1
CELLSTYLE_BEGIN
 90
        2
 91
        1
300
_HEADER
309
CELLSTYLE_END
300
CELLSTYLE
  1
TABLEFORMAT_BEGIN
 90
        5
170
     1
 91
        0
 92
        0
 62
   257
 93
        1
300
CONTENTFORMAT
  1
CONTENTFORMAT_BEGIN
 90
        0
 91
        0
 92
        4
 93
        0
300

 40
0.0
140
1.0
 94
        2
 62
     0
340
17
144
4.5
309
CONTENTFORMAT_END
171
     1
301
MARGIN
  1
CELLMARGIN_BEGIN
 40
0.06
 40
0.06
 40
0.06
 40
0.06
 40
0.18
 40
0.18
309
CELLMARGIN_END
 94
        6
 95
        1
302
GRIDFORMAT
  1
GRIDFORMAT_BEGIN
 90
        0
 91
        1
 62
     0
 92
       -2
340
0
 93
        0
 40
0.045
309
GRIDFORMAT_END
 95
        2
302
GRIDFORMAT
  1
GRIDFORMAT_BEGIN
 90
        0
 91
        1
 62
     0
 92
       -2
340
0
 93
        0
 40
0.045
309
GRIDFORMAT_END
 95
        4
302
GRIDFORMAT
  1
GRIDFORMAT_BEGIN
 90
        0
 91
        1
 62
     0
 92
       -2
340
0
 93
        0
 40
0.045
309
GRIDFORMAT_END
 95
        8
302
GRIDFORMAT
  1
GRIDFORMAT_BEGIN
 90
        0
 91
        1
 62
     0
 92
       -2
340
0
 93
        0
 40
0.045
309
GRIDFORMAT_END
 95
       16
302
GRIDFORMAT
  1
GRIDFORMAT_BEGIN
 90
        0
 91
        1
 62
     0
 92
       -2
340
0
 93
        0
 40
0.045
309
GRIDFORMAT_END
 95
       32
302
GRIDFORMAT
  1
GRIDFORMAT_BEGIN
 90
        0
 91
        1
 62
     0
 92
       -2
340
0
 93
        0
 40
0.045
309
GRIDFORMAT_END
309
TABLEFORMAT_END
  1
CELLSTYLE_BEGIN
 90
        3
 91
        2
300
_DATA
309
CELLSTYLE_END
  0
ENDSEC
  0
EOF
