  0
SECTION
  2
HEADER
  9
$ACADVER
  1
AC1021
  9
$ACADMAINTVER
 70
    25
  9
$DWGCODEPAGE
  3
ANSI_932
  9
$LASTSAVEDBY
  1
howeNelson
  9
$INSBASE
 10
0.0
 20
0.0
 30
0.0
  9
$EXTMIN
 10
0.0
 20
0.0
 30
0.0
  9
$EXTMAX
 10
1050.0
 20
1485.0
 30
0.0000000000000142
  9
$LIMMIN
 10
0.0
 20
0.0
  9
$LIMMAX
 10
1050.0
 20
1485.0
  9
$ORTHOMODE
 70
     0
  9
$REGENMODE
 70
     1
  9
$FILLMODE
 70
     1
  9
$QTEXTMODE
 70
     0
  9
$MIRRTEXT
 70
     1
  9
$LTSCALE
 40
50.0
  9
$ATTMODE
 70
     1
  9
$TEXTSIZE
 40
2.5
  9
$TRACEWID
 40
1.0
  9
$TEXTSTYLE
  7
ＭＳ ゴシック
  9
$CLAYER
  8
DIM
  9
$CELTYPE
  6
ByLayer
  9
$CECOLOR
 62
   256
  9
$CELTSCALE
 40
0.05
  9
$DISPSILH
 70
     0
  9
$DIMSCALE
 40
1.0
  9
$DIMASZ
 40
3.0
  9
$DIMEXO
 40
5.0
  9
$DIMDLI
 40
0.9999999999999999
  9
$DIMRND
 40
0.0
  9
$DIMDLE
 40
0.0
  9
$DIMEXE
 40
0.0
  9
$DIMTP
 40
0.0
  9
$DIMTM
 40
0.0
  9
$DIMTXT
 40
12.0
  9
$DIMCEN
 40
0.0
  9
$DIMTSZ
 40
0.0
  9
$DIMTOL
 70
     0
  9
$DIMLIM
 70
     0
  9
$DIMTIH
 70
     0
  9
$DIMTOH
 70
     0
  9
$DIMSE1
 70
     0
  9
$DIMSE2
 70
     0
  9
$DIMTAD
 70
     1
  9
$DIMZIN
 70
    11
  9
$DIMBLK
  1
DOT
  9
$DIMASO
 70
     1
  9
$DIMSHO
 70
     1
  9
$DIMPOST
  1
<>
  9
$DIMAPOST
  1
[]
  9
$DIMALT
 70
     0
  9
$DIMALTD
 70
     1
  9
$DIMALTF
 40
1.0
  9
$DIMLFAC
 40
1.0
  9
$DIMTOFL
 70
     0
  9
$DIMTVP
 40
0.0
  9
$DIMTIX
 70
     1
  9
$DIMSOXD
 70
     0
  9
$DIMSAH
 70
     0
  9
$DIMBLK1
  1

  9
$DIMBLK2
  1

  9
$DIMSTYLE
  2
tfrom線あり
  9
$DIMCLRD
 70
     0
  9
$DIMCLRE
 70
     0
  9
$DIMCLRT
 70
     0
  9
$DIMTFAC
 40
1.0
  9
$DIMGAP
 40
10.0
  9
$DIMJUST
 70
     0
  9
$DIMSD1
 70
     0
  9
$DIMSD2
 70
     0
  9
$DIMTOLJ
 70
     1
  9
$DIMTZIN
 70
    11
  9
$DIMALTZ
 70
    11
  9
$DIMALTTZ
 70
    11
  9
$DIMUPT
 70
     0
  9
$DIMDEC
 70
     0
  9
$DIMTDEC
 70
     1
  9
$DIMALTU
 70
     2
  9
$DIMALTTD
 70
     2
  9
$DIMTXSTY
  7
ＭＳ ゴシック
  9
$DIMAUNIT
 70
     0
  9
$DIMADEC
 70
     2
  9
$DIMALTRND
 40
0.0
  9
$DIMAZIN
 70
     0
  9
$DIMDSEP
 70
    46
  9
$DIMATFIT
 70
     0
  9
$DIMFRAC
 70
     2
  9
$DIMLDRBLK
  1
DOT
  9
$DIMLUNIT
 70
     2
  9
$DIMLWD
 70
    -2
  9
$DIMLWE
 70
    -2
  9
$DIMTMOVE
 70
     0
  9
$DIMFXL
 40
1.0
  9
$DIMFXLON
 70
     0
  9
$DIMJOGANG
 40
0.7853981633974483
  9
$DIMTFILL
 70
     0
  9
$DIMTFILLCLR
 70
     0
  9
$DIMARCSYM
 70
     0
  9
$DIMLTYPE
  6

  9
$DIMLTEX1
  6

  9
$DIMLTEX2
  6

  9
$LUNITS
 70
     2
  9
$LUPREC
 70
     0
  9
$SKETCHINC
 40
0.1
  9
$FILLETRAD
 40
0.0
  9
$AUNITS
 70
     0
  9
$AUPREC
 70
     0
  9
$MENU
  1
acad
  9
$ELEVATION
 40
0.0
  9
$PELEVATION
 40
0.0
  9
$THICKNESS
 40
0.0
  9
$LIMCHECK
 70
     0
  9
$CHAMFERA
 40
0.0
  9
$CHAMFERB
 40
0.0
  9
$CHAMFERC
 40
0.0
  9
$CHAMFERD
 40
0.0
  9
$SKPOLY
 70
     0
  9
$TDCREATE
 40
2447893.375
  9
$TDUCREATE
 40
0.0
  9
$TDUPDATE
 40
2457569.68759515
  9
$TDUUPDATE
 40
2457569.31259515
  9
$TDINDWG
 40
0.2786649537
  9
$TDUSRTIMER
 40
2457569.30600213
  9
$USRTIMER
 70
     1
  9
$ANGBASE
 50
0.0
  9
$ANGDIR
 70
     0
  9
$PDMODE
 70
     1
  9
$PDSIZE
 40
-2.0
  9
$PLINEWID
 40
0.0
  9
$SPLFRAME
 70
     0
  9
$SPLINETYPE
 70
     6
  9
$SPLINESEGS
 70
     8
  9
$HANDSEED
  5
16B1
  9
$SURFTAB1
 70
     6
  9
$SURFTAB2
 70
     6
  9
$SURFTYPE
 70
     6
  9
$SURFU
 70
     6
  9
$SURFV
 70
     6
  9
$UCSBASE
  2

  9
$UCSNAME
  2

  9
$UCSORG
 10
0.0
 20
0.0
 30
0.0
  9
$UCSXDIR
 10
1.0
 20
0.0
 30
0.0
  9
$UCSYDIR
 10
0.0
 20
1.0
 30
0.0
  9
$UCSORTHOREF
  2

  9
$UCSORTHOVIEW
 70
     0
  9
$UCSORGTOP
 10
0.0
 20
0.0
 30
0.0
  9
$UCSORGBOTTOM
 10
0.0
 20
0.0
 30
0.0
  9
$UCSORGLEFT
 10
0.0
 20
0.0
 30
0.0
  9
$UCSORGRIGHT
 10
0.0
 20
0.0
 30
0.0
  9
$UCSORGFRONT
 10
0.0
 20
0.0
 30
0.0
  9
$UCSORGBACK
 10
0.0
 20
0.0
 30
0.0
  9
$PUCSBASE
  2

  9
$PUCSNAME
  2

  9
$PUCSORG
 10
0.0
 20
0.0
 30
0.0
  9
$PUCSXDIR
 10
1.0
 20
0.0
 30
0.0
  9
$PUCSYDIR
 10
0.0
 20
1.0
 30
0.0
  9
$PUCSORTHOREF
  2

  9
$PUCSORTHOVIEW
 70
     0
  9
$PUCSORGTOP
 10
0.0
 20
0.0
 30
0.0
  9
$PUCSORGBOTTOM
 10
0.0
 20
0.0
 30
0.0
  9
$PUCSORGLEFT
 10
0.0
 20
0.0
 30
0.0
  9
$PUCSORGRIGHT
 10
0.0
 20
0.0
 30
0.0
  9
$PUCSORGFRONT
 10
0.0
 20
0.0
 30
0.0
  9
$PUCSORGBACK
 10
0.0
 20
0.0
 30
0.0
  9
$USERI1
 70
     0
  9
$USERI2
 70
     0
  9
$USERI3
 70
     0
  9
$USERI4
 70
     0
  9
$USERI5
 70
     0
  9
$USERR1
 40
0.0
  9
$USERR2
 40
0.0
  9
$USERR3
 40
0.0
  9
$USERR4
 40
0.0
  9
$USERR5
 40
0.0
  9
$WORLDVIEW
 70
     1
  9
$SHADEDGE
 70
     3
  9
$SHADEDIF
 70
    70
  9
$TILEMODE
 70
     1
  9
$MAXACTVP
 70
    64
  9
$PINSBASE
 10
0.0
 20
0.0
 30
0.0
  9
$PLIMCHECK
 70
     0
  9
$PEXTMIN
 10
0.0
 20
0.0
 30
0.0
  9
$PEXTMAX
 10
0.0
 20
0.0
 30
0.0
  9
$PLIMMIN
 10
-95.87226993865028
 20
-25.69999999999999
  9
$PLIMMAX
 10
201.1277300613497
 20
184.3
  9
$UNITMODE
 70
     0
  9
$VISRETAIN
 70
     0
  9
$PLINEGEN
 70
     1
  9
$PSLTSCALE
 70
     0
  9
$TREEDEPTH
 70
  3020
  9
$CMLSTYLE
  2
Standard
  9
$CMLJUST
 70
     0
  9
$CMLSCALE
 40
1.0
  9
$PROXYGRAPHICS
 70
     0
  9
$MEASUREMENT
 70
     1
  9
$CELWEIGHT
370
    -1
  9
$ENDCAPS
280
     0
  9
$JOINSTYLE
280
     0
  9
$LWDISPLAY
290
     1
  9
$INSUNITS
 70
     4
  9
$HYPERLINKBASE
  1

  9
$STYLESHEET
  1

  9
$XEDIT
290
     1
  9
$CEPSNTYPE
380
     0
  9
$PSTYLEMODE
290
     1
  9
$FINGERPRINTGUID
  2

  9
$VERSIONGUID
  2

  9
$EXTNAMES
290
     1
  9
$PSVPSCALE
 40
0.0
  9
$OLESTARTUP
290
     0
  9
$SORTENTS
280
   127
  9
$INDEXCTL
280
     0
  9
$HIDETEXT
280
     1
  9
$XCLIPFRAME
290
     0
  9
$HALOGAP
280
     0
  9
$OBSCOLOR
 70
   257
  9
$OBSLTYPE
280
     0
  9
$INTERSECTIONDISPLAY
280
     0
  9
$INTERSECTIONCOLOR
 70
   257
  9
$DIMASSOC
280
     2
  9
$PROJECTNAME
  1

  9
$CAMERADISPLAY
290
     0
  9
$LENSLENGTH
 40
50.0
  9
$CAMERAHEIGHT
 40
0.0
  9
$STEPSPERSEC
 40
2.0
  9
$STEPSIZE
 40
6.0
  9
$3DDWFPREC
 40
2.0
  9
$PSOLWIDTH
 40
0.25
  9
$PSOLHEIGHT
 40
4.0
  9
$LOFTANG1
 40
1.570796326794897
  9
$LOFTANG2
 40
1.570796326794897
  9
$LOFTMAG1
 40
0.0
  9
$LOFTMAG2
 40
0.0
  9
$LOFTPARAM
 70
     7
  9
$LOFTNORMALS
280
     1
  9
$LATITUDE
 40
37.795
  9
$LONGITUDE
 40
-122.394
  9
$NORTHDIRECTION
 40
0.0
  9
$TIMEZONE
 70
 -8000
  9
$LIGHTGLYPHDISPLAY
280
     1
  9
$TILEMODELIGHTSYNCH
280
     1
  9
$SOLIDHIST
280
     1
  9
$SHOWHIST
280
     1
  9
$DWFFRAME
280
     2
  9
$DGNFRAME
280
     2
  9
$REALWORLDSCALE
290
     1
  9
$INTERFERECOLOR
 62
   256
  9
$CSHADOW
280
     0
  9
$SHADOWPLANELOCATION
 40
0.0
  0
ENDSEC
  0
SECTION
  2
CLASSES
  0
CLASS
  1
LWPOLYLINE
  2
AcDbPolyline
  3
ObjectDBX Classes
 90
        0
 91
        1
280
     0
281
     1
  0
CLASS
  1
IMAGE
  2
AcDbRasterImage
  3
ISM
 90
      127
 91
        8
280
     0
281
     1
  0
CLASS
  1
OLE2FRAME
  2
AcDbOle2Frame
  3
ObjectDBX Classes
 90
        0
 91
        1
280
     0
281
     1
  0
CLASS
  1
HATCH
  2
AcDbHatch
  3
ObjectDBX Classes
 90
        0
 91
        1
280
     0
281
     1
  0
CLASS
  1
DICTIONARYVAR
  2
AcDbDictionaryVar
  3
ObjectDBX Classes
 90
        0
 91
        7
280
     0
281
     0
  0
CLASS
  1
RASTERVARIABLES
  2
AcDbRasterVariables
  3
ISM
 90
        0
 91
        7
280
     0
281
     0
  0
CLASS
  1
IMAGEDEF
  2
AcDbRasterImageDef
  3
ISM
 90
        0
 91
        7
280
     0
281
     0
  0
CLASS
  1
IMAGEDEF_REACTOR
  2
AcDbRasterImageDefReactor
  3
ISM
 90
        1
 91
        7
280
     0
281
     0
  0
CLASS
  1
IDBUFFER
  2
AcDbIdBuffer
  3
ObjectDBX Classes
 90
        0
 91
        7
280
     0
281
     0
  0
CLASS
  1
SPATIAL_FILTER
  2
AcDbSpatialFilter
  3
ObjectDBX Classes
 90
        0
 91
        7
280
     0
281
     0
  0
CLASS
  1
XRECORD
  2
AcDbXrecord
  3
ObjectDBX Classes
 90
        0
 91
        1
280
     0
281
     0
  0
CLASS
  1
SORTENTSTABLE
  2
AcDbSortentsTable
  3
ObjectDBX Classes
 90
        0
 91
        7
280
     0
281
     0
  0
CLASS
  1
LAYER_INDEX
  2
AcDbLayerIndex
  3
ObjectDBX Classes
 90
        0
 91
        7
280
     0
281
     0
  0
CLASS
  1
SPATIAL_INDEX
  2
AcDbSpatialIndex
  3
AutoCAD 2000
 90
        0
 91
        7
280
     0
281
     0
  0
CLASS
  1
OBJECT_PTR
  2
CAseDLPNTableRecord
  3
ASE-LPNTableRecord
 90
        1
 91
        7
280
     0
281
     0
  0
CLASS
  1
LAYOUT
  2
AcDbLayout
  3
ObjectDBX Classes
 90
        0
 91
        1
280
     0
281
     0
  0
CLASS
  1
PLOTSETTINGS
  2
AcDbPlotSettings
  3
ObjectDBX Classes
 90
        0
 91
        7
280
     0
281
     0
  0
CLASS
  1
ACDBDICTIONARYWDFLT
  2
AcDbDictionaryWithDefault
  3
ObjectDBX Classes
 90
        0
 91
        7
280
     0
281
     0
  0
CLASS
  1
ACDBPLACEHOLDER
  2
AcDbPlaceHolder
  3
ObjectDBX Classes
 90
        0
 91
        1
280
     0
281
     0
  0
CLASS
  1
SCALE
  2
AcDbScale
  3
ObjectDBX Classes
 90
     1153
 91
        7
280
     0
281
     0
  0
CLASS
  1
MATERIAL
  2
AcDbMaterial
  3
ObjectDBX Classes
 90
     1153
 91
        7
280
     0
281
     0
  0
CLASS
  1
VISUALSTYLE
  2
AcDbVisualStyle
  3
ObjectDBX Classes
 90
     4095
 91
        7
280
     0
281
     0
  0
CLASS
  1
TABLESTYLE
  2
AcDbTableStyle
  3
ObjectDBX Classes
 90
     4095
 91
        7
280
     0
281
     0
  0
CLASS
  1
DIMASSOC
  2
AcDbDimAssoc
  3
"AcDbDimAssoc|Product Desc:     AcDim ARX App For Dimension|Company:          Autodesk, Inc.|WEB Address:      www.autodesk.com"
 90
        0
 91
        7
280
     0
281
     0
  0
CLASS
  1
CELLSTYLEMAP
  2
AcDbCellStyleMap
  3
ObjectDBX Classes
 90
     1152
 91
        7
280
     0
281
     0
  0
CLASS
  1
SUN
  2
AcDbSun
  3
SCENEOE
 90
     1153
 91
        7
280
     0
281
     0
  0
CLASS
  1
MLEADERSTYLE
  2
AcDbMLeaderStyle
  3
ACDB_MLEADERSTYLE_CLASS
 90
     4095
 91
        7
280
     0
281
     0
  0
CLASS
  1
FIELD
  2
AcDbField
  3
ObjectDBX Classes
 90
     1152
 91
        7
280
     0
281
     0
  0
CLASS
  1
FIELDLIST
  2
AcDbFieldList
  3
ObjectDBX Classes
 90
     1152
 91
        7
280
     0
281
     0
  0
ENDSEC
  0
SECTION
  2
TABLES
  0
TABLE
  2
VPORT
  5
7
330
0
100
AcDbSymbolTable
 70
     1
  0
VPORT
  5
15
330
7
100
AcDbSymbolTableRecord
100
AcDbViewportTableRecord
  2
*ACTIVE
 70
     0
 10
0.0
 20
0.0
 11
1.0
 21
1.0
 12
616.0201356708989
 22
668.901285469834
 13
0.0
 23
0.0
 14
1.0
 24
1.0
 15
0.0
 25
0.0
 16
0.0
 26
0.0
 36
1.0
 17
-91.02013567089887
 27
73.59871453016603
 37
-46.86809886248109
 40
1514.7
 41
2.410404624277457
 42
50.0
 43
0.0
 44
0.0
 50
0.0
 51
0.0
 71
    16
 72
  2000
 73
     1
 74
     1
 75
     0
 76
     0
 77
     0
 78
     0
281
     0
 65
     1
110
0.0
120
0.0
130
0.0
111
1.0
121
0.0
131
0.0
112
0.0
122
1.0
132
0.0
 79
     0
146
0.0
348
26C
 60
     3
 61
     5
292
     1
282
     1
141
0.0
142
0.0
 63
   256
361
904
  0
ENDTAB
  0
TABLE
  2
LTYPE
  5
4
330
0
100
AcDbSymbolTable
 70
    22
  0
LTYPE
  5
11
330
4
100
AcDbSymbolTableRecord
100
AcDbLinetypeTableRecord
  2
ByBlock
 70
     0
  3

 72
    65
 73
     0
 40
0.0
  0
LTYPE
  5
12
330
4
100
AcDbSymbolTableRecord
100
AcDbLinetypeTableRecord
  2
ByLayer
 70
     0
  3

 72
    65
 73
     0
 40
0.0
  0
LTYPE
  5
13
330
4
100
AcDbSymbolTableRecord
100
AcDbLinetypeTableRecord
  2
Continuous
 70
     0
  3
Solid line
 72
    65
 73
     0
 40
0.0
  0
LTYPE
  5
3A
330
4
100
AcDbSymbolTableRecord
100
AcDbLinetypeTableRecord
  2
STYLE_01
 70
     0
  3

 72
    65
 73
     2
 40
0.2460629921259842
 49
0.1230314960629921
 74
     0
 49
-0.1230314960629921
 74
     0
  0
LTYPE
  5
3B
330
4
100
AcDbSymbolTableRecord
100
AcDbLinetypeTableRecord
  2
STYLE_02
 70
     0
  3

 72
    65
 73
     2
 40
0.6944250000000001
 49
0.48607
 74
     0
 49
-0.2083550000000001
 74
     0
  0
LTYPE
  5
3C
330
4
100
AcDbSymbolTableRecord
100
AcDbLinetypeTableRecord
  2
STYLE_03
 70
     0
  3

 72
    65
 73
     2
 40
1.25
 49
1.04164
 74
     0
 49
-0.2083599999999999
 74
     0
  0
LTYPE
  5
3D
330
4
100
AcDbSymbolTableRecord
100
AcDbLinetypeTableRecord
  2
STYLE_04
 70
     0
  3

 72
    65
 73
     2
 40
1.52771
 49
1.319425
 74
     0
 49
-0.208285
 74
     0
  0
LTYPE
  5
3E
330
4
100
AcDbSymbolTableRecord
100
AcDbLinetypeTableRecord
  2
STYLE_05
 70
     0
  3

 72
    65
 73
     2
 40
0.20828
 49
0.069425
 74
     0
 49
-0.138855
 74
     0
  0
LTYPE
  5
3F
330
4
100
AcDbSymbolTableRecord
100
AcDbLinetypeTableRecord
  2
STYLE_06
 70
     0
  3

 72
    65
 73
     4
 40
1.04164
 49
0.625
 74
     0
 49
-0.20828
 74
     0
 49
0.06943
 74
     0
 49
-0.13893
 74
     0
  0
LTYPE
  5
40
330
4
100
AcDbSymbolTableRecord
100
AcDbLinetypeTableRecord
  2
STYLE_07
 70
     0
  3

 72
    65
 73
     6
 40
1.875
 49
0.625
 74
     0
 49
-0.20828
 74
     0
 49
0.6250000000000001
 74
     0
 49
-0.2083599999999999
 74
     0
 49
0.06943
 74
     0
 49
-0.1389299999999999
 74
     0
  0
LTYPE
  5
41
330
4
100
AcDbSymbolTableRecord
100
AcDbLinetypeTableRecord
  2
STYLE_08
 70
     0
  3

 72
    65
 73
     6
 40
1.25
 49
0.625
 74
     0
 49
-0.20828
 74
     0
 49
0.06943
 74
     0
 49
-0.13893
 74
     0
 49
0.0694299999999999
 74
     0
 49
-0.13893
 74
     0
  0
LTYPE
  5
42
330
4
100
AcDbSymbolTableRecord
100
AcDbLinetypeTableRecord
  2
STYLE_09
 70
     0
  3

 72
    65
 73
     4
 40
5.0
 49
3.75
 74
     0
 49
-0.2777849999999998
 74
     0
 49
0.6944300000000003
 74
     0
 49
-0.2777849999999998
 74
     0
  0
LTYPE
  5
43
330
4
100
AcDbSymbolTableRecord
100
AcDbLinetypeTableRecord
  2
STYLE_10
 70
     0
  3

 72
    65
 73
     6
 40
5.9375
 49
3.75
 74
     0
 49
-0.2777849999999998
 74
     0
 49
0.6944300000000003
 74
     0
 49
-0.2777849999999998
 74
     0
 49
0.625
 74
     0
 49
-0.3125
 74
     0
  0
LTYPE
  5
44
330
4
100
AcDbSymbolTableRecord
100
AcDbLinetypeTableRecord
  2
STYLE_11
 70
     0
  3

 72
    65
 73
     2
 40
0.0694444881889764
 49
0.0347222440944882
 74
     0
 49
-0.0347222440944882
 74
     0
  0
LTYPE
  5
45
330
4
100
AcDbSymbolTableRecord
100
AcDbLinetypeTableRecord
  2
STYLE_12
 70
     0
  3

 72
    65
 73
     2
 40
0.3937007874015748
 49
0.1968503937007874
 74
     0
 49
-0.1968503937007874
 74
     0
  0
LTYPE
  5
46
330
4
100
AcDbSymbolTableRecord
100
AcDbLinetypeTableRecord
  2
STYLE_13
 70
     0
  3

 72
    65
 73
     2
 40
0.5905511811023622
 49
0.2952755905511811
 74
     0
 49
-0.2952755905511811
 74
     0
  0
LTYPE
  5
47
330
4
100
AcDbSymbolTableRecord
100
AcDbLinetypeTableRecord
  2
STYLE_14
 70
     0
  3

 72
    65
 73
     2
 40
1.968503937007874
 49
0.9842519685039369
 74
     0
 49
-0.9842519685039369
 74
     0
  0
LTYPE
  5
48
330
4
100
AcDbSymbolTableRecord
100
AcDbLinetypeTableRecord
  2
STYLE_15
 70
     0
  3

 72
    65
 73
     2
 40
0.1875
 49
0.125
 74
     0
 49
-0.0625
 74
     0
  0
LTYPE
  5
49
330
4
100
AcDbSymbolTableRecord
100
AcDbLinetypeTableRecord
  2
STYLE_16
 70
     0
  3

 72
    65
 73
     2
 40
0.3690944881889764
 49
0.2460629921259843
 74
     0
 49
-0.1230314960629922
 74
     0
  0
LTYPE
  5
908
330
4
100
AcDbSymbolTableRecord
100
AcDbLinetypeTableRecord
  2
AI-LINETYPE-1
 70
     0
  3
Adobe Illustrator Linetype No. 1
 72
    65
 73
     4
 40
2.116668062491661
 49
1.058334031245831
 74
     0
 49
-0.3527780104152769
 74
     0
 49
0.3527780104152769
 74
     0
 49
-0.3527780104152769
 74
     0
  0
LTYPE
  5
909
330
4
100
AcDbSymbolTableRecord
100
AcDbLinetypeTableRecord
  2
AI-LINETYPE-2
 70
     0
  3
Adobe Illustrator Linetype No. 2
 72
    65
 73
     4
 40
2.116668062491661
 49
1.058334031245831
 74
     0
 49
-0.3527780104152769
 74
     0
 49
0.3527780104152769
 74
     0
 49
-0.3527780104152769
 74
     0
  0
LTYPE
  5
D6C
330
4
100
AcDbSymbolTableRecord
100
AcDbLinetypeTableRecord
  2
BORDER
 70
     0
  3
Border __  __  . __  __  . __  __  . __  __  . 
 72
    65
 73
     6
 40
44.45
 49
12.7
 74
     0
 49
-6.35
 74
     0
 49
12.7
 74
     0
 49
-6.35
 74
     0
 49
0.0
 74
     0
 49
-6.35
 74
     0
  0
LTYPE
  5
D6D
330
4
100
AcDbSymbolTableRecord
100
AcDbLinetypeTableRecord
  2
HIDDEN
 70
     0
  3
Hidden _ _ _ _ _ _ _ _ _ _ _ _ _ _ _ _ _ _ _ _ 
 72
    65
 73
     2
 40
9.524999999999999
 49
6.35
 74
     0
 49
-3.175
 74
     0
  0
LTYPE
  5
1522
330
4
100
AcDbSymbolTableRecord
100
AcDbLinetypeTableRecord
  2
CENTER
 70
     0
  3
 Center _____  _  _____  _  _____  _  _____  _ 
 72
    65
 73
     4
 40
50.8
 49
31.75
 74
     0
 49
-6.35
 74
     0
 49
6.35
 74
     0
 49
-6.35
 74
     0
  0
ENDTAB
  0
TABLE
  2
LAYER
  5
2
102
{ACAD_XDICTIONARY
360
2E1
102
}
330
0
100
AcDbSymbolTable
 70
     8
  0
LAYER
  5
14
330
2
100
AcDbSymbolTableRecord
100
AcDbLayerTableRecord
  2
0
 70
     0
 62
     7
  6
Continuous
370
    -3
390
1D
347
266
  0
LAYER
  5
4B
330
2
100
AcDbSymbolTableRecord
100
AcDbLayerTableRecord
  2
TEMPLATE
 70
     0
 62
     7
  6
Continuous
370
    20
390
1D
347
266
  0
LAYER
  5
4C
330
2
100
AcDbSymbolTableRecord
100
AcDbLayerTableRecord
  2
DIM
 70
     0
 62
     3
  6
Continuous
370
    13
390
1D
347
266
  0
LAYER
  5
4D
330
2
100
AcDbSymbolTableRecord
100
AcDbLayerTableRecord
  2
MODEL
 70
     0
 62
     7
  6
Continuous
370
    20
390
1D
347
266
  0
LAYER
  5
667
330
2
100
AcDbSymbolTableRecord
100
AcDbLayerTableRecord
  2
LOGO
 70
     0
 62
     7
  6
Continuous
370
    -3
390
1D
347
266
  0
LAYER
  5
88C
330
2
100
AcDbSymbolTableRecord
100
AcDbLayerTableRecord
  2
HIDDEN
 70
     0
 62
     8
  6
HIDDEN
370
    20
390
1D
347
266
1001
AcAecLayerStandard
1000

1000

  0
LAYER
  5
D6B
330
2
100
AcDbSymbolTableRecord
100
AcDbLayerTableRecord
  2
BORDER
 70
     0
 62
     4
  6
BORDER
290
     0
370
    20
390
1D
347
266
1001
AcAecLayerStandard
1000

1000

  0
LAYER
  5
D8C
330
2
100
AcDbSymbolTableRecord
100
AcDbLayerTableRecord
  2
Defpoints
 70
     0
 62
     7
  6
Continuous
290
     0
370
    -3
390
1D
347
266
  0
ENDTAB
  0
TABLE
  2
STYLE
  5
3
330
0
100
AcDbSymbolTable
 70
     4
  0
STYLE
  5
17
330
3
100
AcDbSymbolTableRecord
100
AcDbTextStyleTableRecord
  2
Standard
 70
     0
 40
0.0
 41
1.0
 50
0.0
 71
     0
 42
2.5
  3
txt
  4
BIGFONT.SHX
  0
STYLE
  5
39
330
3
100
AcDbSymbolTableRecord
100
AcDbTextStyleTableRecord
  2
ＭＳ ゴシック
 70
     0
 40
0.0
 41
1.0
 50
0.0
 71
     0
 42
2.5
  3
msgothic.ttc
  4
ＭＳ ゴシック
1001
ACAD
1000
ＭＳ ゴシック
1071
        0
  0
STYLE
  5
384
330
3
100
AcDbSymbolTableRecord
100
AcDbTextStyleTableRecord
  2
ARIAL
 70
     0
 40
0.0
 41
1.0
 50
0.0
 71
     0
 42
12.0
  3
ARIAL.TTF
  4

1001
ACAD
1000
Arial
1071
       34
  0
STYLE
  5
385
330
3
100
AcDbSymbolTableRecord
100
AcDbTextStyleTableRecord
  2
ROMANS
 70
     0
 40
0.0
 41
1.0
 50
0.0
 71
     0
 42
5.0
  3
romans.shx
  4

  0
ENDTAB
  0
TABLE
  2
VIEW
  5
5
330
0
100
AcDbSymbolTable
 70
     0
  0
ENDTAB
  0
TABLE
  2
UCS
  5
6
330
0
100
AcDbSymbolTable
 70
     0
  0
ENDTAB
  0
TABLE
  2
APPID
  5
8
330
0
100
AcDbSymbolTable
 70
     3
  0
APPID
  5
16
330
8
100
AcDbSymbolTableRecord
100
AcDbRegAppTableRecord
  2
ACAD
 70
     0
  0
APPID
  5
7AC
330
8
100
AcDbSymbolTableRecord
100
AcDbRegAppTableRecord
  2
AcAecLayerStandard
 70
     0
  0
APPID
  5
E29
330
8
100
AcDbSymbolTableRecord
100
AcDbRegAppTableRecord
  2
ACAD_MLEADERVER
 70
     0
  0
ENDTAB
  0
TABLE
  2
DIMSTYLE
  5
9
330
0
100
AcDbSymbolTable
 70
     5
100
AcDbDimStyleTable
  0
DIMSTYLE
105
18
330
9
100
AcDbSymbolTableRecord
100
AcDbDimStyleTableRecord
  2
Standard
 70
     0
178
     0
340
17
  0
DIMSTYLE
105
56
330
9
100
AcDbSymbolTableRecord
100
AcDbDimStyleTableRecord
  2
tform線あり
 70
     0
  3
<>
  4
[]
 41
9.999389648437498
 42
25.0
 43
0.9999999999999999
 44
0.0
 73
     0
 74
     0
 77
     1
 78
    11
140
24.4326171875
141
0.0
143
1.0
146
0.8
147
0.4999999999999999
171
     1
172
     1
174
     1
178
     0
179
     2
271
     1
272
     1
276
     2
284
    11
285
    11
286
    11
289
     0
340
39
341
4E
342
4E
  0
DIMSTYLE
105
57
102
{ACAD_REACTORS
330
F94
330
F95
330
F96
330
FA3
330
FC5
330
FC8
330
FCB
330
FCE
330
FD1
330
FD2
330
FD5
330
FD7
330
FD9
330
10C6
330
10EA
330
10F8
330
140C
330
1424
330
144F
330
14CA
102
}
330
9
100
AcDbSymbolTableRecord
100
AcDbDimStyleTableRecord
  2
tfrom線あり
 70
     0
  3
<>
  4
[]
 41
3.0
 42
5.0
 43
0.9999999999999999
 44
0.0
 73
     0
 74
     0
 77
     1
 78
    11
140
12.0
141
0.0
143
1.0
147
10.0
171
     1
174
     1
178
     0
179
     2
271
     0
272
     1
276
     2
284
    11
285
    11
286
    11
289
     0
340
39
341
4E
342
4E
  0
DIMSTYLE
105
5C
330
9
100
AcDbSymbolTableRecord
100
AcDbDimStyleTableRecord
  2
JIS
 70
     0
  3
<>
  4
[]
 41
9.0
 42
0.0
 43
6.99999999999994
 44
19.9999999999962
 73
     0
 74
     0
 77
     1
 78
    11
140
24.4326171875
141
0.0
143
1.0
147
10.0
171
     1
174
     1
178
     0
179
     2
271
     1
272
     1
276
     2
284
    11
285
    11
286
    11
289
     0
340
39
341
4E
342
4E
  0
DIMSTYLE
105
383
330
9
100
AcDbSymbolTableRecord
100
AcDbDimStyleTableRecord
  2
ARIAL
 70
     0
 41
10.0
 42
3.0
 43
0.5
 44
3.0
 73
     0
 74
     0
 77
     1
 78
     8
140
12.0
141
0.0
146
0.5
147
4.0
171
     1
172
     1
178
     0
271
     1
289
     0
340
384
  0
ENDTAB
  0
TABLE
  2
BLOCK_RECORD
  5
1
330
0
100
AcDbSymbolTable
 70
    53
  0
BLOCK_RECORD
  5
A
330
1
100
AcDbSymbolTableRecord
100
AcDbBlockTableRecord
  2
*MODEL_SPACE
340
20
 70
     0
280
     1
281
     0
  0
BLOCK_RECORD
  5
B
330
1
100
AcDbSymbolTableRecord
100
AcDbBlockTableRecord
  2
*PAPER_SPACE
340
21
 70
     0
280
     1
281
     0
  0
BLOCK_RECORD
  5
4E
330
1
100
AcDbSymbolTableRecord
100
AcDbBlockTableRecord
  2
_DOT
340
0
102
{BLKREFS
331
D96
331
D97
331
DA5
331
DA6
331
E85
331
E86
331
E92
331
E93
331
E9E
331
E9F
331
EB7
331
EB8
331
EE7
331
EE8
331
EF6
331
EF7
331
F05
331
F06
331
F14
331
F15
331
F21
331
F22
331
F30
331
F31
331
F3D
331
F3E
331
F4B
331
F4C
331
F58
331
F59
331
F65
331
F66
331
FE0
331
FE1
331
FEC
331
FED
331
FF7
331
FF8
331
1003
331
1004
331
100F
331
1010
331
101B
331
101C
331
1027
331
1028
331
1033
331
1034
331
103F
331
1040
331
104B
331
104C
331
1057
331
1058
331
1063
331
1064
331
106F
331
1070
331
107B
331
107C
331
10A0
331
10A1
331
10CF
331
10D0
331
10F1
331
10F2
331
10FF
331
1100
331
11B9
331
11BA
331
128F
331
1290
331
133C
331
133D
331
1355
331
1356
331
1394
331
1395
331
13A7
331
13A8
331
1415
331
1416
331
142B
331
142C
331
1458
331
1459
331
149E
331
149F
331
14AC
331
14AD
331
14E6
331
14E7
331
14F3
331
14F4
102
}
 70
     0
280
     1
281
     0
  0
BLOCK_RECORD
  5
68A
330
1
100
AcDbSymbolTableRecord
100
AcDbBlockTableRecord
  2
名称未設定-1
340
0
102
{BLKREFS
331
6B5
102
}
 70
     1
280
     1
281
     0
  0
BLOCK_RECORD
  5
68D
330
1
100
AcDbSymbolTableRecord
100
AcDbBlockTableRecord
  2
block 2
340
0
102
{BLKREFS
331
68C
102
}
 70
     0
280
     1
281
     0
  0
BLOCK_RECORD
  5
690
330
1
100
AcDbSymbolTableRecord
100
AcDbBlockTableRecord
  2
block 3
340
0
102
{BLKREFS
331
68F
102
}
 70
     0
280
     1
281
     0
  0
BLOCK_RECORD
  5
693
330
1
100
AcDbSymbolTableRecord
100
AcDbBlockTableRecord
  2
block 4
340
0
102
{BLKREFS
331
692
102
}
 70
     0
280
     1
281
     0
  0
BLOCK_RECORD
  5
6A2
330
1
100
AcDbSymbolTableRecord
100
AcDbBlockTableRecord
  2
block 5
340
0
102
{BLKREFS
331
6A1
102
}
 70
     0
280
     1
281
     0
  0
BLOCK_RECORD
  5
D90
330
1
100
AcDbSymbolTableRecord
100
AcDbBlockTableRecord
  2
*D6
340
0
 70
     0
280
     1
281
     0
  0
BLOCK_RECORD
  5
D9F
330
1
100
AcDbSymbolTableRecord
100
AcDbBlockTableRecord
  2
*D7
340
0
 70
     0
280
     1
281
     0
  0
BLOCK_RECORD
  5
E80
330
1
100
AcDbSymbolTableRecord
100
AcDbBlockTableRecord
  2
*D8
340
0
 70
     0
280
     1
281
     0
  0
BLOCK_RECORD
  5
E8D
330
1
100
AcDbSymbolTableRecord
100
AcDbBlockTableRecord
  2
*D9
340
0
 70
     0
280
     1
281
     0
  0
BLOCK_RECORD
  5
E9A
330
1
100
AcDbSymbolTableRecord
100
AcDbBlockTableRecord
  2
*D10
340
0
 70
     0
280
     1
281
     0
  0
BLOCK_RECORD
  5
EB2
330
1
100
AcDbSymbolTableRecord
100
AcDbBlockTableRecord
  2
*D11
340
0
 70
     0
280
     1
281
     0
  0
BLOCK_RECORD
  5
EE2
330
1
100
AcDbSymbolTableRecord
100
AcDbBlockTableRecord
  2
*D12
340
0
 70
     0
280
     1
281
     0
  0
BLOCK_RECORD
  5
EF1
330
1
100
AcDbSymbolTableRecord
100
AcDbBlockTableRecord
  2
*D13
340
0
 70
     0
280
     1
281
     0
  0
BLOCK_RECORD
  5
F00
330
1
100
AcDbSymbolTableRecord
100
AcDbBlockTableRecord
  2
*D14
340
0
 70
     0
280
     1
281
     0
  0
BLOCK_RECORD
  5
F0F
330
1
100
AcDbSymbolTableRecord
100
AcDbBlockTableRecord
  2
*D15
340
0
 70
     0
280
     1
281
     0
  0
BLOCK_RECORD
  5
F1C
330
1
100
AcDbSymbolTableRecord
100
AcDbBlockTableRecord
  2
*D16
340
0
 70
     0
280
     1
281
     0
  0
BLOCK_RECORD
  5
F2B
330
1
100
AcDbSymbolTableRecord
100
AcDbBlockTableRecord
  2
*D17
340
0
 70
     0
280
     1
281
     0
  0
BLOCK_RECORD
  5
F38
330
1
100
AcDbSymbolTableRecord
100
AcDbBlockTableRecord
  2
*D18
340
0
 70
     0
280
     1
281
     0
  0
BLOCK_RECORD
  5
F46
330
1
100
AcDbSymbolTableRecord
100
AcDbBlockTableRecord
  2
*D19
340
0
 70
     0
280
     1
281
     0
  0
BLOCK_RECORD
  5
F53
330
1
100
AcDbSymbolTableRecord
100
AcDbBlockTableRecord
  2
*D20
340
0
 70
     0
280
     1
281
     0
  0
BLOCK_RECORD
  5
F60
330
1
100
AcDbSymbolTableRecord
100
AcDbBlockTableRecord
  2
*D21
340
0
 70
     0
280
     1
281
     0
  0
BLOCK_RECORD
  5
FDA
330
1
100
AcDbSymbolTableRecord
100
AcDbBlockTableRecord
  2
*D22
340
0
 70
     0
280
     1
281
     0
  0
BLOCK_RECORD
  5
FE6
330
1
100
AcDbSymbolTableRecord
100
AcDbBlockTableRecord
  2
*D23
340
0
 70
     0
280
     1
281
     0
  0
BLOCK_RECORD
  5
FF2
330
1
100
AcDbSymbolTableRecord
100
AcDbBlockTableRecord
  2
*D24
340
0
 70
     0
280
     1
281
     0
  0
BLOCK_RECORD
  5
FFD
330
1
100
AcDbSymbolTableRecord
100
AcDbBlockTableRecord
  2
*D25
340
0
 70
     0
280
     1
281
     0
  0
BLOCK_RECORD
  5
1009
330
1
100
AcDbSymbolTableRecord
100
AcDbBlockTableRecord
  2
*D26
340
0
 70
     0
280
     1
281
     0
  0
BLOCK_RECORD
  5
1015
330
1
100
AcDbSymbolTableRecord
100
AcDbBlockTableRecord
  2
*D27
340
0
 70
     0
280
     1
281
     0
  0
BLOCK_RECORD
  5
1021
330
1
100
AcDbSymbolTableRecord
100
AcDbBlockTableRecord
  2
*D28
340
0
 70
     0
280
     1
281
     0
  0
BLOCK_RECORD
  5
102D
330
1
100
AcDbSymbolTableRecord
100
AcDbBlockTableRecord
  2
*D29
340
0
 70
     0
280
     1
281
     0
  0
BLOCK_RECORD
  5
1039
330
1
100
AcDbSymbolTableRecord
100
AcDbBlockTableRecord
  2
*D30
340
0
 70
     0
280
     1
281
     0
  0
BLOCK_RECORD
  5
1045
330
1
100
AcDbSymbolTableRecord
100
AcDbBlockTableRecord
  2
*D31
340
0
 70
     0
280
     1
281
     0
  0
BLOCK_RECORD
  5
1051
330
1
100
AcDbSymbolTableRecord
100
AcDbBlockTableRecord
  2
*D32
340
0
 70
     0
280
     1
281
     0
  0
BLOCK_RECORD
  5
105D
330
1
100
AcDbSymbolTableRecord
100
AcDbBlockTableRecord
  2
*D33
340
0
 70
     0
280
     1
281
     0
  0
BLOCK_RECORD
  5
1069
330
1
100
AcDbSymbolTableRecord
100
AcDbBlockTableRecord
  2
*D34
340
0
 70
     0
280
     1
281
     0
  0
BLOCK_RECORD
  5
1075
330
1
100
AcDbSymbolTableRecord
100
AcDbBlockTableRecord
  2
*D35
340
0
 70
     0
280
     1
281
     0
  0
BLOCK_RECORD
  5
1099
330
1
100
AcDbSymbolTableRecord
100
AcDbBlockTableRecord
  2
*D36
340
0
 70
     0
280
     1
281
     0
  0
BLOCK_RECORD
  5
10C9
330
1
100
AcDbSymbolTableRecord
100
AcDbBlockTableRecord
  2
*D37
340
0
 70
     0
280
     1
281
     0
  0
BLOCK_RECORD
  5
10EB
330
1
100
AcDbSymbolTableRecord
100
AcDbBlockTableRecord
  2
*D38
340
0
 70
     0
280
     1
281
     0
  0
BLOCK_RECORD
  5
10F9
330
1
100
AcDbSymbolTableRecord
100
AcDbBlockTableRecord
  2
*D39
340
0
 70
     0
280
     1
281
     0
  0
BLOCK_RECORD
  5
11B3
330
1
100
AcDbSymbolTableRecord
100
AcDbBlockTableRecord
  2
*D40
340
0
 70
     0
280
     1
281
     0
  0
BLOCK_RECORD
  5
1289
330
1
100
AcDbSymbolTableRecord
100
AcDbBlockTableRecord
  2
*D41
340
0
 70
     0
280
     1
281
     0
  0
BLOCK_RECORD
  5
1336
330
1
100
AcDbSymbolTableRecord
100
AcDbBlockTableRecord
  2
*D42
340
0
 70
     0
280
     1
281
     0
  0
BLOCK_RECORD
  5
134F
330
1
100
AcDbSymbolTableRecord
100
AcDbBlockTableRecord
  2
*D43
340
0
 70
     0
280
     1
281
     0
  0
BLOCK_RECORD
  5
138D
330
1
100
AcDbSymbolTableRecord
100
AcDbBlockTableRecord
  2
*D44
340
0
 70
     0
280
     1
281
     0
  0
BLOCK_RECORD
  5
13A0
330
1
100
AcDbSymbolTableRecord
100
AcDbBlockTableRecord
  2
*D45
340
0
 70
     0
280
     1
281
     0
  0
BLOCK_RECORD
  5
140F
330
1
100
AcDbSymbolTableRecord
100
AcDbBlockTableRecord
  2
*D46
340
0
 70
     0
280
     1
281
     0
  0
BLOCK_RECORD
  5
1425
330
1
100
AcDbSymbolTableRecord
100
AcDbBlockTableRecord
  2
*D47
340
0
 70
     0
280
     1
281
     0
  0
BLOCK_RECORD
  5
1452
330
1
100
AcDbSymbolTableRecord
100
AcDbBlockTableRecord
  2
*D48
340
0
 70
     0
280
     1
281
     0
  0
BLOCK_RECORD
  5
1499
330
1
100
AcDbSymbolTableRecord
100
AcDbBlockTableRecord
  2
*D49
340
0
 70
     0
280
     1
281
     0
  0
BLOCK_RECORD
  5
14A6
330
1
100
AcDbSymbolTableRecord
100
AcDbBlockTableRecord
  2
*D50
340
0
 70
     0
280
     1
281
     0
  0
BLOCK_RECORD
  5
14E0
330
1
100
AcDbSymbolTableRecord
100
AcDbBlockTableRecord
  2
*D51
340
0
 70
     0
280
     1
281
     0
  0
BLOCK_RECORD
  5
14EC
330
1
100
AcDbSymbolTableRecord
100
AcDbBlockTableRecord
  2
*D52
340
0
 70
     0
280
     1
281
     0
  0
ENDTAB
  0
ENDSEC
  0
SECTION
  2
BLOCKS
  0
BLOCK
  5
D
330
A
100
AcDbEntity
  8
0
390
1D
100
AcDbBlockBegin
  2
*MODEL_SPACE
 70
     0
 10
0.0
 20
0.0
 30
0.0
  3
*MODEL_SPACE
  1
*MODEL_SPACE
  0
ENDBLK
  5
E
330
A
100
AcDbEntity
  8
0
390
1D
100
AcDbBlockEnd
  0
BLOCK
  5
F
330
B
100
AcDbEntity
 67
     1
  8
0
390
1D
100
AcDbBlockBegin
  2
*PAPER_SPACE
 70
     0
 10
0.0
 20
0.0
 30
0.0
  3
*PAPER_SPACE
  1
*PAPER_SPACE
  0
ENDBLK
  5
10
330
B
100
AcDbEntity
 67
     1
  8
0
390
1D
100
AcDbBlockEnd
  0
BLOCK
  5
1223
330
4E
100
AcDbEntity
  8
0
390
1D
100
AcDbBlockBegin
  2
_DOT
 70
     0
 10
0.0
 20
0.0
 30
0.0
  3
_DOT
  1
_DOT
  0
POLYLINE
  5
1225
330
4E
100
AcDbEntity
  8
0
  6
ByBlock
 62
     0
370
    -2
390
1D
100
AcDb2dPolyline
 66
     1
 10
0.0
 20
0.0
 30
0.0
 70
     1
 40
0.5
 41
0.5
  0
VERTEX
  5
1226
330
1225
100
AcDbEntity
  8
0
  6
ByBlock
 62
     0
370
    -2
390
1D
100
AcDbVertex
100
AcDb2dVertex
 10
-0.25
 20
0.0
 30
0.0
 42
1.0
  0
VERTEX
  5
1227
330
1225
100
AcDbEntity
  8
0
  6
ByBlock
 62
     0
370
    -2
390
1D
100
AcDbVertex
100
AcDb2dVertex
 10
0.25
 20
0.0
 30
0.0
 42
1.0
  0
SEQEND
  5
1228
330
1225
100
AcDbEntity
  8
0
390
1D
  0
LINE
  5
1229
330
4E
100
AcDbEntity
  8
0
  6
ByBlock
 62
     0
370
    -2
390
1D
100
AcDbLine
 10
-0.5
 20
0.0
 30
0.0
 11
-1.0
 21
0.0
 31
0.0
  0
ENDBLK
  5
122A
330
4E
100
AcDbEntity
  8
0
390
1D
100
AcDbBlockEnd
  0
BLOCK
  5
68B
330
68A
100
AcDbEntity
  8
0
100
AcDbBlockBegin
  2
名称未設定-1
 70
     0
 10
0.0
 20
0.0
 30
0.0
  3
名称未設定-1
  1
名称未設定-1
  0
INSERT
  5
68F
330
68A
100
AcDbEntity
  8
LOGO
100
AcDbBlockReference
  2
block 3
 10
0.0
 20
0.0
 30
0.0
  0
ENDBLK
  5
6B1
330
68A
100
AcDbEntity
  8
0
100
AcDbBlockEnd
  0
BLOCK
  5
68E
330
68D
100
AcDbEntity
  8
0
100
AcDbBlockBegin
  2
block 2
 70
     0
 10
0.0
 20
0.0
 30
0.0
  3
block 2
  1
block 2
  0
ENDBLK
  5
6B0
330
68D
100
AcDbEntity
  8
0
100
AcDbBlockEnd
  0
BLOCK
  5
691
330
690
100
AcDbEntity
  8
0
100
AcDbBlockBegin
  2
block 3
 70
     0
 10
0.0
 20
0.0
 30
0.0
  3
block 3
  1
block 3
  0
INSERT
  5
692
330
690
100
AcDbEntity
  8
LOGO
100
AcDbBlockReference
  2
block 4
 10
0.0
 20
0.0
 30
0.0
  0
INSERT
  5
6A1
330
690
100
AcDbEntity
  8
LOGO
100
AcDbBlockReference
  2
block 5
 10
0.0
 20
0.0
 30
0.0
  0
ENDBLK
  5
6AF
330
690
100
AcDbEntity
  8
0
100
AcDbBlockEnd
  0
BLOCK
  5
694
330
693
100
AcDbEntity
  8
0
100
AcDbBlockBegin
  2
block 4
 70
     0
 10
0.0
 20
0.0
 30
0.0
  3
block 4
  1
block 4
  0
POLYLINE
  5
695
330
693
100
AcDbEntity
  8
LOGO
370
     0
100
AcDb2dPolyline
 66
     1
 10
0.0
 20
0.0
 30
0.0
  0
VERTEX
  5
696
330
695
100
AcDbEntity
  8
LOGO
370
     0
100
AcDbVertex
100
AcDb2dVertex
 10
83.79545727667795
 20
167.6444858234922
 30
0.0
  0
VERTEX
  5
697
330
695
100
AcDbEntity
  8
LOGO
370
     0
100
AcDbVertex
100
AcDb2dVertex
 10
83.79545727667795
 20
159.7968976406313
 30
0.0
  0
VERTEX
  5
698
330
695
100
AcDbEntity
  8
LOGO
370
     0
100
AcDbVertex
100
AcDb2dVertex
 10
71.3631329975216
 20
159.7968976406313
 30
0.0
  0
VERTEX
  5
699
330
695
100
AcDbEntity
  8
LOGO
370
     0
100
AcDbVertex
100
AcDb2dVertex
 10
71.3631329975216
 20
127.8027915271048
 30
0.0
  0
VERTEX
  5
69A
330
695
100
AcDbEntity
  8
LOGO
370
     0
100
AcDbVertex
100
AcDb2dVertex
 10
60.43011526263018
 20
127.8027915271048
 30
0.0
  0
VERTEX
  5
69B
330
695
100
AcDbEntity
  8
LOGO
370
     0
100
AcDbVertex
100
AcDb2dVertex
 10
60.43011526263018
 20
159.7968976406313
 30
0.0
  0
VERTEX
  5
69C
330
695
100
AcDbEntity
  8
LOGO
370
     0
100
AcDbVertex
100
AcDb2dVertex
 10
48.21793273020759
 20
159.7968976406313
 30
0.0
  0
VERTEX
  5
69D
330
695
100
AcDbEntity
  8
LOGO
370
     0
100
AcDbVertex
100
AcDb2dVertex
 10
48.21793273020759
 20
167.6444858234922
 30
0.0
  0
VERTEX
  5
69E
330
695
100
AcDbEntity
  8
LOGO
370
     0
100
AcDbVertex
100
AcDb2dVertex
 10
83.79545727667795
 20
167.6444858234922
 30
0.0
  0
SEQEND
  5
69F
330
695
100
AcDbEntity
  8
LOGO
370
     0
  0
HATCH
  5
6A0
330
693
100
AcDbEntity
  8
LOGO
 62
   250
420
  2234388
100
AcDbHatch
 10
0.0
 20
0.0
 30
0.0
210
0.0
220
0.0
230
1.0
  2
SOLID
 70
     1
 71
     0
 91
        1
 92
        1
 93
        8
 72
     1
 10
83.79545727667795
 20
167.6444858234922
 11
83.79545727667795
 21
159.7968976406313
 72
     1
 10
83.79545727667795
 20
159.7968976406313
 11
71.3631329975216
 21
159.7968976406313
 72
     1
 10
71.3631329975216
 20
159.7968976406313
 11
71.3631329975216
 21
127.8027915271048
 72
     1
 10
71.3631329975216
 20
127.8027915271048
 11
60.43011526263018
 21
127.8027915271048
 72
     1
 10
60.43011526263018
 20
127.8027915271048
 11
60.43011526263018
 21
159.7968976406313
 72
     1
 10
60.43011526263018
 20
159.7968976406313
 11
48.21793273020759
 21
159.7968976406313
 72
     1
 10
48.21793273020759
 20
159.7968976406313
 11
48.21793273020759
 21
167.6444858234922
 72
     1
 10
48.21793273020759
 20
167.6444858234922
 11
83.79545727667795
 21
167.6444858234922
 97
        0
 75
     2
 76
     1
 98
        0
  0
ENDBLK
  5
6AE
330
693
100
AcDbEntity
  8
0
100
AcDbBlockEnd
  0
BLOCK
  5
6A3
330
6A2
100
AcDbEntity
  8
0
100
AcDbBlockBegin
  2
block 5
 70
     0
 10
0.0
 20
0.0
 30
0.0
  3
block 5
  1
block 5
  0
SPLINE
  5
6A4
330
6A2
100
AcDbEntity
  8
LOGO
370
     0
100
AcDbSpline
210
0.0
220
0.0
230
1.0
 70
    11
 71
     3
 72
    56
 73
    52
 74
     0
 42
0.000000001
 43
0.0000000001
 40
0.0
 40
0.0
 40
0.0
 40
0.0
 40
1.0
 40
1.0
 40
1.0
 40
2.0
 40
2.0
 40
2.0
 40
3.0
 40
3.0
 40
3.0
 40
4.0
 40
4.0
 40
4.0
 40
5.0
 40
5.0
 40
5.0
 40
6.0
 40
6.0
 40
6.0
 40
7.0
 40
7.0
 40
7.0
 40
8.0
 40
8.0
 40
8.0
 40
9.0
 40
9.0
 40
9.0
 40
10.0
 40
10.0
 40
10.0
 40
11.0
 40
11.0
 40
11.0
 40
12.0
 40
12.0
 40
12.0
 40
13.0
 40
13.0
 40
13.0
 40
14.0
 40
14.0
 40
14.0
 40
15.0
 40
15.0
 40
15.0
 40
16.0
 40
16.0
 40
16.0
 40
17.0
 40
17.0
 40
17.0
 40
17.0
 10
100.4504378777679
 20
166.69157178364
 30
0.0
 10
101.9848844191641
 20
167.1313385124438
 30
0.0
 10
103.9637485713373
 20
166.7649523658846
 30
0.0
 10
103.9637485713373
 20
166.7649523658846
 30
0.0
 10
103.9637485713373
 20
166.7649523658846
 30
0.0
 10
103.0132460999156
 20
163.911205638077
 30
0.0
 10
103.0132460999156
 20
163.911205638077
 30
0.0
 10
103.0132460999156
 20
163.911205638077
 30
0.0
 10
101.0674548862189
 20
164.3601018759394
 30
0.0
 10
99.57090442016032
 20
163.1805004036133
 30
0.0
 10
98.40508333886608
 20
162.258247733807
 30
0.0
 10
97.65301849830304
 20
159.804132345923
 30
0.0
 10
97.3598406791005
 20
158.8699940888517
 30
0.0
 10
97.3598406791005
 20
158.8699940888517
 30
0.0
 10
96.07137411762282
 20
154.9119212747295
 30
0.0
 10
96.07137411762282
 20
154.9119212747295
 30
0.0
 10
96.07137411762282
 20
154.9119212747295
 30
0.0
 10
100.3012651448482
 20
154.9119212747295
 30
0.0
 10
100.3012651448482
 20
154.9119212747295
 30
0.0
 10
100.3012651448482
 20
154.9119212747295
 30
0.0
 10
99.64152892419852
 20
152.4199098115079
 30
0.0
 10
99.64152892419852
 20
152.4199098115079
 30
0.0
 10
99.64152892419852
 20
152.4199098115079
 30
0.0
 10
95.38097652692731
 20
152.4199098115079
 30
0.0
 10
95.38097652692731
 20
152.4199098115079
 30
0.0
 10
95.38097652692731
 20
152.4199098115079
 30
0.0
 10
87.75353009080013
 20
127.8027915271048
 30
0.0
 10
87.75353009080013
 20
127.8027915271048
 30
0.0
 10
87.75353009080013
 20
127.8027915271048
 30
0.0
 10
85.36538832498108
 20
127.8027915271048
 30
0.0
 10
85.36538832498108
 20
127.8027915271048
 30
0.0
 10
85.36538832498108
 20
127.8027915271048
 30
0.0
 10
93.00006946639998
 20
152.4199098115079
 30
0.0
 10
93.00006946639998
 20
152.4199098115079
 30
0.0
 10
93.00006946639998
 20
152.4199098115079
 30
0.0
 10
89.85297266450198
 20
152.4199098115079
 30
0.0
 10
89.85297266450198
 20
152.4199098115079
 30
0.0
 10
89.85297266450198
 20
152.4199098115079
 30
0.0
 10
90.51270888515164
 20
154.9119212747295
 30
0.0
 10
90.51270888515164
 20
154.9119212747295
 30
0.0
 10
90.51270888515164
 20
154.9119212747295
 30
0.0
 10
93.6904670570955
 20
154.9119212747295
 30
0.0
 10
93.6904670570955
 20
154.9119212747295
 30
0.0
 10
93.6904670570955
 20
154.9119212747295
 30
0.0
 10
94.81598049462158
 20
158.3616699146644
 30
0.0
 10
94.81598049462158
 20
158.3616699146644
 30
0.0
 10
95.7237637538445
 20
161.2605474231013
 30
0.0
 10
96.4968436907311
 20
162.8139420021662
 30
0.0
 10
97.15657991138076
 20
163.9844139654337
 30
0.0
 10
97.81183750494507
 20
165.1523021053827
 30
0.0
 10
99.1047826935081
 20
166.3084769129547
 30
0.0
 10
100.4504378777679
 20
166.69157178364
 30
0.0
  0
HATCH
  5
6A5
330
6A2
100
AcDbEntity
  8
LOGO
 62
   250
420
  2234388
100
AcDbHatch
 10
0.0
 20
0.0
 30
0.0
210
0.0
220
0.0
230
1.0
  2
SOLID
 70
     1
 71
     0
 91
        1
 92
        1
 93
        1
 72
     4
 94
        3
 73
     0
 74
     1
 95
       56
 96
       52
 40
0.0
 40
0.0
 40
0.0
 40
0.0
 40
1.0
 40
1.0
 40
1.0
 40
2.0
 40
2.0
 40
2.0
 40
3.0
 40
3.0
 40
3.0
 40
4.0
 40
4.0
 40
4.0
 40
5.0
 40
5.0
 40
5.0
 40
6.0
 40
6.0
 40
6.0
 40
7.0
 40
7.0
 40
7.0
 40
8.0
 40
8.0
 40
8.0
 40
9.0
 40
9.0
 40
9.0
 40
10.0
 40
10.0
 40
10.0
 40
11.0
 40
11.0
 40
11.0
 40
12.0
 40
12.0
 40
12.0
 40
13.0
 40
13.0
 40
13.0
 40
14.0
 40
14.0
 40
14.0
 40
15.0
 40
15.0
 40
15.0
 40
16.0
 40
16.0
 40
16.0
 40
17.0
 40
17.0
 40
17.0
 40
17.0
 10
100.4504378777679
 20
166.69157178364
 10
101.9848844191641
 20
167.1313385124438
 10
103.9637485713373
 20
166.7649523658846
 10
103.9637485713373
 20
166.7649523658846
 10
103.9637485713373
 20
166.7649523658846
 10
103.0132460999156
 20
163.911205638077
 10
103.0132460999156
 20
163.911205638077
 10
103.0132460999156
 20
163.911205638077
 10
101.0674548862189
 20
164.3601018759394
 10
99.57090442016032
 20
163.1805004036133
 10
98.40508333886608
 20
162.258247733807
 10
97.65301849830304
 20
159.804132345923
 10
97.3598406791005
 20
158.8699940888517
 10
97.3598406791005
 20
158.8699940888517
 10
96.07137411762282
 20
154.9119212747295
 10
96.07137411762282
 20
154.9119212747295
 10
96.07137411762282
 20
154.9119212747295
 10
100.3012651448482
 20
154.9119212747295
 10
100.3012651448482
 20
154.9119212747295
 10
100.3012651448482
 20
154.9119212747295
 10
99.64152892419852
 20
152.4199098115079
 10
99.64152892419852
 20
152.4199098115079
 10
99.64152892419852
 20
152.4199098115079
 10
95.38097652692731
 20
152.4199098115079
 10
95.38097652692731
 20
152.4199098115079
 10
95.38097652692731
 20
152.4199098115079
 10
87.75353009080013
 20
127.8027915271048
 10
87.75353009080013
 20
127.8027915271048
 10
87.75353009080013
 20
127.8027915271048
 10
85.36538832498108
 20
127.8027915271048
 10
85.36538832498108
 20
127.8027915271048
 10
85.36538832498108
 20
127.8027915271048
 10
93.00006946639998
 20
152.4199098115079
 10
93.00006946639998
 20
152.4199098115079
 10
93.00006946639998
 20
152.4199098115079
 10
89.85297266450198
 20
152.4199098115079
 10
89.85297266450198
 20
152.4199098115079
 10
89.85297266450198
 20
152.4199098115079
 10
90.51270888515164
 20
154.9119212747295
 10
90.51270888515164
 20
154.9119212747295
 10
90.51270888515164
 20
154.9119212747295
 10
93.6904670570955
 20
154.9119212747295
 10
93.6904670570955
 20
154.9119212747295
 10
93.6904670570955
 20
154.9119212747295
 10
94.81598049462158
 20
158.3616699146644
 10
94.81598049462158
 20
158.3616699146644
 10
95.7237637538445
 20
161.2605474231013
 10
96.4968436907311
 20
162.8139420021662
 10
97.15657991138076
 20
163.9844139654337
 10
97.81183750494507
 20
165.1523021053827
 10
99.1047826935081
 20
166.3084769129547
 10
100.4504378777679
 20
166.69157178364
 97
        0
 75
     2
 76
     1
 98
        0
  0
SPLINE
  5
6A6
330
6A2
100
AcDbEntity
  8
LOGO
370
     0
100
AcDbSpline
210
0.0
220
0.0
230
1.0
 70
    11
 71
     3
 72
    38
 73
    34
 74
     0
 42
0.000000001
 43
0.0000000001
 40
0.0
 40
0.0
 40
0.0
 40
0.0
 40
1.0
 40
1.0
 40
1.0
 40
2.0
 40
2.0
 40
2.0
 40
3.0
 40
3.0
 40
3.0
 40
4.0
 40
4.0
 40
4.0
 40
5.0
 40
5.0
 40
5.0
 40
6.0
 40
6.0
 40
6.0
 40
7.0
 40
7.0
 40
7.0
 40
8.0
 40
8.0
 40
8.0
 40
9.0
 40
9.0
 40
9.0
 40
10.0
 40
10.0
 40
10.0
 40
11.0
 40
11.0
 40
11.0
 40
11.0
 10
126.377554584636
 20
154.8151140277308
 30
0.0
 10
126.377554584636
 20
154.8151140277308
 30
0.0
 10
128.8311532078563
 20
154.8151140277308
 30
0.0
 10
128.8311532078563
 20
154.8151140277308
 30
0.0
 10
128.8311532078563
 20
154.8151140277308
 30
0.0
 10
127.7345785914971
 20
151.3062819612468
 30
0.0
 10
127.7345785914971
 20
151.3062819612468
 30
0.0
 10
128.571392836906
 20
152.2922689395754
 30
0.0
 10
129.8860421413442
 20
153.604506675583
 30
0.0
 10
131.0163787157314
 20
154.2664822097754
 30
0.0
 10
132.7044766171327
 20
155.2500576196734
 30
0.0
 10
133.6642808525008
 20
155.3847609420097
 30
0.0
 10
134.7284715499351
 20
155.3565111403944
 30
0.0
 10
134.7284715499351
 20
155.3565111403944
 30
0.0
 10
133.6877075172549
 20
152.0345756272799
 30
0.0
 10
133.6877075172549
 20
152.0345756272799
 30
0.0
 10
133.011434827367
 20
152.3184516825359
 30
0.0
 10
130.930940291334
 20
151.7768823149844
 30
0.0
 10
129.739280976855
 20
150.9162968950455
 30
0.0
 10
128.66613302525
 20
150.1454562717016
 30
0.0
 10
127.9192358313239
 20
149.4857200510519
 30
0.0
 10
127.0393578639405
 20
147.8282835196966
 30
0.0
 10
126.164647543194
 20
146.1699857139017
 30
0.0
 10
125.4742499524985
 20
143.5262176944419
 30
0.0
 10
124.2822461282437
 20
139.6959580071401
 30
0.0
 10
124.2822461282437
 20
139.6959580071401
 30
0.0
 10
120.5753209406769
 20
127.8027915271048
 30
0.0
 10
120.5753209406769
 20
127.8027915271048
 30
0.0
 10
120.5753209406769
 20
127.8027915271048
 30
0.0
 10
118.1964809388044
 20
127.8027915271048
 30
0.0
 10
118.1964809388044
 20
127.8027915271048
 30
0.0
 10
118.1964809388044
 20
127.8027915271048
 30
0.0
 10
126.377554584636
 20
154.8151140277308
 30
0.0
 10
126.377554584636
 20
154.8151140277308
 30
0.0
  0
HATCH
  5
6A7
330
6A2
100
AcDbEntity
  8
LOGO
 62
   250
420
  2234388
100
AcDbHatch
 10
0.0
 20
0.0
 30
0.0
210
0.0
220
0.0
230
1.0
  2
SOLID
 70
     1
 71
     0
 91
        1
 92
        1
 93
        1
 72
     4
 94
        3
 73
     0
 74
     1
 95
       38
 96
       34
 40
0.0
 40
0.0
 40
0.0
 40
0.0
 40
1.0
 40
1.0
 40
1.0
 40
2.0
 40
2.0
 40
2.0
 40
3.0
 40
3.0
 40
3.0
 40
4.0
 40
4.0
 40
4.0
 40
5.0
 40
5.0
 40
5.0
 40
6.0
 40
6.0
 40
6.0
 40
7.0
 40
7.0
 40
7.0
 40
8.0
 40
8.0
 40
8.0
 40
9.0
 40
9.0
 40
9.0
 40
10.0
 40
10.0
 40
10.0
 40
11.0
 40
11.0
 40
11.0
 40
11.0
 10
126.377554584636
 20
154.8151140277308
 10
126.377554584636
 20
154.8151140277308
 10
128.8311532078563
 20
154.8151140277308
 10
128.8311532078563
 20
154.8151140277308
 10
128.8311532078563
 20
154.8151140277308
 10
127.7345785914971
 20
151.3062819612468
 10
127.7345785914971
 20
151.3062819612468
 10
128.571392836906
 20
152.2922689395754
 10
129.8860421413442
 20
153.604506675583
 10
131.0163787157314
 20
154.2664822097754
 10
132.7044766171327
 20
155.2500576196734
 10
133.6642808525008
 20
155.3847609420097
 10
134.7284715499351
 20
155.3565111403944
 10
134.7284715499351
 20
155.3565111403944
 10
133.6877075172549
 20
152.0345756272799
 10
133.6877075172549
 20
152.0345756272799
 10
133.011434827367
 20
152.3184516825359
 10
130.930940291334
 20
151.7768823149844
 10
129.739280976855
 20
150.9162968950455
 10
128.66613302525
 20
150.1454562717016
 10
127.9192358313239
 20
149.4857200510519
 10
127.0393578639405
 20
147.8282835196966
 10
126.164647543194
 20
146.1699857139017
 10
125.4742499524985
 20
143.5262176944419
 10
124.2822461282437
 20
139.6959580071401
 10
124.2822461282437
 20
139.6959580071401
 10
120.5753209406769
 20
127.8027915271048
 10
120.5753209406769
 20
127.8027915271048
 10
120.5753209406769
 20
127.8027915271048
 10
118.1964809388044
 20
127.8027915271048
 10
118.1964809388044
 20
127.8027915271048
 10
118.1964809388044
 20
127.8027915271048
 10
126.377554584636
 20
154.8151140277308
 10
126.377554584636
 20
154.8151140277308
 97
        0
 75
     2
 76
     1
 98
        0
  0
SPLINE
  5
6A8
330
6A2
100
AcDbEntity
  8
LOGO
370
     0
100
AcDbSpline
210
0.0
220
0.0
230
1.0
 70
    11
 71
     3
 72
   104
 73
   100
 74
     0
 42
0.000000001
 43
0.0000000001
 40
0.0
 40
0.0
 40
0.0
 40
0.0
 40
1.0
 40
1.0
 40
1.0
 40
2.0
 40
2.0
 40
2.0
 40
3.0
 40
3.0
 40
3.0
 40
4.0
 40
4.0
 40
4.0
 40
5.0
 40
5.0
 40
5.0
 40
6.0
 40
6.0
 40
6.0
 40
7.0
 40
7.0
 40
7.0
 40
8.0
 40
8.0
 40
8.0
 40
9.0
 40
9.0
 40
9.0
 40
10.0
 40
10.0
 40
10.0
 40
11.0
 40
11.0
 40
11.0
 40
12.0
 40
12.0
 40
12.0
 40
13.0
 40
13.0
 40
13.0
 40
14.0
 40
14.0
 40
14.0
 40
15.0
 40
15.0
 40
15.0
 40
16.0
 40
16.0
 40
16.0
 40
17.0
 40
17.0
 40
17.0
 40
18.0
 40
18.0
 40
18.0
 40
19.0
 40
19.0
 40
19.0
 40
20.0
 40
20.0
 40
20.0
 40
21.0
 40
21.0
 40
21.0
 40
22.0
 40
22.0
 40
22.0
 40
23.0
 40
23.0
 40
23.0
 40
24.0
 40
24.0
 40
24.0
 40
25.0
 40
25.0
 40
25.0
 40
26.0
 40
26.0
 40
26.0
 40
27.0
 40
27.0
 40
27.0
 40
28.0
 40
28.0
 40
28.0
 40
29.0
 40
29.0
 40
29.0
 40
30.0
 40
30.0
 40
30.0
 40
31.0
 40
31.0
 40
31.0
 40
32.0
 40
32.0
 40
32.0
 40
33.0
 40
33.0
 40
33.0
 40
33.0
 10
139.8926730891197
 20
154.8294111834263
 30
0.0
 10
139.8926730891197
 20
154.8294111834263
 30
0.0
 10
142.0344903652445
 20
154.8294111834263
 30
0.0
 10
142.0344903652445
 20
154.8294111834263
 30
0.0
 10
142.0344903652445
 20
154.8294111834263
 30
0.0
 10
140.9516961399171
 20
151.3157559800812
 30
0.0
 10
140.9516961399171
 20
151.3157559800812
 30
0.0
 10
141.8928968473923
 20
152.7887075264977
 30
0.0
 10
142.7341897198865
 20
153.4484437471474
 30
0.0
 10
143.8552245303272
 20
154.2926649527359
 30
0.0
 10
144.9803934580775
 20
155.1296514530327
 30
0.0
 10
146.3139908001845
 20
155.3044901642492
 30
0.0
 10
147.241066606852
 20
155.3044901642492
 30
0.0
 10
148.3855280820469
 20
155.3044901642492
 30
0.0
 10
149.4969166187653
 20
155.0752189084569
 30
0.0
 10
150.0784491203092
 20
153.8172414621372
 30
0.0
 10
150.5228667310863
 20
152.833838307127
 30
0.0
 10
150.5414702589793
 20
152.7201500811143
 30
0.0
 10
150.4140016419347
 20
150.7765981809602
 30
0.0
 10
151.5818897818837
 20
152.7699317437168
 30
0.0
 10
152.4424752018226
 20
153.6256940267945
 30
0.0
 10
153.9038856707499
 20
154.4507949398263
 30
0.0
 10
155.4455669174378
 20
155.3044901642492
 30
0.0
 10
156.339225275853
 20
155.3659851592288
 30
0.0
 10
157.3748216618963
 20
155.2147453676543
 30
0.0
 10
158.911679771723
 20
154.9877134254046
 30
0.0
 10
159.8859534176746
 20
154.4390816074493
 30
0.0
 10
160.3965169054045
 20
152.7816450760939
 30
0.0
 10
160.9070803931344
 20
151.1219692311958
 30
0.0
 10
160.6328506116007
 20
150.2303779314354
 30
0.0
 10
159.9992971339115
 20
147.597634224801
 30
0.0
 10
159.7105979417943
 20
146.4014962832367
 30
0.0
 10
159.2947746424084
 20
144.9400858143094
 30
0.0
 10
158.7463150793409
 20
143.2092687007094
 30
0.0
 10
158.7463150793409
 20
143.2092687007094
 30
0.0
 10
153.9038856707499
 20
127.8027915271048
 30
0.0
 10
153.9038856707499
 20
127.8027915271048
 30
0.0
 10
153.9038856707499
 20
127.8027915271048
 30
0.0
 10
151.3882752878863
 20
127.8027915271048
 30
0.0
 10
151.3882752878863
 20
127.8027915271048
 30
0.0
 10
151.3882752878863
 20
127.8027915271048
 30
0.0
 10
155.6250565106276
 20
141.2751908193897
 30
0.0
 10
155.6250565106276
 20
141.2751908193897
 30
0.0
 10
156.5094131050963
 20
144.0936252951782
 30
0.0
 10
157.109893644309
 20
146.1506931664571
 30
0.0
 10
157.4220195011804
 20
147.4415712963654
 30
0.0
 10
157.8095929989511
 20
149.0530157726519
 30
0.0
 10
157.9656559273867
 20
149.5826995529385
 30
0.0
 10
157.7816877071116
 20
150.7529992613181
 30
0.0
 10
157.6111553680925
 20
151.8430281919372
 30
0.0
 10
157.0582171779396
 20
152.5547853887321
 30
0.0
 10
156.1170164704645
 20
152.5547853887321
 30
0.0
 10
155.1096698860365
 20
152.5547853887321
 30
0.0
 10
154.2962823053817
 20
152.4412694176073
 30
0.0
 10
153.156643967048
 20
151.2945686288697
 30
0.0
 10
152.0170056287143
 20
150.1476955852443
 30
0.0
 10
151.076149431015
 20
148.7930831468137
 30
0.0
 10
150.3337308641742
 20
147.2290087646991
 30
0.0
 10
149.5957909244188
 20
145.6683794803425
 30
0.0
 10
148.8530278478023
 20
143.6822806228776
 30
0.0
 10
148.0964843801539
 20
141.2751908193897
 30
0.0
 10
148.0964843801539
 20
141.2751908193897
 30
0.0
 10
143.8552245303272
 20
127.8027915271048
 30
0.0
 10
143.8552245303272
 20
127.8027915271048
 30
0.0
 10
143.8552245303272
 20
127.8027915271048
 30
0.0
 10
141.486030802177
 20
127.8027915271048
 30
0.0
 10
141.486030802177
 20
127.8027915271048
 30
0.0
 10
141.486030802177
 20
127.8027915271048
 30
0.0
 10
146.3329388378533
 20
143.2092687007094
 30
0.0
 10
146.3329388378533
 20
143.2092687007094
 30
0.0
 10
146.8483254624444
 20
144.8408669988801
 30
0.0
 10
147.2314203331297
 20
146.1837661049335
 30
0.0
 10
147.4867020769946
 20
147.224185627838
 30
0.0
 10
147.9169947869641
 20
149.0197705792876
 30
0.0
 10
148.0306830129768
 20
150.2400242051577
 30
0.0
 10
147.709255392159
 20
151.3157559800812
 30
0.0
 10
147.3874832615654
 20
152.3916600098926
 30
0.0
 10
146.8245542879144
 20
152.6683013598569
 30
0.0
 10
145.8840425999909
 20
152.6683013598569
 30
0.0
 10
145.0989048209514
 20
152.6683013598569
 30
0.0
 10
144.3282364524954
 20
152.3275811915945
 30
0.0
 10
143.4531816219731
 20
151.6538923250251
 30
0.0
 10
142.34627171234
 20
150.8074318058939
 30
0.0
 10
141.901854101563
 20
150.1097995099067
 30
0.0
 10
141.3578731655808
 20
149.289521733736
 30
0.0
 10
140.6299240093235
 20
148.192602607601
 30
0.0
 10
140.2850697237515
 20
147.455696197173
 30
0.0
 10
139.6652966370942
 20
145.8385673095858
 30
0.0
 10
139.0506911970739
 20
144.2214384219986
 30
0.0
 10
138.463991048893
 20
142.3252566160164
 30
0.0
 10
138.0571250036777
 20
141.0154304484394
 30
0.0
 10
138.0571250036777
 20
141.0154304484394
 30
0.0
 10
133.9009590684727
 20
127.8027915271048
 30
0.0
 10
133.9009590684727
 20
127.8027915271048
 30
0.0
 10
133.9009590684727
 20
127.8027915271048
 30
0.0
 10
131.4180771143097
 20
127.8027915271048
 30
0.0
 10
131.4180771143097
 20
127.8027915271048
 30
0.0
 10
131.4180771143097
 20
127.8027915271048
 30
0.0
 10
139.8926730891197
 20
154.8294111834263
 30
0.0
 10
139.8926730891197
 20
154.8294111834263
 30
0.0
  0
HATCH
  5
6A9
330
6A2
100
AcDbEntity
  8
LOGO
 62
   250
420
  2234388
100
AcDbHatch
 10
0.0
 20
0.0
 30
0.0
210
0.0
220
0.0
230
1.0
  2
SOLID
 70
     1
 71
     0
 91
        1
 92
        1
 93
        1
 72
     4
 94
        3
 73
     0
 74
     1
 95
      104
 96
      100
 40
0.0
 40
0.0
 40
0.0
 40
0.0
 40
1.0
 40
1.0
 40
1.0
 40
2.0
 40
2.0
 40
2.0
 40
3.0
 40
3.0
 40
3.0
 40
4.0
 40
4.0
 40
4.0
 40
5.0
 40
5.0
 40
5.0
 40
6.0
 40
6.0
 40
6.0
 40
7.0
 40
7.0
 40
7.0
 40
8.0
 40
8.0
 40
8.0
 40
9.0
 40
9.0
 40
9.0
 40
10.0
 40
10.0
 40
10.0
 40
11.0
 40
11.0
 40
11.0
 40
12.0
 40
12.0
 40
12.0
 40
13.0
 40
13.0
 40
13.0
 40
14.0
 40
14.0
 40
14.0
 40
15.0
 40
15.0
 40
15.0
 40
16.0
 40
16.0
 40
16.0
 40
17.0
 40
17.0
 40
17.0
 40
18.0
 40
18.0
 40
18.0
 40
19.0
 40
19.0
 40
19.0
 40
20.0
 40
20.0
 40
20.0
 40
21.0
 40
21.0
 40
21.0
 40
22.0
 40
22.0
 40
22.0
 40
23.0
 40
23.0
 40
23.0
 40
24.0
 40
24.0
 40
24.0
 40
25.0
 40
25.0
 40
25.0
 40
26.0
 40
26.0
 40
26.0
 40
27.0
 40
27.0
 40
27.0
 40
28.0
 40
28.0
 40
28.0
 40
29.0
 40
29.0
 40
29.0
 40
30.0
 40
30.0
 40
30.0
 40
31.0
 40
31.0
 40
31.0
 40
32.0
 40
32.0
 40
32.0
 40
33.0
 40
33.0
 40
33.0
 40
33.0
 10
139.8926730891197
 20
154.8294111834263
 10
139.8926730891197
 20
154.8294111834263
 10
142.0344903652445
 20
154.8294111834263
 10
142.0344903652445
 20
154.8294111834263
 10
142.0344903652445
 20
154.8294111834263
 10
140.9516961399171
 20
151.3157559800812
 10
140.9516961399171
 20
151.3157559800812
 10
141.8928968473923
 20
152.7887075264977
 10
142.7341897198865
 20
153.4484437471474
 10
143.8552245303272
 20
154.2926649527359
 10
144.9803934580775
 20
155.1296514530327
 10
146.3139908001845
 20
155.3044901642492
 10
147.241066606852
 20
155.3044901642492
 10
148.3855280820469
 20
155.3044901642492
 10
149.4969166187653
 20
155.0752189084569
 10
150.0784491203092
 20
153.8172414621372
 10
150.5228667310863
 20
152.833838307127
 10
150.5414702589793
 20
152.7201500811143
 10
150.4140016419347
 20
150.7765981809602
 10
151.5818897818837
 20
152.7699317437168
 10
152.4424752018226
 20
153.6256940267945
 10
153.9038856707499
 20
154.4507949398263
 10
155.4455669174378
 20
155.3044901642492
 10
156.339225275853
 20
155.3659851592288
 10
157.3748216618963
 20
155.2147453676543
 10
158.911679771723
 20
154.9877134254046
 10
159.8859534176746
 20
154.4390816074493
 10
160.3965169054045
 20
152.7816450760939
 10
160.9070803931344
 20
151.1219692311958
 10
160.6328506116007
 20
150.2303779314354
 10
159.9992971339115
 20
147.597634224801
 10
159.7105979417943
 20
146.4014962832367
 10
159.2947746424084
 20
144.9400858143094
 10
158.7463150793409
 20
143.2092687007094
 10
158.7463150793409
 20
143.2092687007094
 10
153.9038856707499
 20
127.8027915271048
 10
153.9038856707499
 20
127.8027915271048
 10
153.9038856707499
 20
127.8027915271048
 10
151.3882752878863
 20
127.8027915271048
 10
151.3882752878863
 20
127.8027915271048
 10
151.3882752878863
 20
127.8027915271048
 10
155.6250565106276
 20
141.2751908193897
 10
155.6250565106276
 20
141.2751908193897
 10
156.5094131050963
 20
144.0936252951782
 10
157.109893644309
 20
146.1506931664571
 10
157.4220195011804
 20
147.4415712963654
 10
157.8095929989511
 20
149.0530157726519
 10
157.9656559273867
 20
149.5826995529385
 10
157.7816877071116
 20
150.7529992613181
 10
157.6111553680925
 20
151.8430281919372
 10
157.0582171779396
 20
152.5547853887321
 10
156.1170164704645
 20
152.5547853887321
 10
155.1096698860365
 20
152.5547853887321
 10
154.2962823053817
 20
152.4412694176073
 10
153.156643967048
 20
151.2945686288697
 10
152.0170056287143
 20
150.1476955852443
 10
151.076149431015
 20
148.7930831468137
 10
150.3337308641742
 20
147.2290087646991
 10
149.5957909244188
 20
145.6683794803425
 10
148.8530278478023
 20
143.6822806228776
 10
148.0964843801539
 20
141.2751908193897
 10
148.0964843801539
 20
141.2751908193897
 10
143.8552245303272
 20
127.8027915271048
 10
143.8552245303272
 20
127.8027915271048
 10
143.8552245303272
 20
127.8027915271048
 10
141.486030802177
 20
127.8027915271048
 10
141.486030802177
 20
127.8027915271048
 10
141.486030802177
 20
127.8027915271048
 10
146.3329388378533
 20
143.2092687007094
 10
146.3329388378533
 20
143.2092687007094
 10
146.8483254624444
 20
144.8408669988801
 10
147.2314203331297
 20
146.1837661049335
 10
147.4867020769946
 20
147.224185627838
 10
147.9169947869641
 20
149.0197705792876
 10
148.0306830129768
 20
150.2400242051577
 10
147.709255392159
 20
151.3157559800812
 10
147.3874832615654
 20
152.3916600098926
 10
146.8245542879144
 20
152.6683013598569
 10
145.8840425999909
 20
152.6683013598569
 10
145.0989048209514
 20
152.6683013598569
 10
144.3282364524954
 20
152.3275811915945
 10
143.4531816219731
 20
151.6538923250251
 10
142.34627171234
 20
150.8074318058939
 10
141.901854101563
 20
150.1097995099067
 10
141.3578731655808
 20
149.289521733736
 10
140.6299240093235
 20
148.192602607601
 10
140.2850697237515
 20
147.455696197173
 10
139.6652966370942
 20
145.8385673095858
 10
139.0506911970739
 20
144.2214384219986
 10
138.463991048893
 20
142.3252566160164
 10
138.0571250036777
 20
141.0154304484394
 10
138.0571250036777
 20
141.0154304484394
 10
133.9009590684727
 20
127.8027915271048
 10
133.9009590684727
 20
127.8027915271048
 10
133.9009590684727
 20
127.8027915271048
 10
131.4180771143097
 20
127.8027915271048
 10
131.4180771143097
 20
127.8027915271048
 10
131.4180771143097
 20
127.8027915271048
 10
139.8926730891197
 20
154.8294111834263
 10
139.8926730891197
 20
154.8294111834263
 97
        0
 75
     2
 76
     1
 98
        0
  0
SPLINE
  5
6AA
330
6A2
100
AcDbEntity
  8
LOGO
370
     0
100
AcDbSpline
210
0.0
220
0.0
230
1.0
 70
    11
 71
     3
 72
    29
 73
    25
 74
     0
 42
0.000000001
 43
0.0000000001
 40
0.0
 40
0.0
 40
0.0
 40
0.0
 40
1.0
 40
1.0
 40
1.0
 40
2.0
 40
2.0
 40
2.0
 40
3.0
 40
3.0
 40
3.0
 40
4.0
 40
4.0
 40
4.0
 40
5.0
 40
5.0
 40
5.0
 40
6.0
 40
6.0
 40
6.0
 40
7.0
 40
7.0
 40
7.0
 40
8.0
 40
8.0
 40
8.0
 40
8.0
 10
101.6420971922469
 20
132.8388354296931
 30
0.0
 10
101.630039350094
 20
134.7164137077823
 30
0.0
 10
102.2236296937908
 20
138.0598810818841
 30
0.0
 10
103.7487744712405
 20
142.5378191476827
 30
0.0
 10
105.819967243327
 20
148.5896501242061
 30
0.0
 10
107.0602024361932
 20
150.8074318058939
 30
0.0
 10
108.1522984254671
 20
151.8833358357054
 30
0.0
 10
109.741177511439
 20
153.4532668840085
 30
0.0
 10
111.8740375333931
 20
153.5290590346837
 30
0.0
 10
112.5075910110823
 20
153.4532668840085
 30
0.0
 10
113.4012493694975
 20
153.3490526768302
 30
0.0
 10
114.6683563248758
 20
152.7580461564518
 30
0.0
 10
114.7493161221879
 20
150.7838328862519
 30
0.0
 10
114.8106388622796
 20
149.0909118479895
 30
0.0
 10
114.3186789024427
 20
145.9191825971221
 30
0.0
 10
112.6164561002338
 20
140.9489400617108
 30
0.0
 10
110.6444821435766
 20
135.1746117095912
 30
0.0
 10
109.4669477299053
 20
132.8960240524753
 30
0.0
 10
108.5212683953448
 20
131.9072809959403
 30
0.0
 10
106.7346406980658
 20
130.0538184021569
 30
0.0
 10
104.8222669326213
 20
130.2336525051225
 30
0.0
 10
104.5408024457958
 20
130.2336525051225
 30
0.0
 10
104.1721769856939
 20
130.2336525051225
 30
0.0
 10
101.6465758193322
 20
130.6305277668397
 30
0.0
 10
101.6420971922469
 20
132.8388354296931
 30
0.0
  0
SPLINE
  5
6AB
330
6A2
100
AcDbEntity
  8
LOGO
370
     0
100
AcDbSpline
210
0.0
220
0.0
230
1.0
 70
    11
 71
     3
 72
    32
 73
    28
 74
     0
 42
0.000000001
 43
0.0000000001
 40
0.0
 40
0.0
 40
0.0
 40
0.0
 40
1.0
 40
1.0
 40
1.0
 40
2.0
 40
2.0
 40
2.0
 40
3.0
 40
3.0
 40
3.0
 40
4.0
 40
4.0
 40
4.0
 40
5.0
 40
5.0
 40
5.0
 40
6.0
 40
6.0
 40
6.0
 40
7.0
 40
7.0
 40
7.0
 40
8.0
 40
8.0
 40
8.0
 40
9.0
 40
9.0
 40
9.0
 40
9.0
 10
106.2595617172429
 20
153.4105476718098
 30
0.0
 10
104.8222669326213
 20
151.5474388043041
 30
0.0
 10
103.7177685914188
 20
149.8758773721411
 30
0.0
 10
101.9232171692965
 20
144.6141795664062
 30
0.0
 10
100.2754269116635
 20
139.7999999594306
 30
0.0
 10
99.22777268346732
 20
136.3052927937542
 30
0.0
 10
99.06964269637689
 20
132.039572749846
 30
0.0
 10
98.94665270641765
 20
128.8673267343149
 30
0.0
 10
100.8807305877373
 20
127.8027915271048
 30
0.0
 10
103.7129454545577
 20
127.8027915271048
 30
0.0
 10
104.9352661390825
 20
127.8027915271048
 30
0.0
 10
108.0151835347002
 20
127.8827177950895
 30
0.0
 10
110.2045431598849
 20
130.5926316915021
 30
0.0
 10
111.7417457794874
 20
132.4984597712065
 30
0.0
 10
113.155269389579
 20
134.475256864725
 30
0.0
 10
115.0562743324223
 20
140.9489400617108
 30
0.0
 10
116.6361961642235
 20
146.3680788349845
 30
0.0
 10
117.7282921534974
 20
149.8639917848761
 30
0.0
 10
117.6480213757369
 20
151.8595646611754
 30
0.0
 10
117.6480213757369
 20
151.8595646611754
 30
0.0
 10
117.6480213757369
 20
151.8595646611754
 30
0.0
 10
117.6480213757369
 20
151.8595646611754
 30
0.0
 10
117.13229024137
 20
155.18150017429
 30
0.0
 10
114.7162431837115
 20
155.886194920681
 30
0.0
 10
113.3351034925446
 20
155.886194920681
 30
0.0
 10
111.9829026225447
 20
155.886194920681
 30
0.0
 10
108.3414342923792
 20
156.1251124501957
 30
0.0
 10
106.2595617172429
 20
153.4105476718098
 30
0.0
  0
HATCH
  5
6AC
330
6A2
100
AcDbEntity
  8
LOGO
 62
   250
420
  2234388
100
AcDbHatch
 10
0.0
 20
0.0
 30
0.0
210
0.0
220
0.0
230
1.0
  2
SOLID
 70
     1
 71
     0
 91
        2
 92
        1
 93
        1
 72
     4
 94
        3
 73
     0
 74
     1
 95
       29
 96
       25
 40
0.0
 40
0.0
 40
0.0
 40
0.0
 40
1.0
 40
1.0
 40
1.0
 40
2.0
 40
2.0
 40
2.0
 40
3.0
 40
3.0
 40
3.0
 40
4.0
 40
4.0
 40
4.0
 40
5.0
 40
5.0
 40
5.0
 40
6.0
 40
6.0
 40
6.0
 40
7.0
 40
7.0
 40
7.0
 40
8.0
 40
8.0
 40
8.0
 40
8.0
 10
101.6420971922469
 20
132.8388354296931
 10
101.630039350094
 20
134.7164137077823
 10
102.2236296937908
 20
138.0598810818841
 10
103.7487744712405
 20
142.5378191476827
 10
105.819967243327
 20
148.5896501242061
 10
107.0602024361932
 20
150.8074318058939
 10
108.1522984254671
 20
151.8833358357054
 10
109.741177511439
 20
153.4532668840085
 10
111.8740375333931
 20
153.5290590346837
 10
112.5075910110823
 20
153.4532668840085
 10
113.4012493694975
 20
153.3490526768302
 10
114.6683563248758
 20
152.7580461564518
 10
114.7493161221879
 20
150.7838328862519
 10
114.8106388622796
 20
149.0909118479895
 10
114.3186789024427
 20
145.9191825971221
 10
112.6164561002338
 20
140.9489400617108
 10
110.6444821435766
 20
135.1746117095912
 10
109.4669477299053
 20
132.8960240524753
 10
108.5212683953448
 20
131.9072809959403
 10
106.7346406980658
 20
130.0538184021569
 10
104.8222669326213
 20
130.2336525051225
 10
104.5408024457958
 20
130.2336525051225
 10
104.1721769856939
 20
130.2336525051225
 10
101.6465758193322
 20
130.6305277668397
 10
101.6420971922469
 20
132.8388354296931
 97
        0
 92
        1
 93
        1
 72
     4
 94
        3
 73
     0
 74
     1
 95
       32
 96
       28
 40
0.0
 40
0.0
 40
0.0
 40
0.0
 40
1.0
 40
1.0
 40
1.0
 40
2.0
 40
2.0
 40
2.0
 40
3.0
 40
3.0
 40
3.0
 40
4.0
 40
4.0
 40
4.0
 40
5.0
 40
5.0
 40
5.0
 40
6.0
 40
6.0
 40
6.0
 40
7.0
 40
7.0
 40
7.0
 40
8.0
 40
8.0
 40
8.0
 40
9.0
 40
9.0
 40
9.0
 40
9.0
 10
106.2595617172429
 20
153.4105476718098
 10
104.8222669326213
 20
151.5474388043041
 10
103.7177685914188
 20
149.8758773721411
 10
101.9232171692965
 20
144.6141795664062
 10
100.2754269116635
 20
139.7999999594306
 10
99.22777268346732
 20
136.3052927937542
 10
99.06964269637689
 20
132.039572749846
 10
98.94665270641765
 20
128.8673267343149
 10
100.8807305877373
 20
127.8027915271048
 10
103.7129454545577
 20
127.8027915271048
 10
104.9352661390825
 20
127.8027915271048
 10
108.0151835347002
 20
127.8827177950895
 10
110.2045431598849
 20
130.5926316915021
 10
111.7417457794874
 20
132.4984597712065
 10
113.155269389579
 20
134.475256864725
 10
115.0562743324223
 20
140.9489400617108
 10
116.6361961642235
 20
146.3680788349845
 10
117.7282921534974
 20
149.8639917848761
 10
117.6480213757369
 20
151.8595646611754
 10
117.6480213757369
 20
151.8595646611754
 10
117.6480213757369
 20
151.8595646611754
 10
117.6480213757369
 20
151.8595646611754
 10
117.13229024137
 20
155.18150017429
 10
114.7162431837115
 20
155.886194920681
 10
113.3351034925446
 20
155.886194920681
 10
111.9829026225447
 20
155.886194920681
 10
108.3414342923792
 20
156.1251124501957
 10
106.2595617172429
 20
153.4105476718098
 97
        0
 75
     2
 76
     1
 98
        0
  0
ENDBLK
  5
6AD
330
6A2
100
AcDbEntity
  8
0
100
AcDbBlockEnd
  0
BLOCK
  5
D91
330
D90
100
AcDbEntity
  8
0
100
AcDbBlockBegin
  2
*D6
 70
     1
 10
0.0
 20
0.0
 30
0.0
  3
*D6
  1
*D6
  0
LINE
  5
D93
330
D90
100
AcDbEntity
  8
DIM
 62
     0
370
    -2
100
AcDbLine
 10
194.9013848396499
 20
991.8781341107873
 30
0.0
 11
194.9013848396499
 21
940.5413793571681
 31
0.0
  0
LINE
  5
D94
330
D90
100
AcDbEntity
  8
DIM
 62
     0
370
    -2
100
AcDbLine
 10
521.6879737609329
 20
991.8781341107873
 30
0.0
 11
521.6879737609329
 21
940.5413793571681
 31
0.0
  0
LINE
  5
D95
330
D90
100
AcDbEntity
  8
DIM
 62
     0
370
    -2
100
AcDbLine
 10
200.9013848396499
 20
940.5413793571681
 30
0.0
 11
515.6879737609329
 21
940.5413793571681
 31
0.0
  0
INSERT
  5
D96
330
D90
100
AcDbEntity
  8
DIM
 62
     0
370
    -2
100
AcDbBlockReference
  2
_DOT
 10
194.9013848396499
 20
940.5413793571681
 30
0.0
 41
6.0
 42
6.0
 43
6.0
 50
180.0
  0
INSERT
  5
D97
330
D90
100
AcDbEntity
  8
DIM
 62
     0
370
    -2
100
AcDbBlockReference
  2
_DOT
 10
521.6879737609329
 20
940.5413793571681
 30
0.0
 41
6.0
 42
6.0
 43
6.0
  0
MTEXT
  5
D98
330
D90
100
AcDbEntity
  8
DIM
 62
     0
100
AcDbMText
 10
358.2946793002914
 20
956.5413793571681
 30
0.0
 40
12.0
 41
0.0
 46
0.0
 71
     5
 72
     1
  1
\A1;327
  7
ＭＳ ゴシック
 73
     1
 44
1.0
  0
POINT
  5
D99
330
D90
100
AcDbEntity
  8
Defpoints
 62
     0
100
AcDbPoint
 10
194.9013848396499
 20
1011.878134110787
 30
0.0
  0
POINT
  5
D9A
330
D90
100
AcDbEntity
  8
Defpoints
 62
     0
100
AcDbPoint
 10
521.6879737609329
 20
1011.878134110787
 30
0.0
  0
POINT
  5
D9B
330
D90
100
AcDbEntity
  8
Defpoints
 62
     0
100
AcDbPoint
 10
521.6879737609329
 20
940.5413793571681
 30
0.0
  0
ENDBLK
  5
D92
330
D90
100
AcDbEntity
  8
0
100
AcDbBlockEnd
  0
BLOCK
  5
DA0
330
D9F
100
AcDbEntity
  8
0
100
AcDbBlockBegin
  2
*D7
 70
     1
 10
0.0
 20
0.0
 30
0.0
  3
*D7
  1
*D7
  0
LINE
  5
DA2
330
D9F
100
AcDbEntity
  8
DIM
 62
     0
370
    -2
100
AcDbLine
 10
541.6879737609329
 20
1259.176093294461
 30
0.0
 11
592.27223683134
 21
1259.176093294461
 31
0.0
  0
LINE
  5
DA3
330
D9F
100
AcDbEntity
  8
DIM
 62
     0
370
    -2
100
AcDbLine
 10
541.6879737609329
 20
1011.878134110787
 30
0.0
 11
592.27223683134
 21
1011.878134110787
 31
0.0
  0
LINE
  5
DA4
330
D9F
100
AcDbEntity
  8
DIM
 62
     0
370
    -2
100
AcDbLine
 10
592.27223683134
 20
1253.176093294461
 30
0.0
 11
592.27223683134
 21
1017.878134110787
 31
0.0
  0
INSERT
  5
DA5
330
D9F
100
AcDbEntity
  8
DIM
 62
     0
370
    -2
100
AcDbBlockReference
  2
_DOT
 10
592.27223683134
 20
1259.176093294461
 30
0.0
 41
6.0
 42
6.0
 43
6.0
 50
90.0
  0
INSERT
  5
DA6
330
D9F
100
AcDbEntity
  8
DIM
 62
     0
370
    -2
100
AcDbBlockReference
  2
_DOT
 10
592.27223683134
 20
1011.878134110787
 30
0.0
 41
6.0
 42
6.0
 43
6.0
 50
270.0
  0
MTEXT
  5
DA7
330
D9F
100
AcDbEntity
  8
DIM
 62
     0
100
AcDbMText
 10
576.27223683134
 20
1135.527113702624
 30
0.0
 40
12.0
 41
0.0
 46
0.0
 71
     5
 72
     1
  1
\A1;247
  7
ＭＳ ゴシック
 11
0.0
 21
1.0
 31
0.0
 73
     1
 44
1.0
  0
POINT
  5
DA8
330
D9F
100
AcDbEntity
  8
Defpoints
 62
     0
100
AcDbPoint
 10
521.6879737609329
 20
1259.176093294461
 30
0.0
  0
POINT
  5
DA9
330
D9F
100
AcDbEntity
  8
Defpoints
 62
     0
100
AcDbPoint
 10
521.6879737609329
 20
1011.878134110787
 30
0.0
  0
POINT
  5
DAA
330
D9F
100
AcDbEntity
  8
Defpoints
 62
     0
100
AcDbPoint
 10
592.27223683134
 20
1011.878134110787
 30
0.0
  0
ENDBLK
  5
DA1
330
D9F
100
AcDbEntity
  8
0
100
AcDbBlockEnd
  0
BLOCK
  5
E81
330
E80
100
AcDbEntity
  8
0
100
AcDbBlockBegin
  2
*D8
 70
     1
 10
0.0
 20
0.0
 30
0.0
  3
*D8
  1
*D105
  0
LINE
  5
E82
330
E80
100
AcDbEntity
  8
DIM
 62
     0
370
    -2
100
AcDbLine
 10
178.8589324867416
 20
1209.120662487337
 30
0.0
 11
178.8589324867416
 21
1390.965145789964
 31
0.0
  0
LINE
  5
E83
330
E80
100
AcDbEntity
  8
DIM
 62
     0
370
    -2
100
AcDbLine
 10
573.8589324867417
 20
1136.617031689284
 30
0.0
 11
573.8589324867417
 21
1390.965145789964
 31
0.0
  0
LINE
  5
E84
330
E80
100
AcDbEntity
  8
DIM
 62
     0
370
    -2
100
AcDbLine
 10
181.8589324867416
 20
1390.965145789964
 30
0.0
 11
570.8589324867417
 21
1390.965145789964
 31
0.0
  0
INSERT
  5
E85
330
E80
100
AcDbEntity
  8
DIM
 62
     0
370
    -2
100
AcDbBlockReference
  2
_DOT
 10
178.8589324867416
 20
1390.965145789964
 30
0.0
 41
3.0
 42
3.0
 43
3.0
 50
180.0
  0
INSERT
  5
E86
330
E80
100
AcDbEntity
  8
DIM
 62
     0
370
    -2
100
AcDbBlockReference
  2
_DOT
 10
573.8589324867417
 20
1390.965145789964
 30
0.0
 41
3.0
 42
3.0
 43
3.0
  0
MTEXT
  5
E87
330
E80
100
AcDbEntity
  8
DIM
 62
     0
 48
0.05
100
AcDbMText
 10
376.3589324867417
 20
1406.965145789964
 30
0.0
 40
12.0
 41
0.0
 46
0.0
 71
     5
 72
     1
  1
\A1;395
  7
ＭＳ ゴシック
 73
     1
 44
1.0
  0
POINT
  5
E88
330
E80
100
AcDbEntity
  8
Defpoints
 62
     0
100
AcDbPoint
 10
178.8589324867416
 20
1204.120662487337
 30
0.0
  0
POINT
  5
E89
330
E80
100
AcDbEntity
  8
Defpoints
 62
     0
100
AcDbPoint
 10
573.8589324867417
 20
1131.617031689284
 30
0.0
  0
POINT
  5
E8A
330
E80
100
AcDbEntity
  8
Defpoints
 62
     0
100
AcDbPoint
 10
573.8589324867417
 20
1390.965145789964
 30
0.0
  0
ENDBLK
  5
E8B
330
E80
100
AcDbEntity
  8
0
100
AcDbBlockEnd
  0
BLOCK
  5
E8E
330
E8D
100
AcDbEntity
  8
0
100
AcDbBlockBegin
  2
*D9
 70
     1
 10
0.0
 20
0.0
 30
0.0
  3
*D9
  1
*D107
  0
LINE
  5
E8F
330
E8D
100
AcDbEntity
  8
DIM
 62
     0
370
    -2
100
AcDbLine
 10
570.314537945012
 20
184.9302595900685
 30
0.0
 11
644.2971020234127
 21
184.9302595900686
 31
0.0
  0
LINE
  5
E90
330
E8D
100
AcDbEntity
  8
DIM
 62
     0
370
    -2
100
AcDbLine
 10
421.0883666791028
 20
94.93025959006854
 30
0.0
 11
644.2971020234127
 21
94.93025959006866
 31
0.0
  0
LINE
  5
E91
330
E8D
100
AcDbEntity
  8
DIM
 62
     0
370
    -2
100
AcDbLine
 10
644.2971020234127
 20
181.9302595900686
 30
0.0
 11
644.2971020234127
 21
97.93025959006866
 31
0.0
  0
INSERT
  5
E92
330
E8D
100
AcDbEntity
  8
DIM
 62
     0
370
    -2
100
AcDbBlockReference
  2
_DOT
 10
644.2971020234127
 20
184.9302595900686
 30
0.0
 41
3.0
 42
3.0
 43
3.0
 50
90.0
  0
INSERT
  5
E93
330
E8D
100
AcDbEntity
  8
DIM
 62
     0
370
    -2
100
AcDbBlockReference
  2
_DOT
 10
644.2971020234127
 20
94.93025959006866
 30
0.0
 41
3.0
 42
3.0
 43
3.0
 50
270.0
  0
MTEXT
  5
E94
330
E8D
100
AcDbEntity
  8
DIM
 62
     0
 48
0.05
100
AcDbMText
 10
628.2971020234127
 20
139.9302595900686
 30
0.0
 40
12.0
 41
0.0
 46
0.0
 71
     5
 72
     1
  1
\A1;90
  7
ＭＳ ゴシック
 11
0.0
 21
1.0
 31
0.0
 73
     1
 44
1.0
  0
POINT
  5
E95
330
E8D
100
AcDbEntity
  8
Defpoints
 62
     0
100
AcDbPoint
 10
565.314537945012
 20
184.9302595900685
 30
0.0
  0
POINT
  5
E96
330
E8D
100
AcDbEntity
  8
Defpoints
 62
     0
100
AcDbPoint
 10
416.0883666791028
 20
94.93025959006854
 30
0.0
  0
POINT
  5
E97
330
E8D
100
AcDbEntity
  8
Defpoints
 62
     0
100
AcDbPoint
 10
644.2971020234127
 20
94.93025959006866
 30
0.0
  0
ENDBLK
  5
E98
330
E8D
100
AcDbEntity
  8
0
100
AcDbBlockEnd
  0
BLOCK
  5
E9B
330
E9A
100
AcDbEntity
  8
0
100
AcDbBlockBegin
  2
*D10
 70
     1
 10
0.0
 20
0.0
 30
0.0
  3
*D10
  1
*D109
  0
LINE
  5
E9C
330
E9A
100
AcDbEntity
  8
DIM
  6
Continuous
 62
     0
370
    -2
100
AcDbLine
 10
1294.945563225702
 20
184.9302595900685
 30
0.0
 11
1294.945563225702
 21
311.7622595900687
 31
0.0
  0
LINE
  5
E9D
330
E9A
100
AcDbEntity
  8
DIM
  6
Continuous
 62
     0
370
    -2
100
AcDbLine
 10
1294.945563225702
 20
181.9302595900685
 30
0.0
 11
1294.945563225702
 21
124.9302595900685
 31
0.0
  0
INSERT
  5
E9E
330
E9A
100
AcDbEntity
  8
DIM
 62
     0
370
    -2
100
AcDbBlockReference
  2
_DOT
 10
1294.945563225702
 20
184.9302595900685
 30
0.0
 41
3.0
 42
3.0
 43
3.0
 50
90.0
  0
INSERT
  5
E9F
330
E9A
100
AcDbEntity
  8
DIM
 62
     0
370
    -2
100
AcDbBlockReference
  2
_DOT
 10
1294.945563225702
 20
121.9302595900685
 30
0.0
 41
3.0
 42
3.0
 43
3.0
 50
270.0
  0
MTEXT
  5
EA0
330
E9A
100
AcDbEntity
  8
DIM
 62
     0
 48
0.05
100
AcDbMText
 10
1277.883563225702
 20
272.8182595900687
 30
0.0
 40
12.0
 41
0.0
 46
0.0
 71
     5
 72
     1
  1
\A1;63(深さ)
  7
ＭＳ ゴシック
 11
0.0
 21
1.0
 31
0.0
 73
     1
 44
1.0
  0
POINT
  5
EA1
330
E9A
100
AcDbEntity
  8
Defpoints
 62
     0
100
AcDbPoint
 10
1318.056823207475
 20
184.9302595900685
 30
0.0
  0
POINT
  5
EA2
330
E9A
100
AcDbEntity
  8
Defpoints
 62
     0
100
AcDbPoint
 10
1294.945563225702
 20
121.9302595900685
 30
0.0
  0
POINT
  5
EA3
330
E9A
100
AcDbEntity
  8
Defpoints
 62
     0
100
AcDbPoint
 10
1294.945563225702
 20
121.9302595900685
 30
0.0
  0
ENDBLK
  5
EA4
330
E9A
100
AcDbEntity
  8
0
100
AcDbBlockEnd
  0
BLOCK
  5
EB3
330
EB2
100
AcDbEntity
  8
0
100
AcDbBlockBegin
  2
*D11
 70
     1
 10
0.0
 20
0.0
 30
0.0
  3
*D11
  1
*D111
  0
LINE
  5
EB4
330
EB2
100
AcDbEntity
  8
DIM
 62
     0
370
    -2
100
AcDbLine
 10
1431.945563225703
 20
89.93025959006854
 30
0.0
 11
1431.945563225703
 21
2.5
 31
0.0
  0
LINE
  5
EB5
330
EB2
100
AcDbEntity
  8
DIM
 62
     0
370
    -2
100
AcDbLine
 10
1294.945563225703
 20
89.93025959006854
 30
0.0
 11
1294.945563225703
 21
2.5
 31
0.0
  0
LINE
  5
EB6
330
EB2
100
AcDbEntity
  8
DIM
 62
     0
370
    -2
100
AcDbLine
 10
1428.945563225703
 20
2.5
 30
0.0
 11
1297.945563225703
 21
2.5
 31
0.0
  0
INSERT
  5
EB7
330
EB2
100
AcDbEntity
  8
DIM
 62
     0
370
    -2
100
AcDbBlockReference
  2
_DOT
 10
1431.945563225703
 20
2.5
 30
0.0
 41
3.0
 42
3.0
 43
3.0
  0
INSERT
  5
EB8
330
EB2
100
AcDbEntity
  8
DIM
 62
     0
370
    -2
100
AcDbBlockReference
  2
_DOT
 10
1294.945563225703
 20
2.5
 30
0.0
 41
3.0
 42
3.0
 43
3.0
 50
180.0
  0
MTEXT
  5
EB9
330
EB2
100
AcDbEntity
  8
DIM
 62
     0
 48
0.05
100
AcDbMText
 10
1363.445563225703
 20
18.5
 30
0.0
 40
12.0
 41
0.0
 46
0.0
 71
     5
 72
     1
  1
\A1;137
  7
ＭＳ ゴシック
 73
     1
 44
1.0
  0
POINT
  5
EBA
330
EB2
100
AcDbEntity
  8
Defpoints
 62
     0
100
AcDbPoint
 10
1431.945563225703
 20
94.93025959006854
 30
0.0
  0
POINT
  5
EBB
330
EB2
100
AcDbEntity
  8
Defpoints
 62
     0
100
AcDbPoint
 10
1294.945563225703
 20
94.93025959006854
 30
0.0
  0
POINT
  5
EBC
330
EB2
100
AcDbEntity
  8
Defpoints
 62
     0
100
AcDbPoint
 10
1294.945563225703
 20
2.5
 30
0.0
  0
ENDBLK
  5
EBD
330
EB2
100
AcDbEntity
  8
0
100
AcDbBlockEnd
  0
BLOCK
  5
EE3
330
EE2
100
AcDbEntity
  8
0
100
AcDbBlockBegin
  2
*D12
 70
     1
 10
0.0
 20
0.0
 30
0.0
  3
*D12
  1
*D116
  0
LINE
  5
EE4
330
EE2
100
AcDbEntity
  8
DIM
 62
     0
370
    -2
100
AcDbLine
 10
173.8589324867416
 20
1207.118927481527
 30
0.0
 11
119.8726630198039
 21
1207.118927481527
 31
0.0
  0
LINE
  5
EE5
330
EE2
100
AcDbEntity
  8
DIM
 62
     0
370
    -2
100
AcDbLine
 10
199.3589324867416
 20
1164.118927481527
 30
0.0
 11
119.8726630198039
 21
1164.118927481527
 31
0.0
  0
LINE
  5
EE6
330
EE2
100
AcDbEntity
  8
DIM
 62
     0
370
    -2
100
AcDbLine
 10
119.8726630198039
 20
1204.118927481527
 30
0.0
 11
119.8726630198039
 21
1167.118927481527
 31
0.0
  0
INSERT
  5
EE7
330
EE2
100
AcDbEntity
  8
DIM
 62
     0
370
    -2
100
AcDbBlockReference
  2
_DOT
 10
119.8726630198039
 20
1207.118927481527
 30
0.0
 41
3.0
 42
3.0
 43
3.0
 50
90.0
  0
INSERT
  5
EE8
330
EE2
100
AcDbEntity
  8
DIM
 62
     0
370
    -2
100
AcDbBlockReference
  2
_DOT
 10
119.8726630198039
 20
1164.118927481527
 30
0.0
 41
3.0
 42
3.0
 43
3.0
 50
270.0
  0
MTEXT
  5
EE9
330
EE2
100
AcDbEntity
  8
DIM
 62
     0
 48
0.05
100
AcDbMText
 10
103.8726630198039
 20
1185.618927481527
 30
0.0
 40
12.0
 41
0.0
 46
0.0
 71
     5
 72
     1
  1
\A1;43
  7
ＭＳ ゴシック
 11
0.0
 21
1.0
 31
0.0
 73
     1
 44
1.0
  0
POINT
  5
EEA
330
EE2
100
AcDbEntity
  8
Defpoints
 62
     0
100
AcDbPoint
 10
178.8589324867416
 20
1207.118927481527
 30
0.0
  0
POINT
  5
EEB
330
EE2
100
AcDbEntity
  8
Defpoints
 62
     0
100
AcDbPoint
 10
204.3589324867416
 20
1164.118927481527
 30
0.0
  0
POINT
  5
EEC
330
EE2
100
AcDbEntity
  8
Defpoints
 62
     0
100
AcDbPoint
 10
119.8726630198039
 20
1164.118927481527
 30
0.0
  0
ENDBLK
  5
EED
330
EE2
100
AcDbEntity
  8
0
100
AcDbBlockEnd
  0
BLOCK
  5
EF2
330
EF1
100
AcDbEntity
  8
0
100
AcDbBlockBegin
  2
*D13
 70
     1
 10
0.0
 20
0.0
 30
0.0
  3
*D13
  1
*D118
  0
LINE
  5
EF3
330
EF1
100
AcDbEntity
  8
DIM
 62
     0
370
    -2
100
AcDbLine
 10
178.8589324867416
 20
1212.118927481527
 30
0.0
 11
178.8589324867416
 21
1324.869837326371
 31
0.0
  0
LINE
  5
EF4
330
EF1
100
AcDbEntity
  8
DIM
 62
     0
370
    -2
100
AcDbLine
 10
353.8589324867417
 20
1212.118927481527
 30
0.0
 11
353.8589324867417
 21
1324.869837326371
 31
0.0
  0
LINE
  5
EF5
330
EF1
100
AcDbEntity
  8
DIM
 62
     0
370
    -2
100
AcDbLine
 10
181.8589324867416
 20
1324.869837326371
 30
0.0
 11
350.8589324867417
 21
1324.869837326371
 31
0.0
  0
INSERT
  5
EF6
330
EF1
100
AcDbEntity
  8
DIM
 62
     0
370
    -2
100
AcDbBlockReference
  2
_DOT
 10
178.8589324867416
 20
1324.869837326371
 30
0.0
 41
3.0
 42
3.0
 43
3.0
 50
180.0
  0
INSERT
  5
EF7
330
EF1
100
AcDbEntity
  8
DIM
 62
     0
370
    -2
100
AcDbBlockReference
  2
_DOT
 10
353.8589324867417
 20
1324.869837326371
 30
0.0
 41
3.0
 42
3.0
 43
3.0
  0
MTEXT
  5
EF8
330
EF1
100
AcDbEntity
  8
DIM
 62
     0
 48
0.05
100
AcDbMText
 10
266.3589324867417
 20
1340.869837326371
 30
0.0
 40
12.0
 41
0.0
 46
0.0
 71
     5
 72
     1
  1
\A1;175
  7
ＭＳ ゴシック
 73
     1
 44
1.0
  0
POINT
  5
EF9
330
EF1
100
AcDbEntity
  8
Defpoints
 62
     0
100
AcDbPoint
 10
178.8589324867416
 20
1207.118927481527
 30
0.0
  0
POINT
  5
EFA
330
EF1
100
AcDbEntity
  8
Defpoints
 62
     0
100
AcDbPoint
 10
353.8589324867417
 20
1207.118927481527
 30
0.0
  0
POINT
  5
EFB
330
EF1
100
AcDbEntity
  8
Defpoints
 62
     0
100
AcDbPoint
 10
353.8589324867417
 20
1324.869837326371
 30
0.0
  0
ENDBLK
  5
EFC
330
EF1
100
AcDbEntity
  8
0
100
AcDbBlockEnd
  0
BLOCK
  5
F01
330
F00
100
AcDbEntity
  8
0
100
AcDbBlockBegin
  2
*D14
 70
     1
 10
0.0
 20
0.0
 30
0.0
  3
*D14
  1
*D119
  0
LINE
  5
F02
330
F00
100
AcDbEntity
  8
DIM
 62
     0
370
    -2
100
AcDbLine
 10
173.8589324867416
 20
1207.118927481527
 30
0.0
 11
44.00000000000001
 21
1207.118927481527
 31
0.0
  0
LINE
  5
F03
330
F00
100
AcDbEntity
  8
DIM
 62
     0
370
    -2
100
AcDbLine
 10
173.8589324867416
 20
1070.118927481528
 30
0.0
 11
44.0
 21
1070.118927481528
 31
0.0
  0
LINE
  5
F04
330
F00
100
AcDbEntity
  8
DIM
 62
     0
370
    -2
100
AcDbLine
 10
44.00000000000001
 20
1204.118927481527
 30
0.0
 11
44.0
 21
1073.118927481528
 31
0.0
  0
INSERT
  5
F05
330
F00
100
AcDbEntity
  8
DIM
 62
     0
370
    -2
100
AcDbBlockReference
  2
_DOT
 10
44.00000000000001
 20
1207.118927481527
 30
0.0
 41
3.0
 42
3.0
 43
3.0
 50
90.0
  0
INSERT
  5
F06
330
F00
100
AcDbEntity
  8
DIM
 62
     0
370
    -2
100
AcDbBlockReference
  2
_DOT
 10
44.0
 20
1070.118927481528
 30
0.0
 41
3.0
 42
3.0
 43
3.0
 50
270.0
  0
MTEXT
  5
F07
330
F00
100
AcDbEntity
  8
DIM
 62
     0
 48
0.05
100
AcDbMText
 10
28.0
 20
1138.618927481527
 30
0.0
 40
12.0
 41
0.0
 46
0.0
 71
     5
 72
     1
  1
\A1;137
  7
ＭＳ ゴシック
 11
5.186443326716068E-17
 21
1.0
 31
0.0
 73
     1
 44
1.0
  0
POINT
  5
F08
330
F00
100
AcDbEntity
  8
Defpoints
 62
     0
100
AcDbPoint
 10
178.8589324867416
 20
1207.118927481527
 30
0.0
  0
POINT
  5
F09
330
F00
100
AcDbEntity
  8
Defpoints
 62
     0
100
AcDbPoint
 10
178.8589324867416
 20
1070.118927481528
 30
0.0
  0
POINT
  5
F0A
330
F00
100
AcDbEntity
  8
Defpoints
 62
     0
100
AcDbPoint
 10
44.0
 20
1070.118927481528
 30
0.0
  0
ENDBLK
  5
F0B
330
F00
100
AcDbEntity
  8
0
100
AcDbBlockEnd
  0
BLOCK
  5
F10
330
F0F
100
AcDbEntity
  8
0
100
AcDbBlockBegin
  2
*D15
 70
     1
 10
0.0
 20
0.0
 30
0.0
  3
*D15
  1
*D120
  0
LINE
  5
F11
330
F0F
100
AcDbEntity
  8
DIM
 62
     0
370
    -2
100
AcDbLine
 10
263.8589324867417
 20
147.4302595900697
 30
0.0
 11
263.8589324867417
 21
277.6835687373195
 31
0.0
  0
LINE
  5
F12
330
F0F
100
AcDbEntity
  8
DIM
 62
     0
370
    -2
100
AcDbLine
 10
178.8589324867416
 20
189.9302595900685
 30
0.0
 11
178.8589324867416
 21
277.6835687373195
 31
0.0
  0
LINE
  5
F13
330
F0F
100
AcDbEntity
  8
DIM
 62
     0
370
    -2
100
AcDbLine
 10
260.8589324867417
 20
277.6835687373195
 30
0.0
 11
181.8589324867416
 21
277.6835687373195
 31
0.0
  0
INSERT
  5
F14
330
F0F
100
AcDbEntity
  8
DIM
 62
     0
370
    -2
100
AcDbBlockReference
  2
_DOT
 10
263.8589324867417
 20
277.6835687373195
 30
0.0
 41
3.0
 42
3.0
 43
3.0
  0
INSERT
  5
F15
330
F0F
100
AcDbEntity
  8
DIM
 62
     0
370
    -2
100
AcDbBlockReference
  2
_DOT
 10
178.8589324867416
 20
277.6835687373195
 30
0.0
 41
3.0
 42
3.0
 43
3.0
 50
180.0
  0
MTEXT
  5
F16
330
F0F
100
AcDbEntity
  8
DIM
 62
     0
 48
0.05
100
AcDbMText
 10
221.3589324867417
 20
293.6835687373195
 30
0.0
 40
12.0
 41
0.0
 46
0.0
 71
     5
 72
     1
  1
\A1;85
  7
ＭＳ ゴシック
 73
     1
 44
1.0
  0
POINT
  5
F17
330
F0F
100
AcDbEntity
  8
Defpoints
 62
     0
100
AcDbPoint
 10
263.8589324867417
 20
142.4302595900697
 30
0.0
  0
POINT
  5
F18
330
F0F
100
AcDbEntity
  8
Defpoints
 62
     0
100
AcDbPoint
 10
178.8589324867416
 20
184.9302595900685
 30
0.0
  0
POINT
  5
F19
330
F0F
100
AcDbEntity
  8
Defpoints
 62
     0
100
AcDbPoint
 10
178.8589324867416
 20
277.6835687373195
 30
0.0
  0
ENDBLK
  5
F1A
330
F0F
100
AcDbEntity
  8
0
100
AcDbBlockEnd
  0
BLOCK
  5
F1D
330
F1C
100
AcDbEntity
  8
0
100
AcDbBlockBegin
  2
*D16
 70
     1
 10
0.0
 20
0.0
 30
0.0
  3
*D16
  1
*D122
  0
LINE
  5
F1E
330
F1C
100
AcDbEntity
  8
DIM
 62
     0
370
    -2
100
AcDbLine
 10
173.8589324867416
 20
184.9302595900685
 30
0.0
 11
101.0234484186762
 21
184.9302595900685
 31
0.0
  0
LINE
  5
F1F
330
F1C
100
AcDbEntity
  8
DIM
 62
     0
370
    -2
100
AcDbLine
 10
173.8589324867416
 20
134.9302595900685
 30
0.0
 11
101.0234484186762
 21
134.9302595900685
 31
0.0
  0
LINE
  5
F20
330
F1C
100
AcDbEntity
  8
DIM
 62
     0
370
    -2
100
AcDbLine
 10
101.0234484186762
 20
181.9302595900685
 30
0.0
 11
101.0234484186762
 21
137.9302595900685
 31
0.0
  0
INSERT
  5
F21
330
F1C
100
AcDbEntity
  8
DIM
 62
     0
370
    -2
100
AcDbBlockReference
  2
_DOT
 10
101.0234484186762
 20
184.9302595900685
 30
0.0
 41
3.0
 42
3.0
 43
3.0
 50
90.0
  0
INSERT
  5
F22
330
F1C
100
AcDbEntity
  8
DIM
 62
     0
370
    -2
100
AcDbBlockReference
  2
_DOT
 10
101.0234484186762
 20
134.9302595900685
 30
0.0
 41
3.0
 42
3.0
 43
3.0
 50
270.0
  0
MTEXT
  5
F23
330
F1C
100
AcDbEntity
  8
DIM
 62
     0
 48
0.05
100
AcDbMText
 10
85.0234484186762
 20
159.9302595900685
 30
0.0
 40
12.0
 41
0.0
 46
0.0
 71
     5
 72
     1
  1
\A1;50
  7
ＭＳ ゴシック
 11
0.0
 21
1.0
 31
0.0
 73
     1
 44
1.0
  0
POINT
  5
F24
330
F1C
100
AcDbEntity
  8
Defpoints
 62
     0
100
AcDbPoint
 10
178.8589324867416
 20
184.9302595900685
 30
0.0
  0
POINT
  5
F25
330
F1C
100
AcDbEntity
  8
Defpoints
 62
     0
100
AcDbPoint
 10
178.8589324867416
 20
134.9302595900685
 30
0.0
  0
POINT
  5
F26
330
F1C
100
AcDbEntity
  8
Defpoints
 62
     0
100
AcDbPoint
 10
101.0234484186762
 20
134.9302595900685
 30
0.0
  0
ENDBLK
  5
F27
330
F1C
100
AcDbEntity
  8
0
100
AcDbBlockEnd
  0
BLOCK
  5
F2C
330
F2B
100
AcDbEntity
  8
0
100
AcDbBlockBegin
  2
*D17
 70
     1
 10
0.0
 20
0.0
 30
0.0
  3
*D17
  1
*D123
  0
LINE
  5
F2D
330
F2B
100
AcDbEntity
  8
DIM
 62
     0
370
    -2
100
AcDbLine
 10
178.8589324867416
 20
189.9302595900685
 30
0.0
 11
178.8589324867416
 21
346.1528383490397
 31
0.0
  0
LINE
  5
F2E
330
F2B
100
AcDbEntity
  8
DIM
 62
     0
370
    -2
100
AcDbLine
 10
308.8589324867417
 20
189.9302595900685
 30
0.0
 11
308.8589324867417
 21
346.1528383490397
 31
0.0
  0
LINE
  5
F2F
330
F2B
100
AcDbEntity
  8
DIM
 62
     0
370
    -2
100
AcDbLine
 10
181.8589324867416
 20
346.1528383490397
 30
0.0
 11
305.8589324867417
 21
346.1528383490397
 31
0.0
  0
INSERT
  5
F30
330
F2B
100
AcDbEntity
  8
DIM
 62
     0
370
    -2
100
AcDbBlockReference
  2
_DOT
 10
178.8589324867416
 20
346.1528383490397
 30
0.0
 41
3.0
 42
3.0
 43
3.0
 50
180.0
  0
INSERT
  5
F31
330
F2B
100
AcDbEntity
  8
DIM
 62
     0
370
    -2
100
AcDbBlockReference
  2
_DOT
 10
308.8589324867417
 20
346.1528383490397
 30
0.0
 41
3.0
 42
3.0
 43
3.0
  0
MTEXT
  5
F32
330
F2B
100
AcDbEntity
  8
DIM
 62
     0
 48
0.05
100
AcDbMText
 10
243.8589324867416
 20
362.1528383490397
 30
0.0
 40
12.0
 41
0.0
 46
0.0
 71
     5
 72
     1
  1
\A1;130
  7
ＭＳ ゴシック
 73
     1
 44
1.0
  0
POINT
  5
F33
330
F2B
100
AcDbEntity
  8
Defpoints
 62
     0
100
AcDbPoint
 10
178.8589324867416
 20
184.9302595900685
 30
0.0
  0
POINT
  5
F34
330
F2B
100
AcDbEntity
  8
Defpoints
 62
     0
100
AcDbPoint
 10
308.8589324867417
 20
184.9302595900685
 30
0.0
  0
POINT
  5
F35
330
F2B
100
AcDbEntity
  8
Defpoints
 62
     0
100
AcDbPoint
 10
308.8589324867417
 20
346.1528383490397
 30
0.0
  0
ENDBLK
  5
F36
330
F2B
100
AcDbEntity
  8
0
100
AcDbBlockEnd
  0
BLOCK
  5
F39
330
F38
100
AcDbEntity
  8
0
100
AcDbBlockBegin
  2
*D18
 70
     1
 10
0.0
 20
0.0
 30
0.0
  3
*D18
  1
*D124
  0
LINE
  5
F3A
330
F38
100
AcDbEntity
  8
DIM
 62
     0
370
    -2
100
AcDbLine
 10
521.481192846692
 20
1043.531546997907
 30
0.0
 11
521.481192846692
 21
880.6817514384227
 31
0.0
  0
LINE
  5
F3B
330
F38
100
AcDbEntity
  8
DIM
 62
     0
370
    -2
100
AcDbLine
 10
226.481192846692
 20
1043.531546997907
 30
0.0
 11
226.481192846692
 21
880.6817514384227
 31
0.0
  0
LINE
  5
F3C
330
F38
100
AcDbEntity
  8
DIM
 62
     0
370
    -2
100
AcDbLine
 10
518.481192846692
 20
880.6817514384227
 30
0.0
 11
229.481192846692
 21
880.6817514384227
 31
0.0
  0
INSERT
  5
F3D
330
F38
100
AcDbEntity
  8
DIM
 62
     0
370
    -2
100
AcDbBlockReference
  2
_DOT
 10
521.481192846692
 20
880.6817514384227
 30
0.0
 41
3.0
 42
3.0
 43
3.0
  0
INSERT
  5
F3E
330
F38
100
AcDbEntity
  8
DIM
 62
     0
370
    -2
100
AcDbBlockReference
  2
_DOT
 10
226.481192846692
 20
880.6817514384227
 30
0.0
 41
3.0
 42
3.0
 43
3.0
 50
180.0
  0
MTEXT
  5
F3F
330
F38
100
AcDbEntity
  8
DIM
 62
     0
 48
0.05
100
AcDbMText
 10
373.981192846692
 20
896.6817514384227
 30
0.0
 40
12.0
 41
0.0
 46
0.0
 71
     5
 72
     1
  1
\A1;295
  7
ＭＳ ゴシック
 73
     1
 44
1.0
  0
POINT
  5
F40
330
F38
100
AcDbEntity
  8
Defpoints
 62
     0
100
AcDbPoint
 10
521.481192846692
 20
1048.531546997907
 30
0.0
  0
POINT
  5
F41
330
F38
100
AcDbEntity
  8
Defpoints
 62
     0
100
AcDbPoint
 10
226.481192846692
 20
1048.531546997907
 30
0.0
  0
POINT
  5
F42
330
F38
100
AcDbEntity
  8
Defpoints
 62
     0
100
AcDbPoint
 10
226.481192846692
 20
880.6817514384227
 30
0.0
  0
ENDBLK
  5
F43
330
F38
100
AcDbEntity
  8
0
100
AcDbBlockEnd
  0
BLOCK
  5
F47
330
F46
100
AcDbEntity
  8
0
100
AcDbBlockBegin
  2
*D19
 70
     1
 10
0.0
 20
0.0
 30
0.0
  3
*D19
  1
*D122
  0
LINE
  5
F48
330
F46
100
AcDbEntity
  8
DIM
 62
     0
370
    -2
100
AcDbLine
 10
461.6125873162961
 20
1179.114121589429
 30
0.0
 11
680.2877383261853
 21
1179.114121589429
 31
0.0
  0
LINE
  5
F49
330
F46
100
AcDbEntity
  8
DIM
 62
     0
370
    -2
100
AcDbLine
 10
464.3176348490381
 20
961.1482010867105
 30
0.0
 11
680.2877383261853
 21
961.1482010867105
 31
0.0
  0
LINE
  5
F4A
330
F46
100
AcDbEntity
  8
DIM
 62
     0
370
    -2
100
AcDbLine
 10
680.2877383261853
 20
1176.114121589429
 30
0.0
 11
680.2877383261853
 21
964.1482010867105
 31
0.0
  0
INSERT
  5
F4B
330
F46
100
AcDbEntity
  8
DIM
 62
     0
370
    -2
100
AcDbBlockReference
  2
_DOT
 10
680.2877383261853
 20
1179.114121589429
 30
0.0
 41
3.0
 42
3.0
 43
3.0
 50
90.0
  0
INSERT
  5
F4C
330
F46
100
AcDbEntity
  8
DIM
 62
     0
370
    -2
100
AcDbBlockReference
  2
_DOT
 10
680.2877383261853
 20
961.1482010867105
 30
0.0
 41
3.0
 42
3.0
 43
3.0
 50
270.0
  0
MTEXT
  5
F4D
330
F46
100
AcDbEntity
  8
DIM
 62
     0
 48
0.05
100
AcDbMText
 10
664.2877383261853
 20
1070.13116133807
 30
0.0
 40
12.0
 41
0.0
 46
0.0
 71
     5
 72
     1
  1
\A1;218
  7
ＭＳ ゴシック
 11
0.0
 21
1.0
 31
0.0
 73
     1
 44
1.0
  0
POINT
  5
F4E
330
F46
100
AcDbEntity
  8
Defpoints
 62
     0
100
AcDbPoint
 10
456.6125873162961
 20
1179.114121589429
 30
0.0
  0
POINT
  5
F4F
330
F46
100
AcDbEntity
  8
Defpoints
 62
     0
100
AcDbPoint
 10
459.3176348490381
 20
961.1482010867105
 30
0.0
  0
POINT
  5
F50
330
F46
100
AcDbEntity
  8
Defpoints
 62
     0
100
AcDbPoint
 10
680.2877383261853
 20
961.1482010867105
 30
0.0
  0
ENDBLK
  5
F51
330
F46
100
AcDbEntity
  8
0
100
AcDbBlockEnd
  0
BLOCK
  5
F54
330
F53
100
AcDbEntity
  8
0
100
AcDbBlockBegin
  2
*D20
 70
     1
 10
0.0
 20
0.0
 30
0.0
  3
*D20
  1
*D123
  0
LINE
  5
F55
330
F53
100
AcDbEntity
  8
DIM
 62
     0
370
    -2
100
AcDbLine
 10
1199.945563225702
 20
232.4205224385805
 30
0.0
 11
1199.945563225702
 21
364.2482881712126
 31
0.0
  0
LINE
  5
F56
330
F53
100
AcDbEntity
  8
DIM
 62
     0
370
    -2
100
AcDbLine
 10
1389.945563225702
 20
232.4205224385805
 30
0.0
 11
1389.945563225702
 21
364.2482881712126
 31
0.0
  0
LINE
  5
F57
330
F53
100
AcDbEntity
  8
DIM
 62
     0
370
    -2
100
AcDbLine
 10
1202.945563225702
 20
364.2482881712126
 30
0.0
 11
1386.945563225702
 21
364.2482881712126
 31
0.0
  0
INSERT
  5
F58
330
F53
100
AcDbEntity
  8
DIM
 62
     0
370
    -2
100
AcDbBlockReference
  2
_DOT
 10
1199.945563225702
 20
364.2482881712126
 30
0.0
 41
3.0
 42
3.0
 43
3.0
 50
180.0
  0
INSERT
  5
F59
330
F53
100
AcDbEntity
  8
DIM
 62
     0
370
    -2
100
AcDbBlockReference
  2
_DOT
 10
1389.945563225702
 20
364.2482881712126
 30
0.0
 41
3.0
 42
3.0
 43
3.0
  0
MTEXT
  5
F5A
330
F53
100
AcDbEntity
  8
DIM
 62
     0
 48
0.05
100
AcDbMText
 10
1294.945563225702
 20
380.2482881712126
 30
0.0
 40
12.0
 41
0.0
 46
0.0
 71
     5
 72
     1
  1
\A1;190
  7
ＭＳ ゴシック
 73
     1
 44
1.0
  0
POINT
  5
F5B
330
F53
100
AcDbEntity
  8
Defpoints
 62
     0
100
AcDbPoint
 10
1199.945563225702
 20
227.4205224385805
 30
0.0
  0
POINT
  5
F5C
330
F53
100
AcDbEntity
  8
Defpoints
 62
     0
100
AcDbPoint
 10
1389.945563225702
 20
227.4205224385805
 30
0.0
  0
POINT
  5
F5D
330
F53
100
AcDbEntity
  8
Defpoints
 62
     0
100
AcDbPoint
 10
1389.945563225702
 20
364.2482881712126
 30
0.0
  0
ENDBLK
  5
F5E
330
F53
100
AcDbEntity
  8
0
100
AcDbBlockEnd
  0
BLOCK
  5
F61
330
F60
100
AcDbEntity
  8
0
100
AcDbBlockBegin
  2
*D21
 70
     1
 10
0.0
 20
0.0
 30
0.0
  3
*D21
  1
*D124
  0
LINE
  5
F62
330
F60
100
AcDbEntity
  8
DIM
 62
     0
370
    -2
100
AcDbLine
 10
178.8589324867416
 20
1212.118927481527
 30
0.0
 11
178.8589324867416
 21
1265.053330746038
 31
0.0
  0
LINE
  5
F63
330
F60
100
AcDbEntity
  8
DIM
 62
     0
370
    -2
100
AcDbLine
 10
221.8589324867417
 20
1212.118927481527
 30
0.0
 11
221.8589324867417
 21
1265.053330746038
 31
0.0
  0
LINE
  5
F64
330
F60
100
AcDbEntity
  8
DIM
 62
     0
370
    -2
100
AcDbLine
 10
181.8589324867416
 20
1265.053330746038
 30
0.0
 11
218.8589324867417
 21
1265.053330746038
 31
0.0
  0
INSERT
  5
F65
330
F60
100
AcDbEntity
  8
DIM
 62
     0
370
    -2
100
AcDbBlockReference
  2
_DOT
 10
178.8589324867416
 20
1265.053330746038
 30
0.0
 41
3.0
 42
3.0
 43
3.0
 50
180.0
  0
INSERT
  5
F66
330
F60
100
AcDbEntity
  8
DIM
 62
     0
370
    -2
100
AcDbBlockReference
  2
_DOT
 10
221.8589324867417
 20
1265.053330746038
 30
0.0
 41
3.0
 42
3.0
 43
3.0
  0
MTEXT
  5
F67
330
F60
100
AcDbEntity
  8
DIM
 62
     0
 48
0.05
100
AcDbMText
 10
200.3589324867416
 20
1281.053330746038
 30
0.0
 40
12.0
 41
0.0
 46
0.0
 71
     5
 72
     1
  1
\A1;43
  7
ＭＳ ゴシック
 73
     1
 44
1.0
  0
POINT
  5
F68
330
F60
100
AcDbEntity
  8
Defpoints
 62
     0
100
AcDbPoint
 10
178.8589324867416
 20
1207.118927481527
 30
0.0
  0
POINT
  5
F69
330
F60
100
AcDbEntity
  8
Defpoints
 62
     0
100
AcDbPoint
 10
221.8589324867417
 20
1207.118927481527
 30
0.0
  0
POINT
  5
F6A
330
F60
100
AcDbEntity
  8
Defpoints
 62
     0
100
AcDbPoint
 10
221.8589324867417
 20
1265.053330746038
 30
0.0
  0
ENDBLK
  5
F6B
330
F60
100
AcDbEntity
  8
0
100
AcDbBlockEnd
  0
BLOCK
  5
FDB
330
FDA
100
AcDbEntity
  8
0
100
AcDbBlockBegin
  2
*D22
 70
     1
 10
0.0
 20
0.0
 30
0.0
  3
*D22
  1
*D23
  0
LINE
  5
FDD
330
FDA
100
AcDbEntity
  8
DIM
 62
     0
370
    -2
100
AcDbLine
 10
170.7820328743351
 20
1203.994368518
 30
0.0
 11
170.7820328743351
 21
1306.570412032643
 31
0.0
  0
LINE
  5
FDE
330
FDA
100
AcDbEntity
  8
DIM
 62
     0
370
    -2
100
AcDbLine
 10
558.7731178861505
 20
1068.284419470397
 30
0.0
 11
558.7731178861504
 21
1306.570412032643
 31
0.0
  0
LINE
  5
FDF
330
FDA
100
AcDbEntity
  8
DIM
 62
     0
370
    -2
100
AcDbLine
 10
173.7820328743351
 20
1306.570412032643
 30
0.0
 11
555.7731178861504
 21
1306.570412032643
 31
0.0
  0
INSERT
  5
FE0
330
FDA
100
AcDbEntity
  8
DIM
 62
     0
370
    -2
100
AcDbBlockReference
  2
_DOT
 10
170.7820328743351
 20
1306.570412032643
 30
0.0
 41
3.0
 42
3.0
 43
3.0
 50
180.0
  0
INSERT
  5
FE1
330
FDA
100
AcDbEntity
  8
DIM
 62
     0
370
    -2
100
AcDbBlockReference
  2
_DOT
 10
558.7731178861504
 20
1306.570412032643
 30
0.0
 41
3.0
 42
3.0
 43
3.0
  0
MTEXT
  5
FE2
330
FDA
100
AcDbEntity
  8
DIM
 62
     0
 48
0.05
100
AcDbMText
 10
368.2820328743351
 20
1322.570412032643
 30
0.0
 40
12.0
 41
0.0
 46
0.0
 71
     5
 72
     1
  1
\A1;395
  7
ＭＳ ゴシック
 73
     1
 44
1.0
  0
POINT
  5
FE3
330
FDA
100
AcDbEntity
  8
Defpoints
 62
     0
100
AcDbPoint
 10
170.7820328743351
 20
1198.994368518
 30
0.0
  0
POINT
  5
FE4
330
FDA
100
AcDbEntity
  8
Defpoints
 62
     0
100
AcDbPoint
 10
558.7731178861505
 20
1063.284419470397
 30
0.0
  0
POINT
  5
FE5
330
FDA
100
AcDbEntity
  8
Defpoints
 62
     0
100
AcDbPoint
 10
558.7731178861505
 20
1306.570412032643
 30
0.0
  0
ENDBLK
  5
FDC
330
FDA
100
AcDbEntity
  8
0
100
AcDbBlockEnd
  0
BLOCK
  5
FE7
330
FE6
100
AcDbEntity
  8
0
100
AcDbBlockBegin
  2
*D23
 70
     1
 10
0.0
 20
0.0
 30
0.0
  3
*D23
  1
*D24
  0
LINE
  5
FE9
330
FE6
100
AcDbEntity
  8
DIM
 62
     0
370
    -2
100
AcDbLine
 10
575.8828001954348
 20
532.5907690801621
 30
0.0
 11
620.0748081899669
 21
532.5907690801621
 31
0.0
  0
LINE
  5
FEA
330
FE6
100
AcDbEntity
  8
DIM
 62
     0
370
    -2
100
AcDbLine
 10
359.0148952866617
 20
442.5907690801621
 30
0.0
 11
620.0748081899669
 21
442.5907690801621
 31
0.0
  0
LINE
  5
FEB
330
FE6
100
AcDbEntity
  8
DIM
 62
     0
370
    -2
100
AcDbLine
 10
620.0748081899669
 20
529.5907690801621
 30
0.0
 11
620.0748081899669
 21
445.5907690801621
 31
0.0
  0
INSERT
  5
FEC
330
FE6
100
AcDbEntity
  8
DIM
 62
     0
370
    -2
100
AcDbBlockReference
  2
_DOT
 10
620.0748081899669
 20
532.5907690801621
 30
0.0
 41
3.0
 42
3.0
 43
3.0
 50
90.0
  0
INSERT
  5
FED
330
FE6
100
AcDbEntity
  8
DIM
 62
     0
370
    -2
100
AcDbBlockReference
  2
_DOT
 10
620.0748081899669
 20
442.5907690801621
 30
0.0
 41
3.0
 42
3.0
 43
3.0
 50
270.0
  0
MTEXT
  5
FEE
330
FE6
100
AcDbEntity
  8
DIM
 62
     0
 48
0.05
100
AcDbMText
 10
604.0748081899669
 20
487.5907690801621
 30
0.0
 40
12.0
 41
0.0
 46
0.0
 71
     5
 72
     1
  1
\A1;90
  7
ＭＳ ゴシック
 11
0.0
 21
1.0
 31
0.0
 73
     1
 44
1.0
  0
POINT
  5
FEF
330
FE6
100
AcDbEntity
  8
Defpoints
 62
     0
100
AcDbPoint
 10
570.8828001954348
 20
532.5907690801621
 30
0.0
  0
POINT
  5
FF0
330
FE6
100
AcDbEntity
  8
Defpoints
 62
     0
100
AcDbPoint
 10
354.0148952866617
 20
442.5907690801621
 30
0.0
  0
POINT
  5
FF1
330
FE6
100
AcDbEntity
  8
Defpoints
 62
     0
100
AcDbPoint
 10
620.0748081899669
 20
442.5907690801622
 30
0.0
  0
ENDBLK
  5
FE8
330
FE6
100
AcDbEntity
  8
0
100
AcDbBlockEnd
  0
BLOCK
  5
FF3
330
FF2
100
AcDbEntity
  8
0
100
AcDbBlockBegin
  2
*D24
 70
     1
 10
0.0
 20
0.0
 30
0.0
  3
*D24
  1
*D25
  0
LINE
  5
FF5
330
FF2
100
AcDbEntity
  8
DIM
  6
Continuous
 62
     0
370
    -2
100
AcDbLine
 10
807.1945660859049
 20
532.5907690801621
 30
0.0
 11
807.1945660859049
 21
622.478769080162
 31
0.0
  0
LINE
  5
FF6
330
FF2
100
AcDbEntity
  8
DIM
  6
Continuous
 62
     0
370
    -2
100
AcDbLine
 10
807.1945660859049
 20
529.5907690801621
 30
0.0
 11
807.1945660859049
 21
472.5907690801621
 31
0.0
  0
INSERT
  5
FF7
330
FF2
100
AcDbEntity
  8
DIM
 62
     0
370
    -2
100
AcDbBlockReference
  2
_DOT
 10
807.1945660859049
 20
532.5907690801621
 30
0.0
 41
3.0
 42
3.0
 43
3.0
 50
90.0
  0
INSERT
  5
FF8
330
FF2
100
AcDbEntity
  8
DIM
 62
     0
370
    -2
100
AcDbBlockReference
  2
_DOT
 10
807.1945660859049
 20
469.5907690801621
 30
0.0
 41
3.0
 42
3.0
 43
3.0
 50
270.0
  0
MTEXT
  5
FF9
330
FF2
100
AcDbEntity
  8
DIM
 62
     0
 48
0.05
100
AcDbMText
 10
790.1325660859048
 20
583.534769080162
 30
0.0
 40
12.0
 41
0.0
 46
0.0
 71
     5
 72
     1
  1
\A1;63(深さ)
  7
ＭＳ ゴシック
 11
0.0
 21
1.0
 31
0.0
 73
     1
 44
1.0
  0
POINT
  5
FFA
330
FF2
100
AcDbEntity
  8
Defpoints
 62
     0
100
AcDbPoint
 10
830.3058260676783
 20
532.5907690801621
 30
0.0
  0
POINT
  5
FFB
330
FF2
100
AcDbEntity
  8
Defpoints
 62
     0
100
AcDbPoint
 10
807.1945660859049
 20
469.5907690801621
 30
0.0
  0
POINT
  5
FFC
330
FF2
100
AcDbEntity
  8
Defpoints
 62
     0
100
AcDbPoint
 10
807.1945660859049
 20
469.5907690801621
 30
0.0
  0
ENDBLK
  5
FF4
330
FF2
100
AcDbEntity
  8
0
100
AcDbBlockEnd
  0
BLOCK
  5
FFE
330
FFD
100
AcDbEntity
  8
0
100
AcDbBlockBegin
  2
*D25
 70
     1
 10
0.0
 20
0.0
 30
0.0
  3
*D25
  1
*D26
  0
LINE
  5
1000
330
FFD
100
AcDbEntity
  8
DIM
 62
     0
370
    -2
100
AcDbLine
 10
944.1945660859058
 20
437.5907690801621
 30
0.0
 11
944.1945660859058
 21
380.6979964760615
 31
0.0
  0
LINE
  5
1001
330
FFD
100
AcDbEntity
  8
DIM
 62
     0
370
    -2
100
AcDbLine
 10
807.1945660859049
 20
417.5907690801621
 30
0.0
 11
807.1945660859049
 21
380.6979964760615
 31
0.0
  0
LINE
  5
1002
330
FFD
100
AcDbEntity
  8
DIM
 62
     0
370
    -2
100
AcDbLine
 10
941.1945660859058
 20
380.6979964760615
 30
0.0
 11
810.1945660859049
 21
380.6979964760615
 31
0.0
  0
INSERT
  5
1003
330
FFD
100
AcDbEntity
  8
DIM
 62
     0
370
    -2
100
AcDbBlockReference
  2
_DOT
 10
944.1945660859058
 20
380.6979964760615
 30
0.0
 41
3.0
 42
3.0
 43
3.0
  0
INSERT
  5
1004
330
FFD
100
AcDbEntity
  8
DIM
 62
     0
370
    -2
100
AcDbBlockReference
  2
_DOT
 10
807.1945660859049
 20
380.6979964760615
 30
0.0
 41
3.0
 42
3.0
 43
3.0
 50
180.0
  0
MTEXT
  5
1005
330
FFD
100
AcDbEntity
  8
DIM
 62
     0
 48
0.05
100
AcDbMText
 10
875.6945660859058
 20
396.6979964760615
 30
0.0
 40
12.0
 41
0.0
 46
0.0
 71
     5
 72
     1
  1
\A1;137
  7
ＭＳ ゴシック
 73
     1
 44
1.0
  0
POINT
  5
1006
330
FFD
100
AcDbEntity
  8
Defpoints
 62
     0
100
AcDbPoint
 10
944.1945660859058
 20
442.5907690801621
 30
0.0
  0
POINT
  5
1007
330
FFD
100
AcDbEntity
  8
Defpoints
 62
     0
100
AcDbPoint
 10
807.1945660859049
 20
422.5907690801621
 30
0.0
  0
POINT
  5
1008
330
FFD
100
AcDbEntity
  8
Defpoints
 62
     0
100
AcDbPoint
 10
807.1945660859049
 20
380.6979964760615
 30
0.0
  0
ENDBLK
  5
FFF
330
FFD
100
AcDbEntity
  8
0
100
AcDbBlockEnd
  0
BLOCK
  5
100A
330
1009
100
AcDbEntity
  8
0
100
AcDbBlockBegin
  2
*D26
 70
     1
 10
0.0
 20
0.0
 30
0.0
  3
*D26
  1
*D27
  0
LINE
  5
100C
330
1009
100
AcDbEntity
  8
DIM
 62
     0
370
    -2
100
AcDbLine
 10
165.7820328743351
 20
1198.994368518
 30
0.0
 11
111.7957634073973
 21
1198.994368518
 31
0.0
  0
LINE
  5
100D
330
1009
100
AcDbEntity
  8
DIM
 62
     0
370
    -2
100
AcDbLine
 10
191.2820328743351
 20
1155.994368518
 30
0.0
 11
111.7957634073973
 21
1155.994368518
 31
0.0
  0
LINE
  5
100E
330
1009
100
AcDbEntity
  8
DIM
 62
     0
370
    -2
100
AcDbLine
 10
111.7957634073973
 20
1195.994368518
 30
0.0
 11
111.7957634073973
 21
1158.994368518
 31
0.0
  0
INSERT
  5
100F
330
1009
100
AcDbEntity
  8
DIM
 62
     0
370
    -2
100
AcDbBlockReference
  2
_DOT
 10
111.7957634073973
 20
1198.994368518
 30
0.0
 41
3.0
 42
3.0
 43
3.0
 50
90.0
  0
INSERT
  5
1010
330
1009
100
AcDbEntity
  8
DIM
 62
     0
370
    -2
100
AcDbBlockReference
  2
_DOT
 10
111.7957634073973
 20
1155.994368518
 30
0.0
 41
3.0
 42
3.0
 43
3.0
 50
270.0
  0
MTEXT
  5
1011
330
1009
100
AcDbEntity
  8
DIM
 62
     0
 48
0.05
100
AcDbMText
 10
95.79576340739732
 20
1177.494368518
 30
0.0
 40
12.0
 41
0.0
 46
0.0
 71
     5
 72
     1
  1
\A1;43
  7
ＭＳ ゴシック
 11
0.0
 21
1.0
 31
0.0
 73
     1
 44
1.0
  0
POINT
  5
1012
330
1009
100
AcDbEntity
  8
Defpoints
 62
     0
100
AcDbPoint
 10
170.7820328743351
 20
1198.994368518
 30
0.0
  0
POINT
  5
1013
330
1009
100
AcDbEntity
  8
Defpoints
 62
     0
100
AcDbPoint
 10
196.2820328743351
 20
1155.994368518
 30
0.0
  0
POINT
  5
1014
330
1009
100
AcDbEntity
  8
Defpoints
 62
     0
100
AcDbPoint
 10
111.7957634073973
 20
1155.994368518
 30
0.0
  0
ENDBLK
  5
100B
330
1009
100
AcDbEntity
  8
0
100
AcDbBlockEnd
  0
BLOCK
  5
1016
330
1015
100
AcDbEntity
  8
0
100
AcDbBlockBegin
  2
*D27
 70
     1
 10
0.0
 20
0.0
 30
0.0
  3
*D27
  1
*D28
  0
LINE
  5
1018
330
1015
100
AcDbEntity
  8
DIM
 62
     0
370
    -2
100
AcDbLine
 10
170.7820328743351
 20
1203.994368518
 30
0.0
 11
170.7820328743351
 21
1270.183313731765
 31
0.0
  0
LINE
  5
1019
330
1015
100
AcDbEntity
  8
DIM
 62
     0
370
    -2
100
AcDbLine
 10
345.7820328743351
 20
1203.994368518
 30
0.0
 11
345.7820328743351
 21
1270.183313731765
 31
0.0
  0
LINE
  5
101A
330
1015
100
AcDbEntity
  8
DIM
 62
     0
370
    -2
100
AcDbLine
 10
173.7820328743351
 20
1270.183313731765
 30
0.0
 11
342.7820328743351
 21
1270.183313731765
 31
0.0
  0
INSERT
  5
101B
330
1015
100
AcDbEntity
  8
DIM
 62
     0
370
    -2
100
AcDbBlockReference
  2
_DOT
 10
170.7820328743351
 20
1270.183313731765
 30
0.0
 41
3.0
 42
3.0
 43
3.0
 50
180.0
  0
INSERT
  5
101C
330
1015
100
AcDbEntity
  8
DIM
 62
     0
370
    -2
100
AcDbBlockReference
  2
_DOT
 10
345.7820328743351
 20
1270.183313731765
 30
0.0
 41
3.0
 42
3.0
 43
3.0
  0
MTEXT
  5
101D
330
1015
100
AcDbEntity
  8
DIM
 62
     0
 48
0.05
100
AcDbMText
 10
258.2820328743351
 20
1286.183313731765
 30
0.0
 40
12.0
 41
0.0
 46
0.0
 71
     5
 72
     1
  1
\A1;175
  7
ＭＳ ゴシック
 73
     1
 44
1.0
  0
POINT
  5
101E
330
1015
100
AcDbEntity
  8
Defpoints
 62
     0
100
AcDbPoint
 10
170.7820328743351
 20
1198.994368518
 30
0.0
  0
POINT
  5
101F
330
1015
100
AcDbEntity
  8
Defpoints
 62
     0
100
AcDbPoint
 10
345.7820328743351
 20
1198.994368518
 30
0.0
  0
POINT
  5
1020
330
1015
100
AcDbEntity
  8
Defpoints
 62
     0
100
AcDbPoint
 10
345.7820328743351
 20
1270.183313731765
 30
0.0
  0
ENDBLK
  5
1017
330
1015
100
AcDbEntity
  8
0
100
AcDbBlockEnd
  0
BLOCK
  5
1022
330
1021
100
AcDbEntity
  8
0
100
AcDbBlockBegin
  2
*D28
 70
     1
 10
0.0
 20
0.0
 30
0.0
  3
*D28
  1
*D29
  0
LINE
  5
1024
330
1021
100
AcDbEntity
  8
DIM
 62
     0
370
    -2
100
AcDbLine
 10
165.7820328743351
 20
1198.994368518
 30
0.0
 11
77.14064832233407
 21
1198.994368518
 31
0.0
  0
LINE
  5
1025
330
1021
100
AcDbEntity
  8
DIM
 62
     0
370
    -2
100
AcDbLine
 10
165.7820328743351
 20
1061.994368518
 30
0.0
 11
77.14064832233406
 21
1061.994368518
 31
0.0
  0
LINE
  5
1026
330
1021
100
AcDbEntity
  8
DIM
 62
     0
370
    -2
100
AcDbLine
 10
77.14064832233407
 20
1195.994368518
 30
0.0
 11
77.14064832233406
 21
1064.994368518
 31
0.0
  0
INSERT
  5
1027
330
1021
100
AcDbEntity
  8
DIM
 62
     0
370
    -2
100
AcDbBlockReference
  2
_DOT
 10
77.14064832233407
 20
1198.994368518
 30
0.0
 41
3.0
 42
3.0
 43
3.0
 50
90.0
  0
INSERT
  5
1028
330
1021
100
AcDbEntity
  8
DIM
 62
     0
370
    -2
100
AcDbBlockReference
  2
_DOT
 10
77.14064832233406
 20
1061.994368518
 30
0.0
 41
3.0
 42
3.0
 43
3.0
 50
270.0
  0
MTEXT
  5
1029
330
1021
100
AcDbEntity
  8
DIM
 62
     0
 48
0.05
100
AcDbMText
 10
61.14064832233407
 20
1130.494368518
 30
0.0
 40
12.0
 41
0.0
 46
0.0
 71
     5
 72
     1
  1
\A1;137
  7
ＭＳ ゴシック
 11
1.037288665343214E-16
 21
1.0
 31
0.0
 73
     1
 44
1.0
  0
POINT
  5
102A
330
1021
100
AcDbEntity
  8
Defpoints
 62
     0
100
AcDbPoint
 10
170.7820328743351
 20
1198.994368518
 30
0.0
  0
POINT
  5
102B
330
1021
100
AcDbEntity
  8
Defpoints
 62
     0
100
AcDbPoint
 10
170.7820328743351
 20
1061.994368518
 30
0.0
  0
POINT
  5
102C
330
1021
100
AcDbEntity
  8
Defpoints
 62
     0
100
AcDbPoint
 10
77.14064832233406
 20
1061.994368518
 30
0.0
  0
ENDBLK
  5
1023
330
1021
100
AcDbEntity
  8
0
100
AcDbBlockEnd
  0
BLOCK
  5
102E
330
102D
100
AcDbEntity
  8
0
100
AcDbBlockBegin
  2
*D29
 70
     1
 10
0.0
 20
0.0
 30
0.0
  3
*D29
  1
*D30
  0
LINE
  5
1030
330
102D
100
AcDbEntity
  8
DIM
 62
     0
370
    -2
100
AcDbLine
 10
255.7820328743351
 20
506.2948187572445
 30
0.0
 11
255.7820328743351
 21
571.9215352217541
 31
0.0
  0
LINE
  5
1031
330
102D
100
AcDbEntity
  8
DIM
 62
     0
370
    -2
100
AcDbLine
 10
170.7820328743351
 20
537.5907690801621
 30
0.0
 11
170.7820328743351
 21
571.9215352217541
 31
0.0
  0
LINE
  5
1032
330
102D
100
AcDbEntity
  8
DIM
 62
     0
370
    -2
100
AcDbLine
 10
252.7820328743351
 20
571.9215352217541
 30
0.0
 11
173.7820328743351
 21
571.9215352217541
 31
0.0
  0
INSERT
  5
1033
330
102D
100
AcDbEntity
  8
DIM
 62
     0
370
    -2
100
AcDbBlockReference
  2
_DOT
 10
255.7820328743351
 20
571.9215352217541
 30
0.0
 41
3.0
 42
3.0
 43
3.0
  0
INSERT
  5
1034
330
102D
100
AcDbEntity
  8
DIM
 62
     0
370
    -2
100
AcDbBlockReference
  2
_DOT
 10
170.7820328743351
 20
571.9215352217541
 30
0.0
 41
3.0
 42
3.0
 43
3.0
 50
180.0
  0
MTEXT
  5
1035
330
102D
100
AcDbEntity
  8
DIM
 62
     0
 48
0.05
100
AcDbMText
 10
213.2820328743351
 20
587.9215352217541
 30
0.0
 40
12.0
 41
0.0
 46
0.0
 71
     5
 72
     1
  1
\A1;85
  7
ＭＳ ゴシック
 73
     1
 44
1.0
  0
POINT
  5
1036
330
102D
100
AcDbEntity
  8
Defpoints
 62
     0
100
AcDbPoint
 10
255.7820328743351
 20
501.2948187572445
 30
0.0
  0
POINT
  5
1037
330
102D
100
AcDbEntity
  8
Defpoints
 62
     0
100
AcDbPoint
 10
170.7820328743351
 20
532.5907690801621
 30
0.0
  0
POINT
  5
1038
330
102D
100
AcDbEntity
  8
Defpoints
 62
     0
100
AcDbPoint
 10
170.7820328743351
 20
571.9215352217541
 30
0.0
  0
ENDBLK
  5
102F
330
102D
100
AcDbEntity
  8
0
100
AcDbBlockEnd
  0
BLOCK
  5
103A
330
1039
100
AcDbEntity
  8
0
100
AcDbBlockBegin
  2
*D30
 70
     1
 10
0.0
 20
0.0
 30
0.0
  3
*D30
  1
*D31
  0
LINE
  5
103C
330
1039
100
AcDbEntity
  8
DIM
 62
     0
370
    -2
100
AcDbLine
 10
165.7820328743351
 20
532.5907690801621
 30
0.0
 11
118.5470658571678
 21
532.5907690801621
 31
0.0
  0
LINE
  5
103D
330
1039
100
AcDbEntity
  8
DIM
 62
     0
370
    -2
100
AcDbLine
 10
227.0779831972527
 20
477.5907690801621
 30
0.0
 11
118.5470658571678
 21
477.5907690801621
 31
0.0
  0
LINE
  5
103E
330
1039
100
AcDbEntity
  8
DIM
 62
     0
370
    -2
100
AcDbLine
 10
118.5470658571678
 20
529.5907690801621
 30
0.0
 11
118.5470658571678
 21
480.5907690801621
 31
0.0
  0
INSERT
  5
103F
330
1039
100
AcDbEntity
  8
DIM
 62
     0
370
    -2
100
AcDbBlockReference
  2
_DOT
 10
118.5470658571678
 20
532.5907690801621
 30
0.0
 41
3.0
 42
3.0
 43
3.0
 50
90.0
  0
INSERT
  5
1040
330
1039
100
AcDbEntity
  8
DIM
 62
     0
370
    -2
100
AcDbBlockReference
  2
_DOT
 10
118.5470658571678
 20
477.5907690801621
 30
0.0
 41
3.0
 42
3.0
 43
3.0
 50
270.0
  0
MTEXT
  5
1041
330
1039
100
AcDbEntity
  8
DIM
 62
     0
 48
0.05
100
AcDbMText
 10
102.5470658571678
 20
507.5907690801621
 30
0.0
 40
12.0
 41
0.0
 46
0.0
 71
     5
 72
     1
  1
\A1;55
  7
ＭＳ ゴシック
 11
0.0
 21
1.0
 31
0.0
 73
     1
 44
1.0
  0
POINT
  5
1042
330
1039
100
AcDbEntity
  8
Defpoints
 62
     0
100
AcDbPoint
 10
170.7820328743351
 20
532.5907690801621
 30
0.0
  0
POINT
  5
1043
330
1039
100
AcDbEntity
  8
Defpoints
 62
     0
100
AcDbPoint
 10
232.0779831972527
 20
477.5907690801621
 30
0.0
  0
POINT
  5
1044
330
1039
100
AcDbEntity
  8
Defpoints
 62
     0
100
AcDbPoint
 10
118.5470658571678
 20
477.5907690801621
 30
0.0
  0
ENDBLK
  5
103B
330
1039
100
AcDbEntity
  8
0
100
AcDbBlockEnd
  0
BLOCK
  5
1046
330
1045
100
AcDbEntity
  8
0
100
AcDbBlockBegin
  2
*D31
 70
     1
 10
0.0
 20
0.0
 30
0.0
  3
*D31
  1
*D32
  0
LINE
  5
1048
330
1045
100
AcDbEntity
  8
DIM
 62
     0
370
    -2
100
AcDbLine
 10
170.7820328743351
 20
537.5907690801621
 30
0.0
 11
170.7820328743351
 21
610.3463110274813
 31
0.0
  0
LINE
  5
1049
330
1045
100
AcDbEntity
  8
DIM
 62
     0
370
    -2
100
AcDbLine
 10
300.7820328743351
 20
507.1385569535817
 30
0.0
 11
300.7820328743351
 21
610.3463110274813
 31
0.0
  0
LINE
  5
104A
330
1045
100
AcDbEntity
  8
DIM
 62
     0
370
    -2
100
AcDbLine
 10
173.7820328743351
 20
610.3463110274813
 30
0.0
 11
297.7820328743351
 21
610.3463110274813
 31
0.0
  0
INSERT
  5
104B
330
1045
100
AcDbEntity
  8
DIM
 62
     0
370
    -2
100
AcDbBlockReference
  2
_DOT
 10
170.7820328743351
 20
610.3463110274813
 30
0.0
 41
3.0
 42
3.0
 43
3.0
 50
180.0
  0
INSERT
  5
104C
330
1045
100
AcDbEntity
  8
DIM
 62
     0
370
    -2
100
AcDbBlockReference
  2
_DOT
 10
300.7820328743351
 20
610.3463110274813
 30
0.0
 41
3.0
 42
3.0
 43
3.0
  0
MTEXT
  5
104D
330
1045
100
AcDbEntity
  8
DIM
 62
     0
 48
0.05
100
AcDbMText
 10
235.7820328743351
 20
626.3463110274813
 30
0.0
 40
12.0
 41
0.0
 46
0.0
 71
     5
 72
     1
  1
\A1;130
  7
ＭＳ ゴシック
 73
     1
 44
1.0
  0
POINT
  5
104E
330
1045
100
AcDbEntity
  8
Defpoints
 62
     0
100
AcDbPoint
 10
170.7820328743351
 20
532.5907690801621
 30
0.0
  0
POINT
  5
104F
330
1045
100
AcDbEntity
  8
Defpoints
 62
     0
100
AcDbPoint
 10
300.7820328743351
 20
502.1385569535817
 30
0.0
  0
POINT
  5
1050
330
1045
100
AcDbEntity
  8
Defpoints
 62
     0
100
AcDbPoint
 10
300.7820328743351
 20
610.3463110274813
 30
0.0
  0
ENDBLK
  5
1047
330
1045
100
AcDbEntity
  8
0
100
AcDbBlockEnd
  0
BLOCK
  5
1052
330
1051
100
AcDbEntity
  8
0
100
AcDbBlockBegin
  2
*D32
 70
     1
 10
0.0
 20
0.0
 30
0.0
  3
*D32
  1
*D33
  0
LINE
  5
1054
330
1051
100
AcDbEntity
  8
DIM
 62
     0
370
    -2
100
AcDbLine
 10
508.7367030996919
 20
1047.4971609856
 30
0.0
 11
508.7367030996919
 21
904.3085295820986
 31
0.0
  0
LINE
  5
1055
330
1051
100
AcDbEntity
  8
DIM
 62
     0
370
    -2
100
AcDbLine
 10
213.7367030996918
 20
1043.2617528064
 30
0.0
 11
213.7367030996918
 21
904.3085295820986
 31
0.0
  0
LINE
  5
1056
330
1051
100
AcDbEntity
  8
DIM
 62
     0
370
    -2
100
AcDbLine
 10
505.7367030996919
 20
904.3085295820986
 30
0.0
 11
216.7367030996918
 21
904.3085295820986
 31
0.0
  0
INSERT
  5
1057
330
1051
100
AcDbEntity
  8
DIM
 62
     0
370
    -2
100
AcDbBlockReference
  2
_DOT
 10
508.7367030996919
 20
904.3085295820986
 30
0.0
 41
3.0
 42
3.0
 43
3.0
  0
INSERT
  5
1058
330
1051
100
AcDbEntity
  8
DIM
 62
     0
370
    -2
100
AcDbBlockReference
  2
_DOT
 10
213.7367030996918
 20
904.3085295820986
 30
0.0
 41
3.0
 42
3.0
 43
3.0
 50
180.0
  0
MTEXT
  5
1059
330
1051
100
AcDbEntity
  8
DIM
 62
     0
 48
0.05
100
AcDbMText
 10
361.2367030996919
 20
920.3085295820986
 30
0.0
 40
12.0
 41
0.0
 46
0.0
 71
     5
 72
     1
  1
\A1;295
  7
ＭＳ ゴシック
 73
     1
 44
1.0
  0
POINT
  5
105A
330
1051
100
AcDbEntity
  8
Defpoints
 62
     0
100
AcDbPoint
 10
508.7367030996919
 20
1052.4971609856
 30
0.0
  0
POINT
  5
105B
330
1051
100
AcDbEntity
  8
Defpoints
 62
     0
100
AcDbPoint
 10
213.7367030996918
 20
1048.2617528064
 30
0.0
  0
POINT
  5
105C
330
1051
100
AcDbEntity
  8
Defpoints
 62
     0
100
AcDbPoint
 10
213.7367030996918
 20
904.3085295820986
 30
0.0
  0
ENDBLK
  5
1053
330
1051
100
AcDbEntity
  8
0
100
AcDbBlockEnd
  0
BLOCK
  5
105E
330
105D
100
AcDbEntity
  8
0
100
AcDbBlockBegin
  2
*D33
 70
     1
 10
0.0
 20
0.0
 30
0.0
  3
*D33
  1
*D34
  0
LINE
  5
1060
330
105D
100
AcDbEntity
  8
DIM
 62
     0
370
    -2
100
AcDbLine
 10
361.9973422541916
 20
1170.989562625902
 30
0.0
 11
662.0632535089485
 21
1170.989562625902
 31
0.0
  0
LINE
  5
1061
330
105D
100
AcDbEntity
  8
DIM
 62
     0
370
    -2
100
AcDbLine
 10
363.281867615132
 20
953.0236421231832
 30
0.0
 11
662.0632535089485
 21
953.0236421231832
 31
0.0
  0
LINE
  5
1062
330
105D
100
AcDbEntity
  8
DIM
 62
     0
370
    -2
100
AcDbLine
 10
662.0632535089485
 20
1167.989562625902
 30
0.0
 11
662.0632535089485
 21
956.0236421231832
 31
0.0
  0
INSERT
  5
1063
330
105D
100
AcDbEntity
  8
DIM
 62
     0
370
    -2
100
AcDbBlockReference
  2
_DOT
 10
662.0632535089485
 20
1170.989562625902
 30
0.0
 41
3.0
 42
3.0
 43
3.0
 50
90.0
  0
INSERT
  5
1064
330
105D
100
AcDbEntity
  8
DIM
 62
     0
370
    -2
100
AcDbBlockReference
  2
_DOT
 10
662.0632535089485
 20
953.0236421231832
 30
0.0
 41
3.0
 42
3.0
 43
3.0
 50
270.0
  0
MTEXT
  5
1065
330
105D
100
AcDbEntity
  8
DIM
 62
     0
 48
0.05
100
AcDbMText
 10
646.0632535089485
 20
1062.006602374543
 30
0.0
 40
12.0
 41
0.0
 46
0.0
 71
     5
 72
     1
  1
\A1;218
  7
ＭＳ ゴシック
 11
0.0
 21
1.0
 31
0.0
 73
     1
 44
1.0
  0
POINT
  5
1066
330
105D
100
AcDbEntity
  8
Defpoints
 62
     0
100
AcDbPoint
 10
356.9973422541916
 20
1170.989562625902
 30
0.0
  0
POINT
  5
1067
330
105D
100
AcDbEntity
  8
Defpoints
 62
     0
100
AcDbPoint
 10
358.281867615132
 20
953.0236421231832
 30
0.0
  0
POINT
  5
1068
330
105D
100
AcDbEntity
  8
Defpoints
 62
     0
100
AcDbPoint
 10
662.0632535089485
 20
953.0236421231832
 30
0.0
  0
ENDBLK
  5
105F
330
105D
100
AcDbEntity
  8
0
100
AcDbBlockEnd
  0
BLOCK
  5
106A
330
1069
100
AcDbEntity
  8
0
100
AcDbBlockBegin
  2
*D34
 70
     1
 10
0.0
 20
0.0
 30
0.0
  3
*D34
  1
*D35
  0
LINE
  5
106C
330
1069
100
AcDbEntity
  8
DIM
 62
     0
370
    -2
100
AcDbLine
 10
712.1945660859049
 20
527.9547729481474
 30
0.0
 11
712.1945660859049
 21
616.9531951563679
 31
0.0
  0
LINE
  5
106D
330
1069
100
AcDbEntity
  8
DIM
 62
     0
370
    -2
100
AcDbLine
 10
902.1945660859049
 20
527.9547729481474
 30
0.0
 11
902.1945660859049
 21
616.9531951563679
 31
0.0
  0
LINE
  5
106E
330
1069
100
AcDbEntity
  8
DIM
 62
     0
370
    -2
100
AcDbLine
 10
715.1945660859049
 20
616.9531951563679
 30
0.0
 11
899.1945660859049
 21
616.9531951563679
 31
0.0
  0
INSERT
  5
106F
330
1069
100
AcDbEntity
  8
DIM
 62
     0
370
    -2
100
AcDbBlockReference
  2
_DOT
 10
712.1945660859049
 20
616.9531951563679
 30
0.0
 41
3.0
 42
3.0
 43
3.0
 50
180.0
  0
INSERT
  5
1070
330
1069
100
AcDbEntity
  8
DIM
 62
     0
370
    -2
100
AcDbBlockReference
  2
_DOT
 10
902.1945660859049
 20
616.9531951563679
 30
0.0
 41
3.0
 42
3.0
 43
3.0
  0
MTEXT
  5
1071
330
1069
100
AcDbEntity
  8
DIM
 62
     0
 48
0.05
100
AcDbMText
 10
807.1945660859049
 20
632.9531951563679
 30
0.0
 40
12.0
 41
0.0
 46
0.0
 71
     5
 72
     1
  1
\A1;190
  7
ＭＳ ゴシック
 73
     1
 44
1.0
  0
POINT
  5
1072
330
1069
100
AcDbEntity
  8
Defpoints
 62
     0
100
AcDbPoint
 10
712.1945660859049
 20
522.9547729481474
 30
0.0
  0
POINT
  5
1073
330
1069
100
AcDbEntity
  8
Defpoints
 62
     0
100
AcDbPoint
 10
902.1945660859049
 20
522.9547729481474
 30
0.0
  0
POINT
  5
1074
330
1069
100
AcDbEntity
  8
Defpoints
 62
     0
100
AcDbPoint
 10
902.1945660859049
 20
616.9531951563679
 30
0.0
  0
ENDBLK
  5
106B
330
1069
100
AcDbEntity
  8
0
100
AcDbBlockEnd
  0
BLOCK
  5
1076
330
1075
100
AcDbEntity
  8
0
100
AcDbBlockBegin
  2
*D35
 70
     1
 10
0.0
 20
0.0
 30
0.0
  3
*D35
  1
*D36
  0
LINE
  5
1078
330
1075
100
AcDbEntity
  8
DIM
 62
     0
370
    -2
100
AcDbLine
 10
170.7820328743351
 20
1203.994368518
 30
0.0
 11
170.7820328743351
 21
1236.999988752055
 31
0.0
  0
LINE
  5
1079
330
1075
100
AcDbEntity
  8
DIM
 62
     0
370
    -2
100
AcDbLine
 10
213.7820328743351
 20
1178.494368518
 30
0.0
 11
213.7820328743351
 21
1236.999988752055
 31
0.0
  0
LINE
  5
107A
330
1075
100
AcDbEntity
  8
DIM
 62
     0
370
    -2
100
AcDbLine
 10
173.7820328743351
 20
1236.999988752055
 30
0.0
 11
210.7820328743351
 21
1236.999988752055
 31
0.0
  0
INSERT
  5
107B
330
1075
100
AcDbEntity
  8
DIM
 62
     0
370
    -2
100
AcDbBlockReference
  2
_DOT
 10
170.7820328743351
 20
1236.999988752055
 30
0.0
 41
3.0
 42
3.0
 43
3.0
 50
180.0
  0
INSERT
  5
107C
330
1075
100
AcDbEntity
  8
DIM
 62
     0
370
    -2
100
AcDbBlockReference
  2
_DOT
 10
213.7820328743351
 20
1236.999988752055
 30
0.0
 41
3.0
 42
3.0
 43
3.0
  0
MTEXT
  5
107D
330
1075
100
AcDbEntity
  8
DIM
 62
     0
 48
0.05
100
AcDbMText
 10
192.2820328743351
 20
1252.999988752055
 30
0.0
 40
12.0
 41
0.0
 46
0.0
 71
     5
 72
     1
  1
\A1;43
  7
ＭＳ ゴシック
 73
     1
 44
1.0
  0
POINT
  5
107E
330
1075
100
AcDbEntity
  8
Defpoints
 62
     0
100
AcDbPoint
 10
170.7820328743351
 20
1198.994368518
 30
0.0
  0
POINT
  5
107F
330
1075
100
AcDbEntity
  8
Defpoints
 62
     0
100
AcDbPoint
 10
213.7820328743351
 20
1173.494368518
 30
0.0
  0
POINT
  5
1080
330
1075
100
AcDbEntity
  8
Defpoints
 62
     0
100
AcDbPoint
 10
213.7820328743351
 20
1236.999988752055
 30
0.0
  0
ENDBLK
  5
1077
330
1075
100
AcDbEntity
  8
0
100
AcDbBlockEnd
  0
BLOCK
  5
109A
330
1099
100
AcDbEntity
  8
0
100
AcDbBlockBegin
  2
*D36
 70
     1
 10
0.0
 20
0.0
 30
0.0
  3
*D36
  1
*D37
  0
LINE
  5
109C
330
1099
100
AcDbEntity
  8
HIDDEN
  6
HIDDEN
 62
     0
 48
0.05
370
    -2
100
AcDbLine
 10
1422.166506257771
 20
1113.138216094117
 30
0.0
 11
1422.166506257771
 21
1071.395820152607
 31
0.0
  0
LINE
  5
109D
330
1099
100
AcDbEntity
  8
HIDDEN
  6
HIDDEN
 62
     0
 48
0.05
370
    -2
100
AcDbLine
 10
1402.54424589782
 20
1134.725596577738
 30
0.0
 11
1402.54424589782
 21
1071.395820152607
 31
0.0
  0
LINE
  5
109E
330
1099
100
AcDbEntity
  8
HIDDEN
  6
HIDDEN
 62
     0
 48
0.05
370
    -2
100
AcDbLine
 10
1428.166506257771
 20
1071.395820152607
 30
0.0
 11
1434.166506257771
 21
1071.395820152607
 31
0.0
  0
LINE
  5
109F
330
1099
100
AcDbEntity
  8
HIDDEN
  6
HIDDEN
 62
     0
 48
0.05
370
    -2
100
AcDbLine
 10
1396.54424589782
 20
1071.395820152607
 30
0.0
 11
1390.54424589782
 21
1071.395820152607
 31
0.0
  0
INSERT
  5
10A0
330
1099
100
AcDbEntity
  8
HIDDEN
 62
     0
370
    -2
100
AcDbBlockReference
  2
_DOT
 10
1422.166506257771
 20
1071.395820152607
 30
0.0
 41
6.0
 42
6.0
 43
6.0
 50
180.0
  0
INSERT
  5
10A1
330
1099
100
AcDbEntity
  8
HIDDEN
 62
     0
370
    -2
100
AcDbBlockReference
  2
_DOT
 10
1402.54424589782
 20
1071.395820152607
 30
0.0
 41
6.0
 42
6.0
 43
6.0
  0
MTEXT
  5
10A2
330
1099
100
AcDbEntity
  8
HIDDEN
  6
HIDDEN
 62
     0
 48
0.05
100
AcDbMText
 10
1412.355376077796
 20
1087.395820152607
 30
0.0
 40
12.0
 41
0.0
 46
0.0
 71
     5
 72
     1
  1
\A1;20
  7
ＭＳ ゴシック
 73
     1
 44
1.0
  0
POINT
  5
10A3
330
1099
100
AcDbEntity
  8
Defpoints
 62
     0
100
AcDbPoint
 10
1422.166506257771
 20
1118.138216094117
 30
0.0
  0
POINT
  5
10A4
330
1099
100
AcDbEntity
  8
Defpoints
 62
     0
100
AcDbPoint
 10
1402.54424589782
 20
1139.725596577738
 30
0.0
  0
POINT
  5
10A5
330
1099
100
AcDbEntity
  8
Defpoints
 62
     0
100
AcDbPoint
 10
1402.54424589782
 20
1071.395820152607
 30
0.0
  0
ENDBLK
  5
109B
330
1099
100
AcDbEntity
  8
0
100
AcDbBlockEnd
  0
BLOCK
  5
10CA
330
10C9
100
AcDbEntity
  8
0
100
AcDbBlockBegin
  2
*D37
 70
     1
 10
0.0
 20
0.0
 30
0.0
  3
*D37
  1
*D38
  0
LINE
  5
10CC
330
10C9
100
AcDbEntity
  8
DIM
 62
     0
 48
0.05
370
    -2
100
AcDbLine
 10
198.7820328743351
 20
1048.5560130304
 30
0.0
 11
198.7820328743351
 21
866.6867806733287
 31
0.0
  0
LINE
  5
10CD
330
10C9
100
AcDbEntity
  8
DIM
 62
     0
 48
0.05
370
    -2
100
AcDbLine
 10
558.7887377099696
 20
1052.76694085424
 30
0.0
 11
558.7887377099696
 21
866.6867806733287
 31
0.0
  0
LINE
  5
10CE
330
10C9
100
AcDbEntity
  8
DIM
 62
     0
 48
0.05
370
    -2
100
AcDbLine
 10
201.7820328743351
 20
866.6867806733287
 30
0.0
 11
555.7887377099696
 21
866.6867806733287
 31
0.0
  0
INSERT
  5
10CF
330
10C9
100
AcDbEntity
  8
DIM
 62
     0
370
    -2
100
AcDbBlockReference
  2
_DOT
 10
198.7820328743351
 20
866.6867806733287
 30
0.0
 41
3.0
 42
3.0
 43
3.0
 50
180.0
  0
INSERT
  5
10D0
330
10C9
100
AcDbEntity
  8
DIM
 62
     0
370
    -2
100
AcDbBlockReference
  2
_DOT
 10
558.7887377099696
 20
866.6867806733287
 30
0.0
 41
3.0
 42
3.0
 43
3.0
  0
MTEXT
  5
10D1
330
10C9
100
AcDbEntity
  8
DIM
 62
     0
 48
0.05
100
AcDbMText
 10
378.7853852921523
 20
882.6867806733287
 30
0.0
 40
12.0
 41
0.0
 46
0.0
 71
     5
 72
     1
  1
\A1;365
  7
ＭＳ ゴシック
 73
     1
 44
1.0
  0
POINT
  5
10D2
330
10C9
100
AcDbEntity
  8
Defpoints
 62
     0
100
AcDbPoint
 10
198.7820328743351
 20
1053.5560130304
 30
0.0
  0
POINT
  5
10D3
330
10C9
100
AcDbEntity
  8
Defpoints
 62
     0
100
AcDbPoint
 10
558.7887377099696
 20
1057.76694085424
 30
0.0
  0
POINT
  5
10D4
330
10C9
100
AcDbEntity
  8
Defpoints
 62
     0
100
AcDbPoint
 10
558.7887377099696
 20
866.6867806733287
 30
0.0
  0
ENDBLK
  5
10CB
330
10C9
100
AcDbEntity
  8
0
100
AcDbBlockEnd
  0
BLOCK
  5
10EC
330
10EB
100
AcDbEntity
  8
0
100
AcDbBlockBegin
  2
*D38
 70
     1
 10
0.0
 20
0.0
 30
0.0
  3
*D38
  1
*D39
  0
LINE
  5
10EE
330
10EB
100
AcDbEntity
  8
DIM
 62
     0
 48
0.05
370
    -2
100
AcDbLine
 10
362.733934981009
 20
1156.994368518
 30
0.0
 11
614.9210323123201
 21
1156.994368518
 31
0.0
  0
LINE
  5
10EF
330
10EB
100
AcDbEntity
  8
DIM
 62
     0
 48
0.05
370
    -2
100
AcDbLine
 10
361.5810289718652
 20
966.9943685180003
 30
0.0
 11
614.9210323123202
 21
966.9943685180006
 31
0.0
  0
LINE
  5
10F0
330
10EB
100
AcDbEntity
  8
DIM
 62
     0
 48
0.05
370
    -2
100
AcDbLine
 10
614.9210323123201
 20
1153.994368518
 30
0.0
 11
614.9210323123202
 21
969.9943685180006
 31
0.0
  0
INSERT
  5
10F1
330
10EB
100
AcDbEntity
  8
DIM
 62
     0
370
    -2
100
AcDbBlockReference
  2
_DOT
 10
614.9210323123201
 20
1156.994368518
 30
0.0
 41
3.0
 42
3.0
 43
3.0
 50
90.00000000000004
  0
INSERT
  5
10F2
330
10EB
100
AcDbEntity
  8
DIM
 62
     0
370
    -2
100
AcDbBlockReference
  2
_DOT
 10
614.9210323123202
 20
966.9943685180006
 30
0.0
 41
3.0
 42
3.0
 43
3.0
 50
270.0
  0
MTEXT
  5
10F3
330
10EB
100
AcDbEntity
  8
DIM
 62
     0
 48
0.05
100
AcDbMText
 10
598.9210323123202
 20
1061.994368518
 30
0.0
 40
12.0
 41
0.0
 46
0.0
 71
     5
 72
     1
  1
\A1;190
  7
ＭＳ ゴシック
 11
-5.983517774821900E-16
 21
1.0
 31
0.0
 73
     1
 44
1.0
  0
POINT
  5
10F4
330
10EB
100
AcDbEntity
  8
Defpoints
 62
     0
100
AcDbPoint
 10
357.733934981009
 20
1156.994368518
 30
0.0
  0
POINT
  5
10F5
330
10EB
100
AcDbEntity
  8
Defpoints
 62
     0
100
AcDbPoint
 10
356.5810289718652
 20
966.9943685180003
 30
0.0
  0
POINT
  5
10F6
330
10EB
100
AcDbEntity
  8
Defpoints
 62
     0
100
AcDbPoint
 10
614.9210323123202
 20
966.9943685180004
 30
0.0
  0
ENDBLK
  5
10ED
330
10EB
100
AcDbEntity
  8
0
100
AcDbBlockEnd
  0
BLOCK
  5
10FA
330
10F9
100
AcDbEntity
  8
0
100
AcDbBlockBegin
  2
*D39
 70
     1
 10
0.0
 20
0.0
 30
0.0
  3
*D39
  1
*D40
  0
LINE
  5
10FC
330
10F9
100
AcDbEntity
  8
DIM
 62
     0
 48
0.05
370
    -2
100
AcDbLine
 10
350.7820328743351
 20
1198.994368518
 30
0.0
 11
706.3099650428162
 21
1198.994368518
 31
0.0
  0
LINE
  5
10FD
330
10F9
100
AcDbEntity
  8
DIM
 62
     0
 48
0.05
370
    -2
100
AcDbLine
 10
465.4889475016703
 20
952.9943685180003
 30
0.0
 11
706.3099650428162
 21
952.9943685180003
 31
0.0
  0
LINE
  5
10FE
330
10F9
100
AcDbEntity
  8
DIM
 62
     0
 48
0.05
370
    -2
100
AcDbLine
 10
706.3099650428162
 20
1195.994368518
 30
0.0
 11
706.3099650428162
 21
955.9943685180003
 31
0.0
  0
INSERT
  5
10FF
330
10F9
100
AcDbEntity
  8
DIM
 62
     0
370
    -2
100
AcDbBlockReference
  2
_DOT
 10
706.3099650428162
 20
1198.994368518
 30
0.0
 41
3.0
 42
3.0
 43
3.0
 50
90.0
  0
INSERT
  5
1100
330
10F9
100
AcDbEntity
  8
DIM
 62
     0
370
    -2
100
AcDbBlockReference
  2
_DOT
 10
706.3099650428162
 20
952.9943685180003
 30
0.0
 41
3.0
 42
3.0
 43
3.0
 50
270.0
  0
MTEXT
  5
1101
330
10F9
100
AcDbEntity
  8
DIM
 62
     0
 48
0.05
100
AcDbMText
 10
690.3099650428162
 20
1075.994368518
 30
0.0
 40
12.0
 41
0.0
 46
0.0
 71
     5
 72
     1
  1
\A1;246
  7
ＭＳ ゴシック
 11
0.0
 21
1.0
 31
0.0
 73
     1
 44
1.0
  0
POINT
  5
1102
330
10F9
100
AcDbEntity
  8
Defpoints
 62
     0
100
AcDbPoint
 10
345.7820328743351
 20
1198.994368518
 30
0.0
  0
POINT
  5
1103
330
10F9
100
AcDbEntity
  8
Defpoints
 62
     0
100
AcDbPoint
 10
460.4889475016703
 20
952.9943685180003
 30
0.0
  0
POINT
  5
1104
330
10F9
100
AcDbEntity
  8
Defpoints
 62
     0
100
AcDbPoint
 10
706.3099650428162
 20
952.9943685180003
 30
0.0
  0
ENDBLK
  5
10FB
330
10F9
100
AcDbEntity
  8
0
100
AcDbBlockEnd
  0
BLOCK
  5
11B4
330
11B3
100
AcDbEntity
  8
0
100
AcDbBlockBegin
  2
*D40
 70
     1
 10
0.0
 20
0.0
 30
0.0
  3
*D40
  1
*D42
  0
LINE
  5
11B6
330
11B3
100
AcDbEntity
  8
DIM
 62
     0
 48
0.05
370
    -2
100
AcDbLine
 10
1420.126177839783
 20
264.5369286862787
 30
0.0
 11
1420.126177839783
 21
327.8212239943859
 31
0.0
  0
LINE
  5
11B7
330
11B3
100
AcDbEntity
  8
DIM
 62
     0
 48
0.05
370
    -2
100
AcDbLine
 10
1290.126177839783
 20
264.5369286862787
 30
0.0
 11
1290.126177839783
 21
327.8212239943859
 31
0.0
  0
LINE
  5
11B8
330
11B3
100
AcDbEntity
  8
DIM
 62
     0
 48
0.05
370
    -2
100
AcDbLine
 10
1414.126177839783
 20
327.8212239943859
 30
0.0
 11
1296.126177839783
 21
327.8212239943859
 31
0.0
  0
INSERT
  5
11B9
330
11B3
100
AcDbEntity
  8
DIM
 62
     0
370
    -2
100
AcDbBlockReference
  2
_DOT
 10
1420.126177839783
 20
327.8212239943859
 30
0.0
 41
6.0
 42
6.0
 43
6.0
  0
INSERT
  5
11BA
330
11B3
100
AcDbEntity
  8
DIM
 62
     0
370
    -2
100
AcDbBlockReference
  2
_DOT
 10
1290.126177839783
 20
327.8212239943859
 30
0.0
 41
6.0
 42
6.0
 43
6.0
 50
180.0
  0
MTEXT
  5
11BB
330
11B3
100
AcDbEntity
  8
DIM
 62
     0
 48
0.05
100
AcDbMText
 10
1355.126177839783
 20
343.8212239943859
 30
0.0
 40
12.0
 41
0.0
 46
0.0
 71
     5
 72
     1
  1
\A1;130
  7
ＭＳ ゴシック
 73
     1
 44
1.0
  0
POINT
  5
11BC
330
11B3
100
AcDbEntity
  8
Defpoints
 62
     0
100
AcDbPoint
 10
1420.126177839783
 20
259.5369286862787
 30
0.0
  0
POINT
  5
11BD
330
11B3
100
AcDbEntity
  8
Defpoints
 62
     0
100
AcDbPoint
 10
1290.126177839783
 20
259.5369286862787
 30
0.0
  0
POINT
  5
11BE
330
11B3
100
AcDbEntity
  8
Defpoints
 62
     0
100
AcDbPoint
 10
1290.126177839783
 20
327.8212239943859
 30
0.0
  0
ENDBLK
  5
11B5
330
11B3
100
AcDbEntity
  8
0
100
AcDbBlockEnd
  0
BLOCK
  5
128A
330
1289
100
AcDbEntity
  8
0
100
AcDbBlockBegin
  2
*D41
 70
     1
 10
0.0
 20
0.0
 30
0.0
  3
*D41
  1
*D41
  0
LINE
  5
128C
330
1289
100
AcDbEntity
  8
DIM
 62
     0
 48
0.05
370
    -2
100
AcDbLine
 10
290.3006996387558
 20
416.9862532449234
 30
0.0
 11
290.3006996387558
 21
379.5117617619396
 31
0.0
  0
LINE
  5
128D
330
1289
100
AcDbEntity
  8
DIM
 62
     0
 48
0.05
370
    -2
100
AcDbLine
 10
337.2633661099144
 20
416.9862532449234
 30
0.0
 11
337.2633661099144
 21
379.5117617619396
 31
0.0
  0
LINE
  5
128E
330
1289
100
AcDbEntity
  8
DIM
 62
     0
 48
0.05
370
    -2
100
AcDbLine
 10
293.3006996387558
 20
379.5117617619396
 30
0.0
 11
334.2633661099144
 21
379.5117617619396
 31
0.0
  0
INSERT
  5
128F
330
1289
100
AcDbEntity
  8
DIM
 62
     0
370
    -2
100
AcDbBlockReference
  2
_DOT
 10
290.3006996387558
 20
379.5117617619396
 30
0.0
 41
3.0
 42
3.0
 43
3.0
 50
180.0
  0
INSERT
  5
1290
330
1289
100
AcDbEntity
  8
DIM
 62
     0
370
    -2
100
AcDbBlockReference
  2
_DOT
 10
337.2633661099144
 20
379.5117617619396
 30
0.0
 41
3.0
 42
3.0
 43
3.0
  0
MTEXT
  5
1291
330
1289
100
AcDbEntity
  8
DIM
 62
     0
 48
0.05
100
AcDbMText
 10
313.7820328743351
 20
362.2337617619396
 30
0.0
 40
12.0
 41
0.0
 46
0.0
 71
     5
 72
     1
  1
\A1;G1 1/4"
  7
ＭＳ ゴシック
 73
     1
 44
1.0
  0
POINT
  5
1292
330
1289
100
AcDbEntity
  8
Defpoints
 62
     0
100
AcDbPoint
 10
290.3006996387558
 20
421.9862532449234
 30
0.0
  0
POINT
  5
1293
330
1289
100
AcDbEntity
  8
Defpoints
 62
     0
100
AcDbPoint
 10
337.2633661099144
 20
421.9862532449234
 30
0.0
  0
POINT
  5
1294
330
1289
100
AcDbEntity
  8
Defpoints
 62
     0
100
AcDbPoint
 10
337.2633661099144
 20
379.5117617619396
 30
0.0
  0
ENDBLK
  5
128B
330
1289
100
AcDbEntity
  8
0
100
AcDbBlockEnd
  0
BLOCK
  5
1337
330
1336
100
AcDbEntity
  8
0
100
AcDbBlockBegin
  2
*D42
 70
     1
 10
0.0
 20
0.0
 30
0.0
  3
*D42
  1
*D43
  0
LINE
  5
1339
330
1336
100
AcDbEntity
  8
MODEL
 62
     0
 48
0.05
370
    -2
100
AcDbLine
 10
353.7149683086247
 20
953.0265290177533
 30
0.0
 11
790.0663175510205
 21
953.0265290177533
 31
0.0
  0
LINE
  5
133A
330
1336
100
AcDbEntity
  8
MODEL
 62
     0
 48
0.05
370
    -2
100
AcDbLine
 10
337.4379112536443
 20
1198.994368518
 30
0.0
 11
790.0663175510205
 21
1198.994368518
 31
0.0
  0
LINE
  5
133B
330
1336
100
AcDbEntity
  8
MODEL
 62
     0
 48
0.05
370
    -2
100
AcDbLine
 10
790.0663175510205
 20
956.0265290177533
 30
0.0
 11
790.0663175510205
 21
1195.994368518
 31
0.0
  0
INSERT
  5
133C
330
1336
100
AcDbEntity
  8
MODEL
 62
     0
370
    -2
100
AcDbBlockReference
  2
_DOT
 10
790.0663175510205
 20
953.0265290177533
 30
0.0
 41
3.0
 42
3.0
 43
3.0
 50
270.0
  0
INSERT
  5
133D
330
1336
100
AcDbEntity
  8
MODEL
 62
     0
370
    -2
100
AcDbBlockReference
  2
_DOT
 10
790.0663175510205
 20
1198.994368518
 30
0.0
 41
3.0
 42
3.0
 43
3.0
 50
90.0
  0
MTEXT
  5
133E
330
1336
100
AcDbEntity
  8
MODEL
 62
     0
 48
0.05
100
AcDbMText
 10
774.0663175510205
 20
1076.010448767877
 30
0.0
 40
12.0
 41
0.0
 46
0.0
 71
     5
 72
     1
  1
\A1;246
  7
ＭＳ ゴシック
 11
0.0
 21
1.0
 31
0.0
 73
     1
 44
1.0
  0
POINT
  5
133F
330
1336
100
AcDbEntity
  8
Defpoints
 62
     0
100
AcDbPoint
 10
348.7149683086247
 20
953.0265290177533
 30
0.0
  0
POINT
  5
1340
330
1336
100
AcDbEntity
  8
Defpoints
 62
     0
100
AcDbPoint
 10
332.4379112536443
 20
1198.994368518
 30
0.0
  0
POINT
  5
1341
330
1336
100
AcDbEntity
  8
Defpoints
 62
     0
100
AcDbPoint
 10
790.0663175510205
 20
1198.994368518
 30
0.0
  0
ENDBLK
  5
1338
330
1336
100
AcDbEntity
  8
0
100
AcDbBlockEnd
  0
BLOCK
  5
1350
330
134F
100
AcDbEntity
  8
0
100
AcDbBlockBegin
  2
*D43
 70
     1
 10
0.0
 20
0.0
 30
0.0
  3
*D43
  1
*D44
  0
LINE
  5
1352
330
134F
100
AcDbEntity
  8
MODEL
 62
     0
 48
0.05
370
    -2
100
AcDbLine
 10
558.7367030996917
 20
1069.350067825257
 30
0.0
 11
558.7367030996917
 21
1082.292002726064
 31
0.0
  0
LINE
  5
1353
330
134F
100
AcDbEntity
  8
MODEL
 62
     0
 48
0.05
370
    -2
100
AcDbLine
 10
508.7367030996917
 20
1038.39051857614
 30
0.0
 11
508.7367030996917
 21
1082.292002726064
 31
0.0
  0
LINE
  5
1354
330
134F
100
AcDbEntity
  8
MODEL
 62
     0
 48
0.05
370
    -2
100
AcDbLine
 10
555.7367030996917
 20
1082.292002726064
 30
0.0
 11
511.7367030996917
 21
1082.292002726064
 31
0.0
  0
INSERT
  5
1355
330
134F
100
AcDbEntity
  8
MODEL
 62
     0
370
    -2
100
AcDbBlockReference
  2
_DOT
 10
558.7367030996917
 20
1082.292002726064
 30
0.0
 41
3.0
 42
3.0
 43
3.0
  0
INSERT
  5
1356
330
134F
100
AcDbEntity
  8
MODEL
 62
     0
370
    -2
100
AcDbBlockReference
  2
_DOT
 10
508.7367030996917
 20
1082.292002726064
 30
0.0
 41
3.0
 42
3.0
 43
3.0
 50
180.0
  0
MTEXT
  5
1357
330
134F
100
AcDbEntity
  8
MODEL
 62
     0
 48
0.05
100
AcDbMText
 10
533.7367030996917
 20
1098.292002726064
 30
0.0
 40
12.0
 41
0.0
 46
0.0
 71
     5
 72
     1
  1
\A1;50
  7
ＭＳ ゴシック
 73
     1
 44
1.0
  0
POINT
  5
1358
330
134F
100
AcDbEntity
  8
Defpoints
 62
     0
100
AcDbPoint
 10
558.7367030996917
 20
1064.350067825257
 30
0.0
  0
POINT
  5
1359
330
134F
100
AcDbEntity
  8
Defpoints
 62
     0
100
AcDbPoint
 10
508.7367030996917
 20
1033.39051857614
 30
0.0
  0
POINT
  5
135A
330
134F
100
AcDbEntity
  8
Defpoints
 62
     0
100
AcDbPoint
 10
508.7367030996917
 20
1082.292002726064
 30
0.0
  0
ENDBLK
  5
1351
330
134F
100
AcDbEntity
  8
0
100
AcDbBlockEnd
  0
BLOCK
  5
138E
330
138D
100
AcDbEntity
  8
0
100
AcDbBlockBegin
  2
*D44
 70
     1
 10
0.0
 20
0.0
 30
0.0
  3
*D44
  1
*D45
  0
LINE
  5
1390
330
138D
100
AcDbEntity
  8
MODEL
 62
     0
 48
0.05
370
    -2
100
AcDbLine
 10
285.3006996387558
 20
429.8069076750153
 30
0.0
 11
269.6048256339219
 21
429.8069076750153
 31
0.0
  0
LINE
  5
1391
330
138D
100
AcDbEntity
  8
MODEL
 62
     0
 48
0.05
370
    -2
100
AcDbLine
 10
285.3006996387558
 20
410.8069076750153
 30
0.0
 11
269.6048256339219
 21
410.8069076750153
 31
0.0
  0
LINE
  5
1392
330
138D
100
AcDbEntity
  8
MODEL
 62
     0
 48
0.05
370
    -2
100
AcDbLine
 10
269.6048256339219
 20
432.8069076750153
 30
0.0
 11
269.6048256339219
 21
435.8069076750153
 31
0.0
  0
LINE
  5
1393
330
138D
100
AcDbEntity
  8
MODEL
 62
     0
 48
0.05
370
    -2
100
AcDbLine
 10
269.6048256339219
 20
407.8069076750153
 30
0.0
 11
269.6048256339219
 21
404.8069076750153
 31
0.0
  0
INSERT
  5
1394
330
138D
100
AcDbEntity
  8
MODEL
 62
     0
370
    -2
100
AcDbBlockReference
  2
_DOT
 10
269.6048256339219
 20
429.8069076750153
 30
0.0
 41
3.0
 42
3.0
 43
3.0
 50
270.0
  0
INSERT
  5
1395
330
138D
100
AcDbEntity
  8
MODEL
 62
     0
370
    -2
100
AcDbBlockReference
  2
_DOT
 10
269.6048256339219
 20
410.8069076750153
 30
0.0
 41
3.0
 42
3.0
 43
3.0
 50
90.0
  0
MTEXT
  5
1396
330
138D
100
AcDbEntity
  8
MODEL
 62
     0
 48
0.05
100
AcDbMText
 10
253.6048256339219
 20
420.3069076750153
 30
0.0
 40
12.0
 41
0.0
 46
0.0
 71
     5
 72
     1
  1
\A1;19
  7
ＭＳ ゴシック
 11
0.0
 21
1.0
 31
0.0
 73
     1
 44
1.0
  0
POINT
  5
1397
330
138D
100
AcDbEntity
  8
Defpoints
 62
     0
100
AcDbPoint
 10
290.3006996387558
 20
429.8069076750153
 30
0.0
  0
POINT
  5
1398
330
138D
100
AcDbEntity
  8
Defpoints
 62
     0
100
AcDbPoint
 10
290.3006996387558
 20
410.8069076750153
 30
0.0
  0
POINT
  5
1399
330
138D
100
AcDbEntity
  8
Defpoints
 62
     0
100
AcDbPoint
 10
269.6048256339219
 20
410.8069076750153
 30
0.0
  0
ENDBLK
  5
138F
330
138D
100
AcDbEntity
  8
0
100
AcDbBlockEnd
  0
BLOCK
  5
13A1
330
13A0
100
AcDbEntity
  8
0
100
AcDbBlockBegin
  2
*D45
 70
     1
 10
0.0
 20
0.0
 30
0.0
  3
*D45
  1
*D46
  0
LINE
  5
13A3
330
13A0
100
AcDbEntity
  8
MODEL
 62
     0
 48
0.05
370
    -2
100
AcDbLine
 10
285.3006996387558
 20
429.8069076750153
 30
0.0
 11
260.1214627137306
 21
429.8069076750153
 31
0.0
  0
LINE
  5
13A4
330
13A0
100
AcDbEntity
  8
MODEL
 62
     0
 48
0.05
370
    -2
100
AcDbLine
 10
291.5375763272651
 20
413.8305611335588
 30
0.0
 11
260.1214627137306
 21
413.8305611335588
 31
0.0
  0
LINE
  5
13A5
330
13A0
100
AcDbEntity
  8
MODEL
 62
     0
 48
0.05
370
    -2
100
AcDbLine
 10
260.1214627137306
 20
432.8069076750153
 30
0.0
 11
260.1214627137306
 21
435.8069076750153
 31
0.0
  0
LINE
  5
13A6
330
13A0
100
AcDbEntity
  8
MODEL
 62
     0
 48
0.05
370
    -2
100
AcDbLine
 10
260.1214627137306
 20
410.8305611335588
 30
0.0
 11
260.1214627137306
 21
407.8305611335588
 31
0.0
  0
INSERT
  5
13A7
330
13A0
100
AcDbEntity
  8
MODEL
 62
     0
370
    -2
100
AcDbBlockReference
  2
_DOT
 10
260.1214627137306
 20
429.8069076750153
 30
0.0
 41
3.0
 42
3.0
 43
3.0
 50
270.0
  0
INSERT
  5
13A8
330
13A0
100
AcDbEntity
  8
MODEL
 62
     0
370
    -2
100
AcDbBlockReference
  2
_DOT
 10
260.1214627137306
 20
413.8305611335588
 30
0.0
 41
3.0
 42
3.0
 43
3.0
 50
90.0
  0
MTEXT
  5
13A9
330
13A0
100
AcDbEntity
  8
MODEL
 62
     0
 48
0.05
100
AcDbMText
 10
244.1214627137306
 20
421.8187344042871
 30
0.0
 40
12.0
 41
0.0
 46
0.0
 71
     5
 72
     1
  1
\A1;16
  7
ＭＳ ゴシック
 11
0.0
 21
1.0
 31
0.0
 73
     1
 44
1.0
  0
POINT
  5
13AA
330
13A0
100
AcDbEntity
  8
Defpoints
 62
     0
100
AcDbPoint
 10
290.3006996387558
 20
429.8069076750153
 30
0.0
  0
POINT
  5
13AB
330
13A0
100
AcDbEntity
  8
Defpoints
 62
     0
100
AcDbPoint
 10
296.5375763272651
 20
413.8305611335588
 30
0.0
  0
POINT
  5
13AC
330
13A0
100
AcDbEntity
  8
Defpoints
 62
     0
100
AcDbPoint
 10
260.1214627137306
 20
413.8305611335588
 30
0.0
  0
ENDBLK
  5
13A2
330
13A0
100
AcDbEntity
  8
0
100
AcDbBlockEnd
  0
BLOCK
  5
1410
330
140F
100
AcDbEntity
  8
0
100
AcDbBlockBegin
  2
*D46
 70
     1
 10
0.0
 20
0.0
 30
0.0
  3
*D46
  1
*D46
  0
LINE
  5
1412
330
140F
100
AcDbEntity
  8
DIM
 62
     0
 48
0.05
370
    -2
100
AcDbLine
 10
170.7820328743351
 20
437.5907690801621
 30
0.0
 11
170.7820328743351
 21
325.0796151600445
 31
0.0
  0
LINE
  5
1413
330
140F
100
AcDbEntity
  8
DIM
 62
     0
 48
0.05
370
    -2
100
AcDbLine
 10
313.7820328743351
 20
353.4706066755087
 30
0.0
 11
313.7820328743351
 21
325.0796151600445
 31
0.0
  0
LINE
  5
1414
330
140F
100
AcDbEntity
  8
DIM
 62
     0
 48
0.05
370
    -2
100
AcDbLine
 10
173.7820328743351
 20
325.0796151600445
 30
0.0
 11
310.7820328743351
 21
325.0796151600445
 31
0.0
  0
INSERT
  5
1415
330
140F
100
AcDbEntity
  8
DIM
 62
     0
370
    -2
100
AcDbBlockReference
  2
_DOT
 10
170.7820328743351
 20
325.0796151600445
 30
0.0
 41
3.0
 42
3.0
 43
3.0
 50
180.0
  0
INSERT
  5
1416
330
140F
100
AcDbEntity
  8
DIM
 62
     0
370
    -2
100
AcDbBlockReference
  2
_DOT
 10
313.7820328743351
 20
325.0796151600445
 30
0.0
 41
3.0
 42
3.0
 43
3.0
  0
MTEXT
  5
1417
330
140F
100
AcDbEntity
  8
DIM
 62
     0
 48
0.05
100
AcDbMText
 10
242.2820328743351
 20
341.0796151600445
 30
0.0
 40
12.0
 41
0.0
 46
0.0
 71
     5
 72
     1
  1
\A1;143
  7
ＭＳ ゴシック
 73
     1
 44
1.0
  0
POINT
  5
1418
330
140F
100
AcDbEntity
  8
Defpoints
 62
     0
100
AcDbPoint
 10
170.7820328743351
 20
442.5907690801621
 30
0.0
  0
POINT
  5
1419
330
140F
100
AcDbEntity
  8
Defpoints
 62
     0
100
AcDbPoint
 10
313.7820328743351
 20
358.4706066755087
 30
0.0
  0
POINT
  5
141A
330
140F
100
AcDbEntity
  8
Defpoints
 62
     0
100
AcDbPoint
 10
313.7820328743351
 20
325.0796151600445
 30
0.0
  0
ENDBLK
  5
1411
330
140F
100
AcDbEntity
  8
0
100
AcDbBlockEnd
  0
BLOCK
  5
1426
330
1425
100
AcDbEntity
  8
0
100
AcDbBlockBegin
  2
*D47
 70
     1
 10
0.0
 20
0.0
 30
0.0
  3
*D47
  1
*D47
  0
LINE
  5
1428
330
1425
100
AcDbEntity
  8
DIM
 62
     0
 48
0.05
370
    -2
100
AcDbLine
 10
563.7875636456033
 20
532.5907690801621
 30
0.0
 11
652.3585850668269
 21
532.5907690801621
 31
0.0
  0
LINE
  5
1429
330
1425
100
AcDbEntity
  8
DIM
 62
     0
 48
0.05
370
    -2
100
AcDbLine
 10
339.782032874335
 20
422.5907690801621
 30
0.0
 11
652.3585850668269
 21
422.5907690801621
 31
0.0
  0
LINE
  5
142A
330
1425
100
AcDbEntity
  8
DIM
 62
     0
 48
0.05
370
    -2
100
AcDbLine
 10
652.3585850668269
 20
529.5907690801621
 30
0.0
 11
652.3585850668269
 21
425.5907690801621
 31
0.0
  0
INSERT
  5
142B
330
1425
100
AcDbEntity
  8
DIM
 62
     0
370
    -2
100
AcDbBlockReference
  2
_DOT
 10
652.3585850668269
 20
532.5907690801621
 30
0.0
 41
3.0
 42
3.0
 43
3.0
 50
90.0
  0
INSERT
  5
142C
330
1425
100
AcDbEntity
  8
DIM
 62
     0
370
    -2
100
AcDbBlockReference
  2
_DOT
 10
652.3585850668269
 20
422.5907690801621
 30
0.0
 41
3.0
 42
3.0
 43
3.0
 50
270.0
  0
MTEXT
  5
142D
330
1425
100
AcDbEntity
  8
DIM
 62
     0
 48
0.05
100
AcDbMText
 10
636.3585850668269
 20
477.5907690801621
 30
0.0
 40
12.0
 41
0.0
 46
0.0
 71
     5
 72
     1
  1
\A1;110
  7
ＭＳ ゴシック
 11
0.0
 21
1.0
 31
0.0
 73
     1
 44
1.0
  0
POINT
  5
142E
330
1425
100
AcDbEntity
  8
Defpoints
 62
     0
100
AcDbPoint
 10
558.7875636456033
 20
532.5907690801621
 30
0.0
  0
POINT
  5
142F
330
1425
100
AcDbEntity
  8
Defpoints
 62
     0
100
AcDbPoint
 10
334.782032874335
 20
422.5907690801621
 30
0.0
  0
POINT
  5
1430
330
1425
100
AcDbEntity
  8
Defpoints
 62
     0
100
AcDbPoint
 10
652.3585850668269
 20
422.5907690801621
 30
0.0
  0
ENDBLK
  5
1427
330
1425
100
AcDbEntity
  8
0
100
AcDbBlockEnd
  0
BLOCK
  5
1453
330
1452
100
AcDbEntity
  8
0
100
AcDbBlockBegin
  2
*D48
 70
     1
 10
0.0
 20
0.0
 30
0.0
  3
*D48
  1
*D48
  0
LINE
  5
1455
330
1452
100
AcDbEntity
  8
DIM
 62
     0
 48
0.05
370
    -2
100
AcDbLine
 10
508.7367030996918
 20
907.0069173985577
 30
0.0
 11
508.7367030996918
 21
904.3085295820986
 31
0.0
  0
LINE
  5
1456
330
1452
100
AcDbEntity
  8
DIM
 62
     0
 48
0.05
370
    -2
100
AcDbLine
 10
558.7887377099696
 20
907.0069173985577
 30
0.0
 11
558.7887377099696
 21
904.3085295820986
 31
0.0
  0
LINE
  5
1457
330
1452
100
AcDbEntity
  8
DIM
 62
     0
 48
0.05
370
    -2
100
AcDbLine
 10
511.7367030996918
 20
904.3085295820986
 30
0.0
 11
555.7887377099696
 21
904.3085295820986
 31
0.0
  0
INSERT
  5
1458
330
1452
100
AcDbEntity
  8
DIM
 62
     0
370
    -2
100
AcDbBlockReference
  2
_DOT
 10
508.7367030996918
 20
904.3085295820986
 30
0.0
 41
3.0
 42
3.0
 43
3.0
 50
180.0
  0
INSERT
  5
1459
330
1452
100
AcDbEntity
  8
DIM
 62
     0
370
    -2
100
AcDbBlockReference
  2
_DOT
 10
558.7887377099696
 20
904.3085295820986
 30
0.0
 41
3.0
 42
3.0
 43
3.0
  0
MTEXT
  5
145A
330
1452
100
AcDbEntity
  8
DIM
 62
     0
 48
0.05
100
AcDbMText
 10
533.7627204048307
 20
920.3085295820986
 30
0.0
 40
12.0
 41
0.0
 46
0.0
 71
     5
 72
     1
  1
\A1;50
  7
ＭＳ ゴシック
 73
     1
 44
1.0
  0
POINT
  5
145B
330
1452
100
AcDbEntity
  8
Defpoints
 62
     0
100
AcDbPoint
 10
508.7367030996918
 20
912.0069173985577
 30
0.0
  0
POINT
  5
145C
330
1452
100
AcDbEntity
  8
Defpoints
 62
     0
100
AcDbPoint
 10
558.7887377099696
 20
912.0069173985577
 30
0.0
  0
POINT
  5
145D
330
1452
100
AcDbEntity
  8
Defpoints
 62
     0
100
AcDbPoint
 10
558.7887377099696
 20
904.3085295820986
 30
0.0
  0
ENDBLK
  5
1454
330
1452
100
AcDbEntity
  8
0
100
AcDbBlockEnd
  0
BLOCK
  5
149A
330
1499
100
AcDbEntity
  8
0
100
AcDbBlockBegin
  2
*D49
 70
     1
 10
0.0
 20
0.0
 30
0.0
  3
*D49
  1
*D50
  0
LINE
  5
149B
330
1499
100
AcDbEntity
  8
DIM
 62
     0
 48
0.05
370
    -2
100
AcDbLine
 10
35.1527386799965
 20
50.64553879057985
 30
0.0
 11
35.1527386799965
 21
24.13
 31
0.0
  0
LINE
  5
149C
330
1499
100
AcDbEntity
  8
DIM
 62
     0
 48
0.05
370
    -2
100
AcDbLine
 10
77.1527386799965
 20
50.64553879057985
 30
0.0
 11
77.1527386799965
 21
24.13
 31
0.0
  0
LINE
  5
149D
330
1499
100
AcDbEntity
  8
DIM
 62
     0
 48
0.05
370
    -2
100
AcDbLine
 10
38.1527386799965
 20
24.13
 30
0.0
 11
74.1527386799965
 21
24.13
 31
0.0
  0
INSERT
  5
149E
330
1499
100
AcDbEntity
  8
DIM
 62
     0
370
    -2
100
AcDbBlockReference
  2
_DOT
 10
35.1527386799965
 20
24.13
 30
0.0
 41
3.0
 42
3.0
 43
3.0
 50
180.0
  0
INSERT
  5
149F
330
1499
100
AcDbEntity
  8
DIM
 62
     0
370
    -2
100
AcDbBlockReference
  2
_DOT
 10
77.1527386799965
 20
24.13
 30
0.0
 41
3.0
 42
3.0
 43
3.0
  0
MTEXT
  5
14A0
330
1499
100
AcDbEntity
  8
DIM
 62
     0
 48
0.05
100
AcDbMText
 10
56.1527386799965
 20
6.851999999999997
 30
0.0
 40
12.0
 41
0.0
 46
0.0
 71
     5
 72
     1
  1
\A1;G1 1/4"
  7
ＭＳ ゴシック
 73
     1
 44
1.0
  0
POINT
  5
14A1
330
1499
100
AcDbEntity
  8
Defpoints
 62
     0
100
AcDbPoint
 10
35.1527386799965
 20
55.64553879057985
 30
0.0
  0
POINT
  5
14A2
330
1499
100
AcDbEntity
  8
Defpoints
 62
     0
100
AcDbPoint
 10
77.1527386799965
 20
55.64553879057985
 30
0.0
  0
POINT
  5
14A3
330
1499
100
AcDbEntity
  8
Defpoints
 62
     0
100
AcDbPoint
 10
77.1527386799965
 20
24.13
 30
0.0
  0
ENDBLK
  5
14A4
330
1499
100
AcDbEntity
  8
0
100
AcDbBlockEnd
  0
BLOCK
  5
14A7
330
14A6
100
AcDbEntity
  8
0
100
AcDbBlockBegin
  2
*D50
 70
     1
 10
0.0
 20
0.0
 30
0.0
  3
*D50
  1
*D51
  0
LINE
  5
14A8
330
14A6
100
AcDbEntity
  8
DIM
 62
     0
 48
0.05
370
    -2
100
AcDbLine
 10
30.1527386799965
 20
55.64553879057985
 30
0.0
 11
17.0
 21
55.64553879057985
 31
0.0
  0
LINE
  5
14A9
330
14A6
100
AcDbEntity
  8
DIM
 62
     0
 48
0.05
370
    -2
100
AcDbLine
 10
21.98138769230252
 20
75.64553879057985
 30
0.0
 11
17.0
 21
75.64553879057985
 31
0.0
  0
LINE
  5
14AA
330
14A6
100
AcDbEntity
  8
DIM
 62
     0
 48
0.05
370
    -2
100
AcDbLine
 10
17.0
 20
55.64553879057985
 30
0.0
 11
17.0
 21
20.38953879057986
 31
0.0
  0
LINE
  5
14AB
330
14A6
100
AcDbEntity
  8
DIM
 62
     0
 48
0.05
370
    -2
100
AcDbLine
 10
17.0
 20
58.64553879057985
 30
0.0
 11
17.0
 21
72.64553879057985
 31
0.0
  0
INSERT
  5
14AC
330
14A6
100
AcDbEntity
  8
DIM
 62
     0
370
    -2
100
AcDbBlockReference
  2
_DOT
 10
17.0
 20
55.64553879057985
 30
0.0
 41
3.0
 42
3.0
 43
3.0
 50
270.0
  0
INSERT
  5
14AD
330
14A6
100
AcDbEntity
  8
DIM
 62
     0
370
    -2
100
AcDbBlockReference
  2
_DOT
 10
17.0
 20
75.64553879057985
 30
0.0
 41
3.0
 42
3.0
 43
3.0
 50
90.0
  0
MTEXT
  5
14AE
330
14A6
100
AcDbEntity
  8
DIM
 62
     0
 48
0.05
100
AcDbMText
 10
6.0
 20
32.51753879057986
 30
0.0
 40
12.0
 41
0.0
 46
0.0
 71
     5
 72
     1
  1
\A1;20
  7
ＭＳ ゴシック
 11
0.0
 21
1.0
 31
0.0
 73
     1
 44
1.0
  0
POINT
  5
14AF
330
14A6
100
AcDbEntity
  8
Defpoints
 62
     0
100
AcDbPoint
 10
35.1527386799965
 20
55.64553879057985
 30
0.0
  0
POINT
  5
14B0
330
14A6
100
AcDbEntity
  8
Defpoints
 62
     0
100
AcDbPoint
 10
26.98138769230252
 20
75.64553879057985
 30
0.0
  0
POINT
  5
14B1
330
14A6
100
AcDbEntity
  8
Defpoints
 62
     0
100
AcDbPoint
 10
17.0
 20
75.64553879057985
 30
0.0
  0
ENDBLK
  5
14B2
330
14A6
100
AcDbEntity
  8
0
100
AcDbBlockEnd
  0
BLOCK
  5
14E1
330
14E0
100
AcDbEntity
  8
0
100
AcDbBlockBegin
  2
*D51
 70
     1
 10
0.0
 20
0.0
 30
0.0
  3
*D51
  1
*D52
  0
LINE
  5
14E3
330
14E0
100
AcDbEntity
  8
DIM
 62
     0
 48
0.05
370
    -2
100
AcDbLine
 10
292.782032874335
 20
417.5907690801621
 30
0.0
 11
292.782032874335
 21
391.0752302895823
 31
0.0
  0
LINE
  5
14E4
330
14E0
100
AcDbEntity
  8
DIM
 62
     0
 48
0.05
370
    -2
100
AcDbLine
 10
334.782032874335
 20
417.5907690801621
 30
0.0
 11
334.782032874335
 21
391.0752302895823
 31
0.0
  0
LINE
  5
14E5
330
14E0
100
AcDbEntity
  8
DIM
 62
     0
 48
0.05
370
    -2
100
AcDbLine
 10
295.782032874335
 20
391.0752302895823
 30
0.0
 11
331.782032874335
 21
391.0752302895823
 31
0.0
  0
INSERT
  5
14E6
330
14E0
100
AcDbEntity
  8
DIM
 62
     0
370
    -2
100
AcDbBlockReference
  2
_DOT
 10
292.782032874335
 20
391.0752302895823
 30
0.0
 41
3.0
 42
3.0
 43
3.0
 50
180.0
  0
INSERT
  5
14E7
330
14E0
100
AcDbEntity
  8
DIM
 62
     0
370
    -2
100
AcDbBlockReference
  2
_DOT
 10
334.782032874335
 20
391.0752302895823
 30
0.0
 41
3.0
 42
3.0
 43
3.0
  0
MTEXT
  5
14E8
330
14E0
100
AcDbEntity
  8
DIM
 62
     0
 48
0.05
100
AcDbMText
 10
313.782032874335
 20
373.7972302895823
 30
0.0
 40
12.0
 41
0.0
 46
0.0
 71
     5
 72
     1
  1
\A1;G1 1/4"
  7
ＭＳ ゴシック
 73
     1
 44
1.0
  0
POINT
  5
14E9
330
14E0
100
AcDbEntity
  8
Defpoints
 62
     0
100
AcDbPoint
 10
292.782032874335
 20
422.5907690801621
 30
0.0
  0
POINT
  5
14EA
330
14E0
100
AcDbEntity
  8
Defpoints
 62
     0
100
AcDbPoint
 10
334.782032874335
 20
422.5907690801621
 30
0.0
  0
POINT
  5
14EB
330
14E0
100
AcDbEntity
  8
Defpoints
 62
     0
100
AcDbPoint
 10
334.782032874335
 20
391.0752302895823
 30
0.0
  0
ENDBLK
  5
14E2
330
14E0
100
AcDbEntity
  8
0
100
AcDbBlockEnd
  0
BLOCK
  5
14ED
330
14EC
100
AcDbEntity
  8
0
100
AcDbBlockBegin
  2
*D52
 70
     1
 10
0.0
 20
0.0
 30
0.0
  3
*D52
  1
*D53
  0
LINE
  5
14EF
330
14EC
100
AcDbEntity
  8
DIM
 62
     0
 48
0.05
370
    -2
100
AcDbLine
 10
287.782032874335
 20
422.5907690801621
 30
0.0
 11
274.6292941943385
 21
422.5907690801621
 31
0.0
  0
LINE
  5
14F0
330
14EC
100
AcDbEntity
  8
DIM
 62
     0
 48
0.05
370
    -2
100
AcDbLine
 10
279.610681886641
 20
442.5907690801621
 30
0.0
 11
274.6292941943385
 21
442.5907690801621
 31
0.0
  0
LINE
  5
14F1
330
14EC
100
AcDbEntity
  8
DIM
 62
     0
 48
0.05
370
    -2
100
AcDbLine
 10
274.6292941943385
 20
422.5907690801621
 30
0.0
 11
274.6292941943385
 21
387.3347690801621
 31
0.0
  0
LINE
  5
14F2
330
14EC
100
AcDbEntity
  8
DIM
 62
     0
 48
0.05
370
    -2
100
AcDbLine
 10
274.6292941943385
 20
425.5907690801621
 30
0.0
 11
274.6292941943385
 21
439.5907690801621
 31
0.0
  0
INSERT
  5
14F3
330
14EC
100
AcDbEntity
  8
DIM
 62
     0
370
    -2
100
AcDbBlockReference
  2
_DOT
 10
274.6292941943385
 20
422.5907690801621
 30
0.0
 41
3.0
 42
3.0
 43
3.0
 50
270.0
  0
INSERT
  5
14F4
330
14EC
100
AcDbEntity
  8
DIM
 62
     0
370
    -2
100
AcDbBlockReference
  2
_DOT
 10
274.6292941943385
 20
442.5907690801621
 30
0.0
 41
3.0
 42
3.0
 43
3.0
 50
90.0
  0
MTEXT
  5
14F5
330
14EC
100
AcDbEntity
  8
DIM
 62
     0
 48
0.05
100
AcDbMText
 10
263.6292941943385
 20
399.462769080162
 30
0.0
 40
12.0
 41
0.0
 46
0.0
 71
     5
 72
     1
  1
\A1;20
  7
ＭＳ ゴシック
 11
0.0
 21
1.0
 31
0.0
 73
     1
 44
1.0
  0
POINT
  5
14F6
330
14EC
100
AcDbEntity
  8
Defpoints
 62
     0
100
AcDbPoint
 10
292.782032874335
 20
422.5907690801621
 30
0.0
  0
POINT
  5
14F7
330
14EC
100
AcDbEntity
  8
Defpoints
 62
     0
100
AcDbPoint
 10
284.610681886641
 20
442.5907690801621
 30
0.0
  0
POINT
  5
14F8
330
14EC
100
AcDbEntity
  8
Defpoints
 62
     0
100
AcDbPoint
 10
274.6292941943385
 20
442.5907690801621
 30
0.0
  0
ENDBLK
  5
14EE
330
14EC
100
AcDbEntity
  8
0
100
AcDbBlockEnd
  0
ENDSEC
  0
SECTION
  2
ENTITIES
  0
MTEXT
  5
177
330
A
100
AcDbEntity
  8
TEMPLATE
390
1D
100
AcDbMText
 10
39.60107227386538
 20
171.8658758157141
 30
0.0
 40
8.144205729166663
 41
0.0
 46
0.0
 71
     1
 72
     1
  1
品名
  7
ＭＳ ゴシック
 73
     1
 44
0.7828267384257843
  0
MTEXT
  5
178
330
A
100
AcDbEntity
  8
TEMPLATE
390
1D
100
AcDbMText
 10
39.60107227386538
 20
129.365875815714
 30
0.0
 40
8.144205729166663
 41
0.0
 46
0.0
 71
     1
 72
     1
  1
仕様
  7
ＭＳ ゴシック
 73
     1
 44
0.7828267384257843
  0
LINE
  5
179
330
A
100
AcDbEntity
  8
TEMPLATE
390
1D
100
AcDbLine
 10
1011.101072273624
 20
133.5733367532142
 30
0.0
 11
36.10107227362437
 21
133.5733367532142
 31
0.0
  0
LWPOLYLINE
  5
17A
330
A
100
AcDbEntity
  8
TEMPLATE
390
1D
100
AcDbPolyline
 90
        5
 70
   128
 43
0.0
 10
1011.101072273624
 20
1448.573336753213
 10
36.10107227362437
 20
1448.573336753213
 10
36.10107227362437
 20
48.57333675321413
 10
1011.101072273624
 20
48.57333675321413
 10
1011.101072273624
 20
1448.573336753213
  0
LINE
  5
17B
330
A
100
AcDbEntity
  8
TEMPLATE
390
1D
100
AcDbLine
 10
1011.101072273624
 20
176.0733367532141
 30
0.0
 11
36.10107227362437
 21
176.0733367532141
 31
0.0
  0
LINE
  5
17C
330
A
100
AcDbEntity
  8
TEMPLATE
390
1D
100
AcDbLine
 10
1011.101072273866
 20
91.07333675321412
 30
0.0
 11
634.601072273865
 21
91.07333675321412
 31
0.0
  0
MTEXT
  5
17E
330
A
100
AcDbEntity
  8
TEMPLATE
390
1D
100
AcDbMText
 10
649.5367753999956
 20
76.11813951656006
 30
0.0
 40
12.21630859375
 41
0.0
 46
0.0
 71
     1
 72
     1
  1
大洋金物株式会社 ティーフォルム事業部
  7
ＭＳ ゴシック
 73
     1
 44
0.7828267384257843
  0
MTEXT
  5
180
330
A
100
AcDbEntity
  8
TEMPLATE
390
1D
100
AcDbMText
 10
915.601072273995
 20
115.0746453469641
 30
0.0
 40
12.21630859375
 41
0.0
 46
12.21630859375
 71
     1
 72
     1
  1
{1:5}
  7
ＭＳ ゴシック
 73
     1
 44
0.7828267384257843
1001
ACAD
1000
ACAD_MTEXT_DEFINED_HEIGHT_BEGIN
1070
    46
1040
12.21630859375
1000
ACAD_MTEXT_DEFINED_HEIGHT_END
  0
MTEXT
  5
181
330
A
100
AcDbEntity
  8
TEMPLATE
390
1D
100
AcDbMText
 10
889.101072273995
 20
129.365875815714
 30
0.0
 40
8.144205729166663
 41
0.0
 46
0.0
 71
     1
 72
     1
  1
縮尺
  7
ＭＳ ゴシック
 73
     1
 44
0.7828267384257843
  0
LINE
  5
182
330
A
100
AcDbEntity
  8
TEMPLATE
390
1D
100
AcDbLine
 10
885.601072273995
 20
91.07333675321412
 30
0.0
 11
885.601072273995
 21
133.5733367532142
 31
0.0
  0
MTEXT
  5
183
330
A
100
AcDbEntity
  8
TEMPLATE
390
1D
100
AcDbMText
 10
763.601072273995
 20
129.365875815714
 30
0.0
 40
8.144205729166663
 41
0.0
 46
0.0
 71
     1
 72
     1
  1
容量
  7
ＭＳ ゴシック
 73
     1
 44
0.7828267384257843
  0
LINE
  5
184
330
A
100
AcDbEntity
  8
TEMPLATE
390
1D
100
AcDbLine
 10
760.101072273995
 20
91.07333675321412
 30
0.0
 11
760.101072273995
 21
133.5733367532142
 31
0.0
  0
MTEXT
  5
185
330
A
100
AcDbEntity
  8
TEMPLATE
390
1D
100
AcDbMText
 10
638.101072273995
 20
171.8658758157141
 30
0.0
 40
8.144205729166663
 41
0.0
 46
0.0
 71
     1
 72
     1
  1
品番
  7
ＭＳ ゴシック
 73
     1
 44
0.7828267384257843
  0
MTEXT
  5
186
330
A
100
AcDbEntity
  8
TEMPLATE
390
1D
100
AcDbMText
 10
638.101072273995
 20
129.365875815714
 30
0.0
 40
8.144205729166663
 41
0.0
 46
0.0
 71
     1
 72
     1
  1
重量
  7
ＭＳ ゴシック
 73
     1
 44
0.7828267384257843
  0
MTEXT
  5
187
330
A
100
AcDbEntity
  8
TEMPLATE
390
1D
100
AcDbMText
 10
664.601072273995
 20
157.5746453469641
 30
0.0
 40
12.21630859375
 41
0.0
 46
12.21630859375
 71
     1
 72
     1
  1
{BRS70-0103}
  7
ＭＳ ゴシック
 73
     1
 44
0.7828267384257843
1001
ACAD
1000
ACAD_MTEXT_DEFINED_HEIGHT_BEGIN
1070
    46
1040
12.21630859375
1000
ACAD_MTEXT_DEFINED_HEIGHT_END
  0
LINE
  5
188
330
A
100
AcDbEntity
  8
TEMPLATE
390
1D
100
AcDbLine
 10
634.601072273995
 20
48.57333675321413
 30
0.0
 11
634.601072273995
 21
176.0733367532141
 31
0.0
  0
MTEXT
  5
189
330
A
100
AcDbEntity
  8
TEMPLATE
390
1D
100
AcDbMText
 10
66.10107227386537
 20
157.5746453469641
 30
0.0
 40
12.21630859375
 41
0.0
 46
13.76777978515625
 71
     1
 72
     1
  1
{手洗器　-CLOU, First-}
  7
ＭＳ ゴシック
 73
     1
 44
0.7828267384257843
1001
ACAD
1000
ACAD_MTEXT_DEFINED_HEIGHT_BEGIN
1070
    46
1040
13.76777978515625
1000
ACAD_MTEXT_DEFINED_HEIGHT_END
  0
INSERT
  5
6B5
330
A
100
AcDbEntity
  8
TEMPLATE
100
AcDbBlockReference
  2
名称未設定-1
 10
935.3753740442249
 20
12.97338287832691
 30
0.0
 41
0.3809999999999999
 42
0.3809999999999999
 43
0.3809999999999999
  0
MTEXT
  5
7D9
330
A
100
AcDbEntity
  8
TEMPLATE
390
1D
100
AcDbMText
 10
62.62717263801819
 20
113.4059880146976
 30
0.0
 40
12.21630859375
 41
0.0
 46
49.52345361328125
 71
     1
 72
     1
  1
{壁掛け/オーバーフローなし/\P排水目皿(水溜め不可)、壁取付ボルト付属/\P陶器}
  7
ＭＳ ゴシック
 73
     1
 44
0.8840641112754306
1001
ACAD
1000
ACAD_MTEXT_DEFINED_HEIGHT_BEGIN
1070
    46
1040
49.52345361328125
1000
ACAD_MTEXT_DEFINED_HEIGHT_END
  0
INSERT
  5
68C
330
A
100
AcDbEntity
  8
TEMPLATE
100
AcDbBlockReference
  2
block 2
 10
919.2743017702577
 20
8.373076514336368
 30
0.0
 41
0.3809999999999999
 42
0.3809999999999999
 43
0.3809999999999999
  0
MTEXT
  5
D60
330
A
100
AcDbEntity
  8
TEMPLATE
390
1D
100
AcDbMText
 10
664.601072273865
 20
115.0746453469641
 30
0.0
 40
12.21630859375
 41
0.0
 46
14.1953505859375
 71
     1
 72
     1
  1
{3.55kg}
  7
ＭＳ ゴシック
 73
     1
 44
0.7828267384257843
1001
ACAD
1000
ACAD_MTEXT_DEFINED_HEIGHT_BEGIN
1070
    46
1040
14.1953505859375
1000
ACAD_MTEXT_DEFINED_HEIGHT_END
  0
LWPOLYLINE
  5
D69
330
A
100
AcDbEntity
  8
BORDER
 48
0.05
100
AcDbPolyline
 90
        4
 70
     1
 43
0.0
 10
0.0
 20
0.0
 10
0.0
 20
1485.0
 10
1050.0
 20
1485.0
 10
1050.0
 20
0.0
  0
LINE
  5
F6F
330
A
100
AcDbEntity
  8
MODEL
  6
Continuous
100
AcDbLine
 10
558.7887347064993
 20
532.5907690801621
 30
0.0
 11
558.7882642826758
 21
517.5907693109482
 31
0.0
  0
SPLINE
  5
F70
330
A
100
AcDbEntity
  8
MODEL
  6
Continuous
100
AcDbSpline
210
0.0
220
0.0
230
1.0
 70
     8
 71
     3
 72
    30
 73
    26
 74
     0
 42
0.000000001
 43
0.00000001
 40
0.0
 40
0.0
 40
0.0
 40
0.0
 40
0.0526894270844426
 40
0.1037531216969955
 40
0.1525555681053524
 40
0.1986236445000496
 40
0.2416128182651468
 40
0.2812921409273543
 40
0.3175183684654129
 40
0.3502062766810715
 40
0.3793152801126615
 40
0.4048434462816882
 40
0.427002551979009
 40
0.4505230952341829
 40
0.4832799744379122
 40
0.5209769494576195
 40
0.5636091479945443
 40
0.6111693640945862
 40
0.6636522974249102
 40
0.7111482890478095
 40
0.762062144039909
 40
0.816396855996086
 40
0.8741581193569733
 40
0.9353549147472747
 40
1.0
 40
1.0
 40
1.0
 40
1.0
 10
554.0373002556685
 20
517.8159145113432
 30
0.0
 10
550.4166887805864
 20
517.7681540721251
 30
0.0
 10
543.2871798111978
 20
517.6741068422132
 30
0.0
 10
532.6652427941249
 20
516.5643903309622
 30
0.0
 10
522.4956561244858
 20
514.8695534510341
 30
0.0
 10
512.9146140428516
 20
512.64835635042
 30
0.0
 10
504.0298757979785
 20
510.0496003678431
 30
0.0
 10
495.9059866292905
 20
507.1971337133631
 30
0.0
 10
488.5766939815971
 20
504.2166350010971
 30
0.0
 10
482.051618661239
 20
501.2194961007822
 30
0.0
 10
476.3242978516887
 20
498.303434715003
 30
0.0
 10
471.3628857401659
 20
495.5497660934641
 30
0.0
 10
466.8365682367826
 20
492.8415130425942
 30
0.0
 10
461.9351439965199
 20
489.7223905334261
 30
0.0
 10
456.2616626955883
 20
485.6900445254442
 30
0.0
 10
449.3615016985154
 20
480.9437869237643
 30
0.0
 10
441.3511123776793
 20
475.8864576188041
 30
0.0
 10
432.2069394549203
 20
470.5884556064202
 30
0.0
 10
422.518232954108
 20
465.5302082755232
 30
0.0
 10
412.3950889482826
 20
460.7923474766083
 30
0.0
 10
401.9507097103947
 20
456.440721448665
 30
0.0
 10
390.6033119999288
 20
452.3090748369191
 30
0.0
 10
378.3375134181065
 20
448.5233756663193
 30
0.0
 10
365.1590940902265
 20
445.1383709494121
 30
0.0
 10
355.9909612204888
 20
443.4553423555751
 30
0.0
 10
351.2812832663426
 20
442.5907690801621
 30
0.0
  0
LINE
  5
F71
102
{ACAD_REACTORS
330
116C
102
}
330
A
100
AcDbEntity
  8
HIDDEN
  6
HIDDEN
 48
0.025
100
AcDbLine
 10
263.2820328743351
 20
480.0758453030268
 30
0.0
 11
263.2820328743351
 21
475.3141464821317
 31
0.0
  0
ARC
  5
F73
102
{ACAD_REACTORS
330
116C
102
}
330
A
100
AcDbEntity
  8
HIDDEN
  6
HIDDEN
 48
0.025
100
AcDbCircle
 10
255.7820328743351
 20
472.5907690801621
 30
0.0
 40
7.50000000000067
100
AcDbArc
 50
180.0
 51
0.0000093750015949
  0
LINE
  5
F75
330
A
100
AcDbEntity
  8
MODEL
  6
Continuous
100
AcDbLine
 10
170.7820328743351
 20
442.5907690801621
 30
0.0
 11
170.7820328743351
 21
532.5907690801621
 31
0.0
  0
ARC
  5
F78
102
{ACAD_REACTORS
330
116C
102
}
330
A
100
AcDbEntity
  8
HIDDEN
  6
HIDDEN
 48
0.025
100
AcDbCircle
 10
255.7820328743351
 20
482.5907690801621
 30
0.0
 40
7.500000000000568
100
AcDbArc
 50
0.0
 51
180.0
  0
LINE
  5
F7A
330
A
100
AcDbEntity
  8
MODEL
  6
Continuous
100
AcDbLine
 10
345.7820328743351
 20
532.5907690801621
 30
0.0
 11
170.7820328743351
 21
532.5907690801621
 31
0.0
  0
LINE
  5
F7B
330
A
100
AcDbEntity
  8
MODEL
  6
Continuous
100
AcDbLine
 10
345.7820328743351
 20
442.5907690801621
 30
0.0
 11
170.7820328743351
 21
442.5907690801621
 31
0.0
  0
LINE
  5
F7C
330
A
100
AcDbEntity
  8
HIDDEN
  6
HIDDEN
 48
0.05
100
AcDbLine
 10
345.7820328743351
 20
442.5907690801621
 30
0.0
 11
345.7820328743351
 21
532.5907690801621
 31
0.0
  0
SPLINE
  5
F7D
330
A
100
AcDbEntity
  8
MODEL
  6
Continuous
100
AcDbSpline
210
0.0
220
0.0
230
1.0
 70
    24
 71
     3
 72
    28
 73
    24
 74
     0
 42
0.000000001
 43
0.00000001
 40
0.0
 40
0.0
 40
0.0
 40
0.0
 40
0.0541705912430148
 40
0.1099059578518007
 40
0.1670660579244086
 40
0.2337137161435502
 40
0.3016648669423351
 40
0.3705708244743777
 40
0.4399768918015993
 40
0.4943597019592631
 40
0.5480281606312885
 40
0.6004742071019044
 40
0.651179080324832
 40
0.6953801687508744
 40
0.7374746859512972
 40
0.7772290201340278
 40
0.8146498945777725
 40
0.849842191076388
 40
0.8829687685494618
 40
0.9142871693038332
 40
0.9440761472367508
 40
0.9726001946943963
 40
1.0
 40
1.0
 40
1.0
 40
1.0
 10
345.7820328743351
 20
532.5907690801621
 30
0.0
 10
350.4632078179807
 20
532.5907690801621
 30
0.0
 10
359.9607784415807
 20
532.5907690801621
 30
0.0
 10
374.3786813286956
 20
532.5907690801621
 30
0.0
 10
389.8335706454914
 20
532.5907690801621
 30
0.0
 10
406.2701453044378
 20
532.5907690801621
 30
0.0
 10
423.593495410069
 20
532.5907690801621
 30
0.0
 10
440.9786144709747
 20
532.5907690801621
 30
0.0
 10
456.9965591264213
 20
532.5907690801621
 30
0.0
 10
471.4975157592366
 20
532.5907690801621
 30
0.0
 10
484.365071259565
 20
532.5907690801621
 30
0.0
 10
496.6269419357654
 20
532.5907690801621
 30
0.0
 10
507.7742577495324
 20
532.5907690801621
 30
0.0
 10
517.7258402954199
 20
532.5907690801621
 30
0.0
 10
526.4426686616303
 20
532.5907690801621
 30
0.0
 10
534.1758875811088
 20
532.5907690801621
 30
0.0
 10
540.8746893845914
 20
532.5907690801621
 30
0.0
 10
546.5150792898589
 20
532.5907690801621
 30
0.0
 10
551.0724649015706
 20
532.5907690801621
 30
0.0
 10
554.5713632996581
 20
532.5907690801621
 30
0.0
 10
557.0108908701172
 20
532.5907690801621
 30
0.0
 10
558.5049022943663
 20
532.5907690801621
 30
0.0
 10
558.694614462011
 20
532.5907690801621
 30
0.0
 10
558.7875636456033
 20
532.5907690801621
 30
0.0
  0
SPLINE
  5
F7E
330
A
100
AcDbEntity
  8
MODEL
  6
Continuous
100
AcDbSpline
210
0.0
220
0.0
230
1.0
 70
     8
 71
     3
 72
    28
 73
    24
 74
     0
 42
0.000000001
 43
0.00000001
 40
0.0
 40
0.0
 40
0.0
 40
0.0
 40
0.0546055766519828
 40
0.1107963369121332
 40
0.1684087414238184
 40
0.2354831944574362
 40
0.3037981577236845
 40
0.3729784955123882
 40
0.442550626696224
 40
0.4969884431098125
 40
0.5506562555963667
 40
0.6030544988066288
 40
0.6536740223155775
 40
0.6977710558652043
 40
0.7397399090909511
 40
0.779348599981999
 40
0.8165943932714731
 40
0.8515713103373403
 40
0.8844342331958952
 40
0.9154368259030443
 40
0.9448635550146142
 40
0.972997352675376
 40
1.0
 40
1.0
 40
1.0
 40
1.0
 10
360.0826713843092
 20
524.0830544717144
 30
0.0
 10
360.1670778886028
 20
524.0797263830295
 30
0.0
 10
359.9965399950111
 20
524.0893922161501
 30
0.0
 10
374.4465613960442
 20
523.6900434682373
 30
0.0
 10
389.9247203099608
 20
523.2453362268941
 30
0.0
 10
406.3692220323524
 20
522.7560244330391
 30
0.0
 10
423.680213101065
 20
522.227969505207
 30
0.0
 10
441.0332714729616
 20
521.6899364649521
 30
0.0
 10
457.0067315856745
 20
521.1897745942451
 30
0.0
 10
471.4562709673942
 20
520.7333011972562
 30
0.0
 10
484.2712553908227
 20
520.3235325235521
 30
0.0
 10
496.4834696575731
 20
519.9267858032372
 30
0.0
 10
507.5916367846899
 20
519.5577012699191
 30
0.0
 10
517.5174298937877
 20
519.2188808054352
 30
0.0
 10
526.2229100747741
 20
518.9124060401753
 30
0.0
 10
533.9604885157628
 20
518.6289836583501
 30
0.0
 10
540.6783336963731
 20
518.3724561892791
 30
0.0
 10
546.3498533065526
 20
518.1460884185663
 30
0.0
 10
550.9477071701281
 20
517.9530842124741
 30
0.0
 10
554.4907992635876
 20
517.7965805691251
 30
0.0
 10
556.9707379642882
 20
517.681416045493
 30
0.0
 10
558.4972453339601
 20
517.6058953335901
 30
0.0
 10
558.6916266065259
 20
517.5957909479453
 30
0.0
 10
558.786823330784
 20
517.5908424032582
 30
0.0
  0
SPLINE
  5
F7F
330
A
100
AcDbEntity
  8
MODEL
  6
Continuous
100
AcDbSpline
210
0.0
220
0.0
230
1.0
 70
    24
 71
     3
 72
    10
 73
     6
 74
     0
 42
0.000000001
 43
0.00000001
 40
0.0
 40
0.0
 40
0.0
 40
0.0
 40
0.3307731255371281
 40
0.6659098970343891
 40
1.0
 40
1.0
 40
1.0
 40
1.0
 10
345.7820328775147
 20
442.5907690801621
 30
0.0
 10
346.8429762796391
 20
442.5907690801621
 30
0.0
 10
348.9788593279468
 20
442.5907690801621
 30
0.0
 10
350.8766398659232
 20
442.5907690801621
 30
0.0
 10
351.1436451193972
 20
442.5907690801621
 30
0.0
 10
351.276938948477
 20
442.5907690801621
 30
0.0
  0
LINE
  5
F80
330
A
100
AcDbEntity
  8
MODEL
  6
Continuous
100
AcDbLine
 10
225.4299018441911
 20
993.2467193531372
 30
0.0
 11
225.6458910006427
 21
993.0028414679985
 31
0.0
  0
SPLINE
  5
F81
330
A
100
AcDbEntity
  8
MODEL
  6
Continuous
100
AcDbSpline
210
0.0
220
0.0
230
1.0
 70
     8
 71
     3
 72
    52
 73
    48
 74
     0
 42
0.000000001
 43
0.00000001
 40
0.2779334319953601
 40
0.2779334319953601
 40
0.2779334319953601
 40
0.2779334319953601
 40
0.3125
 40
0.34375
 40
0.359375
 40
0.390625
 40
0.3984375
 40
0.41015625
 40
0.4140625
 40
0.42578125
 40
0.453125
 40
0.484375
 40
0.4921875
 40
0.5
 40
0.5078125
 40
0.515625
 40
0.546875
 40
0.57421875
 40
0.5859375
 40
0.58984375
 40
0.6015625
 40
0.609375
 40
0.640625
 40
0.65625
 40
0.6875
 40
0.71484375
 40
0.71875
 40
0.7265625
 40
0.734375
 40
0.7421875
 40
0.75
 40
0.7578125
 40
0.765625
 40
0.78125
 40
0.796875
 40
0.8037109375
 40
0.828125
 40
0.84375
 40
0.890625
 40
0.8984375
 40
0.91015625
 40
0.9140625
 40
0.92578125
 40
0.98515625
 40
0.9888671875
 40
0.992578125
 40
1.0
 40
1.0
 40
1.0
 40
1.0
 10
345.7820328743351
 20
1170.991308731295
 30
0.0
 10
359.6104341992345
 20
1170.935506548489
 30
0.0
 10
387.2052125178548
 20
1169.504058211606
 30
0.0
 10
423.1972488317429
 20
1163.804348468401
 30
0.0
 10
457.7809945929571
 20
1155.010846298191
 30
0.0
 10
481.3986764856768
 20
1146.325547455893
 30
0.0
 10
501.1622700819084
 20
1136.408069791834
 30
0.0
 10
509.6750751174354
 20
1131.435695577152
 30
0.0
 10
518.926011227772
 20
1125.326544963803
 30
0.0
 10
532.3348833658479
 20
1115.275446503406
 30
0.0
 10
548.9534727134401
 20
1097.487817127706
 30
0.0
 10
556.620123148316
 20
1079.950077584457
 30
0.0
 10
558.57187625101
 20
1067.880333832499
 30
0.0
 10
558.8971684385638
 20
1061.994368519038
 30
0.0
 10
558.5718762545534
 20
1056.108403204628
 30
0.0
 10
556.6201231278997
 20
1044.038659446935
 30
0.0
 10
548.9534726898514
 20
1026.500919904193
 30
0.0
 10
532.3348821211061
 20
1008.713290313907
 30
0.0
 10
518.9260135874888
 20
998.6621924867902
 30
0.0
 10
509.6750728363354
 20
992.5530410580725
 30
0.0
 10
501.1622799170459
 20
987.5806689721396
 30
0.0
 10
481.3986513327859
 20
977.6631851609675
 30
0.0
 10
457.7809118011742
 20
968.9778762033786
 30
0.0
 10
423.1973664042475
 20
960.1844091937785
 30
0.0
 10
390.3955471878967
 20
954.9845926364253
 30
0.0
 10
364.0384016195117
 20
953.3165619137624
 30
0.0
 10
348.1907126154715
 20
953.0026900390405
 30
0.0
 10
340.3831429774532
 20
952.9578990164125
 30
0.0
 10
331.2411008233998
 20
953.2690726836665
 30
0.0
 10
322.3881621326677
 20
953.9046457438274
 30
0.0
 10
313.7275329464051
 20
954.8574555857483
 30
0.0
 10
305.492703916289
 20
956.0548141274564
 30
0.0
 10
295.3919862865682
 20
957.8804396734783
 30
0.0
 10
283.8218272399631
 20
960.5503381545752
 30
0.0
 10
273.5702906830652
 20
963.5460900926416
 30
0.0
 10
261.6477254562074
 20
967.4996286900316
 30
0.0
 10
251.1270102429503
 20
972.5080014779235
 30
0.0
 10
234.3095070485747
 20
983.5597839204936
 30
0.0
 10
223.7454386349659
 20
994.3266457705215
 30
0.0
 10
215.8478923262833
 20
1005.414729923046
 30
0.0
 10
213.3223218371445
 20
1009.43955710945
 30
0.0
 10
210.6156748030503
 20
1014.228968205476
 30
0.0
 10
203.846359507394
 20
1027.614245177454
 30
0.0
 10
199.9980865325365
 20
1041.96914869313
 30
0.0
 10
198.9904883546574
 20
1055.282044387361
 30
0.0
 10
198.8302829379559
 20
1058.252906206327
 30
0.0
 10
198.7820328743351
 20
1060.494494434399
 30
0.0
 10
198.7820328743351
 20
1061.994368518
 30
0.0
  0
LINE
  5
F82
102
{ACAD_REACTORS
330
FCD
102
}
330
A
100
AcDbEntity
  8
MODEL
  6
Continuous
100
AcDbLine
 10
170.7820328743351
 20
1061.994368518
 30
0.0
 11
198.7820328743351
 21
1061.994368518
 31
0.0
  0
LINE
  5
F83
102
{ACAD_REACTORS
330
FC7
330
FCA
330
FCD
102
}
330
A
100
AcDbEntity
  8
MODEL
  6
Continuous
100
AcDbLine
 10
170.7820328743351
 20
1198.994368518
 30
0.0
 11
170.7820328743351
 21
1061.994368518
 31
0.0
  0
LINE
  5
F84
330
A
100
AcDbEntity
  8
MODEL
  6
Continuous
100
AcDbLine
 10
345.7820328743351
 20
1198.994368518
 30
0.0
 11
170.7820328743351
 21
1198.994368518
 31
0.0
  0
LINE
  5
F85
102
{ACAD_REACTORS
330
FCA
102
}
330
A
100
AcDbEntity
  8
MODEL
  6
Continuous
100
AcDbLine
 10
345.7820234672899
 20
1170.989562625903
 30
0.0
 11
345.7820328743351
 21
1198.994368518
 31
0.0
  0
CIRCLE
  5
F86
102
{ACAD_REACTORS
330
FC7
102
}
330
A
100
AcDbEntity
  8
MODEL
  6
Continuous
100
AcDbCircle
 10
213.7820328743351
 20
1155.994368518
 30
0.0
 40
17.5
  0
SPLINE
  5
F87
330
A
100
AcDbEntity
  8
MODEL
  6
Continuous
100
AcDbSpline
210
0.0
220
0.0
230
1.0
 70
     8
 71
     3
 72
     9
 73
     5
 74
     0
 42
0.000000001
 43
0.00000001
 40
0.0
 40
0.0
 40
0.0
 40
0.0
 40
0.3431233587776801
 40
0.9999999999999999
 40
0.9999999999999999
 40
0.9999999999999999
 40
0.9999999999999999
 10
912.7286957399558
 20
518.5599274528042
 30
0.0
 10
912.9356609157696
 20
519.2694912273371
 30
0.0
 10
913.5388409981458
 20
521.3374465453901
 30
0.0
 10
913.6033491112319
 20
522.8176799101941
 30
0.0
 10
913.6457229839
 20
523.7900106310931
 30
0.0
  0
SPLINE
  5
F88
330
A
100
AcDbEntity
  8
MODEL
  6
Continuous
100
AcDbSpline
210
0.0
220
0.0
230
1.0
 70
     8
 71
     3
 72
    29
 73
    25
 74
     0
 42
0.000000001
 43
0.00000001
 40
0.0
 40
0.0
 40
0.0
 40
0.0
 40
0.0490668920437238
 40
0.0913450048213473
 40
0.1267562471722029
 40
0.1552608144223016
 40
0.1777582734165458
 40
0.2654219967713143
 40
0.317335588734959
 40
0.3690463404579981
 40
0.4198351021217391
 40
0.4703226589784322
 40
0.5032480005970202
 40
0.5345760188977379
 40
0.564318171402393
 40
0.5925188681187725
 40
0.6199470831707313
 40
0.6528743672449409
 40
0.692845459467384
 40
0.739924932299133
 40
0.7941541089733385
 40
0.85556252996767
 40
0.9241722262356189
 40
0.9999999999999999
 40
0.9999999999999999
 40
0.9999999999999999
 40
0.9999999999999999
 10
699.7672719733239
 20
524.4592044947942
 30
0.0
 10
700.1823427116326
 20
523.0082393925522
 30
0.0
 10
700.955055981475
 20
520.3070612918211
 30
0.0
 10
702.2455854398506
 20
516.4705813929261
 30
0.0
 10
703.438499456847
 20
513.2264707168811
 30
0.0
 10
704.4927773341849
 20
510.5670398933661
 30
0.0
 10
706.2852021716537
 20
506.2868427166952
 30
0.0
 10
708.6910157169839
 20
501.1430170277351
 30
0.0
 10
711.9503690368222
 20
495.0681299923752
 30
0.0
 10
714.890571690856
 20
490.0961169209011
 30
0.0
 10
718.1152946943619
 20
485.152362097812
 30
0.0
 10
721.192041843912
 20
480.8808921717662
 30
0.0
 10
723.9607804225309
 20
477.3281568976461
 30
0.0
 10
726.2944820295672
 20
474.512308420134
 30
0.0
 10
728.5618415648207
 20
471.9328138152352
 30
0.0
 10
730.767910953022
 20
469.5575266211752
 30
0.0
 10
733.061876394728
 20
467.2124755377492
 30
0.0
 10
735.8265193815389
 20
464.5490046451462
 30
0.0
 10
739.2849734993727
 20
461.4485318296072
 30
0.0
 10
743.545519236621
 20
457.9470824733662
 30
0.0
 10
748.6718890762861
 20
454.1477700339321
 30
0.0
 10
754.7368516978897
 20
450.1859609139663
 30
0.0
 10
761.783901317948
 20
446.1667528423473
 30
0.0
 10
766.9717379085271
 20
443.8218252514862
 30
0.0
 10
769.6952839470107
 20
442.5907690801621
 30
0.0
  0
SPLINE
  5
F89
330
A
100
AcDbEntity
  8
MODEL
  6
Continuous
100
AcDbSpline
210
0.0
220
0.0
230
1.0
 70
     8
 71
     3
 72
    11
 73
     7
 74
     0
 42
0.000000001
 43
0.00000001
 40
0.0
 40
0.0
 40
0.0
 40
0.0
 40
0.260279357115652
 40
0.503908429910666
 40
0.7476471219588906
 40
1.0
 40
1.0
 40
1.0
 40
1.0
 10
698.1946895825242
 20
532.5907690801621
 30
0.0
 10
698.3064469767926
 20
531.9241187105772
 30
0.0
 10
698.5228125529977
 20
530.6334641432672
 30
0.0
 10
698.9199430699448
 20
528.5090313329611
 30
0.0
 10
699.3295179399499
 20
526.4491006507501
 30
0.0
 10
699.6137560268328
 20
525.1488874352881
 30
0.0
 10
699.7583428402361
 20
524.48749230832
 30
0.0
  0
SPLINE
  5
F8A
330
A
100
AcDbEntity
  8
MODEL
  6
Continuous
100
AcDbSpline
210
0.0
220
0.0
230
1.0
 70
    24
 71
     3
 72
    21
 73
    17
 74
     0
 42
0.000000001
 43
0.00000001
 40
0.0
 40
0.0
 40
0.0
 40
0.0
 40
0.0853652878392613
 40
0.171856736979597
 40
0.2586617419792249
 40
0.3339392726917902
 40
0.4090549193418876
 40
0.4834843933290994
 40
0.5567841315275953
 40
0.6291820325603512
 40
0.7015793406617957
 40
0.7748778081856362
 40
0.8493064363393236
 40
0.924429499646862
 40
0.9997027322880112
 40
1.0
 40
1.0
 40
1.0
 40
1.0
 10
826.755096490888
 20
442.5907690801621
 30
0.0
 10
824.7565121293958
 20
442.5907690801621
 30
0.0
 10
820.7329775565379
 20
442.5907690801621
 30
0.0
 10
814.079650494569
 20
442.5907690801621
 30
0.0
 10
807.5012678012938
 20
442.5907690801621
 30
0.0
 10
801.2156077855036
 20
442.5907690801621
 30
0.0
 10
795.4172448543397
 20
442.5907690801621
 30
0.0
 10
789.9500035874082
 20
442.5907690801621
 30
0.0
 10
784.9545374590668
 20
442.5907690801621
 30
0.0
 10
780.5447584144129
 20
442.5907690801621
 30
0.0
 10
776.781498334524
 20
442.5907690801621
 30
0.0
 10
773.7440682640738
 20
442.5907690801621
 30
0.0
 10
771.4467401298682
 20
442.5907690801621
 30
0.0
 10
770.1080408397686
 20
442.5907690801621
 30
0.0
 10
769.530847618051
 20
442.5907690801621
 30
0.0
 10
769.696556239069
 20
442.5907690801621
 30
0.0
 10
769.6972080783669
 20
442.5907690801621
 30
0.0
  0
SPLINE
  5
F8B
330
A
100
AcDbEntity
  8
MODEL
  6
Continuous
100
AcDbSpline
210
0.0
220
0.0
230
1.0
 70
     8
 71
     3
 72
    49
 73
    45
 74
     0
 42
0.000000001
 43
0.00000001
 40
0.0
 40
0.0
 40
0.0
 40
0.0
 40
0.0272842761292016
 40
0.0553606066589342
 40
0.0841472773534374
 40
0.1176617645174136
 40
0.1517960862441471
 40
0.1863628018557823
 40
0.2211252813405198
 40
0.2483257342240295
 40
0.2751414461881333
 40
0.3013228039191471
 40
0.3266154048150049
 40
0.3486489719635536
 40
0.3696191704386142
 40
0.3894100878805291
 40
0.4080203575831616
 40
0.4254969583606878
 40
0.4419172787136806
 40
0.4574080646737684
 40
0.4721114530799805
 40
0.4861688140860095
 40
0.499701808459991
 40
0.5132348028364755
 40
0.5272921638516059
 40
0.5419955522808347
 40
0.5574863383315842
 40
0.5739066589223623
 40
0.5913832600479634
 40
0.609993529580255
 40
0.629784445440547
 40
0.6507546428932934
 40
0.672788209972561
 40
0.6985495257437675
 40
0.7252273571895789
 40
0.7525536073637058
 40
0.7802640155199836
 40
0.8080810917161126
 40
0.8443322313193726
 40
0.8801308710207006
 40
0.9152574081197279
 40
0.9446046221840616
 40
0.973210742228014
 40
1.0
 40
1.0
 40
1.0
 40
1.0
 10
914.6203833258699
 20
524.4515543145651
 30
0.0
 10
914.531429439209
 20
524.3319905816002
 30
0.0
 10
914.350939361095
 20
524.0893922161501
 30
0.0
 10
913.4567278505499
 20
523.6900434682373
 30
0.0
 10
911.9959553136507
 20
523.2453362268941
 30
0.0
 10
909.7932389685809
 20
522.7560244330432
 30
0.0
 10
906.695829876662
 20
522.2279695051852
 30
0.0
 10
902.7239570807362
 20
521.689936465043
 30
0.0
 10
898.1663580875099
 20
521.189774593932
 30
0.0
 10
893.2144114009791
 20
520.7333011981402
 30
0.0
 10
888.095341806373
 20
520.3235325203111
 30
0.0
 10
882.404561009171
 20
519.9267858148571
 30
0.0
 10
876.347587522316
 20
519.5577012304282
 30
0.0
 10
870.0502238605407
 20
519.2188809294432
 30
0.0
 10
863.641283057478
 20
518.9124056105773
 30
0.0
 10
856.959598748472
 20
518.6289851267261
 30
0.0
 10
850.0680054328038
 20
518.3724511928681
 30
0.0
 10
843.018818497869
 20
518.1461053999972
 30
0.0
 10
835.8548373971719
 20
517.9530263663371
 30
0.0
 10
828.6374901382949
 20
517.7967790015441
 30
0.0
 10
821.423433079108
 20
517.6807287759082
 30
0.0
 10
814.2750084744478
 20
517.6082282823672
 30
0.0
 10
807.1945660864151
 20
517.5822053889001
 30
0.0
 10
800.1141236960832
 20
517.6082282823752
 30
0.0
 10
792.965699087945
 20
517.6807287759411
 30
0.0
 10
785.7516420124009
 20
517.7967790018022
 30
0.0
 10
778.5342947262036
 20
517.9530263671602
 30
0.0
 10
771.3703135939938
 20
518.1461054005281
 30
0.0
 10
764.3211267585209
 20
518.3724511907542
 30
0.0
 10
757.4295334991409
 20
518.6289851114832
 30
0.0
 10
750.747849503394
 20
518.9124056314593
 30
0.0
 10
744.338906676647
 20
519.2188808775402
 30
0.0
 10
737.9983335007421
 20
519.5600267900202
 30
0.0
 10
731.8690230526479
 20
519.9340005124841
 30
0.0
 10
726.091721168603
 20
520.3383315386031
 30
0.0
 10
720.9074010295446
 20
520.7559827844862
 30
0.0
 10
716.3268781765148
 20
521.1821837887671
 30
0.0
 10
711.9544369364742
 20
521.657437029419
 30
0.0
 10
708.0202150860139
 20
522.1768569548631
 30
0.0
 10
704.7117486623399
 20
522.7310635349361
 30
0.0
 10
702.4061404916499
 20
523.2402531879932
 30
0.0
 10
700.91541937535
 20
523.6981232590381
 30
0.0
 10
700.0347070815549
 20
524.1000008072451
 30
0.0
 10
699.8600818085472
 20
524.3418289927481
 30
0.0
 10
699.775632859252
 20
524.4587773348912
 30
0.0
  0
LINE
  5
F8C
330
A
100
AcDbEntity
  8
MODEL
  6
Continuous
100
AcDbLine
 10
699.76274938148
 20
524.471979159794
 30
0.0
 11
699.7733225993659
 21
524.4855086754922
 31
0.0
  0
SPLINE
  5
F8D
330
A
100
AcDbEntity
  8
MODEL
  6
Continuous
100
AcDbSpline
210
0.0
220
0.0
230
1.0
 70
     8
 71
     3
 72
     8
 73
     4
 74
     0
 42
0.000000001
 43
0.00000001
 40
0.0
 40
0.0
 40
0.0
 40
0.0
 40
1.0
 40
1.0
 40
1.0
 40
1.0
 10
914.6203833258699
 20
524.4515543145651
 30
0.0
 10
914.4481295230146
 20
523.829633750317
 30
0.0
 10
914.269620683205
 20
523.2095135055072
 30
0.0
 10
914.0849298259566
 20
522.5911725637211
 30
0.0
  0
SPLINE
  5
F8E
330
A
100
AcDbEntity
  8
MODEL
  6
Continuous
100
AcDbSpline
210
0.0
220
0.0
230
1.0
 70
     8
 71
     3
 72
    40
 73
    36
 74
     0
 42
0.000000001
 43
0.00000001
 40
0.0
 40
0.0
 40
0.0
 40
0.0
 40
0.0624999999999996
 40
0.0624999999999996
 40
0.0937499999999995
 40
0.0937499999999995
 40
0.1249999999999994
 40
0.1249999999999994
 40
0.1874999999999993
 40
0.1874999999999993
 40
0.2499999999999991
 40
0.2499999999999991
 40
0.3124999999999989
 40
0.3124999999999989
 40
0.3437499999999989
 40
0.3437499999999989
 40
0.3749999999999988
 40
0.3749999999999988
 40
0.499999999999999
 40
0.499999999999999
 40
0.5624999999999991
 40
0.5624999999999991
 40
0.5937499999999992
 40
0.5937499999999992
 40
0.6249999999999993
 40
0.6249999999999993
 40
0.6562499999999996
 40
0.6562499999999996
 40
0.6874999999999997
 40
0.6874999999999997
 40
0.7499999999999997
 40
0.7499999999999997
 40
0.8749999999999999
 40
0.8749999999999999
 40
1.0
 40
1.0
 40
1.0
 40
1.0
 10
826.7550964961699
 20
442.5907690801621
 30
0.0
 10
829.3662175470379
 20
442.8774904764912
 30
0.0
 10
831.956863594067
 20
443.2682965577342
 30
0.0
 10
835.8029310257559
 20
444.0573456666032
 30
0.0
 10
837.0784031780352
 20
444.35366061402
 30
0.0
 10
839.6158953807901
 20
445.014674270392
 30
0.0
 10
840.8805995371588
 20
445.3802357230102
 30
0.0
 10
844.62724456309
 20
446.5685802291061
 30
0.0
 10
847.0658512778689
 20
447.4831421456672
 30
0.0
 10
851.840783948014
 20
449.5237762316113
 30
0.0
 10
854.1772599329199
 20
450.6495381492612
 30
0.0
 10
858.7596322831239
 20
453.088375007604
 30
0.0
 10
861.005492143501
 20
454.4015254381862
 30
0.0
 10
864.3105736595469
 20
456.5029958357823
 30
0.0
 10
865.4035068120941
 20
457.2268530361231
 30
0.0
 10
867.5585980322578
 20
458.7112548135381
 30
0.0
 10
868.619529640441
 20
459.4708326810191
 30
0.0
 10
873.8442583636499
 20
463.3523219882132
 30
0.0
 10
877.7705606179518
 20
466.7226349375863
 30
0.0
 10
883.3057768933652
 20
472.1486093555081
 30
0.0
 10
885.0914409513719
 20
474.0194037668892
 30
0.0
 10
887.6812291842359
 20
476.9183770332982
 30
0.0
 10
888.5296880506869
 20
477.9001851825101
 30
0.0
 10
890.1968438311239
 20
479.8949302131232
 30
0.0
 10
891.017774646484
 20
480.9055306041062
 30
0.0
 10
892.643634632703
 20
482.9434678856931
 30
0.0
 10
893.4478435119456
 20
483.9738634845142
 30
0.0
 10
895.0286568614467
 20
486.0492012436933
 30
0.0
 10
895.8053607319819
 20
487.0941998997271
 30
0.0
 10
898.091201232601
 20
490.2528769582803
 30
0.0
 10
899.556000898134
 20
492.3902716770401
 30
0.0
 10
903.750130520137
 20
498.9095820624223
 30
0.0
 10
906.279105057831
 20
503.398669984069
 30
0.0
 10
910.693480180599
 20
512.7211004135431
 30
0.0
 10
912.5802740428919
 20
517.5536976425042
 30
0.0
 10
914.084809309403
 20
522.5907690801662
 30
0.0
  0
SPLINE
  5
F8F
330
A
100
AcDbEntity
  8
MODEL
  6
Continuous
100
AcDbSpline
210
0.0
220
0.0
230
1.0
 70
    24
 71
     3
 72
    50
 73
    46
 74
     0
 42
0.000000001
 43
0.00000001
 40
0.0
 40
0.0
 40
0.0
 40
0.0
 40
0.0270032707304724
 40
0.0547865597672753
 40
0.0832800582103177
 40
0.1165029697043019
 40
0.1503756537448948
 40
0.1847242953876075
 40
0.2193222346636725
 40
0.2464312935104438
 40
0.2731842582825376
 40
0.2993278679255577
 40
0.324603527422251
 40
0.3466371425252408
 40
0.3676206617770843
 40
0.3874376330157797
 40
0.4060914077003187
 40
0.4236342679160398
 40
0.4401473965224167
 40
0.4557591747033458
 40
0.4706085573194229
 40
0.4848273900504938
 40
0.4985201198679546
 40
0.5122128496880676
 40
0.5264316824286263
 40
0.5412810650686132
 40
0.5568928433438821
 40
0.5734059721984743
 40
0.5909488327787432
 40
0.6096026072843607
 40
0.6294195768577672
 40
0.6504030950311295
 40
0.6724367100609235
 40
0.6981805902569305
 40
0.7248193296895945
 40
0.7520804444158207
 40
0.7796957790909372
 40
0.8073832099041454
 40
0.843412209765221
 40
0.8789396462694035
 40
0.9137613329910735
 40
0.9428328256798376
 40
0.971162291355252
 40
0.9986807678523616
 40
1.0
 40
1.0
 40
1.0
 40
1.0
 10
916.1915062991977
 20
532.5907690801621
 30
0.0
 10
916.1266766789997
 20
532.5907690801621
 30
0.0
 10
915.9951447658098
 20
532.5907690801621
 30
0.0
 10
915.169701302242
 20
532.5907690801621
 30
0.0
 10
913.7732142934112
 20
532.5907690801621
 30
0.0
 10
911.6235606601988
 20
532.5907690801621
 30
0.0
 10
908.5587600583387
 20
532.5907690801621
 30
0.0
 10
904.5907730055917
 20
532.5907690801621
 30
0.0
 10
900.0052170368147
 20
532.5907690801621
 30
0.0
 10
894.998435690716
 20
532.5907690801621
 30
0.0
 10
889.804503202686
 20
532.5907690801621
 30
0.0
 10
884.014768027592
 20
532.5907690801621
 30
0.0
 10
877.8394542358076
 20
532.5907690801621
 30
0.0
 10
871.4101936589798
 20
532.5907690801621
 30
0.0
 10
864.8611599564831
 20
532.5907690801621
 30
0.0
 10
858.029407590868
 20
532.5907690801621
 30
0.0
 10
850.9813097780936
 20
532.5907690801621
 30
0.0
 10
843.7719801895221
 20
532.5907690801621
 30
0.0
 10
836.446706637442
 20
532.5907690801621
 30
0.0
 10
829.0705923636781
 20
532.5907690801621
 30
0.0
 10
821.7035296411416
 20
532.5907690801621
 30
0.0
 10
814.4111678672859
 20
532.5907690801621
 30
0.0
 10
807.1945660864442
 20
532.5907690801621
 30
0.0
 10
799.9779643032159
 20
532.5907690801621
 30
0.0
 10
792.6856025256423
 20
532.5907690801621
 30
0.0
 10
785.3185397858108
 20
532.5907690801621
 30
0.0
 10
777.9424254827388
 20
532.5907690801621
 30
0.0
 10
770.6171518968697
 20
532.5907690801621
 30
0.0
 10
763.407822413443
 20
532.5907690801621
 30
0.0
 10
756.3597246682259
 20
532.5907690801621
 30
0.0
 10
749.527972613251
 20
532.5907690801621
 30
0.0
 10
742.9789368366621
 20
532.5907690801621
 30
0.0
 10
736.5056059934429
 20
532.5907690801621
 30
0.0
 10
730.2566783690202
 20
532.5907690801621
 30
0.0
 10
724.3793236066929
 20
532.5907690801621
 30
0.0
 10
719.1199055047766
 20
532.5907690801621
 30
0.0
 10
714.4890529353358
 20
532.5907690801621
 30
0.0
 10
710.0886791562591
 20
532.5907690801621
 30
0.0
 10
706.1559190838309
 20
532.5907690801621
 30
0.0
 10
702.8766612282127
 20
532.5907690801621
 30
0.0
 10
700.6351783762586
 20
532.5907690801621
 30
0.0
 10
699.180170945416
 20
532.5907690801621
 30
0.0
 10
698.4659319552809
 20
532.5907690801621
 30
0.0
 10
698.0799053010999
 20
532.5907690801621
 30
0.0
 10
698.2067989422869
 20
532.5907690801621
 30
0.0
 10
698.2126039170546
 20
532.5907690801621
 30
0.0
  0
SPLINE
  5
F90
330
A
100
AcDbEntity
  8
MODEL
  6
Continuous
100
AcDbSpline
210
0.0
220
0.0
230
1.0
 70
     8
 71
     3
 72
     8
 73
     4
 74
     0
 42
0.000000001
 43
0.00000001
 40
0.0
 40
0.0
 40
0.0
 40
0.0
 40
1.0
 40
1.0
 40
1.0
 40
1.0
 10
916.1915062991977
 20
532.5907690801621
 30
0.0
 10
915.7467021705309
 20
529.8631342938872
 30
0.0
 10
915.222655524238
 20
527.1487952231482
 30
0.0
 10
914.6203833258699
 20
524.4515543145651
 30
0.0
  0
LINE
  5
F91
330
A
100
AcDbEntity
  8
MODEL
  6
Continuous
100
AcDbLine
 10
916.1915062991977
 20
532.5907690801621
 30
0.0
 11
944.1945660859058
 21
532.5907690801621
 31
0.0
  0
LINE
  5
F92
330
A
100
AcDbEntity
  8
MODEL
  6
Continuous
100
AcDbLine
 10
944.1945660859058
 20
442.5907690801621
 30
0.0
 11
944.1945660859058
 21
532.5907690801621
 31
0.0
  0
LINE
  5
F93
330
A
100
AcDbEntity
  8
MODEL
  6
Continuous
100
AcDbLine
 10
826.7550964961777
 20
442.5907690801621
 30
0.0
 11
944.1945660859058
 21
442.5907690801621
 31
0.0
  0
DIMENSION
  5
F94
330
A
100
AcDbEntity
  8
DIM
100
AcDbDimension
  2
*D22
 10
558.7731178861504
 20
1306.570412032643
 30
0.0
 11
368.2820328743351
 21
1306.570412032643
 31
0.0
 70
   160
  1
395
 71
     5
 42
387.9910850118155
 73
     0
 74
     0
 75
     0
  3
tfrom線あり
100
AcDbAlignedDimension
 13
170.7820328743351
 23
1198.994368518
 33
0.0
 14
558.7731178861505
 24
1063.284419470397
 34
0.0
100
AcDbRotatedDimension
  0
DIMENSION
  5
F95
330
A
100
AcDbEntity
  8
DIM
100
AcDbDimension
  2
*D23
 10
620.0748081899669
 20
442.5907690801621
 30
0.0
 11
620.0748081899669
 21
487.5907690801621
 31
0.0
 70
   160
 71
     5
 42
89.99999999999991
 73
     0
 74
     0
 75
     0
 52
-90.0
  3
tfrom線あり
100
AcDbAlignedDimension
 13
570.8828001954348
 23
532.5907690801621
 33
0.0
 14
354.0148952866617
 24
442.5907690801621
 34
0.0
 50
90.00000000000001
100
AcDbRotatedDimension
  0
DIMENSION
  5
F96
330
A
100
AcDbEntity
  8
DIM
  6
Continuous
100
AcDbDimension
  2
*D24
 10
807.1945660859049
 20
469.5907690801621
 30
0.0
 11
807.1945660859049
 21
583.534769080162
 31
0.0
 70
   160
  1
63(深さ)
 71
     5
 42
63.00000000000001
 73
     0
 74
     1
 75
     1
  3
tfrom線あり
100
AcDbAlignedDimension
 13
830.3058260676783
 23
532.5907690801621
 33
0.0
 14
807.1945660859049
 24
469.5907690801621
 34
0.0
 50
89.99999999999999
100
AcDbRotatedDimension
1001
ACAD
1000
DSTYLE
1002
{
1070
     3
1000
<>
1070
   172
1070
     1
1070
    75
1070
     1
1070
    76
1070
     1
1002
}
  0
LWPOLYLINE
  5
F97
330
A
100
AcDbEntity
  8
HIDDEN
  6
HIDDEN
 48
0.0095
100
AcDbPolyline
 90
        4
 70
     1
 43
0.0
 10
803.628579647999
 20
472.3185655026762
 10
803.628579647999
 20
455.3501938067682
 10
810.7605525238107
 20
455.3501938067682
 10
810.7605525238107
 20
472.3185655026762
  0
LWPOLYLINE
  5
F98
330
A
100
AcDbEntity
  8
HIDDEN
  6
HIDDEN
 48
0.0095
100
AcDbPolyline
 90
        4
 70
     1
 43
0.0
 10
798.4445660859049
 20
474.4428387967982
 10
798.4445660859049
 20
472.3185655026762
 10
815.9445660859049
 20
472.3185655026762
 10
815.9445660859049
 20
474.4428387967982
  0
LINE
  5
F99
330
A
100
AcDbEntity
  8
HIDDEN
  6
HIDDEN
 48
0.05
100
AcDbLine
 10
834.1271575488429
 20
460.1009076750152
 30
0.0
 11
834.1271575488438
 21
442.5907690801621
 31
0.0
  0
LINE
  5
F9A
330
A
100
AcDbEntity
  8
HIDDEN
  6
HIDDEN
 48
0.05
100
AcDbLine
 10
780.2619746229532
 20
460.1009076750152
 30
0.0
 11
780.2619746230619
 21
442.5907690801621
 31
0.0
  0
ARC
  5
F9B
330
A
100
AcDbEntity
  8
HIDDEN
  6
HIDDEN
 48
0.05
100
AcDbCircle
 10
784.7591755120422
 20
543.4974447741961
 30
0.0
 40
73.90724975836179
100
AcDbArc
 50
191.0545237996399
 51
269.77417362131
  0
SPLINE
  5
F9C
330
A
100
AcDbEntity
  8
HIDDEN
  6
HIDDEN
 48
0.05
100
AcDbSpline
210
0.0
220
0.0
230
1.0
 70
     8
 71
     3
 72
    12
 73
     8
 74
     0
 42
0.000000001
 43
0.0000000001
 40
110.0105351219823
 40
110.0105351219823
 40
110.0105351219823
 40
110.0105351219823
 40
119.794940240128
 40
122.2640318620788
 40
123.8720738250673
 40
125.6354592339944
 40
127.1514855478017
 40
127.1514855478017
 40
127.1514855478017
 40
127.1514855478017
 10
784.467877208733
 20
469.5907690801612
 30
0.0
 10
793.868207604509
 20
469.5501034376853
 30
0.0
 10
797.5882014281472
 20
469.3199019799202
 30
0.0
 10
801.3627235219076
 20
469.1670874914283
 30
0.0
 10
803.510879515359
 20
467.0181222096892
 30
0.0
 10
803.6541954701181
 20
465.4424106266072
 30
0.0
 10
803.6366778154836
 20
464.3427414035791
 30
0.0
 10
803.628579647999
 20
463.8343796547213
 30
0.0
  0
ARC
  5
F9D
330
A
100
AcDbEntity
  8
HIDDEN
  6
HIDDEN
 48
0.05
100
AcDbCircle
 10
829.6299566597688
 20
543.4974447741961
 30
0.0
 40
73.90724975836179
100
AcDbArc
 50
270.2258263786899
 51
348.9454762003601
  0
SPLINE
  5
F9E
330
A
100
AcDbEntity
  8
HIDDEN
  6
HIDDEN
 48
0.05
100
AcDbSpline
210
0.0
220
0.0
230
1.0
 70
     8
 71
     3
 72
    12
 73
     8
 74
     0
 42
0.000000001
 43
0.0000000001
 40
110.0105351219823
 40
110.0105351219823
 40
110.0105351219823
 40
110.0105351219823
 40
119.794940240128
 40
122.2640318620788
 40
123.8720738250673
 40
125.6354592339944
 40
127.1514855478017
 40
127.1514855478017
 40
127.1514855478017
 40
127.1514855478017
 10
829.9212549630768
 20
469.5907690801612
 30
0.0
 10
820.5209245673007
 20
469.5501034376853
 30
0.0
 10
816.8009307436639
 20
469.3199019799202
 30
0.0
 10
813.026408649903
 20
469.1670874914283
 30
0.0
 10
810.8782526564521
 20
467.0181222096892
 30
0.0
 10
810.7349367016916
 20
465.4424106266072
 30
0.0
 10
810.7524543563261
 20
464.3427414035791
 30
0.0
 10
810.7605525238107
 20
463.8343796547213
 30
0.0
  0
SPLINE
  5
F9F
330
A
100
AcDbEntity
  8
HIDDEN
100
AcDbSpline
210
0.0
220
0.0
230
1.0
 70
     8
 71
     3
 72
     9
 73
     5
 74
     0
 42
0.000000001
 43
0.0000000001
 40
0.0
 40
0.0
 40
0.0
 40
0.0
 40
6.250755570473639
 40
7.129376579501861
 40
7.129376579501861
 40
7.129376579501861
 40
7.129376579501861
 10
705.9813419290219
 20
532.5907690801621
 30
0.0
 10
708.7605555418143
 20
532.5907690801621
 30
0.0
 10
711.6271721442802
 20
532.3136854015161
 30
0.0
 10
712.0546728593292
 20
530.3379784638771
 30
0.0
 10
712.223262845697
 20
529.3262436781222
 30
0.0
  0
SPLINE
  5
FA0
330
A
100
AcDbEntity
  8
HIDDEN
100
AcDbSpline
210
0.0
220
0.0
230
1.0
 70
     8
 71
     3
 72
     9
 73
     5
 74
     0
 42
0.000000001
 43
0.0000000001
 40
0.0
 40
0.0
 40
0.0
 40
0.0
 40
6.250755570473639
 40
7.129376579501861
 40
7.129376579501861
 40
7.129376579501861
 40
7.129376579501861
 10
908.4077902427882
 20
532.5907690801621
 30
0.0
 10
905.6285766299959
 20
532.5907690801621
 30
0.0
 10
902.76196002753
 20
532.3136854015161
 30
0.0
 10
902.3344593124809
 20
530.3379784638771
 30
0.0
 10
902.1658693261127
 20
529.3262436781222
 30
0.0
  0
SPLINE
  5
FA1
330
A
100
AcDbEntity
  8
HIDDEN
100
AcDbSpline
210
0.0
220
0.0
230
1.0
 70
     8
 71
     3
 72
    23
 73
    19
 74
     0
 42
0.000000001
 43
0.00000001
 40
0.0
 40
0.0
 40
0.0
 40
0.0
 40
0.0923077279334962
 40
0.1749820885254479
 40
0.2480149012672557
 40
0.3114011714767565
 40
0.3544376870346456
 40
0.3915171873433028
 40
0.4226401736930324
 40
0.452606498835386
 40
0.4938921126668829
 40
0.5429481623216884
 40
0.5997684374952246
 40
0.664330537773957
 40
0.7366206089935731
 40
0.8166460915834329
 40
0.9044270662153153
 40
0.9999999999999999
 40
0.9999999999999999
 40
0.9999999999999999
 40
0.9999999999999999
 10
248.7820313395141
 20
442.5907690801621
 30
0.0
 10
246.2573585504588
 20
444.3875794565732
 30
0.0
 10
241.4714914582664
 20
447.7936824924452
 30
0.0
 10
235.193383664352
 20
453.2731958902791
 30
0.0
 10
229.9696420427799
 20
458.4500962953983
 30
0.0
 10
225.9594131059066
 20
462.9461510790541
 30
0.0
 10
222.9251968212352
 20
466.6857525822682
 30
0.0
 10
220.6773003876888
 20
469.6659645199481
 30
0.0
 10
218.7736269735624
 20
472.3543033855472
 30
0.0
 10
216.8647779422331
 20
475.2103349871841
 30
0.0
 10
214.7281239275771
 20
478.6360389579723
 30
0.0
 10
212.2834237208017
 20
482.9275776415462
 30
0.0
 10
209.6868379209859
 20
488.025257833183
 30
0.0
 10
207.0512698967732
 20
493.9684293284351
 30
0.0
 10
204.5040516945678
 20
500.7904636555802
 30
0.0
 10
202.2096353041206
 20
508.5174372788252
 30
0.0
 10
200.275628031487
 20
517.1542449039453
 30
0.0
 10
199.5586223453001
 20
523.2678170740012
 30
0.0
 10
199.1848842692425
 20
526.4545068655802
 30
0.0
  0
SPLINE
  5
FA2
330
A
100
AcDbEntity
  8
HIDDEN
100
AcDbSpline
210
0.0
220
0.0
230
1.0
 70
     8
 71
     3
 72
     9
 73
     5
 74
     0
 42
0.000000001
 43
0.00000001
 40
0.0
 40
0.0
 40
0.0
 40
0.0
 40
0.5000000000000016
 40
1.0
 40
1.0
 40
1.0
 40
1.0
 10
199.1848842692425
 20
526.4545068655802
 30
0.0
 10
199.0970504252118
 20
527.4758588006202
 30
0.0
 10
198.9213827371509
 20
529.5185626707041
 30
0.0
 10
198.828481805388
 20
531.5667002770122
 30
0.0
 10
198.7820313395141
 20
532.5907690801621
 30
0.0
  0
DIMENSION
  5
FA3
330
A
100
AcDbEntity
  8
DIM
100
AcDbDimension
  2
*D25
 10
807.1945660859049
 20
380.6979964760615
 30
0.0
 11
875.6945660859058
 21
380.6979964760615
 31
0.0
 70
   160
 71
     5
 42
137.0000000000009
 73
     0
 74
     0
 75
     0
  3
tfrom線あり
100
AcDbAlignedDimension
 13
944.1945660859058
 23
442.5907690801621
 33
0.0
 14
807.1945660859049
 24
422.5907690801621
 34
0.0
100
AcDbRotatedDimension
  0
LINE
  5
FA5
330
A
100
AcDbEntity
  8
HIDDEN
  6
HIDDEN
 48
0.05
100
AcDbLine
 10
287.2820328743342
 20
474.4428387967982
 30
0.0
 11
340.2820328743342
 21
474.4428387967982
 31
0.0
  0
LINE
  5
FA6
330
A
100
AcDbEntity
  8
HIDDEN
  6
HIDDEN
 48
0.05
100
AcDbLine
 10
340.2820328743342
 20
474.4428387967982
 30
0.0
 11
340.2820328743342
 21
472.3185655026762
 31
0.0
  0
LINE
  5
FA7
330
A
100
AcDbEntity
  8
HIDDEN
  6
HIDDEN
 48
0.05
100
AcDbLine
 10
340.2820328743342
 20
472.3185655026762
 30
0.0
 11
287.2820328743342
 21
472.3185655026762
 31
0.0
  0
LINE
  5
FA8
330
A
100
AcDbEntity
  8
HIDDEN
  6
HIDDEN
 48
0.05
100
AcDbLine
 10
287.2820328743342
 20
472.3185655026762
 30
0.0
 11
287.2820328743342
 21
474.4428387967982
 31
0.0
  0
LINE
  5
FA9
330
A
100
AcDbEntity
  8
HIDDEN
  6
HIDDEN
 48
0.05
100
AcDbLine
 10
305.0326044638182
 20
472.3185655026762
 30
0.0
 11
309.35930175254
 21
466.8751779672432
 31
0.0
  0
LINE
  5
FAA
330
A
100
AcDbEntity
  8
HIDDEN
  6
HIDDEN
 48
0.05
100
AcDbLine
 10
322.531461284851
 20
472.3185655026762
 30
0.0
 11
318.2047639961288
 21
466.8751779672432
 31
0.0
  0
LINE
  5
FAC
330
A
100
AcDbEntity
  8
HIDDEN
  6
HIDDEN
 48
0.05
100
AcDbLine
 10
309.35930175254
 20
462.4672857696351
 30
0.0
 11
307.9026572079979
 21
460.263339670831
 31
0.0
  0
LINE
  5
FAD
330
A
100
AcDbEntity
  8
HIDDEN
  6
HIDDEN
 48
0.05
100
AcDbLine
 10
309.35930175254
 20
462.4672857696351
 30
0.0
 11
307.9026572079979
 21
464.6712318684393
 31
0.0
  0
LINE
  5
FAE
330
A
100
AcDbEntity
  8
HIDDEN
  6
HIDDEN
 48
0.05
100
AcDbLine
 10
319.5540530655562
 20
460.1009076750152
 30
0.0
 11
319.6614085406709
 21
460.263339670831
 31
0.0
  0
LINE
  5
FAF
330
A
100
AcDbEntity
  8
HIDDEN
  6
HIDDEN
 48
0.05
100
AcDbLine
 10
318.2047639961288
 20
462.4672857696351
 30
0.0
 11
319.6614085406709
 21
460.263339670831
 31
0.0
  0
LINE
  5
FB0
330
A
100
AcDbEntity
  8
HIDDEN
  6
HIDDEN
 48
0.05
100
AcDbLine
 10
318.2047639961288
 20
462.4672857696351
 30
0.0
 11
319.6614085406709
 21
464.6712318684393
 31
0.0
  0
LINE
  5
FB3
330
A
100
AcDbEntity
  8
HIDDEN
  6
HIDDEN
 48
0.05
100
AcDbLine
 10
309.35930175254
 20
466.8751779672432
 30
0.0
 11
307.9026572079979
 21
464.6712318684393
 31
0.0
  0
LINE
  5
FB4
330
A
100
AcDbEntity
  8
HIDDEN
  6
HIDDEN
 48
0.05
100
AcDbLine
 10
318.2047639961288
 20
466.8751779672432
 30
0.0
 11
319.6614085406709
 21
464.6712318684393
 31
0.0
  0
LINE
  5
FB5
330
A
100
AcDbEntity
  8
HIDDEN
  6
HIDDEN
 48
0.05
100
AcDbLine
 10
286.8494414113979
 20
460.1009076750152
 30
0.0
 11
340.7146243372722
 21
460.1009076750152
 31
0.0
  0
SPLINE
  5
FB6
330
A
100
AcDbEntity
  8
HIDDEN
  6
HIDDEN
 48
0.05
100
AcDbSpline
210
0.0
220
0.0
230
1.0
 70
  1064
 71
     3
 72
    17
 73
    13
 74
    11
 42
0.000000001
 43
0.0000000001
 44
0.0
 40
0.0
 40
0.0
 40
0.0
 40
0.0
 40
5.875865637039825
 40
16.67620142539076
 40
37.21756140043873
 40
60.80219812649423
 40
82.98036785477731
 40
99.90841169005262
 40
111.0531259386842
 40
112.8958287366725
 40
116.4083157124847
 40
117.9764346159077
 40
117.9764346159077
 40
117.9764346159077
 40
117.9764346159077
 10
208.0091239397811
 20
532.5907690801621
 30
0.0
 10
209.8802301700129
 20
531.7484106300758
 30
0.0
 10
215.1905871984231
 20
529.3577264222088
 30
0.0
 10
217.0295856217402
 20
515.6429476778768
 30
0.0
 10
224.310467951323
 20
499.1266473374204
 30
0.0
 10
239.0015060534623
 20
482.5303539857918
 30
0.0
 10
255.8073743866267
 20
468.1030137931263
 30
0.0
 10
272.1774283938446
 20
467.1610120944973
 30
0.0
 10
283.7999443701309
 20
466.9879578123746
 30
0.0
 10
286.7948731838489
 20
462.1428873262226
 30
0.0
 10
286.8561949659405
 20
459.7596536558142
 30
0.0
 10
286.8510342546708
 20
458.0724692624738
 30
0.0
 10
286.8494414113979
 20
457.5517231539102
 30
0.0
 11
208.0091239397811
 21
532.5907690801621
 31
0.0
 11
213.0654587038589
 21
529.5975641526431
 31
0.0
 11
216.8577097761754
 21
519.4848946264672
 31
0.0
 11
224.758232843501
 21
500.5236392648842
 31
0.0
 11
239.8783929389556
 21
482.4234777134552
 31
0.0
 11
257.9404297262704
 21
469.5535888409661
 31
0.0
 11
274.7019329695891
 21
467.1849020501011
 31
0.0
 11
285.4342500005646
 21
464.1812331551851
 31
0.0
 11
286.3823127686437
 21
462.6011285417192
 31
0.0
 11
286.8494414113979
 21
459.1198420573332
 31
0.0
 11
286.8494414113979
 21
457.5517231539102
 31
0.0
  0
SPLINE
  5
FB7
330
A
100
AcDbEntity
  8
HIDDEN
  6
HIDDEN
 48
0.05
100
AcDbSpline
210
0.0
220
0.0
230
1.0
 70
  1064
 71
     3
 72
    19
 73
    15
 74
    13
 42
0.000000001
 43
0.0000000001
 44
0.0
 40
0.0
 40
0.0
 40
0.0
 40
0.0
 40
3.060899239142493
 40
6.743817294300137
 40
16.45568992421423
 40
47.53126397975924
 40
71.01546458810407
 40
100.8275839229275
 40
122.5510082479257
 40
142.1138731734053
 40
158.2564918482503
 40
176.8761568568912
 40
183.5042703478391
 40
195.7867970963929
 40
195.7867970963929
 40
195.7867970963929
 40
195.7867970963929
 10
340.7146243372722
 20
457.5517231539102
 30
0.0
 10
340.8227924738839
 20
458.5471930453489
 30
0.0
 10
341.0611100705711
 20
460.7404266493797
 30
0.0
 10
341.2068091996196
 20
466.8139598605025
 30
0.0
 10
360.2947887717334
 20
467.7589875813584
 30
0.0
 10
378.5941361990231
 20
469.3598863937566
 30
0.0
 10
407.3095099132339
 20
474.1409707289109
 30
0.0
 10
430.1979719020346
 20
484.3238184330187
 30
0.0
 10
450.2768985574212
 20
496.9832997938038
 30
0.0
 10
466.0376941738031
 20
507.8892328741492
 30
0.0
 10
479.6898235783228
 20
519.809932093994
 30
0.0
 10
491.2387786316752
 20
527.4886092903815
 30
0.0
 10
502.8685926103032
 20
532.4194960383103
 30
0.0
 10
509.2557877369639
 20
532.5233291270898
 30
0.0
 10
513.4042932342854
 20
532.5907690801621
 30
0.0
 11
340.7146243372722
 21
457.5517231539102
 31
0.0
 11
341.0023339391237
 21
460.5990707443871
 31
0.0
 11
341.5791106355564
 21
464.236544324148
 31
0.0
 11
350.7906855525453
 21
467.3134514609292
 31
0.0
 11
381.7400720070787
 21
470.1110899239202
 31
0.0
 11
404.7911476398285
 21
474.6005877116723
 31
0.0
 11
432.2745432579832
 21
486.1515800729262
 31
0.0
 11
450.7959620441311
 21
497.5034173934683
 31
0.0
 11
466.7283653010322
 21
508.8552547140102
 31
0.0
 11
479.2751328658424
 21
519.0121617902851
 31
0.0
 11
495.0083810820324
 21
528.9699138258482
 31
0.0
 11
501.1811805780089
 21
531.3841289843122
 31
0.0
 11
513.4042932342854
 21
532.5907690801621
 31
0.0
  0
LINE
  5
FB8
330
A
100
AcDbEntity
  8
HIDDEN
  6
HIDDEN
 48
0.05
100
AcDbLine
 10
286.8494414113979
 20
450.7911783160303
 30
0.0
 11
286.8494414114907
 21
442.5907690801621
 31
0.0
  0
LINE
  5
FB9
330
A
100
AcDbEntity
  8
HIDDEN
  6
HIDDEN
 48
0.05
100
AcDbLine
 10
340.7146243372722
 20
450.7911783160303
 30
0.0
 11
340.7146243372727
 21
442.5907690801621
 31
0.0
  0
LINE
  5
FBA
330
A
100
AcDbEntity
  8
HIDDEN
  6
HIDDEN
 48
0.05
100
AcDbLine
 10
780.2619746229686
 20
460.1009076750152
 30
0.0
 11
834.1271575488429
 21
460.1009076750152
 31
0.0
  0
MTEXT
  5
FBB
330
A
100
AcDbEntity
  8
DIM
390
1D
100
AcDbMText
 10
387.7527452327113
 20
611.8398717253922
 30
0.0
 40
12.0
 41
949.7161250932045
 46
26.808
 71
     1
 72
     1
  1
{\C7;壁取付ボルト位置(2ヶ所)}
  7
ＭＳ ゴシック
 73
     1
 44
0.9822934569727008
1001
ACAD
1000
ACAD_MTEXT_DEFINED_HEIGHT_BEGIN
1070
    46
1040
26.808
1000
ACAD_MTEXT_DEFINED_HEIGHT_END
  0
LINE
  5
FBC
330
A
100
AcDbEntity
  8
DIM
100
AcDbLine
 10
379.7939793714643
 20
592.0749206559863
 30
0.0
 11
255.7820328743351
 21
490.0907690801633
 31
0.0
  0
LINE
  5
FBD
330
A
100
AcDbEntity
  8
DIM
100
AcDbLine
 10
379.7939793714643
 20
592.0749206559863
 30
0.0
 11
304.4038689854842
 21
486.4441313718262
 31
0.0
  0
ARC
  5
FBE
330
A
100
AcDbEntity
  8
MODEL
100
AcDbCircle
 10
331.7820328743351
 20
1061.994368518
 30
0.0
 40
8.000000000000114
100
AcDbArc
 50
270.0000000007817
 51
90.0
  0
LINE
  5
FBF
330
A
100
AcDbEntity
  8
MODEL
100
AcDbLine
 10
331.7820328744442
 20
1053.994368518
 30
0.0
 11
295.782032874029
 21
1053.994368518
 31
0.0
  0
ARC
  5
FC0
330
A
100
AcDbEntity
  8
MODEL
100
AcDbCircle
 10
295.7820328743342
 20
1061.994368518
 30
0.0
 40
8.000000000000114
100
AcDbArc
 50
90.0
 51
269.9999999978178
  0
LINE
  5
FC1
330
A
100
AcDbEntity
  8
MODEL
100
AcDbLine
 10
295.7820328743342
 20
1069.994368518
 30
0.0
 11
331.7820328743351
 21
1069.994368518
 31
0.0
  0
CIRCLE
  5
FC2
330
A
100
AcDbEntity
  8
HIDDEN
  6
HIDDEN
 48
0.05
370
     0
100
AcDbCircle
 10
313.7820328743351
 20
1061.994368518
 30
0.0
 40
26.5
  0
MTEXT
  5
FC3
330
A
100
AcDbEntity
  8
MODEL
390
1D
100
AcDbMText
 10
258.429183819024
 20
1235.313363829819
 30
0.0
 40
12.0
 41
949.7161250932045
 46
27.888
 71
     1
 72
     1
  1
{\C7;φ35}
  7
ＭＳ ゴシック
 73
     1
 44
0.9822934569727008
1001
ACAD
1000
ACAD_MTEXT_DEFINED_HEIGHT_BEGIN
1070
    46
1040
27.888
1000
ACAD_MTEXT_DEFINED_HEIGHT_END
  0
LINE
  5
FC4
330
A
100
AcDbEntity
  8
DIM
100
AcDbLine
 10
256.1931275268253
 20
1216.462741383599
 30
0.0
 11
219.0879461740751
 21
1172.670617618313
 31
0.0
  0
DIMENSION
  5
FC5
102
{ACAD_REACTORS
330
FC7
102
}
102
{ACAD_XDICTIONARY
360
FC6
102
}
330
A
100
AcDbEntity
  8
DIM
100
AcDbDimension
  2
*D26
 10
111.7957634073973
 20
1155.994368518
 30
0.0
 11
111.7957634073973
 21
1177.494368518
 31
0.0
 70
   160
 71
     5
 42
42.99999999999977
 73
     0
 74
     0
 75
     0
  3
tfrom線あり
100
AcDbAlignedDimension
 13
170.7820328743351
 23
1198.994368518
 33
0.0
 14
196.2820328743351
 24
1155.994368518
 34
0.0
 50
90.0
100
AcDbRotatedDimension
  0
DIMENSION
  5
FC8
102
{ACAD_REACTORS
330
FCA
102
}
102
{ACAD_XDICTIONARY
360
FC9
102
}
330
A
100
AcDbEntity
  8
DIM
100
AcDbDimension
  2
*D27
 10
345.7820328743351
 20
1270.183313731765
 30
0.0
 11
258.2820328743351
 21
1286.183313731765
 31
0.0
 70
    32
 71
     5
 42
175.0
 73
     0
 74
     0
 75
     0
  3
tfrom線あり
100
AcDbAlignedDimension
 13
170.7820328743351
 23
1198.994368518
 33
0.0
 14
345.7820328743351
 24
1198.994368518
 34
0.0
100
AcDbRotatedDimension
  0
DIMENSION
  5
FCB
102
{ACAD_REACTORS
330
FCD
102
}
102
{ACAD_XDICTIONARY
360
FCC
102
}
330
A
100
AcDbEntity
  8
DIM
100
AcDbDimension
  2
*D28
 10
77.14064832233406
 20
1061.994368518
 30
0.0
 11
77.14064832233407
 21
1130.494368518
 31
0.0
 70
   160
 71
     5
 42
136.9999999999998
 73
     0
 74
     0
 75
     0
  3
tfrom線あり
100
AcDbAlignedDimension
 13
170.7820328743351
 23
1198.994368518
 33
0.0
 14
170.7820328743351
 24
1061.994368518
 34
0.0
 50
90.0
100
AcDbRotatedDimension
  0
DIMENSION
  5
FCE
330
A
100
AcDbEntity
  8
DIM
100
AcDbDimension
  2
*D29
 10
170.7820328743351
 20
571.9215352217541
 30
0.0
 11
213.2820328743351
 21
571.9215352217541
 31
0.0
 70
   160
 71
     5
 42
85.0
 73
     0
 74
     0
 75
     0
  3
tfrom線あり
100
AcDbAlignedDimension
 13
255.7820328743351
 23
501.2948187572445
 33
0.0
 14
170.7820328743351
 24
532.5907690801621
 34
0.0
100
AcDbRotatedDimension
  0
DIMENSION
  5
FD1
330
A
100
AcDbEntity
  8
DIM
100
AcDbDimension
  2
*D30
 10
118.5470658571678
 20
477.5907690801621
 30
0.0
 11
118.5470658571678
 21
507.5907690801621
 31
0.0
 70
   160
 71
     5
 42
54.99999999999994
 73
     0
 74
     0
 75
     0
  3
tfrom線あり
100
AcDbAlignedDimension
 13
170.7820328743351
 23
532.5907690801621
 33
0.0
 14
232.0779831972527
 24
477.5907690801621
 34
0.0
 50
90.0
100
AcDbRotatedDimension
  0
DIMENSION
  5
FD2
330
A
100
AcDbEntity
  8
DIM
100
AcDbDimension
  2
*D31
 10
300.7820328743351
 20
610.3463110274813
 30
0.0
 11
235.7820328743351
 21
610.3463110274813
 31
0.0
 70
   160
 71
     5
 42
130.0
 73
     0
 74
     0
 75
     0
  3
tfrom線あり
100
AcDbAlignedDimension
 13
170.7820328743351
 23
532.5907690801621
 33
0.0
 14
300.7820328743351
 24
502.1385569535817
 34
0.0
100
AcDbRotatedDimension
  0
DIMENSION
  5
FD5
330
A
100
AcDbEntity
  8
DIM
100
AcDbDimension
  2
*D32
 10
213.7367030996918
 20
904.3085295820986
 30
0.0
 11
361.2367030996919
 21
920.3085295820986
 31
0.0
 70
    32
 71
     5
 42
295.0000000000001
 73
     0
 74
     0
 75
     0
  3
tfrom線あり
100
AcDbAlignedDimension
 13
508.7367030996919
 23
1052.4971609856
 33
0.0
 14
213.7367030996918
 24
1048.2617528064
 34
0.0
100
AcDbRotatedDimension
  0
DIMENSION
  5
FD7
330
A
100
AcDbEntity
  8
DIM
100
AcDbDimension
  2
*D33
 10
662.0632535089485
 20
953.0236421231832
 30
0.0
 11
662.0632535089485
 21
1062.006602374543
 31
0.0
 70
   160
 71
     5
 42
217.9659205027187
 73
     0
 74
     0
 75
     0
  3
tfrom線あり
100
AcDbAlignedDimension
 13
356.9973422541916
 23
1170.989562625902
 33
0.0
 14
358.281867615132
 24
953.0236421231832
 34
0.0
 50
90.0
100
AcDbRotatedDimension
  0
DIMENSION
  5
FD9
330
A
100
AcDbEntity
  8
DIM
100
AcDbDimension
  2
*D35
 10
213.7820328743351
 20
1236.999988752055
 30
0.0
 11
192.2820328743351
 21
1236.999988752055
 31
0.0
 70
   160
 71
     5
 42
43.0
 73
     0
 74
     0
 75
     0
  3
tfrom線あり
100
AcDbAlignedDimension
 13
170.7820328743351
 23
1198.994368518
 33
0.0
 14
213.7820328743351
 24
1173.494368518
 34
0.0
100
AcDbRotatedDimension
  0
DIMENSION
  5
10C6
330
A
100
AcDbEntity
  8
DIM
 48
0.05
100
AcDbDimension
  2
*D37
 10
558.7887377099696
 20
866.6867806733287
 30
0.0
 11
378.7853852921523
 21
882.6867806733287
 31
0.0
 70
    32
  1
365
 71
     5
 42
360.0067048356345
 73
     0
 74
     0
 75
     0
  3
tfrom線あり
100
AcDbAlignedDimension
 13
198.7820328743351
 23
1053.5560130304
 33
0.0
 14
558.7887377099696
 24
1057.76694085424
 34
0.0
100
AcDbRotatedDimension
  0
DIMENSION
  5
10EA
330
A
100
AcDbEntity
  8
DIM
 48
0.05
100
AcDbDimension
  2
*D38
 10
614.9210323123202
 20
966.9943685180006
 30
0.0
 11
614.9210323123202
 21
1061.994368518
 31
0.0
 70
   160
 71
     5
 42
189.9999999999998
 73
     0
 74
     0
 75
     0
 52
-90.0
  3
tfrom線あり
100
AcDbAlignedDimension
 13
357.733934981009
 23
1156.994368518
 33
0.0
 14
356.5810289718652
 24
966.9943685180003
 34
0.0
 50
90.00000000000001
100
AcDbRotatedDimension
  0
DIMENSION
  5
10F8
330
A
100
AcDbEntity
  8
DIM
 48
0.05
100
AcDbDimension
  2
*D39
 10
706.3099650428162
 20
952.9943685180003
 30
0.0
 11
706.3099650428162
 21
1075.994368518
 31
0.0
 70
   160
 71
     5
 42
245.9999999999998
 73
     0
 74
     0
 75
     0
  3
tfrom線あり
100
AcDbAlignedDimension
 13
345.7820328743351
 23
1198.994368518
 33
0.0
 14
460.4889475016703
 24
952.9943685180003
 34
0.0
 50
90.0
100
AcDbRotatedDimension
  0
ELLIPSE
  5
1121
330
A
100
AcDbEntity
  8
MODEL
 48
0.05
370
     0
100
AcDbEllipse
 10
309.1144427397409
 20
1061.994368518
 30
0.0
 11
-95.37773964004917
 21
0.0
 31
0.0
210
0.0
220
0.0
230
1.0
 40
0.9960395408669283
 41
-1.570796326794897
 42
1.570796326794897
  0
ELLIPSE
  5
1128
330
A
100
AcDbEntity
  8
MODEL
 48
0.05
370
     0
100
AcDbEllipse
 10
331.2954641579936
 20
1061.994368518
 30
0.0
 11
-177.441238941698
 21
0.0
 31
0.0
210
0.0
220
0.0
230
1.0
 40
0.5397026884523973
 41
1.445444850870658
 42
4.837740456308928
  0
LINE
  5
116B
102
{ACAD_REACTORS
330
116C
102
}
330
A
100
AcDbEntity
  8
HIDDEN
  6
HIDDEN
 48
0.025
100
AcDbLine
 10
248.2820328743351
 20
480.0758453030268
 30
0.0
 11
248.2820328743351
 21
475.3141464821317
 31
0.0
  0
LINE
  5
11A1
102
{ACAD_REACTORS
330
11A5
102
}
330
A
100
AcDbEntity
  8
HIDDEN
  6
HIDDEN
 48
0.025
100
AcDbLine
 10
303.1628822847827
 20
470.090769693751
 30
0.0
 11
298.4011834638875
 21
470.090769693751
 31
0.0
  0
ARC
  5
11A2
102
{ACAD_REACTORS
330
11A5
102
}
330
A
100
AcDbEntity
  8
HIDDEN
  6
HIDDEN
 48
0.025
100
AcDbCircle
 10
295.6778060619181
 20
477.590769693751
 30
0.0
 40
7.50000000000067
100
AcDbArc
 50
90.0
 51
270.0000093750016
  0
ARC
  5
11A3
102
{ACAD_REACTORS
330
11A5
102
}
330
A
100
AcDbEntity
  8
HIDDEN
  6
HIDDEN
 48
0.025
100
AcDbCircle
 10
305.6778060619181
 20
477.590769693751
 30
0.0
 40
7.500000000000568
100
AcDbArc
 50
270.0
 51
90.0
  0
LINE
  5
11A4
102
{ACAD_REACTORS
330
11A5
102
}
330
A
100
AcDbEntity
  8
HIDDEN
  6
HIDDEN
 48
0.025
100
AcDbLine
 10
303.1628822847827
 20
485.090769693751
 30
0.0
 11
298.4011834638875
 21
485.090769693751
 31
0.0
  0
LINE
  5
137F
330
A
100
AcDbEntity
  8
HIDDEN
  6
HIDDEN
 48
0.05
100
AcDbLine
 10
279.4271815347037
 20
466.9029537698665
 30
0.0
 11
344.289349097418
 21
466.4226774655906
 31
0.0
  0
DIMENSION
  5
140C
330
A
100
AcDbEntity
  8
DIM
 48
0.05
100
AcDbDimension
  2
*D46
 10
313.7820328743351
 20
325.0796151600445
 30
0.0
 11
242.2820328743351
 21
341.0796151600445
 31
0.0
 70
    32
 71
     5
 42
143.0
 73
     0
 74
     0
 75
     0
  3
tfrom線あり
100
AcDbAlignedDimension
 13
170.7820328743351
 23
442.5907690801621
 33
0.0
 14
313.7820328743351
 24
358.4706066755087
 34
0.0
100
AcDbRotatedDimension
  0
DIMENSION
  5
1424
330
A
100
AcDbEntity
  8
DIM
 48
0.05
100
AcDbDimension
  2
*D47
 10
652.3585850668269
 20
422.5907690801621
 30
0.0
 11
636.3585850668269
 21
477.5907690801621
 31
0.0
 70
    32
 71
     5
 42
110.0
 73
     0
 74
     0
 75
     0
  3
tfrom線あり
100
AcDbAlignedDimension
 13
558.7875636456033
 23
532.5907690801621
 33
0.0
 14
334.782032874335
 24
422.5907690801621
 34
0.0
 50
90.0
100
AcDbRotatedDimension
  0
DIMENSION
  5
144F
330
A
100
AcDbEntity
  8
DIM
 48
0.05
100
AcDbDimension
  2
*D48
 10
558.7887377099696
 20
904.3085295820986
 30
0.0
 11
533.7627204048307
 21
920.3085295820986
 31
0.0
 70
    32
 71
     5
 42
50.05203461027781
 73
     0
 74
     0
 75
     0
  3
tfrom線あり
100
AcDbAlignedDimension
 13
508.7367030996918
 23
912.0069173985577
 33
0.0
 14
558.7887377099696
 24
912.0069173985577
 34
0.0
100
AcDbRotatedDimension
  0
DIMENSION
  5
14CA
330
A
100
AcDbEntity
  8
DIM
 48
0.05
100
AcDbDimension
  2
*D51
 10
334.782032874335
 20
391.0752302895823
 30
0.0
 11
313.782032874335
 21
391.0752302895823
 31
0.0
 70
   160
  1
G1 1/4"
 71
     5
 42
42.0
 73
     0
 74
     0
 75
     0
  3
tfrom線あり
100
AcDbAlignedDimension
 13
292.782032874335
 23
422.5907690801621
 33
0.0
 14
334.782032874335
 24
422.5907690801621
 34
0.0
100
AcDbRotatedDimension
1001
ACAD
1000
DSTYLE
1002
{
1070
    77
1070
     2
1002
}
  0
HATCH
  5
14CC
330
A
100
AcDbEntity
  8
HIDDEN
  6
Continuous
 48
0.05
370
     0
100
AcDbHatch
 10
0.0
 20
0.0
 30
0.0
210
0.0
220
0.0
230
1.0
  2
ANSI31
 70
     0
 71
     1
 91
        1
 92
        1
 93
        4
 72
     1
 10
334.782032874335
 20
434.9950077797724
 11
334.782032874335
 21
422.5907690801621
 72
     1
 10
295.421715615659
 20
434.9950077797724
 11
332.142350133011
 21
434.9950077797724
 72
     1
 10
292.782032874335
 20
434.9950077797724
 11
292.782032874335
 21
422.5907690801621
 72
     1
 10
292.782032874335
 20
422.5907690801621
 11
334.782032874335
 21
422.5907690801621
 97
        4
330
14CF
330
14D2
330
14CE
330
14CD
 75
     0
 76
     1
 52
145.0
 41
0.9999999999999991
 77
     0
 78
     1
 53
189.9999999999999
 43
70.8308285529377
 44
-21.77752830444109
 45
0.5513329640925042
 46
-3.12676461581376
 79
     0
 98
        1
 10
70.8308285529377
 20
-21.77752830444109
1001
ACAD
1010
0.0
1020
0.0
1030
0.0
  0
LINE
  5
14CD
102
{ACAD_REACTORS
330
14CC
102
}
330
A
100
AcDbEntity
  8
HIDDEN
  6
Continuous
 48
0.05
100
AcDbLine
 10
292.782032874335
 20
422.5907690801621
 30
0.0
 11
334.782032874335
 21
422.5907690801621
 31
0.0
  0
LINE
  5
14CE
102
{ACAD_REACTORS
330
14CC
102
}
330
A
100
AcDbEntity
  8
HIDDEN
  6
Continuous
 48
0.05
100
AcDbLine
 10
292.782032874335
 20
434.9950077797724
 30
0.0
 11
292.782032874335
 21
422.5907690801621
 31
0.0
  0
LINE
  5
14CF
102
{ACAD_REACTORS
330
14CC
102
}
330
A
100
AcDbEntity
  8
HIDDEN
  6
Continuous
 48
0.05
100
AcDbLine
 10
334.782032874335
 20
434.9950077797724
 30
0.0
 11
334.782032874335
 21
422.5907690801621
 31
0.0
  0
LINE
  5
14D0
330
A
100
AcDbEntity
  8
HIDDEN
  6
Continuous
 48
0.05
100
AcDbLine
 10
342.9533838620291
 20
434.9950077797724
 30
0.0
 11
284.610681886641
 21
434.9950077797724
 31
0.0
  0
LINE
  5
14D1
330
A
100
AcDbEntity
  8
HIDDEN
  6
Continuous
 48
0.05
100
AcDbLine
 10
342.9533838620291
 20
434.9950077797724
 30
0.0
 11
342.9533838620291
 21
442.5907690801621
 31
0.0
  0
LINE
  5
14D2
102
{ACAD_REACTORS
330
14CC
102
}
330
A
100
AcDbEntity
  8
HIDDEN
  6
Continuous
 48
0.05
100
AcDbLine
 10
295.421715615659
 20
434.9950077797724
 30
0.0
 11
332.142350133011
 21
434.9950077797724
 31
0.0
  0
LINE
  5
14D3
330
A
100
AcDbEntity
  8
HIDDEN
  6
Continuous
 48
0.05
100
AcDbLine
 10
284.610681886641
 20
434.9950077797724
 30
0.0
 11
284.610681886641
 21
442.5907690801621
 31
0.0
  0
LINE
  5
14D4
330
A
100
AcDbEntity
  8
HIDDEN
 48
0.05
100
AcDbLine
 10
315.7242256003902
 20
460.1009076750152
 30
0.0
 11
315.7242256003903
 21
442.5907690801621
 31
0.0
  0
LINE
  5
14D5
330
A
100
AcDbEntity
  8
HIDDEN
 48
0.05
100
AcDbLine
 10
311.8398401482801
 20
460.1009076750152
 30
0.0
 11
311.8398401482798
 21
442.5907690801621
 31
0.0
  0
LINE
  5
14D6
330
A
100
AcDbEntity
  8
HIDDEN
  6
Continuous
 48
0.05
100
AcDbLine
 10
836.3659170735989
 20
434.9950077797725
 30
0.0
 11
778.0232150982108
 21
434.9950077797725
 31
0.0
  0
LINE
  5
14D7
330
A
100
AcDbEntity
  8
HIDDEN
  6
Continuous
 48
0.05
100
AcDbLine
 10
786.1945660859049
 20
434.9950077797725
 30
0.0
 11
786.1945660859049
 21
422.5907690801621
 31
0.0
  0
LINE
  5
14D8
330
A
100
AcDbEntity
  8
HIDDEN
  6
Continuous
 48
0.05
100
AcDbLine
 10
828.1945660859049
 20
434.9950077797725
 30
0.0
 11
828.1945660859049
 21
422.5907690801621
 31
0.0
  0
LINE
  5
14D9
330
A
100
AcDbEntity
  8
HIDDEN
  6
Continuous
 48
0.05
100
AcDbLine
 10
786.1945660859049
 20
422.5907690801621
 30
0.0
 11
828.1945660859049
 21
422.5907690801621
 31
0.0
  0
LINE
  5
14DA
330
A
100
AcDbEntity
  8
HIDDEN
  6
Continuous
 48
0.05
100
AcDbLine
 10
788.8342488272287
 20
434.9950077797725
 30
0.0
 11
825.5548833445807
 21
434.9950077797725
 31
0.0
  0
HATCH
  5
14DB
330
A
100
AcDbEntity
  8
HIDDEN
  6
Continuous
 48
0.05
370
     0
100
AcDbHatch
 10
0.0
 20
0.0
 30
0.0
210
0.0
220
0.0
230
1.0
  2
ANSI31
 70
     0
 71
     0
 91
        1
 92
        1
 93
        4
 72
     1
 10
828.1945660859049
 20
434.9950077797725
 11
828.1945660859049
 21
422.5907690801621
 72
     1
 10
788.8342488272287
 20
434.9950077797725
 11
825.5548833445807
 21
434.9950077797725
 72
     1
 10
786.1945660859049
 20
434.9950077797725
 11
786.1945660859049
 21
422.5907690801621
 72
     1
 10
786.1945660859049
 20
422.5907690801621
 11
828.1945660859049
 21
422.5907690801621
 97
        0
 75
     0
 76
     1
 52
145.0
 41
0.999999999999999
 77
     0
 78
     1
 53
189.9999999999997
 43
564.2433617645074
 44
-21.77752830444103
 45
0.5513329640925042
 46
-3.12676461581376
 79
     0
 98
        1
 10
564.2433617645074
 20
-21.77752830444103
1001
ACAD
1010
0.0
1020
0.0
1030
0.0
  0
LINE
  5
14DC
330
A
100
AcDbEntity
  8
HIDDEN
  6
Continuous
 48
0.05
100
AcDbLine
 10
778.0232150982108
 20
434.9950077797725
 30
0.0
 11
778.0232150982108
 21
442.5907690801621
 31
0.0
  0
LINE
  5
14DD
330
A
100
AcDbEntity
  8
HIDDEN
  6
Continuous
 48
0.05
100
AcDbLine
 10
836.3659170735989
 20
434.9950077797725
 30
0.0
 11
836.3659170735989
 21
442.5907690801621
 31
0.0
  0
LINE
  5
14DE
330
A
100
AcDbEntity
  8
HIDDEN
 48
0.05
100
AcDbLine
 10
809.13675881196
 20
455.3501938067682
 30
0.0
 11
809.13675881196
 21
442.5907690801621
 31
0.0
  0
LINE
  5
14DF
330
A
100
AcDbEntity
  8
HIDDEN
 48
0.05
100
AcDbLine
 10
805.2523733598497
 20
455.3501938067682
 30
0.0
 11
805.2523733598497
 21
442.5907690801621
 31
0.0
  0
LINE
  5
1554
330
A
100
AcDbEntity
  8
MODEL
  6
CENTER
 48
0.01
100
AcDbLine
 10
300.6778060619181
 20
501.2948193708334
 30
0.0
 11
300.6778060619181
 21
453.8867200166686
 31
0.0
  0
LINE
  5
1555
330
A
100
AcDbEntity
  8
MODEL
  6
CENTER
 48
0.01
100
AcDbLine
 10
324.3818557390005
 20
477.590769693751
 30
0.0
 11
276.9737563848357
 21
477.590769693751
 31
0.0
  0
LINE
  5
1557
330
A
100
AcDbEntity
  8
MODEL
  6
CENTER
 48
0.01
100
AcDbLine
 10
255.7820328743351
 20
501.2948187572445
 30
0.0
 11
255.7820328743351
 21
453.8867194030797
 31
0.0
  0
LINE
  5
1558
330
A
100
AcDbEntity
  8
MODEL
  6
CENTER
 48
0.01
100
AcDbLine
 10
279.4860825514174
 20
477.5907690801621
 30
0.0
 11
232.0779831972527
 21
477.5907690801621
 31
0.0
  0
MTEXT
  5
1692
102
{ACAD_XDICTIONARY
360
1693
102
}
330
A
100
AcDbEntity
  8
MODEL
 48
0.05
100
AcDbMText
 10
36.60623582329706
 20
43.1024952098632
 30
0.0
 40
11.0
 41
0.0
 46
11.0
 71
     1
 72
     1
  1
{20160629N}
  7
ＭＳ ゴシック
 73
     1
 44
1.0
1001
ACAD
1000
ACAD_MTEXT_DEFINED_HEIGHT_BEGIN
1070
    46
1040
11.0
1000
ACAD_MTEXT_DEFINED_HEIGHT_END
  0
MTEXT
  5
169D
330
A
100
AcDbEntity
  8
TEMPLATE
390
1D
100
AcDbMText
 10
664.601072273995
 20
196.0192372914728
 30
0.0
 40
12.21630859375
 41
0.0
 46
13.64561669921875
 71
     1
 72
     1
  1
{BRS70-0103-003(ブラック)}
  7
ＭＳ ゴシック
 73
     1
 44
0.7828267384257843
1001
ACAD
1000
ACAD_MTEXT_DEFINED_HEIGHT_BEGIN
1070
    46
1040
13.64561669921875
1000
ACAD_MTEXT_DEFINED_HEIGHT_END
  0
MTEXT
  5
169E
330
A
100
AcDbEntity
  8
TEMPLATE
390
1D
100
AcDbMText
 10
664.601072273995
 20
213.2332336845364
 30
0.0
 40
12.21630859375
 41
0.0
 46
13.64561669921875
 71
     1
 72
     1
  1
{BRS70-0103-001(ホワイト)}
  7
ＭＳ ゴシック
 73
     1
 44
0.7828267384257843
1001
ACAD
1000
ACAD_MTEXT_DEFINED_HEIGHT_BEGIN
1070
    46
1040
13.64561669921875
1000
ACAD_MTEXT_DEFINED_HEIGHT_END
  0
VIEWPORT
  5
349
330
B
100
AcDbEntity
 67
     1
  8
0
100
AcDbViewport
 10
202.5
 20
128.5
 30
0.0
 40
486.0
 41
308.4
 68
     1
 69
     1
 12
202.5
 22
128.5
 13
0.0
 23
0.0
 14
0.5
 24
0.5
 15
0.0
 25
0.0
 16
0.0
 26
0.0
 36
1.0
 17
0.0
 27
0.0
 37
0.0
 42
50.0
 43
0.0
 44
0.0
 45
308.4
 50
0.0
 51
0.0
 72
   100
 90
   557152
  1

281
     0
 71
     1
 74
     0
110
0.0
120
0.0
130
0.0
111
1.0
121
0.0
131
0.0
112
0.0
122
1.0
132
0.0
 79
     0
146
0.0
170
     0
 61
     5
348
26C
292
     1
282
     1
141
0.0
142
0.0
 63
   256
  0
VIEWPORT
  5
34A
330
B
100
AcDbEntity
 67
     1
  8
0
100
AcDbViewport
 10
202.5
 20
128.5
 30
0.0
 40
324.0
 41
205.6
 68
     2
 69
     2
 12
986.6781359294573
 22
1427.077061889956
 13
0.0
 23
0.0
 14
0.5
 24
0.5
 15
0.0
 25
0.0
 16
0.0
 26
0.0
 36
1.0
 17
0.0
 27
0.0
 37
0.0
 42
50.0
 43
0.0
 44
0.0
 45
2890.021615685494
 50
0.0
 51
0.0
 72
   100
 90
   557152
  1

281
     0
 71
     1
 74
     0
110
0.0
120
0.0
130
0.0
111
1.0
121
0.0
131
0.0
112
0.0
122
1.0
132
0.0
 79
     0
146
0.0
170
     0
 61
     5
348
26C
292
     1
282
     1
141
0.0
142
0.0
 63
   256
  0
ENDSEC
  0
SECTION
  2
OBJECTS
  0
DICTIONARY
  5
19
330
0
100
AcDbDictionary
281
     1
  3
ACAD_COLOR
350
674
  3
ACAD_DETAILVIEWSTYLE
350
BBF
  3
ACAD_FIELDLIST
350
1690
  3
ACAD_GROUP
350
1A
  3
ACAD_IMAGE_VARS
350
27B
  3
ACAD_LAYOUT
350
1E
  3
ACAD_MATERIAL
350
263
  3
ACAD_MLEADERSTYLE
350
336
  3
ACAD_MLINESTYLE
350
1B
  3
ACAD_PLOTSETTINGS
350
22
  3
ACAD_PLOTSTYLENAME
350
1F
  3
ACAD_SCALELIST
350
241
  3
ACAD_SECTIONVIEWSTYLE
350
BC0
  3
ACAD_TABLESTYLE
350
278
  3
ACAD_VISUALSTYLE
350
267
  3
ACDB_RECOMPOSE_DATA
350
16B0
  3
AcDbVariableDictionary
350
330
  3
APPDATA
350
27A
  3
DimOffsetDictionary
350
122B
  0
SUN
  5
904
330
15
100
AcDbSun
 90
        1
290
     0
 63
     7
421
 16777215
 40
1.0
291
     1
 91
  2455826
 92
 54000000
292
     0
 70
     2
 71
   256
280
     1
  0
DICTIONARY
  5
2E1
330
2
100
AcDbDictionary
280
     1
281
     1
  3
ACAD_LAYERSTATES
360
2E2
  3
ACLYDICTIONARY
360
DDE
  0
DICTIONARY
  5
FC6
330
FC5
100
AcDbDictionary
280
     1
281
     1
  3
ACAD_DIMASSOC
360
FC7
  0
DICTIONARY
  5
FC9
330
FC8
100
AcDbDictionary
280
     1
281
     1
  3
ACAD_DIMASSOC
360
FCA
  0
DICTIONARY
  5
FCC
330
FCB
100
AcDbDictionary
280
     1
281
     1
  3
ACAD_DIMASSOC
360
FCD
  0
DICTIONARY
  5
1693
330
1692
100
AcDbDictionary
280
     1
281
     1
  3
ACAD_FIELD
360
1694
  0
DICTIONARY
  5
674
102
{ACAD_REACTORS
330
19
102
}
330
19
100
AcDbDictionary
281
     1
  0
DICTIONARY
  5
BBF
102
{ACAD_REACTORS
330
19
102
}
330
19
100
AcDbDictionary
281
     1
  0
FIELDLIST
  5
1690
102
{ACAD_REACTORS
330
19
102
}
330
19
100
AcDbIdSet
 90
        1
330
1695
100
AcDbFieldList
  0
DICTIONARY
  5
1A
102
{ACAD_REACTORS
330
19
102
}
330
19
100
AcDbDictionary
281
     1
  3
*A1
350
116C
  3
*A2
350
11A5
  0
RASTERVARIABLES
  5
27B
102
{ACAD_REACTORS
330
19
102
}
330
19
100
AcDbRasterVariables
 90
        0
 70
     1
 71
     1
 72
     1
  0
DICTIONARY
  5
1E
102
{ACAD_REACTORS
330
19
102
}
330
19
100
AcDbDictionary
281
     1
  3
Layout1
350
21
  3
Model
350
20
  0
DICTIONARY
  5
263
102
{ACAD_REACTORS
330
19
102
}
330
19
100
AcDbDictionary
281
     1
  3
ByBlock
350
265
  3
ByLayer
350
264
  3
Global
350
266
  0
DICTIONARY
  5
336
102
{ACAD_REACTORS
330
19
102
}
330
19
100
AcDbDictionary
281
     1
  3
Standard
350
D59
  0
DICTIONARY
  5
1B
102
{ACAD_REACTORS
330
19
102
}
330
19
100
AcDbDictionary
281
     1
  3
Standard
350
1C
  0
DICTIONARY
  5
22
102
{ACAD_REACTORS
330
19
102
}
330
19
100
AcDbDictionary
281
     1
  0
ACDBDICTIONARYWDFLT
  5
1F
102
{ACAD_REACTORS
330
19
102
}
330
19
100
AcDbDictionary
281
     1
  3
Normal
350
1D
100
AcDbDictionaryWithDefault
340
1D
  0
DICTIONARY
  5
241
102
{ACAD_REACTORS
330
19
102
}
330
19
100
AcDbDictionary
281
     1
  3
A0
350
242
  3
A1
350
243
  3
A2
350
244
  3
A3
350
245
  3
A4
350
246
  3
A5
350
247
  3
A6
350
248
  3
A7
350
249
  3
A8
350
24A
  3
A9
350
24B
  3
B0
350
24C
  3
B1
350
24D
  3
B2
350
24E
  3
B3
350
24F
  3
B4
350
250
  3
B5
350
251
  3
B6
350
252
  3
B7
350
253
  3
B8
350
254
  3
B9
350
255
  3
C0
350
256
  3
C1
350
257
  3
C2
350
258
  3
C3
350
259
  3
C4
350
25A
  3
C5
350
25B
  3
C6
350
25C
  3
C7
350
25D
  3
C8
350
25E
  3
C9
350
25F
  3
D0
350
260
  3
D1
350
261
  3
D2
350
262
  0
DICTIONARY
  5
BC0
102
{ACAD_REACTORS
330
19
102
}
330
19
100
AcDbDictionary
281
     1
  0
DICTIONARY
  5
278
102
{ACAD_REACTORS
330
19
102
}
330
19
100
AcDbDictionary
281
     1
  3
Standard
350
279
  0
DICTIONARY
  5
267
102
{ACAD_REACTORS
330
19
102
}
330
19
100
AcDbDictionary
281
     1
  3
2dWireframe
350
26C
  3
3D Hidden
350
26E
  3
3dWireframe
350
26D
  3
Basic
350
26F
  3
Brighten
350
273
  3
ColorChange
350
277
  3
Conceptual
350
271
  3
Dim
350
272
  3
EdgeColorOff
350
8FE
  3
Facepattern
350
276
  3
Flat
350
268
  3
FlatWithEdges
350
269
  3
Gouraud
350
26A
  3
GouraudWithEdges
350
26B
  3
Hidden
350
8FB
  3
JitterOff
350
8FC
  3
Linepattern
350
275
  3
OverhangOff
350
8FD
  3
Realistic
350
270
  3
Shaded
350
903
  3
Shaded with edges
350
902
  3
Shades of Gray
350
8FF
  3
Sketchy
350
900
  3
Thicken
350
274
  3
Wireframe
350
8FA
  3
X-Ray
350
901
  0
XRECORD
  5
16B0
102
{ACAD_REACTORS
330
19
102
}
330
19
100
AcDbXrecord
280
     1
 90
        1
330
279
  0
DICTIONARY
  5
330
102
{ACAD_REACTORS
330
19
102
}
330
19
100
AcDbDictionary
281
     1
  3
CANNOSCALE
350
331
  3
CMLEADERSTYLE
350
D5E
  3
CTABLESTYLE
350
335
  3
HPTRANSPARENCY
350
D52
  3
XCLIPFRAME
350
896
  0
DICTIONARY
  5
27A
102
{ACAD_REACTORS
330
19
102
}
330
19
100
AcDbDictionary
281
     1
  0
DICTIONARY
  5
122B
102
{ACAD_REACTORS
330
19
102
}
330
19
100
AcDbDictionary
281
     1
  3
DIMRAILANGLE
350
122E
  3
DIMRAILFIRSTOFFSET
350
122C
  3
DIMRAILOFFSET
350
122D
  3
DIMRAILSENABLED
350
122F
  0
DICTIONARY
  5
2E2
102
{ACAD_REACTORS
330
2E1
102
}
330
2E1
100
AcDbDictionary
281
     1
  3
ARGON_LAYERP_9
350
7AA
  0
DICTIONARY
  5
DDE
102
{ACAD_REACTORS
330
2E1
102
}
330
2E1
100
AcDbDictionary
281
     1
1001
ACAD
1000
<All
  0
DIMASSOC
  5
FC7
102
{ACAD_REACTORS
330
FC6
102
}
330
FC6
100
AcDbDimAssoc
330
FC5
 90
        3
 70
     0
 71
     1
  1
AcDbOsnapPointRef
 72
    13
331
F83
 73
     0
 91
        0
 40
0.0
 10
0.0
 20
0.0
 30
0.0
 75
     0
  1
AcDbOsnapPointRef
 72
     5
331
F86
 73
     0
 91
        0
 40
3.141592653589793
 10
0.0
 20
0.0
 30
0.0
 75
     0
  0
DIMASSOC
  5
FCA
102
{ACAD_REACTORS
330
FC9
102
}
330
FC9
100
AcDbDimAssoc
330
FC8
 90
        3
 70
     0
 71
     1
  1
AcDbOsnapPointRef
 72
    13
331
F83
 73
     0
 91
        0
 40
0.0
 10
0.0
 20
0.0
 30
0.0
 75
     0
  1
AcDbOsnapPointRef
 72
     1
331
F85
 73
     0
 91
        0
 40
0.0
 10
0.0
 20
0.0
 30
0.0
 75
     0
  0
DIMASSOC
  5
FCD
102
{ACAD_REACTORS
330
FCC
102
}
330
FCC
100
AcDbDimAssoc
330
FCB
 90
        3
 70
     0
 71
     1
  1
AcDbOsnapPointRef
 72
    13
331
F83
 73
     0
 91
        0
 40
0.0
 10
0.0
 20
0.0
 30
0.0
 75
     0
  1
AcDbOsnapPointRef
 72
    13
331
F82
 73
     0
 91
        0
 40
0.0
 10
0.0
 20
0.0
 30
0.0
 75
     0
  0
DICTIONARY
  5
1694
102
{ACAD_REACTORS
330
1693
102
}
330
1693
100
AcDbDictionary
280
     1
281
     1
  3
TEXT
360
1695
  0
GROUP
  5
116C
102
{ACAD_REACTORS
330
1A
102
}
330
1A
100
AcDbGroup
300

 70
     1
 71
     1
340
F71
340
F78
340
F73
340
116B
  0
GROUP
  5
11A5
102
{ACAD_REACTORS
330
1A
102
}
330
1A
100
AcDbGroup
300

 70
     1
 71
     1
340
11A1
340
11A3
340
11A2
340
11A4
  0
LAYOUT
  5
21
102
{ACAD_REACTORS
330
1E
102
}
330
1E
100
AcDbPlotSettings
  1

  2
none_device
  4
ISO_A3_(420.00_x_297.00_MM)
  6

 40
7.5
 41
20.0
 42
7.5
 43
20.0
 44
420.0
 45
297.0
 46
0.0
 47
0.0
 48
0.0
 49
0.0
140
0.0
141
0.0
142
1.0
143
1.0
 70
     0
 72
     1
 73
     0
 74
     0
  7

 75
     0
 76
     0
 77
     2
 78
   300
147
1.0
148
0.0
149
0.0
100
AcDbLayout
  1
Layout1
 70
     0
 71
     0
 10
-7.5
 20
-20.0
 11
412.5
 21
277.0
 12
0.0
 22
0.0
 32
0.0
 14
0.0
 24
0.0
 34
0.0
 15
0.0
 25
0.0
 35
0.0
146
0.0
 13
0.0
 23
0.0
 33
0.0
 16
0.0
 26
0.0
 36
0.0
 17
0.0
 27
0.0
 37
0.0
 76
     0
330
B
331
349
  0
LAYOUT
  5
20
102
{ACAD_REACTORS
330
1E
102
}
330
1E
100
AcDbPlotSettings
  1

  2
none_device
  4
ISO_A3_(420.00_x_297.00_MM)
  6

 40
7.5
 41
20.0
 42
7.5
 43
20.0
 44
420.0
 45
297.0
 46
0.0
 47
0.0
 48
0.0
 49
0.0
140
0.0
141
0.0
142
1.0
143
1.0
 70
  1024
 72
     1
 73
     0
 74
     0
  7

 75
     0
 76
     0
 77
     2
 78
   300
147
1.0
148
0.0
149
0.0
100
AcDbLayout
  1
Model
 70
     0
 71
     1
 10
0.0
 20
0.0
 11
1050.0
 21
1485.0
 12
0.0
 22
0.0
 32
0.0
 14
0.0
 24
0.0
 34
0.0
 15
1050.0
 25
1485.0
 35
0.0000000000000142
146
0.0
 13
0.0
 23
0.0
 33
0.0
 16
0.0
 26
0.0
 36
0.0
 17
0.0
 27
0.0
 37
0.0
 76
     0
330
A
331
15
  0
MATERIAL
  5
265
102
{ACAD_REACTORS
330
263
102
}
330
263
100
AcDbMaterial
  1
ByBlock
 72
     1
 94
      127
  0
MATERIAL
  5
264
102
{ACAD_REACTORS
330
263
102
}
330
263
100
AcDbMaterial
  1
ByLayer
 72
     1
 94
      127
  0
MATERIAL
  5
266
102
{ACAD_REACTORS
330
263
102
}
330
263
100
AcDbMaterial
  1
Global
 72
     1
 94
      127
  0
MLEADERSTYLE
  5
D59
102
{ACAD_REACTORS
330
336
102
}
330
336
100
AcDbMLeaderStyle
170
     2
171
     1
172
     0
 90
        2
 40
0.0
 41
0.0
173
     1
 91
-1056964608
340
11
 92
       -2
290
     1
 42
2.0
291
     1
 43
8.0
  3
Standard
341
0
 44
4.0
300

342
17
174
     1
178
     6
175
     1
176
     0
 93
-1056964608
 45
4.0
292
     0
297
     0
 46
4.0
343
0
 94
-1056964608
 47
1.0
 49
1.0
140
1.0
293
     1
141
0.0
294
     1
177
     0
142
1.0
295
     0
296
     0
143
3.75
1001
ACAD_MLEADERVER
1070
     2
  0
MLINESTYLE
  5
1C
102
{ACAD_REACTORS
330
1B
102
}
330
1B
100
AcDbMlineStyle
  2
Standard
 70
     0
  3

 62
     0
 51
90.0
 52
90.0
 71
     2
 49
0.5
 62
   256
  6
BYLAYER
 49
-0.5
 62
   256
  6
BYLAYER
  0
ACDBPLACEHOLDER
  5
1D
102
{ACAD_REACTORS
330
1F
102
}
330
1F
  0
SCALE
  5
242
102
{ACAD_REACTORS
330
241
102
}
330
241
100
AcDbScale
 70
     0
300
1:1
140
1.0
141
1.0
290
     1
  0
SCALE
  5
243
102
{ACAD_REACTORS
330
241
102
}
330
241
100
AcDbScale
 70
     0
300
1:2
140
1.0
141
2.0
290
     0
  0
SCALE
  5
244
102
{ACAD_REACTORS
330
241
102
}
330
241
100
AcDbScale
 70
     0
300
1:4
140
1.0
141
4.0
290
     0
  0
SCALE
  5
245
102
{ACAD_REACTORS
330
241
102
}
330
241
100
AcDbScale
 70
     0
300
1:5
140
1.0
141
5.0
290
     0
  0
SCALE
  5
246
102
{ACAD_REACTORS
330
241
102
}
330
241
100
AcDbScale
 70
     0
300
1:8
140
1.0
141
8.0
290
     0
  0
SCALE
  5
247
102
{ACAD_REACTORS
330
241
102
}
330
241
100
AcDbScale
 70
     0
300
1:10
140
1.0
141
10.0
290
     0
  0
SCALE
  5
248
102
{ACAD_REACTORS
330
241
102
}
330
241
100
AcDbScale
 70
     0
300
1:16
140
1.0
141
16.0
290
     0
  0
SCALE
  5
249
102
{ACAD_REACTORS
330
241
102
}
330
241
100
AcDbScale
 70
     0
300
1:20
140
1.0
141
20.0
290
     0
  0
SCALE
  5
24A
102
{ACAD_REACTORS
330
241
102
}
330
241
100
AcDbScale
 70
     0
300
1:30
140
1.0
141
30.0
290
     0
  0
SCALE
  5
24B
102
{ACAD_REACTORS
330
241
102
}
330
241
100
AcDbScale
 70
     0
300
1:40
140
1.0
141
40.0
290
     0
  0
SCALE
  5
24C
102
{ACAD_REACTORS
330
241
102
}
330
241
100
AcDbScale
 70
     0
300
1:50
140
1.0
141
50.0
290
     0
  0
SCALE
  5
24D
102
{ACAD_REACTORS
330
241
102
}
330
241
100
AcDbScale
 70
     0
300
1:100
140
1.0
141
100.0
290
     0
  0
SCALE
  5
24E
102
{ACAD_REACTORS
330
241
102
}
330
241
100
AcDbScale
 70
     0
300
2:1
140
2.0
141
1.0
290
     0
  0
SCALE
  5
24F
102
{ACAD_REACTORS
330
241
102
}
330
241
100
AcDbScale
 70
     0
300
4:1
140
4.0
141
1.0
290
     0
  0
SCALE
  5
250
102
{ACAD_REACTORS
330
241
102
}
330
241
100
AcDbScale
 70
     0
300
8:1
140
8.0
141
1.0
290
     0
  0
SCALE
  5
251
102
{ACAD_REACTORS
330
241
102
}
330
241
100
AcDbScale
 70
     0
300
10:1
140
10.0
141
1.0
290
     0
  0
SCALE
  5
252
102
{ACAD_REACTORS
330
241
102
}
330
241
100
AcDbScale
 70
     0
300
100:1
140
100.0
141
1.0
290
     0
  0
SCALE
  5
253
102
{ACAD_REACTORS
330
241
102
}
330
241
100
AcDbScale
 70
     0
300
1/128" = 1'-0"
140
0.0078125
141
12.0
290
     0
  0
SCALE
  5
254
102
{ACAD_REACTORS
330
241
102
}
330
241
100
AcDbScale
 70
     0
300
1/64" = 1'-0"
140
0.015625
141
12.0
290
     0
  0
SCALE
  5
255
102
{ACAD_REACTORS
330
241
102
}
330
241
100
AcDbScale
 70
     0
300
1/32" = 1'-0"
140
0.03125
141
12.0
290
     0
  0
SCALE
  5
256
102
{ACAD_REACTORS
330
241
102
}
330
241
100
AcDbScale
 70
     0
300
1/16" = 1'-0"
140
0.0625
141
12.0
290
     0
  0
SCALE
  5
257
102
{ACAD_REACTORS
330
241
102
}
330
241
100
AcDbScale
 70
     0
300
3/32" = 1'-0"
140
0.09375
141
12.0
290
     0
  0
SCALE
  5
258
102
{ACAD_REACTORS
330
241
102
}
330
241
100
AcDbScale
 70
     0
300
1/8" = 1'-0"
140
0.125
141
12.0
290
     0
  0
SCALE
  5
259
102
{ACAD_REACTORS
330
241
102
}
330
241
100
AcDbScale
 70
     0
300
3/16" = 1'-0"
140
0.1875
141
12.0
290
     0
  0
SCALE
  5
25A
102
{ACAD_REACTORS
330
241
102
}
330
241
100
AcDbScale
 70
     0
300
1/4" = 1'-0"
140
0.25
141
12.0
290
     0
  0
SCALE
  5
25B
102
{ACAD_REACTORS
330
241
102
}
330
241
100
AcDbScale
 70
     0
300
3/8" = 1'-0"
140
0.375
141
12.0
290
     0
  0
SCALE
  5
25C
102
{ACAD_REACTORS
330
241
102
}
330
241
100
AcDbScale
 70
     0
300
1/2" = 1'-0"
140
0.5
141
12.0
290
     0
  0
SCALE
  5
25D
102
{ACAD_REACTORS
330
241
102
}
330
241
100
AcDbScale
 70
     0
300
3/4" = 1'-0"
140
0.75
141
12.0
290
     0
  0
SCALE
  5
25E
102
{ACAD_REACTORS
330
241
102
}
330
241
100
AcDbScale
 70
     0
300
1" = 1'-0"
140
1.0
141
12.0
290
     0
  0
SCALE
  5
25F
102
{ACAD_REACTORS
330
241
102
}
330
241
100
AcDbScale
 70
     0
300
1-1/2" = 1'-0"
140
1.5
141
12.0
290
     0
  0
SCALE
  5
260
102
{ACAD_REACTORS
330
241
102
}
330
241
100
AcDbScale
 70
     0
300
3" = 1'-0"
140
3.0
141
12.0
290
     0
  0
SCALE
  5
261
102
{ACAD_REACTORS
330
241
102
}
330
241
100
AcDbScale
 70
     0
300
6" = 1'-0"
140
6.0
141
12.0
290
     0
  0
SCALE
  5
262
102
{ACAD_REACTORS
330
241
102
}
330
241
100
AcDbScale
 70
     0
300
1'-0" = 1'-0"
140
12.0
141
12.0
290
     0
  0
TABLESTYLE
  5
279
102
{ACAD_REACTORS
330
278
102
}
102
{ACAD_XDICTIONARY
360
16AE
102
}
330
278
100
AcDbTableStyle
  3
Standard
 70
     0
 71
     0
 40
0.06
 41
0.06
280
     0
281
     0
  7
Standard
140
4.5
170
     2
 62
     0
 63
   257
283
     0
 90
        4
 91
        0
  1

274
    -2
284
     1
 64
     0
275
    -2
285
     1
 65
     0
276
    -2
286
     1
 66
     0
277
    -2
287
     1
 67
     0
278
    -2
288
     1
 68
     0
279
    -2
289
     1
 69
     0
  7
Standard
140
6.0
170
     5
 62
     0
 63
   257
283
     0
 90
        4
 91
        0
  1

274
    -2
284
     1
 64
     0
275
    -2
285
     1
 65
     0
276
    -2
286
     1
 66
     0
277
    -2
287
     1
 67
     0
278
    -2
288
     1
 68
     0
279
    -2
289
     1
 69
     0
  7
Standard
140
4.5
170
     5
 62
     0
 63
   257
283
     0
 90
        4
 91
        0
  1

274
    -2
284
     1
 64
     0
275
    -2
285
     1
 65
     0
276
    -2
286
     1
 66
     0
277
    -2
287
     1
 67
     0
278
    -2
288
     1
 68
     0
279
    -2
289
     1
 69
     0
  0
VISUALSTYLE
  5
26C
102
{ACAD_REACTORS
330
267
102
}
330
267
100
AcDbVisualStyle
  2
2dWireframe
 70
     4
 71
     0
 72
     2
 73
     0
 90
        0
 40
-0.6
 41
-30.0
 62
     5
 63
     7
421
 16777215
 74
     1
 91
        4
 64
     7
 65
   257
 75
     1
175
     1
 42
1.0
 92
        0
 66
   257
 43
1.0
 76
     1
 77
     6
 78
     2
 67
     7
 79
     5
170
     0
171
     0
290
     0
174
     0
 93
        1
 44
0.0
173
     0
291
     0
 45
0.0
  0
VISUALSTYLE
  5
26E
102
{ACAD_REACTORS
330
267
102
}
330
267
100
AcDbVisualStyle
  2
3D Hidden
 70
     6
 71
     1
 72
     2
 73
     2
 90
        0
 40
-0.6
 41
-30.0
 62
     5
 63
     7
421
 16777215
 74
     2
 91
        2
 64
     7
 65
   257
 75
     2
175
     1
 42
40.0
 92
        0
 66
   257
 43
1.0
 76
     1
 77
     6
 78
     2
 67
     7
 79
     3
170
     0
171
     0
290
     0
174
     0
 93
        1
 44
0.0
173
     0
291
     0
 45
0.0
  0
VISUALSTYLE
  5
26D
102
{ACAD_REACTORS
330
267
102
}
330
267
100
AcDbVisualStyle
  2
3dWireframe
 70
     5
 71
     0
 72
     2
 73
     0
 90
        0
 40
-0.6
 41
-30.0
 62
     5
 63
     7
421
 16777215
 74
     1
 91
        4
 64
     7
 65
   257
 75
     1
175
     1
 42
1.0
 92
        0
 66
   257
 43
1.0
 76
     1
 77
     6
 78
     2
 67
     7
 79
     5
170
     0
171
     0
290
     0
174
     0
 93
        1
 44
0.0
173
     0
291
     0
 45
0.0
  0
VISUALSTYLE
  5
26F
102
{ACAD_REACTORS
330
267
102
}
330
267
100
AcDbVisualStyle
  2
Basic
 70
     7
 71
     1
 72
     0
 73
     1
 90
        0
 40
-0.6
 41
-30.0
 62
     5
 63
     7
421
 16777215
 74
     0
 91
        4
 64
     7
 65
   257
 75
     1
175
     1
 42
1.0
 92
        8
 66
     7
 43
1.0
 76
     1
 77
     6
 78
     2
 67
     7
 79
     5
170
     0
171
     0
290
     0
174
     0
 93
        1
 44
0.0
173
     0
291
     1
 45
0.0
  0
VISUALSTYLE
  5
273
102
{ACAD_REACTORS
330
267
102
}
330
267
100
AcDbVisualStyle
  2
Brighten
 70
    12
 71
     2
 72
     2
 73
     0
 90
        0
 40
-0.6
 41
-30.0
 62
     5
 63
     7
421
 16777215
 74
     1
 91
        4
 64
     7
 65
   257
 75
     1
175
     1
 42
1.0
 92
        8
 66
     7
 43
1.0
 76
     1
 77
     6
 78
     2
 67
     7
 79
     5
170
     0
171
     0
290
     0
174
     0
 93
        1
 44
50.0
173
     0
291
     1
 45
0.0
  0
VISUALSTYLE
  5
277
102
{ACAD_REACTORS
330
267
102
}
330
267
100
AcDbVisualStyle
  2
ColorChange
 70
    16
 71
     2
 72
     2
 73
     3
 90
        0
 40
-0.6
 41
-30.0
 62
     5
 63
     8
421
  8421504
 74
     1
 91
        4
 64
     7
 65
   257
 75
     1
175
     1
 42
1.0
 92
        8
 66
     8
424
  8421504
 43
1.0
 76
     1
 77
     6
 78
     2
 67
     7
 79
     5
170
     0
171
     0
290
     0
174
     0
 93
        1
 44
0.0
173
     0
291
     1
 45
0.0
  0
VISUALSTYLE
  5
271
102
{ACAD_REACTORS
330
267
102
}
330
267
100
AcDbVisualStyle
  2
Conceptual
 70
     9
 71
     3
 72
     2
 73
     0
 90
        0
 40
-0.6
 41
-30.0
 62
     5
 63
     7
421
 16777215
 74
     2
 91
        2
 64
     7
 65
   257
 75
     1
175
     1
 42
40.0
 92
        8
 66
     7
 43
1.0
 76
     1
 77
     6
 78
     2
 67
     7
 79
     3
170
     0
171
     0
290
     0
174
     0
 93
        1
 44
0.0
173
     0
291
     0
 45
0.0
  0
VISUALSTYLE
  5
272
102
{ACAD_REACTORS
330
267
102
}
330
267
100
AcDbVisualStyle
  2
Dim
 70
    11
 71
     2
 72
     2
 73
     0
 90
        0
 40
-0.6
 41
-30.0
 62
     5
 63
     7
421
 16777215
 74
     1
 91
        4
 64
     7
 65
   257
 75
     1
175
     1
 42
1.0
 92
        8
 66
     7
 43
1.0
 76
     1
 77
     6
 78
     2
 67
     7
 79
     5
170
     0
171
     0
290
     0
174
     0
 93
        1
 44
-50.0
173
     0
291
     1
 45
0.0
  0
VISUALSTYLE
  5
8FE
102
{ACAD_REACTORS
330
267
102
}
330
267
100
AcDbVisualStyle
  2
EdgeColorOff
 70
    22
 71
     2
 72
     2
 73
     0
 90
        0
 40
0.6
 41
30.0
 62
     5
 63
     7
421
 16777215
 74
     1
 91
        4
 64
     7
 65
   257
 75
     1
175
     1
 42
1.0
 92
        8
 66
     7
 43
1.0
 76
     1
 77
     6
 78
     2
 67
     7
 79
     5
170
     0
171
     0
290
     0
174
     0
 93
        1
 44
0.0
173
     0
291
     1
 45
0.0
  0
VISUALSTYLE
  5
276
102
{ACAD_REACTORS
330
267
102
}
330
267
100
AcDbVisualStyle
  2
Facepattern
 70
    15
 71
     2
 72
     2
 73
     0
 90
        0
 40
-0.6
 41
-30.0
 62
     5
 63
     7
421
 16777215
 74
     1
 91
        4
 64
     7
 65
   257
 75
     1
175
     1
 42
1.0
 92
        8
 66
     7
 43
1.0
 76
     1
 77
     6
 78
     2
 67
     7
 79
     5
170
     0
171
     0
290
     0
174
     0
 93
        1
 44
0.0
173
     0
291
     1
 45
0.0
  0
VISUALSTYLE
  5
268
102
{ACAD_REACTORS
330
267
102
}
330
267
100
AcDbVisualStyle
  2
Flat
 70
     0
 71
     2
 72
     1
 73
     1
 90
        2
 40
-0.6
 41
30.0
 62
     5
 63
     7
421
 16777215
 74
     0
 91
        4
 64
     7
 65
   257
 75
     1
175
     1
 42
1.0
 92
        8
 66
     7
 43
1.0
 76
     1
 77
     6
 78
     2
 67
     7
 79
     5
170
     0
171
     0
290
     0
174
     0
 93
       13
 44
0.0
173
     0
291
     1
 45
0.0
  0
VISUALSTYLE
  5
269
102
{ACAD_REACTORS
330
267
102
}
330
267
100
AcDbVisualStyle
  2
FlatWithEdges
 70
     1
 71
     2
 72
     1
 73
     1
 90
        2
 40
-0.6
 41
30.0
 62
     5
 63
     7
421
 16777215
 74
     1
 91
        4
 64
     7
 65
   257
 75
     1
175
     1
 42
1.0
 92
        0
 66
   257
 43
1.0
 76
     1
 77
     6
 78
     2
 67
     7
 79
     5
170
     0
171
     0
290
     0
174
     0
 93
       13
 44
0.0
173
     0
291
     1
 45
0.0
  0
VISUALSTYLE
  5
26A
102
{ACAD_REACTORS
330
267
102
}
330
267
100
AcDbVisualStyle
  2
Gouraud
 70
     2
 71
     2
 72
     2
 73
     1
 90
        2
 40
-0.6
 41
30.0
 62
     5
 63
     7
421
 16777215
 74
     0
 91
        4
 64
     7
 65
   257
 75
     1
175
     1
 42
1.0
 92
        0
 66
     7
 43
1.0
 76
     1
 77
     6
 78
     2
 67
     7
 79
     5
170
     0
171
     0
290
     0
174
     0
 93
       13
 44
0.0
173
     0
291
     1
 45
0.0
  0
VISUALSTYLE
  5
26B
102
{ACAD_REACTORS
330
267
102
}
330
267
100
AcDbVisualStyle
  2
GouraudWithEdges
 70
     3
 71
     2
 72
     2
 73
     1
 90
        2
 40
-0.6
 41
30.0
 62
     5
 63
     7
421
 16777215
 74
     1
 91
        4
 64
     7
 65
   257
 75
     1
175
     1
 42
1.0
 92
        0
 66
   257
 43
1.0
 76
     1
 77
     6
 78
     2
 67
     7
 79
     5
170
     0
171
     0
290
     0
174
     0
 93
       13
 44
0.0
173
     0
291
     1
 45
0.0
  0
VISUALSTYLE
  5
8FB
102
{ACAD_REACTORS
330
267
102
}
330
267
100
AcDbVisualStyle
  2
Hidden
 70
     6
 71
     1
 72
     2
 73
     2
 90
        0
 40
0.6
 41
30.0
 62
     5
 63
     7
421
 16777215
 74
     2
 91
        2
 64
     7
 65
   257
 75
     2
175
     1
 42
40.0
 92
        0
 66
   257
 43
1.0
 76
     1
 77
     6
 78
     2
 67
     7
 79
     3
170
     0
171
     0
290
     0
174
     0
 93
        1
 44
0.0
173
     0
291
     0
 45
0.0
  0
VISUALSTYLE
  5
8FC
102
{ACAD_REACTORS
330
267
102
}
330
267
100
AcDbVisualStyle
  2
JitterOff
 70
    20
 71
     2
 72
     2
 73
     0
 90
        0
 40
0.6
 41
30.0
 62
     5
 63
     7
421
 16777215
 74
     1
 91
        4
 64
     7
 65
   257
 75
     1
175
     1
 42
1.0
 92
       10
 66
     7
 43
1.0
 76
     1
 77
     6
 78
     2
 67
     7
 79
     5
170
     0
171
     0
290
     0
174
     0
 93
        1
 44
0.0
173
     0
291
     1
 45
0.0
  0
VISUALSTYLE
  5
275
102
{ACAD_REACTORS
330
267
102
}
330
267
100
AcDbVisualStyle
  2
Linepattern
 70
    14
 71
     2
 72
     2
 73
     0
 90
        0
 40
-0.6
 41
-30.0
 62
     5
 63
     7
421
 16777215
 74
     1
 91
        4
 64
     7
 65
   257
 75
     7
175
     7
 42
1.0
 92
        8
 66
     7
 43
1.0
 76
     1
 77
     6
 78
     2
 67
     7
 79
     5
170
     0
171
     0
290
     0
174
     0
 93
        1
 44
0.0
173
     0
291
     1
 45
0.0
  0
VISUALSTYLE
  5
8FD
102
{ACAD_REACTORS
330
267
102
}
330
267
100
AcDbVisualStyle
  2
OverhangOff
 70
    21
 71
     2
 72
     2
 73
     0
 90
        0
 40
0.6
 41
30.0
 62
     5
 63
     7
421
 16777215
 74
     1
 91
        4
 64
     7
 65
   257
 75
     1
175
     1
 42
1.0
 92
        9
 66
     7
 43
1.0
 76
     1
 77
     6
 78
     2
 67
     7
 79
     5
170
     0
171
     0
290
     0
174
     0
 93
        1
 44
0.0
173
     0
291
     1
 45
0.0
  0
VISUALSTYLE
  5
270
102
{ACAD_REACTORS
330
267
102
}
330
267
100
AcDbVisualStyle
  2
Realistic
 70
     8
 71
     2
 72
     2
 73
     0
 90
        0
 40
-0.6
 41
-30.0
 62
     5
 63
     7
421
 16777215
 74
     1
 91
        0
 64
     7
 65
   257
 75
     1
175
     1
 42
1.0
 92
        8
 66
     8
424
  7895160
 43
1.0
 76
     1
 77
     6
 78
     2
 67
     7
 79
     5
170
     0
171
     0
290
     0
174
     0
 93
       13
 44
0.0
173
     0
291
     0
 45
0.0
  0
VISUALSTYLE
  5
903
102
{ACAD_REACTORS
330
267
102
}
330
267
100
AcDbVisualStyle
  2
Shaded
 70
    27
 71
     2
 72
     2
 73
     1
 90
        2
 40
0.6
 41
30.0
 62
     5
 63
     7
421
 16777215
 74
     0
 91
        4
 64
     7
 65
   257
 75
     1
175
     1
 42
1.0
 92
        8
 66
   257
 43
1.0
 76
     1
 77
     6
 78
     2
 67
     8
425
  7895160
 79
     3
170
     0
171
     0
290
     0
174
     0
 93
        5
 44
0.0
173
     0
291
     0
 45
0.0
  0
VISUALSTYLE
  5
902
102
{ACAD_REACTORS
330
267
102
}
330
267
100
AcDbVisualStyle
  2
Shaded with edges
 70
    26
 71
     2
 72
     2
 73
     1
 90
        2
 40
0.6
 41
30.0
 62
     5
 63
     7
421
 16777215
 74
     1
 91
       10
 64
     7
 65
   257
 75
     2
175
     1
 42
1.0
 92
        8
 66
   257
 43
1.0
 76
     1
 77
     6
 78
     2
 67
     7
 79
     3
170
     0
171
     0
290
     0
174
     0
 93
        5
 44
0.0
173
     0
291
     0
 45
0.0
  0
VISUALSTYLE
  5
8FF
102
{ACAD_REACTORS
330
267
102
}
330
267
100
AcDbVisualStyle
  2
Shades of Gray
 70
    23
 71
     2
 72
     2
 73
     3
 90
        0
 40
0.6
 41
30.0
 62
     5
 63
     7
421
 16777215
 74
     2
 91
        2
 64
     7
 65
     7
 75
     1
175
     1
 42
40.0
 92
        8
 66
     7
 43
1.0
 76
     1
 77
     6
 78
     2
 67
     7
 79
     3
170
     0
171
     0
290
     0
174
     0
 93
        1
 44
0.0
173
     0
291
     0
 45
0.0
  0
VISUALSTYLE
  5
900
102
{ACAD_REACTORS
330
267
102
}
330
267
100
AcDbVisualStyle
  2
Sketchy
 70
    24
 71
     1
 72
     2
 73
     2
 90
        0
 40
0.6
 41
30.0
 62
     5
 63
     7
421
 16777215
 74
     2
 91
        2
 64
     7
 65
     7
 75
     1
175
     1
 42
40.0
 92
       11
 66
     7
 43
1.0
 76
     1
 77
     6
 78
     2
 67
     7
 79
     6
170
     0
171
     0
290
     0
174
     0
 93
        1
 44
0.0
173
     0
291
     0
 45
0.0
  0
VISUALSTYLE
  5
274
102
{ACAD_REACTORS
330
267
102
}
330
267
100
AcDbVisualStyle
  2
Thicken
 70
    13
 71
     2
 72
     2
 73
     0
 90
        0
 40
-0.6
 41
-30.0
 62
     5
 63
     7
421
 16777215
 74
     1
 91
        4
 64
     7
 65
   257
 75
     1
175
     1
 42
1.0
 92
       12
 66
     7
 43
1.0
 76
     1
 77
     6
 78
     2
 67
     7
 79
     5
170
     0
171
     0
290
     0
174
     0
 93
        1
 44
0.0
173
     0
291
     1
 45
0.0
  0
VISUALSTYLE
  5
8FA
102
{ACAD_REACTORS
330
267
102
}
330
267
100
AcDbVisualStyle
  2
Wireframe
 70
     5
 71
     0
 72
     2
 73
     0
 90
        0
 40
0.6
 41
30.0
 62
     5
 63
     7
421
 16777215
 74
     1
 91
        4
 64
     7
 65
   257
 75
     1
175
     1
 42
1.0
 92
        0
 66
   257
 43
1.0
 76
     1
 77
     6
 78
     2
 67
     7
 79
     3
170
     0
171
     0
290
     0
174
     0
 93
        1
 44
0.0
173
     0
291
     0
 45
0.0
  0
VISUALSTYLE
  5
901
102
{ACAD_REACTORS
330
267
102
}
330
267
100
AcDbVisualStyle
  2
X-Ray
 70
    25
 71
     2
 72
     2
 73
     1
 90
        1
 40
0.5
 41
30.0
 62
     5
 63
     7
421
 16777215
 74
     1
 91
        0
 64
     7
 65
   257
 75
     1
175
     1
 42
1.0
 92
        8
 66
     7
 43
1.0
 76
     1
 77
     6
 78
     2
 67
     7
 79
     3
170
     0
171
     0
290
     0
174
     0
 93
       13
 44
0.0
173
     0
291
     0
 45
0.0
  0
DICTIONARYVAR
  5
331
102
{ACAD_REACTORS
330
330
102
}
330
330
100
DictionaryVariables
280
     0
  1
1:1
  0
DICTIONARYVAR
  5
D5E
102
{ACAD_REACTORS
330
330
102
}
330
330
100
DictionaryVariables
280
     0
  1
Standard
  0
DICTIONARYVAR
  5
335
102
{ACAD_REACTORS
330
330
102
}
330
330
100
DictionaryVariables
280
     0
  1
Standard
  0
DICTIONARYVAR
  5
D52
102
{ACAD_REACTORS
330
330
102
}
330
330
100
DictionaryVariables
280
     0
  1
ByLayer
  0
DICTIONARYVAR
  5
896
102
{ACAD_REACTORS
330
330
102
}
330
330
100
DictionaryVariables
280
     0
  1
0
  0
DICTIONARYVAR
  5
122E
102
{ACAD_REACTORS
330
122B
102
}
330
122B
100
DictionaryVariables
280
     0
  1
0.261799
  0
DICTIONARYVAR
  5
122C
102
{ACAD_REACTORS
330
122B
102
}
330
122B
100
DictionaryVariables
280
     0
  1
0.400000
  0
DICTIONARYVAR
  5
122D
102
{ACAD_REACTORS
330
122B
102
}
330
122B
100
DictionaryVariables
280
     0
  1
0.250000
  0
DICTIONARYVAR
  5
122F
102
{ACAD_REACTORS
330
122B
102
}
330
122B
100
DictionaryVariables
280
     0
  1
1
  0
XRECORD
  5
7AA
102
{ACAD_REACTORS
330
2E2
102
}
330
2E2
100
AcDbXrecord
280
     1
 91
    34815
301

290
     0
302
HIDDEN
330
14
 90
        8
 62
     7
370
    -3
331
13
  1
Color_7
440
 33554687
330
4B
 90
        8
 62
     7
370
    20
331
13
  1
Color_7
440
 33554687
330
4C
 90
        8
 62
     3
370
    13
331
13
  1
Color_3
440
 33554687
330
4D
 90
        8
 62
     7
370
    20
331
13
  1
Color_7
440
 33554687
330
667
 90
        8
 62
     7
370
    -3
331
13
  1
Color_7
440
 33554687
330
88C
 90
        8
 62
     8
370
    20
331
D6D
  1
Color_8
440
 33554687
330
D6B
 90
        0
 62
     4
370
    20
331
D6C
  1
Color_4
440
 33554687
330
D8C
 90
        0
 62
     7
370
    -3
331
13
  1
Color_7
440
 33554687
  0
FIELD
  5
1695
102
{ACAD_REACTORS
330
1694
102
}
330
1694
100
AcDbField
  1
_text
  2
{%<\_FldIdx 0>%N}
 90
        1
360
1696
 97
        0
 91
       63
 92
        0
 94
        8
 95
        2
 96
        0
300

 93
        1
  6
ACFD_FIELDTEXT_CHECKSUM
 93
        2
 90
        2
140
4567.0
 94
        0
300

302

304
ACVALUE_END
  7
ACFD_FIELD_VALUE
 93
        6
 90
        4
  1
{20160629N}
 94
        0
300

302

304
ACVALUE_END
301
{20160629N}
 98
       11
  0
DICTIONARY
  5
16AE
330
279
100
AcDbDictionary
280
     1
281
     1
  3
ACAD_ROUNDTRIP_2008_TABLESTYLE_CELLSTYLEMAP
360
16AF
  0
FIELD
  5
1696
330
1695
100
AcDbField
  1
AcVar
  2
\AcVar CreateDate \f "yyyyMMdd"
 90
        0
 97
        0
 91
       63
 92
        0
 94
        8
 95
        2
 96
        0
300

 93
        1
  6
Variable
 93
        2
 90
        4
  1
CreateDate
 94
        0
300

302

304
ACVALUE_END
  7
ACFD_FIELD_VALUE
 93
        6
 90
        8
 92
       16
310
E007060000001D0007001C0031000000
 94
        0
300
yyyyMMdd
302

304
ACVALUE_END
301
20160629
 98
        8
  0
CELLSTYLEMAP
  5
16AF
102
{ACAD_REACTORS
330
16AE
102
}
330
16AE
100
AcDbCellStyleMap
 90
        3
300
CELLSTYLE
  1
TABLEFORMAT_BEGIN
 90
        5
170
     1
 91
        0
 92
    32768
 62
   257
 93
        1
300
CONTENTFORMAT
  1
CONTENTFORMAT_BEGIN
 90
        0
 91
        0
 92
        4
 93
        0
300

 40
0.0
140
1.0
 94
        5
 62
     0
340
17
144
6.0
309
CONTENTFORMAT_END
171
     1
301
MARGIN
  1
CELLMARGIN_BEGIN
 40
0.06
 40
0.06
 40
0.06
 40
0.06
 40
0.18
 40
0.18
309
CELLMARGIN_END
 94
        6
 95
        1
302
GRIDFORMAT
  1
GRIDFORMAT_BEGIN
 90
        0
 91
        1
 62
     0
 92
       -2
340
0
 93
        0
 40
0.045
309
GRIDFORMAT_END
 95
        2
302
GRIDFORMAT
  1
GRIDFORMAT_BEGIN
 90
        0
 91
        1
 62
     0
 92
       -2
340
0
 93
        0
 40
0.045
309
GRIDFORMAT_END
 95
        4
302
GRIDFORMAT
  1
GRIDFORMAT_BEGIN
 90
        0
 91
        1
 62
     0
 92
       -2
340
0
 93
        0
 40
0.045
309
GRIDFORMAT_END
 95
        8
302
GRIDFORMAT
  1
GRIDFORMAT_BEGIN
 90
        0
 91
        1
 62
     0
 92
       -2
340
0
 93
        0
 40
0.045
309
GRIDFORMAT_END
 95
       16
302
GRIDFORMAT
  1
GRIDFORMAT_BEGIN
 90
        0
 91
        1
 62
     0
 92
       -2
340
0
 93
        0
 40
0.045
309
GRIDFORMAT_END
 95
       32
302
GRIDFORMAT
  1
GRIDFORMAT_BEGIN
 90
        0
 91
        1
 62
     0
 92
       -2
340
0
 93
        0
 40
0.045
309
GRIDFORMAT_END
309
TABLEFORMAT_END
  1
CELLSTYLE_BEGIN
 90
        1
 91
        1
300
_TITLE
309
CELLSTYLE_END
300
CELLSTYLE
  1
TABLEFORMAT_BEGIN
 90
        5
170
     1
 91
        0
 92
        0
 62
   257
 93
        1
300
CONTENTFORMAT
  1
CONTENTFORMAT_BEGIN
 90
        0
 91
        0
 92
        4
 93
        0
300

 40
0.0
140
1.0
 94
        5
 62
     0
340
17
144
4.5
309
CONTENTFORMAT_END
171
     1
301
MARGIN
  1
CELLMARGIN_BEGIN
 40
0.06
 40
0.06
 40
0.06
 40
0.06
 40
0.18
 40
0.18
309
CELLMARGIN_END
 94
        6
 95
        1
302
GRIDFORMAT
  1
GRIDFORMAT_BEGIN
 90
        0
 91
        1
 62
     0
 92
       -2
340
0
 93
        0
 40
0.045
309
GRIDFORMAT_END
 95
        2
302
GRIDFORMAT
  1
GRIDFORMAT_BEGIN
 90
        0
 91
        1
 62
     0
 92
       -2
340
0
 93
        0
 40
0.045
309
GRIDFORMAT_END
 95
        4
302
GRIDFORMAT
  1
GRIDFORMAT_BEGIN
 90
        0
 91
        1
 62
     0
 92
       -2
340
0
 93
        0
 40
0.045
309
GRIDFORMAT_END
 95
        8
302
GRIDFORMAT
  1
GRIDFORMAT_BEGIN
 90
        0
 91
        1
 62
     0
 92
       -2
340
0
 93
        0
 40
0.045
309
GRIDFORMAT_END
 95
       16
302
GRIDFORMAT
  1
GRIDFORMAT_BEGIN
 90
        0
 91
        1
 62
     0
 92
       -2
340
0
 93
        0
 40
0.045
309
GRIDFORMAT_END
 95
       32
302
GRIDFORMAT
  1
GRIDFORMAT_BEGIN
 90
        0
 91
        1
 62
     0
 92
       -2
340
0
 93
        0
 40
0.045
309
GRIDFORMAT_END
309
TABLEFORMAT_END
  1
CELLSTYLE_BEGIN
 90
        2
 91
        1
300
_HEADER
309
CELLSTYLE_END
300
CELLSTYLE
  1
TABLEFORMAT_BEGIN
 90
        5
170
     1
 91
        0
 92
        0
 62
   257
 93
        1
300
CONTENTFORMAT
  1
CONTENTFORMAT_BEGIN
 90
        0
 91
        0
 92
        4
 93
        0
300

 40
0.0
140
1.0
 94
        2
 62
     0
340
17
144
4.5
309
CONTENTFORMAT_END
171
     1
301
MARGIN
  1
CELLMARGIN_BEGIN
 40
0.06
 40
0.06
 40
0.06
 40
0.06
 40
0.18
 40
0.18
309
CELLMARGIN_END
 94
        6
 95
        1
302
GRIDFORMAT
  1
GRIDFORMAT_BEGIN
 90
        0
 91
        1
 62
     0
 92
       -2
340
0
 93
        0
 40
0.045
309
GRIDFORMAT_END
 95
        2
302
GRIDFORMAT
  1
GRIDFORMAT_BEGIN
 90
        0
 91
        1
 62
     0
 92
       -2
340
0
 93
        0
 40
0.045
309
GRIDFORMAT_END
 95
        4
302
GRIDFORMAT
  1
GRIDFORMAT_BEGIN
 90
        0
 91
        1
 62
     0
 92
       -2
340
0
 93
        0
 40
0.045
309
GRIDFORMAT_END
 95
        8
302
GRIDFORMAT
  1
GRIDFORMAT_BEGIN
 90
        0
 91
        1
 62
     0
 92
       -2
340
0
 93
        0
 40
0.045
309
GRIDFORMAT_END
 95
       16
302
GRIDFORMAT
  1
GRIDFORMAT_BEGIN
 90
        0
 91
        1
 62
     0
 92
       -2
340
0
 93
        0
 40
0.045
309
GRIDFORMAT_END
 95
       32
302
GRIDFORMAT
  1
GRIDFORMAT_BEGIN
 90
        0
 91
        1
 62
     0
 92
       -2
340
0
 93
        0
 40
0.045
309
GRIDFORMAT_END
309
TABLEFORMAT_END
  1
CELLSTYLE_BEGIN
 90
        3
 91
        2
300
_DATA
309
CELLSTYLE_END
  0
ENDSEC
  0
EOF
