  0
SECTION
  2
HEADER
  9
$ACADVER
  1
AC1021
  9
$ACADMAINTVER
 70
    25
  9
$DWGCODEPAGE
  3
ANSI_932
  9
$LASTSAVEDBY
  1
howeNelson
  9
$INSBASE
 10
0.0
 20
0.0
 30
0.0
  9
$EXTMIN
 10
0.0
 20
0.0
 30
0.0
  9
$EXTMAX
 10
1050.0
 20
1485.0
 30
0.0000000000000142
  9
$LIMMIN
 10
0.0
 20
0.0
  9
$LIMMAX
 10
1050.0
 20
1485.0
  9
$ORTHOMODE
 70
     0
  9
$REGENMODE
 70
     1
  9
$FILLMODE
 70
     1
  9
$QTEXTMODE
 70
     0
  9
$MIRRTEXT
 70
     1
  9
$LTSCALE
 40
50.0
  9
$ATTMODE
 70
     1
  9
$TEXTSIZE
 40
2.5
  9
$TRACEWID
 40
1.0
  9
$TEXTSTYLE
  7
ＭＳ ゴシック
  9
$CLAYER
  8
DIM
  9
$CELTYPE
  6
ByLayer
  9
$CECOLOR
 62
   256
  9
$CELTSCALE
 40
0.05
  9
$DISPSILH
 70
     0
  9
$DIMSCALE
 40
1.0
  9
$DIMASZ
 40
3.0
  9
$DIMEXO
 40
10.0
  9
$DIMDLI
 40
0.9999999999999999
  9
$DIMRND
 40
0.0
  9
$DIMDLE
 40
0.0
  9
$DIMEXE
 40
0.0
  9
$DIMTP
 40
0.0
  9
$DIMTM
 40
0.0
  9
$DIMTXT
 40
12.0
  9
$DIMCEN
 40
0.0
  9
$DIMTSZ
 40
0.0
  9
$DIMTOL
 70
     0
  9
$DIMLIM
 70
     0
  9
$DIMTIH
 70
     0
  9
$DIMTOH
 70
     0
  9
$DIMSE1
 70
     0
  9
$DIMSE2
 70
     0
  9
$DIMTAD
 70
     1
  9
$DIMZIN
 70
    11
  9
$DIMBLK
  1
DOT
  9
$DIMASO
 70
     1
  9
$DIMSHO
 70
     1
  9
$DIMPOST
  1
<>
  9
$DIMAPOST
  1
[]
  9
$DIMALT
 70
     0
  9
$DIMALTD
 70
     1
  9
$DIMALTF
 40
1.0
  9
$DIMLFAC
 40
1.0
  9
$DIMTOFL
 70
     0
  9
$DIMTVP
 40
0.0
  9
$DIMTIX
 70
     1
  9
$DIMSOXD
 70
     0
  9
$DIMSAH
 70
     0
  9
$DIMBLK1
  1

  9
$DIMBLK2
  1

  9
$DIMSTYLE
  2
tfrom線あり
  9
$DIMCLRD
 70
     0
  9
$DIMCLRE
 70
     0
  9
$DIMCLRT
 70
     0
  9
$DIMTFAC
 40
1.0
  9
$DIMGAP
 40
10.0
  9
$DIMJUST
 70
     0
  9
$DIMSD1
 70
     0
  9
$DIMSD2
 70
     0
  9
$DIMTOLJ
 70
     1
  9
$DIMTZIN
 70
    11
  9
$DIMALTZ
 70
    11
  9
$DIMALTTZ
 70
    11
  9
$DIMUPT
 70
     0
  9
$DIMDEC
 70
     0
  9
$DIMTDEC
 70
     1
  9
$DIMALTU
 70
     2
  9
$DIMALTTD
 70
     2
  9
$DIMTXSTY
  7
ＭＳ ゴシック
  9
$DIMAUNIT
 70
     0
  9
$DIMADEC
 70
     2
  9
$DIMALTRND
 40
0.0
  9
$DIMAZIN
 70
     0
  9
$DIMDSEP
 70
    46
  9
$DIMATFIT
 70
     0
  9
$DIMFRAC
 70
     2
  9
$DIMLDRBLK
  1
DOT
  9
$DIMLUNIT
 70
     2
  9
$DIMLWD
 70
    -2
  9
$DIMLWE
 70
    -2
  9
$DIMTMOVE
 70
     0
  9
$DIMFXL
 40
1.0
  9
$DIMFXLON
 70
     0
  9
$DIMJOGANG
 40
0.7853981633974483
  9
$DIMTFILL
 70
     0
  9
$DIMTFILLCLR
 70
     0
  9
$DIMARCSYM
 70
     0
  9
$DIMLTYPE
  6

  9
$DIMLTEX1
  6

  9
$DIMLTEX2
  6

  9
$LUNITS
 70
     2
  9
$LUPREC
 70
     0
  9
$SKETCHINC
 40
0.1
  9
$FILLETRAD
 40
0.0
  9
$AUNITS
 70
     0
  9
$AUPREC
 70
     0
  9
$MENU
  1
acad
  9
$ELEVATION
 40
0.0
  9
$PELEVATION
 40
0.0
  9
$THICKNESS
 40
0.0
  9
$LIMCHECK
 70
     0
  9
$CHAMFERA
 40
0.0
  9
$CHAMFERB
 40
0.0
  9
$CHAMFERC
 40
0.0
  9
$CHAMFERD
 40
0.0
  9
$SKPOLY
 70
     0
  9
$TDCREATE
 40
2447893.375
  9
$TDUCREATE
 40
0.0
  9
$TDUPDATE
 40
2457589.448203854
  9
$TDUUPDATE
 40
2457589.073203854
  9
$TDINDWG
 40
0.1796428588
  9
$TDUSRTIMER
 40
2457589.071271331
  9
$USRTIMER
 70
     1
  9
$ANGBASE
 50
0.0
  9
$ANGDIR
 70
     0
  9
$PDMODE
 70
     1
  9
$PDSIZE
 40
-2.0
  9
$PLINEWID
 40
0.0
  9
$SPLFRAME
 70
     0
  9
$SPLINETYPE
 70
     6
  9
$SPLINESEGS
 70
     8
  9
$HANDSEED
  5
3120B
  9
$SURFTAB1
 70
     6
  9
$SURFTAB2
 70
     6
  9
$SURFTYPE
 70
     6
  9
$SURFU
 70
     6
  9
$SURFV
 70
     6
  9
$UCSBASE
  2

  9
$UCSNAME
  2

  9
$UCSORG
 10
0.0
 20
0.0
 30
0.0
  9
$UCSXDIR
 10
1.0
 20
0.0
 30
0.0
  9
$UCSYDIR
 10
0.0
 20
1.0
 30
0.0
  9
$UCSORTHOREF
  2

  9
$UCSORTHOVIEW
 70
     0
  9
$UCSORGTOP
 10
0.0
 20
0.0
 30
0.0
  9
$UCSORGBOTTOM
 10
0.0
 20
0.0
 30
0.0
  9
$UCSORGLEFT
 10
0.0
 20
0.0
 30
0.0
  9
$UCSORGRIGHT
 10
0.0
 20
0.0
 30
0.0
  9
$UCSORGFRONT
 10
0.0
 20
0.0
 30
0.0
  9
$UCSORGBACK
 10
0.0
 20
0.0
 30
0.0
  9
$PUCSBASE
  2

  9
$PUCSNAME
  2

  9
$PUCSORG
 10
0.0
 20
0.0
 30
0.0
  9
$PUCSXDIR
 10
1.0
 20
0.0
 30
0.0
  9
$PUCSYDIR
 10
0.0
 20
1.0
 30
0.0
  9
$PUCSORTHOREF
  2

  9
$PUCSORTHOVIEW
 70
     0
  9
$PUCSORGTOP
 10
0.0
 20
0.0
 30
0.0
  9
$PUCSORGBOTTOM
 10
0.0
 20
0.0
 30
0.0
  9
$PUCSORGLEFT
 10
0.0
 20
0.0
 30
0.0
  9
$PUCSORGRIGHT
 10
0.0
 20
0.0
 30
0.0
  9
$PUCSORGFRONT
 10
0.0
 20
0.0
 30
0.0
  9
$PUCSORGBACK
 10
0.0
 20
0.0
 30
0.0
  9
$USERI1
 70
     0
  9
$USERI2
 70
     0
  9
$USERI3
 70
     0
  9
$USERI4
 70
     0
  9
$USERI5
 70
     0
  9
$USERR1
 40
0.0
  9
$USERR2
 40
0.0
  9
$USERR3
 40
0.0
  9
$USERR4
 40
0.0
  9
$USERR5
 40
0.0
  9
$WORLDVIEW
 70
     1
  9
$SHADEDGE
 70
     3
  9
$SHADEDIF
 70
    70
  9
$TILEMODE
 70
     1
  9
$MAXACTVP
 70
    64
  9
$PINSBASE
 10
0.0
 20
0.0
 30
0.0
  9
$PLIMCHECK
 70
     0
  9
$PEXTMIN
 10
0.0
 20
0.0
 30
0.0
  9
$PEXTMAX
 10
0.0
 20
0.0
 30
0.0
  9
$PLIMMIN
 10
-95.87226993865028
 20
-25.69999999999999
  9
$PLIMMAX
 10
201.1277300613497
 20
184.3
  9
$UNITMODE
 70
     0
  9
$VISRETAIN
 70
     0
  9
$PLINEGEN
 70
     1
  9
$PSLTSCALE
 70
     0
  9
$TREEDEPTH
 70
  3020
  9
$CMLSTYLE
  2
Standard
  9
$CMLJUST
 70
     0
  9
$CMLSCALE
 40
1.0
  9
$PROXYGRAPHICS
 70
     0
  9
$MEASUREMENT
 70
     1
  9
$CELWEIGHT
370
    -1
  9
$ENDCAPS
280
     0
  9
$JOINSTYLE
280
     0
  9
$LWDISPLAY
290
     1
  9
$INSUNITS
 70
     4
  9
$HYPERLINKBASE
  1

  9
$STYLESHEET
  1

  9
$XEDIT
290
     1
  9
$CEPSNTYPE
380
     0
  9
$PSTYLEMODE
290
     1
  9
$FINGERPRINTGUID
  2

  9
$VERSIONGUID
  2

  9
$EXTNAMES
290
     1
  9
$PSVPSCALE
 40
0.0
  9
$OLESTARTUP
290
     0
  9
$SORTENTS
280
   127
  9
$INDEXCTL
280
     0
  9
$HIDETEXT
280
     1
  9
$XCLIPFRAME
290
     0
  9
$HALOGAP
280
     0
  9
$OBSCOLOR
 70
   257
  9
$OBSLTYPE
280
     0
  9
$INTERSECTIONDISPLAY
280
     0
  9
$INTERSECTIONCOLOR
 70
   257
  9
$DIMASSOC
280
     2
  9
$PROJECTNAME
  1

  9
$CAMERADISPLAY
290
     0
  9
$LENSLENGTH
 40
50.0
  9
$CAMERAHEIGHT
 40
0.0
  9
$STEPSPERSEC
 40
2.0
  9
$STEPSIZE
 40
6.0
  9
$3DDWFPREC
 40
2.0
  9
$PSOLWIDTH
 40
0.25
  9
$PSOLHEIGHT
 40
4.0
  9
$LOFTANG1
 40
1.570796326794897
  9
$LOFTANG2
 40
1.570796326794897
  9
$LOFTMAG1
 40
0.0
  9
$LOFTMAG2
 40
0.0
  9
$LOFTPARAM
 70
     7
  9
$LOFTNORMALS
280
     1
  9
$LATITUDE
 40
37.795
  9
$LONGITUDE
 40
-122.394
  9
$NORTHDIRECTION
 40
0.0
  9
$TIMEZONE
 70
 -8000
  9
$LIGHTGLYPHDISPLAY
280
     1
  9
$TILEMODELIGHTSYNCH
280
     1
  9
$SOLIDHIST
280
     1
  9
$SHOWHIST
280
     1
  9
$DWFFRAME
280
     2
  9
$DGNFRAME
280
     2
  9
$REALWORLDSCALE
290
     1
  9
$INTERFERECOLOR
 62
   256
  9
$CSHADOW
280
     0
  9
$SHADOWPLANELOCATION
 40
0.0
  0
ENDSEC
  0
SECTION
  2
CLASSES
  0
CLASS
  1
LWPOLYLINE
  2
AcDbPolyline
  3
ObjectDBX Classes
 90
        0
 91
        1
280
     0
281
     1
  0
CLASS
  1
IMAGE
  2
AcDbRasterImage
  3
ISM
 90
      127
 91
        6
280
     0
281
     1
  0
CLASS
  1
OLE2FRAME
  2
AcDbOle2Frame
  3
ObjectDBX Classes
 90
        0
 91
        1
280
     0
281
     1
  0
CLASS
  1
HATCH
  2
AcDbHatch
  3
ObjectDBX Classes
 90
        0
 91
        1
280
     0
281
     1
  0
CLASS
  1
DICTIONARYVAR
  2
AcDbDictionaryVar
  3
ObjectDBX Classes
 90
        0
 91
        5
280
     0
281
     0
  0
CLASS
  1
RASTERVARIABLES
  2
AcDbRasterVariables
  3
ISM
 90
        0
 91
        5
280
     0
281
     0
  0
CLASS
  1
IMAGEDEF
  2
AcDbRasterImageDef
  3
ISM
 90
        0
 91
        5
280
     0
281
     0
  0
CLASS
  1
IMAGEDEF_REACTOR
  2
AcDbRasterImageDefReactor
  3
ISM
 90
        1
 91
        5
280
     0
281
     0
  0
CLASS
  1
IDBUFFER
  2
AcDbIdBuffer
  3
ObjectDBX Classes
 90
        0
 91
        5
280
     0
281
     0
  0
CLASS
  1
SPATIAL_FILTER
  2
AcDbSpatialFilter
  3
ObjectDBX Classes
 90
        0
 91
        5
280
     0
281
     0
  0
CLASS
  1
XRECORD
  2
AcDbXrecord
  3
ObjectDBX Classes
 90
        0
 91
        1
280
     0
281
     0
  0
CLASS
  1
SORTENTSTABLE
  2
AcDbSortentsTable
  3
ObjectDBX Classes
 90
        0
 91
        5
280
     0
281
     0
  0
CLASS
  1
LAYER_INDEX
  2
AcDbLayerIndex
  3
ObjectDBX Classes
 90
        0
 91
        5
280
     0
281
     0
  0
CLASS
  1
SPATIAL_INDEX
  2
AcDbSpatialIndex
  3
AutoCAD 2000
 90
        0
 91
        5
280
     0
281
     0
  0
CLASS
  1
OBJECT_PTR
  2
CAseDLPNTableRecord
  3
ASE-LPNTableRecord
 90
        1
 91
        5
280
     0
281
     0
  0
CLASS
  1
LAYOUT
  2
AcDbLayout
  3
ObjectDBX Classes
 90
        0
 91
        1
280
     0
281
     0
  0
CLASS
  1
PLOTSETTINGS
  2
AcDbPlotSettings
  3
ObjectDBX Classes
 90
        0
 91
        5
280
     0
281
     0
  0
CLASS
  1
ACDBDICTIONARYWDFLT
  2
AcDbDictionaryWithDefault
  3
ObjectDBX Classes
 90
        0
 91
        5
280
     0
281
     0
  0
CLASS
  1
ACDBPLACEHOLDER
  2
AcDbPlaceHolder
  3
ObjectDBX Classes
 90
        0
 91
        1
280
     0
281
     0
  0
CLASS
  1
SCALE
  2
AcDbScale
  3
ObjectDBX Classes
 90
     1153
 91
        5
280
     0
281
     0
  0
CLASS
  1
MATERIAL
  2
AcDbMaterial
  3
ObjectDBX Classes
 90
     1153
 91
        5
280
     0
281
     0
  0
CLASS
  1
VISUALSTYLE
  2
AcDbVisualStyle
  3
ObjectDBX Classes
 90
     4095
 91
        5
280
     0
281
     0
  0
CLASS
  1
TABLESTYLE
  2
AcDbTableStyle
  3
ObjectDBX Classes
 90
     4095
 91
        5
280
     0
281
     0
  0
CLASS
  1
DIMASSOC
  2
AcDbDimAssoc
  3
"AcDbDimAssoc|Product Desc:     AcDim ARX App For Dimension|Company:          Autodesk, Inc.|WEB Address:      www.autodesk.com"
 90
        0
 91
        5
280
     0
281
     0
  0
CLASS
  1
CELLSTYLEMAP
  2
AcDbCellStyleMap
  3
ObjectDBX Classes
 90
     1152
 91
        5
280
     0
281
     0
  0
CLASS
  1
SUN
  2
AcDbSun
  3
SCENEOE
 90
     1153
 91
        5
280
     0
281
     0
  0
CLASS
  1
MLEADERSTYLE
  2
AcDbMLeaderStyle
  3
ACDB_MLEADERSTYLE_CLASS
 90
     4095
 91
        5
280
     0
281
     0
  0
CLASS
  1
FIELD
  2
AcDbField
  3
ObjectDBX Classes
 90
     1152
 91
        5
280
     0
281
     0
  0
CLASS
  1
FIELDLIST
  2
AcDbFieldList
  3
ObjectDBX Classes
 90
     1152
 91
        5
280
     0
281
     0
  0
ENDSEC
  0
SECTION
  2
TABLES
  0
TABLE
  2
VPORT
  5
7
330
0
100
AcDbSymbolTable
 70
     1
  0
VPORT
  5
15
330
7
100
AcDbSymbolTableRecord
100
AcDbViewportTableRecord
  2
*ACTIVE
 70
     0
 10
0.0
 20
0.0
 11
1.0
 21
1.0
 12
616.0201356708988
 22
668.901285469834
 13
0.0
 23
0.0
 14
1.0
 24
1.0
 15
0.0
 25
0.0
 16
0.0
 26
0.0
 36
1.0
 17
-91.02013567089875
 27
73.59871453016603
 37
-46.86809886248109
 40
1514.7
 41
2.479940564635958
 42
50.0
 43
0.0
 44
0.0
 50
0.0
 51
0.0
 71
    16
 72
  2000
 73
     1
 74
     1
 75
     0
 76
     0
 77
     0
 78
     0
281
     0
 65
     1
110
0.0
120
0.0
130
0.0
111
1.0
121
0.0
131
0.0
112
0.0
122
1.0
132
0.0
 79
     0
146
0.0
348
26C
 60
     3
 61
     5
292
     1
282
     1
141
0.0
142
0.0
 63
   256
361
904
  0
ENDTAB
  0
TABLE
  2
LTYPE
  5
4
330
0
100
AcDbSymbolTable
 70
    22
  0
LTYPE
  5
11
330
4
100
AcDbSymbolTableRecord
100
AcDbLinetypeTableRecord
  2
ByBlock
 70
     0
  3

 72
    65
 73
     0
 40
0.0
  0
LTYPE
  5
12
330
4
100
AcDbSymbolTableRecord
100
AcDbLinetypeTableRecord
  2
ByLayer
 70
     0
  3

 72
    65
 73
     0
 40
0.0
  0
LTYPE
  5
13
330
4
100
AcDbSymbolTableRecord
100
AcDbLinetypeTableRecord
  2
Continuous
 70
     0
  3
Solid line
 72
    65
 73
     0
 40
0.0
  0
LTYPE
  5
3A
330
4
100
AcDbSymbolTableRecord
100
AcDbLinetypeTableRecord
  2
STYLE_01
 70
     0
  3

 72
    65
 73
     2
 40
0.2460629921259842
 49
0.1230314960629921
 74
     0
 49
-0.1230314960629921
 74
     0
  0
LTYPE
  5
3B
330
4
100
AcDbSymbolTableRecord
100
AcDbLinetypeTableRecord
  2
STYLE_02
 70
     0
  3

 72
    65
 73
     2
 40
0.6944250000000001
 49
0.48607
 74
     0
 49
-0.2083550000000001
 74
     0
  0
LTYPE
  5
3C
330
4
100
AcDbSymbolTableRecord
100
AcDbLinetypeTableRecord
  2
STYLE_03
 70
     0
  3

 72
    65
 73
     2
 40
1.25
 49
1.04164
 74
     0
 49
-0.2083599999999999
 74
     0
  0
LTYPE
  5
3D
330
4
100
AcDbSymbolTableRecord
100
AcDbLinetypeTableRecord
  2
STYLE_04
 70
     0
  3

 72
    65
 73
     2
 40
1.52771
 49
1.319425
 74
     0
 49
-0.208285
 74
     0
  0
LTYPE
  5
3E
330
4
100
AcDbSymbolTableRecord
100
AcDbLinetypeTableRecord
  2
STYLE_05
 70
     0
  3

 72
    65
 73
     2
 40
0.20828
 49
0.069425
 74
     0
 49
-0.138855
 74
     0
  0
LTYPE
  5
3F
330
4
100
AcDbSymbolTableRecord
100
AcDbLinetypeTableRecord
  2
STYLE_06
 70
     0
  3

 72
    65
 73
     4
 40
1.04164
 49
0.625
 74
     0
 49
-0.20828
 74
     0
 49
0.06943
 74
     0
 49
-0.13893
 74
     0
  0
LTYPE
  5
40
330
4
100
AcDbSymbolTableRecord
100
AcDbLinetypeTableRecord
  2
STYLE_07
 70
     0
  3

 72
    65
 73
     6
 40
1.875
 49
0.625
 74
     0
 49
-0.20828
 74
     0
 49
0.6250000000000001
 74
     0
 49
-0.2083599999999999
 74
     0
 49
0.06943
 74
     0
 49
-0.1389299999999999
 74
     0
  0
LTYPE
  5
41
330
4
100
AcDbSymbolTableRecord
100
AcDbLinetypeTableRecord
  2
STYLE_08
 70
     0
  3

 72
    65
 73
     6
 40
1.25
 49
0.625
 74
     0
 49
-0.20828
 74
     0
 49
0.06943
 74
     0
 49
-0.13893
 74
     0
 49
0.0694299999999999
 74
     0
 49
-0.13893
 74
     0
  0
LTYPE
  5
42
330
4
100
AcDbSymbolTableRecord
100
AcDbLinetypeTableRecord
  2
STYLE_09
 70
     0
  3

 72
    65
 73
     4
 40
5.0
 49
3.75
 74
     0
 49
-0.2777849999999998
 74
     0
 49
0.6944300000000003
 74
     0
 49
-0.2777849999999998
 74
     0
  0
LTYPE
  5
43
330
4
100
AcDbSymbolTableRecord
100
AcDbLinetypeTableRecord
  2
STYLE_10
 70
     0
  3

 72
    65
 73
     6
 40
5.9375
 49
3.75
 74
     0
 49
-0.2777849999999998
 74
     0
 49
0.6944300000000003
 74
     0
 49
-0.2777849999999998
 74
     0
 49
0.625
 74
     0
 49
-0.3125
 74
     0
  0
LTYPE
  5
44
330
4
100
AcDbSymbolTableRecord
100
AcDbLinetypeTableRecord
  2
STYLE_11
 70
     0
  3

 72
    65
 73
     2
 40
0.0694444881889764
 49
0.0347222440944882
 74
     0
 49
-0.0347222440944882
 74
     0
  0
LTYPE
  5
45
330
4
100
AcDbSymbolTableRecord
100
AcDbLinetypeTableRecord
  2
STYLE_12
 70
     0
  3

 72
    65
 73
     2
 40
0.3937007874015748
 49
0.1968503937007874
 74
     0
 49
-0.1968503937007874
 74
     0
  0
LTYPE
  5
46
330
4
100
AcDbSymbolTableRecord
100
AcDbLinetypeTableRecord
  2
STYLE_13
 70
     0
  3

 72
    65
 73
     2
 40
0.5905511811023622
 49
0.2952755905511811
 74
     0
 49
-0.2952755905511811
 74
     0
  0
LTYPE
  5
47
330
4
100
AcDbSymbolTableRecord
100
AcDbLinetypeTableRecord
  2
STYLE_14
 70
     0
  3

 72
    65
 73
     2
 40
1.968503937007874
 49
0.9842519685039369
 74
     0
 49
-0.9842519685039369
 74
     0
  0
LTYPE
  5
48
330
4
100
AcDbSymbolTableRecord
100
AcDbLinetypeTableRecord
  2
STYLE_15
 70
     0
  3

 72
    65
 73
     2
 40
0.1875
 49
0.125
 74
     0
 49
-0.0625
 74
     0
  0
LTYPE
  5
49
330
4
100
AcDbSymbolTableRecord
100
AcDbLinetypeTableRecord
  2
STYLE_16
 70
     0
  3

 72
    65
 73
     2
 40
0.3690944881889764
 49
0.2460629921259843
 74
     0
 49
-0.1230314960629922
 74
     0
  0
LTYPE
  5
908
330
4
100
AcDbSymbolTableRecord
100
AcDbLinetypeTableRecord
  2
AI-LINETYPE-1
 70
     0
  3
Adobe Illustrator Linetype No. 1
 72
    65
 73
     4
 40
2.116668062491661
 49
1.058334031245831
 74
     0
 49
-0.3527780104152769
 74
     0
 49
0.3527780104152769
 74
     0
 49
-0.3527780104152769
 74
     0
  0
LTYPE
  5
909
330
4
100
AcDbSymbolTableRecord
100
AcDbLinetypeTableRecord
  2
AI-LINETYPE-2
 70
     0
  3
Adobe Illustrator Linetype No. 2
 72
    65
 73
     4
 40
2.116668062491661
 49
1.058334031245831
 74
     0
 49
-0.3527780104152769
 74
     0
 49
0.3527780104152769
 74
     0
 49
-0.3527780104152769
 74
     0
  0
LTYPE
  5
D6C
330
4
100
AcDbSymbolTableRecord
100
AcDbLinetypeTableRecord
  2
BORDER
 70
     0
  3
Border __  __  . __  __  . __  __  . __  __  . 
 72
    65
 73
     6
 40
44.45
 49
12.7
 74
     0
 49
-6.35
 74
     0
 49
12.7
 74
     0
 49
-6.35
 74
     0
 49
0.0
 74
     0
 49
-6.35
 74
     0
  0
LTYPE
  5
D6D
330
4
100
AcDbSymbolTableRecord
100
AcDbLinetypeTableRecord
  2
HIDDEN
 70
     0
  3
Hidden _ _ _ _ _ _ _ _ _ _ _ _ _ _ _ _ _ _ _ _ 
 72
    65
 73
     2
 40
9.524999999999999
 49
6.35
 74
     0
 49
-3.175
 74
     0
  0
LTYPE
  5
31089
330
4
100
AcDbSymbolTableRecord
100
AcDbLinetypeTableRecord
  2
CENTER
 70
     0
  3
 Center _____  _  _____  _  _____  _  _____  _ 
 72
    65
 73
     4
 40
50.8
 49
31.75
 74
     0
 49
-6.35
 74
     0
 49
6.35
 74
     0
 49
-6.35
 74
     0
  0
ENDTAB
  0
TABLE
  2
LAYER
  5
2
102
{ACAD_XDICTIONARY
360
2E1
102
}
330
0
100
AcDbSymbolTable
 70
    10
  0
LAYER
  5
14
330
2
100
AcDbSymbolTableRecord
100
AcDbLayerTableRecord
  2
0
 70
     0
 62
     7
  6
Continuous
370
    -3
390
1D
347
266
  0
LAYER
  5
4B
330
2
100
AcDbSymbolTableRecord
100
AcDbLayerTableRecord
  2
TEMPLATE
 70
     0
 62
     7
  6
Continuous
370
    20
390
1D
347
266
  0
LAYER
  5
4C
330
2
100
AcDbSymbolTableRecord
100
AcDbLayerTableRecord
  2
DIM
 70
     0
 62
     3
  6
Continuous
370
    13
390
1D
347
266
  0
LAYER
  5
4D
330
2
100
AcDbSymbolTableRecord
100
AcDbLayerTableRecord
  2
MODEL
 70
     0
 62
     7
  6
Continuous
370
    20
390
1D
347
266
  0
LAYER
  5
667
330
2
100
AcDbSymbolTableRecord
100
AcDbLayerTableRecord
  2
LOGO
 70
     0
 62
     7
  6
Continuous
370
    -3
390
1D
347
266
  0
LAYER
  5
88C
330
2
100
AcDbSymbolTableRecord
100
AcDbLayerTableRecord
  2
HIDDEN
 70
     0
 62
     8
  6
HIDDEN
370
    20
390
1D
347
266
1001
AcAecLayerStandard
1000

1000

  0
LAYER
  5
D6B
330
2
100
AcDbSymbolTableRecord
100
AcDbLayerTableRecord
  2
BORDER
 70
     0
 62
     4
  6
BORDER
290
     0
370
    20
390
1D
347
266
1001
AcAecLayerStandard
1000

1000

  0
LAYER
  5
D8C
330
2
100
AcDbSymbolTableRecord
100
AcDbLayerTableRecord
  2
Defpoints
 70
     0
 62
     7
  6
Continuous
290
     0
370
    -3
390
1D
347
266
  0
LAYER
  5
E69
330
2
100
AcDbSymbolTableRecord
100
AcDbLayerTableRecord
  2
PRINT BORDER
 70
     0
 62
     4
  6
BORDER
290
     0
370
    20
390
1D
347
266
1001
AcAecLayerStandard
1000

1000

  0
LAYER
  5
12C1
330
2
100
AcDbSymbolTableRecord
100
AcDbLayerTableRecord
  2
レイヤー 1
 70
     0
 62
     7
  6
Continuous
370
    -3
390
1D
347
266
  0
ENDTAB
  0
TABLE
  2
STYLE
  5
3
330
0
100
AcDbSymbolTable
 70
     4
  0
STYLE
  5
17
330
3
100
AcDbSymbolTableRecord
100
AcDbTextStyleTableRecord
  2
Standard
 70
     0
 40
0.0
 41
1.0
 50
0.0
 71
     0
 42
2.5
  3
txt
  4
BIGFONT.SHX
  0
STYLE
  5
39
330
3
100
AcDbSymbolTableRecord
100
AcDbTextStyleTableRecord
  2
ＭＳ ゴシック
 70
     0
 40
0.0
 41
1.0
 50
0.0
 71
     0
 42
2.5
  3
msgothic.ttc
  4
ＭＳ ゴシック
1001
ACAD
1000
ＭＳ ゴシック
1071
        0
  0
STYLE
  5
384
330
3
100
AcDbSymbolTableRecord
100
AcDbTextStyleTableRecord
  2
ARIAL
 70
     0
 40
0.0
 41
1.0
 50
0.0
 71
     0
 42
12.0
  3
ARIAL.TTF
  4

1001
ACAD
1000
Arial
1071
       34
  0
STYLE
  5
385
330
3
100
AcDbSymbolTableRecord
100
AcDbTextStyleTableRecord
  2
ROMANS
 70
     0
 40
0.0
 41
1.0
 50
0.0
 71
     0
 42
5.0
  3
romans.shx
  4

  0
ENDTAB
  0
TABLE
  2
VIEW
  5
5
330
0
100
AcDbSymbolTable
 70
     0
  0
ENDTAB
  0
TABLE
  2
UCS
  5
6
330
0
100
AcDbSymbolTable
 70
     0
  0
ENDTAB
  0
TABLE
  2
APPID
  5
8
330
0
100
AcDbSymbolTable
 70
     3
  0
APPID
  5
16
330
8
100
AcDbSymbolTableRecord
100
AcDbRegAppTableRecord
  2
ACAD
 70
     0
  0
APPID
  5
7AC
330
8
100
AcDbSymbolTableRecord
100
AcDbRegAppTableRecord
  2
AcAecLayerStandard
 70
     0
  0
APPID
  5
E29
330
8
100
AcDbSymbolTableRecord
100
AcDbRegAppTableRecord
  2
ACAD_MLEADERVER
 70
     0
  0
ENDTAB
  0
TABLE
  2
DIMSTYLE
  5
9
330
0
100
AcDbSymbolTable
 70
     5
100
AcDbDimStyleTable
  0
DIMSTYLE
105
18
330
9
100
AcDbSymbolTableRecord
100
AcDbDimStyleTableRecord
  2
Standard
 70
     0
178
     0
340
17
  0
DIMSTYLE
105
56
330
9
100
AcDbSymbolTableRecord
100
AcDbDimStyleTableRecord
  2
tform線あり
 70
     0
  3
<>
  4
[]
 41
9.999389648437498
 42
25.0
 43
0.9999999999999999
 44
0.0
 73
     0
 74
     0
 77
     1
 78
    11
140
24.4326171875
141
0.0
143
1.0
146
0.8
147
0.4999999999999999
171
     1
172
     1
174
     1
178
     0
179
     2
271
     1
272
     1
276
     2
284
    11
285
    11
286
    11
289
     0
340
39
341
4E
342
4E
  0
DIMSTYLE
105
57
102
{ACAD_REACTORS
330
104D
330
104E
330
1058
330
10EB
330
10ED
330
30AAD
330
30ACB
330
30ADB
330
30AEB
330
30B09
330
30B2B
330
30B3B
330
30C1A
330
30D10
330
30D2F
330
30DD4
330
30EAA
330
30F27
330
30F46
102
}
330
9
100
AcDbSymbolTableRecord
100
AcDbDimStyleTableRecord
  2
tfrom線あり
 70
     0
  3
<>
  4
[]
 41
3.0
 42
10.0
 43
0.9999999999999999
 44
0.0
 73
     0
 74
     0
 77
     1
 78
    11
140
12.0
141
0.0
143
1.0
147
10.0
171
     1
174
     1
178
     0
179
     2
271
     0
272
     1
276
     2
284
    11
285
    11
286
    11
289
     0
340
39
341
4E
342
4E
  0
DIMSTYLE
105
5C
330
9
100
AcDbSymbolTableRecord
100
AcDbDimStyleTableRecord
  2
JIS
 70
     0
  3
<>
  4
[]
 41
9.0
 42
0.0
 43
6.99999999999994
 44
19.9999999999962
 73
     0
 74
     0
 77
     1
 78
    11
140
24.4326171875
141
0.0
143
1.0
147
10.0
171
     1
174
     1
178
     0
179
     2
271
     1
272
     1
276
     2
284
    11
285
    11
286
    11
289
     0
340
39
341
4E
342
4E
  0
DIMSTYLE
105
383
330
9
100
AcDbSymbolTableRecord
100
AcDbDimStyleTableRecord
  2
ARIAL
 70
     0
 41
10.0
 42
3.0
 43
0.5
 44
3.0
 73
     0
 74
     0
 77
     1
 78
     8
140
12.0
141
0.0
146
0.5
147
4.0
171
     1
172
     1
178
     0
271
     1
289
     0
340
384
  0
ENDTAB
  0
TABLE
  2
BLOCK_RECORD
  5
1
330
0
100
AcDbSymbolTable
 70
    69
  0
BLOCK_RECORD
  5
A
330
1
100
AcDbSymbolTableRecord
100
AcDbBlockTableRecord
  2
*MODEL_SPACE
340
20
 70
     0
280
     1
281
     0
  0
BLOCK_RECORD
  5
B
330
1
100
AcDbSymbolTableRecord
100
AcDbBlockTableRecord
  2
*PAPER_SPACE
340
21
 70
     0
280
     1
281
     0
  0
BLOCK_RECORD
  5
4E
330
1
100
AcDbSymbolTableRecord
100
AcDbBlockTableRecord
  2
_DOT
340
0
102
{BLKREFS
331
D96
331
D97
331
DA5
331
DA6
331
E53
331
E54
331
EDF
331
EE0
331
EEC
331
EED
331
EF9
331
EFA
331
F06
331
F07
331
F17
331
F18
331
F24
331
F25
331
F31
331
F32
331
F51
331
F52
331
F75
331
F76
331
FCD
331
FCE
331
FF0
331
FF1
331
FFD
331
FFE
331
100C
331
100D
331
1019
331
101A
331
1026
331
1027
331
10F4
331
10F5
331
1100
331
1101
331
110C
331
110D
331
1118
331
1119
331
1123
331
1124
331
112F
331
1130
331
113B
331
113C
331
1147
331
1148
331
1153
331
1154
331
115F
331
1160
331
116B
331
116C
331
1177
331
1178
331
1183
331
1184
331
118F
331
1190
331
119B
331
119C
331
30A7D
331
30A7E
331
30A98
331
30A99
331
30AA7
331
30AA8
331
30AB6
331
30AB7
331
30AC5
331
30AC6
331
30AD2
331
30AD3
331
30AE2
331
30AE3
331
30AF4
331
30AF5
331
30B03
331
30B04
331
30B10
331
30B11
331
30B32
331
30B33
331
30B44
331
30B45
331
30B88
331
30B89
331
30C0E
331
30C0F
331
30C40
331
30C41
331
30D04
331
30D05
331
30D18
331
30D19
331
30D36
331
30D37
331
30DB2
331
30DB3
331
30DC0
331
30DC1
331
30DE6
331
30DE7
331
30DF3
331
30DF4
331
30E57
331
30E58
331
30EB1
331
30EB2
331
30F03
331
30F04
331
30F18
331
30F19
331
30F2E
331
30F2F
331
30F4F
331
30F50
331
31108
331
31109
331
31118
331
31119
102
}
 70
     0
280
     1
281
     0
  0
BLOCK_RECORD
  5
68A
330
1
100
AcDbSymbolTableRecord
100
AcDbBlockTableRecord
  2
名称未設定-1
340
0
102
{BLKREFS
331
6B5
102
}
 70
     1
280
     1
281
     0
  0
BLOCK_RECORD
  5
68D
330
1
100
AcDbSymbolTableRecord
100
AcDbBlockTableRecord
  2
block 2
340
0
102
{BLKREFS
331
68C
331
1044
102
}
 70
     0
280
     1
281
     0
  0
BLOCK_RECORD
  5
690
330
1
100
AcDbSymbolTableRecord
100
AcDbBlockTableRecord
  2
block 3
340
0
102
{BLKREFS
331
68F
102
}
 70
     0
280
     1
281
     0
  0
BLOCK_RECORD
  5
693
330
1
100
AcDbSymbolTableRecord
100
AcDbBlockTableRecord
  2
block 4
340
0
102
{BLKREFS
331
692
102
}
 70
     0
280
     1
281
     0
  0
BLOCK_RECORD
  5
6A2
330
1
100
AcDbSymbolTableRecord
100
AcDbBlockTableRecord
  2
block 5
340
0
102
{BLKREFS
331
6A1
102
}
 70
     0
280
     1
281
     0
  0
BLOCK_RECORD
  5
D90
330
1
100
AcDbSymbolTableRecord
100
AcDbBlockTableRecord
  2
*D6
340
0
 70
     0
280
     1
281
     0
  0
BLOCK_RECORD
  5
D9F
330
1
100
AcDbSymbolTableRecord
100
AcDbBlockTableRecord
  2
*D7
340
0
 70
     0
280
     1
281
     0
  0
BLOCK_RECORD
  5
E4D
330
1
100
AcDbSymbolTableRecord
100
AcDbBlockTableRecord
  2
*D8
340
0
 70
     0
280
     1
281
     0
  0
BLOCK_RECORD
  5
EDA
330
1
100
AcDbSymbolTableRecord
100
AcDbBlockTableRecord
  2
*D9
340
0
 70
     0
280
     1
281
     0
  0
BLOCK_RECORD
  5
EE7
330
1
100
AcDbSymbolTableRecord
100
AcDbBlockTableRecord
  2
*D10
340
0
 70
     0
280
     1
281
     0
  0
BLOCK_RECORD
  5
EF4
330
1
100
AcDbSymbolTableRecord
100
AcDbBlockTableRecord
  2
*D11
340
0
 70
     0
280
     1
281
     0
  0
BLOCK_RECORD
  5
F01
330
1
100
AcDbSymbolTableRecord
100
AcDbBlockTableRecord
  2
*D12
340
0
 70
     0
280
     1
281
     0
  0
BLOCK_RECORD
  5
F13
330
1
100
AcDbSymbolTableRecord
100
AcDbBlockTableRecord
  2
*D13
340
0
 70
     0
280
     1
281
     0
  0
BLOCK_RECORD
  5
F1F
330
1
100
AcDbSymbolTableRecord
100
AcDbBlockTableRecord
  2
*D14
340
0
 70
     0
280
     1
281
     0
  0
BLOCK_RECORD
  5
F2C
330
1
100
AcDbSymbolTableRecord
100
AcDbBlockTableRecord
  2
*D15
340
0
 70
     0
280
     1
281
     0
  0
BLOCK_RECORD
  5
F4C
330
1
100
AcDbSymbolTableRecord
100
AcDbBlockTableRecord
  2
*D16
340
0
 70
     0
280
     1
281
     0
  0
BLOCK_RECORD
  5
F70
330
1
100
AcDbSymbolTableRecord
100
AcDbBlockTableRecord
  2
*D17
340
0
 70
     0
280
     1
281
     0
  0
BLOCK_RECORD
  5
FC8
330
1
100
AcDbSymbolTableRecord
100
AcDbBlockTableRecord
  2
*D18
340
0
 70
     0
280
     1
281
     0
  0
BLOCK_RECORD
  5
FEB
330
1
100
AcDbSymbolTableRecord
100
AcDbBlockTableRecord
  2
*D19
340
0
 70
     0
280
     1
281
     0
  0
BLOCK_RECORD
  5
FF8
330
1
100
AcDbSymbolTableRecord
100
AcDbBlockTableRecord
  2
*D20
340
0
 70
     0
280
     1
281
     0
  0
BLOCK_RECORD
  5
1007
330
1
100
AcDbSymbolTableRecord
100
AcDbBlockTableRecord
  2
*D21
340
0
 70
     0
280
     1
281
     0
  0
BLOCK_RECORD
  5
1014
330
1
100
AcDbSymbolTableRecord
100
AcDbBlockTableRecord
  2
*D22
340
0
 70
     0
280
     1
281
     0
  0
BLOCK_RECORD
  5
1021
330
1
100
AcDbSymbolTableRecord
100
AcDbBlockTableRecord
  2
*D23
340
0
 70
     0
280
     1
281
     0
  0
BLOCK_RECORD
  5
10EE
330
1
100
AcDbSymbolTableRecord
100
AcDbBlockTableRecord
  2
*D24
340
0
 70
     0
280
     1
281
     0
  0
BLOCK_RECORD
  5
10FA
330
1
100
AcDbSymbolTableRecord
100
AcDbBlockTableRecord
  2
*D25
340
0
 70
     0
280
     1
281
     0
  0
BLOCK_RECORD
  5
1106
330
1
100
AcDbSymbolTableRecord
100
AcDbBlockTableRecord
  2
*D26
340
0
 70
     0
280
     1
281
     0
  0
BLOCK_RECORD
  5
1112
330
1
100
AcDbSymbolTableRecord
100
AcDbBlockTableRecord
  2
*D27
340
0
 70
     0
280
     1
281
     0
  0
BLOCK_RECORD
  5
111E
330
1
100
AcDbSymbolTableRecord
100
AcDbBlockTableRecord
  2
*D28
340
0
 70
     0
280
     1
281
     0
  0
BLOCK_RECORD
  5
1129
330
1
100
AcDbSymbolTableRecord
100
AcDbBlockTableRecord
  2
*D29
340
0
 70
     0
280
     1
281
     0
  0
BLOCK_RECORD
  5
1135
330
1
100
AcDbSymbolTableRecord
100
AcDbBlockTableRecord
  2
*D30
340
0
 70
     0
280
     1
281
     0
  0
BLOCK_RECORD
  5
1141
330
1
100
AcDbSymbolTableRecord
100
AcDbBlockTableRecord
  2
*D31
340
0
 70
     0
280
     1
281
     0
  0
BLOCK_RECORD
  5
114D
330
1
100
AcDbSymbolTableRecord
100
AcDbBlockTableRecord
  2
*D32
340
0
 70
     0
280
     1
281
     0
  0
BLOCK_RECORD
  5
1159
330
1
100
AcDbSymbolTableRecord
100
AcDbBlockTableRecord
  2
*D33
340
0
 70
     0
280
     1
281
     0
  0
BLOCK_RECORD
  5
1165
330
1
100
AcDbSymbolTableRecord
100
AcDbBlockTableRecord
  2
*D34
340
0
 70
     0
280
     1
281
     0
  0
BLOCK_RECORD
  5
1171
330
1
100
AcDbSymbolTableRecord
100
AcDbBlockTableRecord
  2
*D35
340
0
 70
     0
280
     1
281
     0
  0
BLOCK_RECORD
  5
117D
330
1
100
AcDbSymbolTableRecord
100
AcDbBlockTableRecord
  2
*D36
340
0
 70
     0
280
     1
281
     0
  0
BLOCK_RECORD
  5
1189
330
1
100
AcDbSymbolTableRecord
100
AcDbBlockTableRecord
  2
*D37
340
0
 70
     0
280
     1
281
     0
  0
BLOCK_RECORD
  5
1195
330
1
100
AcDbSymbolTableRecord
100
AcDbBlockTableRecord
  2
*D38
340
0
 70
     0
280
     1
281
     0
  0
BLOCK_RECORD
  5
30A77
330
1
100
AcDbSymbolTableRecord
100
AcDbBlockTableRecord
  2
*D39
340
0
 70
     0
280
     1
281
     0
  0
BLOCK_RECORD
  5
30A92
330
1
100
AcDbSymbolTableRecord
100
AcDbBlockTableRecord
  2
*D40
340
0
 70
     0
280
     1
281
     0
  0
BLOCK_RECORD
  5
30AA1
330
1
100
AcDbSymbolTableRecord
100
AcDbBlockTableRecord
  2
*D41
340
0
 70
     0
280
     1
281
     0
  0
BLOCK_RECORD
  5
30AB0
330
1
100
AcDbSymbolTableRecord
100
AcDbBlockTableRecord
  2
*D42
340
0
 70
     0
280
     1
281
     0
  0
BLOCK_RECORD
  5
30ABF
330
1
100
AcDbSymbolTableRecord
100
AcDbBlockTableRecord
  2
*D43
340
0
 70
     0
280
     1
281
     0
  0
BLOCK_RECORD
  5
30ACC
330
1
100
AcDbSymbolTableRecord
100
AcDbBlockTableRecord
  2
*D44
340
0
 70
     0
280
     1
281
     0
  0
BLOCK_RECORD
  5
30ADC
330
1
100
AcDbSymbolTableRecord
100
AcDbBlockTableRecord
  2
*D45
340
0
 70
     0
280
     1
281
     0
  0
BLOCK_RECORD
  5
30AEE
330
1
100
AcDbSymbolTableRecord
100
AcDbBlockTableRecord
  2
*D46
340
0
 70
     0
280
     1
281
     0
  0
BLOCK_RECORD
  5
30AFD
330
1
100
AcDbSymbolTableRecord
100
AcDbBlockTableRecord
  2
*D47
340
0
 70
     0
280
     1
281
     0
  0
BLOCK_RECORD
  5
30B0A
330
1
100
AcDbSymbolTableRecord
100
AcDbBlockTableRecord
  2
*D48
340
0
 70
     0
280
     1
281
     0
  0
BLOCK_RECORD
  5
30B2C
330
1
100
AcDbSymbolTableRecord
100
AcDbBlockTableRecord
  2
*D49
340
0
 70
     0
280
     1
281
     0
  0
BLOCK_RECORD
  5
30B3E
330
1
100
AcDbSymbolTableRecord
100
AcDbBlockTableRecord
  2
*D50
340
0
 70
     0
280
     1
281
     0
  0
BLOCK_RECORD
  5
30B81
330
1
100
AcDbSymbolTableRecord
100
AcDbBlockTableRecord
  2
*D51
340
0
 70
     0
280
     1
281
     0
  0
BLOCK_RECORD
  5
30C08
330
1
100
AcDbSymbolTableRecord
100
AcDbBlockTableRecord
  2
*D52
340
0
 70
     0
280
     1
281
     0
  0
BLOCK_RECORD
  5
30C3A
330
1
100
AcDbSymbolTableRecord
100
AcDbBlockTableRecord
  2
*D53
340
0
 70
     0
280
     1
281
     0
  0
BLOCK_RECORD
  5
30D00
330
1
100
AcDbSymbolTableRecord
100
AcDbBlockTableRecord
  2
*D54
340
0
 70
     0
280
     1
281
     0
  0
BLOCK_RECORD
  5
30D13
330
1
100
AcDbSymbolTableRecord
100
AcDbBlockTableRecord
  2
*D55
340
0
 70
     0
280
     1
281
     0
  0
BLOCK_RECORD
  5
30D30
330
1
100
AcDbSymbolTableRecord
100
AcDbBlockTableRecord
  2
*D56
340
0
 70
     0
280
     1
281
     0
  0
BLOCK_RECORD
  5
30DAD
330
1
100
AcDbSymbolTableRecord
100
AcDbBlockTableRecord
  2
*D57
340
0
 70
     0
280
     1
281
     0
  0
BLOCK_RECORD
  5
30DBA
330
1
100
AcDbSymbolTableRecord
100
AcDbBlockTableRecord
  2
*D58
340
0
 70
     0
280
     1
281
     0
  0
BLOCK_RECORD
  5
30DE0
330
1
100
AcDbSymbolTableRecord
100
AcDbBlockTableRecord
  2
*D59
340
0
 70
     0
280
     1
281
     0
  0
BLOCK_RECORD
  5
30DEC
330
1
100
AcDbSymbolTableRecord
100
AcDbBlockTableRecord
  2
*D60
340
0
 70
     0
280
     1
281
     0
  0
BLOCK_RECORD
  5
30E51
330
1
100
AcDbSymbolTableRecord
100
AcDbBlockTableRecord
  2
*D61
340
0
 70
     0
280
     1
281
     0
  0
BLOCK_RECORD
  5
30EAB
330
1
100
AcDbSymbolTableRecord
100
AcDbBlockTableRecord
  2
*D62
340
0
 70
     0
280
     1
281
     0
  0
BLOCK_RECORD
  5
30EFE
330
1
100
AcDbSymbolTableRecord
100
AcDbBlockTableRecord
  2
*D63
340
0
 70
     0
280
     1
281
     0
  0
BLOCK_RECORD
  5
30F12
330
1
100
AcDbSymbolTableRecord
100
AcDbBlockTableRecord
  2
*D64
340
0
 70
     0
280
     1
281
     0
  0
BLOCK_RECORD
  5
30F28
330
1
100
AcDbSymbolTableRecord
100
AcDbBlockTableRecord
  2
*D65
340
0
 70
     0
280
     1
281
     0
  0
BLOCK_RECORD
  5
30F49
330
1
100
AcDbSymbolTableRecord
100
AcDbBlockTableRecord
  2
*D66
340
0
 70
     0
280
     1
281
     0
  0
BLOCK_RECORD
  5
31102
330
1
100
AcDbSymbolTableRecord
100
AcDbBlockTableRecord
  2
*D67
340
0
 70
     0
280
     1
281
     0
  0
BLOCK_RECORD
  5
31111
330
1
100
AcDbSymbolTableRecord
100
AcDbBlockTableRecord
  2
*D68
340
0
 70
     0
280
     1
281
     0
  0
ENDTAB
  0
ENDSEC
  0
SECTION
  2
BLOCKS
  0
BLOCK
  5
D
330
A
100
AcDbEntity
  8
0
390
1D
100
AcDbBlockBegin
  2
*MODEL_SPACE
 70
     0
 10
0.0
 20
0.0
 30
0.0
  3
*MODEL_SPACE
  1
*MODEL_SPACE
  0
ENDBLK
  5
E
330
A
100
AcDbEntity
  8
0
390
1D
100
AcDbBlockEnd
  0
BLOCK
  5
F
330
B
100
AcDbEntity
 67
     1
  8
0
390
1D
100
AcDbBlockBegin
  2
*PAPER_SPACE
 70
     0
 10
0.0
 20
0.0
 30
0.0
  3
*PAPER_SPACE
  1
*PAPER_SPACE
  0
ENDBLK
  5
10
330
B
100
AcDbEntity
 67
     1
  8
0
390
1D
100
AcDbBlockEnd
  0
BLOCK
  5
E30
330
4E
100
AcDbEntity
  8
0
390
1D
100
AcDbBlockBegin
  2
_DOT
 70
     0
 10
0.0
 20
0.0
 30
0.0
  3
_DOT
  1
_DOT
  0
POLYLINE
  5
E32
330
4E
100
AcDbEntity
  8
0
  6
ByBlock
 62
     0
370
    -2
390
1D
100
AcDb2dPolyline
 66
     1
 10
0.0
 20
0.0
 30
0.0
 70
     1
 40
0.5
 41
0.5
  0
VERTEX
  5
E33
330
E32
100
AcDbEntity
  8
0
  6
ByBlock
 62
     0
370
    -2
390
1D
100
AcDbVertex
100
AcDb2dVertex
 10
-0.25
 20
0.0
 30
0.0
 42
1.0
  0
VERTEX
  5
E34
330
E32
100
AcDbEntity
  8
0
  6
ByBlock
 62
     0
370
    -2
390
1D
100
AcDbVertex
100
AcDb2dVertex
 10
0.25
 20
0.0
 30
0.0
 42
1.0
  0
SEQEND
  5
E35
330
E32
100
AcDbEntity
  8
0
390
1D
  0
LINE
  5
E36
330
4E
100
AcDbEntity
  8
0
  6
ByBlock
 62
     0
370
    -2
390
1D
100
AcDbLine
 10
-0.5
 20
0.0
 30
0.0
 11
-1.0
 21
0.0
 31
0.0
  0
ENDBLK
  5
E37
330
4E
100
AcDbEntity
  8
0
390
1D
100
AcDbBlockEnd
  0
BLOCK
  5
68B
330
68A
100
AcDbEntity
  8
0
100
AcDbBlockBegin
  2
名称未設定-1
 70
     0
 10
0.0
 20
0.0
 30
0.0
  3
名称未設定-1
  1
名称未設定-1
  0
INSERT
  5
68F
330
68A
100
AcDbEntity
  8
LOGO
100
AcDbBlockReference
  2
block 3
 10
0.0
 20
0.0
 30
0.0
  0
ENDBLK
  5
6B1
330
68A
100
AcDbEntity
  8
0
100
AcDbBlockEnd
  0
BLOCK
  5
68E
330
68D
100
AcDbEntity
  8
0
100
AcDbBlockBegin
  2
block 2
 70
     0
 10
0.0
 20
0.0
 30
0.0
  3
block 2
  1
block 2
  0
ENDBLK
  5
6B0
330
68D
100
AcDbEntity
  8
0
100
AcDbBlockEnd
  0
BLOCK
  5
691
330
690
100
AcDbEntity
  8
0
100
AcDbBlockBegin
  2
block 3
 70
     0
 10
0.0
 20
0.0
 30
0.0
  3
block 3
  1
block 3
  0
INSERT
  5
692
330
690
100
AcDbEntity
  8
LOGO
100
AcDbBlockReference
  2
block 4
 10
0.0
 20
0.0
 30
0.0
  0
INSERT
  5
6A1
330
690
100
AcDbEntity
  8
LOGO
100
AcDbBlockReference
  2
block 5
 10
0.0
 20
0.0
 30
0.0
  0
ENDBLK
  5
6AF
330
690
100
AcDbEntity
  8
0
100
AcDbBlockEnd
  0
BLOCK
  5
694
330
693
100
AcDbEntity
  8
0
100
AcDbBlockBegin
  2
block 4
 70
     0
 10
0.0
 20
0.0
 30
0.0
  3
block 4
  1
block 4
  0
POLYLINE
  5
695
330
693
100
AcDbEntity
  8
LOGO
370
     0
100
AcDb2dPolyline
 66
     1
 10
0.0
 20
0.0
 30
0.0
  0
VERTEX
  5
696
330
695
100
AcDbEntity
  8
LOGO
370
     0
100
AcDbVertex
100
AcDb2dVertex
 10
83.79545727667795
 20
167.6444858234922
 30
0.0
  0
VERTEX
  5
697
330
695
100
AcDbEntity
  8
LOGO
370
     0
100
AcDbVertex
100
AcDb2dVertex
 10
83.79545727667795
 20
159.7968976406313
 30
0.0
  0
VERTEX
  5
698
330
695
100
AcDbEntity
  8
LOGO
370
     0
100
AcDbVertex
100
AcDb2dVertex
 10
71.3631329975216
 20
159.7968976406313
 30
0.0
  0
VERTEX
  5
699
330
695
100
AcDbEntity
  8
LOGO
370
     0
100
AcDbVertex
100
AcDb2dVertex
 10
71.3631329975216
 20
127.8027915271048
 30
0.0
  0
VERTEX
  5
69A
330
695
100
AcDbEntity
  8
LOGO
370
     0
100
AcDbVertex
100
AcDb2dVertex
 10
60.43011526263018
 20
127.8027915271048
 30
0.0
  0
VERTEX
  5
69B
330
695
100
AcDbEntity
  8
LOGO
370
     0
100
AcDbVertex
100
AcDb2dVertex
 10
60.43011526263018
 20
159.7968976406313
 30
0.0
  0
VERTEX
  5
69C
330
695
100
AcDbEntity
  8
LOGO
370
     0
100
AcDbVertex
100
AcDb2dVertex
 10
48.21793273020759
 20
159.7968976406313
 30
0.0
  0
VERTEX
  5
69D
330
695
100
AcDbEntity
  8
LOGO
370
     0
100
AcDbVertex
100
AcDb2dVertex
 10
48.21793273020759
 20
167.6444858234922
 30
0.0
  0
VERTEX
  5
69E
330
695
100
AcDbEntity
  8
LOGO
370
     0
100
AcDbVertex
100
AcDb2dVertex
 10
83.79545727667795
 20
167.6444858234922
 30
0.0
  0
SEQEND
  5
69F
330
695
100
AcDbEntity
  8
LOGO
370
     0
  0
HATCH
  5
6A0
330
693
100
AcDbEntity
  8
LOGO
 62
   250
420
  2234388
100
AcDbHatch
 10
0.0
 20
0.0
 30
0.0
210
0.0
220
0.0
230
1.0
  2
SOLID
 70
     1
 71
     0
 91
        1
 92
        1
 93
        8
 72
     1
 10
83.79545727667795
 20
167.6444858234922
 11
83.79545727667795
 21
159.7968976406313
 72
     1
 10
83.79545727667795
 20
159.7968976406313
 11
71.3631329975216
 21
159.7968976406313
 72
     1
 10
71.3631329975216
 20
159.7968976406313
 11
71.3631329975216
 21
127.8027915271048
 72
     1
 10
71.3631329975216
 20
127.8027915271048
 11
60.43011526263018
 21
127.8027915271048
 72
     1
 10
60.43011526263018
 20
127.8027915271048
 11
60.43011526263018
 21
159.7968976406313
 72
     1
 10
60.43011526263018
 20
159.7968976406313
 11
48.21793273020759
 21
159.7968976406313
 72
     1
 10
48.21793273020759
 20
159.7968976406313
 11
48.21793273020759
 21
167.6444858234922
 72
     1
 10
48.21793273020759
 20
167.6444858234922
 11
83.79545727667795
 21
167.6444858234922
 97
        0
 75
     2
 76
     1
 98
        0
  0
ENDBLK
  5
6AE
330
693
100
AcDbEntity
  8
0
100
AcDbBlockEnd
  0
BLOCK
  5
6A3
330
6A2
100
AcDbEntity
  8
0
100
AcDbBlockBegin
  2
block 5
 70
     0
 10
0.0
 20
0.0
 30
0.0
  3
block 5
  1
block 5
  0
SPLINE
  5
6A4
330
6A2
100
AcDbEntity
  8
LOGO
370
     0
100
AcDbSpline
210
0.0
220
0.0
230
1.0
 70
    11
 71
     3
 72
    56
 73
    52
 74
     0
 42
0.000000001
 43
0.0000000001
 40
0.0
 40
0.0
 40
0.0
 40
0.0
 40
1.0
 40
1.0
 40
1.0
 40
2.0
 40
2.0
 40
2.0
 40
3.0
 40
3.0
 40
3.0
 40
4.0
 40
4.0
 40
4.0
 40
5.0
 40
5.0
 40
5.0
 40
6.0
 40
6.0
 40
6.0
 40
7.0
 40
7.0
 40
7.0
 40
8.0
 40
8.0
 40
8.0
 40
9.0
 40
9.0
 40
9.0
 40
10.0
 40
10.0
 40
10.0
 40
11.0
 40
11.0
 40
11.0
 40
12.0
 40
12.0
 40
12.0
 40
13.0
 40
13.0
 40
13.0
 40
14.0
 40
14.0
 40
14.0
 40
15.0
 40
15.0
 40
15.0
 40
16.0
 40
16.0
 40
16.0
 40
17.0
 40
17.0
 40
17.0
 40
17.0
 10
100.4504378777679
 20
166.69157178364
 30
0.0
 10
101.9848844191641
 20
167.1313385124438
 30
0.0
 10
103.9637485713373
 20
166.7649523658846
 30
0.0
 10
103.9637485713373
 20
166.7649523658846
 30
0.0
 10
103.9637485713373
 20
166.7649523658846
 30
0.0
 10
103.0132460999156
 20
163.911205638077
 30
0.0
 10
103.0132460999156
 20
163.911205638077
 30
0.0
 10
103.0132460999156
 20
163.911205638077
 30
0.0
 10
101.0674548862189
 20
164.3601018759394
 30
0.0
 10
99.57090442016032
 20
163.1805004036133
 30
0.0
 10
98.40508333886608
 20
162.258247733807
 30
0.0
 10
97.65301849830304
 20
159.804132345923
 30
0.0
 10
97.3598406791005
 20
158.8699940888517
 30
0.0
 10
97.3598406791005
 20
158.8699940888517
 30
0.0
 10
96.07137411762282
 20
154.9119212747295
 30
0.0
 10
96.07137411762282
 20
154.9119212747295
 30
0.0
 10
96.07137411762282
 20
154.9119212747295
 30
0.0
 10
100.3012651448482
 20
154.9119212747295
 30
0.0
 10
100.3012651448482
 20
154.9119212747295
 30
0.0
 10
100.3012651448482
 20
154.9119212747295
 30
0.0
 10
99.64152892419852
 20
152.4199098115079
 30
0.0
 10
99.64152892419852
 20
152.4199098115079
 30
0.0
 10
99.64152892419852
 20
152.4199098115079
 30
0.0
 10
95.38097652692731
 20
152.4199098115079
 30
0.0
 10
95.38097652692731
 20
152.4199098115079
 30
0.0
 10
95.38097652692731
 20
152.4199098115079
 30
0.0
 10
87.75353009080013
 20
127.8027915271048
 30
0.0
 10
87.75353009080013
 20
127.8027915271048
 30
0.0
 10
87.75353009080013
 20
127.8027915271048
 30
0.0
 10
85.36538832498108
 20
127.8027915271048
 30
0.0
 10
85.36538832498108
 20
127.8027915271048
 30
0.0
 10
85.36538832498108
 20
127.8027915271048
 30
0.0
 10
93.00006946639998
 20
152.4199098115079
 30
0.0
 10
93.00006946639998
 20
152.4199098115079
 30
0.0
 10
93.00006946639998
 20
152.4199098115079
 30
0.0
 10
89.85297266450198
 20
152.4199098115079
 30
0.0
 10
89.85297266450198
 20
152.4199098115079
 30
0.0
 10
89.85297266450198
 20
152.4199098115079
 30
0.0
 10
90.51270888515164
 20
154.9119212747295
 30
0.0
 10
90.51270888515164
 20
154.9119212747295
 30
0.0
 10
90.51270888515164
 20
154.9119212747295
 30
0.0
 10
93.6904670570955
 20
154.9119212747295
 30
0.0
 10
93.6904670570955
 20
154.9119212747295
 30
0.0
 10
93.6904670570955
 20
154.9119212747295
 30
0.0
 10
94.81598049462158
 20
158.3616699146644
 30
0.0
 10
94.81598049462158
 20
158.3616699146644
 30
0.0
 10
95.7237637538445
 20
161.2605474231013
 30
0.0
 10
96.4968436907311
 20
162.8139420021662
 30
0.0
 10
97.15657991138076
 20
163.9844139654337
 30
0.0
 10
97.81183750494507
 20
165.1523021053827
 30
0.0
 10
99.1047826935081
 20
166.3084769129547
 30
0.0
 10
100.4504378777679
 20
166.69157178364
 30
0.0
  0
HATCH
  5
6A5
330
6A2
100
AcDbEntity
  8
LOGO
 62
   250
420
  2234388
100
AcDbHatch
 10
0.0
 20
0.0
 30
0.0
210
0.0
220
0.0
230
1.0
  2
SOLID
 70
     1
 71
     0
 91
        1
 92
        1
 93
        1
 72
     4
 94
        3
 73
     0
 74
     1
 95
       56
 96
       52
 40
0.0
 40
0.0
 40
0.0
 40
0.0
 40
1.0
 40
1.0
 40
1.0
 40
2.0
 40
2.0
 40
2.0
 40
3.0
 40
3.0
 40
3.0
 40
4.0
 40
4.0
 40
4.0
 40
5.0
 40
5.0
 40
5.0
 40
6.0
 40
6.0
 40
6.0
 40
7.0
 40
7.0
 40
7.0
 40
8.0
 40
8.0
 40
8.0
 40
9.0
 40
9.0
 40
9.0
 40
10.0
 40
10.0
 40
10.0
 40
11.0
 40
11.0
 40
11.0
 40
12.0
 40
12.0
 40
12.0
 40
13.0
 40
13.0
 40
13.0
 40
14.0
 40
14.0
 40
14.0
 40
15.0
 40
15.0
 40
15.0
 40
16.0
 40
16.0
 40
16.0
 40
17.0
 40
17.0
 40
17.0
 40
17.0
 10
100.4504378777679
 20
166.69157178364
 10
101.9848844191641
 20
167.1313385124438
 10
103.9637485713373
 20
166.7649523658846
 10
103.9637485713373
 20
166.7649523658846
 10
103.9637485713373
 20
166.7649523658846
 10
103.0132460999156
 20
163.911205638077
 10
103.0132460999156
 20
163.911205638077
 10
103.0132460999156
 20
163.911205638077
 10
101.0674548862189
 20
164.3601018759394
 10
99.57090442016032
 20
163.1805004036133
 10
98.40508333886608
 20
162.258247733807
 10
97.65301849830304
 20
159.804132345923
 10
97.3598406791005
 20
158.8699940888517
 10
97.3598406791005
 20
158.8699940888517
 10
96.07137411762282
 20
154.9119212747295
 10
96.07137411762282
 20
154.9119212747295
 10
96.07137411762282
 20
154.9119212747295
 10
100.3012651448482
 20
154.9119212747295
 10
100.3012651448482
 20
154.9119212747295
 10
100.3012651448482
 20
154.9119212747295
 10
99.64152892419852
 20
152.4199098115079
 10
99.64152892419852
 20
152.4199098115079
 10
99.64152892419852
 20
152.4199098115079
 10
95.38097652692731
 20
152.4199098115079
 10
95.38097652692731
 20
152.4199098115079
 10
95.38097652692731
 20
152.4199098115079
 10
87.75353009080013
 20
127.8027915271048
 10
87.75353009080013
 20
127.8027915271048
 10
87.75353009080013
 20
127.8027915271048
 10
85.36538832498108
 20
127.8027915271048
 10
85.36538832498108
 20
127.8027915271048
 10
85.36538832498108
 20
127.8027915271048
 10
93.00006946639998
 20
152.4199098115079
 10
93.00006946639998
 20
152.4199098115079
 10
93.00006946639998
 20
152.4199098115079
 10
89.85297266450198
 20
152.4199098115079
 10
89.85297266450198
 20
152.4199098115079
 10
89.85297266450198
 20
152.4199098115079
 10
90.51270888515164
 20
154.9119212747295
 10
90.51270888515164
 20
154.9119212747295
 10
90.51270888515164
 20
154.9119212747295
 10
93.6904670570955
 20
154.9119212747295
 10
93.6904670570955
 20
154.9119212747295
 10
93.6904670570955
 20
154.9119212747295
 10
94.81598049462158
 20
158.3616699146644
 10
94.81598049462158
 20
158.3616699146644
 10
95.7237637538445
 20
161.2605474231013
 10
96.4968436907311
 20
162.8139420021662
 10
97.15657991138076
 20
163.9844139654337
 10
97.81183750494507
 20
165.1523021053827
 10
99.1047826935081
 20
166.3084769129547
 10
100.4504378777679
 20
166.69157178364
 97
        0
 75
     2
 76
     1
 98
        0
  0
SPLINE
  5
6A6
330
6A2
100
AcDbEntity
  8
LOGO
370
     0
100
AcDbSpline
210
0.0
220
0.0
230
1.0
 70
    11
 71
     3
 72
    38
 73
    34
 74
     0
 42
0.000000001
 43
0.0000000001
 40
0.0
 40
0.0
 40
0.0
 40
0.0
 40
1.0
 40
1.0
 40
1.0
 40
2.0
 40
2.0
 40
2.0
 40
3.0
 40
3.0
 40
3.0
 40
4.0
 40
4.0
 40
4.0
 40
5.0
 40
5.0
 40
5.0
 40
6.0
 40
6.0
 40
6.0
 40
7.0
 40
7.0
 40
7.0
 40
8.0
 40
8.0
 40
8.0
 40
9.0
 40
9.0
 40
9.0
 40
10.0
 40
10.0
 40
10.0
 40
11.0
 40
11.0
 40
11.0
 40
11.0
 10
126.377554584636
 20
154.8151140277308
 30
0.0
 10
126.377554584636
 20
154.8151140277308
 30
0.0
 10
128.8311532078563
 20
154.8151140277308
 30
0.0
 10
128.8311532078563
 20
154.8151140277308
 30
0.0
 10
128.8311532078563
 20
154.8151140277308
 30
0.0
 10
127.7345785914971
 20
151.3062819612468
 30
0.0
 10
127.7345785914971
 20
151.3062819612468
 30
0.0
 10
128.571392836906
 20
152.2922689395754
 30
0.0
 10
129.8860421413442
 20
153.604506675583
 30
0.0
 10
131.0163787157314
 20
154.2664822097754
 30
0.0
 10
132.7044766171327
 20
155.2500576196734
 30
0.0
 10
133.6642808525008
 20
155.3847609420097
 30
0.0
 10
134.7284715499351
 20
155.3565111403944
 30
0.0
 10
134.7284715499351
 20
155.3565111403944
 30
0.0
 10
133.6877075172549
 20
152.0345756272799
 30
0.0
 10
133.6877075172549
 20
152.0345756272799
 30
0.0
 10
133.011434827367
 20
152.3184516825359
 30
0.0
 10
130.930940291334
 20
151.7768823149844
 30
0.0
 10
129.739280976855
 20
150.9162968950455
 30
0.0
 10
128.66613302525
 20
150.1454562717016
 30
0.0
 10
127.9192358313239
 20
149.4857200510519
 30
0.0
 10
127.0393578639405
 20
147.8282835196966
 30
0.0
 10
126.164647543194
 20
146.1699857139017
 30
0.0
 10
125.4742499524985
 20
143.5262176944419
 30
0.0
 10
124.2822461282437
 20
139.6959580071401
 30
0.0
 10
124.2822461282437
 20
139.6959580071401
 30
0.0
 10
120.5753209406769
 20
127.8027915271048
 30
0.0
 10
120.5753209406769
 20
127.8027915271048
 30
0.0
 10
120.5753209406769
 20
127.8027915271048
 30
0.0
 10
118.1964809388044
 20
127.8027915271048
 30
0.0
 10
118.1964809388044
 20
127.8027915271048
 30
0.0
 10
118.1964809388044
 20
127.8027915271048
 30
0.0
 10
126.377554584636
 20
154.8151140277308
 30
0.0
 10
126.377554584636
 20
154.8151140277308
 30
0.0
  0
HATCH
  5
6A7
330
6A2
100
AcDbEntity
  8
LOGO
 62
   250
420
  2234388
100
AcDbHatch
 10
0.0
 20
0.0
 30
0.0
210
0.0
220
0.0
230
1.0
  2
SOLID
 70
     1
 71
     0
 91
        1
 92
        1
 93
        1
 72
     4
 94
        3
 73
     0
 74
     1
 95
       38
 96
       34
 40
0.0
 40
0.0
 40
0.0
 40
0.0
 40
1.0
 40
1.0
 40
1.0
 40
2.0
 40
2.0
 40
2.0
 40
3.0
 40
3.0
 40
3.0
 40
4.0
 40
4.0
 40
4.0
 40
5.0
 40
5.0
 40
5.0
 40
6.0
 40
6.0
 40
6.0
 40
7.0
 40
7.0
 40
7.0
 40
8.0
 40
8.0
 40
8.0
 40
9.0
 40
9.0
 40
9.0
 40
10.0
 40
10.0
 40
10.0
 40
11.0
 40
11.0
 40
11.0
 40
11.0
 10
126.377554584636
 20
154.8151140277308
 10
126.377554584636
 20
154.8151140277308
 10
128.8311532078563
 20
154.8151140277308
 10
128.8311532078563
 20
154.8151140277308
 10
128.8311532078563
 20
154.8151140277308
 10
127.7345785914971
 20
151.3062819612468
 10
127.7345785914971
 20
151.3062819612468
 10
128.571392836906
 20
152.2922689395754
 10
129.8860421413442
 20
153.604506675583
 10
131.0163787157314
 20
154.2664822097754
 10
132.7044766171327
 20
155.2500576196734
 10
133.6642808525008
 20
155.3847609420097
 10
134.7284715499351
 20
155.3565111403944
 10
134.7284715499351
 20
155.3565111403944
 10
133.6877075172549
 20
152.0345756272799
 10
133.6877075172549
 20
152.0345756272799
 10
133.011434827367
 20
152.3184516825359
 10
130.930940291334
 20
151.7768823149844
 10
129.739280976855
 20
150.9162968950455
 10
128.66613302525
 20
150.1454562717016
 10
127.9192358313239
 20
149.4857200510519
 10
127.0393578639405
 20
147.8282835196966
 10
126.164647543194
 20
146.1699857139017
 10
125.4742499524985
 20
143.5262176944419
 10
124.2822461282437
 20
139.6959580071401
 10
124.2822461282437
 20
139.6959580071401
 10
120.5753209406769
 20
127.8027915271048
 10
120.5753209406769
 20
127.8027915271048
 10
120.5753209406769
 20
127.8027915271048
 10
118.1964809388044
 20
127.8027915271048
 10
118.1964809388044
 20
127.8027915271048
 10
118.1964809388044
 20
127.8027915271048
 10
126.377554584636
 20
154.8151140277308
 10
126.377554584636
 20
154.8151140277308
 97
        0
 75
     2
 76
     1
 98
        0
  0
SPLINE
  5
6A8
330
6A2
100
AcDbEntity
  8
LOGO
370
     0
100
AcDbSpline
210
0.0
220
0.0
230
1.0
 70
    11
 71
     3
 72
   104
 73
   100
 74
     0
 42
0.000000001
 43
0.0000000001
 40
0.0
 40
0.0
 40
0.0
 40
0.0
 40
1.0
 40
1.0
 40
1.0
 40
2.0
 40
2.0
 40
2.0
 40
3.0
 40
3.0
 40
3.0
 40
4.0
 40
4.0
 40
4.0
 40
5.0
 40
5.0
 40
5.0
 40
6.0
 40
6.0
 40
6.0
 40
7.0
 40
7.0
 40
7.0
 40
8.0
 40
8.0
 40
8.0
 40
9.0
 40
9.0
 40
9.0
 40
10.0
 40
10.0
 40
10.0
 40
11.0
 40
11.0
 40
11.0
 40
12.0
 40
12.0
 40
12.0
 40
13.0
 40
13.0
 40
13.0
 40
14.0
 40
14.0
 40
14.0
 40
15.0
 40
15.0
 40
15.0
 40
16.0
 40
16.0
 40
16.0
 40
17.0
 40
17.0
 40
17.0
 40
18.0
 40
18.0
 40
18.0
 40
19.0
 40
19.0
 40
19.0
 40
20.0
 40
20.0
 40
20.0
 40
21.0
 40
21.0
 40
21.0
 40
22.0
 40
22.0
 40
22.0
 40
23.0
 40
23.0
 40
23.0
 40
24.0
 40
24.0
 40
24.0
 40
25.0
 40
25.0
 40
25.0
 40
26.0
 40
26.0
 40
26.0
 40
27.0
 40
27.0
 40
27.0
 40
28.0
 40
28.0
 40
28.0
 40
29.0
 40
29.0
 40
29.0
 40
30.0
 40
30.0
 40
30.0
 40
31.0
 40
31.0
 40
31.0
 40
32.0
 40
32.0
 40
32.0
 40
33.0
 40
33.0
 40
33.0
 40
33.0
 10
139.8926730891197
 20
154.8294111834263
 30
0.0
 10
139.8926730891197
 20
154.8294111834263
 30
0.0
 10
142.0344903652445
 20
154.8294111834263
 30
0.0
 10
142.0344903652445
 20
154.8294111834263
 30
0.0
 10
142.0344903652445
 20
154.8294111834263
 30
0.0
 10
140.9516961399171
 20
151.3157559800812
 30
0.0
 10
140.9516961399171
 20
151.3157559800812
 30
0.0
 10
141.8928968473923
 20
152.7887075264977
 30
0.0
 10
142.7341897198865
 20
153.4484437471474
 30
0.0
 10
143.8552245303272
 20
154.2926649527359
 30
0.0
 10
144.9803934580775
 20
155.1296514530327
 30
0.0
 10
146.3139908001845
 20
155.3044901642492
 30
0.0
 10
147.241066606852
 20
155.3044901642492
 30
0.0
 10
148.3855280820469
 20
155.3044901642492
 30
0.0
 10
149.4969166187653
 20
155.0752189084569
 30
0.0
 10
150.0784491203092
 20
153.8172414621372
 30
0.0
 10
150.5228667310863
 20
152.833838307127
 30
0.0
 10
150.5414702589793
 20
152.7201500811143
 30
0.0
 10
150.4140016419347
 20
150.7765981809602
 30
0.0
 10
151.5818897818837
 20
152.7699317437168
 30
0.0
 10
152.4424752018226
 20
153.6256940267945
 30
0.0
 10
153.9038856707499
 20
154.4507949398263
 30
0.0
 10
155.4455669174378
 20
155.3044901642492
 30
0.0
 10
156.339225275853
 20
155.3659851592288
 30
0.0
 10
157.3748216618963
 20
155.2147453676543
 30
0.0
 10
158.911679771723
 20
154.9877134254046
 30
0.0
 10
159.8859534176746
 20
154.4390816074493
 30
0.0
 10
160.3965169054045
 20
152.7816450760939
 30
0.0
 10
160.9070803931344
 20
151.1219692311958
 30
0.0
 10
160.6328506116007
 20
150.2303779314354
 30
0.0
 10
159.9992971339115
 20
147.597634224801
 30
0.0
 10
159.7105979417943
 20
146.4014962832367
 30
0.0
 10
159.2947746424084
 20
144.9400858143094
 30
0.0
 10
158.7463150793409
 20
143.2092687007094
 30
0.0
 10
158.7463150793409
 20
143.2092687007094
 30
0.0
 10
153.9038856707499
 20
127.8027915271048
 30
0.0
 10
153.9038856707499
 20
127.8027915271048
 30
0.0
 10
153.9038856707499
 20
127.8027915271048
 30
0.0
 10
151.3882752878863
 20
127.8027915271048
 30
0.0
 10
151.3882752878863
 20
127.8027915271048
 30
0.0
 10
151.3882752878863
 20
127.8027915271048
 30
0.0
 10
155.6250565106276
 20
141.2751908193897
 30
0.0
 10
155.6250565106276
 20
141.2751908193897
 30
0.0
 10
156.5094131050963
 20
144.0936252951782
 30
0.0
 10
157.109893644309
 20
146.1506931664571
 30
0.0
 10
157.4220195011804
 20
147.4415712963654
 30
0.0
 10
157.8095929989511
 20
149.0530157726519
 30
0.0
 10
157.9656559273867
 20
149.5826995529385
 30
0.0
 10
157.7816877071116
 20
150.7529992613181
 30
0.0
 10
157.6111553680925
 20
151.8430281919372
 30
0.0
 10
157.0582171779396
 20
152.5547853887321
 30
0.0
 10
156.1170164704645
 20
152.5547853887321
 30
0.0
 10
155.1096698860365
 20
152.5547853887321
 30
0.0
 10
154.2962823053817
 20
152.4412694176073
 30
0.0
 10
153.156643967048
 20
151.2945686288697
 30
0.0
 10
152.0170056287143
 20
150.1476955852443
 30
0.0
 10
151.076149431015
 20
148.7930831468137
 30
0.0
 10
150.3337308641742
 20
147.2290087646991
 30
0.0
 10
149.5957909244188
 20
145.6683794803425
 30
0.0
 10
148.8530278478023
 20
143.6822806228776
 30
0.0
 10
148.0964843801539
 20
141.2751908193897
 30
0.0
 10
148.0964843801539
 20
141.2751908193897
 30
0.0
 10
143.8552245303272
 20
127.8027915271048
 30
0.0
 10
143.8552245303272
 20
127.8027915271048
 30
0.0
 10
143.8552245303272
 20
127.8027915271048
 30
0.0
 10
141.486030802177
 20
127.8027915271048
 30
0.0
 10
141.486030802177
 20
127.8027915271048
 30
0.0
 10
141.486030802177
 20
127.8027915271048
 30
0.0
 10
146.3329388378533
 20
143.2092687007094
 30
0.0
 10
146.3329388378533
 20
143.2092687007094
 30
0.0
 10
146.8483254624444
 20
144.8408669988801
 30
0.0
 10
147.2314203331297
 20
146.1837661049335
 30
0.0
 10
147.4867020769946
 20
147.224185627838
 30
0.0
 10
147.9169947869641
 20
149.0197705792876
 30
0.0
 10
148.0306830129768
 20
150.2400242051577
 30
0.0
 10
147.709255392159
 20
151.3157559800812
 30
0.0
 10
147.3874832615654
 20
152.3916600098926
 30
0.0
 10
146.8245542879144
 20
152.6683013598569
 30
0.0
 10
145.8840425999909
 20
152.6683013598569
 30
0.0
 10
145.0989048209514
 20
152.6683013598569
 30
0.0
 10
144.3282364524954
 20
152.3275811915945
 30
0.0
 10
143.4531816219731
 20
151.6538923250251
 30
0.0
 10
142.34627171234
 20
150.8074318058939
 30
0.0
 10
141.901854101563
 20
150.1097995099067
 30
0.0
 10
141.3578731655808
 20
149.289521733736
 30
0.0
 10
140.6299240093235
 20
148.192602607601
 30
0.0
 10
140.2850697237515
 20
147.455696197173
 30
0.0
 10
139.6652966370942
 20
145.8385673095858
 30
0.0
 10
139.0506911970739
 20
144.2214384219986
 30
0.0
 10
138.463991048893
 20
142.3252566160164
 30
0.0
 10
138.0571250036777
 20
141.0154304484394
 30
0.0
 10
138.0571250036777
 20
141.0154304484394
 30
0.0
 10
133.9009590684727
 20
127.8027915271048
 30
0.0
 10
133.9009590684727
 20
127.8027915271048
 30
0.0
 10
133.9009590684727
 20
127.8027915271048
 30
0.0
 10
131.4180771143097
 20
127.8027915271048
 30
0.0
 10
131.4180771143097
 20
127.8027915271048
 30
0.0
 10
131.4180771143097
 20
127.8027915271048
 30
0.0
 10
139.8926730891197
 20
154.8294111834263
 30
0.0
 10
139.8926730891197
 20
154.8294111834263
 30
0.0
  0
HATCH
  5
6A9
330
6A2
100
AcDbEntity
  8
LOGO
 62
   250
420
  2234388
100
AcDbHatch
 10
0.0
 20
0.0
 30
0.0
210
0.0
220
0.0
230
1.0
  2
SOLID
 70
     1
 71
     0
 91
        1
 92
        1
 93
        1
 72
     4
 94
        3
 73
     0
 74
     1
 95
      104
 96
      100
 40
0.0
 40
0.0
 40
0.0
 40
0.0
 40
1.0
 40
1.0
 40
1.0
 40
2.0
 40
2.0
 40
2.0
 40
3.0
 40
3.0
 40
3.0
 40
4.0
 40
4.0
 40
4.0
 40
5.0
 40
5.0
 40
5.0
 40
6.0
 40
6.0
 40
6.0
 40
7.0
 40
7.0
 40
7.0
 40
8.0
 40
8.0
 40
8.0
 40
9.0
 40
9.0
 40
9.0
 40
10.0
 40
10.0
 40
10.0
 40
11.0
 40
11.0
 40
11.0
 40
12.0
 40
12.0
 40
12.0
 40
13.0
 40
13.0
 40
13.0
 40
14.0
 40
14.0
 40
14.0
 40
15.0
 40
15.0
 40
15.0
 40
16.0
 40
16.0
 40
16.0
 40
17.0
 40
17.0
 40
17.0
 40
18.0
 40
18.0
 40
18.0
 40
19.0
 40
19.0
 40
19.0
 40
20.0
 40
20.0
 40
20.0
 40
21.0
 40
21.0
 40
21.0
 40
22.0
 40
22.0
 40
22.0
 40
23.0
 40
23.0
 40
23.0
 40
24.0
 40
24.0
 40
24.0
 40
25.0
 40
25.0
 40
25.0
 40
26.0
 40
26.0
 40
26.0
 40
27.0
 40
27.0
 40
27.0
 40
28.0
 40
28.0
 40
28.0
 40
29.0
 40
29.0
 40
29.0
 40
30.0
 40
30.0
 40
30.0
 40
31.0
 40
31.0
 40
31.0
 40
32.0
 40
32.0
 40
32.0
 40
33.0
 40
33.0
 40
33.0
 40
33.0
 10
139.8926730891197
 20
154.8294111834263
 10
139.8926730891197
 20
154.8294111834263
 10
142.0344903652445
 20
154.8294111834263
 10
142.0344903652445
 20
154.8294111834263
 10
142.0344903652445
 20
154.8294111834263
 10
140.9516961399171
 20
151.3157559800812
 10
140.9516961399171
 20
151.3157559800812
 10
141.8928968473923
 20
152.7887075264977
 10
142.7341897198865
 20
153.4484437471474
 10
143.8552245303272
 20
154.2926649527359
 10
144.9803934580775
 20
155.1296514530327
 10
146.3139908001845
 20
155.3044901642492
 10
147.241066606852
 20
155.3044901642492
 10
148.3855280820469
 20
155.3044901642492
 10
149.4969166187653
 20
155.0752189084569
 10
150.0784491203092
 20
153.8172414621372
 10
150.5228667310863
 20
152.833838307127
 10
150.5414702589793
 20
152.7201500811143
 10
150.4140016419347
 20
150.7765981809602
 10
151.5818897818837
 20
152.7699317437168
 10
152.4424752018226
 20
153.6256940267945
 10
153.9038856707499
 20
154.4507949398263
 10
155.4455669174378
 20
155.3044901642492
 10
156.339225275853
 20
155.3659851592288
 10
157.3748216618963
 20
155.2147453676543
 10
158.911679771723
 20
154.9877134254046
 10
159.8859534176746
 20
154.4390816074493
 10
160.3965169054045
 20
152.7816450760939
 10
160.9070803931344
 20
151.1219692311958
 10
160.6328506116007
 20
150.2303779314354
 10
159.9992971339115
 20
147.597634224801
 10
159.7105979417943
 20
146.4014962832367
 10
159.2947746424084
 20
144.9400858143094
 10
158.7463150793409
 20
143.2092687007094
 10
158.7463150793409
 20
143.2092687007094
 10
153.9038856707499
 20
127.8027915271048
 10
153.9038856707499
 20
127.8027915271048
 10
153.9038856707499
 20
127.8027915271048
 10
151.3882752878863
 20
127.8027915271048
 10
151.3882752878863
 20
127.8027915271048
 10
151.3882752878863
 20
127.8027915271048
 10
155.6250565106276
 20
141.2751908193897
 10
155.6250565106276
 20
141.2751908193897
 10
156.5094131050963
 20
144.0936252951782
 10
157.109893644309
 20
146.1506931664571
 10
157.4220195011804
 20
147.4415712963654
 10
157.8095929989511
 20
149.0530157726519
 10
157.9656559273867
 20
149.5826995529385
 10
157.7816877071116
 20
150.7529992613181
 10
157.6111553680925
 20
151.8430281919372
 10
157.0582171779396
 20
152.5547853887321
 10
156.1170164704645
 20
152.5547853887321
 10
155.1096698860365
 20
152.5547853887321
 10
154.2962823053817
 20
152.4412694176073
 10
153.156643967048
 20
151.2945686288697
 10
152.0170056287143
 20
150.1476955852443
 10
151.076149431015
 20
148.7930831468137
 10
150.3337308641742
 20
147.2290087646991
 10
149.5957909244188
 20
145.6683794803425
 10
148.8530278478023
 20
143.6822806228776
 10
148.0964843801539
 20
141.2751908193897
 10
148.0964843801539
 20
141.2751908193897
 10
143.8552245303272
 20
127.8027915271048
 10
143.8552245303272
 20
127.8027915271048
 10
143.8552245303272
 20
127.8027915271048
 10
141.486030802177
 20
127.8027915271048
 10
141.486030802177
 20
127.8027915271048
 10
141.486030802177
 20
127.8027915271048
 10
146.3329388378533
 20
143.2092687007094
 10
146.3329388378533
 20
143.2092687007094
 10
146.8483254624444
 20
144.8408669988801
 10
147.2314203331297
 20
146.1837661049335
 10
147.4867020769946
 20
147.224185627838
 10
147.9169947869641
 20
149.0197705792876
 10
148.0306830129768
 20
150.2400242051577
 10
147.709255392159
 20
151.3157559800812
 10
147.3874832615654
 20
152.3916600098926
 10
146.8245542879144
 20
152.6683013598569
 10
145.8840425999909
 20
152.6683013598569
 10
145.0989048209514
 20
152.6683013598569
 10
144.3282364524954
 20
152.3275811915945
 10
143.4531816219731
 20
151.6538923250251
 10
142.34627171234
 20
150.8074318058939
 10
141.901854101563
 20
150.1097995099067
 10
141.3578731655808
 20
149.289521733736
 10
140.6299240093235
 20
148.192602607601
 10
140.2850697237515
 20
147.455696197173
 10
139.6652966370942
 20
145.8385673095858
 10
139.0506911970739
 20
144.2214384219986
 10
138.463991048893
 20
142.3252566160164
 10
138.0571250036777
 20
141.0154304484394
 10
138.0571250036777
 20
141.0154304484394
 10
133.9009590684727
 20
127.8027915271048
 10
133.9009590684727
 20
127.8027915271048
 10
133.9009590684727
 20
127.8027915271048
 10
131.4180771143097
 20
127.8027915271048
 10
131.4180771143097
 20
127.8027915271048
 10
131.4180771143097
 20
127.8027915271048
 10
139.8926730891197
 20
154.8294111834263
 10
139.8926730891197
 20
154.8294111834263
 97
        0
 75
     2
 76
     1
 98
        0
  0
SPLINE
  5
6AA
330
6A2
100
AcDbEntity
  8
LOGO
370
     0
100
AcDbSpline
210
0.0
220
0.0
230
1.0
 70
    11
 71
     3
 72
    29
 73
    25
 74
     0
 42
0.000000001
 43
0.0000000001
 40
0.0
 40
0.0
 40
0.0
 40
0.0
 40
1.0
 40
1.0
 40
1.0
 40
2.0
 40
2.0
 40
2.0
 40
3.0
 40
3.0
 40
3.0
 40
4.0
 40
4.0
 40
4.0
 40
5.0
 40
5.0
 40
5.0
 40
6.0
 40
6.0
 40
6.0
 40
7.0
 40
7.0
 40
7.0
 40
8.0
 40
8.0
 40
8.0
 40
8.0
 10
101.6420971922469
 20
132.8388354296931
 30
0.0
 10
101.630039350094
 20
134.7164137077823
 30
0.0
 10
102.2236296937908
 20
138.0598810818841
 30
0.0
 10
103.7487744712405
 20
142.5378191476827
 30
0.0
 10
105.819967243327
 20
148.5896501242061
 30
0.0
 10
107.0602024361932
 20
150.8074318058939
 30
0.0
 10
108.1522984254671
 20
151.8833358357054
 30
0.0
 10
109.741177511439
 20
153.4532668840085
 30
0.0
 10
111.8740375333931
 20
153.5290590346837
 30
0.0
 10
112.5075910110823
 20
153.4532668840085
 30
0.0
 10
113.4012493694975
 20
153.3490526768302
 30
0.0
 10
114.6683563248758
 20
152.7580461564518
 30
0.0
 10
114.7493161221879
 20
150.7838328862519
 30
0.0
 10
114.8106388622796
 20
149.0909118479895
 30
0.0
 10
114.3186789024427
 20
145.9191825971221
 30
0.0
 10
112.6164561002338
 20
140.9489400617108
 30
0.0
 10
110.6444821435766
 20
135.1746117095912
 30
0.0
 10
109.4669477299053
 20
132.8960240524753
 30
0.0
 10
108.5212683953448
 20
131.9072809959403
 30
0.0
 10
106.7346406980658
 20
130.0538184021569
 30
0.0
 10
104.8222669326213
 20
130.2336525051225
 30
0.0
 10
104.5408024457958
 20
130.2336525051225
 30
0.0
 10
104.1721769856939
 20
130.2336525051225
 30
0.0
 10
101.6465758193322
 20
130.6305277668397
 30
0.0
 10
101.6420971922469
 20
132.8388354296931
 30
0.0
  0
SPLINE
  5
6AB
330
6A2
100
AcDbEntity
  8
LOGO
370
     0
100
AcDbSpline
210
0.0
220
0.0
230
1.0
 70
    11
 71
     3
 72
    32
 73
    28
 74
     0
 42
0.000000001
 43
0.0000000001
 40
0.0
 40
0.0
 40
0.0
 40
0.0
 40
1.0
 40
1.0
 40
1.0
 40
2.0
 40
2.0
 40
2.0
 40
3.0
 40
3.0
 40
3.0
 40
4.0
 40
4.0
 40
4.0
 40
5.0
 40
5.0
 40
5.0
 40
6.0
 40
6.0
 40
6.0
 40
7.0
 40
7.0
 40
7.0
 40
8.0
 40
8.0
 40
8.0
 40
9.0
 40
9.0
 40
9.0
 40
9.0
 10
106.2595617172429
 20
153.4105476718098
 30
0.0
 10
104.8222669326213
 20
151.5474388043041
 30
0.0
 10
103.7177685914188
 20
149.8758773721411
 30
0.0
 10
101.9232171692965
 20
144.6141795664062
 30
0.0
 10
100.2754269116635
 20
139.7999999594306
 30
0.0
 10
99.22777268346732
 20
136.3052927937542
 30
0.0
 10
99.06964269637689
 20
132.039572749846
 30
0.0
 10
98.94665270641765
 20
128.8673267343149
 30
0.0
 10
100.8807305877373
 20
127.8027915271048
 30
0.0
 10
103.7129454545577
 20
127.8027915271048
 30
0.0
 10
104.9352661390825
 20
127.8027915271048
 30
0.0
 10
108.0151835347002
 20
127.8827177950895
 30
0.0
 10
110.2045431598849
 20
130.5926316915021
 30
0.0
 10
111.7417457794874
 20
132.4984597712065
 30
0.0
 10
113.155269389579
 20
134.475256864725
 30
0.0
 10
115.0562743324223
 20
140.9489400617108
 30
0.0
 10
116.6361961642235
 20
146.3680788349845
 30
0.0
 10
117.7282921534974
 20
149.8639917848761
 30
0.0
 10
117.6480213757369
 20
151.8595646611754
 30
0.0
 10
117.6480213757369
 20
151.8595646611754
 30
0.0
 10
117.6480213757369
 20
151.8595646611754
 30
0.0
 10
117.6480213757369
 20
151.8595646611754
 30
0.0
 10
117.13229024137
 20
155.18150017429
 30
0.0
 10
114.7162431837115
 20
155.886194920681
 30
0.0
 10
113.3351034925446
 20
155.886194920681
 30
0.0
 10
111.9829026225447
 20
155.886194920681
 30
0.0
 10
108.3414342923792
 20
156.1251124501957
 30
0.0
 10
106.2595617172429
 20
153.4105476718098
 30
0.0
  0
HATCH
  5
6AC
330
6A2
100
AcDbEntity
  8
LOGO
 62
   250
420
  2234388
100
AcDbHatch
 10
0.0
 20
0.0
 30
0.0
210
0.0
220
0.0
230
1.0
  2
SOLID
 70
     1
 71
     0
 91
        2
 92
        1
 93
        1
 72
     4
 94
        3
 73
     0
 74
     1
 95
       29
 96
       25
 40
0.0
 40
0.0
 40
0.0
 40
0.0
 40
1.0
 40
1.0
 40
1.0
 40
2.0
 40
2.0
 40
2.0
 40
3.0
 40
3.0
 40
3.0
 40
4.0
 40
4.0
 40
4.0
 40
5.0
 40
5.0
 40
5.0
 40
6.0
 40
6.0
 40
6.0
 40
7.0
 40
7.0
 40
7.0
 40
8.0
 40
8.0
 40
8.0
 40
8.0
 10
101.6420971922469
 20
132.8388354296931
 10
101.630039350094
 20
134.7164137077823
 10
102.2236296937908
 20
138.0598810818841
 10
103.7487744712405
 20
142.5378191476827
 10
105.819967243327
 20
148.5896501242061
 10
107.0602024361932
 20
150.8074318058939
 10
108.1522984254671
 20
151.8833358357054
 10
109.741177511439
 20
153.4532668840085
 10
111.8740375333931
 20
153.5290590346837
 10
112.5075910110823
 20
153.4532668840085
 10
113.4012493694975
 20
153.3490526768302
 10
114.6683563248758
 20
152.7580461564518
 10
114.7493161221879
 20
150.7838328862519
 10
114.8106388622796
 20
149.0909118479895
 10
114.3186789024427
 20
145.9191825971221
 10
112.6164561002338
 20
140.9489400617108
 10
110.6444821435766
 20
135.1746117095912
 10
109.4669477299053
 20
132.8960240524753
 10
108.5212683953448
 20
131.9072809959403
 10
106.7346406980658
 20
130.0538184021569
 10
104.8222669326213
 20
130.2336525051225
 10
104.5408024457958
 20
130.2336525051225
 10
104.1721769856939
 20
130.2336525051225
 10
101.6465758193322
 20
130.6305277668397
 10
101.6420971922469
 20
132.8388354296931
 97
        0
 92
        1
 93
        1
 72
     4
 94
        3
 73
     0
 74
     1
 95
       32
 96
       28
 40
0.0
 40
0.0
 40
0.0
 40
0.0
 40
1.0
 40
1.0
 40
1.0
 40
2.0
 40
2.0
 40
2.0
 40
3.0
 40
3.0
 40
3.0
 40
4.0
 40
4.0
 40
4.0
 40
5.0
 40
5.0
 40
5.0
 40
6.0
 40
6.0
 40
6.0
 40
7.0
 40
7.0
 40
7.0
 40
8.0
 40
8.0
 40
8.0
 40
9.0
 40
9.0
 40
9.0
 40
9.0
 10
106.2595617172429
 20
153.4105476718098
 10
104.8222669326213
 20
151.5474388043041
 10
103.7177685914188
 20
149.8758773721411
 10
101.9232171692965
 20
144.6141795664062
 10
100.2754269116635
 20
139.7999999594306
 10
99.22777268346732
 20
136.3052927937542
 10
99.06964269637689
 20
132.039572749846
 10
98.94665270641765
 20
128.8673267343149
 10
100.8807305877373
 20
127.8027915271048
 10
103.7129454545577
 20
127.8027915271048
 10
104.9352661390825
 20
127.8027915271048
 10
108.0151835347002
 20
127.8827177950895
 10
110.2045431598849
 20
130.5926316915021
 10
111.7417457794874
 20
132.4984597712065
 10
113.155269389579
 20
134.475256864725
 10
115.0562743324223
 20
140.9489400617108
 10
116.6361961642235
 20
146.3680788349845
 10
117.7282921534974
 20
149.8639917848761
 10
117.6480213757369
 20
151.8595646611754
 10
117.6480213757369
 20
151.8595646611754
 10
117.6480213757369
 20
151.8595646611754
 10
117.6480213757369
 20
151.8595646611754
 10
117.13229024137
 20
155.18150017429
 10
114.7162431837115
 20
155.886194920681
 10
113.3351034925446
 20
155.886194920681
 10
111.9829026225447
 20
155.886194920681
 10
108.3414342923792
 20
156.1251124501957
 10
106.2595617172429
 20
153.4105476718098
 97
        0
 75
     2
 76
     1
 98
        0
  0
ENDBLK
  5
6AD
330
6A2
100
AcDbEntity
  8
0
100
AcDbBlockEnd
  0
BLOCK
  5
D91
330
D90
100
AcDbEntity
  8
0
100
AcDbBlockBegin
  2
*D6
 70
     1
 10
0.0
 20
0.0
 30
0.0
  3
*D6
  1
*D6
  0
LINE
  5
D93
330
D90
100
AcDbEntity
  8
DIM
 62
     0
370
    -2
100
AcDbLine
 10
194.9013848396499
 20
991.8781341107873
 30
0.0
 11
194.9013848396499
 21
940.5413793571681
 31
0.0
  0
LINE
  5
D94
330
D90
100
AcDbEntity
  8
DIM
 62
     0
370
    -2
100
AcDbLine
 10
521.6879737609329
 20
991.8781341107873
 30
0.0
 11
521.6879737609329
 21
940.5413793571681
 31
0.0
  0
LINE
  5
D95
330
D90
100
AcDbEntity
  8
DIM
 62
     0
370
    -2
100
AcDbLine
 10
200.9013848396499
 20
940.5413793571681
 30
0.0
 11
515.6879737609329
 21
940.5413793571681
 31
0.0
  0
INSERT
  5
D96
330
D90
100
AcDbEntity
  8
DIM
 62
     0
370
    -2
100
AcDbBlockReference
  2
_DOT
 10
194.9013848396499
 20
940.5413793571681
 30
0.0
 41
6.0
 42
6.0
 43
6.0
 50
180.0
  0
INSERT
  5
D97
330
D90
100
AcDbEntity
  8
DIM
 62
     0
370
    -2
100
AcDbBlockReference
  2
_DOT
 10
521.6879737609329
 20
940.5413793571681
 30
0.0
 41
6.0
 42
6.0
 43
6.0
  0
MTEXT
  5
D98
330
D90
100
AcDbEntity
  8
DIM
 62
     0
100
AcDbMText
 10
358.2946793002914
 20
956.5413793571681
 30
0.0
 40
12.0
 41
0.0
 46
0.0
 71
     5
 72
     1
  1
\A1;327
  7
ＭＳ ゴシック
 73
     1
 44
1.0
  0
POINT
  5
D99
330
D90
100
AcDbEntity
  8
Defpoints
 62
     0
100
AcDbPoint
 10
194.9013848396499
 20
1011.878134110787
 30
0.0
  0
POINT
  5
D9A
330
D90
100
AcDbEntity
  8
Defpoints
 62
     0
100
AcDbPoint
 10
521.6879737609329
 20
1011.878134110787
 30
0.0
  0
POINT
  5
D9B
330
D90
100
AcDbEntity
  8
Defpoints
 62
     0
100
AcDbPoint
 10
521.6879737609329
 20
940.5413793571681
 30
0.0
  0
ENDBLK
  5
D92
330
D90
100
AcDbEntity
  8
0
100
AcDbBlockEnd
  0
BLOCK
  5
DA0
330
D9F
100
AcDbEntity
  8
0
100
AcDbBlockBegin
  2
*D7
 70
     1
 10
0.0
 20
0.0
 30
0.0
  3
*D7
  1
*D7
  0
LINE
  5
DA2
330
D9F
100
AcDbEntity
  8
DIM
 62
     0
370
    -2
100
AcDbLine
 10
541.6879737609329
 20
1259.176093294461
 30
0.0
 11
592.27223683134
 21
1259.176093294461
 31
0.0
  0
LINE
  5
DA3
330
D9F
100
AcDbEntity
  8
DIM
 62
     0
370
    -2
100
AcDbLine
 10
541.6879737609329
 20
1011.878134110787
 30
0.0
 11
592.27223683134
 21
1011.878134110787
 31
0.0
  0
LINE
  5
DA4
330
D9F
100
AcDbEntity
  8
DIM
 62
     0
370
    -2
100
AcDbLine
 10
592.27223683134
 20
1253.176093294461
 30
0.0
 11
592.27223683134
 21
1017.878134110787
 31
0.0
  0
INSERT
  5
DA5
330
D9F
100
AcDbEntity
  8
DIM
 62
     0
370
    -2
100
AcDbBlockReference
  2
_DOT
 10
592.27223683134
 20
1259.176093294461
 30
0.0
 41
6.0
 42
6.0
 43
6.0
 50
90.0
  0
INSERT
  5
DA6
330
D9F
100
AcDbEntity
  8
DIM
 62
     0
370
    -2
100
AcDbBlockReference
  2
_DOT
 10
592.27223683134
 20
1011.878134110787
 30
0.0
 41
6.0
 42
6.0
 43
6.0
 50
270.0
  0
MTEXT
  5
DA7
330
D9F
100
AcDbEntity
  8
DIM
 62
     0
100
AcDbMText
 10
576.27223683134
 20
1135.527113702624
 30
0.0
 40
12.0
 41
0.0
 46
0.0
 71
     5
 72
     1
  1
\A1;247
  7
ＭＳ ゴシック
 11
0.0
 21
1.0
 31
0.0
 73
     1
 44
1.0
  0
POINT
  5
DA8
330
D9F
100
AcDbEntity
  8
Defpoints
 62
     0
100
AcDbPoint
 10
521.6879737609329
 20
1259.176093294461
 30
0.0
  0
POINT
  5
DA9
330
D9F
100
AcDbEntity
  8
Defpoints
 62
     0
100
AcDbPoint
 10
521.6879737609329
 20
1011.878134110787
 30
0.0
  0
POINT
  5
DAA
330
D9F
100
AcDbEntity
  8
Defpoints
 62
     0
100
AcDbPoint
 10
592.27223683134
 20
1011.878134110787
 30
0.0
  0
ENDBLK
  5
DA1
330
D9F
100
AcDbEntity
  8
0
100
AcDbBlockEnd
  0
BLOCK
  5
E4E
330
E4D
100
AcDbEntity
  8
0
100
AcDbBlockBegin
  2
*D8
 70
     1
 10
0.0
 20
0.0
 30
0.0
  3
*D8
  1
*D8
  0
LINE
  5
E50
330
E4D
100
AcDbEntity
  8
HIDDEN
  6
HIDDEN
 62
     0
 48
0.05
370
    -2
100
AcDbLine
 10
322.9663994169097
 20
836.4046647230323
 30
0.0
 11
322.9663994169097
 21
978.7578717201168
 31
0.0
  0
LINE
  5
E51
330
E4D
100
AcDbEntity
  8
HIDDEN
  6
HIDDEN
 62
     0
 48
0.05
370
    -2
100
AcDbLine
 10
640.9209183673471
 20
836.4046647230323
 30
0.0
 11
640.9209183673471
 21
978.7578717201168
 31
0.0
  0
LINE
  5
E52
330
E4D
100
AcDbEntity
  8
HIDDEN
  6
HIDDEN
 62
     0
 48
0.05
370
    -2
100
AcDbLine
 10
325.9663994169097
 20
978.7578717201168
 30
0.0
 11
637.9209183673471
 21
978.7578717201168
 31
0.0
  0
INSERT
  5
E53
330
E4D
100
AcDbEntity
  8
HIDDEN
 62
     0
370
    -2
100
AcDbBlockReference
  2
_DOT
 10
322.9663994169097
 20
978.7578717201168
 30
0.0
 41
3.0
 42
3.0
 43
3.0
 50
180.0
  0
INSERT
  5
E54
330
E4D
100
AcDbEntity
  8
HIDDEN
 62
     0
370
    -2
100
AcDbBlockReference
  2
_DOT
 10
640.9209183673471
 20
978.7578717201168
 30
0.0
 41
3.0
 42
3.0
 43
3.0
  0
MTEXT
  5
E55
330
E4D
100
AcDbEntity
  8
HIDDEN
  6
HIDDEN
 62
     0
 48
0.05
100
AcDbMText
 10
481.9436588921284
 20
994.7578717201168
 30
0.0
 40
12.0
 41
0.0
 46
0.0
 71
     5
 72
     1
  1
\A1;318
  7
ＭＳ ゴシック
 73
     1
 44
1.0
  0
POINT
  5
E56
330
E4D
100
AcDbEntity
  8
Defpoints
 62
     0
100
AcDbPoint
 10
322.9663994169097
 20
826.4046647230323
 30
0.0
  0
POINT
  5
E57
330
E4D
100
AcDbEntity
  8
Defpoints
 62
     0
100
AcDbPoint
 10
640.9209183673471
 20
826.4046647230323
 30
0.0
  0
POINT
  5
E58
330
E4D
100
AcDbEntity
  8
Defpoints
 62
     0
100
AcDbPoint
 10
640.9209183673471
 20
978.7578717201168
 30
0.0
  0
ENDBLK
  5
E4F
330
E4D
100
AcDbEntity
  8
0
100
AcDbBlockEnd
  0
BLOCK
  5
EDB
330
EDA
100
AcDbEntity
  8
0
100
AcDbBlockBegin
  2
*D9
 70
     1
 10
0.0
 20
0.0
 30
0.0
  3
*D9
  1
*D73
  0
LINE
  5
EDC
330
EDA
100
AcDbEntity
  8
DIM
  6
Continuous
 62
     0
370
    -2
100
AcDbLine
 10
398.0721020212702
 20
2124.525238800501
 30
0.0
 11
398.0721020212702
 21
2416.489339528241
 31
0.0
  0
LINE
  5
EDD
330
EDA
100
AcDbEntity
  8
DIM
  6
Continuous
 62
     0
370
    -2
100
AcDbLine
 10
758.0721020212702
 20
2124.525238800501
 30
0.0
 11
758.0721020212702
 21
2416.489339528241
 31
0.0
  0
LINE
  5
EDE
330
EDA
100
AcDbEntity
  8
DIM
  6
Continuous
 62
     0
370
    -2
100
AcDbLine
 10
401.0721020212702
 20
2416.489339528241
 30
0.0
 11
755.0721020212702
 21
2416.489339528241
 31
0.0
  0
INSERT
  5
EDF
330
EDA
100
AcDbEntity
  8
DIM
 62
     0
370
    -2
100
AcDbBlockReference
  2
_DOT
 10
398.0721020212702
 20
2416.489339528241
 30
0.0
 41
3.0
 42
3.0
 43
3.0
 50
180.0
  0
INSERT
  5
EE0
330
EDA
100
AcDbEntity
  8
DIM
 62
     0
370
    -2
100
AcDbBlockReference
  2
_DOT
 10
758.0721020212702
 20
2416.489339528241
 30
0.0
 41
3.0
 42
3.0
 43
3.0
  0
MTEXT
  5
EE1
330
EDA
100
AcDbEntity
  8
DIM
 62
     0
 48
0.05
100
AcDbMText
 10
578.0721020212702
 20
2432.489339528241
 30
0.0
 40
12.0
 41
0.0
 46
0.0
 71
     5
 72
     1
  1
\A1;360
  7
ＭＳ ゴシック
 73
     1
 44
1.0
  0
POINT
  5
EE2
330
EDA
100
AcDbEntity
  8
Defpoints
 62
     0
100
AcDbPoint
 10
398.0721020212702
 20
2114.525238800501
 30
0.0
  0
POINT
  5
EE3
330
EDA
100
AcDbEntity
  8
Defpoints
 62
     0
100
AcDbPoint
 10
758.0721020212702
 20
2114.525238800501
 30
0.0
  0
POINT
  5
EE4
330
EDA
100
AcDbEntity
  8
Defpoints
 62
     0
100
AcDbPoint
 10
758.0721020212702
 20
2416.489339528241
 30
0.0
  0
ENDBLK
  5
EE5
330
EDA
100
AcDbEntity
  8
0
100
AcDbBlockEnd
  0
BLOCK
  5
EE8
330
EE7
100
AcDbEntity
  8
0
100
AcDbBlockBegin
  2
*D10
 70
     1
 10
0.0
 20
0.0
 30
0.0
  3
*D10
  1
*D74
  0
LINE
  5
EE9
330
EE7
100
AcDbEntity
  8
DIM
  6
Continuous
 62
     0
370
    -2
100
AcDbLine
 10
662.8901145741739
 20
2188.79153588869
 30
0.0
 11
858.3130122149524
 21
2188.79153588869
 31
0.0
  0
LINE
  5
EEA
330
EE7
100
AcDbEntity
  8
DIM
  6
Continuous
 62
     0
370
    -2
100
AcDbLine
 10
662.8901145741739
 20
1970.79153588869
 30
0.0
 11
858.3130122149524
 21
1970.79153588869
 31
0.0
  0
LINE
  5
EEB
330
EE7
100
AcDbEntity
  8
DIM
  6
Continuous
 62
     0
370
    -2
100
AcDbLine
 10
858.3130122149524
 20
2185.79153588869
 30
0.0
 11
858.3130122149524
 21
1973.79153588869
 31
0.0
  0
INSERT
  5
EEC
330
EE7
100
AcDbEntity
  8
DIM
 62
     0
370
    -2
100
AcDbBlockReference
  2
_DOT
 10
858.3130122149524
 20
2188.79153588869
 30
0.0
 41
3.0
 42
3.0
 43
3.0
 50
90.0
  0
INSERT
  5
EED
330
EE7
100
AcDbEntity
  8
DIM
 62
     0
370
    -2
100
AcDbBlockReference
  2
_DOT
 10
858.3130122149524
 20
1970.79153588869
 30
0.0
 41
3.0
 42
3.0
 43
3.0
 50
270.0
  0
MTEXT
  5
EEE
330
EE7
100
AcDbEntity
  8
DIM
 62
     0
 48
0.05
100
AcDbMText
 10
842.3130122149524
 20
2079.79153588869
 30
0.0
 40
12.0
 41
0.0
 46
0.0
 71
     5
 72
     1
  1
\A1;218
  7
ＭＳ ゴシック
 11
0.0
 21
1.0
 31
0.0
 73
     1
 44
1.0
  0
POINT
  5
EEF
330
EE7
100
AcDbEntity
  8
Defpoints
 62
     0
100
AcDbPoint
 10
652.8901145741739
 20
2188.79153588869
 30
0.0
  0
POINT
  5
EF0
330
EE7
100
AcDbEntity
  8
Defpoints
 62
     0
100
AcDbPoint
 10
652.8901145741739
 20
1970.79153588869
 30
0.0
  0
POINT
  5
EF1
330
EE7
100
AcDbEntity
  8
Defpoints
 62
     0
100
AcDbPoint
 10
858.3130122149524
 20
1970.79153588869
 30
0.0
  0
ENDBLK
  5
EF2
330
EE7
100
AcDbEntity
  8
0
100
AcDbBlockEnd
  0
BLOCK
  5
EF5
330
EF4
100
AcDbEntity
  8
0
100
AcDbBlockBegin
  2
*D11
 70
     1
 10
0.0
 20
0.0
 30
0.0
  3
*D11
  1
*D75
  0
LINE
  5
EF6
330
EF4
100
AcDbEntity
  8
DIM
  6
Continuous
 62
     0
370
    -2
100
AcDbLine
 10
398.0721020212702
 20
1044.759174269942
 30
0.0
 11
398.0721020212702
 21
905.4386710691169
 31
0.0
  0
LINE
  5
EF7
330
EF4
100
AcDbEntity
  8
DIM
  6
Continuous
 62
     0
370
    -2
100
AcDbLine
 10
513.0721020212702
 20
995.458633181571
 30
0.0
 11
513.0721020212702
 21
905.4386710691169
 31
0.0
  0
LINE
  5
EF8
330
EF4
100
AcDbEntity
  8
DIM
  6
Continuous
 62
     0
370
    -2
100
AcDbLine
 10
401.0721020212702
 20
905.4386710691169
 30
0.0
 11
510.0721020212702
 21
905.4386710691169
 31
0.0
  0
INSERT
  5
EF9
330
EF4
100
AcDbEntity
  8
DIM
 62
     0
370
    -2
100
AcDbBlockReference
  2
_DOT
 10
398.0721020212702
 20
905.4386710691169
 30
0.0
 41
3.0
 42
3.0
 43
3.0
 50
180.0
  0
INSERT
  5
EFA
330
EF4
100
AcDbEntity
  8
DIM
 62
     0
370
    -2
100
AcDbBlockReference
  2
_DOT
 10
513.0721020212702
 20
905.4386710691169
 30
0.0
 41
3.0
 42
3.0
 43
3.0
  0
MTEXT
  5
EFB
330
EF4
100
AcDbEntity
  8
DIM
 62
     0
 48
0.05
100
AcDbMText
 10
455.5721020212702
 20
921.4386710691169
 30
0.0
 40
12.0
 41
0.0
 46
0.0
 71
     5
 72
     1
  1
\A1;115
  7
ＭＳ ゴシック
 73
     1
 44
1.0
  0
POINT
  5
EFC
330
EF4
100
AcDbEntity
  8
Defpoints
 62
     0
100
AcDbPoint
 10
398.0721020212702
 20
1054.759174269942
 30
0.0
  0
POINT
  5
EFD
330
EF4
100
AcDbEntity
  8
Defpoints
 62
     0
100
AcDbPoint
 10
513.0721020212702
 20
1005.458633181571
 30
0.0
  0
POINT
  5
EFE
330
EF4
100
AcDbEntity
  8
Defpoints
 62
     0
100
AcDbPoint
 10
513.0721020212702
 20
905.4386710691169
 30
0.0
  0
ENDBLK
  5
EFF
330
EF4
100
AcDbEntity
  8
0
100
AcDbBlockEnd
  0
BLOCK
  5
F02
330
F01
100
AcDbEntity
  8
0
100
AcDbBlockBegin
  2
*D12
 70
     1
 10
0.0
 20
0.0
 30
0.0
  3
*D12
  1
*D76
  0
LINE
  5
F03
330
F01
100
AcDbEntity
  8
DIM
  6
Continuous
 62
     0
370
    -2
100
AcDbLine
 10
768.0788064597427
 20
1085.519966936352
 30
0.0
 11
807.4090975488889
 21
1085.519966936352
 31
0.0
  0
LINE
  5
F04
330
F01
100
AcDbEntity
  8
DIM
  6
Continuous
 62
     0
370
    -2
100
AcDbLine
 10
628.7504945584734
 20
1005.519966936352
 30
0.0
 11
807.4090975488889
 21
1005.519966936352
 31
0.0
  0
LINE
  5
F05
330
F01
100
AcDbEntity
  8
DIM
  6
Continuous
 62
     0
370
    -2
100
AcDbLine
 10
807.4090975488889
 20
1082.519966936352
 30
0.0
 11
807.4090975488889
 21
1008.519966936352
 31
0.0
  0
INSERT
  5
F06
330
F01
100
AcDbEntity
  8
DIM
 62
     0
370
    -2
100
AcDbBlockReference
  2
_DOT
 10
807.4090975488889
 20
1085.519966936352
 30
0.0
 41
3.0
 42
3.0
 43
3.0
 50
90.0
  0
INSERT
  5
F07
330
F01
100
AcDbEntity
  8
DIM
 62
     0
370
    -2
100
AcDbBlockReference
  2
_DOT
 10
807.4090975488889
 20
1005.519966936352
 30
0.0
 41
3.0
 42
3.0
 43
3.0
 50
270.0
  0
MTEXT
  5
F08
330
F01
100
AcDbEntity
  8
DIM
 62
     0
 48
0.05
100
AcDbMText
 10
791.4090975488889
 20
1045.519966936352
 30
0.0
 40
12.0
 41
0.0
 46
0.0
 71
     5
 72
     1
  1
\A1;80
  7
ＭＳ ゴシック
 11
0.0
 21
1.0
 31
0.0
 73
     1
 44
1.0
  0
POINT
  5
F09
330
F01
100
AcDbEntity
  8
Defpoints
 62
     0
100
AcDbPoint
 10
758.0788064597427
 20
1085.519966936352
 30
0.0
  0
POINT
  5
F0A
330
F01
100
AcDbEntity
  8
Defpoints
 62
     0
100
AcDbPoint
 10
618.7504945584734
 20
1005.519966936352
 30
0.0
  0
POINT
  5
F0B
330
F01
100
AcDbEntity
  8
Defpoints
 62
     0
100
AcDbPoint
 10
807.4090975488889
 20
1005.519966936352
 30
0.0
  0
ENDBLK
  5
F0C
330
F01
100
AcDbEntity
  8
0
100
AcDbBlockEnd
  0
BLOCK
  5
F14
330
F13
100
AcDbEntity
  8
0
100
AcDbBlockBegin
  2
*D13
 70
     1
 10
0.0
 20
0.0
 30
0.0
  3
*D13
  1
*D95
  0
LINE
  5
F15
330
F13
100
AcDbEntity
  8
DIM
  6
Continuous
 62
     0
370
    -2
100
AcDbLine
 10
1439.317258596262
 20
1085.519966936352
 30
0.0
 11
1439.317258596262
 21
1212.351966936352
 31
0.0
  0
LINE
  5
F16
330
F13
100
AcDbEntity
  8
DIM
  6
Continuous
 62
     0
370
    -2
100
AcDbLine
 10
1439.317258596262
 20
1082.519966936352
 30
0.0
 11
1439.317258596262
 21
1023.633943824637
 31
0.0
  0
INSERT
  5
F17
330
F13
100
AcDbEntity
  8
DIM
 62
     0
370
    -2
100
AcDbBlockReference
  2
_DOT
 10
1439.317258596262
 20
1085.519966936352
 30
0.0
 41
3.0
 42
3.0
 43
3.0
 50
90.0
  0
INSERT
  5
F18
330
F13
100
AcDbEntity
  8
DIM
 62
     0
370
    -2
100
AcDbBlockReference
  2
_DOT
 10
1439.317258596262
 20
1020.633943824637
 30
0.0
 41
3.0
 42
3.0
 43
3.0
 50
270.0
  0
MTEXT
  5
F19
330
F13
100
AcDbEntity
  8
DIM
 62
     0
 48
0.05
100
AcDbMText
 10
1422.255258596262
 20
1173.407966936352
 30
0.0
 40
12.0
 41
0.0
 46
0.0
 71
     5
 72
     1
  1
\A1;63(深さ)
  7
ＭＳ ゴシック
 11
0.0
 21
1.0
 31
0.0
 73
     1
 44
1.0
  0
POINT
  5
F1A
330
F13
100
AcDbEntity
  8
Defpoints
 62
     0
100
AcDbPoint
 10
1462.428518576173
 20
1085.519966936352
 30
0.0
  0
POINT
  5
F1B
330
F13
100
AcDbEntity
  8
Defpoints
 62
     0
100
AcDbPoint
 10
1439.317258596262
 20
1020.633943824637
 30
0.0
  0
POINT
  5
F1C
330
F13
100
AcDbEntity
  8
Defpoints
 62
     0
100
AcDbPoint
 10
1439.317258596262
 20
1020.633943824637
 30
0.0
  0
ENDBLK
  5
F1D
330
F13
100
AcDbEntity
  8
0
100
AcDbBlockEnd
  0
BLOCK
  5
F20
330
F1F
100
AcDbEntity
  8
0
100
AcDbBlockBegin
  2
*D14
 70
     1
 10
0.0
 20
0.0
 30
0.0
  3
*D14
  1
*D96
  0
LINE
  5
F21
330
F1F
100
AcDbEntity
  8
DIM
  6
Continuous
 62
     0
370
    -2
100
AcDbLine
 10
1439.317258596263
 20
919.6362008516055
 30
0.0
 11
1439.317258596263
 21
878.4358387466359
 31
0.0
  0
LINE
  5
F22
330
F1F
100
AcDbEntity
  8
DIM
  6
Continuous
 62
     0
370
    -2
100
AcDbLine
 10
1548.477038150369
 20
1085.519966936352
 30
0.0
 11
1548.477038150369
 21
878.4358387466359
 31
0.0
  0
LINE
  5
F23
330
F1F
100
AcDbEntity
  8
DIM
  6
Continuous
 62
     0
370
    -2
100
AcDbLine
 10
1442.317258596263
 20
878.4358387466359
 30
0.0
 11
1545.477038150369
 21
878.4358387466359
 31
0.0
  0
INSERT
  5
F24
330
F1F
100
AcDbEntity
  8
DIM
 62
     0
370
    -2
100
AcDbBlockReference
  2
_DOT
 10
1439.317258596263
 20
878.4358387466359
 30
0.0
 41
3.0
 42
3.0
 43
3.0
 50
180.0
  0
INSERT
  5
F25
330
F1F
100
AcDbEntity
  8
DIM
 62
     0
370
    -2
100
AcDbBlockReference
  2
_DOT
 10
1548.477038150369
 20
878.4358387466359
 30
0.0
 41
3.0
 42
3.0
 43
3.0
  0
MTEXT
  5
F26
330
F1F
100
AcDbEntity
  8
DIM
 62
     0
 48
0.05
100
AcDbMText
 10
1493.897148373316
 20
894.4358387466359
 30
0.0
 40
12.0
 41
0.0
 46
0.0
 71
     5
 72
     1
  1
\A1;109
  7
ＭＳ ゴシック
 73
     1
 44
1.0
  0
POINT
  5
F27
330
F1F
100
AcDbEntity
  8
Defpoints
 62
     0
100
AcDbPoint
 10
1439.317258596263
 20
929.6362008516055
 30
0.0
  0
POINT
  5
F28
330
F1F
100
AcDbEntity
  8
Defpoints
 62
     0
100
AcDbPoint
 10
1548.477038150369
 20
1095.519966936352
 30
0.0
  0
POINT
  5
F29
330
F1F
100
AcDbEntity
  8
Defpoints
 62
     0
100
AcDbPoint
 10
1548.477038150369
 20
878.4358387466359
 30
0.0
  0
ENDBLK
  5
F2A
330
F1F
100
AcDbEntity
  8
0
100
AcDbBlockEnd
  0
BLOCK
  5
F2D
330
F2C
100
AcDbEntity
  8
0
100
AcDbBlockBegin
  2
*D15
 70
     1
 10
0.0
 20
0.0
 30
0.0
  3
*D15
  1
*D100
  0
LINE
  5
F2E
330
F2C
100
AcDbEntity
  8
DIM
  6
Continuous
 62
     0
370
    -2
100
AcDbLine
 10
449.3311093892961
 20
2174.79153588869
 30
0.0
 11
283.0190573575098
 21
2174.79153588869
 31
0.0
  0
LINE
  5
F2F
330
F2C
100
AcDbEntity
  8
DIM
  6
Continuous
 62
     0
370
    -2
100
AcDbLine
 10
449.3311093892961
 20
1984.79153588869
 30
0.0
 11
283.0190573575097
 21
1984.79153588869
 31
0.0
  0
LINE
  5
F30
330
F2C
100
AcDbEntity
  8
DIM
  6
Continuous
 62
     0
370
    -2
100
AcDbLine
 10
283.0190573575098
 20
2171.79153588869
 30
0.0
 11
283.0190573575097
 21
1987.79153588869
 31
0.0
  0
INSERT
  5
F31
330
F2C
100
AcDbEntity
  8
DIM
 62
     0
370
    -2
100
AcDbBlockReference
  2
_DOT
 10
283.0190573575098
 20
2174.79153588869
 30
0.0
 41
3.0
 42
3.0
 43
3.0
 50
89.99999999999999
  0
INSERT
  5
F32
330
F2C
100
AcDbEntity
  8
DIM
 62
     0
370
    -2
100
AcDbBlockReference
  2
_DOT
 10
283.0190573575097
 20
1984.79153588869
 30
0.0
 41
3.0
 42
3.0
 43
3.0
 50
270.0
  0
MTEXT
  5
F33
330
F2C
100
AcDbEntity
  8
DIM
 62
     0
 48
0.05
100
AcDbMText
 10
267.0190573575097
 20
2079.79153588869
 30
0.0
 40
12.0
 41
0.0
 46
0.0
 71
     5
 72
     1
  1
\A1;190
  7
ＭＳ ゴシック
 11
2.991758887410952E-16
 21
1.0
 31
0.0
 73
     1
 44
1.0
  0
POINT
  5
F34
330
F2C
100
AcDbEntity
  8
Defpoints
 62
     0
100
AcDbPoint
 10
459.3311093892961
 20
2174.79153588869
 30
0.0
  0
POINT
  5
F35
330
F2C
100
AcDbEntity
  8
Defpoints
 62
     0
100
AcDbPoint
 10
459.3311093892961
 20
1984.79153588869
 30
0.0
  0
POINT
  5
F36
330
F2C
100
AcDbEntity
  8
Defpoints
 62
     0
100
AcDbPoint
 10
283.0190573575097
 20
1984.79153588869
 30
0.0
  0
ENDBLK
  5
F37
330
F2C
100
AcDbEntity
  8
0
100
AcDbBlockEnd
  0
BLOCK
  5
F4D
330
F4C
100
AcDbEntity
  8
0
100
AcDbBlockBegin
  2
*D16
 70
     1
 10
0.0
 20
0.0
 30
0.0
  3
*D16
  1
*D102
  0
LINE
  5
F4E
330
F4C
100
AcDbEntity
  8
MODEL
 62
     0
370
    -2
100
AcDbLine
 10
1396.817201365532
 20
995.519966936352
 30
0.0
 11
1396.817201365532
 21
938.0427345485245
 31
0.0
  0
LINE
  5
F4F
330
F4C
100
AcDbEntity
  8
MODEL
 62
     0
370
    -2
100
AcDbLine
 10
1481.817315825047
 20
995.519966936352
 30
0.0
 11
1481.817315825047
 21
938.0427345485245
 31
0.0
  0
LINE
  5
F50
330
F4C
100
AcDbEntity
  8
MODEL
 62
     0
370
    -2
100
AcDbLine
 10
1399.817201365532
 20
938.0427345485245
 30
0.0
 11
1478.817315825047
 21
938.0427345485245
 31
0.0
  0
INSERT
  5
F51
330
F4C
100
AcDbEntity
  8
MODEL
 62
     0
370
    -2
100
AcDbBlockReference
  2
_DOT
 10
1396.817201365532
 20
938.0427345485245
 30
0.0
 41
3.0
 42
3.0
 43
3.0
 50
180.0
  0
INSERT
  5
F52
330
F4C
100
AcDbEntity
  8
MODEL
 62
     0
370
    -2
100
AcDbBlockReference
  2
_DOT
 10
1481.817315825047
 20
938.0427345485245
 30
0.0
 41
3.0
 42
3.0
 43
3.0
  0
MTEXT
  5
F53
330
F4C
100
AcDbEntity
  8
MODEL
 62
     0
 48
0.05
100
AcDbMText
 10
1439.317258595289
 20
954.0427345485245
 30
0.0
 40
12.0
 41
0.0
 46
0.0
 71
     5
 72
     1
  1
\A1;85
  7
ＭＳ ゴシック
 73
     1
 44
1.0
  0
POINT
  5
F54
330
F4C
100
AcDbEntity
  8
Defpoints
 62
     0
100
AcDbPoint
 10
1396.817201365532
 20
1005.519966936352
 30
0.0
  0
POINT
  5
F55
330
F4C
100
AcDbEntity
  8
Defpoints
 62
     0
100
AcDbPoint
 10
1481.817315825047
 20
1005.519966936352
 30
0.0
  0
POINT
  5
F56
330
F4C
100
AcDbEntity
  8
Defpoints
 62
     0
100
AcDbPoint
 10
1481.817315825047
 20
938.0427345485245
 30
0.0
  0
ENDBLK
  5
F57
330
F4C
100
AcDbEntity
  8
0
100
AcDbBlockEnd
  0
BLOCK
  5
F71
330
F70
100
AcDbEntity
  8
0
100
AcDbBlockBegin
  2
*D17
 70
     1
 10
0.0
 20
0.0
 30
0.0
  3
*D17
  1
*D107
  0
LINE
  5
F72
330
F70
100
AcDbEntity
  8
MODEL
 62
     0
370
    -2
100
AcDbLine
 10
1426.980157026799
 20
2094.806143289787
 30
0.0
 11
1426.980157026799
 21
2216.058443918653
 31
0.0
  0
LINE
  5
F73
330
F70
100
AcDbEntity
  8
MODEL
 62
     0
370
    -2
100
AcDbLine
 10
1326.980157026799
 20
2094.806143289791
 30
0.0
 11
1326.980157026799
 21
2216.058443918653
 31
0.0
  0
LINE
  5
F74
330
F70
100
AcDbEntity
  8
MODEL
 62
     0
370
    -2
100
AcDbLine
 10
1423.980157026799
 20
2216.058443918653
 30
0.0
 11
1329.980157026799
 21
2216.058443918653
 31
0.0
  0
INSERT
  5
F75
330
F70
100
AcDbEntity
  8
MODEL
 62
     0
370
    -2
100
AcDbBlockReference
  2
_DOT
 10
1426.980157026799
 20
2216.058443918653
 30
0.0
 41
3.0
 42
3.0
 43
3.0
  0
INSERT
  5
F76
330
F70
100
AcDbEntity
  8
MODEL
 62
     0
370
    -2
100
AcDbBlockReference
  2
_DOT
 10
1326.980157026799
 20
2216.058443918653
 30
0.0
 41
3.0
 42
3.0
 43
3.0
 50
180.0
  0
MTEXT
  5
F77
330
F70
100
AcDbEntity
  8
MODEL
 62
     0
 48
0.05
100
AcDbMText
 10
1376.980157026799
 20
2232.058443918653
 30
0.0
 40
12.0
 41
0.0
 46
0.0
 71
     5
 72
     1
  1
\A1;100
  7
ＭＳ ゴシック
 73
     1
 44
1.0
  0
POINT
  5
F78
330
F70
100
AcDbEntity
  8
Defpoints
 62
     0
100
AcDbPoint
 10
1426.980157026799
 20
2084.806143289787
 30
0.0
  0
POINT
  5
F79
330
F70
100
AcDbEntity
  8
Defpoints
 62
     0
100
AcDbPoint
 10
1326.980157026799
 20
2084.806143289791
 30
0.0
  0
POINT
  5
F7A
330
F70
100
AcDbEntity
  8
Defpoints
 62
     0
100
AcDbPoint
 10
1326.980157026799
 20
2216.058443918653
 30
0.0
  0
ENDBLK
  5
F7B
330
F70
100
AcDbEntity
  8
0
100
AcDbBlockEnd
  0
BLOCK
  5
FC9
330
FC8
100
AcDbEntity
  8
0
100
AcDbBlockBegin
  2
*D18
 70
     1
 10
0.0
 20
0.0
 30
0.0
  3
*D18
  1
*D141
  0
LINE
  5
FCA
330
FC8
100
AcDbEntity
  8
DIM
 62
     0
370
    -2
100
AcDbLine
 10
1620.31725859627
 20
1071.519966936348
 30
0.0
 11
1701.083556361247
 21
1071.519966936348
 31
0.0
  0
LINE
  5
FCB
330
FC8
100
AcDbEntity
  8
DIM
 62
     0
370
    -2
100
AcDbLine
 10
1620.31725859627
 20
1001.519966936348
 30
0.0
 11
1701.083556361247
 21
1001.519966936348
 31
0.0
  0
LINE
  5
FCC
330
FC8
100
AcDbEntity
  8
DIM
 62
     0
370
    -2
100
AcDbLine
 10
1701.083556361247
 20
1068.519966936348
 30
0.0
 11
1701.083556361247
 21
1004.519966936348
 31
0.0
  0
INSERT
  5
FCD
330
FC8
100
AcDbEntity
  8
DIM
 62
     0
370
    -2
100
AcDbBlockReference
  2
_DOT
 10
1701.083556361247
 20
1071.519966936348
 30
0.0
 41
3.0
 42
3.0
 43
3.0
 50
90.0
  0
INSERT
  5
FCE
330
FC8
100
AcDbEntity
  8
DIM
 62
     0
370
    -2
100
AcDbBlockReference
  2
_DOT
 10
1701.083556361247
 20
1001.519966936348
 30
0.0
 41
3.0
 42
3.0
 43
3.0
 50
270.0
  0
MTEXT
  5
FCF
330
FC8
100
AcDbEntity
  8
DIM
 62
     0
 48
0.05
100
AcDbMText
 10
1685.083556361247
 20
1036.519966936348
 30
0.0
 40
12.0
 41
0.0
 46
0.0
 71
     5
 72
     1
  1
\A1;70
  7
ＭＳ ゴシック
 11
0.0
 21
1.0
 31
0.0
 73
     1
 44
1.0
  0
POINT
  5
FD0
330
FC8
100
AcDbEntity
  8
Defpoints
 62
     0
100
AcDbPoint
 10
1610.31725859627
 20
1071.519966936348
 30
0.0
  0
POINT
  5
FD1
330
FC8
100
AcDbEntity
  8
Defpoints
 62
     0
100
AcDbPoint
 10
1610.31725859627
 20
1001.519966936348
 30
0.0
  0
POINT
  5
FD2
330
FC8
100
AcDbEntity
  8
Defpoints
 62
     0
100
AcDbPoint
 10
1701.083556361247
 20
1001.519966936348
 30
0.0
  0
ENDBLK
  5
FD3
330
FC8
100
AcDbEntity
  8
0
100
AcDbBlockEnd
  0
BLOCK
  5
FEC
330
FEB
100
AcDbEntity
  8
0
100
AcDbBlockBegin
  2
*D19
 70
     1
 10
0.0
 20
0.0
 30
0.0
  3
*D19
  1
*D145
  0
LINE
  5
FED
330
FEB
100
AcDbEntity
  8
MODEL
 62
     0
370
    -2
100
AcDbLine
 10
503.0721035243564
 20
1085.926585770579
 30
0.0
 11
503.0721035243564
 21
1145.024976349698
 31
0.0
  0
LINE
  5
FEE
330
FEB
100
AcDbEntity
  8
MODEL
 62
     0
370
    -2
100
AcDbLine
 10
603.0721035243564
 20
1085.926585770579
 30
0.0
 11
603.0721035243564
 21
1145.024976349698
 31
0.0
  0
LINE
  5
FEF
330
FEB
100
AcDbEntity
  8
MODEL
 62
     0
370
    -2
100
AcDbLine
 10
506.0721035243564
 20
1145.024976349698
 30
0.0
 11
600.0721035243564
 21
1145.024976349698
 31
0.0
  0
INSERT
  5
FF0
330
FEB
100
AcDbEntity
  8
MODEL
 62
     0
370
    -2
100
AcDbBlockReference
  2
_DOT
 10
503.0721035243564
 20
1145.024976349698
 30
0.0
 41
3.0
 42
3.0
 43
3.0
 50
180.0
  0
INSERT
  5
FF1
330
FEB
100
AcDbEntity
  8
MODEL
 62
     0
370
    -2
100
AcDbBlockReference
  2
_DOT
 10
603.0721035243564
 20
1145.024976349698
 30
0.0
 41
3.0
 42
3.0
 43
3.0
  0
MTEXT
  5
FF2
330
FEB
100
AcDbEntity
  8
MODEL
 62
     0
 48
0.05
100
AcDbMText
 10
553.0721035243564
 20
1161.024976349698
 30
0.0
 40
12.0
 41
0.0
 46
0.0
 71
     5
 72
     1
  1
\A1;100
  7
ＭＳ ゴシック
 73
     1
 44
1.0
  0
POINT
  5
FF3
330
FEB
100
AcDbEntity
  8
Defpoints
 62
     0
100
AcDbPoint
 10
503.0721035243564
 20
1075.926585770579
 30
0.0
  0
POINT
  5
FF4
330
FEB
100
AcDbEntity
  8
Defpoints
 62
     0
100
AcDbPoint
 10
603.0721035243564
 20
1075.926585770579
 30
0.0
  0
POINT
  5
FF5
330
FEB
100
AcDbEntity
  8
Defpoints
 62
     0
100
AcDbPoint
 10
603.0721035243564
 20
1145.024976349698
 30
0.0
  0
ENDBLK
  5
FF6
330
FEB
100
AcDbEntity
  8
0
100
AcDbBlockEnd
  0
BLOCK
  5
FF9
330
FF8
100
AcDbEntity
  8
0
100
AcDbBlockBegin
  2
*D20
 70
     1
 10
0.0
 20
0.0
 30
0.0
  3
*D20
  1
*D146
  0
LINE
  5
FFA
330
FF8
100
AcDbEntity
  8
DIM
 62
     0
370
    -2
100
AcDbLine
 10
1610.31725859627
 20
991.519966936348
 30
0.0
 11
1610.31725859627
 21
805.6324789460867
 31
0.0
  0
LINE
  5
FFB
330
FF8
100
AcDbEntity
  8
DIM
 62
     0
370
    -2
100
AcDbLine
 10
1405.31725859627
 20
928.1677345485205
 30
0.0
 11
1405.31725859627
 21
805.6324789460867
 31
0.0
  0
LINE
  5
FFC
330
FF8
100
AcDbEntity
  8
DIM
 62
     0
370
    -2
100
AcDbLine
 10
1607.31725859627
 20
805.6324789460867
 30
0.0
 11
1408.31725859627
 21
805.6324789460867
 31
0.0
  0
INSERT
  5
FFD
330
FF8
100
AcDbEntity
  8
DIM
 62
     0
370
    -2
100
AcDbBlockReference
  2
_DOT
 10
1610.31725859627
 20
805.6324789460867
 30
0.0
 41
3.0
 42
3.0
 43
3.0
  0
INSERT
  5
FFE
330
FF8
100
AcDbEntity
  8
DIM
 62
     0
370
    -2
100
AcDbBlockReference
  2
_DOT
 10
1405.31725859627
 20
805.6324789460867
 30
0.0
 41
3.0
 42
3.0
 43
3.0
 50
180.0
  0
MTEXT
  5
FFF
330
FF8
100
AcDbEntity
  8
DIM
 62
     0
 48
0.05
100
AcDbMText
 10
1507.81725859627
 20
821.6324789460867
 30
0.0
 40
12.0
 41
0.0
 46
0.0
 71
     5
 72
     1
  1
\A1;205
  7
ＭＳ ゴシック
 73
     1
 44
1.0
  0
POINT
  5
1000
330
FF8
100
AcDbEntity
  8
Defpoints
 62
     0
100
AcDbPoint
 10
1610.31725859627
 20
1001.519966936348
 30
0.0
  0
POINT
  5
1001
330
FF8
100
AcDbEntity
  8
Defpoints
 62
     0
100
AcDbPoint
 10
1405.31725859627
 20
938.1677345485205
 30
0.0
  0
POINT
  5
1002
330
FF8
100
AcDbEntity
  8
Defpoints
 62
     0
100
AcDbPoint
 10
1405.31725859627
 20
805.6324789460867
 30
0.0
  0
ENDBLK
  5
1003
330
FF8
100
AcDbEntity
  8
0
100
AcDbBlockEnd
  0
BLOCK
  5
1008
330
1007
100
AcDbEntity
  8
0
100
AcDbBlockBegin
  2
*D21
 70
     1
 10
0.0
 20
0.0
 30
0.0
  3
*D21
  1
*D147
  0
LINE
  5
1009
330
1007
100
AcDbEntity
  8
DIM
 62
     0
370
    -2
100
AcDbLine
 10
472.327084510669
 20
2260.806143289786
 30
0.0
 11
472.327084510669
 21
2325.274672850661
 31
0.0
  0
LINE
  5
100A
330
1007
100
AcDbEntity
  8
DIM
 62
     0
370
    -2
100
AcDbLine
 10
682.327084510669
 20
2260.806143289786
 30
0.0
 11
682.327084510669
 21
2325.274672850661
 31
0.0
  0
LINE
  5
100B
330
1007
100
AcDbEntity
  8
DIM
 62
     0
370
    -2
100
AcDbLine
 10
475.327084510669
 20
2325.274672850661
 30
0.0
 11
679.327084510669
 21
2325.274672850661
 31
0.0
  0
INSERT
  5
100C
330
1007
100
AcDbEntity
  8
DIM
 62
     0
370
    -2
100
AcDbBlockReference
  2
_DOT
 10
472.327084510669
 20
2325.274672850661
 30
0.0
 41
3.0
 42
3.0
 43
3.0
 50
180.0
  0
INSERT
  5
100D
330
1007
100
AcDbEntity
  8
DIM
 62
     0
370
    -2
100
AcDbBlockReference
  2
_DOT
 10
682.327084510669
 20
2325.274672850661
 30
0.0
 41
3.0
 42
3.0
 43
3.0
  0
MTEXT
  5
100E
330
1007
100
AcDbEntity
  8
DIM
 62
     0
 48
0.05
100
AcDbMText
 10
577.327084510669
 20
2341.274672850661
 30
0.0
 40
12.0
 41
0.0
 46
0.0
 71
     5
 72
     1
  1
\A1;210
  7
ＭＳ ゴシック
 73
     1
 44
1.0
  0
POINT
  5
100F
330
1007
100
AcDbEntity
  8
Defpoints
 62
     0
100
AcDbPoint
 10
472.327084510669
 20
2250.806143289786
 30
0.0
  0
POINT
  5
1010
330
1007
100
AcDbEntity
  8
Defpoints
 62
     0
100
AcDbPoint
 10
682.327084510669
 20
2250.806143289786
 30
0.0
  0
POINT
  5
1011
330
1007
100
AcDbEntity
  8
Defpoints
 62
     0
100
AcDbPoint
 10
682.327084510669
 20
2325.274672850661
 30
0.0
  0
ENDBLK
  5
1012
330
1007
100
AcDbEntity
  8
0
100
AcDbBlockEnd
  0
BLOCK
  5
1015
330
1014
100
AcDbEntity
  8
0
100
AcDbBlockBegin
  2
*D22
 70
     1
 10
0.0
 20
0.0
 30
0.0
  3
*D22
  1
*D148
  0
LINE
  5
1016
330
1014
100
AcDbEntity
  8
DIM
 62
     0
370
    -2
100
AcDbLine
 10
462.327084510669
 20
2061.806143289786
 30
0.0
 11
462.327084510669
 21
1905.258086319904
 31
0.0
  0
LINE
  5
1017
330
1014
100
AcDbEntity
  8
DIM
 62
     0
370
    -2
100
AcDbLine
 10
562.327084510669
 20
2061.806143289786
 30
0.0
 11
562.327084510669
 21
1905.258086319904
 31
0.0
  0
LINE
  5
1018
330
1014
100
AcDbEntity
  8
DIM
 62
     0
370
    -2
100
AcDbLine
 10
465.327084510669
 20
1905.258086319904
 30
0.0
 11
559.327084510669
 21
1905.258086319904
 31
0.0
  0
INSERT
  5
1019
330
1014
100
AcDbEntity
  8
DIM
 62
     0
370
    -2
100
AcDbBlockReference
  2
_DOT
 10
462.327084510669
 20
1905.258086319904
 30
0.0
 41
3.0
 42
3.0
 43
3.0
 50
180.0
  0
INSERT
  5
101A
330
1014
100
AcDbEntity
  8
DIM
 62
     0
370
    -2
100
AcDbBlockReference
  2
_DOT
 10
562.327084510669
 20
1905.258086319904
 30
0.0
 41
3.0
 42
3.0
 43
3.0
  0
MTEXT
  5
101B
330
1014
100
AcDbEntity
  8
DIM
 62
     0
 48
0.05
100
AcDbMText
 10
512.327084510669
 20
1921.258086319904
 30
0.0
 40
12.0
 41
0.0
 46
0.0
 71
     5
 72
     1
  1
\A1;100
  7
ＭＳ ゴシック
 73
     1
 44
1.0
  0
POINT
  5
101C
330
1014
100
AcDbEntity
  8
Defpoints
 62
     0
100
AcDbPoint
 10
462.327084510669
 20
2071.806143289786
 30
0.0
  0
POINT
  5
101D
330
1014
100
AcDbEntity
  8
Defpoints
 62
     0
100
AcDbPoint
 10
562.327084510669
 20
2071.806143289786
 30
0.0
  0
POINT
  5
101E
330
1014
100
AcDbEntity
  8
Defpoints
 62
     0
100
AcDbPoint
 10
562.327084510669
 20
1905.258086319904
 30
0.0
  0
ENDBLK
  5
101F
330
1014
100
AcDbEntity
  8
0
100
AcDbBlockEnd
  0
BLOCK
  5
1022
330
1021
100
AcDbEntity
  8
0
100
AcDbBlockBegin
  2
*D23
 70
     1
 10
0.0
 20
0.0
 30
0.0
  3
*D23
  1
*D149
  0
LINE
  5
1023
330
1021
100
AcDbEntity
  8
DIM
  6
Continuous
 62
     0
370
    -2
100
AcDbLine
 10
412.2008088493917
 20
1999.397485658447
 30
0.0
 11
412.2008088493917
 21
1836.129206672543
 31
0.0
  0
LINE
  5
1024
330
1021
100
AcDbEntity
  8
DIM
  6
Continuous
 62
     0
370
    -2
100
AcDbLine
 10
692.2008088493917
 20
1999.397485658447
 30
0.0
 11
692.2008088493917
 21
1836.129206672543
 31
0.0
  0
LINE
  5
1025
330
1021
100
AcDbEntity
  8
DIM
  6
Continuous
 62
     0
370
    -2
100
AcDbLine
 10
415.2008088493917
 20
1836.129206672543
 30
0.0
 11
689.2008088493917
 21
1836.129206672543
 31
0.0
  0
INSERT
  5
1026
330
1021
100
AcDbEntity
  8
DIM
 62
     0
370
    -2
100
AcDbBlockReference
  2
_DOT
 10
412.2008088493917
 20
1836.129206672543
 30
0.0
 41
3.0
 42
3.0
 43
3.0
 50
180.0
  0
INSERT
  5
1027
330
1021
100
AcDbEntity
  8
DIM
 62
     0
370
    -2
100
AcDbBlockReference
  2
_DOT
 10
692.2008088493917
 20
1836.129206672543
 30
0.0
 41
3.0
 42
3.0
 43
3.0
  0
MTEXT
  5
1028
330
1021
100
AcDbEntity
  8
DIM
 62
     0
 48
0.05
100
AcDbMText
 10
552.2008088493917
 20
1852.129206672543
 30
0.0
 40
12.0
 41
0.0
 46
0.0
 71
     5
 72
     1
  1
\A1;280
  7
ＭＳ ゴシック
 73
     1
 44
1.0
  0
POINT
  5
1029
330
1021
100
AcDbEntity
  8
Defpoints
 62
     0
100
AcDbPoint
 10
412.2008088493917
 20
2009.397485658447
 30
0.0
  0
POINT
  5
102A
330
1021
100
AcDbEntity
  8
Defpoints
 62
     0
100
AcDbPoint
 10
692.2008088493917
 20
2009.397485658447
 30
0.0
  0
POINT
  5
102B
330
1021
100
AcDbEntity
  8
Defpoints
 62
     0
100
AcDbPoint
 10
692.2008088493917
 20
1836.129206672543
 30
0.0
  0
ENDBLK
  5
102C
330
1021
100
AcDbEntity
  8
0
100
AcDbBlockEnd
  0
BLOCK
  5
10EF
330
10EE
100
AcDbEntity
  8
0
100
AcDbBlockBegin
  2
*D24
 70
     1
 10
0.0
 20
0.0
 30
0.0
  3
*D24
  1
*D25
  0
LINE
  5
10F1
330
10EE
100
AcDbEntity
  8
DIM
  6
Continuous
 62
     0
370
    -2
100
AcDbLine
 10
131.0214208713965
 20
1031.7252880986
 30
0.0
 11
131.0214208713965
 21
1261.376692689574
 31
0.0
  0
LINE
  5
10F2
330
10EE
100
AcDbEntity
  8
DIM
  6
Continuous
 62
     0
370
    -2
100
AcDbLine
 10
491.0214208713965
 20
1018.559853191438
 30
0.0
 11
491.0214208713966
 21
1261.376692689574
 31
0.0
  0
LINE
  5
10F3
330
10EE
100
AcDbEntity
  8
DIM
  6
Continuous
 62
     0
370
    -2
100
AcDbLine
 10
134.0214208713965
 20
1261.376692689574
 30
0.0
 11
488.0214208713966
 21
1261.376692689574
 31
0.0
  0
INSERT
  5
10F4
330
10EE
100
AcDbEntity
  8
DIM
 62
     0
370
    -2
100
AcDbBlockReference
  2
_DOT
 10
131.0214208713965
 20
1261.376692689574
 30
0.0
 41
3.0
 42
3.0
 43
3.0
 50
180.0
  0
INSERT
  5
10F5
330
10EE
100
AcDbEntity
  8
DIM
 62
     0
370
    -2
100
AcDbBlockReference
  2
_DOT
 10
491.0214208713966
 20
1261.376692689574
 30
0.0
 41
3.0
 42
3.0
 43
3.0
  0
MTEXT
  5
10F6
330
10EE
100
AcDbEntity
  8
DIM
 62
     0
 48
0.05
100
AcDbMText
 10
311.0214208713965
 20
1277.376692689574
 30
0.0
 40
12.0
 41
0.0
 46
0.0
 71
     5
 72
     1
  1
\A1;360
  7
ＭＳ ゴシック
 73
     1
 44
1.0
  0
POINT
  5
10F7
330
10EE
100
AcDbEntity
  8
Defpoints
 62
     0
100
AcDbPoint
 10
131.0214208713965
 20
1021.7252880986
 30
0.0
  0
POINT
  5
10F8
330
10EE
100
AcDbEntity
  8
Defpoints
 62
     0
100
AcDbPoint
 10
491.0214208713965
 20
1008.559853191438
 30
0.0
  0
POINT
  5
10F9
330
10EE
100
AcDbEntity
  8
Defpoints
 62
     0
100
AcDbPoint
 10
491.0214208713965
 20
1261.376692689574
 30
0.0
  0
ENDBLK
  5
10F0
330
10EE
100
AcDbEntity
  8
0
100
AcDbBlockEnd
  0
BLOCK
  5
10FB
330
10FA
100
AcDbEntity
  8
0
100
AcDbBlockBegin
  2
*D25
 70
     1
 10
0.0
 20
0.0
 30
0.0
  3
*D25
  1
*D26
  0
LINE
  5
10FD
330
10FA
100
AcDbEntity
  8
DIM
  6
Continuous
 62
     0
370
    -2
100
AcDbLine
 10
303.8909112893677
 20
1114.69947969411
 30
0.0
 11
548.7684258123604
 21
1114.69947969411
 31
0.0
  0
LINE
  5
10FE
330
10FA
100
AcDbEntity
  8
DIM
  6
Continuous
 62
     0
370
    -2
100
AcDbLine
 10
301.2578243079353
 20
896.6994796941101
 30
0.0
 11
548.7684258123604
 21
896.6994796941101
 31
0.0
  0
LINE
  5
10FF
330
10FA
100
AcDbEntity
  8
DIM
  6
Continuous
 62
     0
370
    -2
100
AcDbLine
 10
548.7684258123604
 20
1111.69947969411
 30
0.0
 11
548.7684258123604
 21
899.6994796941101
 31
0.0
  0
INSERT
  5
1100
330
10FA
100
AcDbEntity
  8
DIM
 62
     0
370
    -2
100
AcDbBlockReference
  2
_DOT
 10
548.7684258123604
 20
1114.69947969411
 30
0.0
 41
3.0
 42
3.0
 43
3.0
 50
90.0
  0
INSERT
  5
1101
330
10FA
100
AcDbEntity
  8
DIM
 62
     0
370
    -2
100
AcDbBlockReference
  2
_DOT
 10
548.7684258123604
 20
896.6994796941101
 30
0.0
 41
3.0
 42
3.0
 43
3.0
 50
270.0
  0
MTEXT
  5
1102
330
10FA
100
AcDbEntity
  8
DIM
 62
     0
 48
0.05
100
AcDbMText
 10
532.7684258123604
 20
1005.69947969411
 30
0.0
 40
12.0
 41
0.0
 46
0.0
 71
     5
 72
     1
  1
\A1;218
  7
ＭＳ ゴシック
 11
0.0
 21
1.0
 31
0.0
 73
     1
 44
1.0
  0
POINT
  5
1103
330
10FA
100
AcDbEntity
  8
Defpoints
 62
     0
100
AcDbPoint
 10
293.8909112893677
 20
1114.69947969411
 30
0.0
  0
POINT
  5
1104
330
10FA
100
AcDbEntity
  8
Defpoints
 62
     0
100
AcDbPoint
 10
291.2578243079353
 20
896.6994796941101
 30
0.0
  0
POINT
  5
1105
330
10FA
100
AcDbEntity
  8
Defpoints
 62
     0
100
AcDbPoint
 10
548.7684258123604
 20
896.6994796941101
 30
0.0
  0
ENDBLK
  5
10FC
330
10FA
100
AcDbEntity
  8
0
100
AcDbBlockEnd
  0
BLOCK
  5
1107
330
1106
100
AcDbEntity
  8
0
100
AcDbBlockBegin
  2
*D26
 70
     1
 10
0.0
 20
0.0
 30
0.0
  3
*D26
  1
*D27
  0
LINE
  5
1109
330
1106
100
AcDbEntity
  8
DIM
  6
Continuous
 62
     0
370
    -2
100
AcDbLine
 10
131.0214208713965
 20
532.0013969257454
 30
0.0
 11
131.0214208713965
 21
428.9579113636607
 31
0.0
  0
LINE
  5
110A
330
1106
100
AcDbEntity
  8
DIM
  6
Continuous
 62
     0
370
    -2
100
AcDbLine
 10
246.0214208713965
 20
482.7008558373745
 30
0.0
 11
246.0214208713965
 21
428.9579113636607
 31
0.0
  0
LINE
  5
110B
330
1106
100
AcDbEntity
  8
DIM
  6
Continuous
 62
     0
370
    -2
100
AcDbLine
 10
134.0214208713965
 20
428.9579113636607
 30
0.0
 11
243.0214208713965
 21
428.9579113636607
 31
0.0
  0
INSERT
  5
110C
330
1106
100
AcDbEntity
  8
DIM
 62
     0
370
    -2
100
AcDbBlockReference
  2
_DOT
 10
131.0214208713965
 20
428.9579113636607
 30
0.0
 41
3.0
 42
3.0
 43
3.0
 50
180.0
  0
INSERT
  5
110D
330
1106
100
AcDbEntity
  8
DIM
 62
     0
370
    -2
100
AcDbBlockReference
  2
_DOT
 10
246.0214208713965
 20
428.9579113636607
 30
0.0
 41
3.0
 42
3.0
 43
3.0
  0
MTEXT
  5
110E
330
1106
100
AcDbEntity
  8
DIM
 62
     0
 48
0.05
100
AcDbMText
 10
188.5214208713965
 20
444.9579113636607
 30
0.0
 40
12.0
 41
0.0
 46
0.0
 71
     5
 72
     1
  1
\A1;115
  7
ＭＳ ゴシック
 73
     1
 44
1.0
  0
POINT
  5
110F
330
1106
100
AcDbEntity
  8
Defpoints
 62
     0
100
AcDbPoint
 10
131.0214208713965
 20
542.0013969257454
 30
0.0
  0
POINT
  5
1110
330
1106
100
AcDbEntity
  8
Defpoints
 62
     0
100
AcDbPoint
 10
246.0214208713965
 20
492.7008558373745
 30
0.0
  0
POINT
  5
1111
330
1106
100
AcDbEntity
  8
Defpoints
 62
     0
100
AcDbPoint
 10
246.0214208713965
 20
428.9579113636607
 30
0.0
  0
ENDBLK
  5
1108
330
1106
100
AcDbEntity
  8
0
100
AcDbBlockEnd
  0
BLOCK
  5
1113
330
1112
100
AcDbEntity
  8
0
100
AcDbBlockBegin
  2
*D27
 70
     1
 10
0.0
 20
0.0
 30
0.0
  3
*D27
  1
*D28
  0
LINE
  5
1115
330
1112
100
AcDbEntity
  8
DIM
  6
Continuous
 62
     0
370
    -2
100
AcDbLine
 10
501.028125309869
 20
572.7621895921554
 30
0.0
 11
540.3584163990151
 21
572.7621895921554
 31
0.0
  0
LINE
  5
1116
330
1112
100
AcDbEntity
  8
DIM
  6
Continuous
 62
     0
370
    -2
100
AcDbLine
 10
361.6998134085998
 20
492.7621895921557
 30
0.0
 11
540.3584163990151
 21
492.7621895921557
 31
0.0
  0
LINE
  5
1117
330
1112
100
AcDbEntity
  8
DIM
  6
Continuous
 62
     0
370
    -2
100
AcDbLine
 10
540.3584163990151
 20
569.7621895921554
 30
0.0
 11
540.3584163990151
 21
495.7621895921557
 31
0.0
  0
INSERT
  5
1118
330
1112
100
AcDbEntity
  8
DIM
 62
     0
370
    -2
100
AcDbBlockReference
  2
_DOT
 10
540.3584163990151
 20
572.7621895921554
 30
0.0
 41
3.0
 42
3.0
 43
3.0
 50
90.0
  0
INSERT
  5
1119
330
1112
100
AcDbEntity
  8
DIM
 62
     0
370
    -2
100
AcDbBlockReference
  2
_DOT
 10
540.3584163990151
 20
492.7621895921557
 30
0.0
 41
3.0
 42
3.0
 43
3.0
 50
270.0
  0
MTEXT
  5
111A
330
1112
100
AcDbEntity
  8
DIM
 62
     0
 48
0.05
100
AcDbMText
 10
524.3584163990151
 20
532.7621895921554
 30
0.0
 40
12.0
 41
0.0
 46
0.0
 71
     5
 72
     1
  1
\A1;80
  7
ＭＳ ゴシック
 11
0.0
 21
1.0
 31
0.0
 73
     1
 44
1.0
  0
POINT
  5
111B
330
1112
100
AcDbEntity
  8
Defpoints
 62
     0
100
AcDbPoint
 10
491.028125309869
 20
572.7621895921554
 30
0.0
  0
POINT
  5
111C
330
1112
100
AcDbEntity
  8
Defpoints
 62
     0
100
AcDbPoint
 10
351.6998134085998
 20
492.7621895921557
 30
0.0
  0
POINT
  5
111D
330
1112
100
AcDbEntity
  8
Defpoints
 62
     0
100
AcDbPoint
 10
540.3584163990151
 20
492.7621895921557
 30
0.0
  0
ENDBLK
  5
1114
330
1112
100
AcDbEntity
  8
0
100
AcDbBlockEnd
  0
BLOCK
  5
111F
330
111E
100
AcDbEntity
  8
0
100
AcDbBlockBegin
  2
*D28
 70
     1
 10
0.0
 20
0.0
 30
0.0
  3
*D28
  1
*D29
  0
LINE
  5
1121
330
111E
100
AcDbEntity
  8
DIM
  6
Continuous
 62
     0
370
    -2
100
AcDbLine
 10
712.2255264416483
 20
572.7621895921554
 30
0.0
 11
712.2255264416483
 21
659.3309451302455
 31
0.0
  0
LINE
  5
1122
330
111E
100
AcDbEntity
  8
DIM
  6
Continuous
 62
     0
370
    -2
100
AcDbLine
 10
712.2255264416483
 20
569.7621895921554
 30
0.0
 11
712.2255264416483
 21
510.8761664804406
 31
0.0
  0
INSERT
  5
1123
330
111E
100
AcDbEntity
  8
DIM
 62
     0
370
    -2
100
AcDbBlockReference
  2
_DOT
 10
712.2255264416483
 20
572.7621895921554
 30
0.0
 41
3.0
 42
3.0
 43
3.0
 50
90.0
  0
INSERT
  5
1124
330
111E
100
AcDbEntity
  8
DIM
 62
     0
370
    -2
100
AcDbBlockReference
  2
_DOT
 10
712.2255264416483
 20
507.8761664804406
 30
0.0
 41
3.0
 42
3.0
 43
3.0
 50
270.0
  0
MTEXT
  5
1125
330
111E
100
AcDbEntity
  8
DIM
 62
     0
 48
0.05
100
AcDbMText
 10
695.1635264416483
 20
620.3869451302455
 30
0.0
 40
12.0
 41
0.0
 46
0.0
 71
     5
 72
     1
  1
\A1;63(深さ)
  7
ＭＳ ゴシック
 11
0.0
 21
1.0
 31
0.0
 73
     1
 44
1.0
  0
POINT
  5
1126
330
111E
100
AcDbEntity
  8
Defpoints
 62
     0
100
AcDbPoint
 10
735.3367864215595
 20
572.7621895921554
 30
0.0
  0
POINT
  5
1127
330
111E
100
AcDbEntity
  8
Defpoints
 62
     0
100
AcDbPoint
 10
712.2255264416483
 20
507.8761664804406
 30
0.0
  0
POINT
  5
1128
330
111E
100
AcDbEntity
  8
Defpoints
 62
     0
100
AcDbPoint
 10
712.2255264416483
 20
507.8761664804406
 30
0.0
  0
ENDBLK
  5
1120
330
111E
100
AcDbEntity
  8
0
100
AcDbBlockEnd
  0
BLOCK
  5
112A
330
1129
100
AcDbEntity
  8
0
100
AcDbBlockBegin
  2
*D29
 70
     1
 10
0.0
 20
0.0
 30
0.0
  3
*D29
  1
*D30
  0
LINE
  5
112C
330
1129
100
AcDbEntity
  8
DIM
  6
Continuous
 62
     0
370
    -2
100
AcDbLine
 10
712.2255264416492
 20
437.5558060007036
 30
0.0
 11
712.2255264416492
 21
396.355443895734
 31
0.0
  0
LINE
  5
112D
330
1129
100
AcDbEntity
  8
DIM
  6
Continuous
 62
     0
370
    -2
100
AcDbLine
 10
821.3853059957557
 20
475.1213975910664
 30
0.0
 11
821.3853059957557
 21
396.355443895734
 31
0.0
  0
LINE
  5
112E
330
1129
100
AcDbEntity
  8
DIM
  6
Continuous
 62
     0
370
    -2
100
AcDbLine
 10
715.2255264416492
 20
396.355443895734
 30
0.0
 11
818.3853059957557
 21
396.355443895734
 31
0.0
  0
INSERT
  5
112F
330
1129
100
AcDbEntity
  8
DIM
 62
     0
370
    -2
100
AcDbBlockReference
  2
_DOT
 10
712.2255264416492
 20
396.355443895734
 30
0.0
 41
3.0
 42
3.0
 43
3.0
 50
180.0
  0
INSERT
  5
1130
330
1129
100
AcDbEntity
  8
DIM
 62
     0
370
    -2
100
AcDbBlockReference
  2
_DOT
 10
821.3853059957557
 20
396.355443895734
 30
0.0
 41
3.0
 42
3.0
 43
3.0
  0
MTEXT
  5
1131
330
1129
100
AcDbEntity
  8
DIM
 62
     0
 48
0.05
100
AcDbMText
 10
766.8054162187025
 20
412.355443895734
 30
0.0
 40
12.0
 41
0.0
 46
0.0
 71
     5
 72
     1
  1
\A1;109
  7
ＭＳ ゴシック
 73
     1
 44
1.0
  0
POINT
  5
1132
330
1129
100
AcDbEntity
  8
Defpoints
 62
     0
100
AcDbPoint
 10
712.2255264416492
 20
447.5558060007036
 30
0.0
  0
POINT
  5
1133
330
1129
100
AcDbEntity
  8
Defpoints
 62
     0
100
AcDbPoint
 10
821.3853059957557
 20
485.1213975910664
 30
0.0
  0
POINT
  5
1134
330
1129
100
AcDbEntity
  8
Defpoints
 62
     0
100
AcDbPoint
 10
821.3853059957557
 20
396.355443895734
 30
0.0
  0
ENDBLK
  5
112B
330
1129
100
AcDbEntity
  8
0
100
AcDbBlockEnd
  0
BLOCK
  5
1136
330
1135
100
AcDbEntity
  8
0
100
AcDbBlockBegin
  2
*D30
 70
     1
 10
0.0
 20
0.0
 30
0.0
  3
*D30
  1
*D31
  0
LINE
  5
1138
330
1135
100
AcDbEntity
  8
DIM
  6
Continuous
 62
     0
370
    -2
100
AcDbLine
 10
182.2804282394222
 20
1100.69947969411
 30
0.0
 11
85.7135957248968
 21
1100.69947969411
 31
0.0
  0
LINE
  5
1139
330
1135
100
AcDbEntity
  8
DIM
  6
Continuous
 62
     0
370
    -2
100
AcDbLine
 10
182.2804282394222
 20
910.6994796941101
 30
0.0
 11
85.71359572489675
 21
910.6994796941101
 31
0.0
  0
LINE
  5
113A
330
1135
100
AcDbEntity
  8
DIM
  6
Continuous
 62
     0
370
    -2
100
AcDbLine
 10
85.7135957248968
 20
1097.69947969411
 30
0.0
 11
85.71359572489675
 21
913.6994796941101
 31
0.0
  0
INSERT
  5
113B
330
1135
100
AcDbEntity
  8
DIM
 62
     0
370
    -2
100
AcDbBlockReference
  2
_DOT
 10
85.7135957248968
 20
1100.69947969411
 30
0.0
 41
3.0
 42
3.0
 43
3.0
 50
89.99999999999999
  0
INSERT
  5
113C
330
1135
100
AcDbEntity
  8
DIM
 62
     0
370
    -2
100
AcDbBlockReference
  2
_DOT
 10
85.71359572489675
 20
910.6994796941101
 30
0.0
 41
3.0
 42
3.0
 43
3.0
 50
270.0
  0
MTEXT
  5
113D
330
1135
100
AcDbEntity
  8
DIM
 62
     0
 48
0.05
100
AcDbMText
 10
69.71359572489678
 20
1005.69947969411
 30
0.0
 40
12.0
 41
0.0
 46
0.0
 71
     5
 72
     1
  1
\A1;190
  7
ＭＳ ゴシック
 11
2.991758887410948E-16
 21
1.0
 31
0.0
 73
     1
 44
1.0
  0
POINT
  5
113E
330
1135
100
AcDbEntity
  8
Defpoints
 62
     0
100
AcDbPoint
 10
192.2804282394222
 20
1100.69947969411
 30
0.0
  0
POINT
  5
113F
330
1135
100
AcDbEntity
  8
Defpoints
 62
     0
100
AcDbPoint
 10
192.2804282394222
 20
910.6994796941101
 30
0.0
  0
POINT
  5
1140
330
1135
100
AcDbEntity
  8
Defpoints
 62
     0
100
AcDbPoint
 10
85.71359572489675
 20
910.6994796941101
 30
0.0
  0
ENDBLK
  5
1137
330
1135
100
AcDbEntity
  8
0
100
AcDbBlockEnd
  0
BLOCK
  5
1142
330
1141
100
AcDbEntity
  8
0
100
AcDbBlockBegin
  2
*D31
 70
     1
 10
0.0
 20
0.0
 30
0.0
  3
*D31
  1
*D32
  0
LINE
  5
1144
330
1141
100
AcDbEntity
  8
DIM
 62
     0
370
    -2
100
AcDbLine
 10
669.7254692109184
 20
482.7621895921557
 30
0.0
 11
669.7254692109184
 21
448.0770111840693
 31
0.0
  0
LINE
  5
1145
330
1141
100
AcDbEntity
  8
DIM
 62
     0
370
    -2
100
AcDbLine
 10
754.7255836704337
 20
482.7621895921557
 30
0.0
 11
754.7255836704337
 21
448.0770111840693
 31
0.0
  0
LINE
  5
1146
330
1141
100
AcDbEntity
  8
DIM
 62
     0
370
    -2
100
AcDbLine
 10
672.7254692109184
 20
448.0770111840693
 30
0.0
 11
751.7255836704337
 21
448.0770111840693
 31
0.0
  0
INSERT
  5
1147
330
1141
100
AcDbEntity
  8
DIM
 62
     0
370
    -2
100
AcDbBlockReference
  2
_DOT
 10
669.7254692109184
 20
448.0770111840693
 30
0.0
 41
3.0
 42
3.0
 43
3.0
 50
180.0
  0
INSERT
  5
1148
330
1141
100
AcDbEntity
  8
DIM
 62
     0
370
    -2
100
AcDbBlockReference
  2
_DOT
 10
754.7255836704337
 20
448.0770111840693
 30
0.0
 41
3.0
 42
3.0
 43
3.0
  0
MTEXT
  5
1149
330
1141
100
AcDbEntity
  8
DIM
 62
     0
 48
0.05
100
AcDbMText
 10
712.225526440676
 20
464.0770111840693
 30
0.0
 40
12.0
 41
0.0
 46
0.0
 71
     5
 72
     1
  1
\A1;85
  7
ＭＳ ゴシック
 73
     1
 44
1.0
  0
POINT
  5
114A
330
1141
100
AcDbEntity
  8
Defpoints
 62
     0
100
AcDbPoint
 10
669.7254692109184
 20
492.7621895921557
 30
0.0
  0
POINT
  5
114B
330
1141
100
AcDbEntity
  8
Defpoints
 62
     0
100
AcDbPoint
 10
754.7255836704337
 20
492.7621895921557
 30
0.0
  0
POINT
  5
114C
330
1141
100
AcDbEntity
  8
Defpoints
 62
     0
100
AcDbPoint
 10
754.7255836704337
 20
448.0770111840693
 30
0.0
  0
ENDBLK
  5
1143
330
1141
100
AcDbEntity
  8
0
100
AcDbBlockEnd
  0
BLOCK
  5
114E
330
114D
100
AcDbEntity
  8
0
100
AcDbBlockBegin
  2
*D32
 70
     1
 10
0.0
 20
0.0
 30
0.0
  3
*D32
  1
*D33
  0
LINE
  5
1150
330
114D
100
AcDbEntity
  8
DIM
 62
     0
370
    -2
100
AcDbLine
 10
770.3905534959456
 20
1020.714087095207
 30
0.0
 11
770.3905534959456
 21
1141.966387724073
 31
0.0
  0
LINE
  5
1151
330
114D
100
AcDbEntity
  8
DIM
 62
     0
370
    -2
100
AcDbLine
 10
670.3905534959456
 20
1020.714087095211
 30
0.0
 11
670.3905534959456
 21
1141.966387724073
 31
0.0
  0
LINE
  5
1152
330
114D
100
AcDbEntity
  8
DIM
 62
     0
370
    -2
100
AcDbLine
 10
767.3905534959456
 20
1141.966387724073
 30
0.0
 11
673.3905534959456
 21
1141.966387724073
 31
0.0
  0
INSERT
  5
1153
330
114D
100
AcDbEntity
  8
DIM
 62
     0
370
    -2
100
AcDbBlockReference
  2
_DOT
 10
770.3905534959456
 20
1141.966387724073
 30
0.0
 41
3.0
 42
3.0
 43
3.0
  0
INSERT
  5
1154
330
114D
100
AcDbEntity
  8
DIM
 62
     0
370
    -2
100
AcDbBlockReference
  2
_DOT
 10
670.3905534959456
 20
1141.966387724073
 30
0.0
 41
3.0
 42
3.0
 43
3.0
 50
180.0
  0
MTEXT
  5
1155
330
114D
100
AcDbEntity
  8
DIM
 62
     0
 48
0.05
100
AcDbMText
 10
720.3905534959456
 20
1157.966387724073
 30
0.0
 40
12.0
 41
0.0
 46
0.0
 71
     5
 72
     1
  1
\A1;100
  7
ＭＳ ゴシック
 73
     1
 44
1.0
  0
POINT
  5
1156
330
114D
100
AcDbEntity
  8
Defpoints
 62
     0
100
AcDbPoint
 10
770.3905534959456
 20
1010.714087095207
 30
0.0
  0
POINT
  5
1157
330
114D
100
AcDbEntity
  8
Defpoints
 62
     0
100
AcDbPoint
 10
670.3905534959456
 20
1010.714087095211
 30
0.0
  0
POINT
  5
1158
330
114D
100
AcDbEntity
  8
Defpoints
 62
     0
100
AcDbPoint
 10
670.3905534959456
 20
1141.966387724073
 30
0.0
  0
ENDBLK
  5
114F
330
114D
100
AcDbEntity
  8
0
100
AcDbBlockEnd
  0
BLOCK
  5
115A
330
1159
100
AcDbEntity
  8
0
100
AcDbBlockBegin
  2
*D33
 70
     1
 10
0.0
 20
0.0
 30
0.0
  3
*D33
  1
*D34
  0
LINE
  5
115C
330
1159
100
AcDbEntity
  8
DIM
 62
     0
370
    -2
100
AcDbLine
 10
893.2255264416565
 20
558.7621895921516
 30
0.0
 11
934.4035378425658
 21
558.7621895921516
 31
0.0
  0
LINE
  5
115D
330
1159
100
AcDbEntity
  8
DIM
 62
     0
370
    -2
100
AcDbLine
 10
893.2255264416565
 20
488.7621895921516
 30
0.0
 11
934.4035378425658
 21
488.7621895921516
 31
0.0
  0
LINE
  5
115E
330
1159
100
AcDbEntity
  8
DIM
 62
     0
370
    -2
100
AcDbLine
 10
934.4035378425658
 20
555.7621895921516
 30
0.0
 11
934.4035378425658
 21
491.7621895921516
 31
0.0
  0
INSERT
  5
115F
330
1159
100
AcDbEntity
  8
DIM
 62
     0
370
    -2
100
AcDbBlockReference
  2
_DOT
 10
934.4035378425658
 20
558.7621895921516
 30
0.0
 41
3.0
 42
3.0
 43
3.0
 50
90.0
  0
INSERT
  5
1160
330
1159
100
AcDbEntity
  8
DIM
 62
     0
370
    -2
100
AcDbBlockReference
  2
_DOT
 10
934.4035378425658
 20
488.7621895921516
 30
0.0
 41
3.0
 42
3.0
 43
3.0
 50
270.0
  0
MTEXT
  5
1161
330
1159
100
AcDbEntity
  8
DIM
 62
     0
 48
0.05
100
AcDbMText
 10
918.4035378425658
 20
523.7621895921516
 30
0.0
 40
12.0
 41
0.0
 46
0.0
 71
     5
 72
     1
  1
\A1;70
  7
ＭＳ ゴシック
 11
0.0
 21
1.0
 31
0.0
 73
     1
 44
1.0
  0
POINT
  5
1162
330
1159
100
AcDbEntity
  8
Defpoints
 62
     0
100
AcDbPoint
 10
883.2255264416565
 20
558.7621895921516
 30
0.0
  0
POINT
  5
1163
330
1159
100
AcDbEntity
  8
Defpoints
 62
     0
100
AcDbPoint
 10
883.2255264416565
 20
488.7621895921516
 30
0.0
  0
POINT
  5
1164
330
1159
100
AcDbEntity
  8
Defpoints
 62
     0
100
AcDbPoint
 10
934.4035378425658
 20
488.7621895921516
 30
0.0
  0
ENDBLK
  5
115B
330
1159
100
AcDbEntity
  8
0
100
AcDbBlockEnd
  0
BLOCK
  5
1166
330
1165
100
AcDbEntity
  8
0
100
AcDbBlockBegin
  2
*D34
 70
     1
 10
0.0
 20
0.0
 30
0.0
  3
*D34
  1
*D35
  0
LINE
  5
1168
330
1165
100
AcDbEntity
  8
DIM
 62
     0
370
    -2
100
AcDbLine
 10
236.0214223744827
 20
585.3239977161784
 30
0.0
 11
236.0214223744827
 21
622.4058856690201
 31
0.0
  0
LINE
  5
1169
330
1165
100
AcDbEntity
  8
DIM
 62
     0
370
    -2
100
AcDbLine
 10
336.0214223744827
 20
585.3239977161784
 30
0.0
 11
336.0214223744827
 21
622.4058856690201
 31
0.0
  0
LINE
  5
116A
330
1165
100
AcDbEntity
  8
DIM
 62
     0
370
    -2
100
AcDbLine
 10
239.0214223744827
 20
622.4058856690201
 30
0.0
 11
333.0214223744827
 21
622.4058856690201
 31
0.0
  0
INSERT
  5
116B
330
1165
100
AcDbEntity
  8
DIM
 62
     0
370
    -2
100
AcDbBlockReference
  2
_DOT
 10
236.0214223744827
 20
622.4058856690201
 30
0.0
 41
3.0
 42
3.0
 43
3.0
 50
180.0
  0
INSERT
  5
116C
330
1165
100
AcDbEntity
  8
DIM
 62
     0
370
    -2
100
AcDbBlockReference
  2
_DOT
 10
336.0214223744827
 20
622.4058856690201
 30
0.0
 41
3.0
 42
3.0
 43
3.0
  0
MTEXT
  5
116D
330
1165
100
AcDbEntity
  8
DIM
 62
     0
 48
0.05
100
AcDbMText
 10
286.0214223744827
 20
638.4058856690201
 30
0.0
 40
12.0
 41
0.0
 46
0.0
 71
     5
 72
     1
  1
\A1;100
  7
ＭＳ ゴシック
 73
     1
 44
1.0
  0
POINT
  5
116E
330
1165
100
AcDbEntity
  8
Defpoints
 62
     0
100
AcDbPoint
 10
236.0214223744827
 20
575.3239977161784
 30
0.0
  0
POINT
  5
116F
330
1165
100
AcDbEntity
  8
Defpoints
 62
     0
100
AcDbPoint
 10
336.0214223744827
 20
575.3239977161784
 30
0.0
  0
POINT
  5
1170
330
1165
100
AcDbEntity
  8
Defpoints
 62
     0
100
AcDbPoint
 10
336.0214223744827
 20
622.4058856690201
 30
0.0
  0
ENDBLK
  5
1167
330
1165
100
AcDbEntity
  8
0
100
AcDbBlockEnd
  0
BLOCK
  5
1172
330
1171
100
AcDbEntity
  8
0
100
AcDbBlockBegin
  2
*D35
 70
     1
 10
0.0
 20
0.0
 30
0.0
  3
*D35
  1
*D36
  0
LINE
  5
1174
330
1171
100
AcDbEntity
  8
DIM
 62
     0
370
    -2
100
AcDbLine
 10
883.2255264416565
 20
478.7621895921516
 30
0.0
 11
883.2255264416565
 21
354.8872266289673
 31
0.0
  0
LINE
  5
1175
330
1171
100
AcDbEntity
  8
DIM
 62
     0
370
    -2
100
AcDbLine
 10
678.2255264416565
 20
429.9011993403371
 30
0.0
 11
678.2255264416565
 21
354.8872266289673
 31
0.0
  0
LINE
  5
1176
330
1171
100
AcDbEntity
  8
DIM
 62
     0
370
    -2
100
AcDbLine
 10
880.2255264416565
 20
354.8872266289673
 30
0.0
 11
681.2255264416565
 21
354.8872266289673
 31
0.0
  0
INSERT
  5
1177
330
1171
100
AcDbEntity
  8
DIM
 62
     0
370
    -2
100
AcDbBlockReference
  2
_DOT
 10
883.2255264416565
 20
354.8872266289673
 30
0.0
 41
3.0
 42
3.0
 43
3.0
  0
INSERT
  5
1178
330
1171
100
AcDbEntity
  8
DIM
 62
     0
370
    -2
100
AcDbBlockReference
  2
_DOT
 10
678.2255264416565
 20
354.8872266289673
 30
0.0
 41
3.0
 42
3.0
 43
3.0
 50
180.0
  0
MTEXT
  5
1179
330
1171
100
AcDbEntity
  8
DIM
 62
     0
 48
0.05
100
AcDbMText
 10
780.7255264416565
 20
370.8872266289673
 30
0.0
 40
12.0
 41
0.0
 46
0.0
 71
     5
 72
     1
  1
\A1;205
  7
ＭＳ ゴシック
 73
     1
 44
1.0
  0
POINT
  5
117A
330
1171
100
AcDbEntity
  8
Defpoints
 62
     0
100
AcDbPoint
 10
883.2255264416565
 20
488.7621895921516
 30
0.0
  0
POINT
  5
117B
330
1171
100
AcDbEntity
  8
Defpoints
 62
     0
100
AcDbPoint
 10
678.2255264416565
 20
439.9011993403371
 30
0.0
  0
POINT
  5
117C
330
1171
100
AcDbEntity
  8
Defpoints
 62
     0
100
AcDbPoint
 10
678.2255264416565
 20
354.8872266289673
 30
0.0
  0
ENDBLK
  5
1173
330
1171
100
AcDbEntity
  8
0
100
AcDbBlockEnd
  0
BLOCK
  5
117E
330
117D
100
AcDbEntity
  8
0
100
AcDbBlockBegin
  2
*D36
 70
     1
 10
0.0
 20
0.0
 30
0.0
  3
*D36
  1
*D37
  0
LINE
  5
1180
330
117D
100
AcDbEntity
  8
DIM
 62
     0
370
    -2
100
AcDbLine
 10
205.2764033607953
 20
1186.714087095206
 30
0.0
 11
205.2764033607953
 21
1218.31259349144
 31
0.0
  0
LINE
  5
1181
330
117D
100
AcDbEntity
  8
DIM
 62
     0
370
    -2
100
AcDbLine
 10
415.2764033607953
 20
1186.714087095206
 30
0.0
 11
415.2764033607953
 21
1218.31259349144
 31
0.0
  0
LINE
  5
1182
330
117D
100
AcDbEntity
  8
DIM
 62
     0
370
    -2
100
AcDbLine
 10
208.2764033607953
 20
1218.31259349144
 30
0.0
 11
412.2764033607953
 21
1218.31259349144
 31
0.0
  0
INSERT
  5
1183
330
117D
100
AcDbEntity
  8
DIM
 62
     0
370
    -2
100
AcDbBlockReference
  2
_DOT
 10
205.2764033607953
 20
1218.31259349144
 30
0.0
 41
3.0
 42
3.0
 43
3.0
 50
180.0
  0
INSERT
  5
1184
330
117D
100
AcDbEntity
  8
DIM
 62
     0
370
    -2
100
AcDbBlockReference
  2
_DOT
 10
415.2764033607953
 20
1218.31259349144
 30
0.0
 41
3.0
 42
3.0
 43
3.0
  0
MTEXT
  5
1185
330
117D
100
AcDbEntity
  8
DIM
 62
     0
 48
0.05
100
AcDbMText
 10
310.2764033607953
 20
1234.31259349144
 30
0.0
 40
12.0
 41
0.0
 46
0.0
 71
     5
 72
     1
  1
\A1;210
  7
ＭＳ ゴシック
 73
     1
 44
1.0
  0
POINT
  5
1186
330
117D
100
AcDbEntity
  8
Defpoints
 62
     0
100
AcDbPoint
 10
205.2764033607953
 20
1176.714087095206
 30
0.0
  0
POINT
  5
1187
330
117D
100
AcDbEntity
  8
Defpoints
 62
     0
100
AcDbPoint
 10
415.2764033607953
 20
1176.714087095206
 30
0.0
  0
POINT
  5
1188
330
117D
100
AcDbEntity
  8
Defpoints
 62
     0
100
AcDbPoint
 10
415.2764033607953
 20
1218.31259349144
 30
0.0
  0
ENDBLK
  5
117F
330
117D
100
AcDbEntity
  8
0
100
AcDbBlockEnd
  0
BLOCK
  5
118A
330
1189
100
AcDbEntity
  8
0
100
AcDbBlockBegin
  2
*D37
 70
     1
 10
0.0
 20
0.0
 30
0.0
  3
*D37
  1
*D38
  0
LINE
  5
118C
330
1189
100
AcDbEntity
  8
DIM
 62
     0
370
    -2
100
AcDbLine
 10
195.2764033607953
 20
987.7140870952064
 30
0.0
 11
195.2764033607953
 21
859.3582773930148
 31
0.0
  0
LINE
  5
118D
330
1189
100
AcDbEntity
  8
DIM
 62
     0
370
    -2
100
AcDbLine
 10
295.2764033607953
 20
987.7140870952064
 30
0.0
 11
295.2764033607953
 21
859.3582773930148
 31
0.0
  0
LINE
  5
118E
330
1189
100
AcDbEntity
  8
DIM
 62
     0
370
    -2
100
AcDbLine
 10
198.2764033607953
 20
859.3582773930148
 30
0.0
 11
292.2764033607953
 21
859.3582773930148
 31
0.0
  0
INSERT
  5
118F
330
1189
100
AcDbEntity
  8
DIM
 62
     0
370
    -2
100
AcDbBlockReference
  2
_DOT
 10
195.2764033607953
 20
859.3582773930148
 30
0.0
 41
3.0
 42
3.0
 43
3.0
 50
180.0
  0
INSERT
  5
1190
330
1189
100
AcDbEntity
  8
DIM
 62
     0
370
    -2
100
AcDbBlockReference
  2
_DOT
 10
295.2764033607953
 20
859.3582773930148
 30
0.0
 41
3.0
 42
3.0
 43
3.0
  0
MTEXT
  5
1191
330
1189
100
AcDbEntity
  8
DIM
 62
     0
 48
0.05
100
AcDbMText
 10
245.2764033607953
 20
875.3582773930148
 30
0.0
 40
12.0
 41
0.0
 46
0.0
 71
     5
 72
     1
  1
\A1;100
  7
ＭＳ ゴシック
 73
     1
 44
1.0
  0
POINT
  5
1192
330
1189
100
AcDbEntity
  8
Defpoints
 62
     0
100
AcDbPoint
 10
195.2764033607953
 20
997.7140870952064
 30
0.0
  0
POINT
  5
1193
330
1189
100
AcDbEntity
  8
Defpoints
 62
     0
100
AcDbPoint
 10
295.2764033607953
 20
997.7140870952064
 30
0.0
  0
POINT
  5
1194
330
1189
100
AcDbEntity
  8
Defpoints
 62
     0
100
AcDbPoint
 10
295.2764033607953
 20
859.3582773930148
 30
0.0
  0
ENDBLK
  5
118B
330
1189
100
AcDbEntity
  8
0
100
AcDbBlockEnd
  0
BLOCK
  5
1196
330
1195
100
AcDbEntity
  8
0
100
AcDbBlockBegin
  2
*D38
 70
     1
 10
0.0
 20
0.0
 30
0.0
  3
*D38
  1
*D39
  0
LINE
  5
1198
330
1195
100
AcDbEntity
  8
DIM
  6
Continuous
 62
     0
370
    -2
100
AcDbLine
 10
151.0281257070251
 20
988.7013504512
 30
0.0
 11
151.0281257070251
 21
807.8012318458946
 31
0.0
  0
LINE
  5
1199
330
1195
100
AcDbEntity
  8
DIM
  6
Continuous
 62
     0
370
    -2
100
AcDbLine
 10
441.0281257070251
 20
925.3054294638671
 30
0.0
 11
441.0281257070251
 21
807.8012318458946
 31
0.0
  0
LINE
  5
119A
330
1195
100
AcDbEntity
  8
DIM
  6
Continuous
 62
     0
370
    -2
100
AcDbLine
 10
154.0281257070251
 20
807.8012318458946
 30
0.0
 11
438.0281257070251
 21
807.8012318458946
 31
0.0
  0
INSERT
  5
119B
330
1195
100
AcDbEntity
  8
DIM
 62
     0
370
    -2
100
AcDbBlockReference
  2
_DOT
 10
151.0281257070251
 20
807.8012318458946
 30
0.0
 41
3.0
 42
3.0
 43
3.0
 50
180.0
  0
INSERT
  5
119C
330
1195
100
AcDbEntity
  8
DIM
 62
     0
370
    -2
100
AcDbBlockReference
  2
_DOT
 10
441.0281257070251
 20
807.8012318458946
 30
0.0
 41
3.0
 42
3.0
 43
3.0
  0
MTEXT
  5
119D
330
1195
100
AcDbEntity
  8
DIM
 62
     0
 48
0.05
100
AcDbMText
 10
296.0281257070251
 20
823.8012318458946
 30
0.0
 40
12.0
 41
0.0
 46
0.0
 71
     5
 72
     1
  1
\A1;290
  7
ＭＳ ゴシック
 73
     1
 44
1.0
  0
POINT
  5
119E
330
1195
100
AcDbEntity
  8
Defpoints
 62
     0
100
AcDbPoint
 10
151.0281257070251
 20
998.7013504512
 30
0.0
  0
POINT
  5
119F
330
1195
100
AcDbEntity
  8
Defpoints
 62
     0
100
AcDbPoint
 10
441.0281257070251
 20
935.3054294638671
 30
0.0
  0
POINT
  5
11A0
330
1195
100
AcDbEntity
  8
Defpoints
 62
     0
100
AcDbPoint
 10
441.0281257070251
 20
807.8012318458946
 30
0.0
  0
ENDBLK
  5
1197
330
1195
100
AcDbEntity
  8
0
100
AcDbBlockEnd
  0
BLOCK
  5
30A78
330
30A77
100
AcDbEntity
  8
0
100
AcDbBlockBegin
  2
*D39
 70
     1
 10
0.0
 20
0.0
 30
0.0
  3
*D39
  1
*D40
  0
LINE
  5
30A7A
330
30A77
100
AcDbEntity
  8
DIM
 62
     0
 48
0.05
370
    -2
100
AcDbLine
 10
1322.123787563144
 20
1325.413607026565
 30
0.0
 11
1322.123787563144
 21
1524.148673339563
 31
0.0
  0
LINE
  5
30A7B
330
30A77
100
AcDbEntity
  8
DIM
 62
     0
 48
0.05
370
    -2
100
AcDbLine
 10
1682.123787563144
 20
1325.413607026565
 30
0.0
 11
1682.123787563144
 21
1524.148673339563
 31
0.0
  0
LINE
  5
30A7C
330
30A77
100
AcDbEntity
  8
DIM
 62
     0
 48
0.05
370
    -2
100
AcDbLine
 10
1325.123787563144
 20
1524.148673339563
 30
0.0
 11
1679.123787563144
 21
1524.148673339563
 31
0.0
  0
INSERT
  5
30A7D
330
30A77
100
AcDbEntity
  8
DIM
 62
     0
370
    -2
100
AcDbBlockReference
  2
_DOT
 10
1322.123787563144
 20
1524.148673339563
 30
0.0
 41
3.0
 42
3.0
 43
3.0
 50
180.0
  0
INSERT
  5
30A7E
330
30A77
100
AcDbEntity
  8
DIM
 62
     0
370
    -2
100
AcDbBlockReference
  2
_DOT
 10
1682.123787563144
 20
1524.148673339563
 30
0.0
 41
3.0
 42
3.0
 43
3.0
  0
MTEXT
  5
30A7F
330
30A77
100
AcDbEntity
  8
DIM
 62
     0
 48
0.05
100
AcDbMText
 10
1502.123787563144
 20
1540.148673339563
 30
0.0
 40
12.0
 41
0.0
 46
0.0
 71
     5
 72
     1
  1
\A1;360
  7
ＭＳ ゴシック
 73
     1
 44
1.0
  0
POINT
  5
30A80
330
30A77
100
AcDbEntity
  8
Defpoints
 62
     0
100
AcDbPoint
 10
1322.123787563144
 20
1315.413607026565
 30
0.0
  0
POINT
  5
30A81
330
30A77
100
AcDbEntity
  8
Defpoints
 62
     0
100
AcDbPoint
 10
1682.123787563144
 20
1315.413607026565
 30
0.0
  0
POINT
  5
30A82
330
30A77
100
AcDbEntity
  8
Defpoints
 62
     0
100
AcDbPoint
 10
1682.123787563144
 20
1524.148673339563
 30
0.0
  0
ENDBLK
  5
30A79
330
30A77
100
AcDbEntity
  8
0
100
AcDbBlockEnd
  0
BLOCK
  5
30A93
330
30A92
100
AcDbEntity
  8
0
100
AcDbBlockBegin
  2
*D40
 70
     1
 10
0.0
 20
0.0
 30
0.0
  3
*D40
  1
*D41
  0
LINE
  5
30A95
330
30A92
100
AcDbEntity
  8
DIM
 62
     0
 48
0.05
370
    -2
100
AcDbLine
 10
1670.57019151535
 20
511.1503888132744
 30
0.0
 11
1670.57019151535
 21
484.0
 31
0.0
  0
LINE
  5
30A96
330
30A92
100
AcDbEntity
  8
DIM
 62
     0
 48
0.05
370
    -2
100
AcDbLine
 10
1755.594892802114
 20
511.1503888132744
 30
0.0
 11
1755.594892802114
 21
484.0
 31
0.0
  0
LINE
  5
30A97
330
30A92
100
AcDbEntity
  8
DIM
 62
     0
 48
0.05
370
    -2
100
AcDbLine
 10
1673.57019151535
 20
484.0
 30
0.0
 11
1752.594892802114
 21
484.0
 31
0.0
  0
INSERT
  5
30A98
330
30A92
100
AcDbEntity
  8
DIM
 62
     0
370
    -2
100
AcDbBlockReference
  2
_DOT
 10
1670.57019151535
 20
484.0
 30
0.0
 41
3.0
 42
3.0
 43
3.0
 50
180.0
  0
INSERT
  5
30A99
330
30A92
100
AcDbEntity
  8
DIM
 62
     0
370
    -2
100
AcDbBlockReference
  2
_DOT
 10
1755.594892802114
 20
484.0
 30
0.0
 41
3.0
 42
3.0
 43
3.0
  0
MTEXT
  5
30A9A
330
30A92
100
AcDbEntity
  8
DIM
 62
     0
 48
0.05
100
AcDbMText
 10
1713.082542158732
 20
500.0
 30
0.0
 40
12.0
 41
0.0
 46
0.0
 71
     5
 72
     1
  1
\A1;85
  7
ＭＳ ゴシック
 73
     1
 44
1.0
  0
POINT
  5
30A9B
330
30A92
100
AcDbEntity
  8
Defpoints
 62
     0
100
AcDbPoint
 10
1670.57019151535
 20
521.1503888132744
 30
0.0
  0
POINT
  5
30A9C
330
30A92
100
AcDbEntity
  8
Defpoints
 62
     0
100
AcDbPoint
 10
1755.594892802114
 20
521.1503888132744
 30
0.0
  0
POINT
  5
30A9D
330
30A92
100
AcDbEntity
  8
Defpoints
 62
     0
100
AcDbPoint
 10
1755.594892802114
 20
484.0
 30
0.0
  0
ENDBLK
  5
30A94
330
30A92
100
AcDbEntity
  8
0
100
AcDbBlockEnd
  0
BLOCK
  5
30AA2
330
30AA1
100
AcDbEntity
  8
0
100
AcDbBlockBegin
  2
*D41
 70
     1
 10
0.0
 20
0.0
 30
0.0
  3
*D41
  1
*D42
  0
LINE
  5
30AA4
330
30AA1
100
AcDbEntity
  8
DIM
 62
     0
 48
0.05
370
    -2
100
AcDbLine
 10
1713.135104199173
 20
474.2092123426861
 30
0.0
 11
1713.135104199173
 21
450.0
 31
0.0
  0
LINE
  5
30AA5
330
30AA1
100
AcDbEntity
  8
DIM
 62
     0
 48
0.05
370
    -2
100
AcDbLine
 10
1822.300430485938
 20
599.0
 30
0.0
 11
1822.300430485938
 21
450.0
 31
0.0
  0
LINE
  5
30AA6
330
30AA1
100
AcDbEntity
  8
DIM
 62
     0
 48
0.05
370
    -2
100
AcDbLine
 10
1716.135104199173
 20
450.0
 30
0.0
 11
1819.300430485938
 21
450.0
 31
0.0
  0
INSERT
  5
30AA7
330
30AA1
100
AcDbEntity
  8
DIM
 62
     0
370
    -2
100
AcDbBlockReference
  2
_DOT
 10
1713.135104199173
 20
450.0
 30
0.0
 41
3.0
 42
3.0
 43
3.0
 50
180.0
  0
INSERT
  5
30AA8
330
30AA1
100
AcDbEntity
  8
DIM
 62
     0
370
    -2
100
AcDbBlockReference
  2
_DOT
 10
1822.300430485938
 20
450.0
 30
0.0
 41
3.0
 42
3.0
 43
3.0
  0
MTEXT
  5
30AA9
330
30AA1
100
AcDbEntity
  8
DIM
 62
     0
 48
0.05
100
AcDbMText
 10
1767.717767342556
 20
466.0
 30
0.0
 40
12.0
 41
0.0
 46
0.0
 71
     5
 72
     1
  1
\A1;109
  7
ＭＳ ゴシック
 73
     1
 44
1.0
  0
POINT
  5
30AAA
330
30AA1
100
AcDbEntity
  8
Defpoints
 62
     0
100
AcDbPoint
 10
1713.135104199173
 20
484.2092123426861
 30
0.0
  0
POINT
  5
30AAB
330
30AA1
100
AcDbEntity
  8
Defpoints
 62
     0
100
AcDbPoint
 10
1822.300430485938
 20
609.0
 30
0.0
  0
POINT
  5
30AAC
330
30AA1
100
AcDbEntity
  8
Defpoints
 62
     0
100
AcDbPoint
 10
1822.300430485938
 20
450.0
 30
0.0
  0
ENDBLK
  5
30AA3
330
30AA1
100
AcDbEntity
  8
0
100
AcDbBlockEnd
  0
BLOCK
  5
30AB1
330
30AB0
100
AcDbEntity
  8
0
100
AcDbBlockBegin
  2
*D42
 70
     1
 10
0.0
 20
0.0
 30
0.0
  3
*D42
  1
*D43
  0
LINE
  5
30AB3
330
30AB0
100
AcDbEntity
  8
DIM
 62
     0
 48
0.05
370
    -2
100
AcDbLine
 10
692.3118181126338
 20
500.592699700035
 30
0.0
 11
692.3118181126338
 21
410.9998288197384
 31
0.0
  0
LINE
  5
30AB4
330
30AB0
100
AcDbEntity
  8
DIM
 62
     0
 48
0.05
370
    -2
100
AcDbLine
 10
897.3003291420455
 20
473.6139189984909
 30
0.0
 11
897.3003291420455
 21
410.9998288197384
 31
0.0
  0
LINE
  5
30AB5
330
30AB0
100
AcDbEntity
  8
DIM
 62
     0
 48
0.05
370
    -2
100
AcDbLine
 10
695.3118181126338
 20
410.9998288197384
 30
0.0
 11
894.3003291420455
 21
410.9998288197384
 31
0.0
  0
INSERT
  5
30AB6
330
30AB0
100
AcDbEntity
  8
DIM
 62
     0
370
    -2
100
AcDbBlockReference
  2
_DOT
 10
692.3118181126338
 20
410.9998288197384
 30
0.0
 41
3.0
 42
3.0
 43
3.0
 50
180.0
  0
INSERT
  5
30AB7
330
30AB0
100
AcDbEntity
  8
DIM
 62
     0
370
    -2
100
AcDbBlockReference
  2
_DOT
 10
897.3003291420455
 20
410.9998288197384
 30
0.0
 41
3.0
 42
3.0
 43
3.0
  0
MTEXT
  5
30AB8
330
30AB0
100
AcDbEntity
  8
DIM
 62
     0
 48
0.05
100
AcDbMText
 10
794.8060736273396
 20
426.9998288197384
 30
0.0
 40
12.0
 41
0.0
 46
0.0
 71
     5
 72
     1
  1
\A1;205
  7
ＭＳ ゴシック
 73
     1
 44
1.0
  0
POINT
  5
30AB9
330
30AB0
100
AcDbEntity
  8
Defpoints
 62
     0
100
AcDbPoint
 10
692.3118181126338
 20
510.592699700035
 30
0.0
  0
POINT
  5
30ABA
330
30AB0
100
AcDbEntity
  8
Defpoints
 62
     0
100
AcDbPoint
 10
897.3003291420455
 20
483.6139189984909
 30
0.0
  0
POINT
  5
30ABB
330
30AB0
100
AcDbEntity
  8
Defpoints
 62
     0
100
AcDbPoint
 10
897.3003291420455
 20
410.9998288197384
 30
0.0
  0
ENDBLK
  5
30AB2
330
30AB0
100
AcDbEntity
  8
0
100
AcDbBlockEnd
  0
BLOCK
  5
30AC0
330
30ABF
100
AcDbEntity
  8
0
100
AcDbBlockBegin
  2
*D43
 70
     1
 10
0.0
 20
0.0
 30
0.0
  3
*D43
  1
*D44
  0
LINE
  5
30AC2
330
30ABF
100
AcDbEntity
  8
DIM
 62
     0
 48
0.05
370
    -2
100
AcDbLine
 10
907.3003291420455
 20
486.8204583823423
 30
0.0
 11
943.4750693372084
 21
486.8204583823423
 31
0.0
  0
LINE
  5
30AC3
330
30ABF
100
AcDbEntity
  8
DIM
 62
     0
 48
0.05
370
    -2
100
AcDbLine
 10
907.3003291420455
 20
555.6798333823423
 30
0.0
 11
943.4750693372084
 21
555.6798333823423
 31
0.0
  0
LINE
  5
30AC4
330
30ABF
100
AcDbEntity
  8
DIM
 62
     0
 48
0.05
370
    -2
100
AcDbLine
 10
943.4750693372084
 20
489.8204583823423
 30
0.0
 11
943.4750693372084
 21
552.6798333823423
 31
0.0
  0
INSERT
  5
30AC5
330
30ABF
100
AcDbEntity
  8
DIM
 62
     0
370
    -2
100
AcDbBlockReference
  2
_DOT
 10
943.4750693372084
 20
486.8204583823423
 30
0.0
 41
3.0
 42
3.0
 43
3.0
 50
270.0
  0
INSERT
  5
30AC6
330
30ABF
100
AcDbEntity
  8
DIM
 62
     0
370
    -2
100
AcDbBlockReference
  2
_DOT
 10
943.4750693372084
 20
555.6798333823423
 30
0.0
 41
3.0
 42
3.0
 43
3.0
 50
90.0
  0
MTEXT
  5
30AC7
330
30ABF
100
AcDbEntity
  8
DIM
 62
     0
 48
0.05
100
AcDbMText
 10
927.4750693372084
 20
521.2501458823423
 30
0.0
 40
12.0
 41
0.0
 46
0.0
 71
     5
 72
     1
  1
\A1;69
  7
ＭＳ ゴシック
 11
0.0
 21
1.0
 31
0.0
 73
     1
 44
1.0
  0
POINT
  5
30AC8
330
30ABF
100
AcDbEntity
  8
Defpoints
 62
     0
100
AcDbPoint
 10
897.3003291420455
 20
486.8204583823423
 30
0.0
  0
POINT
  5
30AC9
330
30ABF
100
AcDbEntity
  8
Defpoints
 62
     0
100
AcDbPoint
 10
897.3003291420455
 20
555.6798333823423
 30
0.0
  0
POINT
  5
30ACA
330
30ABF
100
AcDbEntity
  8
Defpoints
 62
     0
100
AcDbPoint
 10
943.4750693372084
 20
555.6798333823423
 30
0.0
  0
ENDBLK
  5
30AC1
330
30ABF
100
AcDbEntity
  8
0
100
AcDbBlockEnd
  0
BLOCK
  5
30ACD
330
30ACC
100
AcDbEntity
  8
0
100
AcDbBlockBegin
  2
*D44
 70
     1
 10
0.0
 20
0.0
 30
0.0
  3
*D44
  1
*D45
  0
LINE
  5
30ACF
330
30ACC
100
AcDbEntity
  8
DIM
 62
     0
 48
0.05
370
    -2
100
AcDbLine
 10
500.2883231677811
 20
605.9359756237217
 30
0.0
 11
522.164535604637
 21
605.9359756237217
 31
0.0
  0
LINE
  5
30AD0
330
30ACC
100
AcDbEntity
  8
DIM
 62
     0
 48
0.05
370
    -2
100
AcDbLine
 10
425.164535604637
 20
512.9359756237217
 30
0.0
 11
522.164535604637
 21
512.9359756237217
 31
0.0
  0
LINE
  5
30AD1
330
30ACC
100
AcDbEntity
  8
DIM
 62
     0
 48
0.05
370
    -2
100
AcDbLine
 10
522.164535604637
 20
602.9359756237217
 30
0.0
 11
522.164535604637
 21
515.9359756237217
 31
0.0
  0
INSERT
  5
30AD2
330
30ACC
100
AcDbEntity
  8
DIM
 62
     0
370
    -2
100
AcDbBlockReference
  2
_DOT
 10
522.164535604637
 20
605.9359756237217
 30
0.0
 41
3.0
 42
3.0
 43
3.0
 50
90.0
  0
INSERT
  5
30AD3
330
30ACC
100
AcDbEntity
  8
DIM
 62
     0
370
    -2
100
AcDbBlockReference
  2
_DOT
 10
522.164535604637
 20
512.9359756237217
 30
0.0
 41
3.0
 42
3.0
 43
3.0
 50
270.0
  0
MTEXT
  5
30AD4
330
30ACC
100
AcDbEntity
  8
DIM
 62
     0
 48
0.05
100
AcDbMText
 10
506.164535604637
 20
559.4359756237217
 30
0.0
 40
12.0
 41
0.0
 46
0.0
 71
     5
 72
     1
  1
\A1;93
  7
ＭＳ ゴシック
 11
0.0
 21
1.0
 31
0.0
 73
     1
 44
1.0
  0
POINT
  5
30AD5
330
30ACC
100
AcDbEntity
  8
Defpoints
 62
     0
100
AcDbPoint
 10
490.2883231677811
 20
605.9359756237217
 30
0.0
  0
POINT
  5
30AD6
330
30ACC
100
AcDbEntity
  8
Defpoints
 62
     0
100
AcDbPoint
 10
415.164535604637
 20
512.9359756237217
 30
0.0
  0
POINT
  5
30AD7
330
30ACC
100
AcDbEntity
  8
Defpoints
 62
     0
100
AcDbPoint
 10
522.164535604637
 20
512.9359756237217
 30
0.0
  0
ENDBLK
  5
30ACE
330
30ACC
100
AcDbEntity
  8
0
100
AcDbBlockEnd
  0
BLOCK
  5
30ADD
330
30ADC
100
AcDbEntity
  8
0
100
AcDbBlockBegin
  2
*D45
 70
     1
 10
0.0
 20
0.0
 30
0.0
  3
*D45
  1
*D46
  0
LINE
  5
30ADF
330
30ADC
100
AcDbEntity
  8
DIM
 62
     0
 48
0.05
370
    -2
100
AcDbLine
 10
500.2883231677811
 20
605.9359756237217
 30
0.0
 11
558.164535604637
 21
605.9359756237217
 31
0.0
  0
LINE
  5
30AE0
330
30ADC
100
AcDbEntity
  8
DIM
 62
     0
 48
0.05
370
    -2
100
AcDbLine
 10
276.312619632886
 20
492.9359756237217
 30
0.0
 11
558.164535604637
 21
492.9359756237217
 31
0.0
  0
LINE
  5
30AE1
330
30ADC
100
AcDbEntity
  8
DIM
 62
     0
 48
0.05
370
    -2
100
AcDbLine
 10
558.164535604637
 20
602.9359756237217
 30
0.0
 11
558.164535604637
 21
495.9359756237217
 31
0.0
  0
INSERT
  5
30AE2
330
30ADC
100
AcDbEntity
  8
DIM
 62
     0
370
    -2
100
AcDbBlockReference
  2
_DOT
 10
558.164535604637
 20
605.9359756237217
 30
0.0
 41
3.0
 42
3.0
 43
3.0
 50
90.0
  0
INSERT
  5
30AE3
330
30ADC
100
AcDbEntity
  8
DIM
 62
     0
370
    -2
100
AcDbBlockReference
  2
_DOT
 10
558.164535604637
 20
492.9359756237217
 30
0.0
 41
3.0
 42
3.0
 43
3.0
 50
270.0
  0
MTEXT
  5
30AE4
330
30ADC
100
AcDbEntity
  8
DIM
 62
     0
 48
0.05
100
AcDbMText
 10
542.164535604637
 20
549.4359756237217
 30
0.0
 40
12.0
 41
0.0
 46
0.0
 71
     5
 72
     1
  1
\A1;113
  7
ＭＳ ゴシック
 11
0.0
 21
1.0
 31
0.0
 73
     1
 44
1.0
  0
POINT
  5
30AE5
330
30ADC
100
AcDbEntity
  8
Defpoints
 62
     0
100
AcDbPoint
 10
490.2883231677811
 20
605.9359756237217
 30
0.0
  0
POINT
  5
30AE6
330
30ADC
100
AcDbEntity
  8
Defpoints
 62
     0
100
AcDbPoint
 10
266.312619632886
 20
492.9359756237217
 30
0.0
  0
POINT
  5
30AE7
330
30ADC
100
AcDbEntity
  8
Defpoints
 62
     0
100
AcDbPoint
 10
558.164535604637
 20
492.9359756237217
 30
0.0
  0
ENDBLK
  5
30ADE
330
30ADC
100
AcDbEntity
  8
0
100
AcDbBlockEnd
  0
BLOCK
  5
30AEF
330
30AEE
100
AcDbEntity
  8
0
100
AcDbBlockBegin
  2
*D46
 70
     1
 10
0.0
 20
0.0
 30
0.0
  3
*D46
  1
*D47
  0
LINE
  5
30AF1
330
30AEE
100
AcDbEntity
  8
DIM
 62
     0
 48
0.05
370
    -2
100
AcDbLine
 10
130.2883231677813
 20
585.5728226049669
 30
0.0
 11
130.2883231677813
 21
398.9635211847818
 31
0.0
  0
LINE
  5
30AF2
330
30AEE
100
AcDbEntity
  8
DIM
 62
     0
 48
0.05
370
    -2
100
AcDbLine
 10
245.2759725243986
 20
423.2992823793305
 30
0.0
 11
245.2759725243986
 21
398.9635211847818
 31
0.0
  0
LINE
  5
30AF3
330
30AEE
100
AcDbEntity
  8
DIM
 62
     0
 48
0.05
370
    -2
100
AcDbLine
 10
133.2883231677813
 20
398.9635211847818
 30
0.0
 11
242.2759725243986
 21
398.9635211847818
 31
0.0
  0
INSERT
  5
30AF4
330
30AEE
100
AcDbEntity
  8
DIM
 62
     0
370
    -2
100
AcDbBlockReference
  2
_DOT
 10
130.2883231677813
 20
398.9635211847818
 30
0.0
 41
3.0
 42
3.0
 43
3.0
 50
180.0
  0
INSERT
  5
30AF5
330
30AEE
100
AcDbEntity
  8
DIM
 62
     0
370
    -2
100
AcDbBlockReference
  2
_DOT
 10
245.2759725243986
 20
398.9635211847818
 30
0.0
 41
3.0
 42
3.0
 43
3.0
  0
MTEXT
  5
30AF6
330
30AEE
100
AcDbEntity
  8
DIM
 62
     0
 48
0.05
100
AcDbMText
 10
187.78214784609
 20
414.9635211847818
 30
0.0
 40
12.0
 41
0.0
 46
0.0
 71
     5
 72
     1
  1
\A1;115
  7
ＭＳ ゴシック
 73
     1
 44
1.0
  0
POINT
  5
30AF7
330
30AEE
100
AcDbEntity
  8
Defpoints
 62
     0
100
AcDbPoint
 10
130.2883231677813
 20
595.5728226049669
 30
0.0
  0
POINT
  5
30AF8
330
30AEE
100
AcDbEntity
  8
Defpoints
 62
     0
100
AcDbPoint
 10
245.2759725243986
 20
433.2992823793305
 30
0.0
  0
POINT
  5
30AF9
330
30AEE
100
AcDbEntity
  8
Defpoints
 62
     0
100
AcDbPoint
 10
245.2759725243986
 20
398.9635211847818
 30
0.0
  0
ENDBLK
  5
30AF0
330
30AEE
100
AcDbEntity
  8
0
100
AcDbBlockEnd
  0
BLOCK
  5
30AFE
330
30AFD
100
AcDbEntity
  8
0
100
AcDbBlockBegin
  2
*D47
 70
     1
 10
0.0
 20
0.0
 30
0.0
  3
*D47
  1
*D48
  0
LINE
  5
30B00
330
30AFD
100
AcDbEntity
  8
DIM
 62
     0
 48
0.05
370
    -2
100
AcDbLine
 10
1221.417215871968
 20
579.3623603206272
 30
0.0
 11
1221.417215871968
 21
635.0
 31
0.0
  0
LINE
  5
30B01
330
30AFD
100
AcDbEntity
  8
DIM
 62
     0
 48
0.05
370
    -2
100
AcDbLine
 10
1321.37039831682
 20
579.3623603206272
 30
0.0
 11
1321.37039831682
 21
635.0
 31
0.0
  0
LINE
  5
30B02
330
30AFD
100
AcDbEntity
  8
DIM
 62
     0
 48
0.05
370
    -2
100
AcDbLine
 10
1224.417215871968
 20
635.0
 30
0.0
 11
1318.37039831682
 21
635.0
 31
0.0
  0
INSERT
  5
30B03
330
30AFD
100
AcDbEntity
  8
DIM
 62
     0
370
    -2
100
AcDbBlockReference
  2
_DOT
 10
1221.417215871968
 20
635.0
 30
0.0
 41
3.0
 42
3.0
 43
3.0
 50
180.0
  0
INSERT
  5
30B04
330
30AFD
100
AcDbEntity
  8
DIM
 62
     0
370
    -2
100
AcDbBlockReference
  2
_DOT
 10
1321.37039831682
 20
635.0
 30
0.0
 41
3.0
 42
3.0
 43
3.0
  0
MTEXT
  5
30B05
330
30AFD
100
AcDbEntity
  8
DIM
 62
     0
 48
0.05
100
AcDbMText
 10
1271.393807094394
 20
651.0
 30
0.0
 40
12.0
 41
0.0
 46
0.0
 71
     5
 72
     1
  1
\A1;100
  7
ＭＳ ゴシック
 73
     1
 44
1.0
  0
POINT
  5
30B06
330
30AFD
100
AcDbEntity
  8
Defpoints
 62
     0
100
AcDbPoint
 10
1221.417215871968
 20
569.3623603206272
 30
0.0
  0
POINT
  5
30B07
330
30AFD
100
AcDbEntity
  8
Defpoints
 62
     0
100
AcDbPoint
 10
1321.37039831682
 20
569.3623603206272
 30
0.0
  0
POINT
  5
30B08
330
30AFD
100
AcDbEntity
  8
Defpoints
 62
     0
100
AcDbPoint
 10
1321.37039831682
 20
635.0
 30
0.0
  0
ENDBLK
  5
30AFF
330
30AFD
100
AcDbEntity
  8
0
100
AcDbBlockEnd
  0
BLOCK
  5
30B0B
330
30B0A
100
AcDbEntity
  8
0
100
AcDbBlockBegin
  2
*D48
 70
     1
 10
0.0
 20
0.0
 30
0.0
  3
*D48
  1
*D49
  0
LINE
  5
30B0D
330
30B0A
100
AcDbEntity
  8
DIM
 62
     0
 48
0.05
370
    -2
100
AcDbLine
 10
120.2883231677811
 20
605.9359756237217
 30
0.0
 11
93.16453560463697
 21
605.9359756237217
 31
0.0
  0
LINE
  5
30B0E
330
30B0A
100
AcDbEntity
  8
DIM
 62
     0
 48
0.05
370
    -2
100
AcDbLine
 10
202.0283879822918
 20
547.9359756237217
 30
0.0
 11
93.16453560463697
 21
547.9359756237217
 31
0.0
  0
LINE
  5
30B0F
330
30B0A
100
AcDbEntity
  8
DIM
 62
     0
 48
0.05
370
    -2
100
AcDbLine
 10
93.16453560463697
 20
602.9359756237217
 30
0.0
 11
93.16453560463697
 21
550.9359756237217
 31
0.0
  0
INSERT
  5
30B10
330
30B0A
100
AcDbEntity
  8
DIM
 62
     0
370
    -2
100
AcDbBlockReference
  2
_DOT
 10
93.16453560463697
 20
605.9359756237217
 30
0.0
 41
3.0
 42
3.0
 43
3.0
 50
90.0
  0
INSERT
  5
30B11
330
30B0A
100
AcDbEntity
  8
DIM
 62
     0
370
    -2
100
AcDbBlockReference
  2
_DOT
 10
93.16453560463697
 20
547.9359756237217
 30
0.0
 41
3.0
 42
3.0
 43
3.0
 50
270.0
  0
MTEXT
  5
30B12
330
30B0A
100
AcDbEntity
  8
DIM
 62
     0
 48
0.05
100
AcDbMText
 10
77.16453560463697
 20
576.9359756237217
 30
0.0
 40
12.0
 41
0.0
 46
0.0
 71
     5
 72
     1
  1
\A1;58
  7
ＭＳ ゴシック
 11
0.0
 21
1.0
 31
0.0
 73
     1
 44
1.0
  0
POINT
  5
30B13
330
30B0A
100
AcDbEntity
  8
Defpoints
 62
     0
100
AcDbPoint
 10
130.2883231677811
 20
605.9359756237217
 30
0.0
  0
POINT
  5
30B14
330
30B0A
100
AcDbEntity
  8
Defpoints
 62
     0
100
AcDbPoint
 10
212.0283879822918
 20
547.9359756237217
 30
0.0
  0
POINT
  5
30B15
330
30B0A
100
AcDbEntity
  8
Defpoints
 62
     0
100
AcDbPoint
 10
93.16453560463697
 20
547.9359756237217
 30
0.0
  0
ENDBLK
  5
30B0C
330
30B0A
100
AcDbEntity
  8
0
100
AcDbBlockEnd
  0
BLOCK
  5
30B2D
330
30B2C
100
AcDbEntity
  8
0
100
AcDbBlockBegin
  2
*D49
 70
     1
 10
0.0
 20
0.0
 30
0.0
  3
*D49
  1
*D50
  0
LINE
  5
30B2F
330
30B2C
100
AcDbEntity
  8
DIM
 62
     0
 48
0.05
370
    -2
100
AcDbLine
 10
607.3462850243986
 20
605.9359756237217
 30
0.0
 11
597.164535604637
 21
605.9359756237217
 31
0.0
  0
LINE
  5
30B30
330
30B2C
100
AcDbEntity
  8
DIM
 62
     0
 48
0.05
370
    -2
100
AcDbLine
 10
669.164535604637
 20
515.9359756237217
 30
0.0
 11
597.164535604637
 21
515.9359756237217
 31
0.0
  0
LINE
  5
30B31
330
30B2C
100
AcDbEntity
  8
DIM
 62
     0
 48
0.05
370
    -2
100
AcDbLine
 10
597.164535604637
 20
602.9359756237217
 30
0.0
 11
597.164535604637
 21
518.9359756237217
 31
0.0
  0
INSERT
  5
30B32
330
30B2C
100
AcDbEntity
  8
DIM
 62
     0
370
    -2
100
AcDbBlockReference
  2
_DOT
 10
597.164535604637
 20
605.9359756237217
 30
0.0
 41
3.0
 42
3.0
 43
3.0
 50
90.0
  0
INSERT
  5
30B33
330
30B2C
100
AcDbEntity
  8
DIM
 62
     0
370
    -2
100
AcDbBlockReference
  2
_DOT
 10
597.164535604637
 20
515.9359756237217
 30
0.0
 41
3.0
 42
3.0
 43
3.0
 50
270.0
  0
MTEXT
  5
30B34
330
30B2C
100
AcDbEntity
  8
DIM
 62
     0
 48
0.05
100
AcDbMText
 10
581.164535604637
 20
560.9359756237217
 30
0.0
 40
12.0
 41
0.0
 46
0.0
 71
     5
 72
     1
  1
\A1;90
  7
ＭＳ ゴシック
 11
0.0
 21
1.0
 31
0.0
 73
     1
 44
1.0
  0
POINT
  5
30B35
330
30B2C
100
AcDbEntity
  8
Defpoints
 62
     0
100
AcDbPoint
 10
617.3462850243986
 20
605.9359756237217
 30
0.0
  0
POINT
  5
30B36
330
30B2C
100
AcDbEntity
  8
Defpoints
 62
     0
100
AcDbPoint
 10
679.164535604637
 20
515.9359756237217
 30
0.0
  0
POINT
  5
30B37
330
30B2C
100
AcDbEntity
  8
Defpoints
 62
     0
100
AcDbPoint
 10
597.164535604637
 20
515.9359756237217
 30
0.0
  0
ENDBLK
  5
30B2E
330
30B2C
100
AcDbEntity
  8
0
100
AcDbBlockEnd
  0
BLOCK
  5
30B3F
330
30B3E
100
AcDbEntity
  8
0
100
AcDbBlockBegin
  2
*D50
 70
     1
 10
0.0
 20
0.0
 30
0.0
  3
*D50
  1
*D51
  0
LINE
  5
30B41
330
30B3E
100
AcDbEntity
  8
DIM
 62
     0
 48
0.05
370
    -2
100
AcDbLine
 10
897.3003291420455
 20
592.9359756237217
 30
0.0
 11
897.3003291420455
 21
620.9738910383886
 31
0.0
  0
LINE
  5
30B42
330
30B3E
100
AcDbEntity
  8
DIM
 62
     0
 48
0.05
370
    -2
100
AcDbLine
 10
865.3003291420455
 20
592.9359756237217
 30
0.0
 11
865.3003291420455
 21
620.9738910383886
 31
0.0
  0
LINE
  5
30B43
330
30B3E
100
AcDbEntity
  8
DIM
 62
     0
 48
0.05
370
    -2
100
AcDbLine
 10
894.3003291420455
 20
620.9738910383886
 30
0.0
 11
868.3003291420455
 21
620.9738910383886
 31
0.0
  0
INSERT
  5
30B44
330
30B3E
100
AcDbEntity
  8
DIM
 62
     0
370
    -2
100
AcDbBlockReference
  2
_DOT
 10
897.3003291420455
 20
620.9738910383886
 30
0.0
 41
3.0
 42
3.0
 43
3.0
  0
INSERT
  5
30B45
330
30B3E
100
AcDbEntity
  8
DIM
 62
     0
370
    -2
100
AcDbBlockReference
  2
_DOT
 10
865.3003291420455
 20
620.9738910383886
 30
0.0
 41
3.0
 42
3.0
 43
3.0
 50
180.0
  0
MTEXT
  5
30B46
330
30B3E
100
AcDbEntity
  8
DIM
 62
     0
 48
0.05
100
AcDbMText
 10
881.3003291420455
 20
636.9738910383886
 30
0.0
 40
12.0
 41
0.0
 46
0.0
 71
     5
 72
     1
  1
\A1;32
  7
ＭＳ ゴシック
 73
     1
 44
1.0
  0
POINT
  5
30B47
330
30B3E
100
AcDbEntity
  8
Defpoints
 62
     0
100
AcDbPoint
 10
897.3003291420455
 20
582.9359756237217
 30
0.0
  0
POINT
  5
30B48
330
30B3E
100
AcDbEntity
  8
Defpoints
 62
     0
100
AcDbPoint
 10
865.3003291420455
 20
582.9359756237217
 30
0.0
  0
POINT
  5
30B49
330
30B3E
100
AcDbEntity
  8
Defpoints
 62
     0
100
AcDbPoint
 10
865.3003291420455
 20
620.9738910383886
 30
0.0
  0
ENDBLK
  5
30B40
330
30B3E
100
AcDbEntity
  8
0
100
AcDbBlockEnd
  0
BLOCK
  5
30B82
330
30B81
100
AcDbEntity
  8
0
100
AcDbBlockBegin
  2
*D51
 70
     1
 10
0.0
 20
0.0
 30
0.0
  3
*D51
  1
*D52
  0
LINE
  5
30B84
330
30B81
100
AcDbEntity
  8
DIM
 62
     0
 48
0.05
370
    -2
100
AcDbLine
 10
1884.135793537409
 20
506.9735735559215
 30
0.0
 11
1884.135793537409
 21
474.9735735559215
 31
0.0
  0
LINE
  5
30B85
330
30B81
100
AcDbEntity
  8
DIM
 62
     0
 48
0.05
370
    -2
100
AcDbLine
 10
1884.135793537409
 20
506.9735735559215
 30
0.0
 11
1884.135793537409
 21
474.9735735559215
 31
0.0
  0
LINE
  5
30B86
330
30B81
100
AcDbEntity
  8
DIM
 62
     0
 48
0.05
370
    -2
100
AcDbLine
 10
1881.135793537409
 20
474.9735735559215
 30
0.0
 11
1878.135793537409
 21
474.9735735559215
 31
0.0
  0
LINE
  5
30B87
330
30B81
100
AcDbEntity
  8
DIM
 62
     0
 48
0.05
370
    -2
100
AcDbLine
 10
1887.135793537409
 20
474.9735735559215
 30
0.0
 11
1890.135793537409
 21
474.9735735559215
 31
0.0
  0
INSERT
  5
30B88
330
30B81
100
AcDbEntity
  8
DIM
 62
     0
370
    -2
100
AcDbBlockReference
  2
_DOT
 10
1884.135793537409
 20
474.9735735559215
 30
0.0
 41
3.0
 42
3.0
 43
3.0
  0
INSERT
  5
30B89
330
30B81
100
AcDbEntity
  8
DIM
 62
     0
370
    -2
100
AcDbBlockReference
  2
_DOT
 10
1884.135793537409
 20
474.9735735559215
 30
0.0
 41
3.0
 42
3.0
 43
3.0
 50
180.0
  0
MTEXT
  5
30B8A
330
30B81
100
AcDbEntity
  8
DIM
 62
     0
 48
0.05
100
AcDbMText
 10
1884.135793537409
 20
490.9735735559215
 30
0.0
 40
12.0
 41
0.0
 46
0.0
 71
     5
 72
     1
  1
\A1;0
  7
ＭＳ ゴシック
 73
     1
 44
1.0
  0
POINT
  5
30B8B
330
30B81
100
AcDbEntity
  8
Defpoints
 62
     0
100
AcDbPoint
 10
1884.135793537409
 20
516.9735735559215
 30
0.0
  0
POINT
  5
30B8C
330
30B81
100
AcDbEntity
  8
Defpoints
 62
     0
100
AcDbPoint
 10
1884.135793537409
 20
516.9735735559215
 30
0.0
  0
POINT
  5
30BCC
330
30B81
100
AcDbEntity
  8
Defpoints
 62
     0
100
AcDbPoint
 10
1884.135793537409
 20
474.9735735559215
 30
0.0
  0
ENDBLK
  5
30B83
330
30B81
100
AcDbEntity
  8
0
100
AcDbBlockEnd
  0
BLOCK
  5
30C09
330
30C08
100
AcDbEntity
  8
0
100
AcDbBlockBegin
  2
*D52
 70
     1
 10
0.0
 20
0.0
 30
0.0
  3
*D52
  1
*D53
  0
LINE
  5
30C0B
330
30C08
100
AcDbEntity
  8
DIM
 62
     0
370
    -2
100
AcDbLine
 10
1259.829614704618
 20
330.1869989697614
 30
0.0
 11
1259.829614704618
 21
367.2688869226031
 31
0.0
  0
LINE
  5
30C0C
330
30C08
100
AcDbEntity
  8
DIM
 62
     0
370
    -2
100
AcDbLine
 10
1359.829614704618
 20
330.1869989697614
 30
0.0
 11
1359.829614704618
 21
367.2688869226031
 31
0.0
  0
LINE
  5
30C0D
330
30C08
100
AcDbEntity
  8
DIM
 62
     0
370
    -2
100
AcDbLine
 10
1262.829614704618
 20
367.2688869226031
 30
0.0
 11
1356.829614704618
 21
367.2688869226031
 31
0.0
  0
INSERT
  5
30C0E
330
30C08
100
AcDbEntity
  8
DIM
 62
     0
370
    -2
100
AcDbBlockReference
  2
_DOT
 10
1259.829614704618
 20
367.2688869226031
 30
0.0
 41
3.0
 42
3.0
 43
3.0
 50
180.0
  0
INSERT
  5
30C0F
330
30C08
100
AcDbEntity
  8
DIM
 62
     0
370
    -2
100
AcDbBlockReference
  2
_DOT
 10
1359.829614704618
 20
367.2688869226031
 30
0.0
 41
3.0
 42
3.0
 43
3.0
  0
MTEXT
  5
30C10
330
30C08
100
AcDbEntity
  8
DIM
 62
     0
 48
0.05
100
AcDbMText
 10
1309.829614704618
 20
383.2688869226031
 30
0.0
 40
12.0
 41
0.0
 46
0.0
 71
     5
 72
     1
  1
\A1;100
  7
ＭＳ ゴシック
 73
     1
 44
1.0
  0
POINT
  5
30C11
330
30C08
100
AcDbEntity
  8
Defpoints
 62
     0
100
AcDbPoint
 10
1259.829614704618
 20
320.1869989697614
 30
0.0
  0
POINT
  5
30C12
330
30C08
100
AcDbEntity
  8
Defpoints
 62
     0
100
AcDbPoint
 10
1359.829614704618
 20
320.1869989697614
 30
0.0
  0
POINT
  5
30C13
330
30C08
100
AcDbEntity
  8
Defpoints
 62
     0
100
AcDbPoint
 10
1359.829614704618
 20
367.2688869226031
 30
0.0
  0
ENDBLK
  5
30C0A
330
30C08
100
AcDbEntity
  8
0
100
AcDbBlockEnd
  0
BLOCK
  5
30C3B
330
30C3A
100
AcDbEntity
  8
0
100
AcDbBlockBegin
  2
*D53
 70
     1
 10
0.0
 20
0.0
 30
0.0
  3
*D53
  1
*D54
  0
LINE
  5
30C3D
330
30C3A
100
AcDbEntity
  8
DIM
 62
     0
370
    -2
100
AcDbLine
 10
235.2759724012385
 20
581.640025300804
 30
0.0
 11
235.2759724012385
 21
638.3687931299258
 31
0.0
  0
LINE
  5
30C3E
330
30C3A
100
AcDbEntity
  8
DIM
 62
     0
370
    -2
100
AcDbLine
 10
335.2759724012384
 20
581.6400253008039
 30
0.0
 11
335.2759724012384
 21
638.3687931299258
 31
0.0
  0
LINE
  5
30C3F
330
30C3A
100
AcDbEntity
  8
DIM
 62
     0
370
    -2
100
AcDbLine
 10
238.2759724012385
 20
638.3687931299258
 30
0.0
 11
332.2759724012384
 21
638.3687931299258
 31
0.0
  0
INSERT
  5
30C40
330
30C3A
100
AcDbEntity
  8
DIM
 62
     0
370
    -2
100
AcDbBlockReference
  2
_DOT
 10
235.2759724012385
 20
638.3687931299258
 30
0.0
 41
3.0
 42
3.0
 43
3.0
 50
180.0
  0
INSERT
  5
30C41
330
30C3A
100
AcDbEntity
  8
DIM
 62
     0
370
    -2
100
AcDbBlockReference
  2
_DOT
 10
335.2759724012384
 20
638.3687931299258
 30
0.0
 41
3.0
 42
3.0
 43
3.0
  0
MTEXT
  5
30C42
330
30C3A
100
AcDbEntity
  8
DIM
 62
     0
 48
0.05
100
AcDbMText
 10
285.2759724012383
 20
654.3687931299258
 30
0.0
 40
12.0
 41
0.0
 46
0.0
 71
     5
 72
     1
  1
\A1;100
  7
ＭＳ ゴシック
 73
     1
 44
1.0
  0
POINT
  5
30C43
330
30C3A
100
AcDbEntity
  8
Defpoints
 62
     0
100
AcDbPoint
 10
235.2759724012385
 20
571.640025300804
 30
0.0
  0
POINT
  5
30C44
330
30C3A
100
AcDbEntity
  8
Defpoints
 62
     0
100
AcDbPoint
 10
335.2759724012384
 20
571.6400253008039
 30
0.0
  0
POINT
  5
30C45
330
30C3A
100
AcDbEntity
  8
Defpoints
 62
     0
100
AcDbPoint
 10
335.2759724012384
 20
638.3687931299258
 30
0.0
  0
ENDBLK
  5
30C3C
330
30C3A
100
AcDbEntity
  8
0
100
AcDbBlockEnd
  0
BLOCK
  5
30D01
330
30D00
100
AcDbEntity
  8
0
100
AcDbBlockBegin
  2
*D54
 70
     1
 10
0.0
 20
0.0
 30
0.0
  3
*D54
  1
*D29
  0
LINE
  5
30D02
330
30D00
100
AcDbEntity
  8
DIM
  6
Continuous
 62
     0
370
    -2
100
AcDbLine
 10
24.42399999999985
 20
79.12659838510694
 30
0.0
 11
24.42399999999988
 21
165.695353923197
 31
0.0
  0
LINE
  5
30D03
330
30D00
100
AcDbEntity
  8
DIM
  6
Continuous
 62
     0
370
    -2
100
AcDbLine
 10
24.42399999999985
 20
76.12659838510694
 30
0.0
 11
24.42399999999983
 21
17.2405752733921
 31
0.0
  0
INSERT
  5
30D04
330
30D00
100
AcDbEntity
  8
DIM
 62
     0
370
    -2
100
AcDbBlockReference
  2
_DOT
 10
24.42399999999985
 20
79.12659838510694
 30
0.0
 41
3.0
 42
3.0
 43
3.0
 50
89.99999999999999
  0
INSERT
  5
30D05
330
30D00
100
AcDbEntity
  8
DIM
 62
     0
370
    -2
100
AcDbBlockReference
  2
_DOT
 10
24.42399999999983
 20
14.2405752733921
 30
0.0
 41
3.0
 42
3.0
 43
3.0
 50
270.0
  0
MTEXT
  5
30D06
330
30D00
100
AcDbEntity
  8
DIM
 62
     0
 48
0.05
100
AcDbMText
 10
7.36199999999986
 20
126.751353923197
 30
0.0
 40
12.0
 41
0.0
 46
0.0
 71
     5
 72
     1
  1
\A1;63(深さ)
  7
ＭＳ ゴシック
 11
2.737657132017293E-16
 21
1.0
 31
0.0
 73
     1
 44
1.0
  0
POINT
  5
30D07
330
30D00
100
AcDbEntity
  8
Defpoints
 62
     0
100
AcDbPoint
 10
47.53525997991107
 20
79.12659838510694
 30
0.0
  0
POINT
  5
30D08
330
30D00
100
AcDbEntity
  8
Defpoints
 62
     0
100
AcDbPoint
 10
24.42399999999986
 20
14.2405752733921
 30
0.0
  0
POINT
  5
30D09
330
30D00
100
AcDbEntity
  8
Defpoints
 62
     0
100
AcDbPoint
 10
24.42399999999986
 20
14.2405752733921
 30
0.0
  0
ENDBLK
  5
30D0A
330
30D00
100
AcDbEntity
  8
0
100
AcDbBlockEnd
  0
BLOCK
  5
30D14
330
30D13
100
AcDbEntity
  8
0
100
AcDbBlockBegin
  2
*D55
 70
     1
 10
0.0
 20
0.0
 30
0.0
  3
*D55
  1
*D57
  0
LINE
  5
30D16
330
30D13
100
AcDbEntity
  8
DIM
  6
Continuous
 62
     0
370
    -2
100
AcDbLine
 10
726.2996398038104
 20
605.9359756237217
 30
0.0
 11
726.2996398038104
 21
692.5047311618117
 31
0.0
  0
LINE
  5
30D17
330
30D13
100
AcDbEntity
  8
DIM
  6
Continuous
 62
     0
370
    -2
100
AcDbLine
 10
726.2996398038104
 20
602.9359756237217
 30
0.0
 11
726.2996398038104
 21
543.9359756237217
 31
0.0
  0
INSERT
  5
30D18
330
30D13
100
AcDbEntity
  8
DIM
 62
     0
370
    -2
100
AcDbBlockReference
  2
_DOT
 10
726.2996398038104
 20
605.9359756237217
 30
0.0
 41
3.0
 42
3.0
 43
3.0
 50
90.0
  0
INSERT
  5
30D19
330
30D13
100
AcDbEntity
  8
DIM
 62
     0
370
    -2
100
AcDbBlockReference
  2
_DOT
 10
726.2996398038104
 20
540.9359756237217
 30
0.0
 41
3.0
 42
3.0
 43
3.0
 50
270.0
  0
MTEXT
  5
30D1A
330
30D13
100
AcDbEntity
  8
DIM
 62
     0
 48
0.05
100
AcDbMText
 10
709.2376398038103
 20
653.5607311618118
 30
0.0
 40
12.0
 41
0.0
 46
0.0
 71
     5
 72
     1
  1
\A1;65(深さ)
  7
ＭＳ ゴシック
 11
0.0
 21
1.0
 31
0.0
 73
     1
 44
1.0
  0
POINT
  5
30D1B
330
30D13
100
AcDbEntity
  8
Defpoints
 62
     0
100
AcDbPoint
 10
749.4108997837216
 20
605.9359756237217
 30
0.0
  0
POINT
  5
30D1C
330
30D13
100
AcDbEntity
  8
Defpoints
 62
     0
100
AcDbPoint
 10
726.2996398038104
 20
540.9359756237217
 30
0.0
  0
POINT
  5
30D1D
330
30D13
100
AcDbEntity
  8
Defpoints
 62
     0
100
AcDbPoint
 10
726.2996398038104
 20
540.9359756237217
 30
0.0
  0
ENDBLK
  5
30D15
330
30D13
100
AcDbEntity
  8
0
100
AcDbBlockEnd
  0
BLOCK
  5
30D31
330
30D30
100
AcDbEntity
  8
0
100
AcDbBlockBegin
  2
*D56
 70
     1
 10
0.0
 20
0.0
 30
0.0
  3
*D56
  1
*D58
  0
LINE
  5
30D33
330
30D30
100
AcDbEntity
  8
DIM
 62
     0
 48
0.05
370
    -2
100
AcDbLine
 10
897.3003291420455
 20
502.9359756237217
 30
0.0
 11
897.3003291420455
 21
446.2831943709319
 31
0.0
  0
LINE
  5
30D34
330
30D30
100
AcDbEntity
  8
DIM
 62
     0
 48
0.05
370
    -2
100
AcDbLine
 10
727.3003291420455
 20
474.0301356765209
 30
0.0
 11
727.3003291420455
 21
446.2831943709319
 31
0.0
  0
LINE
  5
30D35
330
30D30
100
AcDbEntity
  8
DIM
 62
     0
 48
0.05
370
    -2
100
AcDbLine
 10
894.3003291420455
 20
446.2831943709319
 30
0.0
 11
730.3003291420455
 21
446.2831943709319
 31
0.0
  0
INSERT
  5
30D36
330
30D30
100
AcDbEntity
  8
DIM
 62
     0
370
    -2
100
AcDbBlockReference
  2
_DOT
 10
897.3003291420455
 20
446.2831943709319
 30
0.0
 41
3.0
 42
3.0
 43
3.0
  0
INSERT
  5
30D37
330
30D30
100
AcDbEntity
  8
DIM
 62
     0
370
    -2
100
AcDbBlockReference
  2
_DOT
 10
727.3003291420455
 20
446.2831943709319
 30
0.0
 41
3.0
 42
3.0
 43
3.0
 50
180.0
  0
MTEXT
  5
30D38
330
30D30
100
AcDbEntity
  8
DIM
 62
     0
 48
0.05
100
AcDbMText
 10
812.3003291420455
 20
462.2831943709319
 30
0.0
 40
12.0
 41
0.0
 46
0.0
 71
     5
 72
     1
  1
\A1;170
  7
ＭＳ ゴシック
 73
     1
 44
1.0
  0
POINT
  5
30D39
330
30D30
100
AcDbEntity
  8
Defpoints
 62
     0
100
AcDbPoint
 10
897.3003291420455
 20
512.9359756237217
 30
0.0
  0
POINT
  5
30D3A
330
30D30
100
AcDbEntity
  8
Defpoints
 62
     0
100
AcDbPoint
 10
727.3003291420455
 20
484.0301356765209
 30
0.0
  0
POINT
  5
30D3B
330
30D30
100
AcDbEntity
  8
Defpoints
 62
     0
100
AcDbPoint
 10
727.3003291420455
 20
446.2831943709319
 30
0.0
  0
ENDBLK
  5
30D32
330
30D30
100
AcDbEntity
  8
0
100
AcDbBlockEnd
  0
BLOCK
  5
30DAE
330
30DAD
100
AcDbEntity
  8
0
100
AcDbBlockBegin
  2
*D57
 70
     1
 10
0.0
 20
0.0
 30
0.0
  3
*D57
  1
*D52
  0
LINE
  5
30DAF
330
30DAD
100
AcDbEntity
  8
DIM
 62
     0
 48
0.05
370
    -2
100
AcDbLine
 10
35.1527386799965
 20
45.64553879057985
 30
0.0
 11
35.1527386799965
 21
24.13000000000005
 31
0.0
  0
LINE
  5
30DB0
330
30DAD
100
AcDbEntity
  8
DIM
 62
     0
 48
0.05
370
    -2
100
AcDbLine
 10
77.1527386799965
 20
45.64553879057985
 30
0.0
 11
77.1527386799965
 21
24.13000000000005
 31
0.0
  0
LINE
  5
30DB1
330
30DAD
100
AcDbEntity
  8
DIM
 62
     0
 48
0.05
370
    -2
100
AcDbLine
 10
38.1527386799965
 20
24.13000000000005
 30
0.0
 11
74.1527386799965
 21
24.13000000000005
 31
0.0
  0
INSERT
  5
30DB2
330
30DAD
100
AcDbEntity
  8
DIM
 62
     0
370
    -2
100
AcDbBlockReference
  2
_DOT
 10
35.1527386799965
 20
24.13000000000005
 30
0.0
 41
3.0
 42
3.0
 43
3.0
 50
180.0
  0
INSERT
  5
30DB3
330
30DAD
100
AcDbEntity
  8
DIM
 62
     0
370
    -2
100
AcDbBlockReference
  2
_DOT
 10
77.1527386799965
 20
24.13000000000005
 30
0.0
 41
3.0
 42
3.0
 43
3.0
  0
MTEXT
  5
30DB4
330
30DAD
100
AcDbEntity
  8
DIM
 62
     0
 48
0.05
100
AcDbMText
 10
56.1527386799965
 20
6.852000000000054
 30
0.0
 40
12.0
 41
0.0
 46
0.0
 71
     5
 72
     1
  1
\A1;G1 1/4"
  7
ＭＳ ゴシック
 73
     1
 44
1.0
  0
POINT
  5
30DB5
330
30DAD
100
AcDbEntity
  8
Defpoints
 62
     0
100
AcDbPoint
 10
35.1527386799965
 20
55.64553879057985
 30
0.0
  0
POINT
  5
30DB6
330
30DAD
100
AcDbEntity
  8
Defpoints
 62
     0
100
AcDbPoint
 10
77.1527386799965
 20
55.64553879057985
 30
0.0
  0
POINT
  5
30DB7
330
30DAD
100
AcDbEntity
  8
Defpoints
 62
     0
100
AcDbPoint
 10
77.1527386799965
 20
24.13000000000005
 30
0.0
  0
ENDBLK
  5
30DB8
330
30DAD
100
AcDbEntity
  8
0
100
AcDbBlockEnd
  0
BLOCK
  5
30DBB
330
30DBA
100
AcDbEntity
  8
0
100
AcDbBlockBegin
  2
*D58
 70
     1
 10
0.0
 20
0.0
 30
0.0
  3
*D58
  1
*D53
  0
LINE
  5
30DBC
330
30DBA
100
AcDbEntity
  8
DIM
 62
     0
 48
0.05
370
    -2
100
AcDbLine
 10
25.1527386799965
 20
55.64553879057985
 30
0.0
 11
17.0
 21
55.64553879057985
 31
0.0
  0
LINE
  5
30DBD
330
30DBA
100
AcDbEntity
  8
DIM
 62
     0
 48
0.05
370
    -2
100
AcDbLine
 10
16.98138769230246
 20
75.64553879057985
 30
0.0
 11
17.0
 21
75.64553879057985
 31
0.0
  0
LINE
  5
30DBE
330
30DBA
100
AcDbEntity
  8
DIM
 62
     0
 48
0.05
370
    -2
100
AcDbLine
 10
17.0
 20
55.64553879057985
 30
0.0
 11
17.0
 21
20.38953879057981
 31
0.0
  0
LINE
  5
30DBF
330
30DBA
100
AcDbEntity
  8
DIM
 62
     0
 48
0.05
370
    -2
100
AcDbLine
 10
17.0
 20
58.64553879057985
 30
0.0
 11
17.0
 21
72.64553879057985
 31
0.0
  0
INSERT
  5
30DC0
330
30DBA
100
AcDbEntity
  8
DIM
 62
     0
370
    -2
100
AcDbBlockReference
  2
_DOT
 10
17.0
 20
55.64553879057985
 30
0.0
 41
3.0
 42
3.0
 43
3.0
 50
270.0
  0
INSERT
  5
30DC1
330
30DBA
100
AcDbEntity
  8
DIM
 62
     0
370
    -2
100
AcDbBlockReference
  2
_DOT
 10
17.0
 20
75.64553879057985
 30
0.0
 41
3.0
 42
3.0
 43
3.0
 50
90.0
  0
MTEXT
  5
30DC2
330
30DBA
100
AcDbEntity
  8
DIM
 62
     0
 48
0.05
100
AcDbMText
 10
6.0
 20
32.51753879057981
 30
0.0
 40
12.0
 41
0.0
 46
0.0
 71
     5
 72
     1
  1
\A1;20
  7
ＭＳ ゴシック
 11
0.0
 21
1.0
 31
0.0
 73
     1
 44
1.0
  0
POINT
  5
30DC3
330
30DBA
100
AcDbEntity
  8
Defpoints
 62
     0
100
AcDbPoint
 10
35.1527386799965
 20
55.64553879057985
 30
0.0
  0
POINT
  5
30DC4
330
30DBA
100
AcDbEntity
  8
Defpoints
 62
     0
100
AcDbPoint
 10
26.98138769230246
 20
75.64553879057985
 30
0.0
  0
POINT
  5
30DC5
330
30DBA
100
AcDbEntity
  8
Defpoints
 62
     0
100
AcDbPoint
 10
17.0
 20
75.64553879057985
 30
0.0
  0
ENDBLK
  5
30DC6
330
30DBA
100
AcDbEntity
  8
0
100
AcDbBlockEnd
  0
BLOCK
  5
30DE1
330
30DE0
100
AcDbEntity
  8
0
100
AcDbBlockBegin
  2
*D59
 70
     1
 10
0.0
 20
0.0
 30
0.0
  3
*D59
  1
*D62
  0
LINE
  5
30DE3
330
30DE0
100
AcDbEntity
  8
DIM
 62
     0
 48
0.05
370
    -2
100
AcDbLine
 10
224.2759725243986
 20
482.9359756237217
 30
0.0
 11
224.2759725243986
 21
461.4204368331419
 31
0.0
  0
LINE
  5
30DE4
330
30DE0
100
AcDbEntity
  8
DIM
 62
     0
 48
0.05
370
    -2
100
AcDbLine
 10
266.2759725243986
 20
482.9359756237217
 30
0.0
 11
266.2759725243986
 21
461.4204368331419
 31
0.0
  0
LINE
  5
30DE5
330
30DE0
100
AcDbEntity
  8
DIM
 62
     0
 48
0.05
370
    -2
100
AcDbLine
 10
227.2759725243986
 20
461.4204368331419
 30
0.0
 11
263.2759725243986
 21
461.4204368331419
 31
0.0
  0
INSERT
  5
30DE6
330
30DE0
100
AcDbEntity
  8
DIM
 62
     0
370
    -2
100
AcDbBlockReference
  2
_DOT
 10
224.2759725243986
 20
461.4204368331419
 30
0.0
 41
3.0
 42
3.0
 43
3.0
 50
180.0
  0
INSERT
  5
30DE7
330
30DE0
100
AcDbEntity
  8
DIM
 62
     0
370
    -2
100
AcDbBlockReference
  2
_DOT
 10
266.2759725243986
 20
461.4204368331419
 30
0.0
 41
3.0
 42
3.0
 43
3.0
  0
MTEXT
  5
30DE8
330
30DE0
100
AcDbEntity
  8
DIM
 62
     0
 48
0.05
100
AcDbMText
 10
245.2759725243986
 20
444.1424368331419
 30
0.0
 40
12.0
 41
0.0
 46
0.0
 71
     5
 72
     1
  1
\A1;G1 1/4"
  7
ＭＳ ゴシック
 73
     1
 44
1.0
  0
POINT
  5
30DE9
330
30DE0
100
AcDbEntity
  8
Defpoints
 62
     0
100
AcDbPoint
 10
224.2759725243986
 20
492.9359756237217
 30
0.0
  0
POINT
  5
30DEA
330
30DE0
100
AcDbEntity
  8
Defpoints
 62
     0
100
AcDbPoint
 10
266.2759725243986
 20
492.9359756237217
 30
0.0
  0
POINT
  5
30DEB
330
30DE0
100
AcDbEntity
  8
Defpoints
 62
     0
100
AcDbPoint
 10
266.2759725243986
 20
461.4204368331419
 30
0.0
  0
ENDBLK
  5
30DE2
330
30DE0
100
AcDbEntity
  8
0
100
AcDbBlockEnd
  0
BLOCK
  5
30DED
330
30DEC
100
AcDbEntity
  8
0
100
AcDbBlockBegin
  2
*D60
 70
     1
 10
0.0
 20
0.0
 30
0.0
  3
*D60
  1
*D63
  0
LINE
  5
30DEF
330
30DEC
100
AcDbEntity
  8
DIM
 62
     0
 48
0.05
370
    -2
100
AcDbLine
 10
214.2759725243986
 20
465.6913223529307
 30
0.0
 11
206.1232338444021
 21
465.6913223529307
 31
0.0
  0
LINE
  5
30DF0
330
30DEC
100
AcDbEntity
  8
DIM
 62
     0
 48
0.05
370
    -2
100
AcDbLine
 10
206.1046215367045
 20
485.6913223529307
 30
0.0
 11
206.1232338444021
 21
485.6913223529307
 31
0.0
  0
LINE
  5
30DF1
330
30DEC
100
AcDbEntity
  8
DIM
 62
     0
 48
0.05
370
    -2
100
AcDbLine
 10
206.1232338444021
 20
465.6913223529307
 30
0.0
 11
206.1232338444021
 21
430.4353223529307
 31
0.0
  0
LINE
  5
30DF2
330
30DEC
100
AcDbEntity
  8
DIM
 62
     0
 48
0.05
370
    -2
100
AcDbLine
 10
206.1232338444021
 20
468.6913223529307
 30
0.0
 11
206.1232338444021
 21
482.6913223529307
 31
0.0
  0
INSERT
  5
30DF3
330
30DEC
100
AcDbEntity
  8
DIM
 62
     0
370
    -2
100
AcDbBlockReference
  2
_DOT
 10
206.1232338444021
 20
465.6913223529307
 30
0.0
 41
3.0
 42
3.0
 43
3.0
 50
270.0
  0
INSERT
  5
30DF4
330
30DEC
100
AcDbEntity
  8
DIM
 62
     0
370
    -2
100
AcDbBlockReference
  2
_DOT
 10
206.1232338444021
 20
485.6913223529307
 30
0.0
 41
3.0
 42
3.0
 43
3.0
 50
90.0
  0
MTEXT
  5
30DF5
330
30DEC
100
AcDbEntity
  8
DIM
 62
     0
 48
0.05
100
AcDbMText
 10
195.1232338444021
 20
442.5633223529306
 30
0.0
 40
12.0
 41
0.0
 46
0.0
 71
     5
 72
     1
  1
\A1;20
  7
ＭＳ ゴシック
 11
0.0
 21
1.0
 31
0.0
 73
     1
 44
1.0
  0
POINT
  5
30DF6
330
30DEC
100
AcDbEntity
  8
Defpoints
 62
     0
100
AcDbPoint
 10
224.2759725243986
 20
465.6913223529307
 30
0.0
  0
POINT
  5
30DF7
330
30DEC
100
AcDbEntity
  8
Defpoints
 62
     0
100
AcDbPoint
 10
216.1046215367045
 20
485.6913223529307
 30
0.0
  0
POINT
  5
30DF8
330
30DEC
100
AcDbEntity
  8
Defpoints
 62
     0
100
AcDbPoint
 10
206.1232338444021
 20
485.6913223529307
 30
0.0
  0
ENDBLK
  5
30DEE
330
30DEC
100
AcDbEntity
  8
0
100
AcDbBlockEnd
  0
BLOCK
  5
30E52
330
30E51
100
AcDbEntity
  8
0
100
AcDbBlockBegin
  2
*D61
 70
     1
 10
0.0
 20
0.0
 30
0.0
  3
*D61
  1
*D64
  0
LINE
  5
30E54
330
30E51
100
AcDbEntity
  8
DIM
 62
     0
 48
0.05
370
    -2
100
AcDbLine
 10
206.1046215367045
 20
512.9359756237217
 30
0.0
 11
200.372071849118
 21
512.9359756237217
 31
0.0
  0
LINE
  5
30E55
330
30E51
100
AcDbEntity
  8
DIM
 62
     0
 48
0.05
370
    -2
100
AcDbLine
 10
214.2759725243986
 20
492.9359756237217
 30
0.0
 11
200.372071849118
 21
492.9359756237217
 31
0.0
  0
LINE
  5
30E56
330
30E51
100
AcDbEntity
  8
DIM
 62
     0
 48
0.05
370
    -2
100
AcDbLine
 10
200.372071849118
 20
509.9359756237217
 30
0.0
 11
200.372071849118
 21
495.9359756237217
 31
0.0
  0
INSERT
  5
30E57
330
30E51
100
AcDbEntity
  8
DIM
 62
     0
370
    -2
100
AcDbBlockReference
  2
_DOT
 10
200.372071849118
 20
512.9359756237217
 30
0.0
 41
3.0
 42
3.0
 43
3.0
 50
90.0
  0
INSERT
  5
30E58
330
30E51
100
AcDbEntity
  8
DIM
 62
     0
370
    -2
100
AcDbBlockReference
  2
_DOT
 10
200.372071849118
 20
492.9359756237217
 30
0.0
 41
3.0
 42
3.0
 43
3.0
 50
270.0
  0
MTEXT
  5
30E59
330
30E51
100
AcDbEntity
  8
DIM
 62
     0
 48
0.05
100
AcDbMText
 10
184.372071849118
 20
502.9359756237217
 30
0.0
 40
12.0
 41
0.0
 46
0.0
 71
     5
 72
     1
  1
\A1;20
  7
ＭＳ ゴシック
 11
0.0
 21
1.0
 31
0.0
 73
     1
 44
1.0
  0
POINT
  5
30E5A
330
30E51
100
AcDbEntity
  8
Defpoints
 62
     0
100
AcDbPoint
 10
216.1046215367045
 20
512.9359756237217
 30
0.0
  0
POINT
  5
30E5B
330
30E51
100
AcDbEntity
  8
Defpoints
 62
     0
100
AcDbPoint
 10
224.2759725243986
 20
492.9359756237217
 30
0.0
  0
POINT
  5
30E5C
330
30E51
100
AcDbEntity
  8
Defpoints
 62
     0
100
AcDbPoint
 10
200.372071849118
 20
492.9359756237217
 30
0.0
  0
ENDBLK
  5
30E53
330
30E51
100
AcDbEntity
  8
0
100
AcDbBlockEnd
  0
BLOCK
  5
30EAC
330
30EAB
100
AcDbEntity
  8
0
100
AcDbBlockBegin
  2
*D62
 70
     1
 10
0.0
 20
0.0
 30
0.0
  3
*D62
  1
*D65
  0
LINE
  5
30EAE
330
30EAB
100
AcDbEntity
  8
DIM
 62
     0
 48
0.05
370
    -2
100
AcDbLine
 10
907.3003291420455
 20
582.9359756237217
 30
0.0
 11
942.8627557523557
 21
582.9359756237217
 31
0.0
  0
LINE
  5
30EAF
330
30EAB
100
AcDbEntity
  8
DIM
 62
     0
 48
0.05
370
    -2
100
AcDbLine
 10
907.3003291420455
 20
512.9359756237217
 30
0.0
 11
942.8627557523557
 21
512.9359756237217
 31
0.0
  0
LINE
  5
30EB0
330
30EAB
100
AcDbEntity
  8
DIM
 62
     0
 48
0.05
370
    -2
100
AcDbLine
 10
942.8627557523557
 20
579.9359756237217
 30
0.0
 11
942.8627557523557
 21
515.9359756237217
 31
0.0
  0
INSERT
  5
30EB1
330
30EAB
100
AcDbEntity
  8
DIM
 62
     0
370
    -2
100
AcDbBlockReference
  2
_DOT
 10
942.8627557523557
 20
582.9359756237217
 30
0.0
 41
3.0
 42
3.0
 43
3.0
 50
90.0
  0
INSERT
  5
30EB2
330
30EAB
100
AcDbEntity
  8
DIM
 62
     0
370
    -2
100
AcDbBlockReference
  2
_DOT
 10
942.8627557523557
 20
512.9359756237217
 30
0.0
 41
3.0
 42
3.0
 43
3.0
 50
270.0
  0
MTEXT
  5
30EB3
330
30EAB
100
AcDbEntity
  8
DIM
 62
     0
 48
0.05
100
AcDbMText
 10
926.8627557523557
 20
547.9359756237217
 30
0.0
 40
12.0
 41
0.0
 46
0.0
 71
     5
 72
     1
  1
\A1;70
  7
ＭＳ ゴシック
 11
0.0
 21
1.0
 31
0.0
 73
     1
 44
1.0
  0
POINT
  5
30EB4
330
30EAB
100
AcDbEntity
  8
Defpoints
 62
     0
100
AcDbPoint
 10
897.3003291420455
 20
582.9359756237217
 30
0.0
  0
POINT
  5
30EB5
330
30EAB
100
AcDbEntity
  8
Defpoints
 62
     0
100
AcDbPoint
 10
897.3003291420455
 20
512.9359756237217
 30
0.0
  0
POINT
  5
30EB6
330
30EAB
100
AcDbEntity
  8
Defpoints
 62
     0
100
AcDbPoint
 10
942.8627557523557
 20
512.9359756237217
 30
0.0
  0
ENDBLK
  5
30EAD
330
30EAB
100
AcDbEntity
  8
0
100
AcDbBlockEnd
  0
BLOCK
  5
30EFF
330
30EFE
100
AcDbEntity
  8
0
100
AcDbBlockBegin
  2
*D63
 70
     1
 10
0.0
 20
0.0
 30
0.0
  3
*D63
  1
*D39
  0
LINE
  5
30F00
330
30EFE
100
AcDbEntity
  8
DIM
 62
     0
 48
0.05
370
    -2
100
AcDbLine
 10
153.9634310713186
 20
191.4999999999995
 30
0.0
 11
406.2213499032538
 21
191.4999999999997
 31
0.0
  0
LINE
  5
30F01
330
30EFE
100
AcDbEntity
  8
DIM
 62
     0
 48
0.05
370
    -2
100
AcDbLine
 10
152.8105250621747
 20
1.499999999999778
 30
0.0
 11
406.2213499032539
 21
1.499999999999915
 31
0.0
  0
LINE
  5
30F02
330
30EFE
100
AcDbEntity
  8
DIM
 62
     0
 48
0.05
370
    -2
100
AcDbLine
 10
406.2213499032538
 20
188.4999999999997
 30
0.0
 11
406.2213499032539
 21
4.499999999999915
 31
0.0
  0
INSERT
  5
30F03
330
30EFE
100
AcDbEntity
  8
DIM
 62
     0
370
    -2
100
AcDbBlockReference
  2
_DOT
 10
406.2213499032538
 20
191.4999999999997
 30
0.0
 41
3.0
 42
3.0
 43
3.0
 50
90.00000000000001
  0
INSERT
  5
30F04
330
30EFE
100
AcDbEntity
  8
DIM
 62
     0
370
    -2
100
AcDbBlockReference
  2
_DOT
 10
406.2213499032539
 20
1.499999999999915
 30
0.0
 41
3.0
 42
3.0
 43
3.0
 50
270.0
  0
MTEXT
  5
30F05
330
30EFE
100
AcDbEntity
  8
DIM
 62
     0
 48
0.05
100
AcDbMText
 10
390.2213499032539
 20
96.49999999999955
 30
0.0
 40
12.0
 41
0.0
 46
0.0
 71
     5
 72
     1
  1
\A1;190
  7
ＭＳ ゴシック
 11
-2.991758887410952E-16
 21
1.0
 31
0.0
 73
     1
 44
1.0
  0
POINT
  5
30F06
330
30EFE
100
AcDbEntity
  8
Defpoints
 62
     0
100
AcDbPoint
 10
143.9634310713186
 20
191.4999999999995
 30
0.0
  0
POINT
  5
30F07
330
30EFE
100
AcDbEntity
  8
Defpoints
 62
     0
100
AcDbPoint
 10
142.8105250621747
 20
1.499999999999773
 30
0.0
  0
POINT
  5
30F08
330
30EFE
100
AcDbEntity
  8
Defpoints
 62
     0
100
AcDbPoint
 10
406.2213499032539
 20
1.499999999999906
 30
0.0
  0
ENDBLK
  5
30F09
330
30EFE
100
AcDbEntity
  8
0
100
AcDbBlockEnd
  0
BLOCK
  5
30F13
330
30F12
100
AcDbEntity
  8
0
100
AcDbBlockBegin
  2
*D64
 70
     1
 10
0.0
 20
0.0
 30
0.0
  3
*D64
  1
*D68
  0
LINE
  5
30F15
330
30F12
100
AcDbEntity
  8
DIM
 62
     0
 48
0.05
370
    -2
100
AcDbLine
 10
717.3245210221221
 20
1328.742455188069
 30
0.0
 11
969.5824398540573
 21
1328.742455188069
 31
0.0
  0
LINE
  5
30F16
330
30F12
100
AcDbEntity
  8
DIM
 62
     0
 48
0.05
370
    -2
100
AcDbLine
 10
716.1716150129782
 20
1138.742455188069
 30
0.0
 11
969.5824398540574
 21
1138.742455188069
 31
0.0
  0
LINE
  5
30F17
330
30F12
100
AcDbEntity
  8
DIM
 62
     0
 48
0.05
370
    -2
100
AcDbLine
 10
969.5824398540573
 20
1325.742455188069
 30
0.0
 11
969.5824398540574
 21
1141.742455188069
 31
0.0
  0
INSERT
  5
30F18
330
30F12
100
AcDbEntity
  8
DIM
 62
     0
370
    -2
100
AcDbBlockReference
  2
_DOT
 10
969.5824398540573
 20
1328.742455188069
 30
0.0
 41
3.0
 42
3.0
 43
3.0
 50
90.00000000000004
  0
INSERT
  5
30F19
330
30F12
100
AcDbEntity
  8
DIM
 62
     0
370
    -2
100
AcDbBlockReference
  2
_DOT
 10
969.5824398540574
 20
1138.742455188069
 30
0.0
 41
3.0
 42
3.0
 43
3.0
 50
270.0
  0
MTEXT
  5
30F1A
330
30F12
100
AcDbEntity
  8
DIM
 62
     0
 48
0.05
100
AcDbMText
 10
953.5824398540574
 20
1233.742455188069
 30
0.0
 40
12.0
 41
0.0
 46
0.0
 71
     5
 72
     1
  1
\A1;190
  7
ＭＳ ゴシック
 11
-5.983517774821903E-16
 21
1.0
 31
0.0
 73
     1
 44
1.0
  0
POINT
  5
30F1B
330
30F12
100
AcDbEntity
  8
Defpoints
 62
     0
100
AcDbPoint
 10
707.3245210221221
 20
1328.742455188069
 30
0.0
  0
POINT
  5
30F1C
330
30F12
100
AcDbEntity
  8
Defpoints
 62
     0
100
AcDbPoint
 10
706.1716150129782
 20
1138.742455188069
 30
0.0
  0
POINT
  5
30F1D
330
30F12
100
AcDbEntity
  8
Defpoints
 62
     0
100
AcDbPoint
 10
969.5824398540574
 20
1138.742455188069
 30
0.0
  0
ENDBLK
  5
30F14
330
30F12
100
AcDbEntity
  8
0
100
AcDbBlockEnd
  0
BLOCK
  5
30F29
330
30F28
100
AcDbEntity
  8
0
100
AcDbBlockBegin
  2
*D65
 70
     1
 10
0.0
 20
0.0
 30
0.0
  3
*D65
  1
*D69
  0
LINE
  5
30F2B
330
30F28
100
AcDbEntity
  8
DIM
 62
     0
 48
0.05
370
    -2
100
AcDbLine
 10
491.0281257070251
 20
995.7140870943322
 30
0.0
 11
491.0281257070251
 21
807.8012318458946
 31
0.0
  0
LINE
  5
30F2C
330
30F28
100
AcDbEntity
  8
DIM
 62
     0
 48
0.05
370
    -2
100
AcDbLine
 10
441.0281257070251
 20
995.7140870943322
 30
0.0
 11
441.0281257070251
 21
807.8012318458946
 31
0.0
  0
LINE
  5
30F2D
330
30F28
100
AcDbEntity
  8
DIM
 62
     0
 48
0.05
370
    -2
100
AcDbLine
 10
488.0281257070251
 20
807.8012318458946
 30
0.0
 11
444.0281257070251
 21
807.8012318458946
 31
0.0
  0
INSERT
  5
30F2E
330
30F28
100
AcDbEntity
  8
DIM
 62
     0
370
    -2
100
AcDbBlockReference
  2
_DOT
 10
491.0281257070251
 20
807.8012318458946
 30
0.0
 41
3.0
 42
3.0
 43
3.0
  0
INSERT
  5
30F2F
330
30F28
100
AcDbEntity
  8
DIM
 62
     0
370
    -2
100
AcDbBlockReference
  2
_DOT
 10
441.0281257070251
 20
807.8012318458946
 30
0.0
 41
3.0
 42
3.0
 43
3.0
 50
180.0
  0
MTEXT
  5
30F30
330
30F28
100
AcDbEntity
  8
DIM
 62
     0
 48
0.05
100
AcDbMText
 10
466.0281257070251
 20
823.8012318458946
 30
0.0
 40
12.0
 41
0.0
 46
0.0
 71
     5
 72
     1
  1
\A1;50
  7
ＭＳ ゴシック
 73
     1
 44
1.0
  0
POINT
  5
30F31
330
30F28
100
AcDbEntity
  8
Defpoints
 62
     0
100
AcDbPoint
 10
491.0281257070251
 20
1005.714087094332
 30
0.0
  0
POINT
  5
30F32
330
30F28
100
AcDbEntity
  8
Defpoints
 62
     0
100
AcDbPoint
 10
441.0281257070251
 20
1005.714087094332
 30
0.0
  0
POINT
  5
30F33
330
30F28
100
AcDbEntity
  8
Defpoints
 62
     0
100
AcDbPoint
 10
441.0281257070251
 20
807.8012318458946
 30
0.0
  0
ENDBLK
  5
30F2A
330
30F28
100
AcDbEntity
  8
0
100
AcDbBlockEnd
  0
BLOCK
  5
30F4A
330
30F49
100
AcDbEntity
  8
0
100
AcDbBlockBegin
  2
*D66
 70
     1
 10
0.0
 20
0.0
 30
0.0
  3
*D66
  1
*D70
  0
LINE
  5
30F4C
330
30F49
100
AcDbEntity
  8
DIM
 62
     0
 48
0.05
370
    -2
100
AcDbLine
 10
501.0281257070251
 20
896.6994796941101
 30
0.0
 11
598.9340380883064
 21
896.6994796941101
 31
0.0
  0
LINE
  5
30F4D
330
30F49
100
AcDbEntity
  8
DIM
 62
     0
 48
0.05
370
    -2
100
AcDbLine
 10
425.2764033607955
 20
1176.714087095206
 30
0.0
 11
598.9340380883064
 21
1176.714087095206
 31
0.0
  0
LINE
  5
30F4E
330
30F49
100
AcDbEntity
  8
DIM
 62
     0
 48
0.05
370
    -2
100
AcDbLine
 10
598.9340380883064
 20
899.6994796941101
 30
0.0
 11
598.9340380883064
 21
1173.714087095206
 31
0.0
  0
INSERT
  5
30F4F
330
30F49
100
AcDbEntity
  8
DIM
 62
     0
370
    -2
100
AcDbBlockReference
  2
_DOT
 10
598.9340380883064
 20
896.6994796941101
 30
0.0
 41
3.0
 42
3.0
 43
3.0
 50
270.0
  0
INSERT
  5
30F50
330
30F49
100
AcDbEntity
  8
DIM
 62
     0
370
    -2
100
AcDbBlockReference
  2
_DOT
 10
598.9340380883064
 20
1176.714087095206
 30
0.0
 41
3.0
 42
3.0
 43
3.0
 50
90.0
  0
MTEXT
  5
30F51
330
30F49
100
AcDbEntity
  8
DIM
 62
     0
 48
0.05
100
AcDbMText
 10
582.9340380883064
 20
1036.706783394658
 30
0.0
 40
12.0
 41
0.0
 46
0.0
 71
     5
 72
     1
  1
\A1;280
  7
ＭＳ ゴシック
 11
0.0
 21
1.0
 31
0.0
 73
     1
 44
1.0
  0
POINT
  5
30F52
330
30F49
100
AcDbEntity
  8
Defpoints
 62
     0
100
AcDbPoint
 10
491.0281257070251
 20
896.6994796941101
 30
0.0
  0
POINT
  5
30F53
330
30F49
100
AcDbEntity
  8
Defpoints
 62
     0
100
AcDbPoint
 10
415.2764033607955
 20
1176.714087095206
 30
0.0
  0
POINT
  5
30F54
330
30F49
100
AcDbEntity
  8
Defpoints
 62
     0
100
AcDbPoint
 10
598.9340380883064
 20
1176.714087095206
 30
0.0
  0
ENDBLK
  5
30F4B
330
30F49
100
AcDbEntity
  8
0
100
AcDbBlockEnd
  0
BLOCK
  5
31103
330
31102
100
AcDbEntity
  8
0
100
AcDbBlockBegin
  2
*D67
 70
     1
 10
0.0
 20
0.0
 30
0.0
  3
*D67
  1
*D73
  0
LINE
  5
31105
330
31102
100
AcDbEntity
  8
DIM
 62
     0
 48
0.05
370
    -2
100
AcDbLine
 10
174.6055910905752
 20
512.9359756237217
 30
0.0
 11
147.3939446534855
 21
512.9359756237217
 31
0.0
  0
LINE
  5
31106
330
31102
100
AcDbEntity
  8
DIM
 62
     0
 48
0.05
370
    -2
100
AcDbLine
 10
203.183202736762
 20
547.9359756237218
 30
0.0
 11
147.3939446534855
 21
547.9359756237218
 31
0.0
  0
LINE
  5
31107
330
31102
100
AcDbEntity
  8
DIM
 62
     0
 48
0.05
370
    -2
100
AcDbLine
 10
147.3939446534855
 20
515.9359756237217
 30
0.0
 11
147.3939446534855
 21
544.9359756237218
 31
0.0
  0
INSERT
  5
31108
330
31102
100
AcDbEntity
  8
DIM
 62
     0
370
    -2
100
AcDbBlockReference
  2
_DOT
 10
147.3939446534855
 20
512.9359756237217
 30
0.0
 41
3.0
 42
3.0
 43
3.0
 50
270.0
  0
INSERT
  5
31109
330
31102
100
AcDbEntity
  8
DIM
 62
     0
370
    -2
100
AcDbBlockReference
  2
_DOT
 10
147.3939446534855
 20
547.9359756237218
 30
0.0
 41
3.0
 42
3.0
 43
3.0
 50
90.0
  0
MTEXT
  5
3110A
330
31102
100
AcDbEntity
  8
DIM
 62
     0
 48
0.05
100
AcDbMText
 10
131.3939446534855
 20
530.4359756237218
 30
0.0
 40
12.0
 41
0.0
 46
0.0
 71
     5
 72
     1
  1
\A1;35
  7
ＭＳ ゴシック
 11
0.0
 21
1.0
 31
0.0
 73
     1
 44
1.0
  0
POINT
  5
3110B
330
31102
100
AcDbEntity
  8
Defpoints
 62
     0
100
AcDbPoint
 10
184.6055910905752
 20
512.9359756237217
 30
0.0
  0
POINT
  5
3110C
330
31102
100
AcDbEntity
  8
Defpoints
 62
     0
100
AcDbPoint
 10
213.183202736762
 20
547.9359756237218
 30
0.0
  0
POINT
  5
3110D
330
31102
100
AcDbEntity
  8
Defpoints
 62
     0
100
AcDbPoint
 10
147.3939446534855
 20
547.9359756237218
 30
0.0
  0
ENDBLK
  5
31104
330
31102
100
AcDbEntity
  8
0
100
AcDbBlockEnd
  0
BLOCK
  5
31112
330
31111
100
AcDbEntity
  8
0
100
AcDbBlockBegin
  2
*D68
 70
     1
 10
0.0
 20
0.0
 30
0.0
  3
*D68
  1
*D74
  0
LINE
  5
31114
330
31111
100
AcDbEntity
  8
DIM
 62
     0
 48
0.05
370
    -2
100
AcDbLine
 10
170.2644835538104
 20
515.9359756237218
 30
0.0
 11
149.335267023156
 21
515.9359756237218
 31
0.0
  0
LINE
  5
31115
330
31111
100
AcDbEntity
  8
DIM
 62
     0
 48
0.05
370
    -2
100
AcDbLine
 10
225.2759724012384
 20
547.9359756237218
 30
0.0
 11
149.335267023156
 21
547.9359756237218
 31
0.0
  0
LINE
  5
31116
330
31111
100
AcDbEntity
  8
DIM
 62
     0
 48
0.05
370
    -2
100
AcDbLine
 10
149.335267023156
 20
512.9359756237218
 30
0.0
 11
149.335267023156
 21
509.9359756237218
 31
0.0
  0
LINE
  5
31117
330
31111
100
AcDbEntity
  8
DIM
 62
     0
 48
0.05
370
    -2
100
AcDbLine
 10
149.335267023156
 20
550.9359756237218
 30
0.0
 11
149.335267023156
 21
553.9359756237218
 31
0.0
  0
INSERT
  5
31118
330
31111
100
AcDbEntity
  8
DIM
 62
     0
370
    -2
100
AcDbBlockReference
  2
_DOT
 10
149.335267023156
 20
515.9359756237218
 30
0.0
 41
3.0
 42
3.0
 43
3.0
 50
90.0
  0
INSERT
  5
31119
330
31111
100
AcDbEntity
  8
DIM
 62
     0
370
    -2
100
AcDbBlockReference
  2
_DOT
 10
149.335267023156
 20
547.9359756237218
 30
0.0
 41
3.0
 42
3.0
 43
3.0
 50
270.0
  0
MTEXT
  5
3111A
330
31111
100
AcDbEntity
  8
DIM
 62
     0
 48
0.05
100
AcDbMText
 10
133.335267023156
 20
531.9359756237218
 30
0.0
 40
12.0
 41
0.0
 46
0.0
 71
     5
 72
     1
  1
\A1;32
  7
ＭＳ ゴシック
 11
0.0
 21
1.0
 31
0.0
 73
     1
 44
1.0
  0
POINT
  5
3111B
330
31111
100
AcDbEntity
  8
Defpoints
 62
     0
100
AcDbPoint
 10
180.2644835538104
 20
515.9359756237218
 30
0.0
  0
POINT
  5
3111C
330
31111
100
AcDbEntity
  8
Defpoints
 62
     0
100
AcDbPoint
 10
235.2759724012384
 20
547.9359756237218
 30
0.0
  0
POINT
  5
3111D
330
31111
100
AcDbEntity
  8
Defpoints
 62
     0
100
AcDbPoint
 10
149.335267023156
 20
547.9359756237218
 30
0.0
  0
ENDBLK
  5
31113
330
31111
100
AcDbEntity
  8
0
100
AcDbBlockEnd
  0
ENDSEC
  0
SECTION
  2
ENTITIES
  0
MTEXT
  5
177
330
A
100
AcDbEntity
  8
TEMPLATE
390
1D
100
AcDbMText
 10
39.60107227386538
 20
171.8658758157141
 30
0.0
 40
8.144205729166663
 41
0.0
 46
0.0
 71
     1
 72
     1
  1
品名
  7
ＭＳ ゴシック
 73
     1
 44
0.7828267384257843
  0
MTEXT
  5
178
330
A
100
AcDbEntity
  8
TEMPLATE
390
1D
100
AcDbMText
 10
39.60107227386538
 20
129.365875815714
 30
0.0
 40
8.144205729166663
 41
0.0
 46
0.0
 71
     1
 72
     1
  1
仕様
  7
ＭＳ ゴシック
 73
     1
 44
0.7828267384257843
  0
LINE
  5
179
330
A
100
AcDbEntity
  8
TEMPLATE
390
1D
100
AcDbLine
 10
1011.101072273624
 20
133.5733367532142
 30
0.0
 11
36.10107227362437
 21
133.5733367532142
 31
0.0
  0
LWPOLYLINE
  5
17A
330
A
100
AcDbEntity
  8
TEMPLATE
390
1D
100
AcDbPolyline
 90
        5
 70
   128
 43
0.0
 10
1011.101072273624
 20
1448.573336753213
 10
36.10107227362437
 20
1448.573336753213
 10
36.10107227362437
 20
48.57333675321413
 10
1011.101072273624
 20
48.57333675321413
 10
1011.101072273624
 20
1448.573336753213
  0
LINE
  5
17B
330
A
100
AcDbEntity
  8
TEMPLATE
390
1D
100
AcDbLine
 10
1011.101072273624
 20
176.0733367532141
 30
0.0
 11
36.10107227362437
 21
176.0733367532141
 31
0.0
  0
LINE
  5
17C
330
A
100
AcDbEntity
  8
TEMPLATE
390
1D
100
AcDbLine
 10
1011.101072273866
 20
91.07333675321412
 30
0.0
 11
634.601072273865
 21
91.07333675321412
 31
0.0
  0
MTEXT
  5
17E
330
A
100
AcDbEntity
  8
MODEL
390
1D
100
AcDbMText
 10
649.5367753999956
 20
76.11813951656006
 30
0.0
 40
12.21630859375
 41
0.0
 46
0.0
 71
     1
 72
     1
  1
大洋金物株式会社 ティーフォルム事業部
  7
ＭＳ ゴシック
 73
     1
 44
0.7828267384257843
  0
MTEXT
  5
180
330
A
100
AcDbEntity
  8
TEMPLATE
390
1D
100
AcDbMText
 10
915.601072273995
 20
115.0746453469641
 30
0.0
 40
12.21630859375
 41
0.0
 46
12.21630859375
 71
     1
 72
     1
  1
{1:5}
  7
ＭＳ ゴシック
 73
     1
 44
0.7828267384257843
1001
ACAD
1000
ACAD_MTEXT_DEFINED_HEIGHT_BEGIN
1070
    46
1040
12.21630859375
1000
ACAD_MTEXT_DEFINED_HEIGHT_END
  0
MTEXT
  5
181
330
A
100
AcDbEntity
  8
TEMPLATE
390
1D
100
AcDbMText
 10
889.101072273995
 20
129.365875815714
 30
0.0
 40
8.144205729166663
 41
0.0
 46
0.0
 71
     1
 72
     1
  1
縮尺
  7
ＭＳ ゴシック
 73
     1
 44
0.7828267384257843
  0
LINE
  5
182
330
A
100
AcDbEntity
  8
TEMPLATE
390
1D
100
AcDbLine
 10
885.601072273995
 20
91.07333675321412
 30
0.0
 11
885.601072273995
 21
133.5733367532142
 31
0.0
  0
MTEXT
  5
183
330
A
100
AcDbEntity
  8
TEMPLATE
390
1D
100
AcDbMText
 10
763.601072273995
 20
129.365875815714
 30
0.0
 40
8.144205729166663
 41
0.0
 46
0.0
 71
     1
 72
     1
  1
容量
  7
ＭＳ ゴシック
 73
     1
 44
0.7828267384257843
  0
LINE
  5
184
330
A
100
AcDbEntity
  8
TEMPLATE
390
1D
100
AcDbLine
 10
760.101072273995
 20
91.07333675321412
 30
0.0
 11
760.101072273995
 21
133.5733367532142
 31
0.0
  0
MTEXT
  5
185
330
A
100
AcDbEntity
  8
TEMPLATE
390
1D
100
AcDbMText
 10
638.101072273995
 20
171.8658758157141
 30
0.0
 40
8.144205729166663
 41
0.0
 46
0.0
 71
     1
 72
     1
  1
品番
  7
ＭＳ ゴシック
 73
     1
 44
0.7828267384257843
  0
MTEXT
  5
186
330
A
100
AcDbEntity
  8
TEMPLATE
390
1D
100
AcDbMText
 10
638.101072273995
 20
129.365875815714
 30
0.0
 40
8.144205729166663
 41
0.0
 46
0.0
 71
     1
 72
     1
  1
重量
  7
ＭＳ ゴシック
 73
     1
 44
0.7828267384257843
  0
LINE
  5
188
330
A
100
AcDbEntity
  8
TEMPLATE
390
1D
100
AcDbLine
 10
634.601072273995
 20
48.57333675321413
 30
0.0
 11
634.601072273995
 21
176.0733367532141
 31
0.0
  0
MTEXT
  5
189
330
A
100
AcDbEntity
  8
MODEL
390
1D
100
AcDbMText
 10
66.10107227386537
 20
157.5746453469641
 30
0.0
 40
12.21630859375
 41
0.0
 46
13.76777978515625
 71
     1
 72
     1
  1
{手洗器　-CLOU, First-}
  7
ＭＳ ゴシック
 73
     1
 44
0.7828267384257843
1001
ACAD
1000
ACAD_MTEXT_DEFINED_HEIGHT_BEGIN
1070
    46
1040
13.76777978515625
1000
ACAD_MTEXT_DEFINED_HEIGHT_END
  0
INSERT
  5
6B5
330
A
100
AcDbEntity
  8
TEMPLATE
100
AcDbBlockReference
  2
名称未設定-1
 10
935.3753740442249
 20
12.97338287832691
 30
0.0
 41
0.3809999999999999
 42
0.3809999999999999
 43
0.3809999999999999
  0
INSERT
  5
68C
330
A
100
AcDbEntity
  8
TEMPLATE
100
AcDbBlockReference
  2
block 2
 10
919.2743017702577
 20
8.373076514336368
 30
0.0
 41
0.3809999999999999
 42
0.3809999999999999
 43
0.3809999999999999
  0
LWPOLYLINE
  5
D69
330
A
100
AcDbEntity
  8
BORDER
 48
0.05
100
AcDbPolyline
 90
        4
 70
     1
 43
0.0
 10
0.0
 20
0.0
 10
0.0
 20
1485.0
 10
1050.0
 20
1485.0
 10
1050.0
 20
0.0
  0
INSERT
  5
1044
330
A
100
AcDbEntity
  8
TEMPLATE
100
AcDbBlockReference
  2
block 2
 10
2028.294928592415
 20
13.39523394873888
 30
0.0
 41
0.3809999999999999
 42
0.3809999999999999
 43
0.3809999999999999
  0
SPLINE
  5
1047
330
A
100
AcDbEntity
  8
MODEL
100
AcDbSpline
210
0.0
220
0.0
230
1.0
 70
     8
 71
     3
 72
     9
 73
     5
 74
     0
 42
0.000000001
 43
0.00000001
 40
0.0
 40
0.0
 40
0.0
 40
0.0
 40
0.4623865990412394
 40
1.0
 40
1.0
 40
1.0
 40
1.0
 10
213.50448037468
 20
905.0889244680229
 30
0.0
 10
212.0739924968379
 20
905.487095959827
 30
0.0
 10
208.9802871844308
 20
906.348218433156
 30
0.0
 10
205.8546081707696
 20
907.320449497402
 30
0.0
 10
204.1742012459376
 20
907.8431339463691
 30
0.0
  0
SPLINE
  5
1048
330
A
100
AcDbEntity
  8
MODEL
100
AcDbSpline
210
0.0
220
0.0
230
1.0
 70
     8
 71
     3
 72
    11
 73
     7
 74
     0
 42
0.000000001
 43
0.00000001
 40
0.0
 40
0.0
 40
0.0
 40
0.0
 40
0.2403935951801969
 40
0.5473044530813107
 40
0.7986095929623095
 40
1.0
 40
1.0
 40
1.0
 40
1.0
 10
144.5526215627265
 20
954.9714863427141
 30
0.0
 10
144.1228664331443
 20
955.72419563021
 30
0.0
 10
143.144442295104
 20
957.437889976406
 30
0.0
 10
141.8400582278641
 20
959.9804558893079
 30
0.0
 10
140.6602266634304
 20
962.4090492924711
 30
0.0
 10
140.0539533139904
 20
963.7517356281539
 30
0.0
 10
139.7842408384618
 20
964.349055724427
 30
0.0
  0
SPLINE
  5
1049
330
A
100
AcDbEntity
  8
MODEL
100
AcDbSpline
210
0.0
220
0.0
230
1.0
 70
     8
 71
     3
 72
    11
 73
     7
 74
     0
 42
0.000000001
 43
0.00000001
 40
0.0
 40
0.0
 40
0.0
 40
0.0
 40
0.2046681533709009
 40
0.4600620889843896
 40
0.8414167343692265
 40
1.0
 40
1.0
 40
1.0
 40
1.0
 10
139.7842408385272
 20
1047.079118466139
 30
0.0
 10
140.0538656269578
 20
1047.676495362321
 30
0.0
 10
140.6599401010112
 20
1049.019305458773
 30
0.0
 10
141.9477467244228
 20
1051.664537151425
 30
0.0
 10
143.2249893273779
 20
1054.162843421819
 30
0.0
 10
144.190579001764
 20
1055.816642490715
 30
0.0
 10
144.4741789503837
 20
1056.302374001119
 30
0.0
  0
SPLINE
  5
104A
330
A
100
AcDbEntity
  8
MODEL
100
AcDbSpline
210
0.0
220
0.0
230
1.0
 70
     8
 71
     3
 72
     9
 73
     5
 74
     0
 42
0.000000001
 43
0.00000001
 40
0.0
 40
0.0
 40
0.0
 40
0.0
 40
0.2565059861568779
 40
0.9999999999999999
 40
0.9999999999999999
 40
0.9999999999999999
 40
0.9999999999999999
 10
207.7065187041094
 20
1104.665424245995
 30
0.0
 10
208.2042906704387
 20
1104.818619578943
 30
0.0
 10
210.144876829037
 20
1105.415858400705
 30
0.0
 10
212.0655156886
 20
1105.944240048947
 30
0.0
 10
213.4934991834393
 20
1106.337088641439
 30
0.0
  0
SPLINE
  5
104B
330
A
100
AcDbEntity
  8
MODEL
100
AcDbSpline
210
0.0
220
0.0
230
1.0
 70
    11
 71
     3
 72
    70
 73
    66
 74
     0
 42
0.000000001
 43
0.00000001
 40
0.0
 40
0.0
 40
0.0
 40
0.0
 40
0.0062500000000001
 40
0.03125
 40
0.07421875
 40
0.0859375
 40
0.08984375
 40
0.1015625
 40
0.109375
 40
0.15625
 40
0.17578125
 40
0.197265625
 40
0.201171875
 40
0.21875
 40
0.234375
 40
0.2421875
 40
0.25
 40
0.2578125
 40
0.265625
 40
0.2734375
 40
0.27734375
 40
0.3125
 40
0.34375
 40
0.359375
 40
0.390625
 40
0.3984375
 40
0.41015625
 40
0.4140625
 40
0.42578125
 40
0.453125
 40
0.484375
 40
0.4921875
 40
0.5
 40
0.5078125
 40
0.515625
 40
0.546875
 40
0.57421875
 40
0.5859375
 40
0.58984375
 40
0.6015625
 40
0.609375
 40
0.640625
 40
0.65625
 40
0.6875
 40
0.71484375
 40
0.71875
 40
0.7265625
 40
0.734375
 40
0.7421875
 40
0.75
 40
0.7578125
 40
0.765625
 40
0.78125
 40
0.796875
 40
0.8037109375
 40
0.828125
 40
0.84375
 40
0.890625
 40
0.8984375
 40
0.91015625
 40
0.9140625
 40
0.92578125
 40
0.96875
 40
0.99375
 40
1.0
 40
1.0
 40
1.0
 40
1.0
 10
131.0214208713965
 20
1005.714087095211
 30
0.0
 10
131.0214208713965
 20
1004.451035235333
 30
0.0
 10
131.1373235097867
 20
998.1559285539563
 30
0.0
 10
132.7736752857686
 20
983.4587836708627
 30
0.0
 10
137.5665352253795
 20
968.405934417043
 30
0.0
 10
142.8550628001117
 20
957.948686782685
 30
0.0
 10
145.5617098342059
 20
953.1592756866589
 30
0.0
 10
148.0872803233519
 20
949.134448500253
 30
0.0
 10
155.98482663202
 20
938.0463643477519
 30
0.0
 10
167.135188022346
 20
926.6809646624531
 30
0.0
 10
184.3787393128091
 20
915.6467090064941
 30
0.0
 10
194.6509658099617
 20
910.9836939106751
 30
0.0
 10
205.5609609522667
 20
907.347879577695
 30
0.0
 10
215.4829604089987
 20
904.4032443316621
 30
0.0
 10
227.6313379958024
 20
901.600522411464
 30
0.0
 10
237.7321447273584
 20
899.7742222571951
 30
0.0
 10
245.967161646136
 20
898.575980128659
 30
0.0
 10
254.6277584919094
 20
897.6233856940789
 30
0.0
 10
263.4801033215786
 20
896.9906036602201
 30
0.0
 10
271.0993823039112
 20
896.726930861008
 30
0.0
 10
289.7185003170757
 20
896.6642847646481
 30
0.0
 10
319.1839982658362
 20
898.163128350717
 30
0.0
 10
355.436636828797
 20
903.9041071448091
 30
0.0
 10
390.0203825900185
 20
912.6976093150199
 30
0.0
 10
413.6380644827382
 20
921.382908157314
 30
0.0
 10
433.4016580789698
 20
931.300385821379
 30
0.0
 10
441.9144631144895
 20
936.272760036059
 30
0.0
 10
451.1653992248334
 20
942.3819106494079
 30
0.0
 10
464.5742713629093
 20
952.433009109805
 30
0.0
 10
481.1928607105015
 20
970.2206384855051
 30
0.0
 10
488.8595111453847
 20
987.7583780287544
 30
0.0
 10
490.8112642480642
 20
999.8281217807128
 30
0.0
 10
491.1365564356179
 20
1005.714087094174
 30
0.0
 10
490.8112642516148
 20
1011.600052408584
 30
0.0
 10
488.8595111249538
 20
1023.669796166277
 30
0.0
 10
481.1928606869055
 20
1041.207535709019
 30
0.0
 10
464.5742701181603
 20
1058.995165299305
 30
0.0
 10
451.1654015845502
 20
1069.046263126421
 30
0.0
 10
441.9144608334041
 20
1075.155414555139
 30
0.0
 10
433.4016679141073
 20
1080.127786641067
 30
0.0
 10
413.6380393298546
 20
1090.04527045224
 30
0.0
 10
390.0202997982356
 20
1098.730579409833
 30
0.0
 10
355.4367544013016
 20
1107.524046419433
 30
0.0
 10
322.6349351849508
 20
1112.723862976786
 30
0.0
 10
296.277789616573
 20
1114.39189369945
 30
0.0
 10
280.4301006125402
 20
1114.705765574171
 30
0.0
 10
272.6225309745146
 20
1114.750556596799
 30
0.0
 10
263.4804888204685
 20
1114.439382929545
 30
0.0
 10
254.6275501297291
 20
1113.803809869384
 30
0.0
 10
245.9669209434664
 20
1112.851000027459
 30
0.0
 10
237.7320919133576
 20
1111.653641485752
 30
0.0
 10
227.6313742836296
 20
1109.828015939734
 30
0.0
 10
216.0612152370245
 20
1107.158117458633
 30
0.0
 10
205.8096786801266
 20
1104.162365520567
 30
0.0
 10
193.8871134532687
 20
1100.208826923175
 30
0.0
 10
183.3663982400117
 20
1095.200454135284
 30
0.0
 10
166.5488950456361
 20
1084.148671692722
 30
0.0
 10
155.9848266320273
 20
1073.38180984269
 30
0.0
 10
148.0872803233519
 20
1062.293725690165
 30
0.0
 10
145.5617098342059
 20
1058.268898503761
 30
0.0
 10
142.8550628001117
 20
1053.479487407735
 30
0.0
 10
137.5665352253795
 20
1043.022239773379
 30
0.0
 10
132.7736752857686
 20
1027.969390519554
 30
0.0
 10
131.1373235097867
 20
1013.272245636462
 30
0.0
 10
131.0214208713965
 20
1006.977138955085
 30
0.0
 10
131.0214208713965
 20
1005.714087095211
 30
0.0
  0
DIMENSION
  5
104D
330
A
100
AcDbEntity
  8
DIM
  6
Continuous
100
AcDbDimension
  2
*D24
 10
491.0214208713966
 20
1261.376692689574
 30
0.0
 11
311.0214208713965
 21
1261.376692689574
 31
0.0
 70
   160
 71
     5
 42
360.0
 73
     0
 74
     0
 75
     0
  3
tfrom線あり
100
AcDbAlignedDimension
 13
131.0214208713965
 23
1021.7252880986
 33
0.0
 14
491.0214208713965
 24
1008.559853191438
 34
0.0
100
AcDbRotatedDimension
  0
DIMENSION
  5
104E
330
A
100
AcDbEntity
  8
DIM
  6
Continuous
100
AcDbDimension
  2
*D25
 10
548.7684258123604
 20
896.6994796941101
 30
0.0
 11
548.7684258123604
 21
1005.69947969411
 31
0.0
 70
   160
 71
     5
 42
218.0
 73
     0
 74
     0
 75
     0
  3
tfrom線あり
100
AcDbAlignedDimension
 13
293.8909112893677
 23
1114.69947969411
 33
0.0
 14
291.2578243079353
 24
896.6994796941101
 34
0.0
 50
90.0
100
AcDbRotatedDimension
  0
ARC
  5
1051
330
A
100
AcDbEntity
  8
MODEL
100
AcDbCircle
 10
263.2764033607955
 20
1005.71408709521
 30
0.0
 40
8.000000000000114
100
AcDbArc
 50
270.0000000007817
 51
90.0
  0
LINE
  5
1052
330
A
100
AcDbEntity
  8
MODEL
100
AcDbLine
 10
263.2764033609042
 20
997.7140870952101
 30
0.0
 11
227.2764033604894
 21
997.7140870952101
 31
0.0
  0
ARC
  5
1053
330
A
100
AcDbEntity
  8
MODEL
100
AcDbCircle
 10
227.2764033607946
 20
1005.71408709521
 30
0.0
 40
8.000000000000114
100
AcDbArc
 50
90.0
 51
269.9999999978178
  0
LINE
  5
1054
330
A
100
AcDbEntity
  8
MODEL
100
AcDbLine
 10
227.2764033607946
 20
1013.71408709521
 30
0.0
 11
263.2764033607955
 21
1013.71408709521
 31
0.0
  0
CIRCLE
  5
1055
330
A
100
AcDbEntity
  8
HIDDEN
  6
HIDDEN
 48
0.05
370
     0
100
AcDbCircle
 10
245.2764033607955
 20
1005.71408709521
 30
0.0
 40
26.5
  0
DIMENSION
  5
1058
330
A
100
AcDbEntity
  8
DIM
  6
Continuous
100
AcDbDimension
  2
*D30
 10
85.71359572489675
 20
910.6994796941101
 30
0.0
 11
85.71359572489678
 21
1005.69947969411
 31
0.0
 70
   160
 71
     5
 42
190.0
 73
     0
 74
     0
 75
     0
  3
tfrom線あり
100
AcDbAlignedDimension
 13
192.2804282394222
 23
1100.69947969411
 33
0.0
 14
192.2804282394222
 24
910.6994796941101
 34
0.0
 50
89.99999999999999
100
AcDbRotatedDimension
  0
ELLIPSE
  5
10A8
330
A
100
AcDbEntity
  8
HIDDEN
  6
HIDDEN
 48
0.05
370
     0
100
AcDbEllipse
 10
245.2764033607955
 20
1005.71408709521
 30
0.0
 11
60.0
 21
0.0
 31
0.0
210
0.0
220
0.0
230
1.0
 40
0.6249999999999906
 41
0.0
 42
6.283185307179586
  0
LINE
  5
10AA
330
A
100
AcDbEntity
  8
HIDDEN
  6
HIDDEN
 48
0.05
370
     0
100
AcDbLine
 10
285.2764033607955
 20
1033.664936813959
 30
0.0
 11
285.2764033607955
 21
1053.21408709521
 31
0.0
  0
LINE
  5
10AB
330
A
100
AcDbEntity
  8
HIDDEN
  6
HIDDEN
 48
0.05
370
     0
100
AcDbLine
 10
205.2764033607955
 20
1046.714087095206
 30
0.0
 11
205.2764033607955
 21
1033.664936813959
 31
0.0
  0
LINE
  5
10AC
330
A
100
AcDbEntity
  8
HIDDEN
  6
HIDDEN
 48
0.05
370
     0
100
AcDbLine
 10
208.2764033607955
 20
1046.714087095206
 30
0.0
 11
205.2764033607955
 21
1046.714087095206
 31
0.0
  0
LINE
  5
10AD
330
A
100
AcDbEntity
  8
HIDDEN
  6
HIDDEN
 48
0.05
370
     0
100
AcDbLine
 10
285.2764033607955
 20
1053.21408709521
 30
0.0
 11
285.2764033607955
 21
1117.133323554688
 31
0.0
  0
LINE
  5
10AE
330
A
100
AcDbEntity
  8
HIDDEN
  6
HIDDEN
 48
0.05
370
     0
100
AcDbLine
 10
282.2764033607882
 20
1053.21408709521
 30
0.0
 11
282.2764033607882
 21
1117.21408709521
 31
0.0
  0
LINE
  5
10B1
330
A
100
AcDbEntity
  8
HIDDEN
  6
HIDDEN
 48
0.05
370
     0
100
AcDbLine
 10
208.2764033607955
 20
1046.714087095206
 30
0.0
 11
208.2764033607955
 21
1107.59171146697
 31
0.0
  0
LINE
  5
10B2
330
A
100
AcDbEntity
  8
HIDDEN
  6
HIDDEN
 48
0.05
370
     0
100
AcDbLine
 10
205.2764033607955
 20
1046.714087095206
 30
0.0
 11
205.2764033607955
 21
1106.714087095206
 31
0.0
  0
CIRCLE
  5
10B3
330
A
100
AcDbEntity
  8
MODEL
100
AcDbCircle
 10
245.2764033607955
 20
1145.214087095213
 30
0.0
 40
17.49999999999943
  0
LINE
  5
10B4
330
A
100
AcDbEntity
  8
MODEL
100
AcDbLine
 10
415.2764033607955
 20
1176.714087095206
 30
0.0
 11
205.2764033607955
 21
1176.714087095206
 31
0.0
  0
LINE
  5
10B5
330
A
100
AcDbEntity
  8
MODEL
100
AcDbLine
 10
415.2764033607955
 20
1094.214087095206
 30
0.0
 11
415.2764033607955
 21
1176.714087095206
 31
0.0
  0
ARC
  5
10B6
330
A
100
AcDbEntity
  8
MODEL
100
AcDbCircle
 10
276.9684531292287
 20
689.864324111368
 30
0.0
 40
427.349762983838
100
AcDbArc
 50
71.11673283752611
 51
90.0
  0
ARC
  5
10B7
330
A
100
AcDbEntity
  8
MODEL
100
AcDbCircle
 10
276.9684531292287
 20
867.2140870952101
 30
0.0
 40
250.0
100
AcDbArc
 50
90.0
 51
106.6645713738188
  0
LINE
  5
10B8
330
A
100
AcDbEntity
  8
MODEL
100
AcDbLine
 10
205.2764033607955
 20
1176.714087095206
 30
0.0
 11
205.2764033607955
 21
1106.714087095206
 31
0.0
  0
LINE
  5
10E9
330
A
100
AcDbEntity
  8
DIM
100
AcDbLine
 10
228.6777120210886
 20
1150.75786250635
 30
0.0
 11
183.1682330071969
 21
1173.366121975189
 31
0.0
  0
MTEXT
  5
10EA
330
A
100
AcDbEntity
  8
DIM
390
1D
100
AcDbMText
 10
149.1861917943477
 20
1182.254795374869
 30
0.0
 40
12.0
 41
949.7161250932045
 46
13.944
 71
     1
 72
     1
  1
{φ32}
  7
ＭＳ ゴシック
 73
     1
 44
0.9822934569727008
1001
ACAD
1000
ACAD_MTEXT_DEFINED_HEIGHT_BEGIN
1070
    46
1040
13.944
1000
ACAD_MTEXT_DEFINED_HEIGHT_END
  0
DIMENSION
  5
10EB
330
A
100
AcDbEntity
  8
DIM
100
AcDbDimension
  2
*D36
 10
415.2764033607953
 20
1218.31259349144
 30
0.0
 11
310.2764033607953
 21
1218.31259349144
 31
0.0
 70
   160
 71
     5
 42
210.0
 73
     0
 74
     0
 75
     0
  3
tfrom線あり
100
AcDbAlignedDimension
 13
205.2764033607953
 23
1176.714087095206
 33
0.0
 14
415.2764033607953
 24
1176.714087095206
 34
0.0
100
AcDbRotatedDimension
  0
DIMENSION
  5
10ED
330
A
100
AcDbEntity
  8
DIM
  6
Continuous
100
AcDbDimension
  2
*D38
 10
441.0281257070251
 20
807.8012318458946
 30
0.0
 11
296.0281257070251
 21
823.8012318458946
 31
0.0
 70
    32
 71
     5
 42
290.0
 73
     0
 74
     0
 75
     0
  3
tfrom線あり
100
AcDbAlignedDimension
 13
151.0281257070251
 23
998.7013504512
 33
0.0
 14
441.0281257070251
 24
935.3054294638671
 34
0.0
 50
-0.000000000000014
100
AcDbRotatedDimension
  0
SPLINE
  5
267C4
330
A
100
AcDbEntity
  8
MODEL
100
AcDbSpline
210
0.0
220
0.0
230
1.0
 70
     8
 71
     3
 72
    14
 73
    10
 74
     0
 42
0.000000001
 43
0.0000000001
 40
0.0
 40
0.0
 40
0.0
 40
0.0
 40
1.0
 40
1.0
 40
1.0
 40
2.0
 40
2.0
 40
2.0
 40
3.0
 40
3.0
 40
3.0
 40
3.0
 10
130.7114045096928
 20
599.7956952928394
 30
0.0
 10
130.7114045096928
 20
599.7956952928394
 30
0.0
 10
130.6054187560162
 20
600.5367338957805
 30
0.0
 10
130.6054187560162
 20
600.5367338957805
 30
0.0
 10
130.6441940317513
 20
602.0463846310746
 30
0.0
 10
130.3193433883694
 20
603.6732228663687
 30
0.0
 10
130.3934472486635
 20
605.1949370207805
 30
0.0
 10
130.3934472486635
 20
605.1949370207805
 30
0.0
 10
130.2883231677811
 20
605.9359756237217
 30
0.0
 10
130.2883231677811
 20
605.9359756237217
 30
0.0
  0
POLYLINE
  5
267C5
330
A
100
AcDbEntity
  8
MODEL
100
AcDb2dPolyline
 66
     1
 10
0.0
 20
0.0
 30
0.0
  0
VERTEX
  5
267C6
330
267C5
100
AcDbEntity
  8
MODEL
100
AcDbVertex
100
AcDb2dVertex
 10
490.2883231677811
 20
605.9359756237217
 30
0.0
  0
VERTEX
  5
267C7
330
267C5
100
AcDbEntity
  8
MODEL
100
AcDbVertex
100
AcDb2dVertex
 10
490.2883231677811
 20
593.9725105501923
 30
0.0
  0
SEQEND
  5
267C8
330
267C5
100
AcDbEntity
  8
MODEL
  0
SPLINE
  5
267C9
330
A
100
AcDbEntity
  8
MODEL
100
AcDbSpline
210
0.0
220
0.0
230
1.0
 70
     8
 71
     3
 72
    14
 73
    10
 74
     0
 42
0.000000001
 43
0.0000000001
 40
0.0
 40
0.0
 40
0.0
 40
0.0
 40
1.0
 40
1.0
 40
1.0
 40
2.0
 40
2.0
 40
2.0
 40
3.0
 40
3.0
 40
3.0
 40
3.0
 10
180.2644835538104
 20
515.9359756237218
 30
0.0
 10
180.2644835538104
 20
515.9359756237218
 30
0.0
 10
178.9935161824869
 20
516.8889857340159
 30
0.0
 10
178.9935161824869
 20
516.8889857340159
 30
0.0
 10
152.1420685721928
 20
535.4890546678395
 30
0.0
 10
134.2158277633694
 20
565.6010721310747
 30
0.0
 10
130.9233760170455
 20
598.2067706604864
 30
0.0
 10
130.9233760170455
 20
598.2067706604864
 30
0.0
 10
130.7114045096928
 20
599.7956952928394
 30
0.0
 10
130.7114045096928
 20
599.7956952928394
 30
0.0
  0
SPLINE
  5
267CA
330
A
100
AcDbEntity
  8
MODEL
100
AcDbSpline
210
0.0
220
0.0
230
1.0
 70
     8
 71
     3
 72
    38
 73
    34
 74
     0
 42
0.000000001
 43
0.0000000001
 40
0.0
 40
0.0
 40
0.0
 40
0.0
 40
1.0
 40
1.0
 40
1.0
 40
2.0
 40
2.0
 40
2.0
 40
3.0
 40
3.0
 40
3.0
 40
4.0
 40
4.0
 40
4.0
 40
5.0
 40
5.0
 40
5.0
 40
6.0
 40
6.0
 40
6.0
 40
7.0
 40
7.0
 40
7.0
 40
8.0
 40
8.0
 40
8.0
 40
9.0
 40
9.0
 40
9.0
 40
10.0
 40
10.0
 40
10.0
 40
11.0
 40
11.0
 40
11.0
 40
11.0
 10
490.2883231677811
 20
593.9725105501923
 30
0.0
 10
490.2883231677811
 20
593.9725105501923
 30
0.0
 10
488.6993985354279
 20
593.7605390428394
 30
0.0
 10
488.6993985354279
 20
593.7605390428394
 30
0.0
 10
488.6993985354279
 20
593.7605390428394
 30
0.0
 10
486.4762827266045
 20
593.443443454604
 30
0.0
 10
486.4762827266045
 20
593.443443454604
 30
0.0
 10
472.8118755574869
 20
591.8424554031335
 30
0.0
 10
459.0457909986631
 20
588.0855620207805
 30
0.0
 10
446.2404716052811
 20
583.0654563222511
 30
0.0
 10
446.2404716052811
 20
583.0654563222511
 30
0.0
 10
444.7583943993986
 20
582.4312651457805
 30
0.0
 10
444.7583943993986
 20
582.4312651457805
 30
0.0
 10
429.3120478920455
 20
576.3306217634276
 30
0.0
 10
417.6699867707221
 20
568.2515776457806
 30
0.0
 10
403.8875304288104
 20
559.348774336957
 30
0.0
 10
403.8875304288104
 20
559.348774336957
 30
0.0
 10
403.2524775795455
 20
558.9248313222512
 30
0.0
 10
403.2524775795455
 20
558.9248313222512
 30
0.0
 10
403.2524775795455
 20
558.9248313222512
 30
0.0
 10
402.5114389766045
 20
558.5008883075453
 30
0.0
 10
402.5114389766045
 20
558.5008883075453
 30
0.0
 10
402.5114389766045
 20
558.5008883075453
 30
0.0
 10
401.8763861273396
 20
558.1837927193101
 30
0.0
 10
401.8763861273396
 20
558.1837927193101
 30
0.0
 10
374.7190446751338
 20
541.3656631237218
 30
0.0
 10
344.9697914582221
 20
527.5220280134276
 30
0.0
 10
314.6294307045455
 20
517.4197761751924
 30
0.0
 10
314.6294307045455
 20
517.4197761751924
 30
0.0
 10
313.2524775795455
 20
516.9958331604865
 30
0.0
 10
313.2524775795455
 20
516.9958331604865
 30
0.0
 10
313.2524775795455
 20
516.9958331604865
 30
0.0
 10
310.2883231677811
 20
515.9359756237218
 30
0.0
 10
310.2883231677811
 20
515.9359756237218
 30
0.0
  0
SPLINE
  5
267CB
330
A
100
AcDbEntity
  8
MODEL
100
AcDbSpline
210
0.0
220
0.0
230
1.0
 70
    24
 71
     3
 72
    14
 73
    10
 74
     0
 42
0.000000001
 43
0.0000000001
 40
0.0
 40
0.0
 40
0.0
 40
0.0
 40
1.0
 40
1.0
 40
1.0
 40
2.0
 40
2.0
 40
2.0
 40
3.0
 40
3.0
 40
3.0
 40
3.0
 10
130.2883231677811
 20
605.9359756237217
 30
0.0
 10
130.2883231677811
 20
605.9359756237217
 30
0.0
 10
130.3934472486635
 20
605.9359756237217
 30
0.0
 10
130.3934472486635
 20
605.9359756237217
 30
0.0
 10
250.3236517523396
 20
605.9359756237217
 30
0.0
 10
370.2529945832221
 20
605.9359756237217
 30
0.0
 10
490.1823374141045
 20
605.9359756237217
 30
0.0
 10
490.1823374141045
 20
605.9359756237217
 30
0.0
 10
490.2883231677811
 20
605.9359756237217
 30
0.0
 10
490.2883231677811
 20
605.9359756237217
 30
0.0
  0
SPLINE
  5
267CC
330
A
100
AcDbEntity
  8
MODEL
100
AcDbSpline
210
0.0
220
0.0
230
1.0
 70
     8
 71
     3
 72
   116
 73
   112
 74
     0
 42
0.000000001
 43
0.0000000001
 40
0.0
 40
0.0
 40
0.0
 40
0.0
 40
1.0
 40
1.0
 40
1.0
 40
2.0
 40
2.0
 40
2.0
 40
3.0
 40
3.0
 40
3.0
 40
4.0
 40
4.0
 40
4.0
 40
5.0
 40
5.0
 40
5.0
 40
6.0
 40
6.0
 40
6.0
 40
7.0
 40
7.0
 40
7.0
 40
8.0
 40
8.0
 40
8.0
 40
9.0
 40
9.0
 40
9.0
 40
10.0
 40
10.0
 40
10.0
 40
11.0
 40
11.0
 40
11.0
 40
12.0
 40
12.0
 40
12.0
 40
13.0
 40
13.0
 40
13.0
 40
14.0
 40
14.0
 40
14.0
 40
15.0
 40
15.0
 40
15.0
 40
16.0
 40
16.0
 40
16.0
 40
17.0
 40
17.0
 40
17.0
 40
18.0
 40
18.0
 40
18.0
 40
19.0
 40
19.0
 40
19.0
 40
20.0
 40
20.0
 40
20.0
 40
21.0
 40
21.0
 40
21.0
 40
22.0
 40
22.0
 40
22.0
 40
23.0
 40
23.0
 40
23.0
 40
24.0
 40
24.0
 40
24.0
 40
25.0
 40
25.0
 40
25.0
 40
26.0
 40
26.0
 40
26.0
 40
27.0
 40
27.0
 40
27.0
 40
28.0
 40
28.0
 40
28.0
 40
29.0
 40
29.0
 40
29.0
 40
30.0
 40
30.0
 40
30.0
 40
31.0
 40
31.0
 40
31.0
 40
32.0
 40
32.0
 40
32.0
 40
33.0
 40
33.0
 40
33.0
 40
34.0
 40
34.0
 40
34.0
 40
35.0
 40
35.0
 40
35.0
 40
36.0
 40
36.0
 40
36.0
 40
37.0
 40
37.0
 40
37.0
 40
37.0
 10
341.3111287743986
 20
597.3606079766629
 30
0.0
 10
341.3111287743986
 20
597.3606079766629
 30
0.0
 10
343.0051774876338
 20
597.2537605501923
 30
0.0
 10
343.0051774876338
 20
597.2537605501923
 30
0.0
 10
343.0051774876338
 20
597.2537605501923
 30
0.0
 10
346.6052464214572
 20
597.2537605501923
 30
0.0
 10
346.6052464214572
 20
597.2537605501923
 30
0.0
 10
376.5966296935162
 20
596.62129271931
 30
0.0
 10
406.5492376898396
 20
595.8905941898981
 30
0.0
 10
436.5001223405752
 20
595.347740329604
 30
0.0
 10
436.5001223405752
 20
595.347740329604
 30
0.0
 10
437.2411609435162
 20
595.2426162487217
 30
0.0
 10
437.2411609435162
 20
595.2426162487217
 30
0.0
 10
437.2411609435162
 20
595.2426162487217
 30
0.0
 10
438.6172523957221
 20
595.2426162487217
 30
0.0
 10
438.6172523957221
 20
595.2426162487217
 30
0.0
 10
443.3590377817513
 20
595.1547256237217
 30
0.0
 10
448.0818663663104
 20
595.0444315060746
 30
0.0
 10
452.8055566236631
 20
594.9255206604864
 30
0.0
 10
452.8055566236631
 20
594.9255206604864
 30
0.0
 10
453.7585667339572
 20
594.9255206604864
 30
0.0
 10
453.7585667339572
 20
594.9255206604864
 30
0.0
 10
455.4491687560162
 20
594.8686502560746
 30
0.0
 10
456.8941940317513
 20
594.7704195575452
 30
0.0
 10
458.6287413663104
 20
594.8186732340158
 30
0.0
 10
458.6287413663104
 20
594.8186732340158
 30
0.0
 10
459.1586701346928
 20
594.8186732340158
 30
0.0
 10
459.1586701346928
 20
594.8186732340158
 30
0.0
 10
460.7010644361631
 20
594.6549554031335
 30
0.0
 10
462.0401039582221
 20
594.7273359178394
 30
0.0
 10
463.6057634251338
 20
594.7135491531335
 30
0.0
 10
463.6057634251338
 20
594.7135491531335
 30
0.0
 10
464.1348305207221
 20
594.7135491531335
 30
0.0
 10
464.1348305207221
 20
594.7135491531335
 30
0.0
 10
464.1348305207221
 20
594.7135491531335
 30
0.0
 10
464.4527877817513
 20
594.6067017266629
 30
0.0
 10
464.4527877817513
 20
594.6067017266629
 30
0.0
 10
464.4527877817513
 20
594.6067017266629
 30
0.0
 10
465.7228934802811
 20
594.6067017266629
 30
0.0
 10
465.7228934802811
 20
594.6067017266629
 30
0.0
 10
467.1015699508689
 20
594.6618487854864
 30
0.0
 10
468.1166205023396
 20
594.5481079766629
 30
0.0
 10
469.4289481677811
 20
594.5015776457805
 30
0.0
 10
469.4289481677811
 20
594.5015776457805
 30
0.0
 10
470.0640010170455
 20
594.5015776457805
 30
0.0
 10
470.0640010170455
 20
594.5015776457805
 30
0.0
 10
470.5232726163104
 20
594.5015776457805
 30
0.0
 10
470.9816825427811
 20
594.5015776457805
 30
0.0
 10
471.4409541420455
 20
594.5015776457805
 30
0.0
 10
471.4409541420455
 20
594.5015776457805
 30
0.0
 10
471.9700212376338
 20
594.5015776457805
 30
0.0
 10
471.9700212376338
 20
594.5015776457805
 30
0.0
 10
473.0255704104279
 20
594.5618947413687
 30
0.0
 10
472.4163677449869
 20
594.3499232340158
 30
0.0
 10
473.2409886089572
 20
594.3964535648981
 30
0.0
 10
473.2409886089572
 20
594.3964535648981
 30
0.0
 10
474.5110943074869
 20
594.3964535648981
 30
0.0
 10
474.5110943074869
 20
594.3964535648981
 30
0.0
 10
474.8997087376338
 20
594.3964535648981
 30
0.0
 10
475.2883231677811
 20
594.3964535648981
 30
0.0
 10
475.6760759251338
 20
594.3964535648981
 30
0.0
 10
475.6760759251338
 20
594.3964535648981
 30
0.0
 10
476.1000189398396
 20
594.3964535648981
 30
0.0
 10
476.1000189398396
 20
594.3964535648981
 30
0.0
 10
477.0702625060162
 20
594.4498772781335
 30
0.0
 10
476.3964343810162
 20
594.2430758075452
 30
0.0
 10
477.2641388846928
 20
594.2896061384275
 30
0.0
 10
477.2641388846928
 20
594.2896061384275
 30
0.0
 10
477.7940676530752
 20
594.2896061384275
 30
0.0
 10
477.7940676530752
 20
594.2896061384275
 30
0.0
 10
478.7117491788104
 20
594.2896061384275
 30
0.0
 10
479.6294307045455
 20
594.2896061384275
 30
0.0
 10
480.5471122302811
 20
594.2896061384275
 30
0.0
 10
480.5471122302811
 20
594.2896061384275
 30
0.0
 10
480.6522363111631
 20
594.1844820575452
 30
0.0
 10
480.6522363111631
 20
594.1844820575452
 30
0.0
 10
480.6522363111631
 20
594.1844820575452
 30
0.0
 10
481.5001223405752
 20
594.1844820575452
 30
0.0
 10
481.5001223405752
 20
594.1844820575452
 30
0.0
 10
482.2058323589572
 20
594.1844820575452
 30
0.0
 10
482.9115423773396
 20
594.1844820575452
 30
0.0
 10
483.6172523957221
 20
594.1844820575452
 30
0.0
 10
483.6172523957221
 20
594.1844820575452
 30
0.0
 10
484.3582909986631
 20
594.1844820575452
 30
0.0
 10
484.3582909986631
 20
594.1844820575452
 30
0.0
 10
484.3582909986631
 20
594.1844820575452
 30
0.0
 10
484.4642767523396
 20
594.0776346310746
 30
0.0
 10
484.4642767523396
 20
594.0776346310746
 30
0.0
 10
484.4642767523396
 20
594.0776346310746
 30
0.0
 10
484.9942055207221
 20
594.0776346310746
 30
0.0
 10
484.9942055207221
 20
594.0776346310746
 30
0.0
 10
485.2053153552811
 20
594.0776346310746
 30
0.0
 10
485.4172868626338
 20
594.0776346310746
 30
0.0
 10
485.6292583699869
 20
594.0776346310746
 30
0.0
 10
485.6292583699869
 20
594.0776346310746
 30
0.0
 10
486.1583254655752
 20
594.0776346310746
 30
0.0
 10
486.1583254655752
 20
594.0776346310746
 30
0.0
 10
486.7235828185162
 20
594.0776346310746
 30
0.0
 10
487.2879784986631
 20
594.0776346310746
 30
0.0
 10
487.8523741788104
 20
594.0776346310746
 30
0.0
 10
487.8523741788104
 20
594.0776346310746
 30
0.0
 10
487.9583599324869
 20
594.0776346310746
 30
0.0
 10
487.9583599324869
 20
594.0776346310746
 30
0.0
 10
487.9583599324869
 20
594.0776346310746
 30
0.0
 10
488.0643456861631
 20
593.9725105501923
 30
0.0
 10
488.0643456861631
 20
593.9725105501923
 30
0.0
 10
488.6287413663104
 20
593.9725105501923
 30
0.0
 10
489.1939987192513
 20
593.9725105501923
 30
0.0
 10
489.7583943993986
 20
593.9725105501923
 30
0.0
 10
489.7583943993986
 20
593.9725105501923
 30
0.0
 10
490.2883231677811
 20
593.9725105501923
 30
0.0
 10
490.2883231677811
 20
593.9725105501923
 30
0.0
  0
SPLINE
  5
267CD
330
A
100
AcDbEntity
  8
MODEL
100
AcDbSpline
210
0.0
220
0.0
230
1.0
 70
    24
 71
     3
 72
    14
 73
    10
 74
     0
 42
0.000000001
 43
0.0000000001
 40
0.0
 40
0.0
 40
0.0
 40
0.0
 40
1.0
 40
1.0
 40
1.0
 40
2.0
 40
2.0
 40
2.0
 40
3.0
 40
3.0
 40
3.0
 40
3.0
 10
180.2644835538104
 20
515.9359756237218
 30
0.0
 10
180.2644835538104
 20
515.9359756237218
 30
0.0
 10
180.3704693074869
 20
515.9359756237218
 30
0.0
 10
180.3704693074869
 20
515.9359756237218
 30
0.0
 10
223.6410920096928
 20
515.9359756237218
 30
0.0
 10
266.9117147118986
 20
515.9359756237218
 30
0.0
 10
310.1823374141045
 20
515.9359756237218
 30
0.0
 10
310.1823374141045
 20
515.9359756237218
 30
0.0
 10
310.2883231677811
 20
515.9359756237218
 30
0.0
 10
310.2883231677811
 20
515.9359756237218
 30
0.0
  0
SPLINE
  5
267D3
330
A
100
AcDbEntity
  8
MODEL
100
AcDbSpline
210
0.0
220
0.0
230
1.0
 70
     8
 71
     3
 72
    14
 73
    10
 74
     0
 42
0.000000001
 43
0.0000000001
 40
0.0
 40
0.0
 40
0.0
 40
0.0
 40
1.0
 40
1.0
 40
1.0
 40
2.0
 40
2.0
 40
2.0
 40
3.0
 40
3.0
 40
3.0
 40
3.0
 10
834.5119559802806
 20
598.52558959431
 30
0.0
 10
834.5119559802806
 20
598.52558959431
 30
0.0
 10
834.617080061163
 20
599.478599704604
 30
0.0
 10
834.617080061163
 20
599.478599704604
 30
0.0
 10
834.8290515685162
 20
601.3329195575452
 30
0.0
 10
834.9565791420455
 20
603.1338156972511
 30
0.0
 10
835.1461471567513
 20
604.9846888590158
 30
0.0
 10
835.1461471567513
 20
604.9846888590158
 30
0.0
 10
835.1461471567513
 20
605.9359756237217
 30
0.0
 10
835.1461471567513
 20
605.9359756237217
 30
0.0
  0
SPLINE
  5
267D4
330
A
100
AcDbEntity
  8
MODEL
100
AcDbSpline
210
0.0
220
0.0
230
1.0
 70
     8
 71
     3
 72
    14
 73
    10
 74
     0
 42
0.000000001
 43
0.0000000001
 40
0.0
 40
0.0
 40
0.0
 40
0.0
 40
1.0
 40
1.0
 40
1.0
 40
2.0
 40
2.0
 40
2.0
 40
3.0
 40
3.0
 40
3.0
 40
3.0
 10
617.3462850243986
 20
605.9359756237217
 30
0.0
 10
617.3462850243986
 20
605.9359756237217
 30
0.0
 10
617.4531324508689
 20
604.9846888590158
 30
0.0
 10
617.4531324508689
 20
604.9846888590158
 30
0.0
 10
617.615126936163
 20
603.1596658810746
 30
0.0
 10
617.7236977082221
 20
601.2898359178394
 30
0.0
 10
617.9821995464572
 20
599.478599704604
 30
0.0
 10
617.9821995464572
 20
599.478599704604
 30
0.0
 10
618.0873236273396
 20
598.52558959431
 30
0.0
 10
618.0873236273396
 20
598.52558959431
 30
0.0
  0
SPLINE
  5
267D5
330
A
100
AcDbEntity
  8
MODEL
100
AcDbSpline
210
0.0
220
0.0
230
1.0
 70
     8
 71
     3
 72
    14
 73
    10
 74
     0
 42
0.000000001
 43
0.0000000001
 40
0.0
 40
0.0
 40
0.0
 40
0.0
 40
1.0
 40
1.0
 40
1.0
 40
2.0
 40
2.0
 40
2.0
 40
3.0
 40
3.0
 40
3.0
 40
3.0
 10
768.7594284067513
 20
515.9359756237218
 30
0.0
 10
768.7594284067513
 20
515.9359756237218
 30
0.0
 10
769.6055910905748
 20
516.2547945575453
 30
0.0
 10
769.6055910905748
 20
516.2547945575453
 30
0.0
 10
804.0208024876338
 20
529.5710859178395
 30
0.0
 10
828.4130359435162
 20
560.9204655134276
 30
0.0
 10
834.1931370464572
 20
597.0435123884275
 30
0.0
 10
834.1931370464572
 20
597.0435123884275
 30
0.0
 10
834.5119559802806
 20
598.52558959431
 30
0.0
 10
834.5119559802806
 20
598.52558959431
 30
0.0
  0
SPLINE
  5
267D6
330
A
100
AcDbEntity
  8
MODEL
100
AcDbSpline
210
0.0
220
0.0
230
1.0
 70
     8
 71
     3
 72
    14
 73
    10
 74
     0
 42
0.000000001
 43
0.0000000001
 40
0.0
 40
0.0
 40
0.0
 40
0.0
 40
1.0
 40
1.0
 40
1.0
 40
2.0
 40
2.0
 40
2.0
 40
3.0
 40
3.0
 40
3.0
 40
3.0
 10
618.0873236273396
 20
598.52558959431
 30
0.0
 10
618.0873236273396
 20
598.52558959431
 30
0.0
 10
618.2992951346928
 20
597.0435123884275
 30
0.0
 10
618.2992951346928
 20
597.0435123884275
 30
0.0
 10
624.2189872302811
 20
560.9514857340159
 30
0.0
 10
648.4078659067513
 20
529.5504057707806
 30
0.0
 10
682.888564436163
 20
516.3599186384276
 30
0.0
 10
682.888564436163
 20
516.3599186384276
 30
0.0
 10
683.7347271199869
 20
515.9359756237218
 30
0.0
 10
683.7347271199869
 20
515.9359756237218
 30
0.0
  0
SPLINE
  5
267D7
330
A
100
AcDbEntity
  8
MODEL
100
AcDbSpline
210
0.0
220
0.0
230
1.0
 70
     8
 71
     3
 72
   284
 73
   280
 74
     0
 42
0.000000001
 43
0.0000000001
 40
0.0
 40
0.0
 40
0.0
 40
0.0
 40
1.0
 40
1.0
 40
1.0
 40
2.0
 40
2.0
 40
2.0
 40
3.0
 40
3.0
 40
3.0
 40
4.0
 40
4.0
 40
4.0
 40
5.0
 40
5.0
 40
5.0
 40
6.0
 40
6.0
 40
6.0
 40
7.0
 40
7.0
 40
7.0
 40
8.0
 40
8.0
 40
8.0
 40
9.0
 40
9.0
 40
9.0
 40
10.0
 40
10.0
 40
10.0
 40
11.0
 40
11.0
 40
11.0
 40
12.0
 40
12.0
 40
12.0
 40
13.0
 40
13.0
 40
13.0
 40
14.0
 40
14.0
 40
14.0
 40
15.0
 40
15.0
 40
15.0
 40
16.0
 40
16.0
 40
16.0
 40
17.0
 40
17.0
 40
17.0
 40
18.0
 40
18.0
 40
18.0
 40
19.0
 40
19.0
 40
19.0
 40
20.0
 40
20.0
 40
20.0
 40
21.0
 40
21.0
 40
21.0
 40
22.0
 40
22.0
 40
22.0
 40
23.0
 40
23.0
 40
23.0
 40
24.0
 40
24.0
 40
24.0
 40
25.0
 40
25.0
 40
25.0
 40
26.0
 40
26.0
 40
26.0
 40
27.0
 40
27.0
 40
27.0
 40
28.0
 40
28.0
 40
28.0
 40
29.0
 40
29.0
 40
29.0
 40
30.0
 40
30.0
 40
30.0
 40
31.0
 40
31.0
 40
31.0
 40
32.0
 40
32.0
 40
32.0
 40
33.0
 40
33.0
 40
33.0
 40
34.0
 40
34.0
 40
34.0
 40
35.0
 40
35.0
 40
35.0
 40
36.0
 40
36.0
 40
36.0
 40
37.0
 40
37.0
 40
37.0
 40
38.0
 40
38.0
 40
38.0
 40
39.0
 40
39.0
 40
39.0
 40
40.0
 40
40.0
 40
40.0
 40
41.0
 40
41.0
 40
41.0
 40
42.0
 40
42.0
 40
42.0
 40
43.0
 40
43.0
 40
43.0
 40
44.0
 40
44.0
 40
44.0
 40
45.0
 40
45.0
 40
45.0
 40
46.0
 40
46.0
 40
46.0
 40
47.0
 40
47.0
 40
47.0
 40
48.0
 40
48.0
 40
48.0
 40
49.0
 40
49.0
 40
49.0
 40
50.0
 40
50.0
 40
50.0
 40
51.0
 40
51.0
 40
51.0
 40
52.0
 40
52.0
 40
52.0
 40
53.0
 40
53.0
 40
53.0
 40
54.0
 40
54.0
 40
54.0
 40
55.0
 40
55.0
 40
55.0
 40
56.0
 40
56.0
 40
56.0
 40
57.0
 40
57.0
 40
57.0
 40
58.0
 40
58.0
 40
58.0
 40
59.0
 40
59.0
 40
59.0
 40
60.0
 40
60.0
 40
60.0
 40
61.0
 40
61.0
 40
61.0
 40
62.0
 40
62.0
 40
62.0
 40
63.0
 40
63.0
 40
63.0
 40
64.0
 40
64.0
 40
64.0
 40
65.0
 40
65.0
 40
65.0
 40
66.0
 40
66.0
 40
66.0
 40
67.0
 40
67.0
 40
67.0
 40
68.0
 40
68.0
 40
68.0
 40
69.0
 40
69.0
 40
69.0
 40
70.0
 40
70.0
 40
70.0
 40
71.0
 40
71.0
 40
71.0
 40
72.0
 40
72.0
 40
72.0
 40
73.0
 40
73.0
 40
73.0
 40
74.0
 40
74.0
 40
74.0
 40
75.0
 40
75.0
 40
75.0
 40
76.0
 40
76.0
 40
76.0
 40
77.0
 40
77.0
 40
77.0
 40
78.0
 40
78.0
 40
78.0
 40
79.0
 40
79.0
 40
79.0
 40
80.0
 40
80.0
 40
80.0
 40
81.0
 40
81.0
 40
81.0
 40
82.0
 40
82.0
 40
82.0
 40
83.0
 40
83.0
 40
83.0
 40
84.0
 40
84.0
 40
84.0
 40
85.0
 40
85.0
 40
85.0
 40
86.0
 40
86.0
 40
86.0
 40
87.0
 40
87.0
 40
87.0
 40
88.0
 40
88.0
 40
88.0
 40
89.0
 40
89.0
 40
89.0
 40
90.0
 40
90.0
 40
90.0
 40
91.0
 40
91.0
 40
91.0
 40
92.0
 40
92.0
 40
92.0
 40
93.0
 40
93.0
 40
93.0
 40
93.0
 10
834.4051085538104
 20
598.52558959431
 30
0.0
 10
834.4051085538104
 20
598.52558959431
 30
0.0
 10
834.2999844729279
 20
598.4187421678394
 30
0.0
 10
834.2999844729279
 20
598.4187421678394
 30
0.0
 10
834.2999844729279
 20
598.4187421678394
 30
0.0
 10
834.1931370464572
 20
598.4187421678394
 30
0.0
 10
834.1931370464572
 20
598.4187421678394
 30
0.0
 10
834.1931370464572
 20
598.4187421678394
 30
0.0
 10
834.1931370464572
 20
598.3136180869569
 30
0.0
 10
834.1931370464572
 20
598.3136180869569
 30
0.0
 10
834.1931370464572
 20
598.3136180869569
 30
0.0
 10
833.9811655391045
 20
598.3136180869569
 30
0.0
 10
833.9811655391045
 20
598.3136180869569
 30
0.0
 10
833.9811655391045
 20
598.3136180869569
 30
0.0
 10
833.8760414582221
 20
598.2067706604864
 30
0.0
 10
833.8760414582221
 20
598.2067706604864
 30
0.0
 10
833.8760414582221
 20
598.2067706604864
 30
0.0
 10
833.6640699508689
 20
598.2067706604864
 30
0.0
 10
833.6640699508689
 20
598.2067706604864
 30
0.0
 10
833.6640699508689
 20
598.2067706604864
 30
0.0
 10
833.5589458699869
 20
598.101646579604
 30
0.0
 10
833.5589458699869
 20
598.101646579604
 30
0.0
 10
833.5589458699869
 20
598.101646579604
 30
0.0
 10
833.3469743626338
 20
598.101646579604
 30
0.0
 10
833.3469743626338
 20
598.101646579604
 30
0.0
 10
833.3469743626338
 20
598.101646579604
 30
0.0
 10
833.240126936163
 20
597.9947991531335
 30
0.0
 10
833.240126936163
 20
597.9947991531335
 30
0.0
 10
833.240126936163
 20
597.9947991531335
 30
0.0
 10
832.8179072670455
 20
597.9947991531335
 30
0.0
 10
832.8179072670455
 20
597.9947991531335
 30
0.0
 10
832.8179072670455
 20
597.9947991531335
 30
0.0
 10
832.7110598405748
 20
597.8896750722511
 30
0.0
 10
832.7110598405748
 20
597.8896750722511
 30
0.0
 10
832.7110598405748
 20
597.8896750722511
 30
0.0
 10
832.2871168258689
 20
597.8896750722511
 30
0.0
 10
832.2871168258689
 20
597.8896750722511
 30
0.0
 10
832.2871168258689
 20
597.8896750722511
 30
0.0
 10
832.1819927449869
 20
597.7845509913687
 30
0.0
 10
832.1819927449869
 20
597.7845509913687
 30
0.0
 10
832.1819927449869
 20
597.7845509913687
 30
0.0
 10
831.7580497302806
 20
597.7845509913687
 30
0.0
 10
831.7580497302806
 20
597.7845509913687
 30
0.0
 10
831.7580497302806
 20
597.7845509913687
 30
0.0
 10
831.6529256493986
 20
597.6777035648981
 30
0.0
 10
831.6529256493986
 20
597.6777035648981
 30
0.0
 10
831.6529256493986
 20
597.6777035648981
 30
0.0
 10
831.1238585538104
 20
597.6777035648981
 30
0.0
 10
831.1238585538104
 20
597.6777035648981
 30
0.0
 10
831.1238585538104
 20
597.6777035648981
 30
0.0
 10
831.0170111273396
 20
597.5725794840158
 30
0.0
 10
831.0170111273396
 20
597.5725794840158
 30
0.0
 10
831.0170111273396
 20
597.5725794840158
 30
0.0
 10
830.4879440317513
 20
597.5725794840158
 30
0.0
 10
830.4879440317513
 20
597.5725794840158
 30
0.0
 10
830.4879440317513
 20
597.5725794840158
 30
0.0
 10
830.3828199508689
 20
597.4657320575452
 30
0.0
 10
830.3828199508689
 20
597.4657320575452
 30
0.0
 10
830.3828199508689
 20
597.4657320575452
 30
0.0
 10
829.6400580023396
 20
597.4657320575452
 30
0.0
 10
829.6400580023396
 20
597.4657320575452
 30
0.0
 10
829.6400580023396
 20
597.4657320575452
 30
0.0
 10
829.4298098405748
 20
597.3606079766629
 30
0.0
 10
829.4298098405748
 20
597.3606079766629
 30
0.0
 10
829.4298098405748
 20
597.3606079766629
 30
0.0
 10
828.7938953185162
 20
597.3606079766629
 30
0.0
 10
828.7938953185162
 20
597.3606079766629
 30
0.0
 10
828.7938953185162
 20
597.3606079766629
 30
0.0
 10
828.6870478920455
 20
597.2537605501923
 30
0.0
 10
828.6870478920455
 20
597.2537605501923
 30
0.0
 10
828.6870478920455
 20
597.2537605501923
 30
0.0
 10
827.9460092891045
 20
597.2537605501923
 30
0.0
 10
827.9460092891045
 20
597.2537605501923
 30
0.0
 10
827.9460092891045
 20
597.2537605501923
 30
0.0
 10
827.8408852082221
 20
597.14863646931
 30
0.0
 10
827.8408852082221
 20
597.14863646931
 30
0.0
 10
827.8408852082221
 20
597.14863646931
 30
0.0
 10
827.4169421935162
 20
597.14863646931
 30
0.0
 10
827.4169421935162
 20
597.14863646931
 30
0.0
 10
826.7741342891045
 20
597.1882734178394
 30
0.0
 10
827.2583943993986
 20
596.9814719472511
 30
0.0
 10
826.2519605758689
 20
597.0435123884275
 30
0.0
 10
826.2519605758689
 20
597.0435123884275
 30
0.0
 10
826.0399890685162
 20
597.0435123884275
 30
0.0
 10
826.0399890685162
 20
597.0435123884275
 30
0.0
 10
826.0399890685162
 20
597.0435123884275
 30
0.0
 10
825.8297409067513
 20
596.9366649619569
 30
0.0
 10
825.8297409067513
 20
596.9366649619569
 30
0.0
 10
825.8297409067513
 20
596.9366649619569
 30
0.0
 10
825.6177693993986
 20
596.9366649619569
 30
0.0
 10
825.6177693993986
 20
596.9366649619569
 30
0.0
 10
824.4562344729279
 20
596.8487743369569
 30
0.0
 10
823.1516618626338
 20
596.7729471310746
 30
0.0
 10
822.0177004655748
 20
596.6195693737217
 30
0.0
 10
822.0177004655748
 20
596.6195693737217
 30
0.0
 10
821.169814436163
 20
596.6195693737217
 30
0.0
 10
821.169814436163
 20
596.6195693737217
 30
0.0
 10
821.169814436163
 20
596.6195693737217
 30
0.0
 10
820.9578429288104
 20
596.5127219472511
 30
0.0
 10
820.9578429288104
 20
596.5127219472511
 30
0.0
 10
820.9578429288104
 20
596.5127219472511
 30
0.0
 10
820.6407473405748
 20
596.5127219472511
 30
0.0
 10
820.6407473405748
 20
596.5127219472511
 30
0.0
 10
816.951064436163
 20
596.3093671678394
 30
0.0
 10
813.2338080023396
 20
595.9802081604864
 30
0.0
 10
809.5234449508689
 20
595.8785307707805
 30
0.0
 10
809.5234449508689
 20
595.8785307707805
 30
0.0
 10
809.099501936163
 20
595.77168334431
 30
0.0
 10
809.099501936163
 20
595.77168334431
 30
0.0
 10
809.099501936163
 20
595.77168334431
 30
0.0
 10
808.3584633332221
 20
595.77168334431
 30
0.0
 10
808.3584633332221
 20
595.77168334431
 30
0.0
 10
806.1560276714572
 20
595.6768993369569
 30
0.0
 10
803.8794881493986
 20
595.5838386751923
 30
0.0
 10
801.687392561163
 20
595.4545877560746
 30
0.0
 10
801.687392561163
 20
595.4545877560746
 30
0.0
 10
800.1001912743986
 20
595.4545877560746
 30
0.0
 10
800.1001912743986
 20
595.4545877560746
 30
0.0
 10
800.1001912743986
 20
595.4545877560746
 30
0.0
 10
799.8882197670455
 20
595.347740329604
 30
0.0
 10
799.8882197670455
 20
595.347740329604
 30
0.0
 10
799.8882197670455
 20
595.347740329604
 30
0.0
 10
797.4531324508689
 20
595.347740329604
 30
0.0
 10
797.4531324508689
 20
595.347740329604
 30
0.0
 10
797.4531324508689
 20
595.347740329604
 30
0.0
 10
797.2411609435162
 20
595.2426162487217
 30
0.0
 10
797.2411609435162
 20
595.2426162487217
 30
0.0
 10
797.2411609435162
 20
595.2426162487217
 30
0.0
 10
795.4402648038104
 20
595.2426162487217
 30
0.0
 10
795.4402648038104
 20
595.2426162487217
 30
0.0
 10
776.7040515685162
 20
594.4964076090158
 30
0.0
 10
757.859267561163
 20
594.2137789325452
 30
0.0
 10
739.0058668258689
 20
593.9725105501923
 30
0.0
 10
739.0058668258689
 20
593.9725105501923
 30
0.0
 10
735.0887023038104
 20
593.9725105501923
 30
0.0
 10
735.0887023038104
 20
593.9725105501923
 30
0.0
 10
710.7757427449869
 20
593.8691098148981
 30
0.0
 10
686.5144835538104
 20
594.2551392266629
 30
0.0
 10
662.3462850243986
 20
595.0306447413687
 30
0.0
 10
662.3462850243986
 20
595.0306447413687
 30
0.0
 10
661.2881508332221
 20
595.0306447413687
 30
0.0
 10
661.2881508332221
 20
595.0306447413687
 30
0.0
 10
661.2881508332221
 20
595.0306447413687
 30
0.0
 10
660.9710552449869
 20
595.1374921678394
 30
0.0
 10
660.9710552449869
 20
595.1374921678394
 30
0.0
 10
660.9710552449869
 20
595.1374921678394
 30
0.0
 10
660.7590837376338
 20
595.1374921678394
 30
0.0
 10
660.7590837376338
 20
595.1374921678394
 30
0.0
 10
660.2989504655748
 20
595.1374921678394
 30
0.0
 10
659.8405405391045
 20
595.1374921678394
 30
0.0
 10
659.3821306126338
 20
595.1374921678394
 30
0.0
 10
659.3821306126338
 20
595.1374921678394
 30
0.0
 10
658.8530635170455
 20
595.1374921678394
 30
0.0
 10
658.8530635170455
 20
595.1374921678394
 30
0.0
 10
657.6381048773396
 20
595.06855834431
 30
0.0
 10
658.3722500979279
 20
595.2960399619569
 30
0.0
 10
657.370986311163
 20
595.2426162487217
 30
0.0
 10
657.370986311163
 20
595.2426162487217
 30
0.0
 10
656.3111287743986
 20
595.2426162487217
 30
0.0
 10
656.3111287743986
 20
595.2426162487217
 30
0.0
 10
655.4253291420455
 20
595.2029793001923
 30
0.0
 10
655.554580061163
 20
595.2719131237217
 30
0.0
 10
654.8290515685162
 20
595.347740329604
 30
0.0
 10
654.8290515685162
 20
595.347740329604
 30
0.0
 10
654.4051085538104
 20
595.347740329604
 30
0.0
 10
654.4051085538104
 20
595.347740329604
 30
0.0
 10
653.9122317155748
 20
595.347740329604
 30
0.0
 10
653.4176315317513
 20
595.347740329604
 30
0.0
 10
652.9230313479279
 20
595.347740329604
 30
0.0
 10
652.9230313479279
 20
595.347740329604
 30
0.0
 10
652.7110598405748
 20
595.347740329604
 30
0.0
 10
652.7110598405748
 20
595.347740329604
 30
0.0
 10
652.7110598405748
 20
595.347740329604
 30
0.0
 10
652.4990883332221
 20
595.4545877560746
 30
0.0
 10
652.4990883332221
 20
595.4545877560746
 30
0.0
 10
652.4990883332221
 20
595.4545877560746
 30
0.0
 10
651.7580497302811
 20
595.4545877560746
 30
0.0
 10
651.7580497302811
 20
595.4545877560746
 30
0.0
 10
647.0929532229279
 20
595.56660521931
 30
0.0
 10
642.4157932964572
 20
595.9440179031335
 30
0.0
 10
637.7817170096928
 20
596.0905022781335
 30
0.0
 10
637.7817170096928
 20
596.0905022781335
 30
0.0
 10
637.4646214214572
 20
596.1956263590158
 30
0.0
 10
637.4646214214572
 20
596.1956263590158
 30
0.0
 10
637.4646214214572
 20
596.1956263590158
 30
0.0
 10
636.511611311163
 20
596.1956263590158
 30
0.0
 10
636.511611311163
 20
596.1956263590158
 30
0.0
 10
633.3647822670455
 20
596.4420647781335
 30
0.0
 10
630.2076131493986
 20
596.6454195575452
 30
0.0
 10
627.0883576346928
 20
596.9366649619569
 30
0.0
 10
627.0883576346928
 20
596.9366649619569
 30
0.0
 10
626.6644146199869
 20
596.9366649619569
 30
0.0
 10
626.6644146199869
 20
596.9366649619569
 30
0.0
 10
626.6644146199869
 20
596.9366649619569
 30
0.0
 10
626.4524431126338
 20
597.0435123884275
 30
0.0
 10
626.4524431126338
 20
597.0435123884275
 30
0.0
 10
626.4524431126338
 20
597.0435123884275
 30
0.0
 10
626.2404716052811
 20
597.0435123884275
 30
0.0
 10
626.2404716052811
 20
597.0435123884275
 30
0.0
 10
625.2495478920455
 20
596.9918120207805
 30
0.0
 10
625.9113125979279
 20
597.1865500722511
 30
0.0
 10
625.1823374141045
 20
597.14863646931
 30
0.0
 10
625.1823374141045
 20
597.14863646931
 30
0.0
 10
624.7583943993986
 20
597.14863646931
 30
0.0
 10
624.7583943993986
 20
597.14863646931
 30
0.0
 10
624.7583943993986
 20
597.14863646931
 30
0.0
 10
624.5464228920455
 20
597.2537605501923
 30
0.0
 10
624.5464228920455
 20
597.2537605501923
 30
0.0
 10
624.5464228920455
 20
597.2537605501923
 30
0.0
 10
623.9122317155748
 20
597.2537605501923
 30
0.0
 10
623.9122317155748
 20
597.2537605501923
 30
0.0
 10
623.9122317155748
 20
597.2537605501923
 30
0.0
 10
623.7002602082221
 20
597.3606079766629
 30
0.0
 10
623.7002602082221
 20
597.3606079766629
 30
0.0
 10
623.7002602082221
 20
597.3606079766629
 30
0.0
 10
623.064345686163
 20
597.3606079766629
 30
0.0
 10
623.064345686163
 20
597.3606079766629
 30
0.0
 10
623.064345686163
 20
597.3606079766629
 30
0.0
 10
622.9592216052811
 20
597.4657320575452
 30
0.0
 10
622.9592216052811
 20
597.4657320575452
 30
0.0
 10
622.9592216052811
 20
597.4657320575452
 30
0.0
 10
622.2164596567513
 20
597.4657320575452
 30
0.0
 10
622.2164596567513
 20
597.4657320575452
 30
0.0
 10
622.2164596567513
 20
597.4657320575452
 30
0.0
 10
622.1113355758689
 20
597.5725794840158
 30
0.0
 10
622.1113355758689
 20
597.5725794840158
 30
0.0
 10
622.1113355758689
 20
597.5725794840158
 30
0.0
 10
621.4754210538104
 20
597.5725794840158
 30
0.0
 10
621.4754210538104
 20
597.5725794840158
 30
0.0
 10
621.4754210538104
 20
597.5725794840158
 30
0.0
 10
621.3702969729279
 20
597.6777035648981
 30
0.0
 10
621.3702969729279
 20
597.6777035648981
 30
0.0
 10
621.3702969729279
 20
597.6777035648981
 30
0.0
 10
620.9463539582221
 20
597.6777035648981
 30
0.0
 10
620.9463539582221
 20
597.6777035648981
 30
0.0
 10
620.9463539582221
 20
597.6777035648981
 30
0.0
 10
620.8412298773396
 20
597.7845509913687
 30
0.0
 10
620.8412298773396
 20
597.7845509913687
 30
0.0
 10
620.8412298773396
 20
597.7845509913687
 30
0.0
 10
620.3121627817513
 20
597.7845509913687
 30
0.0
 10
620.3121627817513
 20
597.7845509913687
 30
0.0
 10
620.3121627817513
 20
597.7845509913687
 30
0.0
 10
620.3121627817513
 20
597.8896750722511
 30
0.0
 10
620.3121627817513
 20
597.8896750722511
 30
0.0
 10
620.3121627817513
 20
597.8896750722511
 30
0.0
 10
619.8882197670455
 20
597.8896750722511
 30
0.0
 10
619.8882197670455
 20
597.8896750722511
 30
0.0
 10
619.8882197670455
 20
597.8896750722511
 30
0.0
 10
619.7813723405748
 20
597.9947991531335
 30
0.0
 10
619.7813723405748
 20
597.9947991531335
 30
0.0
 10
619.7813723405748
 20
597.9947991531335
 30
0.0
 10
619.3591526714572
 20
597.9947991531335
 30
0.0
 10
619.3591526714572
 20
597.9947991531335
 30
0.0
 10
619.3591526714572
 20
597.9947991531335
 30
0.0
 10
619.2523052449869
 20
598.101646579604
 30
0.0
 10
619.2523052449869
 20
598.101646579604
 30
0.0
 10
619.2523052449869
 20
598.101646579604
 30
0.0
 10
618.9352096567513
 20
598.101646579604
 30
0.0
 10
618.9352096567513
 20
598.101646579604
 30
0.0
 10
618.9352096567513
 20
598.101646579604
 30
0.0
 10
618.9352096567513
 20
598.2067706604864
 30
0.0
 10
618.9352096567513
 20
598.2067706604864
 30
0.0
 10
618.9352096567513
 20
598.2067706604864
 30
0.0
 10
618.6181140685162
 20
598.2067706604864
 30
0.0
 10
618.6181140685162
 20
598.2067706604864
 30
0.0
 10
618.6181140685162
 20
598.2067706604864
 30
0.0
 10
618.6181140685162
 20
598.3136180869569
 30
0.0
 10
618.6181140685162
 20
598.3136180869569
 30
0.0
 10
618.6181140685162
 20
598.3136180869569
 30
0.0
 10
618.406142561163
 20
598.3136180869569
 30
0.0
 10
618.406142561163
 20
598.3136180869569
 30
0.0
 10
618.406142561163
 20
598.3136180869569
 30
0.0
 10
618.2992951346928
 20
598.4187421678394
 30
0.0
 10
618.2992951346928
 20
598.4187421678394
 30
0.0
 10
618.2992951346928
 20
598.4187421678394
 30
0.0
 10
618.1941710538104
 20
598.4187421678394
 30
0.0
 10
618.1941710538104
 20
598.4187421678394
 30
0.0
 10
618.1941710538104
 20
598.4187421678394
 30
0.0
 10
618.1941710538104
 20
598.52558959431
 30
0.0
 10
618.1941710538104
 20
598.52558959431
 30
0.0
  0
SPLINE
  5
267D8
330
A
100
AcDbEntity
  8
MODEL
100
AcDbSpline
210
0.0
220
0.0
230
1.0
 70
    24
 71
     3
 72
    14
 73
    10
 74
     0
 42
0.000000001
 43
0.0000000001
 40
0.0
 40
0.0
 40
0.0
 40
0.0
 40
1.0
 40
1.0
 40
1.0
 40
2.0
 40
2.0
 40
2.0
 40
3.0
 40
3.0
 40
3.0
 40
3.0
 10
835.1461471567513
 20
605.9359756237217
 30
0.0
 10
835.1461471567513
 20
605.9359756237217
 30
0.0
 10
835.0410230758689
 20
605.9359756237217
 30
0.0
 10
835.0410230758689
 20
605.9359756237217
 30
0.0
 10
762.546767561163
 20
605.9359756237217
 30
0.0
 10
690.0525120464572
 20
605.9359756237217
 30
0.0
 10
617.5582565317513
 20
605.9359756237217
 30
0.0
 10
617.5582565317513
 20
605.9359756237217
 30
0.0
 10
617.4531324508689
 20
605.9359756237217
 30
0.0
 10
617.4531324508689
 20
605.9359756237217
 30
0.0
  0
SPLINE
  5
267D9
330
A
100
AcDbEntity
  8
MODEL
100
AcDbSpline
210
0.0
220
0.0
230
1.0
 70
    24
 71
     3
 72
    14
 73
    10
 74
     0
 42
0.000000001
 43
0.0000000001
 40
0.0
 40
0.0
 40
0.0
 40
0.0
 40
1.0
 40
1.0
 40
1.0
 40
2.0
 40
2.0
 40
2.0
 40
3.0
 40
3.0
 40
3.0
 40
3.0
 10
768.7594284067513
 20
515.9359756237218
 30
0.0
 10
768.7594284067513
 20
515.9359756237218
 30
0.0
 10
768.6525809802806
 20
515.9359756237218
 30
0.0
 10
768.6525809802806
 20
515.9359756237218
 30
0.0
 10
740.3828199508689
 20
515.9359756237218
 30
0.0
 10
712.1113355758689
 20
515.9359756237218
 30
0.0
 10
683.8415745464572
 20
515.9359756237218
 30
0.0
 10
683.8415745464572
 20
515.9359756237218
 30
0.0
 10
683.7347271199869
 20
515.9359756237218
 30
0.0
 10
683.7347271199869
 20
515.9359756237218
 30
0.0
  0
POLYLINE
  5
2B20E
330
A
100
AcDbEntity
  8
MODEL
100
AcDb2dPolyline
 66
     1
 10
0.0
 20
0.0
 30
0.0
  0
VERTEX
  5
2B20F
330
2B20E
100
AcDbEntity
  8
MODEL
100
AcDbVertex
100
AcDb2dVertex
 10
755.3121627817513
 20
515.9359756237218
 30
0.0
  0
VERTEX
  5
2B210
330
2B20E
100
AcDbEntity
  8
MODEL
100
AcDbVertex
100
AcDb2dVertex
 10
697.2888401714572
 20
515.9359756237218
 30
0.0
  0
SEQEND
  5
2B211
330
2B20E
100
AcDbEntity
  8
MODEL
  0
POLYLINE
  5
2D3DF
330
A
100
AcDbEntity
  8
MODEL
100
AcDb2dPolyline
 66
     1
 10
0.0
 20
0.0
 30
0.0
  0
VERTEX
  5
2D3E0
330
2D3DF
100
AcDbEntity
  8
MODEL
100
AcDbVertex
100
AcDb2dVertex
 10
304.5702625060162
 20
514.6658699251924
 30
0.0
  0
VERTEX
  5
2D3E1
330
2D3DF
100
AcDbEntity
  8
MODEL
100
AcDbVertex
100
AcDb2dVertex
 10
304.5702625060162
 20
515.9359756237218
 30
0.0
  0
SEQEND
  5
2D3E2
330
2D3DF
100
AcDbEntity
  8
MODEL
  0
POLYLINE
  5
2D3E3
330
A
100
AcDbEntity
  8
MODEL
100
AcDb2dPolyline
 66
     1
 10
0.0
 20
0.0
 30
0.0
  0
VERTEX
  5
2D3E4
330
2D3E3
100
AcDbEntity
  8
MODEL
100
AcDbVertex
100
AcDb2dVertex
 10
184.6055910905752
 20
515.8308515428395
 30
0.0
  0
VERTEX
  5
2D3E5
330
2D3E3
100
AcDbEntity
  8
MODEL
100
AcDbVertex
100
AcDb2dVertex
 10
184.6055910905752
 20
514.8778414325453
 30
0.0
  0
SEQEND
  5
2D3E6
330
2D3E3
100
AcDbEntity
  8
MODEL
  0
POLYLINE
  5
2D3E7
330
A
100
AcDbEntity
  8
MODEL
100
AcDb2dPolyline
 66
     1
 10
0.0
 20
0.0
 30
0.0
  0
VERTEX
  5
30E13
330
2D3E7
100
AcDbEntity
  8
MODEL
100
AcDbVertex
100
AcDb2dVertex
 10
304.5702625060162
 20
512.9359756237217
 30
0.0
  0
VERTEX
  5
30E14
330
2D3E7
100
AcDbEntity
  8
MODEL
100
AcDbVertex
100
AcDb2dVertex
 10
304.5702625060162
 20
514.8778414325453
 30
0.0
  0
SEQEND
  5
30E15
330
2D3E7
100
AcDbEntity
  8
MODEL
  0
POLYLINE
  5
2D3EB
330
A
100
AcDbEntity
  8
MODEL
100
AcDb2dPolyline
 66
     1
 10
0.0
 20
0.0
 30
0.0
  0
VERTEX
  5
30E10
330
2D3EB
100
AcDbEntity
  8
MODEL
100
AcDbVertex
100
AcDb2dVertex
 10
184.6055910905752
 20
514.8778414325453
 30
0.0
  0
VERTEX
  5
30E11
330
2D3EB
100
AcDbEntity
  8
MODEL
100
AcDbVertex
100
AcDb2dVertex
 10
184.6055910905752
 20
512.9359756237217
 30
0.0
  0
SEQEND
  5
30E12
330
2D3EB
100
AcDbEntity
  8
MODEL
  0
POLYLINE
  5
2D3EF
330
A
100
AcDbEntity
  8
MODEL
100
AcDb2dPolyline
 66
     1
 10
0.0
 20
0.0
 30
0.0
  0
VERTEX
  5
2D3F0
330
2D3EF
100
AcDbEntity
  8
MODEL
100
AcDbVertex
100
AcDb2dVertex
 10
184.6055910905752
 20
514.8778414325453
 30
0.0
  0
VERTEX
  5
2D3F1
330
2D3EF
100
AcDbEntity
  8
MODEL
100
AcDbVertex
100
AcDb2dVertex
 10
304.5702625060162
 20
514.8778414325453
 30
0.0
  0
SEQEND
  5
2D3F2
330
2D3EF
100
AcDbEntity
  8
MODEL
  0
POLYLINE
  5
2D3F3
330
A
100
AcDbEntity
  8
MODEL
100
AcDb2dPolyline
 66
     1
 10
0.0
 20
0.0
 30
0.0
  0
VERTEX
  5
2D3F4
330
2D3F3
100
AcDbEntity
  8
MODEL
100
AcDbVertex
100
AcDb2dVertex
 10
184.6055910905752
 20
515.8308515428395
 30
0.0
  0
VERTEX
  5
2D3F5
330
2D3F3
100
AcDbEntity
  8
MODEL
100
AcDbVertex
100
AcDb2dVertex
 10
304.5702625060162
 20
515.8308515428395
 30
0.0
  0
SEQEND
  5
2D3F6
330
2D3F3
100
AcDbEntity
  8
MODEL
  0
POLYLINE
  5
2D3F7
330
A
100
AcDbEntity
  8
MODEL
100
AcDb2dPolyline
 66
     1
 10
0.0
 20
0.0
 30
0.0
  0
VERTEX
  5
2D3F8
330
2D3F7
100
AcDbEntity
  8
MODEL
100
AcDbVertex
100
AcDb2dVertex
 10
184.6055910905752
 20
514.8778414325453
 30
0.0
  0
VERTEX
  5
2D3F9
330
2D3F7
100
AcDbEntity
  8
MODEL
100
AcDbVertex
100
AcDb2dVertex
 10
304.5702625060162
 20
514.8778414325453
 30
0.0
  0
SEQEND
  5
2D3FA
330
2D3F7
100
AcDbEntity
  8
MODEL
  0
POLYLINE
  5
2D490
330
A
100
AcDbEntity
  8
MODEL
100
AcDb2dPolyline
 66
     1
 10
0.0
 20
0.0
 30
0.0
  0
VERTEX
  5
2D491
330
2D490
100
AcDbEntity
  8
MODEL
100
AcDbVertex
100
AcDb2dVertex
 10
763.7824063479279
 20
515.9359756237218
 30
0.0
  0
VERTEX
  5
2D492
330
2D490
100
AcDbEntity
  8
MODEL
100
AcDbVertex
100
AcDb2dVertex
 10
763.7824063479279
 20
514.8778414325453
 30
0.0
  0
SEQEND
  5
2D493
330
2D490
100
AcDbEntity
  8
MODEL
  0
POLYLINE
  5
2D494
330
A
100
AcDbEntity
  8
MODEL
100
AcDb2dPolyline
 66
     1
 10
0.0
 20
0.0
 30
0.0
  0
VERTEX
  5
2D495
330
2D494
100
AcDbEntity
  8
MODEL
100
AcDbVertex
100
AcDb2dVertex
 10
763.7824063479279
 20
515.8308515428395
 30
0.0
  0
VERTEX
  5
2D496
330
2D494
100
AcDbEntity
  8
MODEL
100
AcDbVertex
100
AcDb2dVertex
 10
692.3118181126338
 20
515.8308515428395
 30
0.0
  0
SEQEND
  5
2D497
330
2D494
100
AcDbEntity
  8
MODEL
  0
POLYLINE
  5
2D498
330
A
100
AcDbEntity
  8
MODEL
100
AcDb2dPolyline
 66
     1
 10
0.0
 20
0.0
 30
0.0
  0
VERTEX
  5
2D499
330
2D498
100
AcDbEntity
  8
MODEL
100
AcDbVertex
100
AcDb2dVertex
 10
754.2523052449869
 20
514.8778414325453
 30
0.0
  0
VERTEX
  5
2D49A
330
2D498
100
AcDbEntity
  8
MODEL
100
AcDbVertex
100
AcDb2dVertex
 10
692.3118181126338
 20
514.8778414325453
 30
0.0
  0
SEQEND
  5
2D49B
330
2D498
100
AcDbEntity
  8
MODEL
  0
POLYLINE
  5
2D49C
330
A
100
AcDbEntity
  8
MODEL
100
AcDb2dPolyline
 66
     1
 10
0.0
 20
0.0
 30
0.0
  0
VERTEX
  5
2D49D
330
2D49C
100
AcDbEntity
  8
MODEL
100
AcDbVertex
100
AcDb2dVertex
 10
754.2523052449869
 20
514.8778414325453
 30
0.0
  0
VERTEX
  5
2D49E
330
2D49C
100
AcDbEntity
  8
MODEL
100
AcDbVertex
100
AcDb2dVertex
 10
754.2523052449869
 20
512.9359756237217
 30
0.0
  0
SEQEND
  5
2D49F
330
2D49C
100
AcDbEntity
  8
MODEL
  0
POLYLINE
  5
2D4A0
330
A
100
AcDbEntity
  8
MODEL
100
AcDb2dPolyline
 66
     1
 10
0.0
 20
0.0
 30
0.0
  0
VERTEX
  5
2D4A1
330
2D4A0
100
AcDbEntity
  8
MODEL
100
AcDbVertex
100
AcDb2dVertex
 10
754.2523052449869
 20
514.8778414325453
 30
0.0
  0
VERTEX
  5
2D4A2
330
2D4A0
100
AcDbEntity
  8
MODEL
100
AcDbVertex
100
AcDb2dVertex
 10
692.3118181126338
 20
514.8778414325453
 30
0.0
  0
SEQEND
  5
2D4A3
330
2D4A0
100
AcDbEntity
  8
MODEL
  0
POLYLINE
  5
2D4A8
330
A
100
AcDbEntity
  8
MODEL
100
AcDb2dPolyline
 66
     1
 10
0.0
 20
0.0
 30
0.0
  0
VERTEX
  5
30E17
330
2D4A8
100
AcDbEntity
  8
MODEL
100
AcDbVertex
100
AcDb2dVertex
 10
773.7347271199869
 20
514.8778414325453
 30
0.0
  0
VERTEX
  5
30E18
330
2D4A8
100
AcDbEntity
  8
MODEL
100
AcDbVertex
100
AcDb2dVertex
 10
773.7347271199869
 20
512.9359756237217
 30
0.0
  0
SEQEND
  5
30E19
330
2D4A8
100
AcDbEntity
  8
MODEL
  0
POLYLINE
  5
2D4AC
330
A
100
AcDbEntity
  8
MODEL
100
AcDb2dPolyline
 66
     1
 10
0.0
 20
0.0
 30
0.0
  0
VERTEX
  5
2D4AD
330
2D4AC
100
AcDbEntity
  8
MODEL
100
AcDbVertex
100
AcDb2dVertex
 10
773.7347271199869
 20
514.8778414325453
 30
0.0
  0
VERTEX
  5
2D4AE
330
2D4AC
100
AcDbEntity
  8
MODEL
100
AcDbVertex
100
AcDb2dVertex
 10
754.2523052449869
 20
514.8778414325453
 30
0.0
  0
SEQEND
  5
2D4AF
330
2D4AC
100
AcDbEntity
  8
MODEL
  0
POLYLINE
  5
2D4B4
330
A
100
AcDbEntity
  8
MODEL
100
AcDb2dPolyline
 66
     1
 10
0.0
 20
0.0
 30
0.0
  0
VERTEX
  5
2D4B5
330
2D4B4
100
AcDbEntity
  8
MODEL
100
AcDbVertex
100
AcDb2dVertex
 10
897.3003291420455
 20
512.9359756237217
 30
0.0
  0
VERTEX
  5
2D4B6
330
2D4B4
100
AcDbEntity
  8
MODEL
100
AcDbVertex
100
AcDb2dVertex
 10
773.7347271199869
 20
512.9359756237217
 30
0.0
  0
SEQEND
  5
2D4B7
330
2D4B4
100
AcDbEntity
  8
MODEL
  0
POLYLINE
  5
2D4BA
330
A
100
AcDbEntity
  8
MODEL
100
AcDb2dPolyline
 66
     1
 10
0.0
 20
0.0
 30
0.0
  0
VERTEX
  5
311DC
330
2D4BA
100
AcDbEntity
  8
MODEL
100
AcDbVertex
100
AcDb2dVertex
 10
829.9727045278769
 20
579.971821211957
 30
0.0
  0
VERTEX
  5
311DD
330
2D4BA
100
AcDbEntity
  8
MODEL
100
AcDbVertex
100
AcDb2dVertex
 10
897.3003291420455
 20
579.971821211957
 30
0.0
  0
VERTEX
  5
311DE
330
2D4BA
100
AcDbEntity
  8
MODEL
100
AcDbVertex
100
AcDb2dVertex
 10
897.3003291420455
 20
512.9359756237217
 30
0.0
  0
SEQEND
  5
311DF
330
2D4BA
100
AcDbEntity
  8
MODEL
  0
POLYLINE
  5
2D4BF
102
{ACAD_REACTORS
330
30B3D
102
}
330
A
100
AcDbEntity
  8
MODEL
100
AcDb2dPolyline
 66
     1
 10
0.0
 20
0.0
 30
0.0
  0
VERTEX
  5
2D4C0
330
2D4BF
100
AcDbEntity
  8
MODEL
100
AcDbVertex
100
AcDb2dVertex
 10
897.3003291420455
 20
582.9359756237217
 30
0.0
  0
VERTEX
  5
2D4C1
330
2D4BF
100
AcDbEntity
  8
MODEL
100
AcDbVertex
100
AcDb2dVertex
 10
897.3003291420455
 20
579.971821211957
 30
0.0
  0
SEQEND
  5
2D4C2
330
2D4BF
100
AcDbEntity
  8
MODEL
  0
POLYLINE
  5
2D4C3
102
{ACAD_REACTORS
330
30B3D
102
}
330
A
100
AcDbEntity
  8
MODEL
100
AcDb2dPolyline
 66
     1
 10
0.0
 20
0.0
 30
0.0
  0
VERTEX
  5
311D9
330
2D4C3
100
AcDbEntity
  8
MODEL
100
AcDbVertex
100
AcDb2dVertex
 10
897.3003291420455
 20
582.9359756237217
 30
0.0
  0
VERTEX
  5
311DA
330
2D4C3
100
AcDbEntity
  8
MODEL
100
AcDbVertex
100
AcDb2dVertex
 10
830.9258210162386
 20
582.9359756237217
 30
0.0
  0
SEQEND
  5
311DB
330
2D4C3
100
AcDbEntity
  8
MODEL
  0
POLYLINE
  5
2E060
330
A
100
AcDbEntity
  8
MODEL
100
AcDb2dPolyline
 66
     1
 10
0.0
 20
0.0
 30
0.0
  0
VERTEX
  5
30E1D
330
2E060
100
AcDbEntity
  8
MODEL
100
AcDbVertex
100
AcDb2dVertex
 10
894.2293273038104
 20
512.9359756237217
 30
0.0
  0
VERTEX
  5
30E1E
330
2E060
100
AcDbEntity
  8
MODEL
100
AcDbVertex
100
AcDb2dVertex
 10
894.2293273038104
 20
579.971821211957
 30
0.0
  0
SEQEND
  5
30E22
330
2E060
100
AcDbEntity
  8
MODEL
  0
POLYLINE
  5
2EB1A
330
A
100
AcDbEntity
  8
MODEL
100
AcDb2dPolyline
 66
     1
 10
0.0
 20
0.0
 30
0.0
  0
VERTEX
  5
30E1A
330
2EB1A
100
AcDbEntity
  8
MODEL
100
AcDbVertex
100
AcDb2dVertex
 10
692.3118181126338
 20
512.9359756237217
 30
0.0
  0
VERTEX
  5
30E1B
330
2EB1A
100
AcDbEntity
  8
MODEL
100
AcDbVertex
100
AcDb2dVertex
 10
692.3118181126338
 20
515.9359756237218
 30
0.0
  0
SEQEND
  5
30E1C
330
2EB1A
100
AcDbEntity
  8
MODEL
  0
DIMENSION
  5
30AAD
330
A
100
AcDbEntity
  8
DIM
 48
0.05
100
AcDbDimension
  2
*D42
 10
897.3003291420455
 20
410.9998288197384
 30
0.0
 11
794.8060736273396
 21
410.9998288197384
 31
0.0
 70
   160
 71
     5
 42
204.9885110294117
 73
     0
 74
     0
 75
     0
  3
tfrom線あり
100
AcDbAlignedDimension
 13
692.3118181126338
 23
510.592699700035
 33
0.0
 14
897.3003291420455
 24
483.6139189984909
 34
0.0
100
AcDbRotatedDimension
  0
DIMENSION
  5
30ACB
330
A
100
AcDbEntity
  8
DIM
 48
0.05
100
AcDbDimension
  2
*D44
 10
522.164535604637
 20
512.9359756237217
 30
0.0
 11
522.164535604637
 21
559.4359756237217
 31
0.0
 70
   160
 71
     5
 42
93.0
 73
     0
 74
     0
 75
     0
  3
tfrom線あり
100
AcDbAlignedDimension
 13
490.2883231677811
 23
605.9359756237217
 33
0.0
 14
415.164535604637
 24
512.9359756237217
 34
0.0
 50
90.0
100
AcDbRotatedDimension
  0
DIMENSION
  5
30ADB
330
A
100
AcDbEntity
  8
DIM
 48
0.05
100
AcDbDimension
  2
*D45
 10
558.164535604637
 20
492.9359756237217
 30
0.0
 11
558.164535604637
 21
549.4359756237217
 31
0.0
 70
   160
 71
     5
 42
113.0
 73
     0
 74
     0
 75
     0
  3
tfrom線あり
100
AcDbAlignedDimension
 13
490.2883231677811
 23
605.9359756237217
 33
0.0
 14
266.312619632886
 24
492.9359756237217
 34
0.0
 50
90.0
100
AcDbRotatedDimension
  0
DIMENSION
  5
30AEB
330
A
100
AcDbEntity
  8
DIM
 48
0.05
100
AcDbDimension
  2
*D46
 10
245.2759725243986
 20
398.9635211847818
 30
0.0
 11
187.78214784609
 21
414.9635211847818
 31
0.0
 70
    32
 71
     5
 42
114.9876493566173
 73
     0
 74
     0
 75
     0
  3
tfrom線あり
100
AcDbAlignedDimension
 13
130.2883231677813
 23
595.5728226049669
 33
0.0
 14
245.2759725243986
 24
433.2992823793305
 34
0.0
100
AcDbRotatedDimension
  0
DIMENSION
  5
30B09
330
A
100
AcDbEntity
  8
DIM
 48
0.05
100
AcDbDimension
  2
*D48
 10
93.16453560463697
 20
547.9359756237217
 30
0.0
 11
77.16453560463697
 21
576.9359756237217
 31
0.0
 70
    32
 71
     5
 42
57.99999999999999
 73
     0
 74
     0
 75
     0
  3
tfrom線あり
100
AcDbAlignedDimension
 13
130.2883231677811
 23
605.9359756237217
 33
0.0
 14
212.0283879822918
 24
547.9359756237217
 34
0.0
 50
90.0
100
AcDbRotatedDimension
  0
DIMENSION
  5
30B2B
330
A
100
AcDbEntity
  8
DIM
 48
0.05
100
AcDbDimension
  2
*D49
 10
597.164535604637
 20
515.9359756237217
 30
0.0
 11
597.164535604637
 21
560.9359756237217
 31
0.0
 70
   160
 71
     5
 42
90.0
 73
     0
 74
     0
 75
     0
  3
tfrom線あり
100
AcDbAlignedDimension
 13
617.3462850243986
 23
605.9359756237217
 33
0.0
 14
679.164535604637
 24
515.9359756237217
 34
0.0
 50
90.0
100
AcDbRotatedDimension
  0
DIMENSION
  5
30B3B
102
{ACAD_REACTORS
330
30B3D
102
}
102
{ACAD_XDICTIONARY
360
30B3C
102
}
330
A
100
AcDbEntity
  8
DIM
 48
0.05
100
AcDbDimension
  2
*D50
 10
865.3003291420455
 20
620.9738910383886
 30
0.0
 11
881.3003291420455
 21
620.9738910383886
 31
0.0
 70
   160
 71
     5
 42
32.0
 73
     0
 74
     0
 75
     0
  3
tfrom線あり
100
AcDbAlignedDimension
 13
897.3003291420455
 23
582.9359756237217
 33
0.0
 14
865.3003291420455
 24
582.9359756237217
 34
0.0
100
AcDbRotatedDimension
  0
SPLINE
  5
30BD0
330
A
100
AcDbEntity
  8
HIDDEN
 48
0.05
100
AcDbSpline
210
0.0
220
0.0
230
1.0
 70
  1064
 71
     3
 72
    30
 73
    26
 74
    24
 42
0.000000001
 43
0.0000000001
 44
0.0
 40
0.0
 40
0.0
 40
0.0
 40
0.0
 40
3.240458456417144
 40
5.785394117549872
 40
8.32165364408008
 40
11.96008928336324
 40
19.77290245093549
 40
27.70800491886677
 40
43.56144552024656
 40
51.53209492460176
 40
60.09069008573145
 40
67.41342974027057
 40
75.33461690926902
 40
81.43816885590284
 40
87.30887241019168
 40
91.18575800812096
 40
99.14453905352356
 40
102.487055009917
 40
104.8507104520392
 40
110.1466527696774
 40
113.259431426874
 40
116.4524926434525
 40
118.7226366334744
 40
126.2407317621508
 40
133.7588268908273
 40
133.7588268908273
 40
133.7588268908273
 40
133.7588268908273
 10
139.4996053368986
 20
605.9359756237216
 30
0.0
 10
140.4878613017161
 20
605.4986486145592
 30
0.0
 10
142.2522567792035
 20
604.7178612228112
 30
0.0
 10
144.5825430149272
 20
603.1631893187755
 30
0.0
 10
146.411803174408
 20
600.8277521011149
 30
0.0
 10
147.7901584872138
 20
596.3139912393749
 30
0.0
 10
148.9624770481953
 20
589.9773396960859
 30
0.0
 10
152.3389306787719
 20
579.9441173343662
 30
0.0
 10
157.9281136559505
 20
570.7996975774896
 30
0.0
 10
164.8784654691513
 20
562.5413541833545
 30
0.0
 10
170.3263768712634
 20
556.7413800991949
 30
0.0
 10
176.1152044946201
 20
551.3106929261157
 30
0.0
 10
181.6692684225557
 20
546.8375761002035
 30
0.0
 10
187.4428686835481
 20
543.4951289597682
 30
0.0
 10
192.5096930390594
 20
541.8749442005471
 30
0.0
 10
198.3290091801094
 20
540.8425969529844
 30
0.0
 10
203.3938384101832
 20
540.6254379769273
 30
0.0
 10
207.9556439413085
 20
540.5469544452751
 30
0.0
 10
211.5910546974958
 20
540.2388184806078
 30
0.0
 10
215.2708473418551
 20
539.484485860469
 30
0.0
 10
218.070973021986
 20
536.4799062910616
 30
0.0
 10
218.4373741572027
 20
533.5373373735434
 30
0.0
 10
218.3346450916359
 20
529.2337627139541
 30
0.0
 10
218.3991040224606
 20
523.4502232250169
 30
0.0
 10
218.3879033056155
 20
518.4407248241536
 30
0.0
 10
218.3823029471928
 20
515.9359756237217
 30
0.0
 11
139.4996053368986
 21
605.9359756237216
 31
0.0
 11
142.4190935409169
 21
604.5298605379752
 31
0.0
 11
144.4954413012053
 21
603.0583043896579
 31
0.0
 11
146.0646903552808
 21
601.0658009913676
 31
0.0
 11
147.3347960538104
 21
597.6562489070362
 31
0.0
 11
149.1348305207221
 21
590.0536226825451
 31
0.0
 11
151.6759035905752
 21
582.5363892266628
 31
0.0
 11
159.7230658148396
 21
568.8771520943098
 31
0.0
 11
164.8052119545455
 21
562.7368717634275
 31
0.0
 11
170.6769021590342
 21
556.5100904701249
 31
0.0
 11
176.0293617707221
 21
551.5127219472511
 31
0.0
 11
182.2764895280752
 21
546.6425473148981
 31
0.0
 11
187.6020734420069
 21
543.660685087878
 31
0.0
 11
193.1788615988808
 21
541.8264021010707
 31
0.0
 11
196.9938608516045
 21
541.1364581604864
 31
0.0
 11
204.9350373221928
 21
540.6073910648981
 31
0.0
 11
208.2757542930592
 21
540.4977414442423
 31
0.0
 11
210.6302889009189
 21
540.2902954766629
 31
0.0
 11
215.682251246825
 21
538.70137084431
 31
0.0
 11
217.7463884251338
 21
536.3714076090158
 31
0.0
 11
218.3823029471928
 21
533.2423098710965
 31
0.0
 11
218.3823029471928
 21
530.9721658810746
 31
0.0
 11
218.3823029471928
 21
523.4540707523981
 31
0.0
 11
218.3823029471928
 21
515.9359756237217
 31
0.0
  0
SPLINE
  5
30BD1
330
A
100
AcDbEntity
  8
HIDDEN
 48
0.05
100
AcDbSpline
210
0.0
220
0.0
230
1.0
 70
  1064
 71
     3
 72
    37
 73
    33
 74
    31
 42
0.000000001
 43
0.0000000001
 44
0.0
 40
0.0
 40
0.0
 40
0.0
 40
0.0
 40
2.434656479779505
 40
6.827044873346496
 40
12.80309234761314
 40
20.70671318842036
 40
29.18491409441187
 40
36.6165666840732
 40
44.45443795495626
 40
50.91149270784729
 40
60.35014083484479
 40
68.28528929183095
 40
76.29322509656855
 40
84.20237925774644
 40
92.1690108059073
 40
99.94431305537323
 40
107.9590630443989
 40
115.0076351632883
 40
124.1784047955529
 40
131.8061009858926
 40
139.7423366344673
 40
147.7596888674406
 40
155.5971613305068
 40
163.5559423759094
 40
167.7589166056879
 40
169.4067530641893
 40
171.3931138998288
 40
174.5826729466745
 40
176.2818463970211
 40
178.2262701313085
 40
184.6759470103133
 40
191.3180366543741
 40
191.3180366543741
 40
191.3180366543741
 40
191.3180366543741
 10
424.2169766604279
 20
605.9359756237216
 30
0.0
 10
423.402590761496
 20
605.9701151673298
 30
0.0
 10
421.118963020825
 20
606.0658462070497
 30
0.0
 10
416.9617222045998
 20
604.7351170780821
 30
0.0
 10
411.7241259245044
 20
601.588827364165
 30
0.0
 10
406.0276963884755
 20
596.7492996318971
 30
0.0
 10
400.2314563255044
 20
591.3315876632472
 30
0.0
 10
394.1698214521095
 20
586.2343189554546
 30
0.0
 10
388.4967174607273
 20
581.7325717816434
 30
0.0
 10
382.1614692221348
 20
576.990532081907
 30
0.0
 10
375.5383164533213
 20
572.5972656411782
 30
0.0
 10
368.3226816945469
 20
568.175508454628
 30
0.0
 10
361.3502400240638
 20
564.3509939055274
 30
0.0
 10
354.2502364934717
 20
560.7405161422776
 30
0.0
 10
346.9913226720851
 20
557.6552824323251
 30
0.0
 10
339.6446295467834
 20
554.7000592134154
 30
0.0
 10
332.5103573128701
 20
552.0411014449812
 30
0.0
 10
324.9247563755676
 20
549.265422666238
 30
0.0
 10
317.4518834184073
 20
546.5501374459039
 30
0.0
 10
309.5773849572793
 20
544.1015818687949
 30
0.0
 10
301.9237228712012
 20
542.2424282950444
 30
0.0
 10
294.0401907078877
 20
541.317309542011
 30
0.0
 10
286.0893320453198
 20
540.8669980860948
 30
0.0
 10
279.4994548809562
 20
540.7726811217519
 30
0.0
 10
274.8000075454792
 20
539.7542271055709
 30
0.0
 10
272.9225016627155
 20
537.755535031363
 30
0.0
 10
272.6387593714701
 20
535.4192252097672
 30
0.0
 10
272.4501113170697
 20
533.1660400552114
 30
0.0
 10
272.2381285596737
 20
530.8908785514493
 30
0.0
 10
272.3167226380014
 20
527.52550574907
 30
0.0
 10
272.2618247856687
 20
522.5141045865869
 30
0.0
 10
272.2715536182943
 20
518.1500650490985
 30
0.0
 10
272.2764895280752
 20
515.9359756237217
 30
0.0
 11
424.2169766604279
 21
605.9359756237216
 31
0.0
 11
421.7823201806484
 21
605.9359756237216
 31
0.0
 11
417.5467675611631
 21
604.7727173516628
 31
0.0
 11
412.3586356677811
 21
601.8068395943098
 31
0.0
 11
406.2174936641045
 21
596.8315408810745
 31
0.0
 11
399.9231893212734
 21
591.1516092404495
 31
0.0
 11
394.2523052449869
 21
586.3484296678392
 31
0.0
 11
388.1111632413104
 21
581.4782550354863
 31
0.0
 11
382.9285213822918
 21
577.6267904513338
 31
0.0
 11
375.0878406310162
 21
572.3720969472511
 31
0.0
 11
368.3116457780752
 21
568.2429609178394
 31
0.0
 11
361.3013990524314
 21
564.3721113084644
 31
0.0
 11
354.2293273038104
 21
560.8308515428394
 31
0.0
 11
346.9232036824869
 21
557.6547256237217
 31
0.0
 11
339.7066940317516
 21
554.7603667082805
 31
0.0
 11
332.2058323589572
 21
551.9366649619569
 31
0.0
 11
325.5879509054702
 21
549.5105540859295
 31
0.0
 11
316.9433452840494
 21
546.4488863544202
 31
0.0
 11
309.6524086457221
 21
544.2074599987217
 31
0.0
 11
301.9232036824869
 21
542.4065638590158
 31
0.0
 11
293.9703946291779
 21
541.3912978893467
 31
0.0
 11
286.1468364949869
 21
540.9244866531334
 31
0.0
 11
278.2056600243986
 21
540.3954195575452
 31
0.0
 11
274.2346409527074
 21
539.0184664325452
 31
0.0
 11
273.1515268088492
 21
537.776601405523
 31
0.0
 11
272.6995708699869
 21
535.8423405134276
 31
0.0
 11
272.4017593321253
 21
532.6667153464358
 31
0.0
 11
272.2764895280752
 21
530.9721658810746
 31
0.0
 11
272.2764895280752
 21
529.0277421467872
 31
0.0
 11
272.2764895280752
 21
522.5780652677824
 31
0.0
 11
272.2764895280752
 21
515.9359756237217
 31
0.0
  0
LINE
  5
30BD6
330
A
100
AcDbEntity
  8
HIDDEN
 48
0.05
100
AcDbLine
 10
218.3823029471928
 20
530.9721658810747
 30
0.0
 11
272.2764895280752
 21
530.9721658810747
 31
0.0
  0
LINE
  5
30C18
330
A
100
AcDbEntity
  8
DIM
100
AcDbLine
 10
338.0653170733099
 20
552.1190478263339
 30
0.0
 11
382.0883391910036
 21
644.2223833493134
 31
0.0
  0
MTEXT
  5
30C19
330
A
100
AcDbEntity
  8
DIM
390
1D
100
AcDbMText
 10
382.4773698304832
 20
665.2762863463548
 30
0.0
 40
12.0
 41
0.0
 46
13.404
 71
     1
 72
     1
  1
{壁取付ボルト位置(2ヶ所)}
  7
ＭＳ ゴシック
 73
     1
 44
0.7828267384257843
1001
ACAD
1000
ACAD_MTEXT_DEFINED_HEIGHT_BEGIN
1070
    46
1040
13.404
1000
ACAD_MTEXT_DEFINED_HEIGHT_END
  0
DIMENSION
  5
30C1A
330
A
100
AcDbEntity
  8
DIM
100
AcDbDimension
  2
*D53
 10
335.2759724012384
 20
638.3687931299258
 30
0.0
 11
285.2759724012383
 21
638.3687931299258
 31
0.0
 70
   160
 71
     5
 42
99.99999999999994
 73
     0
 74
     0
 75
     0
  3
tfrom線あり
100
AcDbAlignedDimension
 13
235.2759724012385
 23
571.640025300804
 33
0.0
 14
335.2759724012384
 24
571.6400253008039
 34
0.0
100
AcDbRotatedDimension
  0
CIRCLE
  5
30C1B
330
A
100
AcDbEntity
  8
HIDDEN
  6
HIDDEN
 48
0.05
100
AcDbCircle
 10
335.2759724012385
 20
547.9359756237217
 30
0.0
 40
5.999999999999659
  0
LINE
  5
30C1C
330
A
100
AcDbEntity
  8
HIDDEN
  6
HIDDEN
 48
0.05
100
AcDbLine
 10
218.7759724329721
 20
542.9572416893345
 30
0.0
 11
271.7759724329721
 21
542.9572416893345
 31
0.0
  0
LINE
  5
30C1D
330
A
100
AcDbEntity
  8
HIDDEN
  6
HIDDEN
 48
0.05
100
AcDbLine
 10
271.7759724329721
 20
542.9572416893345
 30
0.0
 11
271.7759724329721
 21
540.8329683952115
 31
0.0
  0
LINE
  5
30C1E
330
A
100
AcDbEntity
  8
HIDDEN
  6
HIDDEN
 48
0.05
100
AcDbLine
 10
271.7759724329721
 20
540.8329683952115
 30
0.0
 11
218.7759724329721
 21
540.8329683952115
 31
0.0
  0
LINE
  5
30C1F
330
A
100
AcDbEntity
  8
HIDDEN
  6
HIDDEN
 48
0.05
100
AcDbLine
 10
218.7759724329721
 20
540.8329683952115
 30
0.0
 11
218.7759724329721
 21
542.9572416893345
 31
0.0
  0
LINE
  5
30C20
330
A
100
AcDbEntity
  8
HIDDEN
  6
HIDDEN
 48
0.05
100
AcDbLine
 10
236.5265440224562
 20
540.8329683952115
 30
0.0
 11
240.853241311178
 21
535.3895808597796
 31
0.0
  0
LINE
  5
30C21
330
A
100
AcDbEntity
  8
HIDDEN
  6
HIDDEN
 48
0.05
100
AcDbLine
 10
254.025400843489
 20
540.8329683952115
 30
0.0
 11
249.6987035547668
 21
535.3895808597796
 31
0.0
  0
LINE
  5
30C23
330
A
100
AcDbEntity
  8
HIDDEN
  6
HIDDEN
 48
0.05
100
AcDbLine
 10
240.853241311178
 20
530.9816886621717
 30
0.0
 11
240.8469474607334
 21
530.9721658810747
 31
0.0
  0
LINE
  5
30C24
330
A
100
AcDbEntity
  8
HIDDEN
  6
HIDDEN
 48
0.05
100
AcDbLine
 10
240.853241311178
 20
530.9816886621717
 30
0.0
 11
239.3965967666359
 21
533.1856347609755
 31
0.0
  0
LINE
  5
30C26
330
A
100
AcDbEntity
  8
HIDDEN
  6
HIDDEN
 48
0.05
100
AcDbLine
 10
249.6987035547668
 20
530.9816886621717
 30
0.0
 11
249.7049974052114
 21
530.9721658810747
 31
0.0
  0
LINE
  5
30C27
330
A
100
AcDbEntity
  8
HIDDEN
  6
HIDDEN
 48
0.05
100
AcDbLine
 10
249.6987035547668
 20
530.9816886621717
 30
0.0
 11
251.1553480993089
 21
533.1856347609755
 31
0.0
  0
LINE
  5
30C2A
330
A
100
AcDbEntity
  8
HIDDEN
  6
HIDDEN
 48
0.05
100
AcDbLine
 10
240.853241311178
 20
535.3895808597796
 30
0.0
 11
239.3965967666359
 21
533.1856347609755
 31
0.0
  0
LINE
  5
30C2B
330
A
100
AcDbEntity
  8
HIDDEN
  6
HIDDEN
 48
0.05
100
AcDbLine
 10
249.6987035547668
 20
535.3895808597796
 30
0.0
 11
251.1553480993089
 21
533.1856347609755
 31
0.0
  0
LINE
  5
30C2E
330
A
100
AcDbEntity
  8
HIDDEN
  6
HIDDEN
 48
0.05
370
     0
100
AcDbLine
 10
205.2759724012385
 20
515.8068395943142
 30
0.0
 11
205.2759724012385
 21
581.80683959431
 31
0.0
  0
CIRCLE
  5
30C31
330
A
100
AcDbEntity
  8
HIDDEN
  6
HIDDEN
 48
0.05
100
AcDbCircle
 10
235.2759724012385
 20
547.9359756237217
 30
0.0
 40
5.999999999999659
  0
LINE
  5
30C33
330
A
100
AcDbEntity
  8
HIDDEN
  6
HIDDEN
 48
0.05
370
     0
100
AcDbLine
 10
276.9680221696717
 20
581.80683959431
 30
0.0
 11
415.2759724012385
 21
581.80683959431
 31
0.0
  0
LINE
  5
30C36
330
A
100
AcDbEntity
  8
HIDDEN
  6
HIDDEN
 48
0.05
370
     0
100
AcDbLine
 10
205.2759724012385
 20
581.80683959431
 30
0.0
 11
276.9680221696717
 21
581.80683959431
 31
0.0
  0
LINE
  5
30C37
330
A
100
AcDbEntity
  8
HIDDEN
  6
HIDDEN
 48
0.05
370
     0
100
AcDbLine
 10
415.2759724012385
 20
566.1785920293049
 30
0.0
 11
415.2759724012385
 21
578.8068395943138
 31
0.0
  0
LINE
  5
30C38
330
A
100
AcDbEntity
  8
MODEL
100
AcDbLine
 10
415.2759724012385
 20
566.1785920293049
 30
0.0
 11
415.2759724012385
 21
512.9359756237217
 31
0.0
  0
LINE
  5
30C39
330
A
100
AcDbEntity
  8
MODEL
 48
0.05
100
AcDbLine
 10
184.6055910905752
 20
512.9359756237217
 30
0.0
 11
304.5702625060162
 21
512.9359756237217
 31
0.0
  0
SPLINE
  5
30C70
330
A
100
AcDbEntity
  8
HIDDEN
 48
0.05
100
AcDbSpline
210
0.0
220
0.0
230
1.0
 70
  1064
 71
     3
 72
    28
 73
    24
 74
    22
 42
0.000000001
 43
0.0000000001
 44
0.0
 40
0.0
 40
0.0
 40
0.0
 40
0.0
 40
1.157793626923527
 40
2.699312528499158
 40
5.296653241824893
 40
10.32922827084798
 40
15.68912773573334
 40
24.54238556986805
 40
31.86292146317352
 40
40.40389708638355
 40
48.28238042627542
 40
55.1143017183751
 40
64.09795021476272
 40
72.07096364646321
 40
80.65986423305026
 40
87.98361690533305
 40
95.89629094174575
 40
102.2666535349081
 40
108.5324431589925
 40
115.7863877813312
 40
121.1809359305823
 40
124.3783128484016
 40
127.4925471008256
 40
127.4925471008256
 40
127.4925471008256
 40
127.4925471008256
 10
627.5373347947511
 20
605.8308515428394
 30
0.0
 10
627.9105471516325
 20
605.7578041197752
 30
0.0
 10
628.7806649060352
 20
605.5874993092575
 30
0.0
 10
630.6862753642929
 20
605.3298050155701
 30
0.0
 10
631.6093000278257
 20
601.9086125416578
 30
0.0
 10
632.3054870394101
 20
597.8930572538362
 30
0.0
 10
634.2579595441506
 20
591.662282884002
 30
0.0
 10
637.0163002754109
 20
585.0672886847819
 30
0.0
 10
640.9223237189831
 20
577.7862400274772
 30
0.0
 10
645.4712115898008
 20
571.2902592100197
 30
0.0
 10
650.579301277707
 20
565.4415631458148
 30
0.0
 10
656.3611543339309
 20
560.0458477180451
 30
0.0
 10
662.7158144113544
 20
555.2666211749357
 30
0.0
 10
670.0847933357445
 20
550.9720093653077
 30
0.0
 10
677.3684594088262
 20
547.7036945600296
 30
0.0
 10
684.9577499814566
 20
545.3323969854166
 30
0.0
 10
691.99028796617
 20
543.7131517396592
 30
0.0
 10
698.8262058287837
 20
543.0448644847644
 30
0.0
 10
705.4370165739431
 20
542.9156809196433
 30
0.0
 10
711.8174291958012
 20
542.8921996404434
 30
0.0
 10
716.9018519595195
 20
542.6463348564214
 30
0.0
 10
721.2099084677593
 20
542.4864475970193
 30
0.0
 10
722.2073966967919
 20
540.4481386361573
 30
0.0
 10
722.6995708699869
 20
539.4424094472512
 30
0.0
 11
627.5373347947511
 21
605.8308515428394
 31
0.0
 11
628.675558921457
 21
605.6188800354864
 31
0.0
 11
630.1576361273396
 21
605.1949370207805
 31
0.0
 11
631.3226177449867
 21
602.8735157725698
 31
0.0
 11
632.4045679007022
 21
597.9586205261486
 31
0.0
 11
633.9574152336484
 21
592.8285925111919
 31
0.0
 11
637.3577739949869
 21
584.654380954604
 31
0.0
 11
640.8428569258165
 21
578.216645115785
 31
0.0
 11
645.7228934802811
 21
571.2071153296041
 31
0.0
 11
650.9118870464572
 21
565.2788065060747
 31
0.0
 11
655.904287901418
 21
560.6150009521486
 31
0.0
 11
663.0873236273396
 21
555.2196383075453
 31
0.0
 11
669.9703659067513
 21
551.1956263590159
 31
0.0
 11
677.8173000669588
 21
547.703515597364
 31
0.0
 11
684.7945846567513
 21
545.4775656972512
 31
0.0
 11
692.5237896199869
 21
543.7835169840159
 31
0.0
 11
698.8600299458049
 21
543.1250505066297
 31
0.0
 11
705.1230076519262
 21
542.9373543001924
 31
0.0
 11
712.3761653236863
 21
542.8305068737218
 31
0.0
 11
717.7665472966692
 21
542.6185353663689
 31
0.0
 11
720.9003980758689
 21
541.9843441898983
 31
0.0
 11
722.6995708699869
 21
539.4424094472512
 31
0.0
  0
SPLINE
  5
30C71
330
A
100
AcDbEntity
  8
HIDDEN
 48
0.05
100
AcDbSpline
210
0.0
220
0.0
230
1.0
 70
  1064
 71
     3
 72
    28
 73
    24
 74
    22
 42
0.000000001
 43
0.0000000001
 44
0.0
 40
0.0
 40
0.0
 40
0.0
 40
0.0
 40
1.157793626923527
 40
2.699312528499158
 40
5.296653241824893
 40
10.32922827084798
 40
15.68912773573334
 40
24.54238556986805
 40
31.86292146317352
 40
40.40389708638355
 40
48.28238042627542
 40
55.1143017183751
 40
64.09795021476272
 40
72.07096364646321
 40
80.65986423305026
 40
87.98361690533305
 40
95.89629094174575
 40
102.2666535349081
 40
108.5324431589925
 40
115.7863877813312
 40
121.1809359305823
 40
124.3783128484016
 40
127.4925471008256
 40
127.4925471008256
 40
127.4925471008256
 40
127.4925471008256
 10
825.0619448128696
 20
605.8308515428394
 30
0.0
 10
824.6887324559884
 20
605.7578041197752
 30
0.0
 10
823.8186147015858
 20
605.5874993092575
 30
0.0
 10
821.9130042433275
 20
605.3298050155701
 30
0.0
 10
820.9899795797952
 20
601.9086125416578
 30
0.0
 10
820.2937925682106
 20
597.8930572538362
 30
0.0
 10
818.3413200634704
 20
591.662282884002
 30
0.0
 10
815.5829793322092
 20
585.0672886847819
 30
0.0
 10
811.6769558886378
 20
577.7862400274772
 30
0.0
 10
807.1280680178198
 20
571.2902592100197
 30
0.0
 10
802.0199783299139
 20
565.4415631458148
 30
0.0
 10
796.2381252736898
 20
560.0458477180451
 30
0.0
 10
789.8834651962666
 20
555.2666211749357
 30
0.0
 10
782.5144862718761
 20
550.9720093653077
 30
0.0
 10
775.2308201987946
 20
547.7036945600296
 30
0.0
 10
767.6415296261638
 20
545.3323969854166
 30
0.0
 10
760.6089916414508
 20
543.7131517396592
 30
0.0
 10
753.7730737788372
 20
543.0448644847644
 30
0.0
 10
747.1622630336774
 20
542.9156809196433
 30
0.0
 10
740.7818504118195
 20
542.8921996404434
 30
0.0
 10
735.6974276481012
 20
542.6463348564214
 30
0.0
 10
731.3893711398616
 20
542.4864475970193
 30
0.0
 10
730.391882910829
 20
540.4481386361573
 30
0.0
 10
729.8997087376338
 20
539.4424094472512
 30
0.0
 11
825.0619448128696
 21
605.8308515428394
 31
0.0
 11
823.9237206861637
 21
605.6188800354864
 31
0.0
 11
822.4416434802811
 21
605.1949370207805
 31
0.0
 11
821.276661862634
 21
602.8735157725698
 31
0.0
 11
820.1947117069185
 21
597.9586205261486
 31
0.0
 11
818.6418643739723
 21
592.8285925111919
 31
0.0
 11
815.2415056126338
 21
584.654380954604
 31
0.0
 11
811.7564226818042
 21
578.216645115785
 31
0.0
 11
806.8763861273396
 21
571.2071153296041
 31
0.0
 11
801.6873925611635
 21
565.2788065060747
 31
0.0
 11
796.6949917062027
 21
560.6150009521486
 31
0.0
 11
789.5119559802811
 21
555.2196383075453
 31
0.0
 11
782.6289137008694
 21
551.1956263590159
 31
0.0
 11
774.781979540662
 21
547.703515597364
 31
0.0
 11
767.8046949508694
 21
545.4775656972512
 31
0.0
 11
760.0754899876338
 21
543.7835169840159
 31
0.0
 11
753.7392496618158
 21
543.1250505066297
 31
0.0
 11
747.4762719556945
 21
542.9373543001924
 31
0.0
 11
740.2231142839344
 21
542.8305068737218
 31
0.0
 11
734.8327323109515
 21
542.6185353663689
 31
0.0
 11
731.6988815317518
 21
541.9843441898983
 31
0.0
 11
729.8997087376338
 21
539.4424094472512
 31
0.0
  0
LINE
  5
30CC5
330
A
100
AcDbEntity
  8
HIDDEN
 48
0.05
100
AcDbLine
 10
699.2999844729279
 20
530.9721658810747
 30
0.0
 11
753.1941710538104
 21
530.9721658810747
 31
0.0
  0
LINE
  5
30CC9
330
A
100
AcDbEntity
  8
HIDDEN
 48
0.05
100
AcDbLine
 10
699.2999844729279
 20
530.9721658810747
 30
0.0
 11
699.2999844729279
 21
515.9359756237218
 31
0.0
  0
LINE
  5
30CCA
330
A
100
AcDbEntity
  8
HIDDEN
 48
0.05
100
AcDbLine
 10
753.1941710538104
 20
530.9721658810747
 30
0.0
 11
753.1941710538104
 21
515.9359756237218
 31
0.0
  0
DIMENSION
  5
30D10
330
A
100
AcDbEntity
  8
DIM
  6
Continuous
100
AcDbDimension
  2
*D55
 10
726.2996398038104
 20
540.9359756237217
 30
0.0
 11
726.2996398038104
 21
653.5607311618118
 31
0.0
 70
   160
  1
65(深さ)
 71
     5
 42
65.0
 73
     0
 74
     1
 75
     1
  3
tfrom線あり
100
AcDbAlignedDimension
 13
749.4108997837216
 23
605.9359756237217
 33
0.0
 14
726.2996398038104
 24
540.9359756237217
 34
0.0
 50
89.99999999999999
100
AcDbRotatedDimension
1001
ACAD
1000
DSTYLE
1002
{
1070
     3
1000
<>
1070
   172
1070
     1
1070
    75
1070
     1
1070
    76
1070
     1
1002
}
  0
LWPOLYLINE
  5
30D11
330
A
100
AcDbEntity
  8
HIDDEN
  6
HIDDEN
 48
0.0095
100
AcDbPolyline
 90
        4
 70
     1
 43
0.0
 10
722.7336533659045
 20
543.7777489345218
 10
722.7336533659045
 20
526.8093772386147
 10
729.8656262417167
 20
526.8093772386147
 10
729.8656262417167
 20
543.7777489345218
  0
LWPOLYLINE
  5
30D12
330
A
100
AcDbEntity
  8
HIDDEN
  6
HIDDEN
 48
0.0095
100
AcDbPolyline
 90
        4
 70
     1
 43
0.0
 10
717.5496398038104
 20
545.9020222286448
 10
717.5496398038104
 20
543.7777489345218
 10
735.0496398038104
 20
543.7777489345218
 10
735.0496398038104
 20
545.9020222286448
  0
DIMENSION
  5
30D2F
330
A
100
AcDbEntity
  8
DIM
 48
0.05
100
AcDbDimension
  2
*D56
 10
727.3003291420455
 20
446.2831943709319
 30
0.0
 11
812.3003291420455
 21
462.2831943709319
 31
0.0
 70
    32
 71
     5
 42
170.0
 73
     0
 74
     0
 75
     0
  3
tfrom線あり
100
AcDbAlignedDimension
 13
897.3003291420455
 23
512.9359756237217
 33
0.0
 14
727.3003291420455
 24
484.0301356765209
 34
0.0
100
AcDbRotatedDimension
  0
DIMENSION
  5
30DD4
330
A
100
AcDbEntity
  8
DIM
 48
0.05
100
AcDbDimension
  2
*D59
 10
266.2759725243986
 20
461.4204368331419
 30
0.0
 11
245.2759725243986
 21
461.4204368331419
 31
0.0
 70
   160
  1
G1 1/4"
 71
     5
 42
42.0
 73
     0
 74
     0
 75
     0
  3
tfrom線あり
100
AcDbAlignedDimension
 13
224.2759725243986
 23
492.9359756237217
 33
0.0
 14
266.2759725243986
 24
492.9359756237217
 34
0.0
100
AcDbRotatedDimension
1001
ACAD
1000
DSTYLE
1002
{
1070
    77
1070
     2
1002
}
  0
HATCH
  5
30DD6
330
A
100
AcDbEntity
  8
HIDDEN
  6
Continuous
 48
0.05
370
     0
100
AcDbHatch
 10
0.0
 20
0.0
 30
0.0
210
0.0
220
0.0
230
1.0
  2
ANSI31
 70
     0
 71
     1
 91
        1
 92
        1
 93
        4
 72
     1
 10
266.2759725243986
 20
505.340214323332
 11
266.2759725243986
 21
492.9359756237217
 72
     1
 10
226.9156552657226
 20
505.340214323332
 11
263.6362897830746
 21
505.340214323332
 72
     1
 10
224.2759725243986
 20
505.340214323332
 11
224.2759725243986
 21
492.9359756237217
 72
     1
 10
224.2759725243986
 20
492.9359756237217
 11
266.2759725243986
 21
492.9359756237217
 97
        4
330
30DD9
330
30DDC
330
30DD8
330
30DD7
 75
     0
 76
     1
 52
145.0
 41
0.9999999999999987
 77
     0
 78
     1
 53
189.9999999999998
 43
2.32476820300127
 44
48.56767823911849
 45
0.5513329640925042
 46
-3.12676461581376
 79
     0
 98
        1
 10
2.32476820300127
 20
48.56767823911849
1001
ACAD
1010
0.0
1020
0.0
1030
0.0
  0
LINE
  5
30DD7
102
{ACAD_REACTORS
330
30DD6
102
}
330
A
100
AcDbEntity
  8
HIDDEN
  6
Continuous
 48
0.05
100
AcDbLine
 10
224.2759725243986
 20
492.9359756237217
 30
0.0
 11
266.2759725243986
 21
492.9359756237217
 31
0.0
  0
LINE
  5
30DD8
102
{ACAD_REACTORS
330
30DD6
102
}
330
A
100
AcDbEntity
  8
HIDDEN
  6
Continuous
 48
0.05
100
AcDbLine
 10
224.2759725243986
 20
505.340214323332
 30
0.0
 11
224.2759725243986
 21
492.9359756237217
 31
0.0
  0
LINE
  5
30DD9
102
{ACAD_REACTORS
330
30DD6
102
}
330
A
100
AcDbEntity
  8
HIDDEN
  6
Continuous
 48
0.05
100
AcDbLine
 10
266.2759725243986
 20
505.340214323332
 30
0.0
 11
266.2759725243986
 21
492.9359756237217
 31
0.0
  0
LINE
  5
30DDA
330
A
100
AcDbEntity
  8
HIDDEN
  6
Continuous
 48
0.05
100
AcDbLine
 10
274.4473235120927
 20
505.340214323332
 30
0.0
 11
216.1046215367045
 21
505.340214323332
 31
0.0
  0
LINE
  5
30DDB
330
A
100
AcDbEntity
  8
HIDDEN
  6
Continuous
 48
0.05
100
AcDbLine
 10
274.4473235120927
 20
505.340214323332
 30
0.0
 11
274.4473235120927
 21
512.9359756237217
 31
0.0
  0
LINE
  5
30DDC
102
{ACAD_REACTORS
330
30DD6
102
}
330
A
100
AcDbEntity
  8
HIDDEN
  6
Continuous
 48
0.05
100
AcDbLine
 10
226.9156552657226
 20
505.340214323332
 30
0.0
 11
263.6362897830746
 21
505.340214323332
 31
0.0
  0
LINE
  5
30DDD
102
{ACAD_REACTORS
102
}
330
A
100
AcDbEntity
  8
HIDDEN
  6
Continuous
 48
0.05
100
AcDbLine
 10
216.1046215367045
 20
505.340214323332
 30
0.0
 11
216.1046215367045
 21
512.9359756237217
 31
0.0
  0
LINE
  5
30DDE
330
A
100
AcDbEntity
  8
HIDDEN
 48
0.05
100
AcDbLine
 10
247.2181652504538
 20
530.4461142185747
 30
0.0
 11
247.2181652504539
 21
512.9359756237217
 31
0.0
  0
LINE
  5
30DDF
330
A
100
AcDbEntity
  8
HIDDEN
 48
0.05
100
AcDbLine
 10
243.3337797983436
 20
530.4461142185747
 30
0.0
 11
243.3337797983434
 21
512.9359756237217
 31
0.0
  0
LINE
  5
30E16
330
A
100
AcDbEntity
  8
MODEL
 48
0.05
100
AcDbLine
 10
692.3118181126338
 20
512.9359756237217
 30
0.0
 11
773.7347271199869
 21
512.9359756237217
 31
0.0
  0
LINE
  5
30E2B
330
A
100
AcDbEntity
  8
MODEL
 48
0.05
100
AcDbLine
 10
415.2759724012385
 20
512.9359756237217
 30
0.0
 11
304.5702625060162
 21
512.9359756237217
 31
0.0
  0
LINE
  5
30E3F
330
A
100
AcDbEntity
  8
MODEL
 48
0.05
100
AcDbLine
 10
881.3003291420455
 20
582.9359756237217
 30
0.0
 11
881.3003291420455
 21
579.971821211957
 31
0.0
  0
LINE
  5
30E40
330
A
100
AcDbEntity
  8
MODEL
 48
0.05
100
AcDbLine
 10
849.3003291420455
 20
582.9359756237217
 30
0.0
 11
849.3003291420455
 21
579.971821211957
 31
0.0
  0
DIMENSION
  5
30EAA
330
A
100
AcDbEntity
  8
DIM
 48
0.05
100
AcDbDimension
  2
*D62
 10
942.8627557523557
 20
512.9359756237217
 30
0.0
 11
926.8627557523557
 21
547.9359756237217
 31
0.0
 70
    32
 71
     5
 42
70.0
 73
     0
 74
     0
 75
     0
  3
tfrom線あり
100
AcDbAlignedDimension
 13
897.3003291420455
 23
582.9359756237217
 33
0.0
 14
897.3003291420455
 24
512.9359756237217
 34
0.0
 50
90.0
100
AcDbRotatedDimension
  0
ELLIPSE
  5
30F0E
330
A
100
AcDbEntity
  8
MODEL
 48
0.05
370
     0
100
AcDbEllipse
 10
262.7898346444538
 20
1005.71408709521
 30
0.0
 11
-177.441238941698
 21
0.0
 31
0.0
210
0.0
220
0.0
230
1.0
 40
0.5397026884523973
 41
1.445444850870658
 42
4.837740456308928
  0
ELLIPSE
  5
30F0F
330
A
100
AcDbEntity
  8
MODEL
 48
0.05
370
     0
100
AcDbEllipse
 10
246.3689683499132
 20
1005.71408709521
 30
0.0
 11
-95.37773964004917
 21
0.0
 31
0.0
210
0.0
220
0.0
230
1.0
 40
0.9960395408669283
 41
-1.510451027327543
 42
1.510451027327541
  0
DIMENSION
  5
30F27
330
A
100
AcDbEntity
  8
DIM
 48
0.05
100
AcDbDimension
  2
*D65
 10
441.0281257070251
 20
807.8012318458946
 30
0.0
 11
466.0281257070251
 21
823.8012318458946
 31
0.0
 70
    32
 71
     5
 42
50.0
 73
     0
 74
     0
 75
     0
  3
tfrom線あり
100
AcDbAlignedDimension
 13
491.0281257070251
 23
1005.714087094332
 33
0.0
 14
441.0281257070251
 24
1005.714087094332
 34
0.0
100
AcDbRotatedDimension
  0
DIMENSION
  5
30F46
330
A
100
AcDbEntity
  8
DIM
 48
0.05
100
AcDbDimension
  2
*D66
 10
598.9340380883064
 20
1176.714087095206
 30
0.0
 11
582.9340380883064
 21
1036.706783394658
 31
0.0
 70
    32
 71
     5
 42
280.0146074010959
 73
     0
 74
     0
 75
     0
  3
tfrom線あり
100
AcDbAlignedDimension
 13
491.0281257070251
 23
896.6994796941101
 33
0.0
 14
415.2764033607955
 24
1176.714087095206
 34
0.0
 50
90.0
100
AcDbRotatedDimension
  0
LINE
  5
30FAE
330
A
100
AcDbEntity
  8
HIDDEN
 48
0.05
100
AcDbLine
 10
728.2418325298657
 20
525.6954003503278
 30
0.0
 11
728.2418325298657
 21
512.9359756237217
 31
0.0
  0
LINE
  5
30FAF
330
A
100
AcDbEntity
  8
HIDDEN
 48
0.05
100
AcDbLine
 10
724.3574470777554
 20
525.6954003503278
 30
0.0
 11
724.3574470777554
 21
512.9359756237217
 31
0.0
  0
LINE
  5
30FB0
330
A
100
AcDbEntity
  8
HIDDEN
  6
Continuous
 48
0.05
100
AcDbLine
 10
705.2996398038106
 20
505.3402143233321
 30
0.0
 11
705.2996398038106
 21
492.9359756237217
 31
0.0
  0
LINE
  5
30FB1
330
A
100
AcDbEntity
  8
HIDDEN
  6
Continuous
 48
0.05
100
AcDbLine
 10
747.2996398038106
 20
505.3402143233321
 30
0.0
 11
747.2996398038106
 21
492.9359756237217
 31
0.0
  0
HATCH
  5
30FB2
330
A
100
AcDbEntity
  8
HIDDEN
  6
Continuous
 48
0.05
370
     0
100
AcDbHatch
 10
0.0
 20
0.0
 30
0.0
210
0.0
220
0.0
230
1.0
  2
ANSI31
 70
     0
 71
     0
 91
        1
 92
        1
 93
        4
 72
     1
 10
747.2996398038106
 20
505.3402143233321
 11
747.2996398038106
 21
492.9359756237217
 72
     1
 10
707.9393225451345
 20
505.3402143233321
 11
744.6599570624865
 21
505.3402143233321
 72
     1
 10
705.2996398038106
 20
505.3402143233321
 11
705.2996398038106
 21
492.9359756237217
 72
     1
 10
705.2996398038106
 20
492.9359756237217
 11
747.2996398038106
 21
492.9359756237217
 97
        0
 75
     0
 76
     1
 52
145.0
 41
0.9999999999999987
 77
     0
 78
     1
 53
189.9999999999996
 43
483.3484354824132
 44
48.56767823911855
 45
0.5513329640925042
 46
-3.12676461581376
 79
     0
 98
        1
 10
483.3484354824132
 20
48.56767823911855
1001
ACAD
1010
0.0
1020
0.0
1030
0.0
  0
LINE
  5
30FB3
330
A
100
AcDbEntity
  8
HIDDEN
  6
Continuous
 48
0.05
100
AcDbLine
 10
755.4709907915046
 20
505.3402143233321
 30
0.0
 11
697.1282888161165
 21
505.3402143233321
 31
0.0
  0
LINE
  5
30FB4
330
A
100
AcDbEntity
  8
HIDDEN
  6
Continuous
 48
0.05
100
AcDbLine
 10
707.9393225451345
 20
505.3402143233321
 30
0.0
 11
744.6599570624865
 21
505.3402143233321
 31
0.0
  0
LINE
  5
30FB5
330
A
100
AcDbEntity
  8
HIDDEN
  6
Continuous
 48
0.05
100
AcDbLine
 10
697.1282888161165
 20
505.3402143233321
 30
0.0
 11
697.1282888161165
 21
512.9359756237217
 31
0.0
  0
LINE
  5
30FB6
330
A
100
AcDbEntity
  8
HIDDEN
  6
Continuous
 48
0.05
100
AcDbLine
 10
755.4709907915046
 20
505.3402143233321
 30
0.0
 11
755.4709907915046
 21
512.9359756237217
 31
0.0
  0
LINE
  5
30FB7
330
A
100
AcDbEntity
  8
HIDDEN
  6
Continuous
 48
0.05
100
AcDbLine
 10
705.2996398038106
 20
492.9359756237217
 30
0.0
 11
747.2996398038106
 21
492.9359756237217
 31
0.0
  0
MTEXT
  5
3101D
330
A
100
AcDbEntity
  8
TEMPLATE
390
1D
100
AcDbMText
 10
663.3513394527746
 20
115.0746453469641
 30
0.0
 40
12.21630859375
 41
0.0
 46
14.1953505859375
 71
     1
 72
     1
  1
{3.25kg}
  7
ＭＳ ゴシック
 73
     1
 44
0.7828267384257843
1001
ACAD
1000
ACAD_MTEXT_DEFINED_HEIGHT_BEGIN
1070
    46
1040
14.1953505859375
1000
ACAD_MTEXT_DEFINED_HEIGHT_END
  0
MTEXT
  5
31021
330
A
100
AcDbEntity
  8
TEMPLATE
390
1D
100
AcDbMText
 10
65.64059466762865
 20
115.0746453469641
 30
0.0
 40
12.0
 41
0.0
 46
44.59706953703137
 71
     1
 72
     1
  1
{\fＭＳ ゴシック|b0|i0|c1|p0;壁掛け/オーバーフローなし/\P排水目皿(水溜め不可)、壁取付ボルト付属/\P陶器}
  7
ＭＳ ゴシック
 73
     1
 44
0.8999999999999999
1001
ACAD
1000
ACAD_MTEXT_DEFINED_HEIGHT_BEGIN
1070
    46
1040
44.59706953703137
1000
ACAD_MTEXT_DEFINED_HEIGHT_END
  0
MTEXT
  5
31061
330
A
100
AcDbEntity
  8
TEMPLATE
390
1D
100
AcDbMText
 10
663.3513394527746
 20
159.8371240313142
 30
0.0
 40
12.21630859375
 41
0.0
 46
12.21630859375
 71
     1
 72
     1
  1
{BRS70-0104}
  7
ＭＳ ゴシック
 73
     1
 44
0.7828267384257843
1001
ACAD
1000
ACAD_MTEXT_DEFINED_HEIGHT_BEGIN
1070
    46
1040
12.21630859375
1000
ACAD_MTEXT_DEFINED_HEIGHT_END
  0
MTEXT
  5
31065
330
A
100
AcDbEntity
  8
TEMPLATE
390
1D
100
AcDbMText
 10
663.3513394527746
 20
196.7003417713673
 30
0.0
 40
12.21630859375
 41
0.0
 46
13.64561669921875
 71
     1
 72
     1
  1
{BRS70-0104-003 (ブラック)}
  7
ＭＳ ゴシック
 73
     1
 44
0.7828267384257843
1001
ACAD
1000
ACAD_MTEXT_DEFINED_HEIGHT_BEGIN
1070
    46
1040
13.64561669921875
1000
ACAD_MTEXT_DEFINED_HEIGHT_END
  0
MTEXT
  5
31066
330
A
100
AcDbEntity
  8
TEMPLATE
390
1D
100
AcDbMText
 10
663.3513394527746
 20
214.4736788960357
 30
0.0
 40
12.21630859375
 41
0.0
 46
13.64561669921875
 71
     1
 72
     1
  1
{BRS70-0104-001 (ホワイト)}
  7
ＭＳ ゴシック
 73
     1
 44
0.7828267384257843
1001
ACAD
1000
ACAD_MTEXT_DEFINED_HEIGHT_BEGIN
1070
    46
1040
13.64561669921875
1000
ACAD_MTEXT_DEFINED_HEIGHT_END
  0
LINE
  5
310B9
330
A
100
AcDbEntity
  8
MODEL
  6
CENTER
 48
0.01
100
AcDbLine
 10
235.2759724012385
 20
571.640025300804
 30
0.0
 11
235.2759724012385
 21
524.2319259466392
 31
0.0
  0
LINE
  5
310BA
330
A
100
AcDbEntity
  8
MODEL
  6
CENTER
 48
0.01
100
AcDbLine
 10
258.9800220783208
 20
547.9359756237218
 30
0.0
 11
211.5719227241561
 21
547.9359756237218
 31
0.0
  0
LINE
  5
310BB
330
A
100
AcDbEntity
  8
MODEL
  6
CENTER
 48
0.01
100
AcDbLine
 10
358.9800220783209
 20
547.9359756237217
 30
0.0
 11
311.5719227241561
 21
547.9359756237217
 31
0.0
  0
LINE
  5
310BC
330
A
100
AcDbEntity
  8
MODEL
  6
CENTER
 48
0.01
100
AcDbLine
 10
335.2759724012384
 20
571.6400253008039
 30
0.0
 11
335.2759724012384
 21
524.2319259466392
 31
0.0
  0
MTEXT
  5
311B6
102
{ACAD_XDICTIONARY
360
311B7
102
}
330
A
100
AcDbEntity
  8
MODEL
 48
0.05
100
AcDbMText
 10
37.56693365156131
 20
42.35984626782825
 30
0.0
 40
11.0
 41
0.0
 46
11.0
 71
     1
 72
     1
  1
{20160719N}
  7
ＭＳ ゴシック
 73
     1
 44
1.0
1001
ACAD
1000
ACAD_MTEXT_DEFINED_HEIGHT_BEGIN
1070
    46
1040
11.0
1000
ACAD_MTEXT_DEFINED_HEIGHT_END
  0
LINE
  5
311F2
330
A
100
AcDbEntity
  8
HIDDEN
  6
HIDDEN
 48
0.05
370
     0
100
AcDbLine
 10
285.2764033607882
 20
1053.21408709521
 30
0.0
 11
282.2764033607882
 21
1053.21408709521
 31
0.0
  0
VIEWPORT
  5
349
330
B
100
AcDbEntity
 67
     1
  8
0
100
AcDbViewport
 10
202.5
 20
128.5
 30
0.0
 40
486.0
 41
308.4
 68
     1
 69
     1
 12
202.5
 22
128.5
 13
0.0
 23
0.0
 14
0.5
 24
0.5
 15
0.0
 25
0.0
 16
0.0
 26
0.0
 36
1.0
 17
0.0
 27
0.0
 37
0.0
 42
50.0
 43
0.0
 44
0.0
 45
308.4
 50
0.0
 51
0.0
 72
   100
 90
   557152
  1

281
     0
 71
     1
 74
     0
110
0.0
120
0.0
130
0.0
111
1.0
121
0.0
131
0.0
112
0.0
122
1.0
132
0.0
 79
     0
146
0.0
170
     0
 61
     5
348
26C
292
     1
282
     1
141
0.0
142
0.0
 63
   256
  0
VIEWPORT
  5
34A
330
B
100
AcDbEntity
 67
     1
  8
0
100
AcDbViewport
 10
202.5
 20
128.5
 30
0.0
 40
324.0
 41
205.6
 68
     2
 69
     2
 12
986.6781359294573
 22
1427.077061889956
 13
0.0
 23
0.0
 14
0.5
 24
0.5
 15
0.0
 25
0.0
 16
0.0
 26
0.0
 36
1.0
 17
0.0
 27
0.0
 37
0.0
 42
50.0
 43
0.0
 44
0.0
 45
2890.021615685494
 50
0.0
 51
0.0
 72
   100
 90
   557152
  1

281
     0
 71
     1
 74
     0
110
0.0
120
0.0
130
0.0
111
1.0
121
0.0
131
0.0
112
0.0
122
1.0
132
0.0
 79
     0
146
0.0
170
     0
 61
     5
348
26C
292
     1
282
     1
141
0.0
142
0.0
 63
   256
  0
ENDSEC
  0
SECTION
  2
OBJECTS
  0
DICTIONARY
  5
19
330
0
100
AcDbDictionary
281
     1
  3
ACAD_COLOR
350
674
  3
ACAD_DETAILVIEWSTYLE
350
BBF
  3
ACAD_FIELDLIST
350
311B4
  3
ACAD_GROUP
350
1A
  3
ACAD_IMAGE_VARS
350
27B
  3
ACAD_LAYOUT
350
1E
  3
ACAD_MATERIAL
350
263
  3
ACAD_MLEADERSTYLE
350
336
  3
ACAD_MLINESTYLE
350
1B
  3
ACAD_PLOTSETTINGS
350
22
  3
ACAD_PLOTSTYLENAME
350
1F
  3
ACAD_SCALELIST
350
241
  3
ACAD_SECTIONVIEWSTYLE
350
BC0
  3
ACAD_TABLESTYLE
350
278
  3
ACAD_VISUALSTYLE
350
267
  3
ACDB_RECOMPOSE_DATA
350
3120A
  3
AcDbVariableDictionary
350
330
  3
APPDATA
350
27A
  3
DimOffsetDictionary
350
E38
  0
SUN
  5
904
330
15
100
AcDbSun
 90
        1
290
     0
 63
     7
421
 16777215
 40
1.0
291
     1
 91
  2455826
 92
 54000000
292
     0
 70
     2
 71
   256
280
     1
  0
DICTIONARY
  5
2E1
330
2
100
AcDbDictionary
280
     1
281
     1
  3
ACAD_LAYERSTATES
360
2E2
  3
ACLYDICTIONARY
360
DDE
  0
DICTIONARY
  5
30B3C
330
30B3B
100
AcDbDictionary
280
     1
281
     1
  3
ACAD_DIMASSOC
360
30B3D
  0
DICTIONARY
  5
311B7
330
311B6
100
AcDbDictionary
280
     1
281
     1
  3
ACAD_FIELD
360
311B8
  0
DICTIONARY
  5
674
102
{ACAD_REACTORS
330
19
102
}
330
19
100
AcDbDictionary
281
     1
  0
DICTIONARY
  5
BBF
102
{ACAD_REACTORS
330
19
102
}
330
19
100
AcDbDictionary
281
     1
  0
FIELDLIST
  5
311B4
102
{ACAD_REACTORS
330
19
102
}
330
19
100
AcDbIdSet
 90
        1
330
311B9
100
AcDbFieldList
  0
DICTIONARY
  5
1A
102
{ACAD_REACTORS
330
19
102
}
330
19
100
AcDbDictionary
281
     1
  0
RASTERVARIABLES
  5
27B
102
{ACAD_REACTORS
330
19
102
}
330
19
100
AcDbRasterVariables
 90
        0
 70
     1
 71
     1
 72
     1
  0
DICTIONARY
  5
1E
102
{ACAD_REACTORS
330
19
102
}
330
19
100
AcDbDictionary
281
     1
  3
Layout1
350
21
  3
Model
350
20
  0
DICTIONARY
  5
263
102
{ACAD_REACTORS
330
19
102
}
330
19
100
AcDbDictionary
281
     1
  3
ByBlock
350
265
  3
ByLayer
350
264
  3
Global
350
266
  0
DICTIONARY
  5
336
102
{ACAD_REACTORS
330
19
102
}
330
19
100
AcDbDictionary
281
     1
  3
Standard
350
D59
  0
DICTIONARY
  5
1B
102
{ACAD_REACTORS
330
19
102
}
330
19
100
AcDbDictionary
281
     1
  3
Standard
350
1C
  0
DICTIONARY
  5
22
102
{ACAD_REACTORS
330
19
102
}
330
19
100
AcDbDictionary
281
     1
  0
ACDBDICTIONARYWDFLT
  5
1F
102
{ACAD_REACTORS
330
19
102
}
330
19
100
AcDbDictionary
281
     1
  3
Normal
350
1D
100
AcDbDictionaryWithDefault
340
1D
  0
DICTIONARY
  5
241
102
{ACAD_REACTORS
330
19
102
}
330
19
100
AcDbDictionary
281
     1
  3
A0
350
242
  3
A1
350
243
  3
A2
350
244
  3
A3
350
245
  3
A4
350
246
  3
A5
350
247
  3
A6
350
248
  3
A7
350
249
  3
A8
350
24A
  3
A9
350
24B
  3
B0
350
24C
  3
B1
350
24D
  3
B2
350
24E
  3
B3
350
24F
  3
B4
350
250
  3
B5
350
251
  3
B6
350
252
  3
B7
350
253
  3
B8
350
254
  3
B9
350
255
  3
C0
350
256
  3
C1
350
257
  3
C2
350
258
  3
C3
350
259
  3
C4
350
25A
  3
C5
350
25B
  3
C6
350
25C
  3
C7
350
25D
  3
C8
350
25E
  3
C9
350
25F
  3
D0
350
260
  3
D1
350
261
  3
D2
350
262
  0
DICTIONARY
  5
BC0
102
{ACAD_REACTORS
330
19
102
}
330
19
100
AcDbDictionary
281
     1
  0
DICTIONARY
  5
278
102
{ACAD_REACTORS
330
19
102
}
330
19
100
AcDbDictionary
281
     1
  3
Standard
350
279
  0
DICTIONARY
  5
267
102
{ACAD_REACTORS
330
19
102
}
330
19
100
AcDbDictionary
281
     1
  3
2dWireframe
350
26C
  3
3D Hidden
350
26E
  3
3dWireframe
350
26D
  3
Basic
350
26F
  3
Brighten
350
273
  3
ColorChange
350
277
  3
Conceptual
350
271
  3
Dim
350
272
  3
EdgeColorOff
350
8FE
  3
Facepattern
350
276
  3
Flat
350
268
  3
FlatWithEdges
350
269
  3
Gouraud
350
26A
  3
GouraudWithEdges
350
26B
  3
Hidden
350
8FB
  3
JitterOff
350
8FC
  3
Linepattern
350
275
  3
OverhangOff
350
8FD
  3
Realistic
350
270
  3
Shaded
350
903
  3
Shaded with edges
350
902
  3
Shades of Gray
350
8FF
  3
Sketchy
350
900
  3
Thicken
350
274
  3
Wireframe
350
8FA
  3
X-Ray
350
901
  0
XRECORD
  5
3120A
102
{ACAD_REACTORS
330
19
102
}
330
19
100
AcDbXrecord
280
     1
 90
        1
330
279
  0
DICTIONARY
  5
330
102
{ACAD_REACTORS
330
19
102
}
330
19
100
AcDbDictionary
281
     1
  3
CANNOSCALE
350
331
  3
CMLEADERSTYLE
350
D5E
  3
CTABLESTYLE
350
335
  3
HPTRANSPARENCY
350
D52
  3
XCLIPFRAME
350
896
  0
DICTIONARY
  5
27A
102
{ACAD_REACTORS
330
19
102
}
330
19
100
AcDbDictionary
281
     1
  0
DICTIONARY
  5
E38
102
{ACAD_REACTORS
330
19
102
}
330
19
100
AcDbDictionary
281
     1
  3
DIMRAILANGLE
350
E3B
  3
DIMRAILFIRSTOFFSET
350
E39
  3
DIMRAILOFFSET
350
E3A
  3
DIMRAILSENABLED
350
E3C
  0
DICTIONARY
  5
2E2
102
{ACAD_REACTORS
330
2E1
102
}
330
2E1
100
AcDbDictionary
281
     1
  3
ARGON_LAYERP_9
350
7AA
  0
DICTIONARY
  5
DDE
102
{ACAD_REACTORS
330
2E1
102
}
330
2E1
100
AcDbDictionary
281
     1
1001
ACAD
1000
<All
  0
DIMASSOC
  5
30B3D
102
{ACAD_REACTORS
330
30B3C
102
}
330
30B3C
100
AcDbDimAssoc
330
30B3B
 90
        3
 70
     0
 71
     1
  1
AcDbOsnapPointRef
 72
    13
331
2D4BF
 73
     2
 91
        1
 40
0.0
 10
0.0
 20
0.0
 30
0.0
 75
     0
  1
AcDbOsnapPointRef
 72
    10
331
2D4C3
 73
     2
 91
        1
 40
0.4572178994714209
 10
0.0
 20
0.0
 30
0.0
 75
     0
  0
DICTIONARY
  5
311B8
102
{ACAD_REACTORS
330
311B7
102
}
330
311B7
100
AcDbDictionary
280
     1
281
     1
  3
TEXT
360
311B9
  0
LAYOUT
  5
21
102
{ACAD_REACTORS
330
1E
102
}
330
1E
100
AcDbPlotSettings
  1

  2
none_device
  4
ISO_A3_(420.00_x_297.00_MM)
  6

 40
7.5
 41
20.0
 42
7.5
 43
20.0
 44
420.0
 45
297.0
 46
0.0
 47
0.0
 48
0.0
 49
0.0
140
0.0
141
0.0
142
1.0
143
1.0
 70
     0
 72
     1
 73
     0
 74
     0
  7

 75
     0
 76
     0
 77
     2
 78
   300
147
1.0
148
0.0
149
0.0
100
AcDbLayout
  1
Layout1
 70
     0
 71
     0
 10
-7.5
 20
-20.0
 11
412.5
 21
277.0
 12
0.0
 22
0.0
 32
0.0
 14
0.0
 24
0.0
 34
0.0
 15
0.0
 25
0.0
 35
0.0
146
0.0
 13
0.0
 23
0.0
 33
0.0
 16
0.0
 26
0.0
 36
0.0
 17
0.0
 27
0.0
 37
0.0
 76
     0
330
B
331
349
  0
LAYOUT
  5
20
102
{ACAD_REACTORS
330
1E
102
}
330
1E
100
AcDbPlotSettings
  1

  2
none_device
  4
ISO_A3_(420.00_x_297.00_MM)
  6

 40
7.5
 41
20.0
 42
7.5
 43
20.0
 44
420.0
 45
297.0
 46
0.0
 47
0.0
 48
0.0
 49
0.0
140
0.0
141
0.0
142
1.0
143
1.0
 70
  1024
 72
     1
 73
     0
 74
     0
  7

 75
     0
 76
     0
 77
     2
 78
   300
147
1.0
148
0.0
149
0.0
100
AcDbLayout
  1
Model
 70
     0
 71
     1
 10
0.0
 20
0.0
 11
1050.0
 21
1485.0
 12
0.0
 22
0.0
 32
0.0
 14
0.0
 24
0.0
 34
0.0
 15
1050.0
 25
1485.0
 35
0.0000000000000142
146
0.0
 13
0.0
 23
0.0
 33
0.0
 16
0.0
 26
0.0
 36
0.0
 17
0.0
 27
0.0
 37
0.0
 76
     0
330
A
331
15
  0
MATERIAL
  5
265
102
{ACAD_REACTORS
330
263
102
}
330
263
100
AcDbMaterial
  1
ByBlock
 72
     1
 94
      127
  0
MATERIAL
  5
264
102
{ACAD_REACTORS
330
263
102
}
330
263
100
AcDbMaterial
  1
ByLayer
 72
     1
 94
      127
  0
MATERIAL
  5
266
102
{ACAD_REACTORS
330
263
102
}
330
263
100
AcDbMaterial
  1
Global
 72
     1
 94
      127
  0
MLEADERSTYLE
  5
D59
102
{ACAD_REACTORS
330
336
102
}
330
336
100
AcDbMLeaderStyle
170
     2
171
     1
172
     0
 90
        2
 40
0.0
 41
0.0
173
     1
 91
-1056964608
340
11
 92
       -2
290
     1
 42
2.0
291
     1
 43
8.0
  3
Standard
341
0
 44
4.0
300

342
17
174
     1
178
     6
175
     1
176
     0
 93
-1056964608
 45
4.0
292
     0
297
     0
 46
4.0
343
0
 94
-1056964608
 47
1.0
 49
1.0
140
1.0
293
     1
141
0.0
294
     1
177
     0
142
1.0
295
     0
296
     0
143
3.75
1001
ACAD_MLEADERVER
1070
     2
  0
MLINESTYLE
  5
1C
102
{ACAD_REACTORS
330
1B
102
}
330
1B
100
AcDbMlineStyle
  2
Standard
 70
     0
  3

 62
     0
 51
90.0
 52
90.0
 71
     2
 49
0.5
 62
   256
  6
BYLAYER
 49
-0.5
 62
   256
  6
BYLAYER
  0
ACDBPLACEHOLDER
  5
1D
102
{ACAD_REACTORS
330
1F
102
}
330
1F
  0
SCALE
  5
242
102
{ACAD_REACTORS
330
241
102
}
330
241
100
AcDbScale
 70
     0
300
1:1
140
1.0
141
1.0
290
     1
  0
SCALE
  5
243
102
{ACAD_REACTORS
330
241
102
}
330
241
100
AcDbScale
 70
     0
300
1:2
140
1.0
141
2.0
290
     0
  0
SCALE
  5
244
102
{ACAD_REACTORS
330
241
102
}
330
241
100
AcDbScale
 70
     0
300
1:4
140
1.0
141
4.0
290
     0
  0
SCALE
  5
245
102
{ACAD_REACTORS
330
241
102
}
330
241
100
AcDbScale
 70
     0
300
1:5
140
1.0
141
5.0
290
     0
  0
SCALE
  5
246
102
{ACAD_REACTORS
330
241
102
}
330
241
100
AcDbScale
 70
     0
300
1:8
140
1.0
141
8.0
290
     0
  0
SCALE
  5
247
102
{ACAD_REACTORS
330
241
102
}
330
241
100
AcDbScale
 70
     0
300
1:10
140
1.0
141
10.0
290
     0
  0
SCALE
  5
248
102
{ACAD_REACTORS
330
241
102
}
330
241
100
AcDbScale
 70
     0
300
1:16
140
1.0
141
16.0
290
     0
  0
SCALE
  5
249
102
{ACAD_REACTORS
330
241
102
}
330
241
100
AcDbScale
 70
     0
300
1:20
140
1.0
141
20.0
290
     0
  0
SCALE
  5
24A
102
{ACAD_REACTORS
330
241
102
}
330
241
100
AcDbScale
 70
     0
300
1:30
140
1.0
141
30.0
290
     0
  0
SCALE
  5
24B
102
{ACAD_REACTORS
330
241
102
}
330
241
100
AcDbScale
 70
     0
300
1:40
140
1.0
141
40.0
290
     0
  0
SCALE
  5
24C
102
{ACAD_REACTORS
330
241
102
}
330
241
100
AcDbScale
 70
     0
300
1:50
140
1.0
141
50.0
290
     0
  0
SCALE
  5
24D
102
{ACAD_REACTORS
330
241
102
}
330
241
100
AcDbScale
 70
     0
300
1:100
140
1.0
141
100.0
290
     0
  0
SCALE
  5
24E
102
{ACAD_REACTORS
330
241
102
}
330
241
100
AcDbScale
 70
     0
300
2:1
140
2.0
141
1.0
290
     0
  0
SCALE
  5
24F
102
{ACAD_REACTORS
330
241
102
}
330
241
100
AcDbScale
 70
     0
300
4:1
140
4.0
141
1.0
290
     0
  0
SCALE
  5
250
102
{ACAD_REACTORS
330
241
102
}
330
241
100
AcDbScale
 70
     0
300
8:1
140
8.0
141
1.0
290
     0
  0
SCALE
  5
251
102
{ACAD_REACTORS
330
241
102
}
330
241
100
AcDbScale
 70
     0
300
10:1
140
10.0
141
1.0
290
     0
  0
SCALE
  5
252
102
{ACAD_REACTORS
330
241
102
}
330
241
100
AcDbScale
 70
     0
300
100:1
140
100.0
141
1.0
290
     0
  0
SCALE
  5
253
102
{ACAD_REACTORS
330
241
102
}
330
241
100
AcDbScale
 70
     0
300
1/128" = 1'-0"
140
0.0078125
141
12.0
290
     0
  0
SCALE
  5
254
102
{ACAD_REACTORS
330
241
102
}
330
241
100
AcDbScale
 70
     0
300
1/64" = 1'-0"
140
0.015625
141
12.0
290
     0
  0
SCALE
  5
255
102
{ACAD_REACTORS
330
241
102
}
330
241
100
AcDbScale
 70
     0
300
1/32" = 1'-0"
140
0.03125
141
12.0
290
     0
  0
SCALE
  5
256
102
{ACAD_REACTORS
330
241
102
}
330
241
100
AcDbScale
 70
     0
300
1/16" = 1'-0"
140
0.0625
141
12.0
290
     0
  0
SCALE
  5
257
102
{ACAD_REACTORS
330
241
102
}
330
241
100
AcDbScale
 70
     0
300
3/32" = 1'-0"
140
0.09375
141
12.0
290
     0
  0
SCALE
  5
258
102
{ACAD_REACTORS
330
241
102
}
330
241
100
AcDbScale
 70
     0
300
1/8" = 1'-0"
140
0.125
141
12.0
290
     0
  0
SCALE
  5
259
102
{ACAD_REACTORS
330
241
102
}
330
241
100
AcDbScale
 70
     0
300
3/16" = 1'-0"
140
0.1875
141
12.0
290
     0
  0
SCALE
  5
25A
102
{ACAD_REACTORS
330
241
102
}
330
241
100
AcDbScale
 70
     0
300
1/4" = 1'-0"
140
0.25
141
12.0
290
     0
  0
SCALE
  5
25B
102
{ACAD_REACTORS
330
241
102
}
330
241
100
AcDbScale
 70
     0
300
3/8" = 1'-0"
140
0.375
141
12.0
290
     0
  0
SCALE
  5
25C
102
{ACAD_REACTORS
330
241
102
}
330
241
100
AcDbScale
 70
     0
300
1/2" = 1'-0"
140
0.5
141
12.0
290
     0
  0
SCALE
  5
25D
102
{ACAD_REACTORS
330
241
102
}
330
241
100
AcDbScale
 70
     0
300
3/4" = 1'-0"
140
0.75
141
12.0
290
     0
  0
SCALE
  5
25E
102
{ACAD_REACTORS
330
241
102
}
330
241
100
AcDbScale
 70
     0
300
1" = 1'-0"
140
1.0
141
12.0
290
     0
  0
SCALE
  5
25F
102
{ACAD_REACTORS
330
241
102
}
330
241
100
AcDbScale
 70
     0
300
1-1/2" = 1'-0"
140
1.5
141
12.0
290
     0
  0
SCALE
  5
260
102
{ACAD_REACTORS
330
241
102
}
330
241
100
AcDbScale
 70
     0
300
3" = 1'-0"
140
3.0
141
12.0
290
     0
  0
SCALE
  5
261
102
{ACAD_REACTORS
330
241
102
}
330
241
100
AcDbScale
 70
     0
300
6" = 1'-0"
140
6.0
141
12.0
290
     0
  0
SCALE
  5
262
102
{ACAD_REACTORS
330
241
102
}
330
241
100
AcDbScale
 70
     0
300
1'-0" = 1'-0"
140
12.0
141
12.0
290
     0
  0
TABLESTYLE
  5
279
102
{ACAD_REACTORS
330
278
102
}
102
{ACAD_XDICTIONARY
360
31208
102
}
330
278
100
AcDbTableStyle
  3
Standard
 70
     0
 71
     0
 40
0.06
 41
0.06
280
     0
281
     0
  7
Standard
140
4.5
170
     2
 62
     0
 63
   257
283
     0
 90
        4
 91
        0
  1

274
    -2
284
     1
 64
     0
275
    -2
285
     1
 65
     0
276
    -2
286
     1
 66
     0
277
    -2
287
     1
 67
     0
278
    -2
288
     1
 68
     0
279
    -2
289
     1
 69
     0
  7
Standard
140
6.0
170
     5
 62
     0
 63
   257
283
     0
 90
        4
 91
        0
  1

274
    -2
284
     1
 64
     0
275
    -2
285
     1
 65
     0
276
    -2
286
     1
 66
     0
277
    -2
287
     1
 67
     0
278
    -2
288
     1
 68
     0
279
    -2
289
     1
 69
     0
  7
Standard
140
4.5
170
     5
 62
     0
 63
   257
283
     0
 90
        4
 91
        0
  1

274
    -2
284
     1
 64
     0
275
    -2
285
     1
 65
     0
276
    -2
286
     1
 66
     0
277
    -2
287
     1
 67
     0
278
    -2
288
     1
 68
     0
279
    -2
289
     1
 69
     0
  0
VISUALSTYLE
  5
26C
102
{ACAD_REACTORS
330
267
102
}
330
267
100
AcDbVisualStyle
  2
2dWireframe
 70
     4
 71
     0
 72
     2
 73
     0
 90
        0
 40
-0.6
 41
-30.0
 62
     5
 63
     7
421
 16777215
 74
     1
 91
        4
 64
     7
 65
   257
 75
     1
175
     1
 42
1.0
 92
        0
 66
   257
 43
1.0
 76
     1
 77
     6
 78
     2
 67
     7
 79
     5
170
     0
171
     0
290
     0
174
     0
 93
        1
 44
0.0
173
     0
291
     0
 45
0.0
  0
VISUALSTYLE
  5
26E
102
{ACAD_REACTORS
330
267
102
}
330
267
100
AcDbVisualStyle
  2
3D Hidden
 70
     6
 71
     1
 72
     2
 73
     2
 90
        0
 40
-0.6
 41
-30.0
 62
     5
 63
     7
421
 16777215
 74
     2
 91
        2
 64
     7
 65
   257
 75
     2
175
     1
 42
40.0
 92
        0
 66
   257
 43
1.0
 76
     1
 77
     6
 78
     2
 67
     7
 79
     3
170
     0
171
     0
290
     0
174
     0
 93
        1
 44
0.0
173
     0
291
     0
 45
0.0
  0
VISUALSTYLE
  5
26D
102
{ACAD_REACTORS
330
267
102
}
330
267
100
AcDbVisualStyle
  2
3dWireframe
 70
     5
 71
     0
 72
     2
 73
     0
 90
        0
 40
-0.6
 41
-30.0
 62
     5
 63
     7
421
 16777215
 74
     1
 91
        4
 64
     7
 65
   257
 75
     1
175
     1
 42
1.0
 92
        0
 66
   257
 43
1.0
 76
     1
 77
     6
 78
     2
 67
     7
 79
     5
170
     0
171
     0
290
     0
174
     0
 93
        1
 44
0.0
173
     0
291
     0
 45
0.0
  0
VISUALSTYLE
  5
26F
102
{ACAD_REACTORS
330
267
102
}
330
267
100
AcDbVisualStyle
  2
Basic
 70
     7
 71
     1
 72
     0
 73
     1
 90
        0
 40
-0.6
 41
-30.0
 62
     5
 63
     7
421
 16777215
 74
     0
 91
        4
 64
     7
 65
   257
 75
     1
175
     1
 42
1.0
 92
        8
 66
     7
 43
1.0
 76
     1
 77
     6
 78
     2
 67
     7
 79
     5
170
     0
171
     0
290
     0
174
     0
 93
        1
 44
0.0
173
     0
291
     1
 45
0.0
  0
VISUALSTYLE
  5
273
102
{ACAD_REACTORS
330
267
102
}
330
267
100
AcDbVisualStyle
  2
Brighten
 70
    12
 71
     2
 72
     2
 73
     0
 90
        0
 40
-0.6
 41
-30.0
 62
     5
 63
     7
421
 16777215
 74
     1
 91
        4
 64
     7
 65
   257
 75
     1
175
     1
 42
1.0
 92
        8
 66
     7
 43
1.0
 76
     1
 77
     6
 78
     2
 67
     7
 79
     5
170
     0
171
     0
290
     0
174
     0
 93
        1
 44
50.0
173
     0
291
     1
 45
0.0
  0
VISUALSTYLE
  5
277
102
{ACAD_REACTORS
330
267
102
}
330
267
100
AcDbVisualStyle
  2
ColorChange
 70
    16
 71
     2
 72
     2
 73
     3
 90
        0
 40
-0.6
 41
-30.0
 62
     5
 63
     8
421
  8421504
 74
     1
 91
        4
 64
     7
 65
   257
 75
     1
175
     1
 42
1.0
 92
        8
 66
     8
424
  8421504
 43
1.0
 76
     1
 77
     6
 78
     2
 67
     7
 79
     5
170
     0
171
     0
290
     0
174
     0
 93
        1
 44
0.0
173
     0
291
     1
 45
0.0
  0
VISUALSTYLE
  5
271
102
{ACAD_REACTORS
330
267
102
}
330
267
100
AcDbVisualStyle
  2
Conceptual
 70
     9
 71
     3
 72
     2
 73
     0
 90
        0
 40
-0.6
 41
-30.0
 62
     5
 63
     7
421
 16777215
 74
     2
 91
        2
 64
     7
 65
   257
 75
     1
175
     1
 42
40.0
 92
        8
 66
     7
 43
1.0
 76
     1
 77
     6
 78
     2
 67
     7
 79
     3
170
     0
171
     0
290
     0
174
     0
 93
        1
 44
0.0
173
     0
291
     0
 45
0.0
  0
VISUALSTYLE
  5
272
102
{ACAD_REACTORS
330
267
102
}
330
267
100
AcDbVisualStyle
  2
Dim
 70
    11
 71
     2
 72
     2
 73
     0
 90
        0
 40
-0.6
 41
-30.0
 62
     5
 63
     7
421
 16777215
 74
     1
 91
        4
 64
     7
 65
   257
 75
     1
175
     1
 42
1.0
 92
        8
 66
     7
 43
1.0
 76
     1
 77
     6
 78
     2
 67
     7
 79
     5
170
     0
171
     0
290
     0
174
     0
 93
        1
 44
-50.0
173
     0
291
     1
 45
0.0
  0
VISUALSTYLE
  5
8FE
102
{ACAD_REACTORS
330
267
102
}
330
267
100
AcDbVisualStyle
  2
EdgeColorOff
 70
    22
 71
     2
 72
     2
 73
     0
 90
        0
 40
0.6
 41
30.0
 62
     5
 63
     7
421
 16777215
 74
     1
 91
        4
 64
     7
 65
   257
 75
     1
175
     1
 42
1.0
 92
        8
 66
     7
 43
1.0
 76
     1
 77
     6
 78
     2
 67
     7
 79
     5
170
     0
171
     0
290
     0
174
     0
 93
        1
 44
0.0
173
     0
291
     1
 45
0.0
  0
VISUALSTYLE
  5
276
102
{ACAD_REACTORS
330
267
102
}
330
267
100
AcDbVisualStyle
  2
Facepattern
 70
    15
 71
     2
 72
     2
 73
     0
 90
        0
 40
-0.6
 41
-30.0
 62
     5
 63
     7
421
 16777215
 74
     1
 91
        4
 64
     7
 65
   257
 75
     1
175
     1
 42
1.0
 92
        8
 66
     7
 43
1.0
 76
     1
 77
     6
 78
     2
 67
     7
 79
     5
170
     0
171
     0
290
     0
174
     0
 93
        1
 44
0.0
173
     0
291
     1
 45
0.0
  0
VISUALSTYLE
  5
268
102
{ACAD_REACTORS
330
267
102
}
330
267
100
AcDbVisualStyle
  2
Flat
 70
     0
 71
     2
 72
     1
 73
     1
 90
        2
 40
-0.6
 41
30.0
 62
     5
 63
     7
421
 16777215
 74
     0
 91
        4
 64
     7
 65
   257
 75
     1
175
     1
 42
1.0
 92
        8
 66
     7
 43
1.0
 76
     1
 77
     6
 78
     2
 67
     7
 79
     5
170
     0
171
     0
290
     0
174
     0
 93
       13
 44
0.0
173
     0
291
     1
 45
0.0
  0
VISUALSTYLE
  5
269
102
{ACAD_REACTORS
330
267
102
}
330
267
100
AcDbVisualStyle
  2
FlatWithEdges
 70
     1
 71
     2
 72
     1
 73
     1
 90
        2
 40
-0.6
 41
30.0
 62
     5
 63
     7
421
 16777215
 74
     1
 91
        4
 64
     7
 65
   257
 75
     1
175
     1
 42
1.0
 92
        0
 66
   257
 43
1.0
 76
     1
 77
     6
 78
     2
 67
     7
 79
     5
170
     0
171
     0
290
     0
174
     0
 93
       13
 44
0.0
173
     0
291
     1
 45
0.0
  0
VISUALSTYLE
  5
26A
102
{ACAD_REACTORS
330
267
102
}
330
267
100
AcDbVisualStyle
  2
Gouraud
 70
     2
 71
     2
 72
     2
 73
     1
 90
        2
 40
-0.6
 41
30.0
 62
     5
 63
     7
421
 16777215
 74
     0
 91
        4
 64
     7
 65
   257
 75
     1
175
     1
 42
1.0
 92
        0
 66
     7
 43
1.0
 76
     1
 77
     6
 78
     2
 67
     7
 79
     5
170
     0
171
     0
290
     0
174
     0
 93
       13
 44
0.0
173
     0
291
     1
 45
0.0
  0
VISUALSTYLE
  5
26B
102
{ACAD_REACTORS
330
267
102
}
330
267
100
AcDbVisualStyle
  2
GouraudWithEdges
 70
     3
 71
     2
 72
     2
 73
     1
 90
        2
 40
-0.6
 41
30.0
 62
     5
 63
     7
421
 16777215
 74
     1
 91
        4
 64
     7
 65
   257
 75
     1
175
     1
 42
1.0
 92
        0
 66
   257
 43
1.0
 76
     1
 77
     6
 78
     2
 67
     7
 79
     5
170
     0
171
     0
290
     0
174
     0
 93
       13
 44
0.0
173
     0
291
     1
 45
0.0
  0
VISUALSTYLE
  5
8FB
102
{ACAD_REACTORS
330
267
102
}
330
267
100
AcDbVisualStyle
  2
Hidden
 70
     6
 71
     1
 72
     2
 73
     2
 90
        0
 40
0.6
 41
30.0
 62
     5
 63
     7
421
 16777215
 74
     2
 91
        2
 64
     7
 65
   257
 75
     2
175
     1
 42
40.0
 92
        0
 66
   257
 43
1.0
 76
     1
 77
     6
 78
     2
 67
     7
 79
     3
170
     0
171
     0
290
     0
174
     0
 93
        1
 44
0.0
173
     0
291
     0
 45
0.0
  0
VISUALSTYLE
  5
8FC
102
{ACAD_REACTORS
330
267
102
}
330
267
100
AcDbVisualStyle
  2
JitterOff
 70
    20
 71
     2
 72
     2
 73
     0
 90
        0
 40
0.6
 41
30.0
 62
     5
 63
     7
421
 16777215
 74
     1
 91
        4
 64
     7
 65
   257
 75
     1
175
     1
 42
1.0
 92
       10
 66
     7
 43
1.0
 76
     1
 77
     6
 78
     2
 67
     7
 79
     5
170
     0
171
     0
290
     0
174
     0
 93
        1
 44
0.0
173
     0
291
     1
 45
0.0
  0
VISUALSTYLE
  5
275
102
{ACAD_REACTORS
330
267
102
}
330
267
100
AcDbVisualStyle
  2
Linepattern
 70
    14
 71
     2
 72
     2
 73
     0
 90
        0
 40
-0.6
 41
-30.0
 62
     5
 63
     7
421
 16777215
 74
     1
 91
        4
 64
     7
 65
   257
 75
     7
175
     7
 42
1.0
 92
        8
 66
     7
 43
1.0
 76
     1
 77
     6
 78
     2
 67
     7
 79
     5
170
     0
171
     0
290
     0
174
     0
 93
        1
 44
0.0
173
     0
291
     1
 45
0.0
  0
VISUALSTYLE
  5
8FD
102
{ACAD_REACTORS
330
267
102
}
330
267
100
AcDbVisualStyle
  2
OverhangOff
 70
    21
 71
     2
 72
     2
 73
     0
 90
        0
 40
0.6
 41
30.0
 62
     5
 63
     7
421
 16777215
 74
     1
 91
        4
 64
     7
 65
   257
 75
     1
175
     1
 42
1.0
 92
        9
 66
     7
 43
1.0
 76
     1
 77
     6
 78
     2
 67
     7
 79
     5
170
     0
171
     0
290
     0
174
     0
 93
        1
 44
0.0
173
     0
291
     1
 45
0.0
  0
VISUALSTYLE
  5
270
102
{ACAD_REACTORS
330
267
102
}
330
267
100
AcDbVisualStyle
  2
Realistic
 70
     8
 71
     2
 72
     2
 73
     0
 90
        0
 40
-0.6
 41
-30.0
 62
     5
 63
     7
421
 16777215
 74
     1
 91
        0
 64
     7
 65
   257
 75
     1
175
     1
 42
1.0
 92
        8
 66
     8
424
  7895160
 43
1.0
 76
     1
 77
     6
 78
     2
 67
     7
 79
     5
170
     0
171
     0
290
     0
174
     0
 93
       13
 44
0.0
173
     0
291
     0
 45
0.0
  0
VISUALSTYLE
  5
903
102
{ACAD_REACTORS
330
267
102
}
330
267
100
AcDbVisualStyle
  2
Shaded
 70
    27
 71
     2
 72
     2
 73
     1
 90
        2
 40
0.6
 41
30.0
 62
     5
 63
     7
421
 16777215
 74
     0
 91
        4
 64
     7
 65
   257
 75
     1
175
     1
 42
1.0
 92
        8
 66
   257
 43
1.0
 76
     1
 77
     6
 78
     2
 67
     8
425
  7895160
 79
     3
170
     0
171
     0
290
     0
174
     0
 93
        5
 44
0.0
173
     0
291
     0
 45
0.0
  0
VISUALSTYLE
  5
902
102
{ACAD_REACTORS
330
267
102
}
330
267
100
AcDbVisualStyle
  2
Shaded with edges
 70
    26
 71
     2
 72
     2
 73
     1
 90
        2
 40
0.6
 41
30.0
 62
     5
 63
     7
421
 16777215
 74
     1
 91
       10
 64
     7
 65
   257
 75
     2
175
     1
 42
1.0
 92
        8
 66
   257
 43
1.0
 76
     1
 77
     6
 78
     2
 67
     7
 79
     3
170
     0
171
     0
290
     0
174
     0
 93
        5
 44
0.0
173
     0
291
     0
 45
0.0
  0
VISUALSTYLE
  5
8FF
102
{ACAD_REACTORS
330
267
102
}
330
267
100
AcDbVisualStyle
  2
Shades of Gray
 70
    23
 71
     2
 72
     2
 73
     3
 90
        0
 40
0.6
 41
30.0
 62
     5
 63
     7
421
 16777215
 74
     2
 91
        2
 64
     7
 65
     7
 75
     1
175
     1
 42
40.0
 92
        8
 66
     7
 43
1.0
 76
     1
 77
     6
 78
     2
 67
     7
 79
     3
170
     0
171
     0
290
     0
174
     0
 93
        1
 44
0.0
173
     0
291
     0
 45
0.0
  0
VISUALSTYLE
  5
900
102
{ACAD_REACTORS
330
267
102
}
330
267
100
AcDbVisualStyle
  2
Sketchy
 70
    24
 71
     1
 72
     2
 73
     2
 90
        0
 40
0.6
 41
30.0
 62
     5
 63
     7
421
 16777215
 74
     2
 91
        2
 64
     7
 65
     7
 75
     1
175
     1
 42
40.0
 92
       11
 66
     7
 43
1.0
 76
     1
 77
     6
 78
     2
 67
     7
 79
     6
170
     0
171
     0
290
     0
174
     0
 93
        1
 44
0.0
173
     0
291
     0
 45
0.0
  0
VISUALSTYLE
  5
274
102
{ACAD_REACTORS
330
267
102
}
330
267
100
AcDbVisualStyle
  2
Thicken
 70
    13
 71
     2
 72
     2
 73
     0
 90
        0
 40
-0.6
 41
-30.0
 62
     5
 63
     7
421
 16777215
 74
     1
 91
        4
 64
     7
 65
   257
 75
     1
175
     1
 42
1.0
 92
       12
 66
     7
 43
1.0
 76
     1
 77
     6
 78
     2
 67
     7
 79
     5
170
     0
171
     0
290
     0
174
     0
 93
        1
 44
0.0
173
     0
291
     1
 45
0.0
  0
VISUALSTYLE
  5
8FA
102
{ACAD_REACTORS
330
267
102
}
330
267
100
AcDbVisualStyle
  2
Wireframe
 70
     5
 71
     0
 72
     2
 73
     0
 90
        0
 40
0.6
 41
30.0
 62
     5
 63
     7
421
 16777215
 74
     1
 91
        4
 64
     7
 65
   257
 75
     1
175
     1
 42
1.0
 92
        0
 66
   257
 43
1.0
 76
     1
 77
     6
 78
     2
 67
     7
 79
     3
170
     0
171
     0
290
     0
174
     0
 93
        1
 44
0.0
173
     0
291
     0
 45
0.0
  0
VISUALSTYLE
  5
901
102
{ACAD_REACTORS
330
267
102
}
330
267
100
AcDbVisualStyle
  2
X-Ray
 70
    25
 71
     2
 72
     2
 73
     1
 90
        1
 40
0.5
 41
30.0
 62
     5
 63
     7
421
 16777215
 74
     1
 91
        0
 64
     7
 65
   257
 75
     1
175
     1
 42
1.0
 92
        8
 66
     7
 43
1.0
 76
     1
 77
     6
 78
     2
 67
     7
 79
     3
170
     0
171
     0
290
     0
174
     0
 93
       13
 44
0.0
173
     0
291
     0
 45
0.0
  0
DICTIONARYVAR
  5
331
102
{ACAD_REACTORS
330
330
102
}
330
330
100
DictionaryVariables
280
     0
  1
1:1
  0
DICTIONARYVAR
  5
D5E
102
{ACAD_REACTORS
330
330
102
}
330
330
100
DictionaryVariables
280
     0
  1
Standard
  0
DICTIONARYVAR
  5
335
102
{ACAD_REACTORS
330
330
102
}
330
330
100
DictionaryVariables
280
     0
  1
Standard
  0
DICTIONARYVAR
  5
D52
102
{ACAD_REACTORS
330
330
102
}
330
330
100
DictionaryVariables
280
     0
  1
ByLayer
  0
DICTIONARYVAR
  5
896
102
{ACAD_REACTORS
330
330
102
}
330
330
100
DictionaryVariables
280
     0
  1
0
  0
DICTIONARYVAR
  5
E3B
102
{ACAD_REACTORS
330
E38
102
}
330
E38
100
DictionaryVariables
280
     0
  1
0.261799
  0
DICTIONARYVAR
  5
E39
102
{ACAD_REACTORS
330
E38
102
}
330
E38
100
DictionaryVariables
280
     0
  1
0.400000
  0
DICTIONARYVAR
  5
E3A
102
{ACAD_REACTORS
330
E38
102
}
330
E38
100
DictionaryVariables
280
     0
  1
0.250000
  0
DICTIONARYVAR
  5
E3C
102
{ACAD_REACTORS
330
E38
102
}
330
E38
100
DictionaryVariables
280
     0
  1
1
  0
XRECORD
  5
7AA
102
{ACAD_REACTORS
330
2E2
102
}
330
2E2
100
AcDbXrecord
280
     1
 91
    34815
301

290
     0
302
HIDDEN
330
14
 90
        8
 62
     7
370
    -3
331
13
  1
Color_7
440
 33554687
330
4B
 90
        8
 62
     7
370
    20
331
13
  1
Color_7
440
 33554687
330
4C
 90
        8
 62
     3
370
    13
331
13
  1
Color_3
440
 33554687
330
4D
 90
        8
 62
     7
370
    20
331
13
  1
Color_7
440
 33554687
330
667
 90
        8
 62
     7
370
    -3
331
13
  1
Color_7
440
 33554687
330
88C
 90
        8
 62
     8
370
    20
331
D6D
  1
Color_8
440
 33554687
330
D6B
 90
        0
 62
     4
370
    20
331
D6C
  1
Color_4
440
 33554687
330
D8C
 90
        0
 62
     7
370
    -3
331
13
  1
Color_7
440
 33554687
  0
FIELD
  5
311B9
102
{ACAD_REACTORS
330
311B8
102
}
330
311B8
100
AcDbField
  1
_text
  2
{%<\_FldIdx 0>%N}
 90
        1
360
311BA
 97
        0
 91
       63
 92
        0
 94
        8
 95
        2
 96
        0
300

 93
        1
  6
ACFD_FIELDTEXT_CHECKSUM
 93
        2
 90
        2
140
4566.0
 94
        0
300

302

304
ACVALUE_END
  7
ACFD_FIELD_VALUE
 93
        6
 90
        4
  1
{20160719N}
 94
        0
300

302

304
ACVALUE_END
301
{20160719N}
 98
       11
  0
DICTIONARY
  5
31208
330
279
100
AcDbDictionary
280
     1
281
     1
  3
ACAD_ROUNDTRIP_2008_TABLESTYLE_CELLSTYLEMAP
360
31209
  0
FIELD
  5
311BA
330
311B9
100
AcDbField
  1
AcVar
  2
\AcVar CreateDate \f "yyyyMMdd"
 90
        0
 97
        0
 91
       63
 92
        0
 94
        8
 95
        2
 96
        0
300

 93
        1
  6
Variable
 93
        2
 90
        4
  1
CreateDate
 94
        0
300

302

304
ACVALUE_END
  7
ACFD_FIELD_VALUE
 93
        6
 90
        8
 92
       16
310
E00707000000130001002B0003000000
 94
        0
300
yyyyMMdd
302

304
ACVALUE_END
301
20160719
 98
        8
  0
CELLSTYLEMAP
  5
31209
102
{ACAD_REACTORS
330
31208
102
}
330
31208
100
AcDbCellStyleMap
 90
        3
300
CELLSTYLE
  1
TABLEFORMAT_BEGIN
 90
        5
170
     1
 91
        0
 92
    32768
 62
   257
 93
        1
300
CONTENTFORMAT
  1
CONTENTFORMAT_BEGIN
 90
        0
 91
        0
 92
        4
 93
        0
300

 40
0.0
140
1.0
 94
        5
 62
     0
340
17
144
6.0
309
CONTENTFORMAT_END
171
     1
301
MARGIN
  1
CELLMARGIN_BEGIN
 40
0.06
 40
0.06
 40
0.06
 40
0.06
 40
0.18
 40
0.18
309
CELLMARGIN_END
 94
        6
 95
        1
302
GRIDFORMAT
  1
GRIDFORMAT_BEGIN
 90
        0
 91
        1
 62
     0
 92
       -2
340
0
 93
        0
 40
0.045
309
GRIDFORMAT_END
 95
        2
302
GRIDFORMAT
  1
GRIDFORMAT_BEGIN
 90
        0
 91
        1
 62
     0
 92
       -2
340
0
 93
        0
 40
0.045
309
GRIDFORMAT_END
 95
        4
302
GRIDFORMAT
  1
GRIDFORMAT_BEGIN
 90
        0
 91
        1
 62
     0
 92
       -2
340
0
 93
        0
 40
0.045
309
GRIDFORMAT_END
 95
        8
302
GRIDFORMAT
  1
GRIDFORMAT_BEGIN
 90
        0
 91
        1
 62
     0
 92
       -2
340
0
 93
        0
 40
0.045
309
GRIDFORMAT_END
 95
       16
302
GRIDFORMAT
  1
GRIDFORMAT_BEGIN
 90
        0
 91
        1
 62
     0
 92
       -2
340
0
 93
        0
 40
0.045
309
GRIDFORMAT_END
 95
       32
302
GRIDFORMAT
  1
GRIDFORMAT_BEGIN
 90
        0
 91
        1
 62
     0
 92
       -2
340
0
 93
        0
 40
0.045
309
GRIDFORMAT_END
309
TABLEFORMAT_END
  1
CELLSTYLE_BEGIN
 90
        1
 91
        1
300
_TITLE
309
CELLSTYLE_END
300
CELLSTYLE
  1
TABLEFORMAT_BEGIN
 90
        5
170
     1
 91
        0
 92
        0
 62
   257
 93
        1
300
CONTENTFORMAT
  1
CONTENTFORMAT_BEGIN
 90
        0
 91
        0
 92
        4
 93
        0
300

 40
0.0
140
1.0
 94
        5
 62
     0
340
17
144
4.5
309
CONTENTFORMAT_END
171
     1
301
MARGIN
  1
CELLMARGIN_BEGIN
 40
0.06
 40
0.06
 40
0.06
 40
0.06
 40
0.18
 40
0.18
309
CELLMARGIN_END
 94
        6
 95
        1
302
GRIDFORMAT
  1
GRIDFORMAT_BEGIN
 90
        0
 91
        1
 62
     0
 92
       -2
340
0
 93
        0
 40
0.045
309
GRIDFORMAT_END
 95
        2
302
GRIDFORMAT
  1
GRIDFORMAT_BEGIN
 90
        0
 91
        1
 62
     0
 92
       -2
340
0
 93
        0
 40
0.045
309
GRIDFORMAT_END
 95
        4
302
GRIDFORMAT
  1
GRIDFORMAT_BEGIN
 90
        0
 91
        1
 62
     0
 92
       -2
340
0
 93
        0
 40
0.045
309
GRIDFORMAT_END
 95
        8
302
GRIDFORMAT
  1
GRIDFORMAT_BEGIN
 90
        0
 91
        1
 62
     0
 92
       -2
340
0
 93
        0
 40
0.045
309
GRIDFORMAT_END
 95
       16
302
GRIDFORMAT
  1
GRIDFORMAT_BEGIN
 90
        0
 91
        1
 62
     0
 92
       -2
340
0
 93
        0
 40
0.045
309
GRIDFORMAT_END
 95
       32
302
GRIDFORMAT
  1
GRIDFORMAT_BEGIN
 90
        0
 91
        1
 62
     0
 92
       -2
340
0
 93
        0
 40
0.045
309
GRIDFORMAT_END
309
TABLEFORMAT_END
  1
CELLSTYLE_BEGIN
 90
        2
 91
        1
300
_HEADER
309
CELLSTYLE_END
300
CELLSTYLE
  1
TABLEFORMAT_BEGIN
 90
        5
170
     1
 91
        0
 92
        0
 62
   257
 93
        1
300
CONTENTFORMAT
  1
CONTENTFORMAT_BEGIN
 90
        0
 91
        0
 92
        4
 93
        0
300

 40
0.0
140
1.0
 94
        2
 62
     0
340
17
144
4.5
309
CONTENTFORMAT_END
171
     1
301
MARGIN
  1
CELLMARGIN_BEGIN
 40
0.06
 40
0.06
 40
0.06
 40
0.06
 40
0.18
 40
0.18
309
CELLMARGIN_END
 94
        6
 95
        1
302
GRIDFORMAT
  1
GRIDFORMAT_BEGIN
 90
        0
 91
        1
 62
     0
 92
       -2
340
0
 93
        0
 40
0.045
309
GRIDFORMAT_END
 95
        2
302
GRIDFORMAT
  1
GRIDFORMAT_BEGIN
 90
        0
 91
        1
 62
     0
 92
       -2
340
0
 93
        0
 40
0.045
309
GRIDFORMAT_END
 95
        4
302
GRIDFORMAT
  1
GRIDFORMAT_BEGIN
 90
        0
 91
        1
 62
     0
 92
       -2
340
0
 93
        0
 40
0.045
309
GRIDFORMAT_END
 95
        8
302
GRIDFORMAT
  1
GRIDFORMAT_BEGIN
 90
        0
 91
        1
 62
     0
 92
       -2
340
0
 93
        0
 40
0.045
309
GRIDFORMAT_END
 95
       16
302
GRIDFORMAT
  1
GRIDFORMAT_BEGIN
 90
        0
 91
        1
 62
     0
 92
       -2
340
0
 93
        0
 40
0.045
309
GRIDFORMAT_END
 95
       32
302
GRIDFORMAT
  1
GRIDFORMAT_BEGIN
 90
        0
 91
        1
 62
     0
 92
       -2
340
0
 93
        0
 40
0.045
309
GRIDFORMAT_END
309
TABLEFORMAT_END
  1
CELLSTYLE_BEGIN
 90
        3
 91
        2
300
_DATA
309
CELLSTYLE_END
  0
ENDSEC
  0
EOF
