  0
SECTION
  2
HEADER
  9
$ACADVER
  1
AC1021
  9
$ACADMAINTVER
 70
    25
  9
$DWGCODEPAGE
  3
ANSI_932
  9
$LASTSAVEDBY
  1
howeNelson
  9
$INSBASE
 10
0.0
 20
0.0
 30
0.0
  9
$EXTMIN
 10
0.0
 20
0.0
 30
-0.0000000000000142
  9
$EXTMAX
 10
1050.0
 20
1485.0
 30
0.0000000000000142
  9
$LIMMIN
 10
0.0
 20
0.0
  9
$LIMMAX
 10
1050.0
 20
1485.0
  9
$ORTHOMODE
 70
     0
  9
$REGENMODE
 70
     1
  9
$FILLMODE
 70
     1
  9
$QTEXTMODE
 70
     0
  9
$MIRRTEXT
 70
     1
  9
$LTSCALE
 40
50.0
  9
$ATTMODE
 70
     1
  9
$TEXTSIZE
 40
2.5
  9
$TRACEWID
 40
1.0
  9
$TEXTSTYLE
  7
ＭＳ ゴシック
  9
$CLAYER
  8
DIM
  9
$CELTYPE
  6
ByLayer
  9
$CECOLOR
 62
   256
  9
$CELTSCALE
 40
0.05
  9
$DISPSILH
 70
     0
  9
$DIMSCALE
 40
1.0
  9
$DIMASZ
 40
3.0
  9
$DIMEXO
 40
10.0
  9
$DIMDLI
 40
0.9999999999999999
  9
$DIMRND
 40
0.0
  9
$DIMDLE
 40
0.0
  9
$DIMEXE
 40
0.0
  9
$DIMTP
 40
0.0
  9
$DIMTM
 40
0.0
  9
$DIMTXT
 40
12.0
  9
$DIMCEN
 40
0.0
  9
$DIMTSZ
 40
0.0
  9
$DIMTOL
 70
     0
  9
$DIMLIM
 70
     0
  9
$DIMTIH
 70
     0
  9
$DIMTOH
 70
     0
  9
$DIMSE1
 70
     0
  9
$DIMSE2
 70
     0
  9
$DIMTAD
 70
     1
  9
$DIMZIN
 70
    11
  9
$DIMBLK
  1
DOT
  9
$DIMASO
 70
     1
  9
$DIMSHO
 70
     1
  9
$DIMPOST
  1
<>
  9
$DIMAPOST
  1
[]
  9
$DIMALT
 70
     0
  9
$DIMALTD
 70
     1
  9
$DIMALTF
 40
1.0
  9
$DIMLFAC
 40
1.0
  9
$DIMTOFL
 70
     0
  9
$DIMTVP
 40
0.0
  9
$DIMTIX
 70
     1
  9
$DIMSOXD
 70
     0
  9
$DIMSAH
 70
     0
  9
$DIMBLK1
  1

  9
$DIMBLK2
  1

  9
$DIMSTYLE
  2
tfrom線あり
  9
$DIMCLRD
 70
     0
  9
$DIMCLRE
 70
     0
  9
$DIMCLRT
 70
     0
  9
$DIMTFAC
 40
1.0
  9
$DIMGAP
 40
10.0
  9
$DIMJUST
 70
     0
  9
$DIMSD1
 70
     0
  9
$DIMSD2
 70
     0
  9
$DIMTOLJ
 70
     1
  9
$DIMTZIN
 70
    11
  9
$DIMALTZ
 70
    11
  9
$DIMALTTZ
 70
    11
  9
$DIMUPT
 70
     0
  9
$DIMDEC
 70
     0
  9
$DIMTDEC
 70
     1
  9
$DIMALTU
 70
     2
  9
$DIMALTTD
 70
     2
  9
$DIMTXSTY
  7
ＭＳ ゴシック
  9
$DIMAUNIT
 70
     0
  9
$DIMADEC
 70
     2
  9
$DIMALTRND
 40
0.0
  9
$DIMAZIN
 70
     0
  9
$DIMDSEP
 70
    46
  9
$DIMATFIT
 70
     0
  9
$DIMFRAC
 70
     2
  9
$DIMLDRBLK
  1
DOT
  9
$DIMLUNIT
 70
     2
  9
$DIMLWD
 70
    -2
  9
$DIMLWE
 70
    -2
  9
$DIMTMOVE
 70
     0
  9
$DIMFXL
 40
1.0
  9
$DIMFXLON
 70
     0
  9
$DIMJOGANG
 40
0.7853981633974483
  9
$DIMTFILL
 70
     0
  9
$DIMTFILLCLR
 70
     0
  9
$DIMARCSYM
 70
     0
  9
$DIMLTYPE
  6

  9
$DIMLTEX1
  6

  9
$DIMLTEX2
  6

  9
$LUNITS
 70
     2
  9
$LUPREC
 70
     0
  9
$SKETCHINC
 40
0.1
  9
$FILLETRAD
 40
0.0
  9
$AUNITS
 70
     0
  9
$AUPREC
 70
     0
  9
$MENU
  1
acad
  9
$ELEVATION
 40
0.0
  9
$PELEVATION
 40
0.0
  9
$THICKNESS
 40
0.0
  9
$LIMCHECK
 70
     0
  9
$CHAMFERA
 40
0.0
  9
$CHAMFERB
 40
0.0
  9
$CHAMFERC
 40
0.0
  9
$CHAMFERD
 40
0.0
  9
$SKPOLY
 70
     0
  9
$TDCREATE
 40
2447893.375
  9
$TDUCREATE
 40
0.0
  9
$TDUPDATE
 40
2457589.448211169
  9
$TDUUPDATE
 40
2457589.073211169
  9
$TDINDWG
 40
0.1433293287
  9
$TDUSRTIMER
 40
2457589.073208658
  9
$USRTIMER
 70
     1
  9
$ANGBASE
 50
0.0
  9
$ANGDIR
 70
     0
  9
$PDMODE
 70
     1
  9
$PDSIZE
 40
-2.0
  9
$PLINEWID
 40
0.0
  9
$SPLFRAME
 70
     0
  9
$SPLINETYPE
 70
     6
  9
$SPLINESEGS
 70
     8
  9
$HANDSEED
  5
1950
  9
$SURFTAB1
 70
     6
  9
$SURFTAB2
 70
     6
  9
$SURFTYPE
 70
     6
  9
$SURFU
 70
     6
  9
$SURFV
 70
     6
  9
$UCSBASE
  2

  9
$UCSNAME
  2

  9
$UCSORG
 10
0.0
 20
0.0
 30
0.0
  9
$UCSXDIR
 10
1.0
 20
0.0
 30
0.0
  9
$UCSYDIR
 10
0.0
 20
1.0
 30
0.0
  9
$UCSORTHOREF
  2

  9
$UCSORTHOVIEW
 70
     0
  9
$UCSORGTOP
 10
0.0
 20
0.0
 30
0.0
  9
$UCSORGBOTTOM
 10
0.0
 20
0.0
 30
0.0
  9
$UCSORGLEFT
 10
0.0
 20
0.0
 30
0.0
  9
$UCSORGRIGHT
 10
0.0
 20
0.0
 30
0.0
  9
$UCSORGFRONT
 10
0.0
 20
0.0
 30
0.0
  9
$UCSORGBACK
 10
0.0
 20
0.0
 30
0.0
  9
$PUCSBASE
  2

  9
$PUCSNAME
  2

  9
$PUCSORG
 10
0.0
 20
0.0
 30
0.0
  9
$PUCSXDIR
 10
1.0
 20
0.0
 30
0.0
  9
$PUCSYDIR
 10
0.0
 20
1.0
 30
0.0
  9
$PUCSORTHOREF
  2

  9
$PUCSORTHOVIEW
 70
     0
  9
$PUCSORGTOP
 10
0.0
 20
0.0
 30
0.0
  9
$PUCSORGBOTTOM
 10
0.0
 20
0.0
 30
0.0
  9
$PUCSORGLEFT
 10
0.0
 20
0.0
 30
0.0
  9
$PUCSORGRIGHT
 10
0.0
 20
0.0
 30
0.0
  9
$PUCSORGFRONT
 10
0.0
 20
0.0
 30
0.0
  9
$PUCSORGBACK
 10
0.0
 20
0.0
 30
0.0
  9
$USERI1
 70
     0
  9
$USERI2
 70
     0
  9
$USERI3
 70
     0
  9
$USERI4
 70
     0
  9
$USERI5
 70
     0
  9
$USERR1
 40
0.0
  9
$USERR2
 40
0.0
  9
$USERR3
 40
0.0
  9
$USERR4
 40
0.0
  9
$USERR5
 40
0.0
  9
$WORLDVIEW
 70
     1
  9
$SHADEDGE
 70
     3
  9
$SHADEDIF
 70
    70
  9
$TILEMODE
 70
     1
  9
$MAXACTVP
 70
    64
  9
$PINSBASE
 10
0.0
 20
0.0
 30
0.0
  9
$PLIMCHECK
 70
     0
  9
$PEXTMIN
 10
0.0
 20
0.0
 30
0.0
  9
$PEXTMAX
 10
0.0
 20
0.0
 30
0.0
  9
$PLIMMIN
 10
-95.87226993865028
 20
-25.69999999999999
  9
$PLIMMAX
 10
201.1277300613497
 20
184.3
  9
$UNITMODE
 70
     0
  9
$VISRETAIN
 70
     0
  9
$PLINEGEN
 70
     1
  9
$PSLTSCALE
 70
     0
  9
$TREEDEPTH
 70
  3020
  9
$CMLSTYLE
  2
Standard
  9
$CMLJUST
 70
     0
  9
$CMLSCALE
 40
1.0
  9
$PROXYGRAPHICS
 70
     0
  9
$MEASUREMENT
 70
     1
  9
$CELWEIGHT
370
    -1
  9
$ENDCAPS
280
     0
  9
$JOINSTYLE
280
     0
  9
$LWDISPLAY
290
     1
  9
$INSUNITS
 70
     4
  9
$HYPERLINKBASE
  1

  9
$STYLESHEET
  1

  9
$XEDIT
290
     1
  9
$CEPSNTYPE
380
     0
  9
$PSTYLEMODE
290
     1
  9
$FINGERPRINTGUID
  2

  9
$VERSIONGUID
  2

  9
$EXTNAMES
290
     1
  9
$PSVPSCALE
 40
0.0
  9
$OLESTARTUP
290
     0
  9
$SORTENTS
280
   127
  9
$INDEXCTL
280
     0
  9
$HIDETEXT
280
     1
  9
$XCLIPFRAME
290
     0
  9
$HALOGAP
280
     0
  9
$OBSCOLOR
 70
   257
  9
$OBSLTYPE
280
     0
  9
$INTERSECTIONDISPLAY
280
     0
  9
$INTERSECTIONCOLOR
 70
   257
  9
$DIMASSOC
280
     2
  9
$PROJECTNAME
  1

  9
$CAMERADISPLAY
290
     0
  9
$LENSLENGTH
 40
50.0
  9
$CAMERAHEIGHT
 40
0.0
  9
$STEPSPERSEC
 40
2.0
  9
$STEPSIZE
 40
6.0
  9
$3DDWFPREC
 40
2.0
  9
$PSOLWIDTH
 40
0.25
  9
$PSOLHEIGHT
 40
4.0
  9
$LOFTANG1
 40
1.570796326794897
  9
$LOFTANG2
 40
1.570796326794897
  9
$LOFTMAG1
 40
0.0
  9
$LOFTMAG2
 40
0.0
  9
$LOFTPARAM
 70
     7
  9
$LOFTNORMALS
280
     1
  9
$LATITUDE
 40
37.795
  9
$LONGITUDE
 40
-122.394
  9
$NORTHDIRECTION
 40
0.0
  9
$TIMEZONE
 70
 -8000
  9
$LIGHTGLYPHDISPLAY
280
     1
  9
$TILEMODELIGHTSYNCH
280
     1
  9
$SOLIDHIST
280
     1
  9
$SHOWHIST
280
     1
  9
$DWFFRAME
280
     2
  9
$DGNFRAME
280
     2
  9
$REALWORLDSCALE
290
     1
  9
$INTERFERECOLOR
 62
   256
  9
$CSHADOW
280
     0
  9
$SHADOWPLANELOCATION
 40
0.0
  0
ENDSEC
  0
SECTION
  2
CLASSES
  0
CLASS
  1
LWPOLYLINE
  2
AcDbPolyline
  3
ObjectDBX Classes
 90
        0
 91
        1
280
     0
281
     1
  0
CLASS
  1
IMAGE
  2
AcDbRasterImage
  3
ISM
 90
      127
 91
        6
280
     0
281
     1
  0
CLASS
  1
OLE2FRAME
  2
AcDbOle2Frame
  3
ObjectDBX Classes
 90
        0
 91
        1
280
     0
281
     1
  0
CLASS
  1
HATCH
  2
AcDbHatch
  3
ObjectDBX Classes
 90
        0
 91
        1
280
     0
281
     1
  0
CLASS
  1
DICTIONARYVAR
  2
AcDbDictionaryVar
  3
ObjectDBX Classes
 90
        0
 91
        5
280
     0
281
     0
  0
CLASS
  1
RASTERVARIABLES
  2
AcDbRasterVariables
  3
ISM
 90
        0
 91
        5
280
     0
281
     0
  0
CLASS
  1
IMAGEDEF
  2
AcDbRasterImageDef
  3
ISM
 90
        0
 91
        5
280
     0
281
     0
  0
CLASS
  1
IMAGEDEF_REACTOR
  2
AcDbRasterImageDefReactor
  3
ISM
 90
        1
 91
        5
280
     0
281
     0
  0
CLASS
  1
IDBUFFER
  2
AcDbIdBuffer
  3
ObjectDBX Classes
 90
        0
 91
        5
280
     0
281
     0
  0
CLASS
  1
SPATIAL_FILTER
  2
AcDbSpatialFilter
  3
ObjectDBX Classes
 90
        0
 91
        5
280
     0
281
     0
  0
CLASS
  1
XRECORD
  2
AcDbXrecord
  3
ObjectDBX Classes
 90
        0
 91
        1
280
     0
281
     0
  0
CLASS
  1
SORTENTSTABLE
  2
AcDbSortentsTable
  3
ObjectDBX Classes
 90
        0
 91
        5
280
     0
281
     0
  0
CLASS
  1
LAYER_INDEX
  2
AcDbLayerIndex
  3
ObjectDBX Classes
 90
        0
 91
        5
280
     0
281
     0
  0
CLASS
  1
SPATIAL_INDEX
  2
AcDbSpatialIndex
  3
AutoCAD 2000
 90
        0
 91
        5
280
     0
281
     0
  0
CLASS
  1
OBJECT_PTR
  2
CAseDLPNTableRecord
  3
ASE-LPNTableRecord
 90
        1
 91
        5
280
     0
281
     0
  0
CLASS
  1
LAYOUT
  2
AcDbLayout
  3
ObjectDBX Classes
 90
        0
 91
        1
280
     0
281
     0
  0
CLASS
  1
PLOTSETTINGS
  2
AcDbPlotSettings
  3
ObjectDBX Classes
 90
        0
 91
        5
280
     0
281
     0
  0
CLASS
  1
ACDBDICTIONARYWDFLT
  2
AcDbDictionaryWithDefault
  3
ObjectDBX Classes
 90
        0
 91
        5
280
     0
281
     0
  0
CLASS
  1
ACDBPLACEHOLDER
  2
AcDbPlaceHolder
  3
ObjectDBX Classes
 90
        0
 91
        1
280
     0
281
     0
  0
CLASS
  1
SCALE
  2
AcDbScale
  3
ObjectDBX Classes
 90
     1153
 91
        5
280
     0
281
     0
  0
CLASS
  1
MATERIAL
  2
AcDbMaterial
  3
ObjectDBX Classes
 90
     1153
 91
        5
280
     0
281
     0
  0
CLASS
  1
VISUALSTYLE
  2
AcDbVisualStyle
  3
ObjectDBX Classes
 90
     4095
 91
        5
280
     0
281
     0
  0
CLASS
  1
TABLESTYLE
  2
AcDbTableStyle
  3
ObjectDBX Classes
 90
     4095
 91
        5
280
     0
281
     0
  0
CLASS
  1
DIMASSOC
  2
AcDbDimAssoc
  3
"AcDbDimAssoc|Product Desc:     AcDim ARX App For Dimension|Company:          Autodesk, Inc.|WEB Address:      www.autodesk.com"
 90
        0
 91
        5
280
     0
281
     0
  0
CLASS
  1
CELLSTYLEMAP
  2
AcDbCellStyleMap
  3
ObjectDBX Classes
 90
     1152
 91
        5
280
     0
281
     0
  0
CLASS
  1
SUN
  2
AcDbSun
  3
SCENEOE
 90
     1153
 91
        5
280
     0
281
     0
  0
CLASS
  1
MLEADERSTYLE
  2
AcDbMLeaderStyle
  3
ACDB_MLEADERSTYLE_CLASS
 90
     4095
 91
        5
280
     0
281
     0
  0
CLASS
  1
FIELD
  2
AcDbField
  3
ObjectDBX Classes
 90
     1152
 91
        5
280
     0
281
     0
  0
CLASS
  1
FIELDLIST
  2
AcDbFieldList
  3
ObjectDBX Classes
 90
     1152
 91
        5
280
     0
281
     0
  0
ENDSEC
  0
SECTION
  2
TABLES
  0
TABLE
  2
VPORT
  5
7
330
0
100
AcDbSymbolTable
 70
     1
  0
VPORT
  5
15
330
7
100
AcDbSymbolTableRecord
100
AcDbViewportTableRecord
  2
*ACTIVE
 70
     0
 10
0.0
 20
0.0
 11
1.0
 21
1.0
 12
616.0201356708981
 22
668.901285469834
 13
0.0
 23
0.0
 14
1.0
 24
1.0
 15
0.0
 25
0.0
 16
0.0
 26
0.0
 36
1.0
 17
-91.02013567089807
 27
73.59871453016603
 37
-46.86809886248109
 40
1514.7
 41
2.479940564635958
 42
50.0
 43
0.0
 44
0.0
 50
0.0
 51
0.0
 71
    16
 72
  2000
 73
     1
 74
     1
 75
     0
 76
     0
 77
     0
 78
     0
281
     0
 65
     1
110
0.0
120
0.0
130
0.0
111
1.0
121
0.0
131
0.0
112
0.0
122
1.0
132
0.0
 79
     0
146
0.0
348
26C
 60
     3
 61
     5
292
     1
282
     1
141
0.0
142
0.0
 63
   256
361
904
  0
ENDTAB
  0
TABLE
  2
LTYPE
  5
4
330
0
100
AcDbSymbolTable
 70
    22
  0
LTYPE
  5
11
330
4
100
AcDbSymbolTableRecord
100
AcDbLinetypeTableRecord
  2
ByBlock
 70
     0
  3

 72
    65
 73
     0
 40
0.0
  0
LTYPE
  5
12
330
4
100
AcDbSymbolTableRecord
100
AcDbLinetypeTableRecord
  2
ByLayer
 70
     0
  3

 72
    65
 73
     0
 40
0.0
  0
LTYPE
  5
13
330
4
100
AcDbSymbolTableRecord
100
AcDbLinetypeTableRecord
  2
Continuous
 70
     0
  3
Solid line
 72
    65
 73
     0
 40
0.0
  0
LTYPE
  5
3A
330
4
100
AcDbSymbolTableRecord
100
AcDbLinetypeTableRecord
  2
STYLE_01
 70
     0
  3

 72
    65
 73
     2
 40
0.2460629921259842
 49
0.1230314960629921
 74
     0
 49
-0.1230314960629921
 74
     0
  0
LTYPE
  5
3B
330
4
100
AcDbSymbolTableRecord
100
AcDbLinetypeTableRecord
  2
STYLE_02
 70
     0
  3

 72
    65
 73
     2
 40
0.6944250000000001
 49
0.48607
 74
     0
 49
-0.2083550000000001
 74
     0
  0
LTYPE
  5
3C
330
4
100
AcDbSymbolTableRecord
100
AcDbLinetypeTableRecord
  2
STYLE_03
 70
     0
  3

 72
    65
 73
     2
 40
1.25
 49
1.04164
 74
     0
 49
-0.2083599999999999
 74
     0
  0
LTYPE
  5
3D
330
4
100
AcDbSymbolTableRecord
100
AcDbLinetypeTableRecord
  2
STYLE_04
 70
     0
  3

 72
    65
 73
     2
 40
1.52771
 49
1.319425
 74
     0
 49
-0.208285
 74
     0
  0
LTYPE
  5
3E
330
4
100
AcDbSymbolTableRecord
100
AcDbLinetypeTableRecord
  2
STYLE_05
 70
     0
  3

 72
    65
 73
     2
 40
0.20828
 49
0.069425
 74
     0
 49
-0.138855
 74
     0
  0
LTYPE
  5
3F
330
4
100
AcDbSymbolTableRecord
100
AcDbLinetypeTableRecord
  2
STYLE_06
 70
     0
  3

 72
    65
 73
     4
 40
1.04164
 49
0.625
 74
     0
 49
-0.20828
 74
     0
 49
0.06943
 74
     0
 49
-0.13893
 74
     0
  0
LTYPE
  5
40
330
4
100
AcDbSymbolTableRecord
100
AcDbLinetypeTableRecord
  2
STYLE_07
 70
     0
  3

 72
    65
 73
     6
 40
1.875
 49
0.625
 74
     0
 49
-0.20828
 74
     0
 49
0.6250000000000001
 74
     0
 49
-0.2083599999999999
 74
     0
 49
0.06943
 74
     0
 49
-0.1389299999999999
 74
     0
  0
LTYPE
  5
41
330
4
100
AcDbSymbolTableRecord
100
AcDbLinetypeTableRecord
  2
STYLE_08
 70
     0
  3

 72
    65
 73
     6
 40
1.25
 49
0.625
 74
     0
 49
-0.20828
 74
     0
 49
0.06943
 74
     0
 49
-0.13893
 74
     0
 49
0.0694299999999999
 74
     0
 49
-0.13893
 74
     0
  0
LTYPE
  5
42
330
4
100
AcDbSymbolTableRecord
100
AcDbLinetypeTableRecord
  2
STYLE_09
 70
     0
  3

 72
    65
 73
     4
 40
5.0
 49
3.75
 74
     0
 49
-0.2777849999999998
 74
     0
 49
0.6944300000000003
 74
     0
 49
-0.2777849999999998
 74
     0
  0
LTYPE
  5
43
330
4
100
AcDbSymbolTableRecord
100
AcDbLinetypeTableRecord
  2
STYLE_10
 70
     0
  3

 72
    65
 73
     6
 40
5.9375
 49
3.75
 74
     0
 49
-0.2777849999999998
 74
     0
 49
0.6944300000000003
 74
     0
 49
-0.2777849999999998
 74
     0
 49
0.625
 74
     0
 49
-0.3125
 74
     0
  0
LTYPE
  5
44
330
4
100
AcDbSymbolTableRecord
100
AcDbLinetypeTableRecord
  2
STYLE_11
 70
     0
  3

 72
    65
 73
     2
 40
0.0694444881889764
 49
0.0347222440944882
 74
     0
 49
-0.0347222440944882
 74
     0
  0
LTYPE
  5
45
330
4
100
AcDbSymbolTableRecord
100
AcDbLinetypeTableRecord
  2
STYLE_12
 70
     0
  3

 72
    65
 73
     2
 40
0.3937007874015748
 49
0.1968503937007874
 74
     0
 49
-0.1968503937007874
 74
     0
  0
LTYPE
  5
46
330
4
100
AcDbSymbolTableRecord
100
AcDbLinetypeTableRecord
  2
STYLE_13
 70
     0
  3

 72
    65
 73
     2
 40
0.5905511811023622
 49
0.2952755905511811
 74
     0
 49
-0.2952755905511811
 74
     0
  0
LTYPE
  5
47
330
4
100
AcDbSymbolTableRecord
100
AcDbLinetypeTableRecord
  2
STYLE_14
 70
     0
  3

 72
    65
 73
     2
 40
1.968503937007874
 49
0.9842519685039369
 74
     0
 49
-0.9842519685039369
 74
     0
  0
LTYPE
  5
48
330
4
100
AcDbSymbolTableRecord
100
AcDbLinetypeTableRecord
  2
STYLE_15
 70
     0
  3

 72
    65
 73
     2
 40
0.1875
 49
0.125
 74
     0
 49
-0.0625
 74
     0
  0
LTYPE
  5
49
330
4
100
AcDbSymbolTableRecord
100
AcDbLinetypeTableRecord
  2
STYLE_16
 70
     0
  3

 72
    65
 73
     2
 40
0.3690944881889764
 49
0.2460629921259843
 74
     0
 49
-0.1230314960629922
 74
     0
  0
LTYPE
  5
908
330
4
100
AcDbSymbolTableRecord
100
AcDbLinetypeTableRecord
  2
AI-LINETYPE-1
 70
     0
  3
Adobe Illustrator Linetype No. 1
 72
    65
 73
     4
 40
2.116668062491661
 49
1.058334031245831
 74
     0
 49
-0.3527780104152769
 74
     0
 49
0.3527780104152769
 74
     0
 49
-0.3527780104152769
 74
     0
  0
LTYPE
  5
909
330
4
100
AcDbSymbolTableRecord
100
AcDbLinetypeTableRecord
  2
AI-LINETYPE-2
 70
     0
  3
Adobe Illustrator Linetype No. 2
 72
    65
 73
     4
 40
2.116668062491661
 49
1.058334031245831
 74
     0
 49
-0.3527780104152769
 74
     0
 49
0.3527780104152769
 74
     0
 49
-0.3527780104152769
 74
     0
  0
LTYPE
  5
D6C
330
4
100
AcDbSymbolTableRecord
100
AcDbLinetypeTableRecord
  2
BORDER
 70
     0
  3
Border __  __  . __  __  . __  __  . __  __  . 
 72
    65
 73
     6
 40
44.45
 49
12.7
 74
     0
 49
-6.35
 74
     0
 49
12.7
 74
     0
 49
-6.35
 74
     0
 49
0.0
 74
     0
 49
-6.35
 74
     0
  0
LTYPE
  5
D6D
330
4
100
AcDbSymbolTableRecord
100
AcDbLinetypeTableRecord
  2
HIDDEN
 70
     0
  3
Hidden _ _ _ _ _ _ _ _ _ _ _ _ _ _ _ _ _ _ _ _ 
 72
    65
 73
     2
 40
9.524999999999999
 49
6.35
 74
     0
 49
-3.175
 74
     0
  0
LTYPE
  5
1375
330
4
100
AcDbSymbolTableRecord
100
AcDbLinetypeTableRecord
  2
CENTER
 70
     0
  3
 Center _____  _  _____  _  _____  _  _____  _ 
 72
    65
 73
     4
 40
50.8
 49
31.75
 74
     0
 49
-6.35
 74
     0
 49
6.35
 74
     0
 49
-6.35
 74
     0
  0
ENDTAB
  0
TABLE
  2
LAYER
  5
2
102
{ACAD_XDICTIONARY
360
2E1
102
}
330
0
100
AcDbSymbolTable
 70
     9
  0
LAYER
  5
14
330
2
100
AcDbSymbolTableRecord
100
AcDbLayerTableRecord
  2
0
 70
     0
 62
     7
  6
Continuous
370
    -3
390
1D
347
266
  0
LAYER
  5
4B
330
2
100
AcDbSymbolTableRecord
100
AcDbLayerTableRecord
  2
TEMPLATE
 70
     0
 62
     7
  6
Continuous
370
    20
390
1D
347
266
  0
LAYER
  5
4C
330
2
100
AcDbSymbolTableRecord
100
AcDbLayerTableRecord
  2
DIM
 70
     0
 62
     3
  6
Continuous
370
    13
390
1D
347
266
  0
LAYER
  5
4D
330
2
100
AcDbSymbolTableRecord
100
AcDbLayerTableRecord
  2
MODEL
 70
     0
 62
     7
  6
Continuous
370
    20
390
1D
347
266
  0
LAYER
  5
667
330
2
100
AcDbSymbolTableRecord
100
AcDbLayerTableRecord
  2
LOGO
 70
     0
 62
     7
  6
Continuous
370
    -3
390
1D
347
266
  0
LAYER
  5
88C
330
2
100
AcDbSymbolTableRecord
100
AcDbLayerTableRecord
  2
HIDDEN
 70
     0
 62
     8
  6
HIDDEN
370
    20
390
1D
347
266
1001
AcAecLayerStandard
1000

1000

  0
LAYER
  5
D6B
330
2
100
AcDbSymbolTableRecord
100
AcDbLayerTableRecord
  2
BORDER
 70
     0
 62
     4
  6
BORDER
290
     0
370
    20
390
1D
347
266
1001
AcAecLayerStandard
1000

1000

  0
LAYER
  5
D8C
330
2
100
AcDbSymbolTableRecord
100
AcDbLayerTableRecord
  2
Defpoints
 70
     0
 62
     7
  6
Continuous
290
     0
370
    -3
390
1D
347
266
  0
LAYER
  5
E69
330
2
100
AcDbSymbolTableRecord
100
AcDbLayerTableRecord
  2
PRINT BORDER
 70
     0
 62
     4
  6
BORDER
290
     0
370
    20
390
1D
347
266
1001
AcAecLayerStandard
1000

1000

  0
ENDTAB
  0
TABLE
  2
STYLE
  5
3
330
0
100
AcDbSymbolTable
 70
     4
  0
STYLE
  5
17
330
3
100
AcDbSymbolTableRecord
100
AcDbTextStyleTableRecord
  2
Standard
 70
     0
 40
0.0
 41
1.0
 50
0.0
 71
     0
 42
2.5
  3
txt
  4
BIGFONT.SHX
  0
STYLE
  5
39
330
3
100
AcDbSymbolTableRecord
100
AcDbTextStyleTableRecord
  2
ＭＳ ゴシック
 70
     0
 40
0.0
 41
1.0
 50
0.0
 71
     0
 42
2.5
  3
msgothic.ttc
  4
ＭＳ ゴシック
1001
ACAD
1000
ＭＳ ゴシック
1071
        0
  0
STYLE
  5
384
330
3
100
AcDbSymbolTableRecord
100
AcDbTextStyleTableRecord
  2
ARIAL
 70
     0
 40
0.0
 41
1.0
 50
0.0
 71
     0
 42
12.0
  3
ARIAL.TTF
  4

1001
ACAD
1000
Arial
1071
       34
  0
STYLE
  5
385
330
3
100
AcDbSymbolTableRecord
100
AcDbTextStyleTableRecord
  2
ROMANS
 70
     0
 40
0.0
 41
1.0
 50
0.0
 71
     0
 42
5.0
  3
romans.shx
  4

  0
ENDTAB
  0
TABLE
  2
VIEW
  5
5
330
0
100
AcDbSymbolTable
 70
     0
  0
ENDTAB
  0
TABLE
  2
UCS
  5
6
330
0
100
AcDbSymbolTable
 70
     0
  0
ENDTAB
  0
TABLE
  2
APPID
  5
8
330
0
100
AcDbSymbolTable
 70
     3
  0
APPID
  5
16
330
8
100
AcDbSymbolTableRecord
100
AcDbRegAppTableRecord
  2
ACAD
 70
     0
  0
APPID
  5
7AC
330
8
100
AcDbSymbolTableRecord
100
AcDbRegAppTableRecord
  2
AcAecLayerStandard
 70
     0
  0
APPID
  5
E29
330
8
100
AcDbSymbolTableRecord
100
AcDbRegAppTableRecord
  2
ACAD_MLEADERVER
 70
     0
  0
ENDTAB
  0
TABLE
  2
DIMSTYLE
  5
9
330
0
100
AcDbSymbolTable
 70
     5
100
AcDbDimStyleTable
  0
DIMSTYLE
105
18
330
9
100
AcDbSymbolTableRecord
100
AcDbDimStyleTableRecord
  2
Standard
 70
     0
178
     0
340
17
  0
DIMSTYLE
105
56
330
9
100
AcDbSymbolTableRecord
100
AcDbDimStyleTableRecord
  2
tform線あり
 70
     0
  3
<>
  4
[]
 41
9.999389648437498
 42
25.0
 43
0.9999999999999999
 44
0.0
 73
     0
 74
     0
 77
     1
 78
    11
140
24.4326171875
141
0.0
143
1.0
146
0.8
147
0.4999999999999999
171
     1
172
     1
174
     1
178
     0
179
     2
271
     1
272
     1
276
     2
284
    11
285
    11
286
    11
289
     0
340
39
341
4E
342
4E
  0
DIMSTYLE
105
57
102
{ACAD_REACTORS
330
104D
330
104E
330
104F
330
1056
330
1058
330
10D0
330
10E7
330
10E8
330
10EB
330
12C6
330
132D
330
132E
330
1358
330
161F
330
167A
330
16F1
330
1781
330
17D8
330
186D
102
}
330
9
100
AcDbSymbolTableRecord
100
AcDbDimStyleTableRecord
  2
tfrom線あり
 70
     0
  3
<>
  4
[]
 41
3.0
 42
10.0
 43
0.9999999999999999
 44
0.0
 73
     0
 74
     0
 77
     1
 78
    11
140
12.0
141
0.0
143
1.0
147
10.0
171
     1
174
     1
178
     0
179
     2
271
     0
272
     1
276
     2
284
    11
285
    11
286
    11
289
     0
340
39
341
4E
342
4E
  0
DIMSTYLE
105
5C
330
9
100
AcDbSymbolTableRecord
100
AcDbDimStyleTableRecord
  2
JIS
 70
     0
  3
<>
  4
[]
 41
9.0
 42
0.0
 43
6.99999999999994
 44
19.9999999999962
 73
     0
 74
     0
 77
     1
 78
    11
140
24.4326171875
141
0.0
143
1.0
147
10.0
171
     1
174
     1
178
     0
179
     2
271
     1
272
     1
276
     2
284
    11
285
    11
286
    11
289
     0
340
39
341
4E
342
4E
  0
DIMSTYLE
105
383
330
9
100
AcDbSymbolTableRecord
100
AcDbDimStyleTableRecord
  2
ARIAL
 70
     0
 41
10.0
 42
3.0
 43
0.5
 44
3.0
 73
     0
 74
     0
 77
     1
 78
     8
140
12.0
141
0.0
146
0.5
147
4.0
171
     1
172
     1
178
     0
271
     1
289
     0
340
384
  0
ENDTAB
  0
TABLE
  2
BLOCK_RECORD
  5
1
330
0
100
AcDbSymbolTable
 70
    71
  0
BLOCK_RECORD
  5
A
330
1
100
AcDbSymbolTableRecord
100
AcDbBlockTableRecord
  2
*MODEL_SPACE
340
20
 70
     0
280
     1
281
     0
  0
BLOCK_RECORD
  5
B
330
1
100
AcDbSymbolTableRecord
100
AcDbBlockTableRecord
  2
*PAPER_SPACE
340
21
 70
     0
280
     1
281
     0
  0
BLOCK_RECORD
  5
4E
330
1
100
AcDbSymbolTableRecord
100
AcDbBlockTableRecord
  2
_DOT
340
0
102
{BLKREFS
331
D96
331
D97
331
DA5
331
DA6
331
E53
331
E54
331
EDF
331
EE0
331
EEC
331
EED
331
EF9
331
EFA
331
F06
331
F07
331
F17
331
F18
331
F24
331
F25
331
F31
331
F32
331
F51
331
F52
331
F75
331
F76
331
FCD
331
FCE
331
FF0
331
FF1
331
FFD
331
FFE
331
100C
331
100D
331
1019
331
101A
331
1026
331
1027
331
10F4
331
10F5
331
1100
331
1101
331
110C
331
110D
331
1118
331
1119
331
1123
331
1124
331
112F
331
1130
331
113B
331
113C
331
1147
331
1148
331
1153
331
1154
331
115F
331
1160
331
116B
331
116C
331
1177
331
1178
331
1183
331
1184
331
118F
331
1190
331
119B
331
119C
331
12CD
331
12CE
331
1314
331
1315
331
1321
331
1322
331
1337
331
1338
331
1343
331
1344
331
135F
331
1360
331
13F5
331
13F6
331
1405
331
1406
331
1462
331
1463
331
146F
331
1470
331
147D
331
147E
331
148A
331
148B
331
149C
331
149D
331
14C6
331
14C7
331
14EA
331
14EB
331
1561
331
1562
331
156D
331
156E
331
1579
331
157A
331
1585
331
1586
331
1591
331
1592
331
159D
331
159E
331
15A9
331
15AA
331
1626
331
1627
331
1681
331
1682
331
16CE
331
16CF
331
16DD
331
16DE
331
1705
331
1706
331
1711
331
1712
331
1788
331
1789
331
17DF
331
17E0
331
1861
331
1862
331
1878
331
1879
102
}
 70
     0
280
     1
281
     0
  0
BLOCK_RECORD
  5
68A
330
1
100
AcDbSymbolTableRecord
100
AcDbBlockTableRecord
  2
名称未設定-1
340
0
102
{BLKREFS
331
6B5
102
}
 70
     1
280
     1
281
     0
  0
BLOCK_RECORD
  5
68D
330
1
100
AcDbSymbolTableRecord
100
AcDbBlockTableRecord
  2
block 2
340
0
102
{BLKREFS
331
68C
331
1044
102
}
 70
     0
280
     1
281
     0
  0
BLOCK_RECORD
  5
690
330
1
100
AcDbSymbolTableRecord
100
AcDbBlockTableRecord
  2
block 3
340
0
102
{BLKREFS
331
68F
102
}
 70
     0
280
     1
281
     0
  0
BLOCK_RECORD
  5
693
330
1
100
AcDbSymbolTableRecord
100
AcDbBlockTableRecord
  2
block 4
340
0
102
{BLKREFS
331
692
102
}
 70
     0
280
     1
281
     0
  0
BLOCK_RECORD
  5
6A2
330
1
100
AcDbSymbolTableRecord
100
AcDbBlockTableRecord
  2
block 5
340
0
102
{BLKREFS
331
6A1
102
}
 70
     0
280
     1
281
     0
  0
BLOCK_RECORD
  5
D90
330
1
100
AcDbSymbolTableRecord
100
AcDbBlockTableRecord
  2
*D6
340
0
 70
     0
280
     1
281
     0
  0
BLOCK_RECORD
  5
D9F
330
1
100
AcDbSymbolTableRecord
100
AcDbBlockTableRecord
  2
*D7
340
0
 70
     0
280
     1
281
     0
  0
BLOCK_RECORD
  5
E4D
330
1
100
AcDbSymbolTableRecord
100
AcDbBlockTableRecord
  2
*D8
340
0
 70
     0
280
     1
281
     0
  0
BLOCK_RECORD
  5
EDA
330
1
100
AcDbSymbolTableRecord
100
AcDbBlockTableRecord
  2
*D9
340
0
 70
     0
280
     1
281
     0
  0
BLOCK_RECORD
  5
EE7
330
1
100
AcDbSymbolTableRecord
100
AcDbBlockTableRecord
  2
*D10
340
0
 70
     0
280
     1
281
     0
  0
BLOCK_RECORD
  5
EF4
330
1
100
AcDbSymbolTableRecord
100
AcDbBlockTableRecord
  2
*D11
340
0
 70
     0
280
     1
281
     0
  0
BLOCK_RECORD
  5
F01
330
1
100
AcDbSymbolTableRecord
100
AcDbBlockTableRecord
  2
*D12
340
0
 70
     0
280
     1
281
     0
  0
BLOCK_RECORD
  5
F13
330
1
100
AcDbSymbolTableRecord
100
AcDbBlockTableRecord
  2
*D13
340
0
 70
     0
280
     1
281
     0
  0
BLOCK_RECORD
  5
F1F
330
1
100
AcDbSymbolTableRecord
100
AcDbBlockTableRecord
  2
*D14
340
0
 70
     0
280
     1
281
     0
  0
BLOCK_RECORD
  5
F2C
330
1
100
AcDbSymbolTableRecord
100
AcDbBlockTableRecord
  2
*D15
340
0
 70
     0
280
     1
281
     0
  0
BLOCK_RECORD
  5
F4C
330
1
100
AcDbSymbolTableRecord
100
AcDbBlockTableRecord
  2
*D16
340
0
 70
     0
280
     1
281
     0
  0
BLOCK_RECORD
  5
F70
330
1
100
AcDbSymbolTableRecord
100
AcDbBlockTableRecord
  2
*D17
340
0
 70
     0
280
     1
281
     0
  0
BLOCK_RECORD
  5
FC8
330
1
100
AcDbSymbolTableRecord
100
AcDbBlockTableRecord
  2
*D18
340
0
 70
     0
280
     1
281
     0
  0
BLOCK_RECORD
  5
FEB
330
1
100
AcDbSymbolTableRecord
100
AcDbBlockTableRecord
  2
*D19
340
0
 70
     0
280
     1
281
     0
  0
BLOCK_RECORD
  5
FF8
330
1
100
AcDbSymbolTableRecord
100
AcDbBlockTableRecord
  2
*D20
340
0
 70
     0
280
     1
281
     0
  0
BLOCK_RECORD
  5
1007
330
1
100
AcDbSymbolTableRecord
100
AcDbBlockTableRecord
  2
*D21
340
0
 70
     0
280
     1
281
     0
  0
BLOCK_RECORD
  5
1014
330
1
100
AcDbSymbolTableRecord
100
AcDbBlockTableRecord
  2
*D22
340
0
 70
     0
280
     1
281
     0
  0
BLOCK_RECORD
  5
1021
330
1
100
AcDbSymbolTableRecord
100
AcDbBlockTableRecord
  2
*D23
340
0
 70
     0
280
     1
281
     0
  0
BLOCK_RECORD
  5
10EE
330
1
100
AcDbSymbolTableRecord
100
AcDbBlockTableRecord
  2
*D24
340
0
 70
     0
280
     1
281
     0
  0
BLOCK_RECORD
  5
10FA
330
1
100
AcDbSymbolTableRecord
100
AcDbBlockTableRecord
  2
*D25
340
0
 70
     0
280
     1
281
     0
  0
BLOCK_RECORD
  5
1106
330
1
100
AcDbSymbolTableRecord
100
AcDbBlockTableRecord
  2
*D26
340
0
 70
     0
280
     1
281
     0
  0
BLOCK_RECORD
  5
1112
330
1
100
AcDbSymbolTableRecord
100
AcDbBlockTableRecord
  2
*D27
340
0
 70
     0
280
     1
281
     0
  0
BLOCK_RECORD
  5
111E
330
1
100
AcDbSymbolTableRecord
100
AcDbBlockTableRecord
  2
*D28
340
0
 70
     0
280
     1
281
     0
  0
BLOCK_RECORD
  5
1129
330
1
100
AcDbSymbolTableRecord
100
AcDbBlockTableRecord
  2
*D29
340
0
 70
     0
280
     1
281
     0
  0
BLOCK_RECORD
  5
1135
330
1
100
AcDbSymbolTableRecord
100
AcDbBlockTableRecord
  2
*D30
340
0
 70
     0
280
     1
281
     0
  0
BLOCK_RECORD
  5
1141
330
1
100
AcDbSymbolTableRecord
100
AcDbBlockTableRecord
  2
*D31
340
0
 70
     0
280
     1
281
     0
  0
BLOCK_RECORD
  5
114D
330
1
100
AcDbSymbolTableRecord
100
AcDbBlockTableRecord
  2
*D32
340
0
 70
     0
280
     1
281
     0
  0
BLOCK_RECORD
  5
1159
330
1
100
AcDbSymbolTableRecord
100
AcDbBlockTableRecord
  2
*D33
340
0
 70
     0
280
     1
281
     0
  0
BLOCK_RECORD
  5
1165
330
1
100
AcDbSymbolTableRecord
100
AcDbBlockTableRecord
  2
*D34
340
0
 70
     0
280
     1
281
     0
  0
BLOCK_RECORD
  5
1171
330
1
100
AcDbSymbolTableRecord
100
AcDbBlockTableRecord
  2
*D35
340
0
 70
     0
280
     1
281
     0
  0
BLOCK_RECORD
  5
117D
330
1
100
AcDbSymbolTableRecord
100
AcDbBlockTableRecord
  2
*D36
340
0
 70
     0
280
     1
281
     0
  0
BLOCK_RECORD
  5
1189
330
1
100
AcDbSymbolTableRecord
100
AcDbBlockTableRecord
  2
*D37
340
0
 70
     0
280
     1
281
     0
  0
BLOCK_RECORD
  5
1195
330
1
100
AcDbSymbolTableRecord
100
AcDbBlockTableRecord
  2
*D38
340
0
 70
     0
280
     1
281
     0
  0
BLOCK_RECORD
  5
12C7
330
1
100
AcDbSymbolTableRecord
100
AcDbBlockTableRecord
  2
*D39
340
0
 70
     0
280
     1
281
     0
  0
BLOCK_RECORD
  5
130F
330
1
100
AcDbSymbolTableRecord
100
AcDbBlockTableRecord
  2
*D40
340
0
 70
     0
280
     1
281
     0
  0
BLOCK_RECORD
  5
131C
330
1
100
AcDbSymbolTableRecord
100
AcDbBlockTableRecord
  2
*D41
340
0
 70
     0
280
     1
281
     0
  0
BLOCK_RECORD
  5
1331
330
1
100
AcDbSymbolTableRecord
100
AcDbBlockTableRecord
  2
*D42
340
0
 70
     0
280
     1
281
     0
  0
BLOCK_RECORD
  5
133D
330
1
100
AcDbSymbolTableRecord
100
AcDbBlockTableRecord
  2
*D43
340
0
 70
     0
280
     1
281
     0
  0
BLOCK_RECORD
  5
1359
330
1
100
AcDbSymbolTableRecord
100
AcDbBlockTableRecord
  2
*D44
340
0
 70
     0
280
     1
281
     0
  0
BLOCK_RECORD
  5
13EE
330
1
100
AcDbSymbolTableRecord
100
AcDbBlockTableRecord
  2
*D45
340
0
 70
     0
280
     1
281
     0
  0
BLOCK_RECORD
  5
13FE
330
1
100
AcDbSymbolTableRecord
100
AcDbBlockTableRecord
  2
*D46
340
0
 70
     0
280
     1
281
     0
  0
BLOCK_RECORD
  5
145D
330
1
100
AcDbSymbolTableRecord
100
AcDbBlockTableRecord
  2
*D47
340
0
 70
     0
280
     1
281
     0
  0
BLOCK_RECORD
  5
146A
330
1
100
AcDbSymbolTableRecord
100
AcDbBlockTableRecord
  2
*D48
340
0
 70
     0
280
     1
281
     0
  0
BLOCK_RECORD
  5
1478
330
1
100
AcDbSymbolTableRecord
100
AcDbBlockTableRecord
  2
*D49
340
0
 70
     0
280
     1
281
     0
  0
BLOCK_RECORD
  5
1485
330
1
100
AcDbSymbolTableRecord
100
AcDbBlockTableRecord
  2
*D50
340
0
 70
     0
280
     1
281
     0
  0
BLOCK_RECORD
  5
1497
330
1
100
AcDbSymbolTableRecord
100
AcDbBlockTableRecord
  2
*D51
340
0
 70
     0
280
     1
281
     0
  0
BLOCK_RECORD
  5
14C1
330
1
100
AcDbSymbolTableRecord
100
AcDbBlockTableRecord
  2
*D52
340
0
 70
     0
280
     1
281
     0
  0
BLOCK_RECORD
  5
14E5
330
1
100
AcDbSymbolTableRecord
100
AcDbBlockTableRecord
  2
*D53
340
0
 70
     0
280
     1
281
     0
  0
BLOCK_RECORD
  5
155B
330
1
100
AcDbSymbolTableRecord
100
AcDbBlockTableRecord
  2
*D54
340
0
 70
     0
280
     1
281
     0
  0
BLOCK_RECORD
  5
1567
330
1
100
AcDbSymbolTableRecord
100
AcDbBlockTableRecord
  2
*D55
340
0
 70
     0
280
     1
281
     0
  0
BLOCK_RECORD
  5
1573
330
1
100
AcDbSymbolTableRecord
100
AcDbBlockTableRecord
  2
*D56
340
0
 70
     0
280
     1
281
     0
  0
BLOCK_RECORD
  5
157F
330
1
100
AcDbSymbolTableRecord
100
AcDbBlockTableRecord
  2
*D57
340
0
 70
     0
280
     1
281
     0
  0
BLOCK_RECORD
  5
158B
330
1
100
AcDbSymbolTableRecord
100
AcDbBlockTableRecord
  2
*D58
340
0
 70
     0
280
     1
281
     0
  0
BLOCK_RECORD
  5
1597
330
1
100
AcDbSymbolTableRecord
100
AcDbBlockTableRecord
  2
*D59
340
0
 70
     0
280
     1
281
     0
  0
BLOCK_RECORD
  5
15A3
330
1
100
AcDbSymbolTableRecord
100
AcDbBlockTableRecord
  2
*D60
340
0
 70
     0
280
     1
281
     0
  0
BLOCK_RECORD
  5
1620
330
1
100
AcDbSymbolTableRecord
100
AcDbBlockTableRecord
  2
*D61
340
0
 70
     0
280
     1
281
     0
  0
BLOCK_RECORD
  5
167B
330
1
100
AcDbSymbolTableRecord
100
AcDbBlockTableRecord
  2
*D62
340
0
 70
     0
280
     1
281
     0
  0
BLOCK_RECORD
  5
16C9
330
1
100
AcDbSymbolTableRecord
100
AcDbBlockTableRecord
  2
*D63
340
0
 70
     0
280
     1
281
     0
  0
BLOCK_RECORD
  5
16D8
330
1
100
AcDbSymbolTableRecord
100
AcDbBlockTableRecord
  2
*D64
340
0
 70
     0
280
     1
281
     0
  0
BLOCK_RECORD
  5
16FF
330
1
100
AcDbSymbolTableRecord
100
AcDbBlockTableRecord
  2
*D65
340
0
 70
     0
280
     1
281
     0
  0
BLOCK_RECORD
  5
170B
330
1
100
AcDbSymbolTableRecord
100
AcDbBlockTableRecord
  2
*D66
340
0
 70
     0
280
     1
281
     0
  0
BLOCK_RECORD
  5
1782
330
1
100
AcDbSymbolTableRecord
100
AcDbBlockTableRecord
  2
*D67
340
0
 70
     0
280
     1
281
     0
  0
BLOCK_RECORD
  5
17D9
330
1
100
AcDbSymbolTableRecord
100
AcDbBlockTableRecord
  2
*D68
340
0
 70
     0
280
     1
281
     0
  0
BLOCK_RECORD
  5
185C
330
1
100
AcDbSymbolTableRecord
100
AcDbBlockTableRecord
  2
*D69
340
0
 70
     0
280
     1
281
     0
  0
BLOCK_RECORD
  5
1872
330
1
100
AcDbSymbolTableRecord
100
AcDbBlockTableRecord
  2
*D70
340
0
 70
     0
280
     1
281
     0
  0
ENDTAB
  0
ENDSEC
  0
SECTION
  2
BLOCKS
  0
BLOCK
  5
D
330
A
100
AcDbEntity
  8
0
390
1D
100
AcDbBlockBegin
  2
*MODEL_SPACE
 70
     0
 10
0.0
 20
0.0
 30
0.0
  3
*MODEL_SPACE
  1
*MODEL_SPACE
  0
ENDBLK
  5
E
330
A
100
AcDbEntity
  8
0
390
1D
100
AcDbBlockEnd
  0
BLOCK
  5
F
330
B
100
AcDbEntity
 67
     1
  8
0
390
1D
100
AcDbBlockBegin
  2
*PAPER_SPACE
 70
     0
 10
0.0
 20
0.0
 30
0.0
  3
*PAPER_SPACE
  1
*PAPER_SPACE
  0
ENDBLK
  5
10
330
B
100
AcDbEntity
 67
     1
  8
0
390
1D
100
AcDbBlockEnd
  0
BLOCK
  5
E30
330
4E
100
AcDbEntity
  8
0
390
1D
100
AcDbBlockBegin
  2
_DOT
 70
     0
 10
0.0
 20
0.0
 30
0.0
  3
_DOT
  1
_DOT
  0
POLYLINE
  5
E32
330
4E
100
AcDbEntity
  8
0
  6
ByBlock
 62
     0
370
    -2
390
1D
100
AcDb2dPolyline
 66
     1
 10
0.0
 20
0.0
 30
0.0
 70
     1
 40
0.5
 41
0.5
  0
VERTEX
  5
E33
330
E32
100
AcDbEntity
  8
0
  6
ByBlock
 62
     0
370
    -2
390
1D
100
AcDbVertex
100
AcDb2dVertex
 10
-0.25
 20
0.0
 30
0.0
 42
1.0
  0
VERTEX
  5
E34
330
E32
100
AcDbEntity
  8
0
  6
ByBlock
 62
     0
370
    -2
390
1D
100
AcDbVertex
100
AcDb2dVertex
 10
0.25
 20
0.0
 30
0.0
 42
1.0
  0
SEQEND
  5
E35
330
E32
100
AcDbEntity
  8
0
390
1D
  0
LINE
  5
E36
330
4E
100
AcDbEntity
  8
0
  6
ByBlock
 62
     0
370
    -2
390
1D
100
AcDbLine
 10
-0.5
 20
0.0
 30
0.0
 11
-1.0
 21
0.0
 31
0.0
  0
ENDBLK
  5
E37
330
4E
100
AcDbEntity
  8
0
390
1D
100
AcDbBlockEnd
  0
BLOCK
  5
68B
330
68A
100
AcDbEntity
  8
0
100
AcDbBlockBegin
  2
名称未設定-1
 70
     0
 10
0.0
 20
0.0
 30
0.0
  3
名称未設定-1
  1
名称未設定-1
  0
INSERT
  5
68F
330
68A
100
AcDbEntity
  8
LOGO
100
AcDbBlockReference
  2
block 3
 10
0.0
 20
0.0
 30
0.0
  0
ENDBLK
  5
6B1
330
68A
100
AcDbEntity
  8
0
100
AcDbBlockEnd
  0
BLOCK
  5
68E
330
68D
100
AcDbEntity
  8
0
100
AcDbBlockBegin
  2
block 2
 70
     0
 10
0.0
 20
0.0
 30
0.0
  3
block 2
  1
block 2
  0
ENDBLK
  5
6B0
330
68D
100
AcDbEntity
  8
0
100
AcDbBlockEnd
  0
BLOCK
  5
691
330
690
100
AcDbEntity
  8
0
100
AcDbBlockBegin
  2
block 3
 70
     0
 10
0.0
 20
0.0
 30
0.0
  3
block 3
  1
block 3
  0
INSERT
  5
692
330
690
100
AcDbEntity
  8
LOGO
100
AcDbBlockReference
  2
block 4
 10
0.0
 20
0.0
 30
0.0
  0
INSERT
  5
6A1
330
690
100
AcDbEntity
  8
LOGO
100
AcDbBlockReference
  2
block 5
 10
0.0
 20
0.0
 30
0.0
  0
ENDBLK
  5
6AF
330
690
100
AcDbEntity
  8
0
100
AcDbBlockEnd
  0
BLOCK
  5
694
330
693
100
AcDbEntity
  8
0
100
AcDbBlockBegin
  2
block 4
 70
     0
 10
0.0
 20
0.0
 30
0.0
  3
block 4
  1
block 4
  0
POLYLINE
  5
695
330
693
100
AcDbEntity
  8
LOGO
370
     0
100
AcDb2dPolyline
 66
     1
 10
0.0
 20
0.0
 30
0.0
  0
VERTEX
  5
696
330
695
100
AcDbEntity
  8
LOGO
370
     0
100
AcDbVertex
100
AcDb2dVertex
 10
83.79545727667795
 20
167.6444858234922
 30
0.0
  0
VERTEX
  5
697
330
695
100
AcDbEntity
  8
LOGO
370
     0
100
AcDbVertex
100
AcDb2dVertex
 10
83.79545727667795
 20
159.7968976406313
 30
0.0
  0
VERTEX
  5
698
330
695
100
AcDbEntity
  8
LOGO
370
     0
100
AcDbVertex
100
AcDb2dVertex
 10
71.3631329975216
 20
159.7968976406313
 30
0.0
  0
VERTEX
  5
699
330
695
100
AcDbEntity
  8
LOGO
370
     0
100
AcDbVertex
100
AcDb2dVertex
 10
71.3631329975216
 20
127.8027915271048
 30
0.0
  0
VERTEX
  5
69A
330
695
100
AcDbEntity
  8
LOGO
370
     0
100
AcDbVertex
100
AcDb2dVertex
 10
60.43011526263018
 20
127.8027915271048
 30
0.0
  0
VERTEX
  5
69B
330
695
100
AcDbEntity
  8
LOGO
370
     0
100
AcDbVertex
100
AcDb2dVertex
 10
60.43011526263018
 20
159.7968976406313
 30
0.0
  0
VERTEX
  5
69C
330
695
100
AcDbEntity
  8
LOGO
370
     0
100
AcDbVertex
100
AcDb2dVertex
 10
48.21793273020759
 20
159.7968976406313
 30
0.0
  0
VERTEX
  5
69D
330
695
100
AcDbEntity
  8
LOGO
370
     0
100
AcDbVertex
100
AcDb2dVertex
 10
48.21793273020759
 20
167.6444858234922
 30
0.0
  0
VERTEX
  5
69E
330
695
100
AcDbEntity
  8
LOGO
370
     0
100
AcDbVertex
100
AcDb2dVertex
 10
83.79545727667795
 20
167.6444858234922
 30
0.0
  0
SEQEND
  5
69F
330
695
100
AcDbEntity
  8
LOGO
370
     0
  0
HATCH
  5
6A0
330
693
100
AcDbEntity
  8
LOGO
 62
   250
420
  2234388
100
AcDbHatch
 10
0.0
 20
0.0
 30
0.0
210
0.0
220
0.0
230
1.0
  2
SOLID
 70
     1
 71
     0
 91
        1
 92
        1
 93
        8
 72
     1
 10
83.79545727667795
 20
167.6444858234922
 11
83.79545727667795
 21
159.7968976406313
 72
     1
 10
83.79545727667795
 20
159.7968976406313
 11
71.3631329975216
 21
159.7968976406313
 72
     1
 10
71.3631329975216
 20
159.7968976406313
 11
71.3631329975216
 21
127.8027915271048
 72
     1
 10
71.3631329975216
 20
127.8027915271048
 11
60.43011526263018
 21
127.8027915271048
 72
     1
 10
60.43011526263018
 20
127.8027915271048
 11
60.43011526263018
 21
159.7968976406313
 72
     1
 10
60.43011526263018
 20
159.7968976406313
 11
48.21793273020759
 21
159.7968976406313
 72
     1
 10
48.21793273020759
 20
159.7968976406313
 11
48.21793273020759
 21
167.6444858234922
 72
     1
 10
48.21793273020759
 20
167.6444858234922
 11
83.79545727667795
 21
167.6444858234922
 97
        0
 75
     2
 76
     1
 98
        0
  0
ENDBLK
  5
6AE
330
693
100
AcDbEntity
  8
0
100
AcDbBlockEnd
  0
BLOCK
  5
6A3
330
6A2
100
AcDbEntity
  8
0
100
AcDbBlockBegin
  2
block 5
 70
     0
 10
0.0
 20
0.0
 30
0.0
  3
block 5
  1
block 5
  0
SPLINE
  5
6A4
330
6A2
100
AcDbEntity
  8
LOGO
370
     0
100
AcDbSpline
210
0.0
220
0.0
230
1.0
 70
    11
 71
     3
 72
    56
 73
    52
 74
     0
 42
0.000000001
 43
0.0000000001
 40
0.0
 40
0.0
 40
0.0
 40
0.0
 40
1.0
 40
1.0
 40
1.0
 40
2.0
 40
2.0
 40
2.0
 40
3.0
 40
3.0
 40
3.0
 40
4.0
 40
4.0
 40
4.0
 40
5.0
 40
5.0
 40
5.0
 40
6.0
 40
6.0
 40
6.0
 40
7.0
 40
7.0
 40
7.0
 40
8.0
 40
8.0
 40
8.0
 40
9.0
 40
9.0
 40
9.0
 40
10.0
 40
10.0
 40
10.0
 40
11.0
 40
11.0
 40
11.0
 40
12.0
 40
12.0
 40
12.0
 40
13.0
 40
13.0
 40
13.0
 40
14.0
 40
14.0
 40
14.0
 40
15.0
 40
15.0
 40
15.0
 40
16.0
 40
16.0
 40
16.0
 40
17.0
 40
17.0
 40
17.0
 40
17.0
 10
100.4504378777679
 20
166.69157178364
 30
0.0
 10
101.9848844191641
 20
167.1313385124438
 30
0.0
 10
103.9637485713373
 20
166.7649523658846
 30
0.0
 10
103.9637485713373
 20
166.7649523658846
 30
0.0
 10
103.9637485713373
 20
166.7649523658846
 30
0.0
 10
103.0132460999156
 20
163.911205638077
 30
0.0
 10
103.0132460999156
 20
163.911205638077
 30
0.0
 10
103.0132460999156
 20
163.911205638077
 30
0.0
 10
101.0674548862189
 20
164.3601018759394
 30
0.0
 10
99.57090442016032
 20
163.1805004036133
 30
0.0
 10
98.40508333886608
 20
162.258247733807
 30
0.0
 10
97.65301849830304
 20
159.804132345923
 30
0.0
 10
97.3598406791005
 20
158.8699940888517
 30
0.0
 10
97.3598406791005
 20
158.8699940888517
 30
0.0
 10
96.07137411762282
 20
154.9119212747295
 30
0.0
 10
96.07137411762282
 20
154.9119212747295
 30
0.0
 10
96.07137411762282
 20
154.9119212747295
 30
0.0
 10
100.3012651448482
 20
154.9119212747295
 30
0.0
 10
100.3012651448482
 20
154.9119212747295
 30
0.0
 10
100.3012651448482
 20
154.9119212747295
 30
0.0
 10
99.64152892419852
 20
152.4199098115079
 30
0.0
 10
99.64152892419852
 20
152.4199098115079
 30
0.0
 10
99.64152892419852
 20
152.4199098115079
 30
0.0
 10
95.38097652692731
 20
152.4199098115079
 30
0.0
 10
95.38097652692731
 20
152.4199098115079
 30
0.0
 10
95.38097652692731
 20
152.4199098115079
 30
0.0
 10
87.75353009080013
 20
127.8027915271048
 30
0.0
 10
87.75353009080013
 20
127.8027915271048
 30
0.0
 10
87.75353009080013
 20
127.8027915271048
 30
0.0
 10
85.36538832498108
 20
127.8027915271048
 30
0.0
 10
85.36538832498108
 20
127.8027915271048
 30
0.0
 10
85.36538832498108
 20
127.8027915271048
 30
0.0
 10
93.00006946639998
 20
152.4199098115079
 30
0.0
 10
93.00006946639998
 20
152.4199098115079
 30
0.0
 10
93.00006946639998
 20
152.4199098115079
 30
0.0
 10
89.85297266450198
 20
152.4199098115079
 30
0.0
 10
89.85297266450198
 20
152.4199098115079
 30
0.0
 10
89.85297266450198
 20
152.4199098115079
 30
0.0
 10
90.51270888515164
 20
154.9119212747295
 30
0.0
 10
90.51270888515164
 20
154.9119212747295
 30
0.0
 10
90.51270888515164
 20
154.9119212747295
 30
0.0
 10
93.6904670570955
 20
154.9119212747295
 30
0.0
 10
93.6904670570955
 20
154.9119212747295
 30
0.0
 10
93.6904670570955
 20
154.9119212747295
 30
0.0
 10
94.81598049462158
 20
158.3616699146644
 30
0.0
 10
94.81598049462158
 20
158.3616699146644
 30
0.0
 10
95.7237637538445
 20
161.2605474231013
 30
0.0
 10
96.4968436907311
 20
162.8139420021662
 30
0.0
 10
97.15657991138076
 20
163.9844139654337
 30
0.0
 10
97.81183750494507
 20
165.1523021053827
 30
0.0
 10
99.1047826935081
 20
166.3084769129547
 30
0.0
 10
100.4504378777679
 20
166.69157178364
 30
0.0
  0
HATCH
  5
6A5
330
6A2
100
AcDbEntity
  8
LOGO
 62
   250
420
  2234388
100
AcDbHatch
 10
0.0
 20
0.0
 30
0.0
210
0.0
220
0.0
230
1.0
  2
SOLID
 70
     1
 71
     0
 91
        1
 92
        1
 93
        1
 72
     4
 94
        3
 73
     0
 74
     1
 95
       56
 96
       52
 40
0.0
 40
0.0
 40
0.0
 40
0.0
 40
1.0
 40
1.0
 40
1.0
 40
2.0
 40
2.0
 40
2.0
 40
3.0
 40
3.0
 40
3.0
 40
4.0
 40
4.0
 40
4.0
 40
5.0
 40
5.0
 40
5.0
 40
6.0
 40
6.0
 40
6.0
 40
7.0
 40
7.0
 40
7.0
 40
8.0
 40
8.0
 40
8.0
 40
9.0
 40
9.0
 40
9.0
 40
10.0
 40
10.0
 40
10.0
 40
11.0
 40
11.0
 40
11.0
 40
12.0
 40
12.0
 40
12.0
 40
13.0
 40
13.0
 40
13.0
 40
14.0
 40
14.0
 40
14.0
 40
15.0
 40
15.0
 40
15.0
 40
16.0
 40
16.0
 40
16.0
 40
17.0
 40
17.0
 40
17.0
 40
17.0
 10
100.4504378777679
 20
166.69157178364
 10
101.9848844191641
 20
167.1313385124438
 10
103.9637485713373
 20
166.7649523658846
 10
103.9637485713373
 20
166.7649523658846
 10
103.9637485713373
 20
166.7649523658846
 10
103.0132460999156
 20
163.911205638077
 10
103.0132460999156
 20
163.911205638077
 10
103.0132460999156
 20
163.911205638077
 10
101.0674548862189
 20
164.3601018759394
 10
99.57090442016032
 20
163.1805004036133
 10
98.40508333886608
 20
162.258247733807
 10
97.65301849830304
 20
159.804132345923
 10
97.3598406791005
 20
158.8699940888517
 10
97.3598406791005
 20
158.8699940888517
 10
96.07137411762282
 20
154.9119212747295
 10
96.07137411762282
 20
154.9119212747295
 10
96.07137411762282
 20
154.9119212747295
 10
100.3012651448482
 20
154.9119212747295
 10
100.3012651448482
 20
154.9119212747295
 10
100.3012651448482
 20
154.9119212747295
 10
99.64152892419852
 20
152.4199098115079
 10
99.64152892419852
 20
152.4199098115079
 10
99.64152892419852
 20
152.4199098115079
 10
95.38097652692731
 20
152.4199098115079
 10
95.38097652692731
 20
152.4199098115079
 10
95.38097652692731
 20
152.4199098115079
 10
87.75353009080013
 20
127.8027915271048
 10
87.75353009080013
 20
127.8027915271048
 10
87.75353009080013
 20
127.8027915271048
 10
85.36538832498108
 20
127.8027915271048
 10
85.36538832498108
 20
127.8027915271048
 10
85.36538832498108
 20
127.8027915271048
 10
93.00006946639998
 20
152.4199098115079
 10
93.00006946639998
 20
152.4199098115079
 10
93.00006946639998
 20
152.4199098115079
 10
89.85297266450198
 20
152.4199098115079
 10
89.85297266450198
 20
152.4199098115079
 10
89.85297266450198
 20
152.4199098115079
 10
90.51270888515164
 20
154.9119212747295
 10
90.51270888515164
 20
154.9119212747295
 10
90.51270888515164
 20
154.9119212747295
 10
93.6904670570955
 20
154.9119212747295
 10
93.6904670570955
 20
154.9119212747295
 10
93.6904670570955
 20
154.9119212747295
 10
94.81598049462158
 20
158.3616699146644
 10
94.81598049462158
 20
158.3616699146644
 10
95.7237637538445
 20
161.2605474231013
 10
96.4968436907311
 20
162.8139420021662
 10
97.15657991138076
 20
163.9844139654337
 10
97.81183750494507
 20
165.1523021053827
 10
99.1047826935081
 20
166.3084769129547
 10
100.4504378777679
 20
166.69157178364
 97
        0
 75
     2
 76
     1
 98
        0
  0
SPLINE
  5
6A6
330
6A2
100
AcDbEntity
  8
LOGO
370
     0
100
AcDbSpline
210
0.0
220
0.0
230
1.0
 70
    11
 71
     3
 72
    38
 73
    34
 74
     0
 42
0.000000001
 43
0.0000000001
 40
0.0
 40
0.0
 40
0.0
 40
0.0
 40
1.0
 40
1.0
 40
1.0
 40
2.0
 40
2.0
 40
2.0
 40
3.0
 40
3.0
 40
3.0
 40
4.0
 40
4.0
 40
4.0
 40
5.0
 40
5.0
 40
5.0
 40
6.0
 40
6.0
 40
6.0
 40
7.0
 40
7.0
 40
7.0
 40
8.0
 40
8.0
 40
8.0
 40
9.0
 40
9.0
 40
9.0
 40
10.0
 40
10.0
 40
10.0
 40
11.0
 40
11.0
 40
11.0
 40
11.0
 10
126.377554584636
 20
154.8151140277308
 30
0.0
 10
126.377554584636
 20
154.8151140277308
 30
0.0
 10
128.8311532078563
 20
154.8151140277308
 30
0.0
 10
128.8311532078563
 20
154.8151140277308
 30
0.0
 10
128.8311532078563
 20
154.8151140277308
 30
0.0
 10
127.7345785914971
 20
151.3062819612468
 30
0.0
 10
127.7345785914971
 20
151.3062819612468
 30
0.0
 10
128.571392836906
 20
152.2922689395754
 30
0.0
 10
129.8860421413442
 20
153.604506675583
 30
0.0
 10
131.0163787157314
 20
154.2664822097754
 30
0.0
 10
132.7044766171327
 20
155.2500576196734
 30
0.0
 10
133.6642808525008
 20
155.3847609420097
 30
0.0
 10
134.7284715499351
 20
155.3565111403944
 30
0.0
 10
134.7284715499351
 20
155.3565111403944
 30
0.0
 10
133.6877075172549
 20
152.0345756272799
 30
0.0
 10
133.6877075172549
 20
152.0345756272799
 30
0.0
 10
133.011434827367
 20
152.3184516825359
 30
0.0
 10
130.930940291334
 20
151.7768823149844
 30
0.0
 10
129.739280976855
 20
150.9162968950455
 30
0.0
 10
128.66613302525
 20
150.1454562717016
 30
0.0
 10
127.9192358313239
 20
149.4857200510519
 30
0.0
 10
127.0393578639405
 20
147.8282835196966
 30
0.0
 10
126.164647543194
 20
146.1699857139017
 30
0.0
 10
125.4742499524985
 20
143.5262176944419
 30
0.0
 10
124.2822461282437
 20
139.6959580071401
 30
0.0
 10
124.2822461282437
 20
139.6959580071401
 30
0.0
 10
120.5753209406769
 20
127.8027915271048
 30
0.0
 10
120.5753209406769
 20
127.8027915271048
 30
0.0
 10
120.5753209406769
 20
127.8027915271048
 30
0.0
 10
118.1964809388044
 20
127.8027915271048
 30
0.0
 10
118.1964809388044
 20
127.8027915271048
 30
0.0
 10
118.1964809388044
 20
127.8027915271048
 30
0.0
 10
126.377554584636
 20
154.8151140277308
 30
0.0
 10
126.377554584636
 20
154.8151140277308
 30
0.0
  0
HATCH
  5
6A7
330
6A2
100
AcDbEntity
  8
LOGO
 62
   250
420
  2234388
100
AcDbHatch
 10
0.0
 20
0.0
 30
0.0
210
0.0
220
0.0
230
1.0
  2
SOLID
 70
     1
 71
     0
 91
        1
 92
        1
 93
        1
 72
     4
 94
        3
 73
     0
 74
     1
 95
       38
 96
       34
 40
0.0
 40
0.0
 40
0.0
 40
0.0
 40
1.0
 40
1.0
 40
1.0
 40
2.0
 40
2.0
 40
2.0
 40
3.0
 40
3.0
 40
3.0
 40
4.0
 40
4.0
 40
4.0
 40
5.0
 40
5.0
 40
5.0
 40
6.0
 40
6.0
 40
6.0
 40
7.0
 40
7.0
 40
7.0
 40
8.0
 40
8.0
 40
8.0
 40
9.0
 40
9.0
 40
9.0
 40
10.0
 40
10.0
 40
10.0
 40
11.0
 40
11.0
 40
11.0
 40
11.0
 10
126.377554584636
 20
154.8151140277308
 10
126.377554584636
 20
154.8151140277308
 10
128.8311532078563
 20
154.8151140277308
 10
128.8311532078563
 20
154.8151140277308
 10
128.8311532078563
 20
154.8151140277308
 10
127.7345785914971
 20
151.3062819612468
 10
127.7345785914971
 20
151.3062819612468
 10
128.571392836906
 20
152.2922689395754
 10
129.8860421413442
 20
153.604506675583
 10
131.0163787157314
 20
154.2664822097754
 10
132.7044766171327
 20
155.2500576196734
 10
133.6642808525008
 20
155.3847609420097
 10
134.7284715499351
 20
155.3565111403944
 10
134.7284715499351
 20
155.3565111403944
 10
133.6877075172549
 20
152.0345756272799
 10
133.6877075172549
 20
152.0345756272799
 10
133.011434827367
 20
152.3184516825359
 10
130.930940291334
 20
151.7768823149844
 10
129.739280976855
 20
150.9162968950455
 10
128.66613302525
 20
150.1454562717016
 10
127.9192358313239
 20
149.4857200510519
 10
127.0393578639405
 20
147.8282835196966
 10
126.164647543194
 20
146.1699857139017
 10
125.4742499524985
 20
143.5262176944419
 10
124.2822461282437
 20
139.6959580071401
 10
124.2822461282437
 20
139.6959580071401
 10
120.5753209406769
 20
127.8027915271048
 10
120.5753209406769
 20
127.8027915271048
 10
120.5753209406769
 20
127.8027915271048
 10
118.1964809388044
 20
127.8027915271048
 10
118.1964809388044
 20
127.8027915271048
 10
118.1964809388044
 20
127.8027915271048
 10
126.377554584636
 20
154.8151140277308
 10
126.377554584636
 20
154.8151140277308
 97
        0
 75
     2
 76
     1
 98
        0
  0
SPLINE
  5
6A8
330
6A2
100
AcDbEntity
  8
LOGO
370
     0
100
AcDbSpline
210
0.0
220
0.0
230
1.0
 70
    11
 71
     3
 72
   104
 73
   100
 74
     0
 42
0.000000001
 43
0.0000000001
 40
0.0
 40
0.0
 40
0.0
 40
0.0
 40
1.0
 40
1.0
 40
1.0
 40
2.0
 40
2.0
 40
2.0
 40
3.0
 40
3.0
 40
3.0
 40
4.0
 40
4.0
 40
4.0
 40
5.0
 40
5.0
 40
5.0
 40
6.0
 40
6.0
 40
6.0
 40
7.0
 40
7.0
 40
7.0
 40
8.0
 40
8.0
 40
8.0
 40
9.0
 40
9.0
 40
9.0
 40
10.0
 40
10.0
 40
10.0
 40
11.0
 40
11.0
 40
11.0
 40
12.0
 40
12.0
 40
12.0
 40
13.0
 40
13.0
 40
13.0
 40
14.0
 40
14.0
 40
14.0
 40
15.0
 40
15.0
 40
15.0
 40
16.0
 40
16.0
 40
16.0
 40
17.0
 40
17.0
 40
17.0
 40
18.0
 40
18.0
 40
18.0
 40
19.0
 40
19.0
 40
19.0
 40
20.0
 40
20.0
 40
20.0
 40
21.0
 40
21.0
 40
21.0
 40
22.0
 40
22.0
 40
22.0
 40
23.0
 40
23.0
 40
23.0
 40
24.0
 40
24.0
 40
24.0
 40
25.0
 40
25.0
 40
25.0
 40
26.0
 40
26.0
 40
26.0
 40
27.0
 40
27.0
 40
27.0
 40
28.0
 40
28.0
 40
28.0
 40
29.0
 40
29.0
 40
29.0
 40
30.0
 40
30.0
 40
30.0
 40
31.0
 40
31.0
 40
31.0
 40
32.0
 40
32.0
 40
32.0
 40
33.0
 40
33.0
 40
33.0
 40
33.0
 10
139.8926730891197
 20
154.8294111834263
 30
0.0
 10
139.8926730891197
 20
154.8294111834263
 30
0.0
 10
142.0344903652445
 20
154.8294111834263
 30
0.0
 10
142.0344903652445
 20
154.8294111834263
 30
0.0
 10
142.0344903652445
 20
154.8294111834263
 30
0.0
 10
140.9516961399171
 20
151.3157559800812
 30
0.0
 10
140.9516961399171
 20
151.3157559800812
 30
0.0
 10
141.8928968473923
 20
152.7887075264977
 30
0.0
 10
142.7341897198865
 20
153.4484437471474
 30
0.0
 10
143.8552245303272
 20
154.2926649527359
 30
0.0
 10
144.9803934580775
 20
155.1296514530327
 30
0.0
 10
146.3139908001845
 20
155.3044901642492
 30
0.0
 10
147.241066606852
 20
155.3044901642492
 30
0.0
 10
148.3855280820469
 20
155.3044901642492
 30
0.0
 10
149.4969166187653
 20
155.0752189084569
 30
0.0
 10
150.0784491203092
 20
153.8172414621372
 30
0.0
 10
150.5228667310863
 20
152.833838307127
 30
0.0
 10
150.5414702589793
 20
152.7201500811143
 30
0.0
 10
150.4140016419347
 20
150.7765981809602
 30
0.0
 10
151.5818897818837
 20
152.7699317437168
 30
0.0
 10
152.4424752018226
 20
153.6256940267945
 30
0.0
 10
153.9038856707499
 20
154.4507949398263
 30
0.0
 10
155.4455669174378
 20
155.3044901642492
 30
0.0
 10
156.339225275853
 20
155.3659851592288
 30
0.0
 10
157.3748216618963
 20
155.2147453676543
 30
0.0
 10
158.911679771723
 20
154.9877134254046
 30
0.0
 10
159.8859534176746
 20
154.4390816074493
 30
0.0
 10
160.3965169054045
 20
152.7816450760939
 30
0.0
 10
160.9070803931344
 20
151.1219692311958
 30
0.0
 10
160.6328506116007
 20
150.2303779314354
 30
0.0
 10
159.9992971339115
 20
147.597634224801
 30
0.0
 10
159.7105979417943
 20
146.4014962832367
 30
0.0
 10
159.2947746424084
 20
144.9400858143094
 30
0.0
 10
158.7463150793409
 20
143.2092687007094
 30
0.0
 10
158.7463150793409
 20
143.2092687007094
 30
0.0
 10
153.9038856707499
 20
127.8027915271048
 30
0.0
 10
153.9038856707499
 20
127.8027915271048
 30
0.0
 10
153.9038856707499
 20
127.8027915271048
 30
0.0
 10
151.3882752878863
 20
127.8027915271048
 30
0.0
 10
151.3882752878863
 20
127.8027915271048
 30
0.0
 10
151.3882752878863
 20
127.8027915271048
 30
0.0
 10
155.6250565106276
 20
141.2751908193897
 30
0.0
 10
155.6250565106276
 20
141.2751908193897
 30
0.0
 10
156.5094131050963
 20
144.0936252951782
 30
0.0
 10
157.109893644309
 20
146.1506931664571
 30
0.0
 10
157.4220195011804
 20
147.4415712963654
 30
0.0
 10
157.8095929989511
 20
149.0530157726519
 30
0.0
 10
157.9656559273867
 20
149.5826995529385
 30
0.0
 10
157.7816877071116
 20
150.7529992613181
 30
0.0
 10
157.6111553680925
 20
151.8430281919372
 30
0.0
 10
157.0582171779396
 20
152.5547853887321
 30
0.0
 10
156.1170164704645
 20
152.5547853887321
 30
0.0
 10
155.1096698860365
 20
152.5547853887321
 30
0.0
 10
154.2962823053817
 20
152.4412694176073
 30
0.0
 10
153.156643967048
 20
151.2945686288697
 30
0.0
 10
152.0170056287143
 20
150.1476955852443
 30
0.0
 10
151.076149431015
 20
148.7930831468137
 30
0.0
 10
150.3337308641742
 20
147.2290087646991
 30
0.0
 10
149.5957909244188
 20
145.6683794803425
 30
0.0
 10
148.8530278478023
 20
143.6822806228776
 30
0.0
 10
148.0964843801539
 20
141.2751908193897
 30
0.0
 10
148.0964843801539
 20
141.2751908193897
 30
0.0
 10
143.8552245303272
 20
127.8027915271048
 30
0.0
 10
143.8552245303272
 20
127.8027915271048
 30
0.0
 10
143.8552245303272
 20
127.8027915271048
 30
0.0
 10
141.486030802177
 20
127.8027915271048
 30
0.0
 10
141.486030802177
 20
127.8027915271048
 30
0.0
 10
141.486030802177
 20
127.8027915271048
 30
0.0
 10
146.3329388378533
 20
143.2092687007094
 30
0.0
 10
146.3329388378533
 20
143.2092687007094
 30
0.0
 10
146.8483254624444
 20
144.8408669988801
 30
0.0
 10
147.2314203331297
 20
146.1837661049335
 30
0.0
 10
147.4867020769946
 20
147.224185627838
 30
0.0
 10
147.9169947869641
 20
149.0197705792876
 30
0.0
 10
148.0306830129768
 20
150.2400242051577
 30
0.0
 10
147.709255392159
 20
151.3157559800812
 30
0.0
 10
147.3874832615654
 20
152.3916600098926
 30
0.0
 10
146.8245542879144
 20
152.6683013598569
 30
0.0
 10
145.8840425999909
 20
152.6683013598569
 30
0.0
 10
145.0989048209514
 20
152.6683013598569
 30
0.0
 10
144.3282364524954
 20
152.3275811915945
 30
0.0
 10
143.4531816219731
 20
151.6538923250251
 30
0.0
 10
142.34627171234
 20
150.8074318058939
 30
0.0
 10
141.901854101563
 20
150.1097995099067
 30
0.0
 10
141.3578731655808
 20
149.289521733736
 30
0.0
 10
140.6299240093235
 20
148.192602607601
 30
0.0
 10
140.2850697237515
 20
147.455696197173
 30
0.0
 10
139.6652966370942
 20
145.8385673095858
 30
0.0
 10
139.0506911970739
 20
144.2214384219986
 30
0.0
 10
138.463991048893
 20
142.3252566160164
 30
0.0
 10
138.0571250036777
 20
141.0154304484394
 30
0.0
 10
138.0571250036777
 20
141.0154304484394
 30
0.0
 10
133.9009590684727
 20
127.8027915271048
 30
0.0
 10
133.9009590684727
 20
127.8027915271048
 30
0.0
 10
133.9009590684727
 20
127.8027915271048
 30
0.0
 10
131.4180771143097
 20
127.8027915271048
 30
0.0
 10
131.4180771143097
 20
127.8027915271048
 30
0.0
 10
131.4180771143097
 20
127.8027915271048
 30
0.0
 10
139.8926730891197
 20
154.8294111834263
 30
0.0
 10
139.8926730891197
 20
154.8294111834263
 30
0.0
  0
HATCH
  5
6A9
330
6A2
100
AcDbEntity
  8
LOGO
 62
   250
420
  2234388
100
AcDbHatch
 10
0.0
 20
0.0
 30
0.0
210
0.0
220
0.0
230
1.0
  2
SOLID
 70
     1
 71
     0
 91
        1
 92
        1
 93
        1
 72
     4
 94
        3
 73
     0
 74
     1
 95
      104
 96
      100
 40
0.0
 40
0.0
 40
0.0
 40
0.0
 40
1.0
 40
1.0
 40
1.0
 40
2.0
 40
2.0
 40
2.0
 40
3.0
 40
3.0
 40
3.0
 40
4.0
 40
4.0
 40
4.0
 40
5.0
 40
5.0
 40
5.0
 40
6.0
 40
6.0
 40
6.0
 40
7.0
 40
7.0
 40
7.0
 40
8.0
 40
8.0
 40
8.0
 40
9.0
 40
9.0
 40
9.0
 40
10.0
 40
10.0
 40
10.0
 40
11.0
 40
11.0
 40
11.0
 40
12.0
 40
12.0
 40
12.0
 40
13.0
 40
13.0
 40
13.0
 40
14.0
 40
14.0
 40
14.0
 40
15.0
 40
15.0
 40
15.0
 40
16.0
 40
16.0
 40
16.0
 40
17.0
 40
17.0
 40
17.0
 40
18.0
 40
18.0
 40
18.0
 40
19.0
 40
19.0
 40
19.0
 40
20.0
 40
20.0
 40
20.0
 40
21.0
 40
21.0
 40
21.0
 40
22.0
 40
22.0
 40
22.0
 40
23.0
 40
23.0
 40
23.0
 40
24.0
 40
24.0
 40
24.0
 40
25.0
 40
25.0
 40
25.0
 40
26.0
 40
26.0
 40
26.0
 40
27.0
 40
27.0
 40
27.0
 40
28.0
 40
28.0
 40
28.0
 40
29.0
 40
29.0
 40
29.0
 40
30.0
 40
30.0
 40
30.0
 40
31.0
 40
31.0
 40
31.0
 40
32.0
 40
32.0
 40
32.0
 40
33.0
 40
33.0
 40
33.0
 40
33.0
 10
139.8926730891197
 20
154.8294111834263
 10
139.8926730891197
 20
154.8294111834263
 10
142.0344903652445
 20
154.8294111834263
 10
142.0344903652445
 20
154.8294111834263
 10
142.0344903652445
 20
154.8294111834263
 10
140.9516961399171
 20
151.3157559800812
 10
140.9516961399171
 20
151.3157559800812
 10
141.8928968473923
 20
152.7887075264977
 10
142.7341897198865
 20
153.4484437471474
 10
143.8552245303272
 20
154.2926649527359
 10
144.9803934580775
 20
155.1296514530327
 10
146.3139908001845
 20
155.3044901642492
 10
147.241066606852
 20
155.3044901642492
 10
148.3855280820469
 20
155.3044901642492
 10
149.4969166187653
 20
155.0752189084569
 10
150.0784491203092
 20
153.8172414621372
 10
150.5228667310863
 20
152.833838307127
 10
150.5414702589793
 20
152.7201500811143
 10
150.4140016419347
 20
150.7765981809602
 10
151.5818897818837
 20
152.7699317437168
 10
152.4424752018226
 20
153.6256940267945
 10
153.9038856707499
 20
154.4507949398263
 10
155.4455669174378
 20
155.3044901642492
 10
156.339225275853
 20
155.3659851592288
 10
157.3748216618963
 20
155.2147453676543
 10
158.911679771723
 20
154.9877134254046
 10
159.8859534176746
 20
154.4390816074493
 10
160.3965169054045
 20
152.7816450760939
 10
160.9070803931344
 20
151.1219692311958
 10
160.6328506116007
 20
150.2303779314354
 10
159.9992971339115
 20
147.597634224801
 10
159.7105979417943
 20
146.4014962832367
 10
159.2947746424084
 20
144.9400858143094
 10
158.7463150793409
 20
143.2092687007094
 10
158.7463150793409
 20
143.2092687007094
 10
153.9038856707499
 20
127.8027915271048
 10
153.9038856707499
 20
127.8027915271048
 10
153.9038856707499
 20
127.8027915271048
 10
151.3882752878863
 20
127.8027915271048
 10
151.3882752878863
 20
127.8027915271048
 10
151.3882752878863
 20
127.8027915271048
 10
155.6250565106276
 20
141.2751908193897
 10
155.6250565106276
 20
141.2751908193897
 10
156.5094131050963
 20
144.0936252951782
 10
157.109893644309
 20
146.1506931664571
 10
157.4220195011804
 20
147.4415712963654
 10
157.8095929989511
 20
149.0530157726519
 10
157.9656559273867
 20
149.5826995529385
 10
157.7816877071116
 20
150.7529992613181
 10
157.6111553680925
 20
151.8430281919372
 10
157.0582171779396
 20
152.5547853887321
 10
156.1170164704645
 20
152.5547853887321
 10
155.1096698860365
 20
152.5547853887321
 10
154.2962823053817
 20
152.4412694176073
 10
153.156643967048
 20
151.2945686288697
 10
152.0170056287143
 20
150.1476955852443
 10
151.076149431015
 20
148.7930831468137
 10
150.3337308641742
 20
147.2290087646991
 10
149.5957909244188
 20
145.6683794803425
 10
148.8530278478023
 20
143.6822806228776
 10
148.0964843801539
 20
141.2751908193897
 10
148.0964843801539
 20
141.2751908193897
 10
143.8552245303272
 20
127.8027915271048
 10
143.8552245303272
 20
127.8027915271048
 10
143.8552245303272
 20
127.8027915271048
 10
141.486030802177
 20
127.8027915271048
 10
141.486030802177
 20
127.8027915271048
 10
141.486030802177
 20
127.8027915271048
 10
146.3329388378533
 20
143.2092687007094
 10
146.3329388378533
 20
143.2092687007094
 10
146.8483254624444
 20
144.8408669988801
 10
147.2314203331297
 20
146.1837661049335
 10
147.4867020769946
 20
147.224185627838
 10
147.9169947869641
 20
149.0197705792876
 10
148.0306830129768
 20
150.2400242051577
 10
147.709255392159
 20
151.3157559800812
 10
147.3874832615654
 20
152.3916600098926
 10
146.8245542879144
 20
152.6683013598569
 10
145.8840425999909
 20
152.6683013598569
 10
145.0989048209514
 20
152.6683013598569
 10
144.3282364524954
 20
152.3275811915945
 10
143.4531816219731
 20
151.6538923250251
 10
142.34627171234
 20
150.8074318058939
 10
141.901854101563
 20
150.1097995099067
 10
141.3578731655808
 20
149.289521733736
 10
140.6299240093235
 20
148.192602607601
 10
140.2850697237515
 20
147.455696197173
 10
139.6652966370942
 20
145.8385673095858
 10
139.0506911970739
 20
144.2214384219986
 10
138.463991048893
 20
142.3252566160164
 10
138.0571250036777
 20
141.0154304484394
 10
138.0571250036777
 20
141.0154304484394
 10
133.9009590684727
 20
127.8027915271048
 10
133.9009590684727
 20
127.8027915271048
 10
133.9009590684727
 20
127.8027915271048
 10
131.4180771143097
 20
127.8027915271048
 10
131.4180771143097
 20
127.8027915271048
 10
131.4180771143097
 20
127.8027915271048
 10
139.8926730891197
 20
154.8294111834263
 10
139.8926730891197
 20
154.8294111834263
 97
        0
 75
     2
 76
     1
 98
        0
  0
SPLINE
  5
6AA
330
6A2
100
AcDbEntity
  8
LOGO
370
     0
100
AcDbSpline
210
0.0
220
0.0
230
1.0
 70
    11
 71
     3
 72
    29
 73
    25
 74
     0
 42
0.000000001
 43
0.0000000001
 40
0.0
 40
0.0
 40
0.0
 40
0.0
 40
1.0
 40
1.0
 40
1.0
 40
2.0
 40
2.0
 40
2.0
 40
3.0
 40
3.0
 40
3.0
 40
4.0
 40
4.0
 40
4.0
 40
5.0
 40
5.0
 40
5.0
 40
6.0
 40
6.0
 40
6.0
 40
7.0
 40
7.0
 40
7.0
 40
8.0
 40
8.0
 40
8.0
 40
8.0
 10
101.6420971922469
 20
132.8388354296931
 30
0.0
 10
101.630039350094
 20
134.7164137077823
 30
0.0
 10
102.2236296937908
 20
138.0598810818841
 30
0.0
 10
103.7487744712405
 20
142.5378191476827
 30
0.0
 10
105.819967243327
 20
148.5896501242061
 30
0.0
 10
107.0602024361932
 20
150.8074318058939
 30
0.0
 10
108.1522984254671
 20
151.8833358357054
 30
0.0
 10
109.741177511439
 20
153.4532668840085
 30
0.0
 10
111.8740375333931
 20
153.5290590346837
 30
0.0
 10
112.5075910110823
 20
153.4532668840085
 30
0.0
 10
113.4012493694975
 20
153.3490526768302
 30
0.0
 10
114.6683563248758
 20
152.7580461564518
 30
0.0
 10
114.7493161221879
 20
150.7838328862519
 30
0.0
 10
114.8106388622796
 20
149.0909118479895
 30
0.0
 10
114.3186789024427
 20
145.9191825971221
 30
0.0
 10
112.6164561002338
 20
140.9489400617108
 30
0.0
 10
110.6444821435766
 20
135.1746117095912
 30
0.0
 10
109.4669477299053
 20
132.8960240524753
 30
0.0
 10
108.5212683953448
 20
131.9072809959403
 30
0.0
 10
106.7346406980658
 20
130.0538184021569
 30
0.0
 10
104.8222669326213
 20
130.2336525051225
 30
0.0
 10
104.5408024457958
 20
130.2336525051225
 30
0.0
 10
104.1721769856939
 20
130.2336525051225
 30
0.0
 10
101.6465758193322
 20
130.6305277668397
 30
0.0
 10
101.6420971922469
 20
132.8388354296931
 30
0.0
  0
SPLINE
  5
6AB
330
6A2
100
AcDbEntity
  8
LOGO
370
     0
100
AcDbSpline
210
0.0
220
0.0
230
1.0
 70
    11
 71
     3
 72
    32
 73
    28
 74
     0
 42
0.000000001
 43
0.0000000001
 40
0.0
 40
0.0
 40
0.0
 40
0.0
 40
1.0
 40
1.0
 40
1.0
 40
2.0
 40
2.0
 40
2.0
 40
3.0
 40
3.0
 40
3.0
 40
4.0
 40
4.0
 40
4.0
 40
5.0
 40
5.0
 40
5.0
 40
6.0
 40
6.0
 40
6.0
 40
7.0
 40
7.0
 40
7.0
 40
8.0
 40
8.0
 40
8.0
 40
9.0
 40
9.0
 40
9.0
 40
9.0
 10
106.2595617172429
 20
153.4105476718098
 30
0.0
 10
104.8222669326213
 20
151.5474388043041
 30
0.0
 10
103.7177685914188
 20
149.8758773721411
 30
0.0
 10
101.9232171692965
 20
144.6141795664062
 30
0.0
 10
100.2754269116635
 20
139.7999999594306
 30
0.0
 10
99.22777268346732
 20
136.3052927937542
 30
0.0
 10
99.06964269637689
 20
132.039572749846
 30
0.0
 10
98.94665270641765
 20
128.8673267343149
 30
0.0
 10
100.8807305877373
 20
127.8027915271048
 30
0.0
 10
103.7129454545577
 20
127.8027915271048
 30
0.0
 10
104.9352661390825
 20
127.8027915271048
 30
0.0
 10
108.0151835347002
 20
127.8827177950895
 30
0.0
 10
110.2045431598849
 20
130.5926316915021
 30
0.0
 10
111.7417457794874
 20
132.4984597712065
 30
0.0
 10
113.155269389579
 20
134.475256864725
 30
0.0
 10
115.0562743324223
 20
140.9489400617108
 30
0.0
 10
116.6361961642235
 20
146.3680788349845
 30
0.0
 10
117.7282921534974
 20
149.8639917848761
 30
0.0
 10
117.6480213757369
 20
151.8595646611754
 30
0.0
 10
117.6480213757369
 20
151.8595646611754
 30
0.0
 10
117.6480213757369
 20
151.8595646611754
 30
0.0
 10
117.6480213757369
 20
151.8595646611754
 30
0.0
 10
117.13229024137
 20
155.18150017429
 30
0.0
 10
114.7162431837115
 20
155.886194920681
 30
0.0
 10
113.3351034925446
 20
155.886194920681
 30
0.0
 10
111.9829026225447
 20
155.886194920681
 30
0.0
 10
108.3414342923792
 20
156.1251124501957
 30
0.0
 10
106.2595617172429
 20
153.4105476718098
 30
0.0
  0
HATCH
  5
6AC
330
6A2
100
AcDbEntity
  8
LOGO
 62
   250
420
  2234388
100
AcDbHatch
 10
0.0
 20
0.0
 30
0.0
210
0.0
220
0.0
230
1.0
  2
SOLID
 70
     1
 71
     0
 91
        2
 92
        1
 93
        1
 72
     4
 94
        3
 73
     0
 74
     1
 95
       29
 96
       25
 40
0.0
 40
0.0
 40
0.0
 40
0.0
 40
1.0
 40
1.0
 40
1.0
 40
2.0
 40
2.0
 40
2.0
 40
3.0
 40
3.0
 40
3.0
 40
4.0
 40
4.0
 40
4.0
 40
5.0
 40
5.0
 40
5.0
 40
6.0
 40
6.0
 40
6.0
 40
7.0
 40
7.0
 40
7.0
 40
8.0
 40
8.0
 40
8.0
 40
8.0
 10
101.6420971922469
 20
132.8388354296931
 10
101.630039350094
 20
134.7164137077823
 10
102.2236296937908
 20
138.0598810818841
 10
103.7487744712405
 20
142.5378191476827
 10
105.819967243327
 20
148.5896501242061
 10
107.0602024361932
 20
150.8074318058939
 10
108.1522984254671
 20
151.8833358357054
 10
109.741177511439
 20
153.4532668840085
 10
111.8740375333931
 20
153.5290590346837
 10
112.5075910110823
 20
153.4532668840085
 10
113.4012493694975
 20
153.3490526768302
 10
114.6683563248758
 20
152.7580461564518
 10
114.7493161221879
 20
150.7838328862519
 10
114.8106388622796
 20
149.0909118479895
 10
114.3186789024427
 20
145.9191825971221
 10
112.6164561002338
 20
140.9489400617108
 10
110.6444821435766
 20
135.1746117095912
 10
109.4669477299053
 20
132.8960240524753
 10
108.5212683953448
 20
131.9072809959403
 10
106.7346406980658
 20
130.0538184021569
 10
104.8222669326213
 20
130.2336525051225
 10
104.5408024457958
 20
130.2336525051225
 10
104.1721769856939
 20
130.2336525051225
 10
101.6465758193322
 20
130.6305277668397
 10
101.6420971922469
 20
132.8388354296931
 97
        0
 92
        1
 93
        1
 72
     4
 94
        3
 73
     0
 74
     1
 95
       32
 96
       28
 40
0.0
 40
0.0
 40
0.0
 40
0.0
 40
1.0
 40
1.0
 40
1.0
 40
2.0
 40
2.0
 40
2.0
 40
3.0
 40
3.0
 40
3.0
 40
4.0
 40
4.0
 40
4.0
 40
5.0
 40
5.0
 40
5.0
 40
6.0
 40
6.0
 40
6.0
 40
7.0
 40
7.0
 40
7.0
 40
8.0
 40
8.0
 40
8.0
 40
9.0
 40
9.0
 40
9.0
 40
9.0
 10
106.2595617172429
 20
153.4105476718098
 10
104.8222669326213
 20
151.5474388043041
 10
103.7177685914188
 20
149.8758773721411
 10
101.9232171692965
 20
144.6141795664062
 10
100.2754269116635
 20
139.7999999594306
 10
99.22777268346732
 20
136.3052927937542
 10
99.06964269637689
 20
132.039572749846
 10
98.94665270641765
 20
128.8673267343149
 10
100.8807305877373
 20
127.8027915271048
 10
103.7129454545577
 20
127.8027915271048
 10
104.9352661390825
 20
127.8027915271048
 10
108.0151835347002
 20
127.8827177950895
 10
110.2045431598849
 20
130.5926316915021
 10
111.7417457794874
 20
132.4984597712065
 10
113.155269389579
 20
134.475256864725
 10
115.0562743324223
 20
140.9489400617108
 10
116.6361961642235
 20
146.3680788349845
 10
117.7282921534974
 20
149.8639917848761
 10
117.6480213757369
 20
151.8595646611754
 10
117.6480213757369
 20
151.8595646611754
 10
117.6480213757369
 20
151.8595646611754
 10
117.6480213757369
 20
151.8595646611754
 10
117.13229024137
 20
155.18150017429
 10
114.7162431837115
 20
155.886194920681
 10
113.3351034925446
 20
155.886194920681
 10
111.9829026225447
 20
155.886194920681
 10
108.3414342923792
 20
156.1251124501957
 10
106.2595617172429
 20
153.4105476718098
 97
        0
 75
     2
 76
     1
 98
        0
  0
ENDBLK
  5
6AD
330
6A2
100
AcDbEntity
  8
0
100
AcDbBlockEnd
  0
BLOCK
  5
D91
330
D90
100
AcDbEntity
  8
0
100
AcDbBlockBegin
  2
*D6
 70
     1
 10
0.0
 20
0.0
 30
0.0
  3
*D6
  1
*D6
  0
LINE
  5
D93
330
D90
100
AcDbEntity
  8
DIM
 62
     0
370
    -2
100
AcDbLine
 10
194.9013848396499
 20
991.8781341107873
 30
0.0
 11
194.9013848396499
 21
940.5413793571681
 31
0.0
  0
LINE
  5
D94
330
D90
100
AcDbEntity
  8
DIM
 62
     0
370
    -2
100
AcDbLine
 10
521.6879737609329
 20
991.8781341107873
 30
0.0
 11
521.6879737609329
 21
940.5413793571681
 31
0.0
  0
LINE
  5
D95
330
D90
100
AcDbEntity
  8
DIM
 62
     0
370
    -2
100
AcDbLine
 10
200.9013848396499
 20
940.5413793571681
 30
0.0
 11
515.6879737609329
 21
940.5413793571681
 31
0.0
  0
INSERT
  5
D96
330
D90
100
AcDbEntity
  8
DIM
 62
     0
370
    -2
100
AcDbBlockReference
  2
_DOT
 10
194.9013848396499
 20
940.5413793571681
 30
0.0
 41
6.0
 42
6.0
 43
6.0
 50
180.0
  0
INSERT
  5
D97
330
D90
100
AcDbEntity
  8
DIM
 62
     0
370
    -2
100
AcDbBlockReference
  2
_DOT
 10
521.6879737609329
 20
940.5413793571681
 30
0.0
 41
6.0
 42
6.0
 43
6.0
  0
MTEXT
  5
D98
330
D90
100
AcDbEntity
  8
DIM
 62
     0
100
AcDbMText
 10
358.2946793002914
 20
956.5413793571681
 30
0.0
 40
12.0
 41
0.0
 46
0.0
 71
     5
 72
     1
  1
\A1;327
  7
ＭＳ ゴシック
 73
     1
 44
1.0
  0
POINT
  5
D99
330
D90
100
AcDbEntity
  8
Defpoints
 62
     0
100
AcDbPoint
 10
194.9013848396499
 20
1011.878134110787
 30
0.0
  0
POINT
  5
D9A
330
D90
100
AcDbEntity
  8
Defpoints
 62
     0
100
AcDbPoint
 10
521.6879737609329
 20
1011.878134110787
 30
0.0
  0
POINT
  5
D9B
330
D90
100
AcDbEntity
  8
Defpoints
 62
     0
100
AcDbPoint
 10
521.6879737609329
 20
940.5413793571681
 30
0.0
  0
ENDBLK
  5
D92
330
D90
100
AcDbEntity
  8
0
100
AcDbBlockEnd
  0
BLOCK
  5
DA0
330
D9F
100
AcDbEntity
  8
0
100
AcDbBlockBegin
  2
*D7
 70
     1
 10
0.0
 20
0.0
 30
0.0
  3
*D7
  1
*D7
  0
LINE
  5
DA2
330
D9F
100
AcDbEntity
  8
DIM
 62
     0
370
    -2
100
AcDbLine
 10
541.6879737609329
 20
1259.176093294461
 30
0.0
 11
592.27223683134
 21
1259.176093294461
 31
0.0
  0
LINE
  5
DA3
330
D9F
100
AcDbEntity
  8
DIM
 62
     0
370
    -2
100
AcDbLine
 10
541.6879737609329
 20
1011.878134110787
 30
0.0
 11
592.27223683134
 21
1011.878134110787
 31
0.0
  0
LINE
  5
DA4
330
D9F
100
AcDbEntity
  8
DIM
 62
     0
370
    -2
100
AcDbLine
 10
592.27223683134
 20
1253.176093294461
 30
0.0
 11
592.27223683134
 21
1017.878134110787
 31
0.0
  0
INSERT
  5
DA5
330
D9F
100
AcDbEntity
  8
DIM
 62
     0
370
    -2
100
AcDbBlockReference
  2
_DOT
 10
592.27223683134
 20
1259.176093294461
 30
0.0
 41
6.0
 42
6.0
 43
6.0
 50
90.0
  0
INSERT
  5
DA6
330
D9F
100
AcDbEntity
  8
DIM
 62
     0
370
    -2
100
AcDbBlockReference
  2
_DOT
 10
592.27223683134
 20
1011.878134110787
 30
0.0
 41
6.0
 42
6.0
 43
6.0
 50
270.0
  0
MTEXT
  5
DA7
330
D9F
100
AcDbEntity
  8
DIM
 62
     0
100
AcDbMText
 10
576.27223683134
 20
1135.527113702624
 30
0.0
 40
12.0
 41
0.0
 46
0.0
 71
     5
 72
     1
  1
\A1;247
  7
ＭＳ ゴシック
 11
0.0
 21
1.0
 31
0.0
 73
     1
 44
1.0
  0
POINT
  5
DA8
330
D9F
100
AcDbEntity
  8
Defpoints
 62
     0
100
AcDbPoint
 10
521.6879737609329
 20
1259.176093294461
 30
0.0
  0
POINT
  5
DA9
330
D9F
100
AcDbEntity
  8
Defpoints
 62
     0
100
AcDbPoint
 10
521.6879737609329
 20
1011.878134110787
 30
0.0
  0
POINT
  5
DAA
330
D9F
100
AcDbEntity
  8
Defpoints
 62
     0
100
AcDbPoint
 10
592.27223683134
 20
1011.878134110787
 30
0.0
  0
ENDBLK
  5
DA1
330
D9F
100
AcDbEntity
  8
0
100
AcDbBlockEnd
  0
BLOCK
  5
E4E
330
E4D
100
AcDbEntity
  8
0
100
AcDbBlockBegin
  2
*D8
 70
     1
 10
0.0
 20
0.0
 30
0.0
  3
*D8
  1
*D8
  0
LINE
  5
E50
330
E4D
100
AcDbEntity
  8
HIDDEN
  6
HIDDEN
 62
     0
 48
0.05
370
    -2
100
AcDbLine
 10
322.9663994169097
 20
836.4046647230323
 30
0.0
 11
322.9663994169097
 21
978.7578717201168
 31
0.0
  0
LINE
  5
E51
330
E4D
100
AcDbEntity
  8
HIDDEN
  6
HIDDEN
 62
     0
 48
0.05
370
    -2
100
AcDbLine
 10
640.9209183673471
 20
836.4046647230323
 30
0.0
 11
640.9209183673471
 21
978.7578717201168
 31
0.0
  0
LINE
  5
E52
330
E4D
100
AcDbEntity
  8
HIDDEN
  6
HIDDEN
 62
     0
 48
0.05
370
    -2
100
AcDbLine
 10
325.9663994169097
 20
978.7578717201168
 30
0.0
 11
637.9209183673471
 21
978.7578717201168
 31
0.0
  0
INSERT
  5
E53
330
E4D
100
AcDbEntity
  8
HIDDEN
 62
     0
370
    -2
100
AcDbBlockReference
  2
_DOT
 10
322.9663994169097
 20
978.7578717201168
 30
0.0
 41
3.0
 42
3.0
 43
3.0
 50
180.0
  0
INSERT
  5
E54
330
E4D
100
AcDbEntity
  8
HIDDEN
 62
     0
370
    -2
100
AcDbBlockReference
  2
_DOT
 10
640.9209183673471
 20
978.7578717201168
 30
0.0
 41
3.0
 42
3.0
 43
3.0
  0
MTEXT
  5
E55
330
E4D
100
AcDbEntity
  8
HIDDEN
  6
HIDDEN
 62
     0
 48
0.05
100
AcDbMText
 10
481.9436588921284
 20
994.7578717201168
 30
0.0
 40
12.0
 41
0.0
 46
0.0
 71
     5
 72
     1
  1
\A1;318
  7
ＭＳ ゴシック
 73
     1
 44
1.0
  0
POINT
  5
E56
330
E4D
100
AcDbEntity
  8
Defpoints
 62
     0
100
AcDbPoint
 10
322.9663994169097
 20
826.4046647230323
 30
0.0
  0
POINT
  5
E57
330
E4D
100
AcDbEntity
  8
Defpoints
 62
     0
100
AcDbPoint
 10
640.9209183673471
 20
826.4046647230323
 30
0.0
  0
POINT
  5
E58
330
E4D
100
AcDbEntity
  8
Defpoints
 62
     0
100
AcDbPoint
 10
640.9209183673471
 20
978.7578717201168
 30
0.0
  0
ENDBLK
  5
E4F
330
E4D
100
AcDbEntity
  8
0
100
AcDbBlockEnd
  0
BLOCK
  5
EDB
330
EDA
100
AcDbEntity
  8
0
100
AcDbBlockBegin
  2
*D9
 70
     1
 10
0.0
 20
0.0
 30
0.0
  3
*D9
  1
*D73
  0
LINE
  5
EDC
330
EDA
100
AcDbEntity
  8
DIM
  6
Continuous
 62
     0
370
    -2
100
AcDbLine
 10
398.0721020212702
 20
2124.525238800501
 30
0.0
 11
398.0721020212702
 21
2416.489339528241
 31
0.0
  0
LINE
  5
EDD
330
EDA
100
AcDbEntity
  8
DIM
  6
Continuous
 62
     0
370
    -2
100
AcDbLine
 10
758.0721020212702
 20
2124.525238800501
 30
0.0
 11
758.0721020212702
 21
2416.489339528241
 31
0.0
  0
LINE
  5
EDE
330
EDA
100
AcDbEntity
  8
DIM
  6
Continuous
 62
     0
370
    -2
100
AcDbLine
 10
401.0721020212702
 20
2416.489339528241
 30
0.0
 11
755.0721020212702
 21
2416.489339528241
 31
0.0
  0
INSERT
  5
EDF
330
EDA
100
AcDbEntity
  8
DIM
 62
     0
370
    -2
100
AcDbBlockReference
  2
_DOT
 10
398.0721020212702
 20
2416.489339528241
 30
0.0
 41
3.0
 42
3.0
 43
3.0
 50
180.0
  0
INSERT
  5
EE0
330
EDA
100
AcDbEntity
  8
DIM
 62
     0
370
    -2
100
AcDbBlockReference
  2
_DOT
 10
758.0721020212702
 20
2416.489339528241
 30
0.0
 41
3.0
 42
3.0
 43
3.0
  0
MTEXT
  5
EE1
330
EDA
100
AcDbEntity
  8
DIM
 62
     0
 48
0.05
100
AcDbMText
 10
578.0721020212702
 20
2432.489339528241
 30
0.0
 40
12.0
 41
0.0
 46
0.0
 71
     5
 72
     1
  1
\A1;360
  7
ＭＳ ゴシック
 73
     1
 44
1.0
  0
POINT
  5
EE2
330
EDA
100
AcDbEntity
  8
Defpoints
 62
     0
100
AcDbPoint
 10
398.0721020212702
 20
2114.525238800501
 30
0.0
  0
POINT
  5
EE3
330
EDA
100
AcDbEntity
  8
Defpoints
 62
     0
100
AcDbPoint
 10
758.0721020212702
 20
2114.525238800501
 30
0.0
  0
POINT
  5
EE4
330
EDA
100
AcDbEntity
  8
Defpoints
 62
     0
100
AcDbPoint
 10
758.0721020212702
 20
2416.489339528241
 30
0.0
  0
ENDBLK
  5
EE5
330
EDA
100
AcDbEntity
  8
0
100
AcDbBlockEnd
  0
BLOCK
  5
EE8
330
EE7
100
AcDbEntity
  8
0
100
AcDbBlockBegin
  2
*D10
 70
     1
 10
0.0
 20
0.0
 30
0.0
  3
*D10
  1
*D74
  0
LINE
  5
EE9
330
EE7
100
AcDbEntity
  8
DIM
  6
Continuous
 62
     0
370
    -2
100
AcDbLine
 10
662.8901145741739
 20
2188.79153588869
 30
0.0
 11
858.3130122149524
 21
2188.79153588869
 31
0.0
  0
LINE
  5
EEA
330
EE7
100
AcDbEntity
  8
DIM
  6
Continuous
 62
     0
370
    -2
100
AcDbLine
 10
662.8901145741739
 20
1970.79153588869
 30
0.0
 11
858.3130122149524
 21
1970.79153588869
 31
0.0
  0
LINE
  5
EEB
330
EE7
100
AcDbEntity
  8
DIM
  6
Continuous
 62
     0
370
    -2
100
AcDbLine
 10
858.3130122149524
 20
2185.79153588869
 30
0.0
 11
858.3130122149524
 21
1973.79153588869
 31
0.0
  0
INSERT
  5
EEC
330
EE7
100
AcDbEntity
  8
DIM
 62
     0
370
    -2
100
AcDbBlockReference
  2
_DOT
 10
858.3130122149524
 20
2188.79153588869
 30
0.0
 41
3.0
 42
3.0
 43
3.0
 50
90.0
  0
INSERT
  5
EED
330
EE7
100
AcDbEntity
  8
DIM
 62
     0
370
    -2
100
AcDbBlockReference
  2
_DOT
 10
858.3130122149524
 20
1970.79153588869
 30
0.0
 41
3.0
 42
3.0
 43
3.0
 50
270.0
  0
MTEXT
  5
EEE
330
EE7
100
AcDbEntity
  8
DIM
 62
     0
 48
0.05
100
AcDbMText
 10
842.3130122149524
 20
2079.79153588869
 30
0.0
 40
12.0
 41
0.0
 46
0.0
 71
     5
 72
     1
  1
\A1;218
  7
ＭＳ ゴシック
 11
0.0
 21
1.0
 31
0.0
 73
     1
 44
1.0
  0
POINT
  5
EEF
330
EE7
100
AcDbEntity
  8
Defpoints
 62
     0
100
AcDbPoint
 10
652.8901145741739
 20
2188.79153588869
 30
0.0
  0
POINT
  5
EF0
330
EE7
100
AcDbEntity
  8
Defpoints
 62
     0
100
AcDbPoint
 10
652.8901145741739
 20
1970.79153588869
 30
0.0
  0
POINT
  5
EF1
330
EE7
100
AcDbEntity
  8
Defpoints
 62
     0
100
AcDbPoint
 10
858.3130122149524
 20
1970.79153588869
 30
0.0
  0
ENDBLK
  5
EF2
330
EE7
100
AcDbEntity
  8
0
100
AcDbBlockEnd
  0
BLOCK
  5
EF5
330
EF4
100
AcDbEntity
  8
0
100
AcDbBlockBegin
  2
*D11
 70
     1
 10
0.0
 20
0.0
 30
0.0
  3
*D11
  1
*D75
  0
LINE
  5
EF6
330
EF4
100
AcDbEntity
  8
DIM
  6
Continuous
 62
     0
370
    -2
100
AcDbLine
 10
398.0721020212702
 20
1044.759174269942
 30
0.0
 11
398.0721020212702
 21
905.4386710691169
 31
0.0
  0
LINE
  5
EF7
330
EF4
100
AcDbEntity
  8
DIM
  6
Continuous
 62
     0
370
    -2
100
AcDbLine
 10
513.0721020212702
 20
995.458633181571
 30
0.0
 11
513.0721020212702
 21
905.4386710691169
 31
0.0
  0
LINE
  5
EF8
330
EF4
100
AcDbEntity
  8
DIM
  6
Continuous
 62
     0
370
    -2
100
AcDbLine
 10
401.0721020212702
 20
905.4386710691169
 30
0.0
 11
510.0721020212702
 21
905.4386710691169
 31
0.0
  0
INSERT
  5
EF9
330
EF4
100
AcDbEntity
  8
DIM
 62
     0
370
    -2
100
AcDbBlockReference
  2
_DOT
 10
398.0721020212702
 20
905.4386710691169
 30
0.0
 41
3.0
 42
3.0
 43
3.0
 50
180.0
  0
INSERT
  5
EFA
330
EF4
100
AcDbEntity
  8
DIM
 62
     0
370
    -2
100
AcDbBlockReference
  2
_DOT
 10
513.0721020212702
 20
905.4386710691169
 30
0.0
 41
3.0
 42
3.0
 43
3.0
  0
MTEXT
  5
EFB
330
EF4
100
AcDbEntity
  8
DIM
 62
     0
 48
0.05
100
AcDbMText
 10
455.5721020212702
 20
921.4386710691169
 30
0.0
 40
12.0
 41
0.0
 46
0.0
 71
     5
 72
     1
  1
\A1;115
  7
ＭＳ ゴシック
 73
     1
 44
1.0
  0
POINT
  5
EFC
330
EF4
100
AcDbEntity
  8
Defpoints
 62
     0
100
AcDbPoint
 10
398.0721020212702
 20
1054.759174269942
 30
0.0
  0
POINT
  5
EFD
330
EF4
100
AcDbEntity
  8
Defpoints
 62
     0
100
AcDbPoint
 10
513.0721020212702
 20
1005.458633181571
 30
0.0
  0
POINT
  5
EFE
330
EF4
100
AcDbEntity
  8
Defpoints
 62
     0
100
AcDbPoint
 10
513.0721020212702
 20
905.4386710691169
 30
0.0
  0
ENDBLK
  5
EFF
330
EF4
100
AcDbEntity
  8
0
100
AcDbBlockEnd
  0
BLOCK
  5
F02
330
F01
100
AcDbEntity
  8
0
100
AcDbBlockBegin
  2
*D12
 70
     1
 10
0.0
 20
0.0
 30
0.0
  3
*D12
  1
*D76
  0
LINE
  5
F03
330
F01
100
AcDbEntity
  8
DIM
  6
Continuous
 62
     0
370
    -2
100
AcDbLine
 10
768.0788064597427
 20
1085.519966936352
 30
0.0
 11
807.4090975488889
 21
1085.519966936352
 31
0.0
  0
LINE
  5
F04
330
F01
100
AcDbEntity
  8
DIM
  6
Continuous
 62
     0
370
    -2
100
AcDbLine
 10
628.7504945584734
 20
1005.519966936352
 30
0.0
 11
807.4090975488889
 21
1005.519966936352
 31
0.0
  0
LINE
  5
F05
330
F01
100
AcDbEntity
  8
DIM
  6
Continuous
 62
     0
370
    -2
100
AcDbLine
 10
807.4090975488889
 20
1082.519966936352
 30
0.0
 11
807.4090975488889
 21
1008.519966936352
 31
0.0
  0
INSERT
  5
F06
330
F01
100
AcDbEntity
  8
DIM
 62
     0
370
    -2
100
AcDbBlockReference
  2
_DOT
 10
807.4090975488889
 20
1085.519966936352
 30
0.0
 41
3.0
 42
3.0
 43
3.0
 50
90.0
  0
INSERT
  5
F07
330
F01
100
AcDbEntity
  8
DIM
 62
     0
370
    -2
100
AcDbBlockReference
  2
_DOT
 10
807.4090975488889
 20
1005.519966936352
 30
0.0
 41
3.0
 42
3.0
 43
3.0
 50
270.0
  0
MTEXT
  5
F08
330
F01
100
AcDbEntity
  8
DIM
 62
     0
 48
0.05
100
AcDbMText
 10
791.4090975488889
 20
1045.519966936352
 30
0.0
 40
12.0
 41
0.0
 46
0.0
 71
     5
 72
     1
  1
\A1;80
  7
ＭＳ ゴシック
 11
0.0
 21
1.0
 31
0.0
 73
     1
 44
1.0
  0
POINT
  5
F09
330
F01
100
AcDbEntity
  8
Defpoints
 62
     0
100
AcDbPoint
 10
758.0788064597427
 20
1085.519966936352
 30
0.0
  0
POINT
  5
F0A
330
F01
100
AcDbEntity
  8
Defpoints
 62
     0
100
AcDbPoint
 10
618.7504945584734
 20
1005.519966936352
 30
0.0
  0
POINT
  5
F0B
330
F01
100
AcDbEntity
  8
Defpoints
 62
     0
100
AcDbPoint
 10
807.4090975488889
 20
1005.519966936352
 30
0.0
  0
ENDBLK
  5
F0C
330
F01
100
AcDbEntity
  8
0
100
AcDbBlockEnd
  0
BLOCK
  5
F14
330
F13
100
AcDbEntity
  8
0
100
AcDbBlockBegin
  2
*D13
 70
     1
 10
0.0
 20
0.0
 30
0.0
  3
*D13
  1
*D95
  0
LINE
  5
F15
330
F13
100
AcDbEntity
  8
DIM
  6
Continuous
 62
     0
370
    -2
100
AcDbLine
 10
1439.317258596262
 20
1085.519966936352
 30
0.0
 11
1439.317258596262
 21
1212.351966936352
 31
0.0
  0
LINE
  5
F16
330
F13
100
AcDbEntity
  8
DIM
  6
Continuous
 62
     0
370
    -2
100
AcDbLine
 10
1439.317258596262
 20
1082.519966936352
 30
0.0
 11
1439.317258596262
 21
1023.633943824637
 31
0.0
  0
INSERT
  5
F17
330
F13
100
AcDbEntity
  8
DIM
 62
     0
370
    -2
100
AcDbBlockReference
  2
_DOT
 10
1439.317258596262
 20
1085.519966936352
 30
0.0
 41
3.0
 42
3.0
 43
3.0
 50
90.0
  0
INSERT
  5
F18
330
F13
100
AcDbEntity
  8
DIM
 62
     0
370
    -2
100
AcDbBlockReference
  2
_DOT
 10
1439.317258596262
 20
1020.633943824637
 30
0.0
 41
3.0
 42
3.0
 43
3.0
 50
270.0
  0
MTEXT
  5
F19
330
F13
100
AcDbEntity
  8
DIM
 62
     0
 48
0.05
100
AcDbMText
 10
1422.255258596262
 20
1173.407966936352
 30
0.0
 40
12.0
 41
0.0
 46
0.0
 71
     5
 72
     1
  1
\A1;63(深さ)
  7
ＭＳ ゴシック
 11
0.0
 21
1.0
 31
0.0
 73
     1
 44
1.0
  0
POINT
  5
F1A
330
F13
100
AcDbEntity
  8
Defpoints
 62
     0
100
AcDbPoint
 10
1462.428518576173
 20
1085.519966936352
 30
0.0
  0
POINT
  5
F1B
330
F13
100
AcDbEntity
  8
Defpoints
 62
     0
100
AcDbPoint
 10
1439.317258596262
 20
1020.633943824637
 30
0.0
  0
POINT
  5
F1C
330
F13
100
AcDbEntity
  8
Defpoints
 62
     0
100
AcDbPoint
 10
1439.317258596262
 20
1020.633943824637
 30
0.0
  0
ENDBLK
  5
F1D
330
F13
100
AcDbEntity
  8
0
100
AcDbBlockEnd
  0
BLOCK
  5
F20
330
F1F
100
AcDbEntity
  8
0
100
AcDbBlockBegin
  2
*D14
 70
     1
 10
0.0
 20
0.0
 30
0.0
  3
*D14
  1
*D96
  0
LINE
  5
F21
330
F1F
100
AcDbEntity
  8
DIM
  6
Continuous
 62
     0
370
    -2
100
AcDbLine
 10
1439.317258596263
 20
919.6362008516055
 30
0.0
 11
1439.317258596263
 21
878.4358387466359
 31
0.0
  0
LINE
  5
F22
330
F1F
100
AcDbEntity
  8
DIM
  6
Continuous
 62
     0
370
    -2
100
AcDbLine
 10
1548.477038150369
 20
1085.519966936352
 30
0.0
 11
1548.477038150369
 21
878.4358387466359
 31
0.0
  0
LINE
  5
F23
330
F1F
100
AcDbEntity
  8
DIM
  6
Continuous
 62
     0
370
    -2
100
AcDbLine
 10
1442.317258596263
 20
878.4358387466359
 30
0.0
 11
1545.477038150369
 21
878.4358387466359
 31
0.0
  0
INSERT
  5
F24
330
F1F
100
AcDbEntity
  8
DIM
 62
     0
370
    -2
100
AcDbBlockReference
  2
_DOT
 10
1439.317258596263
 20
878.4358387466359
 30
0.0
 41
3.0
 42
3.0
 43
3.0
 50
180.0
  0
INSERT
  5
F25
330
F1F
100
AcDbEntity
  8
DIM
 62
     0
370
    -2
100
AcDbBlockReference
  2
_DOT
 10
1548.477038150369
 20
878.4358387466359
 30
0.0
 41
3.0
 42
3.0
 43
3.0
  0
MTEXT
  5
F26
330
F1F
100
AcDbEntity
  8
DIM
 62
     0
 48
0.05
100
AcDbMText
 10
1493.897148373316
 20
894.4358387466359
 30
0.0
 40
12.0
 41
0.0
 46
0.0
 71
     5
 72
     1
  1
\A1;109
  7
ＭＳ ゴシック
 73
     1
 44
1.0
  0
POINT
  5
F27
330
F1F
100
AcDbEntity
  8
Defpoints
 62
     0
100
AcDbPoint
 10
1439.317258596263
 20
929.6362008516055
 30
0.0
  0
POINT
  5
F28
330
F1F
100
AcDbEntity
  8
Defpoints
 62
     0
100
AcDbPoint
 10
1548.477038150369
 20
1095.519966936352
 30
0.0
  0
POINT
  5
F29
330
F1F
100
AcDbEntity
  8
Defpoints
 62
     0
100
AcDbPoint
 10
1548.477038150369
 20
878.4358387466359
 30
0.0
  0
ENDBLK
  5
F2A
330
F1F
100
AcDbEntity
  8
0
100
AcDbBlockEnd
  0
BLOCK
  5
F2D
330
F2C
100
AcDbEntity
  8
0
100
AcDbBlockBegin
  2
*D15
 70
     1
 10
0.0
 20
0.0
 30
0.0
  3
*D15
  1
*D100
  0
LINE
  5
F2E
330
F2C
100
AcDbEntity
  8
DIM
  6
Continuous
 62
     0
370
    -2
100
AcDbLine
 10
449.3311093892961
 20
2174.79153588869
 30
0.0
 11
283.0190573575098
 21
2174.79153588869
 31
0.0
  0
LINE
  5
F2F
330
F2C
100
AcDbEntity
  8
DIM
  6
Continuous
 62
     0
370
    -2
100
AcDbLine
 10
449.3311093892961
 20
1984.79153588869
 30
0.0
 11
283.0190573575097
 21
1984.79153588869
 31
0.0
  0
LINE
  5
F30
330
F2C
100
AcDbEntity
  8
DIM
  6
Continuous
 62
     0
370
    -2
100
AcDbLine
 10
283.0190573575098
 20
2171.79153588869
 30
0.0
 11
283.0190573575097
 21
1987.79153588869
 31
0.0
  0
INSERT
  5
F31
330
F2C
100
AcDbEntity
  8
DIM
 62
     0
370
    -2
100
AcDbBlockReference
  2
_DOT
 10
283.0190573575098
 20
2174.79153588869
 30
0.0
 41
3.0
 42
3.0
 43
3.0
 50
89.99999999999999
  0
INSERT
  5
F32
330
F2C
100
AcDbEntity
  8
DIM
 62
     0
370
    -2
100
AcDbBlockReference
  2
_DOT
 10
283.0190573575097
 20
1984.79153588869
 30
0.0
 41
3.0
 42
3.0
 43
3.0
 50
270.0
  0
MTEXT
  5
F33
330
F2C
100
AcDbEntity
  8
DIM
 62
     0
 48
0.05
100
AcDbMText
 10
267.0190573575097
 20
2079.79153588869
 30
0.0
 40
12.0
 41
0.0
 46
0.0
 71
     5
 72
     1
  1
\A1;190
  7
ＭＳ ゴシック
 11
2.991758887410952E-16
 21
1.0
 31
0.0
 73
     1
 44
1.0
  0
POINT
  5
F34
330
F2C
100
AcDbEntity
  8
Defpoints
 62
     0
100
AcDbPoint
 10
459.3311093892961
 20
2174.79153588869
 30
0.0
  0
POINT
  5
F35
330
F2C
100
AcDbEntity
  8
Defpoints
 62
     0
100
AcDbPoint
 10
459.3311093892961
 20
1984.79153588869
 30
0.0
  0
POINT
  5
F36
330
F2C
100
AcDbEntity
  8
Defpoints
 62
     0
100
AcDbPoint
 10
283.0190573575097
 20
1984.79153588869
 30
0.0
  0
ENDBLK
  5
F37
330
F2C
100
AcDbEntity
  8
0
100
AcDbBlockEnd
  0
BLOCK
  5
F4D
330
F4C
100
AcDbEntity
  8
0
100
AcDbBlockBegin
  2
*D16
 70
     1
 10
0.0
 20
0.0
 30
0.0
  3
*D16
  1
*D102
  0
LINE
  5
F4E
330
F4C
100
AcDbEntity
  8
MODEL
 62
     0
370
    -2
100
AcDbLine
 10
1396.817201365532
 20
995.519966936352
 30
0.0
 11
1396.817201365532
 21
938.0427345485245
 31
0.0
  0
LINE
  5
F4F
330
F4C
100
AcDbEntity
  8
MODEL
 62
     0
370
    -2
100
AcDbLine
 10
1481.817315825047
 20
995.519966936352
 30
0.0
 11
1481.817315825047
 21
938.0427345485245
 31
0.0
  0
LINE
  5
F50
330
F4C
100
AcDbEntity
  8
MODEL
 62
     0
370
    -2
100
AcDbLine
 10
1399.817201365532
 20
938.0427345485245
 30
0.0
 11
1478.817315825047
 21
938.0427345485245
 31
0.0
  0
INSERT
  5
F51
330
F4C
100
AcDbEntity
  8
MODEL
 62
     0
370
    -2
100
AcDbBlockReference
  2
_DOT
 10
1396.817201365532
 20
938.0427345485245
 30
0.0
 41
3.0
 42
3.0
 43
3.0
 50
180.0
  0
INSERT
  5
F52
330
F4C
100
AcDbEntity
  8
MODEL
 62
     0
370
    -2
100
AcDbBlockReference
  2
_DOT
 10
1481.817315825047
 20
938.0427345485245
 30
0.0
 41
3.0
 42
3.0
 43
3.0
  0
MTEXT
  5
F53
330
F4C
100
AcDbEntity
  8
MODEL
 62
     0
 48
0.05
100
AcDbMText
 10
1439.317258595289
 20
954.0427345485245
 30
0.0
 40
12.0
 41
0.0
 46
0.0
 71
     5
 72
     1
  1
\A1;85
  7
ＭＳ ゴシック
 73
     1
 44
1.0
  0
POINT
  5
F54
330
F4C
100
AcDbEntity
  8
Defpoints
 62
     0
100
AcDbPoint
 10
1396.817201365532
 20
1005.519966936352
 30
0.0
  0
POINT
  5
F55
330
F4C
100
AcDbEntity
  8
Defpoints
 62
     0
100
AcDbPoint
 10
1481.817315825047
 20
1005.519966936352
 30
0.0
  0
POINT
  5
F56
330
F4C
100
AcDbEntity
  8
Defpoints
 62
     0
100
AcDbPoint
 10
1481.817315825047
 20
938.0427345485245
 30
0.0
  0
ENDBLK
  5
F57
330
F4C
100
AcDbEntity
  8
0
100
AcDbBlockEnd
  0
BLOCK
  5
F71
330
F70
100
AcDbEntity
  8
0
100
AcDbBlockBegin
  2
*D17
 70
     1
 10
0.0
 20
0.0
 30
0.0
  3
*D17
  1
*D107
  0
LINE
  5
F72
330
F70
100
AcDbEntity
  8
MODEL
 62
     0
370
    -2
100
AcDbLine
 10
1426.980157026799
 20
2094.806143289787
 30
0.0
 11
1426.980157026799
 21
2216.058443918653
 31
0.0
  0
LINE
  5
F73
330
F70
100
AcDbEntity
  8
MODEL
 62
     0
370
    -2
100
AcDbLine
 10
1326.980157026799
 20
2094.806143289791
 30
0.0
 11
1326.980157026799
 21
2216.058443918653
 31
0.0
  0
LINE
  5
F74
330
F70
100
AcDbEntity
  8
MODEL
 62
     0
370
    -2
100
AcDbLine
 10
1423.980157026799
 20
2216.058443918653
 30
0.0
 11
1329.980157026799
 21
2216.058443918653
 31
0.0
  0
INSERT
  5
F75
330
F70
100
AcDbEntity
  8
MODEL
 62
     0
370
    -2
100
AcDbBlockReference
  2
_DOT
 10
1426.980157026799
 20
2216.058443918653
 30
0.0
 41
3.0
 42
3.0
 43
3.0
  0
INSERT
  5
F76
330
F70
100
AcDbEntity
  8
MODEL
 62
     0
370
    -2
100
AcDbBlockReference
  2
_DOT
 10
1326.980157026799
 20
2216.058443918653
 30
0.0
 41
3.0
 42
3.0
 43
3.0
 50
180.0
  0
MTEXT
  5
F77
330
F70
100
AcDbEntity
  8
MODEL
 62
     0
 48
0.05
100
AcDbMText
 10
1376.980157026799
 20
2232.058443918653
 30
0.0
 40
12.0
 41
0.0
 46
0.0
 71
     5
 72
     1
  1
\A1;100
  7
ＭＳ ゴシック
 73
     1
 44
1.0
  0
POINT
  5
F78
330
F70
100
AcDbEntity
  8
Defpoints
 62
     0
100
AcDbPoint
 10
1426.980157026799
 20
2084.806143289787
 30
0.0
  0
POINT
  5
F79
330
F70
100
AcDbEntity
  8
Defpoints
 62
     0
100
AcDbPoint
 10
1326.980157026799
 20
2084.806143289791
 30
0.0
  0
POINT
  5
F7A
330
F70
100
AcDbEntity
  8
Defpoints
 62
     0
100
AcDbPoint
 10
1326.980157026799
 20
2216.058443918653
 30
0.0
  0
ENDBLK
  5
F7B
330
F70
100
AcDbEntity
  8
0
100
AcDbBlockEnd
  0
BLOCK
  5
FC9
330
FC8
100
AcDbEntity
  8
0
100
AcDbBlockBegin
  2
*D18
 70
     1
 10
0.0
 20
0.0
 30
0.0
  3
*D18
  1
*D141
  0
LINE
  5
FCA
330
FC8
100
AcDbEntity
  8
DIM
 62
     0
370
    -2
100
AcDbLine
 10
1620.31725859627
 20
1071.519966936348
 30
0.0
 11
1701.083556361247
 21
1071.519966936348
 31
0.0
  0
LINE
  5
FCB
330
FC8
100
AcDbEntity
  8
DIM
 62
     0
370
    -2
100
AcDbLine
 10
1620.31725859627
 20
1001.519966936348
 30
0.0
 11
1701.083556361247
 21
1001.519966936348
 31
0.0
  0
LINE
  5
FCC
330
FC8
100
AcDbEntity
  8
DIM
 62
     0
370
    -2
100
AcDbLine
 10
1701.083556361247
 20
1068.519966936348
 30
0.0
 11
1701.083556361247
 21
1004.519966936348
 31
0.0
  0
INSERT
  5
FCD
330
FC8
100
AcDbEntity
  8
DIM
 62
     0
370
    -2
100
AcDbBlockReference
  2
_DOT
 10
1701.083556361247
 20
1071.519966936348
 30
0.0
 41
3.0
 42
3.0
 43
3.0
 50
90.0
  0
INSERT
  5
FCE
330
FC8
100
AcDbEntity
  8
DIM
 62
     0
370
    -2
100
AcDbBlockReference
  2
_DOT
 10
1701.083556361247
 20
1001.519966936348
 30
0.0
 41
3.0
 42
3.0
 43
3.0
 50
270.0
  0
MTEXT
  5
FCF
330
FC8
100
AcDbEntity
  8
DIM
 62
     0
 48
0.05
100
AcDbMText
 10
1685.083556361247
 20
1036.519966936348
 30
0.0
 40
12.0
 41
0.0
 46
0.0
 71
     5
 72
     1
  1
\A1;70
  7
ＭＳ ゴシック
 11
0.0
 21
1.0
 31
0.0
 73
     1
 44
1.0
  0
POINT
  5
FD0
330
FC8
100
AcDbEntity
  8
Defpoints
 62
     0
100
AcDbPoint
 10
1610.31725859627
 20
1071.519966936348
 30
0.0
  0
POINT
  5
FD1
330
FC8
100
AcDbEntity
  8
Defpoints
 62
     0
100
AcDbPoint
 10
1610.31725859627
 20
1001.519966936348
 30
0.0
  0
POINT
  5
FD2
330
FC8
100
AcDbEntity
  8
Defpoints
 62
     0
100
AcDbPoint
 10
1701.083556361247
 20
1001.519966936348
 30
0.0
  0
ENDBLK
  5
FD3
330
FC8
100
AcDbEntity
  8
0
100
AcDbBlockEnd
  0
BLOCK
  5
FEC
330
FEB
100
AcDbEntity
  8
0
100
AcDbBlockBegin
  2
*D19
 70
     1
 10
0.0
 20
0.0
 30
0.0
  3
*D19
  1
*D145
  0
LINE
  5
FED
330
FEB
100
AcDbEntity
  8
MODEL
 62
     0
370
    -2
100
AcDbLine
 10
503.0721035243564
 20
1085.926585770579
 30
0.0
 11
503.0721035243564
 21
1145.024976349698
 31
0.0
  0
LINE
  5
FEE
330
FEB
100
AcDbEntity
  8
MODEL
 62
     0
370
    -2
100
AcDbLine
 10
603.0721035243564
 20
1085.926585770579
 30
0.0
 11
603.0721035243564
 21
1145.024976349698
 31
0.0
  0
LINE
  5
FEF
330
FEB
100
AcDbEntity
  8
MODEL
 62
     0
370
    -2
100
AcDbLine
 10
506.0721035243564
 20
1145.024976349698
 30
0.0
 11
600.0721035243564
 21
1145.024976349698
 31
0.0
  0
INSERT
  5
FF0
330
FEB
100
AcDbEntity
  8
MODEL
 62
     0
370
    -2
100
AcDbBlockReference
  2
_DOT
 10
503.0721035243564
 20
1145.024976349698
 30
0.0
 41
3.0
 42
3.0
 43
3.0
 50
180.0
  0
INSERT
  5
FF1
330
FEB
100
AcDbEntity
  8
MODEL
 62
     0
370
    -2
100
AcDbBlockReference
  2
_DOT
 10
603.0721035243564
 20
1145.024976349698
 30
0.0
 41
3.0
 42
3.0
 43
3.0
  0
MTEXT
  5
FF2
330
FEB
100
AcDbEntity
  8
MODEL
 62
     0
 48
0.05
100
AcDbMText
 10
553.0721035243564
 20
1161.024976349698
 30
0.0
 40
12.0
 41
0.0
 46
0.0
 71
     5
 72
     1
  1
\A1;100
  7
ＭＳ ゴシック
 73
     1
 44
1.0
  0
POINT
  5
FF3
330
FEB
100
AcDbEntity
  8
Defpoints
 62
     0
100
AcDbPoint
 10
503.0721035243564
 20
1075.926585770579
 30
0.0
  0
POINT
  5
FF4
330
FEB
100
AcDbEntity
  8
Defpoints
 62
     0
100
AcDbPoint
 10
603.0721035243564
 20
1075.926585770579
 30
0.0
  0
POINT
  5
FF5
330
FEB
100
AcDbEntity
  8
Defpoints
 62
     0
100
AcDbPoint
 10
603.0721035243564
 20
1145.024976349698
 30
0.0
  0
ENDBLK
  5
FF6
330
FEB
100
AcDbEntity
  8
0
100
AcDbBlockEnd
  0
BLOCK
  5
FF9
330
FF8
100
AcDbEntity
  8
0
100
AcDbBlockBegin
  2
*D20
 70
     1
 10
0.0
 20
0.0
 30
0.0
  3
*D20
  1
*D146
  0
LINE
  5
FFA
330
FF8
100
AcDbEntity
  8
DIM
 62
     0
370
    -2
100
AcDbLine
 10
1610.31725859627
 20
991.519966936348
 30
0.0
 11
1610.31725859627
 21
805.6324789460867
 31
0.0
  0
LINE
  5
FFB
330
FF8
100
AcDbEntity
  8
DIM
 62
     0
370
    -2
100
AcDbLine
 10
1405.31725859627
 20
928.1677345485205
 30
0.0
 11
1405.31725859627
 21
805.6324789460867
 31
0.0
  0
LINE
  5
FFC
330
FF8
100
AcDbEntity
  8
DIM
 62
     0
370
    -2
100
AcDbLine
 10
1607.31725859627
 20
805.6324789460867
 30
0.0
 11
1408.31725859627
 21
805.6324789460867
 31
0.0
  0
INSERT
  5
FFD
330
FF8
100
AcDbEntity
  8
DIM
 62
     0
370
    -2
100
AcDbBlockReference
  2
_DOT
 10
1610.31725859627
 20
805.6324789460867
 30
0.0
 41
3.0
 42
3.0
 43
3.0
  0
INSERT
  5
FFE
330
FF8
100
AcDbEntity
  8
DIM
 62
     0
370
    -2
100
AcDbBlockReference
  2
_DOT
 10
1405.31725859627
 20
805.6324789460867
 30
0.0
 41
3.0
 42
3.0
 43
3.0
 50
180.0
  0
MTEXT
  5
FFF
330
FF8
100
AcDbEntity
  8
DIM
 62
     0
 48
0.05
100
AcDbMText
 10
1507.81725859627
 20
821.6324789460867
 30
0.0
 40
12.0
 41
0.0
 46
0.0
 71
     5
 72
     1
  1
\A1;205
  7
ＭＳ ゴシック
 73
     1
 44
1.0
  0
POINT
  5
1000
330
FF8
100
AcDbEntity
  8
Defpoints
 62
     0
100
AcDbPoint
 10
1610.31725859627
 20
1001.519966936348
 30
0.0
  0
POINT
  5
1001
330
FF8
100
AcDbEntity
  8
Defpoints
 62
     0
100
AcDbPoint
 10
1405.31725859627
 20
938.1677345485205
 30
0.0
  0
POINT
  5
1002
330
FF8
100
AcDbEntity
  8
Defpoints
 62
     0
100
AcDbPoint
 10
1405.31725859627
 20
805.6324789460867
 30
0.0
  0
ENDBLK
  5
1003
330
FF8
100
AcDbEntity
  8
0
100
AcDbBlockEnd
  0
BLOCK
  5
1008
330
1007
100
AcDbEntity
  8
0
100
AcDbBlockBegin
  2
*D21
 70
     1
 10
0.0
 20
0.0
 30
0.0
  3
*D21
  1
*D147
  0
LINE
  5
1009
330
1007
100
AcDbEntity
  8
DIM
 62
     0
370
    -2
100
AcDbLine
 10
472.327084510669
 20
2260.806143289786
 30
0.0
 11
472.327084510669
 21
2325.274672850661
 31
0.0
  0
LINE
  5
100A
330
1007
100
AcDbEntity
  8
DIM
 62
     0
370
    -2
100
AcDbLine
 10
682.327084510669
 20
2260.806143289786
 30
0.0
 11
682.327084510669
 21
2325.274672850661
 31
0.0
  0
LINE
  5
100B
330
1007
100
AcDbEntity
  8
DIM
 62
     0
370
    -2
100
AcDbLine
 10
475.327084510669
 20
2325.274672850661
 30
0.0
 11
679.327084510669
 21
2325.274672850661
 31
0.0
  0
INSERT
  5
100C
330
1007
100
AcDbEntity
  8
DIM
 62
     0
370
    -2
100
AcDbBlockReference
  2
_DOT
 10
472.327084510669
 20
2325.274672850661
 30
0.0
 41
3.0
 42
3.0
 43
3.0
 50
180.0
  0
INSERT
  5
100D
330
1007
100
AcDbEntity
  8
DIM
 62
     0
370
    -2
100
AcDbBlockReference
  2
_DOT
 10
682.327084510669
 20
2325.274672850661
 30
0.0
 41
3.0
 42
3.0
 43
3.0
  0
MTEXT
  5
100E
330
1007
100
AcDbEntity
  8
DIM
 62
     0
 48
0.05
100
AcDbMText
 10
577.327084510669
 20
2341.274672850661
 30
0.0
 40
12.0
 41
0.0
 46
0.0
 71
     5
 72
     1
  1
\A1;210
  7
ＭＳ ゴシック
 73
     1
 44
1.0
  0
POINT
  5
100F
330
1007
100
AcDbEntity
  8
Defpoints
 62
     0
100
AcDbPoint
 10
472.327084510669
 20
2250.806143289786
 30
0.0
  0
POINT
  5
1010
330
1007
100
AcDbEntity
  8
Defpoints
 62
     0
100
AcDbPoint
 10
682.327084510669
 20
2250.806143289786
 30
0.0
  0
POINT
  5
1011
330
1007
100
AcDbEntity
  8
Defpoints
 62
     0
100
AcDbPoint
 10
682.327084510669
 20
2325.274672850661
 30
0.0
  0
ENDBLK
  5
1012
330
1007
100
AcDbEntity
  8
0
100
AcDbBlockEnd
  0
BLOCK
  5
1015
330
1014
100
AcDbEntity
  8
0
100
AcDbBlockBegin
  2
*D22
 70
     1
 10
0.0
 20
0.0
 30
0.0
  3
*D22
  1
*D148
  0
LINE
  5
1016
330
1014
100
AcDbEntity
  8
DIM
 62
     0
370
    -2
100
AcDbLine
 10
462.327084510669
 20
2061.806143289786
 30
0.0
 11
462.327084510669
 21
1905.258086319904
 31
0.0
  0
LINE
  5
1017
330
1014
100
AcDbEntity
  8
DIM
 62
     0
370
    -2
100
AcDbLine
 10
562.327084510669
 20
2061.806143289786
 30
0.0
 11
562.327084510669
 21
1905.258086319904
 31
0.0
  0
LINE
  5
1018
330
1014
100
AcDbEntity
  8
DIM
 62
     0
370
    -2
100
AcDbLine
 10
465.327084510669
 20
1905.258086319904
 30
0.0
 11
559.327084510669
 21
1905.258086319904
 31
0.0
  0
INSERT
  5
1019
330
1014
100
AcDbEntity
  8
DIM
 62
     0
370
    -2
100
AcDbBlockReference
  2
_DOT
 10
462.327084510669
 20
1905.258086319904
 30
0.0
 41
3.0
 42
3.0
 43
3.0
 50
180.0
  0
INSERT
  5
101A
330
1014
100
AcDbEntity
  8
DIM
 62
     0
370
    -2
100
AcDbBlockReference
  2
_DOT
 10
562.327084510669
 20
1905.258086319904
 30
0.0
 41
3.0
 42
3.0
 43
3.0
  0
MTEXT
  5
101B
330
1014
100
AcDbEntity
  8
DIM
 62
     0
 48
0.05
100
AcDbMText
 10
512.327084510669
 20
1921.258086319904
 30
0.0
 40
12.0
 41
0.0
 46
0.0
 71
     5
 72
     1
  1
\A1;100
  7
ＭＳ ゴシック
 73
     1
 44
1.0
  0
POINT
  5
101C
330
1014
100
AcDbEntity
  8
Defpoints
 62
     0
100
AcDbPoint
 10
462.327084510669
 20
2071.806143289786
 30
0.0
  0
POINT
  5
101D
330
1014
100
AcDbEntity
  8
Defpoints
 62
     0
100
AcDbPoint
 10
562.327084510669
 20
2071.806143289786
 30
0.0
  0
POINT
  5
101E
330
1014
100
AcDbEntity
  8
Defpoints
 62
     0
100
AcDbPoint
 10
562.327084510669
 20
1905.258086319904
 30
0.0
  0
ENDBLK
  5
101F
330
1014
100
AcDbEntity
  8
0
100
AcDbBlockEnd
  0
BLOCK
  5
1022
330
1021
100
AcDbEntity
  8
0
100
AcDbBlockBegin
  2
*D23
 70
     1
 10
0.0
 20
0.0
 30
0.0
  3
*D23
  1
*D149
  0
LINE
  5
1023
330
1021
100
AcDbEntity
  8
DIM
  6
Continuous
 62
     0
370
    -2
100
AcDbLine
 10
412.2008088493917
 20
1999.397485658447
 30
0.0
 11
412.2008088493917
 21
1836.129206672543
 31
0.0
  0
LINE
  5
1024
330
1021
100
AcDbEntity
  8
DIM
  6
Continuous
 62
     0
370
    -2
100
AcDbLine
 10
692.2008088493917
 20
1999.397485658447
 30
0.0
 11
692.2008088493917
 21
1836.129206672543
 31
0.0
  0
LINE
  5
1025
330
1021
100
AcDbEntity
  8
DIM
  6
Continuous
 62
     0
370
    -2
100
AcDbLine
 10
415.2008088493917
 20
1836.129206672543
 30
0.0
 11
689.2008088493917
 21
1836.129206672543
 31
0.0
  0
INSERT
  5
1026
330
1021
100
AcDbEntity
  8
DIM
 62
     0
370
    -2
100
AcDbBlockReference
  2
_DOT
 10
412.2008088493917
 20
1836.129206672543
 30
0.0
 41
3.0
 42
3.0
 43
3.0
 50
180.0
  0
INSERT
  5
1027
330
1021
100
AcDbEntity
  8
DIM
 62
     0
370
    -2
100
AcDbBlockReference
  2
_DOT
 10
692.2008088493917
 20
1836.129206672543
 30
0.0
 41
3.0
 42
3.0
 43
3.0
  0
MTEXT
  5
1028
330
1021
100
AcDbEntity
  8
DIM
 62
     0
 48
0.05
100
AcDbMText
 10
552.2008088493917
 20
1852.129206672543
 30
0.0
 40
12.0
 41
0.0
 46
0.0
 71
     5
 72
     1
  1
\A1;280
  7
ＭＳ ゴシック
 73
     1
 44
1.0
  0
POINT
  5
1029
330
1021
100
AcDbEntity
  8
Defpoints
 62
     0
100
AcDbPoint
 10
412.2008088493917
 20
2009.397485658447
 30
0.0
  0
POINT
  5
102A
330
1021
100
AcDbEntity
  8
Defpoints
 62
     0
100
AcDbPoint
 10
692.2008088493917
 20
2009.397485658447
 30
0.0
  0
POINT
  5
102B
330
1021
100
AcDbEntity
  8
Defpoints
 62
     0
100
AcDbPoint
 10
692.2008088493917
 20
1836.129206672543
 30
0.0
  0
ENDBLK
  5
102C
330
1021
100
AcDbEntity
  8
0
100
AcDbBlockEnd
  0
BLOCK
  5
10EF
330
10EE
100
AcDbEntity
  8
0
100
AcDbBlockBegin
  2
*D24
 70
     1
 10
0.0
 20
0.0
 30
0.0
  3
*D24
  1
*D25
  0
LINE
  5
10F1
330
10EE
100
AcDbEntity
  8
DIM
  6
Continuous
 62
     0
370
    -2
100
AcDbLine
 10
131.0214208713965
 20
1020.810954064807
 30
0.0
 11
131.0214208713965
 21
1259.884620783024
 31
0.0
  0
LINE
  5
10F2
330
10EE
100
AcDbEntity
  8
DIM
  6
Continuous
 62
     0
370
    -2
100
AcDbLine
 10
491.0214208713965
 20
1020.810954064807
 30
0.0
 11
491.0214208713966
 21
1259.884620783024
 31
0.0
  0
LINE
  5
10F3
330
10EE
100
AcDbEntity
  8
DIM
  6
Continuous
 62
     0
370
    -2
100
AcDbLine
 10
134.0214208713965
 20
1259.884620783024
 30
0.0
 11
488.0214208713966
 21
1259.884620783024
 31
0.0
  0
INSERT
  5
10F4
330
10EE
100
AcDbEntity
  8
DIM
 62
     0
370
    -2
100
AcDbBlockReference
  2
_DOT
 10
131.0214208713965
 20
1259.884620783024
 30
0.0
 41
3.0
 42
3.0
 43
3.0
 50
180.0
  0
INSERT
  5
10F5
330
10EE
100
AcDbEntity
  8
DIM
 62
     0
370
    -2
100
AcDbBlockReference
  2
_DOT
 10
491.0214208713966
 20
1259.884620783024
 30
0.0
 41
3.0
 42
3.0
 43
3.0
  0
MTEXT
  5
10F6
330
10EE
100
AcDbEntity
  8
DIM
 62
     0
 48
0.05
100
AcDbMText
 10
311.0214208713966
 20
1275.884620783024
 30
0.0
 40
12.0
 41
0.0
 46
0.0
 71
     5
 72
     1
  1
\A1;360
  7
ＭＳ ゴシック
 73
     1
 44
1.0
  0
POINT
  5
10F7
330
10EE
100
AcDbEntity
  8
Defpoints
 62
     0
100
AcDbPoint
 10
131.0214208713965
 20
1010.810954064807
 30
0.0
  0
POINT
  5
10F8
330
10EE
100
AcDbEntity
  8
Defpoints
 62
     0
100
AcDbPoint
 10
491.0214208713965
 20
1010.810954064807
 30
0.0
  0
POINT
  5
10F9
330
10EE
100
AcDbEntity
  8
Defpoints
 62
     0
100
AcDbPoint
 10
491.0214208713965
 20
1259.884620783024
 30
0.0
  0
ENDBLK
  5
10F0
330
10EE
100
AcDbEntity
  8
0
100
AcDbBlockEnd
  0
BLOCK
  5
10FB
330
10FA
100
AcDbEntity
  8
0
100
AcDbBlockBegin
  2
*D25
 70
     1
 10
0.0
 20
0.0
 30
0.0
  3
*D25
  1
*D26
  0
LINE
  5
10FD
330
10FA
100
AcDbEntity
  8
DIM
  6
Continuous
 62
     0
370
    -2
100
AcDbLine
 10
326.8095907845091
 20
1114.69947969411
 30
0.0
 11
550.8708988097079
 21
1114.69947969411
 31
0.0
  0
LINE
  5
10FE
330
10FA
100
AcDbEntity
  8
DIM
  6
Continuous
 62
     0
370
    -2
100
AcDbLine
 10
329.3424678485713
 20
896.6994796941101
 30
0.0
 11
550.8708988097079
 21
896.6994796941101
 31
0.0
  0
LINE
  5
10FF
330
10FA
100
AcDbEntity
  8
DIM
  6
Continuous
 62
     0
370
    -2
100
AcDbLine
 10
550.8708988097079
 20
1111.69947969411
 30
0.0
 11
550.8708988097079
 21
899.6994796941101
 31
0.0
  0
INSERT
  5
1100
330
10FA
100
AcDbEntity
  8
DIM
 62
     0
370
    -2
100
AcDbBlockReference
  2
_DOT
 10
550.8708988097079
 20
1114.69947969411
 30
0.0
 41
3.0
 42
3.0
 43
3.0
 50
90.0
  0
INSERT
  5
1101
330
10FA
100
AcDbEntity
  8
DIM
 62
     0
370
    -2
100
AcDbBlockReference
  2
_DOT
 10
550.8708988097079
 20
896.6994796941101
 30
0.0
 41
3.0
 42
3.0
 43
3.0
 50
270.0
  0
MTEXT
  5
1102
330
10FA
100
AcDbEntity
  8
DIM
 62
     0
 48
0.05
100
AcDbMText
 10
534.8708988097079
 20
1005.69947969411
 30
0.0
 40
12.0
 41
0.0
 46
0.0
 71
     5
 72
     1
  1
\A1;218
  7
ＭＳ ゴシック
 11
0.0
 21
1.0
 31
0.0
 73
     1
 44
1.0
  0
POINT
  5
1103
330
10FA
100
AcDbEntity
  8
Defpoints
 62
     0
100
AcDbPoint
 10
316.8095907845091
 20
1114.69947969411
 30
0.0
  0
POINT
  5
1104
330
10FA
100
AcDbEntity
  8
Defpoints
 62
     0
100
AcDbPoint
 10
319.3424678485713
 20
896.6994796941101
 30
0.0
  0
POINT
  5
1105
330
10FA
100
AcDbEntity
  8
Defpoints
 62
     0
100
AcDbPoint
 10
550.8708988097079
 20
896.6994796941101
 30
0.0
  0
ENDBLK
  5
10FC
330
10FA
100
AcDbEntity
  8
0
100
AcDbBlockEnd
  0
BLOCK
  5
1107
330
1106
100
AcDbEntity
  8
0
100
AcDbBlockBegin
  2
*D26
 70
     1
 10
0.0
 20
0.0
 30
0.0
  3
*D26
  1
*D27
  0
LINE
  5
1109
330
1106
100
AcDbEntity
  8
DIM
  6
Continuous
 62
     0
370
    -2
100
AcDbLine
 10
131.0214208713965
 20
562.3345589518462
 30
0.0
 11
131.0214208713965
 21
379.8604707795624
 31
0.0
  0
LINE
  5
110A
330
1106
100
AcDbEntity
  8
DIM
  6
Continuous
 62
     0
370
    -2
100
AcDbLine
 10
246.0214208713965
 20
400.8677030729099
 30
0.0
 11
246.0214208713965
 21
379.8604707795624
 31
0.0
  0
LINE
  5
110B
330
1106
100
AcDbEntity
  8
DIM
  6
Continuous
 62
     0
370
    -2
100
AcDbLine
 10
134.0214208713965
 20
379.8604707795624
 30
0.0
 11
243.0214208713965
 21
379.8604707795624
 31
0.0
  0
INSERT
  5
110C
330
1106
100
AcDbEntity
  8
DIM
 62
     0
370
    -2
100
AcDbBlockReference
  2
_DOT
 10
131.0214208713965
 20
379.8604707795624
 30
0.0
 41
3.0
 42
3.0
 43
3.0
 50
180.0
  0
INSERT
  5
110D
330
1106
100
AcDbEntity
  8
DIM
 62
     0
370
    -2
100
AcDbBlockReference
  2
_DOT
 10
246.0214208713965
 20
379.8604707795624
 30
0.0
 41
3.0
 42
3.0
 43
3.0
  0
MTEXT
  5
110E
330
1106
100
AcDbEntity
  8
DIM
 62
     0
 48
0.05
100
AcDbMText
 10
188.5214208713965
 20
395.8604707795624
 30
0.0
 40
12.0
 41
0.0
 46
0.0
 71
     5
 72
     1
  1
\A1;115
  7
ＭＳ ゴシック
 73
     1
 44
1.0
  0
POINT
  5
110F
330
1106
100
AcDbEntity
  8
Defpoints
 62
     0
100
AcDbPoint
 10
131.0214208713965
 20
572.3345589518462
 30
0.0
  0
POINT
  5
1110
330
1106
100
AcDbEntity
  8
Defpoints
 62
     0
100
AcDbPoint
 10
246.0214208713965
 20
410.8677030729099
 30
0.0
  0
POINT
  5
1111
330
1106
100
AcDbEntity
  8
Defpoints
 62
     0
100
AcDbPoint
 10
246.0214208713965
 20
379.8604707795624
 30
0.0
  0
ENDBLK
  5
1108
330
1106
100
AcDbEntity
  8
0
100
AcDbBlockEnd
  0
BLOCK
  5
1113
330
1112
100
AcDbEntity
  8
0
100
AcDbBlockBegin
  2
*D27
 70
     1
 10
0.0
 20
0.0
 30
0.0
  3
*D27
  1
*D28
  0
LINE
  5
1115
330
1112
100
AcDbEntity
  8
DIM
  6
Continuous
 62
     0
370
    -2
100
AcDbLine
 10
501.028125309869
 20
572.7621895921554
 30
0.0
 11
540.3584163990151
 21
572.7621895921554
 31
0.0
  0
LINE
  5
1116
330
1112
100
AcDbEntity
  8
DIM
  6
Continuous
 62
     0
370
    -2
100
AcDbLine
 10
361.6998134085998
 20
489.7621895921557
 30
0.0
 11
540.3584163990151
 21
489.7621895921557
 31
0.0
  0
LINE
  5
1117
330
1112
100
AcDbEntity
  8
DIM
  6
Continuous
 62
     0
370
    -2
100
AcDbLine
 10
540.3584163990151
 20
569.7621895921554
 30
0.0
 11
540.3584163990151
 21
492.7621895921557
 31
0.0
  0
INSERT
  5
1118
330
1112
100
AcDbEntity
  8
DIM
 62
     0
370
    -2
100
AcDbBlockReference
  2
_DOT
 10
540.3584163990151
 20
572.7621895921554
 30
0.0
 41
3.0
 42
3.0
 43
3.0
 50
90.0
  0
INSERT
  5
1119
330
1112
100
AcDbEntity
  8
DIM
 62
     0
370
    -2
100
AcDbBlockReference
  2
_DOT
 10
540.3584163990151
 20
489.7621895921557
 30
0.0
 41
3.0
 42
3.0
 43
3.0
 50
270.0
  0
MTEXT
  5
111A
330
1112
100
AcDbEntity
  8
DIM
 62
     0
 48
0.05
100
AcDbMText
 10
524.3584163990151
 20
532.7621895921554
 30
0.0
 40
12.0
 41
0.0
 46
0.0
 71
     5
 72
     1
  1
\A1;83
  7
ＭＳ ゴシック
 11
0.0
 21
1.0
 31
0.0
 73
     1
 44
1.0
  0
POINT
  5
111B
330
1112
100
AcDbEntity
  8
Defpoints
 62
     0
100
AcDbPoint
 10
491.028125309869
 20
572.7621895921554
 30
0.0
  0
POINT
  5
111C
330
1112
100
AcDbEntity
  8
Defpoints
 62
     0
100
AcDbPoint
 10
351.6998134085998
 20
489.7621895921557
 30
0.0
  0
POINT
  5
111D
330
1112
100
AcDbEntity
  8
Defpoints
 62
     0
100
AcDbPoint
 10
540.3584163990151
 20
489.7621895921557
 30
0.0
  0
ENDBLK
  5
1114
330
1112
100
AcDbEntity
  8
0
100
AcDbBlockEnd
  0
BLOCK
  5
111F
330
111E
100
AcDbEntity
  8
0
100
AcDbBlockBegin
  2
*D28
 70
     1
 10
0.0
 20
0.0
 30
0.0
  3
*D28
  1
*D29
  0
LINE
  5
1121
330
111E
100
AcDbEntity
  8
DIM
  6
Continuous
 62
     0
370
    -2
100
AcDbLine
 10
737.9392664946986
 20
572.7621895921554
 30
0.0
 11
737.9392664946986
 21
659.3309451302455
 31
0.0
  0
LINE
  5
1122
330
111E
100
AcDbEntity
  8
DIM
  6
Continuous
 62
     0
370
    -2
100
AcDbLine
 10
737.9392664946986
 20
569.7621895921554
 30
0.0
 11
737.9392664946986
 21
510.8761664804406
 31
0.0
  0
INSERT
  5
1123
330
111E
100
AcDbEntity
  8
DIM
 62
     0
370
    -2
100
AcDbBlockReference
  2
_DOT
 10
737.9392664946986
 20
572.7621895921554
 30
0.0
 41
3.0
 42
3.0
 43
3.0
 50
90.0
  0
INSERT
  5
1124
330
111E
100
AcDbEntity
  8
DIM
 62
     0
370
    -2
100
AcDbBlockReference
  2
_DOT
 10
737.9392664946986
 20
507.8761664804406
 30
0.0
 41
3.0
 42
3.0
 43
3.0
 50
270.0
  0
MTEXT
  5
1125
330
111E
100
AcDbEntity
  8
DIM
 62
     0
 48
0.05
100
AcDbMText
 10
720.8772664946986
 20
620.3869451302455
 30
0.0
 40
12.0
 41
0.0
 46
0.0
 71
     5
 72
     1
  1
\A1;63(深さ)
  7
ＭＳ ゴシック
 11
0.0
 21
1.0
 31
0.0
 73
     1
 44
1.0
  0
POINT
  5
1126
330
111E
100
AcDbEntity
  8
Defpoints
 62
     0
100
AcDbPoint
 10
761.0505264746098
 20
572.7621895921554
 30
0.0
  0
POINT
  5
1127
330
111E
100
AcDbEntity
  8
Defpoints
 62
     0
100
AcDbPoint
 10
737.9392664946986
 20
507.8761664804406
 30
0.0
  0
POINT
  5
1128
330
111E
100
AcDbEntity
  8
Defpoints
 62
     0
100
AcDbPoint
 10
737.9392664946986
 20
507.8761664804406
 30
0.0
  0
ENDBLK
  5
1120
330
111E
100
AcDbEntity
  8
0
100
AcDbBlockEnd
  0
BLOCK
  5
112A
330
1129
100
AcDbEntity
  8
0
100
AcDbBlockBegin
  2
*D29
 70
     1
 10
0.0
 20
0.0
 30
0.0
  3
*D29
  1
*D30
  0
LINE
  5
112C
330
1129
100
AcDbEntity
  8
DIM
  6
Continuous
 62
     0
370
    -2
100
AcDbLine
 10
712.2255264416492
 20
437.5558060007036
 30
0.0
 11
712.2255264416492
 21
396.355443895734
 31
0.0
  0
LINE
  5
112D
330
1129
100
AcDbEntity
  8
DIM
  6
Continuous
 62
     0
370
    -2
100
AcDbLine
 10
883.2255264416565
 20
478.7621895921516
 30
0.0
 11
883.2255264416565
 21
396.355443895734
 31
0.0
  0
LINE
  5
112E
330
1129
100
AcDbEntity
  8
DIM
  6
Continuous
 62
     0
370
    -2
100
AcDbLine
 10
715.2255264416492
 20
396.355443895734
 30
0.0
 11
880.2255264416565
 21
396.355443895734
 31
0.0
  0
INSERT
  5
112F
330
1129
100
AcDbEntity
  8
DIM
 62
     0
370
    -2
100
AcDbBlockReference
  2
_DOT
 10
712.2255264416492
 20
396.355443895734
 30
0.0
 41
3.0
 42
3.0
 43
3.0
 50
180.0
  0
INSERT
  5
1130
330
1129
100
AcDbEntity
  8
DIM
 62
     0
370
    -2
100
AcDbBlockReference
  2
_DOT
 10
883.2255264416565
 20
396.355443895734
 30
0.0
 41
3.0
 42
3.0
 43
3.0
  0
MTEXT
  5
1131
330
1129
100
AcDbEntity
  8
DIM
 62
     0
 48
0.05
100
AcDbMText
 10
797.7255264416528
 20
412.355443895734
 30
0.0
 40
12.0
 41
0.0
 46
0.0
 71
     5
 72
     1
  1
\A1;171
  7
ＭＳ ゴシック
 73
     1
 44
1.0
  0
POINT
  5
1132
330
1129
100
AcDbEntity
  8
Defpoints
 62
     0
100
AcDbPoint
 10
712.2255264416492
 20
447.5558060007036
 30
0.0
  0
POINT
  5
1133
330
1129
100
AcDbEntity
  8
Defpoints
 62
     0
100
AcDbPoint
 10
883.2255264416565
 20
488.7621895921516
 30
0.0
  0
POINT
  5
1134
330
1129
100
AcDbEntity
  8
Defpoints
 62
     0
100
AcDbPoint
 10
883.2255264416565
 20
396.355443895734
 30
0.0
  0
ENDBLK
  5
112B
330
1129
100
AcDbEntity
  8
0
100
AcDbBlockEnd
  0
BLOCK
  5
1136
330
1135
100
AcDbEntity
  8
0
100
AcDbBlockBegin
  2
*D30
 70
     1
 10
0.0
 20
0.0
 30
0.0
  3
*D30
  1
*D31
  0
LINE
  5
1138
330
1135
100
AcDbEntity
  8
DIM
  6
Continuous
 62
     0
370
    -2
100
AcDbLine
 10
217.8271024887592
 20
1100.69947969411
 30
0.0
 11
89.26026997423381
 21
1100.69947969411
 31
0.0
  0
LINE
  5
1139
330
1135
100
AcDbEntity
  8
DIM
  6
Continuous
 62
     0
370
    -2
100
AcDbLine
 10
217.8271024887592
 20
910.6994796941101
 30
0.0
 11
89.26026997423375
 21
910.6994796941101
 31
0.0
  0
LINE
  5
113A
330
1135
100
AcDbEntity
  8
DIM
  6
Continuous
 62
     0
370
    -2
100
AcDbLine
 10
89.26026997423381
 20
1097.69947969411
 30
0.0
 11
89.26026997423375
 21
913.6994796941101
 31
0.0
  0
INSERT
  5
113B
330
1135
100
AcDbEntity
  8
DIM
 62
     0
370
    -2
100
AcDbBlockReference
  2
_DOT
 10
89.26026997423381
 20
1100.69947969411
 30
0.0
 41
3.0
 42
3.0
 43
3.0
 50
89.99999999999999
  0
INSERT
  5
113C
330
1135
100
AcDbEntity
  8
DIM
 62
     0
370
    -2
100
AcDbBlockReference
  2
_DOT
 10
89.26026997423375
 20
910.6994796941101
 30
0.0
 41
3.0
 42
3.0
 43
3.0
 50
270.0
  0
MTEXT
  5
113D
330
1135
100
AcDbEntity
  8
DIM
 62
     0
 48
0.05
100
AcDbMText
 10
73.26026997423378
 20
1005.69947969411
 30
0.0
 40
12.0
 41
0.0
 46
0.0
 71
     5
 72
     1
  1
\A1;190
  7
ＭＳ ゴシック
 11
2.991758887410948E-16
 21
1.0
 31
0.0
 73
     1
 44
1.0
  0
POINT
  5
113E
330
1135
100
AcDbEntity
  8
Defpoints
 62
     0
100
AcDbPoint
 10
227.8271024887592
 20
1100.69947969411
 30
0.0
  0
POINT
  5
113F
330
1135
100
AcDbEntity
  8
Defpoints
 62
     0
100
AcDbPoint
 10
227.8271024887592
 20
910.6994796941101
 30
0.0
  0
POINT
  5
1140
330
1135
100
AcDbEntity
  8
Defpoints
 62
     0
100
AcDbPoint
 10
89.26026997423375
 20
910.6994796941101
 30
0.0
  0
ENDBLK
  5
1137
330
1135
100
AcDbEntity
  8
0
100
AcDbBlockEnd
  0
BLOCK
  5
1142
330
1141
100
AcDbEntity
  8
0
100
AcDbBlockBegin
  2
*D31
 70
     1
 10
0.0
 20
0.0
 30
0.0
  3
*D31
  1
*D32
  0
LINE
  5
1144
330
1141
100
AcDbEntity
  8
DIM
 62
     0
370
    -2
100
AcDbLine
 10
669.7254692109184
 20
482.7621895921557
 30
0.0
 11
669.7254692109184
 21
448.0770111840693
 31
0.0
  0
LINE
  5
1145
330
1141
100
AcDbEntity
  8
DIM
 62
     0
370
    -2
100
AcDbLine
 10
754.7255836704337
 20
482.7621895921557
 30
0.0
 11
754.7255836704337
 21
448.0770111840693
 31
0.0
  0
LINE
  5
1146
330
1141
100
AcDbEntity
  8
DIM
 62
     0
370
    -2
100
AcDbLine
 10
672.7254692109184
 20
448.0770111840693
 30
0.0
 11
751.7255836704337
 21
448.0770111840693
 31
0.0
  0
INSERT
  5
1147
330
1141
100
AcDbEntity
  8
DIM
 62
     0
370
    -2
100
AcDbBlockReference
  2
_DOT
 10
669.7254692109184
 20
448.0770111840693
 30
0.0
 41
3.0
 42
3.0
 43
3.0
 50
180.0
  0
INSERT
  5
1148
330
1141
100
AcDbEntity
  8
DIM
 62
     0
370
    -2
100
AcDbBlockReference
  2
_DOT
 10
754.7255836704337
 20
448.0770111840693
 30
0.0
 41
3.0
 42
3.0
 43
3.0
  0
MTEXT
  5
1149
330
1141
100
AcDbEntity
  8
DIM
 62
     0
 48
0.05
100
AcDbMText
 10
712.225526440676
 20
464.0770111840693
 30
0.0
 40
12.0
 41
0.0
 46
0.0
 71
     5
 72
     1
  1
\A1;85
  7
ＭＳ ゴシック
 73
     1
 44
1.0
  0
POINT
  5
114A
330
1141
100
AcDbEntity
  8
Defpoints
 62
     0
100
AcDbPoint
 10
669.7254692109184
 20
492.7621895921557
 30
0.0
  0
POINT
  5
114B
330
1141
100
AcDbEntity
  8
Defpoints
 62
     0
100
AcDbPoint
 10
754.7255836704337
 20
492.7621895921557
 30
0.0
  0
POINT
  5
114C
330
1141
100
AcDbEntity
  8
Defpoints
 62
     0
100
AcDbPoint
 10
754.7255836704337
 20
448.0770111840693
 30
0.0
  0
ENDBLK
  5
1143
330
1141
100
AcDbEntity
  8
0
100
AcDbBlockEnd
  0
BLOCK
  5
114E
330
114D
100
AcDbEntity
  8
0
100
AcDbBlockBegin
  2
*D32
 70
     1
 10
0.0
 20
0.0
 30
0.0
  3
*D32
  1
*D33
  0
LINE
  5
1150
330
114D
100
AcDbEntity
  8
DIM
 62
     0
370
    -2
100
AcDbLine
 10
770.3905534959456
 20
1020.714087095207
 30
0.0
 11
770.3905534959456
 21
1141.966387724073
 31
0.0
  0
LINE
  5
1151
330
114D
100
AcDbEntity
  8
DIM
 62
     0
370
    -2
100
AcDbLine
 10
670.3905534959456
 20
1020.714087095211
 30
0.0
 11
670.3905534959456
 21
1141.966387724073
 31
0.0
  0
LINE
  5
1152
330
114D
100
AcDbEntity
  8
DIM
 62
     0
370
    -2
100
AcDbLine
 10
767.3905534959456
 20
1141.966387724073
 30
0.0
 11
673.3905534959456
 21
1141.966387724073
 31
0.0
  0
INSERT
  5
1153
330
114D
100
AcDbEntity
  8
DIM
 62
     0
370
    -2
100
AcDbBlockReference
  2
_DOT
 10
770.3905534959456
 20
1141.966387724073
 30
0.0
 41
3.0
 42
3.0
 43
3.0
  0
INSERT
  5
1154
330
114D
100
AcDbEntity
  8
DIM
 62
     0
370
    -2
100
AcDbBlockReference
  2
_DOT
 10
670.3905534959456
 20
1141.966387724073
 30
0.0
 41
3.0
 42
3.0
 43
3.0
 50
180.0
  0
MTEXT
  5
1155
330
114D
100
AcDbEntity
  8
DIM
 62
     0
 48
0.05
100
AcDbMText
 10
720.3905534959456
 20
1157.966387724073
 30
0.0
 40
12.0
 41
0.0
 46
0.0
 71
     5
 72
     1
  1
\A1;100
  7
ＭＳ ゴシック
 73
     1
 44
1.0
  0
POINT
  5
1156
330
114D
100
AcDbEntity
  8
Defpoints
 62
     0
100
AcDbPoint
 10
770.3905534959456
 20
1010.714087095207
 30
0.0
  0
POINT
  5
1157
330
114D
100
AcDbEntity
  8
Defpoints
 62
     0
100
AcDbPoint
 10
670.3905534959456
 20
1010.714087095211
 30
0.0
  0
POINT
  5
1158
330
114D
100
AcDbEntity
  8
Defpoints
 62
     0
100
AcDbPoint
 10
670.3905534959456
 20
1141.966387724073
 30
0.0
  0
ENDBLK
  5
114F
330
114D
100
AcDbEntity
  8
0
100
AcDbBlockEnd
  0
BLOCK
  5
115A
330
1159
100
AcDbEntity
  8
0
100
AcDbBlockBegin
  2
*D33
 70
     1
 10
0.0
 20
0.0
 30
0.0
  3
*D33
  1
*D34
  0
LINE
  5
115C
330
1159
100
AcDbEntity
  8
DIM
 62
     0
370
    -2
100
AcDbLine
 10
918.9392664947068
 20
558.7621895921516
 30
0.0
 11
960.1172778956161
 21
558.7621895921516
 31
0.0
  0
LINE
  5
115D
330
1159
100
AcDbEntity
  8
DIM
 62
     0
370
    -2
100
AcDbLine
 10
918.9392664947068
 20
488.7621895921516
 30
0.0
 11
960.1172778956161
 21
488.7621895921516
 31
0.0
  0
LINE
  5
115E
330
1159
100
AcDbEntity
  8
DIM
 62
     0
370
    -2
100
AcDbLine
 10
960.1172778956161
 20
555.7621895921516
 30
0.0
 11
960.1172778956161
 21
491.7621895921516
 31
0.0
  0
INSERT
  5
115F
330
1159
100
AcDbEntity
  8
DIM
 62
     0
370
    -2
100
AcDbBlockReference
  2
_DOT
 10
960.1172778956161
 20
558.7621895921516
 30
0.0
 41
3.0
 42
3.0
 43
3.0
 50
90.0
  0
INSERT
  5
1160
330
1159
100
AcDbEntity
  8
DIM
 62
     0
370
    -2
100
AcDbBlockReference
  2
_DOT
 10
960.1172778956161
 20
488.7621895921516
 30
0.0
 41
3.0
 42
3.0
 43
3.0
 50
270.0
  0
MTEXT
  5
1161
330
1159
100
AcDbEntity
  8
DIM
 62
     0
 48
0.05
100
AcDbMText
 10
944.1172778956161
 20
523.7621895921516
 30
0.0
 40
12.0
 41
0.0
 46
0.0
 71
     5
 72
     1
  1
\A1;70
  7
ＭＳ ゴシック
 11
0.0
 21
1.0
 31
0.0
 73
     1
 44
1.0
  0
POINT
  5
1162
330
1159
100
AcDbEntity
  8
Defpoints
 62
     0
100
AcDbPoint
 10
908.9392664947068
 20
558.7621895921516
 30
0.0
  0
POINT
  5
1163
330
1159
100
AcDbEntity
  8
Defpoints
 62
     0
100
AcDbPoint
 10
908.9392664947068
 20
488.7621895921516
 30
0.0
  0
POINT
  5
1164
330
1159
100
AcDbEntity
  8
Defpoints
 62
     0
100
AcDbPoint
 10
960.1172778956161
 20
488.7621895921516
 30
0.0
  0
ENDBLK
  5
115B
330
1159
100
AcDbEntity
  8
0
100
AcDbBlockEnd
  0
BLOCK
  5
1166
330
1165
100
AcDbEntity
  8
0
100
AcDbBlockBegin
  2
*D34
 70
     1
 10
0.0
 20
0.0
 30
0.0
  3
*D34
  1
*D35
  0
LINE
  5
1168
330
1165
100
AcDbEntity
  8
DIM
 62
     0
370
    -2
100
AcDbLine
 10
236.0214223744827
 20
557.2390276167407
 30
0.0
 11
236.0214223744827
 21
607.5163059616629
 31
0.0
  0
LINE
  5
1169
330
1165
100
AcDbEntity
  8
DIM
 62
     0
370
    -2
100
AcDbLine
 10
336.0214223744827
 20
557.2390276167407
 30
0.0
 11
336.0214223744827
 21
607.5163059616629
 31
0.0
  0
LINE
  5
116A
330
1165
100
AcDbEntity
  8
DIM
 62
     0
370
    -2
100
AcDbLine
 10
239.0214223744827
 20
607.5163059616629
 30
0.0
 11
333.0214223744827
 21
607.5163059616629
 31
0.0
  0
INSERT
  5
116B
330
1165
100
AcDbEntity
  8
DIM
 62
     0
370
    -2
100
AcDbBlockReference
  2
_DOT
 10
236.0214223744827
 20
607.5163059616629
 30
0.0
 41
3.0
 42
3.0
 43
3.0
 50
180.0
  0
INSERT
  5
116C
330
1165
100
AcDbEntity
  8
DIM
 62
     0
370
    -2
100
AcDbBlockReference
  2
_DOT
 10
336.0214223744827
 20
607.5163059616629
 30
0.0
 41
3.0
 42
3.0
 43
3.0
  0
MTEXT
  5
116D
330
1165
100
AcDbEntity
  8
DIM
 62
     0
 48
0.05
100
AcDbMText
 10
286.0214223744827
 20
623.5163059616629
 30
0.0
 40
12.0
 41
0.0
 46
0.0
 71
     5
 72
     1
  1
\A1;100
  7
ＭＳ ゴシック
 73
     1
 44
1.0
  0
POINT
  5
116E
330
1165
100
AcDbEntity
  8
Defpoints
 62
     0
100
AcDbPoint
 10
236.0214223744827
 20
547.2390276167407
 30
0.0
  0
POINT
  5
116F
330
1165
100
AcDbEntity
  8
Defpoints
 62
     0
100
AcDbPoint
 10
336.0214223744827
 20
547.2390276167407
 30
0.0
  0
POINT
  5
1170
330
1165
100
AcDbEntity
  8
Defpoints
 62
     0
100
AcDbPoint
 10
336.0214223744827
 20
607.5163059616629
 30
0.0
  0
ENDBLK
  5
1167
330
1165
100
AcDbEntity
  8
0
100
AcDbBlockEnd
  0
BLOCK
  5
1172
330
1171
100
AcDbEntity
  8
0
100
AcDbBlockBegin
  2
*D35
 70
     1
 10
0.0
 20
0.0
 30
0.0
  3
*D35
  1
*D36
  0
LINE
  5
1174
330
1171
100
AcDbEntity
  8
DIM
 62
     0
370
    -2
100
AcDbLine
 10
908.9392664947068
 20
478.7621895921516
 30
0.0
 11
908.9392664947068
 21
384.3788480397004
 31
0.0
  0
LINE
  5
1175
330
1171
100
AcDbEntity
  8
DIM
 62
     0
370
    -2
100
AcDbLine
 10
703.9392664947068
 20
478.3752514583529
 30
0.0
 11
703.9392664947068
 21
384.3788480397004
 31
0.0
  0
LINE
  5
1176
330
1171
100
AcDbEntity
  8
DIM
 62
     0
370
    -2
100
AcDbLine
 10
905.9392664947068
 20
384.3788480397004
 30
0.0
 11
706.9392664947068
 21
384.3788480397004
 31
0.0
  0
INSERT
  5
1177
330
1171
100
AcDbEntity
  8
DIM
 62
     0
370
    -2
100
AcDbBlockReference
  2
_DOT
 10
908.9392664947068
 20
384.3788480397004
 30
0.0
 41
3.0
 42
3.0
 43
3.0
  0
INSERT
  5
1178
330
1171
100
AcDbEntity
  8
DIM
 62
     0
370
    -2
100
AcDbBlockReference
  2
_DOT
 10
703.9392664947068
 20
384.3788480397004
 30
0.0
 41
3.0
 42
3.0
 43
3.0
 50
180.0
  0
MTEXT
  5
1179
330
1171
100
AcDbEntity
  8
DIM
 62
     0
 48
0.05
100
AcDbMText
 10
806.4392664947068
 20
400.3788480397004
 30
0.0
 40
12.0
 41
0.0
 46
0.0
 71
     5
 72
     1
  1
\A1;205
  7
ＭＳ ゴシック
 73
     1
 44
1.0
  0
POINT
  5
117A
330
1171
100
AcDbEntity
  8
Defpoints
 62
     0
100
AcDbPoint
 10
908.9392664947068
 20
488.7621895921516
 30
0.0
  0
POINT
  5
117B
330
1171
100
AcDbEntity
  8
Defpoints
 62
     0
100
AcDbPoint
 10
703.9392664947068
 20
488.3752514583529
 30
0.0
  0
POINT
  5
117C
330
1171
100
AcDbEntity
  8
Defpoints
 62
     0
100
AcDbPoint
 10
703.9392664947068
 20
384.3788480397004
 30
0.0
  0
ENDBLK
  5
1173
330
1171
100
AcDbEntity
  8
0
100
AcDbBlockEnd
  0
BLOCK
  5
117E
330
117D
100
AcDbEntity
  8
0
100
AcDbBlockBegin
  2
*D36
 70
     1
 10
0.0
 20
0.0
 30
0.0
  3
*D36
  1
*D37
  0
LINE
  5
1180
330
117D
100
AcDbEntity
  8
DIM
 62
     0
370
    -2
100
AcDbLine
 10
205.2764033607953
 20
1186.714087095206
 30
0.0
 11
205.2764033607953
 21
1218.31259349144
 31
0.0
  0
LINE
  5
1181
330
117D
100
AcDbEntity
  8
DIM
 62
     0
370
    -2
100
AcDbLine
 10
415.2764033607953
 20
1186.714087095206
 30
0.0
 11
415.2764033607953
 21
1218.31259349144
 31
0.0
  0
LINE
  5
1182
330
117D
100
AcDbEntity
  8
DIM
 62
     0
370
    -2
100
AcDbLine
 10
208.2764033607953
 20
1218.31259349144
 30
0.0
 11
412.2764033607953
 21
1218.31259349144
 31
0.0
  0
INSERT
  5
1183
330
117D
100
AcDbEntity
  8
DIM
 62
     0
370
    -2
100
AcDbBlockReference
  2
_DOT
 10
205.2764033607953
 20
1218.31259349144
 30
0.0
 41
3.0
 42
3.0
 43
3.0
 50
180.0
  0
INSERT
  5
1184
330
117D
100
AcDbEntity
  8
DIM
 62
     0
370
    -2
100
AcDbBlockReference
  2
_DOT
 10
415.2764033607953
 20
1218.31259349144
 30
0.0
 41
3.0
 42
3.0
 43
3.0
  0
MTEXT
  5
1185
330
117D
100
AcDbEntity
  8
DIM
 62
     0
 48
0.05
100
AcDbMText
 10
310.2764033607953
 20
1234.31259349144
 30
0.0
 40
12.0
 41
0.0
 46
0.0
 71
     5
 72
     1
  1
\A1;210
  7
ＭＳ ゴシック
 73
     1
 44
1.0
  0
POINT
  5
1186
330
117D
100
AcDbEntity
  8
Defpoints
 62
     0
100
AcDbPoint
 10
205.2764033607953
 20
1176.714087095206
 30
0.0
  0
POINT
  5
1187
330
117D
100
AcDbEntity
  8
Defpoints
 62
     0
100
AcDbPoint
 10
415.2764033607953
 20
1176.714087095206
 30
0.0
  0
POINT
  5
1188
330
117D
100
AcDbEntity
  8
Defpoints
 62
     0
100
AcDbPoint
 10
415.2764033607953
 20
1218.31259349144
 30
0.0
  0
ENDBLK
  5
117F
330
117D
100
AcDbEntity
  8
0
100
AcDbBlockEnd
  0
BLOCK
  5
118A
330
1189
100
AcDbEntity
  8
0
100
AcDbBlockBegin
  2
*D37
 70
     1
 10
0.0
 20
0.0
 30
0.0
  3
*D37
  1
*D38
  0
LINE
  5
118C
330
1189
100
AcDbEntity
  8
DIM
 62
     0
370
    -2
100
AcDbLine
 10
195.2764033607953
 20
987.7140870952064
 30
0.0
 11
195.2764033607953
 21
859.3582773930148
 31
0.0
  0
LINE
  5
118D
330
1189
100
AcDbEntity
  8
DIM
 62
     0
370
    -2
100
AcDbLine
 10
295.2764033607953
 20
987.7140870952064
 30
0.0
 11
295.2764033607953
 21
859.3582773930148
 31
0.0
  0
LINE
  5
118E
330
1189
100
AcDbEntity
  8
DIM
 62
     0
370
    -2
100
AcDbLine
 10
198.2764033607953
 20
859.3582773930148
 30
0.0
 11
292.2764033607953
 21
859.3582773930148
 31
0.0
  0
INSERT
  5
118F
330
1189
100
AcDbEntity
  8
DIM
 62
     0
370
    -2
100
AcDbBlockReference
  2
_DOT
 10
195.2764033607953
 20
859.3582773930148
 30
0.0
 41
3.0
 42
3.0
 43
3.0
 50
180.0
  0
INSERT
  5
1190
330
1189
100
AcDbEntity
  8
DIM
 62
     0
370
    -2
100
AcDbBlockReference
  2
_DOT
 10
295.2764033607953
 20
859.3582773930148
 30
0.0
 41
3.0
 42
3.0
 43
3.0
  0
MTEXT
  5
1191
330
1189
100
AcDbEntity
  8
DIM
 62
     0
 48
0.05
100
AcDbMText
 10
245.2764033607953
 20
875.3582773930148
 30
0.0
 40
12.0
 41
0.0
 46
0.0
 71
     5
 72
     1
  1
\A1;100
  7
ＭＳ ゴシック
 73
     1
 44
1.0
  0
POINT
  5
1192
330
1189
100
AcDbEntity
  8
Defpoints
 62
     0
100
AcDbPoint
 10
195.2764033607953
 20
997.7140870952064
 30
0.0
  0
POINT
  5
1193
330
1189
100
AcDbEntity
  8
Defpoints
 62
     0
100
AcDbPoint
 10
295.2764033607953
 20
997.7140870952064
 30
0.0
  0
POINT
  5
1194
330
1189
100
AcDbEntity
  8
Defpoints
 62
     0
100
AcDbPoint
 10
295.2764033607953
 20
859.3582773930148
 30
0.0
  0
ENDBLK
  5
118B
330
1189
100
AcDbEntity
  8
0
100
AcDbBlockEnd
  0
BLOCK
  5
1196
330
1195
100
AcDbEntity
  8
0
100
AcDbBlockBegin
  2
*D38
 70
     1
 10
0.0
 20
0.0
 30
0.0
  3
*D38
  1
*D39
  0
LINE
  5
1198
330
1195
100
AcDbEntity
  8
DIM
  6
Continuous
 62
     0
370
    -2
100
AcDbLine
 10
145.150127699518
 20
925.3054294638671
 30
0.0
 11
145.150127699518
 21
812.1266847240934
 31
0.0
  0
LINE
  5
1199
330
1195
100
AcDbEntity
  8
DIM
  6
Continuous
 62
     0
370
    -2
100
AcDbLine
 10
425.150127699518
 20
925.3054294638671
 30
0.0
 11
425.150127699518
 21
812.1266847240934
 31
0.0
  0
LINE
  5
119A
330
1195
100
AcDbEntity
  8
DIM
  6
Continuous
 62
     0
370
    -2
100
AcDbLine
 10
148.150127699518
 20
812.1266847240934
 30
0.0
 11
422.150127699518
 21
812.1266847240934
 31
0.0
  0
INSERT
  5
119B
330
1195
100
AcDbEntity
  8
DIM
 62
     0
370
    -2
100
AcDbBlockReference
  2
_DOT
 10
145.150127699518
 20
812.1266847240934
 30
0.0
 41
3.0
 42
3.0
 43
3.0
 50
180.0
  0
INSERT
  5
119C
330
1195
100
AcDbEntity
  8
DIM
 62
     0
370
    -2
100
AcDbBlockReference
  2
_DOT
 10
425.150127699518
 20
812.1266847240934
 30
0.0
 41
3.0
 42
3.0
 43
3.0
  0
MTEXT
  5
119D
330
1195
100
AcDbEntity
  8
DIM
 62
     0
 48
0.05
100
AcDbMText
 10
285.150127699518
 20
828.1266847240934
 30
0.0
 40
12.0
 41
0.0
 46
0.0
 71
     5
 72
     1
  1
\A1;280
  7
ＭＳ ゴシック
 73
     1
 44
1.0
  0
POINT
  5
119E
330
1195
100
AcDbEntity
  8
Defpoints
 62
     0
100
AcDbPoint
 10
145.150127699518
 20
935.3054294638671
 30
0.0
  0
POINT
  5
119F
330
1195
100
AcDbEntity
  8
Defpoints
 62
     0
100
AcDbPoint
 10
425.150127699518
 20
935.3054294638671
 30
0.0
  0
POINT
  5
11A0
330
1195
100
AcDbEntity
  8
Defpoints
 62
     0
100
AcDbPoint
 10
425.150127699518
 20
812.1266847240934
 30
0.0
  0
ENDBLK
  5
1197
330
1195
100
AcDbEntity
  8
0
100
AcDbBlockEnd
  0
BLOCK
  5
12C8
330
12C7
100
AcDbEntity
  8
0
100
AcDbBlockBegin
  2
*D39
 70
     1
 10
0.0
 20
0.0
 30
0.0
  3
*D39
  1
*D39
  0
LINE
  5
12CA
330
12C7
100
AcDbEntity
  8
DIM
 62
     0
 48
0.05
370
    -2
100
AcDbLine
 10
425.2764033607955
 20
1176.714087095206
 30
0.0
 11
600.8538489065252
 21
1176.714087095206
 31
0.0
  0
LINE
  5
12CB
330
12C7
100
AcDbEntity
  8
DIM
 62
     0
 48
0.05
370
    -2
100
AcDbLine
 10
425.2764033607955
 20
896.714087095206
 30
0.0
 11
600.8538489065252
 21
896.714087095206
 31
0.0
  0
LINE
  5
12CC
330
12C7
100
AcDbEntity
  8
DIM
 62
     0
 48
0.05
370
    -2
100
AcDbLine
 10
600.8538489065252
 20
1173.714087095206
 30
0.0
 11
600.8538489065252
 21
899.714087095206
 31
0.0
  0
INSERT
  5
12CD
330
12C7
100
AcDbEntity
  8
DIM
 62
     0
370
    -2
100
AcDbBlockReference
  2
_DOT
 10
600.8538489065252
 20
1176.714087095206
 30
0.0
 41
3.0
 42
3.0
 43
3.0
 50
90.0
  0
INSERT
  5
12CE
330
12C7
100
AcDbEntity
  8
DIM
 62
     0
370
    -2
100
AcDbBlockReference
  2
_DOT
 10
600.8538489065252
 20
896.714087095206
 30
0.0
 41
3.0
 42
3.0
 43
3.0
 50
270.0
  0
MTEXT
  5
12CF
330
12C7
100
AcDbEntity
  8
DIM
 62
     0
 48
0.05
100
AcDbMText
 10
584.8538489065252
 20
1036.714087095206
 30
0.0
 40
12.0
 41
0.0
 46
0.0
 71
     5
 72
     1
  1
\A1;280
  7
ＭＳ ゴシック
 11
0.0
 21
1.0
 31
0.0
 73
     1
 44
1.0
  0
POINT
  5
12D0
330
12C7
100
AcDbEntity
  8
Defpoints
 62
     0
100
AcDbPoint
 10
415.2764033607955
 20
1176.714087095206
 30
0.0
  0
POINT
  5
12D1
330
12C7
100
AcDbEntity
  8
Defpoints
 62
     0
100
AcDbPoint
 10
415.2764033607955
 20
896.714087095206
 30
0.0
  0
POINT
  5
12D2
330
12C7
100
AcDbEntity
  8
Defpoints
 62
     0
100
AcDbPoint
 10
600.8538489065252
 20
896.714087095206
 30
0.0
  0
ENDBLK
  5
12C9
330
12C7
100
AcDbEntity
  8
0
100
AcDbBlockEnd
  0
BLOCK
  5
1310
330
130F
100
AcDbEntity
  8
0
100
AcDbBlockBegin
  2
*D40
 70
     1
 10
0.0
 20
0.0
 30
0.0
  3
*D40
  1
*D39
  0
LINE
  5
1311
330
130F
100
AcDbEntity
  8
DIM
  6
Continuous
 62
     0
370
    -2
100
AcDbLine
 10
15.79705212087316
 20
119.0041976179725
 30
0.0
 11
15.79705212087316
 21
1.5
 31
0.0
  0
LINE
  5
1312
330
130F
100
AcDbEntity
  8
DIM
  6
Continuous
 62
     0
370
    -2
100
AcDbLine
 10
295.7970521208732
 20
119.0041976179725
 30
0.0
 11
295.7970521208732
 21
1.5
 31
0.0
  0
LINE
  5
1313
330
130F
100
AcDbEntity
  8
DIM
  6
Continuous
 62
     0
370
    -2
100
AcDbLine
 10
18.79705212087316
 20
1.5
 30
0.0
 11
292.7970521208732
 21
1.5
 31
0.0
  0
INSERT
  5
1314
330
130F
100
AcDbEntity
  8
DIM
 62
     0
370
    -2
100
AcDbBlockReference
  2
_DOT
 10
15.79705212087316
 20
1.5
 30
0.0
 41
3.0
 42
3.0
 43
3.0
 50
180.0
  0
INSERT
  5
1315
330
130F
100
AcDbEntity
  8
DIM
 62
     0
370
    -2
100
AcDbBlockReference
  2
_DOT
 10
295.7970521208732
 20
1.5
 30
0.0
 41
3.0
 42
3.0
 43
3.0
  0
MTEXT
  5
1316
330
130F
100
AcDbEntity
  8
DIM
 62
     0
 48
0.05
100
AcDbMText
 10
155.7970521208732
 20
17.5
 30
0.0
 40
12.0
 41
0.0
 46
0.0
 71
     5
 72
     1
  1
\A1;280
  7
ＭＳ ゴシック
 73
     1
 44
1.0
  0
POINT
  5
1317
330
130F
100
AcDbEntity
  8
Defpoints
 62
     0
100
AcDbPoint
 10
15.79705212087316
 20
129.0041976179725
 30
0.0
  0
POINT
  5
1318
330
130F
100
AcDbEntity
  8
Defpoints
 62
     0
100
AcDbPoint
 10
295.7970521208732
 20
129.0041976179725
 30
0.0
  0
POINT
  5
1319
330
130F
100
AcDbEntity
  8
Defpoints
 62
     0
100
AcDbPoint
 10
295.7970521208732
 20
1.5
 30
0.0
  0
ENDBLK
  5
131A
330
130F
100
AcDbEntity
  8
0
100
AcDbBlockEnd
  0
BLOCK
  5
131D
330
131C
100
AcDbEntity
  8
0
100
AcDbBlockBegin
  2
*D41
 70
     1
 10
0.0
 20
0.0
 30
0.0
  3
*D41
  1
*D42
  0
LINE
  5
131E
330
131C
100
AcDbEntity
  8
DIM
 62
     0
 48
0.05
370
    -2
100
AcDbLine
 10
345.7970521208732
 20
189.4128552484376
 30
0.0
 11
345.7970521208732
 21
1.5
 31
0.0
  0
LINE
  5
131F
330
131C
100
AcDbEntity
  8
DIM
 62
     0
 48
0.05
370
    -2
100
AcDbLine
 10
295.7970521208732
 20
189.4128552484376
 30
0.0
 11
295.7970521208732
 21
1.5
 31
0.0
  0
LINE
  5
1320
330
131C
100
AcDbEntity
  8
DIM
 62
     0
 48
0.05
370
    -2
100
AcDbLine
 10
342.7970521208732
 20
1.5
 30
0.0
 11
298.7970521208732
 21
1.5
 31
0.0
  0
INSERT
  5
1321
330
131C
100
AcDbEntity
  8
DIM
 62
     0
370
    -2
100
AcDbBlockReference
  2
_DOT
 10
345.7970521208732
 20
1.5
 30
0.0
 41
3.0
 42
3.0
 43
3.0
  0
INSERT
  5
1322
330
131C
100
AcDbEntity
  8
DIM
 62
     0
370
    -2
100
AcDbBlockReference
  2
_DOT
 10
295.7970521208732
 20
1.5
 30
0.0
 41
3.0
 42
3.0
 43
3.0
 50
180.0
  0
MTEXT
  5
1323
330
131C
100
AcDbEntity
  8
DIM
 62
     0
 48
0.05
100
AcDbMText
 10
320.7970521208732
 20
17.5
 30
0.0
 40
12.0
 41
0.0
 46
0.0
 71
     5
 72
     1
  1
\A1;50
  7
ＭＳ ゴシック
 73
     1
 44
1.0
  0
POINT
  5
1324
330
131C
100
AcDbEntity
  8
Defpoints
 62
     0
100
AcDbPoint
 10
345.7970521208732
 20
199.4128552484376
 30
0.0
  0
POINT
  5
1325
330
131C
100
AcDbEntity
  8
Defpoints
 62
     0
100
AcDbPoint
 10
295.7970521208732
 20
199.4128552484376
 30
0.0
  0
POINT
  5
1326
330
131C
100
AcDbEntity
  8
Defpoints
 62
     0
100
AcDbPoint
 10
295.7970521208732
 20
1.5
 30
0.0
  0
ENDBLK
  5
1327
330
131C
100
AcDbEntity
  8
0
100
AcDbBlockEnd
  0
BLOCK
  5
1332
330
1331
100
AcDbEntity
  8
0
100
AcDbBlockBegin
  2
*D42
 70
     1
 10
0.0
 20
0.0
 30
0.0
  3
*D42
  1
*D43
  0
LINE
  5
1334
330
1331
100
AcDbEntity
  8
DIM
  6
Continuous
 62
     0
370
    -2
100
AcDbLine
 10
161.0281257070251
 20
925.3054294638671
 30
0.0
 11
161.0281257070251
 21
829.5396588891837
 31
0.0
  0
LINE
  5
1335
330
1331
100
AcDbEntity
  8
DIM
  6
Continuous
 62
     0
370
    -2
100
AcDbLine
 10
441.0281257070251
 20
925.3054294638671
 30
0.0
 11
441.0281257070251
 21
829.5396588891837
 31
0.0
  0
LINE
  5
1336
330
1331
100
AcDbEntity
  8
DIM
  6
Continuous
 62
     0
370
    -2
100
AcDbLine
 10
164.0281257070251
 20
829.5396588891837
 30
0.0
 11
438.0281257070251
 21
829.5396588891837
 31
0.0
  0
INSERT
  5
1337
330
1331
100
AcDbEntity
  8
DIM
 62
     0
370
    -2
100
AcDbBlockReference
  2
_DOT
 10
161.0281257070251
 20
829.5396588891837
 30
0.0
 41
3.0
 42
3.0
 43
3.0
 50
180.0
  0
INSERT
  5
1338
330
1331
100
AcDbEntity
  8
DIM
 62
     0
370
    -2
100
AcDbBlockReference
  2
_DOT
 10
441.0281257070251
 20
829.5396588891837
 30
0.0
 41
3.0
 42
3.0
 43
3.0
  0
MTEXT
  5
1339
330
1331
100
AcDbEntity
  8
DIM
 62
     0
 48
0.05
100
AcDbMText
 10
301.0281257070251
 20
845.5396588891837
 30
0.0
 40
12.0
 41
0.0
 46
0.0
 71
     5
 72
     1
  1
\A1;280
  7
ＭＳ ゴシック
 73
     1
 44
1.0
  0
POINT
  5
133A
330
1331
100
AcDbEntity
  8
Defpoints
 62
     0
100
AcDbPoint
 10
161.0281257070251
 20
935.3054294638671
 30
0.0
  0
POINT
  5
133B
330
1331
100
AcDbEntity
  8
Defpoints
 62
     0
100
AcDbPoint
 10
441.0281257070251
 20
935.3054294638671
 30
0.0
  0
POINT
  5
133C
330
1331
100
AcDbEntity
  8
Defpoints
 62
     0
100
AcDbPoint
 10
441.0281257070251
 20
829.5396588891837
 30
0.0
  0
ENDBLK
  5
1333
330
1331
100
AcDbEntity
  8
0
100
AcDbBlockEnd
  0
BLOCK
  5
133E
330
133D
100
AcDbEntity
  8
0
100
AcDbBlockBegin
  2
*D43
 70
     1
 10
0.0
 20
0.0
 30
0.0
  3
*D43
  1
*D44
  0
LINE
  5
1340
330
133D
100
AcDbEntity
  8
DIM
 62
     0
 48
0.05
370
    -2
100
AcDbLine
 10
491.0281257070251
 20
995.714087094332
 30
0.0
 11
491.0281257070251
 21
829.5396588891837
 31
0.0
  0
LINE
  5
1341
330
133D
100
AcDbEntity
  8
DIM
 62
     0
 48
0.05
370
    -2
100
AcDbLine
 10
441.0281257070251
 20
995.714087094332
 30
0.0
 11
441.0281257070251
 21
829.5396588891837
 31
0.0
  0
LINE
  5
1342
330
133D
100
AcDbEntity
  8
DIM
 62
     0
 48
0.05
370
    -2
100
AcDbLine
 10
488.0281257070251
 20
829.5396588891837
 30
0.0
 11
444.0281257070251
 21
829.5396588891837
 31
0.0
  0
INSERT
  5
1343
330
133D
100
AcDbEntity
  8
DIM
 62
     0
370
    -2
100
AcDbBlockReference
  2
_DOT
 10
491.0281257070251
 20
829.5396588891837
 30
0.0
 41
3.0
 42
3.0
 43
3.0
  0
INSERT
  5
1344
330
133D
100
AcDbEntity
  8
DIM
 62
     0
370
    -2
100
AcDbBlockReference
  2
_DOT
 10
441.0281257070251
 20
829.5396588891837
 30
0.0
 41
3.0
 42
3.0
 43
3.0
 50
180.0
  0
MTEXT
  5
1345
330
133D
100
AcDbEntity
  8
DIM
 62
     0
 48
0.05
100
AcDbMText
 10
466.0281257070251
 20
845.5396588891837
 30
0.0
 40
12.0
 41
0.0
 46
0.0
 71
     5
 72
     1
  1
\A1;50
  7
ＭＳ ゴシック
 73
     1
 44
1.0
  0
POINT
  5
1346
330
133D
100
AcDbEntity
  8
Defpoints
 62
     0
100
AcDbPoint
 10
491.0281257070251
 20
1005.714087094332
 30
0.0
  0
POINT
  5
1347
330
133D
100
AcDbEntity
  8
Defpoints
 62
     0
100
AcDbPoint
 10
441.0281257070251
 20
1005.714087094332
 30
0.0
  0
POINT
  5
1348
330
133D
100
AcDbEntity
  8
Defpoints
 62
     0
100
AcDbPoint
 10
441.0281257070251
 20
829.5396588891837
 30
0.0
  0
ENDBLK
  5
133F
330
133D
100
AcDbEntity
  8
0
100
AcDbBlockEnd
  0
BLOCK
  5
135A
330
1359
100
AcDbEntity
  8
0
100
AcDbBlockBegin
  2
*D44
 70
     1
 10
0.0
 20
0.0
 30
0.0
  3
*D44
  1
*D45
  0
LINE
  5
135C
330
1359
100
AcDbEntity
  8
DIM
 62
     0
 48
0.05
370
    -2
100
AcDbLine
 10
121.0214204742331
 20
572.7621895921554
 30
0.0
 11
89.56328166111354
 21
572.7621895921554
 31
0.0
  0
LINE
  5
135D
330
1359
100
AcDbEntity
  8
DIM
 62
     0
 48
0.05
370
    -2
100
AcDbLine
 10
202.3173726974007
 20
524.7621895921554
 30
0.0
 11
89.56328166111354
 21
524.7621895921554
 31
0.0
  0
LINE
  5
135E
330
1359
100
AcDbEntity
  8
DIM
 62
     0
 48
0.05
370
    -2
100
AcDbLine
 10
89.56328166111354
 20
569.7621895921554
 30
0.0
 11
89.56328166111354
 21
527.7621895921554
 31
0.0
  0
INSERT
  5
135F
330
1359
100
AcDbEntity
  8
DIM
 62
     0
370
    -2
100
AcDbBlockReference
  2
_DOT
 10
89.56328166111354
 20
572.7621895921554
 30
0.0
 41
3.0
 42
3.0
 43
3.0
 50
90.0
  0
INSERT
  5
1360
330
1359
100
AcDbEntity
  8
DIM
 62
     0
370
    -2
100
AcDbBlockReference
  2
_DOT
 10
89.56328166111354
 20
524.7621895921554
 30
0.0
 41
3.0
 42
3.0
 43
3.0
 50
270.0
  0
MTEXT
  5
1361
330
1359
100
AcDbEntity
  8
DIM
 62
     0
 48
0.05
100
AcDbMText
 10
73.56328166111354
 20
548.7621895921554
 30
0.0
 40
12.0
 41
0.0
 46
0.0
 71
     5
 72
     1
  1
\A1;48
  7
ＭＳ ゴシック
 11
0.0
 21
1.0
 31
0.0
 73
     1
 44
1.0
  0
POINT
  5
1362
330
1359
100
AcDbEntity
  8
Defpoints
 62
     0
100
AcDbPoint
 10
131.0214204742331
 20
572.7621895921554
 30
0.0
  0
POINT
  5
1363
330
1359
100
AcDbEntity
  8
Defpoints
 62
     0
100
AcDbPoint
 10
212.3173726974007
 20
524.7621895921554
 30
0.0
  0
POINT
  5
1364
330
1359
100
AcDbEntity
  8
Defpoints
 62
     0
100
AcDbPoint
 10
89.56328166111354
 20
524.7621895921554
 30
0.0
  0
ENDBLK
  5
135B
330
1359
100
AcDbEntity
  8
0
100
AcDbBlockEnd
  0
BLOCK
  5
13EF
330
13EE
100
AcDbEntity
  8
0
100
AcDbBlockBegin
  2
*D45
 70
     1
 10
0.0
 20
0.0
 30
0.0
  3
*D45
  1
*D47
  0
LINE
  5
13F1
330
13EE
100
AcDbEntity
  8
DIM
 62
     0
 48
0.05
370
    -2
100
AcDbLine
 10
176.0214229614562
 20
488.7621895921516
 30
0.0
 11
160.4477317355967
 21
488.7621895921516
 31
0.0
  0
LINE
  5
13F2
330
13EE
100
AcDbEntity
  8
DIM
 62
     0
 48
0.05
370
    -2
100
AcDbLine
 10
209.8501740367108
 20
514.7621895921554
 30
0.0
 11
160.4477317355967
 21
514.7621895921554
 31
0.0
  0
LINE
  5
13F3
330
13EE
100
AcDbEntity
  8
DIM
 62
     0
 48
0.05
370
    -2
100
AcDbLine
 10
160.4477317355967
 20
485.7621895921516
 30
0.0
 11
160.4477317355967
 21
482.7621895921516
 31
0.0
  0
LINE
  5
13F4
330
13EE
100
AcDbEntity
  8
DIM
 62
     0
 48
0.05
370
    -2
100
AcDbLine
 10
160.4477317355967
 20
517.7621895921554
 30
0.0
 11
160.4477317355967
 21
520.7621895921554
 31
0.0
  0
INSERT
  5
13F5
330
13EE
100
AcDbEntity
  8
DIM
 62
     0
370
    -2
100
AcDbBlockReference
  2
_DOT
 10
160.4477317355967
 20
488.7621895921516
 30
0.0
 41
3.0
 42
3.0
 43
3.0
 50
90.0
  0
INSERT
  5
13F6
330
13EE
100
AcDbEntity
  8
DIM
 62
     0
370
    -2
100
AcDbBlockReference
  2
_DOT
 10
160.4477317355967
 20
514.7621895921554
 30
0.0
 41
3.0
 42
3.0
 43
3.0
 50
270.0
  0
MTEXT
  5
13F7
330
13EE
100
AcDbEntity
  8
DIM
 62
     0
 48
0.05
100
AcDbMText
 10
144.4477317355967
 20
501.7621895921535
 30
0.0
 40
12.0
 41
0.0
 46
0.0
 71
     5
 72
     1
  1
\A1;26
  7
ＭＳ ゴシック
 11
0.0
 21
1.0
 31
0.0
 73
     1
 44
1.0
  0
POINT
  5
13F8
330
13EE
100
AcDbEntity
  8
Defpoints
 62
     0
100
AcDbPoint
 10
186.0214229614562
 20
488.7621895921516
 30
0.0
  0
POINT
  5
13F9
330
13EE
100
AcDbEntity
  8
Defpoints
 62
     0
100
AcDbPoint
 10
219.8501740367108
 20
514.7621895921554
 30
0.0
  0
POINT
  5
13FA
330
13EE
100
AcDbEntity
  8
Defpoints
 62
     0
100
AcDbPoint
 10
160.4477317355967
 20
514.7621895921554
 30
0.0
  0
ENDBLK
  5
13F0
330
13EE
100
AcDbEntity
  8
0
100
AcDbBlockEnd
  0
BLOCK
  5
13FF
330
13FE
100
AcDbEntity
  8
0
100
AcDbBlockBegin
  2
*D46
 70
     1
 10
0.0
 20
0.0
 30
0.0
  3
*D46
  1
*D48
  0
LINE
  5
1401
330
13FE
100
AcDbEntity
  8
DIM
 62
     0
 48
0.05
370
    -2
100
AcDbLine
 10
176.0214224379511
 20
492.7621895921557
 30
0.0
 11
147.5197380800726
 21
492.7621895921557
 31
0.0
  0
LINE
  5
1402
330
13FE
100
AcDbEntity
  8
DIM
 62
     0
 48
0.05
370
    -2
100
AcDbLine
 10
226.021422374483
 20
514.7621895921554
 30
0.0
 11
147.5197380800726
 21
514.7621895921554
 31
0.0
  0
LINE
  5
1403
330
13FE
100
AcDbEntity
  8
DIM
 62
     0
 48
0.05
370
    -2
100
AcDbLine
 10
147.5197380800726
 20
489.7621895921557
 30
0.0
 11
147.5197380800726
 21
486.7621895921557
 31
0.0
  0
LINE
  5
1404
330
13FE
100
AcDbEntity
  8
DIM
 62
     0
 48
0.05
370
    -2
100
AcDbLine
 10
147.5197380800726
 20
517.7621895921554
 30
0.0
 11
147.5197380800726
 21
520.7621895921554
 31
0.0
  0
INSERT
  5
1405
330
13FE
100
AcDbEntity
  8
DIM
 62
     0
370
    -2
100
AcDbBlockReference
  2
_DOT
 10
147.5197380800726
 20
492.7621895921557
 30
0.0
 41
3.0
 42
3.0
 43
3.0
 50
90.0
  0
INSERT
  5
1406
330
13FE
100
AcDbEntity
  8
DIM
 62
     0
370
    -2
100
AcDbBlockReference
  2
_DOT
 10
147.5197380800726
 20
514.7621895921554
 30
0.0
 41
3.0
 42
3.0
 43
3.0
 50
270.0
  0
MTEXT
  5
1407
330
13FE
100
AcDbEntity
  8
DIM
 62
     0
 48
0.05
100
AcDbMText
 10
131.5197380800726
 20
503.7621895921556
 30
0.0
 40
12.0
 41
0.0
 46
0.0
 71
     5
 72
     1
  1
\A1;22
  7
ＭＳ ゴシック
 11
0.0
 21
1.0
 31
0.0
 73
     1
 44
1.0
  0
POINT
  5
1408
330
13FE
100
AcDbEntity
  8
Defpoints
 62
     0
100
AcDbPoint
 10
186.0214224379511
 20
492.7621895921557
 30
0.0
  0
POINT
  5
1409
330
13FE
100
AcDbEntity
  8
Defpoints
 62
     0
100
AcDbPoint
 10
236.021422374483
 20
514.7621895921554
 30
0.0
  0
POINT
  5
140A
330
13FE
100
AcDbEntity
  8
Defpoints
 62
     0
100
AcDbPoint
 10
147.5197380800726
 20
514.7621895921554
 30
0.0
  0
ENDBLK
  5
1400
330
13FE
100
AcDbEntity
  8
0
100
AcDbBlockEnd
  0
BLOCK
  5
145E
330
145D
100
AcDbEntity
  8
0
100
AcDbBlockBegin
  2
*D47
 70
     1
 10
0.0
 20
0.0
 30
0.0
  3
*D47
  1
*D50
  0
LINE
  5
145F
330
145D
100
AcDbEntity
  8
DIM
 62
     0
 48
0.05
370
    -2
100
AcDbLine
 10
429.1237875631441
 20
208.4724544389398
 30
0.0
 11
451.0
 21
208.4724544389398
 31
0.0
  0
LINE
  5
1460
330
145D
100
AcDbEntity
  8
DIM
 62
     0
 48
0.05
370
    -2
100
AcDbLine
 10
354.0
 20
115.4724544389398
 30
0.0
 11
451.0
 21
115.4724544389398
 31
0.0
  0
LINE
  5
1461
330
145D
100
AcDbEntity
  8
DIM
 62
     0
 48
0.05
370
    -2
100
AcDbLine
 10
451.0
 20
205.4724544389398
 30
0.0
 11
451.0
 21
118.4724544389398
 31
0.0
  0
INSERT
  5
1462
330
145D
100
AcDbEntity
  8
DIM
 62
     0
370
    -2
100
AcDbBlockReference
  2
_DOT
 10
451.0
 20
208.4724544389398
 30
0.0
 41
3.0
 42
3.0
 43
3.0
 50
90.0
  0
INSERT
  5
1463
330
145D
100
AcDbEntity
  8
DIM
 62
     0
370
    -2
100
AcDbBlockReference
  2
_DOT
 10
451.0
 20
115.4724544389398
 30
0.0
 41
3.0
 42
3.0
 43
3.0
 50
270.0
  0
MTEXT
  5
1464
330
145D
100
AcDbEntity
  8
DIM
 62
     0
 48
0.05
100
AcDbMText
 10
435.0
 20
161.9724544389398
 30
0.0
 40
12.0
 41
0.0
 46
0.0
 71
     5
 72
     1
  1
\A1;93
  7
ＭＳ ゴシック
 11
0.0
 21
1.0
 31
0.0
 73
     1
 44
1.0
  0
POINT
  5
1465
330
145D
100
AcDbEntity
  8
Defpoints
 62
     0
100
AcDbPoint
 10
419.1237875631441
 20
208.4724544389398
 30
0.0
  0
POINT
  5
1466
330
145D
100
AcDbEntity
  8
Defpoints
 62
     0
100
AcDbPoint
 10
344.0
 20
115.4724544389398
 30
0.0
  0
POINT
  5
1467
330
145D
100
AcDbEntity
  8
Defpoints
 62
     0
100
AcDbPoint
 10
451.0
 20
115.4724544389398
 30
0.0
  0
ENDBLK
  5
1468
330
145D
100
AcDbEntity
  8
0
100
AcDbBlockEnd
  0
BLOCK
  5
146B
330
146A
100
AcDbEntity
  8
0
100
AcDbBlockBegin
  2
*D48
 70
     1
 10
0.0
 20
0.0
 30
0.0
  3
*D48
  1
*D51
  0
LINE
  5
146C
330
146A
100
AcDbEntity
  8
DIM
 62
     0
 48
0.05
370
    -2
100
AcDbLine
 10
429.1237875631441
 20
208.4724544389398
 30
0.0
 11
487.0
 21
208.4724544389398
 31
0.0
  0
LINE
  5
146D
330
146A
100
AcDbEntity
  8
DIM
 62
     0
 48
0.05
370
    -2
100
AcDbLine
 10
205.148084028249
 20
95.47245443893985
 30
0.0
 11
487.0
 21
95.47245443893985
 31
0.0
  0
LINE
  5
146E
330
146A
100
AcDbEntity
  8
DIM
 62
     0
 48
0.05
370
    -2
100
AcDbLine
 10
487.0
 20
205.4724544389398
 30
0.0
 11
487.0
 21
98.47245443893985
 31
0.0
  0
INSERT
  5
146F
330
146A
100
AcDbEntity
  8
DIM
 62
     0
370
    -2
100
AcDbBlockReference
  2
_DOT
 10
487.0
 20
208.4724544389398
 30
0.0
 41
3.0
 42
3.0
 43
3.0
 50
90.0
  0
INSERT
  5
1470
330
146A
100
AcDbEntity
  8
DIM
 62
     0
370
    -2
100
AcDbBlockReference
  2
_DOT
 10
487.0
 20
95.47245443893985
 30
0.0
 41
3.0
 42
3.0
 43
3.0
 50
270.0
  0
MTEXT
  5
1471
330
146A
100
AcDbEntity
  8
DIM
 62
     0
 48
0.05
100
AcDbMText
 10
471.0
 20
151.9724544389398
 30
0.0
 40
12.0
 41
0.0
 46
0.0
 71
     5
 72
     1
  1
\A1;113
  7
ＭＳ ゴシック
 11
0.0
 21
1.0
 31
0.0
 73
     1
 44
1.0
  0
POINT
  5
1472
330
146A
100
AcDbEntity
  8
Defpoints
 62
     0
100
AcDbPoint
 10
419.1237875631441
 20
208.4724544389398
 30
0.0
  0
POINT
  5
1473
330
146A
100
AcDbEntity
  8
Defpoints
 62
     0
100
AcDbPoint
 10
195.148084028249
 20
95.47245443893985
 30
0.0
  0
POINT
  5
1474
330
146A
100
AcDbEntity
  8
Defpoints
 62
     0
100
AcDbPoint
 10
487.0
 20
95.47245443893983
 30
0.0
  0
ENDBLK
  5
1475
330
146A
100
AcDbEntity
  8
0
100
AcDbBlockEnd
  0
BLOCK
  5
1479
330
1478
100
AcDbEntity
  8
0
100
AcDbBlockBegin
  2
*D49
 70
     1
 10
0.0
 20
0.0
 30
0.0
  3
*D49
  1
*D52
  0
LINE
  5
147A
330
1478
100
AcDbEntity
  8
DIM
 62
     0
 48
0.05
370
    -2
100
AcDbLine
 10
59.12378756314433
 20
188.109301420185
 30
0.0
 11
59.12378756314433
 21
1.5
 31
0.0
  0
LINE
  5
147B
330
1478
100
AcDbEntity
  8
DIM
 62
     0
 48
0.05
370
    -2
100
AcDbLine
 10
174.1114369197617
 20
25.8357611945487
 30
0.0
 11
174.1114369197617
 21
1.5
 31
0.0
  0
LINE
  5
147C
330
1478
100
AcDbEntity
  8
DIM
 62
     0
 48
0.05
370
    -2
100
AcDbLine
 10
62.12378756314433
 20
1.5
 30
0.0
 11
171.1114369197617
 21
1.5
 31
0.0
  0
INSERT
  5
147D
330
1478
100
AcDbEntity
  8
DIM
 62
     0
370
    -2
100
AcDbBlockReference
  2
_DOT
 10
59.12378756314433
 20
1.5
 30
0.0
 41
3.0
 42
3.0
 43
3.0
 50
180.0
  0
INSERT
  5
147E
330
1478
100
AcDbEntity
  8
DIM
 62
     0
370
    -2
100
AcDbBlockReference
  2
_DOT
 10
174.1114369197617
 20
1.5
 30
0.0
 41
3.0
 42
3.0
 43
3.0
  0
MTEXT
  5
147F
330
1478
100
AcDbEntity
  8
DIM
 62
     0
 48
0.05
100
AcDbMText
 10
116.617612241453
 20
17.5
 30
0.0
 40
12.0
 41
0.0
 46
0.0
 71
     5
 72
     1
  1
\A1;115
  7
ＭＳ ゴシック
 73
     1
 44
1.0
  0
POINT
  5
1480
330
1478
100
AcDbEntity
  8
Defpoints
 62
     0
100
AcDbPoint
 10
59.12378756314433
 20
198.109301420185
 30
0.0
  0
POINT
  5
1481
330
1478
100
AcDbEntity
  8
Defpoints
 62
     0
100
AcDbPoint
 10
174.1114369197617
 20
35.8357611945487
 30
0.0
  0
POINT
  5
1482
330
1478
100
AcDbEntity
  8
Defpoints
 62
     0
100
AcDbPoint
 10
174.1114369197617
 20
1.5
 30
0.0
  0
ENDBLK
  5
1483
330
1478
100
AcDbEntity
  8
0
100
AcDbBlockEnd
  0
BLOCK
  5
1486
330
1485
100
AcDbEntity
  8
0
100
AcDbBlockBegin
  2
*D50
 70
     1
 10
0.0
 20
0.0
 30
0.0
  3
*D50
  1
*D53
  0
LINE
  5
1487
330
1485
100
AcDbEntity
  8
DIM
 62
     0
 48
0.05
370
    -2
100
AcDbLine
 10
49.12378756314411
 20
208.4724544389398
 30
0.0
 11
22.0
 21
208.4724544389398
 31
0.0
  0
LINE
  5
1488
330
1485
100
AcDbEntity
  8
DIM
 62
     0
 48
0.05
370
    -2
100
AcDbLine
 10
130.8638523776548
 20
150.4724544389398
 30
0.0
 11
22.0
 21
150.4724544389398
 31
0.0
  0
LINE
  5
1489
330
1485
100
AcDbEntity
  8
DIM
 62
     0
 48
0.05
370
    -2
100
AcDbLine
 10
22.0
 20
205.4724544389398
 30
0.0
 11
22.0
 21
153.4724544389398
 31
0.0
  0
INSERT
  5
148A
330
1485
100
AcDbEntity
  8
DIM
 62
     0
370
    -2
100
AcDbBlockReference
  2
_DOT
 10
22.0
 20
208.4724544389398
 30
0.0
 41
3.0
 42
3.0
 43
3.0
 50
90.0
  0
INSERT
  5
148B
330
1485
100
AcDbEntity
  8
DIM
 62
     0
370
    -2
100
AcDbBlockReference
  2
_DOT
 10
22.0
 20
150.4724544389398
 30
0.0
 41
3.0
 42
3.0
 43
3.0
 50
270.0
  0
MTEXT
  5
148C
330
1485
100
AcDbEntity
  8
DIM
 62
     0
 48
0.05
100
AcDbMText
 10
6.0
 20
179.4724544389398
 30
0.0
 40
12.0
 41
0.0
 46
0.0
 71
     5
 72
     1
  1
\A1;58
  7
ＭＳ ゴシック
 11
6.125368411725002E-17
 21
1.0
 31
0.0
 73
     1
 44
1.0
  0
POINT
  5
148D
330
1485
100
AcDbEntity
  8
Defpoints
 62
     0
100
AcDbPoint
 10
59.12378756314411
 20
208.4724544389398
 30
0.0
  0
POINT
  5
148E
330
1485
100
AcDbEntity
  8
Defpoints
 62
     0
100
AcDbPoint
 10
140.8638523776548
 20
150.4724544389398
 30
0.0
  0
POINT
  5
148F
330
1485
100
AcDbEntity
  8
Defpoints
 62
     0
100
AcDbPoint
 10
22.0
 20
150.4724544389398
 30
0.0
  0
ENDBLK
  5
1490
330
1485
100
AcDbEntity
  8
0
100
AcDbBlockEnd
  0
BLOCK
  5
1498
330
1497
100
AcDbEntity
  8
0
100
AcDbBlockBegin
  2
*D51
 70
     1
 10
0.0
 20
0.0
 30
0.0
  3
*D51
  1
*D54
  0
LINE
  5
1499
330
1497
100
AcDbEntity
  8
DIM
 62
     0
370
    -2
100
AcDbLine
 10
164.1114367966015
 20
184.1765041160222
 30
0.0
 11
164.1114367966015
 21
240.905271945144
 31
0.0
  0
LINE
  5
149A
330
1497
100
AcDbEntity
  8
DIM
 62
     0
370
    -2
100
AcDbLine
 10
264.1114367966015
 20
184.1765041160221
 30
0.0
 11
264.1114367966015
 21
240.905271945144
 31
0.0
  0
LINE
  5
149B
330
1497
100
AcDbEntity
  8
DIM
 62
     0
370
    -2
100
AcDbLine
 10
167.1114367966015
 20
240.905271945144
 30
0.0
 11
261.1114367966015
 21
240.905271945144
 31
0.0
  0
INSERT
  5
149C
330
1497
100
AcDbEntity
  8
DIM
 62
     0
370
    -2
100
AcDbBlockReference
  2
_DOT
 10
164.1114367966015
 20
240.905271945144
 30
0.0
 41
3.0
 42
3.0
 43
3.0
 50
180.0
  0
INSERT
  5
149D
330
1497
100
AcDbEntity
  8
DIM
 62
     0
370
    -2
100
AcDbBlockReference
  2
_DOT
 10
264.1114367966015
 20
240.905271945144
 30
0.0
 41
3.0
 42
3.0
 43
3.0
  0
MTEXT
  5
149E
330
1497
100
AcDbEntity
  8
DIM
 62
     0
 48
0.05
100
AcDbMText
 10
214.1114367966013
 20
256.905271945144
 30
0.0
 40
12.0
 41
0.0
 46
0.0
 71
     5
 72
     1
  1
\A1;100
  7
ＭＳ ゴシック
 73
     1
 44
1.0
  0
POINT
  5
149F
330
1497
100
AcDbEntity
  8
Defpoints
 62
     0
100
AcDbPoint
 10
164.1114367966015
 20
174.1765041160222
 30
0.0
  0
POINT
  5
14A0
330
1497
100
AcDbEntity
  8
Defpoints
 62
     0
100
AcDbPoint
 10
264.1114367966015
 20
174.1765041160221
 30
0.0
  0
POINT
  5
14A1
330
1497
100
AcDbEntity
  8
Defpoints
 62
     0
100
AcDbPoint
 10
264.1114367966015
 20
240.905271945144
 30
0.0
  0
ENDBLK
  5
14A2
330
1497
100
AcDbEntity
  8
0
100
AcDbBlockEnd
  0
BLOCK
  5
14C2
330
14C1
100
AcDbEntity
  8
0
100
AcDbBlockBegin
  2
*D52
 70
     1
 10
0.0
 20
0.0
 30
0.0
  3
*D52
  1
*D55
  0
LINE
  5
14C3
330
14C1
100
AcDbEntity
  8
DIM
 62
     0
 48
0.05
370
    -2
100
AcDbLine
 10
153.1114369197616
 20
85.47245443893985
 30
0.0
 11
153.1114369197616
 21
63.95691564836005
 31
0.0
  0
LINE
  5
14C4
330
14C1
100
AcDbEntity
  8
DIM
 62
     0
 48
0.05
370
    -2
100
AcDbLine
 10
195.1114369197616
 20
85.47245443893985
 30
0.0
 11
195.1114369197616
 21
63.95691564836005
 31
0.0
  0
LINE
  5
14C5
330
14C1
100
AcDbEntity
  8
DIM
 62
     0
 48
0.05
370
    -2
100
AcDbLine
 10
156.1114369197616
 20
63.95691564836005
 30
0.0
 11
192.1114369197616
 21
63.95691564836005
 31
0.0
  0
INSERT
  5
14C6
330
14C1
100
AcDbEntity
  8
DIM
 62
     0
370
    -2
100
AcDbBlockReference
  2
_DOT
 10
153.1114369197616
 20
63.95691564836005
 30
0.0
 41
3.0
 42
3.0
 43
3.0
 50
180.0
  0
INSERT
  5
14C7
330
14C1
100
AcDbEntity
  8
DIM
 62
     0
370
    -2
100
AcDbBlockReference
  2
_DOT
 10
195.1114369197616
 20
63.95691564836005
 30
0.0
 41
3.0
 42
3.0
 43
3.0
  0
MTEXT
  5
14C8
330
14C1
100
AcDbEntity
  8
DIM
 62
     0
 48
0.05
100
AcDbMText
 10
174.1114369197616
 20
46.67891564836005
 30
0.0
 40
12.0
 41
0.0
 46
0.0
 71
     5
 72
     1
  1
\A1;G1 1/4"
  7
ＭＳ ゴシック
 73
     1
 44
1.0
  0
POINT
  5
14C9
330
14C1
100
AcDbEntity
  8
Defpoints
 62
     0
100
AcDbPoint
 10
153.1114369197616
 20
95.47245443893985
 30
0.0
  0
POINT
  5
14CA
330
14C1
100
AcDbEntity
  8
Defpoints
 62
     0
100
AcDbPoint
 10
195.1114369197616
 20
95.47245443893985
 30
0.0
  0
POINT
  5
14CB
330
14C1
100
AcDbEntity
  8
Defpoints
 62
     0
100
AcDbPoint
 10
195.1114369197616
 20
63.95691564836005
 30
0.0
  0
ENDBLK
  5
14CC
330
14C1
100
AcDbEntity
  8
0
100
AcDbBlockEnd
  0
BLOCK
  5
14E6
330
14E5
100
AcDbEntity
  8
0
100
AcDbBlockBegin
  2
*D53
 70
     1
 10
0.0
 20
0.0
 30
0.0
  3
*D53
  1
*D56
  0
LINE
  5
14E7
330
14E5
100
AcDbEntity
  8
DIM
 62
     0
 48
0.05
370
    -2
100
AcDbLine
 10
134.9400859320676
 20
115.4724544389398
 30
0.0
 11
129.2075362444811
 21
115.4724544389398
 31
0.0
  0
LINE
  5
14E8
330
14E5
100
AcDbEntity
  8
DIM
 62
     0
 48
0.05
370
    -2
100
AcDbLine
 10
143.1114369197616
 20
95.47245443893985
 30
0.0
 11
129.2075362444811
 21
95.47245443893985
 31
0.0
  0
LINE
  5
14E9
330
14E5
100
AcDbEntity
  8
DIM
 62
     0
 48
0.05
370
    -2
100
AcDbLine
 10
129.2075362444811
 20
112.4724544389398
 30
0.0
 11
129.2075362444811
 21
98.47245443893985
 31
0.0
  0
INSERT
  5
14EA
330
14E5
100
AcDbEntity
  8
DIM
 62
     0
370
    -2
100
AcDbBlockReference
  2
_DOT
 10
129.2075362444811
 20
115.4724544389398
 30
0.0
 41
3.0
 42
3.0
 43
3.0
 50
90.0
  0
INSERT
  5
14EB
330
14E5
100
AcDbEntity
  8
DIM
 62
     0
370
    -2
100
AcDbBlockReference
  2
_DOT
 10
129.2075362444811
 20
95.47245443893985
 30
0.0
 41
3.0
 42
3.0
 43
3.0
 50
270.0
  0
MTEXT
  5
14EC
330
14E5
100
AcDbEntity
  8
DIM
 62
     0
 48
0.05
100
AcDbMText
 10
113.2075362444811
 20
105.4724544389398
 30
0.0
 40
12.0
 41
0.0
 46
0.0
 71
     5
 72
     1
  1
\A1;20
  7
ＭＳ ゴシック
 11
0.0
 21
1.0
 31
0.0
 73
     1
 44
1.0
  0
POINT
  5
14ED
330
14E5
100
AcDbEntity
  8
Defpoints
 62
     0
100
AcDbPoint
 10
144.9400859320676
 20
115.4724544389398
 30
0.0
  0
POINT
  5
14EE
330
14E5
100
AcDbEntity
  8
Defpoints
 62
     0
100
AcDbPoint
 10
153.1114369197616
 20
95.47245443893985
 30
0.0
  0
POINT
  5
14EF
330
14E5
100
AcDbEntity
  8
Defpoints
 62
     0
100
AcDbPoint
 10
129.2075362444811
 20
95.47245443893985
 30
0.0
  0
ENDBLK
  5
14F0
330
14E5
100
AcDbEntity
  8
0
100
AcDbBlockEnd
  0
BLOCK
  5
155C
330
155B
100
AcDbEntity
  8
0
100
AcDbBlockBegin
  2
*D54
 70
     1
 10
0.0
 20
0.0
 30
0.0
  3
*D54
  1
*D57
  0
LINE
  5
155E
330
155B
100
AcDbEntity
  8
DIM
 62
     0
 48
0.05
370
    -2
100
AcDbLine
 10
-171.2783277078011
 20
545.5969394698543
 30
0.0
 11
-149.4021152709452
 21
545.5969394698543
 31
0.0
  0
LINE
  5
155F
330
155B
100
AcDbEntity
  8
DIM
 62
     0
 48
0.05
370
    -2
100
AcDbLine
 10
-246.4021152709452
 20
452.5969394698543
 30
0.0
 11
-149.4021152709452
 21
452.5969394698543
 31
0.0
  0
LINE
  5
1560
330
155B
100
AcDbEntity
  8
DIM
 62
     0
 48
0.05
370
    -2
100
AcDbLine
 10
-149.4021152709452
 20
542.5969394698543
 30
0.0
 11
-149.4021152709452
 21
455.5969394698543
 31
0.0
  0
INSERT
  5
1561
330
155B
100
AcDbEntity
  8
DIM
 62
     0
370
    -2
100
AcDbBlockReference
  2
_DOT
 10
-149.4021152709452
 20
545.5969394698543
 30
0.0
 41
3.0
 42
3.0
 43
3.0
 50
90.0
  0
INSERT
  5
1562
330
155B
100
AcDbEntity
  8
DIM
 62
     0
370
    -2
100
AcDbBlockReference
  2
_DOT
 10
-149.4021152709452
 20
452.5969394698543
 30
0.0
 41
3.0
 42
3.0
 43
3.0
 50
270.0
  0
MTEXT
  5
1563
330
155B
100
AcDbEntity
  8
DIM
 62
     0
 48
0.05
100
AcDbMText
 10
-165.4021152709452
 20
499.0969394698543
 30
0.0
 40
12.0
 41
0.0
 46
0.0
 71
     5
 72
     1
  1
\A1;93
  7
ＭＳ ゴシック
 11
0.0
 21
1.0
 31
0.0
 73
     1
 44
1.0
  0
POINT
  5
1564
330
155B
100
AcDbEntity
  8
Defpoints
 62
     0
100
AcDbPoint
 10
-181.2783277078011
 20
545.5969394698543
 30
0.0
  0
POINT
  5
1565
330
155B
100
AcDbEntity
  8
Defpoints
 62
     0
100
AcDbPoint
 10
-256.4021152709452
 20
452.5969394698543
 30
0.0
  0
POINT
  5
1566
330
155B
100
AcDbEntity
  8
Defpoints
 62
     0
100
AcDbPoint
 10
-149.4021152709452
 20
452.5969394698543
 30
0.0
  0
ENDBLK
  5
155D
330
155B
100
AcDbEntity
  8
0
100
AcDbBlockEnd
  0
BLOCK
  5
1568
330
1567
100
AcDbEntity
  8
0
100
AcDbBlockBegin
  2
*D55
 70
     1
 10
0.0
 20
0.0
 30
0.0
  3
*D55
  1
*D58
  0
LINE
  5
156A
330
1567
100
AcDbEntity
  8
DIM
 62
     0
 48
0.05
370
    -2
100
AcDbLine
 10
-171.2783277078011
 20
545.5969394698543
 30
0.0
 11
-113.4021152709452
 21
545.5969394698543
 31
0.0
  0
LINE
  5
156B
330
1567
100
AcDbEntity
  8
DIM
 62
     0
 48
0.05
370
    -2
100
AcDbLine
 10
-395.2540312426962
 20
432.5969394698543
 30
0.0
 11
-113.4021152709452
 21
432.5969394698543
 31
0.0
  0
LINE
  5
156C
330
1567
100
AcDbEntity
  8
DIM
 62
     0
 48
0.05
370
    -2
100
AcDbLine
 10
-113.4021152709452
 20
542.5969394698543
 30
0.0
 11
-113.4021152709452
 21
435.5969394698543
 31
0.0
  0
INSERT
  5
156D
330
1567
100
AcDbEntity
  8
DIM
 62
     0
370
    -2
100
AcDbBlockReference
  2
_DOT
 10
-113.4021152709452
 20
545.5969394698543
 30
0.0
 41
3.0
 42
3.0
 43
3.0
 50
90.0
  0
INSERT
  5
156E
330
1567
100
AcDbEntity
  8
DIM
 62
     0
370
    -2
100
AcDbBlockReference
  2
_DOT
 10
-113.4021152709452
 20
432.5969394698543
 30
0.0
 41
3.0
 42
3.0
 43
3.0
 50
270.0
  0
MTEXT
  5
156F
330
1567
100
AcDbEntity
  8
DIM
 62
     0
 48
0.05
100
AcDbMText
 10
-129.4021152709452
 20
489.0969394698543
 30
0.0
 40
12.0
 41
0.0
 46
0.0
 71
     5
 72
     1
  1
\A1;113
  7
ＭＳ ゴシック
 11
0.0
 21
1.0
 31
0.0
 73
     1
 44
1.0
  0
POINT
  5
1570
330
1567
100
AcDbEntity
  8
Defpoints
 62
     0
100
AcDbPoint
 10
-181.2783277078011
 20
545.5969394698543
 30
0.0
  0
POINT
  5
1571
330
1567
100
AcDbEntity
  8
Defpoints
 62
     0
100
AcDbPoint
 10
-405.2540312426962
 20
432.5969394698543
 30
0.0
  0
POINT
  5
1572
330
1567
100
AcDbEntity
  8
Defpoints
 62
     0
100
AcDbPoint
 10
-113.4021152709452
 20
432.5969394698543
 30
0.0
  0
ENDBLK
  5
1569
330
1567
100
AcDbEntity
  8
0
100
AcDbBlockEnd
  0
BLOCK
  5
1574
330
1573
100
AcDbEntity
  8
0
100
AcDbBlockBegin
  2
*D56
 70
     1
 10
0.0
 20
0.0
 30
0.0
  3
*D56
  1
*D59
  0
LINE
  5
1576
330
1573
100
AcDbEntity
  8
DIM
 62
     0
 48
0.05
370
    -2
100
AcDbLine
 10
-541.2783277078008
 20
525.2337864510995
 30
0.0
 11
-541.2783277078008
 21
338.6244850309145
 31
0.0
  0
LINE
  5
1577
330
1573
100
AcDbEntity
  8
DIM
 62
     0
 48
0.05
370
    -2
100
AcDbLine
 10
-426.2906783511835
 20
362.9602462254632
 30
0.0
 11
-426.2906783511835
 21
338.6244850309145
 31
0.0
  0
LINE
  5
1578
330
1573
100
AcDbEntity
  8
DIM
 62
     0
 48
0.05
370
    -2
100
AcDbLine
 10
-538.2783277078008
 20
338.6244850309145
 30
0.0
 11
-429.2906783511835
 21
338.6244850309145
 31
0.0
  0
INSERT
  5
1579
330
1573
100
AcDbEntity
  8
DIM
 62
     0
370
    -2
100
AcDbBlockReference
  2
_DOT
 10
-541.2783277078008
 20
338.6244850309145
 30
0.0
 41
3.0
 42
3.0
 43
3.0
 50
180.0
  0
INSERT
  5
157A
330
1573
100
AcDbEntity
  8
DIM
 62
     0
370
    -2
100
AcDbBlockReference
  2
_DOT
 10
-426.2906783511835
 20
338.6244850309145
 30
0.0
 41
3.0
 42
3.0
 43
3.0
  0
MTEXT
  5
157B
330
1573
100
AcDbEntity
  8
DIM
 62
     0
 48
0.05
100
AcDbMText
 10
-483.7845030294922
 20
354.6244850309145
 30
0.0
 40
12.0
 41
0.0
 46
0.0
 71
     5
 72
     1
  1
\A1;115
  7
ＭＳ ゴシック
 73
     1
 44
1.0
  0
POINT
  5
157C
330
1573
100
AcDbEntity
  8
Defpoints
 62
     0
100
AcDbPoint
 10
-541.2783277078008
 20
535.2337864510995
 30
0.0
  0
POINT
  5
157D
330
1573
100
AcDbEntity
  8
Defpoints
 62
     0
100
AcDbPoint
 10
-426.2906783511835
 20
372.9602462254632
 30
0.0
  0
POINT
  5
157E
330
1573
100
AcDbEntity
  8
Defpoints
 62
     0
100
AcDbPoint
 10
-426.2906783511835
 20
338.6244850309145
 30
0.0
  0
ENDBLK
  5
1575
330
1573
100
AcDbEntity
  8
0
100
AcDbBlockEnd
  0
BLOCK
  5
1580
330
157F
100
AcDbEntity
  8
0
100
AcDbBlockBegin
  2
*D57
 70
     1
 10
0.0
 20
0.0
 30
0.0
  3
*D57
  1
*D60
  0
LINE
  5
1582
330
157F
100
AcDbEntity
  8
DIM
 62
     0
 48
0.05
370
    -2
100
AcDbLine
 10
-551.278327707801
 20
545.5969394698543
 30
0.0
 11
-578.4021152709452
 21
545.5969394698543
 31
0.0
  0
LINE
  5
1583
330
157F
100
AcDbEntity
  8
DIM
 62
     0
 48
0.05
370
    -2
100
AcDbLine
 10
-469.5382628932904
 20
487.5969394698543
 30
0.0
 11
-578.4021152709452
 21
487.5969394698543
 31
0.0
  0
LINE
  5
1584
330
157F
100
AcDbEntity
  8
DIM
 62
     0
 48
0.05
370
    -2
100
AcDbLine
 10
-578.4021152709452
 20
542.5969394698543
 30
0.0
 11
-578.4021152709452
 21
490.5969394698543
 31
0.0
  0
INSERT
  5
1585
330
157F
100
AcDbEntity
  8
DIM
 62
     0
370
    -2
100
AcDbBlockReference
  2
_DOT
 10
-578.4021152709452
 20
545.5969394698543
 30
0.0
 41
3.0
 42
3.0
 43
3.0
 50
90.0
  0
INSERT
  5
1586
330
157F
100
AcDbEntity
  8
DIM
 62
     0
370
    -2
100
AcDbBlockReference
  2
_DOT
 10
-578.4021152709452
 20
487.5969394698543
 30
0.0
 41
3.0
 42
3.0
 43
3.0
 50
270.0
  0
MTEXT
  5
1587
330
157F
100
AcDbEntity
  8
DIM
 62
     0
 48
0.05
100
AcDbMText
 10
-594.4021152709452
 20
516.5969394698543
 30
0.0
 40
12.0
 41
0.0
 46
0.0
 71
     5
 72
     1
  1
\A1;58
  7
ＭＳ ゴシック
 11
0.0
 21
1.0
 31
0.0
 73
     1
 44
1.0
  0
POINT
  5
1588
330
157F
100
AcDbEntity
  8
Defpoints
 62
     0
100
AcDbPoint
 10
-541.278327707801
 20
545.5969394698543
 30
0.0
  0
POINT
  5
1589
330
157F
100
AcDbEntity
  8
Defpoints
 62
     0
100
AcDbPoint
 10
-459.5382628932904
 20
487.5969394698543
 30
0.0
  0
POINT
  5
158A
330
157F
100
AcDbEntity
  8
Defpoints
 62
     0
100
AcDbPoint
 10
-578.4021152709452
 20
487.5969394698543
 30
0.0
  0
ENDBLK
  5
1581
330
157F
100
AcDbEntity
  8
0
100
AcDbBlockEnd
  0
BLOCK
  5
158C
330
158B
100
AcDbEntity
  8
0
100
AcDbBlockBegin
  2
*D58
 70
     1
 10
0.0
 20
0.0
 30
0.0
  3
*D58
  1
*D61
  0
LINE
  5
158E
330
158B
100
AcDbEntity
  8
DIM
 62
     0
370
    -2
100
AcDbLine
 10
-436.2906784743436
 20
521.3009891469367
 30
0.0
 11
-436.2906784743436
 21
578.0297569760585
 31
0.0
  0
LINE
  5
158F
330
158B
100
AcDbEntity
  8
DIM
 62
     0
370
    -2
100
AcDbLine
 10
-336.2906784743437
 20
521.3009891469366
 30
0.0
 11
-336.2906784743437
 21
578.0297569760585
 31
0.0
  0
LINE
  5
1590
330
158B
100
AcDbEntity
  8
DIM
 62
     0
370
    -2
100
AcDbLine
 10
-433.2906784743436
 20
578.0297569760585
 30
0.0
 11
-339.2906784743437
 21
578.0297569760585
 31
0.0
  0
INSERT
  5
1591
330
158B
100
AcDbEntity
  8
DIM
 62
     0
370
    -2
100
AcDbBlockReference
  2
_DOT
 10
-436.2906784743436
 20
578.0297569760585
 30
0.0
 41
3.0
 42
3.0
 43
3.0
 50
180.0
  0
INSERT
  5
1592
330
158B
100
AcDbEntity
  8
DIM
 62
     0
370
    -2
100
AcDbBlockReference
  2
_DOT
 10
-336.2906784743437
 20
578.0297569760585
 30
0.0
 41
3.0
 42
3.0
 43
3.0
  0
MTEXT
  5
1593
330
158B
100
AcDbEntity
  8
DIM
 62
     0
 48
0.05
100
AcDbMText
 10
-386.2906784743438
 20
594.0297569760585
 30
0.0
 40
12.0
 41
0.0
 46
0.0
 71
     5
 72
     1
  1
\A1;100
  7
ＭＳ ゴシック
 73
     1
 44
1.0
  0
POINT
  5
1594
330
158B
100
AcDbEntity
  8
Defpoints
 62
     0
100
AcDbPoint
 10
-436.2906784743436
 20
511.3009891469367
 30
0.0
  0
POINT
  5
1595
330
158B
100
AcDbEntity
  8
Defpoints
 62
     0
100
AcDbPoint
 10
-336.2906784743437
 20
511.3009891469366
 30
0.0
  0
POINT
  5
1596
330
158B
100
AcDbEntity
  8
Defpoints
 62
     0
100
AcDbPoint
 10
-336.2906784743437
 20
578.0297569760585
 30
0.0
  0
ENDBLK
  5
158D
330
158B
100
AcDbEntity
  8
0
100
AcDbBlockEnd
  0
BLOCK
  5
1598
330
1597
100
AcDbEntity
  8
0
100
AcDbBlockBegin
  2
*D59
 70
     1
 10
0.0
 20
0.0
 30
0.0
  3
*D59
  1
*D62
  0
LINE
  5
159A
330
1597
100
AcDbEntity
  8
DIM
 62
     0
 48
0.05
370
    -2
100
AcDbLine
 10
-447.2906783511835
 20
422.5969394698543
 30
0.0
 11
-447.2906783511835
 21
401.0814006792745
 31
0.0
  0
LINE
  5
159B
330
1597
100
AcDbEntity
  8
DIM
 62
     0
 48
0.05
370
    -2
100
AcDbLine
 10
-405.2906783511835
 20
422.5969394698543
 30
0.0
 11
-405.2906783511835
 21
401.0814006792745
 31
0.0
  0
LINE
  5
159C
330
1597
100
AcDbEntity
  8
DIM
 62
     0
 48
0.05
370
    -2
100
AcDbLine
 10
-444.2906783511835
 20
401.0814006792745
 30
0.0
 11
-408.2906783511835
 21
401.0814006792745
 31
0.0
  0
INSERT
  5
159D
330
1597
100
AcDbEntity
  8
DIM
 62
     0
370
    -2
100
AcDbBlockReference
  2
_DOT
 10
-447.2906783511835
 20
401.0814006792745
 30
0.0
 41
3.0
 42
3.0
 43
3.0
 50
180.0
  0
INSERT
  5
159E
330
1597
100
AcDbEntity
  8
DIM
 62
     0
370
    -2
100
AcDbBlockReference
  2
_DOT
 10
-405.2906783511835
 20
401.0814006792745
 30
0.0
 41
3.0
 42
3.0
 43
3.0
  0
MTEXT
  5
159F
330
1597
100
AcDbEntity
  8
DIM
 62
     0
 48
0.05
100
AcDbMText
 10
-426.2906783511835
 20
383.8034006792745
 30
0.0
 40
12.0
 41
0.0
 46
0.0
 71
     5
 72
     1
  1
\A1;G1 1/4"
  7
ＭＳ ゴシック
 73
     1
 44
1.0
  0
POINT
  5
15A0
330
1597
100
AcDbEntity
  8
Defpoints
 62
     0
100
AcDbPoint
 10
-447.2906783511835
 20
432.5969394698543
 30
0.0
  0
POINT
  5
15A1
330
1597
100
AcDbEntity
  8
Defpoints
 62
     0
100
AcDbPoint
 10
-405.2906783511835
 20
432.5969394698543
 30
0.0
  0
POINT
  5
15A2
330
1597
100
AcDbEntity
  8
Defpoints
 62
     0
100
AcDbPoint
 10
-405.2906783511835
 20
401.0814006792745
 30
0.0
  0
ENDBLK
  5
1599
330
1597
100
AcDbEntity
  8
0
100
AcDbBlockEnd
  0
BLOCK
  5
15A4
330
15A3
100
AcDbEntity
  8
0
100
AcDbBlockBegin
  2
*D60
 70
     1
 10
0.0
 20
0.0
 30
0.0
  3
*D60
  1
*D63
  0
LINE
  5
15A6
330
15A3
100
AcDbEntity
  8
DIM
 62
     0
 48
0.05
370
    -2
100
AcDbLine
 10
-465.4620293388776
 20
452.5969394698543
 30
0.0
 11
-471.1945790264641
 21
452.5969394698543
 31
0.0
  0
LINE
  5
15A7
330
15A3
100
AcDbEntity
  8
DIM
 62
     0
 48
0.05
370
    -2
100
AcDbLine
 10
-457.2906783511835
 20
432.5969394698543
 30
0.0
 11
-471.1945790264641
 21
432.5969394698543
 31
0.0
  0
LINE
  5
15A8
330
15A3
100
AcDbEntity
  8
DIM
 62
     0
 48
0.05
370
    -2
100
AcDbLine
 10
-471.1945790264641
 20
449.5969394698543
 30
0.0
 11
-471.1945790264641
 21
435.5969394698543
 31
0.0
  0
INSERT
  5
15A9
330
15A3
100
AcDbEntity
  8
DIM
 62
     0
370
    -2
100
AcDbBlockReference
  2
_DOT
 10
-471.1945790264641
 20
452.5969394698543
 30
0.0
 41
3.0
 42
3.0
 43
3.0
 50
90.0
  0
INSERT
  5
15AA
330
15A3
100
AcDbEntity
  8
DIM
 62
     0
370
    -2
100
AcDbBlockReference
  2
_DOT
 10
-471.1945790264641
 20
432.5969394698543
 30
0.0
 41
3.0
 42
3.0
 43
3.0
 50
270.0
  0
MTEXT
  5
15AB
330
15A3
100
AcDbEntity
  8
DIM
 62
     0
 48
0.05
100
AcDbMText
 10
-487.1945790264641
 20
442.5969394698543
 30
0.0
 40
12.0
 41
0.0
 46
0.0
 71
     5
 72
     1
  1
\A1;20
  7
ＭＳ ゴシック
 11
0.0
 21
1.0
 31
0.0
 73
     1
 44
1.0
  0
POINT
  5
15AC
330
15A3
100
AcDbEntity
  8
Defpoints
 62
     0
100
AcDbPoint
 10
-455.4620293388776
 20
452.5969394698543
 30
0.0
  0
POINT
  5
15AD
330
15A3
100
AcDbEntity
  8
Defpoints
 62
     0
100
AcDbPoint
 10
-447.2906783511835
 20
432.5969394698543
 30
0.0
  0
POINT
  5
15AE
330
15A3
100
AcDbEntity
  8
Defpoints
 62
     0
100
AcDbPoint
 10
-471.1945790264641
 20
432.5969394698543
 30
0.0
  0
ENDBLK
  5
15A5
330
15A3
100
AcDbEntity
  8
0
100
AcDbBlockEnd
  0
BLOCK
  5
1621
330
1620
100
AcDbEntity
  8
0
100
AcDbBlockBegin
  2
*D61
 70
     1
 10
0.0
 20
0.0
 30
0.0
  3
*D61
  1
*D64
  0
LINE
  5
1623
330
1620
100
AcDbEntity
  8
DIM
 62
     0
 48
0.05
370
    -2
100
AcDbLine
 10
501.028125309869
 20
572.7621895921554
 30
0.0
 11
518.3731533128922
 21
572.7621895921554
 31
0.0
  0
LINE
  5
1624
330
1620
100
AcDbEntity
  8
DIM
 62
     0
 48
0.05
370
    -2
100
AcDbLine
 10
426.0214223744829
 20
489.7621895921554
 30
0.0
 11
518.3731533128922
 21
489.7621895921554
 31
0.0
  0
LINE
  5
1625
330
1620
100
AcDbEntity
  8
DIM
 62
     0
 48
0.05
370
    -2
100
AcDbLine
 10
518.3731533128922
 20
569.7621895921554
 30
0.0
 11
518.3731533128922
 21
492.7621895921554
 31
0.0
  0
INSERT
  5
1626
330
1620
100
AcDbEntity
  8
DIM
 62
     0
370
    -2
100
AcDbBlockReference
  2
_DOT
 10
518.3731533128922
 20
572.7621895921554
 30
0.0
 41
3.0
 42
3.0
 43
3.0
 50
90.0
  0
INSERT
  5
1627
330
1620
100
AcDbEntity
  8
DIM
 62
     0
370
    -2
100
AcDbBlockReference
  2
_DOT
 10
518.3731533128922
 20
489.7621895921554
 30
0.0
 41
3.0
 42
3.0
 43
3.0
 50
270.0
  0
MTEXT
  5
1628
330
1620
100
AcDbEntity
  8
DIM
 62
     0
 48
0.05
100
AcDbMText
 10
502.3731533128922
 20
531.2621895921554
 30
0.0
 40
12.0
 41
0.0
 46
0.0
 71
     5
 72
     1
  1
\A1;83
  7
ＭＳ ゴシック
 11
0.0
 21
1.0
 31
0.0
 73
     1
 44
1.0
  0
POINT
  5
1629
330
1620
100
AcDbEntity
  8
Defpoints
 62
     0
100
AcDbPoint
 10
491.028125309869
 20
572.7621895921554
 30
0.0
  0
POINT
  5
162A
330
1620
100
AcDbEntity
  8
Defpoints
 62
     0
100
AcDbPoint
 10
416.0214223744829
 20
489.7621895921554
 30
0.0
  0
POINT
  5
162B
330
1620
100
AcDbEntity
  8
Defpoints
 62
     0
100
AcDbPoint
 10
518.3731533128922
 20
489.7621895921554
 30
0.0
  0
ENDBLK
  5
1622
330
1620
100
AcDbEntity
  8
0
100
AcDbBlockEnd
  0
BLOCK
  5
167C
330
167B
100
AcDbEntity
  8
0
100
AcDbBlockBegin
  2
*D62
 70
     1
 10
0.0
 20
0.0
 30
0.0
  3
*D62
  1
*D65
  0
LINE
  5
167E
330
167B
100
AcDbEntity
  8
DIM
 62
     0
 48
0.05
370
    -2
100
AcDbLine
 10
501.028125309869
 20
572.7621895921554
 30
0.0
 11
556.2896058455182
 21
572.7621895921554
 31
0.0
  0
LINE
  5
167F
330
167B
100
AcDbEntity
  8
DIM
 62
     0
 48
0.05
370
    -2
100
AcDbLine
 10
278.6325007606027
 20
469.7621895921554
 30
0.0
 11
556.2896058455182
 21
469.7621895921554
 31
0.0
  0
LINE
  5
1680
330
167B
100
AcDbEntity
  8
DIM
 62
     0
 48
0.05
370
    -2
100
AcDbLine
 10
556.2896058455182
 20
569.7621895921554
 30
0.0
 11
556.2896058455182
 21
472.7621895921554
 31
0.0
  0
INSERT
  5
1681
330
167B
100
AcDbEntity
  8
DIM
 62
     0
370
    -2
100
AcDbBlockReference
  2
_DOT
 10
556.2896058455182
 20
572.7621895921554
 30
0.0
 41
3.0
 42
3.0
 43
3.0
 50
90.0
  0
INSERT
  5
1682
330
167B
100
AcDbEntity
  8
DIM
 62
     0
370
    -2
100
AcDbBlockReference
  2
_DOT
 10
556.2896058455182
 20
469.7621895921554
 30
0.0
 41
3.0
 42
3.0
 43
3.0
 50
270.0
  0
MTEXT
  5
1683
330
167B
100
AcDbEntity
  8
DIM
 62
     0
 48
0.05
100
AcDbMText
 10
540.2896058455182
 20
521.2621895921554
 30
0.0
 40
12.0
 41
0.0
 46
0.0
 71
     5
 72
     1
  1
\A1;103
  7
ＭＳ ゴシック
 11
0.0
 21
1.0
 31
0.0
 73
     1
 44
1.0
  0
POINT
  5
1684
330
167B
100
AcDbEntity
  8
Defpoints
 62
     0
100
AcDbPoint
 10
491.028125309869
 20
572.7621895921554
 30
0.0
  0
POINT
  5
1685
330
167B
100
AcDbEntity
  8
Defpoints
 62
     0
100
AcDbPoint
 10
268.6325007606027
 20
469.7621895921554
 30
0.0
  0
POINT
  5
1686
330
167B
100
AcDbEntity
  8
Defpoints
 62
     0
100
AcDbPoint
 10
556.2896058455182
 20
469.7621895921554
 30
0.0
  0
ENDBLK
  5
167D
330
167B
100
AcDbEntity
  8
0
100
AcDbBlockEnd
  0
BLOCK
  5
16CA
330
16C9
100
AcDbEntity
  8
0
100
AcDbBlockBegin
  2
*D63
 70
     1
 10
0.0
 20
0.0
 30
0.0
  3
*D63
  1
*D67
  0
LINE
  5
16CB
330
16C9
100
AcDbEntity
  8
DIM
 62
     0
 48
0.05
370
    -2
100
AcDbLine
 10
45.90390067528057
 20
45.64553879057979
 30
0.0
 11
45.90390067528057
 21
24.13
 31
0.0
  0
LINE
  5
16CC
330
16C9
100
AcDbEntity
  8
DIM
 62
     0
 48
0.05
370
    -2
100
AcDbLine
 10
87.90390067528057
 20
45.64553879057979
 30
0.0
 11
87.90390067528057
 21
24.13
 31
0.0
  0
LINE
  5
16CD
330
16C9
100
AcDbEntity
  8
DIM
 62
     0
 48
0.05
370
    -2
100
AcDbLine
 10
48.90390067528057
 20
24.13
 30
0.0
 11
84.90390067528057
 21
24.13
 31
0.0
  0
INSERT
  5
16CE
330
16C9
100
AcDbEntity
  8
DIM
 62
     0
370
    -2
100
AcDbBlockReference
  2
_DOT
 10
45.90390067528057
 20
24.13
 30
0.0
 41
3.0
 42
3.0
 43
3.0
 50
180.0
  0
INSERT
  5
16CF
330
16C9
100
AcDbEntity
  8
DIM
 62
     0
370
    -2
100
AcDbBlockReference
  2
_DOT
 10
87.90390067528057
 20
24.13
 30
0.0
 41
3.0
 42
3.0
 43
3.0
  0
MTEXT
  5
16D0
330
16C9
100
AcDbEntity
  8
DIM
 62
     0
 48
0.05
100
AcDbMText
 10
66.90390067528057
 20
6.851999999999997
 30
0.0
 40
12.0
 41
0.0
 46
0.0
 71
     5
 72
     1
  1
\A1;G1 1/4"
  7
ＭＳ ゴシック
 73
     1
 44
1.0
  0
POINT
  5
16D1
330
16C9
100
AcDbEntity
  8
Defpoints
 62
     0
100
AcDbPoint
 10
45.90390067528057
 20
55.64553879057979
 30
0.0
  0
POINT
  5
16D2
330
16C9
100
AcDbEntity
  8
Defpoints
 62
     0
100
AcDbPoint
 10
87.90390067528057
 20
55.64553879057979
 30
0.0
  0
POINT
  5
16D3
330
16C9
100
AcDbEntity
  8
Defpoints
 62
     0
100
AcDbPoint
 10
87.90390067528057
 20
24.13
 30
0.0
  0
ENDBLK
  5
16D4
330
16C9
100
AcDbEntity
  8
0
100
AcDbBlockEnd
  0
BLOCK
  5
16D9
330
16D8
100
AcDbEntity
  8
0
100
AcDbBlockBegin
  2
*D64
 70
     1
 10
0.0
 20
0.0
 30
0.0
  3
*D64
  1
*D68
  0
LINE
  5
16DA
330
16D8
100
AcDbEntity
  8
DIM
 62
     0
 48
0.05
370
    -2
100
AcDbLine
 10
27.73254968758653
 20
75.64553879057979
 30
0.0
 11
22.00000000000003
 21
75.64553879057979
 31
0.0
  0
LINE
  5
16DB
330
16D8
100
AcDbEntity
  8
DIM
 62
     0
 48
0.05
370
    -2
100
AcDbLine
 10
35.90390067528057
 20
55.64553879057979
 30
0.0
 11
22.00000000000003
 21
55.64553879057979
 31
0.0
  0
LINE
  5
16DC
330
16D8
100
AcDbEntity
  8
DIM
 62
     0
 48
0.05
370
    -2
100
AcDbLine
 10
22.00000000000003
 20
72.64553879057979
 30
0.0
 11
22.00000000000003
 21
58.64553879057979
 31
0.0
  0
INSERT
  5
16DD
330
16D8
100
AcDbEntity
  8
DIM
 62
     0
370
    -2
100
AcDbBlockReference
  2
_DOT
 10
22.00000000000003
 20
75.64553879057979
 30
0.0
 41
3.0
 42
3.0
 43
3.0
 50
90.0
  0
INSERT
  5
16DE
330
16D8
100
AcDbEntity
  8
DIM
 62
     0
370
    -2
100
AcDbBlockReference
  2
_DOT
 10
22.00000000000003
 20
55.64553879057979
 30
0.0
 41
3.0
 42
3.0
 43
3.0
 50
270.0
  0
MTEXT
  5
16DF
330
16D8
100
AcDbEntity
  8
DIM
 62
     0
 48
0.05
100
AcDbMText
 10
6.000000000000028
 20
65.64553879057979
 30
0.0
 40
12.0
 41
0.0
 46
0.0
 71
     5
 72
     1
  1
\A1;20
  7
ＭＳ ゴシック
 11
0.0
 21
1.0
 31
0.0
 73
     1
 44
1.0
  0
POINT
  5
16E0
330
16D8
100
AcDbEntity
  8
Defpoints
 62
     0
100
AcDbPoint
 10
37.73254968758653
 20
75.64553879057979
 30
0.0
  0
POINT
  5
16E1
330
16D8
100
AcDbEntity
  8
Defpoints
 62
     0
100
AcDbPoint
 10
45.90390067528057
 20
55.64553879057979
 30
0.0
  0
POINT
  5
16E2
330
16D8
100
AcDbEntity
  8
Defpoints
 62
     0
100
AcDbPoint
 10
22.00000000000003
 20
55.64553879057979
 30
0.0
  0
ENDBLK
  5
16E3
330
16D8
100
AcDbEntity
  8
0
100
AcDbBlockEnd
  0
BLOCK
  5
1700
330
16FF
100
AcDbEntity
  8
0
100
AcDbBlockBegin
  2
*D65
 70
     1
 10
0.0
 20
0.0
 30
0.0
  3
*D65
  1
*D69
  0
LINE
  5
1702
330
16FF
100
AcDbEntity
  8
DIM
 62
     0
 48
0.05
370
    -2
100
AcDbLine
 10
225.0214224062165
 20
459.7621895921554
 30
0.0
 11
225.0214224062165
 21
438.2466508015756
 31
0.0
  0
LINE
  5
1703
330
16FF
100
AcDbEntity
  8
DIM
 62
     0
 48
0.05
370
    -2
100
AcDbLine
 10
267.0214224062165
 20
459.7621895921554
 30
0.0
 11
267.0214224062165
 21
438.2466508015756
 31
0.0
  0
LINE
  5
1704
330
16FF
100
AcDbEntity
  8
DIM
 62
     0
 48
0.05
370
    -2
100
AcDbLine
 10
228.0214224062165
 20
438.2466508015756
 30
0.0
 11
264.0214224062165
 21
438.2466508015756
 31
0.0
  0
INSERT
  5
1705
330
16FF
100
AcDbEntity
  8
DIM
 62
     0
370
    -2
100
AcDbBlockReference
  2
_DOT
 10
225.0214224062165
 20
438.2466508015756
 30
0.0
 41
3.0
 42
3.0
 43
3.0
 50
180.0
  0
INSERT
  5
1706
330
16FF
100
AcDbEntity
  8
DIM
 62
     0
370
    -2
100
AcDbBlockReference
  2
_DOT
 10
267.0214224062165
 20
438.2466508015756
 30
0.0
 41
3.0
 42
3.0
 43
3.0
  0
MTEXT
  5
1707
330
16FF
100
AcDbEntity
  8
DIM
 62
     0
 48
0.05
100
AcDbMText
 10
246.0214224062165
 20
420.9686508015756
 30
0.0
 40
12.0
 41
0.0
 46
0.0
 71
     5
 72
     1
  1
\A1;G1 1/4"
  7
ＭＳ ゴシック
 73
     1
 44
1.0
  0
POINT
  5
1708
330
16FF
100
AcDbEntity
  8
Defpoints
 62
     0
100
AcDbPoint
 10
225.0214224062165
 20
469.7621895921554
 30
0.0
  0
POINT
  5
1709
330
16FF
100
AcDbEntity
  8
Defpoints
 62
     0
100
AcDbPoint
 10
267.0214224062165
 20
469.7621895921554
 30
0.0
  0
POINT
  5
170A
330
16FF
100
AcDbEntity
  8
Defpoints
 62
     0
100
AcDbPoint
 10
267.0214224062165
 20
438.2466508015756
 30
0.0
  0
ENDBLK
  5
1701
330
16FF
100
AcDbEntity
  8
0
100
AcDbBlockEnd
  0
BLOCK
  5
170C
330
170B
100
AcDbEntity
  8
0
100
AcDbBlockBegin
  2
*D66
 70
     1
 10
0.0
 20
0.0
 30
0.0
  3
*D66
  1
*D70
  0
LINE
  5
170E
330
170B
100
AcDbEntity
  8
DIM
 62
     0
 48
0.05
370
    -2
100
AcDbLine
 10
206.8500714185224
 20
489.7621895921554
 30
0.0
 11
201.1175217309359
 21
489.7621895921554
 31
0.0
  0
LINE
  5
170F
330
170B
100
AcDbEntity
  8
DIM
 62
     0
 48
0.05
370
    -2
100
AcDbLine
 10
215.0214224062165
 20
469.7621895921554
 30
0.0
 11
201.1175217309359
 21
469.7621895921554
 31
0.0
  0
LINE
  5
1710
330
170B
100
AcDbEntity
  8
DIM
 62
     0
 48
0.05
370
    -2
100
AcDbLine
 10
201.1175217309359
 20
486.7621895921554
 30
0.0
 11
201.1175217309359
 21
472.7621895921554
 31
0.0
  0
INSERT
  5
1711
330
170B
100
AcDbEntity
  8
DIM
 62
     0
370
    -2
100
AcDbBlockReference
  2
_DOT
 10
201.1175217309359
 20
489.7621895921554
 30
0.0
 41
3.0
 42
3.0
 43
3.0
 50
90.0
  0
INSERT
  5
1712
330
170B
100
AcDbEntity
  8
DIM
 62
     0
370
    -2
100
AcDbBlockReference
  2
_DOT
 10
201.1175217309359
 20
469.7621895921554
 30
0.0
 41
3.0
 42
3.0
 43
3.0
 50
270.0
  0
MTEXT
  5
1713
330
170B
100
AcDbEntity
  8
DIM
 62
     0
 48
0.05
100
AcDbMText
 10
185.1175217309359
 20
479.7621895921554
 30
0.0
 40
12.0
 41
0.0
 46
0.0
 71
     5
 72
     1
  1
\A1;20
  7
ＭＳ ゴシック
 11
0.0
 21
1.0
 31
0.0
 73
     1
 44
1.0
  0
POINT
  5
1714
330
170B
100
AcDbEntity
  8
Defpoints
 62
     0
100
AcDbPoint
 10
216.8500714185224
 20
489.7621895921554
 30
0.0
  0
POINT
  5
1715
330
170B
100
AcDbEntity
  8
Defpoints
 62
     0
100
AcDbPoint
 10
225.0214224062165
 20
469.7621895921554
 30
0.0
  0
POINT
  5
1716
330
170B
100
AcDbEntity
  8
Defpoints
 62
     0
100
AcDbPoint
 10
201.1175217309359
 20
469.7621895921554
 30
0.0
  0
ENDBLK
  5
170D
330
170B
100
AcDbEntity
  8
0
100
AcDbBlockEnd
  0
BLOCK
  5
1783
330
1782
100
AcDbEntity
  8
0
100
AcDbBlockBegin
  2
*D67
 70
     1
 10
0.0
 20
0.0
 30
0.0
  3
*D67
  1
*D72
  0
LINE
  5
1785
330
1782
100
AcDbEntity
  8
DIM
 62
     0
 48
0.05
370
    -2
100
AcDbLine
 10
908.9392664947068
 20
478.7621895921516
 30
0.0
 11
908.9392664947068
 21
424.6545465076897
 31
0.0
  0
LINE
  5
1786
330
1782
100
AcDbEntity
  8
DIM
 62
     0
 48
0.05
370
    -2
100
AcDbLine
 10
738.9392664947068
 20
458.7621895921516
 30
0.0
 11
738.9392664947068
 21
424.6545465076897
 31
0.0
  0
LINE
  5
1787
330
1782
100
AcDbEntity
  8
DIM
 62
     0
 48
0.05
370
    -2
100
AcDbLine
 10
905.9392664947068
 20
424.6545465076897
 30
0.0
 11
741.9392664947068
 21
424.6545465076897
 31
0.0
  0
INSERT
  5
1788
330
1782
100
AcDbEntity
  8
DIM
 62
     0
370
    -2
100
AcDbBlockReference
  2
_DOT
 10
908.9392664947068
 20
424.6545465076897
 30
0.0
 41
3.0
 42
3.0
 43
3.0
  0
INSERT
  5
1789
330
1782
100
AcDbEntity
  8
DIM
 62
     0
370
    -2
100
AcDbBlockReference
  2
_DOT
 10
738.9392664947068
 20
424.6545465076897
 30
0.0
 41
3.0
 42
3.0
 43
3.0
 50
180.0
  0
MTEXT
  5
178A
330
1782
100
AcDbEntity
  8
DIM
 62
     0
 48
0.05
100
AcDbMText
 10
823.9392664947068
 20
440.6545465076897
 30
0.0
 40
12.0
 41
0.0
 46
0.0
 71
     5
 72
     1
  1
\A1;170
  7
ＭＳ ゴシック
 73
     1
 44
1.0
  0
POINT
  5
178B
330
1782
100
AcDbEntity
  8
Defpoints
 62
     0
100
AcDbPoint
 10
908.9392664947068
 20
488.7621895921516
 30
0.0
  0
POINT
  5
178C
330
1782
100
AcDbEntity
  8
Defpoints
 62
     0
100
AcDbPoint
 10
738.9392664947068
 20
468.7621895921516
 30
0.0
  0
POINT
  5
178D
330
1782
100
AcDbEntity
  8
Defpoints
 62
     0
100
AcDbPoint
 10
738.9392664947068
 20
424.6545465076897
 30
0.0
  0
ENDBLK
  5
1784
330
1782
100
AcDbEntity
  8
0
100
AcDbBlockEnd
  0
BLOCK
  5
17DA
330
17D9
100
AcDbEntity
  8
0
100
AcDbBlockBegin
  2
*D68
 70
     1
 10
0.0
 20
0.0
 30
0.0
  3
*D68
  1
*D73
  0
LINE
  5
17DC
330
17D9
100
AcDbEntity
  8
DIM
 62
     0
 48
0.05
370
    -2
100
AcDbLine
 10
619.0411177737601
 20
572.7621895921554
 30
0.0
 11
602.6319367187277
 21
572.7621895921554
 31
0.0
  0
LINE
  5
17DD
330
17D9
100
AcDbEntity
  8
DIM
 62
     0
 48
0.05
370
    -2
100
AcDbLine
 10
687.953038518282
 20
492.7621895921554
 30
0.0
 11
602.6319367187277
 21
492.7621895921554
 31
0.0
  0
LINE
  5
17DE
330
17D9
100
AcDbEntity
  8
DIM
 62
     0
 48
0.05
370
    -2
100
AcDbLine
 10
602.6319367187277
 20
569.7621895921554
 30
0.0
 11
602.6319367187277
 21
495.7621895921554
 31
0.0
  0
INSERT
  5
17DF
330
17D9
100
AcDbEntity
  8
DIM
 62
     0
370
    -2
100
AcDbBlockReference
  2
_DOT
 10
602.6319367187277
 20
572.7621895921554
 30
0.0
 41
3.0
 42
3.0
 43
3.0
 50
90.0
  0
INSERT
  5
17E0
330
17D9
100
AcDbEntity
  8
DIM
 62
     0
370
    -2
100
AcDbBlockReference
  2
_DOT
 10
602.6319367187277
 20
492.7621895921554
 30
0.0
 41
3.0
 42
3.0
 43
3.0
 50
270.0
  0
MTEXT
  5
17E1
330
17D9
100
AcDbEntity
  8
DIM
 62
     0
 48
0.05
100
AcDbMText
 10
586.6319367187277
 20
532.7621895921554
 30
0.0
 40
12.0
 41
0.0
 46
0.0
 71
     5
 72
     1
  1
\A1;80
  7
ＭＳ ゴシック
 11
0.0
 21
1.0
 31
0.0
 73
     1
 44
1.0
  0
POINT
  5
17E2
330
17D9
100
AcDbEntity
  8
Defpoints
 62
     0
100
AcDbPoint
 10
629.0411177737601
 20
572.7621895921554
 30
0.0
  0
POINT
  5
17E3
330
17D9
100
AcDbEntity
  8
Defpoints
 62
     0
100
AcDbPoint
 10
697.953038518282
 20
492.7621895921554
 30
0.0
  0
POINT
  5
17E4
330
17D9
100
AcDbEntity
  8
Defpoints
 62
     0
100
AcDbPoint
 10
602.6319367187277
 20
492.7621895921554
 30
0.0
  0
ENDBLK
  5
17DB
330
17D9
100
AcDbEntity
  8
0
100
AcDbBlockEnd
  0
BLOCK
  5
185D
330
185C
100
AcDbEntity
  8
0
100
AcDbBlockBegin
  2
*D69
 70
     1
 10
0.0
 20
0.0
 30
0.0
  3
*D69
  1
*D51
  0
LINE
  5
185E
330
185C
100
AcDbEntity
  8
DIM
 62
     0
 48
0.05
370
    -2
100
AcDbLine
 10
48.0
 20
19.87499810159284
 30
0.0
 11
48.0
 21
47.91291351625978
 31
0.0
  0
LINE
  5
185F
330
185C
100
AcDbEntity
  8
DIM
 62
     0
 48
0.05
370
    -2
100
AcDbLine
 10
16.0
 20
19.87499810159284
 30
0.0
 11
16.0
 21
47.91291351625978
 31
0.0
  0
LINE
  5
1860
330
185C
100
AcDbEntity
  8
DIM
 62
     0
 48
0.05
370
    -2
100
AcDbLine
 10
45.0
 20
47.91291351625978
 30
0.0
 11
19.0
 21
47.91291351625978
 31
0.0
  0
INSERT
  5
1861
330
185C
100
AcDbEntity
  8
DIM
 62
     0
370
    -2
100
AcDbBlockReference
  2
_DOT
 10
48.0
 20
47.91291351625978
 30
0.0
 41
3.0
 42
3.0
 43
3.0
  0
INSERT
  5
1862
330
185C
100
AcDbEntity
  8
DIM
 62
     0
370
    -2
100
AcDbBlockReference
  2
_DOT
 10
16.0
 20
47.91291351625978
 30
0.0
 41
3.0
 42
3.0
 43
3.0
 50
180.0
  0
MTEXT
  5
1863
330
185C
100
AcDbEntity
  8
DIM
 62
     0
 48
0.05
100
AcDbMText
 10
32.0
 20
63.91291351625978
 30
0.0
 40
12.0
 41
0.0
 46
0.0
 71
     5
 72
     1
  1
\A1;32
  7
ＭＳ ゴシック
 73
     1
 44
1.0
  0
POINT
  5
1864
330
185C
100
AcDbEntity
  8
Defpoints
 62
     0
100
AcDbPoint
 10
48.0
 20
9.874998101592837
 30
0.0
  0
POINT
  5
1865
330
185C
100
AcDbEntity
  8
Defpoints
 62
     0
100
AcDbPoint
 10
16.0
 20
9.874998101592837
 30
0.0
  0
POINT
  5
1866
330
185C
100
AcDbEntity
  8
Defpoints
 62
     0
100
AcDbPoint
 10
16.0
 20
47.91291351625978
 30
0.0
  0
ENDBLK
  5
1867
330
185C
100
AcDbEntity
  8
0
100
AcDbBlockEnd
  0
BLOCK
  5
1873
330
1872
100
AcDbEntity
  8
0
100
AcDbBlockBegin
  2
*D70
 70
     1
 10
0.0
 20
0.0
 30
0.0
  3
*D70
  1
*D71
  0
LINE
  5
1875
330
1872
100
AcDbEntity
  8
DIM
 62
     0
 48
0.05
370
    -2
100
AcDbLine
 10
908.9392664947068
 20
568.7621895921516
 30
0.0
 11
908.9392664947068
 21
596.8001050068185
 31
0.0
  0
LINE
  5
1876
330
1872
100
AcDbEntity
  8
DIM
 62
     0
 48
0.05
370
    -2
100
AcDbLine
 10
876.9392664947068
 20
568.7621895921516
 30
0.0
 11
876.9392664947068
 21
596.8001050068185
 31
0.0
  0
LINE
  5
1877
330
1872
100
AcDbEntity
  8
DIM
 62
     0
 48
0.05
370
    -2
100
AcDbLine
 10
905.9392664947068
 20
596.8001050068185
 30
0.0
 11
879.9392664947068
 21
596.8001050068185
 31
0.0
  0
INSERT
  5
1878
330
1872
100
AcDbEntity
  8
DIM
 62
     0
370
    -2
100
AcDbBlockReference
  2
_DOT
 10
908.9392664947068
 20
596.8001050068185
 30
0.0
 41
3.0
 42
3.0
 43
3.0
  0
INSERT
  5
1879
330
1872
100
AcDbEntity
  8
DIM
 62
     0
370
    -2
100
AcDbBlockReference
  2
_DOT
 10
876.9392664947068
 20
596.8001050068185
 30
0.0
 41
3.0
 42
3.0
 43
3.0
 50
180.0
  0
MTEXT
  5
187A
330
1872
100
AcDbEntity
  8
DIM
 62
     0
 48
0.05
100
AcDbMText
 10
892.9392664947068
 20
612.8001050068185
 30
0.0
 40
12.0
 41
0.0
 46
0.0
 71
     5
 72
     1
  1
\A1;32
  7
ＭＳ ゴシック
 73
     1
 44
1.0
  0
POINT
  5
187B
330
1872
100
AcDbEntity
  8
Defpoints
 62
     0
100
AcDbPoint
 10
908.9392664947068
 20
558.7621895921516
 30
0.0
  0
POINT
  5
187C
330
1872
100
AcDbEntity
  8
Defpoints
 62
     0
100
AcDbPoint
 10
876.9392664947068
 20
558.7621895921516
 30
0.0
  0
POINT
  5
187D
330
1872
100
AcDbEntity
  8
Defpoints
 62
     0
100
AcDbPoint
 10
876.9392664947068
 20
596.8001050068185
 30
0.0
  0
ENDBLK
  5
1874
330
1872
100
AcDbEntity
  8
0
100
AcDbBlockEnd
  0
ENDSEC
  0
SECTION
  2
ENTITIES
  0
MTEXT
  5
177
330
A
100
AcDbEntity
  8
TEMPLATE
390
1D
100
AcDbMText
 10
39.60107227386538
 20
171.8658758157141
 30
0.0
 40
8.144205729166663
 41
0.0
 46
0.0
 71
     1
 72
     1
  1
品名
  7
ＭＳ ゴシック
 73
     1
 44
0.7828267384257843
  0
MTEXT
  5
178
330
A
100
AcDbEntity
  8
TEMPLATE
390
1D
100
AcDbMText
 10
39.60107227386538
 20
129.365875815714
 30
0.0
 40
8.144205729166663
 41
0.0
 46
0.0
 71
     1
 72
     1
  1
仕様
  7
ＭＳ ゴシック
 73
     1
 44
0.7828267384257843
  0
LINE
  5
179
330
A
100
AcDbEntity
  8
TEMPLATE
390
1D
100
AcDbLine
 10
1011.101072273624
 20
133.5733367532142
 30
0.0
 11
36.10107227362437
 21
133.5733367532142
 31
0.0
  0
LWPOLYLINE
  5
17A
330
A
100
AcDbEntity
  8
TEMPLATE
390
1D
100
AcDbPolyline
 90
        5
 70
   128
 43
0.0
 10
1011.101072273624
 20
1448.573336753213
 10
36.10107227362437
 20
1448.573336753213
 10
36.10107227362437
 20
48.57333675321413
 10
1011.101072273624
 20
48.57333675321413
 10
1011.101072273624
 20
1448.573336753213
  0
LINE
  5
17B
330
A
100
AcDbEntity
  8
TEMPLATE
390
1D
100
AcDbLine
 10
1011.101072273624
 20
176.0733367532141
 30
0.0
 11
36.10107227362437
 21
176.0733367532141
 31
0.0
  0
LINE
  5
17C
330
A
100
AcDbEntity
  8
TEMPLATE
390
1D
100
AcDbLine
 10
1011.101072273866
 20
91.07333675321412
 30
0.0
 11
634.601072273865
 21
91.07333675321412
 31
0.0
  0
MTEXT
  5
17E
330
A
100
AcDbEntity
  8
TEMPLATE
390
1D
100
AcDbMText
 10
649.5367753999956
 20
76.11813951656006
 30
0.0
 40
12.21630859375
 41
0.0
 46
0.0
 71
     1
 72
     1
  1
大洋金物株式会社 ティーフォルム事業部
  7
ＭＳ ゴシック
 73
     1
 44
0.7828267384257843
  0
MTEXT
  5
180
330
A
100
AcDbEntity
  8
TEMPLATE
390
1D
100
AcDbMText
 10
915.601072273995
 20
115.0746453469641
 30
0.0
 40
12.21630859375
 41
0.0
 46
12.21630859375
 71
     1
 72
     1
  1
{1:5}
  7
ＭＳ ゴシック
 73
     1
 44
0.7828267384257843
1001
ACAD
1000
ACAD_MTEXT_DEFINED_HEIGHT_BEGIN
1070
    46
1040
12.21630859375
1000
ACAD_MTEXT_DEFINED_HEIGHT_END
  0
MTEXT
  5
181
330
A
100
AcDbEntity
  8
TEMPLATE
390
1D
100
AcDbMText
 10
889.101072273995
 20
129.365875815714
 30
0.0
 40
8.144205729166663
 41
0.0
 46
0.0
 71
     1
 72
     1
  1
縮尺
  7
ＭＳ ゴシック
 73
     1
 44
0.7828267384257843
  0
LINE
  5
182
330
A
100
AcDbEntity
  8
TEMPLATE
390
1D
100
AcDbLine
 10
885.601072273995
 20
91.07333675321412
 30
0.0
 11
885.601072273995
 21
133.5733367532142
 31
0.0
  0
MTEXT
  5
183
330
A
100
AcDbEntity
  8
TEMPLATE
390
1D
100
AcDbMText
 10
763.601072273995
 20
129.365875815714
 30
0.0
 40
8.144205729166663
 41
0.0
 46
0.0
 71
     1
 72
     1
  1
容量
  7
ＭＳ ゴシック
 73
     1
 44
0.7828267384257843
  0
LINE
  5
184
330
A
100
AcDbEntity
  8
TEMPLATE
390
1D
100
AcDbLine
 10
760.101072273995
 20
91.07333675321412
 30
0.0
 11
760.101072273995
 21
133.5733367532142
 31
0.0
  0
MTEXT
  5
185
330
A
100
AcDbEntity
  8
TEMPLATE
390
1D
100
AcDbMText
 10
638.101072273995
 20
171.8658758157141
 30
0.0
 40
8.144205729166663
 41
0.0
 46
0.0
 71
     1
 72
     1
  1
品番
  7
ＭＳ ゴシック
 73
     1
 44
0.7828267384257843
  0
MTEXT
  5
186
330
A
100
AcDbEntity
  8
TEMPLATE
390
1D
100
AcDbMText
 10
638.101072273995
 20
129.365875815714
 30
0.0
 40
8.144205729166663
 41
0.0
 46
0.0
 71
     1
 72
     1
  1
重量
  7
ＭＳ ゴシック
 73
     1
 44
0.7828267384257843
  0
MTEXT
  5
187
330
A
100
AcDbEntity
  8
TEMPLATE
390
1D
100
AcDbMText
 10
664.601072273995
 20
157.5746453469641
 30
0.0
 40
12.21630859375
 41
0.0
 46
12.21630859375
 71
     1
 72
     1
  1
{BRS70-0104-004}
  7
ＭＳ ゴシック
 73
     1
 44
0.7828267384257843
1001
ACAD
1000
ACAD_MTEXT_DEFINED_HEIGHT_BEGIN
1070
    46
1040
12.21630859375
1000
ACAD_MTEXT_DEFINED_HEIGHT_END
  0
LINE
  5
188
330
A
100
AcDbEntity
  8
TEMPLATE
390
1D
100
AcDbLine
 10
634.601072273995
 20
48.57333675321413
 30
0.0
 11
634.601072273995
 21
176.0733367532141
 31
0.0
  0
MTEXT
  5
189
330
A
100
AcDbEntity
  8
TEMPLATE
390
1D
100
AcDbMText
 10
66.10107227386537
 20
157.5746453469641
 30
0.0
 40
12.21630859375
 41
0.0
 46
13.76777978515625
 71
     1
 72
     1
  1
{手洗器　-CLOU, First-}
  7
ＭＳ ゴシック
 73
     1
 44
0.7828267384257843
1001
ACAD
1000
ACAD_MTEXT_DEFINED_HEIGHT_BEGIN
1070
    46
1040
13.76777978515625
1000
ACAD_MTEXT_DEFINED_HEIGHT_END
  0
INSERT
  5
6B5
330
A
100
AcDbEntity
  8
TEMPLATE
100
AcDbBlockReference
  2
名称未設定-1
 10
935.3753740442249
 20
12.97338287832691
 30
0.0
 41
0.3809999999999999
 42
0.3809999999999999
 43
0.3809999999999999
  0
MTEXT
  5
7D9
330
A
100
AcDbEntity
  8
TEMPLATE
390
1D
100
AcDbMText
 10
62.62717263801819
 20
113.4059880146976
 30
0.0
 40
12.21630859375
 41
0.0
 46
49.64561669921875
 71
     1
 72
     1
  1
{壁掛け/オーバーフローなし/\P排水目皿(水溜め不可)、壁取付ボルト付属/\Pバサルト(玄武岩)}
  7
ＭＳ ゴシック
 73
     1
 44
0.8840641112754306
1001
ACAD
1000
ACAD_MTEXT_DEFINED_HEIGHT_BEGIN
1070
    46
1040
49.64561669921875
1000
ACAD_MTEXT_DEFINED_HEIGHT_END
  0
INSERT
  5
68C
330
A
100
AcDbEntity
  8
TEMPLATE
100
AcDbBlockReference
  2
block 2
 10
919.2743017702577
 20
8.373076514336368
 30
0.0
 41
0.3809999999999999
 42
0.3809999999999999
 43
0.3809999999999999
  0
MTEXT
  5
D60
330
A
100
AcDbEntity
  8
TEMPLATE
390
1D
100
AcDbMText
 10
664.601072273865
 20
115.0746453469641
 30
0.0
 40
12.21630859375
 41
0.0
 46
14.1953505859375
 71
     1
 72
     1
  1
{5.5kg}
  7
ＭＳ ゴシック
 73
     1
 44
0.7828267384257843
1001
ACAD
1000
ACAD_MTEXT_DEFINED_HEIGHT_BEGIN
1070
    46
1040
14.1953505859375
1000
ACAD_MTEXT_DEFINED_HEIGHT_END
  0
LWPOLYLINE
  5
D69
330
A
100
AcDbEntity
  8
BORDER
 48
0.05
100
AcDbPolyline
 90
        4
 70
     1
 43
0.0
 10
0.0
 20
0.0
 10
0.0
 20
1485.0
 10
1050.0
 20
1485.0
 10
1050.0
 20
0.0
  0
INSERT
  5
1044
330
A
100
AcDbEntity
  8
TEMPLATE
100
AcDbBlockReference
  2
block 2
 10
2028.294928592415
 20
13.39523394873888
 30
0.0
 41
0.3809999999999999
 42
0.3809999999999999
 43
0.3809999999999999
  0
SPLINE
  5
1047
330
A
100
AcDbEntity
  8
MODEL
100
AcDbSpline
210
0.0
220
0.0
230
1.0
 70
     8
 71
     3
 72
     9
 73
     5
 74
     0
 42
0.000000001
 43
0.00000001
 40
0.0
 40
0.0
 40
0.0
 40
0.0
 40
0.4623865990412394
 40
1.0
 40
1.0
 40
1.0
 40
1.0
 10
213.50448037468
 20
905.0889244680229
 30
0.0
 10
212.0739924968379
 20
905.487095959827
 30
0.0
 10
208.9802871844308
 20
906.348218433156
 30
0.0
 10
205.8546081707696
 20
907.320449497402
 30
0.0
 10
204.1742012459376
 20
907.8431339463691
 30
0.0
  0
SPLINE
  5
1048
330
A
100
AcDbEntity
  8
MODEL
100
AcDbSpline
210
0.0
220
0.0
230
1.0
 70
     8
 71
     3
 72
    11
 73
     7
 74
     0
 42
0.000000001
 43
0.00000001
 40
0.0
 40
0.0
 40
0.0
 40
0.0
 40
0.2403935951801969
 40
0.5473044530813107
 40
0.7986095929623095
 40
1.0
 40
1.0
 40
1.0
 40
1.0
 10
144.5526215627265
 20
954.9714863427141
 30
0.0
 10
144.1228664331443
 20
955.72419563021
 30
0.0
 10
143.144442295104
 20
957.437889976406
 30
0.0
 10
141.8400582278641
 20
959.9804558893079
 30
0.0
 10
140.6602266634304
 20
962.4090492924711
 30
0.0
 10
140.0539533139904
 20
963.7517356281539
 30
0.0
 10
139.7842408384618
 20
964.349055724427
 30
0.0
  0
SPLINE
  5
1049
330
A
100
AcDbEntity
  8
MODEL
100
AcDbSpline
210
0.0
220
0.0
230
1.0
 70
     8
 71
     3
 72
    11
 73
     7
 74
     0
 42
0.000000001
 43
0.00000001
 40
0.0
 40
0.0
 40
0.0
 40
0.0
 40
0.2046681533709009
 40
0.4600620889843896
 40
0.8414167343692265
 40
1.0
 40
1.0
 40
1.0
 40
1.0
 10
139.7842408385272
 20
1047.079118466139
 30
0.0
 10
140.0538656269578
 20
1047.676495362321
 30
0.0
 10
140.6599401010112
 20
1049.019305458773
 30
0.0
 10
141.9477467244228
 20
1051.664537151425
 30
0.0
 10
143.2249893273779
 20
1054.162843421819
 30
0.0
 10
144.190579001764
 20
1055.816642490715
 30
0.0
 10
144.4741789503837
 20
1056.302374001119
 30
0.0
  0
SPLINE
  5
104B
330
A
100
AcDbEntity
  8
MODEL
100
AcDbSpline
210
0.0
220
0.0
230
1.0
 70
    11
 71
     3
 72
    70
 73
    66
 74
     0
 42
0.000000001
 43
0.00000001
 40
0.0
 40
0.0
 40
0.0
 40
0.0
 40
0.0062500000000001
 40
0.03125
 40
0.07421875
 40
0.0859375
 40
0.08984375
 40
0.1015625
 40
0.109375
 40
0.15625
 40
0.17578125
 40
0.197265625
 40
0.201171875
 40
0.21875
 40
0.234375
 40
0.2421875
 40
0.25
 40
0.2578125
 40
0.265625
 40
0.2734375
 40
0.27734375
 40
0.3125
 40
0.34375
 40
0.359375
 40
0.390625
 40
0.3984375
 40
0.41015625
 40
0.4140625
 40
0.42578125
 40
0.453125
 40
0.484375
 40
0.4921875
 40
0.5
 40
0.5078125
 40
0.515625
 40
0.546875
 40
0.57421875
 40
0.5859375
 40
0.58984375
 40
0.6015625
 40
0.609375
 40
0.640625
 40
0.65625
 40
0.6875
 40
0.71484375
 40
0.71875
 40
0.7265625
 40
0.734375
 40
0.7421875
 40
0.75
 40
0.7578125
 40
0.765625
 40
0.78125
 40
0.796875
 40
0.8037109375
 40
0.828125
 40
0.84375
 40
0.890625
 40
0.8984375
 40
0.91015625
 40
0.9140625
 40
0.92578125
 40
0.96875
 40
0.99375
 40
1.0
 40
1.0
 40
1.0
 40
1.0
 10
131.0214208713965
 20
1005.714087095211
 30
0.0
 10
131.0214208713965
 20
1004.451035235333
 30
0.0
 10
131.1373235097867
 20
998.1559285539563
 30
0.0
 10
132.7736752857686
 20
983.4587836708627
 30
0.0
 10
137.5665352253795
 20
968.405934417043
 30
0.0
 10
142.8550628001117
 20
957.948686782685
 30
0.0
 10
145.5617098342059
 20
953.1592756866589
 30
0.0
 10
148.0872803233519
 20
949.134448500253
 30
0.0
 10
155.98482663202
 20
938.0463643477519
 30
0.0
 10
167.135188022346
 20
926.6809646624531
 30
0.0
 10
184.3787393128091
 20
915.6467090064941
 30
0.0
 10
194.6509658099617
 20
910.9836939106751
 30
0.0
 10
205.5609609522667
 20
907.347879577695
 30
0.0
 10
215.4829604089987
 20
904.4032443316621
 30
0.0
 10
227.6313379958024
 20
901.600522411464
 30
0.0
 10
237.7321447273584
 20
899.7742222571951
 30
0.0
 10
245.967161646136
 20
898.575980128659
 30
0.0
 10
254.6277584919094
 20
897.6233856940789
 30
0.0
 10
263.4801033215786
 20
896.9906036602201
 30
0.0
 10
271.0993823039112
 20
896.726930861008
 30
0.0
 10
289.7185003170757
 20
896.6642847646481
 30
0.0
 10
319.1839982658362
 20
898.163128350717
 30
0.0
 10
355.436636828797
 20
903.9041071448091
 30
0.0
 10
390.0203825900185
 20
912.6976093150199
 30
0.0
 10
413.6380644827382
 20
921.382908157314
 30
0.0
 10
433.4016580789698
 20
931.300385821379
 30
0.0
 10
441.9144631144895
 20
936.272760036059
 30
0.0
 10
451.1653992248334
 20
942.3819106494079
 30
0.0
 10
464.5742713629093
 20
952.433009109805
 30
0.0
 10
481.1928607105015
 20
970.2206384855051
 30
0.0
 10
488.8595111453847
 20
987.7583780287544
 30
0.0
 10
490.8112642480642
 20
999.8281217807128
 30
0.0
 10
491.1365564356179
 20
1005.714087094174
 30
0.0
 10
490.8112642516148
 20
1011.600052408584
 30
0.0
 10
488.8595111249538
 20
1023.669796166277
 30
0.0
 10
481.1928606869055
 20
1041.207535709019
 30
0.0
 10
464.5742701181603
 20
1058.995165299305
 30
0.0
 10
451.1654015845502
 20
1069.046263126421
 30
0.0
 10
441.9144608334041
 20
1075.155414555139
 30
0.0
 10
433.4016679141073
 20
1080.127786641067
 30
0.0
 10
413.6380393298546
 20
1090.04527045224
 30
0.0
 10
390.0202997982356
 20
1098.730579409833
 30
0.0
 10
355.4367544013016
 20
1107.524046419433
 30
0.0
 10
322.6349351849508
 20
1112.723862976786
 30
0.0
 10
296.277789616573
 20
1114.39189369945
 30
0.0
 10
280.4301006125402
 20
1114.705765574171
 30
0.0
 10
272.6225309745146
 20
1114.750556596799
 30
0.0
 10
263.4804888204685
 20
1114.439382929545
 30
0.0
 10
254.6275501297291
 20
1113.803809869384
 30
0.0
 10
245.9669209434664
 20
1112.851000027459
 30
0.0
 10
237.7320919133576
 20
1111.653641485752
 30
0.0
 10
227.6313742836296
 20
1109.828015939734
 30
0.0
 10
216.0612152370245
 20
1107.158117458633
 30
0.0
 10
205.8096786801266
 20
1104.162365520567
 30
0.0
 10
193.8871134532687
 20
1100.208826923175
 30
0.0
 10
183.3663982400117
 20
1095.200454135284
 30
0.0
 10
166.5488950456361
 20
1084.148671692722
 30
0.0
 10
155.9848266320273
 20
1073.38180984269
 30
0.0
 10
148.0872803233519
 20
1062.293725690165
 30
0.0
 10
145.5617098342059
 20
1058.268898503761
 30
0.0
 10
142.8550628001117
 20
1053.479487407735
 30
0.0
 10
137.5665352253795
 20
1043.022239773379
 30
0.0
 10
132.7736752857686
 20
1027.969390519554
 30
0.0
 10
131.1373235097867
 20
1013.272245636462
 30
0.0
 10
131.0214208713965
 20
1006.977138955085
 30
0.0
 10
131.0214208713965
 20
1005.714087095211
 30
0.0
  0
DIMENSION
  5
104D
330
A
100
AcDbEntity
  8
DIM
  6
Continuous
100
AcDbDimension
  2
*D24
 10
491.0214208713966
 20
1259.884620783024
 30
0.0
 11
311.0214208713966
 21
1259.884620783024
 31
0.0
 70
   160
 71
     5
 42
360.0
 73
     0
 74
     0
 75
     0
  3
tfrom線あり
100
AcDbAlignedDimension
 13
131.0214208713965
 23
1010.810954064807
 33
0.0
 14
491.0214208713965
 24
1010.810954064807
 34
0.0
100
AcDbRotatedDimension
  0
DIMENSION
  5
104E
330
A
100
AcDbEntity
  8
DIM
  6
Continuous
100
AcDbDimension
  2
*D25
 10
550.8708988097079
 20
896.6994796941101
 30
0.0
 11
550.8708988097079
 21
1005.69947969411
 31
0.0
 70
   160
 71
     5
 42
218.0
 73
     0
 74
     0
 75
     0
  3
tfrom線あり
100
AcDbAlignedDimension
 13
316.8095907845091
 23
1114.69947969411
 33
0.0
 14
319.3424678485713
 24
896.6994796941101
 34
0.0
 50
90.0
100
AcDbRotatedDimension
  0
DIMENSION
  5
104F
330
A
100
AcDbEntity
  8
DIM
  6
Continuous
100
AcDbDimension
  2
*D26
 10
246.0214208713965
 20
379.8604707795624
 30
0.0
 11
188.5214208713965
 21
395.8604707795624
 31
0.0
 70
    32
 71
     5
 42
115.0
 73
     0
 74
     0
 75
     0
  3
tfrom線あり
100
AcDbAlignedDimension
 13
131.0214208713965
 23
572.3345589518462
 33
0.0
 14
246.0214208713965
 24
410.8677030729099
 34
0.0
100
AcDbRotatedDimension
  0
ARC
  5
1051
330
A
100
AcDbEntity
  8
MODEL
100
AcDbCircle
 10
263.2764033607955
 20
1005.71408709521
 30
0.0
 40
8.000000000000114
100
AcDbArc
 50
270.0000000007817
 51
90.0
  0
LINE
  5
1052
330
A
100
AcDbEntity
  8
MODEL
100
AcDbLine
 10
263.2764033609042
 20
997.7140870952101
 30
0.0
 11
227.2764033604894
 21
997.7140870952101
 31
0.0
  0
ARC
  5
1053
330
A
100
AcDbEntity
  8
MODEL
100
AcDbCircle
 10
227.2764033607946
 20
1005.71408709521
 30
0.0
 40
8.000000000000114
100
AcDbArc
 50
90.0
 51
269.9999999978178
  0
LINE
  5
1054
330
A
100
AcDbEntity
  8
MODEL
100
AcDbLine
 10
227.2764033607946
 20
1013.71408709521
 30
0.0
 11
263.2764033607955
 21
1013.71408709521
 31
0.0
  0
CIRCLE
  5
1055
330
A
100
AcDbEntity
  8
HIDDEN
  6
HIDDEN
 48
0.05
370
     0
100
AcDbCircle
 10
245.2764033607955
 20
1005.71408709521
 30
0.0
 40
26.5
  0
DIMENSION
  5
1056
330
A
100
AcDbEntity
  8
DIM
  6
Continuous
100
AcDbDimension
  2
*D28
 10
737.9392664946986
 20
507.8761664804406
 30
0.0
 11
737.9392664946986
 21
620.3869451302455
 31
0.0
 70
   160
  1
63(深さ)
 71
     5
 42
64.88602311171485
 73
     0
 74
     1
 75
     1
  3
tfrom線あり
100
AcDbAlignedDimension
 13
761.0505264746098
 23
572.7621895921554
 33
0.0
 14
737.9392664946986
 24
507.8761664804406
 34
0.0
 50
89.99999999999999
100
AcDbRotatedDimension
1001
ACAD
1000
DSTYLE
1002
{
1070
     3
1000
<>
1070
   172
1070
     1
1070
    75
1070
     1
1070
    76
1070
     1
1002
}
  0
DIMENSION
  5
1058
330
A
100
AcDbEntity
  8
DIM
  6
Continuous
100
AcDbDimension
  2
*D30
 10
89.26026997423375
 20
910.6994796941101
 30
0.0
 11
89.26026997423378
 21
1005.69947969411
 31
0.0
 70
   160
 71
     5
 42
190.0
 73
     0
 74
     0
 75
     0
  3
tfrom線あり
100
AcDbAlignedDimension
 13
227.8271024887592
 23
1100.69947969411
 33
0.0
 14
227.8271024887592
 24
910.6994796941101
 34
0.0
 50
89.99999999999999
100
AcDbRotatedDimension
  0
LINE
  5
1059
330
A
100
AcDbEntity
  8
HIDDEN
  6
HIDDEN
 48
0.05
100
AcDbLine
 10
219.5214224062165
 20
512.8762419030895
 30
0.0
 11
272.5214224062165
 21
512.8762419030895
 31
0.0
  0
LINE
  5
105A
330
A
100
AcDbEntity
  8
HIDDEN
  6
HIDDEN
 48
0.05
100
AcDbLine
 10
272.5214224062165
 20
512.8762419030895
 30
0.0
 11
272.5214224062165
 21
510.7519686089665
 31
0.0
  0
LINE
  5
105B
330
A
100
AcDbEntity
  8
HIDDEN
  6
HIDDEN
 48
0.05
100
AcDbLine
 10
272.5214224062165
 20
510.7519686089665
 30
0.0
 11
219.5214224062165
 21
510.7519686089665
 31
0.0
  0
LINE
  5
105C
330
A
100
AcDbEntity
  8
HIDDEN
  6
HIDDEN
 48
0.05
100
AcDbLine
 10
219.5214224062165
 20
510.7519686089665
 30
0.0
 11
219.5214224062165
 21
512.8762419030895
 31
0.0
  0
LINE
  5
105D
330
A
100
AcDbEntity
  8
HIDDEN
  6
HIDDEN
 48
0.05
100
AcDbLine
 10
237.2719939957005
 20
510.7519686089665
 30
0.0
 11
241.5986912844223
 21
505.3085810735345
 31
0.0
  0
LINE
  5
105E
330
A
100
AcDbEntity
  8
HIDDEN
  6
HIDDEN
 48
0.05
100
AcDbLine
 10
254.7708508167334
 20
510.7519686089665
 30
0.0
 11
250.4441535280112
 21
505.3085810735345
 31
0.0
  0
LINE
  5
1061
330
A
100
AcDbEntity
  8
HIDDEN
  6
HIDDEN
 48
0.05
100
AcDbLine
 10
241.5986912844223
 20
500.9006888759266
 30
0.0
 11
240.1420467398802
 21
503.1046349747305
 31
0.0
  0
LINE
  5
1064
330
A
100
AcDbEntity
  8
HIDDEN
  6
HIDDEN
 48
0.05
100
AcDbLine
 10
250.4441535280112
 20
500.9006888759266
 30
0.0
 11
251.9007980725532
 21
503.1046349747305
 31
0.0
  0
LINE
  5
1067
330
A
100
AcDbEntity
  8
HIDDEN
  6
HIDDEN
 48
0.05
100
AcDbLine
 10
241.5986912844223
 20
505.3085810735345
 30
0.0
 11
240.1420467398802
 21
503.1046349747305
 31
0.0
  0
LINE
  5
1068
330
A
100
AcDbEntity
  8
HIDDEN
  6
HIDDEN
 48
0.05
100
AcDbLine
 10
250.4441535280112
 20
505.3085810735345
 30
0.0
 11
251.9007980725532
 21
503.1046349747305
 31
0.0
  0
LINE
  5
1069
330
A
100
AcDbEntity
  8
HIDDEN
  6
HIDDEN
 48
0.05
100
AcDbLine
 10
219.0888309432801
 20
500.6982429530265
 30
0.0
 11
272.9540138691546
 21
500.6982429530265
 31
0.0
  0
SPLINE
  5
106A
330
A
100
AcDbEntity
  8
HIDDEN
  6
HIDDEN
 48
0.05
100
AcDbSpline
210
0.0
220
0.0
230
1.0
 70
  1064
 71
     3
 72
    17
 73
    13
 74
    11
 42
0.000000001
 43
0.0000000001
 44
0.0
 40
0.0
 40
0.0
 40
0.0
 40
0.0
 40
5.688822772671758
 40
16.48915856102375
 40
37.03051853607075
 40
60.61515526212627
 40
82.79332499040919
 40
99.7213688256846
 40
110.8660830743163
 40
112.7087858723037
 40
116.221272848117
 40
117.7893917515398
 40
117.7893917515398
 40
117.7893917515398
 40
117.7893917515398
 10
140.2485134716633
 20
572.7621895921554
 30
0.0
 10
142.1199526397774
 20
572.0584364178183
 30
0.0
 10
147.5443538583536
 20
570.0185947593271
 30
0.0
 10
149.1984817959598
 20
556.0852184945117
 30
0.0
 10
156.5773859838222
 20
539.7293910007606
 30
0.0
 10
171.2335295955833
 20
523.0759714294957
 30
0.0
 10
188.04821454127
 20
508.6630650267482
 30
0.0
 10
204.4165902391019
 20
507.7183157462056
 30
0.0
 10
216.0393404303381
 20
507.545644900395
 30
0.0
 10
219.0342615123049
 20
502.7005617564924
 30
0.0
 10
219.095584646763
 20
500.317330300061
 30
0.0
 10
219.090423821681
 20
498.6301457203967
 30
0.0
 10
219.0888309432801
 20
498.1093995543247
 30
0.0
 11
140.2485134716633
 21
572.7621895921554
 31
0.0
 11
145.304848235741
 21
570.1552405530585
 31
0.0
 11
149.0970993080575
 21
560.0425710268814
 31
0.0
 11
156.9976223753833
 21
541.0813156652996
 31
0.0
 11
172.1177824708379
 21
522.9811541138706
 31
0.0
 11
190.1798192581525
 21
510.1112652413815
 31
0.0
 11
206.9413225014712
 21
507.7425784505156
 31
0.0
 11
217.6736395324467
 21
504.7389095555995
 31
0.0
 11
218.6217023005258
 21
503.1588049421346
 31
0.0
 11
219.0888309432801
 21
499.6775184577475
 31
0.0
 11
219.0888309432801
 21
498.1093995543247
 31
0.0
  0
SPLINE
  5
106B
330
A
100
AcDbEntity
  8
HIDDEN
  6
HIDDEN
 48
0.05
100
AcDbSpline
210
0.0
220
0.0
230
1.0
 70
  1064
 71
     3
 72
    19
 73
    15
 74
    13
 42
0.000000001
 43
0.0000000001
 44
0.0
 40
0.0
 40
0.0
 40
0.0
 40
0.0
 40
3.060899239143356
 40
6.743817294300037
 40
16.4556899242146
 40
38.14482920081731
 40
61.53389590460677
 40
90.60141448884579
 40
121.6695898359552
 40
140.0022914942282
 40
153.9189087580434
 40
165.9872178104619
 40
173.1852263527468
 40
175.7328719861952
 40
175.7328719861952
 40
175.7328719861952
 40
175.7328719861952
 10
272.9540138691546
 20
498.1093995543247
 30
0.0
 10
273.0624546211968
 20
499.105005318657
 30
0.0
 10
273.3013728481275
 20
501.2985382798041
 30
0.0
 10
273.4388504454638
 20
507.3679738384237
 30
0.0
 10
288.630601198249
 20
508.1796728926084
 30
0.0
 10
304.7995317940362
 20
508.873808044688
 30
0.0
 10
328.9585727953005
 20
517.675220715507
 30
0.0
 10
354.8423649567165
 20
527.0810928494174
 30
0.0
 10
377.8061952431989
 20
540.1216708320728
 30
0.0
 10
394.5969349536534
 20
552.9493341871987
 30
0.0
 10
405.6778772383796
 20
562.6712732080939
 30
0.0
 10
413.7799937902487
 20
570.3583962115626
 30
0.0
 10
420.9051063266929
 20
572.8988513450925
 30
0.0
 10
424.159892923364
 20
572.7905111757445
 30
0.0
 10
425.0107381012549
 20
572.7621895921554
 30
0.0
 11
272.9540138691546
 21
498.1093995543247
 31
0.0
 11
273.2417234710056
 21
501.1567471448025
 31
0.0
 11
273.8185001674383
 21
504.7942207245624
 31
0.0
 11
283.0300750844274
 21
507.8711278613446
 31
0.0
 11
304.618505463266
 21
509.9588147003865
 31
0.0
 11
326.9421386761214
 21
516.9376284571945
 31
0.0
 11
353.980106669042
 21
527.6085667223556
 31
0.0
 11
380.9965611192692
 21
542.9494502802715
 31
0.0
 11
395.6101344951896
 21
554.0188415588304
 31
0.0
 11
406.0962715690075
 21
563.1683314537165
 31
0.0
 11
415.592552120386
 21
570.6157967321985
 31
0.0
 11
422.4630924678065
 21
572.7621895921554
 31
0.0
 11
425.0107381012549
 21
572.7621895921554
 31
0.0
  0
LWPOLYLINE
  5
106D
330
A
100
AcDbEntity
  8
HIDDEN
  6
HIDDEN
 48
0.0095
100
AcDbPolyline
 90
        4
 70
     1
 43
0.0
 10
734.3732800567927
 20
510.6039629029556
 10
734.3732800567927
 20
493.6355912070485
 10
741.5052529326049
 20
493.6355912070485
 10
741.5052529326049
 20
510.6039629029556
  0
LWPOLYLINE
  5
106E
330
A
100
AcDbEntity
  8
HIDDEN
  6
HIDDEN
 48
0.0095
100
AcDbPolyline
 90
        4
 70
     1
 43
0.0
 10
729.1892664946986
 20
512.7282361970786
 10
729.1892664946986
 20
510.6039629029556
 10
746.6892664946986
 20
510.6039629029556
 10
746.6892664946986
 20
512.7282361970786
  0
LINE
  5
106F
330
A
100
AcDbEntity
  8
HIDDEN
  6
HIDDEN
 48
0.05
100
AcDbLine
 10
219.0888309432801
 20
498.1093995543247
 30
0.0
 11
219.0888309433133
 21
492.7621895921557
 31
0.0
  0
LINE
  5
1070
330
A
100
AcDbEntity
  8
HIDDEN
  6
HIDDEN
 48
0.05
100
AcDbLine
 10
272.9540138691546
 20
498.1093995543247
 30
0.0
 11
272.9540138691546
 21
492.7621895921557
 31
0.0
  0
LINE
  5
1071
330
A
100
AcDbEntity
  8
HIDDEN
  6
HIDDEN
 48
0.05
100
AcDbLine
 10
764.8718579576366
 20
500.0439910770806
 30
0.0
 11
764.8718579576366
 21
492.7621895921557
 31
0.0
  0
LINE
  5
1072
330
A
100
AcDbEntity
  8
HIDDEN
  6
HIDDEN
 48
0.05
100
AcDbLine
 10
711.0066750317628
 20
500.0439910770806
 30
0.0
 11
711.0066750318078
 21
492.7621895921557
 31
0.0
  0
LINE
  5
1073
330
A
100
AcDbEntity
  8
HIDDEN
  6
HIDDEN
 48
0.05
100
AcDbLine
 10
711.0066750317628
 20
500.0439910770806
 30
0.0
 11
764.8718579576366
 21
500.0439910770806
 31
0.0
  0
SPLINE
  5
108E
330
A
100
AcDbEntity
  8
MODEL
100
AcDbSpline
210
0.0
220
0.0
230
1.0
 70
     8
 71
     3
 72
     9
 73
     5
 74
     0
 42
0.000000001
 43
0.00000001
 40
0.0
 40
0.0
 40
0.0
 40
0.0
 40
0.4999999999999961
 40
1.0
 40
1.0
 40
1.0
 40
1.0
 10
132.0917569086412
 20
567.1242711290736
 30
0.0
 10
131.8956268269865
 20
568.0605562093706
 30
0.0
 10
131.5033666636771
 20
569.9331263699646
 30
0.0
 10
131.1820692040526
 20
571.8191685180905
 30
0.0
 10
131.0214204742331
 20
572.7621895921554
 30
0.0
  0
LINE
  5
108F
330
A
100
AcDbEntity
  8
MODEL
100
AcDbLine
 10
491.028125309869
 20
572.7621895921554
 30
0.0
 11
491.0277468155434
 21
560.7621895921554
 31
0.0
  0
SPLINE
  5
1090
330
A
100
AcDbEntity
  8
MODEL
100
AcDbSpline
210
0.0
220
0.0
230
1.0
 70
     8
 71
     3
 72
    17
 73
    13
 74
     0
 42
0.000000001
 43
0.00000001
 40
0.0
 40
0.0
 40
0.0
 40
0.0
 40
0.0930304817959906
 40
0.1843392201570117
 40
0.273906537062549
 40
0.3617145165897663
 40
0.4477473504450106
 40
0.531991741308605
 40
0.6549344451400051
 40
0.7738546648044385
 40
0.8888498403530718
 40
1.0
 40
1.0
 40
1.0
 40
1.0
 10
186.0214204742331
 20
492.7621895921557
 30
0.0
 10
183.5228400255035
 20
494.2972170652906
 30
0.0
 10
178.571921116705
 20
497.3388627910285
 30
0.0
 10
171.6814513396419
 20
502.5551139809327
 30
0.0
 10
165.2991303239867
 20
508.1250648118594
 30
0.0
 10
159.4673740147007
 20
514.0405521741825
 30
0.0
 10
154.1838181416567
 20
520.2302314925266
 30
0.0
 10
148.6940607409522
 20
527.6684180882046
 30
0.0
 10
143.3098727305221
 20
536.4426987619966
 30
0.0
 10
138.4311346690918
 20
546.5877260922434
 30
0.0
 10
134.6141260781403
 20
556.7935612944025
 30
0.0
 10
132.9229620097065
 20
563.7199563221845
 30
0.0
 10
132.0917569086412
 20
567.1242711290736
 30
0.0
  0
SPLINE
  5
1091
330
A
100
AcDbEntity
  8
MODEL
100
AcDbSpline
210
0.0
220
0.0
230
1.0
 70
     8
 71
     3
 72
    23
 73
    19
 74
     0
 42
0.000000001
 43
0.00000001
 40
0.0
 40
0.0
 40
0.0
 40
0.0
 40
0.0406692630439561
 40
0.0843162627590972
 40
0.1309356869792187
 40
0.1805181782111898
 40
0.2330477354482552
 40
0.2885020473882705
 40
0.3468514783038138
 40
0.4080575637933668
 40
0.4720754749095718
 40
0.5389104934903779
 40
0.608574808212788
 40
0.6810813570509683
 40
0.7564487570687827
 40
0.8347018214766913
 40
0.9158723774137228
 40
1.0
 40
1.0
 40
1.0
 40
1.0
 10
491.0277468155434
 20
560.7621895921554
 30
0.0
 10
488.327510335959
 20
560.7502278467555
 30
0.0
 10
482.7293304948869
 20
560.7254285366005
 30
0.0
 10
474.0517281668469
 20
560.1342247370565
 30
0.0
 10
464.8294813229838
 20
559.0357203735955
 30
0.0
 10
455.1049274817085
 20
557.2930272873245
 30
0.0
 10
444.9344152199881
 20
554.8226664875185
 30
0.0
 10
434.3870363213753
 20
551.5260711149715
 30
0.0
 10
423.5583942087649
 20
547.2973562983175
 30
0.0
 10
412.5153307974431
 20
542.1067833801214
 30
0.0
 10
401.5258935472409
 20
535.6273164497986
 30
0.0
 10
390.0960681374597
 20
528.8071260904626
 30
0.0
 10
377.8904075143107
 20
522.2007948844775
 30
0.0
 10
364.9835512444658
 20
515.7198313035556
 30
0.0
 10
351.3362554450684
 20
509.4595231440044
 30
0.0
 10
336.938926959763
 20
503.4828314476076
 30
0.0
 10
321.7950179964644
 20
497.8039958106247
 30
0.0
 10
311.3416730306378
 20
494.4627160365467
 30
0.0
 10
306.0214991006903
 20
492.7621895921557
 30
0.0
  0
SPLINE
  5
1092
330
A
100
AcDbEntity
  8
MODEL
100
AcDbSpline
210
0.0
220
0.0
230
1.0
 70
    24
 71
     3
 72
    39
 73
    35
 74
     0
 42
0.000000001
 43
0.00000001
 40
0.0
 40
0.0
 40
0.0
 40
0.0
 40
0.0074218749999999
 40
0.0111328125000001
 40
0.01484375
 40
0.07421875
 40
0.0859375
 40
0.08984375
 40
0.1015625
 40
0.109375
 40
0.15625
 40
0.17578125
 40
0.197265625
 40
0.201171875
 40
0.21875
 40
0.234375
 40
0.2421875
 40
0.25
 40
0.2578125
 40
0.265625
 40
0.2734375
 40
0.27734375
 40
0.3125
 40
0.34375
 40
0.359375
 40
0.390625
 40
0.3984375
 40
0.41015625
 40
0.4140625
 40
0.42578125
 40
0.453125
 40
0.484375
 40
0.4921875
 40
0.5
 40
0.5
 40
0.5
 40
0.5
 10
131.0214204742331
 20
572.7621895921554
 30
0.0
 10
131.0214204742331
 20
572.7621895921554
 30
0.0
 10
131.0696705378539
 20
572.7621895921554
 30
0.0
 10
131.2298759545554
 20
572.7621895921554
 30
0.0
 10
132.2374741324418
 20
572.7621895921554
 30
0.0
 10
136.085747107292
 20
572.7621895921554
 30
0.0
 10
142.8550624029483
 20
572.7621895921554
 30
0.0
 10
145.5617094370425
 20
572.7621895921554
 30
0.0
 10
148.0872799261886
 20
572.7621895921554
 30
0.0
 10
155.9848262348639
 20
572.7621895921554
 30
0.0
 10
167.1351876251899
 20
572.7621895921554
 30
0.0
 10
184.3787389156457
 20
572.7621895921554
 30
0.0
 10
194.6509654128056
 20
572.7621895921554
 30
0.0
 10
205.5609605551033
 20
572.7621895921554
 30
0.0
 10
215.4829600118426
 20
572.7621895921554
 30
0.0
 10
227.631337598639
 20
572.7621895921554
 30
0.0
 10
237.7321443302023
 20
572.7621895921554
 30
0.0
 10
245.9671612489726
 20
572.7621895921554
 30
0.0
 10
254.6277580947533
 20
572.7621895921554
 30
0.0
 10
263.4801029244225
 20
572.7621895921554
 30
0.0
 10
271.0993819067551
 20
572.7621895921554
 30
0.0
 10
289.7184999199123
 20
572.7621895921554
 30
0.0
 10
319.1839978686801
 20
572.7621895921554
 30
0.0
 10
355.4366364316409
 20
572.7621895921554
 30
0.0
 10
390.0203821928624
 20
572.7621895921554
 30
0.0
 10
413.6380640855821
 20
572.7621895921554
 30
0.0
 10
433.4016576818065
 20
572.7621895921554
 30
0.0
 10
441.9144627173334
 20
572.7621895921554
 30
0.0
 10
451.1653988276701
 20
572.7621895921554
 30
0.0
 10
464.5742709657532
 20
572.7621895921554
 30
0.0
 10
481.1928603133454
 20
572.7621895921554
 30
0.0
 10
488.859510748214
 20
572.7621895921554
 30
0.0
 10
490.8112638509081
 20
572.7621895921554
 30
0.0
 10
491.0281253092724
 20
572.7621895921554
 30
0.0
 10
491.028125309869
 20
572.7621895921554
 30
0.0
  0
SPLINE
  5
1093
330
A
100
AcDbEntity
  8
MODEL
100
AcDbSpline
210
0.0
220
0.0
230
1.0
 70
     8
 71
     3
 72
    18
 73
    14
 74
     0
 42
0.000000001
 43
0.00000001
 40
0.3317607491956218
 40
0.3317607491956218
 40
0.3317607491956218
 40
0.3317607491956218
 40
0.34375
 40
0.359375
 40
0.390625
 40
0.3984375
 40
0.41015625
 40
0.4140625
 40
0.42578125
 40
0.453125
 40
0.484375
 40
0.4921875
 40
0.5
 40
0.5
 40
0.5
 40
0.5
 10
346.4690604678714
 20
564.4973182737499
 30
0.0
 10
351.7487579786111
 20
564.3711785089921
 30
0.0
 10
363.9524104108887
 20
564.0783659399904
 30
0.0
 10
389.9690359466802
 20
563.4518293234626
 30
0.0
 10
413.5115808137232
 20
562.8841978009416
 30
0.0
 10
433.219907022303
 20
562.3964111629366
 30
0.0
 10
441.7138816502882
 20
562.1819703072006
 30
0.0
 10
450.9513650051774
 20
561.9440391485846
 30
0.0
 10
464.3537806121928
 20
561.5905867331826
 30
0.0
 10
481.0364621401857
 20
561.1104261396474
 30
0.0
 10
488.8145011497652
 20
560.8443428164035
 30
0.0
 10
490.8059954017406
 20
560.7706644761356
 30
0.0
 10
491.0277468149905
 20
560.7621895921554
 30
0.0
 10
491.0277468155434
 20
560.7621895921554
 30
0.0
  0
SPLINE
  5
1094
330
A
100
AcDbEntity
  8
MODEL
100
AcDbSpline
210
0.0
220
0.0
230
1.0
 70
    24
 71
     3
 72
    39
 73
    35
 74
     0
 42
0.000000001
 43
0.00000001
 40
0.0
 40
0.0
 40
0.0
 40
0.0
 40
0.0074218749999999
 40
0.0111328125000001
 40
0.01484375
 40
0.07421875
 40
0.0859375
 40
0.08984375
 40
0.1015625
 40
0.109375
 40
0.15625
 40
0.17578125
 40
0.197265625
 40
0.201171875
 40
0.21875
 40
0.234375
 40
0.2421875
 40
0.25
 40
0.2578125
 40
0.265625
 40
0.2734375
 40
0.27734375
 40
0.3125
 40
0.34375
 40
0.359375
 40
0.390625
 40
0.3984375
 40
0.41015625
 40
0.4140625
 40
0.42578125
 40
0.453125
 40
0.484375
 40
0.4921875
 40
0.5
 40
0.5
 40
0.5
 40
0.5
 10
186.0214204742331
 20
492.7621895921557
 30
0.0
 10
186.0214204742331
 20
492.7621895921557
 30
0.0
 10
186.0546944521518
 20
492.7621895921557
 30
0.0
 10
186.1648214161285
 20
492.7621895921557
 30
0.0
 10
186.8564982907444
 20
492.7621895921557
 30
0.0
 10
189.4865981126529
 20
492.7621895921557
 30
0.0
 10
194.0170909724945
 20
492.7621895921557
 30
0.0
 10
195.8162590746249
 20
492.7621895921557
 30
0.0
 10
197.4838856078602
 20
492.7621895921557
 30
0.0
 10
202.6318498636426
 20
492.7621895921557
 30
0.0
 10
209.6893577037588
 20
492.7621895921557
 30
0.0
 10
219.2142460262
 20
492.7621895921557
 30
0.0
 10
224.3924014096517
 20
492.7621895921557
 30
0.0
 10
229.4932196918487
 20
492.7621895921557
 30
0.0
 10
234.0012346288675
 20
492.7621895921557
 30
0.0
 10
239.1210955001332
 20
492.7621895921557
 30
0.0
 10
243.0588655942299
 20
492.7621895921557
 30
0.0
 10
246.021422634996
 20
492.7621895921557
 30
0.0
 10
248.9839783030873
 20
492.7621895921557
 30
0.0
 10
251.9373017556388
 20
492.7621895921557
 30
0.0
 10
254.3830200382397
 20
492.7621895921557
 30
0.0
 10
260.2112071201007
 20
492.7621895921557
 30
0.0
 10
268.6992110995959
 20
492.7621895921557
 30
0.0
 10
277.7779796593784
 20
492.7621895921557
 30
0.0
 10
285.7036639111718
 20
492.7621895921557
 30
0.0
 10
290.6222674748894
 20
492.7621895921557
 30
0.0
 10
294.5589049665175
 20
492.7621895921557
 30
0.0
 10
296.226548257571
 20
492.7621895921557
 30
0.0
 10
298.0257748533511
 20
492.7621895921557
 30
0.0
 10
300.6214802426364
 20
492.7621895921557
 30
0.0
 10
303.8896961848766
 20
492.7621895921557
 30
0.0
 10
305.5297128549462
 20
492.7621895921557
 30
0.0
 10
305.9723204761137
 20
492.7621895921557
 30
0.0
 10
306.0214991006903
 20
492.7621895921557
 30
0.0
 10
306.0214991006903
 20
492.7621895921557
 30
0.0
  0
SPLINE
  5
1095
330
A
100
AcDbEntity
  8
MODEL
100
AcDbSpline
210
0.0
220
0.0
230
1.0
 70
     8
 71
     3
 72
     9
 73
     5
 74
     0
 42
0.000000001
 43
0.00000001
 40
0.0
 40
0.0
 40
0.0
 40
0.0
 40
0.5004541961569473
 40
1.0
 40
1.0
 40
1.0
 40
1.0
 10
844.9433597202928
 20
565.9067529213685
 30
0.0
 10
845.2812786730328
 20
567.0449407620265
 30
0.0
 10
845.9565032097207
 20
569.3192504778644
 30
0.0
 10
846.5524652829085
 20
571.6152384399986
 30
0.0
 10
846.8501756358137
 20
572.7621895921554
 30
0.0
  0
SPLINE
  5
1096
330
A
100
AcDbEntity
  8
MODEL
100
AcDbSpline
210
0.0
220
0.0
230
1.0
 70
     8
 71
     3
 72
     9
 73
     5
 74
     0
 42
0.000000001
 43
0.00000001
 40
0.0
 40
0.0
 40
0.0
 40
0.0
 40
0.4995463190334148
 40
1.0
 40
1.0
 40
1.0
 40
1.0
 10
629.0411177737601
 20
572.7621895921554
 30
0.0
 10
629.3388126044415
 20
571.6150180210175
 30
0.0
 10
629.9347429903396
 20
569.3185911884434
 30
0.0
 10
630.6099151099957
 20
567.0438309713106
 30
0.0
 10
630.9478074825579
 20
565.9054188473285
 30
0.0
  0
SPLINE
  5
1097
330
A
100
AcDbEntity
  8
MODEL
100
AcDbSpline
210
0.0
220
0.0
230
1.0
 70
     8
 71
     3
 72
    28
 73
    24
 74
     0
 42
0.000000001
 43
0.00000001
 40
0.0
 40
0.0
 40
0.0
 40
0.0
 40
0.0584169196149191
 40
0.1056586327409205
 40
0.1421586385508976
 40
0.1773577086326756
 40
0.2364347431028455
 40
0.3001558972519404
 40
0.3504304853215246
 40
0.4017838700696193
 40
0.4542752560800497
 40
0.5079706120102279
 40
0.5622098098594204
 40
0.6107582704956286
 40
0.6519626077058344
 40
0.685790073315672
 40
0.7124412939641038
 40
0.7378486846600193
 40
0.7648044286516387
 40
0.7933437746627074
 40
0.8553181028012957
 40
0.9240975456598429
 40
1.0
 40
1.0
 40
1.0
 40
1.0
 10
775.4394463927429
 20
492.7621895921557
 30
0.0
 10
777.474166051446
 20
493.6186658023805
 30
0.0
 10
781.1543617647226
 20
495.1677735941716
 30
0.0
 10
785.9402295364248
 20
497.5646719109145
 30
0.0
 10
789.859537902053
 20
499.7096230798134
 30
0.0
 10
794.0757074267208
 20
502.2128996133006
 30
0.0
 10
799.0167533026588
 20
505.4527623985496
 30
0.0
 10
804.1961402727507
 20
509.2980567421046
 30
0.0
 10
808.9145961629806
 20
513.2101138782934
 30
0.0
 10
813.1092303885566
 20
517.0395912874164
 30
0.0
 10
817.17737214414
 20
521.1299256351235
 30
0.0
 10
821.0810596925048
 20
525.4664359945095
 30
0.0
 10
824.6555068888888
 20
529.8333432230986
 30
0.0
 10
827.7426229067469
 20
533.9339204049036
 30
0.0
 10
830.231726683623
 20
537.4950297790506
 30
0.0
 10
832.1643888075901
 20
540.4372059824204
 30
0.0
 10
833.6995227143248
 20
542.8974061778035
 30
0.0
 10
835.0348287797001
 20
545.1339481313526
 30
0.0
 10
836.333276410774
 20
547.4068568923915
 30
0.0
 10
838.1134075677737
 20
550.6720932898365
 30
0.0
 10
840.3008735220551
 20
555.0100732987055
 30
0.0
 10
842.7832885977737
 20
560.4552397216546
 30
0.0
 10
844.1699572631087
 20
564.0073269183056
 30
0.0
 10
844.8974259865108
 20
565.8708090917946
 30
0.0
  0
SPLINE
  5
1098
330
A
100
AcDbEntity
  8
MODEL
100
AcDbSpline
210
0.0
220
0.0
230
1.0
 70
     8
 71
     3
 72
    25
 73
    21
 74
     0
 42
0.000000001
 43
0.00000001
 40
0.0
 40
0.0
 40
0.0
 40
0.0
 40
0.0801331190950749
 40
0.1561140757723234
 40
0.2283049507486656
 40
0.2801613919103713
 40
0.3301773943063167
 40
0.3784535319959739
 40
0.4279130113938097
 40
0.4843546193390942
 40
0.5479364693742398
 40
0.6182579066044576
 40
0.6868970949671824
 40
0.7235711947916963
 40
0.7584137262039516
 40
0.7914429436613791
 40
0.8283255015962944
 40
0.87551254419886
 40
0.9328145139173047
 40
1.0
 40
1.0
 40
1.0
 40
1.0
 10
630.9942849313279
 20
565.8696102039255
 30
0.0
 10
631.7564260027698
 20
563.9162675231426
 30
0.0
 10
633.2412171892397
 20
560.1107961934185
 30
0.0
 10
636.0139974339077
 20
554.0717889510936
 30
0.0
 10
638.847246647148
 20
548.5905769666435
 30
0.0
 10
641.650525078619
 20
543.7155580570295
 30
0.0
 10
644.3073015284358
 20
539.4686070476025
 30
0.0
 10
647.1467005569548
 20
535.2809095940436
 30
0.0
 10
650.3594681560548
 20
530.9109946087015
 30
0.0
 10
654.1949992234199
 20
526.1356787924606
 30
0.0
 10
658.8440520841809
 20
520.9224046322065
 30
0.0
 10
664.1936956237378
 20
515.6393941620495
 30
0.0
 10
669.1431914891778
 20
511.3498571088435
 30
0.0
 10
673.2676223804638
 20
508.1201645488995
 30
0.0
 10
676.4300534252229
 20
505.8118952082636
 30
0.0
 10
679.678461477311
 20
503.5981742876324
 30
0.0
 10
683.3931052004086
 20
501.2423373357756
 30
0.0
 10
687.9979217201076
 20
498.5806789885146
 30
0.0
 10
693.7511919819485
 20
495.5973779632955
 30
0.0
 10
698.0948357780185
 20
493.7559840577605
 30
0.0
 10
700.4390865937357
 20
492.7621895921557
 30
0.0
  0
SPLINE
  5
1099
330
A
100
AcDbEntity
  8
MODEL
100
AcDbSpline
210
0.0
220
0.0
230
1.0
 70
     8
 71
     3
 72
    49
 73
    45
 74
     0
 42
0.000000001
 43
0.00000001
 40
0.0
 40
0.0
 40
0.0
 40
0.0
 40
0.0087560589264059
 40
0.0384721106907257
 40
0.0689672806325569
 40
0.1037251363990743
 40
0.1391374745503802
 40
0.1750104076358158
 40
0.21109624831076
 40
0.2393361333586094
 40
0.2671774838989588
 40
0.2943587875385529
 40
0.3206137386707738
 40
0.3434808861501025
 40
0.365238887647144
 40
0.3857670784449289
 40
0.4050647084289336
 40
0.4231815614423887
 40
0.4401990473538895
 40
0.456249846239261
 40
0.4714823384806583
 40
0.4860435968801037
 40
0.5000591562727204
 40
0.5140747156679516
 40
0.5286359740769064
 40
0.5438684663423587
 40
0.5599192653225
 40
0.576936751482591
 40
0.5950536048599596
 40
0.6143512346658706
 40
0.6348794238101317
 40
0.6566374242384555
 40
0.6795045716453618
 40
0.7062461128245796
 40
0.7339429202362596
 40
0.7623143419942601
 40
0.7910835247283482
 40
0.8199598737860782
 40
0.8575822967227613
 40
0.8947221701349084
 40
0.9311521448249209
 40
0.9615787767538917
 40
0.9912291819640845
 40
1.0
 40
1.0
 40
1.0
 40
1.0
 10
844.8463522326538
 20
565.8697660988955
 30
0.0
 10
844.8179426787506
 20
565.8385345572906
 30
0.0
 10
844.6931176277035
 20
565.7013103408285
 30
0.0
 10
843.9514379650259
 20
565.4415578160306
 30
0.0
 10
842.5212609087807
 20
565.0790472309604
 30
0.0
 10
840.319568421944
 20
564.6878832131706
 30
0.0
 10
837.2467180732606
 20
564.2738077125696
 30
0.0
 10
833.2953401692107
 20
563.8560969163304
 30
0.0
 10
828.7553707052039
 20
563.4710605960795
 30
0.0
 10
823.8175381113879
 20
563.1218587953485
 30
0.0
 10
818.7100842404366
 20
562.8099242145804
 30
0.0
 10
813.0297335368718
 20
562.5092273636776
 30
0.0
 10
806.9822668822358
 20
562.2305932129325
 30
0.0
 10
800.6942334794626
 20
561.9756715599585
 30
0.0
 10
794.2947068781477
 20
561.7457692595576
 30
0.0
 10
787.6228216179557
 20
561.5337339352566
 30
0.0
 10
780.741456941561
 20
561.3422936709476
 30
0.0
 10
773.7028987867138
 20
561.1737735095826
 30
0.0
 10
766.5498675008907
 20
561.0303311275395
 30
0.0
 10
759.3439245446398
 20
560.9144871442124
 30
0.0
 10
752.1418526597818
 20
560.8286109346236
 30
0.0
 10
745.0062299428287
 20
560.7750612868956
 30
0.0
 10
737.9392664937518
 20
560.7558766428494
 30
0.0
 10
730.8723030423757
 20
560.7750612869036
 30
0.0
 10
723.7366803219088
 20
560.8286109346454
 30
0.0
 10
716.5346084205635
 20
560.9144871444055
 30
0.0
 10
709.3286654368608
 20
561.0303311281546
 30
0.0
 10
702.175634119119
 20
561.1737735099755
 30
0.0
 10
695.1370760653858
 20
561.3422936693685
 30
0.0
 10
688.2557114416018
 20
561.5337339237385
 30
0.0
 10
681.5838265130928
 20
561.7457692754444
 30
0.0
 10
675.1842978075338
 20
561.9756715202575
 30
0.0
 10
668.8531065716429
 20
562.2323434354196
 30
0.0
 10
662.7334201760068
 20
562.5146780616426
 30
0.0
 10
656.9667736968158
 20
562.8211570077415
 30
0.0
 10
651.7943408019978
 20
563.1391584866876
 30
0.0
 10
647.2270061744471
 20
563.4653145160385
 30
0.0
 10
642.871205150504
 20
563.8310827248145
 30
0.0
 10
638.9566614587716
 20
564.2338833045226
 30
0.0
 10
635.6737045099849
 20
564.6681137923126
 30
0.0
 10
633.384329010381
 20
565.0723877967914
 30
0.0
 10
631.9365843640239
 20
565.4408148267405
 30
0.0
 10
631.2040078532641
 20
565.7001813420186
 30
0.0
 10
631.0723778695287
 20
565.8372501062486
 30
0.0
 10
631.0423293042309
 20
565.8685402393464
 30
0.0
  0
SPLINE
  5
109A
330
A
100
AcDbEntity
  8
MODEL
100
AcDbSpline
210
0.0
220
0.0
230
1.0
 70
    24
 71
     3
 72
    49
 73
    45
 74
     0
 42
0.000000001
 43
0.00000001
 40
0.0
 40
0.0
 40
0.0
 40
0.0
 40
0.0127943128190181
 40
0.0420575062341021
 40
0.0720882259900795
 40
0.1063301257010531
 40
0.1412417272947154
 40
0.1766438847049987
 40
0.2123029860186174
 40
0.2402435135806918
 40
0.2678170252177777
 40
0.2947624920424187
 40
0.3208133876049947
 40
0.3435228012204566
 40
0.3651499112326244
 40
0.3855746937461476
 40
0.4048006030134536
 40
0.4228815246767799
 40
0.4399011315753612
 40
0.4559917425044526
 40
0.4712965742438882
 40
0.4859515163452932
 40
0.5000642192992124
 40
0.5141769222558653
 40
0.528831864367049
 40
0.5441366961311276
 40
0.5602273071574524
 40
0.5772469143118621
 40
0.5953278363509172
 40
0.6145537454338141
 40
0.634978526230972
 40
0.6566056351315801
 40
0.6793150486716013
 40
0.7058485258475137
 40
0.7333043087112524
 40
0.7614015558966416
 40
0.7898638873994521
 40
0.8184005263190142
 40
0.8555345806343028
 40
0.8921516880176962
 40
0.9280413993907127
 40
0.9580045510933327
 40
0.9872029168867298
 40
1.0
 40
1.0
 40
1.0
 40
1.0
 10
846.7888366460948
 20
572.7621895921554
 30
0.0
 10
846.7577857305046
 20
572.7621895921554
 30
0.0
 10
846.6557150609046
 20
572.7621895921554
 30
0.0
 10
845.9294213194707
 20
572.7621895921554
 30
0.0
 10
844.5362969929238
 20
572.7621895921554
 30
0.0
 10
842.3671325292567
 20
572.7621895921554
 30
0.0
 10
839.3037702024499
 20
572.7621895921554
 30
0.0
 10
835.3353885752626
 20
572.7621895921554
 30
0.0
 10
830.7499348349706
 20
572.7621895921554
 30
0.0
 10
825.7431319833745
 20
572.7621895921554
 30
0.0
 10
820.549204680186
 20
572.7621895921554
 30
0.0
 10
814.7594681601518
 20
572.7621895921554
 30
0.0
 10
808.5841547055438
 20
572.7621895921554
 30
0.0
 10
802.1548940513867
 20
572.7621895921554
 30
0.0
 10
795.6058603675015
 20
572.7621895921554
 30
0.0
 10
788.7741079973025
 20
572.7621895921554
 30
0.0
 10
781.7260101856641
 20
572.7621895921554
 30
0.0
 10
774.5166805968006
 20
572.7621895921554
 30
0.0
 10
767.1914070448006
 20
572.7621895921554
 30
0.0
 10
759.8152927710148
 20
572.7621895921554
 30
0.0
 10
752.4482300484788
 20
572.7621895921554
 30
0.0
 10
745.1558682746158
 20
572.7621895921554
 30
0.0
 10
737.9392664937818
 20
572.7621895921554
 30
0.0
 10
730.722664710554
 20
572.7621895921554
 30
0.0
 10
723.4303029329799
 20
572.7621895921554
 30
0.0
 10
716.0632401931548
 20
572.7621895921554
 30
0.0
 10
708.6871258900551
 20
572.7621895921554
 30
0.0
 10
701.3618523043597
 20
572.7621895921554
 30
0.0
 10
694.1525228201685
 20
572.7621895921554
 30
0.0
 10
687.1044250780587
 20
572.7621895921554
 30
0.0
 10
680.2726730104528
 20
572.7621895921554
 30
0.0
 10
673.7236372850798
 20
572.7621895921554
 30
0.0
 10
667.2503062276928
 20
572.7621895921554
 30
0.0
 10
661.0013795545137
 20
572.7621895921554
 30
0.0
 10
655.1240209838766
 20
572.7621895921554
 30
0.0
 10
649.8646175612198
 20
572.7621895921554
 30
0.0
 10
645.2337092286448
 20
572.7621895921554
 30
0.0
 10
640.8335656183376
 20
572.7621895921554
 30
0.0
 10
636.8996943345596
 20
572.7621895921554
 30
0.0
 10
633.6247034702078
 20
572.7621895921554
 30
0.0
 10
631.3685337412066
 20
572.7621895921554
 30
0.0
 10
629.9591619849566
 20
572.7621895921554
 30
0.0
 10
629.2421511017069
 20
572.7621895921554
 30
0.0
 10
629.1317527274555
 20
572.7621895921554
 30
0.0
 10
629.0981115304357
 20
572.7621895921554
 30
0.0
  0
SPLINE
  5
109B
330
A
100
AcDbEntity
  8
MODEL
100
AcDbSpline
210
0.0
220
0.0
230
1.0
 70
    24
 71
     3
 72
    42
 73
    38
 74
     0
 42
0.000000001
 43
0.00000001
 40
0.2499998183718045
 40
0.2499998183718045
 40
0.2499998183718045
 40
0.2499998183718045
 40
0.25
 40
0.2578125
 40
0.265625
 40
0.2734375
 40
0.27734375
 40
0.3125
 40
0.34375
 40
0.359375
 40
0.390625
 40
0.3984375
 40
0.41015625
 40
0.4140625
 40
0.42578125
 40
0.453125
 40
0.484375
 40
0.4921875
 40
0.5
 40
0.5078125
 40
0.515625
 40
0.546875
 40
0.57421875
 40
0.5859375
 40
0.58984375
 40
0.6015625
 40
0.609375
 40
0.640625
 40
0.65625
 40
0.6875
 40
0.71484375
 40
0.71875
 40
0.7265625
 40
0.734375
 40
0.7421875
 40
0.75
 40
0.7500001816158894
 40
0.7500001816158894
 40
0.7500001816158894
 40
0.7500001816158894
 10
775.4394463927138
 20
492.7621895921557
 30
0.0
 10
775.4394463926988
 20
492.7621895921557
 30
0.0
 10
775.4394452638858
 20
492.7621895921557
 30
0.0
 10
775.4086799075708
 20
492.7621895921557
 30
0.0
 10
775.2702474714797
 20
492.7621895921557
 30
0.0
 10
775.079932393453
 20
492.7621895921557
 30
0.0
 10
774.4908898379258
 20
492.7621895921557
 30
0.0
 10
772.95525338379
 20
492.7621895921557
 30
0.0
 10
769.9186889107555
 20
492.7621895921557
 30
0.0
 10
766.253098852661
 20
492.7621895921557
 30
0.0
 10
763.180507476905
 20
492.7621895921557
 30
0.0
 10
760.0207321353196
 20
492.7621895921557
 30
0.0
 10
758.4997954438268
 20
492.7621895921557
 30
0.0
 10
756.6749173937465
 20
492.7621895921557
 30
0.0
 10
753.7295147714217
 20
492.7621895921557
 30
0.0
 10
748.619832273032
 20
492.7621895921557
 30
0.0
 10
743.4818005122988
 20
492.7621895921557
 30
0.0
 10
739.7905951186308
 20
492.7621895921557
 30
0.0
 10
737.9392664932425
 20
492.7621895921557
 30
0.0
 10
736.0879378678478
 20
492.7621895921557
 30
0.0
 10
732.396732474202
 20
492.7621895921557
 30
0.0
 10
727.2587007134684
 20
492.7621895921557
 30
0.0
 10
722.1490182150997
 20
492.7621895921557
 30
0.0
 10
719.2036155927967
 20
492.7621895921557
 30
0.0
 10
717.378737542725
 20
492.7621895921557
 30
0.0
 10
715.8578008512391
 20
492.7621895921557
 30
0.0
 10
712.6980255096687
 20
492.7621895921557
 30
0.0
 10
709.6254341339195
 20
492.7621895921557
 30
0.0
 10
705.9598440758386
 20
492.7621895921557
 30
0.0
 10
703.2123830983005
 20
492.7621895921557
 30
0.0
 10
701.7361313317497
 20
492.7621895921557
 30
0.0
 10
701.1004711135288
 20
492.7621895921557
 30
0.0
 10
700.8366636086771
 20
492.7621895921557
 30
0.0
 10
700.608285515043
 20
492.7621895921557
 30
0.0
 10
700.4698530789215
 20
492.7621895921557
 30
0.0
 10
700.4390877226297
 20
492.7621895921557
 30
0.0
 10
700.4390865937798
 20
492.7621895921557
 30
0.0
 10
700.4390865937717
 20
492.7621895921557
 30
0.0
  0
LINE
  5
109C
330
A
100
AcDbEntity
  8
MODEL
100
AcDbLine
 10
736.9583400651795
 20
572.7621895921554
 30
0.0
 11
737.7642564941248
 21
572.7621895921554
 31
0.0
  0
SPLINE
  5
109D
330
A
100
AcDbEntity
  8
HIDDEN
  6
HIDDEN
 48
0.05
100
AcDbSpline
210
0.0
220
0.0
230
1.0
 70
     8
 71
     3
 72
    40
 73
    36
 74
     0
 42
0.000000001
 43
0.0000000001
 40
0.0
 40
0.0
 40
0.0
 40
0.0
 40
3.025420646900557
 40
4.171574345514955
 40
5.177628968851764
 40
6.58938296674737
 40
8.098844752629487
 40
9.545707659804178
 40
11.13231768426254
 40
13.25701600926755
 40
15.64723325705329
 40
17.24339057912329
 40
19.05507808526747
 40
21.78103804127684
 40
24.72540862243779
 40
27.35354034185623
 40
31.76629178070331
 40
36.1916442194706
 40
43.80334093569555
 40
50.58181607697974
 40
55.4957440101243
 40
59.88372398446004
 40
68.18012485976061
 40
76.35614463231606
 40
81.8682753519518
 40
92.4942453974964
 40
99.90874787117976
 40
105.0054033552018
 40
110.4071525486698
 40
119.3987540079095
 40
124.1482492766362
 40
126.7009236506168
 40
128.5701157745334
 40
130.2851652840228
 40
131.83741763803
 40
131.83741763803
 40
131.83741763803
 40
131.83741763803
 10
632.8688229421628
 20
572.7621895921554
 30
0.0
 10
633.8771057414401
 20
572.7545307470584
 30
0.0
 10
635.2673675097635
 20
572.7439704166275
 30
0.0
 10
636.994267732663
 20
572.7850813147645
 30
0.0
 10
638.1794692177727
 20
572.6732216494195
 30
0.0
 10
639.4583628044547
 20
572.3452193597195
 30
0.0
 10
640.7418088914369
 20
571.6192373795925
 30
0.0
 10
641.8406293250059
 20
570.5553557611315
 30
0.0
 10
642.7576565585646
 20
569.0857099238315
 30
0.0
 10
643.5331619324547
 20
567.2032496512056
 30
0.0
 10
644.3718500756245
 20
565.3473526702655
 30
0.0
 10
645.1594266689885
 20
563.5821483936675
 30
0.0
 10
645.9278651613117
 20
561.6871525613756
 30
0.0
 10
646.9573722355785
 20
559.4148747921695
 30
0.0
 10
648.1638380655536
 20
556.9252428565255
 30
0.0
 10
649.7123501532919
 20
553.9786856266246
 30
0.0
 10
651.6062697757538
 20
550.6561045504475
 30
0.0
 10
654.619572842163
 20
546.0731630246155
 30
0.0
 10
658.291673799487
 20
540.9804718904245
 30
0.0
 10
662.5264529300257
 20
536.1254018379695
 30
0.0
 10
666.2890866659659
 20
532.3050051785515
 30
0.0
 10
670.6170222307715
 20
528.3421121463805
 30
0.0
 10
676.0655896537087
 20
524.0056523927976
 30
0.0
 10
682.1960889545385
 20
519.9721641787125
 30
0.0
 10
689.2836635054377
 20
516.0325854413254
 30
0.0
 10
696.4751085087705
 20
512.8394170071456
 30
0.0
 10
703.8013363430105
 20
510.3874811930646
 30
0.0
 10
709.591435730375
 20
508.9542524959945
 30
0.0
 10
715.9501798177121
 20
507.4572390950245
 30
0.0
 10
722.3982073710936
 20
507.9769026825534
 30
0.0
 10
727.7848442210848
 20
507.5328273320806
 30
0.0
 10
730.8941327273187
 20
507.6917514963034
 30
0.0
 10
732.807669287216
 20
506.8116082210727
 30
0.0
 10
734.0291121175101
 20
505.5238547897507
 30
0.0
 10
734.307300230947
 20
504.4384855213334
 30
0.0
 10
734.3732800567927
 20
503.9219530610976
 30
0.0
  0
SPLINE
  5
109E
330
A
100
AcDbEntity
  8
HIDDEN
100
AcDbSpline
210
0.0
220
0.0
230
1.0
 70
     8
 71
     3
 72
     8
 73
     4
 74
     0
 42
0.000000001
 43
0.0000000001
 40
134.6792635243996
 40
134.6792635243996
 40
134.6792635243996
 40
134.6792635243996
 40
135.7153796220475
 40
135.7153796220475
 40
135.7153796220475
 40
135.7153796220475
 10
734.3732800567927
 20
501.0801071747285
 30
0.0
 10
734.3660769643138
 20
500.7346385266965
 30
0.0
 10
734.3696785105535
 20
500.3893148018885
 30
0.0
 10
734.3732800567927
 20
500.0439910770806
 30
0.0
  0
SPLINE
  5
109F
330
A
100
AcDbEntity
  8
HIDDEN
  6
HIDDEN
 48
0.05
100
AcDbSpline
210
0.0
220
0.0
230
1.0
 70
     8
 71
     3
 72
    40
 73
    36
 74
     0
 42
0.000000001
 43
0.0000000001
 40
0.0
 40
0.0
 40
0.0
 40
0.0
 40
3.025420646900557
 40
4.171574345514955
 40
5.177628968851764
 40
6.58938296674737
 40
8.098844752629487
 40
9.545707659804178
 40
11.13231768426254
 40
13.25701600926755
 40
15.64723325705329
 40
17.24339057912329
 40
19.05507808526747
 40
21.78103804127684
 40
24.72540862243779
 40
27.35354034185623
 40
31.76629178070331
 40
36.1916442194706
 40
43.80334093569555
 40
50.58181607697974
 40
55.4957440101243
 40
59.88372398446004
 40
68.18012485976061
 40
76.35614463231606
 40
81.8682753519518
 40
92.4942453974964
 40
99.90874787117976
 40
105.0054033552018
 40
110.4071525486698
 40
119.3987540079095
 40
124.1482492766362
 40
126.7009236506168
 40
128.5701157745334
 40
130.2851652840228
 40
131.83741763803
 40
131.83741763803
 40
131.83741763803
 40
131.83741763803
 10
843.0097100472349
 20
572.7621895921554
 30
0.0
 10
842.0014272479589
 20
572.7545307470584
 30
0.0
 10
840.6111654796346
 20
572.7439704166275
 30
0.0
 10
838.884265256735
 20
572.7850813147645
 30
0.0
 10
837.6990637716249
 20
572.6732216494195
 30
0.0
 10
836.4201701849429
 20
572.3452193597195
 30
0.0
 10
835.1367240979607
 20
571.6192373795925
 30
0.0
 10
834.0379036643931
 20
570.5553557611315
 30
0.0
 10
833.1208764308326
 20
569.0857099238315
 30
0.0
 10
832.3453710569424
 20
567.2032496512056
 30
0.0
 10
831.5066829137727
 20
565.3473526702655
 30
0.0
 10
830.7191063204095
 20
563.5821483936675
 30
0.0
 10
829.9506678280854
 20
561.6871525613756
 30
0.0
 10
828.9211607538195
 20
559.4148747921695
 30
0.0
 10
827.7146949238436
 20
556.9252428565255
 30
0.0
 10
826.1661828361057
 20
553.9786856266246
 30
0.0
 10
824.2722632136438
 20
550.6561045504475
 30
0.0
 10
821.2589601472359
 20
546.0731630246155
 30
0.0
 10
817.5868591899107
 20
540.9804718904245
 30
0.0
 10
813.3520800593728
 20
536.1254018379695
 30
0.0
 10
809.5894463234331
 20
532.3050051785515
 30
0.0
 10
805.2615107586266
 20
528.3421121463805
 30
0.0
 10
799.8129433356885
 20
524.0056523927976
 30
0.0
 10
793.6824440348587
 20
519.9721641787125
 30
0.0
 10
786.5948694839599
 20
516.0325854413254
 30
0.0
 10
779.4034244806276
 20
512.8394170071456
 30
0.0
 10
772.0771966463867
 20
510.3874811930646
 30
0.0
 10
766.287097259024
 20
508.9542524959945
 30
0.0
 10
759.9283531716869
 20
507.4572390950245
 30
0.0
 10
753.4803256183045
 20
507.9769026825534
 30
0.0
 10
748.0936887683138
 20
507.5328273320806
 30
0.0
 10
744.9844002620789
 20
507.6917514963034
 30
0.0
 10
743.0708637021817
 20
506.8116082210727
 30
0.0
 10
741.8494208718889
 20
505.5238547897507
 30
0.0
 10
741.571232758452
 20
504.4384855213334
 30
0.0
 10
741.5052529326049
 20
503.9219530610976
 30
0.0
  0
ELLIPSE
  5
10A8
330
A
100
AcDbEntity
  8
HIDDEN
  6
HIDDEN
 48
0.05
370
     0
100
AcDbEllipse
 10
245.2764033607955
 20
1005.71408709521
 30
0.0
 11
60.0
 21
0.0
 31
0.0
210
0.0
220
0.0
230
1.0
 40
0.6249999999999906
 41
0.0
 42
6.283185307179586
  0
LINE
  5
10AA
330
A
100
AcDbEntity
  8
HIDDEN
  6
HIDDEN
 48
0.05
370
     0
100
AcDbLine
 10
285.2764033607955
 20
1033.664936813959
 30
0.0
 11
285.2764033607955
 21
1053.21408709521
 31
0.0
  0
LINE
  5
10AB
330
A
100
AcDbEntity
  8
HIDDEN
  6
HIDDEN
 48
0.05
370
     0
100
AcDbLine
 10
205.2764033607955
 20
1046.714087095206
 30
0.0
 11
205.2764033607955
 21
1033.664936813959
 31
0.0
  0
LINE
  5
10AC
330
A
100
AcDbEntity
  8
HIDDEN
  6
HIDDEN
 48
0.05
370
     0
100
AcDbLine
 10
208.2764033607955
 20
1046.714087095206
 30
0.0
 11
205.2764033607955
 21
1046.714087095206
 31
0.0
  0
LINE
  5
10AD
330
A
100
AcDbEntity
  8
HIDDEN
  6
HIDDEN
 48
0.05
370
     0
100
AcDbLine
 10
285.2764033607955
 20
1053.21408709521
 30
0.0
 11
285.2764033607955
 21
1117.133323554688
 31
0.0
  0
LINE
  5
10AE
330
A
100
AcDbEntity
  8
HIDDEN
  6
HIDDEN
 48
0.05
370
     0
100
AcDbLine
 10
282.2764033607882
 20
1053.21408709521
 30
0.0
 11
282.2764033607882
 21
1117.21408709521
 31
0.0
  0
LINE
  5
10B1
330
A
100
AcDbEntity
  8
HIDDEN
  6
HIDDEN
 48
0.05
370
     0
100
AcDbLine
 10
208.2764033607955
 20
1046.714087095206
 30
0.0
 11
208.2764033607955
 21
1107.59171146697
 31
0.0
  0
LINE
  5
10B2
330
A
100
AcDbEntity
  8
HIDDEN
  6
HIDDEN
 48
0.05
370
     0
100
AcDbLine
 10
205.2764033607955
 20
1046.714087095206
 30
0.0
 11
205.2764033607955
 21
1106.714087095206
 31
0.0
  0
CIRCLE
  5
10B3
330
A
100
AcDbEntity
  8
MODEL
100
AcDbCircle
 10
245.2764033607955
 20
1145.214087095213
 30
0.0
 40
17.49999999999943
  0
LINE
  5
10B4
330
A
100
AcDbEntity
  8
MODEL
100
AcDbLine
 10
415.2764033607955
 20
1176.714087095206
 30
0.0
 11
205.2764033607955
 21
1176.714087095206
 31
0.0
  0
LINE
  5
10B5
330
A
100
AcDbEntity
  8
MODEL
100
AcDbLine
 10
415.2764033607955
 20
1094.214087095206
 30
0.0
 11
415.2764033607955
 21
1176.714087095206
 31
0.0
  0
ARC
  5
10B6
330
A
100
AcDbEntity
  8
MODEL
100
AcDbCircle
 10
276.9684531292287
 20
689.864324111368
 30
0.0
 40
427.349762983838
100
AcDbArc
 50
71.11673283752611
 51
90.0
  0
ARC
  5
10B7
330
A
100
AcDbEntity
  8
MODEL
100
AcDbCircle
 10
276.9684531292287
 20
867.2140870952101
 30
0.0
 40
250.0
100
AcDbArc
 50
90.0
 51
106.6645713738188
  0
LINE
  5
10B8
330
A
100
AcDbEntity
  8
MODEL
100
AcDbLine
 10
205.2764033607955
 20
1176.714087095206
 30
0.0
 11
205.2764033607955
 21
1106.714087095206
 31
0.0
  0
LINE
  5
10B9
330
A
100
AcDbEntity
  8
MODEL
 48
0.05
100
AcDbLine
 10
306.0214223744829
 20
491.6371895921516
 30
0.0
 11
306.0214223744829
 21
492.8871895921516
 31
0.0
  0
LINE
  5
10BA
330
A
100
AcDbEntity
  8
MODEL
 48
0.05
100
AcDbLine
 10
306.0214223744829
 20
489.7621895921554
 30
0.0
 11
306.0214223744829
 21
491.7621895921557
 31
0.0
  0
LINE
  5
10BB
330
A
100
AcDbEntity
  8
MODEL
 48
0.05
100
AcDbLine
 10
186.0214223744829
 20
491.7621895921557
 30
0.0
 11
186.0214223744829
 21
489.7621895921554
 31
0.0
  0
LINE
  5
10BC
330
A
100
AcDbEntity
  8
MODEL
 48
0.05
100
AcDbLine
 10
186.0214224379511
 20
491.7621895921557
 30
0.0
 11
306.0214223744829
 21
491.7621895921557
 31
0.0
  0
LINE
  5
10BD
330
A
100
AcDbEntity
  8
MODEL
 48
0.05
100
AcDbLine
 10
186.0214224379511
 20
492.7621895921557
 30
0.0
 11
306.0214223744829
 21
492.7621895921557
 31
0.0
  0
LINE
  5
10BE
330
A
100
AcDbEntity
  8
MODEL
 48
0.05
100
AcDbLine
 10
186.0214229614562
 20
491.7621895921557
 30
0.0
 11
306.0214220338298
 21
491.7621895921557
 31
0.0
  0
LINE
  5
10BF
330
A
100
AcDbEntity
  8
MODEL
 48
0.05
100
AcDbLine
 10
186.0214228700297
 20
489.7621895921554
 30
0.0
 11
306.0214219424033
 21
489.7621895921554
 31
0.0
  0
LINE
  5
10C2
330
A
100
AcDbEntity
  8
HIDDEN
  6
HIDDEN
 48
0.05
370
     0
100
AcDbLine
 10
206.0214223744829
 20
492.7621895921557
 30
0.0
 11
206.0214223744829
 21
558.7621895921516
 31
0.0
  0
CIRCLE
  5
10C5
330
A
100
AcDbEntity
  8
HIDDEN
  6
HIDDEN
 48
0.05
100
AcDbCircle
 10
236.021422374483
 20
524.7621895921554
 30
0.0
 40
5.999999999999659
  0
LINE
  5
10C6
330
A
100
AcDbEntity
  8
HIDDEN
  6
HIDDEN
 48
0.05
370
     0
100
AcDbLine
 10
416.0214223744829
 20
543.1339420271465
 30
0.0
 11
416.0214223744829
 21
558.7621895921516
 31
0.0
  0
CIRCLE
  5
10C7
330
A
100
AcDbEntity
  8
HIDDEN
  6
HIDDEN
 48
0.05
100
AcDbCircle
 10
336.021422374483
 20
524.7621895921554
 30
0.0
 40
5.999999999999659
  0
LINE
  5
10C8
330
A
100
AcDbEntity
  8
MODEL
 48
0.05
100
AcDbLine
 10
306.0214223744829
 20
489.7621895921554
 30
0.0
 11
416.0214223744829
 21
489.7621895921554
 31
0.0
  0
LINE
  5
10CB
330
A
100
AcDbEntity
  8
HIDDEN
  6
HIDDEN
 48
0.05
370
     0
100
AcDbLine
 10
277.7134721429161
 20
558.7621895921516
 30
0.0
 11
416.0214223744829
 21
558.7621895921516
 31
0.0
  0
LINE
  5
10CE
330
A
100
AcDbEntity
  8
HIDDEN
  6
HIDDEN
 48
0.05
370
     0
100
AcDbLine
 10
206.0214223744829
 20
558.7621895921516
 30
0.0
 11
277.7134721429161
 21
558.7621895921516
 31
0.0
  0
LINE
  5
10CF
330
A
100
AcDbEntity
  8
MODEL
100
AcDbLine
 10
416.0214223744829
 20
543.1339420271465
 30
0.0
 11
416.0214223744829
 21
489.7621895921554
 31
0.0
  0
DIMENSION
  5
10D0
330
A
100
AcDbEntity
  8
DIM
100
AcDbDimension
  2
*D33
 10
960.1172778956161
 20
488.7621895921516
 30
0.0
 11
960.1172778956161
 21
523.7621895921516
 31
0.0
 70
   160
 71
     5
 42
69.99999999999994
 73
     0
 74
     0
 75
     0
  3
tfrom線あり
100
AcDbAlignedDimension
 13
908.9392664947068
 23
558.7621895921516
 33
0.0
 14
908.9392664947068
 24
488.7621895921516
 34
0.0
 50
90.0
100
AcDbRotatedDimension
  0
LINE
  5
10D1
330
A
100
AcDbEntity
  8
MODEL
100
AcDbLine
 10
775.4392664946995
 20
492.8871895921516
 30
0.0
 11
775.4392664946995
 21
491.7621895921557
 31
0.0
  0
LINE
  5
10D2
330
A
100
AcDbEntity
  8
MODEL
100
AcDbLine
 10
765.8901162134484
 20
491.7621895921557
 30
0.0
 11
765.8901162134484
 21
488.7621895921516
 31
0.0
  0
LINE
  5
10D3
330
A
100
AcDbEntity
  8
MODEL
100
AcDbLine
 10
785.4392664947095
 20
491.7621895921557
 30
0.0
 11
785.4392664947095
 21
488.7621895921516
 31
0.0
  0
LINE
  5
10D4
330
A
100
AcDbEntity
  8
MODEL
100
AcDbLine
 10
785.4392664947095
 20
491.7621895921557
 30
0.0
 11
765.8901162134484
 21
491.7621895921557
 31
0.0
  0
LINE
  5
10D5
330
A
100
AcDbEntity
  8
MODEL
100
AcDbLine
 10
778.9392664947068
 20
488.7621895921516
 30
0.0
 11
765.8901162134484
 21
488.7621895921516
 31
0.0
  0
LINE
  5
10D6
330
A
100
AcDbEntity
  8
MODEL
100
AcDbLine
 10
908.9392664947068
 20
488.7621895921516
 30
0.0
 11
778.9392664947068
 21
488.7621895921516
 31
0.0
  0
LINE
  5
10D8
330
A
100
AcDbEntity
  8
MODEL
100
AcDbLine
 10
840.6166891081591
 20
555.7621895921516
 30
0.0
 11
908.9392664947068
 21
555.7621895921516
 31
0.0
  0
LINE
  5
10D9
330
A
100
AcDbEntity
  8
MODEL
100
AcDbLine
 10
908.9392664947068
 20
555.7621895921516
 30
0.0
 11
908.9392664947068
 21
488.7621895921516
 31
0.0
  0
LINE
  5
10DA
330
A
100
AcDbEntity
  8
MODEL
100
AcDbLine
 10
908.9392664947068
 20
558.7621895921516
 30
0.0
 11
908.9392664947068
 21
555.7621895921516
 31
0.0
  0
LINE
  5
10DB
330
A
100
AcDbEntity
  8
MODEL
100
AcDbLine
 10
908.9392664947068
 20
558.7621895921516
 30
0.0
 11
841.9902332336284
 21
558.7621895921516
 31
0.0
  0
LINE
  5
10DF
330
A
100
AcDbEntity
  8
MODEL
100
AcDbLine
 10
905.9392664947068
 20
488.7621895921516
 30
0.0
 11
905.9392664947068
 21
555.7621895921516
 31
0.0
  0
LINE
  5
10E0
330
A
100
AcDbEntity
  8
MODEL
100
AcDbLine
 10
765.8901162134484
 20
488.7621895921516
 30
0.0
 11
703.9392664947068
 21
488.7621895921516
 31
0.0
  0
LINE
  5
10E1
330
A
100
AcDbEntity
  8
MODEL
100
AcDbLine
 10
765.8901162134484
 20
491.7621895921557
 30
0.0
 11
703.9392664947068
 21
491.7621895921557
 31
0.0
  0
LINE
  5
10E2
330
A
100
AcDbEntity
  8
MODEL
100
AcDbLine
 10
765.8901162134484
 20
491.7621895921557
 30
0.0
 11
703.9392664947068
 21
491.7621895921557
 31
0.0
  0
LINE
  5
10E3
330
A
100
AcDbEntity
  8
MODEL
100
AcDbLine
 10
775.4392664868051
 20
492.7621895921557
 30
0.0
 11
703.9392664947068
 21
492.7621895921557
 31
0.0
  0
LINE
  5
10E4
330
A
100
AcDbEntity
  8
MODEL
100
AcDbLine
 10
703.9392664947068
 20
488.7621895921516
 30
0.0
 11
703.9392664947077
 21
492.8871895921516
 31
0.0
  0
LINE
  5
10E5
330
A
100
AcDbEntity
  8
DIM
100
AcDbLine
 10
338.8107670465542
 20
530.0743978241794
 30
0.0
 11
382.8337891642479
 21
622.1777333471589
 31
0.0
  0
MTEXT
  5
10E6
330
A
100
AcDbEntity
  8
DIM
390
1D
100
AcDbMText
 10
383.2228198037276
 20
642.2316363441964
 30
0.0
 40
12.0
 41
0.0
 46
13.404
 71
     1
 72
     1
  1
{壁取付ボルト位置(2ヶ所)}
  7
ＭＳ ゴシック
 73
     1
 44
0.7828267384257843
1001
ACAD
1000
ACAD_MTEXT_DEFINED_HEIGHT_BEGIN
1070
    46
1040
13.404
1000
ACAD_MTEXT_DEFINED_HEIGHT_END
  0
DIMENSION
  5
10E7
330
A
100
AcDbEntity
  8
DIM
100
AcDbDimension
  2
*D34
 10
336.0214223744827
 20
607.5163059616629
 30
0.0
 11
286.0214223744827
 21
623.5163059616629
 31
0.0
 70
    32
 71
     5
 42
100.0
 73
     0
 74
     0
 75
     0
  3
tfrom線あり
100
AcDbAlignedDimension
 13
236.0214223744827
 23
547.2390276167407
 33
0.0
 14
336.0214223744827
 24
547.2390276167407
 34
0.0
100
AcDbRotatedDimension
  0
DIMENSION
  5
10E8
330
A
100
AcDbEntity
  8
DIM
100
AcDbDimension
  2
*D35
 10
703.9392664947068
 20
384.3788480397004
 30
0.0
 11
806.4392664947068
 21
400.3788480397004
 31
0.0
 70
    32
 71
     5
 42
205.0
 73
     0
 74
     0
 75
     0
  3
tfrom線あり
100
AcDbAlignedDimension
 13
908.9392664947068
 23
488.7621895921516
 33
0.0
 14
703.9392664947068
 24
488.3752514583529
 34
0.0
100
AcDbRotatedDimension
  0
LINE
  5
10E9
330
A
100
AcDbEntity
  8
DIM
100
AcDbLine
 10
228.6777120210886
 20
1150.75786250635
 30
0.0
 11
183.1682330071969
 21
1173.366121975189
 31
0.0
  0
MTEXT
  5
10EA
330
A
100
AcDbEntity
  8
DIM
390
1D
100
AcDbMText
 10
149.1861917943477
 20
1182.254795374869
 30
0.0
 40
12.0
 41
949.7161250932045
 46
13.944
 71
     1
 72
     1
  1
{φ32}
  7
ＭＳ ゴシック
 73
     1
 44
0.9822934569727008
1001
ACAD
1000
ACAD_MTEXT_DEFINED_HEIGHT_BEGIN
1070
    46
1040
13.944
1000
ACAD_MTEXT_DEFINED_HEIGHT_END
  0
DIMENSION
  5
10EB
330
A
100
AcDbEntity
  8
DIM
100
AcDbDimension
  2
*D36
 10
415.2764033607953
 20
1218.31259349144
 30
0.0
 11
310.2764033607953
 21
1218.31259349144
 31
0.0
 70
   160
 71
     5
 42
210.0
 73
     0
 74
     0
 75
     0
  3
tfrom線あり
100
AcDbAlignedDimension
 13
205.2764033607953
 23
1176.714087095206
 33
0.0
 14
415.2764033607953
 24
1176.714087095206
 34
0.0
100
AcDbRotatedDimension
  0
DIMENSION
  5
12C6
330
A
100
AcDbEntity
  8
DIM
 48
0.05
100
AcDbDimension
  2
*D39
 10
600.8538489065252
 20
896.714087095206
 30
0.0
 11
584.8538489065252
 21
1036.714087095206
 31
0.0
 70
    32
 71
     5
 42
280.0
 73
     0
 74
     0
 75
     0
  3
tfrom線あり
100
AcDbAlignedDimension
 13
415.2764033607955
 23
1176.714087095206
 33
0.0
 14
415.2764033607955
 24
896.714087095206
 34
0.0
 50
90.0
100
AcDbRotatedDimension
  0
DIMENSION
  5
132D
330
A
100
AcDbEntity
  8
DIM
  6
Continuous
100
AcDbDimension
  2
*D42
 10
441.0281257070251
 20
829.5396588891837
 30
0.0
 11
301.0281257070251
 21
845.5396588891837
 31
0.0
 70
    32
 71
     5
 42
280.0
 73
     0
 74
     0
 75
     0
  3
tfrom線あり
100
AcDbAlignedDimension
 13
161.0281257070251
 23
935.3054294638671
 33
0.0
 14
441.0281257070251
 24
935.3054294638671
 34
0.0
 50
-0.000000000000014
100
AcDbRotatedDimension
  0
DIMENSION
  5
132E
330
A
100
AcDbEntity
  8
DIM
 48
0.05
100
AcDbDimension
  2
*D43
 10
441.0281257070251
 20
829.5396588891837
 30
0.0
 11
466.0281257070251
 21
845.5396588891837
 31
0.0
 70
    32
 71
     5
 42
50.0
 73
     0
 74
     0
 75
     0
  3
tfrom線あり
100
AcDbAlignedDimension
 13
491.0281257070251
 23
1005.714087094332
 33
0.0
 14
441.0281257070251
 24
1005.714087094332
 34
0.0
100
AcDbRotatedDimension
  0
ELLIPSE
  5
132F
330
A
100
AcDbEntity
  8
MODEL
 48
0.05
370
     0
100
AcDbEllipse
 10
262.7898346444537
 20
1005.71408709521
 30
0.0
 11
-177.441238941698
 21
0.0
 31
0.0
210
0.0
220
0.0
230
1.0
 40
0.5397026884523973
 41
1.445444850870658
 42
4.837740456308928
  0
ELLIPSE
  5
1330
330
A
100
AcDbEntity
  8
MODEL
 48
0.05
370
     0
100
AcDbEllipse
 10
240.6088132262011
 20
1005.71408709521
 30
0.0
 11
-95.37773964004917
 21
0.0
 31
0.0
210
0.0
220
0.0
230
1.0
 40
0.9960395408669283
 41
-1.570796326794897
 42
1.570796326794897
  0
DIMENSION
  5
1358
330
A
100
AcDbEntity
  8
DIM
 48
0.05
100
AcDbDimension
  2
*D44
 10
89.56328166111354
 20
524.7621895921554
 30
0.0
 11
73.56328166111354
 21
548.7621895921554
 31
0.0
 70
    32
 71
     5
 42
47.99999999999999
 73
     0
 74
     0
 75
     0
  3
tfrom線あり
100
AcDbAlignedDimension
 13
131.0214204742331
 23
572.7621895921554
 33
0.0
 14
212.3173726974007
 24
524.7621895921554
 34
0.0
 50
90.0
100
AcDbRotatedDimension
  0
LINE
  5
13A5
330
A
100
AcDbEntity
  8
MODEL
  6
CENTER
 48
0.01
100
AcDbLine
 10
359.7254720515655
 20
524.7621895921553
 30
0.0
 11
312.3173726974007
 21
524.7621895921553
 31
0.0
  0
LINE
  5
13A6
330
A
100
AcDbEntity
  8
MODEL
  6
CENTER
 48
0.01
100
AcDbLine
 10
336.0214223744831
 20
548.4662392692376
 30
0.0
 11
336.0214223744831
 21
501.0581399150728
 31
0.0
  0
LINE
  5
13A7
330
A
100
AcDbEntity
  8
MODEL
  6
CENTER
 48
0.01
100
AcDbLine
 10
259.7254720515654
 20
524.7621895921554
 30
0.0
 11
212.3173726974007
 21
524.7621895921554
 31
0.0
  0
LINE
  5
13A8
330
A
100
AcDbEntity
  8
MODEL
  6
CENTER
 48
0.01
100
AcDbLine
 10
236.0214223744831
 20
548.4662392692377
 30
0.0
 11
236.0214223744831
 21
501.0581399150728
 31
0.0
  0
LINE
  5
15FD
330
A
100
AcDbEntity
  8
HIDDEN
  6
HIDDEN
 48
0.05
370
     0
100
AcDbLine
 10
285.2764033607882
 20
1053.21408709521
 30
0.0
 11
282.2764033607882
 21
1053.21408709521
 31
0.0
  0
DIMENSION
  5
161F
330
A
100
AcDbEntity
  8
DIM
 48
0.05
100
AcDbDimension
  2
*D61
 10
518.3731533128922
 20
489.7621895921554
 30
0.0
 11
518.3731533128922
 21
531.2621895921554
 31
0.0
 70
   160
 71
     5
 42
83.0
 73
     0
 74
     0
 75
     0
  3
tfrom線あり
100
AcDbAlignedDimension
 13
491.028125309869
 23
572.7621895921554
 33
0.0
 14
416.0214223744829
 24
489.7621895921554
 34
0.0
 50
90.0
100
AcDbRotatedDimension
  0
DIMENSION
  5
167A
330
A
100
AcDbEntity
  8
DIM
 48
0.05
100
AcDbDimension
  2
*D62
 10
556.2896058455182
 20
469.7621895921554
 30
0.0
 11
556.2896058455182
 21
521.2621895921554
 31
0.0
 70
   160
 71
     5
 42
103.0
 73
     0
 74
     0
 75
     0
  3
tfrom線あり
100
AcDbAlignedDimension
 13
491.028125309869
 23
572.7621895921554
 33
0.0
 14
268.6325007606027
 24
469.7621895921554
 34
0.0
 50
90.0
100
AcDbRotatedDimension
  0
DIMENSION
  5
16F1
330
A
100
AcDbEntity
  8
DIM
 48
0.05
100
AcDbDimension
  2
*D65
 10
267.0214224062165
 20
438.2466508015756
 30
0.0
 11
246.0214224062165
 21
438.2466508015756
 31
0.0
 70
   160
  1
G1 1/4"
 71
     5
 42
42.0
 73
     0
 74
     0
 75
     0
  3
tfrom線あり
100
AcDbAlignedDimension
 13
225.0214224062165
 23
469.7621895921554
 33
0.0
 14
267.0214224062165
 24
469.7621895921554
 34
0.0
100
AcDbRotatedDimension
1001
ACAD
1000
DSTYLE
1002
{
1070
    77
1070
     2
1002
}
  0
HATCH
  5
16F5
330
A
100
AcDbEntity
  8
HIDDEN
  6
Continuous
 48
0.05
370
     0
100
AcDbHatch
 10
0.0
 20
0.0
 30
0.0
210
0.0
220
0.0
230
1.0
  2
ANSI31
 70
     0
 71
     1
 91
        1
 92
        1
 93
        4
 72
     1
 10
267.0214224062165
 20
482.1664282917657
 11
267.0214224062165
 21
469.7621895921554
 72
     1
 10
227.6611051475405
 20
482.1664282917657
 11
264.3817396648925
 21
482.1664282917657
 72
     1
 10
225.0214224062165
 20
482.1664282917657
 11
225.0214224062165
 21
469.7621895921554
 72
     1
 10
225.0214224062165
 20
469.7621895921554
 11
267.0214224062165
 21
469.7621895921554
 97
        4
330
16F8
330
16FB
330
16F7
330
16F6
 75
     0
 76
     1
 52
145.0
 41
0.9999999999999983
 77
     0
 78
     1
 53
189.9999999999997
 43
3.070218084819146
 44
25.39389220755226
 45
0.5513329640925042
 46
-3.12676461581376
 79
     0
 98
        1
 10
3.070218084819146
 20
25.39389220755226
1001
ACAD
1010
0.0
1020
0.0
1030
0.0
  0
LINE
  5
16F6
102
{ACAD_REACTORS
330
16F5
102
}
330
A
100
AcDbEntity
  8
HIDDEN
  6
Continuous
 48
0.05
100
AcDbLine
 10
225.0214224062165
 20
469.7621895921554
 30
0.0
 11
267.0214224062165
 21
469.7621895921554
 31
0.0
  0
LINE
  5
16F7
102
{ACAD_REACTORS
330
16F5
102
}
330
A
100
AcDbEntity
  8
HIDDEN
  6
Continuous
 48
0.05
100
AcDbLine
 10
225.0214224062165
 20
482.1664282917657
 30
0.0
 11
225.0214224062165
 21
469.7621895921554
 31
0.0
  0
LINE
  5
16F8
102
{ACAD_REACTORS
330
16F5
102
}
330
A
100
AcDbEntity
  8
HIDDEN
  6
Continuous
 48
0.05
100
AcDbLine
 10
267.0214224062165
 20
482.1664282917657
 30
0.0
 11
267.0214224062165
 21
469.7621895921554
 31
0.0
  0
LINE
  5
16F9
330
A
100
AcDbEntity
  8
HIDDEN
  6
Continuous
 48
0.05
100
AcDbLine
 10
275.1927733939106
 20
482.1664282917657
 30
0.0
 11
216.8500714185224
 21
482.1664282917657
 31
0.0
  0
LINE
  5
16FA
330
A
100
AcDbEntity
  8
HIDDEN
  6
Continuous
 48
0.05
100
AcDbLine
 10
275.1927733939106
 20
482.1664282917657
 30
0.0
 11
275.1927733939106
 21
489.7621895921554
 31
0.0
  0
LINE
  5
16FB
102
{ACAD_REACTORS
330
16F5
102
}
330
A
100
AcDbEntity
  8
HIDDEN
  6
Continuous
 48
0.05
100
AcDbLine
 10
227.6611051475405
 20
482.1664282917657
 30
0.0
 11
264.3817396648925
 21
482.1664282917657
 31
0.0
  0
LINE
  5
16FC
102
{ACAD_REACTORS
102
}
330
A
100
AcDbEntity
  8
HIDDEN
  6
Continuous
 48
0.05
100
AcDbLine
 10
216.8500714185224
 20
482.1664282917657
 30
0.0
 11
216.8500714185224
 21
489.7621895921554
 31
0.0
  0
LINE
  5
16FD
330
A
100
AcDbEntity
  8
HIDDEN
 48
0.05
100
AcDbLine
 10
247.9636151322717
 20
500.6982429530265
 30
0.0
 11
247.9636151322717
 21
489.7621895921554
 31
0.0
  0
LINE
  5
16FE
330
A
100
AcDbEntity
  8
HIDDEN
 48
0.05
100
AcDbLine
 10
244.0792296801614
 20
500.6982429530265
 30
0.0
 11
244.0792296801612
 21
489.7621895921554
 31
0.0
  0
LINE
  5
1779
330
A
100
AcDbEntity
  8
HIDDEN
  6
Continuous
 48
0.05
100
AcDbLine
 10
717.9392664947068
 20
481.166428291762
 30
0.0
 11
717.9392664947068
 21
468.7621895921516
 31
0.0
  0
LINE
  5
177A
330
A
100
AcDbEntity
  8
HIDDEN
  6
Continuous
 48
0.05
100
AcDbLine
 10
759.9392664947068
 20
481.166428291762
 30
0.0
 11
759.9392664947068
 21
468.7621895921516
 31
0.0
  0
HATCH
  5
177B
330
A
100
AcDbEntity
  8
HIDDEN
  6
Continuous
 48
0.05
370
     0
100
AcDbHatch
 10
0.0
 20
0.0
 30
0.0
210
0.0
220
0.0
230
1.0
  2
ANSI31
 70
     0
 71
     0
 91
        1
 92
        1
 93
        4
 72
     1
 10
759.9392664947068
 20
481.166428291762
 11
759.9392664947068
 21
468.7621895921516
 72
     1
 10
720.5789492360307
 20
481.166428291762
 11
757.2995837533826
 21
481.166428291762
 72
     1
 10
717.9392664947068
 20
481.166428291762
 11
717.9392664947068
 21
468.7621895921516
 72
     1
 10
717.9392664947068
 20
468.7621895921516
 11
759.9392664947068
 21
468.7621895921516
 97
        0
 75
     0
 76
     1
 52
145.0
 41
0.9999999999999981
 77
     0
 78
     1
 53
189.9999999999994
 43
495.9880621733093
 44
24.3938922075485
 45
0.5513329640925042
 46
-3.12676461581376
 79
     0
 98
        1
 10
495.9880621733093
 20
24.3938922075485
1001
ACAD
1010
0.0
1020
0.0
1030
0.0
  0
LINE
  5
177C
330
A
100
AcDbEntity
  8
HIDDEN
  6
Continuous
 48
0.05
100
AcDbLine
 10
768.1106174824008
 20
481.166428291762
 30
0.0
 11
709.7679155070127
 21
481.166428291762
 31
0.0
  0
LINE
  5
177D
330
A
100
AcDbEntity
  8
HIDDEN
  6
Continuous
 48
0.05
100
AcDbLine
 10
720.5789492360307
 20
481.166428291762
 30
0.0
 11
757.2995837533826
 21
481.166428291762
 31
0.0
  0
LINE
  5
177E
330
A
100
AcDbEntity
  8
HIDDEN
  6
Continuous
 48
0.05
100
AcDbLine
 10
709.7679155070127
 20
481.166428291762
 30
0.0
 11
709.7679155070127
 21
488.7621895921516
 31
0.0
  0
LINE
  5
177F
330
A
100
AcDbEntity
  8
HIDDEN
  6
Continuous
 48
0.05
100
AcDbLine
 10
768.1106174824008
 20
481.166428291762
 30
0.0
 11
768.1106174824008
 21
488.7621895921516
 31
0.0
  0
LINE
  5
1780
330
A
100
AcDbEntity
  8
HIDDEN
  6
Continuous
 48
0.05
100
AcDbLine
 10
717.9392664947068
 20
468.7621895921516
 30
0.0
 11
759.9392664947068
 21
468.7621895921516
 31
0.0
  0
DIMENSION
  5
1781
330
A
100
AcDbEntity
  8
DIM
 48
0.05
100
AcDbDimension
  2
*D67
 10
738.9392664947068
 20
424.6545465076897
 30
0.0
 11
823.9392664947068
 21
440.6545465076897
 31
0.0
 70
    32
 71
     5
 42
170.0
 73
     0
 74
     0
 75
     0
  3
tfrom線あり
100
AcDbAlignedDimension
 13
908.9392664947068
 23
488.7621895921516
 33
0.0
 14
738.9392664947068
 24
468.7621895921516
 34
0.0
100
AcDbRotatedDimension
  0
DIMENSION
  5
17D8
330
A
100
AcDbEntity
  8
DIM
 48
0.05
100
AcDbDimension
  2
*D68
 10
602.6319367187277
 20
492.7621895921554
 30
0.0
 11
602.6319367187277
 21
532.7621895921554
 31
0.0
 70
   160
 71
     5
 42
80.0
 73
     0
 74
     0
 75
     0
  3
tfrom線あり
100
AcDbAlignedDimension
 13
629.0411177737601
 23
572.7621895921554
 33
0.0
 14
697.953038518282
 24
492.7621895921554
 34
0.0
 50
90.0
100
AcDbRotatedDimension
  0
DIMENSION
  5
186D
330
A
100
AcDbEntity
  8
DIM
 48
0.05
100
AcDbDimension
  2
*D70
 10
876.9392664947068
 20
596.8001050068185
 30
0.0
 11
892.9392664947068
 21
596.8001050068185
 31
0.0
 70
   160
 71
     5
 42
32.0
 73
     0
 74
     0
 75
     0
  3
tfrom線あり
100
AcDbAlignedDimension
 13
908.9392664947068
 23
558.7621895921516
 33
0.0
 14
876.9392664947068
 24
558.7621895921516
 34
0.0
100
AcDbRotatedDimension
  0
LINE
  5
1870
330
A
100
AcDbEntity
  8
MODEL
 48
0.05
100
AcDbLine
 10
892.9392664947068
 20
558.7621895921516
 30
0.0
 11
892.9392664947068
 21
555.7621895921516
 31
0.0
  0
LINE
  5
1871
330
A
100
AcDbEntity
  8
MODEL
 48
0.05
100
AcDbLine
 10
860.9392664947068
 20
558.7621895921516
 30
0.0
 11
860.9392664947068
 21
555.7621895921516
 31
0.0
  0
MTEXT
  5
18FA
102
{ACAD_XDICTIONARY
360
18FB
102
}
330
A
100
AcDbEntity
  8
MODEL
 48
0.05
100
AcDbMText
 10
36.82437151526466
 20
43.36937816261027
 30
0.0
 40
11.0
 41
0.0
 46
11.0
 71
     1
 72
     1
  1
{20160719N}
  7
ＭＳ ゴシック
 73
     1
 44
1.0
1001
ACAD
1000
ACAD_MTEXT_DEFINED_HEIGHT_BEGIN
1070
    46
1040
11.0
1000
ACAD_MTEXT_DEFINED_HEIGHT_END
  0
VIEWPORT
  5
349
330
B
100
AcDbEntity
 67
     1
  8
0
100
AcDbViewport
 10
202.5
 20
128.5
 30
0.0
 40
486.0
 41
308.4
 68
     1
 69
     1
 12
202.5
 22
128.5
 13
0.0
 23
0.0
 14
0.5
 24
0.5
 15
0.0
 25
0.0
 16
0.0
 26
0.0
 36
1.0
 17
0.0
 27
0.0
 37
0.0
 42
50.0
 43
0.0
 44
0.0
 45
308.4
 50
0.0
 51
0.0
 72
   100
 90
   557152
  1

281
     0
 71
     1
 74
     0
110
0.0
120
0.0
130
0.0
111
1.0
121
0.0
131
0.0
112
0.0
122
1.0
132
0.0
 79
     0
146
0.0
170
     0
 61
     5
348
26C
292
     1
282
     1
141
0.0
142
0.0
 63
   256
  0
VIEWPORT
  5
34A
330
B
100
AcDbEntity
 67
     1
  8
0
100
AcDbViewport
 10
202.5
 20
128.5
 30
0.0
 40
324.0
 41
205.6
 68
     2
 69
     2
 12
986.6781359294573
 22
1427.077061889956
 13
0.0
 23
0.0
 14
0.5
 24
0.5
 15
0.0
 25
0.0
 16
0.0
 26
0.0
 36
1.0
 17
0.0
 27
0.0
 37
0.0
 42
50.0
 43
0.0
 44
0.0
 45
2890.021615685494
 50
0.0
 51
0.0
 72
   100
 90
   557152
  1

281
     0
 71
     1
 74
     0
110
0.0
120
0.0
130
0.0
111
1.0
121
0.0
131
0.0
112
0.0
122
1.0
132
0.0
 79
     0
146
0.0
170
     0
 61
     5
348
26C
292
     1
282
     1
141
0.0
142
0.0
 63
   256
  0
ENDSEC
  0
SECTION
  2
OBJECTS
  0
DICTIONARY
  5
19
330
0
100
AcDbDictionary
281
     1
  3
ACAD_COLOR
350
674
  3
ACAD_DETAILVIEWSTYLE
350
BBF
  3
ACAD_FIELDLIST
350
18F8
  3
ACAD_GROUP
350
1A
  3
ACAD_IMAGE_VARS
350
27B
  3
ACAD_LAYOUT
350
1E
  3
ACAD_MATERIAL
350
263
  3
ACAD_MLEADERSTYLE
350
336
  3
ACAD_MLINESTYLE
350
1B
  3
ACAD_PLOTSETTINGS
350
22
  3
ACAD_PLOTSTYLENAME
350
1F
  3
ACAD_SCALELIST
350
241
  3
ACAD_SECTIONVIEWSTYLE
350
BC0
  3
ACAD_TABLESTYLE
350
278
  3
ACAD_VISUALSTYLE
350
267
  3
ACDB_RECOMPOSE_DATA
350
194F
  3
AcDbVariableDictionary
350
330
  3
APPDATA
350
27A
  3
DimOffsetDictionary
350
E38
  0
SUN
  5
904
330
15
100
AcDbSun
 90
        1
290
     0
 63
     7
421
 16777215
 40
1.0
291
     1
 91
  2455826
 92
 54000000
292
     0
 70
     2
 71
   256
280
     1
  0
DICTIONARY
  5
2E1
330
2
100
AcDbDictionary
280
     1
281
     1
  3
ACAD_LAYERSTATES
360
2E2
  3
ACLYDICTIONARY
360
DDE
  0
DICTIONARY
  5
18FB
330
18FA
100
AcDbDictionary
280
     1
281
     1
  3
ACAD_FIELD
360
18FC
  0
DICTIONARY
  5
674
102
{ACAD_REACTORS
330
19
102
}
330
19
100
AcDbDictionary
281
     1
  0
DICTIONARY
  5
BBF
102
{ACAD_REACTORS
330
19
102
}
330
19
100
AcDbDictionary
281
     1
  0
FIELDLIST
  5
18F8
102
{ACAD_REACTORS
330
19
102
}
330
19
100
AcDbIdSet
 90
        1
330
18FD
100
AcDbFieldList
  0
DICTIONARY
  5
1A
102
{ACAD_REACTORS
330
19
102
}
330
19
100
AcDbDictionary
281
     1
  0
RASTERVARIABLES
  5
27B
102
{ACAD_REACTORS
330
19
102
}
330
19
100
AcDbRasterVariables
 90
        0
 70
     1
 71
     1
 72
     1
  0
DICTIONARY
  5
1E
102
{ACAD_REACTORS
330
19
102
}
330
19
100
AcDbDictionary
281
     1
  3
Layout1
350
21
  3
Model
350
20
  0
DICTIONARY
  5
263
102
{ACAD_REACTORS
330
19
102
}
330
19
100
AcDbDictionary
281
     1
  3
ByBlock
350
265
  3
ByLayer
350
264
  3
Global
350
266
  0
DICTIONARY
  5
336
102
{ACAD_REACTORS
330
19
102
}
330
19
100
AcDbDictionary
281
     1
  3
Standard
350
D59
  0
DICTIONARY
  5
1B
102
{ACAD_REACTORS
330
19
102
}
330
19
100
AcDbDictionary
281
     1
  3
Standard
350
1C
  0
DICTIONARY
  5
22
102
{ACAD_REACTORS
330
19
102
}
330
19
100
AcDbDictionary
281
     1
  0
ACDBDICTIONARYWDFLT
  5
1F
102
{ACAD_REACTORS
330
19
102
}
330
19
100
AcDbDictionary
281
     1
  3
Normal
350
1D
100
AcDbDictionaryWithDefault
340
1D
  0
DICTIONARY
  5
241
102
{ACAD_REACTORS
330
19
102
}
330
19
100
AcDbDictionary
281
     1
  3
A0
350
242
  3
A1
350
243
  3
A2
350
244
  3
A3
350
245
  3
A4
350
246
  3
A5
350
247
  3
A6
350
248
  3
A7
350
249
  3
A8
350
24A
  3
A9
350
24B
  3
B0
350
24C
  3
B1
350
24D
  3
B2
350
24E
  3
B3
350
24F
  3
B4
350
250
  3
B5
350
251
  3
B6
350
252
  3
B7
350
253
  3
B8
350
254
  3
B9
350
255
  3
C0
350
256
  3
C1
350
257
  3
C2
350
258
  3
C3
350
259
  3
C4
350
25A
  3
C5
350
25B
  3
C6
350
25C
  3
C7
350
25D
  3
C8
350
25E
  3
C9
350
25F
  3
D0
350
260
  3
D1
350
261
  3
D2
350
262
  0
DICTIONARY
  5
BC0
102
{ACAD_REACTORS
330
19
102
}
330
19
100
AcDbDictionary
281
     1
  0
DICTIONARY
  5
278
102
{ACAD_REACTORS
330
19
102
}
330
19
100
AcDbDictionary
281
     1
  3
Standard
350
279
  0
DICTIONARY
  5
267
102
{ACAD_REACTORS
330
19
102
}
330
19
100
AcDbDictionary
281
     1
  3
2dWireframe
350
26C
  3
3D Hidden
350
26E
  3
3dWireframe
350
26D
  3
Basic
350
26F
  3
Brighten
350
273
  3
ColorChange
350
277
  3
Conceptual
350
271
  3
Dim
350
272
  3
EdgeColorOff
350
8FE
  3
Facepattern
350
276
  3
Flat
350
268
  3
FlatWithEdges
350
269
  3
Gouraud
350
26A
  3
GouraudWithEdges
350
26B
  3
Hidden
350
8FB
  3
JitterOff
350
8FC
  3
Linepattern
350
275
  3
OverhangOff
350
8FD
  3
Realistic
350
270
  3
Shaded
350
903
  3
Shaded with edges
350
902
  3
Shades of Gray
350
8FF
  3
Sketchy
350
900
  3
Thicken
350
274
  3
Wireframe
350
8FA
  3
X-Ray
350
901
  0
XRECORD
  5
194F
102
{ACAD_REACTORS
330
19
102
}
330
19
100
AcDbXrecord
280
     1
 90
        1
330
279
  0
DICTIONARY
  5
330
102
{ACAD_REACTORS
330
19
102
}
330
19
100
AcDbDictionary
281
     1
  3
CANNOSCALE
350
331
  3
CMLEADERSTYLE
350
D5E
  3
CTABLESTYLE
350
335
  3
HPTRANSPARENCY
350
D52
  3
XCLIPFRAME
350
896
  0
DICTIONARY
  5
27A
102
{ACAD_REACTORS
330
19
102
}
330
19
100
AcDbDictionary
281
     1
  0
DICTIONARY
  5
E38
102
{ACAD_REACTORS
330
19
102
}
330
19
100
AcDbDictionary
281
     1
  3
DIMRAILANGLE
350
E3B
  3
DIMRAILFIRSTOFFSET
350
E39
  3
DIMRAILOFFSET
350
E3A
  3
DIMRAILSENABLED
350
E3C
  0
DICTIONARY
  5
2E2
102
{ACAD_REACTORS
330
2E1
102
}
330
2E1
100
AcDbDictionary
281
     1
  3
ARGON_LAYERP_9
350
7AA
  0
DICTIONARY
  5
DDE
102
{ACAD_REACTORS
330
2E1
102
}
330
2E1
100
AcDbDictionary
281
     1
1001
ACAD
1000
<All
  0
DICTIONARY
  5
18FC
102
{ACAD_REACTORS
330
18FB
102
}
330
18FB
100
AcDbDictionary
280
     1
281
     1
  3
TEXT
360
18FD
  0
LAYOUT
  5
21
102
{ACAD_REACTORS
330
1E
102
}
330
1E
100
AcDbPlotSettings
  1

  2
none_device
  4
ISO_A3_(420.00_x_297.00_MM)
  6

 40
7.5
 41
20.0
 42
7.5
 43
20.0
 44
420.0
 45
297.0
 46
0.0
 47
0.0
 48
0.0
 49
0.0
140
0.0
141
0.0
142
1.0
143
1.0
 70
     0
 72
     1
 73
     0
 74
     0
  7

 75
     0
 76
     0
 77
     2
 78
   300
147
1.0
148
0.0
149
0.0
100
AcDbLayout
  1
Layout1
 70
     0
 71
     0
 10
-7.5
 20
-20.0
 11
412.5
 21
277.0
 12
0.0
 22
0.0
 32
0.0
 14
0.0
 24
0.0
 34
0.0
 15
0.0
 25
0.0
 35
0.0
146
0.0
 13
0.0
 23
0.0
 33
0.0
 16
0.0
 26
0.0
 36
0.0
 17
0.0
 27
0.0
 37
0.0
 76
     0
330
B
331
349
  0
LAYOUT
  5
20
102
{ACAD_REACTORS
330
1E
102
}
330
1E
100
AcDbPlotSettings
  1

  2
none_device
  4
ISO_A3_(420.00_x_297.00_MM)
  6

 40
7.5
 41
20.0
 42
7.5
 43
20.0
 44
420.0
 45
297.0
 46
0.0
 47
0.0
 48
0.0
 49
0.0
140
0.0
141
0.0
142
1.0
143
1.0
 70
  1024
 72
     1
 73
     0
 74
     0
  7

 75
     0
 76
     0
 77
     2
 78
   300
147
1.0
148
0.0
149
0.0
100
AcDbLayout
  1
Model
 70
     0
 71
     1
 10
0.0
 20
0.0
 11
1050.0
 21
1485.0
 12
0.0
 22
0.0
 32
0.0
 14
0.0
 24
0.0
 34
-0.0000000000000142
 15
1050.0
 25
1485.0
 35
0.0000000000000142
146
0.0
 13
0.0
 23
0.0
 33
0.0
 16
0.0
 26
0.0
 36
0.0
 17
0.0
 27
0.0
 37
0.0
 76
     0
330
A
331
15
  0
MATERIAL
  5
265
102
{ACAD_REACTORS
330
263
102
}
330
263
100
AcDbMaterial
  1
ByBlock
 72
     1
 94
      127
  0
MATERIAL
  5
264
102
{ACAD_REACTORS
330
263
102
}
330
263
100
AcDbMaterial
  1
ByLayer
 72
     1
 94
      127
  0
MATERIAL
  5
266
102
{ACAD_REACTORS
330
263
102
}
330
263
100
AcDbMaterial
  1
Global
 72
     1
 94
      127
  0
MLEADERSTYLE
  5
D59
102
{ACAD_REACTORS
330
336
102
}
330
336
100
AcDbMLeaderStyle
170
     2
171
     1
172
     0
 90
        2
 40
0.0
 41
0.0
173
     1
 91
-1056964608
340
11
 92
       -2
290
     1
 42
2.0
291
     1
 43
8.0
  3
Standard
341
0
 44
4.0
300

342
17
174
     1
178
     6
175
     1
176
     0
 93
-1056964608
 45
4.0
292
     0
297
     0
 46
4.0
343
0
 94
-1056964608
 47
1.0
 49
1.0
140
1.0
293
     1
141
0.0
294
     1
177
     0
142
1.0
295
     0
296
     0
143
3.75
1001
ACAD_MLEADERVER
1070
     2
  0
MLINESTYLE
  5
1C
102
{ACAD_REACTORS
330
1B
102
}
330
1B
100
AcDbMlineStyle
  2
Standard
 70
     0
  3

 62
     0
 51
90.0
 52
90.0
 71
     2
 49
0.5
 62
   256
  6
BYLAYER
 49
-0.5
 62
   256
  6
BYLAYER
  0
ACDBPLACEHOLDER
  5
1D
102
{ACAD_REACTORS
330
1F
102
}
330
1F
  0
SCALE
  5
242
102
{ACAD_REACTORS
330
241
102
}
330
241
100
AcDbScale
 70
     0
300
1:1
140
1.0
141
1.0
290
     1
  0
SCALE
  5
243
102
{ACAD_REACTORS
330
241
102
}
330
241
100
AcDbScale
 70
     0
300
1:2
140
1.0
141
2.0
290
     0
  0
SCALE
  5
244
102
{ACAD_REACTORS
330
241
102
}
330
241
100
AcDbScale
 70
     0
300
1:4
140
1.0
141
4.0
290
     0
  0
SCALE
  5
245
102
{ACAD_REACTORS
330
241
102
}
330
241
100
AcDbScale
 70
     0
300
1:5
140
1.0
141
5.0
290
     0
  0
SCALE
  5
246
102
{ACAD_REACTORS
330
241
102
}
330
241
100
AcDbScale
 70
     0
300
1:8
140
1.0
141
8.0
290
     0
  0
SCALE
  5
247
102
{ACAD_REACTORS
330
241
102
}
330
241
100
AcDbScale
 70
     0
300
1:10
140
1.0
141
10.0
290
     0
  0
SCALE
  5
248
102
{ACAD_REACTORS
330
241
102
}
330
241
100
AcDbScale
 70
     0
300
1:16
140
1.0
141
16.0
290
     0
  0
SCALE
  5
249
102
{ACAD_REACTORS
330
241
102
}
330
241
100
AcDbScale
 70
     0
300
1:20
140
1.0
141
20.0
290
     0
  0
SCALE
  5
24A
102
{ACAD_REACTORS
330
241
102
}
330
241
100
AcDbScale
 70
     0
300
1:30
140
1.0
141
30.0
290
     0
  0
SCALE
  5
24B
102
{ACAD_REACTORS
330
241
102
}
330
241
100
AcDbScale
 70
     0
300
1:40
140
1.0
141
40.0
290
     0
  0
SCALE
  5
24C
102
{ACAD_REACTORS
330
241
102
}
330
241
100
AcDbScale
 70
     0
300
1:50
140
1.0
141
50.0
290
     0
  0
SCALE
  5
24D
102
{ACAD_REACTORS
330
241
102
}
330
241
100
AcDbScale
 70
     0
300
1:100
140
1.0
141
100.0
290
     0
  0
SCALE
  5
24E
102
{ACAD_REACTORS
330
241
102
}
330
241
100
AcDbScale
 70
     0
300
2:1
140
2.0
141
1.0
290
     0
  0
SCALE
  5
24F
102
{ACAD_REACTORS
330
241
102
}
330
241
100
AcDbScale
 70
     0
300
4:1
140
4.0
141
1.0
290
     0
  0
SCALE
  5
250
102
{ACAD_REACTORS
330
241
102
}
330
241
100
AcDbScale
 70
     0
300
8:1
140
8.0
141
1.0
290
     0
  0
SCALE
  5
251
102
{ACAD_REACTORS
330
241
102
}
330
241
100
AcDbScale
 70
     0
300
10:1
140
10.0
141
1.0
290
     0
  0
SCALE
  5
252
102
{ACAD_REACTORS
330
241
102
}
330
241
100
AcDbScale
 70
     0
300
100:1
140
100.0
141
1.0
290
     0
  0
SCALE
  5
253
102
{ACAD_REACTORS
330
241
102
}
330
241
100
AcDbScale
 70
     0
300
1/128" = 1'-0"
140
0.0078125
141
12.0
290
     0
  0
SCALE
  5
254
102
{ACAD_REACTORS
330
241
102
}
330
241
100
AcDbScale
 70
     0
300
1/64" = 1'-0"
140
0.015625
141
12.0
290
     0
  0
SCALE
  5
255
102
{ACAD_REACTORS
330
241
102
}
330
241
100
AcDbScale
 70
     0
300
1/32" = 1'-0"
140
0.03125
141
12.0
290
     0
  0
SCALE
  5
256
102
{ACAD_REACTORS
330
241
102
}
330
241
100
AcDbScale
 70
     0
300
1/16" = 1'-0"
140
0.0625
141
12.0
290
     0
  0
SCALE
  5
257
102
{ACAD_REACTORS
330
241
102
}
330
241
100
AcDbScale
 70
     0
300
3/32" = 1'-0"
140
0.09375
141
12.0
290
     0
  0
SCALE
  5
258
102
{ACAD_REACTORS
330
241
102
}
330
241
100
AcDbScale
 70
     0
300
1/8" = 1'-0"
140
0.125
141
12.0
290
     0
  0
SCALE
  5
259
102
{ACAD_REACTORS
330
241
102
}
330
241
100
AcDbScale
 70
     0
300
3/16" = 1'-0"
140
0.1875
141
12.0
290
     0
  0
SCALE
  5
25A
102
{ACAD_REACTORS
330
241
102
}
330
241
100
AcDbScale
 70
     0
300
1/4" = 1'-0"
140
0.25
141
12.0
290
     0
  0
SCALE
  5
25B
102
{ACAD_REACTORS
330
241
102
}
330
241
100
AcDbScale
 70
     0
300
3/8" = 1'-0"
140
0.375
141
12.0
290
     0
  0
SCALE
  5
25C
102
{ACAD_REACTORS
330
241
102
}
330
241
100
AcDbScale
 70
     0
300
1/2" = 1'-0"
140
0.5
141
12.0
290
     0
  0
SCALE
  5
25D
102
{ACAD_REACTORS
330
241
102
}
330
241
100
AcDbScale
 70
     0
300
3/4" = 1'-0"
140
0.75
141
12.0
290
     0
  0
SCALE
  5
25E
102
{ACAD_REACTORS
330
241
102
}
330
241
100
AcDbScale
 70
     0
300
1" = 1'-0"
140
1.0
141
12.0
290
     0
  0
SCALE
  5
25F
102
{ACAD_REACTORS
330
241
102
}
330
241
100
AcDbScale
 70
     0
300
1-1/2" = 1'-0"
140
1.5
141
12.0
290
     0
  0
SCALE
  5
260
102
{ACAD_REACTORS
330
241
102
}
330
241
100
AcDbScale
 70
     0
300
3" = 1'-0"
140
3.0
141
12.0
290
     0
  0
SCALE
  5
261
102
{ACAD_REACTORS
330
241
102
}
330
241
100
AcDbScale
 70
     0
300
6" = 1'-0"
140
6.0
141
12.0
290
     0
  0
SCALE
  5
262
102
{ACAD_REACTORS
330
241
102
}
330
241
100
AcDbScale
 70
     0
300
1'-0" = 1'-0"
140
12.0
141
12.0
290
     0
  0
TABLESTYLE
  5
279
102
{ACAD_REACTORS
330
278
102
}
102
{ACAD_XDICTIONARY
360
194D
102
}
330
278
100
AcDbTableStyle
  3
Standard
 70
     0
 71
     0
 40
0.06
 41
0.06
280
     0
281
     0
  7
Standard
140
4.5
170
     2
 62
     0
 63
   257
283
     0
 90
        4
 91
        0
  1

274
    -2
284
     1
 64
     0
275
    -2
285
     1
 65
     0
276
    -2
286
     1
 66
     0
277
    -2
287
     1
 67
     0
278
    -2
288
     1
 68
     0
279
    -2
289
     1
 69
     0
  7
Standard
140
6.0
170
     5
 62
     0
 63
   257
283
     0
 90
        4
 91
        0
  1

274
    -2
284
     1
 64
     0
275
    -2
285
     1
 65
     0
276
    -2
286
     1
 66
     0
277
    -2
287
     1
 67
     0
278
    -2
288
     1
 68
     0
279
    -2
289
     1
 69
     0
  7
Standard
140
4.5
170
     5
 62
     0
 63
   257
283
     0
 90
        4
 91
        0
  1

274
    -2
284
     1
 64
     0
275
    -2
285
     1
 65
     0
276
    -2
286
     1
 66
     0
277
    -2
287
     1
 67
     0
278
    -2
288
     1
 68
     0
279
    -2
289
     1
 69
     0
  0
VISUALSTYLE
  5
26C
102
{ACAD_REACTORS
330
267
102
}
330
267
100
AcDbVisualStyle
  2
2dWireframe
 70
     4
 71
     0
 72
     2
 73
     0
 90
        0
 40
-0.6
 41
-30.0
 62
     5
 63
     7
421
 16777215
 74
     1
 91
        4
 64
     7
 65
   257
 75
     1
175
     1
 42
1.0
 92
        0
 66
   257
 43
1.0
 76
     1
 77
     6
 78
     2
 67
     7
 79
     5
170
     0
171
     0
290
     0
174
     0
 93
        1
 44
0.0
173
     0
291
     0
 45
0.0
  0
VISUALSTYLE
  5
26E
102
{ACAD_REACTORS
330
267
102
}
330
267
100
AcDbVisualStyle
  2
3D Hidden
 70
     6
 71
     1
 72
     2
 73
     2
 90
        0
 40
-0.6
 41
-30.0
 62
     5
 63
     7
421
 16777215
 74
     2
 91
        2
 64
     7
 65
   257
 75
     2
175
     1
 42
40.0
 92
        0
 66
   257
 43
1.0
 76
     1
 77
     6
 78
     2
 67
     7
 79
     3
170
     0
171
     0
290
     0
174
     0
 93
        1
 44
0.0
173
     0
291
     0
 45
0.0
  0
VISUALSTYLE
  5
26D
102
{ACAD_REACTORS
330
267
102
}
330
267
100
AcDbVisualStyle
  2
3dWireframe
 70
     5
 71
     0
 72
     2
 73
     0
 90
        0
 40
-0.6
 41
-30.0
 62
     5
 63
     7
421
 16777215
 74
     1
 91
        4
 64
     7
 65
   257
 75
     1
175
     1
 42
1.0
 92
        0
 66
   257
 43
1.0
 76
     1
 77
     6
 78
     2
 67
     7
 79
     5
170
     0
171
     0
290
     0
174
     0
 93
        1
 44
0.0
173
     0
291
     0
 45
0.0
  0
VISUALSTYLE
  5
26F
102
{ACAD_REACTORS
330
267
102
}
330
267
100
AcDbVisualStyle
  2
Basic
 70
     7
 71
     1
 72
     0
 73
     1
 90
        0
 40
-0.6
 41
-30.0
 62
     5
 63
     7
421
 16777215
 74
     0
 91
        4
 64
     7
 65
   257
 75
     1
175
     1
 42
1.0
 92
        8
 66
     7
 43
1.0
 76
     1
 77
     6
 78
     2
 67
     7
 79
     5
170
     0
171
     0
290
     0
174
     0
 93
        1
 44
0.0
173
     0
291
     1
 45
0.0
  0
VISUALSTYLE
  5
273
102
{ACAD_REACTORS
330
267
102
}
330
267
100
AcDbVisualStyle
  2
Brighten
 70
    12
 71
     2
 72
     2
 73
     0
 90
        0
 40
-0.6
 41
-30.0
 62
     5
 63
     7
421
 16777215
 74
     1
 91
        4
 64
     7
 65
   257
 75
     1
175
     1
 42
1.0
 92
        8
 66
     7
 43
1.0
 76
     1
 77
     6
 78
     2
 67
     7
 79
     5
170
     0
171
     0
290
     0
174
     0
 93
        1
 44
50.0
173
     0
291
     1
 45
0.0
  0
VISUALSTYLE
  5
277
102
{ACAD_REACTORS
330
267
102
}
330
267
100
AcDbVisualStyle
  2
ColorChange
 70
    16
 71
     2
 72
     2
 73
     3
 90
        0
 40
-0.6
 41
-30.0
 62
     5
 63
     8
421
  8421504
 74
     1
 91
        4
 64
     7
 65
   257
 75
     1
175
     1
 42
1.0
 92
        8
 66
     8
424
  8421504
 43
1.0
 76
     1
 77
     6
 78
     2
 67
     7
 79
     5
170
     0
171
     0
290
     0
174
     0
 93
        1
 44
0.0
173
     0
291
     1
 45
0.0
  0
VISUALSTYLE
  5
271
102
{ACAD_REACTORS
330
267
102
}
330
267
100
AcDbVisualStyle
  2
Conceptual
 70
     9
 71
     3
 72
     2
 73
     0
 90
        0
 40
-0.6
 41
-30.0
 62
     5
 63
     7
421
 16777215
 74
     2
 91
        2
 64
     7
 65
   257
 75
     1
175
     1
 42
40.0
 92
        8
 66
     7
 43
1.0
 76
     1
 77
     6
 78
     2
 67
     7
 79
     3
170
     0
171
     0
290
     0
174
     0
 93
        1
 44
0.0
173
     0
291
     0
 45
0.0
  0
VISUALSTYLE
  5
272
102
{ACAD_REACTORS
330
267
102
}
330
267
100
AcDbVisualStyle
  2
Dim
 70
    11
 71
     2
 72
     2
 73
     0
 90
        0
 40
-0.6
 41
-30.0
 62
     5
 63
     7
421
 16777215
 74
     1
 91
        4
 64
     7
 65
   257
 75
     1
175
     1
 42
1.0
 92
        8
 66
     7
 43
1.0
 76
     1
 77
     6
 78
     2
 67
     7
 79
     5
170
     0
171
     0
290
     0
174
     0
 93
        1
 44
-50.0
173
     0
291
     1
 45
0.0
  0
VISUALSTYLE
  5
8FE
102
{ACAD_REACTORS
330
267
102
}
330
267
100
AcDbVisualStyle
  2
EdgeColorOff
 70
    22
 71
     2
 72
     2
 73
     0
 90
        0
 40
0.6
 41
30.0
 62
     5
 63
     7
421
 16777215
 74
     1
 91
        4
 64
     7
 65
   257
 75
     1
175
     1
 42
1.0
 92
        8
 66
     7
 43
1.0
 76
     1
 77
     6
 78
     2
 67
     7
 79
     5
170
     0
171
     0
290
     0
174
     0
 93
        1
 44
0.0
173
     0
291
     1
 45
0.0
  0
VISUALSTYLE
  5
276
102
{ACAD_REACTORS
330
267
102
}
330
267
100
AcDbVisualStyle
  2
Facepattern
 70
    15
 71
     2
 72
     2
 73
     0
 90
        0
 40
-0.6
 41
-30.0
 62
     5
 63
     7
421
 16777215
 74
     1
 91
        4
 64
     7
 65
   257
 75
     1
175
     1
 42
1.0
 92
        8
 66
     7
 43
1.0
 76
     1
 77
     6
 78
     2
 67
     7
 79
     5
170
     0
171
     0
290
     0
174
     0
 93
        1
 44
0.0
173
     0
291
     1
 45
0.0
  0
VISUALSTYLE
  5
268
102
{ACAD_REACTORS
330
267
102
}
330
267
100
AcDbVisualStyle
  2
Flat
 70
     0
 71
     2
 72
     1
 73
     1
 90
        2
 40
-0.6
 41
30.0
 62
     5
 63
     7
421
 16777215
 74
     0
 91
        4
 64
     7
 65
   257
 75
     1
175
     1
 42
1.0
 92
        8
 66
     7
 43
1.0
 76
     1
 77
     6
 78
     2
 67
     7
 79
     5
170
     0
171
     0
290
     0
174
     0
 93
       13
 44
0.0
173
     0
291
     1
 45
0.0
  0
VISUALSTYLE
  5
269
102
{ACAD_REACTORS
330
267
102
}
330
267
100
AcDbVisualStyle
  2
FlatWithEdges
 70
     1
 71
     2
 72
     1
 73
     1
 90
        2
 40
-0.6
 41
30.0
 62
     5
 63
     7
421
 16777215
 74
     1
 91
        4
 64
     7
 65
   257
 75
     1
175
     1
 42
1.0
 92
        0
 66
   257
 43
1.0
 76
     1
 77
     6
 78
     2
 67
     7
 79
     5
170
     0
171
     0
290
     0
174
     0
 93
       13
 44
0.0
173
     0
291
     1
 45
0.0
  0
VISUALSTYLE
  5
26A
102
{ACAD_REACTORS
330
267
102
}
330
267
100
AcDbVisualStyle
  2
Gouraud
 70
     2
 71
     2
 72
     2
 73
     1
 90
        2
 40
-0.6
 41
30.0
 62
     5
 63
     7
421
 16777215
 74
     0
 91
        4
 64
     7
 65
   257
 75
     1
175
     1
 42
1.0
 92
        0
 66
     7
 43
1.0
 76
     1
 77
     6
 78
     2
 67
     7
 79
     5
170
     0
171
     0
290
     0
174
     0
 93
       13
 44
0.0
173
     0
291
     1
 45
0.0
  0
VISUALSTYLE
  5
26B
102
{ACAD_REACTORS
330
267
102
}
330
267
100
AcDbVisualStyle
  2
GouraudWithEdges
 70
     3
 71
     2
 72
     2
 73
     1
 90
        2
 40
-0.6
 41
30.0
 62
     5
 63
     7
421
 16777215
 74
     1
 91
        4
 64
     7
 65
   257
 75
     1
175
     1
 42
1.0
 92
        0
 66
   257
 43
1.0
 76
     1
 77
     6
 78
     2
 67
     7
 79
     5
170
     0
171
     0
290
     0
174
     0
 93
       13
 44
0.0
173
     0
291
     1
 45
0.0
  0
VISUALSTYLE
  5
8FB
102
{ACAD_REACTORS
330
267
102
}
330
267
100
AcDbVisualStyle
  2
Hidden
 70
     6
 71
     1
 72
     2
 73
     2
 90
        0
 40
0.6
 41
30.0
 62
     5
 63
     7
421
 16777215
 74
     2
 91
        2
 64
     7
 65
   257
 75
     2
175
     1
 42
40.0
 92
        0
 66
   257
 43
1.0
 76
     1
 77
     6
 78
     2
 67
     7
 79
     3
170
     0
171
     0
290
     0
174
     0
 93
        1
 44
0.0
173
     0
291
     0
 45
0.0
  0
VISUALSTYLE
  5
8FC
102
{ACAD_REACTORS
330
267
102
}
330
267
100
AcDbVisualStyle
  2
JitterOff
 70
    20
 71
     2
 72
     2
 73
     0
 90
        0
 40
0.6
 41
30.0
 62
     5
 63
     7
421
 16777215
 74
     1
 91
        4
 64
     7
 65
   257
 75
     1
175
     1
 42
1.0
 92
       10
 66
     7
 43
1.0
 76
     1
 77
     6
 78
     2
 67
     7
 79
     5
170
     0
171
     0
290
     0
174
     0
 93
        1
 44
0.0
173
     0
291
     1
 45
0.0
  0
VISUALSTYLE
  5
275
102
{ACAD_REACTORS
330
267
102
}
330
267
100
AcDbVisualStyle
  2
Linepattern
 70
    14
 71
     2
 72
     2
 73
     0
 90
        0
 40
-0.6
 41
-30.0
 62
     5
 63
     7
421
 16777215
 74
     1
 91
        4
 64
     7
 65
   257
 75
     7
175
     7
 42
1.0
 92
        8
 66
     7
 43
1.0
 76
     1
 77
     6
 78
     2
 67
     7
 79
     5
170
     0
171
     0
290
     0
174
     0
 93
        1
 44
0.0
173
     0
291
     1
 45
0.0
  0
VISUALSTYLE
  5
8FD
102
{ACAD_REACTORS
330
267
102
}
330
267
100
AcDbVisualStyle
  2
OverhangOff
 70
    21
 71
     2
 72
     2
 73
     0
 90
        0
 40
0.6
 41
30.0
 62
     5
 63
     7
421
 16777215
 74
     1
 91
        4
 64
     7
 65
   257
 75
     1
175
     1
 42
1.0
 92
        9
 66
     7
 43
1.0
 76
     1
 77
     6
 78
     2
 67
     7
 79
     5
170
     0
171
     0
290
     0
174
     0
 93
        1
 44
0.0
173
     0
291
     1
 45
0.0
  0
VISUALSTYLE
  5
270
102
{ACAD_REACTORS
330
267
102
}
330
267
100
AcDbVisualStyle
  2
Realistic
 70
     8
 71
     2
 72
     2
 73
     0
 90
        0
 40
-0.6
 41
-30.0
 62
     5
 63
     7
421
 16777215
 74
     1
 91
        0
 64
     7
 65
   257
 75
     1
175
     1
 42
1.0
 92
        8
 66
     8
424
  7895160
 43
1.0
 76
     1
 77
     6
 78
     2
 67
     7
 79
     5
170
     0
171
     0
290
     0
174
     0
 93
       13
 44
0.0
173
     0
291
     0
 45
0.0
  0
VISUALSTYLE
  5
903
102
{ACAD_REACTORS
330
267
102
}
330
267
100
AcDbVisualStyle
  2
Shaded
 70
    27
 71
     2
 72
     2
 73
     1
 90
        2
 40
0.6
 41
30.0
 62
     5
 63
     7
421
 16777215
 74
     0
 91
        4
 64
     7
 65
   257
 75
     1
175
     1
 42
1.0
 92
        8
 66
   257
 43
1.0
 76
     1
 77
     6
 78
     2
 67
     8
425
  7895160
 79
     3
170
     0
171
     0
290
     0
174
     0
 93
        5
 44
0.0
173
     0
291
     0
 45
0.0
  0
VISUALSTYLE
  5
902
102
{ACAD_REACTORS
330
267
102
}
330
267
100
AcDbVisualStyle
  2
Shaded with edges
 70
    26
 71
     2
 72
     2
 73
     1
 90
        2
 40
0.6
 41
30.0
 62
     5
 63
     7
421
 16777215
 74
     1
 91
       10
 64
     7
 65
   257
 75
     2
175
     1
 42
1.0
 92
        8
 66
   257
 43
1.0
 76
     1
 77
     6
 78
     2
 67
     7
 79
     3
170
     0
171
     0
290
     0
174
     0
 93
        5
 44
0.0
173
     0
291
     0
 45
0.0
  0
VISUALSTYLE
  5
8FF
102
{ACAD_REACTORS
330
267
102
}
330
267
100
AcDbVisualStyle
  2
Shades of Gray
 70
    23
 71
     2
 72
     2
 73
     3
 90
        0
 40
0.6
 41
30.0
 62
     5
 63
     7
421
 16777215
 74
     2
 91
        2
 64
     7
 65
     7
 75
     1
175
     1
 42
40.0
 92
        8
 66
     7
 43
1.0
 76
     1
 77
     6
 78
     2
 67
     7
 79
     3
170
     0
171
     0
290
     0
174
     0
 93
        1
 44
0.0
173
     0
291
     0
 45
0.0
  0
VISUALSTYLE
  5
900
102
{ACAD_REACTORS
330
267
102
}
330
267
100
AcDbVisualStyle
  2
Sketchy
 70
    24
 71
     1
 72
     2
 73
     2
 90
        0
 40
0.6
 41
30.0
 62
     5
 63
     7
421
 16777215
 74
     2
 91
        2
 64
     7
 65
     7
 75
     1
175
     1
 42
40.0
 92
       11
 66
     7
 43
1.0
 76
     1
 77
     6
 78
     2
 67
     7
 79
     6
170
     0
171
     0
290
     0
174
     0
 93
        1
 44
0.0
173
     0
291
     0
 45
0.0
  0
VISUALSTYLE
  5
274
102
{ACAD_REACTORS
330
267
102
}
330
267
100
AcDbVisualStyle
  2
Thicken
 70
    13
 71
     2
 72
     2
 73
     0
 90
        0
 40
-0.6
 41
-30.0
 62
     5
 63
     7
421
 16777215
 74
     1
 91
        4
 64
     7
 65
   257
 75
     1
175
     1
 42
1.0
 92
       12
 66
     7
 43
1.0
 76
     1
 77
     6
 78
     2
 67
     7
 79
     5
170
     0
171
     0
290
     0
174
     0
 93
        1
 44
0.0
173
     0
291
     1
 45
0.0
  0
VISUALSTYLE
  5
8FA
102
{ACAD_REACTORS
330
267
102
}
330
267
100
AcDbVisualStyle
  2
Wireframe
 70
     5
 71
     0
 72
     2
 73
     0
 90
        0
 40
0.6
 41
30.0
 62
     5
 63
     7
421
 16777215
 74
     1
 91
        4
 64
     7
 65
   257
 75
     1
175
     1
 42
1.0
 92
        0
 66
   257
 43
1.0
 76
     1
 77
     6
 78
     2
 67
     7
 79
     3
170
     0
171
     0
290
     0
174
     0
 93
        1
 44
0.0
173
     0
291
     0
 45
0.0
  0
VISUALSTYLE
  5
901
102
{ACAD_REACTORS
330
267
102
}
330
267
100
AcDbVisualStyle
  2
X-Ray
 70
    25
 71
     2
 72
     2
 73
     1
 90
        1
 40
0.5
 41
30.0
 62
     5
 63
     7
421
 16777215
 74
     1
 91
        0
 64
     7
 65
   257
 75
     1
175
     1
 42
1.0
 92
        8
 66
     7
 43
1.0
 76
     1
 77
     6
 78
     2
 67
     7
 79
     3
170
     0
171
     0
290
     0
174
     0
 93
       13
 44
0.0
173
     0
291
     0
 45
0.0
  0
DICTIONARYVAR
  5
331
102
{ACAD_REACTORS
330
330
102
}
330
330
100
DictionaryVariables
280
     0
  1
1:1
  0
DICTIONARYVAR
  5
D5E
102
{ACAD_REACTORS
330
330
102
}
330
330
100
DictionaryVariables
280
     0
  1
Standard
  0
DICTIONARYVAR
  5
335
102
{ACAD_REACTORS
330
330
102
}
330
330
100
DictionaryVariables
280
     0
  1
Standard
  0
DICTIONARYVAR
  5
D52
102
{ACAD_REACTORS
330
330
102
}
330
330
100
DictionaryVariables
280
     0
  1
ByLayer
  0
DICTIONARYVAR
  5
896
102
{ACAD_REACTORS
330
330
102
}
330
330
100
DictionaryVariables
280
     0
  1
0
  0
DICTIONARYVAR
  5
E3B
102
{ACAD_REACTORS
330
E38
102
}
330
E38
100
DictionaryVariables
280
     0
  1
0.261799
  0
DICTIONARYVAR
  5
E39
102
{ACAD_REACTORS
330
E38
102
}
330
E38
100
DictionaryVariables
280
     0
  1
0.400000
  0
DICTIONARYVAR
  5
E3A
102
{ACAD_REACTORS
330
E38
102
}
330
E38
100
DictionaryVariables
280
     0
  1
0.250000
  0
DICTIONARYVAR
  5
E3C
102
{ACAD_REACTORS
330
E38
102
}
330
E38
100
DictionaryVariables
280
     0
  1
1
  0
XRECORD
  5
7AA
102
{ACAD_REACTORS
330
2E2
102
}
330
2E2
100
AcDbXrecord
280
     1
 91
    34815
301

290
     0
302
HIDDEN
330
14
 90
        8
 62
     7
370
    -3
331
13
  1
Color_7
440
 33554687
330
4B
 90
        8
 62
     7
370
    20
331
13
  1
Color_7
440
 33554687
330
4C
 90
        8
 62
     3
370
    13
331
13
  1
Color_3
440
 33554687
330
4D
 90
        8
 62
     7
370
    20
331
13
  1
Color_7
440
 33554687
330
667
 90
        8
 62
     7
370
    -3
331
13
  1
Color_7
440
 33554687
330
88C
 90
        8
 62
     8
370
    20
331
D6D
  1
Color_8
440
 33554687
330
D6B
 90
        0
 62
     4
370
    20
331
D6C
  1
Color_4
440
 33554687
330
D8C
 90
        0
 62
     7
370
    -3
331
13
  1
Color_7
440
 33554687
  0
FIELD
  5
18FD
102
{ACAD_REACTORS
330
18FC
102
}
330
18FC
100
AcDbField
  1
_text
  2
{%<\_FldIdx 0>%N}
 90
        1
360
18FE
 97
        0
 91
       63
 92
        0
 94
        8
 95
        2
 96
        0
300

 93
        1
  6
ACFD_FIELDTEXT_CHECKSUM
 93
        2
 90
        2
140
4566.0
 94
        0
300

302

304
ACVALUE_END
  7
ACFD_FIELD_VALUE
 93
        6
 90
        4
  1
{20160719N}
 94
        0
300

302

304
ACVALUE_END
301
{20160719N}
 98
       11
  0
DICTIONARY
  5
194D
330
279
100
AcDbDictionary
280
     1
281
     1
  3
ACAD_ROUNDTRIP_2008_TABLESTYLE_CELLSTYLEMAP
360
194E
  0
FIELD
  5
18FE
330
18FD
100
AcDbField
  1
AcVar
  2
\AcVar CreateDate \f "yyyyMMdd"
 90
        0
 97
        0
 91
       63
 92
        0
 94
        8
 95
        2
 96
        0
300

 93
        1
  6
Variable
 93
        2
 90
        4
  1
CreateDate
 94
        0
300

302

304
ACVALUE_END
  7
ACFD_FIELD_VALUE
 93
        6
 90
        8
 92
       16
310
E00707000000130001002A0025000000
 94
        0
300
yyyyMMdd
302

304
ACVALUE_END
301
20160719
 98
        8
  0
CELLSTYLEMAP
  5
194E
102
{ACAD_REACTORS
330
194D
102
}
330
194D
100
AcDbCellStyleMap
 90
        3
300
CELLSTYLE
  1
TABLEFORMAT_BEGIN
 90
        5
170
     1
 91
        0
 92
    32768
 62
   257
 93
        1
300
CONTENTFORMAT
  1
CONTENTFORMAT_BEGIN
 90
        0
 91
        0
 92
        4
 93
        0
300

 40
0.0
140
1.0
 94
        5
 62
     0
340
17
144
6.0
309
CONTENTFORMAT_END
171
     1
301
MARGIN
  1
CELLMARGIN_BEGIN
 40
0.06
 40
0.06
 40
0.06
 40
0.06
 40
0.18
 40
0.18
309
CELLMARGIN_END
 94
        6
 95
        1
302
GRIDFORMAT
  1
GRIDFORMAT_BEGIN
 90
        0
 91
        1
 62
     0
 92
       -2
340
0
 93
        0
 40
0.045
309
GRIDFORMAT_END
 95
        2
302
GRIDFORMAT
  1
GRIDFORMAT_BEGIN
 90
        0
 91
        1
 62
     0
 92
       -2
340
0
 93
        0
 40
0.045
309
GRIDFORMAT_END
 95
        4
302
GRIDFORMAT
  1
GRIDFORMAT_BEGIN
 90
        0
 91
        1
 62
     0
 92
       -2
340
0
 93
        0
 40
0.045
309
GRIDFORMAT_END
 95
        8
302
GRIDFORMAT
  1
GRIDFORMAT_BEGIN
 90
        0
 91
        1
 62
     0
 92
       -2
340
0
 93
        0
 40
0.045
309
GRIDFORMAT_END
 95
       16
302
GRIDFORMAT
  1
GRIDFORMAT_BEGIN
 90
        0
 91
        1
 62
     0
 92
       -2
340
0
 93
        0
 40
0.045
309
GRIDFORMAT_END
 95
       32
302
GRIDFORMAT
  1
GRIDFORMAT_BEGIN
 90
        0
 91
        1
 62
     0
 92
       -2
340
0
 93
        0
 40
0.045
309
GRIDFORMAT_END
309
TABLEFORMAT_END
  1
CELLSTYLE_BEGIN
 90
        1
 91
        1
300
_TITLE
309
CELLSTYLE_END
300
CELLSTYLE
  1
TABLEFORMAT_BEGIN
 90
        5
170
     1
 91
        0
 92
        0
 62
   257
 93
        1
300
CONTENTFORMAT
  1
CONTENTFORMAT_BEGIN
 90
        0
 91
        0
 92
        4
 93
        0
300

 40
0.0
140
1.0
 94
        5
 62
     0
340
17
144
4.5
309
CONTENTFORMAT_END
171
     1
301
MARGIN
  1
CELLMARGIN_BEGIN
 40
0.06
 40
0.06
 40
0.06
 40
0.06
 40
0.18
 40
0.18
309
CELLMARGIN_END
 94
        6
 95
        1
302
GRIDFORMAT
  1
GRIDFORMAT_BEGIN
 90
        0
 91
        1
 62
     0
 92
       -2
340
0
 93
        0
 40
0.045
309
GRIDFORMAT_END
 95
        2
302
GRIDFORMAT
  1
GRIDFORMAT_BEGIN
 90
        0
 91
        1
 62
     0
 92
       -2
340
0
 93
        0
 40
0.045
309
GRIDFORMAT_END
 95
        4
302
GRIDFORMAT
  1
GRIDFORMAT_BEGIN
 90
        0
 91
        1
 62
     0
 92
       -2
340
0
 93
        0
 40
0.045
309
GRIDFORMAT_END
 95
        8
302
GRIDFORMAT
  1
GRIDFORMAT_BEGIN
 90
        0
 91
        1
 62
     0
 92
       -2
340
0
 93
        0
 40
0.045
309
GRIDFORMAT_END
 95
       16
302
GRIDFORMAT
  1
GRIDFORMAT_BEGIN
 90
        0
 91
        1
 62
     0
 92
       -2
340
0
 93
        0
 40
0.045
309
GRIDFORMAT_END
 95
       32
302
GRIDFORMAT
  1
GRIDFORMAT_BEGIN
 90
        0
 91
        1
 62
     0
 92
       -2
340
0
 93
        0
 40
0.045
309
GRIDFORMAT_END
309
TABLEFORMAT_END
  1
CELLSTYLE_BEGIN
 90
        2
 91
        1
300
_HEADER
309
CELLSTYLE_END
300
CELLSTYLE
  1
TABLEFORMAT_BEGIN
 90
        5
170
     1
 91
        0
 92
        0
 62
   257
 93
        1
300
CONTENTFORMAT
  1
CONTENTFORMAT_BEGIN
 90
        0
 91
        0
 92
        4
 93
        0
300

 40
0.0
140
1.0
 94
        2
 62
     0
340
17
144
4.5
309
CONTENTFORMAT_END
171
     1
301
MARGIN
  1
CELLMARGIN_BEGIN
 40
0.06
 40
0.06
 40
0.06
 40
0.06
 40
0.18
 40
0.18
309
CELLMARGIN_END
 94
        6
 95
        1
302
GRIDFORMAT
  1
GRIDFORMAT_BEGIN
 90
        0
 91
        1
 62
     0
 92
       -2
340
0
 93
        0
 40
0.045
309
GRIDFORMAT_END
 95
        2
302
GRIDFORMAT
  1
GRIDFORMAT_BEGIN
 90
        0
 91
        1
 62
     0
 92
       -2
340
0
 93
        0
 40
0.045
309
GRIDFORMAT_END
 95
        4
302
GRIDFORMAT
  1
GRIDFORMAT_BEGIN
 90
        0
 91
        1
 62
     0
 92
       -2
340
0
 93
        0
 40
0.045
309
GRIDFORMAT_END
 95
        8
302
GRIDFORMAT
  1
GRIDFORMAT_BEGIN
 90
        0
 91
        1
 62
     0
 92
       -2
340
0
 93
        0
 40
0.045
309
GRIDFORMAT_END
 95
       16
302
GRIDFORMAT
  1
GRIDFORMAT_BEGIN
 90
        0
 91
        1
 62
     0
 92
       -2
340
0
 93
        0
 40
0.045
309
GRIDFORMAT_END
 95
       32
302
GRIDFORMAT
  1
GRIDFORMAT_BEGIN
 90
        0
 91
        1
 62
     0
 92
       -2
340
0
 93
        0
 40
0.045
309
GRIDFORMAT_END
309
TABLEFORMAT_END
  1
CELLSTYLE_BEGIN
 90
        3
 91
        2
300
_DATA
309
CELLSTYLE_END
  0
ENDSEC
  0
EOF
