  0
SECTION
  2
HEADER
  9
$ACADVER
  1
AC1021
  9
$ACADMAINTVER
 70
    25
  9
$DWGCODEPAGE
  3
ANSI_932
  9
$LASTSAVEDBY
  1
howeNelson
  9
$INSBASE
 10
0.0
 20
0.0
 30
0.0
  9
$EXTMIN
 10
0.0
 20
0.0
 30
-0.0000000000000071
  9
$EXTMAX
 10
1050.0
 20
1485.0
 30
0.0000000000000071
  9
$LIMMIN
 10
0.0
 20
0.0
  9
$LIMMAX
 10
1050.0
 20
1485.0
  9
$ORTHOMODE
 70
     0
  9
$REGENMODE
 70
     1
  9
$FILLMODE
 70
     1
  9
$QTEXTMODE
 70
     0
  9
$MIRRTEXT
 70
     1
  9
$LTSCALE
 40
50.0
  9
$ATTMODE
 70
     1
  9
$TEXTSIZE
 40
2.5
  9
$TRACEWID
 40
1.0
  9
$TEXTSTYLE
  7
ＭＳ ゴシック
  9
$CLAYER
  8
DIM
  9
$CELTYPE
  6
ByLayer
  9
$CECOLOR
 62
   256
  9
$CELTSCALE
 40
0.05
  9
$DISPSILH
 70
     0
  9
$DIMSCALE
 40
1.0
  9
$DIMASZ
 40
3.0
  9
$DIMEXO
 40
10.0
  9
$DIMDLI
 40
0.9999999999999999
  9
$DIMRND
 40
0.0
  9
$DIMDLE
 40
0.0
  9
$DIMEXE
 40
0.0
  9
$DIMTP
 40
0.0
  9
$DIMTM
 40
0.0
  9
$DIMTXT
 40
12.0
  9
$DIMCEN
 40
0.0
  9
$DIMTSZ
 40
0.0
  9
$DIMTOL
 70
     0
  9
$DIMLIM
 70
     0
  9
$DIMTIH
 70
     0
  9
$DIMTOH
 70
     0
  9
$DIMSE1
 70
     0
  9
$DIMSE2
 70
     0
  9
$DIMTAD
 70
     1
  9
$DIMZIN
 70
    11
  9
$DIMBLK
  1
DOT
  9
$DIMASO
 70
     1
  9
$DIMSHO
 70
     1
  9
$DIMPOST
  1
<>
  9
$DIMAPOST
  1
[]
  9
$DIMALT
 70
     0
  9
$DIMALTD
 70
     1
  9
$DIMALTF
 40
1.0
  9
$DIMLFAC
 40
1.0
  9
$DIMTOFL
 70
     0
  9
$DIMTVP
 40
0.0
  9
$DIMTIX
 70
     1
  9
$DIMSOXD
 70
     0
  9
$DIMSAH
 70
     0
  9
$DIMBLK1
  1

  9
$DIMBLK2
  1

  9
$DIMSTYLE
  2
tfrom線あり
  9
$DIMCLRD
 70
     0
  9
$DIMCLRE
 70
     0
  9
$DIMCLRT
 70
     0
  9
$DIMTFAC
 40
1.0
  9
$DIMGAP
 40
10.0
  9
$DIMJUST
 70
     0
  9
$DIMSD1
 70
     0
  9
$DIMSD2
 70
     0
  9
$DIMTOLJ
 70
     1
  9
$DIMTZIN
 70
    11
  9
$DIMALTZ
 70
    11
  9
$DIMALTTZ
 70
    11
  9
$DIMUPT
 70
     0
  9
$DIMDEC
 70
     0
  9
$DIMTDEC
 70
     1
  9
$DIMALTU
 70
     2
  9
$DIMALTTD
 70
     2
  9
$DIMTXSTY
  7
ＭＳ ゴシック
  9
$DIMAUNIT
 70
     0
  9
$DIMADEC
 70
     2
  9
$DIMALTRND
 40
0.0
  9
$DIMAZIN
 70
     0
  9
$DIMDSEP
 70
    46
  9
$DIMATFIT
 70
     0
  9
$DIMFRAC
 70
     2
  9
$DIMLDRBLK
  1
DOT
  9
$DIMLUNIT
 70
     2
  9
$DIMLWD
 70
    -2
  9
$DIMLWE
 70
    -2
  9
$DIMTMOVE
 70
     0
  9
$DIMFXL
 40
1.0
  9
$DIMFXLON
 70
     0
  9
$DIMJOGANG
 40
0.7853981633974483
  9
$DIMTFILL
 70
     0
  9
$DIMTFILLCLR
 70
     0
  9
$DIMARCSYM
 70
     0
  9
$DIMLTYPE
  6

  9
$DIMLTEX1
  6

  9
$DIMLTEX2
  6

  9
$LUNITS
 70
     2
  9
$LUPREC
 70
     0
  9
$SKETCHINC
 40
0.1
  9
$FILLETRAD
 40
0.0
  9
$AUNITS
 70
     0
  9
$AUPREC
 70
     0
  9
$MENU
  1
acad
  9
$ELEVATION
 40
0.0
  9
$PELEVATION
 40
0.0
  9
$THICKNESS
 40
0.0
  9
$LIMCHECK
 70
     0
  9
$CHAMFERA
 40
0.0
  9
$CHAMFERB
 40
0.0
  9
$CHAMFERC
 40
0.0
  9
$CHAMFERD
 40
0.0
  9
$SKPOLY
 70
     0
  9
$TDCREATE
 40
2447893.375
  9
$TDUCREATE
 40
0.0
  9
$TDUPDATE
 40
2457585.729571042
  9
$TDUUPDATE
 40
2457585.354571042
  9
$TDINDWG
 40
0.1279182292
  9
$TDUSRTIMER
 40
2457585.354514259
  9
$USRTIMER
 70
     1
  9
$ANGBASE
 50
0.0
  9
$ANGDIR
 70
     0
  9
$PDMODE
 70
     1
  9
$PDSIZE
 40
-2.0
  9
$PLINEWID
 40
0.0
  9
$SPLFRAME
 70
     0
  9
$SPLINETYPE
 70
     6
  9
$SPLINESEGS
 70
     8
  9
$HANDSEED
  5
1549
  9
$SURFTAB1
 70
     6
  9
$SURFTAB2
 70
     6
  9
$SURFTYPE
 70
     6
  9
$SURFU
 70
     6
  9
$SURFV
 70
     6
  9
$UCSBASE
  2

  9
$UCSNAME
  2

  9
$UCSORG
 10
0.0
 20
0.0
 30
0.0
  9
$UCSXDIR
 10
1.0
 20
0.0
 30
0.0
  9
$UCSYDIR
 10
0.0
 20
1.0
 30
0.0
  9
$UCSORTHOREF
  2

  9
$UCSORTHOVIEW
 70
     0
  9
$UCSORGTOP
 10
0.0
 20
0.0
 30
0.0
  9
$UCSORGBOTTOM
 10
0.0
 20
0.0
 30
0.0
  9
$UCSORGLEFT
 10
0.0
 20
0.0
 30
0.0
  9
$UCSORGRIGHT
 10
0.0
 20
0.0
 30
0.0
  9
$UCSORGFRONT
 10
0.0
 20
0.0
 30
0.0
  9
$UCSORGBACK
 10
0.0
 20
0.0
 30
0.0
  9
$PUCSBASE
  2

  9
$PUCSNAME
  2

  9
$PUCSORG
 10
0.0
 20
0.0
 30
0.0
  9
$PUCSXDIR
 10
1.0
 20
0.0
 30
0.0
  9
$PUCSYDIR
 10
0.0
 20
1.0
 30
0.0
  9
$PUCSORTHOREF
  2

  9
$PUCSORTHOVIEW
 70
     0
  9
$PUCSORGTOP
 10
0.0
 20
0.0
 30
0.0
  9
$PUCSORGBOTTOM
 10
0.0
 20
0.0
 30
0.0
  9
$PUCSORGLEFT
 10
0.0
 20
0.0
 30
0.0
  9
$PUCSORGRIGHT
 10
0.0
 20
0.0
 30
0.0
  9
$PUCSORGFRONT
 10
0.0
 20
0.0
 30
0.0
  9
$PUCSORGBACK
 10
0.0
 20
0.0
 30
0.0
  9
$USERI1
 70
     0
  9
$USERI2
 70
     0
  9
$USERI3
 70
     0
  9
$USERI4
 70
     0
  9
$USERI5
 70
     0
  9
$USERR1
 40
0.0
  9
$USERR2
 40
0.0
  9
$USERR3
 40
0.0
  9
$USERR4
 40
0.0
  9
$USERR5
 40
0.0
  9
$WORLDVIEW
 70
     1
  9
$SHADEDGE
 70
     3
  9
$SHADEDIF
 70
    70
  9
$TILEMODE
 70
     1
  9
$MAXACTVP
 70
    64
  9
$PINSBASE
 10
0.0
 20
0.0
 30
0.0
  9
$PLIMCHECK
 70
     0
  9
$PEXTMIN
 10
0.0
 20
0.0
 30
0.0
  9
$PEXTMAX
 10
0.0
 20
0.0
 30
0.0
  9
$PLIMMIN
 10
-95.87226993865028
 20
-25.69999999999999
  9
$PLIMMAX
 10
201.1277300613497
 20
184.3
  9
$UNITMODE
 70
     0
  9
$VISRETAIN
 70
     0
  9
$PLINEGEN
 70
     1
  9
$PSLTSCALE
 70
     0
  9
$TREEDEPTH
 70
  3020
  9
$CMLSTYLE
  2
Standard
  9
$CMLJUST
 70
     0
  9
$CMLSCALE
 40
1.0
  9
$PROXYGRAPHICS
 70
     0
  9
$MEASUREMENT
 70
     1
  9
$CELWEIGHT
370
    -1
  9
$ENDCAPS
280
     0
  9
$JOINSTYLE
280
     0
  9
$LWDISPLAY
290
     1
  9
$INSUNITS
 70
     4
  9
$HYPERLINKBASE
  1

  9
$STYLESHEET
  1

  9
$XEDIT
290
     1
  9
$CEPSNTYPE
380
     0
  9
$PSTYLEMODE
290
     1
  9
$FINGERPRINTGUID
  2

  9
$VERSIONGUID
  2

  9
$EXTNAMES
290
     1
  9
$PSVPSCALE
 40
0.0
  9
$OLESTARTUP
290
     0
  9
$SORTENTS
280
   127
  9
$INDEXCTL
280
     0
  9
$HIDETEXT
280
     1
  9
$XCLIPFRAME
290
     0
  9
$HALOGAP
280
     0
  9
$OBSCOLOR
 70
   257
  9
$OBSLTYPE
280
     0
  9
$INTERSECTIONDISPLAY
280
     0
  9
$INTERSECTIONCOLOR
 70
   257
  9
$DIMASSOC
280
     2
  9
$PROJECTNAME
  1

  9
$CAMERADISPLAY
290
     0
  9
$LENSLENGTH
 40
50.0
  9
$CAMERAHEIGHT
 40
0.0
  9
$STEPSPERSEC
 40
2.0
  9
$STEPSIZE
 40
6.0
  9
$3DDWFPREC
 40
2.0
  9
$PSOLWIDTH
 40
0.25
  9
$PSOLHEIGHT
 40
4.0
  9
$LOFTANG1
 40
1.570796326794897
  9
$LOFTANG2
 40
1.570796326794897
  9
$LOFTMAG1
 40
0.0
  9
$LOFTMAG2
 40
0.0
  9
$LOFTPARAM
 70
     7
  9
$LOFTNORMALS
280
     1
  9
$LATITUDE
 40
37.795
  9
$LONGITUDE
 40
-122.394
  9
$NORTHDIRECTION
 40
0.0
  9
$TIMEZONE
 70
 -8000
  9
$LIGHTGLYPHDISPLAY
280
     1
  9
$TILEMODELIGHTSYNCH
280
     1
  9
$SOLIDHIST
280
     1
  9
$SHOWHIST
280
     1
  9
$DWFFRAME
280
     2
  9
$DGNFRAME
280
     2
  9
$REALWORLDSCALE
290
     1
  9
$INTERFERECOLOR
 62
   256
  9
$CSHADOW
280
     0
  9
$SHADOWPLANELOCATION
 40
0.0
  0
ENDSEC
  0
SECTION
  2
CLASSES
  0
CLASS
  1
LWPOLYLINE
  2
AcDbPolyline
  3
ObjectDBX Classes
 90
        0
 91
        1
280
     0
281
     1
  0
CLASS
  1
IMAGE
  2
AcDbRasterImage
  3
ISM
 90
      127
 91
       10
280
     0
281
     1
  0
CLASS
  1
OLE2FRAME
  2
AcDbOle2Frame
  3
ObjectDBX Classes
 90
        0
 91
        1
280
     0
281
     1
  0
CLASS
  1
HATCH
  2
AcDbHatch
  3
ObjectDBX Classes
 90
        0
 91
        1
280
     0
281
     1
  0
CLASS
  1
DICTIONARYVAR
  2
AcDbDictionaryVar
  3
ObjectDBX Classes
 90
        0
 91
        9
280
     0
281
     0
  0
CLASS
  1
RASTERVARIABLES
  2
AcDbRasterVariables
  3
ISM
 90
        0
 91
        9
280
     0
281
     0
  0
CLASS
  1
IMAGEDEF
  2
AcDbRasterImageDef
  3
ISM
 90
        0
 91
        9
280
     0
281
     0
  0
CLASS
  1
IMAGEDEF_REACTOR
  2
AcDbRasterImageDefReactor
  3
ISM
 90
        1
 91
        9
280
     0
281
     0
  0
CLASS
  1
IDBUFFER
  2
AcDbIdBuffer
  3
ObjectDBX Classes
 90
        0
 91
        9
280
     0
281
     0
  0
CLASS
  1
SPATIAL_FILTER
  2
AcDbSpatialFilter
  3
ObjectDBX Classes
 90
        0
 91
        9
280
     0
281
     0
  0
CLASS
  1
XRECORD
  2
AcDbXrecord
  3
ObjectDBX Classes
 90
        0
 91
        1
280
     0
281
     0
  0
CLASS
  1
SORTENTSTABLE
  2
AcDbSortentsTable
  3
ObjectDBX Classes
 90
        0
 91
        9
280
     0
281
     0
  0
CLASS
  1
LAYER_INDEX
  2
AcDbLayerIndex
  3
ObjectDBX Classes
 90
        0
 91
        9
280
     0
281
     0
  0
CLASS
  1
SPATIAL_INDEX
  2
AcDbSpatialIndex
  3
AutoCAD 2000
 90
        0
 91
        9
280
     0
281
     0
  0
CLASS
  1
OBJECT_PTR
  2
CAseDLPNTableRecord
  3
ASE-LPNTableRecord
 90
        1
 91
        9
280
     0
281
     0
  0
CLASS
  1
LAYOUT
  2
AcDbLayout
  3
ObjectDBX Classes
 90
        0
 91
        1
280
     0
281
     0
  0
CLASS
  1
PLOTSETTINGS
  2
AcDbPlotSettings
  3
ObjectDBX Classes
 90
        0
 91
        9
280
     0
281
     0
  0
CLASS
  1
ACDBDICTIONARYWDFLT
  2
AcDbDictionaryWithDefault
  3
ObjectDBX Classes
 90
        0
 91
        9
280
     0
281
     0
  0
CLASS
  1
ACDBPLACEHOLDER
  2
AcDbPlaceHolder
  3
ObjectDBX Classes
 90
        0
 91
        1
280
     0
281
     0
  0
CLASS
  1
SCALE
  2
AcDbScale
  3
ObjectDBX Classes
 90
     1153
 91
        9
280
     0
281
     0
  0
CLASS
  1
MATERIAL
  2
AcDbMaterial
  3
ObjectDBX Classes
 90
     1153
 91
        9
280
     0
281
     0
  0
CLASS
  1
VISUALSTYLE
  2
AcDbVisualStyle
  3
ObjectDBX Classes
 90
     4095
 91
        9
280
     0
281
     0
  0
CLASS
  1
TABLESTYLE
  2
AcDbTableStyle
  3
ObjectDBX Classes
 90
     4095
 91
        9
280
     0
281
     0
  0
CLASS
  1
DIMASSOC
  2
AcDbDimAssoc
  3
"AcDbDimAssoc|Product Desc:     AcDim ARX App For Dimension|Company:          Autodesk, Inc.|WEB Address:      www.autodesk.com"
 90
        0
 91
        9
280
     0
281
     0
  0
CLASS
  1
CELLSTYLEMAP
  2
AcDbCellStyleMap
  3
ObjectDBX Classes
 90
     1152
 91
        9
280
     0
281
     0
  0
CLASS
  1
SUN
  2
AcDbSun
  3
SCENEOE
 90
     1153
 91
        9
280
     0
281
     0
  0
CLASS
  1
MLEADERSTYLE
  2
AcDbMLeaderStyle
  3
ACDB_MLEADERSTYLE_CLASS
 90
     4095
 91
        9
280
     0
281
     0
  0
CLASS
  1
FIELD
  2
AcDbField
  3
ObjectDBX Classes
 90
     1152
 91
        9
280
     0
281
     0
  0
CLASS
  1
FIELDLIST
  2
AcDbFieldList
  3
ObjectDBX Classes
 90
     1152
 91
        9
280
     0
281
     0
  0
ENDSEC
  0
SECTION
  2
TABLES
  0
TABLE
  2
VPORT
  5
7
330
0
100
AcDbSymbolTable
 70
     1
  0
VPORT
  5
15
330
7
100
AcDbSymbolTableRecord
100
AcDbViewportTableRecord
  2
*ACTIVE
 70
     0
 10
0.0
 20
0.0
 11
1.0
 21
1.0
 12
616.0201356708993
 22
668.901285469834
 13
0.0
 23
0.0
 14
1.0
 24
1.0
 15
0.0
 25
0.0
 16
0.0
 26
0.0
 36
1.0
 17
-91.02013567089932
 27
73.59871453016603
 37
-46.86809886248109
 40
1514.7
 41
2.479940564635958
 42
50.0
 43
0.0
 44
0.0
 50
0.0
 51
0.0
 71
    16
 72
  2000
 73
     1
 74
     1
 75
     0
 76
     0
 77
     0
 78
     0
281
     0
 65
     1
110
0.0
120
0.0
130
0.0
111
1.0
121
0.0
131
0.0
112
0.0
122
1.0
132
0.0
 79
     0
146
0.0
348
26C
 60
     3
 61
     5
292
     1
282
     1
141
0.0
142
0.0
 63
   256
361
904
  0
ENDTAB
  0
TABLE
  2
LTYPE
  5
4
330
0
100
AcDbSymbolTable
 70
    22
  0
LTYPE
  5
11
330
4
100
AcDbSymbolTableRecord
100
AcDbLinetypeTableRecord
  2
ByBlock
 70
     0
  3

 72
    65
 73
     0
 40
0.0
  0
LTYPE
  5
12
330
4
100
AcDbSymbolTableRecord
100
AcDbLinetypeTableRecord
  2
ByLayer
 70
     0
  3

 72
    65
 73
     0
 40
0.0
  0
LTYPE
  5
13
330
4
100
AcDbSymbolTableRecord
100
AcDbLinetypeTableRecord
  2
Continuous
 70
     0
  3
Solid line
 72
    65
 73
     0
 40
0.0
  0
LTYPE
  5
D6C
330
4
100
AcDbSymbolTableRecord
100
AcDbLinetypeTableRecord
  2
BORDER
 70
     0
  3
Border __  __  . __  __  . __  __  . __  __  . 
 72
    65
 73
     6
 40
44.45
 49
12.7
 74
     0
 49
-6.35
 74
     0
 49
12.7
 74
     0
 49
-6.35
 74
     0
 49
0.0
 74
     0
 49
-6.35
 74
     0
  0
LTYPE
  5
D6D
330
4
100
AcDbSymbolTableRecord
100
AcDbLinetypeTableRecord
  2
HIDDEN
 70
     0
  3
Hidden _ _ _ _ _ _ _ _ _ _ _ _ _ _ _ _ _ _ _ _ 
 72
    65
 73
     2
 40
9.524999999999999
 49
6.35
 74
     0
 49
-3.175
 74
     0
  0
LTYPE
  5
131E
330
4
100
AcDbSymbolTableRecord
100
AcDbLinetypeTableRecord
  2
CENTER
 70
     0
  3
 Center _____  _  _____  _  _____  _  _____  _ 
 72
    65
 73
     4
 40
50.8
 49
31.75
 74
     0
 49
-6.35
 74
     0
 49
6.35
 74
     0
 49
-6.35
 74
     0
  0
ENDTAB
  0
TABLE
  2
LAYER
  5
2
102
{ACAD_XDICTIONARY
360
2E1
102
}
330
0
100
AcDbSymbolTable
 70
     9
  0
LAYER
  5
14
330
2
100
AcDbSymbolTableRecord
100
AcDbLayerTableRecord
  2
0
 70
     0
 62
     7
  6
Continuous
370
    -3
390
1D
347
266
  0
LAYER
  5
4B
330
2
100
AcDbSymbolTableRecord
100
AcDbLayerTableRecord
  2
TEMPLATE
 70
     0
 62
     7
  6
Continuous
370
    20
390
1D
347
266
  0
LAYER
  5
4C
330
2
100
AcDbSymbolTableRecord
100
AcDbLayerTableRecord
  2
DIM
 70
     0
 62
     3
  6
Continuous
370
    13
390
1D
347
266
  0
LAYER
  5
4D
330
2
100
AcDbSymbolTableRecord
100
AcDbLayerTableRecord
  2
MODEL
 70
     0
 62
     7
  6
Continuous
370
    20
390
1D
347
266
  0
LAYER
  5
667
330
2
100
AcDbSymbolTableRecord
100
AcDbLayerTableRecord
  2
LOGO
 70
     0
 62
     7
  6
Continuous
370
    -3
390
1D
347
266
  0
LAYER
  5
88C
330
2
100
AcDbSymbolTableRecord
100
AcDbLayerTableRecord
  2
HIDDEN
 70
     0
 62
     8
  6
HIDDEN
370
    20
390
1D
347
266
1001
AcAecLayerStandard
1000

1000

  0
LAYER
  5
D6B
330
2
100
AcDbSymbolTableRecord
100
AcDbLayerTableRecord
  2
BORDER
 70
     0
 62
     4
  6
BORDER
290
     0
370
    20
390
1D
347
266
1001
AcAecLayerStandard
1000

1000

  0
LAYER
  5
D8C
330
2
100
AcDbSymbolTableRecord
100
AcDbLayerTableRecord
  2
Defpoints
 70
     0
 62
     7
  6
Continuous
290
     0
370
    -3
390
1D
347
266
  0
ENDTAB
  0
TABLE
  2
STYLE
  5
3
330
0
100
AcDbSymbolTable
 70
     4
  0
STYLE
  5
17
330
3
100
AcDbSymbolTableRecord
100
AcDbTextStyleTableRecord
  2
Standard
 70
     0
 40
0.0
 41
1.0
 50
0.0
 71
     0
 42
2.5
  3
txt
  4
BIGFONT.SHX
  0
STYLE
  5
39
330
3
100
AcDbSymbolTableRecord
100
AcDbTextStyleTableRecord
  2
ＭＳ ゴシック
 70
     0
 40
0.0
 41
1.0
 50
0.0
 71
     0
 42
2.5
  3
msgothic.ttc
  4
ＭＳ ゴシック
1001
ACAD
1000
ＭＳ ゴシック
1071
        0
  0
ENDTAB
  0
TABLE
  2
VIEW
  5
5
330
0
100
AcDbSymbolTable
 70
     0
  0
ENDTAB
  0
TABLE
  2
UCS
  5
6
330
0
100
AcDbSymbolTable
 70
     0
  0
ENDTAB
  0
TABLE
  2
APPID
  5
8
330
0
100
AcDbSymbolTable
 70
     3
  0
APPID
  5
16
330
8
100
AcDbSymbolTableRecord
100
AcDbRegAppTableRecord
  2
ACAD
 70
     0
  0
APPID
  5
7AC
330
8
100
AcDbSymbolTableRecord
100
AcDbRegAppTableRecord
  2
AcAecLayerStandard
 70
     0
  0
APPID
  5
E29
330
8
100
AcDbSymbolTableRecord
100
AcDbRegAppTableRecord
  2
ACAD_MLEADERVER
 70
     0
  0
ENDTAB
  0
TABLE
  2
DIMSTYLE
  5
9
330
0
100
AcDbSymbolTable
 70
     5
100
AcDbDimStyleTable
  0
DIMSTYLE
105
18
330
9
100
AcDbSymbolTableRecord
100
AcDbDimStyleTableRecord
  2
Standard
 70
     0
178
     0
340
17
  0
DIMSTYLE
105
57
102
{ACAD_REACTORS
330
106D
330
1070
330
1073
330
1074
330
1075
330
1081
330
1082
330
1084
330
1086
330
1087
330
1093
330
1096
330
109C
330
109D
330
10A1
330
1349
330
13D1
330
13DE
330
140B
330
1419
330
1453
330
1463
102
}
330
9
100
AcDbSymbolTableRecord
100
AcDbDimStyleTableRecord
  2
tfrom線あり
 70
     0
  3
<>
  4
[]
 41
3.0
 42
10.0
 43
0.9999999999999999
 44
0.0
 73
     0
 74
     0
 77
     1
 78
    11
140
12.0
141
0.0
143
1.0
147
10.0
171
     1
174
     1
178
     0
179
     2
271
     0
272
     1
276
     2
284
    11
285
    11
286
    11
289
     0
340
39
341
4E
342
4E
  0
ENDTAB
  0
TABLE
  2
BLOCK_RECORD
  5
1
330
0
100
AcDbSymbolTable
 70
    60
  0
BLOCK_RECORD
  5
A
330
1
100
AcDbSymbolTableRecord
100
AcDbBlockTableRecord
  2
*MODEL_SPACE
340
20
 70
     0
280
     1
281
     0
  0
BLOCK_RECORD
  5
B
330
1
100
AcDbSymbolTableRecord
100
AcDbBlockTableRecord
  2
*PAPER_SPACE
340
21
 70
     0
280
     1
281
     0
  0
BLOCK_RECORD
  5
4E
330
1
100
AcDbSymbolTableRecord
100
AcDbBlockTableRecord
  2
_DOT
340
0
102
{BLKREFS
331
D96
331
D97
331
DA5
331
DA6
331
E53
331
E54
331
EF7
331
EF8
331
F06
331
F07
331
F13
331
F14
331
F20
331
F21
331
F2F
331
F30
331
F44
331
F45
331
F51
331
F52
331
F5E
331
F5F
331
F6B
331
F6C
331
F78
331
F79
331
F85
331
F86
331
F92
331
F93
331
F9F
331
FA0
331
FB9
331
FBA
331
FC6
331
FC7
331
FD9
331
FDA
331
FE6
331
FE7
331
FF5
331
FF6
331
10E3
331
10E4
331
10EF
331
10F0
331
10FB
331
10FC
331
1107
331
1108
331
1113
331
1114
331
111F
331
1120
331
112B
331
112C
331
1137
331
1138
331
1143
331
1144
331
114F
331
1150
331
115B
331
115C
331
1167
331
1168
331
1173
331
1174
331
117F
331
1180
331
118B
331
118C
331
1197
331
1198
331
11A4
331
11A5
331
11AF
331
11B0
331
12BB
331
12BC
331
12E8
331
12E9
331
12F9
331
12FA
331
138C
331
138D
331
13D9
331
13D8
331
13E6
331
13E5
331
1413
331
1412
331
1428
331
1429
331
145D
331
145C
331
146D
331
146C
102
}
 70
     0
280
     1
281
     0
  0
BLOCK_RECORD
  5
68A
330
1
100
AcDbSymbolTableRecord
100
AcDbBlockTableRecord
  2
名称未設定-1
340
0
102
{BLKREFS
331
6B5
102
}
 70
     1
280
     1
281
     0
  0
BLOCK_RECORD
  5
68D
330
1
100
AcDbSymbolTableRecord
100
AcDbBlockTableRecord
  2
block 2
340
0
102
{BLKREFS
331
68C
331
104E
102
}
 70
     0
280
     1
281
     0
  0
BLOCK_RECORD
  5
690
330
1
100
AcDbSymbolTableRecord
100
AcDbBlockTableRecord
  2
block 3
340
0
102
{BLKREFS
331
68F
102
}
 70
     0
280
     1
281
     0
  0
BLOCK_RECORD
  5
693
330
1
100
AcDbSymbolTableRecord
100
AcDbBlockTableRecord
  2
block 4
340
0
102
{BLKREFS
331
692
102
}
 70
     0
280
     1
281
     0
  0
BLOCK_RECORD
  5
6A2
330
1
100
AcDbSymbolTableRecord
100
AcDbBlockTableRecord
  2
block 5
340
0
102
{BLKREFS
331
6A1
102
}
 70
     0
280
     1
281
     0
  0
BLOCK_RECORD
  5
10DD
330
1
100
AcDbSymbolTableRecord
100
AcDbBlockTableRecord
  2
*D27
340
0
 70
     0
280
     1
281
     0
  0
BLOCK_RECORD
  5
10E9
330
1
100
AcDbSymbolTableRecord
100
AcDbBlockTableRecord
  2
*D28
340
0
 70
     0
280
     1
281
     0
  0
BLOCK_RECORD
  5
10F5
330
1
100
AcDbSymbolTableRecord
100
AcDbBlockTableRecord
  2
*D29
340
0
 70
     0
280
     1
281
     0
  0
BLOCK_RECORD
  5
1101
330
1
100
AcDbSymbolTableRecord
100
AcDbBlockTableRecord
  2
*D30
340
0
 70
     0
280
     1
281
     0
  0
BLOCK_RECORD
  5
110D
330
1
100
AcDbSymbolTableRecord
100
AcDbBlockTableRecord
  2
*D31
340
0
 70
     0
280
     1
281
     0
  0
BLOCK_RECORD
  5
1125
330
1
100
AcDbSymbolTableRecord
100
AcDbBlockTableRecord
  2
*D33
340
0
 70
     0
280
     1
281
     0
  0
BLOCK_RECORD
  5
1131
330
1
100
AcDbSymbolTableRecord
100
AcDbBlockTableRecord
  2
*D34
340
0
 70
     0
280
     1
281
     0
  0
BLOCK_RECORD
  5
1149
330
1
100
AcDbSymbolTableRecord
100
AcDbBlockTableRecord
  2
*D36
340
0
 70
     0
280
     1
281
     0
  0
BLOCK_RECORD
  5
1161
330
1
100
AcDbSymbolTableRecord
100
AcDbBlockTableRecord
  2
*D38
340
0
 70
     0
280
     1
281
     0
  0
BLOCK_RECORD
  5
116D
330
1
100
AcDbSymbolTableRecord
100
AcDbBlockTableRecord
  2
*D39
340
0
 70
     0
280
     1
281
     0
  0
BLOCK_RECORD
  5
1179
330
1
100
AcDbSymbolTableRecord
100
AcDbBlockTableRecord
  2
*D40
340
0
 70
     0
280
     1
281
     0
  0
BLOCK_RECORD
  5
1185
330
1
100
AcDbSymbolTableRecord
100
AcDbBlockTableRecord
  2
*D41
340
0
 70
     0
280
     1
281
     0
  0
BLOCK_RECORD
  5
1191
330
1
100
AcDbSymbolTableRecord
100
AcDbBlockTableRecord
  2
*D42
340
0
 70
     0
280
     1
281
     0
  0
BLOCK_RECORD
  5
119E
330
1
100
AcDbSymbolTableRecord
100
AcDbBlockTableRecord
  2
*D43
340
0
 70
     0
280
     1
281
     0
  0
BLOCK_RECORD
  5
11AA
330
1
100
AcDbSymbolTableRecord
100
AcDbBlockTableRecord
  2
*D44
340
0
 70
     0
280
     1
281
     0
  0
BLOCK_RECORD
  5
13D2
330
1
100
AcDbSymbolTableRecord
100
AcDbBlockTableRecord
  2
*D52
340
0
 70
     0
280
     1
281
     0
  0
BLOCK_RECORD
  5
13DF
330
1
100
AcDbSymbolTableRecord
100
AcDbBlockTableRecord
  2
*D53
340
0
 70
     0
280
     1
281
     0
  0
BLOCK_RECORD
  5
140C
330
1
100
AcDbSymbolTableRecord
100
AcDbBlockTableRecord
  2
*D54
340
0
 70
     0
280
     1
281
     0
  0
BLOCK_RECORD
  5
1422
330
1
100
AcDbSymbolTableRecord
100
AcDbBlockTableRecord
  2
*D55
340
0
 70
     0
280
     1
281
     0
  0
BLOCK_RECORD
  5
1456
330
1
100
AcDbSymbolTableRecord
100
AcDbBlockTableRecord
  2
*D56
340
0
 70
     0
280
     1
281
     0
  0
BLOCK_RECORD
  5
1466
330
1
100
AcDbSymbolTableRecord
100
AcDbBlockTableRecord
  2
*D57
340
0
 70
     0
280
     1
281
     0
  0
ENDTAB
  0
ENDSEC
  0
SECTION
  2
BLOCKS
  0
BLOCK
  5
D
330
A
100
AcDbEntity
  8
0
390
1D
100
AcDbBlockBegin
  2
*MODEL_SPACE
 70
     0
 10
0.0
 20
0.0
 30
0.0
  3
*MODEL_SPACE
  1
*MODEL_SPACE
  0
ENDBLK
  5
E
330
A
100
AcDbEntity
  8
0
390
1D
100
AcDbBlockEnd
  0
BLOCK
  5
F
330
B
100
AcDbEntity
 67
     1
  8
0
390
1D
100
AcDbBlockBegin
  2
*PAPER_SPACE
 70
     0
 10
0.0
 20
0.0
 30
0.0
  3
*PAPER_SPACE
  1
*PAPER_SPACE
  0
ENDBLK
  5
10
330
B
100
AcDbEntity
 67
     1
  8
0
390
1D
100
AcDbBlockEnd
  0
BLOCK
  5
E30
330
4E
100
AcDbEntity
  8
0
390
1D
100
AcDbBlockBegin
  2
_DOT
 70
     0
 10
0.0
 20
0.0
 30
0.0
  3
_DOT
  1
_DOT
  0
POLYLINE
  5
E32
330
4E
100
AcDbEntity
  8
0
  6
ByBlock
 62
     0
370
    -2
390
1D
100
AcDb2dPolyline
 66
     1
 10
0.0
 20
0.0
 30
0.0
 70
     1
 40
0.5
 41
0.5
  0
VERTEX
  5
E33
330
E32
100
AcDbEntity
  8
0
  6
ByBlock
 62
     0
370
    -2
390
1D
100
AcDbVertex
100
AcDb2dVertex
 10
-0.25
 20
0.0
 30
0.0
 42
1.0
  0
VERTEX
  5
E34
330
E32
100
AcDbEntity
  8
0
  6
ByBlock
 62
     0
370
    -2
390
1D
100
AcDbVertex
100
AcDb2dVertex
 10
0.25
 20
0.0
 30
0.0
 42
1.0
  0
SEQEND
  5
E35
330
E32
100
AcDbEntity
  8
0
390
1D
  0
LINE
  5
E36
330
4E
100
AcDbEntity
  8
0
  6
ByBlock
 62
     0
370
    -2
390
1D
100
AcDbLine
 10
-0.5
 20
0.0
 30
0.0
 11
-1.0
 21
0.0
 31
0.0
  0
ENDBLK
  5
E37
330
4E
100
AcDbEntity
  8
0
390
1D
100
AcDbBlockEnd
  0
BLOCK
  5
68B
330
68A
100
AcDbEntity
  8
0
100
AcDbBlockBegin
  2
名称未設定-1
 70
     0
 10
0.0
 20
0.0
 30
0.0
  3
名称未設定-1
  1
名称未設定-1
  0
INSERT
  5
68F
330
68A
100
AcDbEntity
  8
LOGO
100
AcDbBlockReference
  2
block 3
 10
0.0
 20
0.0
 30
0.0
  0
ENDBLK
  5
6B1
330
68A
100
AcDbEntity
  8
0
100
AcDbBlockEnd
  0
BLOCK
  5
68E
330
68D
100
AcDbEntity
  8
0
100
AcDbBlockBegin
  2
block 2
 70
     0
 10
0.0
 20
0.0
 30
0.0
  3
block 2
  1
block 2
  0
ENDBLK
  5
6B0
330
68D
100
AcDbEntity
  8
0
100
AcDbBlockEnd
  0
BLOCK
  5
691
330
690
100
AcDbEntity
  8
0
100
AcDbBlockBegin
  2
block 3
 70
     0
 10
0.0
 20
0.0
 30
0.0
  3
block 3
  1
block 3
  0
INSERT
  5
692
330
690
100
AcDbEntity
  8
LOGO
100
AcDbBlockReference
  2
block 4
 10
0.0
 20
0.0
 30
0.0
  0
INSERT
  5
6A1
330
690
100
AcDbEntity
  8
LOGO
100
AcDbBlockReference
  2
block 5
 10
0.0
 20
0.0
 30
0.0
  0
ENDBLK
  5
6AF
330
690
100
AcDbEntity
  8
0
100
AcDbBlockEnd
  0
BLOCK
  5
694
330
693
100
AcDbEntity
  8
0
100
AcDbBlockBegin
  2
block 4
 70
     0
 10
0.0
 20
0.0
 30
0.0
  3
block 4
  1
block 4
  0
POLYLINE
  5
695
330
693
100
AcDbEntity
  8
LOGO
370
     0
100
AcDb2dPolyline
 66
     1
 10
0.0
 20
0.0
 30
0.0
  0
VERTEX
  5
696
330
695
100
AcDbEntity
  8
LOGO
370
     0
100
AcDbVertex
100
AcDb2dVertex
 10
83.79545727667795
 20
167.6444858234922
 30
0.0
  0
VERTEX
  5
697
330
695
100
AcDbEntity
  8
LOGO
370
     0
100
AcDbVertex
100
AcDb2dVertex
 10
83.79545727667795
 20
159.7968976406313
 30
0.0
  0
VERTEX
  5
698
330
695
100
AcDbEntity
  8
LOGO
370
     0
100
AcDbVertex
100
AcDb2dVertex
 10
71.3631329975216
 20
159.7968976406313
 30
0.0
  0
VERTEX
  5
699
330
695
100
AcDbEntity
  8
LOGO
370
     0
100
AcDbVertex
100
AcDb2dVertex
 10
71.3631329975216
 20
127.8027915271048
 30
0.0
  0
VERTEX
  5
69A
330
695
100
AcDbEntity
  8
LOGO
370
     0
100
AcDbVertex
100
AcDb2dVertex
 10
60.43011526263018
 20
127.8027915271048
 30
0.0
  0
VERTEX
  5
69B
330
695
100
AcDbEntity
  8
LOGO
370
     0
100
AcDbVertex
100
AcDb2dVertex
 10
60.43011526263018
 20
159.7968976406313
 30
0.0
  0
VERTEX
  5
69C
330
695
100
AcDbEntity
  8
LOGO
370
     0
100
AcDbVertex
100
AcDb2dVertex
 10
48.21793273020759
 20
159.7968976406313
 30
0.0
  0
VERTEX
  5
69D
330
695
100
AcDbEntity
  8
LOGO
370
     0
100
AcDbVertex
100
AcDb2dVertex
 10
48.21793273020759
 20
167.6444858234922
 30
0.0
  0
VERTEX
  5
69E
330
695
100
AcDbEntity
  8
LOGO
370
     0
100
AcDbVertex
100
AcDb2dVertex
 10
83.79545727667795
 20
167.6444858234922
 30
0.0
  0
SEQEND
  5
69F
330
695
100
AcDbEntity
  8
LOGO
370
     0
  0
HATCH
  5
6A0
330
693
100
AcDbEntity
  8
LOGO
 62
   250
420
  2234388
100
AcDbHatch
 10
0.0
 20
0.0
 30
0.0
210
0.0
220
0.0
230
1.0
  2
SOLID
 70
     1
 71
     0
 91
        1
 92
        1
 93
        8
 72
     1
 10
83.79545727667795
 20
167.6444858234922
 11
83.79545727667795
 21
159.7968976406313
 72
     1
 10
83.79545727667795
 20
159.7968976406313
 11
71.3631329975216
 21
159.7968976406313
 72
     1
 10
71.3631329975216
 20
159.7968976406313
 11
71.3631329975216
 21
127.8027915271048
 72
     1
 10
71.3631329975216
 20
127.8027915271048
 11
60.43011526263018
 21
127.8027915271048
 72
     1
 10
60.43011526263018
 20
127.8027915271048
 11
60.43011526263018
 21
159.7968976406313
 72
     1
 10
60.43011526263018
 20
159.7968976406313
 11
48.21793273020759
 21
159.7968976406313
 72
     1
 10
48.21793273020759
 20
159.7968976406313
 11
48.21793273020759
 21
167.6444858234922
 72
     1
 10
48.21793273020759
 20
167.6444858234922
 11
83.79545727667795
 21
167.6444858234922
 97
        0
 75
     2
 76
     1
 98
        0
  0
ENDBLK
  5
6AE
330
693
100
AcDbEntity
  8
0
100
AcDbBlockEnd
  0
BLOCK
  5
6A3
330
6A2
100
AcDbEntity
  8
0
100
AcDbBlockBegin
  2
block 5
 70
     0
 10
0.0
 20
0.0
 30
0.0
  3
block 5
  1
block 5
  0
SPLINE
  5
6A4
330
6A2
100
AcDbEntity
  8
LOGO
370
     0
100
AcDbSpline
210
0.0
220
0.0
230
1.0
 70
    11
 71
     3
 72
    56
 73
    52
 74
     0
 42
0.000000001
 43
0.0000000001
 40
0.0
 40
0.0
 40
0.0
 40
0.0
 40
1.0
 40
1.0
 40
1.0
 40
2.0
 40
2.0
 40
2.0
 40
3.0
 40
3.0
 40
3.0
 40
4.0
 40
4.0
 40
4.0
 40
5.0
 40
5.0
 40
5.0
 40
6.0
 40
6.0
 40
6.0
 40
7.0
 40
7.0
 40
7.0
 40
8.0
 40
8.0
 40
8.0
 40
9.0
 40
9.0
 40
9.0
 40
10.0
 40
10.0
 40
10.0
 40
11.0
 40
11.0
 40
11.0
 40
12.0
 40
12.0
 40
12.0
 40
13.0
 40
13.0
 40
13.0
 40
14.0
 40
14.0
 40
14.0
 40
15.0
 40
15.0
 40
15.0
 40
16.0
 40
16.0
 40
16.0
 40
17.0
 40
17.0
 40
17.0
 40
17.0
 10
100.4504378777679
 20
166.69157178364
 30
0.0
 10
101.9848844191641
 20
167.1313385124438
 30
0.0
 10
103.9637485713373
 20
166.7649523658846
 30
0.0
 10
103.9637485713373
 20
166.7649523658846
 30
0.0
 10
103.9637485713373
 20
166.7649523658846
 30
0.0
 10
103.0132460999156
 20
163.911205638077
 30
0.0
 10
103.0132460999156
 20
163.911205638077
 30
0.0
 10
103.0132460999156
 20
163.911205638077
 30
0.0
 10
101.0674548862189
 20
164.3601018759394
 30
0.0
 10
99.57090442016032
 20
163.1805004036133
 30
0.0
 10
98.40508333886608
 20
162.258247733807
 30
0.0
 10
97.65301849830304
 20
159.804132345923
 30
0.0
 10
97.3598406791005
 20
158.8699940888517
 30
0.0
 10
97.3598406791005
 20
158.8699940888517
 30
0.0
 10
96.07137411762282
 20
154.9119212747295
 30
0.0
 10
96.07137411762282
 20
154.9119212747295
 30
0.0
 10
96.07137411762282
 20
154.9119212747295
 30
0.0
 10
100.3012651448482
 20
154.9119212747295
 30
0.0
 10
100.3012651448482
 20
154.9119212747295
 30
0.0
 10
100.3012651448482
 20
154.9119212747295
 30
0.0
 10
99.64152892419852
 20
152.4199098115079
 30
0.0
 10
99.64152892419852
 20
152.4199098115079
 30
0.0
 10
99.64152892419852
 20
152.4199098115079
 30
0.0
 10
95.38097652692731
 20
152.4199098115079
 30
0.0
 10
95.38097652692731
 20
152.4199098115079
 30
0.0
 10
95.38097652692731
 20
152.4199098115079
 30
0.0
 10
87.75353009080013
 20
127.8027915271048
 30
0.0
 10
87.75353009080013
 20
127.8027915271048
 30
0.0
 10
87.75353009080013
 20
127.8027915271048
 30
0.0
 10
85.36538832498108
 20
127.8027915271048
 30
0.0
 10
85.36538832498108
 20
127.8027915271048
 30
0.0
 10
85.36538832498108
 20
127.8027915271048
 30
0.0
 10
93.00006946639998
 20
152.4199098115079
 30
0.0
 10
93.00006946639998
 20
152.4199098115079
 30
0.0
 10
93.00006946639998
 20
152.4199098115079
 30
0.0
 10
89.85297266450198
 20
152.4199098115079
 30
0.0
 10
89.85297266450198
 20
152.4199098115079
 30
0.0
 10
89.85297266450198
 20
152.4199098115079
 30
0.0
 10
90.51270888515164
 20
154.9119212747295
 30
0.0
 10
90.51270888515164
 20
154.9119212747295
 30
0.0
 10
90.51270888515164
 20
154.9119212747295
 30
0.0
 10
93.6904670570955
 20
154.9119212747295
 30
0.0
 10
93.6904670570955
 20
154.9119212747295
 30
0.0
 10
93.6904670570955
 20
154.9119212747295
 30
0.0
 10
94.81598049462158
 20
158.3616699146644
 30
0.0
 10
94.81598049462158
 20
158.3616699146644
 30
0.0
 10
95.7237637538445
 20
161.2605474231013
 30
0.0
 10
96.4968436907311
 20
162.8139420021662
 30
0.0
 10
97.15657991138076
 20
163.9844139654337
 30
0.0
 10
97.81183750494507
 20
165.1523021053827
 30
0.0
 10
99.1047826935081
 20
166.3084769129547
 30
0.0
 10
100.4504378777679
 20
166.69157178364
 30
0.0
  0
HATCH
  5
6A5
330
6A2
100
AcDbEntity
  8
LOGO
 62
   250
420
  2234388
100
AcDbHatch
 10
0.0
 20
0.0
 30
0.0
210
0.0
220
0.0
230
1.0
  2
SOLID
 70
     1
 71
     0
 91
        1
 92
        1
 93
        1
 72
     4
 94
        3
 73
     0
 74
     1
 95
       56
 96
       52
 40
0.0
 40
0.0
 40
0.0
 40
0.0
 40
1.0
 40
1.0
 40
1.0
 40
2.0
 40
2.0
 40
2.0
 40
3.0
 40
3.0
 40
3.0
 40
4.0
 40
4.0
 40
4.0
 40
5.0
 40
5.0
 40
5.0
 40
6.0
 40
6.0
 40
6.0
 40
7.0
 40
7.0
 40
7.0
 40
8.0
 40
8.0
 40
8.0
 40
9.0
 40
9.0
 40
9.0
 40
10.0
 40
10.0
 40
10.0
 40
11.0
 40
11.0
 40
11.0
 40
12.0
 40
12.0
 40
12.0
 40
13.0
 40
13.0
 40
13.0
 40
14.0
 40
14.0
 40
14.0
 40
15.0
 40
15.0
 40
15.0
 40
16.0
 40
16.0
 40
16.0
 40
17.0
 40
17.0
 40
17.0
 40
17.0
 10
100.4504378777679
 20
166.69157178364
 10
101.9848844191641
 20
167.1313385124438
 10
103.9637485713373
 20
166.7649523658846
 10
103.9637485713373
 20
166.7649523658846
 10
103.9637485713373
 20
166.7649523658846
 10
103.0132460999156
 20
163.911205638077
 10
103.0132460999156
 20
163.911205638077
 10
103.0132460999156
 20
163.911205638077
 10
101.0674548862189
 20
164.3601018759394
 10
99.57090442016032
 20
163.1805004036133
 10
98.40508333886608
 20
162.258247733807
 10
97.65301849830304
 20
159.804132345923
 10
97.3598406791005
 20
158.8699940888517
 10
97.3598406791005
 20
158.8699940888517
 10
96.07137411762282
 20
154.9119212747295
 10
96.07137411762282
 20
154.9119212747295
 10
96.07137411762282
 20
154.9119212747295
 10
100.3012651448482
 20
154.9119212747295
 10
100.3012651448482
 20
154.9119212747295
 10
100.3012651448482
 20
154.9119212747295
 10
99.64152892419852
 20
152.4199098115079
 10
99.64152892419852
 20
152.4199098115079
 10
99.64152892419852
 20
152.4199098115079
 10
95.38097652692731
 20
152.4199098115079
 10
95.38097652692731
 20
152.4199098115079
 10
95.38097652692731
 20
152.4199098115079
 10
87.75353009080013
 20
127.8027915271048
 10
87.75353009080013
 20
127.8027915271048
 10
87.75353009080013
 20
127.8027915271048
 10
85.36538832498108
 20
127.8027915271048
 10
85.36538832498108
 20
127.8027915271048
 10
85.36538832498108
 20
127.8027915271048
 10
93.00006946639998
 20
152.4199098115079
 10
93.00006946639998
 20
152.4199098115079
 10
93.00006946639998
 20
152.4199098115079
 10
89.85297266450198
 20
152.4199098115079
 10
89.85297266450198
 20
152.4199098115079
 10
89.85297266450198
 20
152.4199098115079
 10
90.51270888515164
 20
154.9119212747295
 10
90.51270888515164
 20
154.9119212747295
 10
90.51270888515164
 20
154.9119212747295
 10
93.6904670570955
 20
154.9119212747295
 10
93.6904670570955
 20
154.9119212747295
 10
93.6904670570955
 20
154.9119212747295
 10
94.81598049462158
 20
158.3616699146644
 10
94.81598049462158
 20
158.3616699146644
 10
95.7237637538445
 20
161.2605474231013
 10
96.4968436907311
 20
162.8139420021662
 10
97.15657991138076
 20
163.9844139654337
 10
97.81183750494507
 20
165.1523021053827
 10
99.1047826935081
 20
166.3084769129547
 10
100.4504378777679
 20
166.69157178364
 97
        0
 75
     2
 76
     1
 98
        0
  0
SPLINE
  5
6A6
330
6A2
100
AcDbEntity
  8
LOGO
370
     0
100
AcDbSpline
210
0.0
220
0.0
230
1.0
 70
    11
 71
     3
 72
    38
 73
    34
 74
     0
 42
0.000000001
 43
0.0000000001
 40
0.0
 40
0.0
 40
0.0
 40
0.0
 40
1.0
 40
1.0
 40
1.0
 40
2.0
 40
2.0
 40
2.0
 40
3.0
 40
3.0
 40
3.0
 40
4.0
 40
4.0
 40
4.0
 40
5.0
 40
5.0
 40
5.0
 40
6.0
 40
6.0
 40
6.0
 40
7.0
 40
7.0
 40
7.0
 40
8.0
 40
8.0
 40
8.0
 40
9.0
 40
9.0
 40
9.0
 40
10.0
 40
10.0
 40
10.0
 40
11.0
 40
11.0
 40
11.0
 40
11.0
 10
126.377554584636
 20
154.8151140277308
 30
0.0
 10
126.377554584636
 20
154.8151140277308
 30
0.0
 10
128.8311532078563
 20
154.8151140277308
 30
0.0
 10
128.8311532078563
 20
154.8151140277308
 30
0.0
 10
128.8311532078563
 20
154.8151140277308
 30
0.0
 10
127.7345785914971
 20
151.3062819612468
 30
0.0
 10
127.7345785914971
 20
151.3062819612468
 30
0.0
 10
128.571392836906
 20
152.2922689395754
 30
0.0
 10
129.8860421413442
 20
153.604506675583
 30
0.0
 10
131.0163787157314
 20
154.2664822097754
 30
0.0
 10
132.7044766171327
 20
155.2500576196734
 30
0.0
 10
133.6642808525008
 20
155.3847609420097
 30
0.0
 10
134.7284715499351
 20
155.3565111403944
 30
0.0
 10
134.7284715499351
 20
155.3565111403944
 30
0.0
 10
133.6877075172549
 20
152.0345756272799
 30
0.0
 10
133.6877075172549
 20
152.0345756272799
 30
0.0
 10
133.011434827367
 20
152.3184516825359
 30
0.0
 10
130.930940291334
 20
151.7768823149844
 30
0.0
 10
129.739280976855
 20
150.9162968950455
 30
0.0
 10
128.66613302525
 20
150.1454562717016
 30
0.0
 10
127.9192358313239
 20
149.4857200510519
 30
0.0
 10
127.0393578639405
 20
147.8282835196966
 30
0.0
 10
126.164647543194
 20
146.1699857139017
 30
0.0
 10
125.4742499524985
 20
143.5262176944419
 30
0.0
 10
124.2822461282437
 20
139.6959580071401
 30
0.0
 10
124.2822461282437
 20
139.6959580071401
 30
0.0
 10
120.5753209406769
 20
127.8027915271048
 30
0.0
 10
120.5753209406769
 20
127.8027915271048
 30
0.0
 10
120.5753209406769
 20
127.8027915271048
 30
0.0
 10
118.1964809388044
 20
127.8027915271048
 30
0.0
 10
118.1964809388044
 20
127.8027915271048
 30
0.0
 10
118.1964809388044
 20
127.8027915271048
 30
0.0
 10
126.377554584636
 20
154.8151140277308
 30
0.0
 10
126.377554584636
 20
154.8151140277308
 30
0.0
  0
HATCH
  5
6A7
330
6A2
100
AcDbEntity
  8
LOGO
 62
   250
420
  2234388
100
AcDbHatch
 10
0.0
 20
0.0
 30
0.0
210
0.0
220
0.0
230
1.0
  2
SOLID
 70
     1
 71
     0
 91
        1
 92
        1
 93
        1
 72
     4
 94
        3
 73
     0
 74
     1
 95
       38
 96
       34
 40
0.0
 40
0.0
 40
0.0
 40
0.0
 40
1.0
 40
1.0
 40
1.0
 40
2.0
 40
2.0
 40
2.0
 40
3.0
 40
3.0
 40
3.0
 40
4.0
 40
4.0
 40
4.0
 40
5.0
 40
5.0
 40
5.0
 40
6.0
 40
6.0
 40
6.0
 40
7.0
 40
7.0
 40
7.0
 40
8.0
 40
8.0
 40
8.0
 40
9.0
 40
9.0
 40
9.0
 40
10.0
 40
10.0
 40
10.0
 40
11.0
 40
11.0
 40
11.0
 40
11.0
 10
126.377554584636
 20
154.8151140277308
 10
126.377554584636
 20
154.8151140277308
 10
128.8311532078563
 20
154.8151140277308
 10
128.8311532078563
 20
154.8151140277308
 10
128.8311532078563
 20
154.8151140277308
 10
127.7345785914971
 20
151.3062819612468
 10
127.7345785914971
 20
151.3062819612468
 10
128.571392836906
 20
152.2922689395754
 10
129.8860421413442
 20
153.604506675583
 10
131.0163787157314
 20
154.2664822097754
 10
132.7044766171327
 20
155.2500576196734
 10
133.6642808525008
 20
155.3847609420097
 10
134.7284715499351
 20
155.3565111403944
 10
134.7284715499351
 20
155.3565111403944
 10
133.6877075172549
 20
152.0345756272799
 10
133.6877075172549
 20
152.0345756272799
 10
133.011434827367
 20
152.3184516825359
 10
130.930940291334
 20
151.7768823149844
 10
129.739280976855
 20
150.9162968950455
 10
128.66613302525
 20
150.1454562717016
 10
127.9192358313239
 20
149.4857200510519
 10
127.0393578639405
 20
147.8282835196966
 10
126.164647543194
 20
146.1699857139017
 10
125.4742499524985
 20
143.5262176944419
 10
124.2822461282437
 20
139.6959580071401
 10
124.2822461282437
 20
139.6959580071401
 10
120.5753209406769
 20
127.8027915271048
 10
120.5753209406769
 20
127.8027915271048
 10
120.5753209406769
 20
127.8027915271048
 10
118.1964809388044
 20
127.8027915271048
 10
118.1964809388044
 20
127.8027915271048
 10
118.1964809388044
 20
127.8027915271048
 10
126.377554584636
 20
154.8151140277308
 10
126.377554584636
 20
154.8151140277308
 97
        0
 75
     2
 76
     1
 98
        0
  0
SPLINE
  5
6A8
330
6A2
100
AcDbEntity
  8
LOGO
370
     0
100
AcDbSpline
210
0.0
220
0.0
230
1.0
 70
    11
 71
     3
 72
   104
 73
   100
 74
     0
 42
0.000000001
 43
0.0000000001
 40
0.0
 40
0.0
 40
0.0
 40
0.0
 40
1.0
 40
1.0
 40
1.0
 40
2.0
 40
2.0
 40
2.0
 40
3.0
 40
3.0
 40
3.0
 40
4.0
 40
4.0
 40
4.0
 40
5.0
 40
5.0
 40
5.0
 40
6.0
 40
6.0
 40
6.0
 40
7.0
 40
7.0
 40
7.0
 40
8.0
 40
8.0
 40
8.0
 40
9.0
 40
9.0
 40
9.0
 40
10.0
 40
10.0
 40
10.0
 40
11.0
 40
11.0
 40
11.0
 40
12.0
 40
12.0
 40
12.0
 40
13.0
 40
13.0
 40
13.0
 40
14.0
 40
14.0
 40
14.0
 40
15.0
 40
15.0
 40
15.0
 40
16.0
 40
16.0
 40
16.0
 40
17.0
 40
17.0
 40
17.0
 40
18.0
 40
18.0
 40
18.0
 40
19.0
 40
19.0
 40
19.0
 40
20.0
 40
20.0
 40
20.0
 40
21.0
 40
21.0
 40
21.0
 40
22.0
 40
22.0
 40
22.0
 40
23.0
 40
23.0
 40
23.0
 40
24.0
 40
24.0
 40
24.0
 40
25.0
 40
25.0
 40
25.0
 40
26.0
 40
26.0
 40
26.0
 40
27.0
 40
27.0
 40
27.0
 40
28.0
 40
28.0
 40
28.0
 40
29.0
 40
29.0
 40
29.0
 40
30.0
 40
30.0
 40
30.0
 40
31.0
 40
31.0
 40
31.0
 40
32.0
 40
32.0
 40
32.0
 40
33.0
 40
33.0
 40
33.0
 40
33.0
 10
139.8926730891197
 20
154.8294111834263
 30
0.0
 10
139.8926730891197
 20
154.8294111834263
 30
0.0
 10
142.0344903652445
 20
154.8294111834263
 30
0.0
 10
142.0344903652445
 20
154.8294111834263
 30
0.0
 10
142.0344903652445
 20
154.8294111834263
 30
0.0
 10
140.9516961399171
 20
151.3157559800812
 30
0.0
 10
140.9516961399171
 20
151.3157559800812
 30
0.0
 10
141.8928968473923
 20
152.7887075264977
 30
0.0
 10
142.7341897198865
 20
153.4484437471474
 30
0.0
 10
143.8552245303272
 20
154.2926649527359
 30
0.0
 10
144.9803934580775
 20
155.1296514530327
 30
0.0
 10
146.3139908001845
 20
155.3044901642492
 30
0.0
 10
147.241066606852
 20
155.3044901642492
 30
0.0
 10
148.3855280820469
 20
155.3044901642492
 30
0.0
 10
149.4969166187653
 20
155.0752189084569
 30
0.0
 10
150.0784491203092
 20
153.8172414621372
 30
0.0
 10
150.5228667310863
 20
152.833838307127
 30
0.0
 10
150.5414702589793
 20
152.7201500811143
 30
0.0
 10
150.4140016419347
 20
150.7765981809602
 30
0.0
 10
151.5818897818837
 20
152.7699317437168
 30
0.0
 10
152.4424752018226
 20
153.6256940267945
 30
0.0
 10
153.9038856707499
 20
154.4507949398263
 30
0.0
 10
155.4455669174378
 20
155.3044901642492
 30
0.0
 10
156.339225275853
 20
155.3659851592288
 30
0.0
 10
157.3748216618963
 20
155.2147453676543
 30
0.0
 10
158.911679771723
 20
154.9877134254046
 30
0.0
 10
159.8859534176746
 20
154.4390816074493
 30
0.0
 10
160.3965169054045
 20
152.7816450760939
 30
0.0
 10
160.9070803931344
 20
151.1219692311958
 30
0.0
 10
160.6328506116007
 20
150.2303779314354
 30
0.0
 10
159.9992971339115
 20
147.597634224801
 30
0.0
 10
159.7105979417943
 20
146.4014962832367
 30
0.0
 10
159.2947746424084
 20
144.9400858143094
 30
0.0
 10
158.7463150793409
 20
143.2092687007094
 30
0.0
 10
158.7463150793409
 20
143.2092687007094
 30
0.0
 10
153.9038856707499
 20
127.8027915271048
 30
0.0
 10
153.9038856707499
 20
127.8027915271048
 30
0.0
 10
153.9038856707499
 20
127.8027915271048
 30
0.0
 10
151.3882752878863
 20
127.8027915271048
 30
0.0
 10
151.3882752878863
 20
127.8027915271048
 30
0.0
 10
151.3882752878863
 20
127.8027915271048
 30
0.0
 10
155.6250565106276
 20
141.2751908193897
 30
0.0
 10
155.6250565106276
 20
141.2751908193897
 30
0.0
 10
156.5094131050963
 20
144.0936252951782
 30
0.0
 10
157.109893644309
 20
146.1506931664571
 30
0.0
 10
157.4220195011804
 20
147.4415712963654
 30
0.0
 10
157.8095929989511
 20
149.0530157726519
 30
0.0
 10
157.9656559273867
 20
149.5826995529385
 30
0.0
 10
157.7816877071116
 20
150.7529992613181
 30
0.0
 10
157.6111553680925
 20
151.8430281919372
 30
0.0
 10
157.0582171779396
 20
152.5547853887321
 30
0.0
 10
156.1170164704645
 20
152.5547853887321
 30
0.0
 10
155.1096698860365
 20
152.5547853887321
 30
0.0
 10
154.2962823053817
 20
152.4412694176073
 30
0.0
 10
153.156643967048
 20
151.2945686288697
 30
0.0
 10
152.0170056287143
 20
150.1476955852443
 30
0.0
 10
151.076149431015
 20
148.7930831468137
 30
0.0
 10
150.3337308641742
 20
147.2290087646991
 30
0.0
 10
149.5957909244188
 20
145.6683794803425
 30
0.0
 10
148.8530278478023
 20
143.6822806228776
 30
0.0
 10
148.0964843801539
 20
141.2751908193897
 30
0.0
 10
148.0964843801539
 20
141.2751908193897
 30
0.0
 10
143.8552245303272
 20
127.8027915271048
 30
0.0
 10
143.8552245303272
 20
127.8027915271048
 30
0.0
 10
143.8552245303272
 20
127.8027915271048
 30
0.0
 10
141.486030802177
 20
127.8027915271048
 30
0.0
 10
141.486030802177
 20
127.8027915271048
 30
0.0
 10
141.486030802177
 20
127.8027915271048
 30
0.0
 10
146.3329388378533
 20
143.2092687007094
 30
0.0
 10
146.3329388378533
 20
143.2092687007094
 30
0.0
 10
146.8483254624444
 20
144.8408669988801
 30
0.0
 10
147.2314203331297
 20
146.1837661049335
 30
0.0
 10
147.4867020769946
 20
147.224185627838
 30
0.0
 10
147.9169947869641
 20
149.0197705792876
 30
0.0
 10
148.0306830129768
 20
150.2400242051577
 30
0.0
 10
147.709255392159
 20
151.3157559800812
 30
0.0
 10
147.3874832615654
 20
152.3916600098926
 30
0.0
 10
146.8245542879144
 20
152.6683013598569
 30
0.0
 10
145.8840425999909
 20
152.6683013598569
 30
0.0
 10
145.0989048209514
 20
152.6683013598569
 30
0.0
 10
144.3282364524954
 20
152.3275811915945
 30
0.0
 10
143.4531816219731
 20
151.6538923250251
 30
0.0
 10
142.34627171234
 20
150.8074318058939
 30
0.0
 10
141.901854101563
 20
150.1097995099067
 30
0.0
 10
141.3578731655808
 20
149.289521733736
 30
0.0
 10
140.6299240093235
 20
148.192602607601
 30
0.0
 10
140.2850697237515
 20
147.455696197173
 30
0.0
 10
139.6652966370942
 20
145.8385673095858
 30
0.0
 10
139.0506911970739
 20
144.2214384219986
 30
0.0
 10
138.463991048893
 20
142.3252566160164
 30
0.0
 10
138.0571250036777
 20
141.0154304484394
 30
0.0
 10
138.0571250036777
 20
141.0154304484394
 30
0.0
 10
133.9009590684727
 20
127.8027915271048
 30
0.0
 10
133.9009590684727
 20
127.8027915271048
 30
0.0
 10
133.9009590684727
 20
127.8027915271048
 30
0.0
 10
131.4180771143097
 20
127.8027915271048
 30
0.0
 10
131.4180771143097
 20
127.8027915271048
 30
0.0
 10
131.4180771143097
 20
127.8027915271048
 30
0.0
 10
139.8926730891197
 20
154.8294111834263
 30
0.0
 10
139.8926730891197
 20
154.8294111834263
 30
0.0
  0
HATCH
  5
6A9
330
6A2
100
AcDbEntity
  8
LOGO
 62
   250
420
  2234388
100
AcDbHatch
 10
0.0
 20
0.0
 30
0.0
210
0.0
220
0.0
230
1.0
  2
SOLID
 70
     1
 71
     0
 91
        1
 92
        1
 93
        1
 72
     4
 94
        3
 73
     0
 74
     1
 95
      104
 96
      100
 40
0.0
 40
0.0
 40
0.0
 40
0.0
 40
1.0
 40
1.0
 40
1.0
 40
2.0
 40
2.0
 40
2.0
 40
3.0
 40
3.0
 40
3.0
 40
4.0
 40
4.0
 40
4.0
 40
5.0
 40
5.0
 40
5.0
 40
6.0
 40
6.0
 40
6.0
 40
7.0
 40
7.0
 40
7.0
 40
8.0
 40
8.0
 40
8.0
 40
9.0
 40
9.0
 40
9.0
 40
10.0
 40
10.0
 40
10.0
 40
11.0
 40
11.0
 40
11.0
 40
12.0
 40
12.0
 40
12.0
 40
13.0
 40
13.0
 40
13.0
 40
14.0
 40
14.0
 40
14.0
 40
15.0
 40
15.0
 40
15.0
 40
16.0
 40
16.0
 40
16.0
 40
17.0
 40
17.0
 40
17.0
 40
18.0
 40
18.0
 40
18.0
 40
19.0
 40
19.0
 40
19.0
 40
20.0
 40
20.0
 40
20.0
 40
21.0
 40
21.0
 40
21.0
 40
22.0
 40
22.0
 40
22.0
 40
23.0
 40
23.0
 40
23.0
 40
24.0
 40
24.0
 40
24.0
 40
25.0
 40
25.0
 40
25.0
 40
26.0
 40
26.0
 40
26.0
 40
27.0
 40
27.0
 40
27.0
 40
28.0
 40
28.0
 40
28.0
 40
29.0
 40
29.0
 40
29.0
 40
30.0
 40
30.0
 40
30.0
 40
31.0
 40
31.0
 40
31.0
 40
32.0
 40
32.0
 40
32.0
 40
33.0
 40
33.0
 40
33.0
 40
33.0
 10
139.8926730891197
 20
154.8294111834263
 10
139.8926730891197
 20
154.8294111834263
 10
142.0344903652445
 20
154.8294111834263
 10
142.0344903652445
 20
154.8294111834263
 10
142.0344903652445
 20
154.8294111834263
 10
140.9516961399171
 20
151.3157559800812
 10
140.9516961399171
 20
151.3157559800812
 10
141.8928968473923
 20
152.7887075264977
 10
142.7341897198865
 20
153.4484437471474
 10
143.8552245303272
 20
154.2926649527359
 10
144.9803934580775
 20
155.1296514530327
 10
146.3139908001845
 20
155.3044901642492
 10
147.241066606852
 20
155.3044901642492
 10
148.3855280820469
 20
155.3044901642492
 10
149.4969166187653
 20
155.0752189084569
 10
150.0784491203092
 20
153.8172414621372
 10
150.5228667310863
 20
152.833838307127
 10
150.5414702589793
 20
152.7201500811143
 10
150.4140016419347
 20
150.7765981809602
 10
151.5818897818837
 20
152.7699317437168
 10
152.4424752018226
 20
153.6256940267945
 10
153.9038856707499
 20
154.4507949398263
 10
155.4455669174378
 20
155.3044901642492
 10
156.339225275853
 20
155.3659851592288
 10
157.3748216618963
 20
155.2147453676543
 10
158.911679771723
 20
154.9877134254046
 10
159.8859534176746
 20
154.4390816074493
 10
160.3965169054045
 20
152.7816450760939
 10
160.9070803931344
 20
151.1219692311958
 10
160.6328506116007
 20
150.2303779314354
 10
159.9992971339115
 20
147.597634224801
 10
159.7105979417943
 20
146.4014962832367
 10
159.2947746424084
 20
144.9400858143094
 10
158.7463150793409
 20
143.2092687007094
 10
158.7463150793409
 20
143.2092687007094
 10
153.9038856707499
 20
127.8027915271048
 10
153.9038856707499
 20
127.8027915271048
 10
153.9038856707499
 20
127.8027915271048
 10
151.3882752878863
 20
127.8027915271048
 10
151.3882752878863
 20
127.8027915271048
 10
151.3882752878863
 20
127.8027915271048
 10
155.6250565106276
 20
141.2751908193897
 10
155.6250565106276
 20
141.2751908193897
 10
156.5094131050963
 20
144.0936252951782
 10
157.109893644309
 20
146.1506931664571
 10
157.4220195011804
 20
147.4415712963654
 10
157.8095929989511
 20
149.0530157726519
 10
157.9656559273867
 20
149.5826995529385
 10
157.7816877071116
 20
150.7529992613181
 10
157.6111553680925
 20
151.8430281919372
 10
157.0582171779396
 20
152.5547853887321
 10
156.1170164704645
 20
152.5547853887321
 10
155.1096698860365
 20
152.5547853887321
 10
154.2962823053817
 20
152.4412694176073
 10
153.156643967048
 20
151.2945686288697
 10
152.0170056287143
 20
150.1476955852443
 10
151.076149431015
 20
148.7930831468137
 10
150.3337308641742
 20
147.2290087646991
 10
149.5957909244188
 20
145.6683794803425
 10
148.8530278478023
 20
143.6822806228776
 10
148.0964843801539
 20
141.2751908193897
 10
148.0964843801539
 20
141.2751908193897
 10
143.8552245303272
 20
127.8027915271048
 10
143.8552245303272
 20
127.8027915271048
 10
143.8552245303272
 20
127.8027915271048
 10
141.486030802177
 20
127.8027915271048
 10
141.486030802177
 20
127.8027915271048
 10
141.486030802177
 20
127.8027915271048
 10
146.3329388378533
 20
143.2092687007094
 10
146.3329388378533
 20
143.2092687007094
 10
146.8483254624444
 20
144.8408669988801
 10
147.2314203331297
 20
146.1837661049335
 10
147.4867020769946
 20
147.224185627838
 10
147.9169947869641
 20
149.0197705792876
 10
148.0306830129768
 20
150.2400242051577
 10
147.709255392159
 20
151.3157559800812
 10
147.3874832615654
 20
152.3916600098926
 10
146.8245542879144
 20
152.6683013598569
 10
145.8840425999909
 20
152.6683013598569
 10
145.0989048209514
 20
152.6683013598569
 10
144.3282364524954
 20
152.3275811915945
 10
143.4531816219731
 20
151.6538923250251
 10
142.34627171234
 20
150.8074318058939
 10
141.901854101563
 20
150.1097995099067
 10
141.3578731655808
 20
149.289521733736
 10
140.6299240093235
 20
148.192602607601
 10
140.2850697237515
 20
147.455696197173
 10
139.6652966370942
 20
145.8385673095858
 10
139.0506911970739
 20
144.2214384219986
 10
138.463991048893
 20
142.3252566160164
 10
138.0571250036777
 20
141.0154304484394
 10
138.0571250036777
 20
141.0154304484394
 10
133.9009590684727
 20
127.8027915271048
 10
133.9009590684727
 20
127.8027915271048
 10
133.9009590684727
 20
127.8027915271048
 10
131.4180771143097
 20
127.8027915271048
 10
131.4180771143097
 20
127.8027915271048
 10
131.4180771143097
 20
127.8027915271048
 10
139.8926730891197
 20
154.8294111834263
 10
139.8926730891197
 20
154.8294111834263
 97
        0
 75
     2
 76
     1
 98
        0
  0
SPLINE
  5
6AA
330
6A2
100
AcDbEntity
  8
LOGO
370
     0
100
AcDbSpline
210
0.0
220
0.0
230
1.0
 70
    11
 71
     3
 72
    29
 73
    25
 74
     0
 42
0.000000001
 43
0.0000000001
 40
0.0
 40
0.0
 40
0.0
 40
0.0
 40
1.0
 40
1.0
 40
1.0
 40
2.0
 40
2.0
 40
2.0
 40
3.0
 40
3.0
 40
3.0
 40
4.0
 40
4.0
 40
4.0
 40
5.0
 40
5.0
 40
5.0
 40
6.0
 40
6.0
 40
6.0
 40
7.0
 40
7.0
 40
7.0
 40
8.0
 40
8.0
 40
8.0
 40
8.0
 10
101.6420971922469
 20
132.8388354296931
 30
0.0
 10
101.630039350094
 20
134.7164137077823
 30
0.0
 10
102.2236296937908
 20
138.0598810818841
 30
0.0
 10
103.7487744712405
 20
142.5378191476827
 30
0.0
 10
105.819967243327
 20
148.5896501242061
 30
0.0
 10
107.0602024361932
 20
150.8074318058939
 30
0.0
 10
108.1522984254671
 20
151.8833358357054
 30
0.0
 10
109.741177511439
 20
153.4532668840085
 30
0.0
 10
111.8740375333931
 20
153.5290590346837
 30
0.0
 10
112.5075910110823
 20
153.4532668840085
 30
0.0
 10
113.4012493694975
 20
153.3490526768302
 30
0.0
 10
114.6683563248758
 20
152.7580461564518
 30
0.0
 10
114.7493161221879
 20
150.7838328862519
 30
0.0
 10
114.8106388622796
 20
149.0909118479895
 30
0.0
 10
114.3186789024427
 20
145.9191825971221
 30
0.0
 10
112.6164561002338
 20
140.9489400617108
 30
0.0
 10
110.6444821435766
 20
135.1746117095912
 30
0.0
 10
109.4669477299053
 20
132.8960240524753
 30
0.0
 10
108.5212683953448
 20
131.9072809959403
 30
0.0
 10
106.7346406980658
 20
130.0538184021569
 30
0.0
 10
104.8222669326213
 20
130.2336525051225
 30
0.0
 10
104.5408024457958
 20
130.2336525051225
 30
0.0
 10
104.1721769856939
 20
130.2336525051225
 30
0.0
 10
101.6465758193322
 20
130.6305277668397
 30
0.0
 10
101.6420971922469
 20
132.8388354296931
 30
0.0
  0
SPLINE
  5
6AB
330
6A2
100
AcDbEntity
  8
LOGO
370
     0
100
AcDbSpline
210
0.0
220
0.0
230
1.0
 70
    11
 71
     3
 72
    32
 73
    28
 74
     0
 42
0.000000001
 43
0.0000000001
 40
0.0
 40
0.0
 40
0.0
 40
0.0
 40
1.0
 40
1.0
 40
1.0
 40
2.0
 40
2.0
 40
2.0
 40
3.0
 40
3.0
 40
3.0
 40
4.0
 40
4.0
 40
4.0
 40
5.0
 40
5.0
 40
5.0
 40
6.0
 40
6.0
 40
6.0
 40
7.0
 40
7.0
 40
7.0
 40
8.0
 40
8.0
 40
8.0
 40
9.0
 40
9.0
 40
9.0
 40
9.0
 10
106.2595617172429
 20
153.4105476718098
 30
0.0
 10
104.8222669326213
 20
151.5474388043041
 30
0.0
 10
103.7177685914188
 20
149.8758773721411
 30
0.0
 10
101.9232171692965
 20
144.6141795664062
 30
0.0
 10
100.2754269116635
 20
139.7999999594306
 30
0.0
 10
99.22777268346732
 20
136.3052927937542
 30
0.0
 10
99.06964269637689
 20
132.039572749846
 30
0.0
 10
98.94665270641765
 20
128.8673267343149
 30
0.0
 10
100.8807305877373
 20
127.8027915271048
 30
0.0
 10
103.7129454545577
 20
127.8027915271048
 30
0.0
 10
104.9352661390825
 20
127.8027915271048
 30
0.0
 10
108.0151835347002
 20
127.8827177950895
 30
0.0
 10
110.2045431598849
 20
130.5926316915021
 30
0.0
 10
111.7417457794874
 20
132.4984597712065
 30
0.0
 10
113.155269389579
 20
134.475256864725
 30
0.0
 10
115.0562743324223
 20
140.9489400617108
 30
0.0
 10
116.6361961642235
 20
146.3680788349845
 30
0.0
 10
117.7282921534974
 20
149.8639917848761
 30
0.0
 10
117.6480213757369
 20
151.8595646611754
 30
0.0
 10
117.6480213757369
 20
151.8595646611754
 30
0.0
 10
117.6480213757369
 20
151.8595646611754
 30
0.0
 10
117.6480213757369
 20
151.8595646611754
 30
0.0
 10
117.13229024137
 20
155.18150017429
 30
0.0
 10
114.7162431837115
 20
155.886194920681
 30
0.0
 10
113.3351034925446
 20
155.886194920681
 30
0.0
 10
111.9829026225447
 20
155.886194920681
 30
0.0
 10
108.3414342923792
 20
156.1251124501957
 30
0.0
 10
106.2595617172429
 20
153.4105476718098
 30
0.0
  0
HATCH
  5
6AC
330
6A2
100
AcDbEntity
  8
LOGO
 62
   250
420
  2234388
100
AcDbHatch
 10
0.0
 20
0.0
 30
0.0
210
0.0
220
0.0
230
1.0
  2
SOLID
 70
     1
 71
     0
 91
        2
 92
        1
 93
        1
 72
     4
 94
        3
 73
     0
 74
     1
 95
       29
 96
       25
 40
0.0
 40
0.0
 40
0.0
 40
0.0
 40
1.0
 40
1.0
 40
1.0
 40
2.0
 40
2.0
 40
2.0
 40
3.0
 40
3.0
 40
3.0
 40
4.0
 40
4.0
 40
4.0
 40
5.0
 40
5.0
 40
5.0
 40
6.0
 40
6.0
 40
6.0
 40
7.0
 40
7.0
 40
7.0
 40
8.0
 40
8.0
 40
8.0
 40
8.0
 10
101.6420971922469
 20
132.8388354296931
 10
101.630039350094
 20
134.7164137077823
 10
102.2236296937908
 20
138.0598810818841
 10
103.7487744712405
 20
142.5378191476827
 10
105.819967243327
 20
148.5896501242061
 10
107.0602024361932
 20
150.8074318058939
 10
108.1522984254671
 20
151.8833358357054
 10
109.741177511439
 20
153.4532668840085
 10
111.8740375333931
 20
153.5290590346837
 10
112.5075910110823
 20
153.4532668840085
 10
113.4012493694975
 20
153.3490526768302
 10
114.6683563248758
 20
152.7580461564518
 10
114.7493161221879
 20
150.7838328862519
 10
114.8106388622796
 20
149.0909118479895
 10
114.3186789024427
 20
145.9191825971221
 10
112.6164561002338
 20
140.9489400617108
 10
110.6444821435766
 20
135.1746117095912
 10
109.4669477299053
 20
132.8960240524753
 10
108.5212683953448
 20
131.9072809959403
 10
106.7346406980658
 20
130.0538184021569
 10
104.8222669326213
 20
130.2336525051225
 10
104.5408024457958
 20
130.2336525051225
 10
104.1721769856939
 20
130.2336525051225
 10
101.6465758193322
 20
130.6305277668397
 10
101.6420971922469
 20
132.8388354296931
 97
        0
 92
        1
 93
        1
 72
     4
 94
        3
 73
     0
 74
     1
 95
       32
 96
       28
 40
0.0
 40
0.0
 40
0.0
 40
0.0
 40
1.0
 40
1.0
 40
1.0
 40
2.0
 40
2.0
 40
2.0
 40
3.0
 40
3.0
 40
3.0
 40
4.0
 40
4.0
 40
4.0
 40
5.0
 40
5.0
 40
5.0
 40
6.0
 40
6.0
 40
6.0
 40
7.0
 40
7.0
 40
7.0
 40
8.0
 40
8.0
 40
8.0
 40
9.0
 40
9.0
 40
9.0
 40
9.0
 10
106.2595617172429
 20
153.4105476718098
 10
104.8222669326213
 20
151.5474388043041
 10
103.7177685914188
 20
149.8758773721411
 10
101.9232171692965
 20
144.6141795664062
 10
100.2754269116635
 20
139.7999999594306
 10
99.22777268346732
 20
136.3052927937542
 10
99.06964269637689
 20
132.039572749846
 10
98.94665270641765
 20
128.8673267343149
 10
100.8807305877373
 20
127.8027915271048
 10
103.7129454545577
 20
127.8027915271048
 10
104.9352661390825
 20
127.8027915271048
 10
108.0151835347002
 20
127.8827177950895
 10
110.2045431598849
 20
130.5926316915021
 10
111.7417457794874
 20
132.4984597712065
 10
113.155269389579
 20
134.475256864725
 10
115.0562743324223
 20
140.9489400617108
 10
116.6361961642235
 20
146.3680788349845
 10
117.7282921534974
 20
149.8639917848761
 10
117.6480213757369
 20
151.8595646611754
 10
117.6480213757369
 20
151.8595646611754
 10
117.6480213757369
 20
151.8595646611754
 10
117.6480213757369
 20
151.8595646611754
 10
117.13229024137
 20
155.18150017429
 10
114.7162431837115
 20
155.886194920681
 10
113.3351034925446
 20
155.886194920681
 10
111.9829026225447
 20
155.886194920681
 10
108.3414342923792
 20
156.1251124501957
 10
106.2595617172429
 20
153.4105476718098
 97
        0
 75
     2
 76
     1
 98
        0
  0
ENDBLK
  5
6AD
330
6A2
100
AcDbEntity
  8
0
100
AcDbBlockEnd
  0
BLOCK
  5
10DE
330
10DD
100
AcDbEntity
  8
0
100
AcDbBlockBegin
  2
*D27
 70
     1
 10
0.0
 20
0.0
 30
0.0
  3
*D27
  1
*D28
  0
LINE
  5
10E0
330
10DD
100
AcDbEntity
  8
DIM
  6
Continuous
 62
     0
370
    -2
100
AcDbLine
 10
127.8655286722417
 20
1209.825373186494
 30
0.0
 11
127.8655286722417
 21
1270.73265666292
 31
0.0
  0
LINE
  5
10E1
330
10DD
100
AcDbEntity
  8
DIM
  6
Continuous
 62
     0
370
    -2
100
AcDbLine
 10
487.8655286722417
 20
1209.825373186494
 30
0.0
 11
487.8655286722417
 21
1270.73265666292
 31
0.0
  0
LINE
  5
10E2
330
10DD
100
AcDbEntity
  8
DIM
  6
Continuous
 62
     0
370
    -2
100
AcDbLine
 10
130.8655286722417
 20
1270.73265666292
 30
0.0
 11
484.8655286722417
 21
1270.73265666292
 31
0.0
  0
INSERT
  5
10E3
330
10DD
100
AcDbEntity
  8
DIM
 62
     0
370
    -2
100
AcDbBlockReference
  2
_DOT
 10
127.8655286722417
 20
1270.73265666292
 30
0.0
 41
3.0
 42
3.0
 43
3.0
 50
180.0
  0
INSERT
  5
10E4
330
10DD
100
AcDbEntity
  8
DIM
 62
     0
370
    -2
100
AcDbBlockReference
  2
_DOT
 10
487.8655286722417
 20
1270.73265666292
 30
0.0
 41
3.0
 42
3.0
 43
3.0
  0
MTEXT
  5
10E5
330
10DD
100
AcDbEntity
  8
DIM
 62
     0
 48
0.05
100
AcDbMText
 10
307.8655286722417
 20
1286.73265666292
 30
0.0
 40
12.0
 41
0.0
 46
0.0
 71
     5
 72
     1
  1
\A1;360
  7
ＭＳ ゴシック
 73
     1
 44
1.0
  0
POINT
  5
10E6
330
10DD
100
AcDbEntity
  8
Defpoints
 62
     0
100
AcDbPoint
 10
127.8655286722417
 20
1199.825373186494
 30
0.0
  0
POINT
  5
10E7
330
10DD
100
AcDbEntity
  8
Defpoints
 62
     0
100
AcDbPoint
 10
487.8655286722417
 20
1199.825373186494
 30
0.0
  0
POINT
  5
10E8
330
10DD
100
AcDbEntity
  8
Defpoints
 62
     0
100
AcDbPoint
 10
487.8655286722417
 20
1270.73265666292
 30
0.0
  0
ENDBLK
  5
10DF
330
10DD
100
AcDbEntity
  8
0
100
AcDbBlockEnd
  0
BLOCK
  5
10EA
330
10E9
100
AcDbEntity
  8
0
100
AcDbBlockBegin
  2
*D28
 70
     1
 10
0.0
 20
0.0
 30
0.0
  3
*D28
  1
*D29
  0
LINE
  5
10EC
330
10E9
100
AcDbEntity
  8
DIM
  6
Continuous
 62
     0
370
    -2
100
AcDbLine
 10
497.8655286722417
 20
1199.825373186494
 30
0.0
 11
557.8215613146402
 21
1199.825373186494
 31
0.0
  0
LINE
  5
10ED
330
10E9
100
AcDbEntity
  8
DIM
  6
Continuous
 62
     0
370
    -2
100
AcDbLine
 10
497.8655286722417
 20
954.8253731864944
 30
0.0
 11
557.8215613146402
 21
954.8253731864944
 31
0.0
  0
LINE
  5
10EE
330
10E9
100
AcDbEntity
  8
DIM
  6
Continuous
 62
     0
370
    -2
100
AcDbLine
 10
557.8215613146402
 20
1196.825373186494
 30
0.0
 11
557.8215613146402
 21
957.8253731864944
 31
0.0
  0
INSERT
  5
10EF
330
10E9
100
AcDbEntity
  8
DIM
 62
     0
370
    -2
100
AcDbBlockReference
  2
_DOT
 10
557.8215613146402
 20
1199.825373186494
 30
0.0
 41
3.0
 42
3.0
 43
3.0
 50
90.0
  0
INSERT
  5
10F0
330
10E9
100
AcDbEntity
  8
DIM
 62
     0
370
    -2
100
AcDbBlockReference
  2
_DOT
 10
557.8215613146402
 20
954.8253731864944
 30
0.0
 41
3.0
 42
3.0
 43
3.0
 50
270.0
  0
MTEXT
  5
10F1
330
10E9
100
AcDbEntity
  8
DIM
 62
     0
 48
0.05
100
AcDbMText
 10
541.8215613146402
 20
1077.325373186494
 30
0.0
 40
12.0
 41
0.0
 46
0.0
 71
     5
 72
     1
  1
\A1;245
  7
ＭＳ ゴシック
 11
0.0
 21
1.0
 31
0.0
 73
     1
 44
1.0
  0
POINT
  5
10F2
330
10E9
100
AcDbEntity
  8
Defpoints
 62
     0
100
AcDbPoint
 10
487.8655286722417
 20
1199.825373186494
 30
0.0
  0
POINT
  5
10F3
330
10E9
100
AcDbEntity
  8
Defpoints
 62
     0
100
AcDbPoint
 10
487.8655286722417
 20
954.8253731864944
 30
0.0
  0
POINT
  5
10F4
330
10E9
100
AcDbEntity
  8
Defpoints
 62
     0
100
AcDbPoint
 10
557.8215613146402
 20
954.8253731864944
 30
0.0
  0
ENDBLK
  5
10EB
330
10E9
100
AcDbEntity
  8
0
100
AcDbBlockEnd
  0
BLOCK
  5
10F6
330
10F5
100
AcDbEntity
  8
0
100
AcDbBlockBegin
  2
*D29
 70
     1
 10
0.0
 20
0.0
 30
0.0
  3
*D29
  1
*D30
  0
LINE
  5
10F8
330
10F5
100
AcDbEntity
  8
DIM
  6
Continuous
 62
     0
370
    -2
100
AcDbLine
 10
147.8655241412212
 20
968.6021948240973
 30
0.0
 11
147.8655241412212
 21
907.9325401599609
 31
0.0
  0
LINE
  5
10F9
330
10F5
100
AcDbEntity
  8
DIM
  6
Continuous
 62
     0
370
    -2
100
AcDbLine
 10
397.8655286722417
 20
968.6021948240973
 30
0.0
 11
397.8655286722417
 21
907.9325401599609
 31
0.0
  0
LINE
  5
10FA
330
10F5
100
AcDbEntity
  8
DIM
  6
Continuous
 62
     0
370
    -2
100
AcDbLine
 10
150.8655241412212
 20
907.9325401599609
 30
0.0
 11
394.8655286722417
 21
907.9325401599609
 31
0.0
  0
INSERT
  5
10FB
330
10F5
100
AcDbEntity
  8
DIM
 62
     0
370
    -2
100
AcDbBlockReference
  2
_DOT
 10
147.8655241412212
 20
907.9325401599609
 30
0.0
 41
3.0
 42
3.0
 43
3.0
 50
180.0
  0
INSERT
  5
10FC
330
10F5
100
AcDbEntity
  8
DIM
 62
     0
370
    -2
100
AcDbBlockReference
  2
_DOT
 10
397.8655286722417
 20
907.9325401599609
 30
0.0
 41
3.0
 42
3.0
 43
3.0
  0
MTEXT
  5
10FD
330
10F5
100
AcDbEntity
  8
DIM
 62
     0
 48
0.05
100
AcDbMText
 10
272.8655264067315
 20
923.9325401599609
 30
0.0
 40
12.0
 41
0.0
 46
0.0
 71
     5
 72
     1
  1
\A1;250
  7
ＭＳ ゴシック
 73
     1
 44
1.0
  0
POINT
  5
10FE
330
10F5
100
AcDbEntity
  8
Defpoints
 62
     0
100
AcDbPoint
 10
147.8655241412212
 20
978.6021948240973
 30
0.0
  0
POINT
  5
10FF
330
10F5
100
AcDbEntity
  8
Defpoints
 62
     0
100
AcDbPoint
 10
397.8655286722417
 20
978.6021948240973
 30
0.0
  0
POINT
  5
1100
330
10F5
100
AcDbEntity
  8
Defpoints
 62
     0
100
AcDbPoint
 10
397.8655286722417
 20
907.9325401599609
 30
0.0
  0
ENDBLK
  5
10F7
330
10F5
100
AcDbEntity
  8
0
100
AcDbBlockEnd
  0
BLOCK
  5
1102
330
1101
100
AcDbEntity
  8
0
100
AcDbBlockBegin
  2
*D30
 70
     1
 10
0.0
 20
0.0
 30
0.0
  3
*D30
  1
*D31
  0
LINE
  5
1104
330
1101
100
AcDbEntity
  8
DIM
  6
Continuous
 62
     0
370
    -2
100
AcDbLine
 10
141.814440390949
 20
1134.825373186447
 30
0.0
 11
82.98519810034419
 21
1134.825373186447
 31
0.0
  0
LINE
  5
1105
330
1101
100
AcDbEntity
  8
DIM
  6
Continuous
 62
     0
370
    -2
100
AcDbLine
 10
141.8144403219802
 20
974.8253731864332
 30
0.0
 11
82.98519810034418
 21
974.8253731864332
 31
0.0
  0
LINE
  5
1106
330
1101
100
AcDbEntity
  8
DIM
  6
Continuous
 62
     0
370
    -2
100
AcDbLine
 10
82.98519810034419
 20
1131.825373186447
 30
0.0
 11
82.98519810034418
 21
977.8253731864332
 31
0.0
  0
INSERT
  5
1107
330
1101
100
AcDbEntity
  8
DIM
 62
     0
370
    -2
100
AcDbBlockReference
  2
_DOT
 10
82.98519810034419
 20
1134.825373186447
 30
0.0
 41
3.0
 42
3.0
 43
3.0
 50
90.0
  0
INSERT
  5
1108
330
1101
100
AcDbEntity
  8
DIM
 62
     0
370
    -2
100
AcDbBlockReference
  2
_DOT
 10
82.98519810034418
 20
974.8253731864332
 30
0.0
 41
3.0
 42
3.0
 43
3.0
 50
270.0
  0
MTEXT
  5
1109
330
1101
100
AcDbEntity
  8
DIM
 62
     0
 48
0.05
100
AcDbMText
 10
66.98519810034418
 20
1054.82537318644
 30
0.0
 40
12.0
 41
0.0
 46
0.0
 71
     5
 72
     1
  1
\A1;160
  7
ＭＳ ゴシック
 11
8.881784197000489E-17
 21
1.0
 31
0.0
 73
     1
 44
1.0
  0
POINT
  5
110A
330
1101
100
AcDbEntity
  8
Defpoints
 62
     0
100
AcDbPoint
 10
151.814440390949
 20
1134.825373186447
 30
0.0
  0
POINT
  5
110B
330
1101
100
AcDbEntity
  8
Defpoints
 62
     0
100
AcDbPoint
 10
151.8144403219802
 20
974.8253731864332
 30
0.0
  0
POINT
  5
110C
330
1101
100
AcDbEntity
  8
Defpoints
 62
     0
100
AcDbPoint
 10
82.98519810034418
 20
974.8253731864332
 30
0.0
  0
ENDBLK
  5
1103
330
1101
100
AcDbEntity
  8
0
100
AcDbBlockEnd
  0
BLOCK
  5
110E
330
110D
100
AcDbEntity
  8
0
100
AcDbBlockBegin
  2
*D31
 70
     1
 10
0.0
 20
0.0
 30
0.0
  3
*D31
  1
*D32
  0
LINE
  5
1110
330
110D
100
AcDbEntity
  8
DIM
  6
Continuous
 62
     0
370
    -2
100
AcDbLine
 10
131.814440390949
 20
1134.825373186447
 30
0.0
 11
82.98519810034418
 21
1134.825373186447
 31
0.0
  0
LINE
  5
1111
330
110D
100
AcDbEntity
  8
DIM
  6
Continuous
 62
     0
370
    -2
100
AcDbLine
 10
117.8655286722417
 20
1199.825373186494
 30
0.0
 11
82.98519810034418
 21
1199.825373186494
 31
0.0
  0
LINE
  5
1112
330
110D
100
AcDbEntity
  8
DIM
  6
Continuous
 62
     0
370
    -2
100
AcDbLine
 10
82.98519810034418
 20
1137.825373186447
 30
0.0
 11
82.98519810034418
 21
1196.825373186494
 31
0.0
  0
INSERT
  5
1113
330
110D
100
AcDbEntity
  8
DIM
 62
     0
370
    -2
100
AcDbBlockReference
  2
_DOT
 10
82.98519810034418
 20
1134.825373186447
 30
0.0
 41
3.0
 42
3.0
 43
3.0
 50
270.0
  0
INSERT
  5
1114
330
110D
100
AcDbEntity
  8
DIM
 62
     0
370
    -2
100
AcDbBlockReference
  2
_DOT
 10
82.98519810034418
 20
1199.825373186494
 30
0.0
 41
3.0
 42
3.0
 43
3.0
 50
90.0
  0
MTEXT
  5
1115
330
110D
100
AcDbEntity
  8
DIM
 62
     0
 48
0.05
100
AcDbMText
 10
66.98519810034418
 20
1167.325373186472
 30
0.0
 40
12.0
 41
0.0
 46
0.0
 71
     5
 72
     1
  1
\A1;65
  7
ＭＳ ゴシック
 11
0.0
 21
1.0
 31
0.0
 73
     1
 44
1.0
  0
POINT
  5
1116
330
110D
100
AcDbEntity
  8
Defpoints
 62
     0
100
AcDbPoint
 10
141.814440390949
 20
1134.825373186447
 30
0.0
  0
POINT
  5
1117
330
110D
100
AcDbEntity
  8
Defpoints
 62
     0
100
AcDbPoint
 10
127.8655286722417
 20
1199.825373186494
 30
0.0
  0
POINT
  5
1118
330
110D
100
AcDbEntity
  8
Defpoints
 62
     0
100
AcDbPoint
 10
82.98519810034418
 20
1199.825373186494
 30
0.0
  0
ENDBLK
  5
110F
330
110D
100
AcDbEntity
  8
0
100
AcDbBlockEnd
  0
BLOCK
  5
1126
330
1125
100
AcDbEntity
  8
0
100
AcDbBlockBegin
  2
*D33
 70
     1
 10
0.0
 20
0.0
 30
0.0
  3
*D33
  1
*D34
  0
LINE
  5
1128
330
1125
100
AcDbEntity
  8
DIM
  6
Continuous
 62
     0
370
    -2
100
AcDbLine
 10
668.7433964683055
 20
513.5436110013112
 30
0.0
 11
634.1420285133215
 21
513.5436110013112
 31
0.0
  0
LINE
  5
1129
330
1125
100
AcDbEntity
  8
DIM
  6
Continuous
 62
     0
370
    -2
100
AcDbLine
 10
668.7433964683055
 20
423.5436110013112
 30
0.0
 11
634.1420285133215
 21
423.5436110013112
 31
0.0
  0
LINE
  5
112A
330
1125
100
AcDbEntity
  8
DIM
  6
Continuous
 62
     0
370
    -2
100
AcDbLine
 10
634.1420285133215
 20
510.5436110013112
 30
0.0
 11
634.1420285133215
 21
426.5436110013112
 31
0.0
  0
INSERT
  5
112B
330
1125
100
AcDbEntity
  8
DIM
 62
     0
370
    -2
100
AcDbBlockReference
  2
_DOT
 10
634.1420285133215
 20
513.5436110013112
 30
0.0
 41
3.0
 42
3.0
 43
3.0
 50
90.0
  0
INSERT
  5
112C
330
1125
100
AcDbEntity
  8
DIM
 62
     0
370
    -2
100
AcDbBlockReference
  2
_DOT
 10
634.1420285133215
 20
423.5436110013112
 30
0.0
 41
3.0
 42
3.0
 43
3.0
 50
270.0
  0
MTEXT
  5
112D
330
1125
100
AcDbEntity
  8
DIM
 62
     0
 48
0.05
100
AcDbMText
 10
618.1420285133215
 20
468.5436110013112
 30
0.0
 40
12.0
 41
0.0
 46
0.0
 71
     5
 72
     1
  1
\A1;90
  7
ＭＳ ゴシック
 11
0.0
 21
1.0
 31
0.0
 73
     1
 44
1.0
  0
POINT
  5
112E
330
1125
100
AcDbEntity
  8
Defpoints
 62
     0
100
AcDbPoint
 10
678.7433964683055
 20
513.5436110013112
 30
0.0
  0
POINT
  5
112F
330
1125
100
AcDbEntity
  8
Defpoints
 62
     0
100
AcDbPoint
 10
678.7433964683055
 20
423.5436110013112
 30
0.0
  0
POINT
  5
1130
330
1125
100
AcDbEntity
  8
Defpoints
 62
     0
100
AcDbPoint
 10
634.1420285133215
 20
423.5436110013112
 30
0.0
  0
ENDBLK
  5
1127
330
1125
100
AcDbEntity
  8
0
100
AcDbBlockEnd
  0
BLOCK
  5
1132
330
1131
100
AcDbEntity
  8
0
100
AcDbBlockBegin
  2
*D34
 70
     1
 10
0.0
 20
0.0
 30
0.0
  3
*D34
  1
*D35
  0
LINE
  5
1134
330
1131
100
AcDbEntity
  8
DIM
  6
Continuous
 62
     0
370
    -2
100
AcDbLine
 10
127.8655286722417
 20
523.5436110013112
 30
0.0
 11
127.8655286722417
 21
544.5557088983886
 31
0.0
  0
LINE
  5
1135
330
1131
100
AcDbEntity
  8
DIM
  6
Continuous
 62
     0
370
    -2
100
AcDbLine
 10
192.8655286722417
 20
509.2205847243197
 30
0.0
 11
192.8655286722417
 21
544.5557088983886
 31
0.0
  0
LINE
  5
1136
330
1131
100
AcDbEntity
  8
DIM
  6
Continuous
 62
     0
370
    -2
100
AcDbLine
 10
130.8655286722417
 20
544.5557088983886
 30
0.0
 11
189.8655286722417
 21
544.5557088983886
 31
0.0
  0
INSERT
  5
1137
330
1131
100
AcDbEntity
  8
DIM
 62
     0
370
    -2
100
AcDbBlockReference
  2
_DOT
 10
127.8655286722417
 20
544.5557088983886
 30
0.0
 41
3.0
 42
3.0
 43
3.0
 50
180.0
  0
INSERT
  5
1138
330
1131
100
AcDbEntity
  8
DIM
 62
     0
370
    -2
100
AcDbBlockReference
  2
_DOT
 10
192.8655286722417
 20
544.5557088983886
 30
0.0
 41
3.0
 42
3.0
 43
3.0
  0
MTEXT
  5
1139
330
1131
100
AcDbEntity
  8
DIM
 62
     0
 48
0.05
100
AcDbMText
 10
160.3655286722417
 20
560.5557088983886
 30
0.0
 40
12.0
 41
0.0
 46
0.0
 71
     5
 72
     1
  1
\A1;65
  7
ＭＳ ゴシック
 73
     1
 44
1.0
  0
POINT
  5
113A
330
1131
100
AcDbEntity
  8
Defpoints
 62
     0
100
AcDbPoint
 10
127.8655286722417
 20
513.5436110013112
 30
0.0
  0
POINT
  5
113B
330
1131
100
AcDbEntity
  8
Defpoints
 62
     0
100
AcDbPoint
 10
192.8655286722417
 20
499.2205847243197
 30
0.0
  0
POINT
  5
113C
330
1131
100
AcDbEntity
  8
Defpoints
 62
     0
100
AcDbPoint
 10
192.8655286722417
 20
544.5557088983886
 30
0.0
  0
ENDBLK
  5
1133
330
1131
100
AcDbEntity
  8
0
100
AcDbBlockEnd
  0
BLOCK
  5
114A
330
1149
100
AcDbEntity
  8
0
100
AcDbBlockBegin
  2
*D36
 70
     1
 10
0.0
 20
0.0
 30
0.0
  3
*D36
  1
*D37
  0
LINE
  5
114C
330
1149
100
AcDbEntity
  8
DIM
  6
Continuous
 62
     0
370
    -2
100
AcDbLine
 10
487.8655286722417
 20
523.5436110013112
 30
0.0
 11
487.8655286722417
 21
543.4177053479656
 31
0.0
  0
LINE
  5
114D
330
1149
100
AcDbEntity
  8
DIM
  6
Continuous
 62
     0
370
    -2
100
AcDbLine
 10
437.8655286722417
 20
509.2476606783936
 30
0.0
 11
437.8655286722417
 21
543.4177053479656
 31
0.0
  0
LINE
  5
114E
330
1149
100
AcDbEntity
  8
DIM
  6
Continuous
 62
     0
370
    -2
100
AcDbLine
 10
484.8655286722417
 20
543.4177053479656
 30
0.0
 11
440.8655286722417
 21
543.4177053479656
 31
0.0
  0
INSERT
  5
114F
330
1149
100
AcDbEntity
  8
DIM
 62
     0
370
    -2
100
AcDbBlockReference
  2
_DOT
 10
487.8655286722417
 20
543.4177053479656
 30
0.0
 41
3.0
 42
3.0
 43
3.0
  0
INSERT
  5
1150
330
1149
100
AcDbEntity
  8
DIM
 62
     0
370
    -2
100
AcDbBlockReference
  2
_DOT
 10
437.8655286722417
 20
543.4177053479656
 30
0.0
 41
3.0
 42
3.0
 43
3.0
 50
180.0
  0
MTEXT
  5
1151
330
1149
100
AcDbEntity
  8
DIM
 62
     0
 48
0.05
100
AcDbMText
 10
462.8655286722417
 20
559.4177053479656
 30
0.0
 40
12.0
 41
0.0
 46
0.0
 71
     5
 72
     1
  1
\A1;50
  7
ＭＳ ゴシック
 73
     1
 44
1.0
  0
POINT
  5
1152
330
1149
100
AcDbEntity
  8
Defpoints
 62
     0
100
AcDbPoint
 10
487.8655286722417
 20
513.5436110013112
 30
0.0
  0
POINT
  5
1153
330
1149
100
AcDbEntity
  8
Defpoints
 62
     0
100
AcDbPoint
 10
437.8655286722417
 20
499.2476606783936
 30
0.0
  0
POINT
  5
1154
330
1149
100
AcDbEntity
  8
Defpoints
 62
     0
100
AcDbPoint
 10
437.8655286722417
 20
543.4177053479656
 30
0.0
  0
ENDBLK
  5
114B
330
1149
100
AcDbEntity
  8
0
100
AcDbBlockEnd
  0
BLOCK
  5
1162
330
1161
100
AcDbEntity
  8
0
100
AcDbBlockBegin
  2
*D38
 70
     1
 10
0.0
 20
0.0
 30
0.0
  3
*D38
  1
*D39
  0
LINE
  5
1164
330
1161
100
AcDbEntity
  8
DIM
  6
Continuous
 62
     0
370
    -2
100
AcDbLine
 10
487.8655286722417
 20
413.5436110013112
 30
0.0
 11
487.8655286722417
 21
309.063262401945
 31
0.0
  0
LINE
  5
1165
330
1161
100
AcDbEntity
  8
DIM
  6
Continuous
 62
     0
370
    -2
100
AcDbLine
 10
357.8655286722417
 20
336.8232164512763
 30
0.0
 11
357.8655286722417
 21
309.063262401945
 31
0.0
  0
LINE
  5
1166
330
1161
100
AcDbEntity
  8
DIM
  6
Continuous
 62
     0
370
    -2
100
AcDbLine
 10
484.8655286722417
 20
309.063262401945
 30
0.0
 11
360.8655286722417
 21
309.063262401945
 31
0.0
  0
INSERT
  5
1167
330
1161
100
AcDbEntity
  8
DIM
 62
     0
370
    -2
100
AcDbBlockReference
  2
_DOT
 10
487.8655286722417
 20
309.063262401945
 30
0.0
 41
3.0
 42
3.0
 43
3.0
  0
INSERT
  5
1168
330
1161
100
AcDbEntity
  8
DIM
 62
     0
370
    -2
100
AcDbBlockReference
  2
_DOT
 10
357.8655286722417
 20
309.063262401945
 30
0.0
 41
3.0
 42
3.0
 43
3.0
 50
180.0
  0
MTEXT
  5
1169
330
1161
100
AcDbEntity
  8
DIM
 62
     0
 48
0.05
100
AcDbMText
 10
422.8655286722417
 20
325.063262401945
 30
0.0
 40
12.0
 41
0.0
 46
0.0
 71
     5
 72
     1
  1
\A1;130
  7
ＭＳ ゴシック
 73
     1
 44
1.0
  0
POINT
  5
116A
330
1161
100
AcDbEntity
  8
Defpoints
 62
     0
100
AcDbPoint
 10
487.8655286722417
 20
423.5436110013112
 30
0.0
  0
POINT
  5
116B
330
1161
100
AcDbEntity
  8
Defpoints
 62
     0
100
AcDbPoint
 10
357.8655286722417
 20
346.8232164512763
 30
0.0
  0
POINT
  5
116C
330
1161
100
AcDbEntity
  8
Defpoints
 62
     0
100
AcDbPoint
 10
357.8655286722417
 20
309.063262401945
 30
0.0
  0
ENDBLK
  5
1163
330
1161
100
AcDbEntity
  8
0
100
AcDbBlockEnd
  0
BLOCK
  5
116E
330
116D
100
AcDbEntity
  8
0
100
AcDbBlockBegin
  2
*D39
 70
     1
 10
0.0
 20
0.0
 30
0.0
  3
*D39
  1
*D40
  0
LINE
  5
1170
330
116D
100
AcDbEntity
  8
DIM
  6
Continuous
 62
     0
370
    -2
100
AcDbLine
 10
923.111026921174
 20
414.3548600140896
 30
0.0
 11
923.111026921174
 21
344.8045777871228
 31
0.0
  0
LINE
  5
1171
330
116D
100
AcDbEntity
  8
DIM
  6
Continuous
 62
     0
370
    -2
100
AcDbLine
 10
778.1110269211717
 20
393.5436110013112
 30
0.0
 11
778.1110269211717
 21
344.8045777871228
 31
0.0
  0
LINE
  5
1172
330
116D
100
AcDbEntity
  8
DIM
  6
Continuous
 62
     0
370
    -2
100
AcDbLine
 10
920.111026921174
 20
344.8045777871228
 30
0.0
 11
781.1110269211717
 21
344.8045777871228
 31
0.0
  0
INSERT
  5
1173
330
116D
100
AcDbEntity
  8
DIM
 62
     0
370
    -2
100
AcDbBlockReference
  2
_DOT
 10
923.111026921174
 20
344.8045777871228
 30
0.0
 41
3.0
 42
3.0
 43
3.0
  0
INSERT
  5
1174
330
116D
100
AcDbEntity
  8
DIM
 62
     0
370
    -2
100
AcDbBlockReference
  2
_DOT
 10
778.1110269211717
 20
344.8045777871228
 30
0.0
 41
3.0
 42
3.0
 43
3.0
 50
180.0
  0
MTEXT
  5
1175
330
116D
100
AcDbEntity
  8
DIM
 62
     0
 48
0.05
100
AcDbMText
 10
850.611026921174
 20
360.8045777871228
 30
0.0
 40
12.0
 41
0.0
 46
0.0
 71
     5
 72
     1
  1
\A1;145
  7
ＭＳ ゴシック
 73
     1
 44
1.0
  0
POINT
  5
1176
330
116D
100
AcDbEntity
  8
Defpoints
 62
     0
100
AcDbPoint
 10
923.111026921174
 20
424.3548600140896
 30
0.0
  0
POINT
  5
1177
330
116D
100
AcDbEntity
  8
Defpoints
 62
     0
100
AcDbPoint
 10
778.1110269211717
 20
403.5436110013112
 30
0.0
  0
POINT
  5
1178
330
116D
100
AcDbEntity
  8
Defpoints
 62
     0
100
AcDbPoint
 10
778.1110269211717
 20
344.8045777871228
 30
0.0
  0
ENDBLK
  5
116F
330
116D
100
AcDbEntity
  8
0
100
AcDbBlockEnd
  0
BLOCK
  5
117A
330
1179
100
AcDbEntity
  8
0
100
AcDbBlockBegin
  2
*D40
 70
     1
 10
0.0
 20
0.0
 30
0.0
  3
*D40
  1
*D41
  0
LINE
  5
117C
330
1179
100
AcDbEntity
  8
DIM
  6
Continuous
 62
     0
370
    -2
100
AcDbLine
 10
949.1137981934548
 20
1199.825373186494
 30
0.0
 11
989.1662186017579
 21
1199.825373186494
 31
0.0
  0
LINE
  5
117D
330
1179
100
AcDbEntity
  8
DIM
  6
Continuous
 62
     0
370
    -2
100
AcDbLine
 10
929.1137981934548
 20
1104.825373186494
 30
0.0
 11
989.1662186017579
 21
1104.825373186494
 31
0.0
  0
LINE
  5
117E
330
1179
100
AcDbEntity
  8
DIM
  6
Continuous
 62
     0
370
    -2
100
AcDbLine
 10
989.1662186017579
 20
1196.825373186494
 30
0.0
 11
989.1662186017579
 21
1107.825373186494
 31
0.0
  0
INSERT
  5
117F
330
1179
100
AcDbEntity
  8
DIM
 62
     0
370
    -2
100
AcDbBlockReference
  2
_DOT
 10
989.1662186017579
 20
1199.825373186494
 30
0.0
 41
3.0
 42
3.0
 43
3.0
 50
90.0
  0
INSERT
  5
1180
330
1179
100
AcDbEntity
  8
DIM
 62
     0
370
    -2
100
AcDbBlockReference
  2
_DOT
 10
989.1662186017579
 20
1104.825373186494
 30
0.0
 41
3.0
 42
3.0
 43
3.0
 50
270.0
  0
MTEXT
  5
1181
330
1179
100
AcDbEntity
  8
DIM
 62
     0
 48
0.05
100
AcDbMText
 10
973.1662186017579
 20
1152.325373186494
 30
0.0
 40
12.0
 41
0.0
 46
0.0
 71
     5
 72
     1
  1
\A1;95
  7
ＭＳ ゴシック
 11
0.0
 21
1.0
 31
0.0
 73
     1
 44
1.0
  0
POINT
  5
1182
330
1179
100
AcDbEntity
  8
Defpoints
 62
     0
100
AcDbPoint
 10
939.1137981934548
 20
1199.825373186494
 30
0.0
  0
POINT
  5
1183
330
1179
100
AcDbEntity
  8
Defpoints
 62
     0
100
AcDbPoint
 10
919.1137981934548
 20
1104.825373186494
 30
0.0
  0
POINT
  5
1184
330
1179
100
AcDbEntity
  8
Defpoints
 62
     0
100
AcDbPoint
 10
989.1662186017579
 20
1104.825373186494
 30
0.0
  0
ENDBLK
  5
117B
330
1179
100
AcDbEntity
  8
0
100
AcDbBlockEnd
  0
BLOCK
  5
1186
330
1185
100
AcDbEntity
  8
0
100
AcDbBlockBegin
  2
*D41
 70
     1
 10
0.0
 20
0.0
 30
0.0
  3
*D41
  1
*D42
  0
LINE
  5
1188
330
1185
100
AcDbEntity
  8
DIM
  6
Continuous
 62
     0
370
    -2
100
AcDbLine
 10
929.1137981934548
 20
1104.825373186494
 30
0.0
 11
989.1662186017579
 21
1104.825373186494
 31
0.0
  0
LINE
  5
1189
330
1185
100
AcDbEntity
  8
DIM
  6
Continuous
 62
     0
370
    -2
100
AcDbLine
 10
929.1137981934539
 20
1004.825373186494
 30
0.0
 11
989.1662186017579
 21
1004.825373186494
 31
0.0
  0
LINE
  5
118A
330
1185
100
AcDbEntity
  8
DIM
  6
Continuous
 62
     0
370
    -2
100
AcDbLine
 10
989.1662186017579
 20
1101.825373186494
 30
0.0
 11
989.1662186017579
 21
1007.825373186494
 31
0.0
  0
INSERT
  5
118B
330
1185
100
AcDbEntity
  8
DIM
 62
     0
370
    -2
100
AcDbBlockReference
  2
_DOT
 10
989.1662186017579
 20
1104.825373186494
 30
0.0
 41
3.0
 42
3.0
 43
3.0
 50
90.0
  0
INSERT
  5
118C
330
1185
100
AcDbEntity
  8
DIM
 62
     0
370
    -2
100
AcDbBlockReference
  2
_DOT
 10
989.1662186017579
 20
1004.825373186494
 30
0.0
 41
3.0
 42
3.0
 43
3.0
 50
270.0
  0
MTEXT
  5
118D
330
1185
100
AcDbEntity
  8
DIM
 62
     0
 48
0.05
100
AcDbMText
 10
973.1662186017579
 20
1054.825373186494
 30
0.0
 40
12.0
 41
0.0
 46
0.0
 71
     5
 72
     1
  1
\A1;100
  7
ＭＳ ゴシック
 11
0.0
 21
1.0
 31
0.0
 73
     1
 44
1.0
  0
POINT
  5
118E
330
1185
100
AcDbEntity
  8
Defpoints
 62
     0
100
AcDbPoint
 10
919.1137981934548
 20
1104.825373186494
 30
0.0
  0
POINT
  5
118F
330
1185
100
AcDbEntity
  8
Defpoints
 62
     0
100
AcDbPoint
 10
919.1137981934539
 20
1004.825373186494
 30
0.0
  0
POINT
  5
1190
330
1185
100
AcDbEntity
  8
Defpoints
 62
     0
100
AcDbPoint
 10
989.1662186017579
 20
1004.825373186494
 30
0.0
  0
ENDBLK
  5
1187
330
1185
100
AcDbEntity
  8
0
100
AcDbBlockEnd
  0
BLOCK
  5
1192
330
1191
100
AcDbEntity
  8
0
100
AcDbBlockBegin
  2
*D42
 70
     1
 10
0.0
 20
0.0
 30
0.0
  3
*D42
  1
*D43
  0
LINE
  5
1194
330
1191
100
AcDbEntity
  8
DIM
  6
Continuous
 62
     0
370
    -2
100
AcDbLine
 10
939.1137981934548
 20
944.8253731864944
 30
0.0
 11
939.1137981934548
 21
906.4764136773102
 31
0.0
  0
LINE
  5
1195
330
1191
100
AcDbEntity
  8
DIM
  6
Continuous
 62
     0
370
    -2
100
AcDbLine
 10
919.1137981934539
 20
994.825373186494
 30
0.0
 11
919.1137981934539
 21
906.4764136773102
 31
0.0
  0
LINE
  5
1196
330
1191
100
AcDbEntity
  8
DIM
  6
Continuous
 62
     0
370
    -2
100
AcDbLine
 10
936.1137981934548
 20
906.4764136773102
 30
0.0
 11
922.1137981934539
 21
906.4764136773102
 31
0.0
  0
INSERT
  5
1197
330
1191
100
AcDbEntity
  8
DIM
 62
     0
370
    -2
100
AcDbBlockReference
  2
_DOT
 10
939.1137981934548
 20
906.4764136773102
 30
0.0
 41
3.0
 42
3.0
 43
3.0
  0
INSERT
  5
1198
330
1191
100
AcDbEntity
  8
DIM
 62
     0
370
    -2
100
AcDbBlockReference
  2
_DOT
 10
919.1137981934539
 20
906.4764136773102
 30
0.0
 41
3.0
 42
3.0
 43
3.0
 50
180.0
  0
MTEXT
  5
1199
330
1191
100
AcDbEntity
  8
DIM
 62
     0
 48
0.05
100
AcDbMText
 10
929.113798193453
 20
922.4764136773102
 30
0.0
 40
12.0
 41
0.0
 46
0.0
 71
     5
 72
     1
  1
\A1;20
  7
ＭＳ ゴシック
 73
     1
 44
1.0
  0
POINT
  5
119A
330
1191
100
AcDbEntity
  8
Defpoints
 62
     0
100
AcDbPoint
 10
939.1137981934548
 20
954.8253731864944
 30
0.0
  0
POINT
  5
119B
330
1191
100
AcDbEntity
  8
Defpoints
 62
     0
100
AcDbPoint
 10
919.1137981934539
 20
1004.825373186494
 30
0.0
  0
POINT
  5
119C
330
1191
100
AcDbEntity
  8
Defpoints
 62
     0
100
AcDbPoint
 10
919.1137981934539
 20
906.4764136773102
 30
0.0
  0
ENDBLK
  5
1193
330
1191
100
AcDbEntity
  8
0
100
AcDbBlockEnd
  0
BLOCK
  5
119F
330
119E
100
AcDbEntity
  8
0
100
AcDbBlockBegin
  2
*D43
 70
     1
 10
0.0
 20
0.0
 30
0.0
  3
*D43
  1
*D44
  0
LINE
  5
11A1
330
119E
100
AcDbEntity
  8
DIM
  6
Continuous
 62
     0
370
    -2
100
AcDbLine
 10
919.1137981934539
 20
994.825373186494
 30
0.0
 11
919.1137981934539
 21
906.4764136773102
 31
0.0
  0
LINE
  5
11A2
330
119E
100
AcDbEntity
  8
DIM
  6
Continuous
 62
     0
370
    -2
100
AcDbLine
 10
749.1137981934539
 20
994.825373186494
 30
0.0
 11
749.1137981934539
 21
906.4764136773102
 31
0.0
  0
LINE
  5
11A3
330
119E
100
AcDbEntity
  8
DIM
  6
Continuous
 62
     0
370
    -2
100
AcDbLine
 10
916.1137981934539
 20
906.4764136773102
 30
0.0
 11
752.1137981934539
 21
906.4764136773102
 31
0.0
  0
INSERT
  5
11A4
330
119E
100
AcDbEntity
  8
DIM
 62
     0
370
    -2
100
AcDbBlockReference
  2
_DOT
 10
919.1137981934539
 20
906.4764136773102
 30
0.0
 41
3.0
 42
3.0
 43
3.0
  0
INSERT
  5
11A5
330
119E
100
AcDbEntity
  8
DIM
 62
     0
370
    -2
100
AcDbBlockReference
  2
_DOT
 10
749.1137981934539
 20
906.4764136773102
 30
0.0
 41
3.0
 42
3.0
 43
3.0
 50
180.0
  0
MTEXT
  5
11A6
330
119E
100
AcDbEntity
  8
DIM
 62
     0
 48
0.05
100
AcDbMText
 10
834.1137981934539
 20
922.4764136773102
 30
0.0
 40
12.0
 41
0.0
 46
0.0
 71
     5
 72
     1
  1
\A1;170
  7
ＭＳ ゴシック
 73
     1
 44
1.0
  0
POINT
  5
11A7
330
119E
100
AcDbEntity
  8
Defpoints
 62
     0
100
AcDbPoint
 10
919.1137981934539
 20
1004.825373186494
 30
0.0
  0
POINT
  5
11A8
330
119E
100
AcDbEntity
  8
Defpoints
 62
     0
100
AcDbPoint
 10
749.1137981934539
 20
1004.825373186494
 30
0.0
  0
POINT
  5
11A9
330
119E
100
AcDbEntity
  8
Defpoints
 62
     0
100
AcDbPoint
 10
749.1137981934539
 20
906.4764136773102
 30
0.0
  0
ENDBLK
  5
11A0
330
119E
100
AcDbEntity
  8
0
100
AcDbBlockEnd
  0
BLOCK
  5
11AB
330
11AA
100
AcDbEntity
  8
0
100
AcDbBlockBegin
  2
*D44
 70
     1
 10
0.0
 20
0.0
 30
0.0
  3
*D44
  1
*D45
  0
LINE
  5
11AD
330
11AA
100
AcDbEntity
  8
DIM
  6
Continuous
 62
     0
370
    -2
100
AcDbLine
 10
778.1110269211736
 20
513.5436110013112
 30
0.0
 11
778.1110269211736
 21
601.8729955745099
 31
0.0
  0
LINE
  5
11AE
330
11AA
100
AcDbEntity
  8
DIM
  6
Continuous
 62
     0
370
    -2
100
AcDbLine
 10
778.1110269211736
 20
510.5436110013112
 30
0.0
 11
778.1110269211736
 21
440.9417576127734
 31
0.0
  0
INSERT
  5
11AF
330
11AA
100
AcDbEntity
  8
DIM
 62
     0
370
    -2
100
AcDbBlockReference
  2
_DOT
 10
778.1110269211736
 20
513.5436110013112
 30
0.0
 41
3.0
 42
3.0
 43
3.0
 50
90.0
  0
INSERT
  5
11B0
330
11AA
100
AcDbEntity
  8
DIM
 62
     0
370
    -2
100
AcDbBlockReference
  2
_DOT
 10
778.1110269211736
 20
437.9417576127734
 30
0.0
 41
3.0
 42
3.0
 43
3.0
 50
270.0
  0
MTEXT
  5
11B1
330
11AA
100
AcDbEntity
  8
DIM
 62
     0
 48
0.05
100
AcDbMText
 10
761.0490269211735
 20
562.9889955745099
 30
0.0
 40
12.0
 41
0.0
 46
0.0
 71
     5
 72
     1
  1
\A1;75(深さ)
  7
ＭＳ ゴシック
 11
0.0
 21
1.0
 31
0.0
 73
     1
 44
1.0
  0
POINT
  5
11B2
330
11AA
100
AcDbEntity
  8
Defpoints
 62
     0
100
AcDbPoint
 10
801.222286902947
 20
513.5436110013112
 30
0.0
  0
POINT
  5
11B3
330
11AA
100
AcDbEntity
  8
Defpoints
 62
     0
100
AcDbPoint
 10
778.111026921174
 20
437.9417576127734
 30
0.0
  0
POINT
  5
11B4
330
11AA
100
AcDbEntity
  8
Defpoints
 62
     0
100
AcDbPoint
 10
778.1110269211736
 20
437.9417576127734
 30
0.0
  0
ENDBLK
  5
11AC
330
11AA
100
AcDbEntity
  8
0
100
AcDbBlockEnd
  0
BLOCK
  5
13D3
330
13D2
100
AcDbEntity
  8
0
100
AcDbBlockBegin
  2
*D52
 70
     1
 10
0.0
 20
0.0
 30
0.0
  3
*D52
  1
*D52
  0
LINE
  5
13D5
330
13D2
100
AcDbEntity
  8
DIM
 62
     0
 48
0.05
370
    -2
100
AcDbLine
 10
117.8655286722417
 20
513.5436110013112
 30
0.0
 11
86.55324008253649
 21
513.5436110013112
 31
0.0
  0
LINE
  5
13D6
330
13D2
100
AcDbEntity
  8
DIM
 62
     0
 48
0.05
370
    -2
100
AcDbLine
 10
158.970746456795
 20
475.5436110013112
 30
0.0
 11
86.55324008253649
 21
475.5436110013112
 31
0.0
  0
LINE
  5
13D7
330
13D2
100
AcDbEntity
  8
DIM
 62
     0
 48
0.05
370
    -2
100
AcDbLine
 10
86.55324008253649
 20
510.5436110013112
 30
0.0
 11
86.55324008253649
 21
478.5436110013112
 31
0.0
  0
INSERT
  5
13D8
330
13D2
100
AcDbEntity
  8
DIM
 62
     0
370
    -2
100
AcDbBlockReference
  2
_DOT
 10
86.55324008253649
 20
513.5436110013112
 30
0.0
 41
3.0
 42
3.0
 43
3.0
 50
90.0
  0
INSERT
  5
13D9
330
13D2
100
AcDbEntity
  8
DIM
 62
     0
370
    -2
100
AcDbBlockReference
  2
_DOT
 10
86.55324008253649
 20
475.5436110013112
 30
0.0
 41
3.0
 42
3.0
 43
3.0
 50
270.0
  0
MTEXT
  5
13DA
330
13D2
100
AcDbEntity
  8
DIM
 62
     0
 48
0.05
100
AcDbMText
 10
70.55324008253649
 20
494.5436110013112
 30
0.0
 40
12.0
 41
0.0
 46
0.0
 71
     5
 72
     1
  1
\A1;38
  7
ＭＳ ゴシック
 11
0.0
 21
1.0
 31
0.0
 73
     1
 44
1.0
  0
POINT
  5
13DB
330
13D2
100
AcDbEntity
  8
Defpoints
 62
     0
100
AcDbPoint
 10
127.8655286722417
 20
513.5436110013112
 30
0.0
  0
POINT
  5
13DC
330
13D2
100
AcDbEntity
  8
Defpoints
 62
     0
100
AcDbPoint
 10
168.970746456795
 20
475.5436110013112
 30
0.0
  0
POINT
  5
13DD
330
13D2
100
AcDbEntity
  8
Defpoints
 62
     0
100
AcDbPoint
 10
86.55324008253649
 20
475.5436110013112
 30
0.0
  0
ENDBLK
  5
13D4
330
13D2
100
AcDbEntity
  8
0
100
AcDbBlockEnd
  0
BLOCK
  5
13E0
330
13DF
100
AcDbEntity
  8
0
100
AcDbBlockBegin
  2
*D53
 70
     1
 10
0.0
 20
0.0
 30
0.0
  3
*D53
  1
*D53
  0
LINE
  5
13E2
330
13DF
100
AcDbEntity
  8
DIM
 62
     0
 48
0.05
370
    -2
100
AcDbLine
 10
497.8655286722417
 20
513.5436110013112
 30
0.0
 11
530.5866997313922
 21
513.5436110013112
 31
0.0
  0
LINE
  5
13E3
330
13DF
100
AcDbEntity
  8
DIM
 62
     0
 48
0.05
370
    -2
100
AcDbLine
 10
471.569578349324
 20
475.5436110013113
 30
0.0
 11
530.5866997313922
 21
475.5436110013113
 31
0.0
  0
LINE
  5
13E4
330
13DF
100
AcDbEntity
  8
DIM
 62
     0
 48
0.05
370
    -2
100
AcDbLine
 10
530.5866997313922
 20
510.5436110013112
 30
0.0
 11
530.5866997313922
 21
478.5436110013113
 31
0.0
  0
INSERT
  5
13E5
330
13DF
100
AcDbEntity
  8
DIM
 62
     0
370
    -2
100
AcDbBlockReference
  2
_DOT
 10
530.5866997313922
 20
513.5436110013112
 30
0.0
 41
3.0
 42
3.0
 43
3.0
 50
90.0
  0
INSERT
  5
13E6
330
13DF
100
AcDbEntity
  8
DIM
 62
     0
370
    -2
100
AcDbBlockReference
  2
_DOT
 10
530.5866997313922
 20
475.5436110013113
 30
0.0
 41
3.0
 42
3.0
 43
3.0
 50
270.0
  0
MTEXT
  5
13E7
330
13DF
100
AcDbEntity
  8
DIM
 62
     0
 48
0.05
100
AcDbMText
 10
514.5866997313922
 20
494.5436110013113
 30
0.0
 40
12.0
 41
0.0
 46
0.0
 71
     5
 72
     1
  1
\A1;38
  7
ＭＳ ゴシック
 11
0.0
 21
1.0
 31
0.0
 73
     1
 44
1.0
  0
POINT
  5
13E8
330
13DF
100
AcDbEntity
  8
Defpoints
 62
     0
100
AcDbPoint
 10
487.8655286722417
 20
513.5436110013112
 30
0.0
  0
POINT
  5
13E9
330
13DF
100
AcDbEntity
  8
Defpoints
 62
     0
100
AcDbPoint
 10
461.569578349324
 20
475.5436110013113
 30
0.0
  0
POINT
  5
13EA
330
13DF
100
AcDbEntity
  8
Defpoints
 62
     0
100
AcDbPoint
 10
530.5866997313922
 20
475.5436110013113
 30
0.0
  0
ENDBLK
  5
13E1
330
13DF
100
AcDbEntity
  8
0
100
AcDbBlockEnd
  0
BLOCK
  5
140D
330
140C
100
AcDbEntity
  8
0
100
AcDbBlockBegin
  2
*D54
 70
     1
 10
0.0
 20
0.0
 30
0.0
  3
*D54
  1
*D54
  0
LINE
  5
140F
330
140C
100
AcDbEntity
  8
DIM
 62
     0
 48
0.05
370
    -2
100
AcDbLine
 10
497.8655286722417
 20
513.5436110013112
 30
0.0
 11
568.6375061761702
 21
513.5436110013112
 31
0.0
  0
LINE
  5
1410
330
140C
100
AcDbEntity
  8
DIM
 62
     0
 48
0.05
370
    -2
100
AcDbLine
 10
388.8655286720888
 20
403.5436110013112
 30
0.0
 11
568.6375061761702
 21
403.5436110013112
 31
0.0
  0
LINE
  5
1411
330
140C
100
AcDbEntity
  8
DIM
 62
     0
 48
0.05
370
    -2
100
AcDbLine
 10
568.6375061761702
 20
510.5436110013112
 30
0.0
 11
568.6375061761702
 21
406.5436110013112
 31
0.0
  0
INSERT
  5
1412
330
140C
100
AcDbEntity
  8
DIM
 62
     0
370
    -2
100
AcDbBlockReference
  2
_DOT
 10
568.6375061761702
 20
513.5436110013112
 30
0.0
 41
3.0
 42
3.0
 43
3.0
 50
90.0
  0
INSERT
  5
1413
330
140C
100
AcDbEntity
  8
DIM
 62
     0
370
    -2
100
AcDbBlockReference
  2
_DOT
 10
568.6375061761702
 20
403.5436110013112
 30
0.0
 41
3.0
 42
3.0
 43
3.0
 50
270.0
  0
MTEXT
  5
1414
330
140C
100
AcDbEntity
  8
DIM
 62
     0
 48
0.05
100
AcDbMText
 10
552.6375061761702
 20
458.5436110013112
 30
0.0
 40
12.0
 41
0.0
 46
0.0
 71
     5
 72
     1
  1
\A1;110
  7
ＭＳ ゴシック
 11
0.0
 21
1.0
 31
0.0
 73
     1
 44
1.0
  0
POINT
  5
1415
330
140C
100
AcDbEntity
  8
Defpoints
 62
     0
100
AcDbPoint
 10
487.8655286722417
 20
513.5436110013112
 30
0.0
  0
POINT
  5
1416
330
140C
100
AcDbEntity
  8
Defpoints
 62
     0
100
AcDbPoint
 10
378.8655286720888
 20
403.5436110013112
 30
0.0
  0
POINT
  5
1417
330
140C
100
AcDbEntity
  8
Defpoints
 62
     0
100
AcDbPoint
 10
568.6375061761702
 20
403.5436110013112
 30
0.0
  0
ENDBLK
  5
140E
330
140C
100
AcDbEntity
  8
0
100
AcDbBlockEnd
  0
BLOCK
  5
1423
330
1422
100
AcDbEntity
  8
0
100
AcDbBlockBegin
  2
*D55
 70
     1
 10
0.0
 20
0.0
 30
0.0
  3
*D55
  1
*D55
  0
LINE
  5
1425
330
1422
100
AcDbEntity
  8
DIM
 62
     0
 48
0.05
370
    -2
100
AcDbLine
 10
336.8655286720888
 20
393.5436110013112
 30
0.0
 11
336.8655286720888
 21
372.0280722107314
 31
0.0
  0
LINE
  5
1426
330
1422
100
AcDbEntity
  8
DIM
 62
     0
 48
0.05
370
    -2
100
AcDbLine
 10
378.8655286720888
 20
393.5436110013112
 30
0.0
 11
378.8655286720888
 21
372.0280722107314
 31
0.0
  0
LINE
  5
1427
330
1422
100
AcDbEntity
  8
DIM
 62
     0
 48
0.05
370
    -2
100
AcDbLine
 10
339.8655286720888
 20
372.0280722107314
 30
0.0
 11
375.8655286720888
 21
372.0280722107314
 31
0.0
  0
INSERT
  5
1428
330
1422
100
AcDbEntity
  8
DIM
 62
     0
370
    -2
100
AcDbBlockReference
  2
_DOT
 10
336.8655286720888
 20
372.0280722107314
 30
0.0
 41
3.0
 42
3.0
 43
3.0
 50
180.0
  0
INSERT
  5
1429
330
1422
100
AcDbEntity
  8
DIM
 62
     0
370
    -2
100
AcDbBlockReference
  2
_DOT
 10
378.8655286720888
 20
372.0280722107314
 30
0.0
 41
3.0
 42
3.0
 43
3.0
  0
MTEXT
  5
142A
330
1422
100
AcDbEntity
  8
DIM
 62
     0
 48
0.05
100
AcDbMText
 10
357.8655286720888
 20
354.7500722107314
 30
0.0
 40
12.0
 41
0.0
 46
0.0
 71
     5
 72
     1
  1
\A1;G1 1/4"
  7
ＭＳ ゴシック
 73
     1
 44
1.0
  0
POINT
  5
142B
330
1422
100
AcDbEntity
  8
Defpoints
 62
     0
100
AcDbPoint
 10
336.8655286720888
 20
403.5436110013112
 30
0.0
  0
POINT
  5
142C
330
1422
100
AcDbEntity
  8
Defpoints
 62
     0
100
AcDbPoint
 10
378.8655286720888
 20
403.5436110013112
 30
0.0
  0
POINT
  5
142D
330
1422
100
AcDbEntity
  8
Defpoints
 62
     0
100
AcDbPoint
 10
378.8655286720888
 20
372.0280722107314
 30
0.0
  0
ENDBLK
  5
1424
330
1422
100
AcDbEntity
  8
0
100
AcDbBlockEnd
  0
BLOCK
  5
1457
330
1456
100
AcDbEntity
  8
0
100
AcDbBlockBegin
  2
*D56
 70
     1
 10
0.0
 20
0.0
 30
0.0
  3
*D56
  1
*D56
  0
LINE
  5
1459
330
1456
100
AcDbEntity
  8
DIM
 62
     0
 48
0.05
370
    -2
100
AcDbLine
 10
487.8655286722417
 20
1209.825373186494
 30
0.0
 11
487.8655286722417
 21
1229.871548387431
 31
0.0
  0
LINE
  5
145A
330
1456
100
AcDbEntity
  8
DIM
 62
     0
 48
0.05
370
    -2
100
AcDbLine
 10
437.8655286722417
 20
1082.325373186494
 30
0.0
 11
437.8655286722417
 21
1229.871548387431
 31
0.0
  0
LINE
  5
145B
330
1456
100
AcDbEntity
  8
DIM
 62
     0
 48
0.05
370
    -2
100
AcDbLine
 10
484.8655286722417
 20
1229.871548387431
 30
0.0
 11
440.8655286722417
 21
1229.871548387431
 31
0.0
  0
INSERT
  5
145C
330
1456
100
AcDbEntity
  8
DIM
 62
     0
370
    -2
100
AcDbBlockReference
  2
_DOT
 10
487.8655286722417
 20
1229.871548387431
 30
0.0
 41
3.0
 42
3.0
 43
3.0
  0
INSERT
  5
145D
330
1456
100
AcDbEntity
  8
DIM
 62
     0
370
    -2
100
AcDbBlockReference
  2
_DOT
 10
437.8655286722417
 20
1229.871548387431
 30
0.0
 41
3.0
 42
3.0
 43
3.0
 50
180.0
  0
MTEXT
  5
145E
330
1456
100
AcDbEntity
  8
DIM
 62
     0
 48
0.05
100
AcDbMText
 10
462.8655286722417
 20
1245.871548387431
 30
0.0
 40
12.0
 41
0.0
 46
0.0
 71
     5
 72
     1
  1
\A1;50
  7
ＭＳ ゴシック
 73
     1
 44
1.0
  0
POINT
  5
145F
330
1456
100
AcDbEntity
  8
Defpoints
 62
     0
100
AcDbPoint
 10
487.8655286722417
 20
1199.825373186494
 30
0.0
  0
POINT
  5
1460
330
1456
100
AcDbEntity
  8
Defpoints
 62
     0
100
AcDbPoint
 10
437.8655286722417
 20
1072.325373186494
 30
0.0
  0
POINT
  5
1461
330
1456
100
AcDbEntity
  8
Defpoints
 62
     0
100
AcDbPoint
 10
437.8655286722417
 20
1229.871548387431
 30
0.0
  0
ENDBLK
  5
1458
330
1456
100
AcDbEntity
  8
0
100
AcDbBlockEnd
  0
BLOCK
  5
1467
330
1466
100
AcDbEntity
  8
0
100
AcDbBlockBegin
  2
*D57
 70
     1
 10
0.0
 20
0.0
 30
0.0
  3
*D57
  1
*D57
  0
LINE
  5
1469
330
1466
100
AcDbEntity
  8
DIM
 62
     0
 48
0.05
370
    -2
100
AcDbLine
 10
497.8655286722417
 20
1199.825373186494
 30
0.0
 11
524.7381775743187
 21
1199.825373186494
 31
0.0
  0
LINE
  5
146A
330
1466
100
AcDbEntity
  8
DIM
 62
     0
 48
0.05
370
    -2
100
AcDbLine
 10
465.3655286722417
 20
1054.825373186494
 30
0.0
 11
524.7381775743187
 21
1054.825373186494
 31
0.0
  0
LINE
  5
146B
330
1466
100
AcDbEntity
  8
DIM
 62
     0
 48
0.05
370
    -2
100
AcDbLine
 10
524.7381775743187
 20
1196.825373186494
 30
0.0
 11
524.7381775743187
 21
1057.825373186494
 31
0.0
  0
INSERT
  5
146C
330
1466
100
AcDbEntity
  8
DIM
 62
     0
370
    -2
100
AcDbBlockReference
  2
_DOT
 10
524.7381775743187
 20
1199.825373186494
 30
0.0
 41
3.0
 42
3.0
 43
3.0
 50
90.0
  0
INSERT
  5
146D
330
1466
100
AcDbEntity
  8
DIM
 62
     0
370
    -2
100
AcDbBlockReference
  2
_DOT
 10
524.7381775743187
 20
1054.825373186494
 30
0.0
 41
3.0
 42
3.0
 43
3.0
 50
270.0
  0
MTEXT
  5
146E
330
1466
100
AcDbEntity
  8
DIM
 62
     0
 48
0.05
100
AcDbMText
 10
508.7381775743187
 20
1127.325373186494
 30
0.0
 40
12.0
 41
0.0
 46
0.0
 71
     5
 72
     1
  1
\A1;145
  7
ＭＳ ゴシック
 11
0.0
 21
1.0
 31
0.0
 73
     1
 44
1.0
  0
POINT
  5
146F
330
1466
100
AcDbEntity
  8
Defpoints
 62
     0
100
AcDbPoint
 10
487.8655286722417
 20
1199.825373186494
 30
0.0
  0
POINT
  5
1470
330
1466
100
AcDbEntity
  8
Defpoints
 62
     0
100
AcDbPoint
 10
455.3655286722417
 20
1054.825373186494
 30
0.0
  0
POINT
  5
1471
330
1466
100
AcDbEntity
  8
Defpoints
 62
     0
100
AcDbPoint
 10
524.7381775743187
 20
1054.825373186494
 30
0.0
  0
ENDBLK
  5
1468
330
1466
100
AcDbEntity
  8
0
100
AcDbBlockEnd
  0
ENDSEC
  0
SECTION
  2
ENTITIES
  0
MTEXT
  5
177
330
A
100
AcDbEntity
  8
TEMPLATE
390
1D
100
AcDbMText
 10
39.60107227386538
 20
171.8658758157141
 30
0.0
 40
8.144205729166663
 41
0.0
 46
0.0
 71
     1
 72
     1
  1
品名
  7
ＭＳ ゴシック
 73
     1
 44
0.7828267384257843
  0
MTEXT
  5
178
330
A
100
AcDbEntity
  8
TEMPLATE
390
1D
100
AcDbMText
 10
39.60107227386538
 20
129.365875815714
 30
0.0
 40
8.144205729166663
 41
0.0
 46
0.0
 71
     1
 72
     1
  1
仕様
  7
ＭＳ ゴシック
 73
     1
 44
0.7828267384257843
  0
LINE
  5
179
330
A
100
AcDbEntity
  8
TEMPLATE
390
1D
100
AcDbLine
 10
1011.101072273624
 20
133.5733367532142
 30
0.0
 11
36.10107227362437
 21
133.5733367532142
 31
0.0
  0
LWPOLYLINE
  5
17A
330
A
100
AcDbEntity
  8
TEMPLATE
390
1D
100
AcDbPolyline
 90
        5
 70
   128
 43
0.0
 10
1011.101072273624
 20
1448.573336753213
 10
36.10107227362437
 20
1448.573336753213
 10
36.10107227362437
 20
48.57333675321413
 10
1011.101072273624
 20
48.57333675321413
 10
1011.101072273624
 20
1448.573336753213
  0
LINE
  5
17B
330
A
100
AcDbEntity
  8
TEMPLATE
390
1D
100
AcDbLine
 10
1011.101072273624
 20
176.0733367532141
 30
0.0
 11
36.10107227362437
 21
176.0733367532141
 31
0.0
  0
LINE
  5
17C
330
A
100
AcDbEntity
  8
TEMPLATE
390
1D
100
AcDbLine
 10
1011.101072273866
 20
91.07333675321412
 30
0.0
 11
634.601072273865
 21
91.07333675321412
 31
0.0
  0
MTEXT
  5
17E
330
A
100
AcDbEntity
  8
TEMPLATE
390
1D
100
AcDbMText
 10
649.5367753999956
 20
76.11813951656006
 30
0.0
 40
12.21630859375
 41
0.0
 46
0.0
 71
     1
 72
     1
  1
大洋金物株式会社 ティーフォルム事業部
  7
ＭＳ ゴシック
 73
     1
 44
0.7828267384257843
  0
MTEXT
  5
180
330
A
100
AcDbEntity
  8
TEMPLATE
390
1D
100
AcDbMText
 10
915.601072273995
 20
115.0746453469641
 30
0.0
 40
12.21630859375
 41
0.0
 46
12.21630859375
 71
     1
 72
     1
  1
{1:5}
  7
ＭＳ ゴシック
 73
     1
 44
0.7828267384257843
1001
ACAD
1000
ACAD_MTEXT_DEFINED_HEIGHT_BEGIN
1070
    46
1040
12.21630859375
1000
ACAD_MTEXT_DEFINED_HEIGHT_END
  0
MTEXT
  5
181
330
A
100
AcDbEntity
  8
TEMPLATE
390
1D
100
AcDbMText
 10
889.101072273995
 20
129.365875815714
 30
0.0
 40
8.144205729166663
 41
0.0
 46
0.0
 71
     1
 72
     1
  1
縮尺
  7
ＭＳ ゴシック
 73
     1
 44
0.7828267384257843
  0
LINE
  5
182
330
A
100
AcDbEntity
  8
TEMPLATE
390
1D
100
AcDbLine
 10
885.601072273995
 20
91.07333675321412
 30
0.0
 11
885.601072273995
 21
133.5733367532142
 31
0.0
  0
MTEXT
  5
183
330
A
100
AcDbEntity
  8
TEMPLATE
390
1D
100
AcDbMText
 10
763.601072273995
 20
129.365875815714
 30
0.0
 40
8.144205729166663
 41
0.0
 46
0.0
 71
     1
 72
     1
  1
容量
  7
ＭＳ ゴシック
 73
     1
 44
0.7828267384257843
  0
LINE
  5
184
330
A
100
AcDbEntity
  8
TEMPLATE
390
1D
100
AcDbLine
 10
760.101072273995
 20
91.07333675321412
 30
0.0
 11
760.101072273995
 21
133.5733367532142
 31
0.0
  0
MTEXT
  5
185
330
A
100
AcDbEntity
  8
TEMPLATE
390
1D
100
AcDbMText
 10
638.101072273995
 20
171.8658758157141
 30
0.0
 40
8.144205729166663
 41
0.0
 46
0.0
 71
     1
 72
     1
  1
品番
  7
ＭＳ ゴシック
 73
     1
 44
0.7828267384257843
  0
MTEXT
  5
186
330
A
100
AcDbEntity
  8
TEMPLATE
390
1D
100
AcDbMText
 10
638.101072273995
 20
129.365875815714
 30
0.0
 40
8.144205729166663
 41
0.0
 46
0.0
 71
     1
 72
     1
  1
重量
  7
ＭＳ ゴシック
 73
     1
 44
0.7828267384257843
  0
MTEXT
  5
187
330
A
100
AcDbEntity
  8
TEMPLATE
390
1D
100
AcDbMText
 10
664.601072273995
 20
157.5746453469641
 30
0.0
 40
12.21630859375
 41
0.0
 46
12.21630859375
 71
     1
 72
     1
  1
{BRS70-0406-001}
  7
ＭＳ ゴシック
 73
     1
 44
0.7828267384257843
1001
ACAD
1000
ACAD_MTEXT_DEFINED_HEIGHT_BEGIN
1070
    46
1040
12.21630859375
1000
ACAD_MTEXT_DEFINED_HEIGHT_END
  0
LINE
  5
188
330
A
100
AcDbEntity
  8
TEMPLATE
390
1D
100
AcDbLine
 10
634.601072273995
 20
48.57333675321413
 30
0.0
 11
634.601072273995
 21
176.0733367532141
 31
0.0
  0
MTEXT
  5
189
330
A
100
AcDbEntity
  8
TEMPLATE
390
1D
100
AcDbMText
 10
66.10107227386537
 20
157.5746453469641
 30
0.0
 40
12.21630859375
 41
0.0
 46
13.76777978515625
 71
     1
 72
     1
  1
{手洗器　-CLOU, Flush-}
  7
ＭＳ ゴシック
 73
     1
 44
0.7828267384257843
1001
ACAD
1000
ACAD_MTEXT_DEFINED_HEIGHT_BEGIN
1070
    46
1040
13.76777978515625
1000
ACAD_MTEXT_DEFINED_HEIGHT_END
  0
INSERT
  5
6B5
330
A
100
AcDbEntity
  8
TEMPLATE
100
AcDbBlockReference
  2
名称未設定-1
 10
935.3753740442249
 20
12.97338287832691
 30
0.0
 41
0.3809999999999999
 42
0.3809999999999999
 43
0.3809999999999999
  0
MTEXT
  5
7D9
330
A
100
AcDbEntity
  8
TEMPLATE
390
1D
100
AcDbMText
 10
62.62717263801819
 20
113.4059880146976
 30
0.0
 40
12.21630859375
 41
0.0
 46
48.7782587890625
 71
     1
 72
     1
  1
{壁掛け、カウンター置き/オーバーフローなし/\P排水目皿(水溜め不可)、壁取付ボルト付属/\P陶器/ホワイト}
  7
ＭＳ ゴシック
 73
     1
 44
0.8840641112754306
1001
ACAD
1000
ACAD_MTEXT_DEFINED_HEIGHT_BEGIN
1070
    46
1040
48.7782587890625
1000
ACAD_MTEXT_DEFINED_HEIGHT_END
  0
INSERT
  5
68C
330
A
100
AcDbEntity
  8
TEMPLATE
100
AcDbBlockReference
  2
block 2
 10
919.2743017702577
 20
8.373076514336368
 30
0.0
 41
0.3809999999999999
 42
0.3809999999999999
 43
0.3809999999999999
  0
MTEXT
  5
D60
330
A
100
AcDbEntity
  8
TEMPLATE
390
1D
100
AcDbMText
 10
664.601072273865
 20
115.0746453469641
 30
0.0
 40
12.21630859375
 41
0.0
 46
14.1953505859375
 71
     1
 72
     1
  1
{5.3kg}
  7
ＭＳ ゴシック
 73
     1
 44
0.7828267384257843
1001
ACAD
1000
ACAD_MTEXT_DEFINED_HEIGHT_BEGIN
1070
    46
1040
14.1953505859375
1000
ACAD_MTEXT_DEFINED_HEIGHT_END
  0
LWPOLYLINE
  5
D69
330
A
100
AcDbEntity
  8
BORDER
 48
0.05
100
AcDbPolyline
 90
        4
 70
     1
 43
0.0
 10
0.0
 20
0.0
 10
0.0
 20
1485.0
 10
1050.0
 20
1485.0
 10
1050.0
 20
0.0
  0
INSERT
  5
104E
330
A
100
AcDbEntity
  8
TEMPLATE
100
AcDbBlockReference
  2
block 2
 10
2015.046823636147
 20
6.771181470604894
 30
0.0
 41
0.3809999999999999
 42
0.3809999999999999
 43
0.3809999999999999
  0
LINE
  5
1051
330
A
100
AcDbEntity
  8
MODEL
100
AcDbLine
 10
127.8655286722417
 20
513.5436110013112
 30
0.0
 11
487.8655286722417
 21
513.5436110013112
 31
0.0
  0
LINE
  5
1052
330
A
100
AcDbEntity
  8
MODEL
100
AcDbLine
 10
127.8655286722417
 20
423.5436110013112
 30
0.0
 11
487.8655286722417
 21
423.5436110013112
 31
0.0
  0
LINE
  5
1053
330
A
100
AcDbEntity
  8
MODEL
100
AcDbLine
 10
487.8655286722417
 20
513.5436110013112
 30
0.0
 11
487.8655286722417
 21
423.5436110013112
 31
0.0
  0
LINE
  5
1054
330
A
100
AcDbEntity
  8
MODEL
100
AcDbLine
 10
127.8655286722417
 20
513.5436110013112
 30
0.0
 11
127.8655286722417
 21
423.5436110013112
 31
0.0
  0
LINE
  5
1055
330
A
100
AcDbEntity
  8
MODEL
100
AcDbLine
 10
678.1110269211727
 20
513.5436110013112
 30
0.0
 11
678.1110269211727
 21
423.5436110013112
 31
0.0
  0
LINE
  5
1056
102
{ACAD_REACTORS
330
1080
102
}
330
A
100
AcDbEntity
  8
MODEL
100
AcDbLine
 10
678.1110269211727
 20
513.5436110013112
 30
0.0
 11
923.111026921174
 21
513.5436110013112
 31
0.0
  0
LINE
  5
1057
102
{ACAD_REACTORS
330
1080
102
}
330
A
100
AcDbEntity
  8
MODEL
100
AcDbLine
 10
923.111026921174
 20
513.5436110013112
 30
0.0
 11
923.111026921174
 21
423.5436110013112
 31
0.0
  0
LINE
  5
1058
330
A
100
AcDbEntity
  8
MODEL
100
AcDbLine
 10
678.1110269211727
 20
423.5436110013112
 30
0.0
 11
923.111026921174
 21
423.5436110013112
 31
0.0
  0
SPLINE
  5
1059
330
A
100
AcDbEntity
  8
MODEL
100
AcDbSpline
210
0.0
220
0.0
230
1.0
 70
     8
 71
     3
 72
    28
 73
    24
 74
     0
 42
0.000000001
 43
0.00000001
 40
0.0
 40
0.0
 40
0.0
 40
0.0
 40
0.0230306495285226
 40
0.0459208413537027
 40
0.0686977653838741
 40
0.0913890187021305
 40
0.1140225117693786
 40
0.1366263690086071
 40
0.1592288254714035
 40
0.1818581214526727
 40
0.2045423970077378
 40
0.2273095883299614
 40
0.2501873278673841
 40
0.3751814861571967
 40
0.4997615996337568
 40
0.6245651630139566
 40
0.7492457907640303
 40
0.7912797654399996
 40
0.8329697955636515
 40
0.8745005112664569
 40
0.9160586660894183
 40
0.9578306455519218
 40
1.0
 40
1.0
 40
1.0
 40
1.0
 10
389.8595339576816
 20
1134.825373186422
 30
0.0
 10
389.9555124109422
 20
1134.824439648387
 30
0.0
 10
390.1468839708243
 20
1134.822578265722
 30
0.0
 10
390.4328449150573
 20
1134.807397174865
 30
0.0
 10
390.7167183044578
 20
1134.783124426566
 30
0.0
 10
390.9985031117023
 20
1134.74888611549
 30
0.0
 10
391.2781979691893
 20
1134.704914538122
 30
0.0
 10
391.5558016734969
 20
1134.651147608203
 30
0.0
 10
391.8313125395337
 20
1134.587602430821
 30
0.0
 10
392.1047306754201
 20
1134.514273526908
 30
0.0
 10
392.3760497050091
 20
1134.431167889014
 30
0.0
 10
392.6452879120454
 20
1134.338266112647
 30
0.0
 10
393.3090600045045
 20
1134.083221983054
 30
0.0
 10
394.324555344095
 20
1133.556759710487
 30
0.0
 10
395.5449704404321
 20
1132.569318924886
 30
0.0
 10
396.554006770107
 20
1131.368012258807
 30
0.0
 10
397.1341581680383
 20
1130.29028740752
 30
0.0
 10
397.4443334777181
 20
1129.478726766616
 30
0.0
 10
397.5981976513169
 20
1128.979517432786
 30
0.0
 10
397.7179447512638
 20
1128.473090215387
 30
0.0
 10
397.8028213109712
 20
1127.959421970188
 30
0.0
 10
397.8558318293865
 20
1127.438556043545
 30
0.0
 10
397.8622862063705
 20
1127.088689265334
 30
0.0
 10
397.8655286722417
 20
1126.912927748418
 30
0.0
  0
SPLINE
  5
105A
330
A
100
AcDbEntity
  8
MODEL
370
     0
100
AcDbSpline
210
0.0
220
0.0
230
1.0
 70
     8
 71
     3
 72
    30
 73
    26
 74
     0
 42
0.000000001
 43
0.00000001
 40
0.0
 40
0.0
 40
0.0
 40
0.0
 40
0.0624999999999991
 40
0.0624999999999991
 40
0.1249999999999982
 40
0.1249999999999982
 40
0.1874999999999973
 40
0.1874999999999973
 40
0.2499999999999964
 40
0.2499999999999964
 40
0.3749999999999947
 40
0.3749999999999947
 40
0.4374999999999949
 40
0.4374999999999949
 40
0.4999999999999951
 40
0.4999999999999951
 40
0.624999999999996
 40
0.624999999999996
 40
0.7499999999999969
 40
0.7499999999999969
 40
0.8124999999999977
 40
0.8124999999999977
 40
0.8749999999999984
 40
0.8749999999999984
 40
1.0
 40
1.0
 40
1.0
 40
1.0
 10
385.5724689508254
 20
1118.837785785056
 30
0.0
 10
385.5724922276088
 20
1119.167160349052
 30
0.0
 10
385.5557038758773
 20
1119.4936585819
 30
0.0
 10
385.4904941091693
 20
1120.141290410688
 30
0.0
 10
385.4420779449476
 20
1120.462424617303
 30
0.0
 10
385.3132840551618
 20
1121.099253041122
 30
0.0
 10
385.2328858955946
 20
1121.414942869106
 30
0.0
 10
385.0393007650084
 20
1122.040743687624
 30
0.0
 10
384.9257853173433
 20
1122.351087370846
 30
0.0
 10
384.5434747292886
 20
1123.252652369496
 30
0.0
 10
384.2313214958733
 20
1123.821912630066
 30
0.0
 10
383.6779767245018
 20
1124.628610405283
 30
0.0
 10
383.4780438072514
 20
1124.890947059889
 30
0.0
 10
383.05486101867
 20
1125.391766544476
 30
0.0
 10
382.8322402437182
 20
1125.62983612673
 30
0.0
 10
382.1323612952722
 20
1126.308235235713
 30
0.0
 10
381.6233971663271
 20
1126.713107731472
 30
0.0
 10
380.5189292720527
 20
1127.426123274929
 30
0.0
 10
379.9382435979744
 20
1127.724325429232
 30
0.0
 10
379.0333782571372
 20
1128.08491092748
 30
0.0
 10
378.7257084078949
 20
1128.19077709149
 30
0.0
 10
378.0981254389019
 20
1128.373552628667
 30
0.0
 10
377.777081729949
 20
1128.450571295145
 30
0.0
 10
376.8116443167703
 20
1128.633914725721
 30
0.0
 10
376.1607163708697
 20
1128.694532600229
 30
0.0
 10
375.5025658786701
 20
1128.69298281073
 30
0.0
  0
SPLINE
  5
105B
330
A
100
AcDbEntity
  8
MODEL
370
     0
100
AcDbSpline
210
0.0
220
0.0
230
1.0
 70
     8
 71
     3
 72
    30
 73
    26
 74
     0
 42
0.000000001
 43
0.00000001
 40
0.0
 40
0.0
 40
0.0
 40
0.0
 40
0.1249999999999999
 40
0.1249999999999999
 40
0.2499999999999999
 40
0.2499999999999999
 40
0.3124999999999999
 40
0.3124999999999999
 40
0.3749999999999998
 40
0.3749999999999998
 40
0.4374999999999998
 40
0.4374999999999998
 40
0.4999999999999998
 40
0.4999999999999998
 40
0.6249999999999993
 40
0.6249999999999993
 40
0.687499999999999
 40
0.687499999999999
 40
0.7499999999999988
 40
0.7499999999999988
 40
0.8750000000000007
 40
0.8750000000000007
 40
0.9375000000000003
 40
0.9375000000000003
 40
1.0
 40
1.0
 40
1.0
 40
1.0
 10
375.5030215580148
 20
980.9579621448044
 30
0.0
 10
376.1620709497486
 20
980.9565078613642
 30
0.0
 10
376.8087029226983
 20
981.0171656719014
 30
0.0
 10
378.0783478627811
 20
981.2565113645522
 30
0.0
 10
378.7013739085844
 20
981.4352657842663
 30
0.0
 10
379.617108210957
 20
981.7976204465643
 30
0.0
 10
379.9174827962554
 20
981.9337580399023
 30
0.0
 10
380.4978768576141
 20
982.2315113320452
 30
0.0
 10
380.7795206954208
 20
982.3937423738042
 30
0.0
 10
381.3258252973112
 20
982.7447174442183
 30
0.0
 10
381.5904856241189
 20
982.9334633892114
 30
0.0
 10
382.1024434259191
 20
983.3380760249182
 30
0.0
 10
382.3510031369908
 20
983.5552023910583
 30
0.0
 10
383.0595055567858
 20
984.2397091633803
 30
0.0
 10
383.4798003997269
 20
984.7360580841683
 30
0.0
 10
384.0337209559505
 20
985.5394097529403
 30
0.0
 10
384.20551740831
 20
985.8170677951324
 30
0.0
 10
384.5225148001875
 20
986.3928384911973
 30
0.0
 10
384.6667452811409
 20
986.6896087987674
 30
0.0
 10
385.049893686911
 20
987.5907368599923
 30
0.0
 10
385.2429258811674
 20
988.2116655567382
 30
0.0
 10
385.4397593482784
 20
989.1729346674302
 30
0.0
 10
385.489867782627
 20
989.4996796937643
 30
0.0
 10
385.5562832868902
 20
990.1545624120273
 30
0.0
 10
385.5729050960028
 20
990.4831927022334
 30
0.0
 10
385.5728572466517
 20
990.8130214230563
 30
0.0
  0
SPLINE
  5
105C
330
A
100
AcDbEntity
  8
MODEL
100
AcDbSpline
210
0.0
220
0.0
230
1.0
 70
     8
 71
     3
 72
    28
 73
    24
 74
     0
 42
0.000000001
 43
0.00000001
 40
0.0
 40
0.0
 40
0.0
 40
0.0
 40
0.0230099639272888
 40
0.0458782529308013
 40
0.0686339437744211
 40
0.091306546434942
 40
0.1139258960905474
 40
0.1365220388607757
 40
0.1591251134116335
 40
0.181765230726258
 40
0.2044723544256086
 40
0.2272761839983906
 40
0.2502060431667413
 40
0.3749237118303883
 40
0.4997635943543161
 40
0.6243028444450078
 40
0.749255455616212
 40
0.79120672508755
 40
0.8328616262632584
 40
0.8743937854968075
 40
0.9159783666078807
 40
0.9577898745776552
 40
1.0
 40
1.0
 40
1.0
 40
1.0
 10
397.8655286722417
 20
982.7378186119432
 30
0.0
 10
397.8645639384442
 20
982.6419258386062
 30
0.0
 10
397.8626404108229
 20
982.4507307144794
 30
0.0
 10
397.8469501289703
 20
982.1650571310253
 30
0.0
 10
397.8218625287147
 20
981.8815093620843
 30
0.0
 10
397.7864745338477
 20
981.6000886006783
 30
0.0
 10
397.7410262295518
 20
981.3207964061852
 30
0.0
 10
397.6854534784791
 20
981.0436341670624
 30
0.0
 10
397.6197740595937
 20
980.7686037379002
 30
0.0
 10
397.54398232063
 20
980.4957051883113
 30
0.0
 10
397.4580859093014
 20
980.2249449588033
 30
0.0
 10
397.3620637391716
 20
979.9563051226522
 30
0.0
 10
397.0993574782308
 20
979.2963633776652
 30
0.0
 10
396.557819973744
 20
978.2883082630334
 30
0.0
 10
395.5497621340776
 20
977.0861362783083
 30
0.0
 10
394.3302334158755
 20
976.0977388784423
 30
0.0
 10
393.2446608355197
 20
975.5337733770192
 30
0.0
 10
392.4289689471527
 20
975.2328480514353
 30
0.0
 10
391.9287705620638
 20
975.0839988378224
 30
0.0
 10
391.4214935390949
 20
974.9681538022613
 30
0.0
 10
390.9071105144733
 20
974.8860426768964
 30
0.0
 10
390.3856614326971
 20
974.8347569540764
 30
0.0
 10
390.0354636017721
 20
974.8285109865402
 30
0.0
 10
389.8595339778251
 20
974.8253731866404
 30
0.0
  0
SPLINE
  5
105D
330
A
100
AcDbEntity
  8
MODEL
100
AcDbSpline
210
0.0
220
0.0
230
1.0
 70
     8
 71
     3
 72
    28
 73
    24
 74
     0
 42
0.000000001
 43
0.00000001
 40
0.0
 40
0.0
 40
0.0
 40
0.0
 40
0.022993288137834
 40
0.0458503153855067
 40
0.0685994573050245
 40
0.0912694945747319
 40
0.1138895098224565
 40
0.1364887787944104
 40
0.159096657832227
 40
0.1817424697932064
 40
0.2044553906185339
 40
0.2272643387250412
 40
0.2501978692708366
 40
0.3750240494000022
 40
0.4997750560278417
 40
0.6244781927435267
 40
0.7492561435693552
 40
0.7912975525965787
 40
0.8329978095438486
 40
0.8745366855829028
 40
0.9160960461693287
 40
0.9578574891372454
 40
1.0
 40
1.0
 40
1.0
 40
1.0
 10
147.8655153968459
 20
1126.852190382755
 30
0.0
 10
147.8664698893856
 20
1126.948147610966
 30
0.0
 10
147.8683732180264
 20
1127.139493413733
 30
0.0
 10
147.8838970700247
 20
1127.425430680838
 30
0.0
 10
147.9087174902991
 20
1127.709315171031
 30
0.0
 10
147.9437285349334
 20
1127.991145746362
 30
0.0
 10
147.9886924210798
 20
1128.270920921195
 30
0.0
 10
148.0436726704168
 20
1128.548639381065
 30
0.0
 10
148.1086516832031
 20
1128.82429934785
 30
0.0
 10
148.1836350320821
 20
1129.097900822989
 30
0.0
 10
148.2686153283678
 20
1129.369437442821
 30
0.0
 10
148.363612889528
 20
1129.638927162216
 30
0.0
 10
148.6236604209528
 20
1130.301513309159
 30
0.0
 10
149.1595281957773
 20
1131.31429739397
 30
0.0
 10
150.1592866108979
 20
1132.526998312115
 30
0.0
 10
151.3711128347961
 20
1133.527659853452
 30
0.0
 10
152.4538408002093
 20
1134.101693723315
 30
0.0
 10
153.268416359527
 20
1134.408674641947
 30
0.0
 10
153.7689980112202
 20
1134.560888223388
 30
0.0
 10
154.2765480294977
 20
1134.679353960068
 30
0.0
 10
154.7910910568037
 20
1134.763323893369
 30
0.0
 10
155.3125852064488
 20
1134.815774133423
 30
0.0
 10
155.6627845405558
 20
1134.822163828712
 30
0.0
 10
155.8386794604951
 20
1134.825373186447
 30
0.0
  0
SPLINE
  5
105E
330
A
100
AcDbEntity
  8
MODEL
370
     0
100
AcDbSpline
210
0.0
220
0.0
230
1.0
 70
     8
 71
     3
 72
    28
 73
    24
 74
     0
 42
0.000000001
 43
0.00000001
 40
0.0
 40
0.0
 40
0.0
 40
0.0
 40
0.1250000000000066
 40
0.1250000000000066
 40
0.187500000000007
 40
0.187500000000007
 40
0.2500000000000074
 40
0.2500000000000074
 40
0.3750000000000073
 40
0.3750000000000073
 40
0.5000000000000072
 40
0.5000000000000072
 40
0.6250000000000071
 40
0.6250000000000071
 40
0.6875000000000059
 40
0.6875000000000059
 40
0.7500000000000048
 40
0.7500000000000048
 40
0.8125000000000036
 40
0.8125000000000036
 40
0.8750000000000024
 40
0.8750000000000024
 40
1.0
 40
1.0
 40
1.0
 40
1.0
 10
163.5488864382035
 20
1129.105320585079
 30
0.0
 10
162.8907474782511
 20
1129.108859852223
 30
0.0
 10
162.2431449379012
 20
1129.049244597559
 30
0.0
 10
161.286736507672
 20
1128.867747281384
 30
0.0
 10
160.9704665821585
 20
1128.791822270583
 30
0.0
 10
160.3431185362635
 20
1128.608310616027
 30
0.0
 10
160.0308756192674
 20
1128.50010482238
 30
0.0
 10
159.1217153539958
 20
1128.134055464996
 30
0.0
 10
158.5463316299513
 20
1127.833992922368
 30
0.0
 10
157.4567027227833
 20
1127.122316049778
 30
0.0
 10
156.9392550654914
 20
1126.706018900976
 30
0.0
 10
156.0111487216539
 20
1125.793491511251
 30
0.0
 10
155.5948028505438
 20
1125.294730994302
 30
0.0
 10
155.0434292279199
 20
1124.48141749414
 30
0.0
 10
154.8717105360895
 20
1124.198584945485
 30
0.0
 10
154.5606880503049
 20
1123.623457830775
 30
0.0
 10
154.4202960678042
 20
1123.329723762142
 30
0.0
 10
154.1691931645685
 20
1122.730141808953
 30
0.0
 10
154.0584834293998
 20
1122.424293280482
 30
0.0
 10
153.8670528705927
 20
1121.800354453285
 30
0.0
 10
153.7860957266087
 20
1121.481019595352
 30
0.0
 10
153.5917072912173
 20
1120.512894709113
 30
0.0
 10
153.5270005656123
 20
1119.860376459377
 30
0.0
 10
153.5269961831866
 20
1119.200782788846
 30
0.0
  0
SPLINE
  5
105F
330
A
100
AcDbEntity
  8
MODEL
100
AcDbSpline
210
0.0
220
0.0
230
1.0
 70
     8
 71
     3
 72
    28
 73
    24
 74
     0
 42
0.000000001
 43
0.00000001
 40
0.0
 40
0.0
 40
0.0
 40
0.0
 40
0.0229932881484806
 40
0.0458503154021268
 40
0.0685994573239201
 40
0.091269494593205
 40
0.1138895098388395
 40
0.1364887788080699
 40
0.1590966578435634
 40
0.181742469803672
 40
0.204455390630602
 40
0.2272643387421961
 40
0.2501978692975487
 40
0.3750240494168456
 40
0.49977505602999
 40
0.6244781927318238
 40
0.7492561435478945
 40
0.7912975525877499
 40
0.8329978095355653
 40
0.8745366855693607
 40
0.9160960461511649
 40
0.9578574891215161
 40
1.0
 40
1.0
 40
1.0
 40
1.0
 10
155.8386793915281
 20
974.8253731864332
 30
0.0
 10
155.742722163842
 20
974.8263279045433
 30
0.0
 10
155.5513763621414
 20
974.8282316829913
 30
0.0
 10
155.265439126478
 20
974.8437562075902
 30
0.0
 10
154.9815546896818
 20
974.8685772959633
 30
0.0
 10
154.6997241918045
 20
974.9035890042193
 30
0.0
 10
154.4199491179181
 20
974.9485535494983
 30
0.0
 10
154.1422307826481
 20
975.0035344534782
 30
0.0
 10
153.8665709640748
 20
975.0685141164114
 30
0.0
 10
153.5929696607629
 20
975.1434981109534
 30
0.0
 10
153.3214332363671
 20
975.2284790483842
 30
0.0
 10
153.0519437360538
 20
975.3234772462293
 30
0.0
 10
152.3893581904515
 20
975.5835263438472
 30
0.0
 10
151.376575351763
 20
976.1193965170293
 30
0.0
 10
150.1638767742945
 20
977.1191578147094
 30
0.0
 10
149.1632180821937
 20
978.3309864271124
 30
0.0
 10
148.5891867676648
 20
979.4137157717722
 30
0.0
 10
148.2822077754711
 20
980.2282920733172
 30
0.0
 10
148.1299953790688
 20
980.7288740949274
 30
0.0
 10
148.0115308451689
 20
981.2364244032414
 30
0.0
 10
147.9275621324589
 20
981.7509676389212
 30
0.0
 10
147.8751131306137
 20
982.2724619223574
 30
0.0
 10
147.8687242678163
 20
982.6226612778354
 30
0.0
 10
147.8655153282191
 20
982.7985562085354
 30
0.0
  0
SPLINE
  5
1060
330
A
100
AcDbEntity
  8
MODEL
370
     0
100
AcDbSpline
210
0.0
220
0.0
230
1.0
 70
     8
 71
     3
 72
    30
 73
    26
 74
     0
 42
0.000000001
 43
0.00000001
 40
0.0
 40
0.0
 40
0.0
 40
0.0
 40
0.125
 40
0.125
 40
0.1874999999999982
 40
0.1874999999999982
 40
0.2499999999999964
 40
0.2499999999999964
 40
0.3749999999999952
 40
0.3749999999999952
 40
0.4374999999999957
 40
0.4374999999999957
 40
0.4999999999999962
 40
0.4999999999999962
 40
0.6249999999999972
 40
0.6249999999999972
 40
0.6874999999999977
 40
0.6874999999999977
 40
0.7499999999999981
 40
0.7499999999999981
 40
0.8124999999999987
 40
0.8124999999999987
 40
0.8749999999999991
 40
0.8749999999999991
 40
1.0
 40
1.0
 40
1.0
 40
1.0
 10
153.5269648836941
 20
990.4498237495842
 30
0.0
 10
153.5269656541307
 20
989.7903707234233
 30
0.0
 10
153.5916798080318
 20
989.1419317367164
 30
0.0
 10
153.7825928571431
 20
988.1852524469263
 30
0.0
 10
153.8619795332063
 20
987.8690404369894
 30
0.0
 10
154.0530778028199
 20
987.2421194648904
 30
0.0
 10
154.1652562619231
 20
986.9307990672513
 30
0.0
 10
154.5432505214314
 20
986.0258802022632
 30
0.0
 10
154.8518831816921
 20
985.4540957959954
 30
0.0
 10
155.3992702880817
 20
984.6433743862882
 30
0.0
 10
155.596893561554
 20
984.3798546208253
 30
0.0
 10
156.0169208085383
 20
983.8747870129242
 30
0.0
 10
156.2379307226868
 20
983.6346478674942
 30
0.0
 10
156.9329119970782
 20
982.9502405412253
 30
0.0
 10
157.4385344976138
 20
982.5416434219634
 30
0.0
 10
158.2618772304843
 20
982.0018933563164
 30
0.0
 10
158.5458535865648
 20
981.8353576370292
 30
0.0
 10
159.1234707259639
 20
981.5336259288644
 30
0.0
 10
159.4183985866541
 20
981.3975653147044
 30
0.0
 10
160.020303611301
 20
981.1545821162343
 30
0.0
 10
160.3272811984255
 20
981.0476579667173
 30
0.0
 10
160.9534390782512
 20
980.8633298361873
 30
0.0
 10
161.2740923601516
 20
980.7857131431464
 30
0.0
 10
162.2400221941855
 20
980.6014826913143
 30
0.0
 10
162.8909403869886
 20
980.5418908790574
 30
0.0
 10
163.5490945753038
 20
980.5453152827773
 30
0.0
  0
LINE
  5
1061
102
{ACAD_REACTORS
330
106F
330
1072
102
}
330
A
100
AcDbEntity
  8
MODEL
100
AcDbLine
 10
487.8655286722417
 20
1199.825373186494
 30
0.0
 11
127.8655286722417
 21
1199.825373186494
 31
0.0
  0
LINE
  5
1062
102
{ACAD_REACTORS
330
1455
330
1465
102
}
330
A
100
AcDbEntity
  8
MODEL
100
AcDbLine
 10
487.8655286722417
 20
954.8253731864944
 30
0.0
 11
487.8655286722417
 21
1199.825373186494
 31
0.0
  0
LINE
  5
1063
102
{ACAD_REACTORS
330
1072
102
}
330
A
100
AcDbEntity
  8
MODEL
100
AcDbLine
 10
127.8655286722417
 20
954.8253731864944
 30
0.0
 11
487.8655286722417
 21
954.8253731864944
 31
0.0
  0
LINE
  5
1064
102
{ACAD_REACTORS
330
106F
102
}
330
A
100
AcDbEntity
  8
MODEL
100
AcDbLine
 10
127.8655286722417
 20
1199.825373186494
 30
0.0
 11
127.8655286722417
 21
954.8253731864944
 31
0.0
  0
LWPOLYLINE
  5
1065
330
A
100
AcDbEntity
  8
MODEL
100
AcDbPolyline
 90
        4
 70
   128
 43
0.0
 10
147.8655153967641
 20
1126.852190382755
 10
147.8655544140759
 20
1107.740703365472
 10
147.8656005019504
 20
1054.824587079381
 10
147.8655153281336
 20
982.7985562085433
  0
LINE
  5
1066
330
A
100
AcDbEntity
  8
MODEL
100
AcDbLine
 10
155.8386793915281
 20
974.8253731864332
 30
0.0
 11
389.8595339778251
 21
974.8253731866404
 31
0.0
  0
LINE
  5
1067
330
A
100
AcDbEntity
  8
MODEL
100
AcDbLine
 10
397.8655286722417
 20
1126.912927748418
 30
0.0
 11
397.8655286722417
 21
982.7378186119432
 31
0.0
  0
LINE
  5
1068
330
A
100
AcDbEntity
  8
MODEL
100
AcDbLine
 10
389.8595339576816
 20
1134.825373186422
 30
0.0
 11
155.8386794604969
 21
1134.825373186447
 31
0.0
  0
LWPOLYLINE
  5
1069
330
A
100
AcDbEntity
  8
MODEL
370
     0
100
AcDbPolyline
 90
        6
 70
   128
 43
0.0
 10
153.5269648835995
 20
990.4498237520103
 10
153.5269922172804
 20
1016.080787163989
 10
153.527022362344
 20
1041.711750567066
 10
153.5270225613269
 20
1067.342713970434
 10
153.5269923410408
 20
1093.271748378794
 10
153.5269961830993
 20
1119.200782788846
  0
SPLINE
  5
106A
330
A
100
AcDbEntity
  8
MODEL
370
     0
100
AcDbSpline
210
0.0
220
0.0
230
1.0
 70
     8
 71
     3
 72
    15
 73
    11
 74
     0
 42
0.000000001
 43
0.00000001
 40
0.0
 40
0.0
 40
0.0
 40
0.0
 40
0.2500000000000001
 40
0.2500000000000001
 40
0.5000000000000001
 40
0.7500000000000002
 40
0.7500000000000002
 40
0.8750000000000001
 40
0.8750000000000001
 40
1.0
 40
1.0
 40
1.0
 40
1.0
 10
385.5724689508254
 20
1118.837785785056
 30
0.0
 10
385.5717149955046
 20
1108.169055573313
 30
0.0
 10
385.5721078415802
 20
1097.500325052004
 30
0.0
 10
385.5720655085454
 20
1076.162864232899
 30
0.0
 10
385.5720209485764
 20
1054.825403410088
 30
0.0
 10
385.572064970703
 20
1033.487942588458
 30
0.0
 10
385.5720971176409
 20
1017.484846971992
 30
0.0
 10
385.5721070248794
 20
1012.150481765956
 30
0.0
 10
385.5721105376317
 20
1001.48175134284
 30
0.0
 10
385.5720833725529
 20
996.1473861116993
 30
0.0
 10
385.5728572466517
 20
990.8130214230563
 30
0.0
  0
SPLINE
  5
106B
330
A
100
AcDbEntity
  8
MODEL
370
     0
100
AcDbSpline
210
0.0
220
0.0
230
1.0
 70
     8
 71
     3
 72
    34
 73
    30
 74
     0
 42
0.000000001
 43
0.00000001
 40
0.0
 40
0.0
 40
0.0
 40
0.0
 40
0.0624999999999998
 40
0.0624999999999998
 40
0.1249999999999996
 40
0.1249999999999996
 40
0.2499999999999995
 40
0.2499999999999995
 40
0.4999999999999998
 40
0.4999999999999998
 40
0.6249999999999999
 40
0.6249999999999999
 40
0.6875
 40
0.6875
 40
0.75
 40
0.75
 40
0.8125
 40
0.8125
 40
0.875
 40
0.875
 40
0.90625
 40
0.90625
 40
0.9375
 40
0.9375
 40
0.96875
 40
0.96875
 40
0.984375
 40
0.984375
 40
1.0
 40
1.0
 40
1.0
 40
1.0
 10
163.5488864382035
 20
1129.105320585079
 30
0.0
 10
167.958796374219
 20
1129.081605457596
 30
0.0
 10
172.3687116505419
 20
1129.057902827446
 30
0.0
 10
181.1903203120376
 20
1129.014658670608
 30
0.0
 10
185.6018912249867
 20
1128.994830536269
 30
0.0
 10
198.8382245331643
 20
1128.939138565127
 30
0.0
 10
207.6647291331112
 20
1128.907351809471
 30
0.0
 10
234.1500544537441
 20
1128.825591575556
 30
0.0
 10
251.8144572764879
 20
1128.788665532885
 30
0.0
 10
278.3173342141647
 20
1128.74800293661
 30
0.0
 10
287.1518251007558
 20
1128.736779143996
 30
0.0
 10
300.4037358249418
 20
1128.721990094961
 30
0.0
 10
304.8210613170406
 20
1128.717317627682
 30
0.0
 10
313.6557647845559
 20
1128.708588621872
 30
0.0
 10
318.0731537450822
 20
1128.704661001249
 30
0.0
 10
326.9079126581121
 20
1128.696582687508
 30
0.0
 10
331.3252713650866
 20
1128.692300020111
 30
0.0
 10
340.1600049228502
 20
1128.683924144546
 30
0.0
 10
344.5773906935713
 20
1128.679959089362
 30
0.0
 10
351.2037000997291
 20
1128.676719521141
 30
0.0
 10
353.4124821922644
 20
1128.675783902564
 30
0.0
 10
357.8300948956451
 20
1128.674482061896
 30
0.0
 10
360.0389468143178
 20
1128.674365902222
 30
0.0
 10
364.4568184621432
 20
1128.676102956962
 30
0.0
 10
366.6658117878571
 20
1128.677646308444
 30
0.0
 10
369.9795293348518
 20
1128.682631893987
 30
0.0
 10
371.0841106447726
 20
1128.684396962622
 30
0.0
 10
373.2933102454256
 20
1128.68836109572
 30
0.0
 10
374.3979133222213
 20
1128.69038161395
 30
0.0
 10
375.5025658786683
 20
1128.69298281073
 30
0.0
  0
SPLINE
  5
106C
330
A
100
AcDbEntity
  8
MODEL
370
     0
100
AcDbSpline
210
0.0
220
0.0
230
1.0
 70
     8
 71
     3
 72
    30
 73
    26
 74
     0
 42
0.000000001
 43
0.00000001
 40
0.0
 40
0.0
 40
0.0
 40
0.0
 40
0.015625
 40
0.015625
 40
0.03125
 40
0.03125
 40
0.0625
 40
0.0625
 40
0.09375
 40
0.09375
 40
0.125
 40
0.125
 40
0.1875
 40
0.1875
 40
0.25
 40
0.25
 40
0.5000000000000001
 40
0.5000000000000001
 40
0.6250000000000001
 40
0.6250000000000001
 40
0.75
 40
0.75
 40
0.875
 40
0.875
 40
1.0
 40
1.0
 40
1.0
 40
1.0
 10
375.5030215580148
 20
980.9579621448044
 30
0.0
 10
374.3988980138431
 20
980.9603985457924
 30
0.0
 10
373.2947234205196
 20
980.9625491886742
 30
0.0
 10
371.0863429131562
 20
980.9666751502863
 30
0.0
 10
369.9821290185675
 20
980.9686057962764
 30
0.0
 10
366.6692637003628
 20
980.9731458944603
 30
0.0
 10
364.4603897360096
 20
980.9746902796234
 30
0.0
 10
360.0425266236446
 20
980.9763712846453
 30
0.0
 10
357.8336928480778
 20
980.9761390677644
 30
0.0
 10
353.4160673581384
 20
980.9752131941833
 30
0.0
 10
351.2072793229738
 20
980.9744791741883
 30
0.0
 10
344.5810311212911
 20
980.9710055710833
 30
0.0
 10
340.1637235114824
 20
980.9665923377923
 30
0.0
 10
331.3290668277798
 20
980.9582207602992
 30
0.0
 10
326.911711053129
 20
980.9543359278813
 30
0.0
 10
304.82500551423
 20
980.9341072384392
 30
0.0
 10
287.1557772142926
 20
980.9163473507773
 30
0.0
 10
260.6543938884017
 20
980.8756428578503
 30
0.0
 10
251.8209694825593
 20
980.8596588405034
 30
0.0
 10
234.1566116202332
 20
980.8207384576652
 30
0.0
 10
225.3255824741075
 20
980.7977020819973
 30
0.0
 10
207.6661419715304
 20
980.7434872015994
 30
0.0
 10
198.837883354435
 20
980.7125587822933
 30
0.0
 10
181.1887922766975
 20
980.6365706983462
 30
0.0
 10
172.3686950180575
 20
980.5912040320303
 30
0.0
 10
163.5490945753038
 20
980.5453152827773
 30
0.0
  0
DIMENSION
  5
106D
102
{ACAD_REACTORS
330
106F
102
}
102
{ACAD_XDICTIONARY
360
106E
102
}
330
A
100
AcDbEntity
  8
DIM
  6
Continuous
100
AcDbDimension
  2
*D27
 10
487.8655286722417
 20
1270.73265666292
 30
0.0
 11
307.8655286722417
 21
1270.73265666292
 31
0.0
 70
   160
 71
     5
 42
360.0
 73
     0
 74
     0
 75
     0
  3
tfrom線あり
100
AcDbAlignedDimension
 13
127.8655286722417
 23
1199.825373186494
 33
0.0
 14
487.8655286722417
 24
1199.825373186494
 34
0.0
100
AcDbRotatedDimension
  0
DIMENSION
  5
1070
102
{ACAD_REACTORS
330
1072
102
}
102
{ACAD_XDICTIONARY
360
1071
102
}
330
A
100
AcDbEntity
  8
DIM
  6
Continuous
100
AcDbDimension
  2
*D28
 10
557.8215613146402
 20
954.8253731864944
 30
0.0
 11
557.8215613146402
 21
1077.325373186494
 31
0.0
 70
   160
 71
     5
 42
244.9999999999997
 73
     0
 74
     0
 75
     0
  3
tfrom線あり
100
AcDbAlignedDimension
 13
487.8655286722417
 23
1199.825373186494
 33
0.0
 14
487.8655286722417
 24
954.8253731864944
 34
0.0
 50
90.0
100
AcDbRotatedDimension
  0
DIMENSION
  5
1073
330
A
100
AcDbEntity
  8
DIM
  6
Continuous
100
AcDbDimension
  2
*D29
 10
397.8655286722417
 20
907.9325401599609
 30
0.0
 11
272.8655264067315
 21
907.9325401599609
 31
0.0
 70
   160
 71
     5
 42
250.0000045310205
 73
     0
 74
     0
 75
     0
  3
tfrom線あり
100
AcDbAlignedDimension
 13
147.8655241412212
 23
978.6021948240973
 33
0.0
 14
397.8655286722417
 24
978.6021948240973
 34
0.0
100
AcDbRotatedDimension
  0
DIMENSION
  5
1074
330
A
100
AcDbEntity
  8
DIM
  6
Continuous
100
AcDbDimension
  2
*D30
 10
82.98519810034418
 20
974.8253731864332
 30
0.0
 11
66.98519810034418
 21
1054.82537318644
 31
0.0
 70
    32
 71
     5
 42
160.0000000000138
 73
     0
 74
     0
 75
     0
  3
tfrom線あり
100
AcDbAlignedDimension
 13
151.814440390949
 23
1134.825373186447
 33
0.0
 14
151.8144403219802
 24
974.8253731864332
 34
0.0
 50
90.0
100
AcDbRotatedDimension
  0
DIMENSION
  5
1075
330
A
100
AcDbEntity
  8
DIM
  6
Continuous
100
AcDbDimension
  2
*D31
 10
82.98519810034418
 20
1199.825373186494
 30
0.0
 11
82.98519810034418
 21
1167.325373186472
 31
0.0
 70
   160
 71
     5
 42
65.00000000004707
 73
     0
 74
     0
 75
     0
  3
tfrom線あり
100
AcDbAlignedDimension
 13
141.814440390949
 23
1134.825373186447
 33
0.0
 14
127.8655286722417
 24
1199.825373186494
 34
0.0
 50
90.0
100
AcDbRotatedDimension
  0
CIRCLE
  5
1078
102
{ACAD_REACTORS
330
1465
102
}
330
A
100
AcDbEntity
  8
HIDDEN
  6
HIDDEN
 48
0.05
100
AcDbCircle
 10
437.8655286722417
 20
1054.825373186494
 30
0.0
 40
17.5
  0
ARC
  5
1079
330
A
100
AcDbEntity
  8
MODEL
100
AcDbCircle
 10
357.8655286722417
 20
1036.825373186494
 30
0.0
 40
8.000000000000114
100
AcDbArc
 50
180.0
 51
359.9999999992183
  0
LINE
  5
107A
330
A
100
AcDbEntity
  8
MODEL
100
AcDbLine
 10
365.8655286722417
 20
1036.825373186385
 30
0.0
 11
365.8655286722417
 21
1072.8253731868
 31
0.0
  0
ARC
  5
107B
330
A
100
AcDbEntity
  8
MODEL
100
AcDbCircle
 10
357.8655286722417
 20
1072.825373186495
 30
0.0
 40
8.000000000000114
100
AcDbArc
 50
0.000000002182115
 51
180.0
  0
LINE
  5
107C
330
A
100
AcDbEntity
  8
MODEL
100
AcDbLine
 10
349.8655286722417
 20
1072.825373186495
 30
0.0
 11
349.8655286722417
 21
1036.825373186494
 31
0.0
  0
CIRCLE
  5
107D
330
A
100
AcDbEntity
  8
HIDDEN
  6
HIDDEN
 48
0.05
370
     0
100
AcDbCircle
 10
357.8655286722417
 20
1054.825373186494
 30
0.0
 40
26.5
  0
DIMENSION
  5
1081
330
A
100
AcDbEntity
  8
DIM
  6
Continuous
100
AcDbDimension
  2
*D33
 10
634.1420285133215
 20
423.5436110013112
 30
0.0
 11
634.1420285133215
 21
468.5436110013112
 31
0.0
 70
   160
 71
     5
 42
90.0
 73
     0
 74
     0
 75
     0
 52
-90.0
  3
tfrom線あり
100
AcDbAlignedDimension
 13
678.7433964683055
 23
513.5436110013112
 33
0.0
 14
678.7433964683055
 24
423.5436110013112
 34
0.0
 50
90.00000000000001
100
AcDbRotatedDimension
  0
DIMENSION
  5
1082
330
A
100
AcDbEntity
  8
DIM
  6
Continuous
100
AcDbDimension
  2
*D34
 10
192.8655286722417
 20
544.5557088983886
 30
0.0
 11
160.3655286722417
 21
544.5557088983886
 31
0.0
 70
   160
 71
     5
 42
65.00000000000001
 73
     0
 74
     0
 75
     0
  3
tfrom線あり
100
AcDbAlignedDimension
 13
127.8655286722417
 23
513.5436110013112
 33
0.0
 14
192.8655286722417
 24
499.2205847243197
 34
0.0
100
AcDbRotatedDimension
  0
DIMENSION
  5
1084
330
A
100
AcDbEntity
  8
DIM
  6
Continuous
100
AcDbDimension
  2
*D36
 10
437.8655286722417
 20
543.4177053479656
 30
0.0
 11
462.8655286722417
 21
543.4177053479656
 31
0.0
 70
   160
 71
     5
 42
50.0
 73
     0
 74
     0
 75
     0
  3
tfrom線あり
100
AcDbAlignedDimension
 13
487.8655286722417
 23
513.5436110013112
 33
0.0
 14
437.8655286722417
 24
499.2476606783936
 34
0.0
100
AcDbRotatedDimension
  0
DIMENSION
  5
1086
330
A
100
AcDbEntity
  8
DIM
  6
Continuous
100
AcDbDimension
  2
*D38
 10
357.8655286722417
 20
309.063262401945
 30
0.0
 11
422.8655286722417
 21
309.063262401945
 31
0.0
 70
   160
 71
     5
 42
130.0
 73
     0
 74
     0
 75
     0
  3
tfrom線あり
100
AcDbAlignedDimension
 13
487.8655286722417
 23
423.5436110013112
 33
0.0
 14
357.8655286722417
 24
346.8232164512763
 34
0.0
100
AcDbRotatedDimension
  0
DIMENSION
  5
1087
330
A
100
AcDbEntity
  8
DIM
  6
Continuous
100
AcDbDimension
  2
*D39
 10
778.1110269211717
 20
344.8045777871228
 30
0.0
 11
850.611026921174
 21
344.8045777871228
 31
0.0
 70
   160
 71
     5
 42
145.0000000000023
 73
     0
 74
     0
 75
     0
  3
tfrom線あり
100
AcDbAlignedDimension
 13
923.111026921174
 23
424.3548600140896
 33
0.0
 14
778.1110269211717
 24
403.5436110013112
 34
0.0
100
AcDbRotatedDimension
  0
MTEXT
  5
1088
330
A
100
AcDbEntity
  8
MODEL
390
1D
100
AcDbMText
 10
620.5375311188784
 20
846.2727728809872
 30
0.0
 40
12.0
 41
949.7161250932047
 46
52.63573827890803
 71
     1
 72
     1
  1
{\C7;※陶器製品には寸法公差がありますので、\P　必ず現物合わせでカウンターに切込を\P　行ってください。}
  7
ＭＳ ゴシック
 73
     1
 44
0.9822934569727008
1001
ACAD
1000
ACAD_MTEXT_DEFINED_HEIGHT_BEGIN
1070
    46
1040
52.63573827890803
1000
ACAD_MTEXT_DEFINED_HEIGHT_END
  0
LINE
  5
1089
102
{ACAD_REACTORS
330
106F
330
1072
102
}
330
A
100
AcDbEntity
  8
HIDDEN
  6
HIDDEN
 48
0.05
100
AcDbLine
 10
939.1137981934548
 20
1199.825373186494
 30
0.0
 11
579.1137981934548
 21
1199.825373186494
 31
0.0
  0
LINE
  5
108A
102
{ACAD_REACTORS
330
1095
102
}
330
A
100
AcDbEntity
  8
HIDDEN
  6
HIDDEN
 48
0.05
100
AcDbLine
 10
939.1137981934548
 20
954.8253731864944
 30
0.0
 11
939.1137981934548
 21
1199.825373186494
 31
0.0
  0
LINE
  5
108B
102
{ACAD_REACTORS
330
1072
102
}
330
A
100
AcDbEntity
  8
HIDDEN
  6
HIDDEN
 48
0.05
100
AcDbLine
 10
579.1137981934548
 20
954.8253731864944
 30
0.0
 11
939.1137981934548
 21
954.8253731864944
 31
0.0
  0
LINE
  5
108C
102
{ACAD_REACTORS
330
106F
102
}
330
A
100
AcDbEntity
  8
HIDDEN
  6
HIDDEN
 48
0.05
100
AcDbLine
 10
579.1137981934548
 20
1199.825373186494
 30
0.0
 11
579.1137981934548
 21
954.8253731864944
 31
0.0
  0
CIRCLE
  5
108D
330
A
100
AcDbEntity
  8
HIDDEN
  6
HIDDEN
 48
0.05
370
     0
100
AcDbCircle
 10
889.1137981934548
 20
1054.825373186494
 30
0.0
 40
17.5
  0
CIRCLE
  5
1092
330
A
100
AcDbEntity
  8
HIDDEN
  6
HIDDEN
 48
0.05
370
     0
100
AcDbCircle
 10
809.1137981934548
 20
1054.825373186494
 30
0.0
 40
26.5
  0
DIMENSION
  5
1093
102
{ACAD_REACTORS
330
1095
102
}
102
{ACAD_XDICTIONARY
360
1094
102
}
330
A
100
AcDbEntity
  8
DIM
  6
Continuous
100
AcDbDimension
  2
*D40
 10
989.1662186017579
 20
1104.825373186494
 30
0.0
 11
973.1662186017579
 21
1152.325373186494
 31
0.0
 70
    32
 71
     5
 42
95.0
 73
     0
 74
     0
 75
     0
  3
tfrom線あり
100
AcDbAlignedDimension
 13
939.1137981934548
 23
1199.825373186494
 33
0.0
 14
919.1137981934548
 24
1104.825373186494
 34
0.0
 50
90.0
100
AcDbRotatedDimension
  0
DIMENSION
  5
1096
330
A
100
AcDbEntity
  8
DIM
  6
Continuous
100
AcDbDimension
  2
*D41
 10
989.1662186017579
 20
1004.825373186494
 30
0.0
 11
973.1662186017579
 21
1054.825373186494
 31
0.0
 70
    32
 71
     5
 42
100.0000000000001
 73
     0
 74
     0
 75
     0
  3
tfrom線あり
100
AcDbAlignedDimension
 13
919.1137981934548
 23
1104.825373186494
 33
0.0
 14
919.1137981934539
 24
1004.825373186494
 34
0.0
 50
90.0
100
AcDbRotatedDimension
  0
LINE
  5
1097
102
{ACAD_REACTORS
330
1098
102
}
330
A
100
AcDbEntity
  8
MODEL
  6
Continuous
100
AcDbLine
 10
919.1137981934539
 20
1004.825373186494
 30
0.0
 11
749.1137981934539
 21
1004.825373186494
 31
0.0
  0
HATCH
  5
1098
330
A
100
AcDbEntity
  8
MODEL
  6
Continuous
100
AcDbHatch
 10
0.0
 20
0.0
 30
0.0
210
0.0
220
0.0
230
1.0
  2
ANSI31
 70
     0
 71
     1
 91
        1
 92
        1
 93
        4
 72
     1
 10
749.1137981934539
 20
1004.825373186494
 11
749.1137981934548
 21
1104.825373186494
 72
     1
 10
919.1137981934548
 20
1104.825373186494
 11
749.1137981934539
 21
1104.825373186494
 72
     1
 10
919.1137981934539
 20
1004.825373186494
 11
919.1137981934548
 21
1104.825373186494
 72
     1
 10
919.1137981934539
 20
1004.825373186494
 11
749.1137981934539
 21
1004.825373186494
 97
        4
330
109B
330
1099
330
109A
330
1097
 75
     0
 76
     1
 52
0.0
 41
3.0
 77
     0
 78
     1
 53
45.0
 43
0.0
 44
0.0
 45
-6.735192090801863
 46
6.735192090801865
 79
     0
 98
        1
 10
2236.736332533658
 20
-995.3925093804087
1001
ACAD
1010
0.0
1020
0.0
1030
0.0
  0
LINE
  5
1099
102
{ACAD_REACTORS
330
1098
102
}
330
A
100
AcDbEntity
  8
MODEL
  6
Continuous
100
AcDbLine
 10
919.1137981934548
 20
1104.825373186494
 30
0.0
 11
749.1137981934539
 21
1104.825373186494
 31
0.0
  0
LINE
  5
109A
102
{ACAD_REACTORS
330
1098
102
}
330
A
100
AcDbEntity
  8
MODEL
  6
Continuous
100
AcDbLine
 10
919.1137981934539
 20
1004.825373186494
 30
0.0
 11
919.1137981934548
 21
1104.825373186494
 31
0.0
  0
LINE
  5
109B
102
{ACAD_REACTORS
330
1098
102
}
330
A
100
AcDbEntity
  8
MODEL
  6
Continuous
100
AcDbLine
 10
749.1137981934539
 20
1004.825373186494
 30
0.0
 11
749.1137981934548
 21
1104.825373186494
 31
0.0
  0
DIMENSION
  5
109C
330
A
100
AcDbEntity
  8
DIM
  6
Continuous
100
AcDbDimension
  2
*D42
 10
919.1137981934539
 20
906.4764136773102
 30
0.0
 11
929.113798193453
 21
906.4764136773102
 31
0.0
 70
   160
 71
     5
 42
20.00000000000092
 73
     0
 74
     0
 75
     0
  3
tfrom線あり
100
AcDbAlignedDimension
 13
939.1137981934548
 23
954.8253731864944
 33
0.0
 14
919.1137981934539
 24
1004.825373186494
 34
0.0
 50
-0.000000000000007
100
AcDbRotatedDimension
1001
ACAD
1000
DSTYLE
1002
{
1070
   172
1070
     1
1002
}
  0
DIMENSION
  5
109D
330
A
100
AcDbEntity
  8
DIM
  6
Continuous
100
AcDbDimension
  2
*D43
 10
749.1137981934539
 20
906.4764136773102
 30
0.0
 11
834.1137981934539
 21
922.4764136773102
 31
0.0
 70
    32
 71
     5
 42
170.0
 73
     0
 74
     0
 75
     0
  3
tfrom線あり
100
AcDbAlignedDimension
 13
919.1137981934539
 23
1004.825373186494
 33
0.0
 14
749.1137981934539
 24
1004.825373186494
 34
0.0
 50
-0.000000000000007
100
AcDbRotatedDimension
  0
MTEXT
  5
109E
330
A
100
AcDbEntity
  8
MODEL
390
1D
100
AcDbMText
 10
114.8012309888583
 20
838.405981162054
 30
0.0
 40
12.0
 41
829.0626663944752
 46
29.52329017633032
 71
     1
 72
     1
  1
{\C7;＝φ30もしくはφ35の水栓取付用穴あけ加工を承ります。\P  必要な場合、ご注文の際にご指示ください。}
  7
ＭＳ ゴシック
 73
     1
 44
0.9822934569727008
1001
ACAD
1000
ACAD_MTEXT_DEFINED_HEIGHT_BEGIN
1070
    46
1040
29.52329017633032
1000
ACAD_MTEXT_DEFINED_HEIGHT_END
  0
MTEXT
  5
10A0
330
A
100
AcDbEntity
  8
DIM
 62
     7
390
1D
100
AcDbMText
 10
705.5698755783706
 20
1294.611358163609
 30
0.0
 40
12.0
 41
0.0
 46
0.0
 71
     1
 72
     1
  1
カウンター切込寸法
  7
ＭＳ ゴシック
 73
     1
 44
0.7828267384257843
  0
DIMENSION
  5
10A1
330
A
100
AcDbEntity
  8
DIM
  6
Continuous
100
AcDbDimension
  2
*D44
 10
778.1110269211736
 20
437.9417576127734
 30
0.0
 11
778.1110269211736
 21
562.9889955745099
 31
0.0
 70
   160
  1
75(深さ)
 71
     5
 42
75.60185338853785
 73
     0
 74
     1
 75
     1
  3
tfrom線あり
100
AcDbAlignedDimension
 13
801.222286902947
 23
513.5436110013112
 33
0.0
 14
778.111026921174
 24
437.9417576127734
 34
0.0
 50
89.99999999999999
100
AcDbRotatedDimension
1001
ACAD
1000
DSTYLE
1002
{
1070
     3
1000
<>
1070
   172
1070
     1
1070
    75
1070
     1
1070
    76
1070
     1
1002
}
  0
LINE
  5
10A2
330
A
100
AcDbEntity
  8
HIDDEN
  6
HIDDEN
 48
0.025
100
AcDbLine
 10
200.3655286722417
 20
483.0436110013111
 30
0.0
 11
200.3655286722417
 21
468.0436110013111
 31
0.0
  0
ARC
  5
10A3
330
A
100
AcDbEntity
  8
HIDDEN
  6
HIDDEN
 48
0.025
100
AcDbCircle
 10
192.8655286722417
 20
483.0436110013111
 30
0.0
 40
7.5
100
AcDbArc
 50
0.0
 51
180.0
  0
ARC
  5
10A4
330
A
100
AcDbEntity
  8
HIDDEN
  6
HIDDEN
 48
0.025
100
AcDbCircle
 10
192.8655286722417
 20
468.0436110013111
 30
0.0
 40
7.5
100
AcDbArc
 50
180.0
 51
0.0
  0
LINE
  5
10A5
330
A
100
AcDbEntity
  8
HIDDEN
  6
HIDDEN
 48
0.025
100
AcDbLine
 10
185.3655286722417
 20
483.0436110013111
 30
0.0
 11
185.3655286722417
 21
468.0436110013111
 31
0.0
  0
ARC
  5
10A6
330
A
100
AcDbEntity
  8
HIDDEN
  6
HIDDEN
 48
0.025
100
AcDbCircle
 10
430.3655286722417
 20
475.5436110013112
 30
0.0
 40
7.5
100
AcDbArc
 50
90.0
 51
270.0
  0
ARC
  5
10A7
330
A
100
AcDbEntity
  8
HIDDEN
  6
HIDDEN
 48
0.025
100
AcDbCircle
 10
445.3655286722417
 20
475.5436110013112
 30
0.0
 40
7.5
100
AcDbArc
 50
270.0
 51
90.0
  0
LINE
  5
10A8
330
A
100
AcDbEntity
  8
HIDDEN
  6
HIDDEN
 48
0.025
100
AcDbLine
 10
430.3655286722417
 20
468.0436110013112
 30
0.0
 11
445.3655286722417
 21
468.0436110013112
 31
0.0
  0
LINE
  5
10A9
330
A
100
AcDbEntity
  8
HIDDEN
  6
HIDDEN
 48
0.025
100
AcDbLine
 10
430.3655286722417
 20
483.0436110013112
 30
0.0
 11
445.3655286722417
 21
483.0436110013112
 31
0.0
  0
LINE
  5
10AA
330
A
100
AcDbEntity
  8
HIDDEN
  6
Continuous
100
AcDbLine
 10
349.1155286720887
 20
444.3349484236902
 30
0.0
 11
349.1155286720887
 21
442.2106751295672
 31
0.0
  0
LINE
  5
10AB
330
A
100
AcDbEntity
  8
HIDDEN
  6
Continuous
100
AcDbLine
 10
366.6155286720887
 20
444.3349484236902
 30
0.0
 11
366.6155286720887
 21
442.2106751295672
 31
0.0
  0
LINE
  5
10AC
330
A
100
AcDbEntity
  8
HIDDEN
  6
Continuous
100
AcDbLine
 10
366.6155286720887
 20
444.3349484236902
 30
0.0
 11
349.1155286720887
 21
444.3349484236902
 31
0.0
  0
LINE
  5
10AD
330
A
100
AcDbEntity
  8
HIDDEN
  6
Continuous
100
AcDbLine
 10
349.1155286720887
 20
442.2106751295672
 30
0.0
 11
366.6155286720887
 21
442.2106751295672
 31
0.0
  0
LINE
  5
10AE
330
A
100
AcDbEntity
  8
HIDDEN
  6
Continuous
100
AcDbLine
 10
360.8332551405238
 20
442.2106751295672
 30
0.0
 11
360.8332551405238
 21
427.2423034336604
 31
0.0
  0
LINE
  5
10AF
330
A
100
AcDbEntity
  8
HIDDEN
  6
Continuous
100
AcDbLine
 10
354.8978022036538
 20
442.2106751295672
 30
0.0
 11
354.8978022036538
 21
427.2423034336604
 31
0.0
  0
LINE
  5
10B0
330
A
100
AcDbEntity
  8
HIDDEN
  6
HIDDEN
 48
0.05
100
AcDbLine
 10
388.6595474135588
 20
443.5585590770353
 30
0.0
 11
397.7597364517299
 21
510.9451003754162
 31
0.0
  0
LINE
  5
10B1
330
A
100
AcDbEntity
  8
HIDDEN
  6
HIDDEN
 48
0.05
100
AcDbLine
 10
360.8332551405238
 20
432.8771430654393
 30
0.0
 11
361.8416623946127
 21
436.4337386595122
 31
0.0
  0
LINE
  5
10B2
330
A
100
AcDbEntity
  8
HIDDEN
  6
HIDDEN
 48
0.05
100
AcDbLine
 10
354.8978022036538
 20
432.8771430654393
 30
0.0
 11
353.8823657538298
 21
436.4585302370073
 31
0.0
  0
LINE
  5
10B3
330
A
100
AcDbEntity
  8
HIDDEN
  6
HIDDEN
 48
0.05
100
AcDbLine
 10
157.2114717518027
 20
447.0354404212222
 30
0.0
 11
351.1259381870768
 21
438.6373833745832
 31
0.0
  0
LINE
  5
10B4
330
A
100
AcDbEntity
  8
HIDDEN
  6
HIDDEN
 48
0.05
100
AcDbLine
 10
364.6317920982099
 20
438.6138616187424
 30
0.0
 11
383.8646929790718
 21
439.2302740464032
 31
0.0
  0
ARC
  5
10B5
330
A
100
AcDbEntity
  8
HIDDEN
  6
HIDDEN
 48
0.05
100
AcDbCircle
 10
383.7045257512898
 20
444.2277080338753
 30
0.0
 40
5.000000000000002
100
AcDbArc
 50
271.8356952721939
 51
352.3090421547625
  0
ARC
  5
10B6
330
A
100
AcDbEntity
  8
HIDDEN
  6
HIDDEN
 48
0.05
100
AcDbCircle
 10
364.7278924348789
 20
435.6154012262592
 30
0.0
 40
2.999999999999999
100
AcDbArc
 50
91.83569527218955
 51
164.1702907108026
  0
ARC
  5
10B7
330
A
100
AcDbEntity
  8
HIDDEN
  6
HIDDEN
 48
0.05
100
AcDbCircle
 10
350.9961357135628
 20
435.6401928037532
 30
0.0
 40
2.999999999999998
100
AcDbArc
 50
15.82970928919944
 51
87.52018122017294
  0
LINE
  5
10B8
330
A
100
AcDbEntity
  8
HIDDEN
  6
Continuous
100
AcDbLine
 10
358.8332551405238
 20
425.2423034336604
 30
0.0
 11
356.8978022036538
 21
425.2423034336604
 31
0.0
  0
ARC
  5
10B9
330
A
100
AcDbEntity
  8
HIDDEN
  6
Continuous
100
AcDbCircle
 10
358.8332551405238
 20
427.2423034336604
 30
0.0
 40
2.000000000000001
100
AcDbArc
 50
270.0
 51
0.0
  0
ARC
  5
10BA
330
A
100
AcDbEntity
  8
HIDDEN
  6
Continuous
100
AcDbCircle
 10
356.8978022036538
 20
427.2423034336604
 30
0.0
 40
2.000000000000001
100
AcDbArc
 50
180.0
 51
270.0
  0
LINE
  5
10BB
330
A
100
AcDbEntity
  8
HIDDEN
  6
HIDDEN
 48
0.025
100
AcDbLine
 10
331.3655286720887
 20
439.4931681410443
 30
0.0
 11
331.3655286720887
 21
423.5436110013112
 31
0.0
  0
LINE
  5
10BC
330
A
100
AcDbEntity
  8
HIDDEN
  6
HIDDEN
 48
0.025
100
AcDbLine
 10
384.3655286720887
 20
439.2715931099973
 30
0.0
 11
384.3655286720887
 21
423.5436110013112
 31
0.0
  0
ARC
  5
10BD
330
A
100
AcDbEntity
  8
HIDDEN
  6
HIDDEN
 48
0.05
100
AcDbCircle
 10
400.7327494490908
 20
510.5436110013112
 30
0.0
 40
3.000000000000001
100
AcDbArc
 50
90.0
 51
172.3090421547624
  0
LINE
  5
10BE
330
A
100
AcDbEntity
  8
HIDDEN
  6
HIDDEN
 48
0.05
100
AcDbLine
 10
148.0710072935008
 20
510.7648449575072
 30
0.0
 11
152.4414234266258
 21
451.6620347789463
 31
0.0
  0
ARC
  5
10BF
330
A
100
AcDbEntity
  8
HIDDEN
  6
HIDDEN
 48
0.05
100
AcDbCircle
 10
157.4278092076597
 20
452.0307580392713
 30
0.0
 40
5.000000000000001
100
AcDbArc
 50
184.2290964118336
 51
267.5201812201764
  0
ARC
  5
10C0
330
A
100
AcDbEntity
  8
HIDDEN
  6
HIDDEN
 48
0.05
100
AcDbCircle
 10
145.0791758248808
 20
510.5436110013112
 30
0.0
 40
3.0
100
AcDbArc
 50
4.229096411835325
 51
90.0
  0
LINE
  5
10C1
330
A
100
AcDbEntity
  8
HIDDEN
  6
HIDDEN
 48
0.05
100
AcDbLine
 10
708.2343129551277
 20
511.6753005593582
 30
0.0
 11
712.6508313646559
 21
444.7461667637293
 31
0.0
  0
LINE
  5
10C2
330
A
100
AcDbEntity
  8
HIDDEN
  6
HIDDEN
 48
0.05
100
AcDbLine
 10
778.1110269211717
 20
437.9417576127734
 30
0.0
 11
718.541998045414
 21
439.1420004909484
 31
0.0
  0
LINE
  5
10C3
330
A
100
AcDbEntity
  8
HIDDEN
  6
HIDDEN
 48
0.025
100
AcDbLine
 10
751.6110269211717
 20
436.6455481700904
 30
0.0
 11
751.6110269211717
 21
423.5436110013112
 31
0.0
  0
ARC
  5
10C4
330
A
100
AcDbEntity
  8
HIDDEN
  6
HIDDEN
 48
0.05
100
AcDbCircle
 10
749.7869811524001
 20
436.7214047583712
 30
0.0
 40
1.825622411279926
100
AcDbArc
 50
357.6186127349806
 51
77.6183580648771
  0
ARC
  5
10C5
330
A
100
AcDbEntity
  8
HIDDEN
  6
HIDDEN
 48
0.05
100
AcDbCircle
 10
706.238653199483
 20
511.5436110013112
 30
0.0
 40
2.0
100
AcDbArc
 50
3.775359333312235
 51
90.0
  0
ARC
  5
10C6
330
A
100
AcDbEntity
  8
HIDDEN
  6
HIDDEN
 48
0.05
100
AcDbCircle
 10
718.6378106315901
 20
445.1412354378673
 30
0.0
 40
6.0
100
AcDbArc
 50
183.7753593333099
 51
269.0850183082105
  0
LINE
  5
10C7
330
A
100
AcDbEntity
  8
HIDDEN
  6
HIDDEN
 48
0.05
100
AcDbLine
 10
778.1110269211717
 20
437.9417576127734
 30
0.0
 11
837.6800557969332
 21
439.1420004909484
 31
0.0
  0
LINE
  5
10C8
330
A
100
AcDbEntity
  8
HIDDEN
  6
HIDDEN
 48
0.025
100
AcDbLine
 10
804.611026921174
 20
436.6455481700904
 30
0.0
 11
804.611026921174
 21
423.5436110013112
 31
0.0
  0
LINE
  5
10C9
330
A
100
AcDbEntity
  8
HIDDEN
  6
HIDDEN
 48
0.05
100
AcDbLine
 10
847.9877408872189
 20
511.6753005593582
 30
0.0
 11
843.5712224776912
 21
444.7461667637293
 31
0.0
  0
ARC
  5
10CA
330
A
100
AcDbEntity
  8
HIDDEN
  6
HIDDEN
 48
0.05
100
AcDbCircle
 10
837.5842432107552
 20
445.1412354378673
 30
0.0
 40
6.0
100
AcDbArc
 50
270.9149816917808
 51
356.22464066669
  0
ARC
  5
10CB
330
A
100
AcDbEntity
  8
HIDDEN
  6
HIDDEN
 48
0.05
100
AcDbCircle
 10
849.9834006428641
 20
511.5436110013112
 30
0.0
 40
2.0
100
AcDbArc
 50
90.0
 51
176.2246406666878
  0
ARC
  5
10DC
330
A
100
AcDbEntity
  8
HIDDEN
  6
HIDDEN
 48
0.05
100
AcDbCircle
 10
806.4350726899479
 20
436.7214047583712
 30
0.0
 40
1.825622411279926
100
AcDbArc
 50
102.3816419351229
 51
182.3813872650194
  0
CIRCLE
  5
13C4
330
A
100
AcDbEntity
  8
MODEL
  6
HIDDEN
 48
0.02
390
1D
100
AcDbCircle
 10
102.7391262915755
 20
830.868898941323
 30
0.0
 40
7.480904845869645
  0
DIMENSION
  5
13D1
330
A
100
AcDbEntity
  8
DIM
 48
0.05
100
AcDbDimension
  2
*D52
 10
86.55324008253649
 20
475.5436110013112
 30
0.0
 11
70.55324008253649
 21
494.5436110013112
 31
0.0
 70
    32
 71
     5
 42
38.0
 73
     0
 74
     0
 75
     0
  3
tfrom線あり
100
AcDbAlignedDimension
 13
127.8655286722417
 23
513.5436110013112
 33
0.0
 14
168.970746456795
 24
475.5436110013112
 34
0.0
 50
90.0
100
AcDbRotatedDimension
  0
DIMENSION
  5
13DE
330
A
100
AcDbEntity
  8
DIM
 48
0.05
100
AcDbDimension
  2
*D53
 10
530.5866997313922
 20
475.5436110013113
 30
0.0
 11
514.5866997313922
 21
494.5436110013113
 31
0.0
 70
    32
 71
     5
 42
37.99999999999989
 73
     0
 74
     0
 75
     0
  3
tfrom線あり
100
AcDbAlignedDimension
 13
487.8655286722417
 23
513.5436110013112
 33
0.0
 14
461.569578349324
 24
475.5436110013113
 34
0.0
 50
90.0
100
AcDbRotatedDimension
  0
LINE
  5
13F8
330
A
100
AcDbEntity
  8
MODEL
  6
CENTER
 48
0.01
100
AcDbLine
 10
216.569578349324
 20
475.5436110013113
 30
0.0
 11
169.1614789951593
 21
475.5436110013113
 31
0.0
  0
LINE
  5
13F9
330
A
100
AcDbEntity
  8
MODEL
  6
CENTER
 48
0.01
100
AcDbLine
 10
192.8655286722417
 20
499.2476606783936
 30
0.0
 11
192.8655286722417
 21
451.8395613242287
 31
0.0
  0
LINE
  5
13FA
330
A
100
AcDbEntity
  8
MODEL
  6
CENTER
 48
0.01
100
AcDbLine
 10
461.569578349324
 20
475.5436110013113
 30
0.0
 11
414.1614789951593
 21
475.5436110013113
 31
0.0
  0
LINE
  5
13FB
330
A
100
AcDbEntity
  8
MODEL
  6
CENTER
 48
0.01
100
AcDbLine
 10
437.8655286722417
 20
499.2476606783936
 30
0.0
 11
437.8655286722417
 21
451.8395613242287
 31
0.0
  0
DIMENSION
  5
140B
330
A
100
AcDbEntity
  8
DIM
 48
0.05
100
AcDbDimension
  2
*D54
 10
568.6375061761702
 20
403.5436110013112
 30
0.0
 11
552.6375061761702
 21
458.5436110013112
 31
0.0
 70
    32
 71
     5
 42
110.0
 73
     0
 74
     0
 75
     0
  3
tfrom線あり
100
AcDbAlignedDimension
 13
487.8655286722417
 23
513.5436110013112
 33
0.0
 14
378.8655286720888
 24
403.5436110013112
 34
0.0
 50
90.0
100
AcDbRotatedDimension
  0
DIMENSION
  5
1419
330
A
100
AcDbEntity
  8
DIM
 48
0.05
100
AcDbDimension
  2
*D55
 10
378.8655286720888
 20
372.0280722107314
 30
0.0
 11
357.8655286720888
 21
372.0280722107314
 31
0.0
 70
   160
  1
G1 1/4"
 71
     5
 42
42.0
 73
     0
 74
     0
 75
     0
  3
tfrom線あり
100
AcDbAlignedDimension
 13
336.8655286720888
 23
403.5436110013112
 33
0.0
 14
378.8655286720888
 24
403.5436110013112
 34
0.0
100
AcDbRotatedDimension
1001
ACAD
1000
DSTYLE
1002
{
1070
    77
1070
     2
1002
}
  0
HATCH
  5
141A
330
A
100
AcDbEntity
  8
HIDDEN
  6
Continuous
 48
0.05
370
     0
100
AcDbHatch
 10
0.0
 20
0.0
 30
0.0
210
0.0
220
0.0
230
1.0
  2
ANSI31
 70
     0
 71
     1
 91
        1
 92
        1
 93
        4
 72
     1
 10
378.8655286720888
 20
415.9478497009216
 11
378.8655286720888
 21
403.5436110013112
 72
     1
 10
339.5052114134128
 20
415.9478497009216
 11
376.2258459307648
 21
415.9478497009216
 72
     1
 10
336.8655286720888
 20
415.9478497009216
 11
336.8655286720888
 21
403.5436110013112
 72
     1
 10
336.8655286720888
 20
403.5436110013112
 11
378.8655286720888
 21
403.5436110013112
 97
        4
330
141D
330
141F
330
141C
330
141B
 75
     0
 76
     1
 52
145.0
 41
0.9999999999999974
 77
     0
 78
     1
 53
189.9999999999995
 43
114.9143243506915
 44
-40.82468638329198
 45
0.5513329640925042
 46
-3.12676461581376
 79
     0
 98
        1
 10
114.9143243506915
 20
-40.82468638329198
1001
ACAD
1010
0.0
1020
0.0
1030
0.0
  0
LINE
  5
141B
102
{ACAD_REACTORS
330
141A
102
}
330
A
100
AcDbEntity
  8
HIDDEN
  6
Continuous
 48
0.05
100
AcDbLine
 10
336.8655286720888
 20
403.5436110013112
 30
0.0
 11
378.8655286720888
 21
403.5436110013112
 31
0.0
  0
LINE
  5
141C
102
{ACAD_REACTORS
330
141A
102
}
330
A
100
AcDbEntity
  8
HIDDEN
  6
Continuous
 48
0.05
100
AcDbLine
 10
336.8655286720888
 20
415.9478497009216
 30
0.0
 11
336.8655286720888
 21
403.5436110013112
 31
0.0
  0
LINE
  5
141D
102
{ACAD_REACTORS
330
141A
102
}
330
A
100
AcDbEntity
  8
HIDDEN
  6
Continuous
 48
0.05
100
AcDbLine
 10
378.8655286720888
 20
415.9478497009216
 30
0.0
 11
378.8655286720888
 21
403.5436110013112
 31
0.0
  0
LINE
  5
141E
330
A
100
AcDbEntity
  8
HIDDEN
  6
Continuous
 48
0.05
100
AcDbLine
 10
387.0368796597829
 20
415.9478497009216
 30
0.0
 11
328.6941776843946
 21
415.9478497009216
 31
0.0
  0
LINE
  5
141F
102
{ACAD_REACTORS
330
141A
102
}
330
A
100
AcDbEntity
  8
HIDDEN
  6
Continuous
 48
0.05
100
AcDbLine
 10
339.5052114134128
 20
415.9478497009216
 30
0.0
 11
376.2258459307648
 21
415.9478497009216
 31
0.0
  0
LINE
  5
1420
330
A
100
AcDbEntity
  8
HIDDEN
  6
Continuous
 48
0.05
100
AcDbLine
 10
328.6941776843946
 20
415.9478497009216
 30
0.0
 11
328.6941776843946
 21
423.5436110013112
 31
0.0
  0
LINE
  5
1421
330
A
100
AcDbEntity
  8
HIDDEN
  6
Continuous
 48
0.05
100
AcDbLine
 10
387.0368796597829
 20
415.9478497009216
 30
0.0
 11
387.0368796597829
 21
423.5436110013112
 31
0.0
  0
HATCH
  5
142F
330
A
100
AcDbEntity
  8
HIDDEN
  6
Continuous
 48
0.05
370
     0
100
AcDbHatch
 10
0.0
 20
0.0
 30
0.0
210
0.0
220
0.0
230
1.0
  2
ANSI31
 70
     0
 71
     1
 91
        1
 92
        1
 93
        4
 72
     1
 10
799.1110269211717
 20
415.9478497009216
 11
799.1110269211717
 21
403.5436110013112
 72
     1
 10
759.7507096624958
 20
415.9478497009216
 11
796.4713441798477
 21
415.9478497009216
 72
     1
 10
757.1110269211717
 20
415.9478497009216
 11
757.1110269211717
 21
403.5436110013112
 72
     1
 10
757.1110269211717
 20
403.5436110013112
 11
799.1110269211717
 21
403.5436110013112
 97
        4
330
1432
330
1434
330
1431
330
1430
 75
     0
 76
     1
 52
145.0
 41
0.9999999999999974
 77
     0
 78
     1
 53
189.9999999999995
 43
535.1598225997744
 44
-40.82468638329198
 45
0.5513329640925042
 46
-3.12676461581376
 79
     0
 98
        1
 10
535.1598225997744
 20
-40.82468638329198
1001
ACAD
1010
0.0
1020
0.0
1030
0.0
  0
LINE
  5
1430
102
{ACAD_REACTORS
330
142F
102
}
330
A
100
AcDbEntity
  8
HIDDEN
  6
Continuous
 48
0.05
100
AcDbLine
 10
757.1110269211717
 20
403.5436110013112
 30
0.0
 11
799.1110269211717
 21
403.5436110013112
 31
0.0
  0
LINE
  5
1431
102
{ACAD_REACTORS
330
142F
102
}
330
A
100
AcDbEntity
  8
HIDDEN
  6
Continuous
 48
0.05
100
AcDbLine
 10
757.1110269211717
 20
415.9478497009216
 30
0.0
 11
757.1110269211717
 21
403.5436110013112
 31
0.0
  0
LINE
  5
1432
102
{ACAD_REACTORS
330
142F
102
}
330
A
100
AcDbEntity
  8
HIDDEN
  6
Continuous
 48
0.05
100
AcDbLine
 10
799.1110269211717
 20
415.9478497009216
 30
0.0
 11
799.1110269211717
 21
403.5436110013112
 31
0.0
  0
LINE
  5
1433
330
A
100
AcDbEntity
  8
HIDDEN
  6
Continuous
 48
0.05
100
AcDbLine
 10
807.2823779088658
 20
415.9478497009216
 30
0.0
 11
748.9396759334776
 21
415.9478497009216
 31
0.0
  0
LINE
  5
1434
102
{ACAD_REACTORS
330
142F
102
}
330
A
100
AcDbEntity
  8
HIDDEN
  6
Continuous
 48
0.05
100
AcDbLine
 10
759.7507096624958
 20
415.9478497009216
 30
0.0
 11
796.4713441798477
 21
415.9478497009216
 31
0.0
  0
LINE
  5
1435
330
A
100
AcDbEntity
  8
HIDDEN
  6
Continuous
 48
0.05
100
AcDbLine
 10
748.9396759334776
 20
415.9478497009216
 30
0.0
 11
748.9396759334776
 21
423.5436110013112
 31
0.0
  0
LINE
  5
1436
330
A
100
AcDbEntity
  8
HIDDEN
  6
Continuous
 48
0.05
100
AcDbLine
 10
807.2823779088658
 20
415.9478497009216
 30
0.0
 11
807.2823779088658
 21
423.5436110013112
 31
0.0
  0
LINE
  5
1438
330
A
100
AcDbEntity
  8
HIDDEN
  6
HIDDEN
 48
0.05
100
AcDbLine
 10
751.6110269211717
 20
444.3349484236902
 30
0.0
 11
804.6110269211717
 21
444.3349484236902
 31
0.0
  0
LINE
  5
1439
330
A
100
AcDbEntity
  8
HIDDEN
  6
HIDDEN
 48
0.05
100
AcDbLine
 10
804.6110269211717
 20
444.3349484236902
 30
0.0
 11
804.6110269211717
 21
442.2106751295672
 31
0.0
  0
LINE
  5
143A
330
A
100
AcDbEntity
  8
HIDDEN
  6
HIDDEN
 48
0.05
100
AcDbLine
 10
804.6110269211717
 20
442.2106751295672
 30
0.0
 11
751.6110269211717
 21
442.2106751295672
 31
0.0
  0
LINE
  5
143B
330
A
100
AcDbEntity
  8
HIDDEN
  6
HIDDEN
 48
0.05
100
AcDbLine
 10
769.3615985106558
 20
442.2106751295672
 30
0.0
 11
773.6882957993776
 21
436.7672875941352
 31
0.0
  0
LINE
  5
143C
330
A
100
AcDbEntity
  8
HIDDEN
  6
HIDDEN
 48
0.05
100
AcDbLine
 10
786.8604553316886
 20
442.2106751295672
 30
0.0
 11
782.5337580429664
 21
436.7672875941352
 31
0.0
  0
LINE
  5
143D
330
A
100
AcDbEntity
  8
HIDDEN
  6
HIDDEN
 48
0.05
100
AcDbLine
 10
773.6882957993776
 20
432.3593953965273
 30
0.0
 11
772.2316512548355
 21
434.5633414953312
 31
0.0
  0
LINE
  5
143E
330
A
100
AcDbEntity
  8
HIDDEN
  6
HIDDEN
 48
0.05
100
AcDbLine
 10
782.5337580429664
 20
432.3593953965273
 30
0.0
 11
783.9904025875085
 21
434.5633414953312
 31
0.0
  0
LINE
  5
143F
330
A
100
AcDbEntity
  8
HIDDEN
  6
HIDDEN
 48
0.05
100
AcDbLine
 10
773.6882957993776
 20
436.7672875941352
 30
0.0
 11
772.2316512548355
 21
434.5633414953312
 31
0.0
  0
LINE
  5
1440
330
A
100
AcDbEntity
  8
HIDDEN
  6
HIDDEN
 48
0.05
100
AcDbLine
 10
782.5337580429664
 20
436.7672875941352
 30
0.0
 11
783.9904025875085
 21
434.5633414953312
 31
0.0
  0
LINE
  5
1441
330
A
100
AcDbEntity
  8
HIDDEN
 48
0.05
100
AcDbLine
 10
780.0532196472269
 20
432.1569494736272
 30
0.0
 11
780.0532196472269
 21
423.5436110013112
 31
0.0
  0
LINE
  5
1442
330
A
100
AcDbEntity
  8
HIDDEN
 48
0.05
100
AcDbLine
 10
776.1688341951167
 20
432.1569494736272
 30
0.0
 11
776.1688341951165
 21
423.5436110013112
 31
0.0
  0
LINE
  5
1443
330
A
100
AcDbEntity
  8
HIDDEN
  6
HIDDEN
 48
0.05
100
AcDbLine
 10
751.6110269211717
 20
442.2106751295672
 30
0.0
 11
751.6110269211717
 21
444.3349484236902
 31
0.0
  0
DIMENSION
  5
1453
102
{ACAD_REACTORS
330
1455
102
}
102
{ACAD_XDICTIONARY
360
1454
102
}
330
A
100
AcDbEntity
  8
DIM
 48
0.05
100
AcDbDimension
  2
*D56
 10
437.8655286722417
 20
1229.871548387431
 30
0.0
 11
462.8655286722417
 21
1245.871548387431
 31
0.0
 70
    32
 71
     5
 42
50.0
 73
     0
 74
     0
 75
     0
  3
tfrom線あり
100
AcDbAlignedDimension
 13
487.8655286722417
 23
1199.825373186494
 33
0.0
 14
437.8655286722417
 24
1072.325373186494
 34
0.0
100
AcDbRotatedDimension
  0
DIMENSION
  5
1463
102
{ACAD_REACTORS
330
1465
102
}
102
{ACAD_XDICTIONARY
360
1464
102
}
330
A
100
AcDbEntity
  8
DIM
 48
0.05
100
AcDbDimension
  2
*D57
 10
524.7381775743187
 20
1054.825373186494
 30
0.0
 11
508.7381775743187
 21
1127.325373186494
 31
0.0
 70
    32
 71
     5
 42
145.0
 73
     0
 74
     0
 75
     0
  3
tfrom線あり
100
AcDbAlignedDimension
 13
487.8655286722417
 23
1199.825373186494
 33
0.0
 14
455.3655286722417
 24
1054.825373186494
 34
0.0
 50
90.0
100
AcDbRotatedDimension
  0
MTEXT
  5
14DD
102
{ACAD_XDICTIONARY
360
14DE
102
}
330
A
100
AcDbEntity
  8
TEMPLATE
 48
0.05
100
AcDbMText
 10
36.77207227396724
 20
44.79687537756335
 30
0.0
 40
11.0
 41
0.0
 46
11.0
 71
     1
 72
     1
  1
{20160715N}
  7
ＭＳ ゴシック
 73
     1
 44
1.0
1001
ACAD
1000
ACAD_MTEXT_DEFINED_HEIGHT_BEGIN
1070
    46
1040
11.0
1000
ACAD_MTEXT_DEFINED_HEIGHT_END
  0
LINE
  5
152E
330
A
100
AcDbEntity
  8
DIM
  6
Continuous
100
AcDbLine
 10
425.960511774658
 20
481.6136872884761
 30
0.0
 11
309.2295745210952
 21
598.8320248359635
 31
0.0
  0
LINE
  5
152F
330
A
100
AcDbEntity
  8
DIM
  6
Continuous
100
AcDbLine
 10
199.3482922395018
 20
486.8150532361869
 30
0.0
 11
309.2295745210952
 21
598.8320248359635
 31
0.0
  0
MTEXT
  5
1530
330
A
100
AcDbEntity
  8
DIM
390
1D
100
AcDbMText
 10
225.8416400585793
 20
623.1505239875273
 30
0.0
 40
12.0
 41
542.920144539582
 46
13.64561669921875
 71
     1
 72
     1
  1
{\C7;壁取付ボルト位置(2ヶ所)}
  7
ＭＳ ゴシック
 73
     1
 44
0.9822934569727008
1001
ACAD
1000
ACAD_MTEXT_DEFINED_HEIGHT_BEGIN
1070
    46
1040
13.64561669921875
1000
ACAD_MTEXT_DEFINED_HEIGHT_END
  0
VIEWPORT
  5
349
330
B
100
AcDbEntity
 67
     1
  8
0
100
AcDbViewport
 10
202.5
 20
128.5
 30
0.0
 40
486.0
 41
308.4
 68
     1
 69
     1
 12
202.5
 22
128.5
 13
0.0
 23
0.0
 14
0.5
 24
0.5
 15
0.0
 25
0.0
 16
0.0
 26
0.0
 36
1.0
 17
0.0
 27
0.0
 37
0.0
 42
50.0
 43
0.0
 44
0.0
 45
308.4
 50
0.0
 51
0.0
 72
   100
 90
   557152
  1

281
     0
 71
     1
 74
     0
110
0.0
120
0.0
130
0.0
111
1.0
121
0.0
131
0.0
112
0.0
122
1.0
132
0.0
 79
     0
146
0.0
170
     0
 61
     5
348
26C
292
     1
282
     1
141
0.0
142
0.0
 63
   256
  0
VIEWPORT
  5
34A
330
B
100
AcDbEntity
 67
     1
  8
0
100
AcDbViewport
 10
202.5
 20
128.5
 30
0.0
 40
324.0
 41
205.6
 68
     2
 69
     2
 12
986.6781359294573
 22
1427.077061889956
 13
0.0
 23
0.0
 14
0.5
 24
0.5
 15
0.0
 25
0.0
 16
0.0
 26
0.0
 36
1.0
 17
0.0
 27
0.0
 37
0.0
 42
50.0
 43
0.0
 44
0.0
 45
2890.021615685494
 50
0.0
 51
0.0
 72
   100
 90
   557152
  1

281
     0
 71
     1
 74
     0
110
0.0
120
0.0
130
0.0
111
1.0
121
0.0
131
0.0
112
0.0
122
1.0
132
0.0
 79
     0
146
0.0
170
     0
 61
     5
348
26C
292
     1
282
     1
141
0.0
142
0.0
 63
   256
  0
ENDSEC
  0
SECTION
  2
OBJECTS
  0
DICTIONARY
  5
19
330
0
100
AcDbDictionary
281
     1
  3
ACAD_COLOR
350
674
  3
ACAD_DETAILVIEWSTYLE
350
BBF
  3
ACAD_FIELDLIST
350
14DB
  3
ACAD_GROUP
350
1A
  3
ACAD_IMAGE_VARS
350
27B
  3
ACAD_LAYOUT
350
1E
  3
ACAD_MATERIAL
350
263
  3
ACAD_MLEADERSTYLE
350
336
  3
ACAD_MLINESTYLE
350
1B
  3
ACAD_PLOTSETTINGS
350
22
  3
ACAD_PLOTSTYLENAME
350
1F
  3
ACAD_SCALELIST
350
241
  3
ACAD_SECTIONVIEWSTYLE
350
BC0
  3
ACAD_TABLESTYLE
350
278
  3
ACAD_VISUALSTYLE
350
267
  3
ACDB_RECOMPOSE_DATA
350
1548
  3
AcDbVariableDictionary
350
330
  3
APPDATA
350
27A
  3
DimOffsetDictionary
350
E38
  0
SUN
  5
904
330
15
100
AcDbSun
 90
        1
290
     0
 63
     7
421
 16777215
 40
1.0
291
     1
 91
  2455826
 92
 54000000
292
     0
 70
     2
 71
   256
280
     1
  0
DICTIONARY
  5
2E1
330
2
100
AcDbDictionary
280
     1
281
     1
  3
ACAD_LAYERSTATES
360
2E2
  3
ACLYDICTIONARY
360
DDE
  0
DICTIONARY
  5
106E
330
106D
100
AcDbDictionary
280
     1
281
     1
  3
ACAD_DIMASSOC
360
106F
  0
DICTIONARY
  5
1071
330
1070
100
AcDbDictionary
280
     1
281
     1
  3
ACAD_DIMASSOC
360
1072
  0
DICTIONARY
  5
1094
330
1093
100
AcDbDictionary
280
     1
281
     1
  3
ACAD_DIMASSOC
360
1095
  0
DICTIONARY
  5
1454
330
1453
100
AcDbDictionary
280
     1
281
     1
  3
ACAD_DIMASSOC
360
1455
  0
DICTIONARY
  5
1464
330
1463
100
AcDbDictionary
280
     1
281
     1
  3
ACAD_DIMASSOC
360
1465
  0
DICTIONARY
  5
14DE
330
14DD
100
AcDbDictionary
280
     1
281
     1
  3
ACAD_FIELD
360
14DF
  0
DICTIONARY
  5
674
102
{ACAD_REACTORS
330
19
102
}
330
19
100
AcDbDictionary
281
     1
  0
DICTIONARY
  5
BBF
102
{ACAD_REACTORS
330
19
102
}
330
19
100
AcDbDictionary
281
     1
  0
FIELDLIST
  5
14DB
102
{ACAD_REACTORS
330
19
102
}
330
19
100
AcDbIdSet
 90
        2
330
14D7
330
14E0
100
AcDbFieldList
  0
DICTIONARY
  5
1A
102
{ACAD_REACTORS
330
19
102
}
330
19
100
AcDbDictionary
281
     1
  0
RASTERVARIABLES
  5
27B
102
{ACAD_REACTORS
330
19
102
}
330
19
100
AcDbRasterVariables
 90
        0
 70
     1
 71
     1
 72
     1
  0
DICTIONARY
  5
1E
102
{ACAD_REACTORS
330
19
102
}
330
19
100
AcDbDictionary
281
     1
  3
Layout1
350
21
  3
Model
350
20
  0
DICTIONARY
  5
263
102
{ACAD_REACTORS
330
19
102
}
330
19
100
AcDbDictionary
281
     1
  3
ByLayer
350
264
  3
Global
350
266
  0
DICTIONARY
  5
336
102
{ACAD_REACTORS
330
19
102
}
330
19
100
AcDbDictionary
281
     1
  3
Standard
350
D59
  0
DICTIONARY
  5
1B
102
{ACAD_REACTORS
330
19
102
}
330
19
100
AcDbDictionary
281
     1
  3
Standard
350
1C
  0
DICTIONARY
  5
22
102
{ACAD_REACTORS
330
19
102
}
330
19
100
AcDbDictionary
281
     1
  0
ACDBDICTIONARYWDFLT
  5
1F
102
{ACAD_REACTORS
330
19
102
}
330
19
100
AcDbDictionary
281
     1
  3
Normal
350
1D
100
AcDbDictionaryWithDefault
340
1D
  0
DICTIONARY
  5
241
102
{ACAD_REACTORS
330
19
102
}
330
19
100
AcDbDictionary
281
     1
  3
A0
350
242
  3
A1
350
243
  3
A2
350
244
  3
A3
350
245
  3
A4
350
246
  3
A5
350
247
  3
A6
350
248
  3
A7
350
249
  3
A8
350
24A
  3
A9
350
24B
  3
B0
350
24C
  3
B1
350
24D
  3
B2
350
24E
  3
B3
350
24F
  3
B4
350
250
  3
B5
350
251
  3
B6
350
252
  3
B7
350
253
  3
B8
350
254
  3
B9
350
255
  3
C0
350
256
  3
C1
350
257
  3
C2
350
258
  3
C3
350
259
  3
C4
350
25A
  3
C5
350
25B
  3
C6
350
25C
  3
C7
350
25D
  3
C8
350
25E
  3
C9
350
25F
  3
D0
350
260
  3
D1
350
261
  3
D2
350
262
  0
DICTIONARY
  5
BC0
102
{ACAD_REACTORS
330
19
102
}
330
19
100
AcDbDictionary
281
     1
  0
DICTIONARY
  5
278
102
{ACAD_REACTORS
330
19
102
}
330
19
100
AcDbDictionary
281
     1
  3
Standard
350
279
  0
DICTIONARY
  5
267
102
{ACAD_REACTORS
330
19
102
}
330
19
100
AcDbDictionary
281
     1
  3
2dWireframe
350
26C
  3
3D Hidden
350
26E
  3
3dWireframe
350
26D
  3
Basic
350
26F
  3
Brighten
350
273
  3
ColorChange
350
277
  3
Conceptual
350
271
  3
Dim
350
272
  3
EdgeColorOff
350
8FE
  3
Facepattern
350
276
  3
Flat
350
268
  3
FlatWithEdges
350
269
  3
Gouraud
350
26A
  3
GouraudWithEdges
350
26B
  3
Hidden
350
8FB
  3
JitterOff
350
8FC
  3
Linepattern
350
275
  3
OverhangOff
350
8FD
  3
Realistic
350
270
  3
Shaded
350
903
  3
Shaded with edges
350
902
  3
Shades of Gray
350
8FF
  3
Sketchy
350
900
  3
Thicken
350
274
  3
Wireframe
350
8FA
  3
X-Ray
350
901
  0
XRECORD
  5
1548
102
{ACAD_REACTORS
330
19
102
}
330
19
100
AcDbXrecord
280
     1
 90
        1
330
279
  0
DICTIONARY
  5
330
102
{ACAD_REACTORS
330
19
102
}
330
19
100
AcDbDictionary
281
     1
  3
CANNOSCALE
350
331
  3
CMLEADERSTYLE
350
D5E
  3
CTABLESTYLE
350
335
  3
HPTRANSPARENCY
350
D52
  3
XCLIPFRAME
350
896
  0
DICTIONARY
  5
27A
102
{ACAD_REACTORS
330
19
102
}
330
19
100
AcDbDictionary
281
     1
  0
DICTIONARY
  5
E38
102
{ACAD_REACTORS
330
19
102
}
330
19
100
AcDbDictionary
281
     1
  3
DIMRAILANGLE
350
E3B
  3
DIMRAILFIRSTOFFSET
350
E39
  3
DIMRAILOFFSET
350
E3A
  3
DIMRAILSENABLED
350
E3C
  0
DICTIONARY
  5
2E2
102
{ACAD_REACTORS
330
2E1
102
}
330
2E1
100
AcDbDictionary
281
     1
  3
ARGON_LAYERP_9
350
7AA
  0
DICTIONARY
  5
DDE
102
{ACAD_REACTORS
330
2E1
102
}
330
2E1
100
AcDbDictionary
281
     1
1001
ACAD
1000
<All
  0
DIMASSOC
  5
106F
102
{ACAD_REACTORS
330
106E
102
}
330
106E
100
AcDbDimAssoc
330
106D
 90
        3
 70
     0
 71
     1
  1
AcDbOsnapPointRef
 72
    13
331
1064
 73
     0
 91
        0
 40
0.0
 10
0.0
 20
0.0
 30
0.0
 75
     0
  1
AcDbOsnapPointRef
 72
    13
331
1061
 73
     0
 91
        0
 40
0.0
 10
0.0
 20
0.0
 30
0.0
 75
     0
  0
DIMASSOC
  5
1072
102
{ACAD_REACTORS
330
1071
102
}
330
1071
100
AcDbDimAssoc
330
1070
 90
        3
 70
     0
 71
     1
  1
AcDbOsnapPointRef
 72
    13
331
1061
 73
     0
 91
        0
 40
0.0
 10
0.0
 20
0.0
 30
0.0
 75
     0
  1
AcDbOsnapPointRef
 72
     1
331
1063
 73
     0
 91
        0
 40
0.0
 10
0.0
 20
0.0
 30
0.0
 75
     0
  0
DIMASSOC
  5
1095
102
{ACAD_REACTORS
330
1094
102
}
330
1094
100
AcDbDimAssoc
330
1093
 90
        1
 70
     0
 71
     1
  1
AcDbOsnapPointRef
 72
     1
331
108A
 73
     0
 91
        0
 40
0.0
 10
0.0
 20
0.0
 30
0.0
 75
     0
  0
DIMASSOC
  5
1455
102
{ACAD_REACTORS
330
1454
102
}
330
1454
100
AcDbDimAssoc
330
1453
 90
        1
 70
     0
 71
     1
  1
AcDbOsnapPointRef
 72
     1
331
1062
 73
     0
 91
        0
 40
0.0
 10
0.0
 20
0.0
 30
0.0
 75
     0
  0
DIMASSOC
  5
1465
102
{ACAD_REACTORS
330
1464
102
}
330
1464
100
AcDbDimAssoc
330
1463
 90
        3
 70
     0
 71
     1
  1
AcDbOsnapPointRef
 72
     1
331
1062
 73
     0
 91
        0
 40
0.0
 10
0.0
 20
0.0
 30
0.0
 75
     0
  1
AcDbOsnapPointRef
 72
     5
331
1078
 73
     0
 91
        0
 40
0.0
 10
0.0
 20
0.0
 30
0.0
 75
     0
  0
DICTIONARY
  5
14DF
102
{ACAD_REACTORS
330
14DE
102
}
330
14DE
100
AcDbDictionary
280
     1
281
     1
  3
TEXT
360
14E0
  0
LAYOUT
  5
21
102
{ACAD_REACTORS
330
1E
102
}
330
1E
100
AcDbPlotSettings
  1

  2
none_device
  4
ISO_A3_(420.00_x_297.00_MM)
  6

 40
7.5
 41
20.0
 42
7.5
 43
20.0
 44
420.0
 45
297.0
 46
0.0
 47
0.0
 48
0.0
 49
0.0
140
0.0
141
0.0
142
1.0
143
1.0
 70
     0
 72
     1
 73
     0
 74
     0
  7

 75
     0
 76
     0
 77
     2
 78
   300
147
1.0
148
0.0
149
0.0
100
AcDbLayout
  1
Layout1
 70
     0
 71
     0
 10
-7.5
 20
-20.0
 11
412.5
 21
277.0
 12
0.0
 22
0.0
 32
0.0
 14
0.0
 24
0.0
 34
0.0
 15
0.0
 25
0.0
 35
0.0
146
0.0
 13
0.0
 23
0.0
 33
0.0
 16
0.0
 26
0.0
 36
0.0
 17
0.0
 27
0.0
 37
0.0
 76
     0
330
B
331
349
  0
LAYOUT
  5
20
102
{ACAD_REACTORS
330
1E
102
}
330
1E
100
AcDbPlotSettings
  1

  2
none_device
  4
ISO_A3_(420.00_x_297.00_MM)
  6

 40
7.5
 41
20.0
 42
7.5
 43
20.0
 44
420.0
 45
297.0
 46
0.0
 47
0.0
 48
0.0
 49
0.0
140
0.0
141
0.0
142
1.0
143
1.0
 70
  1024
 72
     1
 73
     0
 74
     0
  7

 75
     0
 76
     0
 77
     2
 78
   300
147
1.0
148
0.0
149
0.0
100
AcDbLayout
  1
Model
 70
     0
 71
     1
 10
0.0
 20
0.0
 11
1050.0
 21
1485.0
 12
0.0
 22
0.0
 32
0.0
 14
0.0
 24
0.0
 34
-0.0000000000000071
 15
1050.0
 25
1485.0
 35
0.0000000000000071
146
0.0
 13
0.0
 23
0.0
 33
0.0
 16
0.0
 26
0.0
 36
0.0
 17
0.0
 27
0.0
 37
0.0
 76
     0
330
A
331
15
  0
MATERIAL
  5
264
102
{ACAD_REACTORS
330
263
102
}
330
263
100
AcDbMaterial
  1
ByLayer
 72
     1
 94
      127
  0
MATERIAL
  5
266
102
{ACAD_REACTORS
330
263
102
}
330
263
100
AcDbMaterial
  1
Global
 72
     1
 94
      127
  0
MLEADERSTYLE
  5
D59
102
{ACAD_REACTORS
330
336
102
}
330
336
100
AcDbMLeaderStyle
170
     2
171
     1
172
     0
 90
        2
 40
0.0
 41
0.0
173
     1
 91
-1056964608
340
11
 92
       -2
290
     1
 42
2.0
291
     1
 43
8.0
  3
Standard
341
0
 44
4.0
300

342
17
174
     1
178
     6
175
     1
176
     0
 93
-1056964608
 45
4.0
292
     0
297
     0
 46
4.0
343
0
 94
-1056964608
 47
1.0
 49
1.0
140
1.0
293
     1
141
0.0
294
     1
177
     0
142
1.0
295
     0
296
     0
143
3.75
1001
ACAD_MLEADERVER
1070
     2
  0
MLINESTYLE
  5
1C
102
{ACAD_REACTORS
330
1B
102
}
330
1B
100
AcDbMlineStyle
  2
Standard
 70
     0
  3

 62
     0
 51
90.0
 52
90.0
 71
     2
 49
0.5
 62
   256
  6
BYLAYER
 49
-0.5
 62
   256
  6
BYLAYER
  0
ACDBPLACEHOLDER
  5
1D
102
{ACAD_REACTORS
330
1F
102
}
330
1F
  0
SCALE
  5
242
102
{ACAD_REACTORS
330
241
102
}
330
241
100
AcDbScale
 70
     0
300
1:1
140
1.0
141
1.0
290
     1
  0
SCALE
  5
243
102
{ACAD_REACTORS
330
241
102
}
330
241
100
AcDbScale
 70
     0
300
1:2
140
1.0
141
2.0
290
     0
  0
SCALE
  5
244
102
{ACAD_REACTORS
330
241
102
}
330
241
100
AcDbScale
 70
     0
300
1:4
140
1.0
141
4.0
290
     0
  0
SCALE
  5
245
102
{ACAD_REACTORS
330
241
102
}
330
241
100
AcDbScale
 70
     0
300
1:5
140
1.0
141
5.0
290
     0
  0
SCALE
  5
246
102
{ACAD_REACTORS
330
241
102
}
330
241
100
AcDbScale
 70
     0
300
1:8
140
1.0
141
8.0
290
     0
  0
SCALE
  5
247
102
{ACAD_REACTORS
330
241
102
}
330
241
100
AcDbScale
 70
     0
300
1:10
140
1.0
141
10.0
290
     0
  0
SCALE
  5
248
102
{ACAD_REACTORS
330
241
102
}
330
241
100
AcDbScale
 70
     0
300
1:16
140
1.0
141
16.0
290
     0
  0
SCALE
  5
249
102
{ACAD_REACTORS
330
241
102
}
330
241
100
AcDbScale
 70
     0
300
1:20
140
1.0
141
20.0
290
     0
  0
SCALE
  5
24A
102
{ACAD_REACTORS
330
241
102
}
330
241
100
AcDbScale
 70
     0
300
1:30
140
1.0
141
30.0
290
     0
  0
SCALE
  5
24B
102
{ACAD_REACTORS
330
241
102
}
330
241
100
AcDbScale
 70
     0
300
1:40
140
1.0
141
40.0
290
     0
  0
SCALE
  5
24C
102
{ACAD_REACTORS
330
241
102
}
330
241
100
AcDbScale
 70
     0
300
1:50
140
1.0
141
50.0
290
     0
  0
SCALE
  5
24D
102
{ACAD_REACTORS
330
241
102
}
330
241
100
AcDbScale
 70
     0
300
1:100
140
1.0
141
100.0
290
     0
  0
SCALE
  5
24E
102
{ACAD_REACTORS
330
241
102
}
330
241
100
AcDbScale
 70
     0
300
2:1
140
2.0
141
1.0
290
     0
  0
SCALE
  5
24F
102
{ACAD_REACTORS
330
241
102
}
330
241
100
AcDbScale
 70
     0
300
4:1
140
4.0
141
1.0
290
     0
  0
SCALE
  5
250
102
{ACAD_REACTORS
330
241
102
}
330
241
100
AcDbScale
 70
     0
300
8:1
140
8.0
141
1.0
290
     0
  0
SCALE
  5
251
102
{ACAD_REACTORS
330
241
102
}
330
241
100
AcDbScale
 70
     0
300
10:1
140
10.0
141
1.0
290
     0
  0
SCALE
  5
252
102
{ACAD_REACTORS
330
241
102
}
330
241
100
AcDbScale
 70
     0
300
100:1
140
100.0
141
1.0
290
     0
  0
SCALE
  5
253
102
{ACAD_REACTORS
330
241
102
}
330
241
100
AcDbScale
 70
     0
300
1/128" = 1'-0"
140
0.0078125
141
12.0
290
     0
  0
SCALE
  5
254
102
{ACAD_REACTORS
330
241
102
}
330
241
100
AcDbScale
 70
     0
300
1/64" = 1'-0"
140
0.015625
141
12.0
290
     0
  0
SCALE
  5
255
102
{ACAD_REACTORS
330
241
102
}
330
241
100
AcDbScale
 70
     0
300
1/32" = 1'-0"
140
0.03125
141
12.0
290
     0
  0
SCALE
  5
256
102
{ACAD_REACTORS
330
241
102
}
330
241
100
AcDbScale
 70
     0
300
1/16" = 1'-0"
140
0.0625
141
12.0
290
     0
  0
SCALE
  5
257
102
{ACAD_REACTORS
330
241
102
}
330
241
100
AcDbScale
 70
     0
300
3/32" = 1'-0"
140
0.09375
141
12.0
290
     0
  0
SCALE
  5
258
102
{ACAD_REACTORS
330
241
102
}
330
241
100
AcDbScale
 70
     0
300
1/8" = 1'-0"
140
0.125
141
12.0
290
     0
  0
SCALE
  5
259
102
{ACAD_REACTORS
330
241
102
}
330
241
100
AcDbScale
 70
     0
300
3/16" = 1'-0"
140
0.1875
141
12.0
290
     0
  0
SCALE
  5
25A
102
{ACAD_REACTORS
330
241
102
}
330
241
100
AcDbScale
 70
     0
300
1/4" = 1'-0"
140
0.25
141
12.0
290
     0
  0
SCALE
  5
25B
102
{ACAD_REACTORS
330
241
102
}
330
241
100
AcDbScale
 70
     0
300
3/8" = 1'-0"
140
0.375
141
12.0
290
     0
  0
SCALE
  5
25C
102
{ACAD_REACTORS
330
241
102
}
330
241
100
AcDbScale
 70
     0
300
1/2" = 1'-0"
140
0.5
141
12.0
290
     0
  0
SCALE
  5
25D
102
{ACAD_REACTORS
330
241
102
}
330
241
100
AcDbScale
 70
     0
300
3/4" = 1'-0"
140
0.75
141
12.0
290
     0
  0
SCALE
  5
25E
102
{ACAD_REACTORS
330
241
102
}
330
241
100
AcDbScale
 70
     0
300
1" = 1'-0"
140
1.0
141
12.0
290
     0
  0
SCALE
  5
25F
102
{ACAD_REACTORS
330
241
102
}
330
241
100
AcDbScale
 70
     0
300
1-1/2" = 1'-0"
140
1.5
141
12.0
290
     0
  0
SCALE
  5
260
102
{ACAD_REACTORS
330
241
102
}
330
241
100
AcDbScale
 70
     0
300
3" = 1'-0"
140
3.0
141
12.0
290
     0
  0
SCALE
  5
261
102
{ACAD_REACTORS
330
241
102
}
330
241
100
AcDbScale
 70
     0
300
6" = 1'-0"
140
6.0
141
12.0
290
     0
  0
SCALE
  5
262
102
{ACAD_REACTORS
330
241
102
}
330
241
100
AcDbScale
 70
     0
300
1'-0" = 1'-0"
140
12.0
141
12.0
290
     0
  0
TABLESTYLE
  5
279
102
{ACAD_REACTORS
330
278
102
}
102
{ACAD_XDICTIONARY
360
1546
102
}
330
278
100
AcDbTableStyle
  3
Standard
 70
     0
 71
     0
 40
0.06
 41
0.06
280
     0
281
     0
  7
Standard
140
4.5
170
     2
 62
     0
 63
   257
283
     0
 90
        4
 91
        0
  1

274
    -2
284
     1
 64
     0
275
    -2
285
     1
 65
     0
276
    -2
286
     1
 66
     0
277
    -2
287
     1
 67
     0
278
    -2
288
     1
 68
     0
279
    -2
289
     1
 69
     0
  7
Standard
140
6.0
170
     5
 62
     0
 63
   257
283
     0
 90
        4
 91
        0
  1

274
    -2
284
     1
 64
     0
275
    -2
285
     1
 65
     0
276
    -2
286
     1
 66
     0
277
    -2
287
     1
 67
     0
278
    -2
288
     1
 68
     0
279
    -2
289
     1
 69
     0
  7
Standard
140
4.5
170
     5
 62
     0
 63
   257
283
     0
 90
        4
 91
        0
  1

274
    -2
284
     1
 64
     0
275
    -2
285
     1
 65
     0
276
    -2
286
     1
 66
     0
277
    -2
287
     1
 67
     0
278
    -2
288
     1
 68
     0
279
    -2
289
     1
 69
     0
  0
VISUALSTYLE
  5
26C
102
{ACAD_REACTORS
330
267
102
}
330
267
100
AcDbVisualStyle
  2
2dWireframe
 70
     4
 71
     0
 72
     2
 73
     0
 90
        0
 40
-0.6
 41
-30.0
 62
     5
 63
     7
421
 16777215
 74
     1
 91
        4
 64
     7
 65
   257
 75
     1
175
     1
 42
1.0
 92
        0
 66
   257
 43
1.0
 76
     1
 77
     6
 78
     2
 67
     7
 79
     5
170
     0
171
     0
290
     0
174
     0
 93
        1
 44
0.0
173
     0
291
     0
 45
0.0
  0
VISUALSTYLE
  5
26E
102
{ACAD_REACTORS
330
267
102
}
330
267
100
AcDbVisualStyle
  2
3D Hidden
 70
     6
 71
     1
 72
     2
 73
     2
 90
        0
 40
-0.6
 41
-30.0
 62
     5
 63
     7
421
 16777215
 74
     2
 91
        2
 64
     7
 65
   257
 75
     2
175
     1
 42
40.0
 92
        0
 66
   257
 43
1.0
 76
     1
 77
     6
 78
     2
 67
     7
 79
     3
170
     0
171
     0
290
     0
174
     0
 93
        1
 44
0.0
173
     0
291
     0
 45
0.0
  0
VISUALSTYLE
  5
26D
102
{ACAD_REACTORS
330
267
102
}
330
267
100
AcDbVisualStyle
  2
3dWireframe
 70
     5
 71
     0
 72
     2
 73
     0
 90
        0
 40
-0.6
 41
-30.0
 62
     5
 63
     7
421
 16777215
 74
     1
 91
        4
 64
     7
 65
   257
 75
     1
175
     1
 42
1.0
 92
        0
 66
   257
 43
1.0
 76
     1
 77
     6
 78
     2
 67
     7
 79
     5
170
     0
171
     0
290
     0
174
     0
 93
        1
 44
0.0
173
     0
291
     0
 45
0.0
  0
VISUALSTYLE
  5
26F
102
{ACAD_REACTORS
330
267
102
}
330
267
100
AcDbVisualStyle
  2
Basic
 70
     7
 71
     1
 72
     0
 73
     1
 90
        0
 40
-0.6
 41
-30.0
 62
     5
 63
     7
421
 16777215
 74
     0
 91
        4
 64
     7
 65
   257
 75
     1
175
     1
 42
1.0
 92
        8
 66
     7
 43
1.0
 76
     1
 77
     6
 78
     2
 67
     7
 79
     5
170
     0
171
     0
290
     0
174
     0
 93
        1
 44
0.0
173
     0
291
     1
 45
0.0
  0
VISUALSTYLE
  5
273
102
{ACAD_REACTORS
330
267
102
}
330
267
100
AcDbVisualStyle
  2
Brighten
 70
    12
 71
     2
 72
     2
 73
     0
 90
        0
 40
-0.6
 41
-30.0
 62
     5
 63
     7
421
 16777215
 74
     1
 91
        4
 64
     7
 65
   257
 75
     1
175
     1
 42
1.0
 92
        8
 66
     7
 43
1.0
 76
     1
 77
     6
 78
     2
 67
     7
 79
     5
170
     0
171
     0
290
     0
174
     0
 93
        1
 44
50.0
173
     0
291
     1
 45
0.0
  0
VISUALSTYLE
  5
277
102
{ACAD_REACTORS
330
267
102
}
330
267
100
AcDbVisualStyle
  2
ColorChange
 70
    16
 71
     2
 72
     2
 73
     3
 90
        0
 40
-0.6
 41
-30.0
 62
     5
 63
     8
421
  8421504
 74
     1
 91
        4
 64
     7
 65
   257
 75
     1
175
     1
 42
1.0
 92
        8
 66
     8
424
  8421504
 43
1.0
 76
     1
 77
     6
 78
     2
 67
     7
 79
     5
170
     0
171
     0
290
     0
174
     0
 93
        1
 44
0.0
173
     0
291
     1
 45
0.0
  0
VISUALSTYLE
  5
271
102
{ACAD_REACTORS
330
267
102
}
330
267
100
AcDbVisualStyle
  2
Conceptual
 70
     9
 71
     3
 72
     2
 73
     0
 90
        0
 40
-0.6
 41
-30.0
 62
     5
 63
     7
421
 16777215
 74
     2
 91
        2
 64
     7
 65
   257
 75
     1
175
     1
 42
40.0
 92
        8
 66
     7
 43
1.0
 76
     1
 77
     6
 78
     2
 67
     7
 79
     3
170
     0
171
     0
290
     0
174
     0
 93
        1
 44
0.0
173
     0
291
     0
 45
0.0
  0
VISUALSTYLE
  5
272
102
{ACAD_REACTORS
330
267
102
}
330
267
100
AcDbVisualStyle
  2
Dim
 70
    11
 71
     2
 72
     2
 73
     0
 90
        0
 40
-0.6
 41
-30.0
 62
     5
 63
     7
421
 16777215
 74
     1
 91
        4
 64
     7
 65
   257
 75
     1
175
     1
 42
1.0
 92
        8
 66
     7
 43
1.0
 76
     1
 77
     6
 78
     2
 67
     7
 79
     5
170
     0
171
     0
290
     0
174
     0
 93
        1
 44
-50.0
173
     0
291
     1
 45
0.0
  0
VISUALSTYLE
  5
8FE
102
{ACAD_REACTORS
330
267
102
}
330
267
100
AcDbVisualStyle
  2
EdgeColorOff
 70
    22
 71
     2
 72
     2
 73
     0
 90
        0
 40
0.6
 41
30.0
 62
     5
 63
     7
421
 16777215
 74
     1
 91
        4
 64
     7
 65
   257
 75
     1
175
     1
 42
1.0
 92
        8
 66
     7
 43
1.0
 76
     1
 77
     6
 78
     2
 67
     7
 79
     5
170
     0
171
     0
290
     0
174
     0
 93
        1
 44
0.0
173
     0
291
     1
 45
0.0
  0
VISUALSTYLE
  5
276
102
{ACAD_REACTORS
330
267
102
}
330
267
100
AcDbVisualStyle
  2
Facepattern
 70
    15
 71
     2
 72
     2
 73
     0
 90
        0
 40
-0.6
 41
-30.0
 62
     5
 63
     7
421
 16777215
 74
     1
 91
        4
 64
     7
 65
   257
 75
     1
175
     1
 42
1.0
 92
        8
 66
     7
 43
1.0
 76
     1
 77
     6
 78
     2
 67
     7
 79
     5
170
     0
171
     0
290
     0
174
     0
 93
        1
 44
0.0
173
     0
291
     1
 45
0.0
  0
VISUALSTYLE
  5
268
102
{ACAD_REACTORS
330
267
102
}
330
267
100
AcDbVisualStyle
  2
Flat
 70
     0
 71
     2
 72
     1
 73
     1
 90
        2
 40
-0.6
 41
30.0
 62
     5
 63
     7
421
 16777215
 74
     0
 91
        4
 64
     7
 65
   257
 75
     1
175
     1
 42
1.0
 92
        8
 66
     7
 43
1.0
 76
     1
 77
     6
 78
     2
 67
     7
 79
     5
170
     0
171
     0
290
     0
174
     0
 93
       13
 44
0.0
173
     0
291
     1
 45
0.0
  0
VISUALSTYLE
  5
269
102
{ACAD_REACTORS
330
267
102
}
330
267
100
AcDbVisualStyle
  2
FlatWithEdges
 70
     1
 71
     2
 72
     1
 73
     1
 90
        2
 40
-0.6
 41
30.0
 62
     5
 63
     7
421
 16777215
 74
     1
 91
        4
 64
     7
 65
   257
 75
     1
175
     1
 42
1.0
 92
        0
 66
   257
 43
1.0
 76
     1
 77
     6
 78
     2
 67
     7
 79
     5
170
     0
171
     0
290
     0
174
     0
 93
       13
 44
0.0
173
     0
291
     1
 45
0.0
  0
VISUALSTYLE
  5
26A
102
{ACAD_REACTORS
330
267
102
}
330
267
100
AcDbVisualStyle
  2
Gouraud
 70
     2
 71
     2
 72
     2
 73
     1
 90
        2
 40
-0.6
 41
30.0
 62
     5
 63
     7
421
 16777215
 74
     0
 91
        4
 64
     7
 65
   257
 75
     1
175
     1
 42
1.0
 92
        0
 66
     7
 43
1.0
 76
     1
 77
     6
 78
     2
 67
     7
 79
     5
170
     0
171
     0
290
     0
174
     0
 93
       13
 44
0.0
173
     0
291
     1
 45
0.0
  0
VISUALSTYLE
  5
26B
102
{ACAD_REACTORS
330
267
102
}
330
267
100
AcDbVisualStyle
  2
GouraudWithEdges
 70
     3
 71
     2
 72
     2
 73
     1
 90
        2
 40
-0.6
 41
30.0
 62
     5
 63
     7
421
 16777215
 74
     1
 91
        4
 64
     7
 65
   257
 75
     1
175
     1
 42
1.0
 92
        0
 66
   257
 43
1.0
 76
     1
 77
     6
 78
     2
 67
     7
 79
     5
170
     0
171
     0
290
     0
174
     0
 93
       13
 44
0.0
173
     0
291
     1
 45
0.0
  0
VISUALSTYLE
  5
8FB
102
{ACAD_REACTORS
330
267
102
}
330
267
100
AcDbVisualStyle
  2
Hidden
 70
     6
 71
     1
 72
     2
 73
     2
 90
        0
 40
0.6
 41
30.0
 62
     5
 63
     7
421
 16777215
 74
     2
 91
        2
 64
     7
 65
   257
 75
     2
175
     1
 42
40.0
 92
        0
 66
   257
 43
1.0
 76
     1
 77
     6
 78
     2
 67
     7
 79
     3
170
     0
171
     0
290
     0
174
     0
 93
        1
 44
0.0
173
     0
291
     0
 45
0.0
  0
VISUALSTYLE
  5
8FC
102
{ACAD_REACTORS
330
267
102
}
330
267
100
AcDbVisualStyle
  2
JitterOff
 70
    20
 71
     2
 72
     2
 73
     0
 90
        0
 40
0.6
 41
30.0
 62
     5
 63
     7
421
 16777215
 74
     1
 91
        4
 64
     7
 65
   257
 75
     1
175
     1
 42
1.0
 92
       10
 66
     7
 43
1.0
 76
     1
 77
     6
 78
     2
 67
     7
 79
     5
170
     0
171
     0
290
     0
174
     0
 93
        1
 44
0.0
173
     0
291
     1
 45
0.0
  0
VISUALSTYLE
  5
275
102
{ACAD_REACTORS
330
267
102
}
330
267
100
AcDbVisualStyle
  2
Linepattern
 70
    14
 71
     2
 72
     2
 73
     0
 90
        0
 40
-0.6
 41
-30.0
 62
     5
 63
     7
421
 16777215
 74
     1
 91
        4
 64
     7
 65
   257
 75
     7
175
     7
 42
1.0
 92
        8
 66
     7
 43
1.0
 76
     1
 77
     6
 78
     2
 67
     7
 79
     5
170
     0
171
     0
290
     0
174
     0
 93
        1
 44
0.0
173
     0
291
     1
 45
0.0
  0
VISUALSTYLE
  5
8FD
102
{ACAD_REACTORS
330
267
102
}
330
267
100
AcDbVisualStyle
  2
OverhangOff
 70
    21
 71
     2
 72
     2
 73
     0
 90
        0
 40
0.6
 41
30.0
 62
     5
 63
     7
421
 16777215
 74
     1
 91
        4
 64
     7
 65
   257
 75
     1
175
     1
 42
1.0
 92
        9
 66
     7
 43
1.0
 76
     1
 77
     6
 78
     2
 67
     7
 79
     5
170
     0
171
     0
290
     0
174
     0
 93
        1
 44
0.0
173
     0
291
     1
 45
0.0
  0
VISUALSTYLE
  5
270
102
{ACAD_REACTORS
330
267
102
}
330
267
100
AcDbVisualStyle
  2
Realistic
 70
     8
 71
     2
 72
     2
 73
     0
 90
        0
 40
-0.6
 41
-30.0
 62
     5
 63
     7
421
 16777215
 74
     1
 91
        0
 64
     7
 65
   257
 75
     1
175
     1
 42
1.0
 92
        8
 66
     8
424
  7895160
 43
1.0
 76
     1
 77
     6
 78
     2
 67
     7
 79
     5
170
     0
171
     0
290
     0
174
     0
 93
       13
 44
0.0
173
     0
291
     0
 45
0.0
  0
VISUALSTYLE
  5
903
102
{ACAD_REACTORS
330
267
102
}
330
267
100
AcDbVisualStyle
  2
Shaded
 70
    27
 71
     2
 72
     2
 73
     1
 90
        2
 40
0.6
 41
30.0
 62
     5
 63
     7
421
 16777215
 74
     0
 91
        4
 64
     7
 65
   257
 75
     1
175
     1
 42
1.0
 92
        8
 66
   257
 43
1.0
 76
     1
 77
     6
 78
     2
 67
     8
425
  7895160
 79
     3
170
     0
171
     0
290
     0
174
     0
 93
        5
 44
0.0
173
     0
291
     0
 45
0.0
  0
VISUALSTYLE
  5
902
102
{ACAD_REACTORS
330
267
102
}
330
267
100
AcDbVisualStyle
  2
Shaded with edges
 70
    26
 71
     2
 72
     2
 73
     1
 90
        2
 40
0.6
 41
30.0
 62
     5
 63
     7
421
 16777215
 74
     1
 91
       10
 64
     7
 65
   257
 75
     2
175
     1
 42
1.0
 92
        8
 66
   257
 43
1.0
 76
     1
 77
     6
 78
     2
 67
     7
 79
     3
170
     0
171
     0
290
     0
174
     0
 93
        5
 44
0.0
173
     0
291
     0
 45
0.0
  0
VISUALSTYLE
  5
8FF
102
{ACAD_REACTORS
330
267
102
}
330
267
100
AcDbVisualStyle
  2
Shades of Gray
 70
    23
 71
     2
 72
     2
 73
     3
 90
        0
 40
0.6
 41
30.0
 62
     5
 63
     7
421
 16777215
 74
     2
 91
        2
 64
     7
 65
     7
 75
     1
175
     1
 42
40.0
 92
        8
 66
     7
 43
1.0
 76
     1
 77
     6
 78
     2
 67
     7
 79
     3
170
     0
171
     0
290
     0
174
     0
 93
        1
 44
0.0
173
     0
291
     0
 45
0.0
  0
VISUALSTYLE
  5
900
102
{ACAD_REACTORS
330
267
102
}
330
267
100
AcDbVisualStyle
  2
Sketchy
 70
    24
 71
     1
 72
     2
 73
     2
 90
        0
 40
0.6
 41
30.0
 62
     5
 63
     7
421
 16777215
 74
     2
 91
        2
 64
     7
 65
     7
 75
     1
175
     1
 42
40.0
 92
       11
 66
     7
 43
1.0
 76
     1
 77
     6
 78
     2
 67
     7
 79
     6
170
     0
171
     0
290
     0
174
     0
 93
        1
 44
0.0
173
     0
291
     0
 45
0.0
  0
VISUALSTYLE
  5
274
102
{ACAD_REACTORS
330
267
102
}
330
267
100
AcDbVisualStyle
  2
Thicken
 70
    13
 71
     2
 72
     2
 73
     0
 90
        0
 40
-0.6
 41
-30.0
 62
     5
 63
     7
421
 16777215
 74
     1
 91
        4
 64
     7
 65
   257
 75
     1
175
     1
 42
1.0
 92
       12
 66
     7
 43
1.0
 76
     1
 77
     6
 78
     2
 67
     7
 79
     5
170
     0
171
     0
290
     0
174
     0
 93
        1
 44
0.0
173
     0
291
     1
 45
0.0
  0
VISUALSTYLE
  5
8FA
102
{ACAD_REACTORS
330
267
102
}
330
267
100
AcDbVisualStyle
  2
Wireframe
 70
     5
 71
     0
 72
     2
 73
     0
 90
        0
 40
0.6
 41
30.0
 62
     5
 63
     7
421
 16777215
 74
     1
 91
        4
 64
     7
 65
   257
 75
     1
175
     1
 42
1.0
 92
        0
 66
   257
 43
1.0
 76
     1
 77
     6
 78
     2
 67
     7
 79
     3
170
     0
171
     0
290
     0
174
     0
 93
        1
 44
0.0
173
     0
291
     0
 45
0.0
  0
VISUALSTYLE
  5
901
102
{ACAD_REACTORS
330
267
102
}
330
267
100
AcDbVisualStyle
  2
X-Ray
 70
    25
 71
     2
 72
     2
 73
     1
 90
        1
 40
0.5
 41
30.0
 62
     5
 63
     7
421
 16777215
 74
     1
 91
        0
 64
     7
 65
   257
 75
     1
175
     1
 42
1.0
 92
        8
 66
     7
 43
1.0
 76
     1
 77
     6
 78
     2
 67
     7
 79
     3
170
     0
171
     0
290
     0
174
     0
 93
       13
 44
0.0
173
     0
291
     0
 45
0.0
  0
DICTIONARYVAR
  5
331
102
{ACAD_REACTORS
330
330
102
}
330
330
100
DictionaryVariables
280
     0
  1
1:1
  0
DICTIONARYVAR
  5
D5E
102
{ACAD_REACTORS
330
330
102
}
330
330
100
DictionaryVariables
280
     0
  1
Standard
  0
DICTIONARYVAR
  5
335
102
{ACAD_REACTORS
330
330
102
}
330
330
100
DictionaryVariables
280
     0
  1
Standard
  0
DICTIONARYVAR
  5
D52
102
{ACAD_REACTORS
330
330
102
}
330
330
100
DictionaryVariables
280
     0
  1
ByLayer
  0
DICTIONARYVAR
  5
896
102
{ACAD_REACTORS
330
330
102
}
330
330
100
DictionaryVariables
280
     0
  1
0
  0
DICTIONARYVAR
  5
E3B
102
{ACAD_REACTORS
330
E38
102
}
330
E38
100
DictionaryVariables
280
     0
  1
0.261799
  0
DICTIONARYVAR
  5
E39
102
{ACAD_REACTORS
330
E38
102
}
330
E38
100
DictionaryVariables
280
     0
  1
0.400000
  0
DICTIONARYVAR
  5
E3A
102
{ACAD_REACTORS
330
E38
102
}
330
E38
100
DictionaryVariables
280
     0
  1
0.250000
  0
DICTIONARYVAR
  5
E3C
102
{ACAD_REACTORS
330
E38
102
}
330
E38
100
DictionaryVariables
280
     0
  1
1
  0
XRECORD
  5
7AA
102
{ACAD_REACTORS
330
2E2
102
}
330
2E2
100
AcDbXrecord
280
     1
 91
    34815
301

290
     0
302
HIDDEN
330
14
 90
        8
 62
     7
370
    -3
331
13
  1
Color_7
440
 33554687
330
4B
 90
        8
 62
     7
370
    20
331
13
  1
Color_7
440
 33554687
330
4C
 90
        8
 62
     3
370
    13
331
13
  1
Color_3
440
 33554687
330
4D
 90
        8
 62
     7
370
    20
331
13
  1
Color_7
440
 33554687
330
667
 90
        8
 62
     7
370
    -3
331
13
  1
Color_7
440
 33554687
330
88C
 90
        8
 62
     8
370
    20
331
D6D
  1
Color_8
440
 33554687
330
D6B
 90
        0
 62
     4
370
    20
331
D6C
  1
Color_4
440
 33554687
330
D8C
 90
        0
 62
     7
370
    -3
331
13
  1
Color_7
440
 33554687
  0
FIELD
  5
14E0
102
{ACAD_REACTORS
330
14DF
102
}
330
14DF
100
AcDbField
  1
_text
  2
{%<\_FldIdx 0>%N}
 90
        1
360
14E1
 97
        0
 91
       63
 92
        0
 94
        8
 95
        2
 96
        0
300

 93
        1
  6
ACFD_FIELDTEXT_CHECKSUM
 93
        2
 90
        2
140
4530.0
 94
        0
300

302

304
ACVALUE_END
  7
ACFD_FIELD_VALUE
 93
        6
 90
        4
  1
{20160715N}
 94
        0
300

302

304
ACVALUE_END
301
{20160715N}
 98
       11
  0
DICTIONARY
  5
1546
330
279
100
AcDbDictionary
280
     1
281
     1
  3
ACAD_ROUNDTRIP_2008_TABLESTYLE_CELLSTYLEMAP
360
1547
  0
FIELD
  5
14E1
330
14E0
100
AcDbField
  1
AcVar
  2
\AcVar CreateDate \f "yyyyMMdd"
 90
        0
 97
        0
 91
       63
 92
        0
 94
        8
 95
        2
 96
        0
300

 93
        1
  6
Variable
 93
        2
 90
        4
  1
CreateDate
 94
        0
300

302

304
ACVALUE_END
  7
ACFD_FIELD_VALUE
 93
        6
 90
        8
 92
       16
310
E007070000000F0008001E000A000000
 94
        0
300
yyyyMMdd
302

304
ACVALUE_END
301
20160715
 98
        8
  0
CELLSTYLEMAP
  5
1547
102
{ACAD_REACTORS
330
1546
102
}
330
1546
100
AcDbCellStyleMap
 90
        3
300
CELLSTYLE
  1
TABLEFORMAT_BEGIN
 90
        5
170
     1
 91
        0
 92
    32768
 62
   257
 93
        1
300
CONTENTFORMAT
  1
CONTENTFORMAT_BEGIN
 90
        0
 91
        0
 92
        4
 93
        0
300

 40
0.0
140
1.0
 94
        5
 62
     0
340
17
144
6.0
309
CONTENTFORMAT_END
171
     1
301
MARGIN
  1
CELLMARGIN_BEGIN
 40
0.06
 40
0.06
 40
0.06
 40
0.06
 40
0.18
 40
0.18
309
CELLMARGIN_END
 94
        6
 95
        1
302
GRIDFORMAT
  1
GRIDFORMAT_BEGIN
 90
        0
 91
        1
 62
     0
 92
       -2
340
0
 93
        0
 40
0.045
309
GRIDFORMAT_END
 95
        2
302
GRIDFORMAT
  1
GRIDFORMAT_BEGIN
 90
        0
 91
        1
 62
     0
 92
       -2
340
0
 93
        0
 40
0.045
309
GRIDFORMAT_END
 95
        4
302
GRIDFORMAT
  1
GRIDFORMAT_BEGIN
 90
        0
 91
        1
 62
     0
 92
       -2
340
0
 93
        0
 40
0.045
309
GRIDFORMAT_END
 95
        8
302
GRIDFORMAT
  1
GRIDFORMAT_BEGIN
 90
        0
 91
        1
 62
     0
 92
       -2
340
0
 93
        0
 40
0.045
309
GRIDFORMAT_END
 95
       16
302
GRIDFORMAT
  1
GRIDFORMAT_BEGIN
 90
        0
 91
        1
 62
     0
 92
       -2
340
0
 93
        0
 40
0.045
309
GRIDFORMAT_END
 95
       32
302
GRIDFORMAT
  1
GRIDFORMAT_BEGIN
 90
        0
 91
        1
 62
     0
 92
       -2
340
0
 93
        0
 40
0.045
309
GRIDFORMAT_END
309
TABLEFORMAT_END
  1
CELLSTYLE_BEGIN
 90
        1
 91
        1
300
_TITLE
309
CELLSTYLE_END
300
CELLSTYLE
  1
TABLEFORMAT_BEGIN
 90
        5
170
     1
 91
        0
 92
        0
 62
   257
 93
        1
300
CONTENTFORMAT
  1
CONTENTFORMAT_BEGIN
 90
        0
 91
        0
 92
        4
 93
        0
300

 40
0.0
140
1.0
 94
        5
 62
     0
340
17
144
4.5
309
CONTENTFORMAT_END
171
     1
301
MARGIN
  1
CELLMARGIN_BEGIN
 40
0.06
 40
0.06
 40
0.06
 40
0.06
 40
0.18
 40
0.18
309
CELLMARGIN_END
 94
        6
 95
        1
302
GRIDFORMAT
  1
GRIDFORMAT_BEGIN
 90
        0
 91
        1
 62
     0
 92
       -2
340
0
 93
        0
 40
0.045
309
GRIDFORMAT_END
 95
        2
302
GRIDFORMAT
  1
GRIDFORMAT_BEGIN
 90
        0
 91
        1
 62
     0
 92
       -2
340
0
 93
        0
 40
0.045
309
GRIDFORMAT_END
 95
        4
302
GRIDFORMAT
  1
GRIDFORMAT_BEGIN
 90
        0
 91
        1
 62
     0
 92
       -2
340
0
 93
        0
 40
0.045
309
GRIDFORMAT_END
 95
        8
302
GRIDFORMAT
  1
GRIDFORMAT_BEGIN
 90
        0
 91
        1
 62
     0
 92
       -2
340
0
 93
        0
 40
0.045
309
GRIDFORMAT_END
 95
       16
302
GRIDFORMAT
  1
GRIDFORMAT_BEGIN
 90
        0
 91
        1
 62
     0
 92
       -2
340
0
 93
        0
 40
0.045
309
GRIDFORMAT_END
 95
       32
302
GRIDFORMAT
  1
GRIDFORMAT_BEGIN
 90
        0
 91
        1
 62
     0
 92
       -2
340
0
 93
        0
 40
0.045
309
GRIDFORMAT_END
309
TABLEFORMAT_END
  1
CELLSTYLE_BEGIN
 90
        2
 91
        1
300
_HEADER
309
CELLSTYLE_END
300
CELLSTYLE
  1
TABLEFORMAT_BEGIN
 90
        5
170
     1
 91
        0
 92
        0
 62
   257
 93
        1
300
CONTENTFORMAT
  1
CONTENTFORMAT_BEGIN
 90
        0
 91
        0
 92
        4
 93
        0
300

 40
0.0
140
1.0
 94
        2
 62
     0
340
17
144
4.5
309
CONTENTFORMAT_END
171
     1
301
MARGIN
  1
CELLMARGIN_BEGIN
 40
0.06
 40
0.06
 40
0.06
 40
0.06
 40
0.18
 40
0.18
309
CELLMARGIN_END
 94
        6
 95
        1
302
GRIDFORMAT
  1
GRIDFORMAT_BEGIN
 90
        0
 91
        1
 62
     0
 92
       -2
340
0
 93
        0
 40
0.045
309
GRIDFORMAT_END
 95
        2
302
GRIDFORMAT
  1
GRIDFORMAT_BEGIN
 90
        0
 91
        1
 62
     0
 92
       -2
340
0
 93
        0
 40
0.045
309
GRIDFORMAT_END
 95
        4
302
GRIDFORMAT
  1
GRIDFORMAT_BEGIN
 90
        0
 91
        1
 62
     0
 92
       -2
340
0
 93
        0
 40
0.045
309
GRIDFORMAT_END
 95
        8
302
GRIDFORMAT
  1
GRIDFORMAT_BEGIN
 90
        0
 91
        1
 62
     0
 92
       -2
340
0
 93
        0
 40
0.045
309
GRIDFORMAT_END
 95
       16
302
GRIDFORMAT
  1
GRIDFORMAT_BEGIN
 90
        0
 91
        1
 62
     0
 92
       -2
340
0
 93
        0
 40
0.045
309
GRIDFORMAT_END
 95
       32
302
GRIDFORMAT
  1
GRIDFORMAT_BEGIN
 90
        0
 91
        1
 62
     0
 92
       -2
340
0
 93
        0
 40
0.045
309
GRIDFORMAT_END
309
TABLEFORMAT_END
  1
CELLSTYLE_BEGIN
 90
        3
 91
        2
300
_DATA
309
CELLSTYLE_END
  0
ENDSEC
  0
EOF
