  0
SECTION
  2
HEADER
  9
$ACADVER
  1
AC1021
  9
$ACADMAINTVER
 70
    25
  9
$DWGCODEPAGE
  3
ANSI_932
  9
$LASTSAVEDBY
  1
Shimosaki
  9
$INSBASE
 10
0.0
 20
0.0
 30
0.0
  9
$EXTMIN
 10
-200.6064076055237
 20
0.0
 30
-0.0000000000000142
  9
$EXTMAX
 10
1050.0
 20
1485.0
 30
0.0000000000000142
  9
$LIMMIN
 10
0.0
 20
0.0
  9
$LIMMAX
 10
1050.0
 20
1485.0
  9
$ORTHOMODE
 70
     0
  9
$REGENMODE
 70
     1
  9
$FILLMODE
 70
     1
  9
$QTEXTMODE
 70
     0
  9
$MIRRTEXT
 70
     1
  9
$LTSCALE
 40
50.0
  9
$ATTMODE
 70
     1
  9
$TEXTSIZE
 40
2.5
  9
$TRACEWID
 40
1.0
  9
$TEXTSTYLE
  7
ＭＳ ゴシック
  9
$CLAYER
  8
DIM
  9
$CELTYPE
  6
ByLayer
  9
$CECOLOR
 62
   256
  9
$CELTSCALE
 40
0.05
  9
$DISPSILH
 70
     0
  9
$DIMSCALE
 40
1.0
  9
$DIMASZ
 40
3.0
  9
$DIMEXO
 40
10.0
  9
$DIMDLI
 40
0.9999999999999999
  9
$DIMRND
 40
0.0
  9
$DIMDLE
 40
0.0
  9
$DIMEXE
 40
0.0
  9
$DIMTP
 40
0.0
  9
$DIMTM
 40
0.0
  9
$DIMTXT
 40
12.0
  9
$DIMCEN
 40
0.0
  9
$DIMTSZ
 40
0.0
  9
$DIMTOL
 70
     0
  9
$DIMLIM
 70
     0
  9
$DIMTIH
 70
     0
  9
$DIMTOH
 70
     0
  9
$DIMSE1
 70
     0
  9
$DIMSE2
 70
     0
  9
$DIMTAD
 70
     1
  9
$DIMZIN
 70
    11
  9
$DIMBLK
  1
DOT
  9
$DIMASO
 70
     1
  9
$DIMSHO
 70
     1
  9
$DIMPOST
  1
<>
  9
$DIMAPOST
  1
[]
  9
$DIMALT
 70
     0
  9
$DIMALTD
 70
     1
  9
$DIMALTF
 40
1.0
  9
$DIMLFAC
 40
1.0
  9
$DIMTOFL
 70
     0
  9
$DIMTVP
 40
0.0
  9
$DIMTIX
 70
     1
  9
$DIMSOXD
 70
     0
  9
$DIMSAH
 70
     0
  9
$DIMBLK1
  1

  9
$DIMBLK2
  1

  9
$DIMSTYLE
  2
tfrom線あり
  9
$DIMCLRD
 70
     0
  9
$DIMCLRE
 70
     0
  9
$DIMCLRT
 70
     0
  9
$DIMTFAC
 40
1.0
  9
$DIMGAP
 40
10.0
  9
$DIMJUST
 70
     0
  9
$DIMSD1
 70
     0
  9
$DIMSD2
 70
     0
  9
$DIMTOLJ
 70
     1
  9
$DIMTZIN
 70
    11
  9
$DIMALTZ
 70
    11
  9
$DIMALTTZ
 70
    11
  9
$DIMUPT
 70
     0
  9
$DIMDEC
 70
     0
  9
$DIMTDEC
 70
     1
  9
$DIMALTU
 70
     2
  9
$DIMALTTD
 70
     2
  9
$DIMTXSTY
  7
ＭＳ ゴシック
  9
$DIMAUNIT
 70
     0
  9
$DIMADEC
 70
     2
  9
$DIMALTRND
 40
0.0
  9
$DIMAZIN
 70
     0
  9
$DIMDSEP
 70
    46
  9
$DIMATFIT
 70
     0
  9
$DIMFRAC
 70
     2
  9
$DIMLDRBLK
  1
DOT
  9
$DIMLUNIT
 70
     2
  9
$DIMLWD
 70
    -2
  9
$DIMLWE
 70
    -2
  9
$DIMTMOVE
 70
     0
  9
$DIMFXL
 40
1.0
  9
$DIMFXLON
 70
     0
  9
$DIMJOGANG
 40
0.7853981633974483
  9
$DIMTFILL
 70
     0
  9
$DIMTFILLCLR
 70
     0
  9
$DIMARCSYM
 70
     0
  9
$DIMLTYPE
  6

  9
$DIMLTEX1
  6

  9
$DIMLTEX2
  6

  9
$LUNITS
 70
     2
  9
$LUPREC
 70
     0
  9
$SKETCHINC
 40
0.1
  9
$FILLETRAD
 40
0.0
  9
$AUNITS
 70
     0
  9
$AUPREC
 70
     0
  9
$MENU
  1
acad
  9
$ELEVATION
 40
0.0
  9
$PELEVATION
 40
0.0
  9
$THICKNESS
 40
0.0
  9
$LIMCHECK
 70
     0
  9
$CHAMFERA
 40
0.0
  9
$CHAMFERB
 40
0.0
  9
$CHAMFERC
 40
0.0
  9
$CHAMFERD
 40
0.0
  9
$SKPOLY
 70
     0
  9
$TDCREATE
 40
2447893.375
  9
$TDUCREATE
 40
0.0
  9
$TDUPDATE
 40
2458134.442647778
  9
$TDUUPDATE
 40
2458134.067647778
  9
$TDINDWG
 40
0.1392433218
  9
$TDUSRTIMER
 40
2458134.067118912
  9
$USRTIMER
 70
     1
  9
$ANGBASE
 50
0.0
  9
$ANGDIR
 70
     0
  9
$PDMODE
 70
     1
  9
$PDSIZE
 40
-2.0
  9
$PLINEWID
 40
0.0
  9
$SPLFRAME
 70
     0
  9
$SPLINETYPE
 70
     6
  9
$SPLINESEGS
 70
     8
  9
$HANDSEED
  5
1A5A
  9
$SURFTAB1
 70
     6
  9
$SURFTAB2
 70
     6
  9
$SURFTYPE
 70
     6
  9
$SURFU
 70
     6
  9
$SURFV
 70
     6
  9
$UCSBASE
  2

  9
$UCSNAME
  2

  9
$UCSORG
 10
0.0
 20
0.0
 30
0.0
  9
$UCSXDIR
 10
1.0
 20
0.0
 30
0.0
  9
$UCSYDIR
 10
0.0
 20
1.0
 30
0.0
  9
$UCSORTHOREF
  2

  9
$UCSORTHOVIEW
 70
     0
  9
$UCSORGTOP
 10
0.0
 20
0.0
 30
0.0
  9
$UCSORGBOTTOM
 10
0.0
 20
0.0
 30
0.0
  9
$UCSORGLEFT
 10
0.0
 20
0.0
 30
0.0
  9
$UCSORGRIGHT
 10
0.0
 20
0.0
 30
0.0
  9
$UCSORGFRONT
 10
0.0
 20
0.0
 30
0.0
  9
$UCSORGBACK
 10
0.0
 20
0.0
 30
0.0
  9
$PUCSBASE
  2

  9
$PUCSNAME
  2

  9
$PUCSORG
 10
0.0
 20
0.0
 30
0.0
  9
$PUCSXDIR
 10
1.0
 20
0.0
 30
0.0
  9
$PUCSYDIR
 10
0.0
 20
1.0
 30
0.0
  9
$PUCSORTHOREF
  2

  9
$PUCSORTHOVIEW
 70
     0
  9
$PUCSORGTOP
 10
0.0
 20
0.0
 30
0.0
  9
$PUCSORGBOTTOM
 10
0.0
 20
0.0
 30
0.0
  9
$PUCSORGLEFT
 10
0.0
 20
0.0
 30
0.0
  9
$PUCSORGRIGHT
 10
0.0
 20
0.0
 30
0.0
  9
$PUCSORGFRONT
 10
0.0
 20
0.0
 30
0.0
  9
$PUCSORGBACK
 10
0.0
 20
0.0
 30
0.0
  9
$USERI1
 70
     0
  9
$USERI2
 70
     0
  9
$USERI3
 70
     0
  9
$USERI4
 70
     0
  9
$USERI5
 70
     0
  9
$USERR1
 40
0.0
  9
$USERR2
 40
0.0
  9
$USERR3
 40
0.0
  9
$USERR4
 40
0.0
  9
$USERR5
 40
0.0
  9
$WORLDVIEW
 70
     1
  9
$SHADEDGE
 70
     3
  9
$SHADEDIF
 70
    70
  9
$TILEMODE
 70
     1
  9
$MAXACTVP
 70
    64
  9
$PINSBASE
 10
0.0
 20
0.0
 30
0.0
  9
$PLIMCHECK
 70
     0
  9
$PEXTMIN
 10
0.0
 20
0.0
 30
0.0
  9
$PEXTMAX
 10
0.0
 20
0.0
 30
0.0
  9
$PLIMMIN
 10
-7.5
 20
-20.0
  9
$PLIMMAX
 10
412.5
 20
277.0
  9
$UNITMODE
 70
     0
  9
$VISRETAIN
 70
     0
  9
$PLINEGEN
 70
     1
  9
$PSLTSCALE
 70
     0
  9
$TREEDEPTH
 70
  3020
  9
$CMLSTYLE
  2
Standard
  9
$CMLJUST
 70
     0
  9
$CMLSCALE
 40
1.0
  9
$PROXYGRAPHICS
 70
     0
  9
$MEASUREMENT
 70
     1
  9
$CELWEIGHT
370
    -1
  9
$ENDCAPS
280
     0
  9
$JOINSTYLE
280
     0
  9
$LWDISPLAY
290
     1
  9
$INSUNITS
 70
     4
  9
$HYPERLINKBASE
  1

  9
$STYLESHEET
  1

  9
$XEDIT
290
     1
  9
$CEPSNTYPE
380
     0
  9
$PSTYLEMODE
290
     1
  9
$FINGERPRINTGUID
  2

  9
$VERSIONGUID
  2

  9
$EXTNAMES
290
     1
  9
$PSVPSCALE
 40
0.0
  9
$OLESTARTUP
290
     0
  9
$SORTENTS
280
   127
  9
$INDEXCTL
280
     0
  9
$HIDETEXT
280
     1
  9
$XCLIPFRAME
290
     0
  9
$HALOGAP
280
     0
  9
$OBSCOLOR
 70
   257
  9
$OBSLTYPE
280
     0
  9
$INTERSECTIONDISPLAY
280
     0
  9
$INTERSECTIONCOLOR
 70
   257
  9
$DIMASSOC
280
     2
  9
$PROJECTNAME
  1

  9
$CAMERADISPLAY
290
     0
  9
$LENSLENGTH
 40
50.0
  9
$CAMERAHEIGHT
 40
0.0
  9
$STEPSPERSEC
 40
2.0
  9
$STEPSIZE
 40
6.0
  9
$3DDWFPREC
 40
2.0
  9
$PSOLWIDTH
 40
0.25
  9
$PSOLHEIGHT
 40
4.0
  9
$LOFTANG1
 40
1.570796326794897
  9
$LOFTANG2
 40
1.570796326794897
  9
$LOFTMAG1
 40
0.0
  9
$LOFTMAG2
 40
0.0
  9
$LOFTPARAM
 70
     7
  9
$LOFTNORMALS
280
     1
  9
$LATITUDE
 40
37.795
  9
$LONGITUDE
 40
-122.394
  9
$NORTHDIRECTION
 40
0.0
  9
$TIMEZONE
 70
 -8000
  9
$LIGHTGLYPHDISPLAY
280
     1
  9
$TILEMODELIGHTSYNCH
280
     1
  9
$SOLIDHIST
280
     1
  9
$SHOWHIST
280
     1
  9
$DWFFRAME
280
     2
  9
$DGNFRAME
280
     2
  9
$REALWORLDSCALE
290
     1
  9
$INTERFERECOLOR
 62
   256
  9
$CSHADOW
280
     0
  9
$SHADOWPLANELOCATION
 40
0.0
  0
ENDSEC
  0
SECTION
  2
CLASSES
  0
CLASS
  1
LWPOLYLINE
  2
AcDbPolyline
  3
ObjectDBX Classes
 90
        0
 91
        1
280
     0
281
     1
  0
CLASS
  1
IMAGE
  2
AcDbRasterImage
  3
ISM
 90
      127
 91
        5
280
     0
281
     1
  0
CLASS
  1
OLE2FRAME
  2
AcDbOle2Frame
  3
ObjectDBX Classes
 90
        0
 91
        1
280
     0
281
     1
  0
CLASS
  1
HATCH
  2
AcDbHatch
  3
ObjectDBX Classes
 90
        0
 91
        1
280
     0
281
     1
  0
CLASS
  1
DICTIONARYVAR
  2
AcDbDictionaryVar
  3
ObjectDBX Classes
 90
        0
 91
        4
280
     0
281
     0
  0
CLASS
  1
RASTERVARIABLES
  2
AcDbRasterVariables
  3
ISM
 90
        0
 91
        4
280
     0
281
     0
  0
CLASS
  1
IMAGEDEF
  2
AcDbRasterImageDef
  3
ISM
 90
        0
 91
        4
280
     0
281
     0
  0
CLASS
  1
IMAGEDEF_REACTOR
  2
AcDbRasterImageDefReactor
  3
ISM
 90
        1
 91
        4
280
     0
281
     0
  0
CLASS
  1
IDBUFFER
  2
AcDbIdBuffer
  3
ObjectDBX Classes
 90
        0
 91
        4
280
     0
281
     0
  0
CLASS
  1
SPATIAL_FILTER
  2
AcDbSpatialFilter
  3
ObjectDBX Classes
 90
        0
 91
        4
280
     0
281
     0
  0
CLASS
  1
XRECORD
  2
AcDbXrecord
  3
ObjectDBX Classes
 90
        0
 91
        1
280
     0
281
     0
  0
CLASS
  1
SORTENTSTABLE
  2
AcDbSortentsTable
  3
ObjectDBX Classes
 90
        0
 91
        4
280
     0
281
     0
  0
CLASS
  1
LAYER_INDEX
  2
AcDbLayerIndex
  3
ObjectDBX Classes
 90
        0
 91
        4
280
     0
281
     0
  0
CLASS
  1
SPATIAL_INDEX
  2
AcDbSpatialIndex
  3
AutoCAD 2000
 90
        0
 91
        4
280
     0
281
     0
  0
CLASS
  1
OBJECT_PTR
  2
CAseDLPNTableRecord
  3
ASE-LPNTableRecord
 90
        1
 91
        4
280
     0
281
     0
  0
CLASS
  1
LAYOUT
  2
AcDbLayout
  3
ObjectDBX Classes
 90
        0
 91
        1
280
     0
281
     0
  0
CLASS
  1
PLOTSETTINGS
  2
AcDbPlotSettings
  3
ObjectDBX Classes
 90
        0
 91
        4
280
     0
281
     0
  0
CLASS
  1
ACDBDICTIONARYWDFLT
  2
AcDbDictionaryWithDefault
  3
ObjectDBX Classes
 90
        0
 91
        4
280
     0
281
     0
  0
CLASS
  1
ACDBPLACEHOLDER
  2
AcDbPlaceHolder
  3
ObjectDBX Classes
 90
        0
 91
        1
280
     0
281
     0
  0
CLASS
  1
SCALE
  2
AcDbScale
  3
ObjectDBX Classes
 90
     1153
 91
        4
280
     0
281
     0
  0
CLASS
  1
MATERIAL
  2
AcDbMaterial
  3
ObjectDBX Classes
 90
     1153
 91
        4
280
     0
281
     0
  0
CLASS
  1
VISUALSTYLE
  2
AcDbVisualStyle
  3
ObjectDBX Classes
 90
     4095
 91
        4
280
     0
281
     0
  0
CLASS
  1
TABLESTYLE
  2
AcDbTableStyle
  3
ObjectDBX Classes
 90
     4095
 91
        4
280
     0
281
     0
  0
CLASS
  1
DIMASSOC
  2
AcDbDimAssoc
  3
"AcDbDimAssoc|Product Desc:     AcDim ARX App For Dimension|Company:          Autodesk, Inc.|WEB Address:      www.autodesk.com"
 90
        0
 91
        4
280
     0
281
     0
  0
CLASS
  1
CELLSTYLEMAP
  2
AcDbCellStyleMap
  3
ObjectDBX Classes
 90
     1152
 91
        4
280
     0
281
     0
  0
CLASS
  1
SUN
  2
AcDbSun
  3
SCENEOE
 90
     1153
 91
        4
280
     0
281
     0
  0
CLASS
  1
MLEADERSTYLE
  2
AcDbMLeaderStyle
  3
ACDB_MLEADERSTYLE_CLASS
 90
     4095
 91
        4
280
     0
281
     0
  0
CLASS
  1
FIELD
  2
AcDbField
  3
ObjectDBX Classes
 90
     1152
 91
        4
280
     0
281
     0
  0
CLASS
  1
FIELDLIST
  2
AcDbFieldList
  3
ObjectDBX Classes
 90
     1152
 91
        4
280
     0
281
     0
  0
ENDSEC
  0
SECTION
  2
TABLES
  0
TABLE
  2
VPORT
  5
7
330
0
100
AcDbSymbolTable
 70
     1
  0
VPORT
  5
15
330
7
100
AcDbSymbolTableRecord
100
AcDbViewportTableRecord
  2
*ACTIVE
 70
     0
 10
0.0
 20
0.0
 11
1.0
 21
1.0
 12
1071.520855983156
 22
483.8016046634625
 13
0.0
 23
0.0
 14
1.0
 24
1.0
 15
0.0
 25
0.0
 16
0.0
 26
0.0
 36
1.0
 17
-91.0201356708991
 27
73.59871453016603
 37
-46.86809886248109
 40
1945.179690216286
 41
2.396092362344583
 42
50.0
 43
0.0
 44
0.0
 50
0.0
 51
0.0
 71
    16
 72
  2000
 73
     1
 74
     1
 75
     0
 76
     0
 77
     0
 78
     0
281
     0
 65
     1
110
0.0
120
0.0
130
0.0
111
1.0
121
0.0
131
0.0
112
0.0
122
1.0
132
0.0
 79
     0
146
0.0
348
26C
 60
     3
 61
     5
292
     1
282
     1
141
0.0
142
0.0
 63
   256
361
904
  0
ENDTAB
  0
TABLE
  2
LTYPE
  5
4
330
0
100
AcDbSymbolTable
 70
     4
  0
LTYPE
  5
11
330
4
100
AcDbSymbolTableRecord
100
AcDbLinetypeTableRecord
  2
ByBlock
 70
     0
  3

 72
    65
 73
     0
 40
0.0
  0
LTYPE
  5
12
330
4
100
AcDbSymbolTableRecord
100
AcDbLinetypeTableRecord
  2
ByLayer
 70
     0
  3

 72
    65
 73
     0
 40
0.0
  0
LTYPE
  5
13
330
4
100
AcDbSymbolTableRecord
100
AcDbLinetypeTableRecord
  2
Continuous
 70
     0
  3
Solid line
 72
    65
 73
     0
 40
0.0
  0
LTYPE
  5
D6C
330
4
100
AcDbSymbolTableRecord
100
AcDbLinetypeTableRecord
  2
BORDER
 70
     0
  3
Border __  __  . __  __  . __  __  . __  __  . 
 72
    65
 73
     6
 40
44.45
 49
12.7
 74
     0
 49
-6.35
 74
     0
 49
12.7
 74
     0
 49
-6.35
 74
     0
 49
0.0
 74
     0
 49
-6.35
 74
     0
  0
LTYPE
  5
D6D
330
4
100
AcDbSymbolTableRecord
100
AcDbLinetypeTableRecord
  2
HIDDEN
 70
     0
  3
Hidden _ _ _ _ _ _ _ _ _ _ _ _ _ _ _ _ _ _ _ _ 
 72
    65
 73
     2
 40
9.524999999999999
 49
6.35
 74
     0
 49
-3.175
 74
     0
  0
LTYPE
  5
188A
330
4
100
AcDbSymbolTableRecord
100
AcDbLinetypeTableRecord
  2
CENTER
 70
     0
  3
 Center _____  _  _____  _  _____  _  _____  _ 
 72
    65
 73
     4
 40
50.8
 49
31.75
 74
     0
 49
-6.35
 74
     0
 49
6.35
 74
     0
 49
-6.35
 74
     0
  0
ENDTAB
  0
TABLE
  2
LAYER
  5
2
102
{ACAD_XDICTIONARY
360
2E1
102
}
330
0
100
AcDbSymbolTable
 70
     8
  0
LAYER
  5
14
330
2
100
AcDbSymbolTableRecord
100
AcDbLayerTableRecord
  2
0
 70
     0
 62
     7
  6
Continuous
370
    -3
390
1D
347
266
  0
LAYER
  5
4B
330
2
100
AcDbSymbolTableRecord
100
AcDbLayerTableRecord
  2
TEMPLATE
 70
     0
 62
     7
  6
Continuous
370
    20
390
1D
347
266
  0
LAYER
  5
4C
330
2
100
AcDbSymbolTableRecord
100
AcDbLayerTableRecord
  2
DIM
 70
     0
 62
     3
  6
Continuous
370
    13
390
1D
347
266
  0
LAYER
  5
4D
330
2
100
AcDbSymbolTableRecord
100
AcDbLayerTableRecord
  2
MODEL
 70
     0
 62
     7
  6
Continuous
370
    20
390
1D
347
266
  0
LAYER
  5
667
330
2
100
AcDbSymbolTableRecord
100
AcDbLayerTableRecord
  2
LOGO
 70
     0
 62
     7
  6
Continuous
370
    -3
390
1D
347
266
  0
LAYER
  5
88C
330
2
100
AcDbSymbolTableRecord
100
AcDbLayerTableRecord
  2
HIDDEN
 70
     0
 62
     8
  6
HIDDEN
370
    20
390
1D
347
266
1001
AcAecLayerStandard
1000

1000

  0
LAYER
  5
D6B
330
2
100
AcDbSymbolTableRecord
100
AcDbLayerTableRecord
  2
BORDER
 70
     0
 62
     4
  6
BORDER
290
     0
370
    20
390
1D
347
266
1001
AcAecLayerStandard
1000

1000

  0
LAYER
  5
D8C
330
2
100
AcDbSymbolTableRecord
100
AcDbLayerTableRecord
  2
Defpoints
 70
     0
 62
     7
  6
Continuous
290
     0
370
    -3
390
1D
347
266
  0
ENDTAB
  0
TABLE
  2
STYLE
  5
3
330
0
100
AcDbSymbolTable
 70
     2
  0
STYLE
  5
17
330
3
100
AcDbSymbolTableRecord
100
AcDbTextStyleTableRecord
  2
Standard
 70
     0
 40
0.0
 41
1.0
 50
0.0
 71
     0
 42
2.5
  3
txt
  4
BIGFONT.SHX
  0
STYLE
  5
39
330
3
100
AcDbSymbolTableRecord
100
AcDbTextStyleTableRecord
  2
ＭＳ ゴシック
 70
     0
 40
0.0
 41
1.0
 50
0.0
 71
     0
 42
2.5
  3
msgothic.ttc
  4
ＭＳ ゴシック
1001
ACAD
1000
ＭＳ ゴシック
1071
        0
  0
ENDTAB
  0
TABLE
  2
VIEW
  5
5
330
0
100
AcDbSymbolTable
 70
     0
  0
ENDTAB
  0
TABLE
  2
UCS
  5
6
330
0
100
AcDbSymbolTable
 70
     0
  0
ENDTAB
  0
TABLE
  2
APPID
  5
8
330
0
100
AcDbSymbolTable
 70
     3
  0
APPID
  5
16
330
8
100
AcDbSymbolTableRecord
100
AcDbRegAppTableRecord
  2
ACAD
 70
     0
  0
APPID
  5
7AC
330
8
100
AcDbSymbolTableRecord
100
AcDbRegAppTableRecord
  2
AcAecLayerStandard
 70
     0
  0
APPID
  5
E29
330
8
100
AcDbSymbolTableRecord
100
AcDbRegAppTableRecord
  2
ACAD_MLEADERVER
 70
     0
  0
ENDTAB
  0
TABLE
  2
DIMSTYLE
  5
9
330
0
100
AcDbSymbolTable
 70
     2
100
AcDbDimStyleTable
  0
DIMSTYLE
105
18
330
9
100
AcDbSymbolTableRecord
100
AcDbDimStyleTableRecord
  2
Standard
 70
     0
178
     0
340
17
  0
DIMSTYLE
105
57
102
{ACAD_REACTORS
330
13A1
330
13A3
330
13A6
330
13AA
330
13AB
330
13AE
330
13B1
330
13BE
330
14C6
330
14C9
330
14CA
330
14CC
330
14D1
330
17F3
330
1825
330
1841
330
186B
330
18E5
330
1943
330
1966
330
19F8
330
1A38
102
}
330
9
100
AcDbSymbolTableRecord
100
AcDbDimStyleTableRecord
  2
tfrom線あり
 70
     0
  3
<>
  4
[]
 41
3.0
 42
10.0
 43
0.9999999999999999
 44
0.0
 73
     0
 74
     0
 77
     1
 78
    11
140
12.0
141
0.0
143
1.0
147
10.0
171
     1
174
     1
178
     0
179
     2
271
     0
272
     1
276
     2
284
    11
285
    11
286
    11
289
     0
340
39
341
4E
342
4E
  0
ENDTAB
  0
TABLE
  2
BLOCK_RECORD
  5
1
330
0
100
AcDbSymbolTable
 70
    29
  0
BLOCK_RECORD
  5
A
330
1
100
AcDbSymbolTableRecord
100
AcDbBlockTableRecord
  2
*MODEL_SPACE
340
20
 70
     0
280
     1
281
     0
  0
BLOCK_RECORD
  5
B
330
1
100
AcDbSymbolTableRecord
100
AcDbBlockTableRecord
  2
*PAPER_SPACE
340
21
 70
     0
280
     1
281
     0
  0
BLOCK_RECORD
  5
4E
330
1
100
AcDbSymbolTableRecord
100
AcDbBlockTableRecord
  2
_DOT
340
0
102
{BLKREFS
331
14D9
331
14DA
331
14E5
331
14E6
331
14F1
331
14F2
331
1509
331
150A
331
1515
331
1516
331
1521
331
1522
331
152D
331
152E
331
1551
331
1552
331
155D
331
155E
331
156C
331
156D
331
1578
331
1579
331
1584
331
1585
331
158F
331
1590
331
17FA
331
17FB
331
182C
331
182D
331
184A
331
184B
331
1874
331
1875
331
18F4
331
18F5
331
194C
331
194D
331
196F
331
1970
331
19FF
331
1A00
331
1A29
331
1A2A
331
1A3F
331
1A40
102
}
 70
     0
280
     1
281
     0
  0
BLOCK_RECORD
  5
68A
330
1
100
AcDbSymbolTableRecord
100
AcDbBlockTableRecord
  2
名称未設定-1
340
0
102
{BLKREFS
331
6B5
102
}
 70
     1
280
     1
281
     0
  0
BLOCK_RECORD
  5
68D
330
1
100
AcDbSymbolTableRecord
100
AcDbBlockTableRecord
  2
block 2
340
0
102
{BLKREFS
331
68C
331
123E
102
}
 70
     0
280
     1
281
     0
  0
BLOCK_RECORD
  5
690
330
1
100
AcDbSymbolTableRecord
100
AcDbBlockTableRecord
  2
block 3
340
0
102
{BLKREFS
331
68F
102
}
 70
     0
280
     1
281
     0
  0
BLOCK_RECORD
  5
693
330
1
100
AcDbSymbolTableRecord
100
AcDbBlockTableRecord
  2
block 4
340
0
102
{BLKREFS
331
692
102
}
 70
     0
280
     1
281
     0
  0
BLOCK_RECORD
  5
6A2
330
1
100
AcDbSymbolTableRecord
100
AcDbBlockTableRecord
  2
block 5
340
0
102
{BLKREFS
331
6A1
102
}
 70
     0
280
     1
281
     0
  0
BLOCK_RECORD
  5
14D3
330
1
100
AcDbSymbolTableRecord
100
AcDbBlockTableRecord
  2
*D6
340
0
 70
     0
280
     1
281
     0
  0
BLOCK_RECORD
  5
14DF
330
1
100
AcDbSymbolTableRecord
100
AcDbBlockTableRecord
  2
*D7
340
0
 70
     0
280
     1
281
     0
  0
BLOCK_RECORD
  5
14EB
330
1
100
AcDbSymbolTableRecord
100
AcDbBlockTableRecord
  2
*D8
340
0
 70
     0
280
     1
281
     0
  0
BLOCK_RECORD
  5
1503
330
1
100
AcDbSymbolTableRecord
100
AcDbBlockTableRecord
  2
*D9
340
0
 70
     0
280
     1
281
     0
  0
BLOCK_RECORD
  5
150F
330
1
100
AcDbSymbolTableRecord
100
AcDbBlockTableRecord
  2
*D10
340
0
 70
     0
280
     1
281
     0
  0
BLOCK_RECORD
  5
151B
330
1
100
AcDbSymbolTableRecord
100
AcDbBlockTableRecord
  2
*D11
340
0
 70
     0
280
     1
281
     0
  0
BLOCK_RECORD
  5
1527
330
1
100
AcDbSymbolTableRecord
100
AcDbBlockTableRecord
  2
*D12
340
0
 70
     0
280
     1
281
     0
  0
BLOCK_RECORD
  5
154B
330
1
100
AcDbSymbolTableRecord
100
AcDbBlockTableRecord
  2
*D13
340
0
 70
     0
280
     1
281
     0
  0
BLOCK_RECORD
  5
1557
330
1
100
AcDbSymbolTableRecord
100
AcDbBlockTableRecord
  2
*D14
340
0
 70
     0
280
     1
281
     0
  0
BLOCK_RECORD
  5
1566
330
1
100
AcDbSymbolTableRecord
100
AcDbBlockTableRecord
  2
*D15
340
0
 70
     0
280
     1
281
     0
  0
BLOCK_RECORD
  5
1572
330
1
100
AcDbSymbolTableRecord
100
AcDbBlockTableRecord
  2
*D16
340
0
 70
     0
280
     1
281
     0
  0
BLOCK_RECORD
  5
157E
330
1
100
AcDbSymbolTableRecord
100
AcDbBlockTableRecord
  2
*D17
340
0
 70
     0
280
     1
281
     0
  0
BLOCK_RECORD
  5
158A
330
1
100
AcDbSymbolTableRecord
100
AcDbBlockTableRecord
  2
*D18
340
0
 70
     0
280
     1
281
     0
  0
BLOCK_RECORD
  5
17F4
330
1
100
AcDbSymbolTableRecord
100
AcDbBlockTableRecord
  2
*D19
340
0
 70
     0
280
     1
281
     0
  0
BLOCK_RECORD
  5
1826
330
1
100
AcDbSymbolTableRecord
100
AcDbBlockTableRecord
  2
*D20
340
0
 70
     0
280
     1
281
     0
  0
BLOCK_RECORD
  5
1844
330
1
100
AcDbSymbolTableRecord
100
AcDbBlockTableRecord
  2
*D21
340
0
 70
     0
280
     1
281
     0
  0
BLOCK_RECORD
  5
186E
330
1
100
AcDbSymbolTableRecord
100
AcDbBlockTableRecord
  2
*D22
340
0
 70
     0
280
     1
281
     0
  0
BLOCK_RECORD
  5
18EE
330
1
100
AcDbSymbolTableRecord
100
AcDbBlockTableRecord
  2
*D23
340
0
 70
     0
280
     1
281
     0
  0
BLOCK_RECORD
  5
1946
330
1
100
AcDbSymbolTableRecord
100
AcDbBlockTableRecord
  2
*D24
340
0
 70
     0
280
     1
281
     0
  0
BLOCK_RECORD
  5
1969
330
1
100
AcDbSymbolTableRecord
100
AcDbBlockTableRecord
  2
*D25
340
0
 70
     0
280
     1
281
     0
  0
BLOCK_RECORD
  5
19F9
330
1
100
AcDbSymbolTableRecord
100
AcDbBlockTableRecord
  2
*D26
340
0
 70
     0
280
     1
281
     0
  0
BLOCK_RECORD
  5
1A23
330
1
100
AcDbSymbolTableRecord
100
AcDbBlockTableRecord
  2
*D27
340
0
 70
     0
280
     1
281
     0
  0
BLOCK_RECORD
  5
1A39
330
1
100
AcDbSymbolTableRecord
100
AcDbBlockTableRecord
  2
*D28
340
0
 70
     0
280
     1
281
     0
  0
ENDTAB
  0
ENDSEC
  0
SECTION
  2
BLOCKS
  0
BLOCK
  5
D
330
A
100
AcDbEntity
  8
0
390
1D
100
AcDbBlockBegin
  2
*MODEL_SPACE
 70
     0
 10
0.0
 20
0.0
 30
0.0
  3
*MODEL_SPACE
  1
*MODEL_SPACE
  0
ENDBLK
  5
E
330
A
100
AcDbEntity
  8
0
390
1D
100
AcDbBlockEnd
  0
BLOCK
  5
F
330
B
100
AcDbEntity
 67
     1
  8
0
390
1D
100
AcDbBlockBegin
  2
*PAPER_SPACE
 70
     0
 10
0.0
 20
0.0
 30
0.0
  3
*PAPER_SPACE
  1
*PAPER_SPACE
  0
ENDBLK
  5
10
330
B
100
AcDbEntity
 67
     1
  8
0
390
1D
100
AcDbBlockEnd
  0
BLOCK
  5
E30
330
4E
100
AcDbEntity
  8
0
390
1D
100
AcDbBlockBegin
  2
_DOT
 70
     0
 10
0.0
 20
0.0
 30
0.0
  3
_DOT
  1
_DOT
  0
POLYLINE
  5
E32
330
4E
100
AcDbEntity
  8
0
  6
ByBlock
 62
     0
370
    -2
390
1D
100
AcDb2dPolyline
 66
     1
 10
0.0
 20
0.0
 30
0.0
 70
     1
 40
0.5
 41
0.5
  0
VERTEX
  5
E33
330
E32
100
AcDbEntity
  8
0
  6
ByBlock
 62
     0
370
    -2
390
1D
100
AcDbVertex
100
AcDb2dVertex
 10
-0.25
 20
0.0
 30
0.0
 42
1.0
  0
VERTEX
  5
E34
330
E32
100
AcDbEntity
  8
0
  6
ByBlock
 62
     0
370
    -2
390
1D
100
AcDbVertex
100
AcDb2dVertex
 10
0.25
 20
0.0
 30
0.0
 42
1.0
  0
SEQEND
  5
E35
330
E32
100
AcDbEntity
  8
0
390
1D
  0
LINE
  5
E36
330
4E
100
AcDbEntity
  8
0
  6
ByBlock
 62
     0
370
    -2
390
1D
100
AcDbLine
 10
-0.5
 20
0.0
 30
0.0
 11
-1.0
 21
0.0
 31
0.0
  0
ENDBLK
  5
E37
330
4E
100
AcDbEntity
  8
0
390
1D
100
AcDbBlockEnd
  0
BLOCK
  5
68B
330
68A
100
AcDbEntity
  8
0
100
AcDbBlockBegin
  2
名称未設定-1
 70
     0
 10
0.0
 20
0.0
 30
0.0
  3
名称未設定-1
  1
名称未設定-1
  0
INSERT
  5
68F
330
68A
100
AcDbEntity
  8
LOGO
100
AcDbBlockReference
  2
block 3
 10
0.0
 20
0.0
 30
0.0
  0
ENDBLK
  5
6B1
330
68A
100
AcDbEntity
  8
0
100
AcDbBlockEnd
  0
BLOCK
  5
68E
330
68D
100
AcDbEntity
  8
0
100
AcDbBlockBegin
  2
block 2
 70
     0
 10
0.0
 20
0.0
 30
0.0
  3
block 2
  1
block 2
  0
ENDBLK
  5
6B0
330
68D
100
AcDbEntity
  8
0
100
AcDbBlockEnd
  0
BLOCK
  5
691
330
690
100
AcDbEntity
  8
0
100
AcDbBlockBegin
  2
block 3
 70
     0
 10
0.0
 20
0.0
 30
0.0
  3
block 3
  1
block 3
  0
INSERT
  5
692
330
690
100
AcDbEntity
  8
LOGO
100
AcDbBlockReference
  2
block 4
 10
0.0
 20
0.0
 30
0.0
  0
INSERT
  5
6A1
330
690
100
AcDbEntity
  8
LOGO
100
AcDbBlockReference
  2
block 5
 10
0.0
 20
0.0
 30
0.0
  0
ENDBLK
  5
6AF
330
690
100
AcDbEntity
  8
0
100
AcDbBlockEnd
  0
BLOCK
  5
694
330
693
100
AcDbEntity
  8
0
100
AcDbBlockBegin
  2
block 4
 70
     0
 10
0.0
 20
0.0
 30
0.0
  3
block 4
  1
block 4
  0
POLYLINE
  5
695
330
693
100
AcDbEntity
  8
LOGO
370
     0
100
AcDb2dPolyline
 66
     1
 10
0.0
 20
0.0
 30
0.0
  0
VERTEX
  5
696
330
695
100
AcDbEntity
  8
LOGO
370
     0
100
AcDbVertex
100
AcDb2dVertex
 10
83.79545727667795
 20
167.6444858234922
 30
0.0
  0
VERTEX
  5
697
330
695
100
AcDbEntity
  8
LOGO
370
     0
100
AcDbVertex
100
AcDb2dVertex
 10
83.79545727667795
 20
159.7968976406313
 30
0.0
  0
VERTEX
  5
698
330
695
100
AcDbEntity
  8
LOGO
370
     0
100
AcDbVertex
100
AcDb2dVertex
 10
71.3631329975216
 20
159.7968976406313
 30
0.0
  0
VERTEX
  5
699
330
695
100
AcDbEntity
  8
LOGO
370
     0
100
AcDbVertex
100
AcDb2dVertex
 10
71.3631329975216
 20
127.8027915271048
 30
0.0
  0
VERTEX
  5
69A
330
695
100
AcDbEntity
  8
LOGO
370
     0
100
AcDbVertex
100
AcDb2dVertex
 10
60.43011526263018
 20
127.8027915271048
 30
0.0
  0
VERTEX
  5
69B
330
695
100
AcDbEntity
  8
LOGO
370
     0
100
AcDbVertex
100
AcDb2dVertex
 10
60.43011526263018
 20
159.7968976406313
 30
0.0
  0
VERTEX
  5
69C
330
695
100
AcDbEntity
  8
LOGO
370
     0
100
AcDbVertex
100
AcDb2dVertex
 10
48.21793273020759
 20
159.7968976406313
 30
0.0
  0
VERTEX
  5
69D
330
695
100
AcDbEntity
  8
LOGO
370
     0
100
AcDbVertex
100
AcDb2dVertex
 10
48.21793273020759
 20
167.6444858234922
 30
0.0
  0
VERTEX
  5
69E
330
695
100
AcDbEntity
  8
LOGO
370
     0
100
AcDbVertex
100
AcDb2dVertex
 10
83.79545727667795
 20
167.6444858234922
 30
0.0
  0
SEQEND
  5
69F
330
695
100
AcDbEntity
  8
LOGO
370
     0
  0
HATCH
  5
6A0
330
693
100
AcDbEntity
  8
LOGO
 62
   250
420
  2234388
100
AcDbHatch
 10
0.0
 20
0.0
 30
0.0
210
0.0
220
0.0
230
1.0
  2
SOLID
 70
     1
 71
     0
 91
        1
 92
        1
 93
        8
 72
     1
 10
83.79545727667795
 20
167.6444858234922
 11
83.79545727667795
 21
159.7968976406313
 72
     1
 10
83.79545727667795
 20
159.7968976406313
 11
71.3631329975216
 21
159.7968976406313
 72
     1
 10
71.3631329975216
 20
159.7968976406313
 11
71.3631329975216
 21
127.8027915271048
 72
     1
 10
71.3631329975216
 20
127.8027915271048
 11
60.43011526263018
 21
127.8027915271048
 72
     1
 10
60.43011526263018
 20
127.8027915271048
 11
60.43011526263018
 21
159.7968976406313
 72
     1
 10
60.43011526263018
 20
159.7968976406313
 11
48.21793273020759
 21
159.7968976406313
 72
     1
 10
48.21793273020759
 20
159.7968976406313
 11
48.21793273020759
 21
167.6444858234922
 72
     1
 10
48.21793273020759
 20
167.6444858234922
 11
83.79545727667795
 21
167.6444858234922
 97
        0
 75
     2
 76
     1
 98
        0
  0
ENDBLK
  5
6AE
330
693
100
AcDbEntity
  8
0
100
AcDbBlockEnd
  0
BLOCK
  5
6A3
330
6A2
100
AcDbEntity
  8
0
100
AcDbBlockBegin
  2
block 5
 70
     0
 10
0.0
 20
0.0
 30
0.0
  3
block 5
  1
block 5
  0
SPLINE
  5
6A4
330
6A2
100
AcDbEntity
  8
LOGO
370
     0
100
AcDbSpline
210
0.0
220
0.0
230
1.0
 70
    11
 71
     3
 72
    56
 73
    52
 74
     0
 42
0.000000001
 43
0.0000000001
 40
0.0
 40
0.0
 40
0.0
 40
0.0
 40
1.0
 40
1.0
 40
1.0
 40
2.0
 40
2.0
 40
2.0
 40
3.0
 40
3.0
 40
3.0
 40
4.0
 40
4.0
 40
4.0
 40
5.0
 40
5.0
 40
5.0
 40
6.0
 40
6.0
 40
6.0
 40
7.0
 40
7.0
 40
7.0
 40
8.0
 40
8.0
 40
8.0
 40
9.0
 40
9.0
 40
9.0
 40
10.0
 40
10.0
 40
10.0
 40
11.0
 40
11.0
 40
11.0
 40
12.0
 40
12.0
 40
12.0
 40
13.0
 40
13.0
 40
13.0
 40
14.0
 40
14.0
 40
14.0
 40
15.0
 40
15.0
 40
15.0
 40
16.0
 40
16.0
 40
16.0
 40
17.0
 40
17.0
 40
17.0
 40
17.0
 10
100.4504378777679
 20
166.69157178364
 30
0.0
 10
101.9848844191641
 20
167.1313385124438
 30
0.0
 10
103.9637485713373
 20
166.7649523658846
 30
0.0
 10
103.9637485713373
 20
166.7649523658846
 30
0.0
 10
103.9637485713373
 20
166.7649523658846
 30
0.0
 10
103.0132460999156
 20
163.911205638077
 30
0.0
 10
103.0132460999156
 20
163.911205638077
 30
0.0
 10
103.0132460999156
 20
163.911205638077
 30
0.0
 10
101.0674548862189
 20
164.3601018759394
 30
0.0
 10
99.57090442016032
 20
163.1805004036133
 30
0.0
 10
98.40508333886608
 20
162.258247733807
 30
0.0
 10
97.65301849830304
 20
159.804132345923
 30
0.0
 10
97.3598406791005
 20
158.8699940888517
 30
0.0
 10
97.3598406791005
 20
158.8699940888517
 30
0.0
 10
96.07137411762282
 20
154.9119212747295
 30
0.0
 10
96.07137411762282
 20
154.9119212747295
 30
0.0
 10
96.07137411762282
 20
154.9119212747295
 30
0.0
 10
100.3012651448482
 20
154.9119212747295
 30
0.0
 10
100.3012651448482
 20
154.9119212747295
 30
0.0
 10
100.3012651448482
 20
154.9119212747295
 30
0.0
 10
99.64152892419852
 20
152.4199098115079
 30
0.0
 10
99.64152892419852
 20
152.4199098115079
 30
0.0
 10
99.64152892419852
 20
152.4199098115079
 30
0.0
 10
95.38097652692731
 20
152.4199098115079
 30
0.0
 10
95.38097652692731
 20
152.4199098115079
 30
0.0
 10
95.38097652692731
 20
152.4199098115079
 30
0.0
 10
87.75353009080013
 20
127.8027915271048
 30
0.0
 10
87.75353009080013
 20
127.8027915271048
 30
0.0
 10
87.75353009080013
 20
127.8027915271048
 30
0.0
 10
85.36538832498108
 20
127.8027915271048
 30
0.0
 10
85.36538832498108
 20
127.8027915271048
 30
0.0
 10
85.36538832498108
 20
127.8027915271048
 30
0.0
 10
93.00006946639998
 20
152.4199098115079
 30
0.0
 10
93.00006946639998
 20
152.4199098115079
 30
0.0
 10
93.00006946639998
 20
152.4199098115079
 30
0.0
 10
89.85297266450198
 20
152.4199098115079
 30
0.0
 10
89.85297266450198
 20
152.4199098115079
 30
0.0
 10
89.85297266450198
 20
152.4199098115079
 30
0.0
 10
90.51270888515164
 20
154.9119212747295
 30
0.0
 10
90.51270888515164
 20
154.9119212747295
 30
0.0
 10
90.51270888515164
 20
154.9119212747295
 30
0.0
 10
93.6904670570955
 20
154.9119212747295
 30
0.0
 10
93.6904670570955
 20
154.9119212747295
 30
0.0
 10
93.6904670570955
 20
154.9119212747295
 30
0.0
 10
94.81598049462158
 20
158.3616699146644
 30
0.0
 10
94.81598049462158
 20
158.3616699146644
 30
0.0
 10
95.7237637538445
 20
161.2605474231013
 30
0.0
 10
96.4968436907311
 20
162.8139420021662
 30
0.0
 10
97.15657991138076
 20
163.9844139654337
 30
0.0
 10
97.81183750494507
 20
165.1523021053827
 30
0.0
 10
99.1047826935081
 20
166.3084769129547
 30
0.0
 10
100.4504378777679
 20
166.69157178364
 30
0.0
  0
HATCH
  5
6A5
330
6A2
100
AcDbEntity
  8
LOGO
 62
   250
420
  2234388
100
AcDbHatch
 10
0.0
 20
0.0
 30
0.0
210
0.0
220
0.0
230
1.0
  2
SOLID
 70
     1
 71
     0
 91
        1
 92
        1
 93
        1
 72
     4
 94
        3
 73
     0
 74
     1
 95
       56
 96
       52
 40
0.0
 40
0.0
 40
0.0
 40
0.0
 40
1.0
 40
1.0
 40
1.0
 40
2.0
 40
2.0
 40
2.0
 40
3.0
 40
3.0
 40
3.0
 40
4.0
 40
4.0
 40
4.0
 40
5.0
 40
5.0
 40
5.0
 40
6.0
 40
6.0
 40
6.0
 40
7.0
 40
7.0
 40
7.0
 40
8.0
 40
8.0
 40
8.0
 40
9.0
 40
9.0
 40
9.0
 40
10.0
 40
10.0
 40
10.0
 40
11.0
 40
11.0
 40
11.0
 40
12.0
 40
12.0
 40
12.0
 40
13.0
 40
13.0
 40
13.0
 40
14.0
 40
14.0
 40
14.0
 40
15.0
 40
15.0
 40
15.0
 40
16.0
 40
16.0
 40
16.0
 40
17.0
 40
17.0
 40
17.0
 40
17.0
 10
100.4504378777679
 20
166.69157178364
 10
101.9848844191641
 20
167.1313385124438
 10
103.9637485713373
 20
166.7649523658846
 10
103.9637485713373
 20
166.7649523658846
 10
103.9637485713373
 20
166.7649523658846
 10
103.0132460999156
 20
163.911205638077
 10
103.0132460999156
 20
163.911205638077
 10
103.0132460999156
 20
163.911205638077
 10
101.0674548862189
 20
164.3601018759394
 10
99.57090442016032
 20
163.1805004036133
 10
98.40508333886608
 20
162.258247733807
 10
97.65301849830304
 20
159.804132345923
 10
97.3598406791005
 20
158.8699940888517
 10
97.3598406791005
 20
158.8699940888517
 10
96.07137411762282
 20
154.9119212747295
 10
96.07137411762282
 20
154.9119212747295
 10
96.07137411762282
 20
154.9119212747295
 10
100.3012651448482
 20
154.9119212747295
 10
100.3012651448482
 20
154.9119212747295
 10
100.3012651448482
 20
154.9119212747295
 10
99.64152892419852
 20
152.4199098115079
 10
99.64152892419852
 20
152.4199098115079
 10
99.64152892419852
 20
152.4199098115079
 10
95.38097652692731
 20
152.4199098115079
 10
95.38097652692731
 20
152.4199098115079
 10
95.38097652692731
 20
152.4199098115079
 10
87.75353009080013
 20
127.8027915271048
 10
87.75353009080013
 20
127.8027915271048
 10
87.75353009080013
 20
127.8027915271048
 10
85.36538832498108
 20
127.8027915271048
 10
85.36538832498108
 20
127.8027915271048
 10
85.36538832498108
 20
127.8027915271048
 10
93.00006946639998
 20
152.4199098115079
 10
93.00006946639998
 20
152.4199098115079
 10
93.00006946639998
 20
152.4199098115079
 10
89.85297266450198
 20
152.4199098115079
 10
89.85297266450198
 20
152.4199098115079
 10
89.85297266450198
 20
152.4199098115079
 10
90.51270888515164
 20
154.9119212747295
 10
90.51270888515164
 20
154.9119212747295
 10
90.51270888515164
 20
154.9119212747295
 10
93.6904670570955
 20
154.9119212747295
 10
93.6904670570955
 20
154.9119212747295
 10
93.6904670570955
 20
154.9119212747295
 10
94.81598049462158
 20
158.3616699146644
 10
94.81598049462158
 20
158.3616699146644
 10
95.7237637538445
 20
161.2605474231013
 10
96.4968436907311
 20
162.8139420021662
 10
97.15657991138076
 20
163.9844139654337
 10
97.81183750494507
 20
165.1523021053827
 10
99.1047826935081
 20
166.3084769129547
 10
100.4504378777679
 20
166.69157178364
 97
        0
 75
     2
 76
     1
 98
        0
  0
SPLINE
  5
6A6
330
6A2
100
AcDbEntity
  8
LOGO
370
     0
100
AcDbSpline
210
0.0
220
0.0
230
1.0
 70
    11
 71
     3
 72
    38
 73
    34
 74
     0
 42
0.000000001
 43
0.0000000001
 40
0.0
 40
0.0
 40
0.0
 40
0.0
 40
1.0
 40
1.0
 40
1.0
 40
2.0
 40
2.0
 40
2.0
 40
3.0
 40
3.0
 40
3.0
 40
4.0
 40
4.0
 40
4.0
 40
5.0
 40
5.0
 40
5.0
 40
6.0
 40
6.0
 40
6.0
 40
7.0
 40
7.0
 40
7.0
 40
8.0
 40
8.0
 40
8.0
 40
9.0
 40
9.0
 40
9.0
 40
10.0
 40
10.0
 40
10.0
 40
11.0
 40
11.0
 40
11.0
 40
11.0
 10
126.377554584636
 20
154.8151140277308
 30
0.0
 10
126.377554584636
 20
154.8151140277308
 30
0.0
 10
128.8311532078563
 20
154.8151140277308
 30
0.0
 10
128.8311532078563
 20
154.8151140277308
 30
0.0
 10
128.8311532078563
 20
154.8151140277308
 30
0.0
 10
127.7345785914971
 20
151.3062819612468
 30
0.0
 10
127.7345785914971
 20
151.3062819612468
 30
0.0
 10
128.571392836906
 20
152.2922689395754
 30
0.0
 10
129.8860421413442
 20
153.604506675583
 30
0.0
 10
131.0163787157314
 20
154.2664822097754
 30
0.0
 10
132.7044766171327
 20
155.2500576196734
 30
0.0
 10
133.6642808525008
 20
155.3847609420097
 30
0.0
 10
134.7284715499351
 20
155.3565111403944
 30
0.0
 10
134.7284715499351
 20
155.3565111403944
 30
0.0
 10
133.6877075172549
 20
152.0345756272799
 30
0.0
 10
133.6877075172549
 20
152.0345756272799
 30
0.0
 10
133.011434827367
 20
152.3184516825359
 30
0.0
 10
130.930940291334
 20
151.7768823149844
 30
0.0
 10
129.739280976855
 20
150.9162968950455
 30
0.0
 10
128.66613302525
 20
150.1454562717016
 30
0.0
 10
127.9192358313239
 20
149.4857200510519
 30
0.0
 10
127.0393578639405
 20
147.8282835196966
 30
0.0
 10
126.164647543194
 20
146.1699857139017
 30
0.0
 10
125.4742499524985
 20
143.5262176944419
 30
0.0
 10
124.2822461282437
 20
139.6959580071401
 30
0.0
 10
124.2822461282437
 20
139.6959580071401
 30
0.0
 10
120.5753209406769
 20
127.8027915271048
 30
0.0
 10
120.5753209406769
 20
127.8027915271048
 30
0.0
 10
120.5753209406769
 20
127.8027915271048
 30
0.0
 10
118.1964809388044
 20
127.8027915271048
 30
0.0
 10
118.1964809388044
 20
127.8027915271048
 30
0.0
 10
118.1964809388044
 20
127.8027915271048
 30
0.0
 10
126.377554584636
 20
154.8151140277308
 30
0.0
 10
126.377554584636
 20
154.8151140277308
 30
0.0
  0
HATCH
  5
6A7
330
6A2
100
AcDbEntity
  8
LOGO
 62
   250
420
  2234388
100
AcDbHatch
 10
0.0
 20
0.0
 30
0.0
210
0.0
220
0.0
230
1.0
  2
SOLID
 70
     1
 71
     0
 91
        1
 92
        1
 93
        1
 72
     4
 94
        3
 73
     0
 74
     1
 95
       38
 96
       34
 40
0.0
 40
0.0
 40
0.0
 40
0.0
 40
1.0
 40
1.0
 40
1.0
 40
2.0
 40
2.0
 40
2.0
 40
3.0
 40
3.0
 40
3.0
 40
4.0
 40
4.0
 40
4.0
 40
5.0
 40
5.0
 40
5.0
 40
6.0
 40
6.0
 40
6.0
 40
7.0
 40
7.0
 40
7.0
 40
8.0
 40
8.0
 40
8.0
 40
9.0
 40
9.0
 40
9.0
 40
10.0
 40
10.0
 40
10.0
 40
11.0
 40
11.0
 40
11.0
 40
11.0
 10
126.377554584636
 20
154.8151140277308
 10
126.377554584636
 20
154.8151140277308
 10
128.8311532078563
 20
154.8151140277308
 10
128.8311532078563
 20
154.8151140277308
 10
128.8311532078563
 20
154.8151140277308
 10
127.7345785914971
 20
151.3062819612468
 10
127.7345785914971
 20
151.3062819612468
 10
128.571392836906
 20
152.2922689395754
 10
129.8860421413442
 20
153.604506675583
 10
131.0163787157314
 20
154.2664822097754
 10
132.7044766171327
 20
155.2500576196734
 10
133.6642808525008
 20
155.3847609420097
 10
134.7284715499351
 20
155.3565111403944
 10
134.7284715499351
 20
155.3565111403944
 10
133.6877075172549
 20
152.0345756272799
 10
133.6877075172549
 20
152.0345756272799
 10
133.011434827367
 20
152.3184516825359
 10
130.930940291334
 20
151.7768823149844
 10
129.739280976855
 20
150.9162968950455
 10
128.66613302525
 20
150.1454562717016
 10
127.9192358313239
 20
149.4857200510519
 10
127.0393578639405
 20
147.8282835196966
 10
126.164647543194
 20
146.1699857139017
 10
125.4742499524985
 20
143.5262176944419
 10
124.2822461282437
 20
139.6959580071401
 10
124.2822461282437
 20
139.6959580071401
 10
120.5753209406769
 20
127.8027915271048
 10
120.5753209406769
 20
127.8027915271048
 10
120.5753209406769
 20
127.8027915271048
 10
118.1964809388044
 20
127.8027915271048
 10
118.1964809388044
 20
127.8027915271048
 10
118.1964809388044
 20
127.8027915271048
 10
126.377554584636
 20
154.8151140277308
 10
126.377554584636
 20
154.8151140277308
 97
        0
 75
     2
 76
     1
 98
        0
  0
SPLINE
  5
6A8
330
6A2
100
AcDbEntity
  8
LOGO
370
     0
100
AcDbSpline
210
0.0
220
0.0
230
1.0
 70
    11
 71
     3
 72
   104
 73
   100
 74
     0
 42
0.000000001
 43
0.0000000001
 40
0.0
 40
0.0
 40
0.0
 40
0.0
 40
1.0
 40
1.0
 40
1.0
 40
2.0
 40
2.0
 40
2.0
 40
3.0
 40
3.0
 40
3.0
 40
4.0
 40
4.0
 40
4.0
 40
5.0
 40
5.0
 40
5.0
 40
6.0
 40
6.0
 40
6.0
 40
7.0
 40
7.0
 40
7.0
 40
8.0
 40
8.0
 40
8.0
 40
9.0
 40
9.0
 40
9.0
 40
10.0
 40
10.0
 40
10.0
 40
11.0
 40
11.0
 40
11.0
 40
12.0
 40
12.0
 40
12.0
 40
13.0
 40
13.0
 40
13.0
 40
14.0
 40
14.0
 40
14.0
 40
15.0
 40
15.0
 40
15.0
 40
16.0
 40
16.0
 40
16.0
 40
17.0
 40
17.0
 40
17.0
 40
18.0
 40
18.0
 40
18.0
 40
19.0
 40
19.0
 40
19.0
 40
20.0
 40
20.0
 40
20.0
 40
21.0
 40
21.0
 40
21.0
 40
22.0
 40
22.0
 40
22.0
 40
23.0
 40
23.0
 40
23.0
 40
24.0
 40
24.0
 40
24.0
 40
25.0
 40
25.0
 40
25.0
 40
26.0
 40
26.0
 40
26.0
 40
27.0
 40
27.0
 40
27.0
 40
28.0
 40
28.0
 40
28.0
 40
29.0
 40
29.0
 40
29.0
 40
30.0
 40
30.0
 40
30.0
 40
31.0
 40
31.0
 40
31.0
 40
32.0
 40
32.0
 40
32.0
 40
33.0
 40
33.0
 40
33.0
 40
33.0
 10
139.8926730891197
 20
154.8294111834263
 30
0.0
 10
139.8926730891197
 20
154.8294111834263
 30
0.0
 10
142.0344903652445
 20
154.8294111834263
 30
0.0
 10
142.0344903652445
 20
154.8294111834263
 30
0.0
 10
142.0344903652445
 20
154.8294111834263
 30
0.0
 10
140.9516961399171
 20
151.3157559800812
 30
0.0
 10
140.9516961399171
 20
151.3157559800812
 30
0.0
 10
141.8928968473923
 20
152.7887075264977
 30
0.0
 10
142.7341897198865
 20
153.4484437471474
 30
0.0
 10
143.8552245303272
 20
154.2926649527359
 30
0.0
 10
144.9803934580775
 20
155.1296514530327
 30
0.0
 10
146.3139908001845
 20
155.3044901642492
 30
0.0
 10
147.241066606852
 20
155.3044901642492
 30
0.0
 10
148.3855280820469
 20
155.3044901642492
 30
0.0
 10
149.4969166187653
 20
155.0752189084569
 30
0.0
 10
150.0784491203092
 20
153.8172414621372
 30
0.0
 10
150.5228667310863
 20
152.833838307127
 30
0.0
 10
150.5414702589793
 20
152.7201500811143
 30
0.0
 10
150.4140016419347
 20
150.7765981809602
 30
0.0
 10
151.5818897818837
 20
152.7699317437168
 30
0.0
 10
152.4424752018226
 20
153.6256940267945
 30
0.0
 10
153.9038856707499
 20
154.4507949398263
 30
0.0
 10
155.4455669174378
 20
155.3044901642492
 30
0.0
 10
156.339225275853
 20
155.3659851592288
 30
0.0
 10
157.3748216618963
 20
155.2147453676543
 30
0.0
 10
158.911679771723
 20
154.9877134254046
 30
0.0
 10
159.8859534176746
 20
154.4390816074493
 30
0.0
 10
160.3965169054045
 20
152.7816450760939
 30
0.0
 10
160.9070803931344
 20
151.1219692311958
 30
0.0
 10
160.6328506116007
 20
150.2303779314354
 30
0.0
 10
159.9992971339115
 20
147.597634224801
 30
0.0
 10
159.7105979417943
 20
146.4014962832367
 30
0.0
 10
159.2947746424084
 20
144.9400858143094
 30
0.0
 10
158.7463150793409
 20
143.2092687007094
 30
0.0
 10
158.7463150793409
 20
143.2092687007094
 30
0.0
 10
153.9038856707499
 20
127.8027915271048
 30
0.0
 10
153.9038856707499
 20
127.8027915271048
 30
0.0
 10
153.9038856707499
 20
127.8027915271048
 30
0.0
 10
151.3882752878863
 20
127.8027915271048
 30
0.0
 10
151.3882752878863
 20
127.8027915271048
 30
0.0
 10
151.3882752878863
 20
127.8027915271048
 30
0.0
 10
155.6250565106276
 20
141.2751908193897
 30
0.0
 10
155.6250565106276
 20
141.2751908193897
 30
0.0
 10
156.5094131050963
 20
144.0936252951782
 30
0.0
 10
157.109893644309
 20
146.1506931664571
 30
0.0
 10
157.4220195011804
 20
147.4415712963654
 30
0.0
 10
157.8095929989511
 20
149.0530157726519
 30
0.0
 10
157.9656559273867
 20
149.5826995529385
 30
0.0
 10
157.7816877071116
 20
150.7529992613181
 30
0.0
 10
157.6111553680925
 20
151.8430281919372
 30
0.0
 10
157.0582171779396
 20
152.5547853887321
 30
0.0
 10
156.1170164704645
 20
152.5547853887321
 30
0.0
 10
155.1096698860365
 20
152.5547853887321
 30
0.0
 10
154.2962823053817
 20
152.4412694176073
 30
0.0
 10
153.156643967048
 20
151.2945686288697
 30
0.0
 10
152.0170056287143
 20
150.1476955852443
 30
0.0
 10
151.076149431015
 20
148.7930831468137
 30
0.0
 10
150.3337308641742
 20
147.2290087646991
 30
0.0
 10
149.5957909244188
 20
145.6683794803425
 30
0.0
 10
148.8530278478023
 20
143.6822806228776
 30
0.0
 10
148.0964843801539
 20
141.2751908193897
 30
0.0
 10
148.0964843801539
 20
141.2751908193897
 30
0.0
 10
143.8552245303272
 20
127.8027915271048
 30
0.0
 10
143.8552245303272
 20
127.8027915271048
 30
0.0
 10
143.8552245303272
 20
127.8027915271048
 30
0.0
 10
141.486030802177
 20
127.8027915271048
 30
0.0
 10
141.486030802177
 20
127.8027915271048
 30
0.0
 10
141.486030802177
 20
127.8027915271048
 30
0.0
 10
146.3329388378533
 20
143.2092687007094
 30
0.0
 10
146.3329388378533
 20
143.2092687007094
 30
0.0
 10
146.8483254624444
 20
144.8408669988801
 30
0.0
 10
147.2314203331297
 20
146.1837661049335
 30
0.0
 10
147.4867020769946
 20
147.224185627838
 30
0.0
 10
147.9169947869641
 20
149.0197705792876
 30
0.0
 10
148.0306830129768
 20
150.2400242051577
 30
0.0
 10
147.709255392159
 20
151.3157559800812
 30
0.0
 10
147.3874832615654
 20
152.3916600098926
 30
0.0
 10
146.8245542879144
 20
152.6683013598569
 30
0.0
 10
145.8840425999909
 20
152.6683013598569
 30
0.0
 10
145.0989048209514
 20
152.6683013598569
 30
0.0
 10
144.3282364524954
 20
152.3275811915945
 30
0.0
 10
143.4531816219731
 20
151.6538923250251
 30
0.0
 10
142.34627171234
 20
150.8074318058939
 30
0.0
 10
141.901854101563
 20
150.1097995099067
 30
0.0
 10
141.3578731655808
 20
149.289521733736
 30
0.0
 10
140.6299240093235
 20
148.192602607601
 30
0.0
 10
140.2850697237515
 20
147.455696197173
 30
0.0
 10
139.6652966370942
 20
145.8385673095858
 30
0.0
 10
139.0506911970739
 20
144.2214384219986
 30
0.0
 10
138.463991048893
 20
142.3252566160164
 30
0.0
 10
138.0571250036777
 20
141.0154304484394
 30
0.0
 10
138.0571250036777
 20
141.0154304484394
 30
0.0
 10
133.9009590684727
 20
127.8027915271048
 30
0.0
 10
133.9009590684727
 20
127.8027915271048
 30
0.0
 10
133.9009590684727
 20
127.8027915271048
 30
0.0
 10
131.4180771143097
 20
127.8027915271048
 30
0.0
 10
131.4180771143097
 20
127.8027915271048
 30
0.0
 10
131.4180771143097
 20
127.8027915271048
 30
0.0
 10
139.8926730891197
 20
154.8294111834263
 30
0.0
 10
139.8926730891197
 20
154.8294111834263
 30
0.0
  0
HATCH
  5
6A9
330
6A2
100
AcDbEntity
  8
LOGO
 62
   250
420
  2234388
100
AcDbHatch
 10
0.0
 20
0.0
 30
0.0
210
0.0
220
0.0
230
1.0
  2
SOLID
 70
     1
 71
     0
 91
        1
 92
        1
 93
        1
 72
     4
 94
        3
 73
     0
 74
     1
 95
      104
 96
      100
 40
0.0
 40
0.0
 40
0.0
 40
0.0
 40
1.0
 40
1.0
 40
1.0
 40
2.0
 40
2.0
 40
2.0
 40
3.0
 40
3.0
 40
3.0
 40
4.0
 40
4.0
 40
4.0
 40
5.0
 40
5.0
 40
5.0
 40
6.0
 40
6.0
 40
6.0
 40
7.0
 40
7.0
 40
7.0
 40
8.0
 40
8.0
 40
8.0
 40
9.0
 40
9.0
 40
9.0
 40
10.0
 40
10.0
 40
10.0
 40
11.0
 40
11.0
 40
11.0
 40
12.0
 40
12.0
 40
12.0
 40
13.0
 40
13.0
 40
13.0
 40
14.0
 40
14.0
 40
14.0
 40
15.0
 40
15.0
 40
15.0
 40
16.0
 40
16.0
 40
16.0
 40
17.0
 40
17.0
 40
17.0
 40
18.0
 40
18.0
 40
18.0
 40
19.0
 40
19.0
 40
19.0
 40
20.0
 40
20.0
 40
20.0
 40
21.0
 40
21.0
 40
21.0
 40
22.0
 40
22.0
 40
22.0
 40
23.0
 40
23.0
 40
23.0
 40
24.0
 40
24.0
 40
24.0
 40
25.0
 40
25.0
 40
25.0
 40
26.0
 40
26.0
 40
26.0
 40
27.0
 40
27.0
 40
27.0
 40
28.0
 40
28.0
 40
28.0
 40
29.0
 40
29.0
 40
29.0
 40
30.0
 40
30.0
 40
30.0
 40
31.0
 40
31.0
 40
31.0
 40
32.0
 40
32.0
 40
32.0
 40
33.0
 40
33.0
 40
33.0
 40
33.0
 10
139.8926730891197
 20
154.8294111834263
 10
139.8926730891197
 20
154.8294111834263
 10
142.0344903652445
 20
154.8294111834263
 10
142.0344903652445
 20
154.8294111834263
 10
142.0344903652445
 20
154.8294111834263
 10
140.9516961399171
 20
151.3157559800812
 10
140.9516961399171
 20
151.3157559800812
 10
141.8928968473923
 20
152.7887075264977
 10
142.7341897198865
 20
153.4484437471474
 10
143.8552245303272
 20
154.2926649527359
 10
144.9803934580775
 20
155.1296514530327
 10
146.3139908001845
 20
155.3044901642492
 10
147.241066606852
 20
155.3044901642492
 10
148.3855280820469
 20
155.3044901642492
 10
149.4969166187653
 20
155.0752189084569
 10
150.0784491203092
 20
153.8172414621372
 10
150.5228667310863
 20
152.833838307127
 10
150.5414702589793
 20
152.7201500811143
 10
150.4140016419347
 20
150.7765981809602
 10
151.5818897818837
 20
152.7699317437168
 10
152.4424752018226
 20
153.6256940267945
 10
153.9038856707499
 20
154.4507949398263
 10
155.4455669174378
 20
155.3044901642492
 10
156.339225275853
 20
155.3659851592288
 10
157.3748216618963
 20
155.2147453676543
 10
158.911679771723
 20
154.9877134254046
 10
159.8859534176746
 20
154.4390816074493
 10
160.3965169054045
 20
152.7816450760939
 10
160.9070803931344
 20
151.1219692311958
 10
160.6328506116007
 20
150.2303779314354
 10
159.9992971339115
 20
147.597634224801
 10
159.7105979417943
 20
146.4014962832367
 10
159.2947746424084
 20
144.9400858143094
 10
158.7463150793409
 20
143.2092687007094
 10
158.7463150793409
 20
143.2092687007094
 10
153.9038856707499
 20
127.8027915271048
 10
153.9038856707499
 20
127.8027915271048
 10
153.9038856707499
 20
127.8027915271048
 10
151.3882752878863
 20
127.8027915271048
 10
151.3882752878863
 20
127.8027915271048
 10
151.3882752878863
 20
127.8027915271048
 10
155.6250565106276
 20
141.2751908193897
 10
155.6250565106276
 20
141.2751908193897
 10
156.5094131050963
 20
144.0936252951782
 10
157.109893644309
 20
146.1506931664571
 10
157.4220195011804
 20
147.4415712963654
 10
157.8095929989511
 20
149.0530157726519
 10
157.9656559273867
 20
149.5826995529385
 10
157.7816877071116
 20
150.7529992613181
 10
157.6111553680925
 20
151.8430281919372
 10
157.0582171779396
 20
152.5547853887321
 10
156.1170164704645
 20
152.5547853887321
 10
155.1096698860365
 20
152.5547853887321
 10
154.2962823053817
 20
152.4412694176073
 10
153.156643967048
 20
151.2945686288697
 10
152.0170056287143
 20
150.1476955852443
 10
151.076149431015
 20
148.7930831468137
 10
150.3337308641742
 20
147.2290087646991
 10
149.5957909244188
 20
145.6683794803425
 10
148.8530278478023
 20
143.6822806228776
 10
148.0964843801539
 20
141.2751908193897
 10
148.0964843801539
 20
141.2751908193897
 10
143.8552245303272
 20
127.8027915271048
 10
143.8552245303272
 20
127.8027915271048
 10
143.8552245303272
 20
127.8027915271048
 10
141.486030802177
 20
127.8027915271048
 10
141.486030802177
 20
127.8027915271048
 10
141.486030802177
 20
127.8027915271048
 10
146.3329388378533
 20
143.2092687007094
 10
146.3329388378533
 20
143.2092687007094
 10
146.8483254624444
 20
144.8408669988801
 10
147.2314203331297
 20
146.1837661049335
 10
147.4867020769946
 20
147.224185627838
 10
147.9169947869641
 20
149.0197705792876
 10
148.0306830129768
 20
150.2400242051577
 10
147.709255392159
 20
151.3157559800812
 10
147.3874832615654
 20
152.3916600098926
 10
146.8245542879144
 20
152.6683013598569
 10
145.8840425999909
 20
152.6683013598569
 10
145.0989048209514
 20
152.6683013598569
 10
144.3282364524954
 20
152.3275811915945
 10
143.4531816219731
 20
151.6538923250251
 10
142.34627171234
 20
150.8074318058939
 10
141.901854101563
 20
150.1097995099067
 10
141.3578731655808
 20
149.289521733736
 10
140.6299240093235
 20
148.192602607601
 10
140.2850697237515
 20
147.455696197173
 10
139.6652966370942
 20
145.8385673095858
 10
139.0506911970739
 20
144.2214384219986
 10
138.463991048893
 20
142.3252566160164
 10
138.0571250036777
 20
141.0154304484394
 10
138.0571250036777
 20
141.0154304484394
 10
133.9009590684727
 20
127.8027915271048
 10
133.9009590684727
 20
127.8027915271048
 10
133.9009590684727
 20
127.8027915271048
 10
131.4180771143097
 20
127.8027915271048
 10
131.4180771143097
 20
127.8027915271048
 10
131.4180771143097
 20
127.8027915271048
 10
139.8926730891197
 20
154.8294111834263
 10
139.8926730891197
 20
154.8294111834263
 97
        0
 75
     2
 76
     1
 98
        0
  0
SPLINE
  5
6AA
330
6A2
100
AcDbEntity
  8
LOGO
370
     0
100
AcDbSpline
210
0.0
220
0.0
230
1.0
 70
    11
 71
     3
 72
    29
 73
    25
 74
     0
 42
0.000000001
 43
0.0000000001
 40
0.0
 40
0.0
 40
0.0
 40
0.0
 40
1.0
 40
1.0
 40
1.0
 40
2.0
 40
2.0
 40
2.0
 40
3.0
 40
3.0
 40
3.0
 40
4.0
 40
4.0
 40
4.0
 40
5.0
 40
5.0
 40
5.0
 40
6.0
 40
6.0
 40
6.0
 40
7.0
 40
7.0
 40
7.0
 40
8.0
 40
8.0
 40
8.0
 40
8.0
 10
101.6420971922469
 20
132.8388354296931
 30
0.0
 10
101.630039350094
 20
134.7164137077823
 30
0.0
 10
102.2236296937908
 20
138.0598810818841
 30
0.0
 10
103.7487744712405
 20
142.5378191476827
 30
0.0
 10
105.819967243327
 20
148.5896501242061
 30
0.0
 10
107.0602024361932
 20
150.8074318058939
 30
0.0
 10
108.1522984254671
 20
151.8833358357054
 30
0.0
 10
109.741177511439
 20
153.4532668840085
 30
0.0
 10
111.8740375333931
 20
153.5290590346837
 30
0.0
 10
112.5075910110823
 20
153.4532668840085
 30
0.0
 10
113.4012493694975
 20
153.3490526768302
 30
0.0
 10
114.6683563248758
 20
152.7580461564518
 30
0.0
 10
114.7493161221879
 20
150.7838328862519
 30
0.0
 10
114.8106388622796
 20
149.0909118479895
 30
0.0
 10
114.3186789024427
 20
145.9191825971221
 30
0.0
 10
112.6164561002338
 20
140.9489400617108
 30
0.0
 10
110.6444821435766
 20
135.1746117095912
 30
0.0
 10
109.4669477299053
 20
132.8960240524753
 30
0.0
 10
108.5212683953448
 20
131.9072809959403
 30
0.0
 10
106.7346406980658
 20
130.0538184021569
 30
0.0
 10
104.8222669326213
 20
130.2336525051225
 30
0.0
 10
104.5408024457958
 20
130.2336525051225
 30
0.0
 10
104.1721769856939
 20
130.2336525051225
 30
0.0
 10
101.6465758193322
 20
130.6305277668397
 30
0.0
 10
101.6420971922469
 20
132.8388354296931
 30
0.0
  0
SPLINE
  5
6AB
330
6A2
100
AcDbEntity
  8
LOGO
370
     0
100
AcDbSpline
210
0.0
220
0.0
230
1.0
 70
    11
 71
     3
 72
    32
 73
    28
 74
     0
 42
0.000000001
 43
0.0000000001
 40
0.0
 40
0.0
 40
0.0
 40
0.0
 40
1.0
 40
1.0
 40
1.0
 40
2.0
 40
2.0
 40
2.0
 40
3.0
 40
3.0
 40
3.0
 40
4.0
 40
4.0
 40
4.0
 40
5.0
 40
5.0
 40
5.0
 40
6.0
 40
6.0
 40
6.0
 40
7.0
 40
7.0
 40
7.0
 40
8.0
 40
8.0
 40
8.0
 40
9.0
 40
9.0
 40
9.0
 40
9.0
 10
106.2595617172429
 20
153.4105476718098
 30
0.0
 10
104.8222669326213
 20
151.5474388043041
 30
0.0
 10
103.7177685914188
 20
149.8758773721411
 30
0.0
 10
101.9232171692965
 20
144.6141795664062
 30
0.0
 10
100.2754269116635
 20
139.7999999594306
 30
0.0
 10
99.22777268346732
 20
136.3052927937542
 30
0.0
 10
99.06964269637689
 20
132.039572749846
 30
0.0
 10
98.94665270641765
 20
128.8673267343149
 30
0.0
 10
100.8807305877373
 20
127.8027915271048
 30
0.0
 10
103.7129454545577
 20
127.8027915271048
 30
0.0
 10
104.9352661390825
 20
127.8027915271048
 30
0.0
 10
108.0151835347002
 20
127.8827177950895
 30
0.0
 10
110.2045431598849
 20
130.5926316915021
 30
0.0
 10
111.7417457794874
 20
132.4984597712065
 30
0.0
 10
113.155269389579
 20
134.475256864725
 30
0.0
 10
115.0562743324223
 20
140.9489400617108
 30
0.0
 10
116.6361961642235
 20
146.3680788349845
 30
0.0
 10
117.7282921534974
 20
149.8639917848761
 30
0.0
 10
117.6480213757369
 20
151.8595646611754
 30
0.0
 10
117.6480213757369
 20
151.8595646611754
 30
0.0
 10
117.6480213757369
 20
151.8595646611754
 30
0.0
 10
117.6480213757369
 20
151.8595646611754
 30
0.0
 10
117.13229024137
 20
155.18150017429
 30
0.0
 10
114.7162431837115
 20
155.886194920681
 30
0.0
 10
113.3351034925446
 20
155.886194920681
 30
0.0
 10
111.9829026225447
 20
155.886194920681
 30
0.0
 10
108.3414342923792
 20
156.1251124501957
 30
0.0
 10
106.2595617172429
 20
153.4105476718098
 30
0.0
  0
HATCH
  5
6AC
330
6A2
100
AcDbEntity
  8
LOGO
 62
   250
420
  2234388
100
AcDbHatch
 10
0.0
 20
0.0
 30
0.0
210
0.0
220
0.0
230
1.0
  2
SOLID
 70
     1
 71
     0
 91
        2
 92
        1
 93
        1
 72
     4
 94
        3
 73
     0
 74
     1
 95
       29
 96
       25
 40
0.0
 40
0.0
 40
0.0
 40
0.0
 40
1.0
 40
1.0
 40
1.0
 40
2.0
 40
2.0
 40
2.0
 40
3.0
 40
3.0
 40
3.0
 40
4.0
 40
4.0
 40
4.0
 40
5.0
 40
5.0
 40
5.0
 40
6.0
 40
6.0
 40
6.0
 40
7.0
 40
7.0
 40
7.0
 40
8.0
 40
8.0
 40
8.0
 40
8.0
 10
101.6420971922469
 20
132.8388354296931
 10
101.630039350094
 20
134.7164137077823
 10
102.2236296937908
 20
138.0598810818841
 10
103.7487744712405
 20
142.5378191476827
 10
105.819967243327
 20
148.5896501242061
 10
107.0602024361932
 20
150.8074318058939
 10
108.1522984254671
 20
151.8833358357054
 10
109.741177511439
 20
153.4532668840085
 10
111.8740375333931
 20
153.5290590346837
 10
112.5075910110823
 20
153.4532668840085
 10
113.4012493694975
 20
153.3490526768302
 10
114.6683563248758
 20
152.7580461564518
 10
114.7493161221879
 20
150.7838328862519
 10
114.8106388622796
 20
149.0909118479895
 10
114.3186789024427
 20
145.9191825971221
 10
112.6164561002338
 20
140.9489400617108
 10
110.6444821435766
 20
135.1746117095912
 10
109.4669477299053
 20
132.8960240524753
 10
108.5212683953448
 20
131.9072809959403
 10
106.7346406980658
 20
130.0538184021569
 10
104.8222669326213
 20
130.2336525051225
 10
104.5408024457958
 20
130.2336525051225
 10
104.1721769856939
 20
130.2336525051225
 10
101.6465758193322
 20
130.6305277668397
 10
101.6420971922469
 20
132.8388354296931
 97
        0
 92
        1
 93
        1
 72
     4
 94
        3
 73
     0
 74
     1
 95
       32
 96
       28
 40
0.0
 40
0.0
 40
0.0
 40
0.0
 40
1.0
 40
1.0
 40
1.0
 40
2.0
 40
2.0
 40
2.0
 40
3.0
 40
3.0
 40
3.0
 40
4.0
 40
4.0
 40
4.0
 40
5.0
 40
5.0
 40
5.0
 40
6.0
 40
6.0
 40
6.0
 40
7.0
 40
7.0
 40
7.0
 40
8.0
 40
8.0
 40
8.0
 40
9.0
 40
9.0
 40
9.0
 40
9.0
 10
106.2595617172429
 20
153.4105476718098
 10
104.8222669326213
 20
151.5474388043041
 10
103.7177685914188
 20
149.8758773721411
 10
101.9232171692965
 20
144.6141795664062
 10
100.2754269116635
 20
139.7999999594306
 10
99.22777268346732
 20
136.3052927937542
 10
99.06964269637689
 20
132.039572749846
 10
98.94665270641765
 20
128.8673267343149
 10
100.8807305877373
 20
127.8027915271048
 10
103.7129454545577
 20
127.8027915271048
 10
104.9352661390825
 20
127.8027915271048
 10
108.0151835347002
 20
127.8827177950895
 10
110.2045431598849
 20
130.5926316915021
 10
111.7417457794874
 20
132.4984597712065
 10
113.155269389579
 20
134.475256864725
 10
115.0562743324223
 20
140.9489400617108
 10
116.6361961642235
 20
146.3680788349845
 10
117.7282921534974
 20
149.8639917848761
 10
117.6480213757369
 20
151.8595646611754
 10
117.6480213757369
 20
151.8595646611754
 10
117.6480213757369
 20
151.8595646611754
 10
117.6480213757369
 20
151.8595646611754
 10
117.13229024137
 20
155.18150017429
 10
114.7162431837115
 20
155.886194920681
 10
113.3351034925446
 20
155.886194920681
 10
111.9829026225447
 20
155.886194920681
 10
108.3414342923792
 20
156.1251124501957
 10
106.2595617172429
 20
153.4105476718098
 97
        0
 75
     2
 76
     1
 98
        0
  0
ENDBLK
  5
6AD
330
6A2
100
AcDbEntity
  8
0
100
AcDbBlockEnd
  0
BLOCK
  5
14D4
330
14D3
100
AcDbEntity
  8
0
100
AcDbBlockBegin
  2
*D6
 70
     1
 10
0.0
 20
0.0
 30
0.0
  3
*D6
  1
*D26
  0
LINE
  5
14D6
330
14D3
100
AcDbEntity
  8
DIM
  6
Continuous
 62
     0
370
    -2
100
AcDbLine
 10
171.4652327835067
 20
1167.504212875574
 30
0.0
 11
171.4652327835067
 21
1261.143747209528
 31
0.0
  0
LINE
  5
14D7
330
14D3
100
AcDbEntity
  8
DIM
  6
Continuous
 62
     0
370
    -2
100
AcDbLine
 10
441.4652327835065
 20
1183.625561984387
 30
0.0
 11
441.4652327835065
 21
1261.143747209528
 31
0.0
  0
LINE
  5
14D8
330
14D3
100
AcDbEntity
  8
DIM
  6
Continuous
 62
     0
370
    -2
100
AcDbLine
 10
174.4652327835067
 20
1261.143747209528
 30
0.0
 11
438.4652327835065
 21
1261.143747209528
 31
0.0
  0
INSERT
  5
14D9
330
14D3
100
AcDbEntity
  8
DIM
 62
     0
370
    -2
100
AcDbBlockReference
  2
_DOT
 10
171.4652327835067
 20
1261.143747209528
 30
0.0
 41
3.0
 42
3.0
 43
3.0
 50
180.0
  0
INSERT
  5
14DA
330
14D3
100
AcDbEntity
  8
DIM
 62
     0
370
    -2
100
AcDbBlockReference
  2
_DOT
 10
441.4652327835065
 20
1261.143747209528
 30
0.0
 41
3.0
 42
3.0
 43
3.0
  0
MTEXT
  5
14DB
330
14D3
100
AcDbEntity
  8
DIM
 62
     0
 48
0.05
100
AcDbMText
 10
306.4652327835066
 20
1277.143747209528
 30
0.0
 40
12.0
 41
0.0
 46
0.0
 71
     5
 72
     1
  1
\A1;270
  7
ＭＳ ゴシック
 73
     1
 44
1.0
  0
POINT
  5
14DC
330
14D3
100
AcDbEntity
  8
Defpoints
 62
     0
100
AcDbPoint
 10
171.4652327835067
 20
1157.504212875574
 30
0.0
  0
POINT
  5
14DD
330
14D3
100
AcDbEntity
  8
Defpoints
 62
     0
100
AcDbPoint
 10
441.4652327835065
 20
1173.625561984387
 30
0.0
  0
POINT
  5
14DE
330
14D3
100
AcDbEntity
  8
Defpoints
 62
     0
100
AcDbPoint
 10
441.4652327835065
 20
1261.143747209528
 30
0.0
  0
ENDBLK
  5
14D5
330
14D3
100
AcDbEntity
  8
0
100
AcDbBlockEnd
  0
BLOCK
  5
14E0
330
14DF
100
AcDbEntity
  8
0
100
AcDbBlockBegin
  2
*D7
 70
     1
 10
0.0
 20
0.0
 30
0.0
  3
*D7
  1
*D27
  0
LINE
  5
14E2
330
14DF
100
AcDbEntity
  8
DIM
  6
Continuous
 62
     0
370
    -2
100
AcDbLine
 10
452.8322366972088
 20
1152.309063794914
 30
0.0
 11
514.326819072342
 21
1152.309063794914
 31
0.0
  0
LINE
  5
14E3
330
14DF
100
AcDbEntity
  8
DIM
  6
Continuous
 62
     0
370
    -2
100
AcDbLine
 10
454.8322366972088
 20
882.309063794914
 30
0.0
 11
514.326819072342
 21
882.309063794914
 31
0.0
  0
LINE
  5
14E4
330
14DF
100
AcDbEntity
  8
DIM
  6
Continuous
 62
     0
370
    -2
100
AcDbLine
 10
514.326819072342
 20
1149.309063794914
 30
0.0
 11
514.326819072342
 21
885.309063794914
 31
0.0
  0
INSERT
  5
14E5
330
14DF
100
AcDbEntity
  8
DIM
 62
     0
370
    -2
100
AcDbBlockReference
  2
_DOT
 10
514.326819072342
 20
1152.309063794914
 30
0.0
 41
3.0
 42
3.0
 43
3.0
 50
90.0
  0
INSERT
  5
14E6
330
14DF
100
AcDbEntity
  8
DIM
 62
     0
370
    -2
100
AcDbBlockReference
  2
_DOT
 10
514.326819072342
 20
882.309063794914
 30
0.0
 41
3.0
 42
3.0
 43
3.0
 50
270.0
  0
MTEXT
  5
14E7
330
14DF
100
AcDbEntity
  8
DIM
 62
     0
 48
0.05
100
AcDbMText
 10
498.326819072342
 20
1017.309063794914
 30
0.0
 40
12.0
 41
0.0
 46
0.0
 71
     5
 72
     1
  1
\A1;270
  7
ＭＳ ゴシック
 11
0.0
 21
1.0
 31
0.0
 73
     1
 44
1.0
  0
POINT
  5
14E8
330
14DF
100
AcDbEntity
  8
Defpoints
 62
     0
100
AcDbPoint
 10
442.8322366972088
 20
1152.309063794914
 30
0.0
  0
POINT
  5
14E9
330
14DF
100
AcDbEntity
  8
Defpoints
 62
     0
100
AcDbPoint
 10
444.8322366972088
 20
882.309063794914
 30
0.0
  0
POINT
  5
14EA
330
14DF
100
AcDbEntity
  8
Defpoints
 62
     0
100
AcDbPoint
 10
514.326819072342
 20
882.309063794914
 30
0.0
  0
ENDBLK
  5
14E1
330
14DF
100
AcDbEntity
  8
0
100
AcDbBlockEnd
  0
BLOCK
  5
14EC
330
14EB
100
AcDbEntity
  8
0
100
AcDbBlockBegin
  2
*D8
 70
     1
 10
0.0
 20
0.0
 30
0.0
  3
*D8
  1
*D28
  0
LINE
  5
14EE
330
14EB
100
AcDbEntity
  8
DIM
  6
Continuous
 62
     0
370
    -2
100
AcDbLine
 10
155.2825871457883
 20
1152.309063794914
 30
0.0
 11
127.4423252495785
 21
1152.309063794914
 31
0.0
  0
LINE
  5
14EF
330
14EB
100
AcDbEntity
  8
DIM
  6
Continuous
 62
     0
370
    -2
100
AcDbLine
 10
269.9652327835065
 20
1017.309063794914
 30
0.0
 11
127.4423252495785
 21
1017.309063794914
 31
0.0
  0
LINE
  5
14F0
330
14EB
100
AcDbEntity
  8
DIM
  6
Continuous
 62
     0
370
    -2
100
AcDbLine
 10
127.4423252495785
 20
1149.309063794914
 30
0.0
 11
127.4423252495785
 21
1020.309063794914
 31
0.0
  0
INSERT
  5
14F1
330
14EB
100
AcDbEntity
  8
DIM
 62
     0
370
    -2
100
AcDbBlockReference
  2
_DOT
 10
127.4423252495785
 20
1152.309063794914
 30
0.0
 41
3.0
 42
3.0
 43
3.0
 50
90.0
  0
INSERT
  5
14F2
330
14EB
100
AcDbEntity
  8
DIM
 62
     0
370
    -2
100
AcDbBlockReference
  2
_DOT
 10
127.4423252495785
 20
1017.309063794914
 30
0.0
 41
3.0
 42
3.0
 43
3.0
 50
270.0
  0
MTEXT
  5
14F3
330
14EB
100
AcDbEntity
  8
DIM
 62
     0
 48
0.05
100
AcDbMText
 10
111.4423252495785
 20
1084.809063794914
 30
0.0
 40
12.0
 41
0.0
 46
0.0
 71
     5
 72
     1
  1
\A1;135
  7
ＭＳ ゴシック
 11
1.052655904829778E-16
 21
1.0
 31
0.0
 73
     1
 44
1.0
  0
POINT
  5
14F4
330
14EB
100
AcDbEntity
  8
Defpoints
 62
     0
100
AcDbPoint
 10
165.2825871457883
 20
1152.309063794914
 30
0.0
  0
POINT
  5
14F5
330
14EB
100
AcDbEntity
  8
Defpoints
 62
     0
100
AcDbPoint
 10
279.9652327835065
 20
1017.309063794914
 30
0.0
  0
POINT
  5
14F6
330
14EB
100
AcDbEntity
  8
Defpoints
 62
     0
100
AcDbPoint
 10
127.4423252495785
 20
1017.309063794914
 30
0.0
  0
ENDBLK
  5
14ED
330
14EB
100
AcDbEntity
  8
0
100
AcDbBlockEnd
  0
BLOCK
  5
1504
330
1503
100
AcDbEntity
  8
0
100
AcDbBlockBegin
  2
*D9
 70
     1
 10
0.0
 20
0.0
 30
0.0
  3
*D9
  1
*D30
  0
LINE
  5
1506
330
1503
100
AcDbEntity
  8
DIM
  6
Continuous
 62
     0
370
    -2
100
AcDbLine
 10
627.0993841668773
 20
540.9274006646668
 30
0.0
 11
597.6110866481503
 21
540.9274006646668
 31
0.0
  0
LINE
  5
1507
330
1503
100
AcDbEntity
  8
DIM
  6
Continuous
 62
     0
370
    -2
100
AcDbLine
 10
627.0993841668773
 20
440.9274006646666
 30
0.0
 11
597.6110866481503
 21
440.9274006646666
 31
0.0
  0
LINE
  5
1508
330
1503
100
AcDbEntity
  8
DIM
  6
Continuous
 62
     0
370
    -2
100
AcDbLine
 10
597.6110866481503
 20
537.9274006646668
 30
0.0
 11
597.6110866481503
 21
443.9274006646666
 31
0.0
  0
INSERT
  5
1509
330
1503
100
AcDbEntity
  8
DIM
 62
     0
370
    -2
100
AcDbBlockReference
  2
_DOT
 10
597.6110866481503
 20
540.9274006646668
 30
0.0
 41
3.0
 42
3.0
 43
3.0
 50
90.0
  0
INSERT
  5
150A
330
1503
100
AcDbEntity
  8
DIM
 62
     0
370
    -2
100
AcDbBlockReference
  2
_DOT
 10
597.6110866481503
 20
440.9274006646666
 30
0.0
 41
3.0
 42
3.0
 43
3.0
 50
270.0
  0
MTEXT
  5
150B
330
1503
100
AcDbEntity
  8
DIM
 62
     0
 48
0.05
100
AcDbMText
 10
581.6110866481503
 20
490.9274006646666
 30
0.0
 40
12.0
 41
0.0
 46
0.0
 71
     5
 72
     1
  1
\A1;100
  7
ＭＳ ゴシック
 11
0.0
 21
1.0
 31
0.0
 73
     1
 44
1.0
  0
POINT
  5
150C
330
1503
100
AcDbEntity
  8
Defpoints
 62
     0
100
AcDbPoint
 10
637.0993841668773
 20
540.9274006646668
 30
0.0
  0
POINT
  5
150D
330
1503
100
AcDbEntity
  8
Defpoints
 62
     0
100
AcDbPoint
 10
637.0993841668773
 20
440.9274006646666
 30
0.0
  0
POINT
  5
150E
330
1503
100
AcDbEntity
  8
Defpoints
 62
     0
100
AcDbPoint
 10
597.6110866481503
 20
440.9274006646666
 30
0.0
  0
ENDBLK
  5
1505
330
1503
100
AcDbEntity
  8
0
100
AcDbBlockEnd
  0
BLOCK
  5
1510
330
150F
100
AcDbEntity
  8
0
100
AcDbBlockBegin
  2
*D10
 70
     1
 10
0.0
 20
0.0
 30
0.0
  3
*D10
  1
*D31
  0
LINE
  5
1512
330
150F
100
AcDbEntity
  8
DIM
  6
Continuous
 62
     0
370
    -2
100
AcDbLine
 10
905.4599925554357
 20
434.7338561987417
 30
0.0
 11
905.4599925554357
 21
376.1235793175201
 31
0.0
  0
LINE
  5
1513
330
150F
100
AcDbEntity
  8
DIM
  6
Continuous
 62
     0
370
    -2
100
AcDbLine
 10
770.4599925554357
 20
412.6889914202237
 30
0.0
 11
770.4599925554357
 21
376.1235793175201
 31
0.0
  0
LINE
  5
1514
330
150F
100
AcDbEntity
  8
DIM
  6
Continuous
 62
     0
370
    -2
100
AcDbLine
 10
902.4599925554357
 20
376.1235793175201
 30
0.0
 11
773.4599925554357
 21
376.1235793175201
 31
0.0
  0
INSERT
  5
1515
330
150F
100
AcDbEntity
  8
DIM
 62
     0
370
    -2
100
AcDbBlockReference
  2
_DOT
 10
905.4599925554357
 20
376.1235793175201
 30
0.0
 41
3.0
 42
3.0
 43
3.0
  0
INSERT
  5
1516
330
150F
100
AcDbEntity
  8
DIM
 62
     0
370
    -2
100
AcDbBlockReference
  2
_DOT
 10
770.4599925554357
 20
376.1235793175201
 30
0.0
 41
3.0
 42
3.0
 43
3.0
 50
180.0
  0
MTEXT
  5
1517
330
150F
100
AcDbEntity
  8
DIM
 62
     0
 48
0.05
100
AcDbMText
 10
837.9599925554357
 20
392.1235793175201
 30
0.0
 40
12.0
 41
0.0
 46
0.0
 71
     5
 72
     1
  1
\A1;135
  7
ＭＳ ゴシック
 73
     1
 44
1.0
  0
POINT
  5
1518
330
150F
100
AcDbEntity
  8
Defpoints
 62
     0
100
AcDbPoint
 10
905.4599925554357
 20
444.7338561987417
 30
0.0
  0
POINT
  5
1519
330
150F
100
AcDbEntity
  8
Defpoints
 62
     0
100
AcDbPoint
 10
770.4599925554357
 20
422.6889914202237
 30
0.0
  0
POINT
  5
151A
330
150F
100
AcDbEntity
  8
Defpoints
 62
     0
100
AcDbPoint
 10
770.4599925554357
 20
376.1235793175201
 30
0.0
  0
ENDBLK
  5
1511
330
150F
100
AcDbEntity
  8
0
100
AcDbBlockEnd
  0
BLOCK
  5
151C
330
151B
100
AcDbEntity
  8
0
100
AcDbBlockBegin
  2
*D11
 70
     1
 10
0.0
 20
0.0
 30
0.0
  3
*D11
  1
*D32
  0
LINE
  5
151E
330
151B
100
AcDbEntity
  8
DIM
  6
Continuous
 62
     0
370
    -2
100
AcDbLine
 10
441.4652327835065
 20
433.5661869582901
 30
0.0
 11
441.4652327835065
 21
323.4177634560378
 31
0.0
  0
LINE
  5
151F
330
151B
100
AcDbEntity
  8
DIM
  6
Continuous
 62
     0
370
    -2
100
AcDbLine
 10
306.4652327835065
 20
350.8001179648759
 30
0.0
 11
306.4652327835065
 21
323.4177634560378
 31
0.0
  0
LINE
  5
1520
330
151B
100
AcDbEntity
  8
DIM
  6
Continuous
 62
     0
370
    -2
100
AcDbLine
 10
438.4652327835065
 20
323.4177634560378
 30
0.0
 11
309.4652327835065
 21
323.4177634560378
 31
0.0
  0
INSERT
  5
1521
330
151B
100
AcDbEntity
  8
DIM
 62
     0
370
    -2
100
AcDbBlockReference
  2
_DOT
 10
441.4652327835065
 20
323.4177634560378
 30
0.0
 41
3.0
 42
3.0
 43
3.0
  0
INSERT
  5
1522
330
151B
100
AcDbEntity
  8
DIM
 62
     0
370
    -2
100
AcDbBlockReference
  2
_DOT
 10
306.4652327835065
 20
323.4177634560378
 30
0.0
 41
3.0
 42
3.0
 43
3.0
 50
180.0
  0
MTEXT
  5
1523
330
151B
100
AcDbEntity
  8
DIM
 62
     0
 48
0.05
100
AcDbMText
 10
373.9652327835065
 20
339.4177634560378
 30
0.0
 40
12.0
 41
0.0
 46
0.0
 71
     5
 72
     1
  1
\A1;135
  7
ＭＳ ゴシック
 73
     1
 44
1.0
  0
POINT
  5
1524
330
151B
100
AcDbEntity
  8
Defpoints
 62
     0
100
AcDbPoint
 10
441.4652327835065
 20
443.5661869582901
 30
0.0
  0
POINT
  5
1525
330
151B
100
AcDbEntity
  8
Defpoints
 62
     0
100
AcDbPoint
 10
306.4652327835065
 20
360.8001179648759
 30
0.0
  0
POINT
  5
1526
330
151B
100
AcDbEntity
  8
Defpoints
 62
     0
100
AcDbPoint
 10
306.4652327835065
 20
323.4177634560378
 30
0.0
  0
ENDBLK
  5
151D
330
151B
100
AcDbEntity
  8
0
100
AcDbBlockEnd
  0
BLOCK
  5
1528
330
1527
100
AcDbEntity
  8
0
100
AcDbBlockBegin
  2
*D12
 70
     1
 10
0.0
 20
0.0
 30
0.0
  3
*D12
  1
*D33
  0
LINE
  5
152A
330
1527
100
AcDbEntity
  8
DIM
  6
Continuous
 62
     0
370
    -2
100
AcDbLine
 10
905.4599925554357
 20
545.9274006646668
 30
0.0
 11
905.4599925554357
 21
578.9855379694219
 31
0.0
  0
LINE
  5
152B
330
1527
100
AcDbEntity
  8
DIM
  6
Continuous
 62
     0
370
    -2
100
AcDbLine
 10
815.4599925554357
 20
536.6314503417493
 30
0.0
 11
815.4599925554357
 21
578.9855379694219
 31
0.0
  0
LINE
  5
152C
330
1527
100
AcDbEntity
  8
DIM
  6
Continuous
 62
     0
370
    -2
100
AcDbLine
 10
902.4599925554357
 20
578.9855379694219
 30
0.0
 11
818.4599925554357
 21
578.9855379694219
 31
0.0
  0
INSERT
  5
152D
330
1527
100
AcDbEntity
  8
DIM
 62
     0
370
    -2
100
AcDbBlockReference
  2
_DOT
 10
905.4599925554357
 20
578.9855379694219
 30
0.0
 41
3.0
 42
3.0
 43
3.0
  0
INSERT
  5
152E
330
1527
100
AcDbEntity
  8
DIM
 62
     0
370
    -2
100
AcDbBlockReference
  2
_DOT
 10
815.4599925554357
 20
578.9855379694219
 30
0.0
 41
3.0
 42
3.0
 43
3.0
 50
180.0
  0
MTEXT
  5
152F
330
1527
100
AcDbEntity
  8
DIM
 62
     0
 48
0.05
100
AcDbMText
 10
860.4599925554357
 20
594.9855379694219
 30
0.0
 40
12.0
 41
0.0
 46
0.0
 71
     5
 72
     1
  1
\A1;90
  7
ＭＳ ゴシック
 73
     1
 44
1.0
  0
POINT
  5
1530
330
1527
100
AcDbEntity
  8
Defpoints
 62
     0
100
AcDbPoint
 10
905.4599925554357
 20
535.9274006646668
 30
0.0
  0
POINT
  5
1531
330
1527
100
AcDbEntity
  8
Defpoints
 62
     0
100
AcDbPoint
 10
815.4599925554357
 20
526.6314503417493
 30
0.0
  0
POINT
  5
1532
330
1527
100
AcDbEntity
  8
Defpoints
 62
     0
100
AcDbPoint
 10
815.4599925554357
 20
578.9855379694219
 30
0.0
  0
ENDBLK
  5
1529
330
1527
100
AcDbEntity
  8
0
100
AcDbBlockEnd
  0
BLOCK
  5
154C
330
154B
100
AcDbEntity
  8
0
100
AcDbBlockBegin
  2
*D13
 70
     1
 10
0.0
 20
0.0
 30
0.0
  3
*D13
  1
*D36
  0
LINE
  5
154E
330
154B
100
AcDbEntity
  8
DIM
  6
Continuous
 62
     0
370
    -2
100
AcDbLine
 10
441.4652327835065
 20
545.9274006646668
 30
0.0
 11
441.4652327835065
 21
578.9855379694219
 31
0.0
  0
LINE
  5
154F
330
154B
100
AcDbEntity
  8
DIM
  6
Continuous
 62
     0
370
    -2
100
AcDbLine
 10
351.4652327835065
 20
536.6314503417493
 30
0.0
 11
351.4652327835065
 21
578.9855379694219
 31
0.0
  0
LINE
  5
1550
330
154B
100
AcDbEntity
  8
DIM
  6
Continuous
 62
     0
370
    -2
100
AcDbLine
 10
438.4652327835065
 20
578.9855379694219
 30
0.0
 11
354.4652327835065
 21
578.9855379694219
 31
0.0
  0
INSERT
  5
1551
330
154B
100
AcDbEntity
  8
DIM
 62
     0
370
    -2
100
AcDbBlockReference
  2
_DOT
 10
441.4652327835065
 20
578.9855379694219
 30
0.0
 41
3.0
 42
3.0
 43
3.0
  0
INSERT
  5
1552
330
154B
100
AcDbEntity
  8
DIM
 62
     0
370
    -2
100
AcDbBlockReference
  2
_DOT
 10
351.4652327835065
 20
578.9855379694219
 30
0.0
 41
3.0
 42
3.0
 43
3.0
 50
180.0
  0
MTEXT
  5
1553
330
154B
100
AcDbEntity
  8
DIM
 62
     0
 48
0.05
100
AcDbMText
 10
396.4652327835065
 20
594.9855379694219
 30
0.0
 40
12.0
 41
0.0
 46
0.0
 71
     5
 72
     1
  1
\A1;90
  7
ＭＳ ゴシック
 73
     1
 44
1.0
  0
POINT
  5
1554
330
154B
100
AcDbEntity
  8
Defpoints
 62
     0
100
AcDbPoint
 10
441.4652327835065
 20
535.9274006646668
 30
0.0
  0
POINT
  5
1555
330
154B
100
AcDbEntity
  8
Defpoints
 62
     0
100
AcDbPoint
 10
351.4652327835065
 20
526.6314503417493
 30
0.0
  0
POINT
  5
1556
330
154B
100
AcDbEntity
  8
Defpoints
 62
     0
100
AcDbPoint
 10
351.4652327835065
 20
578.9855379694219
 30
0.0
  0
ENDBLK
  5
154D
330
154B
100
AcDbEntity
  8
0
100
AcDbBlockEnd
  0
BLOCK
  5
1558
330
1557
100
AcDbEntity
  8
0
100
AcDbBlockBegin
  2
*D14
 70
     1
 10
0.0
 20
0.0
 30
0.0
  3
*D14
  1
*D37
  0
LINE
  5
155A
330
1557
100
AcDbEntity
  8
DIM
  6
Continuous
 62
     0
370
    -2
100
AcDbLine
 10
868.519279801877
 20
1152.309063794914
 30
0.0
 11
915.4455034278167
 21
1152.309063794914
 31
0.0
  0
LINE
  5
155B
330
1557
100
AcDbEntity
  8
DIM
  6
Continuous
 62
     0
370
    -2
100
AcDbLine
 10
867.0799399736579
 20
1132.309063794914
 30
0.0
 11
915.4455034278167
 21
1132.309063794914
 31
0.0
  0
LINE
  5
155C
330
1557
100
AcDbEntity
  8
DIM
  6
Continuous
 62
     0
370
    -2
100
AcDbLine
 10
915.4455034278167
 20
1149.309063794914
 30
0.0
 11
915.4455034278167
 21
1135.309063794914
 31
0.0
  0
INSERT
  5
155D
330
1557
100
AcDbEntity
  8
DIM
 62
     0
370
    -2
100
AcDbBlockReference
  2
_DOT
 10
915.4455034278167
 20
1152.309063794914
 30
0.0
 41
3.0
 42
3.0
 43
3.0
 50
90.0
  0
INSERT
  5
155E
330
1557
100
AcDbEntity
  8
DIM
 62
     0
370
    -2
100
AcDbBlockReference
  2
_DOT
 10
915.4455034278167
 20
1132.309063794914
 30
0.0
 41
3.0
 42
3.0
 43
3.0
 50
270.0
  0
MTEXT
  5
155F
330
1557
100
AcDbEntity
  8
DIM
 62
     0
 48
0.05
100
AcDbMText
 10
899.4455034278167
 20
1142.309063794914
 30
0.0
 40
12.0
 41
0.0
 46
0.0
 71
     5
 72
     1
  1
\A1;20
  7
ＭＳ ゴシック
 11
0.0
 21
1.0
 31
0.0
 73
     1
 44
1.0
  0
POINT
  5
1560
330
1557
100
AcDbEntity
  8
Defpoints
 62
     0
100
AcDbPoint
 10
858.519279801877
 20
1152.309063794914
 30
0.0
  0
POINT
  5
1561
330
1557
100
AcDbEntity
  8
Defpoints
 62
     0
100
AcDbPoint
 10
857.0799399736579
 20
1132.309063794914
 30
0.0
  0
POINT
  5
1562
330
1557
100
AcDbEntity
  8
Defpoints
 62
     0
100
AcDbPoint
 10
915.4455034278167
 20
1132.309063794914
 30
0.0
  0
ENDBLK
  5
1559
330
1557
100
AcDbEntity
  8
0
100
AcDbBlockEnd
  0
BLOCK
  5
1567
330
1566
100
AcDbEntity
  8
0
100
AcDbBlockBegin
  2
*D15
 70
     1
 10
0.0
 20
0.0
 30
0.0
  3
*D15
  1
*D38
  0
LINE
  5
1569
330
1566
100
AcDbEntity
  8
DIM
  6
Continuous
 62
     0
370
    -2
100
AcDbLine
 10
852.0799399736579
 20
1132.309063794914
 30
0.0
 11
915.4455034278167
 21
1132.309063794914
 31
0.0
  0
LINE
  5
156A
330
1566
100
AcDbEntity
  8
DIM
  6
Continuous
 62
     0
370
    -2
100
AcDbLine
 10
852.0799399736579
 20
967.309063794914
 30
0.0
 11
915.4455034278167
 21
967.309063794914
 31
0.0
  0
LINE
  5
156B
330
1566
100
AcDbEntity
  8
DIM
  6
Continuous
 62
     0
370
    -2
100
AcDbLine
 10
915.4455034278167
 20
1129.309063794914
 30
0.0
 11
915.4455034278167
 21
970.309063794914
 31
0.0
  0
INSERT
  5
156C
330
1566
100
AcDbEntity
  8
DIM
 62
     0
370
    -2
100
AcDbBlockReference
  2
_DOT
 10
915.4455034278167
 20
1132.309063794914
 30
0.0
 41
3.0
 42
3.0
 43
3.0
 50
90.0
  0
INSERT
  5
156D
330
1566
100
AcDbEntity
  8
DIM
 62
     0
370
    -2
100
AcDbBlockReference
  2
_DOT
 10
915.4455034278167
 20
967.309063794914
 30
0.0
 41
3.0
 42
3.0
 43
3.0
 50
270.0
  0
MTEXT
  5
156E
330
1566
100
AcDbEntity
  8
DIM
 62
     0
 48
0.05
100
AcDbMText
 10
899.4455034278167
 20
1049.809063794914
 30
0.0
 40
12.0
 41
0.0
 46
0.0
 71
     5
 72
     1
  1
\A1;165
  7
ＭＳ ゴシック
 11
0.0
 21
1.0
 31
0.0
 73
     1
 44
1.0
  0
POINT
  5
156F
330
1566
100
AcDbEntity
  8
Defpoints
 62
     0
100
AcDbPoint
 10
842.0799399736579
 20
1132.309063794914
 30
0.0
  0
POINT
  5
1570
330
1566
100
AcDbEntity
  8
Defpoints
 62
     0
100
AcDbPoint
 10
842.0799399736579
 20
967.309063794914
 30
0.0
  0
POINT
  5
1571
330
1566
100
AcDbEntity
  8
Defpoints
 62
     0
100
AcDbPoint
 10
915.4455034278167
 20
967.309063794914
 30
0.0
  0
ENDBLK
  5
1568
330
1566
100
AcDbEntity
  8
0
100
AcDbBlockEnd
  0
BLOCK
  5
1573
330
1572
100
AcDbEntity
  8
0
100
AcDbBlockBegin
  2
*D16
 70
     1
 10
0.0
 20
0.0
 30
0.0
  3
*D16
  1
*D39
  0
LINE
  5
1575
330
1572
100
AcDbEntity
  8
DIM
  6
Continuous
 62
     0
370
    -2
100
AcDbLine
 10
842.0799399736579
 20
1142.309063794914
 30
0.0
 11
842.0799399736579
 21
1187.904389069786
 31
0.0
  0
LINE
  5
1576
330
1572
100
AcDbEntity
  8
DIM
  6
Continuous
 62
     0
370
    -2
100
AcDbLine
 10
677.0799399736579
 20
1142.309063794914
 30
0.0
 11
677.0799399736579
 21
1187.904389069786
 31
0.0
  0
LINE
  5
1577
330
1572
100
AcDbEntity
  8
DIM
  6
Continuous
 62
     0
370
    -2
100
AcDbLine
 10
839.0799399736579
 20
1187.904389069786
 30
0.0
 11
680.0799399736579
 21
1187.904389069786
 31
0.0
  0
INSERT
  5
1578
330
1572
100
AcDbEntity
  8
DIM
 62
     0
370
    -2
100
AcDbBlockReference
  2
_DOT
 10
842.0799399736579
 20
1187.904389069786
 30
0.0
 41
3.0
 42
3.0
 43
3.0
  0
INSERT
  5
1579
330
1572
100
AcDbEntity
  8
DIM
 62
     0
370
    -2
100
AcDbBlockReference
  2
_DOT
 10
677.0799399736579
 20
1187.904389069786
 30
0.0
 41
3.0
 42
3.0
 43
3.0
 50
180.0
  0
MTEXT
  5
157A
330
1572
100
AcDbEntity
  8
DIM
 62
     0
 48
0.05
100
AcDbMText
 10
759.5799399736579
 20
1203.904389069786
 30
0.0
 40
12.0
 41
0.0
 46
0.0
 71
     5
 72
     1
  1
\A1;165
  7
ＭＳ ゴシック
 73
     1
 44
1.0
  0
POINT
  5
157B
330
1572
100
AcDbEntity
  8
Defpoints
 62
     0
100
AcDbPoint
 10
842.0799399736579
 20
1132.309063794914
 30
0.0
  0
POINT
  5
157C
330
1572
100
AcDbEntity
  8
Defpoints
 62
     0
100
AcDbPoint
 10
677.0799399736579
 20
1132.309063794914
 30
0.0
  0
POINT
  5
157D
330
1572
100
AcDbEntity
  8
Defpoints
 62
     0
100
AcDbPoint
 10
677.0799399736579
 20
1187.904389069786
 30
0.0
  0
ENDBLK
  5
1574
330
1572
100
AcDbEntity
  8
0
100
AcDbBlockEnd
  0
BLOCK
  5
157F
330
157E
100
AcDbEntity
  8
0
100
AcDbBlockBegin
  2
*D17
 70
     1
 10
0.0
 20
0.0
 30
0.0
  3
*D17
  1
*D40
  0
LINE
  5
1581
330
157E
100
AcDbEntity
  8
DIM
  6
Continuous
 62
     0
370
    -2
100
AcDbLine
 10
842.0799399736579
 20
1142.309063794914
 30
0.0
 11
842.0799399736579
 21
1187.904389069786
 31
0.0
  0
LINE
  5
1582
330
157E
100
AcDbEntity
  8
DIM
  6
Continuous
 62
     0
370
    -2
100
AcDbLine
 10
862.0799399736579
 20
1159.30906379491
 30
0.0
 11
862.0799399736579
 21
1187.904389069786
 31
0.0
  0
LINE
  5
1583
330
157E
100
AcDbEntity
  8
DIM
  6
Continuous
 62
     0
370
    -2
100
AcDbLine
 10
845.0799399736579
 20
1187.904389069786
 30
0.0
 11
859.0799399736579
 21
1187.904389069786
 31
0.0
  0
INSERT
  5
1584
330
157E
100
AcDbEntity
  8
DIM
 62
     0
370
    -2
100
AcDbBlockReference
  2
_DOT
 10
842.0799399736579
 20
1187.904389069786
 30
0.0
 41
3.0
 42
3.0
 43
3.0
 50
180.0
  0
INSERT
  5
1585
330
157E
100
AcDbEntity
  8
DIM
 62
     0
370
    -2
100
AcDbBlockReference
  2
_DOT
 10
862.0799399736579
 20
1187.904389069786
 30
0.0
 41
3.0
 42
3.0
 43
3.0
  0
MTEXT
  5
1586
330
157E
100
AcDbEntity
  8
DIM
 62
     0
 48
0.05
100
AcDbMText
 10
852.0799399736579
 20
1203.904389069786
 30
0.0
 40
12.0
 41
0.0
 46
0.0
 71
     5
 72
     1
  1
\A1;20
  7
ＭＳ ゴシック
 73
     1
 44
1.0
  0
POINT
  5
1587
330
157E
100
AcDbEntity
  8
Defpoints
 62
     0
100
AcDbPoint
 10
842.0799399736579
 20
1132.309063794914
 30
0.0
  0
POINT
  5
1588
330
157E
100
AcDbEntity
  8
Defpoints
 62
     0
100
AcDbPoint
 10
862.0799399736579
 20
1149.30906379491
 30
0.0
  0
POINT
  5
1589
330
157E
100
AcDbEntity
  8
Defpoints
 62
     0
100
AcDbPoint
 10
862.0799399736579
 20
1187.904389069786
 30
0.0
  0
ENDBLK
  5
1580
330
157E
100
AcDbEntity
  8
0
100
AcDbBlockEnd
  0
BLOCK
  5
158B
330
158A
100
AcDbEntity
  8
0
100
AcDbBlockBegin
  2
*D18
 70
     1
 10
0.0
 20
0.0
 30
0.0
  3
*D18
  1
*D41
  0
LINE
  5
158D
330
158A
100
AcDbEntity
  8
DIM
  6
Continuous
 62
     0
370
    -2
100
AcDbLine
 10
771.1960680063289
 20
540.9274006646668
 30
0.0
 11
771.1960680063289
 21
628.2497774590729
 31
0.0
  0
LINE
  5
158E
330
158A
100
AcDbEntity
  8
DIM
  6
Continuous
 62
     0
370
    -2
100
AcDbLine
 10
771.1960680063289
 20
537.9274006646668
 30
0.0
 11
771.1960680063289
 21
464.2604558944139
 31
0.0
  0
INSERT
  5
158F
330
158A
100
AcDbEntity
  8
DIM
 62
     0
370
    -2
100
AcDbBlockReference
  2
_DOT
 10
771.1960680063289
 20
540.9274006646668
 30
0.0
 41
3.0
 42
3.0
 43
3.0
 50
90.0
  0
INSERT
  5
1590
330
158A
100
AcDbEntity
  8
DIM
 62
     0
370
    -2
100
AcDbBlockReference
  2
_DOT
 10
771.1960680063289
 20
461.2604558944139
 30
0.0
 41
3.0
 42
3.0
 43
3.0
 50
270.0
  0
MTEXT
  5
1591
330
158A
100
AcDbEntity
  8
DIM
 62
     0
 48
0.05
100
AcDbMText
 10
754.1340680063289
 20
589.2157774590729
 30
0.0
 40
12.0
 41
0.0
 46
0.0
 71
     5
 72
     1
  1
\A1;80(深さ)
  7
ＭＳ ゴシック
 11
0.0
 21
1.0
 31
0.0
 73
     1
 44
1.0
  0
POINT
  5
1592
330
158A
100
AcDbEntity
  8
Defpoints
 62
     0
100
AcDbPoint
 10
794.3073279881019
 20
540.9274006646668
 30
0.0
  0
POINT
  5
1593
330
158A
100
AcDbEntity
  8
Defpoints
 62
     0
100
AcDbPoint
 10
771.1960680063289
 20
461.2604558944139
 30
0.0
  0
POINT
  5
1594
330
158A
100
AcDbEntity
  8
Defpoints
 62
     0
100
AcDbPoint
 10
771.1960680063289
 20
461.2604558944139
 30
0.0
  0
ENDBLK
  5
158C
330
158A
100
AcDbEntity
  8
0
100
AcDbBlockEnd
  0
BLOCK
  5
17F5
330
17F4
100
AcDbEntity
  8
0
100
AcDbBlockBegin
  2
*D19
 70
     1
 10
0.0
 20
0.0
 30
0.0
  3
*D19
  1
*D46
  0
LINE
  5
17F7
330
17F4
100
AcDbEntity
  8
DIM
 62
     0
 48
0.05
370
    -2
100
AcDbLine
 10
912.4599925554357
 20
540.9274006646668
 30
0.0
 11
947.8064310713689
 21
540.9274006646668
 31
0.0
  0
LINE
  5
17F8
330
17F4
100
AcDbEntity
  8
DIM
 62
     0
 48
0.05
370
    -2
100
AcDbLine
 10
849.164042232518
 20
502.927400664667
 30
0.0
 11
947.8064310713689
 21
502.927400664667
 31
0.0
  0
LINE
  5
17F9
330
17F4
100
AcDbEntity
  8
DIM
 62
     0
 48
0.05
370
    -2
100
AcDbLine
 10
947.8064310713689
 20
537.9274006646668
 30
0.0
 11
947.8064310713689
 21
505.927400664667
 31
0.0
  0
INSERT
  5
17FA
330
17F4
100
AcDbEntity
  8
DIM
 62
     0
370
    -2
100
AcDbBlockReference
  2
_DOT
 10
947.8064310713689
 20
540.9274006646668
 30
0.0
 41
3.0
 42
3.0
 43
3.0
 50
90.0
  0
INSERT
  5
17FB
330
17F4
100
AcDbEntity
  8
DIM
 62
     0
370
    -2
100
AcDbBlockReference
  2
_DOT
 10
947.8064310713689
 20
502.927400664667
 30
0.0
 41
3.0
 42
3.0
 43
3.0
 50
270.0
  0
MTEXT
  5
17FC
330
17F4
100
AcDbEntity
  8
DIM
 62
     0
 48
0.05
100
AcDbMText
 10
931.8064310713689
 20
521.927400664667
 30
0.0
 40
12.0
 41
0.0
 46
0.0
 71
     5
 72
     1
  1
\A1;38
  7
ＭＳ ゴシック
 11
0.0
 21
1.0
 31
0.0
 73
     1
 44
1.0
  0
POINT
  5
17FD
330
17F4
100
AcDbEntity
  8
Defpoints
 62
     0
100
AcDbPoint
 10
902.4599925554357
 20
540.9274006646668
 30
0.0
  0
POINT
  5
17FE
330
17F4
100
AcDbEntity
  8
Defpoints
 62
     0
100
AcDbPoint
 10
839.164042232518
 20
502.927400664667
 30
0.0
  0
POINT
  5
17FF
330
17F4
100
AcDbEntity
  8
Defpoints
 62
     0
100
AcDbPoint
 10
947.8064310713689
 20
502.927400664667
 30
0.0
  0
ENDBLK
  5
17F6
330
17F4
100
AcDbEntity
  8
0
100
AcDbBlockEnd
  0
BLOCK
  5
1827
330
1826
100
AcDbEntity
  8
0
100
AcDbBlockBegin
  2
*D20
 70
     1
 10
0.0
 20
0.0
 30
0.0
  3
*D20
  1
*D47
  0
LINE
  5
1829
330
1826
100
AcDbEntity
  8
DIM
 62
     0
 48
0.05
370
    -2
100
AcDbLine
 10
446.4652327835065
 20
1152.309063794914
 30
0.0
 11
483.1748569816437
 21
1152.309063794914
 31
0.0
  0
LINE
  5
182A
330
1826
100
AcDbEntity
  8
DIM
 62
     0
 48
0.05
370
    -2
100
AcDbLine
 10
415.9652327835065
 20
1099.30906379491
 30
0.0
 11
483.1748569816437
 21
1099.30906379491
 31
0.0
  0
LINE
  5
182B
330
1826
100
AcDbEntity
  8
DIM
 62
     0
 48
0.05
370
    -2
100
AcDbLine
 10
483.1748569816437
 20
1149.309063794914
 30
0.0
 11
483.1748569816437
 21
1102.30906379491
 31
0.0
  0
INSERT
  5
182C
330
1826
100
AcDbEntity
  8
DIM
 62
     0
370
    -2
100
AcDbBlockReference
  2
_DOT
 10
483.1748569816437
 20
1152.309063794914
 30
0.0
 41
3.0
 42
3.0
 43
3.0
 50
90.0
  0
INSERT
  5
182D
330
1826
100
AcDbEntity
  8
DIM
 62
     0
370
    -2
100
AcDbBlockReference
  2
_DOT
 10
483.1748569816437
 20
1099.30906379491
 30
0.0
 41
3.0
 42
3.0
 43
3.0
 50
270.0
  0
MTEXT
  5
182E
330
1826
100
AcDbEntity
  8
DIM
 62
     0
 48
0.05
100
AcDbMText
 10
467.1748569816437
 20
1125.809063794912
 30
0.0
 40
12.0
 41
0.0
 46
0.0
 71
     5
 72
     1
  1
\A1;53
  7
ＭＳ ゴシック
 11
0.0
 21
1.0
 31
0.0
 73
     1
 44
1.0
  0
POINT
  5
182F
330
1826
100
AcDbEntity
  8
Defpoints
 62
     0
100
AcDbPoint
 10
436.4652327835065
 20
1152.309063794914
 30
0.0
  0
POINT
  5
1830
330
1826
100
AcDbEntity
  8
Defpoints
 62
     0
100
AcDbPoint
 10
405.9652327835065
 20
1099.30906379491
 30
0.0
  0
POINT
  5
1831
330
1826
100
AcDbEntity
  8
Defpoints
 62
     0
100
AcDbPoint
 10
483.1748569816437
 20
1099.30906379491
 30
0.0
  0
ENDBLK
  5
1828
330
1826
100
AcDbEntity
  8
0
100
AcDbBlockEnd
  0
BLOCK
  5
1845
330
1844
100
AcDbEntity
  8
0
100
AcDbBlockBegin
  2
*D21
 70
     1
 10
0.0
 20
0.0
 30
0.0
  3
*D21
  1
*D48
  0
LINE
  5
1847
330
1844
100
AcDbEntity
  8
DIM
 62
     0
 48
0.05
370
    -2
100
AcDbLine
 10
349.8156011472832
 20
1076.90878708168
 30
0.0
 11
262.0401926450539
 21
1166.949840132271
 31
0.0
  0
LINE
  5
1848
330
1844
100
AcDbEntity
  8
DIM
 62
     0
 48
0.05
370
    -2
100
AcDbLine
 10
433.606147765655
 20
1158.59096658618
 30
0.0
 11
345.8307392634257
 21
1248.632019636771
 31
0.0
  0
LINE
  5
1849
330
1844
100
AcDbEntity
  8
DIM
 62
     0
 48
0.05
370
    -2
100
AcDbLine
 10
264.1883673793659
 20
1169.043961740694
 30
0.0
 11
343.6825645291137
 21
1246.537898028349
 31
0.0
  0
INSERT
  5
184A
330
1844
100
AcDbEntity
  8
DIM
 62
     0
370
    -2
100
AcDbBlockReference
  2
_DOT
 10
262.0401926450539
 20
1166.949840132271
 30
0.0
 41
3.0
 42
3.0
 43
3.0
 50
224.2700065828111
  0
INSERT
  5
184B
330
1844
100
AcDbEntity
  8
DIM
 62
     0
370
    -2
100
AcDbBlockReference
  2
_DOT
 10
345.8307392634257
 20
1248.632019636771
 30
0.0
 41
3.0
 42
3.0
 43
3.0
 50
44.27000658281113
  0
MTEXT
  5
184C
330
1844
100
AcDbEntity
  8
DIM
 62
     0
 48
0.05
100
AcDbMText
 10
292.7668173759842
 20
1219.247861800852
 30
0.0
 40
12.0
 41
0.0
 46
0.0
 71
     5
 72
     1
  1
\A1;117
  7
ＭＳ ゴシック
 11
0.7160582447706475
 21
0.6980405361409748
 31
0.0
 73
     1
 44
1.0
  0
POINT
  5
184D
330
1844
100
AcDbEntity
  8
Defpoints
 62
     0
100
AcDbPoint
 10
356.7960065086929
 20
1069.748204633973
 30
0.0
  0
POINT
  5
184E
330
1844
100
AcDbEntity
  8
Defpoints
 62
     0
100
AcDbPoint
 10
440.5865531270647
 20
1151.430384138474
 30
0.0
  0
POINT
  5
184F
330
1844
100
AcDbEntity
  8
Defpoints
 62
     0
100
AcDbPoint
 10
345.8307392634257
 20
1248.632019636771
 30
0.0
  0
ENDBLK
  5
1846
330
1844
100
AcDbEntity
  8
0
100
AcDbBlockEnd
  0
BLOCK
  5
186F
330
186E
100
AcDbEntity
  8
0
100
AcDbBlockBegin
  2
*D22
 70
     1
 10
0.0
 20
0.0
 30
0.0
  3
*D22
  1
*D50
  0
LINE
  5
1871
330
186E
100
AcDbEntity
  8
DIM
 62
     0
 48
0.05
370
    -2
100
AcDbLine
 10
230.9204538854904
 20
927.3317844046863
 30
0.0
 11
367.4324688909333
 21
791.1149277721308
 31
0.0
  0
LINE
  5
1872
330
186E
100
AcDbEntity
  8
DIM
 62
     0
 48
0.05
370
    -2
100
AcDbLine
 10
364.9289098049691
 20
1061.630613474597
 30
0.0
 11
501.4409248104118
 21
925.4137568420415
 31
0.0
  0
LINE
  5
1873
330
186E
100
AcDbEntity
  8
DIM
 62
     0
 48
0.05
370
    -2
100
AcDbLine
 10
369.5514922136474
 20
793.2385426519511
 30
0.0
 11
499.3219014876977
 21
923.2901419622212
 31
0.0
  0
INSERT
  5
1874
330
186E
100
AcDbEntity
  8
DIM
 62
     0
370
    -2
100
AcDbBlockReference
  2
_DOT
 10
367.4324688909333
 20
791.1149277721308
 30
0.0
 41
3.0
 42
3.0
 43
3.0
 50
225.0620078187923
  0
INSERT
  5
1875
330
186E
100
AcDbEntity
  8
DIM
 62
     0
370
    -2
100
AcDbBlockReference
  2
_DOT
 10
501.4409248104118
 20
925.4137568420415
 30
0.0
 41
3.0
 42
3.0
 43
3.0
 50
45.06200781879231
  0
MTEXT
  5
1876
330
186E
100
AcDbEntity
  8
DIM
 62
     0
 48
0.05
100
AcDbMText
 10
423.1107508249648
 20
869.565800028228
 30
0.0
 40
12.0
 41
0.0
 46
0.0
 71
     5
 72
     1
  1
\A1;190
  7
ＭＳ ゴシック
 11
0.7063411075713629
 21
0.7078716266067318
 31
0.0
 73
     1
 44
1.0
  0
POINT
  5
1877
330
186E
100
AcDbEntity
  8
Defpoints
 62
     0
100
AcDbPoint
 10
223.8417376194231
 20
934.3951954803999
 30
0.0
  0
POINT
  5
1878
330
186E
100
AcDbEntity
  8
Defpoints
 62
     0
100
AcDbPoint
 10
357.8501935389017
 20
1068.694024550311
 30
0.0
  0
POINT
  5
1879
330
186E
100
AcDbEntity
  8
Defpoints
 62
     0
100
AcDbPoint
 10
501.4409248104119
 20
925.4137568420415
 30
0.0
  0
ENDBLK
  5
1870
330
186E
100
AcDbEntity
  8
0
100
AcDbBlockEnd
  0
BLOCK
  5
18EF
330
18EE
100
AcDbEntity
  8
0
100
AcDbBlockBegin
  2
*D23
 70
     1
 10
0.0
 20
0.0
 30
0.0
  3
*D23
  1
*D54
  0
LINE
  5
18F1
330
18EE
100
AcDbEntity
  8
DIM
 62
     0
 48
0.05
370
    -2
100
AcDbLine
 10
285.4652327835067
 20
410.9274006646666
 30
0.0
 11
285.4652327835067
 21
389.4118618740868
 31
0.0
  0
LINE
  5
18F2
330
18EE
100
AcDbEntity
  8
DIM
 62
     0
 48
0.05
370
    -2
100
AcDbLine
 10
327.4652327835067
 20
410.9274006646666
 30
0.0
 11
327.4652327835067
 21
389.4118618740868
 31
0.0
  0
LINE
  5
18F3
330
18EE
100
AcDbEntity
  8
DIM
 62
     0
 48
0.05
370
    -2
100
AcDbLine
 10
288.4652327835067
 20
389.4118618740868
 30
0.0
 11
324.4652327835067
 21
389.4118618740868
 31
0.0
  0
INSERT
  5
18F4
330
18EE
100
AcDbEntity
  8
DIM
 62
     0
370
    -2
100
AcDbBlockReference
  2
_DOT
 10
285.4652327835067
 20
389.4118618740868
 30
0.0
 41
3.0
 42
3.0
 43
3.0
 50
180.0
  0
INSERT
  5
18F5
330
18EE
100
AcDbEntity
  8
DIM
 62
     0
370
    -2
100
AcDbBlockReference
  2
_DOT
 10
327.4652327835067
 20
389.4118618740868
 30
0.0
 41
3.0
 42
3.0
 43
3.0
  0
MTEXT
  5
18F6
330
18EE
100
AcDbEntity
  8
DIM
 62
     0
 48
0.05
100
AcDbMText
 10
306.4652327835067
 20
372.1338618740868
 30
0.0
 40
12.0
 41
0.0
 46
0.0
 71
     5
 72
     1
  1
\A1;G1 1/4"
  7
ＭＳ ゴシック
 73
     1
 44
1.0
  0
POINT
  5
18F7
330
18EE
100
AcDbEntity
  8
Defpoints
 62
     0
100
AcDbPoint
 10
285.4652327835067
 20
420.9274006646666
 30
0.0
  0
POINT
  5
18F8
330
18EE
100
AcDbEntity
  8
Defpoints
 62
     0
100
AcDbPoint
 10
327.4652327835067
 20
420.9274006646666
 30
0.0
  0
POINT
  5
18F9
330
18EE
100
AcDbEntity
  8
Defpoints
 62
     0
100
AcDbPoint
 10
327.4652327835067
 20
389.4118618740868
 30
0.0
  0
ENDBLK
  5
18F0
330
18EE
100
AcDbEntity
  8
0
100
AcDbBlockEnd
  0
BLOCK
  5
1947
330
1946
100
AcDbEntity
  8
0
100
AcDbBlockBegin
  2
*D24
 70
     1
 10
0.0
 20
0.0
 30
0.0
  3
*D24
  1
*D57
  0
LINE
  5
1949
330
1946
100
AcDbEntity
  8
DIM
 62
     0
 48
0.05
370
    -2
100
AcDbLine
 10
446.4652327835065
 20
540.9274006646668
 30
0.0
 11
508.5360170356719
 21
540.9274006646668
 31
0.0
  0
LINE
  5
194A
330
1946
100
AcDbEntity
  8
DIM
 62
     0
 48
0.05
370
    -2
100
AcDbLine
 10
337.4652327835067
 20
420.9274006646666
 30
0.0
 11
508.5360170356719
 21
420.9274006646666
 31
0.0
  0
LINE
  5
194B
330
1946
100
AcDbEntity
  8
DIM
 62
     0
 48
0.05
370
    -2
100
AcDbLine
 10
508.5360170356719
 20
537.9274006646668
 30
0.0
 11
508.5360170356719
 21
423.9274006646666
 31
0.0
  0
INSERT
  5
194C
330
1946
100
AcDbEntity
  8
DIM
 62
     0
370
    -2
100
AcDbBlockReference
  2
_DOT
 10
508.5360170356719
 20
540.9274006646668
 30
0.0
 41
3.0
 42
3.0
 43
3.0
 50
90.0
  0
INSERT
  5
194D
330
1946
100
AcDbEntity
  8
DIM
 62
     0
370
    -2
100
AcDbBlockReference
  2
_DOT
 10
508.5360170356719
 20
420.9274006646666
 30
0.0
 41
3.0
 42
3.0
 43
3.0
 50
270.0
  0
MTEXT
  5
194E
330
1946
100
AcDbEntity
  8
DIM
 62
     0
 48
0.05
100
AcDbMText
 10
492.5360170356719
 20
480.9274006646667
 30
0.0
 40
12.0
 41
0.0
 46
0.0
 71
     5
 72
     1
  1
\A1;120
  7
ＭＳ ゴシック
 11
0.0
 21
1.0
 31
0.0
 73
     1
 44
1.0
  0
POINT
  5
194F
330
1946
100
AcDbEntity
  8
Defpoints
 62
     0
100
AcDbPoint
 10
436.4652327835065
 20
540.9274006646668
 30
0.0
  0
POINT
  5
1950
330
1946
100
AcDbEntity
  8
Defpoints
 62
     0
100
AcDbPoint
 10
327.4652327835067
 20
420.9274006646666
 30
0.0
  0
POINT
  5
1951
330
1946
100
AcDbEntity
  8
Defpoints
 62
     0
100
AcDbPoint
 10
508.5360170356719
 20
420.9274006646666
 30
0.0
  0
ENDBLK
  5
1948
330
1946
100
AcDbEntity
  8
0
100
AcDbBlockEnd
  0
BLOCK
  5
196A
330
1969
100
AcDbEntity
  8
0
100
AcDbBlockBegin
  2
*D25
 70
     1
 10
0.0
 20
0.0
 30
0.0
  3
*D25
  1
*D58
  0
LINE
  5
196C
330
1969
100
AcDbEntity
  8
DIM
 62
     0
 48
0.05
370
    -2
100
AcDbLine
 10
200.1964498104863
 20
1109.4357111442
 30
0.0
 11
53.57340216245998
 21
962.8126634961739
 31
0.0
  0
LINE
  5
196D
330
1969
100
AcDbEntity
  8
DIM
 62
     0
 48
0.05
370
    -2
100
AcDbLine
 10
396.5380711453996
 20
913.0940898092875
 30
0.0
 11
249.9150234973733
 21
766.4710421612609
 31
0.0
  0
LINE
  5
196E
330
1969
100
AcDbEntity
  8
DIM
 62
     0
 48
0.05
370
    -2
100
AcDbLine
 10
55.69472250601963
 20
960.6913431526142
 30
0.0
 11
247.7937031538137
 21
768.5923625048206
 31
0.0
  0
INSERT
  5
196F
330
1969
100
AcDbEntity
  8
DIM
 62
     0
370
    -2
100
AcDbBlockReference
  2
_DOT
 10
53.57340216245998
 20
962.8126634961739
 30
0.0
 41
3.0
 42
3.0
 43
3.0
 50
135.0000000000001
  0
INSERT
  5
1970
330
1969
100
AcDbEntity
  8
DIM
 62
     0
370
    -2
100
AcDbBlockReference
  2
_DOT
 10
249.9150234973733
 20
766.4710421612609
 30
0.0
 41
3.0
 42
3.0
 43
3.0
 50
315.0000000000001
  0
MTEXT
  5
1971
330
1969
100
AcDbEntity
  8
DIM
 62
     0
 48
0.05
100
AcDbMText
 10
163.0579213289011
 20
875.9555613277024
 30
0.0
 40
12.0
 41
0.0
 46
0.0
 71
     5
 72
     1
  1
\A1;280
  7
ＭＳ ゴシック
 11
0.7071067811865481
 21
-0.7071067811865468
 31
0.0
 73
     1
 44
1.0
  0
POINT
  5
1972
330
1969
100
AcDbEntity
  8
Defpoints
 62
     0
100
AcDbPoint
 10
207.2675176223518
 20
1116.506778956066
 30
0.0
  0
POINT
  5
1973
330
1969
100
AcDbEntity
  8
Defpoints
 62
     0
100
AcDbPoint
 10
403.6091389572651
 20
920.1651576211531
 30
0.0
  0
POINT
  5
1974
330
1969
100
AcDbEntity
  8
Defpoints
 62
     0
100
AcDbPoint
 10
249.9150234973731
 20
766.4710421612608
 30
0.0
  0
ENDBLK
  5
196B
330
1969
100
AcDbEntity
  8
0
100
AcDbBlockEnd
  0
BLOCK
  5
19FA
330
19F9
100
AcDbEntity
  8
0
100
AcDbBlockBegin
  2
*D26
 70
     1
 10
0.0
 20
0.0
 30
0.0
  3
*D26
  1
*D26
  0
LINE
  5
19FC
330
19F9
100
AcDbEntity
  8
DIM
 62
     0
 48
0.05
370
    -2
100
AcDbLine
 10
441.4652327835065
 20
1158.748403623136
 30
0.0
 11
441.4652327835065
 21
1203.946697075607
 31
0.0
  0
LINE
  5
19FD
330
19F9
100
AcDbEntity
  8
DIM
 62
     0
 48
0.05
370
    -2
100
AcDbLine
 10
351.4652327835065
 20
1175.956596415462
 30
0.0
 11
351.4652327835065
 21
1203.946697075607
 31
0.0
  0
LINE
  5
19FE
330
19F9
100
AcDbEntity
  8
DIM
 62
     0
 48
0.05
370
    -2
100
AcDbLine
 10
438.4652327835065
 20
1203.946697075607
 30
0.0
 11
354.4652327835065
 21
1203.946697075607
 31
0.0
  0
INSERT
  5
19FF
330
19F9
100
AcDbEntity
  8
DIM
 62
     0
370
    -2
100
AcDbBlockReference
  2
_DOT
 10
441.4652327835065
 20
1203.946697075607
 30
0.0
 41
3.0
 42
3.0
 43
3.0
  0
INSERT
  5
1A00
330
19F9
100
AcDbEntity
  8
DIM
 62
     0
370
    -2
100
AcDbBlockReference
  2
_DOT
 10
351.4652327835065
 20
1203.946697075607
 30
0.0
 41
3.0
 42
3.0
 43
3.0
 50
180.0
  0
MTEXT
  5
1A01
330
19F9
100
AcDbEntity
  8
DIM
 62
     0
 48
0.05
100
AcDbMText
 10
396.4652327835065
 20
1219.946697075607
 30
0.0
 40
12.0
 41
0.0
 46
0.0
 71
     5
 72
     1
  1
\A1;90
  7
ＭＳ ゴシック
 73
     1
 44
1.0
  0
POINT
  5
1A02
330
19F9
100
AcDbEntity
  8
Defpoints
 62
     0
100
AcDbPoint
 10
441.4652327835065
 20
1148.748403623136
 30
0.0
  0
POINT
  5
1A03
330
19F9
100
AcDbEntity
  8
Defpoints
 62
     0
100
AcDbPoint
 10
351.4652327835065
 20
1165.956596415462
 30
0.0
  0
POINT
  5
1A04
330
19F9
100
AcDbEntity
  8
Defpoints
 62
     0
100
AcDbPoint
 10
351.4652327835065
 20
1203.946697075607
 30
0.0
  0
ENDBLK
  5
19FB
330
19F9
100
AcDbEntity
  8
0
100
AcDbBlockEnd
  0
BLOCK
  5
1A24
330
1A23
100
AcDbEntity
  8
0
100
AcDbBlockBegin
  2
*D27
 70
     1
 10
0.0
 20
0.0
 30
0.0
  3
*D27
  1
*D27
  0
LINE
  5
1A26
330
1A23
100
AcDbEntity
  8
DIM
 62
     0
 48
0.05
370
    -2
100
AcDbLine
 10
446.4652327835065
 20
1152.309063794914
 30
0.0
 11
561.9109333829159
 21
1152.309063794914
 31
0.0
  0
LINE
  5
1A27
330
1A23
100
AcDbEntity
  8
DIM
 62
     0
 48
0.05
370
    -2
100
AcDbLine
 10
445.1952362220015
 20
1062.318024748052
 30
0.0
 11
561.9109333829159
 21
1062.318024748052
 31
0.0
  0
LINE
  5
1A28
330
1A23
100
AcDbEntity
  8
DIM
 62
     0
 48
0.05
370
    -2
100
AcDbLine
 10
561.9109333829159
 20
1149.309063794914
 30
0.0
 11
561.9109333829159
 21
1065.318024748052
 31
0.0
  0
INSERT
  5
1A29
330
1A23
100
AcDbEntity
  8
DIM
 62
     0
370
    -2
100
AcDbBlockReference
  2
_DOT
 10
561.9109333829159
 20
1152.309063794914
 30
0.0
 41
3.0
 42
3.0
 43
3.0
 50
90.0
  0
INSERT
  5
1A2A
330
1A23
100
AcDbEntity
  8
DIM
 62
     0
370
    -2
100
AcDbBlockReference
  2
_DOT
 10
561.9109333829159
 20
1062.318024748052
 30
0.0
 41
3.0
 42
3.0
 43
3.0
 50
270.0
  0
MTEXT
  5
1A2B
330
1A23
100
AcDbEntity
  8
DIM
 62
     0
 48
0.05
100
AcDbMText
 10
545.9109333829159
 20
1107.313544271483
 30
0.0
 40
12.0
 41
0.0
 46
0.0
 71
     5
 72
     1
  1
\A1;90
  7
ＭＳ ゴシック
 11
0.0
 21
1.0
 31
0.0
 73
     1
 44
1.0
  0
POINT
  5
1A2C
330
1A23
100
AcDbEntity
  8
Defpoints
 62
     0
100
AcDbPoint
 10
436.4652327835065
 20
1152.309063794914
 30
0.0
  0
POINT
  5
1A2D
330
1A23
100
AcDbEntity
  8
Defpoints
 62
     0
100
AcDbPoint
 10
435.1952362220015
 20
1062.318024748052
 30
0.0
  0
POINT
  5
1A2E
330
1A23
100
AcDbEntity
  8
Defpoints
 62
     0
100
AcDbPoint
 10
561.9109333829159
 20
1062.318024748052
 30
0.0
  0
ENDBLK
  5
1A25
330
1A23
100
AcDbEntity
  8
0
100
AcDbBlockEnd
  0
BLOCK
  5
1A3A
330
1A39
100
AcDbEntity
  8
0
100
AcDbBlockBegin
  2
*D28
 70
     1
 10
0.0
 20
0.0
 30
0.0
  3
*D28
  1
*D28
  0
LINE
  5
1A3C
330
1A39
100
AcDbEntity
  8
DIM
 62
     0
 48
0.05
370
    -2
100
AcDbLine
 10
447.9045726117256
 20
540.9274006646668
 30
0.0
 11
477.3372326019523
 21
540.9274006646668
 31
0.0
  0
LINE
  5
1A3D
330
1A39
100
AcDbEntity
  8
DIM
 62
     0
 48
0.05
370
    -2
100
AcDbLine
 10
385.1692824605888
 20
502.927400664667
 30
0.0
 11
477.3372326019523
 21
502.927400664667
 31
0.0
  0
LINE
  5
1A3E
330
1A39
100
AcDbEntity
  8
DIM
 62
     0
 48
0.05
370
    -2
100
AcDbLine
 10
477.3372326019523
 20
537.9274006646668
 30
0.0
 11
477.3372326019523
 21
505.927400664667
 31
0.0
  0
INSERT
  5
1A3F
330
1A39
100
AcDbEntity
  8
DIM
 62
     0
370
    -2
100
AcDbBlockReference
  2
_DOT
 10
477.3372326019523
 20
540.9274006646668
 30
0.0
 41
3.0
 42
3.0
 43
3.0
 50
90.0
  0
INSERT
  5
1A40
330
1A39
100
AcDbEntity
  8
DIM
 62
     0
370
    -2
100
AcDbBlockReference
  2
_DOT
 10
477.3372326019523
 20
502.927400664667
 30
0.0
 41
3.0
 42
3.0
 43
3.0
 50
270.0
  0
MTEXT
  5
1A41
330
1A39
100
AcDbEntity
  8
DIM
 62
     0
 48
0.05
100
AcDbMText
 10
461.3372326019523
 20
521.927400664667
 30
0.0
 40
12.0
 41
0.0
 46
0.0
 71
     5
 72
     1
  1
\A1;38
  7
ＭＳ ゴシック
 11
0.0
 21
1.0
 31
0.0
 73
     1
 44
1.0
  0
POINT
  5
1A42
330
1A39
100
AcDbEntity
  8
Defpoints
 62
     0
100
AcDbPoint
 10
437.9045726117256
 20
540.9274006646668
 30
0.0
  0
POINT
  5
1A43
330
1A39
100
AcDbEntity
  8
Defpoints
 62
     0
100
AcDbPoint
 10
375.1692824605888
 20
502.927400664667
 30
0.0
  0
POINT
  5
1A44
330
1A39
100
AcDbEntity
  8
Defpoints
 62
     0
100
AcDbPoint
 10
477.3372326019523
 20
502.927400664667
 30
0.0
  0
ENDBLK
  5
1A3B
330
1A39
100
AcDbEntity
  8
0
100
AcDbBlockEnd
  0
ENDSEC
  0
SECTION
  2
ENTITIES
  0
MTEXT
  5
177
330
A
100
AcDbEntity
  8
TEMPLATE
390
1D
100
AcDbMText
 10
39.60107227386538
 20
171.8658758157141
 30
0.0
 40
8.144205729166663
 41
0.0
 46
0.0
 71
     1
 72
     1
  1
品名
  7
ＭＳ ゴシック
 73
     1
 44
0.7828267384257843
  0
MTEXT
  5
178
330
A
100
AcDbEntity
  8
TEMPLATE
390
1D
100
AcDbMText
 10
39.60107227386538
 20
129.365875815714
 30
0.0
 40
8.144205729166663
 41
0.0
 46
0.0
 71
     1
 72
     1
  1
仕様
  7
ＭＳ ゴシック
 73
     1
 44
0.7828267384257843
  0
LINE
  5
179
330
A
100
AcDbEntity
  8
TEMPLATE
390
1D
100
AcDbLine
 10
1011.101072273624
 20
133.5733367532142
 30
0.0
 11
36.10107227362437
 21
133.5733367532142
 31
0.0
  0
LWPOLYLINE
  5
17A
330
A
100
AcDbEntity
  8
TEMPLATE
390
1D
100
AcDbPolyline
 90
        5
 70
   128
 43
0.0
 10
1011.101072273624
 20
1448.573336753213
 10
36.10107227362437
 20
1448.573336753213
 10
36.10107227362437
 20
48.57333675321413
 10
1011.101072273624
 20
48.57333675321413
 10
1011.101072273624
 20
1448.573336753213
  0
LINE
  5
17B
330
A
100
AcDbEntity
  8
TEMPLATE
390
1D
100
AcDbLine
 10
1011.101072273624
 20
176.0733367532141
 30
0.0
 11
36.10107227362437
 21
176.0733367532141
 31
0.0
  0
LINE
  5
17C
330
A
100
AcDbEntity
  8
TEMPLATE
390
1D
100
AcDbLine
 10
1011.101072273866
 20
91.07333675321412
 30
0.0
 11
634.601072273865
 21
91.07333675321412
 31
0.0
  0
MTEXT
  5
17E
330
A
100
AcDbEntity
  8
TEMPLATE
390
1D
100
AcDbMText
 10
649.5367753999956
 20
76.11813951656006
 30
0.0
 40
12.21630859375
 41
0.0
 46
0.0
 71
     1
 72
     1
  1
大洋金物株式会社 ティーフォルム事業部
  7
ＭＳ ゴシック
 73
     1
 44
0.7828267384257843
  0
MTEXT
  5
180
330
A
100
AcDbEntity
  8
TEMPLATE
390
1D
100
AcDbMText
 10
915.601072273995
 20
115.0746453469641
 30
0.0
 40
12.21630859375
 41
0.0
 46
12.21630859375
 71
     1
 72
     1
  1
{1:5}
  7
ＭＳ ゴシック
 73
     1
 44
0.7828267384257843
1001
ACAD
1000
ACAD_MTEXT_DEFINED_HEIGHT_BEGIN
1070
    46
1040
12.21630859375
1000
ACAD_MTEXT_DEFINED_HEIGHT_END
  0
MTEXT
  5
181
330
A
100
AcDbEntity
  8
TEMPLATE
390
1D
100
AcDbMText
 10
889.101072273995
 20
129.365875815714
 30
0.0
 40
8.144205729166663
 41
0.0
 46
0.0
 71
     1
 72
     1
  1
縮尺
  7
ＭＳ ゴシック
 73
     1
 44
0.7828267384257843
  0
LINE
  5
182
330
A
100
AcDbEntity
  8
TEMPLATE
390
1D
100
AcDbLine
 10
885.601072273995
 20
91.07333675321412
 30
0.0
 11
885.601072273995
 21
133.5733367532142
 31
0.0
  0
MTEXT
  5
183
330
A
100
AcDbEntity
  8
TEMPLATE
390
1D
100
AcDbMText
 10
763.601072273995
 20
129.365875815714
 30
0.0
 40
8.144205729166663
 41
0.0
 46
0.0
 71
     1
 72
     1
  1
容量
  7
ＭＳ ゴシック
 73
     1
 44
0.7828267384257843
  0
LINE
  5
184
330
A
100
AcDbEntity
  8
TEMPLATE
390
1D
100
AcDbLine
 10
760.101072273995
 20
91.07333675321412
 30
0.0
 11
760.101072273995
 21
133.5733367532142
 31
0.0
  0
MTEXT
  5
185
330
A
100
AcDbEntity
  8
TEMPLATE
390
1D
100
AcDbMText
 10
638.101072273995
 20
171.8658758157141
 30
0.0
 40
8.144205729166663
 41
0.0
 46
0.0
 71
     1
 72
     1
  1
品番
  7
ＭＳ ゴシック
 73
     1
 44
0.7828267384257843
  0
MTEXT
  5
186
330
A
100
AcDbEntity
  8
TEMPLATE
390
1D
100
AcDbMText
 10
638.101072273995
 20
129.365875815714
 30
0.0
 40
8.144205729166663
 41
0.0
 46
0.0
 71
     1
 72
     1
  1
重量
  7
ＭＳ ゴシック
 73
     1
 44
0.7828267384257843
  0
MTEXT
  5
187
330
A
100
AcDbEntity
  8
TEMPLATE
390
1D
100
AcDbMText
 10
664.601072273995
 20
157.5746453469641
 30
0.0
 40
12.21630859375
 41
0.0
 46
12.21630859375
 71
     1
 72
     1
  1
{BRS70-0409-001}
  7
ＭＳ ゴシック
 73
     1
 44
0.7828267384257843
1001
ACAD
1000
ACAD_MTEXT_DEFINED_HEIGHT_BEGIN
1070
    46
1040
12.21630859375
1000
ACAD_MTEXT_DEFINED_HEIGHT_END
  0
LINE
  5
188
330
A
100
AcDbEntity
  8
TEMPLATE
390
1D
100
AcDbLine
 10
634.601072273995
 20
48.57333675321413
 30
0.0
 11
634.601072273995
 21
176.0733367532141
 31
0.0
  0
MTEXT
  5
189
330
A
100
AcDbEntity
  8
TEMPLATE
390
1D
100
AcDbMText
 10
66.10107227386537
 20
157.5746453469641
 30
0.0
 40
12.21630859375
 41
0.0
 46
13.76777978515625
 71
     1
 72
     1
  1
{手洗器　-CLOU, Flush-}
  7
ＭＳ ゴシック
 73
     1
 44
0.7828267384257843
1001
ACAD
1000
ACAD_MTEXT_DEFINED_HEIGHT_BEGIN
1070
    46
1040
13.76777978515625
1000
ACAD_MTEXT_DEFINED_HEIGHT_END
  0
INSERT
  5
6B5
330
A
100
AcDbEntity
  8
TEMPLATE
100
AcDbBlockReference
  2
名称未設定-1
 10
935.3753740442249
 20
12.97338287832691
 30
0.0
 41
0.3809999999999999
 42
0.3809999999999999
 43
0.3809999999999999
  0
MTEXT
  5
7D9
330
A
100
AcDbEntity
  8
TEMPLATE
390
1D
100
AcDbMText
 10
62.62717263801819
 20
113.4059880146976
 30
0.0
 40
12.21630859375
 41
0.0
 46
48.7782587890625
 71
     1
 72
     1
  1
{コーナー用壁掛け、カウンター置き/オーバーフローなし/\P排水目皿(水溜め不可)、壁取付ボルト付属/\P陶器/ホワイト}
  7
ＭＳ ゴシック
 73
     1
 44
0.8840641112754306
1001
ACAD
1000
ACAD_MTEXT_DEFINED_HEIGHT_BEGIN
1070
    46
1040
48.7782587890625
1000
ACAD_MTEXT_DEFINED_HEIGHT_END
  0
INSERT
  5
68C
330
A
100
AcDbEntity
  8
TEMPLATE
100
AcDbBlockReference
  2
block 2
 10
919.2743017702577
 20
8.373076514336368
 30
0.0
 41
0.3809999999999999
 42
0.3809999999999999
 43
0.3809999999999999
  0
MTEXT
  5
D60
330
A
100
AcDbEntity
  8
TEMPLATE
390
1D
100
AcDbMText
 10
664.601072273865
 20
115.0746453469641
 30
0.0
 40
12.21630859375
 41
0.0
 46
14.1953505859375
 71
     1
 72
     1
  1
{5.2kg}
  7
ＭＳ ゴシック
 73
     1
 44
0.7828267384257843
1001
ACAD
1000
ACAD_MTEXT_DEFINED_HEIGHT_BEGIN
1070
    46
1040
14.1953505859375
1000
ACAD_MTEXT_DEFINED_HEIGHT_END
  0
LWPOLYLINE
  5
D69
330
A
100
AcDbEntity
  8
BORDER
 48
0.05
100
AcDbPolyline
 90
        4
 70
     1
 43
0.0
 10
0.0
 20
0.0
 10
0.0
 20
1485.0
 10
1050.0
 20
1485.0
 10
1050.0
 20
0.0
  0
INSERT
  5
123E
330
A
100
AcDbEntity
  8
TEMPLATE
100
AcDbBlockReference
  2
block 2
 10
2143.111838213406
 20
46.51549633940952
 30
0.0
 41
0.3809999999999999
 42
0.3809999999999999
 43
0.3809999999999999
  0
LINE
  5
1241
330
A
100
AcDbEntity
  8
MODEL
100
AcDbLine
 10
171.4652327835067
 20
445.9274006646666
 30
0.0
 11
171.4652327835067
 21
535.9274006646668
 31
0.0
  0
LINE
  5
1242
330
A
100
AcDbEntity
  8
MODEL
100
AcDbLine
 10
436.4652327835065
 20
440.9274006646666
 30
0.0
 11
176.4652327835067
 21
440.9274006646666
 31
0.0
  0
LINE
  5
1243
102
{ACAD_REACTORS
330
1945
102
}
330
A
100
AcDbEntity
  8
MODEL
100
AcDbLine
 10
176.4652327835067
 20
540.9274006646668
 30
0.0
 11
436.4652327835065
 21
540.9274006646668
 31
0.0
  0
LINE
  5
1244
330
A
100
AcDbEntity
  8
MODEL
100
AcDbLine
 10
441.4652327835065
 20
535.9274006646668
 30
0.0
 11
441.4652327835065
 21
445.9274006646666
 31
0.0
  0
SPLINE
  5
1245
330
A
100
AcDbEntity
  8
MODEL
100
AcDbSpline
210
0.0
220
0.0
230
1.0
 70
    24
 71
     3
 72
    17
 73
    13
 74
     0
 42
0.000000001
 43
0.00000001
 40
0.0
 40
0.0
 40
0.0
 40
0.0
 40
0.1087529157332528
 40
0.2139847941175849
 40
0.3162192408300389
 40
0.4160270475357907
 40
0.5140214187144982
 40
0.6108500178187908
 40
0.7071840239890109
 40
0.8037049346953394
 40
0.9010903236449894
 40
1.0
 40
1.0
 40
1.0
 40
1.0
 10
436.4652327835065
 20
540.9274006646668
 30
0.0
 10
436.5227773488805
 20
540.9274006646668
 30
0.0
 10
436.6360033887649
 20
540.9274006646668
 30
0.0
 10
436.8025930778967
 20
540.9274006646668
 30
0.0
 10
436.9628750942283
 20
540.9274006646668
 30
0.0
 10
437.1168379188384
 20
540.9274006646668
 30
0.0
 10
437.2644681040001
 20
540.9274006646668
 30
0.0
 10
437.4057300832646
 20
540.9274006646668
 30
0.0
 10
437.5406558641116
 20
540.9274006646668
 30
0.0
 10
437.6690217033283
 20
540.9274006646668
 30
0.0
 10
437.7915764350218
 20
540.9274006646668
 30
0.0
 10
437.8667127345288
 20
540.9274006646668
 30
0.0
 10
437.9045726117256
 20
540.9274006646668
 30
0.0
  0
SPLINE
  5
1246
330
A
100
AcDbEntity
  8
MODEL
100
AcDbSpline
210
0.0
220
0.0
230
1.0
 70
    24
 71
     3
 72
    18
 73
    14
 74
     0
 42
0.000000001
 43
0.00000001
 40
0.0
 40
0.0
 40
0.0
 40
0.0
 40
0.0899907167152354
 40
0.1786730807626954
 40
0.2665403601173791
 40
0.3540995992607114
 40
0.4418631818422342
 40
0.5303399414220578
 40
0.6200265738372046
 40
0.7114000468597997
 40
0.8049115199552093
 40
0.9009820363416303
 40
1.0
 40
1.0
 40
1.0
 40
1.0
 10
175.0258929552838
 20
540.9274006646668
 30
0.0
 10
175.0602705543861
 20
540.9274006646668
 30
0.0
 10
175.1285259452197
 20
540.9274006646668
 30
0.0
 10
175.2390484513089
 20
540.9274006646668
 30
0.0
 10
175.3543644743295
 20
540.9274006646668
 30
0.0
 10
175.4750982585938
 20
540.9274006646668
 30
0.0
 10
175.6010697282363
 20
540.9274006646668
 30
0.0
 10
175.7323100295652
 20
540.9274006646668
 30
0.0
 10
175.8687933684632
 20
540.9274006646668
 30
0.0
 10
176.0105109392752
 20
540.9274006646668
 30
0.0
 10
176.1574519316018
 20
540.9274006646668
 30
0.0
 10
176.3096109352118
 20
540.9274006646668
 30
0.0
 10
176.4128389687867
 20
540.9274006646668
 30
0.0
 10
176.4652327835067
 20
540.9274006646668
 30
0.0
  0
SPLINE
  5
1247
330
A
100
AcDbEntity
  8
MODEL
100
AcDbSpline
210
0.0
220
0.0
230
1.0
 70
    24
 71
     3
 72
    18
 73
    14
 74
     0
 42
0.000000001
 43
0.00000001
 40
0.0
 40
0.0
 40
0.0
 40
0.0
 40
0.0899907167152213
 40
0.1786730807626635
 40
0.2665403601173649
 40
0.3540995992606742
 40
0.4418631818421958
 40
0.5303399414220342
 40
0.6200265738371913
 40
0.711400046859772
 40
0.8049115199551946
 40
0.9009820363416317
 40
0.9999999999999999
 40
0.9999999999999999
 40
0.9999999999999999
 40
0.9999999999999999
 10
437.9045726117256
 20
440.9274006646666
 30
0.0
 10
437.8701950126196
 20
440.9274006646666
 30
0.0
 10
437.801939621786
 20
440.9274006646666
 30
0.0
 10
437.6914171157004
 20
440.9274006646666
 30
0.0
 10
437.5761010926799
 20
440.9274006646666
 30
0.0
 10
437.4553673084156
 20
440.9274006646666
 30
0.0
 10
437.329395838773
 20
440.9274006646666
 30
0.0
 10
437.1981555374441
 20
440.9274006646666
 30
0.0
 10
437.0616721985425
 20
440.9274006646666
 30
0.0
 10
436.9199546277341
 20
440.9274006646666
 30
0.0
 10
436.7730136354075
 20
440.9274006646666
 30
0.0
 10
436.6208546318012
 20
440.9274006646666
 30
0.0
 10
436.5176265982227
 20
440.9274006646666
 30
0.0
 10
436.4652327835065
 20
440.9274006646666
 30
0.0
  0
SPLINE
  5
1248
330
A
100
AcDbEntity
  8
MODEL
100
AcDbSpline
210
0.0
220
0.0
230
1.0
 70
    24
 71
     3
 72
    17
 73
    13
 74
     0
 42
0.000000001
 43
0.00000001
 40
0.0
 40
0.0
 40
0.0
 40
0.0
 40
0.1087529157332388
 40
0.2139847941175569
 40
0.3162192408300172
 40
0.4160270475357508
 40
0.5140214187144506
 40
0.6108500178187712
 40
0.7071840239889792
 40
0.803704934695345
 40
0.9010903236449981
 40
1.0
 40
1.0
 40
1.0
 40
1.0
 10
176.4652327835067
 20
440.9274006646666
 30
0.0
 10
176.4076882181291
 20
440.9274006646666
 30
0.0
 10
176.2944621782444
 20
440.9274006646666
 30
0.0
 10
176.1278724891126
 20
440.9274006646666
 30
0.0
 10
175.967590472781
 20
440.9274006646666
 30
0.0
 10
175.8136276481746
 20
440.9274006646666
 30
0.0
 10
175.6659974630092
 20
440.9274006646666
 30
0.0
 10
175.5247354837484
 20
440.9274006646666
 30
0.0
 10
175.3898097028977
 20
440.9274006646666
 30
0.0
 10
175.261443863681
 20
440.9274006646666
 30
0.0
 10
175.1388891319875
 20
440.9274006646666
 30
0.0
 10
175.0637528324805
 20
440.9274006646666
 30
0.0
 10
175.0258929552838
 20
440.9274006646666
 30
0.0
  0
SPLINE
  5
1249
330
A
100
AcDbEntity
  8
MODEL
100
AcDbSpline
210
0.0
220
0.0
230
1.0
 70
    24
 71
     3
 72
    17
 73
    13
 74
     0
 42
0.000000001
 43
0.00000001
 40
0.0
 40
0.0
 40
0.0
 40
0.0
 40
0.1087529157332548
 40
0.2139847941176155
 40
0.3162192408300749
 40
0.4160270475358121
 40
0.5140214187145137
 40
0.6108500178188386
 40
0.7071840239890046
 40
0.8037049346953742
 40
0.9010903236450236
 40
1.0
 40
1.0
 40
1.0
 40
1.0
 10
441.4652327835065
 20
445.9274006646666
 30
0.0
 10
441.4652327835065
 20
445.8698560992926
 30
0.0
 10
441.4652327835065
 20
445.7566300594077
 30
0.0
 10
441.4652327835065
 20
445.5900403702727
 30
0.0
 10
441.4652327835065
 20
445.4297583539407
 30
0.0
 10
441.4652327835065
 20
445.2757955293376
 30
0.0
 10
441.4652327835065
 20
445.1281653441728
 30
0.0
 10
441.4652327835065
 20
444.9869033649117
 30
0.0
 10
441.4652327835065
 20
444.8519775840617
 30
0.0
 10
441.4652327835065
 20
444.7236117448448
 30
0.0
 10
441.4652327835065
 20
444.6010570131506
 30
0.0
 10
441.4652327835065
 20
444.5259207136436
 30
0.0
 10
441.4652327835065
 20
444.4880608364477
 30
0.0
  0
SPLINE
  5
124A
330
A
100
AcDbEntity
  8
MODEL
100
AcDbSpline
210
0.0
220
0.0
230
1.0
 70
    24
 71
     3
 72
    18
 73
    14
 74
     0
 42
0.000000001
 43
0.00000001
 40
0.0
 40
0.0
 40
0.0
 40
0.0
 40
0.0899907167152153
 40
0.1786730807626565
 40
0.2665403601173348
 40
0.3540995992606585
 40
0.4418631818421722
 40
0.5303399414219966
 40
0.6200265738371559
 40
0.7114000468597541
 40
0.8049115199551743
 40
0.9009820363416062
 40
1.0
 40
1.0
 40
1.0
 40
1.0
 10
171.4652327835067
 20
444.4880608364477
 30
0.0
 10
171.4652327835067
 20
444.5224384355496
 30
0.0
 10
171.4652327835067
 20
444.5906938263837
 30
0.0
 10
171.4652327835067
 20
444.7012163324727
 30
0.0
 10
171.4652327835067
 20
444.8165323554928
 30
0.0
 10
171.4652327835067
 20
444.9372661397537
 30
0.0
 10
171.4652327835067
 20
445.0632376093967
 30
0.0
 10
171.4652327835067
 20
445.1944779107326
 30
0.0
 10
171.4652327835067
 20
445.3309612496267
 30
0.0
 10
171.4652327835067
 20
445.4726788204388
 30
0.0
 10
171.4652327835067
 20
445.6196198127617
 30
0.0
 10
171.4652327835067
 20
445.7717788163758
 30
0.0
 10
171.4652327835067
 20
445.8750068499497
 30
0.0
 10
171.4652327835067
 20
445.9274006646666
 30
0.0
  0
SPLINE
  5
124B
330
A
100
AcDbEntity
  8
MODEL
100
AcDbSpline
210
0.0
220
0.0
230
1.0
 70
    24
 71
     3
 72
    18
 73
    14
 74
     0
 42
0.000000001
 43
0.00000001
 40
0.0
 40
0.0
 40
0.0
 40
0.0
 40
0.0899907167152232
 40
0.1786730807626728
 40
0.266540360117367
 40
0.3540995992606922
 40
0.4418631818422002
 40
0.5303399414220388
 40
0.6200265738371894
 40
0.7114000468597892
 40
0.8049115199551938
 40
0.900982036341622
 40
1.0
 40
1.0
 40
1.0
 40
1.0
 10
441.4652327835065
 20
537.3667404928889
 30
0.0
 10
441.4652327835065
 20
537.3323628937829
 30
0.0
 10
441.4652327835065
 20
537.26410750295
 30
0.0
 10
441.4652327835065
 20
537.1535849968608
 30
0.0
 10
441.4652327835065
 20
537.0382689738439
 30
0.0
 10
441.4652327835065
 20
536.9175351895789
 30
0.0
 10
441.4652327835065
 20
536.7915637199368
 30
0.0
 10
441.4652327835065
 20
536.6603234186078
 30
0.0
 10
441.4652327835065
 20
536.5238400797058
 30
0.0
 10
441.4652327835065
 20
536.3821225088979
 30
0.0
 10
441.4652327835065
 20
536.2351815165708
 30
0.0
 10
441.4652327835065
 20
536.0830225129608
 30
0.0
 10
441.4652327835065
 20
535.9797944793869
 30
0.0
 10
441.4652327835065
 20
535.9274006646668
 30
0.0
  0
SPLINE
  5
124C
330
A
100
AcDbEntity
  8
MODEL
100
AcDbSpline
210
0.0
220
0.0
230
1.0
 70
    24
 71
     3
 72
    17
 73
    13
 74
     0
 42
0.000000001
 43
0.00000001
 40
0.0
 40
0.0
 40
0.0
 40
0.0
 40
0.1087529157332477
 40
0.2139847941175787
 40
0.3162192408300483
 40
0.4160270475357699
 40
0.514021418714473
 40
0.6108500178188154
 40
0.7071840239889919
 40
0.8037049346953584
 40
0.9010903236450092
 40
1.0
 40
1.0
 40
1.0
 40
1.0
 10
171.4652327835067
 20
535.9274006646668
 30
0.0
 10
171.4652327835067
 20
535.984945230044
 30
0.0
 10
171.4652327835067
 20
536.0981712699248
 30
0.0
 10
171.4652327835067
 20
536.2647609590609
 30
0.0
 10
171.4652327835067
 20
536.4250429753919
 30
0.0
 10
171.4652327835067
 20
536.579005799999
 30
0.0
 10
171.4652327835067
 20
536.7266359851639
 30
0.0
 10
171.4652327835067
 20
536.867897964425
 30
0.0
 10
171.4652327835067
 20
537.0028237452749
 30
0.0
 10
171.4652327835067
 20
537.1311895844918
 30
0.0
 10
171.4652327835067
 20
537.2537443161858
 30
0.0
 10
171.4652327835067
 20
537.328880615689
 30
0.0
 10
171.4652327835067
 20
537.3667404928889
 30
0.0
  0
SPLINE
  5
124D
330
A
100
AcDbEntity
  8
MODEL
100
AcDbSpline
210
0.0
220
0.0
230
1.0
 70
     8
 71
     3
 72
    14
 73
    10
 74
     0
 42
0.000000001
 43
0.00000001
 40
0.0
 40
0.0
 40
0.0
 40
0.0
 40
0.25
 40
0.25
 40
0.5
 40
0.5
 40
0.75
 40
0.75
 40
1.0
 40
1.0
 40
1.0
 40
1.0
 10
441.4652327835065
 20
537.9274006646668
 30
0.0
 10
441.4652327835065
 20
538.3200997463649
 30
0.0
 10
441.3844029612155
 20
538.7115897404368
 30
0.0
 10
441.0839032248113
 20
539.4370602795499
 30
0.0
 10
440.8642333106982
 20
539.7710408245949
 30
0.0
 10
440.3088729434312
 20
540.3264011918619
 30
0.0
 10
439.9748923983861
 20
540.5460711059719
 30
0.0
 10
439.2494218592765
 20
540.8465708423759
 30
0.0
 10
438.8579318652046
 20
540.9274006646668
 30
0.0
 10
438.4652327835065
 20
540.9274006646668
 30
0.0
  0
SPLINE
  5
124E
330
A
100
AcDbEntity
  8
MODEL
100
AcDbSpline
210
0.0
220
0.0
230
1.0
 70
    24
 71
     3
 72
    17
 73
    13
 74
     0
 42
0.000000001
 43
0.00000001
 40
0.0
 40
0.0
 40
0.0
 40
0.0
 40
0.1087529157332557
 40
0.2139847941175915
 40
0.3162192408300512
 40
0.4160270475357674
 40
0.5140214187144804
 40
0.6108500178188075
 40
0.7071840239889953
 40
0.8037049346953508
 40
0.9010903236449928
 40
1.0
 40
1.0
 40
1.0
 40
1.0
 10
441.4652327835065
 20
537.9274006646668
 30
0.0
 10
441.4652327835065
 20
537.9263383484139
 30
0.0
 10
441.4652327835065
 20
537.9242481099758
 30
0.0
 10
441.4652327835065
 20
537.9069320164748
 30
0.0
 10
441.4652327835065
 20
537.8790937062109
 30
0.0
 10
441.4652327835065
 20
537.8397942170558
 30
0.0
 10
441.4652327835065
 20
537.7892649050478
 30
0.0
 10
441.4652327835065
 20
537.7274246243579
 30
0.0
 10
441.4652327835065
 20
537.6543461173968
 30
0.0
 10
441.4652327835065
 20
537.569832314534
 30
0.0
 10
441.4652327835065
 20
537.4746639064798
 30
0.0
 10
441.4652327835065
 20
537.4029007179889
 30
0.0
 10
441.4652327835065
 20
537.3667404928889
 30
0.0
  0
SPLINE
  5
124F
330
A
100
AcDbEntity
  8
MODEL
100
AcDbSpline
210
0.0
220
0.0
230
1.0
 70
    24
 71
     3
 72
    18
 73
    14
 74
     0
 42
0.000000001
 43
0.00000001
 40
0.0
 40
0.0
 40
0.0
 40
0.0
 40
0.089990716715225
 40
0.1786730807626626
 40
0.2665403601173441
 40
0.3540995992606786
 40
0.4418631818421804
 40
0.5303399414220125
 40
0.6200265738371733
 40
0.7114000468597748
 40
0.8049115199551812
 40
0.9009820363416112
 40
1.0
 40
1.0
 40
1.0
 40
1.0
 10
437.9045726117256
 20
540.9274006646668
 30
0.0
 10
437.9375400562967
 20
540.9274006646668
 30
0.0
 10
438.0029956399558
 20
540.9274006646668
 30
0.0
 10
438.0908830852422
 20
540.9274006646668
 30
0.0
 10
438.1699771004933
 20
540.9274006646668
 30
0.0
 10
438.2396347252797
 20
540.9274006646668
 30
0.0
 10
438.3000152465211
 20
540.9274006646668
 30
0.0
 10
438.3510740231468
 20
540.9274006646668
 30
0.0
 10
438.3928105478007
 20
540.9274006646668
 30
0.0
 10
438.4252775698987
 20
540.9274006646668
 30
0.0
 10
438.4482847720064
 20
540.9274006646668
 30
0.0
 10
438.4626104976487
 20
540.9274006646668
 30
0.0
 10
438.4643499282974
 20
540.9274006646668
 30
0.0
 10
438.4652327835065
 20
540.9274006646668
 30
0.0
  0
SPLINE
  5
1250
330
A
100
AcDbEntity
  8
MODEL
100
AcDbSpline
210
0.0
220
0.0
230
1.0
 70
     8
 71
     3
 72
    14
 73
    10
 74
     0
 42
0.000000001
 43
0.00000001
 40
0.0
 40
0.0
 40
0.0
 40
0.0
 40
0.25
 40
0.25
 40
0.5
 40
0.5
 40
0.75
 40
0.75
 40
1.0
 40
1.0
 40
1.0
 40
1.0
 10
438.4652327835065
 20
440.9274006646666
 30
0.0
 10
438.8579318652046
 20
440.9274006646666
 30
0.0
 10
439.2494218592765
 20
441.0082304869576
 30
0.0
 10
439.9748923983861
 20
441.3087302233617
 30
0.0
 10
440.3088729434312
 20
441.5284001374706
 30
0.0
 10
440.8642333106982
 20
442.0837605047417
 30
0.0
 10
441.0839032248113
 20
442.4177410497826
 30
0.0
 10
441.3844029612155
 20
443.1432115888996
 30
0.0
 10
441.4652327835065
 20
443.5347015829717
 30
0.0
 10
441.4652327835065
 20
443.9274006646698
 30
0.0
  0
SPLINE
  5
1251
330
A
100
AcDbEntity
  8
MODEL
100
AcDbSpline
210
0.0
220
0.0
230
1.0
 70
    24
 71
     3
 72
    18
 73
    14
 74
     0
 42
0.000000001
 43
0.00000001
 40
0.0
 40
0.0
 40
0.0
 40
0.0
 40
0.0899907167152215
 40
0.1786730807627077
 40
0.2665403601173664
 40
0.3540995992606976
 40
0.4418631818422269
 40
0.530339941422033
 40
0.6200265738371904
 40
0.7114000468598055
 40
0.8049115199551937
 40
0.9009820363416319
 40
1.0
 40
1.0
 40
1.0
 40
1.0
 10
441.4652327835065
 20
444.4880608364477
 30
0.0
 10
441.4652327835065
 20
444.4550933918757
 30
0.0
 10
441.4652327835065
 20
444.3896378082167
 30
0.0
 10
441.4652327835065
 20
444.3017503629347
 30
0.0
 10
441.4652327835065
 20
444.2226563476758
 30
0.0
 10
441.4652327835065
 20
444.1529987228927
 30
0.0
 10
441.4652327835065
 20
444.0926182016516
 30
0.0
 10
441.4652327835065
 20
444.0415594250256
 30
0.0
 10
441.4652327835065
 20
443.9998229003717
 30
0.0
 10
441.4652327835065
 20
443.9673558782737
 30
0.0
 10
441.4652327835065
 20
443.9443486761667
 30
0.0
 10
441.4652327835065
 20
443.9300229505237
 30
0.0
 10
441.4652327835065
 20
443.9282835198757
 30
0.0
 10
441.4652327835065
 20
443.9274006646698
 30
0.0
  0
SPLINE
  5
1252
330
A
100
AcDbEntity
  8
MODEL
100
AcDbSpline
210
0.0
220
0.0
230
1.0
 70
    24
 71
     3
 72
    17
 73
    13
 74
     0
 42
0.000000001
 43
0.00000001
 40
0.0
 40
0.0
 40
0.0
 40
0.0
 40
0.108752915733255
 40
0.2139847941175933
 40
0.3162192408300701
 40
0.4160270475357989
 40
0.5140214187144924
 40
0.6108500178188335
 40
0.7071840239890087
 40
0.803704934695374
 40
0.9010903236450234
 40
1.0
 40
1.0
 40
1.0
 40
1.0
 10
438.4652327835065
 20
440.9274006646666
 30
0.0
 10
438.464170467254
 20
440.9274006646666
 30
0.0
 10
438.4620802288118
 20
440.9274006646666
 30
0.0
 10
438.4447641353108
 20
440.9274006646666
 30
0.0
 10
438.4169258250476
 20
440.9274006646666
 30
0.0
 10
438.3776263358923
 20
440.9274006646666
 30
0.0
 10
438.3270970238882
 20
440.9274006646666
 30
0.0
 10
438.2652567431978
 20
440.9274006646666
 30
0.0
 10
438.1921782362333
 20
440.9274006646666
 30
0.0
 10
438.1076644333698
 20
440.9274006646666
 30
0.0
 10
438.012496025316
 20
440.9274006646666
 30
0.0
 10
437.9407328368288
 20
440.9274006646666
 30
0.0
 10
437.9045726117256
 20
440.9274006646666
 30
0.0
  0
SPLINE
  5
1253
330
A
100
AcDbEntity
  8
MODEL
100
AcDbSpline
210
0.0
220
0.0
230
1.0
 70
     8
 71
     3
 72
    14
 73
    10
 74
     0
 42
0.000000001
 43
0.00000001
 40
0.0
 40
0.0
 40
0.0
 40
0.0
 40
0.25
 40
0.25
 40
0.5
 40
0.5
 40
0.75
 40
0.75
 40
1.0
 40
1.0
 40
1.0
 40
1.0
 10
174.4652327835029
 20
540.9274006646668
 30
0.0
 10
174.0725337018084
 20
540.9274006646668
 30
0.0
 10
173.6810437077331
 20
540.8465708423759
 30
0.0
 10
172.9555731686198
 20
540.5460711059719
 30
0.0
 10
172.6215926235782
 20
540.3264011918619
 30
0.0
 10
172.0662322563114
 20
539.7710408245949
 30
0.0
 10
171.8465623422016
 20
539.4370602795499
 30
0.0
 10
171.5460626057975
 20
538.7115897404368
 30
0.0
 10
171.4652327835067
 20
538.3200997463649
 30
0.0
 10
171.4652327835067
 20
537.9274006646668
 30
0.0
  0
SPLINE
  5
1254
330
A
100
AcDbEntity
  8
MODEL
100
AcDbSpline
210
0.0
220
0.0
230
1.0
 70
    24
 71
     3
 72
    18
 73
    14
 74
     0
 42
0.000000001
 43
0.00000001
 40
0.0
 40
0.0
 40
0.0
 40
0.0
 40
0.0899907167152219
 40
0.1786730807627138
 40
0.266540360117363
 40
0.3540995992606945
 40
0.4418631818421926
 40
0.5303399414220284
 40
0.6200265738371886
 40
0.7114000468598041
 40
0.8049115199551927
 40
0.9009820363416311
 40
1.0
 40
1.0
 40
1.0
 40
1.0
 10
171.4652327835067
 20
537.3667404928889
 30
0.0
 10
171.4652327835067
 20
537.3997079374609
 30
0.0
 10
171.4652327835067
 20
537.46516352112
 30
0.0
 10
171.4652327835067
 20
537.5530509664019
 30
0.0
 10
171.4652327835067
 20
537.6321449816568
 30
0.0
 10
171.4652327835067
 20
537.701802606444
 30
0.0
 10
171.4652327835067
 20
537.7621831276809
 30
0.0
 10
171.4652327835067
 20
537.8132419043069
 30
0.0
 10
171.4652327835067
 20
537.8549784289609
 30
0.0
 10
171.4652327835067
 20
537.887445451063
 30
0.0
 10
171.4652327835067
 20
537.910452653167
 30
0.0
 10
171.4652327835067
 20
537.9247783788129
 30
0.0
 10
171.4652327835067
 20
537.926517809461
 30
0.0
 10
171.4652327835067
 20
537.9274006646668
 30
0.0
  0
SPLINE
  5
1255
330
A
100
AcDbEntity
  8
MODEL
100
AcDbSpline
210
0.0
220
0.0
230
1.0
 70
    24
 71
     3
 72
    17
 73
    13
 74
     0
 42
0.000000001
 43
0.00000001
 40
0.0
 40
0.0
 40
0.0
 40
0.0
 40
0.1087529157332711
 40
0.2139847941176213
 40
0.3162192408300932
 40
0.4160270475358243
 40
0.5140214187145382
 40
0.6108500178188635
 40
0.7071840239890299
 40
0.8037049346953883
 40
0.9010903236450145
 40
1.0
 40
1.0
 40
1.0
 40
1.0
 10
174.4652327835029
 20
540.9274006646668
 30
0.0
 10
174.4662950997592
 20
540.9274006646668
 30
0.0
 10
174.4683853382012
 20
540.9274006646668
 30
0.0
 10
174.4857014316951
 20
540.9274006646668
 30
0.0
 10
174.5135397419617
 20
540.9274006646668
 30
0.0
 10
174.5528392311173
 20
540.9274006646668
 30
0.0
 10
174.6033685431248
 20
540.9274006646668
 30
0.0
 10
174.6652088238115
 20
540.9274006646668
 30
0.0
 10
174.7382873307761
 20
540.9274006646668
 30
0.0
 10
174.8228011336396
 20
540.9274006646668
 30
0.0
 10
174.9179695416935
 20
540.9274006646668
 30
0.0
 10
174.9897327301842
 20
540.9274006646668
 30
0.0
 10
175.0258929552838
 20
540.9274006646668
 30
0.0
  0
SPLINE
  5
1256
330
A
100
AcDbEntity
  8
MODEL
100
AcDbSpline
210
0.0
220
0.0
230
1.0
 70
     8
 71
     3
 72
    14
 73
    10
 74
     0
 42
0.000000001
 43
0.00000001
 40
0.0
 40
0.0
 40
0.0
 40
0.0
 40
0.25
 40
0.25
 40
0.5
 40
0.5
 40
0.75
 40
0.75
 40
1.0
 40
1.0
 40
1.0
 40
1.0
 10
171.4652327835067
 20
443.9274006646698
 30
0.0
 10
171.4652327835067
 20
443.5347015829717
 30
0.0
 10
171.5460626057975
 20
443.1432115888996
 30
0.0
 10
171.8465623422016
 20
442.4177410497826
 30
0.0
 10
172.0662322563114
 20
442.0837605047417
 30
0.0
 10
172.6215926235782
 20
441.5284001374706
 30
0.0
 10
172.9555731686198
 20
441.3087302233617
 30
0.0
 10
173.6810437077331
 20
441.0082304869576
 30
0.0
 10
174.0725337018084
 20
440.9274006646666
 30
0.0
 10
174.4652327835029
 20
440.9274006646666
 30
0.0
  0
SPLINE
  5
1257
330
A
100
AcDbEntity
  8
MODEL
100
AcDbSpline
210
0.0
220
0.0
230
1.0
 70
    24
 71
     3
 72
    17
 73
    13
 74
     0
 42
0.000000001
 43
0.00000001
 40
0.0
 40
0.0
 40
0.0
 40
0.0
 40
0.1087529157332544
 40
0.2139847941175891
 40
0.3162192408300449
 40
0.4160270475357623
 40
0.5140214187144743
 40
0.6108500178188006
 40
0.7071840239889916
 40
0.8037049346953414
 40
0.9010903236449878
 40
1.0
 40
1.0
 40
1.0
 40
1.0
 10
171.4652327835067
 20
443.9274006646698
 30
0.0
 10
171.4652327835067
 20
443.9284629809187
 30
0.0
 10
171.4652327835067
 20
443.9305532193606
 30
0.0
 10
171.4652327835067
 20
443.9478693128586
 30
0.0
 10
171.4652327835067
 20
443.9757076231257
 30
0.0
 10
171.4652327835067
 20
444.0150071122806
 30
0.0
 10
171.4652327835067
 20
444.0655364242847
 30
0.0
 10
171.4652327835067
 20
444.1273767049717
 30
0.0
 10
171.4652327835067
 20
444.2004552119396
 30
0.0
 10
171.4652327835067
 20
444.2849690148026
 30
0.0
 10
171.4652327835067
 20
444.3801374228527
 30
0.0
 10
171.4652327835067
 20
444.4519006113477
 30
0.0
 10
171.4652327835067
 20
444.4880608364477
 30
0.0
  0
SPLINE
  5
1258
330
A
100
AcDbEntity
  8
MODEL
100
AcDbSpline
210
0.0
220
0.0
230
1.0
 70
    24
 71
     3
 72
    18
 73
    14
 74
     0
 42
0.000000001
 43
0.00000001
 40
0.0
 40
0.0
 40
0.0
 40
0.0
 40
0.0899907167152076
 40
0.1786730807626627
 40
0.2665403601173201
 40
0.3540995992606438
 40
0.4418631818421488
 40
0.5303399414219864
 40
0.6200265738371259
 40
0.7114000468597399
 40
0.8049115199551616
 40
0.9009820363415979
 40
1.0
 40
1.0
 40
1.0
 40
1.0
 10
175.0258929552838
 20
440.9274006646666
 30
0.0
 10
174.9929255107126
 20
440.9274006646666
 30
0.0
 10
174.9274699270538
 20
440.9274006646666
 30
0.0
 10
174.8395824817671
 20
440.9274006646666
 30
0.0
 10
174.7604884665163
 20
440.9274006646666
 30
0.0
 10
174.6908308417296
 20
440.9274006646666
 30
0.0
 10
174.6304503204885
 20
440.9274006646666
 30
0.0
 10
174.5793915438626
 20
440.9274006646666
 30
0.0
 10
174.5376550192086
 20
440.9274006646666
 30
0.0
 10
174.5051879971106
 20
440.9274006646666
 30
0.0
 10
174.4821807950066
 20
440.9274006646666
 30
0.0
 10
174.4678550693606
 20
440.9274006646666
 30
0.0
 10
174.4661156387119
 20
440.9274006646666
 30
0.0
 10
174.4652327835029
 20
440.9274006646666
 30
0.0
  0
LINE
  5
1259
330
A
100
AcDbEntity
  8
MODEL
100
AcDbLine
 10
635.4599925554357
 20
445.9274006646666
 30
0.0
 11
635.4599925554357
 21
535.9274006646668
 31
0.0
  0
LINE
  5
125A
330
A
100
AcDbEntity
  8
MODEL
100
AcDbLine
 10
900.4599925554357
 20
440.9274006646666
 30
0.0
 11
640.4599925554357
 21
440.9274006646666
 31
0.0
  0
LINE
  5
125B
330
A
100
AcDbEntity
  8
MODEL
100
AcDbLine
 10
640.4599925554357
 20
540.9274006646668
 30
0.0
 11
900.4599925554357
 21
540.9274006646668
 31
0.0
  0
LINE
  5
125C
330
A
100
AcDbEntity
  8
MODEL
100
AcDbLine
 10
905.4599925554357
 20
535.9274006646668
 30
0.0
 11
905.4599925554357
 21
445.9274006646666
 31
0.0
  0
SPLINE
  5
125D
330
A
100
AcDbEntity
  8
MODEL
100
AcDbSpline
210
0.0
220
0.0
230
1.0
 70
    24
 71
     3
 72
    18
 73
    14
 74
     0
 42
0.000000001
 43
0.00000001
 40
0.0
 40
0.0
 40
0.0
 40
0.0
 40
0.0899907167152526
 40
0.1786730807627278
 40
0.2665403601173871
 40
0.3540995992607236
 40
0.4418631818422267
 40
0.5303399414220709
 40
0.6200265738372002
 40
0.7114000468597867
 40
0.8049115199551806
 40
0.9009820363416254
 40
1.0
 40
1.0
 40
1.0
 40
1.0
 10
639.0206527272171
 20
540.9274006646668
 30
0.0
 10
639.055030326319
 20
540.9274006646668
 30
0.0
 10
639.1232857171531
 20
540.9274006646668
 30
0.0
 10
639.2338082232418
 20
540.9274006646668
 30
0.0
 10
639.3491242462633
 20
540.9274006646668
 30
0.0
 10
639.4698580305271
 20
540.9274006646668
 30
0.0
 10
639.5958295001701
 20
540.9274006646668
 30
0.0
 10
639.727069801499
 20
540.9274006646668
 30
0.0
 10
639.863553140397
 20
540.9274006646668
 30
0.0
 10
640.005270711209
 20
540.9274006646668
 30
0.0
 10
640.152211703532
 20
540.9274006646668
 30
0.0
 10
640.3043707071447
 20
540.9274006646668
 30
0.0
 10
640.40759874072
 20
540.9274006646668
 30
0.0
 10
640.4599925554357
 20
540.9274006646668
 30
0.0
  0
SPLINE
  5
125E
330
A
100
AcDbEntity
  8
MODEL
100
AcDbSpline
210
0.0
220
0.0
230
1.0
 70
    24
 71
     3
 72
    17
 73
    13
 74
     0
 42
0.000000001
 43
0.00000001
 40
0.0
 40
0.0
 40
0.0
 40
0.0
 40
0.1087529157332542
 40
0.2139847941175875
 40
0.3162192408300458
 40
0.4160270475357605
 40
0.5140214187144418
 40
0.6108500178187997
 40
0.7071840239889595
 40
0.8037049346953477
 40
0.9010903236449882
 40
0.9999999999999999
 40
0.9999999999999999
 40
0.9999999999999999
 40
0.9999999999999999
 10
640.4599925554357
 20
440.9274006646666
 30
0.0
 10
640.4024479900618
 20
440.9274006646666
 30
0.0
 10
640.2892219501782
 20
440.9274006646666
 30
0.0
 10
640.122632261046
 20
440.9274006646666
 30
0.0
 10
639.9623502447112
 20
440.9274006646666
 30
0.0
 10
639.8083874201079
 20
440.9274006646666
 30
0.0
 10
639.660757234943
 20
440.9274006646666
 30
0.0
 10
639.5194952556822
 20
440.9274006646666
 30
0.0
 10
639.3845694748279
 20
440.9274006646666
 30
0.0
 10
639.2562036356139
 20
440.9274006646666
 30
0.0
 10
639.1336489039213
 20
440.9274006646666
 30
0.0
 10
639.0585126044143
 20
440.9274006646666
 30
0.0
 10
639.0206527272171
 20
440.9274006646666
 30
0.0
  0
SPLINE
  5
125F
330
A
100
AcDbEntity
  8
MODEL
100
AcDbSpline
210
0.0
220
0.0
230
1.0
 70
    24
 71
     3
 72
    18
 73
    14
 74
     0
 42
0.000000001
 43
0.00000001
 40
0.0
 40
0.0
 40
0.0
 40
0.0
 40
0.0899907167152222
 40
0.1786730807626926
 40
0.2665403601173589
 40
0.3540995992606918
 40
0.4418631818422064
 40
0.5303399414220294
 40
0.6200265738371792
 40
0.7114000468597863
 40
0.8049115199551926
 40
0.9009820363416132
 40
1.0
 40
1.0
 40
1.0
 40
1.0
 10
635.4599925554357
 20
444.4880608364477
 30
0.0
 10
635.4599925554357
 20
444.5224384355496
 30
0.0
 10
635.4599925554357
 20
444.5906938263837
 30
0.0
 10
635.4599925554357
 20
444.7012163324727
 30
0.0
 10
635.4599925554357
 20
444.8165323554928
 30
0.0
 10
635.4599925554357
 20
444.9372661397537
 30
0.0
 10
635.4599925554357
 20
445.0632376093967
 30
0.0
 10
635.4599925554357
 20
445.1944779107326
 30
0.0
 10
635.4599925554357
 20
445.3309612496267
 30
0.0
 10
635.4599925554357
 20
445.4726788204388
 30
0.0
 10
635.4599925554357
 20
445.6196198127617
 30
0.0
 10
635.4599925554357
 20
445.7717788163758
 30
0.0
 10
635.4599925554357
 20
445.8750068499497
 30
0.0
 10
635.4599925554357
 20
445.9274006646666
 30
0.0
  0
SPLINE
  5
1260
330
A
100
AcDbEntity
  8
MODEL
100
AcDbSpline
210
0.0
220
0.0
230
1.0
 70
    24
 71
     3
 72
    17
 73
    13
 74
     0
 42
0.000000001
 43
0.00000001
 40
0.0
 40
0.0
 40
0.0
 40
0.0
 40
0.1087529157332377
 40
0.2139847941175632
 40
0.3162192408300224
 40
0.4160270475357465
 40
0.5140214187144535
 40
0.6108500178187802
 40
0.7071840239889716
 40
0.803704934695346
 40
0.9010903236449873
 40
0.9999999999999999
 40
0.9999999999999999
 40
0.9999999999999999
 40
0.9999999999999999
 10
635.4599925554357
 20
535.9274006646668
 30
0.0
 10
635.4599925554357
 20
535.984945230044
 30
0.0
 10
635.4599925554357
 20
536.0981712699248
 30
0.0
 10
635.4599925554357
 20
536.2647609590609
 30
0.0
 10
635.4599925554357
 20
536.4250429753919
 30
0.0
 10
635.4599925554357
 20
536.579005799999
 30
0.0
 10
635.4599925554357
 20
536.7266359851639
 30
0.0
 10
635.4599925554357
 20
536.867897964425
 30
0.0
 10
635.4599925554357
 20
537.0028237452749
 30
0.0
 10
635.4599925554357
 20
537.1311895844918
 30
0.0
 10
635.4599925554357
 20
537.2537443161858
 30
0.0
 10
635.4599925554357
 20
537.328880615689
 30
0.0
 10
635.4599925554357
 20
537.3667404928889
 30
0.0
  0
SPLINE
  5
1261
330
A
100
AcDbEntity
  8
MODEL
100
AcDbSpline
210
0.0
220
0.0
230
1.0
 70
    24
 71
     3
 72
    18
 73
    14
 74
     0
 42
0.000000001
 43
0.00000001
 40
0.0
 40
0.0
 40
0.0
 40
0.0
 40
0.0899907167152076
 40
0.1786730807626627
 40
0.2665403601173201
 40
0.3540995992606438
 40
0.4418631818421488
 40
0.5303399414219864
 40
0.6200265738371259
 40
0.7114000468597399
 40
0.8049115199551616
 40
0.9009820363415979
 40
1.0
 40
1.0
 40
1.0
 40
1.0
 10
901.8993323836589
 20
440.9274006646666
 30
0.0
 10
901.864954784553
 20
440.9274006646666
 30
0.0
 10
901.7966993937189
 20
440.9274006646666
 30
0.0
 10
901.6861768876297
 20
440.9274006646666
 30
0.0
 10
901.5708608646128
 20
440.9274006646666
 30
0.0
 10
901.4501270803489
 20
440.9274006646666
 30
0.0
 10
901.3241556107059
 20
440.9274006646666
 30
0.0
 10
901.1929153093779
 20
440.9274006646666
 30
0.0
 10
901.0564319704763
 20
440.9274006646666
 30
0.0
 10
900.9147143996679
 20
440.9274006646666
 30
0.0
 10
900.7677734073413
 20
440.9274006646666
 30
0.0
 10
900.615614403735
 20
440.9274006646666
 30
0.0
 10
900.512386370156
 20
440.9274006646666
 30
0.0
 10
900.4599925554357
 20
440.9274006646666
 30
0.0
  0
SPLINE
  5
1262
330
A
100
AcDbEntity
  8
MODEL
100
AcDbSpline
210
0.0
220
0.0
230
1.0
 70
    24
 71
     3
 72
    17
 73
    13
 74
     0
 42
0.000000001
 43
0.00000001
 40
0.0
 40
0.0
 40
0.0
 40
0.0
 40
0.1087529157332711
 40
0.2139847941176213
 40
0.3162192408300932
 40
0.4160270475358243
 40
0.5140214187145382
 40
0.6108500178188635
 40
0.7071840239890299
 40
0.8037049346953883
 40
0.9010903236450145
 40
1.0
 40
1.0
 40
1.0
 40
1.0
 10
900.4599925554357
 20
540.9274006646668
 30
0.0
 10
900.5175371208143
 20
540.9274006646668
 30
0.0
 10
900.6307631606951
 20
540.9274006646668
 30
0.0
 10
900.7973528498269
 20
540.9274006646668
 30
0.0
 10
900.9576348661622
 20
540.9274006646668
 30
0.0
 10
901.1115976907722
 20
540.9274006646668
 30
0.0
 10
901.2592278759339
 20
540.9274006646668
 30
0.0
 10
901.400489855198
 20
540.9274006646668
 30
0.0
 10
901.535415636045
 20
540.9274006646668
 30
0.0
 10
901.6637814752621
 20
540.9274006646668
 30
0.0
 10
901.7863362069547
 20
540.9274006646668
 30
0.0
 10
901.861472506459
 20
540.9274006646668
 30
0.0
 10
901.8993323836589
 20
540.9274006646668
 30
0.0
  0
SPLINE
  5
1263
330
A
100
AcDbEntity
  8
MODEL
100
AcDbSpline
210
0.0
220
0.0
230
1.0
 70
    24
 71
     3
 72
    17
 73
    13
 74
     0
 42
0.000000001
 43
0.00000001
 40
0.0
 40
0.0
 40
0.0
 40
0.0
 40
0.1087529157332551
 40
0.2139847941176155
 40
0.3162192408300716
 40
0.4160270475358043
 40
0.5140214187145113
 40
0.610850017818822
 40
0.7071840239890127
 40
0.8037049346953725
 40
0.9010903236450002
 40
0.9999999999999999
 40
0.9999999999999999
 40
0.9999999999999999
 40
0.9999999999999999
 10
905.4599925554357
 20
445.9274006646666
 30
0.0
 10
905.4599925554357
 20
445.8698560992926
 30
0.0
 10
905.4599925554357
 20
445.7566300594077
 30
0.0
 10
905.4599925554357
 20
445.5900403702727
 30
0.0
 10
905.4599925554357
 20
445.4297583539407
 30
0.0
 10
905.4599925554357
 20
445.2757955293376
 30
0.0
 10
905.4599925554357
 20
445.1281653441728
 30
0.0
 10
905.4599925554357
 20
444.9869033649117
 30
0.0
 10
905.4599925554357
 20
444.8519775840617
 30
0.0
 10
905.4599925554357
 20
444.7236117448448
 30
0.0
 10
905.4599925554357
 20
444.6010570131506
 30
0.0
 10
905.4599925554357
 20
444.5259207136436
 30
0.0
 10
905.4599925554357
 20
444.4880608364477
 30
0.0
  0
SPLINE
  5
1264
330
A
100
AcDbEntity
  8
MODEL
100
AcDbSpline
210
0.0
220
0.0
230
1.0
 70
    24
 71
     3
 72
    18
 73
    14
 74
     0
 42
0.000000001
 43
0.00000001
 40
0.0
 40
0.0
 40
0.0
 40
0.0
 40
0.0899907167152229
 40
0.178673080762683
 40
0.2665403601173671
 40
0.354099599260692
 40
0.4418631818422072
 40
0.5303399414220391
 40
0.6200265738371946
 40
0.7114000468597901
 40
0.8049115199551998
 40
0.9009820363416212
 40
0.9999999999999999
 40
0.9999999999999999
 40
0.9999999999999999
 40
0.9999999999999999
 10
905.4599925554357
 20
537.3667404928889
 30
0.0
 10
905.4599925554357
 20
537.3323628937829
 30
0.0
 10
905.4599925554357
 20
537.26410750295
 30
0.0
 10
905.4599925554357
 20
537.1535849968608
 30
0.0
 10
905.4599925554357
 20
537.0382689738439
 30
0.0
 10
905.4599925554357
 20
536.9175351895789
 30
0.0
 10
905.4599925554357
 20
536.7915637199368
 30
0.0
 10
905.4599925554357
 20
536.6603234186078
 30
0.0
 10
905.4599925554357
 20
536.5238400797058
 30
0.0
 10
905.4599925554357
 20
536.3821225088979
 30
0.0
 10
905.4599925554357
 20
536.2351815165708
 30
0.0
 10
905.4599925554357
 20
536.0830225129608
 30
0.0
 10
905.4599925554357
 20
535.9797944793869
 30
0.0
 10
905.4599925554357
 20
535.9274006646668
 30
0.0
  0
SPLINE
  5
1265
330
A
100
AcDbEntity
  8
MODEL
100
AcDbSpline
210
0.0
220
0.0
230
1.0
 70
     8
 71
     3
 72
    14
 73
    10
 74
     0
 42
0.000000001
 43
0.00000001
 40
0.0
 40
0.0
 40
0.0
 40
0.0
 40
0.25
 40
0.25
 40
0.5
 40
0.5
 40
0.75
 40
0.75
 40
1.0
 40
1.0
 40
1.0
 40
1.0
 10
635.4599925554357
 20
443.9274006646698
 30
0.0
 10
635.4599925554357
 20
443.5347015829717
 30
0.0
 10
635.5408223777313
 20
443.1432115888996
 30
0.0
 10
635.8413221141309
 20
442.4177410497826
 30
0.0
 10
636.060992028245
 20
442.0837605047417
 30
0.0
 10
636.616352395512
 20
441.5284001374706
 30
0.0
 10
636.9503329405529
 20
441.3087302233617
 30
0.0
 10
637.6758034796658
 20
441.0082304869576
 30
0.0
 10
638.0672934737422
 20
440.9274006646666
 30
0.0
 10
638.4599925554357
 20
440.9274006646666
 30
0.0
  0
SPLINE
  5
1266
330
A
100
AcDbEntity
  8
MODEL
100
AcDbSpline
210
0.0
220
0.0
230
1.0
 70
    24
 71
     3
 72
    17
 73
    13
 74
     0
 42
0.000000001
 43
0.00000001
 40
0.0
 40
0.0
 40
0.0
 40
0.0
 40
0.1087529157332536
 40
0.2139847941175877
 40
0.3162192408300599
 40
0.4160270475357936
 40
0.5140214187145049
 40
0.6108500178188145
 40
0.7071840239890202
 40
0.8037049346953694
 40
0.9010903236450013
 40
1.0
 40
1.0
 40
1.0
 40
1.0
 10
635.4599925554357
 20
443.9274006646698
 30
0.0
 10
635.4599925554357
 20
443.9284629809187
 30
0.0
 10
635.4599925554357
 20
443.9305532193606
 30
0.0
 10
635.4599925554357
 20
443.9478693128586
 30
0.0
 10
635.4599925554357
 20
443.9757076231257
 30
0.0
 10
635.4599925554357
 20
444.0150071122806
 30
0.0
 10
635.4599925554357
 20
444.0655364242847
 30
0.0
 10
635.4599925554357
 20
444.1273767049717
 30
0.0
 10
635.4599925554357
 20
444.2004552119396
 30
0.0
 10
635.4599925554357
 20
444.2849690148026
 30
0.0
 10
635.4599925554357
 20
444.3801374228527
 30
0.0
 10
635.4599925554357
 20
444.4519006113477
 30
0.0
 10
635.4599925554357
 20
444.4880608364477
 30
0.0
  0
SPLINE
  5
1267
330
A
100
AcDbEntity
  8
MODEL
100
AcDbSpline
210
0.0
220
0.0
230
1.0
 70
    24
 71
     3
 72
    18
 73
    14
 74
     0
 42
0.000000001
 43
0.00000001
 40
0.0
 40
0.0
 40
0.0
 40
0.0
 40
0.0899907167152107
 40
0.1786730807626468
 40
0.2665403601173268
 40
0.3540995992606448
 40
0.4418631818421602
 40
0.5303399414219782
 40
0.620026573837131
 40
0.7114000468597481
 40
0.8049115199551702
 40
0.9009820363415955
 40
1.0
 40
1.0
 40
1.0
 40
1.0
 10
639.0206527272171
 20
440.9274006646666
 30
0.0
 10
638.987685282646
 20
440.9274006646666
 30
0.0
 10
638.9222296989869
 20
440.9274006646666
 30
0.0
 10
638.8343422537009
 20
440.9274006646666
 30
0.0
 10
638.7552482384499
 20
440.9274006646666
 30
0.0
 10
638.685590613663
 20
440.9274006646666
 30
0.0
 10
638.6252100924221
 20
440.9274006646666
 30
0.0
 10
638.5741513157918
 20
440.9274006646666
 30
0.0
 10
638.5324147911379
 20
440.9274006646666
 30
0.0
 10
638.499947769044
 20
440.9274006646666
 30
0.0
 10
638.4769405669358
 20
440.9274006646666
 30
0.0
 10
638.462614841294
 20
440.9274006646666
 30
0.0
 10
638.4608754106448
 20
440.9274006646666
 30
0.0
 10
638.4599925554357
 20
440.9274006646666
 30
0.0
  0
SPLINE
  5
1268
330
A
100
AcDbEntity
  8
MODEL
100
AcDbSpline
210
0.0
220
0.0
230
1.0
 70
     8
 71
     3
 72
    14
 73
    10
 74
     0
 42
0.000000001
 43
0.00000001
 40
0.0
 40
0.0
 40
0.0
 40
0.0
 40
0.25
 40
0.25
 40
0.5
 40
0.5
 40
0.75
 40
0.75
 40
1.0
 40
1.0
 40
1.0
 40
1.0
 10
638.4599925554357
 20
540.9274006646668
 30
0.0
 10
638.0672934737422
 20
540.9274006646668
 30
0.0
 10
637.6758034796658
 20
540.8465708423759
 30
0.0
 10
636.9503329405529
 20
540.5460711059719
 30
0.0
 10
636.616352395512
 20
540.3264011918619
 30
0.0
 10
636.060992028245
 20
539.7710408245949
 30
0.0
 10
635.8413221141309
 20
539.4370602795499
 30
0.0
 10
635.5408223777313
 20
538.7115897404368
 30
0.0
 10
635.4599925554357
 20
538.3200997463649
 30
0.0
 10
635.4599925554357
 20
537.9274006646668
 30
0.0
  0
SPLINE
  5
1269
330
A
100
AcDbEntity
  8
MODEL
100
AcDbSpline
210
0.0
220
0.0
230
1.0
 70
    24
 71
     3
 72
    18
 73
    14
 74
     0
 42
0.000000001
 43
0.00000001
 40
0.0
 40
0.0
 40
0.0
 40
0.0
 40
0.0899907167152112
 40
0.1786730807626781
 40
0.2665403601173438
 40
0.3540995992606624
 40
0.4418631818421942
 40
0.5303399414220159
 40
0.6200265738371616
 40
0.7114000468597623
 40
0.8049115199551877
 40
0.9009820363416111
 40
1.0
 40
1.0
 40
1.0
 40
1.0
 10
635.4599925554357
 20
537.3667404928889
 30
0.0
 10
635.4599925554357
 20
537.3997079374609
 30
0.0
 10
635.4599925554357
 20
537.46516352112
 30
0.0
 10
635.4599925554357
 20
537.5530509664019
 30
0.0
 10
635.4599925554357
 20
537.6321449816529
 30
0.0
 10
635.4599925554357
 20
537.701802606444
 30
0.0
 10
635.4599925554357
 20
537.7621831276809
 30
0.0
 10
635.4599925554357
 20
537.8132419043069
 30
0.0
 10
635.4599925554357
 20
537.8549784289609
 30
0.0
 10
635.4599925554357
 20
537.887445451063
 30
0.0
 10
635.4599925554357
 20
537.910452653167
 30
0.0
 10
635.4599925554357
 20
537.9247783788129
 30
0.0
 10
635.4599925554357
 20
537.926517809461
 30
0.0
 10
635.4599925554357
 20
537.9274006646668
 30
0.0
  0
SPLINE
  5
126A
330
A
100
AcDbEntity
  8
MODEL
100
AcDbSpline
210
0.0
220
0.0
230
1.0
 70
    24
 71
     3
 72
    17
 73
    13
 74
     0
 42
0.000000001
 43
0.00000001
 40
0.0
 40
0.0
 40
0.0
 40
0.0
 40
0.1087529157332372
 40
0.2139847941175751
 40
0.3162192408300283
 40
0.4160270475357654
 40
0.5140214187144699
 40
0.6108500178187808
 40
0.7071840239889877
 40
0.803704934695338
 40
0.9010903236449872
 40
0.9999999999999999
 40
0.9999999999999999
 40
0.9999999999999999
 40
0.9999999999999999
 10
638.4599925554357
 20
540.9274006646668
 30
0.0
 10
638.4610548716919
 20
540.9274006646668
 30
0.0
 10
638.4631451101313
 20
540.9274006646668
 30
0.0
 10
638.4804612036278
 20
540.9274006646668
 30
0.0
 10
638.508299513895
 20
540.9274006646668
 30
0.0
 10
638.5475990030509
 20
540.9274006646668
 30
0.0
 10
638.5981283150577
 20
540.9274006646668
 30
0.0
 10
638.6599685957453
 20
540.9274006646668
 30
0.0
 10
638.733047102709
 20
540.9274006646668
 30
0.0
 10
638.8175609055729
 20
540.9274006646668
 30
0.0
 10
638.9127293136271
 20
540.9274006646668
 30
0.0
 10
638.984492502118
 20
540.9274006646668
 30
0.0
 10
639.0206527272171
 20
540.9274006646668
 30
0.0
  0
SPLINE
  5
126B
330
A
100
AcDbEntity
  8
MODEL
100
AcDbSpline
210
0.0
220
0.0
230
1.0
 70
     8
 71
     3
 72
    14
 73
    10
 74
     0
 42
0.000000001
 43
0.00000001
 40
0.0
 40
0.0
 40
0.0
 40
0.0
 40
0.25
 40
0.25
 40
0.5
 40
0.5
 40
0.75
 40
0.75
 40
1.0
 40
1.0
 40
1.0
 40
1.0
 10
905.4599925554357
 20
537.9274006646668
 30
0.0
 10
905.4599925554357
 20
538.3200997463649
 30
0.0
 10
905.3791627331448
 20
538.7115897404368
 30
0.0
 10
905.0786629967411
 20
539.4370602795499
 30
0.0
 10
904.858993082632
 20
539.7710408245949
 30
0.0
 10
904.303632715365
 20
540.3264011918619
 30
0.0
 10
903.9696521703199
 20
540.5460711059719
 30
0.0
 10
903.2441816312103
 20
540.8465708423759
 30
0.0
 10
902.8526916371379
 20
540.9274006646668
 30
0.0
 10
902.4599925554357
 20
540.9274006646668
 30
0.0
  0
SPLINE
  5
126C
330
A
100
AcDbEntity
  8
MODEL
100
AcDbSpline
210
0.0
220
0.0
230
1.0
 70
    24
 71
     3
 72
    17
 73
    13
 74
     0
 42
0.000000001
 43
0.00000001
 40
0.0
 40
0.0
 40
0.0
 40
0.0
 40
0.1087529157332381
 40
0.2139847941175738
 40
0.3162192408300506
 40
0.4160270475357837
 40
0.51402141871448
 40
0.6108500178188071
 40
0.7071840239889947
 40
0.8037049346953647
 40
0.9010903236449929
 40
1.0
 40
1.0
 40
1.0
 40
1.0
 10
905.4599925554357
 20
537.9274006646668
 30
0.0
 10
905.4599925554357
 20
537.9263383484139
 30
0.0
 10
905.4599925554357
 20
537.9242481099758
 30
0.0
 10
905.4599925554357
 20
537.9069320164748
 30
0.0
 10
905.4599925554357
 20
537.8790937062109
 30
0.0
 10
905.4599925554357
 20
537.8397942170558
 30
0.0
 10
905.4599925554357
 20
537.7892649050478
 30
0.0
 10
905.4599925554357
 20
537.7274246243579
 30
0.0
 10
905.4599925554357
 20
537.6543461173968
 30
0.0
 10
905.4599925554357
 20
537.569832314534
 30
0.0
 10
905.4599925554357
 20
537.4746639064798
 30
0.0
 10
905.4599925554357
 20
537.4029007179889
 30
0.0
 10
905.4599925554357
 20
537.3667404928889
 30
0.0
  0
SPLINE
  5
126D
330
A
100
AcDbEntity
  8
MODEL
100
AcDbSpline
210
0.0
220
0.0
230
1.0
 70
    24
 71
     3
 72
    18
 73
    14
 74
     0
 42
0.000000001
 43
0.00000001
 40
0.0
 40
0.0
 40
0.0
 40
0.0
 40
0.0899907167152354
 40
0.1786730807626954
 40
0.2665403601173791
 40
0.3540995992607114
 40
0.4418631818422342
 40
0.5303399414220578
 40
0.6200265738372046
 40
0.7114000468597997
 40
0.8049115199552093
 40
0.9009820363416303
 40
1.0
 40
1.0
 40
1.0
 40
1.0
 10
901.8993323836589
 20
540.9274006646668
 30
0.0
 10
901.93229982823
 20
540.9274006646668
 30
0.0
 10
901.9977554118891
 20
540.9274006646668
 30
0.0
 10
902.085642857176
 20
540.9274006646668
 30
0.0
 10
902.164736872423
 20
540.9274006646668
 30
0.0
 10
902.2343944972131
 20
540.9274006646668
 30
0.0
 10
902.2947750184512
 20
540.9274006646668
 30
0.0
 10
902.3458337950801
 20
540.9274006646668
 30
0.0
 10
902.3875703197341
 20
540.9274006646668
 30
0.0
 10
902.4200373418321
 20
540.9274006646668
 30
0.0
 10
902.4430445439357
 20
540.9274006646668
 30
0.0
 10
902.457370269582
 20
540.9274006646668
 30
0.0
 10
902.4591097002312
 20
540.9274006646668
 30
0.0
 10
902.4599925554357
 20
540.9274006646668
 30
0.0
  0
SPLINE
  5
126E
330
A
100
AcDbEntity
  8
MODEL
100
AcDbSpline
210
0.0
220
0.0
230
1.0
 70
     8
 71
     3
 72
    14
 73
    10
 74
     0
 42
0.000000001
 43
0.00000001
 40
0.0
 40
0.0
 40
0.0
 40
0.0
 40
0.25
 40
0.25
 40
0.5
 40
0.5
 40
0.75
 40
0.75
 40
1.0
 40
1.0
 40
1.0
 40
1.0
 10
902.4599925554357
 20
440.9274006646666
 30
0.0
 10
902.8526916371379
 20
440.9274006646666
 30
0.0
 10
903.2441816312103
 20
441.0082304869576
 30
0.0
 10
903.9696521703199
 20
441.3087302233617
 30
0.0
 10
904.303632715365
 20
441.5284001374706
 30
0.0
 10
904.858993082632
 20
442.0837605047417
 30
0.0
 10
905.0786629967411
 20
442.4177410497826
 30
0.0
 10
905.3791627331448
 20
443.1432115888996
 30
0.0
 10
905.4599925554357
 20
443.5347015829717
 30
0.0
 10
905.4599925554357
 20
443.9274006646698
 30
0.0
  0
SPLINE
  5
126F
330
A
100
AcDbEntity
  8
MODEL
100
AcDbSpline
210
0.0
220
0.0
230
1.0
 70
    24
 71
     3
 72
    18
 73
    14
 74
     0
 42
0.000000001
 43
0.00000001
 40
0.0
 40
0.0
 40
0.0
 40
0.0
 40
0.0899907167152214
 40
0.1786730807626802
 40
0.2665403601173678
 40
0.3540995992606989
 40
0.4418631818422282
 40
0.5303399414220505
 40
0.6200265738372077
 40
0.7114000468598057
 40
0.8049115199552112
 40
0.9009820363416143
 40
1.0
 40
1.0
 40
1.0
 40
1.0
 10
905.4599925554357
 20
444.4880608364477
 30
0.0
 10
905.4599925554357
 20
444.4550933918757
 30
0.0
 10
905.4599925554357
 20
444.3896378082167
 30
0.0
 10
905.4599925554357
 20
444.3017503629347
 30
0.0
 10
905.4599925554357
 20
444.2226563476758
 30
0.0
 10
905.4599925554357
 20
444.1529987228927
 30
0.0
 10
905.4599925554357
 20
444.0926182016516
 30
0.0
 10
905.4599925554357
 20
444.0415594250256
 30
0.0
 10
905.4599925554357
 20
443.9998229003717
 30
0.0
 10
905.4599925554357
 20
443.9673558782737
 30
0.0
 10
905.4599925554357
 20
443.9443486761667
 30
0.0
 10
905.4599925554357
 20
443.9300229505237
 30
0.0
 10
905.4599925554357
 20
443.9282835198757
 30
0.0
 10
905.4599925554357
 20
443.9274006646698
 30
0.0
  0
SPLINE
  5
1270
330
A
100
AcDbEntity
  8
MODEL
100
AcDbSpline
210
0.0
220
0.0
230
1.0
 70
    24
 71
     3
 72
    17
 73
    13
 74
     0
 42
0.000000001
 43
0.00000001
 40
0.0
 40
0.0
 40
0.0
 40
0.0
 40
0.1087529157332388
 40
0.2139847941175569
 40
0.3162192408300172
 40
0.4160270475357508
 40
0.5140214187144506
 40
0.6108500178187712
 40
0.7071840239889792
 40
0.803704934695345
 40
0.9010903236449981
 40
1.0
 40
1.0
 40
1.0
 40
1.0
 10
902.4599925554357
 20
440.9274006646666
 30
0.0
 10
902.4589302391842
 20
440.9274006646666
 30
0.0
 10
902.4568400007447
 20
440.9274006646666
 30
0.0
 10
902.4395239072437
 20
440.9274006646666
 30
0.0
 10
902.411685596981
 20
440.9274006646666
 30
0.0
 10
902.3723861078261
 20
440.9274006646666
 30
0.0
 10
902.3218567958183
 20
440.9274006646666
 30
0.0
 10
902.2600165151307
 20
440.9274006646666
 30
0.0
 10
902.1869380081671
 20
440.9274006646666
 30
0.0
 10
902.1024242053031
 20
440.9274006646666
 30
0.0
 10
902.007255797249
 20
440.9274006646666
 30
0.0
 10
901.935492608759
 20
440.9274006646666
 30
0.0
 10
901.8993323836589
 20
440.9274006646666
 30
0.0
  0
LINE
  5
1271
102
{ACAD_REACTORS
102
}
330
A
100
AcDbEntity
  8
MODEL
100
AcDbLine
 10
176.4652327835067
 20
1152.309063794914
 30
0.0
 11
436.4652327835065
 21
1152.309063794914
 31
0.0
  0
LINE
  5
1272
330
A
100
AcDbEntity
  8
MODEL
100
AcDbLine
 10
441.4652327835065
 20
1147.309063794914
 30
0.0
 11
441.4652327835065
 21
887.309063794914
 31
0.0
  0
LINE
  5
1273
330
A
100
AcDbEntity
  8
MODEL
100
AcDbLine
 10
171.4652327835067
 20
887.309063794914
 30
0.0
 11
171.4652327835067
 21
1147.309063794914
 31
0.0
  0
LINE
  5
1274
330
A
100
AcDbEntity
  8
MODEL
100
AcDbLine
 10
436.4652327835065
 20
882.309063794914
 30
0.0
 11
176.4652327835067
 21
882.309063794914
 31
0.0
  0
SPLINE
  5
1275
330
A
100
AcDbEntity
  8
MODEL
100
AcDbSpline
210
0.0
220
0.0
230
1.0
 70
    24
 71
     3
 72
    17
 73
    13
 74
     0
 42
0.000000001
 43
0.00000001
 40
0.0
 40
0.0
 40
0.0
 40
0.0
 40
0.1087529157332557
 40
0.2139847941175915
 40
0.3162192408300512
 40
0.4160270475357674
 40
0.5140214187144804
 40
0.6108500178188075
 40
0.7071840239889953
 40
0.8037049346953508
 40
0.9010903236449928
 40
1.0
 40
1.0
 40
1.0
 40
1.0
 10
436.4652327835065
 20
1152.309063794914
 30
0.0
 10
436.5227773488805
 20
1152.309063794914
 30
0.0
 10
436.6360033887649
 20
1152.309063794914
 30
0.0
 10
436.8025930778967
 20
1152.309063794914
 30
0.0
 10
436.9628750942283
 20
1152.309063794914
 30
0.0
 10
437.1168379188384
 20
1152.309063794914
 30
0.0
 10
437.2644681040001
 20
1152.309063794914
 30
0.0
 10
437.4057300832646
 20
1152.309063794914
 30
0.0
 10
437.5406558641116
 20
1152.309063794914
 30
0.0
 10
437.6690217033283
 20
1152.309063794914
 30
0.0
 10
437.7915764350218
 20
1152.309063794914
 30
0.0
 10
437.8667127345288
 20
1152.309063794914
 30
0.0
 10
437.9045726117256
 20
1152.309063794914
 30
0.0
  0
SPLINE
  5
1276
330
A
100
AcDbEntity
  8
MODEL
100
AcDbSpline
210
0.0
220
0.0
230
1.0
 70
    24
 71
     3
 72
    18
 73
    14
 74
     0
 42
0.000000001
 43
0.00000001
 40
0.0
 40
0.0
 40
0.0
 40
0.0
 40
0.0899907167152112
 40
0.1786730807626781
 40
0.2665403601173438
 40
0.3540995992606624
 40
0.4418631818421942
 40
0.5303399414220159
 40
0.6200265738371616
 40
0.7114000468597623
 40
0.8049115199551877
 40
0.9009820363416111
 40
1.0
 40
1.0
 40
1.0
 40
1.0
 10
175.0258929552838
 20
1152.309063794914
 30
0.0
 10
175.0602705543861
 20
1152.309063794914
 30
0.0
 10
175.1285259452197
 20
1152.309063794914
 30
0.0
 10
175.2390484513089
 20
1152.309063794914
 30
0.0
 10
175.3543644743295
 20
1152.309063794914
 30
0.0
 10
175.4750982585938
 20
1152.309063794914
 30
0.0
 10
175.6010697282363
 20
1152.309063794914
 30
0.0
 10
175.7323100295652
 20
1152.309063794914
 30
0.0
 10
175.8687933684632
 20
1152.309063794914
 30
0.0
 10
176.0105109392752
 20
1152.309063794914
 30
0.0
 10
176.1574519316018
 20
1152.309063794914
 30
0.0
 10
176.3096109352118
 20
1152.309063794914
 30
0.0
 10
176.4128389687867
 20
1152.309063794914
 30
0.0
 10
176.4652327835067
 20
1152.309063794914
 30
0.0
  0
SPLINE
  5
1277
330
A
100
AcDbEntity
  8
MODEL
100
AcDbSpline
210
0.0
220
0.0
230
1.0
 70
    24
 71
     3
 72
    18
 73
    14
 74
     0
 42
0.000000001
 43
0.00000001
 40
0.0
 40
0.0
 40
0.0
 40
0.0
 40
0.0899907167152112
 40
0.1786730807626781
 40
0.2665403601173438
 40
0.3540995992606624
 40
0.4418631818421942
 40
0.5303399414220159
 40
0.6200265738371616
 40
0.7114000468597623
 40
0.8049115199551877
 40
0.9009820363416111
 40
1.0
 40
1.0
 40
1.0
 40
1.0
 10
441.4652327835065
 20
1148.748403623136
 30
0.0
 10
441.4652327835065
 20
1148.714026024031
 30
0.0
 10
441.4652327835065
 20
1148.645770633197
 30
0.0
 10
441.4652327835065
 20
1148.535248127108
 30
0.0
 10
441.4652327835065
 20
1148.419932104087
 30
0.0
 10
441.4652327835065
 20
1148.299198319826
 30
0.0
 10
441.4652327835065
 20
1148.173226850184
 30
0.0
 10
441.4652327835065
 20
1148.041986548855
 30
0.0
 10
441.4652327835065
 20
1147.905503209952
 30
0.0
 10
441.4652327835065
 20
1147.763785639145
 30
0.0
 10
441.4652327835065
 20
1147.616844646818
 30
0.0
 10
441.4652327835065
 20
1147.464685643208
 30
0.0
 10
441.4652327835065
 20
1147.36145760963
 30
0.0
 10
441.4652327835065
 20
1147.309063794914
 30
0.0
  0
SPLINE
  5
1278
330
A
100
AcDbEntity
  8
MODEL
100
AcDbSpline
210
0.0
220
0.0
230
1.0
 70
    24
 71
     3
 72
    17
 73
    13
 74
     0
 42
0.000000001
 43
0.00000001
 40
0.0
 40
0.0
 40
0.0
 40
0.0
 40
0.1087529157332586
 40
0.2139847941175971
 40
0.3162192408300594
 40
0.4160270475357952
 40
0.5140214187144941
 40
0.6108500178188239
 40
0.7071840239890141
 40
0.8037049346953722
 40
0.9010903236450029
 40
1.0
 40
1.0
 40
1.0
 40
1.0
 10
171.4652327835067
 20
1147.309063794914
 30
0.0
 10
171.4652327835067
 20
1147.366608360288
 30
0.0
 10
171.4652327835067
 20
1147.479834400172
 30
0.0
 10
171.4652327835067
 20
1147.646424089299
 30
0.0
 10
171.4652327835067
 20
1147.806706105639
 30
0.0
 10
171.4652327835067
 20
1147.960668930246
 30
0.0
 10
171.4652327835067
 20
1148.108299115411
 30
0.0
 10
171.4652327835067
 20
1148.249561094672
 30
0.0
 10
171.4652327835067
 20
1148.384486875519
 30
0.0
 10
171.4652327835067
 20
1148.512852714739
 30
0.0
 10
171.4652327835067
 20
1148.635407446429
 30
0.0
 10
171.4652327835067
 20
1148.710543745936
 30
0.0
 10
171.4652327835067
 20
1148.748403623136
 30
0.0
  0
SPLINE
  5
1279
330
A
100
AcDbEntity
  8
MODEL
100
AcDbSpline
210
0.0
220
0.0
230
1.0
 70
    24
 71
     3
 72
    18
 73
    14
 74
     0
 42
0.000000001
 43
0.00000001
 40
0.0
 40
0.0
 40
0.0
 40
0.0
 40
0.0899907167152219
 40
0.1786730807627138
 40
0.266540360117363
 40
0.3540995992606945
 40
0.4418631818421926
 40
0.5303399414220284
 40
0.6200265738371886
 40
0.7114000468598041
 40
0.8049115199551927
 40
0.9009820363416311
 40
1.0
 40
1.0
 40
1.0
 40
1.0
 10
171.4652327835067
 20
885.869723966691
 30
0.0
 10
171.4652327835067
 20
885.904101565797
 30
0.0
 10
171.4652327835067
 20
885.9723569566311
 30
0.0
 10
171.4652327835067
 20
886.08287946272
 30
0.0
 10
171.4652327835067
 20
886.1981954857399
 30
0.0
 10
171.4652327835067
 20
886.3189292700049
 30
0.0
 10
171.4652327835067
 20
886.444900739647
 30
0.0
 10
171.4652327835067
 20
886.5761410409721
 30
0.0
 10
171.4652327835067
 20
886.7126243798739
 30
0.0
 10
171.4652327835067
 20
886.854341950682
 30
0.0
 10
171.4652327835067
 20
887.0012829430091
 30
0.0
 10
171.4652327835067
 20
887.1534419466191
 30
0.0
 10
171.4652327835067
 20
887.256669980198
 30
0.0
 10
171.4652327835067
 20
887.309063794914
 30
0.0
  0
SPLINE
  5
127A
330
A
100
AcDbEntity
  8
MODEL
100
AcDbSpline
210
0.0
220
0.0
230
1.0
 70
    24
 71
     3
 72
    18
 73
    14
 74
     0
 42
0.000000001
 43
0.00000001
 40
0.0
 40
0.0
 40
0.0
 40
0.0
 40
0.0899907167152206
 40
0.1786730807626568
 40
0.2665403601173675
 40
0.3540995992606719
 40
0.4418631818421966
 40
0.5303399414220343
 40
0.6200265738371934
 40
0.7114000468597734
 40
0.8049115199551953
 40
0.9009820363416324
 40
1.0
 40
1.0
 40
1.0
 40
1.0
 10
437.9045726117256
 20
882.309063794914
 30
0.0
 10
437.8701950126196
 20
882.309063794914
 30
0.0
 10
437.801939621786
 20
882.309063794914
 30
0.0
 10
437.6914171157004
 20
882.309063794914
 30
0.0
 10
437.5761010926799
 20
882.309063794914
 30
0.0
 10
437.4553673084156
 20
882.309063794914
 30
0.0
 10
437.329395838773
 20
882.309063794914
 30
0.0
 10
437.1981555374441
 20
882.309063794914
 30
0.0
 10
437.0616721985425
 20
882.309063794914
 30
0.0
 10
436.9199546277341
 20
882.309063794914
 30
0.0
 10
436.7730136354075
 20
882.309063794914
 30
0.0
 10
436.6208546318012
 20
882.309063794914
 30
0.0
 10
436.5176265982227
 20
882.309063794914
 30
0.0
 10
436.4652327835065
 20
882.309063794914
 30
0.0
  0
SPLINE
  5
127B
330
A
100
AcDbEntity
  8
MODEL
100
AcDbSpline
210
0.0
220
0.0
230
1.0
 70
    24
 71
     3
 72
    17
 73
    13
 74
     0
 42
0.000000001
 43
0.00000001
 40
0.0
 40
0.0
 40
0.0
 40
0.0
 40
0.1087529157332557
 40
0.2139847941175915
 40
0.3162192408300512
 40
0.4160270475357674
 40
0.5140214187144804
 40
0.6108500178188075
 40
0.7071840239889953
 40
0.8037049346953508
 40
0.9010903236449928
 40
1.0
 40
1.0
 40
1.0
 40
1.0
 10
441.4652327835065
 20
887.309063794914
 30
0.0
 10
441.4652327835065
 20
887.25151922954
 30
0.0
 10
441.4652327835065
 20
887.1382931896551
 30
0.0
 10
441.4652327835065
 20
886.9717035005269
 30
0.0
 10
441.4652327835065
 20
886.811421484188
 30
0.0
 10
441.4652327835065
 20
886.6574586595821
 30
0.0
 10
441.4652327835065
 20
886.509828474416
 30
0.0
 10
441.4652327835065
 20
886.3685664951561
 30
0.0
 10
441.4652327835065
 20
886.2336407143089
 30
0.0
 10
441.4652327835065
 20
886.1052748750881
 30
0.0
 10
441.4652327835065
 20
885.982720143398
 30
0.0
 10
441.4652327835065
 20
885.907583843891
 30
0.0
 10
441.4652327835065
 20
885.869723966691
 30
0.0
  0
SPLINE
  5
127C
330
A
100
AcDbEntity
  8
MODEL
100
AcDbSpline
210
0.0
220
0.0
230
1.0
 70
    24
 71
     3
 72
    17
 73
    13
 74
     0
 42
0.000000001
 43
0.00000001
 40
0.0
 40
0.0
 40
0.0
 40
0.0
 40
0.1087529157332381
 40
0.2139847941175738
 40
0.3162192408300506
 40
0.4160270475357837
 40
0.51402141871448
 40
0.6108500178188071
 40
0.7071840239889947
 40
0.8037049346953647
 40
0.9010903236449929
 40
1.0
 40
1.0
 40
1.0
 40
1.0
 10
176.4652327835067
 20
882.309063794914
 30
0.0
 10
176.4076882181291
 20
882.309063794914
 30
0.0
 10
176.2944621782444
 20
882.309063794914
 30
0.0
 10
176.1278724891126
 20
882.309063794914
 30
0.0
 10
175.967590472781
 20
882.309063794914
 30
0.0
 10
175.8136276481746
 20
882.309063794914
 30
0.0
 10
175.6659974630092
 20
882.309063794914
 30
0.0
 10
175.5247354837484
 20
882.309063794914
 30
0.0
 10
175.3898097028977
 20
882.309063794914
 30
0.0
 10
175.261443863681
 20
882.309063794914
 30
0.0
 10
175.1388891319875
 20
882.309063794914
 30
0.0
 10
175.0637528324805
 20
882.309063794914
 30
0.0
 10
175.0258929552838
 20
882.309063794914
 30
0.0
  0
CIRCLE
  5
127D
330
A
100
AcDbEntity
  8
MODEL
100
AcDbCircle
 10
388.4652327835065
 20
1099.30906379491
 30
0.0
 40
17.5
  0
SPLINE
  5
127E
330
A
100
AcDbEntity
  8
MODEL
100
AcDbSpline
210
0.0
220
0.0
230
1.0
 70
     8
 71
     3
 72
    14
 73
    10
 74
     0
 42
0.000000001
 43
0.00000001
 40
0.0
 40
0.0
 40
0.0
 40
0.0
 40
0.25
 40
0.25
 40
0.5
 40
0.5
 40
0.75
 40
0.75
 40
1.0
 40
1.0
 40
1.0
 40
1.0
 10
171.4652327835067
 20
1149.30906379491
 30
0.0
 10
171.4652327835067
 20
1149.701762876612
 30
0.0
 10
171.5433147535004
 20
1150.094307447991
 30
0.0
 10
171.8438736184434
 20
1150.819920736027
 30
0.0
 10
172.0662322563114
 20
1151.152703954838
 30
0.0
 10
172.6215926235782
 20
1151.708064322109
 30
0.0
 10
172.9543758423933
 20
1151.930422959977
 30
0.0
 10
173.679989130429
 20
1152.230981824916
 30
0.0
 10
174.0725337018084
 20
1152.309063794914
 30
0.0
 10
174.4652327835029
 20
1152.309063794914
 30
0.0
  0
SPLINE
  5
127F
330
A
100
AcDbEntity
  8
MODEL
100
AcDbSpline
210
0.0
220
0.0
230
1.0
 70
    24
 71
     3
 72
    18
 73
    14
 74
     0
 42
0.000000001
 43
0.00000001
 40
0.0
 40
0.0
 40
0.0
 40
0.0
 40
0.0899907167152281
 40
0.1786730807626981
 40
0.266540360117381
 40
0.3540995992607123
 40
0.441863181842234
 40
0.5303399414220648
 40
0.6200265738372055
 40
0.7114000468598037
 40
0.8049115199552096
 40
0.9009820363416225
 40
1.0
 40
1.0
 40
1.0
 40
1.0
 10
171.4652327835067
 20
1148.748403623136
 30
0.0
 10
171.4652327835067
 20
1148.781371067708
 30
0.0
 10
171.4652327835067
 20
1148.846826651363
 30
0.0
 10
171.4652327835067
 20
1148.934714096653
 30
0.0
 10
171.4652327835067
 20
1149.013808111897
 30
0.0
 10
171.4652327835067
 20
1149.083465736691
 30
0.0
 10
171.4652327835067
 20
1149.143846257927
 30
0.0
 10
171.4652327835067
 20
1149.19490503456
 30
0.0
 10
171.4652327835067
 20
1149.236641559214
 30
0.0
 10
171.4652327835067
 20
1149.26910858131
 30
0.0
 10
171.4652327835067
 20
1149.292115783414
 30
0.0
 10
171.4652327835067
 20
1149.306441509056
 30
0.0
 10
171.4652327835067
 20
1149.308180939705
 30
0.0
 10
171.4652327835067
 20
1149.30906379491
 30
0.0
  0
SPLINE
  5
1280
330
A
100
AcDbEntity
  8
MODEL
100
AcDbSpline
210
0.0
220
0.0
230
1.0
 70
    24
 71
     3
 72
    17
 73
    13
 74
     0
 42
0.000000001
 43
0.00000001
 40
0.0
 40
0.0
 40
0.0
 40
0.0
 40
0.1087529157332377
 40
0.2139847941175632
 40
0.3162192408300224
 40
0.4160270475357465
 40
0.5140214187144535
 40
0.6108500178187802
 40
0.7071840239889716
 40
0.803704934695346
 40
0.9010903236449873
 40
0.9999999999999999
 40
0.9999999999999999
 40
0.9999999999999999
 40
0.9999999999999999
 10
174.4652327835029
 20
1152.309063794914
 30
0.0
 10
174.4662950997592
 20
1152.309063794914
 30
0.0
 10
174.4683853382012
 20
1152.309063794914
 30
0.0
 10
174.4857014316951
 20
1152.309063794914
 30
0.0
 10
174.5135397419617
 20
1152.309063794914
 30
0.0
 10
174.5528392311173
 20
1152.309063794914
 30
0.0
 10
174.6033685431248
 20
1152.309063794914
 30
0.0
 10
174.6652088238115
 20
1152.309063794914
 30
0.0
 10
174.7382873307761
 20
1152.309063794914
 30
0.0
 10
174.8228011336396
 20
1152.309063794914
 30
0.0
 10
174.9179695416935
 20
1152.309063794914
 30
0.0
 10
174.9897327301842
 20
1152.309063794914
 30
0.0
 10
175.0258929552838
 20
1152.309063794914
 30
0.0
  0
SPLINE
  5
1281
102
{ACAD_REACTORS
330
1843
102
}
330
A
100
AcDbEntity
  8
MODEL
100
AcDbSpline
210
0.0
220
0.0
230
1.0
 70
     8
 71
     3
 72
    14
 73
    10
 74
     0
 42
0.000000001
 43
0.00000001
 40
0.0
 40
0.0
 40
0.0
 40
0.0
 40
0.25
 40
0.25
 40
0.5
 40
0.5
 40
0.75
 40
0.75
 40
1.0
 40
1.0
 40
1.0
 40
1.0
 10
438.4652327835065
 20
1152.309063794914
 30
0.0
 10
438.8579318652046
 20
1152.309063794914
 30
0.0
 10
439.250476436584
 20
1152.230981824916
 30
0.0
 10
439.976089724616
 20
1151.930422959977
 30
0.0
 10
440.3088729434312
 20
1151.708064322109
 30
0.0
 10
440.8642333106982
 20
1151.152703954838
 30
0.0
 10
441.0865919485659
 20
1150.819920736027
 30
0.0
 10
441.3871508135089
 20
1150.094307447991
 30
0.0
 10
441.4652327835065
 20
1149.701762876612
 30
0.0
 10
441.4652327835065
 20
1149.30906379491
 30
0.0
  0
SPLINE
  5
1282
330
A
100
AcDbEntity
  8
MODEL
100
AcDbSpline
210
0.0
220
0.0
230
1.0
 70
    24
 71
     3
 72
    17
 73
    13
 74
     0
 42
0.000000001
 43
0.00000001
 40
0.0
 40
0.0
 40
0.0
 40
0.0
 40
0.1087529157332377
 40
0.2139847941175632
 40
0.3162192408300224
 40
0.4160270475357465
 40
0.5140214187144535
 40
0.6108500178187802
 40
0.7071840239889716
 40
0.803704934695346
 40
0.9010903236449873
 40
0.9999999999999999
 40
0.9999999999999999
 40
0.9999999999999999
 40
0.9999999999999999
 10
441.4652327835065
 20
1149.30906379491
 30
0.0
 10
441.4652327835065
 20
1149.308001478661
 30
0.0
 10
441.4652327835065
 20
1149.305911240223
 30
0.0
 10
441.4652327835065
 20
1149.288595146722
 30
0.0
 10
441.4652327835065
 20
1149.260756836455
 30
0.0
 10
441.4652327835065
 20
1149.221457347303
 30
0.0
 10
441.4652327835065
 20
1149.170928035295
 30
0.0
 10
441.4652327835065
 20
1149.109087754609
 30
0.0
 10
441.4652327835065
 20
1149.036009247644
 30
0.0
 10
441.4652327835065
 20
1148.951495444781
 30
0.0
 10
441.4652327835065
 20
1148.856327036727
 30
0.0
 10
441.4652327835065
 20
1148.784563848236
 30
0.0
 10
441.4652327835065
 20
1148.748403623136
 30
0.0
  0
SPLINE
  5
1283
330
A
100
AcDbEntity
  8
MODEL
100
AcDbSpline
210
0.0
220
0.0
230
1.0
 70
    24
 71
     3
 72
    18
 73
    14
 74
     0
 42
0.000000001
 43
0.00000001
 40
0.0
 40
0.0
 40
0.0
 40
0.0
 40
0.0899907167152232
 40
0.1786730807626728
 40
0.266540360117367
 40
0.3540995992606922
 40
0.4418631818422002
 40
0.5303399414220388
 40
0.6200265738371894
 40
0.7114000468597892
 40
0.8049115199551938
 40
0.900982036341622
 40
1.0
 40
1.0
 40
1.0
 40
1.0
 10
437.9045726117256
 20
1152.309063794914
 30
0.0
 10
437.9375400562967
 20
1152.309063794914
 30
0.0
 10
438.0029956399558
 20
1152.309063794914
 30
0.0
 10
438.0908830852422
 20
1152.309063794914
 30
0.0
 10
438.1699771004933
 20
1152.309063794914
 30
0.0
 10
438.2396347252797
 20
1152.309063794914
 30
0.0
 10
438.3000152465211
 20
1152.309063794914
 30
0.0
 10
438.3510740231468
 20
1152.309063794914
 30
0.0
 10
438.3928105478007
 20
1152.309063794914
 30
0.0
 10
438.4252775698987
 20
1152.309063794914
 30
0.0
 10
438.4482847720064
 20
1152.309063794914
 30
0.0
 10
438.4626104976487
 20
1152.309063794914
 30
0.0
 10
438.4643499282974
 20
1152.309063794914
 30
0.0
 10
438.4652327835065
 20
1152.309063794914
 30
0.0
  0
SPLINE
  5
1284
330
A
100
AcDbEntity
  8
MODEL
100
AcDbSpline
210
0.0
220
0.0
230
1.0
 70
     8
 71
     3
 72
    14
 73
    10
 74
     0
 42
0.000000001
 43
0.00000001
 40
0.0
 40
0.0
 40
0.0
 40
0.0
 40
0.25
 40
0.25
 40
0.5
 40
0.5
 40
0.75
 40
0.75
 40
1.0
 40
1.0
 40
1.0
 40
1.0
 10
441.4652327835065
 20
885.3090637949169
 30
0.0
 10
441.4652327835065
 20
884.9163647132159
 30
0.0
 10
441.3871508135089
 20
884.523820141836
 30
0.0
 10
441.0865919485659
 20
883.798206853801
 30
0.0
 10
440.8642333106982
 20
883.4654236349891
 30
0.0
 10
440.3088729434312
 20
882.910063267718
 30
0.0
 10
439.976089724616
 20
882.6877046298509
 30
0.0
 10
439.250476436584
 20
882.3871457649109
 30
0.0
 10
438.8579318652046
 20
882.309063794914
 30
0.0
 10
438.4652327835065
 20
882.309063794914
 30
0.0
  0
SPLINE
  5
1285
330
A
100
AcDbEntity
  8
MODEL
100
AcDbSpline
210
0.0
220
0.0
230
1.0
 70
    24
 71
     3
 72
    17
 73
    13
 74
     0
 42
0.000000001
 43
0.00000001
 40
0.0
 40
0.0
 40
0.0
 40
0.0
 40
0.1087529157332492
 40
0.2139847941175902
 40
0.3162192408300611
 40
0.416027047535784
 40
0.5140214187144884
 40
0.610850017818824
 40
0.7071840239890018
 40
0.8037049346953622
 40
0.9010903236450144
 40
1.0
 40
1.0
 40
1.0
 40
1.0
 10
438.4652327835065
 20
882.309063794914
 30
0.0
 10
438.464170467254
 20
882.309063794914
 30
0.0
 10
438.4620802288118
 20
882.309063794914
 30
0.0
 10
438.4447641353108
 20
882.309063794914
 30
0.0
 10
438.4169258250476
 20
882.309063794914
 30
0.0
 10
438.3776263358923
 20
882.309063794914
 30
0.0
 10
438.3270970238882
 20
882.309063794914
 30
0.0
 10
438.2652567431978
 20
882.309063794914
 30
0.0
 10
438.1921782362333
 20
882.309063794914
 30
0.0
 10
438.1076644333698
 20
882.309063794914
 30
0.0
 10
438.012496025316
 20
882.309063794914
 30
0.0
 10
437.9407328368288
 20
882.309063794914
 30
0.0
 10
437.9045726117256
 20
882.309063794914
 30
0.0
  0
SPLINE
  5
1286
330
A
100
AcDbEntity
  8
MODEL
100
AcDbSpline
210
0.0
220
0.0
230
1.0
 70
    24
 71
     3
 72
    18
 73
    14
 74
     0
 42
0.000000001
 43
0.00000001
 40
0.0
 40
0.0
 40
0.0
 40
0.0
 40
0.0899907167152232
 40
0.1786730807626728
 40
0.266540360117367
 40
0.3540995992606922
 40
0.4418631818422002
 40
0.5303399414220388
 40
0.6200265738371894
 40
0.7114000468597892
 40
0.8049115199551938
 40
0.900982036341622
 40
1.0
 40
1.0
 40
1.0
 40
1.0
 10
441.4652327835065
 20
885.869723966691
 30
0.0
 10
441.4652327835065
 20
885.8367565221199
 30
0.0
 10
441.4652327835065
 20
885.771300938464
 30
0.0
 10
441.4652327835065
 20
885.683413493178
 30
0.0
 10
441.4652327835065
 20
885.6043194779311
 30
0.0
 10
441.4652327835065
 20
885.5346618531371
 30
0.0
 10
441.4652327835065
 20
885.474281331899
 30
0.0
 10
441.4652327835065
 20
885.423222555273
 30
0.0
 10
441.4652327835065
 20
885.381486030619
 30
0.0
 10
441.4652327835065
 20
885.349019008521
 30
0.0
 10
441.4652327835065
 20
885.326011806414
 30
0.0
 10
441.4652327835065
 20
885.311686080772
 30
0.0
 10
441.4652327835065
 20
885.309946650123
 30
0.0
 10
441.4652327835065
 20
885.3090637949169
 30
0.0
  0
SPLINE
  5
1287
330
A
100
AcDbEntity
  8
MODEL
100
AcDbSpline
210
0.0
220
0.0
230
1.0
 70
     8
 71
     3
 72
    14
 73
    10
 74
     0
 42
0.000000001
 43
0.00000001
 40
0.0
 40
0.0
 40
0.0
 40
0.0
 40
0.25
 40
0.25
 40
0.5
 40
0.5
 40
0.75
 40
0.75
 40
1.0
 40
1.0
 40
1.0
 40
1.0
 10
174.4652327835029
 20
882.309063794914
 30
0.0
 10
174.0725337018084
 20
882.309063794914
 30
0.0
 10
173.679989130429
 20
882.3871457649109
 30
0.0
 10
172.9543758423933
 20
882.6877046298509
 30
0.0
 10
172.6215926235782
 20
882.910063267718
 30
0.0
 10
172.0662322563114
 20
883.4654236349891
 30
0.0
 10
171.8438736184434
 20
883.798206853801
 30
0.0
 10
171.5433147535004
 20
884.523820141836
 30
0.0
 10
171.4652327835067
 20
884.9163647132159
 30
0.0
 10
171.4652327835067
 20
885.3090637949169
 30
0.0
  0
SPLINE
  5
1288
330
A
100
AcDbEntity
  8
MODEL
100
AcDbSpline
210
0.0
220
0.0
230
1.0
 70
    24
 71
     3
 72
    18
 73
    14
 74
     0
 42
0.000000001
 43
0.00000001
 40
0.0
 40
0.0
 40
0.0
 40
0.0
 40
0.0899907167152229
 40
0.178673080762683
 40
0.2665403601173671
 40
0.354099599260692
 40
0.4418631818422072
 40
0.5303399414220391
 40
0.6200265738371946
 40
0.7114000468597901
 40
0.8049115199551998
 40
0.9009820363416212
 40
0.9999999999999999
 40
0.9999999999999999
 40
0.9999999999999999
 40
0.9999999999999999
 10
175.0258929552838
 20
882.309063794914
 30
0.0
 10
174.9929255107126
 20
882.309063794914
 30
0.0
 10
174.9274699270538
 20
882.309063794914
 30
0.0
 10
174.8395824817671
 20
882.309063794914
 30
0.0
 10
174.7604884665163
 20
882.309063794914
 30
0.0
 10
174.6908308417296
 20
882.309063794914
 30
0.0
 10
174.6304503204885
 20
882.309063794914
 30
0.0
 10
174.5793915438626
 20
882.309063794914
 30
0.0
 10
174.5376550192086
 20
882.309063794914
 30
0.0
 10
174.5051879971106
 20
882.309063794914
 30
0.0
 10
174.4821807950066
 20
882.309063794914
 30
0.0
 10
174.4678550693606
 20
882.309063794914
 30
0.0
 10
174.4661156387119
 20
882.309063794914
 30
0.0
 10
174.4652327835029
 20
882.309063794914
 30
0.0
  0
SPLINE
  5
1289
330
A
100
AcDbEntity
  8
MODEL
100
AcDbSpline
210
0.0
220
0.0
230
1.0
 70
    24
 71
     3
 72
    17
 73
    13
 74
     0
 42
0.000000001
 43
0.00000001
 40
0.0
 40
0.0
 40
0.0
 40
0.0
 40
0.1087529157332477
 40
0.2139847941175787
 40
0.3162192408300483
 40
0.4160270475357699
 40
0.514021418714473
 40
0.6108500178188154
 40
0.7071840239889919
 40
0.8037049346953584
 40
0.9010903236450092
 40
1.0
 40
1.0
 40
1.0
 40
1.0
 10
171.4652327835067
 20
885.3090637949169
 30
0.0
 10
171.4652327835067
 20
885.310126111166
 30
0.0
 10
171.4652327835067
 20
885.312216349605
 30
0.0
 10
171.4652327835067
 20
885.329532443106
 30
0.0
 10
171.4652327835067
 20
885.3573707533731
 30
0.0
 10
171.4652327835067
 20
885.3966702425239
 30
0.0
 10
171.4652327835067
 20
885.4471995545321
 30
0.0
 10
171.4652327835067
 20
885.509039835219
 30
0.0
 10
171.4652327835067
 20
885.5821183421831
 30
0.0
 10
171.4652327835067
 20
885.6666321450471
 30
0.0
 10
171.4652327835067
 20
885.761800553101
 30
0.0
 10
171.4652327835067
 20
885.833563741591
 30
0.0
 10
171.4652327835067
 20
885.869723966691
 30
0.0
  0
ARC
  5
128A
330
A
100
AcDbEntity
  8
MODEL
100
AcDbCircle
 10
293.3837573315541
 20
1030.390539246863
 30
0.0
 40
5.00000000000004
100
AcDbArc
 50
45.0000000000387
 51
224.9999999999355
  0
LINE
  5
128B
330
A
100
AcDbEntity
  8
MODEL
100
AcDbLine
 10
289.8482234256225
 20
1026.855005340935
 30
0.0
 11
316.0111743295238
 21
1000.69205443703
 31
0.0
  0
ARC
  5
128C
330
A
100
AcDbEntity
  8
MODEL
100
AcDbCircle
 10
319.5467082354553
 20
1004.227588342965
 30
0.0
 40
5.000000000000442
100
AcDbArc
 50
225.0000000000267
 51
44.99999999997513
  0
LINE
  5
128D
330
A
100
AcDbEntity
  8
MODEL
100
AcDbLine
 10
323.0822421413904
 20
1007.763122248893
 30
0.0
 11
296.9192912374856
 21
1033.926073152798
 31
0.0
  0
CIRCLE
  5
128E
330
A
100
AcDbEntity
  8
HIDDEN
 48
0.05
370
     0
100
AcDbCircle
 10
306.4652327835065
 20
1017.309063794914
 30
0.0
 40
26.5
  0
SPLINE
  5
128F
330
A
100
AcDbEntity
  8
HIDDEN
  6
HIDDEN
 48
0.05
100
AcDbSpline
210
0.0
220
0.0
230
1.0
 70
  1064
 71
     3
 72
    23
 73
    19
 74
    17
 42
0.000000001
 43
0.0000000001
 44
0.0
 40
0.0
 40
0.0
 40
0.0
 40
0.0
 40
2.463846728541124
 40
6.512188464472876
 40
16.80699032505417
 40
30.93403208388064
 40
53.29837593065777
 40
68.07359962756965
 40
79.95153568787107
 40
93.96824825955129
 40
110.500175413853
 40
122.4105685582811
 40
132.4898092957827
 40
140.4341064794994
 40
142.1330509004238
 40
145.2858708202194
 40
148.1048078669637
 40
151.6502486382568
 40
151.6502486382568
 40
151.6502486382568
 40
151.6502486382568
 10
181.0574386496482
 20
540.943676712907
 30
0.0
 10
181.9060919323487
 20
540.7033080561085
 30
0.0
 10
184.1491657623556
 20
540.0679901299198
 30
0.0
 10
184.7317994399665
 20
533.6210429955489
 30
0.0
 10
187.6311593951592
 20
525.1246461557505
 30
0.0
 10
193.4293692222118
 20
510.3421616127413
 30
0.0
 10
202.4941821807896
 20
495.8044766508916
 30
0.0
 10
213.4851277541573
 20
483.5682931616615
 30
0.0
 10
224.3698269041776
 20
475.4126264625002
 30
0.0
 10
236.8507463399714
 20
468.5542562242648
 30
0.0
 10
250.6790250098986
 20
465.0144531448776
 30
0.0
 10
263.3903807723662
 20
463.2075995273976
 30
0.0
 10
273.3142858968605
 20
462.2421203145148
 30
0.0
 10
279.8470202451188
 20
461.3051717221676
 30
0.0
 10
284.0930683010772
 20
461.1527654465053
 30
0.0
 10
286.664038531911
 20
460.1608633814963
 30
0.0
 10
288.2280156296015
 20
457.1994228457135
 30
0.0
 10
288.434759832239
 20
455.0841220717272
 30
0.0
 10
288.5499320212912
 20
453.9057392317919
 30
0.0
 11
181.0574386496482
 21
540.943676712907
 31
0.0
 11
183.3146308524119
 21
539.955939874713
 31
0.0
 11
184.5920125757095
 21
536.1144080521359
 31
0.0
 11
187.3367599063213
 21
526.1922456144549
 31
0.0
 11
192.6977633833055
 21
513.1219376389178
 31
0.0
 11
204.4745162564086
 21
494.1095214993858
 31
0.0
 11
214.4903331073037
 21
483.2471714726599
 31
0.0
 11
223.9420241070966
 21
476.0533614739844
 31
0.0
 11
236.3134682500363
 21
469.464309862772
 31
0.0
 11
252.2254620777639
 21
464.9795503528877
 31
0.0
 11
264.0046027123262
 21
463.2162265692215
 31
0.0
 11
274.0204195632232
 21
462.0872860686633
 31
0.0
 11
281.9195590753661
 21
461.2414416911853
 31
0.0
 11
283.6126254270266
 21
461.1002380288215
 31
0.0
 11
286.4915808009123
 21
459.8149795327068
 31
0.0
 11
287.9440070074447
 21
457.3990192292073
 31
0.0
 11
288.5499320212912
 21
453.9057392317919
 31
0.0
  0
SPLINE
  5
1290
330
A
100
AcDbEntity
  8
HIDDEN
  6
HIDDEN
 48
0.05
100
AcDbSpline
210
0.0
220
0.0
230
1.0
 70
  1064
 71
     3
 72
    23
 73
    19
 74
    17
 42
0.000000001
 43
0.0000000001
 44
0.0
 40
0.0
 40
0.0
 40
0.0
 40
0.0
 40
2.463846728541046
 40
6.512188464472725
 40
16.80699032505408
 40
30.93403208388046
 40
53.2983759306577
 40
68.07359962756959
 40
79.95153568787103
 40
93.9682482595512
 40
110.500175413853
 40
122.4105685582811
 40
132.4898092957827
 40
140.4341064794993
 40
142.1330509004237
 40
145.2858708202193
 40
148.1048078669637
 40
151.6502486382567
 40
151.6502486382567
 40
151.6502486382567
 40
151.6502486382567
 10
431.8730269173647
 20
540.943676712907
 30
0.0
 10
431.0243736346643
 20
540.7033080561085
 30
0.0
 10
428.7812998046575
 20
540.0679901299197
 30
0.0
 10
428.1986661270468
 20
533.6210429955489
 30
0.0
 10
425.2993061718536
 20
525.1246461557505
 30
0.0
 10
419.5010963448017
 20
510.3421616127413
 30
0.0
 10
410.4362833862232
 20
495.8044766508915
 30
0.0
 10
399.4453378128557
 20
483.5682931616615
 30
0.0
 10
388.5606386628355
 20
475.4126264625002
 30
0.0
 10
376.0797192270416
 20
468.5542562242645
 30
0.0
 10
362.2514405571144
 20
465.0144531448774
 30
0.0
 10
349.5400847946466
 20
463.2075995273977
 30
0.0
 10
339.6161796701525
 20
462.2421203145146
 30
0.0
 10
333.0834453218943
 20
461.3051717221679
 30
0.0
 10
328.8373972659359
 20
461.1527654465052
 30
0.0
 10
326.2664270351019
 20
460.1608633814965
 30
0.0
 10
324.7024499374115
 20
457.1994228457133
 30
0.0
 10
324.4957057347742
 20
455.0841220717272
 30
0.0
 10
324.3805335457218
 20
453.9057392317919
 30
0.0
 11
431.8730269173647
 21
540.943676712907
 31
0.0
 11
429.6158347146011
 21
539.955939874713
 31
0.0
 11
428.3384529913037
 21
536.1144080521359
 31
0.0
 11
425.5937056606917
 21
526.1922456144549
 31
0.0
 11
420.2327021837077
 21
513.1219376389178
 31
0.0
 11
408.4559493106044
 21
494.1095214993858
 31
0.0
 11
398.4401324597093
 21
483.2471714726599
 31
0.0
 11
388.9884414599164
 21
476.0533614739844
 31
0.0
 11
376.6169973169767
 21
469.464309862772
 31
0.0
 11
360.705003489249
 21
464.9795503528877
 31
0.0
 11
348.9258628546868
 21
463.2162265692215
 31
0.0
 11
338.9100460037898
 21
462.0872860686633
 31
0.0
 11
331.0109064916469
 21
461.2414416911853
 31
0.0
 11
329.3178401399864
 21
461.1002380288215
 31
0.0
 11
326.4388847661007
 21
459.8149795327068
 31
0.0
 11
324.9864585595683
 21
457.3990192292073
 31
0.0
 11
324.3805335457218
 21
453.9057392317919
 31
0.0
  0
LINE
  5
1291
330
A
100
AcDbEntity
  8
HIDDEN
  6
Continuous
100
AcDbLine
 10
280.5089000484331
 20
440.9274006646666
 30
0.0
 11
280.5089000484331
 21
453.9057392317919
 31
0.0
  0
LINE
  5
1292
330
A
100
AcDbEntity
  8
HIDDEN
  6
Continuous
100
AcDbLine
 10
280.5089000484331
 20
453.9057392317919
 30
0.0
 11
332.4215655185835
 21
453.9057392317919
 31
0.0
  0
LINE
  5
1293
330
A
100
AcDbEntity
  8
HIDDEN
  6
Continuous
100
AcDbLine
 10
332.4215655185835
 20
453.9057392317919
 30
0.0
 11
332.4215655185835
 21
440.9274006646666
 31
0.0
  0
SPLINE
  5
1294
330
A
100
AcDbEntity
  8
HIDDEN
  6
HIDDEN
 48
0.05
100
AcDbSpline
210
0.0
220
0.0
230
1.0
 70
  1064
 71
     3
 72
    23
 73
    19
 74
    17
 42
0.000000001
 43
0.0000000001
 44
0.0
 40
0.0
 40
0.0
 40
0.0
 40
0.0
 40
2.463846728541514
 40
6.512188464473051
 40
16.80699032505439
 40
30.93403208388079
 40
53.29837593065827
 40
68.07359962757018
 40
79.95153568787084
 40
93.96824825955146
 40
110.5001754138537
 40
122.4105685582813
 40
132.4898092957833
 40
140.4341064795
 40
142.1330509004244
 40
145.2858708202196
 40
148.1048078669644
 40
151.6502486382574
 40
151.6502486382574
 40
151.6502486382574
 40
151.6502486382574
 10
645.0521984215779
 20
540.943676712907
 30
0.0
 10
645.9008517042786
 20
540.7033080561087
 30
0.0
 10
648.1439255342858
 20
540.06799012992
 30
0.0
 10
648.7265592118955
 20
533.6210429955488
 30
0.0
 10
651.6259191670893
 20
525.1246461557505
 30
0.0
 10
657.424128994141
 20
510.342161612741
 30
0.0
 10
666.4889419527196
 20
495.8044766508918
 30
0.0
 10
677.4798875260875
 20
483.5682931616618
 30
0.0
 10
688.3645866761068
 20
475.4126264624996
 30
0.0
 10
700.8455061119013
 20
468.5542562242649
 30
0.0
 10
714.6737847818285
 20
465.0144531448777
 30
0.0
 10
727.3851405442963
 20
463.2075995273976
 30
0.0
 10
737.3090456687908
 20
462.2421203145149
 30
0.0
 10
743.8417800170486
 20
461.3051717221675
 30
0.0
 10
748.0878280730075
 20
461.1527654465054
 30
0.0
 10
750.6587983038405
 20
460.1608633814959
 30
0.0
 10
752.2227754015324
 20
457.1994228457138
 30
0.0
 10
752.4295196041694
 20
455.0841220717272
 30
0.0
 10
752.5446917932213
 20
453.9057392317919
 30
0.0
 11
645.0521984215779
 21
540.943676712907
 31
0.0
 11
647.3093906243421
 21
539.955939874713
 31
0.0
 11
648.586772347639
 21
536.1144080521359
 31
0.0
 11
651.331519678251
 21
526.1922456144549
 31
0.0
 11
656.692523155235
 21
513.1219376389178
 31
0.0
 11
668.4692760283388
 21
494.1095214993858
 31
0.0
 11
678.4850928792339
 21
483.2471714726599
 31
0.0
 11
687.9367838790258
 21
476.0533614739844
 31
0.0
 11
700.308228021966
 21
469.464309862772
 31
0.0
 11
716.2202218496941
 21
464.9795503528877
 31
0.0
 11
727.9993624842559
 21
463.2162265692215
 31
0.0
 11
738.0151793351533
 21
462.0872860686633
 31
0.0
 11
745.9143188472963
 21
461.2414416911853
 31
0.0
 11
747.6073851989568
 21
461.1002380288215
 31
0.0
 11
750.486340572842
 21
459.8149795327068
 31
0.0
 11
751.9387667793753
 21
457.3990192292073
 31
0.0
 11
752.5446917932213
 21
453.9057392317919
 31
0.0
  0
SPLINE
  5
1295
330
A
100
AcDbEntity
  8
HIDDEN
  6
HIDDEN
 48
0.05
100
AcDbSpline
210
0.0
220
0.0
230
1.0
 70
  1064
 71
     3
 72
    23
 73
    19
 74
    17
 42
0.000000001
 43
0.0000000001
 44
0.0
 40
0.0
 40
0.0
 40
0.0
 40
0.0
 40
2.463846728541098
 40
6.512188464472779
 40
16.80699032505412
 40
30.93403208388035
 40
53.29837593065808
 40
68.07359962756998
 40
79.95153568787137
 40
93.96824825955079
 40
110.500175413853
 40
122.4105685582811
 40
132.4898092957827
 40
140.4341064794994
 40
142.1330509004242
 40
145.285870820219
 40
148.1048078669638
 40
151.6502486382567
 40
151.6502486382567
 40
151.6502486382567
 40
151.6502486382567
 10
895.8677866892949
 20
540.943676712907
 30
0.0
 10
895.0191334065944
 20
540.7033080561084
 30
0.0
 10
892.7760595765876
 20
540.0679901299196
 30
0.0
 10
892.1934258989769
 20
533.621042995549
 30
0.0
 10
889.2940659437841
 20
525.1246461557506
 30
0.0
 10
883.495856116732
 20
510.3421616127407
 30
0.0
 10
874.4310431581534
 20
495.8044766508921
 30
0.0
 10
863.4400975847852
 20
483.5682931616614
 30
0.0
 10
852.5553984347654
 20
475.4126264625003
 30
0.0
 10
840.0744789989719
 20
468.5542562242643
 30
0.0
 10
826.2462003290445
 20
465.0144531448775
 30
0.0
 10
813.5348445665768
 20
463.2075995273976
 30
0.0
 10
803.6109394420828
 20
462.242120314515
 30
0.0
 10
797.0782050938242
 20
461.3051717221675
 30
0.0
 10
792.8321570378658
 20
461.1527654465054
 30
0.0
 10
790.2611868070328
 20
460.1608633814959
 30
0.0
 10
788.6972097093405
 20
457.1994228457137
 30
0.0
 10
788.4904655067039
 20
455.0841220717272
 30
0.0
 10
788.375293317652
 20
453.9057392317919
 30
0.0
 11
895.8677866892949
 21
540.943676712907
 31
0.0
 11
893.6105944865312
 21
539.955939874713
 31
0.0
 11
892.3332127632339
 21
536.1144080521359
 31
0.0
 11
889.5884654326219
 21
526.1922456144549
 31
0.0
 11
884.2274619556383
 21
513.1219376389178
 31
0.0
 11
872.4507090825341
 21
494.1095214993858
 31
0.0
 11
862.434892231639
 21
483.2471714726599
 31
0.0
 11
852.9832012318461
 21
476.0533614739844
 31
0.0
 11
840.6117570889073
 21
469.464309862772
 31
0.0
 11
824.6997632611792
 21
464.9795503528877
 31
0.0
 11
812.9206226266169
 21
463.2162265692215
 31
0.0
 11
802.90480577572
 21
462.0872860686633
 31
0.0
 11
795.005666263577
 21
461.2414416911853
 31
0.0
 11
793.3125999119161
 21
461.1002380288215
 31
0.0
 11
790.4336445380313
 21
459.8149795327068
 31
0.0
 11
788.981218331498
 21
457.3990192292073
 31
0.0
 11
788.375293317652
 21
453.9057392317919
 31
0.0
  0
LINE
  5
1296
330
A
100
AcDbEntity
  8
HIDDEN
  6
Continuous
100
AcDbLine
 10
744.5036598203633
 20
440.9274006646666
 30
0.0
 11
744.5036598203633
 21
453.9057392317919
 31
0.0
  0
LINE
  5
1297
330
A
100
AcDbEntity
  8
HIDDEN
  6
Continuous
100
AcDbLine
 10
744.5036598203633
 20
453.9057392317919
 30
0.0
 11
796.4163252905128
 21
453.9057392317919
 31
0.0
  0
LINE
  5
1298
330
A
100
AcDbEntity
  8
HIDDEN
  6
Continuous
100
AcDbLine
 10
796.4163252905128
 20
453.9057392317919
 30
0.0
 11
796.4163252905128
 21
440.9274006646666
 31
0.0
  0
LINE
  5
1299
330
A
100
AcDbEntity
  8
HIDDEN
  6
HIDDEN
 48
0.05
100
AcDbLine
 10
279.8732952410937
 20
466.8840777989182
 30
0.0
 11
332.8732952410937
 21
466.8840777989182
 31
0.0
  0
LINE
  5
129A
330
A
100
AcDbEntity
  8
HIDDEN
  6
HIDDEN
 48
0.05
100
AcDbLine
 10
332.8732952410937
 20
466.8840777989182
 30
0.0
 11
332.8732952410937
 21
464.7598045047952
 31
0.0
  0
LINE
  5
129B
330
A
100
AcDbEntity
  8
HIDDEN
  6
HIDDEN
 48
0.05
100
AcDbLine
 10
332.8732952410937
 20
464.7598045047952
 30
0.0
 11
279.8732952410937
 21
464.7598045047952
 31
0.0
  0
LINE
  5
129C
330
A
100
AcDbEntity
  8
HIDDEN
  6
HIDDEN
 48
0.05
100
AcDbLine
 10
279.8732952410937
 20
464.7598045047952
 30
0.0
 11
279.8732952410937
 21
466.8840777989182
 31
0.0
  0
LINE
  5
129D
330
A
100
AcDbEntity
  8
HIDDEN
  6
HIDDEN
 48
0.05
100
AcDbLine
 10
297.6238668305777
 20
464.7598045047952
 30
0.0
 11
301.9505641193
 21
459.3164169693633
 31
0.0
  0
LINE
  5
129E
330
A
100
AcDbEntity
  8
HIDDEN
  6
HIDDEN
 48
0.05
100
AcDbLine
 10
315.122723651611
 20
464.7598045047952
 30
0.0
 11
310.7960263628888
 21
459.3164169693633
 31
0.0
  0
LINE
  5
129F
330
A
100
AcDbEntity
  8
HIDDEN
  6
HIDDEN
 48
0.05
100
AcDbLine
 10
301.9505641193
 20
450.5006325741473
 30
0.0
 11
300.4939195747579
 21
452.7045786729512
 31
0.0
  0
LINE
  5
12A0
330
A
100
AcDbEntity
  8
HIDDEN
  6
HIDDEN
 48
0.05
100
AcDbLine
 10
301.9505641193
 20
454.9085247717552
 30
0.0
 11
300.4939195747579
 21
452.7045786729512
 31
0.0
  0
LINE
  5
12A1
330
A
100
AcDbEntity
  8
HIDDEN
  6
HIDDEN
 48
0.05
100
AcDbLine
 10
301.9505641193
 20
454.9085247717552
 30
0.0
 11
300.4939195747579
 21
457.1124708705592
 31
0.0
  0
LINE
  5
12A2
330
A
100
AcDbEntity
  8
HIDDEN
  6
HIDDEN
 48
0.05
100
AcDbLine
 10
301.9505641193
 20
459.3164169693633
 30
0.0
 11
300.4939195747579
 21
457.1124708705592
 31
0.0
  0
LINE
  5
12A3
330
A
100
AcDbEntity
  8
HIDDEN
  6
HIDDEN
 48
0.05
100
AcDbLine
 10
310.7960263628888
 20
450.5006325741473
 30
0.0
 11
312.2526709074309
 21
452.7045786729512
 31
0.0
  0
LINE
  5
12A4
330
A
100
AcDbEntity
  8
HIDDEN
  6
HIDDEN
 48
0.05
100
AcDbLine
 10
310.7960263628888
 20
454.9085247717552
 30
0.0
 11
312.2526709074309
 21
452.7045786729512
 31
0.0
  0
LINE
  5
12A5
330
A
100
AcDbEntity
  8
HIDDEN
  6
HIDDEN
 48
0.05
100
AcDbLine
 10
310.7960263628888
 20
454.9085247717552
 30
0.0
 11
312.2526709074309
 21
457.1124708705592
 31
0.0
  0
LINE
  5
12A6
330
A
100
AcDbEntity
  8
HIDDEN
  6
HIDDEN
 48
0.05
100
AcDbLine
 10
310.7960263628888
 20
459.3164169693633
 30
0.0
 11
312.2526709074309
 21
457.1124708705592
 31
0.0
  0
LINE
  5
12A7
330
A
100
AcDbEntity
  8
HIDDEN
  6
HIDDEN
 48
0.05
100
AcDbLine
 10
310.7960263628888
 20
450.5006325741473
 30
0.0
 11
312.6841875352438
 21
447.7914328088883
 31
0.0
  0
LINE
  5
12A8
330
A
100
AcDbEntity
  8
HIDDEN
  6
HIDDEN
 48
0.05
100
AcDbLine
 10
301.9505641193
 20
450.5006325741473
 30
0.0
 11
300.062402946945
 21
447.7914328088883
 31
0.0
  0
LINE
  5
12A9
330
A
100
AcDbEntity
  8
HIDDEN
  6
HIDDEN
 48
0.05
100
AcDbLine
 10
743.8680550130239
 20
466.8840777989182
 30
0.0
 11
796.8680550130239
 21
466.8840777989182
 31
0.0
  0
LINE
  5
12AA
330
A
100
AcDbEntity
  8
HIDDEN
  6
HIDDEN
 48
0.05
100
AcDbLine
 10
796.8680550130239
 20
466.8840777989182
 30
0.0
 11
796.8680550130239
 21
464.7598045047952
 31
0.0
  0
LINE
  5
12AB
330
A
100
AcDbEntity
  8
HIDDEN
  6
HIDDEN
 48
0.05
100
AcDbLine
 10
796.8680550130239
 20
464.7598045047952
 30
0.0
 11
743.8680550130239
 21
464.7598045047952
 31
0.0
  0
LINE
  5
12AC
330
A
100
AcDbEntity
  8
HIDDEN
  6
HIDDEN
 48
0.05
100
AcDbLine
 10
743.8680550130239
 20
464.7598045047952
 30
0.0
 11
743.8680550130239
 21
466.8840777989182
 31
0.0
  0
LINE
  5
12AD
330
A
100
AcDbEntity
  8
HIDDEN
  6
HIDDEN
 48
0.05
100
AcDbLine
 10
761.6186266025079
 20
464.7598045047952
 30
0.0
 11
765.9453238912301
 21
459.3164169693633
 31
0.0
  0
LINE
  5
12AE
330
A
100
AcDbEntity
  8
HIDDEN
  6
HIDDEN
 48
0.05
100
AcDbLine
 10
779.1174834235408
 20
464.7598045047952
 30
0.0
 11
774.790786134819
 21
459.3164169693633
 31
0.0
  0
LINE
  5
12AF
330
A
100
AcDbEntity
  8
HIDDEN
  6
HIDDEN
 48
0.05
100
AcDbLine
 10
765.9453238912301
 20
454.9085247717552
 30
0.0
 11
764.4886793466881
 21
457.1124708705592
 31
0.0
  0
LINE
  5
12B0
330
A
100
AcDbEntity
  8
HIDDEN
  6
HIDDEN
 48
0.05
100
AcDbLine
 10
765.9453238912301
 20
459.3164169693633
 30
0.0
 11
764.4886793466881
 21
457.1124708705592
 31
0.0
  0
LINE
  5
12B1
330
A
100
AcDbEntity
  8
HIDDEN
  6
HIDDEN
 48
0.05
100
AcDbLine
 10
774.790786134819
 20
454.9085247717552
 30
0.0
 11
776.2474306793611
 21
457.1124708705592
 31
0.0
  0
LINE
  5
12B2
330
A
100
AcDbEntity
  8
HIDDEN
  6
HIDDEN
 48
0.05
100
AcDbLine
 10
774.790786134819
 20
459.3164169693633
 30
0.0
 11
776.2474306793611
 21
457.1124708705592
 31
0.0
  0
LINE
  5
12B3
330
A
100
AcDbEntity
  8
HIDDEN
  6
HIDDEN
 48
0.05
100
AcDbLine
 10
765.9453238912301
 20
450.5006325741473
 30
0.0
 11
764.4886793466881
 21
452.7045786729512
 31
0.0
  0
LINE
  5
12B4
330
A
100
AcDbEntity
  8
HIDDEN
  6
HIDDEN
 48
0.05
100
AcDbLine
 10
765.9453238912301
 20
454.9085247717552
 30
0.0
 11
764.4886793466881
 21
452.7045786729512
 31
0.0
  0
LINE
  5
12B5
330
A
100
AcDbEntity
  8
HIDDEN
  6
HIDDEN
 48
0.05
100
AcDbLine
 10
774.790786134819
 20
450.5006325741473
 30
0.0
 11
776.2474306793611
 21
452.7045786729512
 31
0.0
  0
LINE
  5
12B6
330
A
100
AcDbEntity
  8
HIDDEN
  6
HIDDEN
 48
0.05
100
AcDbLine
 10
774.790786134819
 20
454.9085247717552
 30
0.0
 11
776.2474306793611
 21
452.7045786729512
 31
0.0
  0
LINE
  5
12B7
330
A
100
AcDbEntity
  8
HIDDEN
  6
HIDDEN
 48
0.05
100
AcDbLine
 10
774.790786134819
 20
450.5006325741473
 30
0.0
 11
776.678947307174
 21
447.7914328088883
 31
0.0
  0
LINE
  5
12B8
330
A
100
AcDbEntity
  8
HIDDEN
  6
HIDDEN
 48
0.05
100
AcDbLine
 10
765.9453238912301
 20
450.5006325741473
 30
0.0
 11
764.0571627188751
 21
447.7914328088883
 31
0.0
  0
MTEXT
  5
12B9
330
A
100
AcDbEntity
  8
MODEL
390
1D
100
AcDbMText
 10
615.3894985989982
 20
835.8807601975502
 30
0.0
 40
12.0
 41
949.7161250932047
 46
52.63573827890803
 71
     1
 72
     1
  1
{\C7;※陶器製品には寸法公差がありますので、\P　必ず現物合わせでカウンターに切込を\P　行ってください。}
  7
ＭＳ ゴシック
 73
     1
 44
0.9822934569727008
1001
ACAD
1000
ACAD_MTEXT_DEFINED_HEIGHT_BEGIN
1070
    46
1040
52.63573827890803
1000
ACAD_MTEXT_DEFINED_HEIGHT_END
  0
POLYLINE
  5
12BA
330
A
100
AcDbEntity
  8
MODEL
100
AcDb2dPolyline
 66
     1
 10
0.0
 20
0.0
 30
0.0
  0
VERTEX
  5
12BB
330
12BA
100
AcDbEntity
  8
MODEL
100
AcDbVertex
100
AcDb2dVertex
 10
304.5310206809865
 20
1122.012846062504
 30
0.0
  0
VERTEX
  5
12BC
330
12BA
100
AcDbEntity
  8
MODEL
100
AcDbVertex
100
AcDb2dVertex
 10
302.9791579916893
 20
1123.705912414165
 30
0.0
  0
VERTEX
  5
12BD
330
12BA
100
AcDbEntity
  8
MODEL
100
AcDbVertex
100
AcDb2dVertex
 10
301.1455767760164
 20
1125.116571441097
 30
0.0
  0
VERTEX
  5
12BE
330
12BA
100
AcDbEntity
  8
MODEL
100
AcDbVertex
100
AcDb2dVertex
 10
299.4525104243569
 20
1126.668434130395
 30
0.0
  0
VERTEX
  5
12BF
330
12BA
100
AcDbEntity
  8
MODEL
100
AcDbVertex
100
AcDb2dVertex
 10
297.618929208684
 20
1128.079093157329
 30
0.0
  0
VERTEX
  5
12C0
330
12BA
100
AcDbEntity
  8
MODEL
100
AcDbVertex
100
AcDb2dVertex
 10
295.7853479930129
 20
1129.348548521897
 30
0.0
  0
VERTEX
  5
12C1
330
12BA
100
AcDbEntity
  8
MODEL
100
AcDbVertex
100
AcDb2dVertex
 10
293.8098743166231
 20
1130.75920754883
 30
0.0
  0
VERTEX
  5
12C2
330
12BA
100
AcDbEntity
  8
MODEL
100
AcDbVertex
100
AcDb2dVertex
 10
291.8350894385878
 20
1131.887459251036
 30
0.0
  0
VERTEX
  5
12C3
330
12BA
100
AcDbEntity
  8
MODEL
100
AcDbVertex
100
AcDb2dVertex
 10
289.8603045605507
 20
1133.016399751594
 30
0.0
  0
VERTEX
  5
12C4
330
12BA
100
AcDbEntity
  8
MODEL
100
AcDbVertex
100
AcDb2dVertex
 10
287.8855196825154
 20
1134.1446514538
 30
0.0
  0
VERTEX
  5
12C5
330
12BA
100
AcDbEntity
  8
MODEL
100
AcDbVertex
100
AcDb2dVertex
 10
285.7695311421159
 20
1135.132388291994
 30
0.0
  0
VERTEX
  5
12C6
330
12BA
100
AcDbEntity
  8
MODEL
100
AcDbVertex
100
AcDb2dVertex
 10
283.6535426017165
 20
1136.119436331836
 30
0.0
  0
VERTEX
  5
12C7
330
12BA
100
AcDbEntity
  8
MODEL
100
AcDbVertex
100
AcDb2dVertex
 10
281.537554061317
 20
1136.965969507665
 30
0.0
  0
VERTEX
  5
12C8
330
12BA
100
AcDbEntity
  8
MODEL
100
AcDbVertex
100
AcDb2dVertex
 10
279.4215655209175
 20
1137.671299021132
 30
0.0
  0
VERTEX
  5
12C9
330
12BA
100
AcDbEntity
  8
MODEL
100
AcDbVertex
100
AcDb2dVertex
 10
277.1643733181538
 20
1138.376628534598
 30
0.0
  0
VERTEX
  5
12CA
330
12BA
100
AcDbEntity
  8
MODEL
100
AcDbVertex
100
AcDb2dVertex
 10
275.0483847777543
 20
1139.081958048065
 30
0.0
  0
VERTEX
  5
12CB
330
12BA
100
AcDbEntity
  8
MODEL
100
AcDbVertex
100
AcDb2dVertex
 10
272.7911925749906
 20
1139.646083899167
 30
0.0
  0
VERTEX
  5
12CC
330
12BA
100
AcDbEntity
  8
MODEL
100
AcDbVertex
100
AcDb2dVertex
 10
270.5340003722269
 20
1140.06969488626
 30
0.0
  0
VERTEX
  5
12CD
330
12BA
100
AcDbEntity
  8
MODEL
100
AcDbVertex
100
AcDb2dVertex
 10
268.2774969678178
 20
1140.492617074998
 30
0.0
  0
VERTEX
  5
12CE
330
12BA
100
AcDbEntity
  8
MODEL
100
AcDbVertex
100
AcDb2dVertex
 10
266.0203047650541
 20
1140.775024399726
 30
0.0
  0
VERTEX
  5
12CF
330
12BA
100
AcDbEntity
  8
MODEL
100
AcDbVertex
100
AcDb2dVertex
 10
263.6219088999244
 20
1140.91622806209
 30
0.0
  0
VERTEX
  5
12D0
330
12BA
100
AcDbEntity
  8
MODEL
100
AcDbVertex
100
AcDb2dVertex
 10
261.3647166971607
 20
1141.056742926101
 30
0.0
  0
VERTEX
  5
12D1
330
12BA
100
AcDbEntity
  8
MODEL
100
AcDbVertex
100
AcDb2dVertex
 10
259.1082132927515
 20
1141.197946588464
 30
0.0
  0
VERTEX
  5
12D2
330
12BA
100
AcDbEntity
  8
MODEL
100
AcDbVertex
100
AcDb2dVertex
 10
256.8510210899879
 20
1141.197946588464
 30
0.0
  0
VERTEX
  5
12D3
330
12BA
100
AcDbEntity
  8
MODEL
100
AcDbVertex
100
AcDb2dVertex
 10
254.4526252248599
 20
1141.056742926101
 30
0.0
  0
VERTEX
  5
12D4
330
12BA
100
AcDbEntity
  8
MODEL
100
AcDbVertex
100
AcDb2dVertex
 10
252.1954330220981
 20
1140.91622806209
 30
0.0
  0
VERTEX
  5
12D5
330
12BA
100
AcDbEntity
  8
MODEL
100
AcDbVertex
100
AcDb2dVertex
 10
249.9389296176853
 20
1140.633820737362
 30
0.0
  0
VERTEX
  5
12D6
330
12BA
100
AcDbEntity
  8
MODEL
100
AcDbVertex
100
AcDb2dVertex
 10
247.6817374149216
 20
1140.351413412635
 30
0.0
  0
VERTEX
  5
12D7
330
12BA
100
AcDbEntity
  8
MODEL
100
AcDbVertex
100
AcDb2dVertex
 10
245.4245452121597
 20
1139.928491223895
 30
0.0
  0
VERTEX
  5
12D8
330
12BA
100
AcDbEntity
  8
MODEL
100
AcDbVertex
100
AcDb2dVertex
 10
243.167353009396
 20
1139.364365372792
 30
0.0
  0
VERTEX
  5
12D9
330
12BA
100
AcDbEntity
  8
MODEL
100
AcDbVertex
100
AcDb2dVertex
 10
240.9101608066323
 20
1138.80023952169
 30
0.0
  0
VERTEX
  5
12DA
330
12BA
100
AcDbEntity
  8
MODEL
100
AcDbVertex
100
AcDb2dVertex
 10
238.6536574022214
 20
1138.235424872235
 30
0.0
  0
VERTEX
  5
12DB
330
12BA
100
AcDbEntity
  8
MODEL
100
AcDbVertex
100
AcDb2dVertex
 10
236.5376688618219
 20
1137.389580494757
 30
0.0
  0
VERTEX
  5
12DC
330
12BA
100
AcDbEntity
  8
MODEL
100
AcDbVertex
100
AcDb2dVertex
 10
234.4216803214206
 20
1136.684250981291
 30
0.0
  0
VERTEX
  5
12DD
330
12BA
100
AcDbEntity
  8
MODEL
100
AcDbVertex
100
AcDb2dVertex
 10
232.3056917810211
 20
1135.696514143096
 30
0.0
  0
VERTEX
  5
12DE
330
12BA
100
AcDbEntity
  8
MODEL
100
AcDbVertex
100
AcDb2dVertex
 10
230.1897032406216
 20
1134.849980967266
 30
0.0
  0
VERTEX
  5
12DF
330
12BA
100
AcDbEntity
  8
MODEL
100
AcDbVertex
100
AcDb2dVertex
 10
228.0737147002221
 20
1133.72172926506
 30
0.0
  0
VERTEX
  5
12E0
330
12BA
100
AcDbEntity
  8
MODEL
100
AcDbVertex
100
AcDb2dVertex
 10
226.0982410238341
 20
1132.733992426867
 30
0.0
  0
VERTEX
  5
12E1
330
12BA
100
AcDbEntity
  8
MODEL
100
AcDbVertex
100
AcDb2dVertex
 10
224.1234561457988
 20
1131.464537062297
 30
0.0
  0
VERTEX
  5
12E2
330
12BA
100
AcDbEntity
  8
MODEL
100
AcDbVertex
100
AcDb2dVertex
 10
222.1486712677636
 20
1130.195081697728
 30
0.0
  0
VERTEX
  5
12E3
330
12BA
100
AcDbEntity
  8
MODEL
100
AcDbVertex
100
AcDb2dVertex
 10
220.3150900520907
 20
1128.925626333158
 30
0.0
  0
VERTEX
  5
12E4
330
12BA
100
AcDbEntity
  8
MODEL
100
AcDbVertex
100
AcDb2dVertex
 10
218.4808200380651
 20
1127.514967306225
 30
0.0
  0
VERTEX
  5
12E5
330
12BA
100
AcDbEntity
  8
MODEL
100
AcDbVertex
100
AcDb2dVertex
 10
216.647238822394
 20
1126.104308279292
 30
0.0
  0
VERTEX
  5
12E6
330
12BA
100
AcDbEntity
  8
MODEL
100
AcDbVertex
100
AcDb2dVertex
 10
214.8129688083684
 20
1124.693649252359
 30
0.0
  0
VERTEX
  5
12E7
330
12BA
100
AcDbEntity
  8
MODEL
100
AcDbVertex
100
AcDb2dVertex
 10
213.1205912550615
 20
1123.141786563062
 30
0.0
  0
VERTEX
  5
12E8
330
12BA
100
AcDbEntity
  8
MODEL
100
AcDbVertex
100
AcDb2dVertex
 10
211.5687285657643
 20
1121.448720211401
 30
0.0
  0
VERTEX
  5
12E9
330
12BA
100
AcDbEntity
  8
MODEL
100
AcDbVertex
100
AcDb2dVertex
 10
210.0168658764671
 20
1119.756342658094
 30
0.0
  0
VERTEX
  5
12EA
330
12BA
100
AcDbEntity
  8
MODEL
100
AcDbVertex
100
AcDb2dVertex
 10
208.4650031871699
 20
1118.063276306433
 30
0.0
  0
VERTEX
  5
12EB
330
12BA
100
AcDbEntity
  8
MODEL
100
AcDbVertex
100
AcDb2dVertex
 10
207.0543441602388
 20
1116.229695090761
 30
0.0
  0
VERTEX
  5
12EC
330
12BA
100
AcDbEntity
  8
MODEL
100
AcDbVertex
100
AcDb2dVertex
 10
205.6436851333039
 20
1114.395425076736
 30
0.0
  0
VERTEX
  5
12ED
330
12BA
100
AcDbEntity
  8
MODEL
100
AcDbVertex
100
AcDb2dVertex
 10
204.233026106371
 20
1112.561843861064
 30
0.0
  0
VERTEX
  5
12EE
330
12BA
100
AcDbEntity
  8
MODEL
100
AcDbVertex
100
AcDb2dVertex
 10
202.9635707418022
 20
1110.727573847039
 30
0.0
  0
SEQEND
  5
12EF
330
12BA
100
AcDbEntity
  8
MODEL
  0
POLYLINE
  5
12F0
102
{ACAD_REACTORS
330
1843
102
}
330
A
100
AcDbEntity
  8
MODEL
100
AcDb2dPolyline
 66
     1
 10
0.0
 20
0.0
 30
0.0
  0
VERTEX
  5
12F1
330
12F0
100
AcDbEntity
  8
MODEL
100
AcDbVertex
100
AcDb2dVertex
 10
304.5310206809865
 20
1122.012846062504
 30
0.0
  0
VERTEX
  5
12F2
330
12F0
100
AcDbEntity
  8
MODEL
100
AcDbVertex
100
AcDb2dVertex
 10
409.0609923363993
 20
1017.483563205442
 30
0.0
  0
SEQEND
  5
12F3
330
12F0
100
AcDbEntity
  8
MODEL
  0
POLYLINE
  5
12F4
330
A
100
AcDbEntity
  8
MODEL
100
AcDb2dPolyline
 66
     1
 10
0.0
 20
0.0
 30
0.0
  0
VERTEX
  5
12F5
330
12F4
100
AcDbEntity
  8
MODEL
100
AcDbVertex
100
AcDb2dVertex
 10
397.7757201209354
 20
915.9161132662589
 30
0.0
  0
VERTEX
  5
12F6
330
12F4
100
AcDbEntity
  8
MODEL
100
AcDbVertex
100
AcDb2dVertex
 10
399.6093013366064
 20
917.184879832475
 30
0.0
  0
VERTEX
  5
12F7
330
12F4
100
AcDbEntity
  8
MODEL
100
AcDbVertex
100
AcDb2dVertex
 10
401.5847750129962
 20
918.5955388594091
 30
0.0
  0
VERTEX
  5
12F8
330
12F4
100
AcDbEntity
  8
MODEL
100
AcDbVertex
100
AcDb2dVertex
 10
403.4183562286673
 20
920.0061978863409
 30
0.0
  0
VERTEX
  5
12F9
330
12F4
100
AcDbEntity
  8
MODEL
100
AcDbVertex
100
AcDb2dVertex
 10
405.1114225803287
 20
921.4168569132739
 30
0.0
  0
VERTEX
  5
12FA
330
12F4
100
AcDbEntity
  8
MODEL
100
AcDbVertex
100
AcDb2dVertex
 10
406.8038001336356
 20
922.969408400925
 30
0.0
  0
VERTEX
  5
12FB
330
12F4
100
AcDbEntity
  8
MODEL
100
AcDbVertex
100
AcDb2dVertex
 10
408.4968664852988
 20
924.520582291867
 30
0.0
  0
VERTEX
  5
12FC
330
12F4
100
AcDbEntity
  8
MODEL
100
AcDbVertex
100
AcDb2dVertex
 10
410.1892440386057
 20
926.073133779518
 30
0.0
  0
VERTEX
  5
12FD
330
12F4
100
AcDbEntity
  8
MODEL
100
AcDbVertex
100
AcDb2dVertex
 10
411.7411067279029
 20
927.7648225344731
 30
0.0
  0
VERTEX
  5
12FE
330
12F4
100
AcDbEntity
  8
MODEL
100
AcDbVertex
100
AcDb2dVertex
 10
413.151765754834
 20
929.5997813468509
 30
0.0
  0
VERTEX
  5
12FF
330
12F4
100
AcDbEntity
  8
MODEL
100
AcDbVertex
100
AcDb2dVertex
 10
414.7036284441331
 20
931.291470101806
 30
0.0
  0
VERTEX
  5
1300
330
12F4
100
AcDbEntity
  8
MODEL
100
AcDbVertex
100
AcDb2dVertex
 10
415.9730838087018
 20
933.2669437781949
 30
0.0
  0
VERTEX
  5
1301
330
12F4
100
AcDbEntity
  8
MODEL
100
AcDbVertex
100
AcDb2dVertex
 10
417.3837428356348
 20
935.1005249938669
 30
0.0
  0
VERTEX
  5
1302
330
12F4
100
AcDbEntity
  8
MODEL
100
AcDbVertex
100
AcDb2dVertex
 10
418.5126833361921
 20
937.075998670256
 30
0.0
  0
VERTEX
  5
1303
330
12F4
100
AcDbEntity
  8
MODEL
100
AcDbVertex
100
AcDb2dVertex
 10
419.7821387007609
 20
939.0500947499379
 30
0.0
  0
VERTEX
  5
1304
330
12F4
100
AcDbEntity
  8
MODEL
100
AcDbVertex
100
AcDb2dVertex
 10
420.7691867406049
 20
941.025568426327
 30
0.0
  0
VERTEX
  5
1305
330
12F4
100
AcDbEntity
  8
MODEL
100
AcDbVertex
100
AcDb2dVertex
 10
421.8981272411604
 20
943.141556966727
 30
0.0
  0
VERTEX
  5
1306
330
12F4
100
AcDbEntity
  8
MODEL
100
AcDbVertex
100
AcDb2dVertex
 10
422.7446604169929
 20
945.117030643115
 30
0.0
  0
VERTEX
  5
1307
330
12F4
100
AcDbEntity
  8
MODEL
100
AcDbVertex
100
AcDb2dVertex
 10
423.7317084568333
 20
947.2330191835149
 30
0.0
  0
VERTEX
  5
1308
330
12F4
100
AcDbEntity
  8
MODEL
100
AcDbVertex
100
AcDb2dVertex
 10
424.4370379702998
 20
949.4895225879259
 30
0.0
  0
VERTEX
  5
1309
330
12F4
100
AcDbEntity
  8
MODEL
100
AcDbVertex
100
AcDb2dVertex
 10
425.2835711461305
 20
951.6055111283249
 30
0.0
  0
VERTEX
  5
130A
330
12F4
100
AcDbEntity
  8
MODEL
100
AcDbVertex
100
AcDb2dVertex
 10
425.8476969972328
 20
953.8620145327359
 30
0.0
  0
VERTEX
  5
130B
330
12F4
100
AcDbEntity
  8
MODEL
100
AcDbVertex
100
AcDb2dVertex
 10
426.4118228483369
 20
956.1198955338527
 30
0.0
  0
VERTEX
  5
130C
330
12F4
100
AcDbEntity
  8
MODEL
100
AcDbVertex
100
AcDb2dVertex
 10
426.9766374977919
 20
958.3763989382628
 30
0.0
  0
VERTEX
  5
130D
330
12F4
100
AcDbEntity
  8
MODEL
100
AcDbVertex
100
AcDb2dVertex
 10
427.39955968653
 20
960.6342799393792
 30
0.0
  0
VERTEX
  5
130E
330
12F4
100
AcDbEntity
  8
MODEL
100
AcDbVertex
100
AcDb2dVertex
 10
427.6819670112584
 20
962.8907833437902
 30
0.0
  0
VERTEX
  5
130F
330
12F4
100
AcDbEntity
  8
MODEL
100
AcDbVertex
100
AcDb2dVertex
 10
427.9636855376323
 20
965.1472867482012
 30
0.0
  0
VERTEX
  5
1310
330
12F4
100
AcDbEntity
  8
MODEL
100
AcDbVertex
100
AcDb2dVertex
 10
428.1048891999965
 20
967.405167749318
 30
0.0
  0
VERTEX
  5
1311
330
12F4
100
AcDbEntity
  8
MODEL
100
AcDbVertex
100
AcDb2dVertex
 10
428.2460928623625
 20
969.661671153729
 30
0.0
  0
VERTEX
  5
1312
330
12F4
100
AcDbEntity
  8
MODEL
100
AcDbVertex
100
AcDb2dVertex
 10
428.2460928623625
 20
972.060067018856
 30
0.0
  0
VERTEX
  5
1313
330
12F4
100
AcDbEntity
  8
MODEL
100
AcDbVertex
100
AcDb2dVertex
 10
428.2460928623625
 20
974.3165704232661
 30
0.0
  0
VERTEX
  5
1314
330
12F4
100
AcDbEntity
  8
MODEL
100
AcDbVertex
100
AcDb2dVertex
 10
427.9636855376323
 20
976.5744514243829
 30
0.0
  0
VERTEX
  5
1315
330
12F4
100
AcDbEntity
  8
MODEL
100
AcDbVertex
100
AcDb2dVertex
 10
427.822481875268
 20
978.9728472895099
 30
0.0
  0
VERTEX
  5
1316
330
12F4
100
AcDbEntity
  8
MODEL
100
AcDbVertex
100
AcDb2dVertex
 10
427.5407633488942
 20
981.22935069392
 30
0.0
  0
VERTEX
  5
1317
330
12F4
100
AcDbEntity
  8
MODEL
100
AcDbVertex
100
AcDb2dVertex
 10
427.1171523618034
 20
983.485854098331
 30
0.0
  0
VERTEX
  5
1318
330
12F4
100
AcDbEntity
  8
MODEL
100
AcDbVertex
100
AcDb2dVertex
 10
426.6942301730635
 20
985.7437350994483
 30
0.0
  0
VERTEX
  5
1319
330
12F4
100
AcDbEntity
  8
MODEL
100
AcDbVertex
100
AcDb2dVertex
 10
426.130104321963
 20
988.0002385038583
 30
0.0
  0
VERTEX
  5
131A
330
12F4
100
AcDbEntity
  8
MODEL
100
AcDbVertex
100
AcDb2dVertex
 10
425.4247748084947
 20
990.1162270442578
 30
0.0
  0
VERTEX
  5
131B
330
12F4
100
AcDbEntity
  8
MODEL
100
AcDbVertex
100
AcDb2dVertex
 10
424.7194452950282
 20
992.3741080453751
 30
0.0
  0
VERTEX
  5
131C
330
12F4
100
AcDbEntity
  8
MODEL
100
AcDbVertex
100
AcDb2dVertex
 10
424.0141157815599
 20
994.4900965857737
 30
0.0
  0
VERTEX
  5
131D
330
12F4
100
AcDbEntity
  8
MODEL
100
AcDbVertex
100
AcDb2dVertex
 10
423.167582605731
 20
996.6060851261741
 30
0.0
  0
VERTEX
  5
131E
330
12F4
100
AcDbEntity
  8
MODEL
100
AcDbVertex
100
AcDb2dVertex
 10
422.1798457675361
 20
998.7220736665727
 30
0.0
  0
VERTEX
  5
131F
330
12F4
100
AcDbEntity
  8
MODEL
100
AcDbVertex
100
AcDb2dVertex
 10
421.1927977276957
 20
1000.838062206973
 30
0.0
  0
VERTEX
  5
1320
330
12F4
100
AcDbEntity
  8
MODEL
100
AcDbVertex
100
AcDb2dVertex
 10
420.0638572271366
 20
1002.812158286655
 30
0.0
  0
VERTEX
  5
1321
330
12F4
100
AcDbEntity
  8
MODEL
100
AcDbVertex
100
AcDb2dVertex
 10
418.935605524932
 20
1004.787631963044
 30
0.0
  0
VERTEX
  5
1322
330
12F4
100
AcDbEntity
  8
MODEL
100
AcDbVertex
100
AcDb2dVertex
 10
417.8073538227256
 20
1006.761728042728
 30
0.0
  0
VERTEX
  5
1323
330
12F4
100
AcDbEntity
  8
MODEL
100
AcDbVertex
100
AcDb2dVertex
 10
416.5372096598041
 20
1008.737201719116
 30
0.0
  0
VERTEX
  5
1324
330
12F4
100
AcDbEntity
  8
MODEL
100
AcDbVertex
100
AcDb2dVertex
 10
415.1265506328711
 20
1010.570782934788
 30
0.0
  0
VERTEX
  5
1325
330
12F4
100
AcDbEntity
  8
MODEL
100
AcDbVertex
100
AcDb2dVertex
 10
413.7158916059381
 20
1012.40436415046
 30
0.0
  0
VERTEX
  5
1326
330
12F4
100
AcDbEntity
  8
MODEL
100
AcDbVertex
100
AcDb2dVertex
 10
412.1647177149937
 20
1014.097430502121
 30
0.0
  0
VERTEX
  5
1327
330
12F4
100
AcDbEntity
  8
MODEL
100
AcDbVertex
100
AcDb2dVertex
 10
410.7540586880607
 20
1015.790496853782
 30
0.0
  0
VERTEX
  5
1328
330
12F4
100
AcDbEntity
  8
MODEL
100
AcDbVertex
100
AcDb2dVertex
 10
409.0609923363993
 20
1017.483563205442
 30
0.0
  0
SEQEND
  5
1329
330
12F4
100
AcDbEntity
  8
MODEL
  0
POLYLINE
  5
132A
330
A
100
AcDbEntity
  8
MODEL
100
AcDb2dPolyline
 66
     1
 10
0.0
 20
0.0
 30
0.0
  0
VERTEX
  5
132B
330
132A
100
AcDbEntity
  8
MODEL
100
AcDbVertex
100
AcDb2dVertex
 10
202.9635707418022
 20
1110.727573847039
 30
0.0
  0
VERTEX
  5
132C
330
132A
100
AcDbEntity
  8
MODEL
100
AcDbVertex
100
AcDb2dVertex
 10
201.2711931884953
 20
1107.765740929162
 30
0.0
  0
VERTEX
  5
132D
330
132A
100
AcDbEntity
  8
MODEL
100
AcDbVertex
100
AcDb2dVertex
 10
199.5781268368321
 20
1104.944422875296
 30
0.0
  0
VERTEX
  5
132E
330
132A
100
AcDbEntity
  8
MODEL
100
AcDbVertex
100
AcDb2dVertex
 10
197.8850604851725
 20
1101.981901159066
 30
0.0
  0
VERTEX
  5
132F
330
132A
100
AcDbEntity
  8
MODEL
100
AcDbVertex
100
AcDb2dVertex
 10
196.333886594228
 20
1098.877486982118
 30
0.0
  0
VERTEX
  5
1330
330
132A
100
AcDbEntity
  8
MODEL
100
AcDbVertex
100
AcDb2dVertex
 10
194.923227567295
 20
1095.915654064241
 30
0.0
  0
VERTEX
  5
1331
330
132A
100
AcDbEntity
  8
MODEL
100
AcDbVertex
100
AcDb2dVertex
 10
193.512568540362
 20
1092.813306282353
 30
0.0
  0
VERTEX
  5
1332
330
132A
100
AcDbEntity
  8
MODEL
100
AcDbVertex
100
AcDb2dVertex
 10
192.2424243774387
 20
1089.708203307053
 30
0.0
  0
VERTEX
  5
1333
330
132A
100
AcDbEntity
  8
MODEL
100
AcDbVertex
100
AcDb2dVertex
 10
190.9729690128699
 20
1086.605855525165
 30
0.0
  0
VERTEX
  5
1334
330
132A
100
AcDbEntity
  8
MODEL
100
AcDbVertex
100
AcDb2dVertex
 10
189.7035136483011
 20
1083.502130146572
 30
0.0
  0
VERTEX
  5
1335
330
132A
100
AcDbEntity
  8
MODEL
100
AcDbVertex
100
AcDb2dVertex
 10
188.5752619460948
 20
1080.257889903966
 30
0.0
  0
VERTEX
  5
1336
330
132A
100
AcDbEntity
  8
MODEL
100
AcDbVertex
100
AcDb2dVertex
 10
187.5875251079017
 20
1077.154164525372
 30
0.0
  0
VERTEX
  5
1337
330
132A
100
AcDbEntity
  8
MODEL
100
AcDbVertex
100
AcDb2dVertex
 10
186.5997882697068
 20
1073.909924282767
 30
0.0
  0
VERTEX
  5
1338
330
132A
100
AcDbEntity
  8
MODEL
100
AcDbVertex
100
AcDb2dVertex
 10
185.7539438922306
 20
1070.665684040161
 30
0.0
  0
VERTEX
  5
1339
330
132A
100
AcDbEntity
  8
MODEL
100
AcDbVertex
100
AcDb2dVertex
 10
184.9074107163981
 20
1067.420066200851
 30
0.0
  0
VERTEX
  5
133A
330
132A
100
AcDbEntity
  8
MODEL
100
AcDbVertex
100
AcDb2dVertex
 10
184.2020812029316
 20
1064.035311094235
 30
0.0
  0
VERTEX
  5
133B
330
132A
100
AcDbEntity
  8
MODEL
100
AcDbVertex
100
AcDb2dVertex
 10
183.6379553518311
 20
1060.791070851629
 30
0.0
  0
VERTEX
  5
133C
330
132A
100
AcDbEntity
  8
MODEL
100
AcDbVertex
100
AcDb2dVertex
 10
183.0731407023743
 20
1057.404938148308
 30
0.0
  0
VERTEX
  5
133D
330
132A
100
AcDbEntity
  8
MODEL
100
AcDbVertex
100
AcDb2dVertex
 10
182.509014851272
 20
1054.160697905704
 30
0.0
  0
VERTEX
  5
133E
330
132A
100
AcDbEntity
  8
MODEL
100
AcDbVertex
100
AcDb2dVertex
 10
182.0860926625321
 20
1050.774565202382
 30
0.0
  0
VERTEX
  5
133F
330
132A
100
AcDbEntity
  8
MODEL
100
AcDbVertex
100
AcDb2dVertex
 10
181.8036853378037
 20
1047.389810095766
 30
0.0
  0
VERTEX
  5
1340
330
132A
100
AcDbEntity
  8
MODEL
100
AcDbVertex
100
AcDb2dVertex
 10
181.5219668114298
 20
1044.003677392443
 30
0.0
  0
VERTEX
  5
1341
330
132A
100
AcDbEntity
  8
MODEL
100
AcDbVertex
100
AcDb2dVertex
 10
181.3807631490674
 20
1040.759437149839
 30
0.0
  0
VERTEX
  5
1342
330
132A
100
AcDbEntity
  8
MODEL
100
AcDbVertex
100
AcDb2dVertex
 10
181.2395594867032
 20
1037.373304446517
 30
0.0
  0
VERTEX
  5
1343
330
132A
100
AcDbEntity
  8
MODEL
100
AcDbVertex
100
AcDb2dVertex
 10
181.2395594867032
 20
1033.988549339901
 30
0.0
  0
VERTEX
  5
1344
330
132A
100
AcDbEntity
  8
MODEL
100
AcDbVertex
100
AcDb2dVertex
 10
181.3807631490674
 20
1030.60241663658
 30
0.0
  0
VERTEX
  5
1345
330
132A
100
AcDbEntity
  8
MODEL
100
AcDbVertex
100
AcDb2dVertex
 10
181.5219668114298
 20
1027.216283933257
 30
0.0
  0
VERTEX
  5
1346
330
132A
100
AcDbEntity
  8
MODEL
100
AcDbVertex
100
AcDb2dVertex
 10
181.8036853378037
 20
1023.831528826642
 30
0.0
  0
VERTEX
  5
1347
330
132A
100
AcDbEntity
  8
MODEL
100
AcDbVertex
100
AcDb2dVertex
 10
182.0860926625321
 20
1020.587288584037
 30
0.0
  0
VERTEX
  5
1348
330
132A
100
AcDbEntity
  8
MODEL
100
AcDbVertex
100
AcDb2dVertex
 10
182.509014851272
 20
1017.201155880715
 30
0.0
  0
VERTEX
  5
1349
330
132A
100
AcDbEntity
  8
MODEL
100
AcDbVertex
100
AcDb2dVertex
 10
182.9326258383628
 20
1013.815023177393
 30
0.0
  0
VERTEX
  5
134A
330
132A
100
AcDbEntity
  8
MODEL
100
AcDbVertex
100
AcDb2dVertex
 10
183.4967516894669
 20
1010.570782934788
 30
0.0
  0
VERTEX
  5
134B
330
132A
100
AcDbEntity
  8
MODEL
100
AcDbVertex
100
AcDb2dVertex
 10
184.2020812029316
 20
1007.186027828172
 30
0.0
  0
VERTEX
  5
134C
330
132A
100
AcDbEntity
  8
MODEL
100
AcDbVertex
100
AcDb2dVertex
 10
184.9074107163981
 20
1003.940409988862
 30
0.0
  0
VERTEX
  5
134D
330
132A
100
AcDbEntity
  8
MODEL
100
AcDbVertex
100
AcDb2dVertex
 10
185.6127402298664
 20
1000.696169746256
 30
0.0
  0
VERTEX
  5
134E
330
132A
100
AcDbEntity
  8
MODEL
100
AcDbVertex
100
AcDb2dVertex
 10
186.4592734056953
 20
997.4519295036512
 30
0.0
  0
VERTEX
  5
134F
330
132A
100
AcDbEntity
  8
MODEL
100
AcDbVertex
100
AcDb2dVertex
 10
187.4463214455375
 20
994.2076892610471
 30
0.0
  0
VERTEX
  5
1350
330
132A
100
AcDbEntity
  8
MODEL
100
AcDbVertex
100
AcDb2dVertex
 10
188.4340582837305
 20
990.9634490184412
 30
0.0
  0
VERTEX
  5
1351
330
132A
100
AcDbEntity
  8
MODEL
100
AcDbVertex
100
AcDb2dVertex
 10
189.5623099859369
 20
987.7178311791308
 30
0.0
  0
VERTEX
  5
1352
330
132A
100
AcDbEntity
  8
MODEL
100
AcDbVertex
100
AcDb2dVertex
 10
190.6912504864961
 20
984.6154833972428
 30
0.0
  0
VERTEX
  5
1353
330
132A
100
AcDbEntity
  8
MODEL
100
AcDbVertex
100
AcDb2dVertex
 10
191.9607058510648
 20
981.5117580186493
 30
0.0
  0
VERTEX
  5
1354
330
132A
100
AcDbEntity
  8
MODEL
100
AcDbVertex
100
AcDb2dVertex
 10
193.3713648779978
 20
978.408032640054
 30
0.0
  0
VERTEX
  5
1355
330
132A
100
AcDbEntity
  8
MODEL
100
AcDbVertex
100
AcDb2dVertex
 10
194.6408202425666
 20
975.30430726146
 30
0.0
  0
VERTEX
  5
1356
330
132A
100
AcDbEntity
  8
MODEL
100
AcDbVertex
100
AcDb2dVertex
 10
196.1926829318638
 20
972.342474343583
 30
0.0
  0
VERTEX
  5
1357
330
132A
100
AcDbEntity
  8
MODEL
100
AcDbVertex
100
AcDb2dVertex
 10
197.744545621161
 20
969.2387489649891
 30
0.0
  0
VERTEX
  5
1358
330
132A
100
AcDbEntity
  8
MODEL
100
AcDbVertex
100
AcDb2dVertex
 10
199.2957195121055
 20
966.4174309111227
 30
0.0
  0
VERTEX
  5
1359
330
132A
100
AcDbEntity
  8
MODEL
100
AcDbVertex
100
AcDb2dVertex
 10
200.9887858637669
 20
963.4555979932461
 30
0.0
  0
VERTEX
  5
135A
330
132A
100
AcDbEntity
  8
MODEL
100
AcDbVertex
100
AcDb2dVertex
 10
202.822367079438
 20
960.4923874786623
 30
0.0
  0
VERTEX
  5
135B
330
132A
100
AcDbEntity
  8
MODEL
100
AcDbVertex
100
AcDb2dVertex
 10
204.5154334310994
 20
957.6710694247963
 30
0.0
  0
VERTEX
  5
135C
330
132A
100
AcDbEntity
  8
MODEL
100
AcDbVertex
100
AcDb2dVertex
 10
206.4902183091346
 20
954.9916438316459
 30
0.0
  0
VERTEX
  5
135D
330
132A
100
AcDbEntity
  8
MODEL
100
AcDbVertex
100
AcDb2dVertex
 10
208.4650031871699
 20
952.1703257777813
 30
0.0
  0
VERTEX
  5
135E
330
132A
100
AcDbEntity
  8
MODEL
100
AcDbVertex
100
AcDb2dVertex
 10
210.4404768635579
 20
949.4895225879259
 30
0.0
  0
VERTEX
  5
135F
330
132A
100
AcDbEntity
  8
MODEL
100
AcDbVertex
100
AcDb2dVertex
 10
212.5564654039574
 20
946.80871939807
 30
0.0
  0
VERTEX
  5
1360
330
132A
100
AcDbEntity
  8
MODEL
100
AcDbVertex
100
AcDb2dVertex
 10
214.6724539443569
 20
944.269808668932
 30
0.0
  0
VERTEX
  5
1361
330
132A
100
AcDbEntity
  8
MODEL
100
AcDbVertex
100
AcDb2dVertex
 10
216.9289573487697
 20
941.730897939794
 30
0.0
  0
VERTEX
  5
1362
330
132A
100
AcDbEntity
  8
MODEL
100
AcDbVertex
100
AcDb2dVertex
 10
219.1861495515316
 20
939.191987210655
 30
0.0
  0
VERTEX
  5
1363
330
132A
100
AcDbEntity
  8
MODEL
100
AcDbVertex
100
AcDb2dVertex
 10
221.4433417542952
 20
936.7935913455281
 30
0.0
  0
VERTEX
  5
1364
330
132A
100
AcDbEntity
  8
MODEL
100
AcDbVertex
100
AcDb2dVertex
 10
223.8417376194231
 20
934.3951954803999
 30
0.0
  0
VERTEX
  5
1365
330
132A
100
AcDbEntity
  8
MODEL
100
AcDbVertex
100
AcDb2dVertex
 10
226.2394446861983
 20
932.138692075989
 30
0.0
  0
VERTEX
  5
1366
330
132A
100
AcDbEntity
  8
MODEL
100
AcDbVertex
100
AcDb2dVertex
 10
228.7790442136904
 20
929.740296210862
 30
0.0
  0
VERTEX
  5
1367
330
132A
100
AcDbEntity
  8
MODEL
100
AcDbVertex
100
AcDb2dVertex
 10
231.3179549428262
 20
927.6243076704629
 30
0.0
  0
VERTEX
  5
1368
330
132A
100
AcDbEntity
  8
MODEL
100
AcDbVertex
100
AcDb2dVertex
 10
233.8568656719656
 20
925.5083191300621
 30
0.0
  0
VERTEX
  5
1369
330
132A
100
AcDbEntity
  8
MODEL
100
AcDbVertex
100
AcDb2dVertex
 10
236.5376688618219
 20
923.3923305896631
 30
0.0
  0
VERTEX
  5
136A
330
132A
100
AcDbEntity
  8
MODEL
100
AcDbVertex
100
AcDb2dVertex
 10
239.2177832533236
 20
921.4168569132739
 30
0.0
  0
VERTEX
  5
136B
330
132A
100
AcDbEntity
  8
MODEL
100
AcDbVertex
100
AcDb2dVertex
 10
242.0391013071914
 20
919.4427608335909
 30
0.0
  0
VERTEX
  5
136C
330
132A
100
AcDbEntity
  8
MODEL
100
AcDbVertex
100
AcDb2dVertex
 10
244.7192156986914
 20
917.467287157202
 30
0.0
  0
VERTEX
  5
136D
330
132A
100
AcDbEntity
  8
MODEL
100
AcDbVertex
100
AcDb2dVertex
 10
247.6817374149216
 20
915.774220805542
 30
0.0
  0
VERTEX
  5
136E
330
132A
100
AcDbEntity
  8
MODEL
100
AcDbVertex
100
AcDb2dVertex
 10
250.5030554687894
 20
913.94063958987
 30
0.0
  0
VERTEX
  5
136F
330
132A
100
AcDbEntity
  8
MODEL
100
AcDbVertex
100
AcDb2dVertex
 10
253.4655771850177
 20
912.247573238209
 30
0.0
  0
VERTEX
  5
1370
330
132A
100
AcDbEntity
  8
MODEL
100
AcDbVertex
100
AcDb2dVertex
 10
256.4274101028971
 20
910.696399347265
 30
0.0
  0
VERTEX
  5
1371
330
132A
100
AcDbEntity
  8
MODEL
100
AcDbVertex
100
AcDb2dVertex
 10
259.3899318191254
 20
909.145225456321
 30
0.0
  0
VERTEX
  5
1372
330
132A
100
AcDbEntity
  8
MODEL
100
AcDbVertex
100
AcDb2dVertex
 10
262.3524535353556
 20
907.5926739686711
 30
0.0
  0
VERTEX
  5
1373
330
132A
100
AcDbEntity
  8
MODEL
100
AcDbVertex
100
AcDb2dVertex
 10
265.45617891395
 20
906.323907402455
 30
0.0
  0
VERTEX
  5
1374
330
132A
100
AcDbEntity
  8
MODEL
100
AcDbVertex
100
AcDb2dVertex
 10
268.5592154941917
 20
904.913248375522
 30
0.0
  0
VERTEX
  5
1375
330
132A
100
AcDbEntity
  8
MODEL
100
AcDbVertex
100
AcDb2dVertex
 10
271.662940872786
 20
903.6431042125989
 30
0.0
  0
VERTEX
  5
1376
330
132A
100
AcDbEntity
  8
MODEL
100
AcDbVertex
100
AcDb2dVertex
 10
274.7659774530259
 20
902.514852510395
 30
0.0
  0
VERTEX
  5
1377
330
132A
100
AcDbEntity
  8
MODEL
100
AcDbVertex
100
AcDb2dVertex
 10
278.0109064939845
 20
901.3866008081891
 30
0.0
  0
VERTEX
  5
1378
330
132A
100
AcDbEntity
  8
MODEL
100
AcDbVertex
100
AcDb2dVertex
 10
281.2551467365886
 20
900.3988639699951
 30
0.0
  0
VERTEX
  5
1379
330
132A
100
AcDbEntity
  8
MODEL
100
AcDbVertex
100
AcDb2dVertex
 10
284.5000757775472
 20
899.4111271318
 30
0.0
  0
VERTEX
  5
137A
330
132A
100
AcDbEntity
  8
MODEL
100
AcDbVertex
100
AcDb2dVertex
 10
287.7443160201512
 20
898.5652827543229
 30
0.0
  0
VERTEX
  5
137B
330
132A
100
AcDbEntity
  8
MODEL
100
AcDbVertex
100
AcDb2dVertex
 10
290.9885562627571
 20
897.718060780139
 30
0.0
  0
VERTEX
  5
137C
330
132A
100
AcDbEntity
  8
MODEL
100
AcDbVertex
100
AcDb2dVertex
 10
294.2334853037139
 20
897.0127312666721
 30
0.0
  0
VERTEX
  5
137D
330
132A
100
AcDbEntity
  8
MODEL
100
AcDbVertex
100
AcDb2dVertex
 10
297.618929208684
 20
896.4492942139241
 30
0.0
  0
VERTEX
  5
137E
330
132A
100
AcDbEntity
  8
MODEL
100
AcDbVertex
100
AcDb2dVertex
 10
300.863169451288
 20
895.884479564467
 30
0.0
  0
VERTEX
  5
137F
330
132A
100
AcDbEntity
  8
MODEL
100
AcDbVertex
100
AcDb2dVertex
 10
304.2493021546108
 20
895.461557375729
 30
0.0
  0
VERTEX
  5
1380
330
132A
100
AcDbEntity
  8
MODEL
100
AcDbVertex
100
AcDb2dVertex
 10
307.6347460595791
 20
895.03863518699
 30
0.0
  0
VERTEX
  5
1381
330
132A
100
AcDbEntity
  8
MODEL
100
AcDbVertex
100
AcDb2dVertex
 10
310.878986302185
 20
894.756227862262
 30
0.0
  0
VERTEX
  5
1382
330
132A
100
AcDbEntity
  8
MODEL
100
AcDbVertex
100
AcDb2dVertex
 10
314.2644302071533
 20
894.473820537535
 30
0.0
  0
VERTEX
  5
1383
330
132A
100
AcDbEntity
  8
MODEL
100
AcDbVertex
100
AcDb2dVertex
 10
317.6505629104761
 20
894.333305673523
 30
0.0
  0
VERTEX
  5
1384
330
132A
100
AcDbEntity
  8
MODEL
100
AcDbVertex
100
AcDb2dVertex
 10
321.0360068154443
 20
894.191413212807
 30
0.0
  0
VERTEX
  5
1385
330
132A
100
AcDbEntity
  8
MODEL
100
AcDbVertex
100
AcDb2dVertex
 10
324.4214507204144
 20
894.191413212807
 30
0.0
  0
VERTEX
  5
1386
330
132A
100
AcDbEntity
  8
MODEL
100
AcDbVertex
100
AcDb2dVertex
 10
327.8068946253827
 20
894.333305673523
 30
0.0
  0
VERTEX
  5
1387
330
132A
100
AcDbEntity
  8
MODEL
100
AcDbVertex
100
AcDb2dVertex
 10
331.0518236663413
 20
894.473820537535
 30
0.0
  0
VERTEX
  5
1388
330
132A
100
AcDbEntity
  8
MODEL
100
AcDbVertex
100
AcDb2dVertex
 10
334.4372675713096
 20
894.756227862262
 30
0.0
  0
VERTEX
  5
1389
330
132A
100
AcDbEntity
  8
MODEL
100
AcDbVertex
100
AcDb2dVertex
 10
337.8227114762778
 20
895.03863518699
 30
0.0
  0
VERTEX
  5
138A
330
132A
100
AcDbEntity
  8
MODEL
100
AcDbVertex
100
AcDb2dVertex
 10
341.2081553812461
 20
895.461557375729
 30
0.0
  0
VERTEX
  5
138B
330
132A
100
AcDbEntity
  8
MODEL
100
AcDbVertex
100
AcDb2dVertex
 10
344.4530844222047
 20
896.0249944284769
 30
0.0
  0
VERTEX
  5
138C
330
132A
100
AcDbEntity
  8
MODEL
100
AcDbVertex
100
AcDb2dVertex
 10
347.8385283271748
 20
896.589809077934
 30
0.0
  0
VERTEX
  5
138D
330
132A
100
AcDbEntity
  8
MODEL
100
AcDbVertex
100
AcDb2dVertex
 10
351.0827685697788
 20
897.154623727389
 30
0.0
  0
VERTEX
  5
138E
330
132A
100
AcDbEntity
  8
MODEL
100
AcDbVertex
100
AcDb2dVertex
 10
354.4682124747471
 20
897.8599532408559
 30
0.0
  0
VERTEX
  5
138F
330
132A
100
AcDbEntity
  8
MODEL
100
AcDbVertex
100
AcDb2dVertex
 10
357.7131415157057
 20
898.7057976183339
 30
0.0
  0
VERTEX
  5
1390
330
132A
100
AcDbEntity
  8
MODEL
100
AcDbVertex
100
AcDb2dVertex
 10
360.9573817583098
 20
899.551641995811
 30
0.0
  0
VERTEX
  5
1391
330
132A
100
AcDbEntity
  8
MODEL
100
AcDbVertex
100
AcDb2dVertex
 10
364.2023107992684
 20
900.5393788340059
 30
0.0
  0
VERTEX
  5
1392
330
132A
100
AcDbEntity
  8
MODEL
100
AcDbVertex
100
AcDb2dVertex
 10
367.3053473795082
 20
901.5271156721999
 30
0.0
  0
VERTEX
  5
1393
330
132A
100
AcDbEntity
  8
MODEL
100
AcDbVertex
100
AcDb2dVertex
 10
370.5502764204668
 20
902.6553673744049
 30
0.0
  0
VERTEX
  5
1394
330
132A
100
AcDbEntity
  8
MODEL
100
AcDbVertex
100
AcDb2dVertex
 10
373.6533130007085
 20
903.9255115373269
 30
0.0
  0
VERTEX
  5
1395
330
132A
100
AcDbEntity
  8
MODEL
100
AcDbVertex
100
AcDb2dVertex
 10
376.7570383793011
 20
905.053763239533
 30
0.0
  0
VERTEX
  5
1396
330
132A
100
AcDbEntity
  8
MODEL
100
AcDbVertex
100
AcDb2dVertex
 10
379.8600749595446
 20
906.464422266466
 30
0.0
  0
VERTEX
  5
1397
330
132A
100
AcDbEntity
  8
MODEL
100
AcDbVertex
100
AcDb2dVertex
 10
382.9638003381371
 20
907.8750812933979
 30
0.0
  0
VERTEX
  5
1398
330
132A
100
AcDbEntity
  8
MODEL
100
AcDbVertex
100
AcDb2dVertex
 10
386.0675257167315
 20
909.285740320332
 30
0.0
  0
VERTEX
  5
1399
330
132A
100
AcDbEntity
  8
MODEL
100
AcDbVertex
100
AcDb2dVertex
 10
389.0293586346072
 20
910.836914211277
 30
0.0
  0
VERTEX
  5
139A
330
132A
100
AcDbEntity
  8
MODEL
100
AcDbVertex
100
AcDb2dVertex
 10
391.9918803508392
 20
912.529980562937
 30
0.0
  0
VERTEX
  5
139B
330
132A
100
AcDbEntity
  8
MODEL
100
AcDbVertex
100
AcDb2dVertex
 10
394.8131984047052
 20
914.223046914598
 30
0.0
  0
VERTEX
  5
139C
330
132A
100
AcDbEntity
  8
MODEL
100
AcDbVertex
100
AcDb2dVertex
 10
397.7757201209354
 20
915.9161132662589
 30
0.0
  0
SEQEND
  5
139D
330
132A
100
AcDbEntity
  8
MODEL
  0
MTEXT
  5
139E
330
A
100
AcDbEntity
  8
DIM
390
1D
100
AcDbMText
 10
684.654762883931
 20
1297.117394739713
 30
0.0
 40
12.0
 41
0.0
 46
0.0
 71
     1
 72
     1
  1
カウンター切込寸法
  7
ＭＳ ゴシック
 73
     1
 44
0.7828267384257843
  0
LINE
  5
139F
330
A
100
AcDbEntity
  8
DIM
  6
Continuous
100
AcDbLine
 10
401.7172379529567
 20
1110.637050009709
 30
0.0
 11
491.6708466427433
 21
1205.389900657241
 31
0.0
  0
DIMENSION
  5
13A1
330
A
100
AcDbEntity
  8
DIM
  6
Continuous
100
AcDbDimension
  2
*D6
 10
441.4652327835065
 20
1261.143747209528
 30
0.0
 11
306.4652327835066
 21
1277.143747209528
 31
0.0
 70
    32
 71
     5
 42
269.9999999999998
 73
     0
 74
     0
 75
     0
  3
tfrom線あり
100
AcDbAlignedDimension
 13
171.4652327835067
 23
1157.504212875574
 33
0.0
 14
441.4652327835065
 24
1173.625561984387
 34
0.0
100
AcDbRotatedDimension
  0
MTEXT
  5
13A2
330
A
100
AcDbEntity
  8
MODEL
390
1D
100
AcDbMText
 10
493.5588443452098
 20
1221.693897785324
 30
0.0
 40
12.0
 41
829.0626663944752
 46
27.888
 71
     1
 72
     1
  1
{\C7;φ35}
  7
ＭＳ ゴシック
 73
     1
 44
0.9822934569727008
1001
ACAD
1000
ACAD_MTEXT_DEFINED_HEIGHT_BEGIN
1070
    46
1040
27.888
1000
ACAD_MTEXT_DEFINED_HEIGHT_END
  0
DIMENSION
  5
13A3
330
A
100
AcDbEntity
  8
DIM
  6
Continuous
100
AcDbDimension
  2
*D7
 10
514.326819072342
 20
882.309063794914
 30
0.0
 11
514.326819072342
 21
1017.309063794914
 31
0.0
 70
   160
 71
     5
 42
270.0
 73
     0
 74
     0
 75
     0
  3
tfrom線あり
100
AcDbAlignedDimension
 13
442.8322366972088
 23
1152.309063794914
 33
0.0
 14
444.8322366972088
 24
882.309063794914
 34
0.0
 50
90.0
100
AcDbRotatedDimension
  0
DIMENSION
  5
13A6
330
A
100
AcDbEntity
  8
DIM
  6
Continuous
100
AcDbDimension
  2
*D8
 10
127.4423252495785
 20
1017.309063794914
 30
0.0
 11
127.4423252495785
 21
1084.809063794914
 31
0.0
 70
   160
 71
     5
 42
135.0
 73
     0
 74
     0
 75
     0
  3
tfrom線あり
100
AcDbAlignedDimension
 13
165.2825871457883
 23
1152.309063794914
 33
0.0
 14
279.9652327835065
 24
1017.309063794914
 34
0.0
 50
90.0
100
AcDbRotatedDimension
  0
DIMENSION
  5
13AA
330
A
100
AcDbEntity
  8
DIM
  6
Continuous
100
AcDbDimension
  2
*D9
 10
597.6110866481503
 20
440.9274006646666
 30
0.0
 11
597.6110866481503
 21
490.9274006646666
 31
0.0
 70
   160
 71
     5
 42
100.0000000000002
 73
     0
 74
     0
 75
     0
  3
tfrom線あり
100
AcDbAlignedDimension
 13
637.0993841668773
 23
540.9274006646668
 33
0.0
 14
637.0993841668773
 24
440.9274006646666
 34
0.0
 50
90.0
100
AcDbRotatedDimension
  0
DIMENSION
  5
13AB
330
A
100
AcDbEntity
  8
DIM
  6
Continuous
100
AcDbDimension
  2
*D10
 10
770.4599925554357
 20
376.1235793175201
 30
0.0
 11
837.9599925554357
 21
392.1235793175201
 31
0.0
 70
    32
 71
     5
 42
135.0
 73
     0
 74
     0
 75
     0
  3
tfrom線あり
100
AcDbAlignedDimension
 13
905.4599925554357
 23
444.7338561987417
 33
0.0
 14
770.4599925554357
 24
422.6889914202237
 34
0.0
100
AcDbRotatedDimension
  0
DIMENSION
  5
13AE
330
A
100
AcDbEntity
  8
DIM
  6
Continuous
100
AcDbDimension
  2
*D11
 10
306.4652327835065
 20
323.4177634560378
 30
0.0
 11
373.9652327835065
 21
323.4177634560378
 31
0.0
 70
   160
 71
     5
 42
135.0
 73
     0
 74
     0
 75
     0
  3
tfrom線あり
100
AcDbAlignedDimension
 13
441.4652327835065
 23
443.5661869582901
 33
0.0
 14
306.4652327835065
 24
360.8001179648759
 34
0.0
100
AcDbRotatedDimension
  0
DIMENSION
  5
13B1
330
A
100
AcDbEntity
  8
DIM
  6
Continuous
100
AcDbDimension
  2
*D12
 10
815.4599925554357
 20
578.9855379694219
 30
0.0
 11
860.4599925554357
 21
594.9855379694219
 31
0.0
 70
    32
 71
     5
 42
90.0
 73
     0
 74
     0
 75
     0
  3
tfrom線あり
100
AcDbAlignedDimension
 13
905.4599925554357
 23
535.9274006646668
 33
0.0
 14
815.4599925554357
 24
526.6314503417493
 34
0.0
100
AcDbRotatedDimension
  0
LINE
  5
13B5
330
A
100
AcDbEntity
  8
HIDDEN
  6
HIDDEN
 48
0.025
100
AcDbLine
 10
807.9599925554357
 20
510.4274006646668
 30
0.0
 11
822.9599925554357
 21
510.4274006646668
 31
0.0
  0
ARC
  5
13B6
330
A
100
AcDbEntity
  8
HIDDEN
  6
HIDDEN
 48
0.025
100
AcDbCircle
 10
807.9599925554357
 20
502.9274006646668
 30
0.0
 40
7.5
100
AcDbArc
 50
90.0
 51
270.0
  0
LINE
  5
13B7
330
A
100
AcDbEntity
  8
HIDDEN
  6
HIDDEN
 48
0.025
100
AcDbLine
 10
822.9599925554357
 20
495.4274006646668
 30
0.0
 11
807.9599925554357
 21
495.4274006646668
 31
0.0
  0
ARC
  5
13B8
330
A
100
AcDbEntity
  8
HIDDEN
  6
HIDDEN
 48
0.025
100
AcDbCircle
 10
822.9599925554357
 20
502.9274006646668
 30
0.0
 40
7.5
100
AcDbArc
 50
270.0
 51
90.0
  0
ARC
  5
13B9
330
A
100
AcDbEntity
  8
HIDDEN
  6
HIDDEN
 48
0.025
100
AcDbCircle
 10
351.4652327835065
 20
495.4274006646668
 30
0.0
 40
7.5
100
AcDbArc
 50
180.0
 51
0.0
  0
ARC
  5
13BA
330
A
100
AcDbEntity
  8
HIDDEN
  6
HIDDEN
 48
0.025
100
AcDbCircle
 10
351.4652327835065
 20
510.4274006646668
 30
0.0
 40
7.5
100
AcDbArc
 50
0.0
 51
180.0
  0
LINE
  5
13BB
330
A
100
AcDbEntity
  8
HIDDEN
  6
HIDDEN
 48
0.025
100
AcDbLine
 10
358.9652327835065
 20
510.4274006646668
 30
0.0
 11
358.9652327835065
 21
495.4274006646668
 31
0.0
  0
LINE
  5
13BC
330
A
100
AcDbEntity
  8
HIDDEN
  6
HIDDEN
 48
0.025
100
AcDbLine
 10
343.9652327835065
 20
495.4274006646668
 30
0.0
 11
343.9652327835065
 21
510.4274006646668
 31
0.0
  0
DIMENSION
  5
13BE
330
A
100
AcDbEntity
  8
DIM
  6
Continuous
100
AcDbDimension
  2
*D13
 10
351.4652327835065
 20
578.9855379694219
 30
0.0
 11
396.4652327835065
 21
594.9855379694219
 31
0.0
 70
    32
 71
     5
 42
90.0
 73
     0
 74
     0
 75
     0
  3
tfrom線あり
100
AcDbAlignedDimension
 13
441.4652327835065
 23
535.9274006646668
 33
0.0
 14
351.4652327835065
 24
526.6314503417493
 34
0.0
100
AcDbRotatedDimension
  0
LINE
  5
13C0
330
A
100
AcDbEntity
  8
DIM
  6
Continuous
100
AcDbLine
 10
253.0231130354968
 20
617.6651607845546
 30
0.0
 11
346.3002604244408
 21
515.8655125180666
 31
0.0
  0
MTEXT
  5
13C1
330
A
100
AcDbEntity
  8
DIM
390
1D
100
AcDbMText
 10
665.256349173382
 20
683.8627328138526
 30
0.0
 40
12.0
 41
542.920144539582
 46
13.344
 71
     1
 72
     1
  1
{\C7;壁取付ボルト位置}
  7
ＭＳ ゴシック
 73
     1
 44
0.9822934569727008
1001
ACAD
1000
ACAD_MTEXT_DEFINED_HEIGHT_BEGIN
1070
    46
1040
13.344
1000
ACAD_MTEXT_DEFINED_HEIGHT_END
  0
LINE
  5
13C3
330
A
100
AcDbEntity
  8
DIM
  6
Continuous
100
AcDbLine
 10
788.6623829539749
 20
664.2218042341609
 30
0.0
 11
803.8712288076044
 21
509.214849353477
 31
0.0
  0
LINE
  5
13C4
330
A
100
AcDbEntity
  8
HIDDEN
  6
HIDDEN
 48
0.05
100
AcDbLine
 10
597.0799399736579
 20
1152.309063794914
 30
0.0
 11
857.0799399736579
 21
1152.309063794914
 31
0.0
  0
LINE
  5
13C5
330
A
100
AcDbEntity
  8
HIDDEN
  6
HIDDEN
 48
0.05
100
AcDbLine
 10
862.0799399736579
 20
1147.309063794914
 30
0.0
 11
862.0799399736579
 21
887.309063794914
 31
0.0
  0
LINE
  5
13C6
330
A
100
AcDbEntity
  8
HIDDEN
  6
HIDDEN
 48
0.05
100
AcDbLine
 10
592.0799399736579
 20
887.309063794914
 30
0.0
 11
592.0799399736579
 21
1147.309063794914
 31
0.0
  0
LINE
  5
13C7
330
A
100
AcDbEntity
  8
HIDDEN
  6
HIDDEN
 48
0.05
100
AcDbLine
 10
857.0799399736579
 20
882.309063794914
 30
0.0
 11
597.0799399736579
 21
882.309063794914
 31
0.0
  0
SPLINE
  5
13C8
330
A
100
AcDbEntity
  8
HIDDEN
  6
HIDDEN
 48
0.05
100
AcDbSpline
210
0.0
220
0.0
230
1.0
 70
    24
 71
     3
 72
    17
 73
    13
 74
     0
 42
0.000000001
 43
0.00000001
 40
0.0
 40
0.0
 40
0.0
 40
0.0
 40
0.1087529157332557
 40
0.2139847941175915
 40
0.3162192408300512
 40
0.4160270475357674
 40
0.5140214187144804
 40
0.6108500178188075
 40
0.7071840239889953
 40
0.8037049346953508
 40
0.9010903236449928
 40
1.0
 40
1.0
 40
1.0
 40
1.0
 10
857.0799399736579
 20
1152.309063794914
 30
0.0
 10
857.1374845390319
 20
1152.309063794914
 30
0.0
 10
857.2507105789173
 20
1152.309063794914
 30
0.0
 10
857.4173002680491
 20
1152.309063794914
 30
0.0
 10
857.5775822843798
 20
1152.309063794914
 30
0.0
 10
857.7315451089898
 20
1152.309063794914
 30
0.0
 10
857.879175294152
 20
1152.309063794914
 30
0.0
 10
858.0204372734161
 20
1152.309063794914
 30
0.0
 10
858.155363054263
 20
1152.309063794914
 30
0.0
 10
858.2837288934797
 20
1152.309063794914
 30
0.0
 10
858.4062836251742
 20
1152.309063794914
 30
0.0
 10
858.4814199246812
 20
1152.309063794914
 30
0.0
 10
858.519279801877
 20
1152.309063794914
 30
0.0
  0
SPLINE
  5
13C9
330
A
100
AcDbEntity
  8
HIDDEN
  6
HIDDEN
 48
0.05
100
AcDbSpline
210
0.0
220
0.0
230
1.0
 70
    24
 71
     3
 72
    18
 73
    14
 74
     0
 42
0.000000001
 43
0.00000001
 40
0.0
 40
0.0
 40
0.0
 40
0.0
 40
0.0899907167152112
 40
0.1786730807626781
 40
0.2665403601173438
 40
0.3540995992606624
 40
0.4418631818421942
 40
0.5303399414220159
 40
0.6200265738371616
 40
0.7114000468597623
 40
0.8049115199551877
 40
0.9009820363416111
 40
1.0
 40
1.0
 40
1.0
 40
1.0
 10
595.6406001454361
 20
1152.309063794914
 30
0.0
 10
595.674977744538
 20
1152.309063794914
 30
0.0
 10
595.7432331353721
 20
1152.309063794914
 30
0.0
 10
595.8537556414612
 20
1152.309063794914
 30
0.0
 10
595.9690716644809
 20
1152.309063794914
 30
0.0
 10
596.0898054487461
 20
1152.309063794914
 30
0.0
 10
596.2157769183877
 20
1152.309063794914
 30
0.0
 10
596.3470172197167
 20
1152.309063794914
 30
0.0
 10
596.4835005586151
 20
1152.309063794914
 30
0.0
 10
596.6252181294267
 20
1152.309063794914
 30
0.0
 10
596.7721591217542
 20
1152.309063794914
 30
0.0
 10
596.9243181253642
 20
1152.309063794914
 30
0.0
 10
597.027546158939
 20
1152.309063794914
 30
0.0
 10
597.0799399736579
 20
1152.309063794914
 30
0.0
  0
SPLINE
  5
13CA
330
A
100
AcDbEntity
  8
HIDDEN
  6
HIDDEN
 48
0.05
100
AcDbSpline
210
0.0
220
0.0
230
1.0
 70
    24
 71
     3
 72
    18
 73
    14
 74
     0
 42
0.000000001
 43
0.00000001
 40
0.0
 40
0.0
 40
0.0
 40
0.0
 40
0.0899907167152112
 40
0.1786730807626781
 40
0.2665403601173438
 40
0.3540995992606624
 40
0.4418631818421942
 40
0.5303399414220159
 40
0.6200265738371616
 40
0.7114000468597623
 40
0.8049115199551877
 40
0.9009820363416111
 40
1.0
 40
1.0
 40
1.0
 40
1.0
 10
862.0799399736579
 20
1148.748403623136
 30
0.0
 10
862.0799399736579
 20
1148.714026024031
 30
0.0
 10
862.0799399736579
 20
1148.645770633197
 30
0.0
 10
862.0799399736579
 20
1148.535248127108
 30
0.0
 10
862.0799399736579
 20
1148.419932104087
 30
0.0
 10
862.0799399736579
 20
1148.299198319826
 30
0.0
 10
862.0799399736579
 20
1148.173226850184
 30
0.0
 10
862.0799399736579
 20
1148.041986548855
 30
0.0
 10
862.0799399736579
 20
1147.905503209952
 30
0.0
 10
862.0799399736579
 20
1147.763785639145
 30
0.0
 10
862.0799399736579
 20
1147.616844646818
 30
0.0
 10
862.0799399736579
 20
1147.464685643208
 30
0.0
 10
862.0799399736579
 20
1147.36145760963
 30
0.0
 10
862.0799399736579
 20
1147.309063794914
 30
0.0
  0
SPLINE
  5
13CB
330
A
100
AcDbEntity
  8
HIDDEN
  6
HIDDEN
 48
0.05
100
AcDbSpline
210
0.0
220
0.0
230
1.0
 70
    24
 71
     3
 72
    17
 73
    13
 74
     0
 42
0.000000001
 43
0.00000001
 40
0.0
 40
0.0
 40
0.0
 40
0.0
 40
0.1087529157332586
 40
0.2139847941175971
 40
0.3162192408300594
 40
0.4160270475357952
 40
0.5140214187144941
 40
0.6108500178188239
 40
0.7071840239890141
 40
0.8037049346953722
 40
0.9010903236450029
 40
1.0
 40
1.0
 40
1.0
 40
1.0
 10
592.0799399736579
 20
1147.309063794914
 30
0.0
 10
592.0799399736579
 20
1147.366608360288
 30
0.0
 10
592.0799399736579
 20
1147.479834400172
 30
0.0
 10
592.0799399736579
 20
1147.646424089299
 30
0.0
 10
592.0799399736579
 20
1147.806706105639
 30
0.0
 10
592.0799399736579
 20
1147.960668930246
 30
0.0
 10
592.0799399736579
 20
1148.108299115411
 30
0.0
 10
592.0799399736579
 20
1148.249561094672
 30
0.0
 10
592.0799399736579
 20
1148.384486875519
 30
0.0
 10
592.0799399736579
 20
1148.512852714739
 30
0.0
 10
592.0799399736579
 20
1148.635407446429
 30
0.0
 10
592.0799399736579
 20
1148.710543745936
 30
0.0
 10
592.0799399736579
 20
1148.748403623136
 30
0.0
  0
SPLINE
  5
13CC
330
A
100
AcDbEntity
  8
HIDDEN
  6
HIDDEN
 48
0.05
100
AcDbSpline
210
0.0
220
0.0
230
1.0
 70
    24
 71
     3
 72
    18
 73
    14
 74
     0
 42
0.000000001
 43
0.00000001
 40
0.0
 40
0.0
 40
0.0
 40
0.0
 40
0.0899907167152219
 40
0.1786730807627138
 40
0.266540360117363
 40
0.3540995992606945
 40
0.4418631818421926
 40
0.5303399414220284
 40
0.6200265738371886
 40
0.7114000468598041
 40
0.8049115199551927
 40
0.9009820363416311
 40
1.0
 40
1.0
 40
1.0
 40
1.0
 10
592.0799399736579
 20
885.869723966691
 30
0.0
 10
592.0799399736579
 20
885.904101565797
 30
0.0
 10
592.0799399736579
 20
885.9723569566311
 30
0.0
 10
592.0799399736579
 20
886.08287946272
 30
0.0
 10
592.0799399736579
 20
886.1981954857399
 30
0.0
 10
592.0799399736579
 20
886.3189292700049
 30
0.0
 10
592.0799399736579
 20
886.444900739647
 30
0.0
 10
592.0799399736579
 20
886.5761410409721
 30
0.0
 10
592.0799399736579
 20
886.7126243798739
 30
0.0
 10
592.0799399736579
 20
886.854341950682
 30
0.0
 10
592.0799399736579
 20
887.0012829430091
 30
0.0
 10
592.0799399736579
 20
887.1534419466191
 30
0.0
 10
592.0799399736579
 20
887.256669980198
 30
0.0
 10
592.0799399736579
 20
887.309063794914
 30
0.0
  0
SPLINE
  5
13CD
330
A
100
AcDbEntity
  8
HIDDEN
  6
HIDDEN
 48
0.05
100
AcDbSpline
210
0.0
220
0.0
230
1.0
 70
    24
 71
     3
 72
    18
 73
    14
 74
     0
 42
0.000000001
 43
0.00000001
 40
0.0
 40
0.0
 40
0.0
 40
0.0
 40
0.0899907167152206
 40
0.1786730807626568
 40
0.2665403601173675
 40
0.3540995992606719
 40
0.4418631818421966
 40
0.5303399414220343
 40
0.6200265738371934
 40
0.7114000468597734
 40
0.8049115199551953
 40
0.9009820363416324
 40
1.0
 40
1.0
 40
1.0
 40
1.0
 10
858.519279801877
 20
882.309063794914
 30
0.0
 10
858.484902202772
 20
882.309063794914
 30
0.0
 10
858.4166468119383
 20
882.309063794914
 30
0.0
 10
858.3061243058519
 20
882.309063794914
 30
0.0
 10
858.1908082828322
 20
882.309063794914
 30
0.0
 10
858.070074498567
 20
882.309063794914
 30
0.0
 10
857.9441030289249
 20
882.309063794914
 30
0.0
 10
857.812862727596
 20
882.309063794914
 30
0.0
 10
857.6763793886939
 20
882.309063794914
 30
0.0
 10
857.534661817886
 20
882.309063794914
 30
0.0
 10
857.387720825559
 20
882.309063794914
 30
0.0
 10
857.2355618219531
 20
882.309063794914
 30
0.0
 10
857.132333788375
 20
882.309063794914
 30
0.0
 10
857.0799399736579
 20
882.309063794914
 30
0.0
  0
SPLINE
  5
13CE
330
A
100
AcDbEntity
  8
HIDDEN
  6
HIDDEN
 48
0.05
100
AcDbSpline
210
0.0
220
0.0
230
1.0
 70
    24
 71
     3
 72
    17
 73
    13
 74
     0
 42
0.000000001
 43
0.00000001
 40
0.0
 40
0.0
 40
0.0
 40
0.0
 40
0.1087529157332557
 40
0.2139847941175915
 40
0.3162192408300512
 40
0.4160270475357674
 40
0.5140214187144804
 40
0.6108500178188075
 40
0.7071840239889953
 40
0.8037049346953508
 40
0.9010903236449928
 40
1.0
 40
1.0
 40
1.0
 40
1.0
 10
862.0799399736579
 20
887.309063794914
 30
0.0
 10
862.0799399736579
 20
887.25151922954
 30
0.0
 10
862.0799399736579
 20
887.1382931896551
 30
0.0
 10
862.0799399736579
 20
886.9717035005269
 30
0.0
 10
862.0799399736579
 20
886.811421484188
 30
0.0
 10
862.0799399736579
 20
886.6574586595821
 30
0.0
 10
862.0799399736579
 20
886.509828474416
 30
0.0
 10
862.0799399736579
 20
886.3685664951561
 30
0.0
 10
862.0799399736579
 20
886.2336407143089
 30
0.0
 10
862.0799399736579
 20
886.1052748750881
 30
0.0
 10
862.0799399736579
 20
885.982720143398
 30
0.0
 10
862.0799399736579
 20
885.907583843891
 30
0.0
 10
862.0799399736579
 20
885.869723966691
 30
0.0
  0
SPLINE
  5
13CF
330
A
100
AcDbEntity
  8
HIDDEN
  6
HIDDEN
 48
0.05
100
AcDbSpline
210
0.0
220
0.0
230
1.0
 70
    24
 71
     3
 72
    17
 73
    13
 74
     0
 42
0.000000001
 43
0.00000001
 40
0.0
 40
0.0
 40
0.0
 40
0.0
 40
0.1087529157332381
 40
0.2139847941175738
 40
0.3162192408300506
 40
0.4160270475357837
 40
0.51402141871448
 40
0.6108500178188071
 40
0.7071840239889947
 40
0.8037049346953647
 40
0.9010903236449929
 40
1.0
 40
1.0
 40
1.0
 40
1.0
 10
597.0799399736579
 20
882.309063794914
 30
0.0
 10
597.0223954082812
 20
882.309063794914
 30
0.0
 10
596.9091693683959
 20
882.309063794914
 30
0.0
 10
596.742579679264
 20
882.309063794914
 30
0.0
 10
596.5822976629333
 20
882.309063794914
 30
0.0
 10
596.428334838326
 20
882.309063794914
 30
0.0
 10
596.2807046531611
 20
882.309063794914
 30
0.0
 10
596.1394426738998
 20
882.309063794914
 30
0.0
 10
596.0045168930501
 20
882.309063794914
 30
0.0
 10
595.8761510538329
 20
882.309063794914
 30
0.0
 10
595.753596322139
 20
882.309063794914
 30
0.0
 10
595.678460022632
 20
882.309063794914
 30
0.0
 10
595.6406001454361
 20
882.309063794914
 30
0.0
  0
CIRCLE
  5
13D0
330
A
100
AcDbEntity
  8
HIDDEN
  6
HIDDEN
 48
0.05
370
     0
100
AcDbCircle
 10
809.0799399736579
 20
1099.30906379491
 30
0.0
 40
17.5
  0
SPLINE
  5
13D1
330
A
100
AcDbEntity
  8
HIDDEN
  6
HIDDEN
 48
0.05
100
AcDbSpline
210
0.0
220
0.0
230
1.0
 70
     8
 71
     3
 72
    14
 73
    10
 74
     0
 42
0.000000001
 43
0.00000001
 40
0.0
 40
0.0
 40
0.0
 40
0.0
 40
0.25
 40
0.25
 40
0.5
 40
0.5
 40
0.75
 40
0.75
 40
1.0
 40
1.0
 40
1.0
 40
1.0
 10
592.0799399736579
 20
1149.30906379491
 30
0.0
 10
592.0799399736579
 20
1149.701762876612
 30
0.0
 10
592.1580219436519
 20
1150.094307447991
 30
0.0
 10
592.4585808085949
 20
1150.819920736027
 30
0.0
 10
592.6809394464631
 20
1151.152703954838
 30
0.0
 10
593.23629981373
 20
1151.708064322109
 30
0.0
 10
593.5690830325448
 20
1151.930422959977
 30
0.0
 10
594.2946963205814
 20
1152.230981824916
 30
0.0
 10
594.6872408919598
 20
1152.309063794914
 30
0.0
 10
595.0799399736552
 20
1152.309063794914
 30
0.0
  0
SPLINE
  5
13D2
330
A
100
AcDbEntity
  8
HIDDEN
  6
HIDDEN
 48
0.05
100
AcDbSpline
210
0.0
220
0.0
230
1.0
 70
    24
 71
     3
 72
    18
 73
    14
 74
     0
 42
0.000000001
 43
0.00000001
 40
0.0
 40
0.0
 40
0.0
 40
0.0
 40
0.0899907167152281
 40
0.1786730807626981
 40
0.266540360117381
 40
0.3540995992607123
 40
0.441863181842234
 40
0.5303399414220648
 40
0.6200265738372055
 40
0.7114000468598037
 40
0.8049115199552096
 40
0.9009820363416225
 40
1.0
 40
1.0
 40
1.0
 40
1.0
 10
592.0799399736579
 20
1148.748403623136
 30
0.0
 10
592.0799399736579
 20
1148.781371067708
 30
0.0
 10
592.0799399736579
 20
1148.846826651363
 30
0.0
 10
592.0799399736579
 20
1148.934714096653
 30
0.0
 10
592.0799399736579
 20
1149.013808111897
 30
0.0
 10
592.0799399736579
 20
1149.083465736691
 30
0.0
 10
592.0799399736579
 20
1149.143846257927
 30
0.0
 10
592.0799399736579
 20
1149.19490503456
 30
0.0
 10
592.0799399736579
 20
1149.236641559214
 30
0.0
 10
592.0799399736579
 20
1149.26910858131
 30
0.0
 10
592.0799399736579
 20
1149.292115783414
 30
0.0
 10
592.0799399736579
 20
1149.306441509056
 30
0.0
 10
592.0799399736579
 20
1149.308180939705
 30
0.0
 10
592.0799399736579
 20
1149.30906379491
 30
0.0
  0
SPLINE
  5
13D3
330
A
100
AcDbEntity
  8
HIDDEN
  6
HIDDEN
 48
0.05
100
AcDbSpline
210
0.0
220
0.0
230
1.0
 70
    24
 71
     3
 72
    17
 73
    13
 74
     0
 42
0.000000001
 43
0.00000001
 40
0.0
 40
0.0
 40
0.0
 40
0.0
 40
0.1087529157332377
 40
0.2139847941175632
 40
0.3162192408300224
 40
0.4160270475357465
 40
0.5140214187144535
 40
0.6108500178187802
 40
0.7071840239889716
 40
0.803704934695346
 40
0.9010903236449873
 40
0.9999999999999999
 40
0.9999999999999999
 40
0.9999999999999999
 40
0.9999999999999999
 10
595.0799399736552
 20
1152.309063794914
 30
0.0
 10
595.0810022899113
 20
1152.309063794914
 30
0.0
 10
595.0830925283531
 20
1152.309063794914
 30
0.0
 10
595.1004086218472
 20
1152.309063794914
 30
0.0
 10
595.128246932114
 20
1152.309063794914
 30
0.0
 10
595.167546421269
 20
1152.309063794914
 30
0.0
 10
595.2180757332771
 20
1152.309063794914
 30
0.0
 10
595.279916013963
 20
1152.309063794914
 30
0.0
 10
595.352994520928
 20
1152.309063794914
 30
0.0
 10
595.437508323791
 20
1152.309063794914
 30
0.0
 10
595.5326767318447
 20
1152.309063794914
 30
0.0
 10
595.6044399203361
 20
1152.309063794914
 30
0.0
 10
595.6406001454361
 20
1152.309063794914
 30
0.0
  0
SPLINE
  5
13D4
330
A
100
AcDbEntity
  8
HIDDEN
  6
HIDDEN
 48
0.05
100
AcDbSpline
210
0.0
220
0.0
230
1.0
 70
     8
 71
     3
 72
    14
 73
    10
 74
     0
 42
0.000000001
 43
0.00000001
 40
0.0
 40
0.0
 40
0.0
 40
0.0
 40
0.25
 40
0.25
 40
0.5
 40
0.5
 40
0.75
 40
0.75
 40
1.0
 40
1.0
 40
1.0
 40
1.0
 10
859.0799399736579
 20
1152.309063794914
 30
0.0
 10
859.472639055356
 20
1152.309063794914
 30
0.0
 10
859.8651836267363
 20
1152.230981824916
 30
0.0
 10
860.5907969147684
 20
1151.930422959977
 30
0.0
 10
860.9235801335831
 20
1151.708064322109
 30
0.0
 10
861.4789405008501
 20
1151.152703954838
 30
0.0
 10
861.7012991387182
 20
1150.819920736027
 30
0.0
 10
862.0018580036613
 20
1150.094307447991
 30
0.0
 10
862.0799399736579
 20
1149.701762876612
 30
0.0
 10
862.0799399736579
 20
1149.30906379491
 30
0.0
  0
SPLINE
  5
13D5
330
A
100
AcDbEntity
  8
HIDDEN
  6
HIDDEN
 48
0.05
100
AcDbSpline
210
0.0
220
0.0
230
1.0
 70
    24
 71
     3
 72
    17
 73
    13
 74
     0
 42
0.000000001
 43
0.00000001
 40
0.0
 40
0.0
 40
0.0
 40
0.0
 40
0.1087529157332377
 40
0.2139847941175632
 40
0.3162192408300224
 40
0.4160270475357465
 40
0.5140214187144535
 40
0.6108500178187802
 40
0.7071840239889716
 40
0.803704934695346
 40
0.9010903236449873
 40
0.9999999999999999
 40
0.9999999999999999
 40
0.9999999999999999
 40
0.9999999999999999
 10
862.0799399736579
 20
1149.30906379491
 30
0.0
 10
862.0799399736579
 20
1149.308001478661
 30
0.0
 10
862.0799399736579
 20
1149.305911240223
 30
0.0
 10
862.0799399736579
 20
1149.288595146722
 30
0.0
 10
862.0799399736579
 20
1149.260756836455
 30
0.0
 10
862.0799399736579
 20
1149.221457347303
 30
0.0
 10
862.0799399736579
 20
1149.170928035295
 30
0.0
 10
862.0799399736579
 20
1149.109087754609
 30
0.0
 10
862.0799399736579
 20
1149.036009247644
 30
0.0
 10
862.0799399736579
 20
1148.951495444781
 30
0.0
 10
862.0799399736579
 20
1148.856327036727
 30
0.0
 10
862.0799399736579
 20
1148.784563848236
 30
0.0
 10
862.0799399736579
 20
1148.748403623136
 30
0.0
  0
SPLINE
  5
13D6
330
A
100
AcDbEntity
  8
HIDDEN
  6
HIDDEN
 48
0.05
100
AcDbSpline
210
0.0
220
0.0
230
1.0
 70
    24
 71
     3
 72
    18
 73
    14
 74
     0
 42
0.000000001
 43
0.00000001
 40
0.0
 40
0.0
 40
0.0
 40
0.0
 40
0.0899907167152232
 40
0.1786730807626728
 40
0.266540360117367
 40
0.3540995992606922
 40
0.4418631818422002
 40
0.5303399414220388
 40
0.6200265738371894
 40
0.7114000468597892
 40
0.8049115199551938
 40
0.900982036341622
 40
1.0
 40
1.0
 40
1.0
 40
1.0
 10
858.519279801877
 20
1152.309063794914
 30
0.0
 10
858.552247246449
 20
1152.309063794914
 30
0.0
 10
858.6177028301081
 20
1152.309063794914
 30
0.0
 10
858.7055902753941
 20
1152.309063794914
 30
0.0
 10
858.7846842906447
 20
1152.309063794914
 30
0.0
 10
858.8543419154321
 20
1152.309063794914
 30
0.0
 10
858.914722436673
 20
1152.309063794914
 30
0.0
 10
858.9657812132991
 20
1152.309063794914
 30
0.0
 10
859.0075177379531
 20
1152.309063794914
 30
0.0
 10
859.0399847600511
 20
1152.309063794914
 30
0.0
 10
859.0629919621579
 20
1152.309063794914
 30
0.0
 10
859.077317687801
 20
1152.309063794914
 30
0.0
 10
859.0790571184489
 20
1152.309063794914
 30
0.0
 10
859.0799399736579
 20
1152.309063794914
 30
0.0
  0
SPLINE
  5
13D7
330
A
100
AcDbEntity
  8
HIDDEN
  6
HIDDEN
 48
0.05
100
AcDbSpline
210
0.0
220
0.0
230
1.0
 70
     8
 71
     3
 72
    14
 73
    10
 74
     0
 42
0.000000001
 43
0.00000001
 40
0.0
 40
0.0
 40
0.0
 40
0.0
 40
0.25
 40
0.25
 40
0.5
 40
0.5
 40
0.75
 40
0.75
 40
1.0
 40
1.0
 40
1.0
 40
1.0
 10
862.0799399736579
 20
885.3090637949169
 30
0.0
 10
862.0799399736579
 20
884.9163647132159
 30
0.0
 10
862.0018580036613
 20
884.523820141836
 30
0.0
 10
861.7012991387182
 20
883.798206853801
 30
0.0
 10
861.4789405008501
 20
883.4654236349891
 30
0.0
 10
860.9235801335831
 20
882.910063267718
 30
0.0
 10
860.5907969147684
 20
882.6877046298509
 30
0.0
 10
859.8651836267363
 20
882.3871457649109
 30
0.0
 10
859.472639055356
 20
882.309063794914
 30
0.0
 10
859.0799399736579
 20
882.309063794914
 30
0.0
  0
SPLINE
  5
13D8
330
A
100
AcDbEntity
  8
HIDDEN
  6
HIDDEN
 48
0.05
100
AcDbSpline
210
0.0
220
0.0
230
1.0
 70
    24
 71
     3
 72
    17
 73
    13
 74
     0
 42
0.000000001
 43
0.00000001
 40
0.0
 40
0.0
 40
0.0
 40
0.0
 40
0.1087529157332492
 40
0.2139847941175902
 40
0.3162192408300611
 40
0.416027047535784
 40
0.5140214187144884
 40
0.610850017818824
 40
0.7071840239890018
 40
0.8037049346953622
 40
0.9010903236450144
 40
1.0
 40
1.0
 40
1.0
 40
1.0
 10
859.0799399736579
 20
882.309063794914
 30
0.0
 10
859.0788776574063
 20
882.309063794914
 30
0.0
 10
859.0767874189642
 20
882.309063794914
 30
0.0
 10
859.0594713254632
 20
882.309063794914
 30
0.0
 10
859.0316330152
 20
882.309063794914
 30
0.0
 10
858.9923335260437
 20
882.309063794914
 30
0.0
 10
858.9418042140401
 20
882.309063794914
 30
0.0
 10
858.8799639333502
 20
882.309063794914
 30
0.0
 10
858.8068854263847
 20
882.309063794914
 30
0.0
 10
858.7223716235221
 20
882.309063794914
 30
0.0
 10
858.627203215468
 20
882.309063794914
 30
0.0
 10
858.5554400269812
 20
882.309063794914
 30
0.0
 10
858.519279801877
 20
882.309063794914
 30
0.0
  0
SPLINE
  5
13D9
330
A
100
AcDbEntity
  8
HIDDEN
  6
HIDDEN
 48
0.05
100
AcDbSpline
210
0.0
220
0.0
230
1.0
 70
    24
 71
     3
 72
    18
 73
    14
 74
     0
 42
0.000000001
 43
0.00000001
 40
0.0
 40
0.0
 40
0.0
 40
0.0
 40
0.0899907167152232
 40
0.1786730807626728
 40
0.266540360117367
 40
0.3540995992606922
 40
0.4418631818422002
 40
0.5303399414220388
 40
0.6200265738371894
 40
0.7114000468597892
 40
0.8049115199551938
 40
0.900982036341622
 40
1.0
 40
1.0
 40
1.0
 40
1.0
 10
862.0799399736579
 20
885.869723966691
 30
0.0
 10
862.0799399736579
 20
885.8367565221199
 30
0.0
 10
862.0799399736579
 20
885.771300938464
 30
0.0
 10
862.0799399736579
 20
885.683413493178
 30
0.0
 10
862.0799399736579
 20
885.6043194779311
 30
0.0
 10
862.0799399736579
 20
885.5346618531371
 30
0.0
 10
862.0799399736579
 20
885.474281331899
 30
0.0
 10
862.0799399736579
 20
885.423222555273
 30
0.0
 10
862.0799399736579
 20
885.381486030619
 30
0.0
 10
862.0799399736579
 20
885.349019008521
 30
0.0
 10
862.0799399736579
 20
885.326011806414
 30
0.0
 10
862.0799399736579
 20
885.311686080772
 30
0.0
 10
862.0799399736579
 20
885.309946650123
 30
0.0
 10
862.0799399736579
 20
885.3090637949169
 30
0.0
  0
SPLINE
  5
13DA
330
A
100
AcDbEntity
  8
HIDDEN
  6
HIDDEN
 48
0.05
100
AcDbSpline
210
0.0
220
0.0
230
1.0
 70
     8
 71
     3
 72
    14
 73
    10
 74
     0
 42
0.000000001
 43
0.00000001
 40
0.0
 40
0.0
 40
0.0
 40
0.0
 40
0.25
 40
0.25
 40
0.5
 40
0.5
 40
0.75
 40
0.75
 40
1.0
 40
1.0
 40
1.0
 40
1.0
 10
595.0799399736552
 20
882.309063794914
 30
0.0
 10
594.6872408919598
 20
882.309063794914
 30
0.0
 10
594.2946963205814
 20
882.3871457649109
 30
0.0
 10
593.5690830325448
 20
882.6877046298509
 30
0.0
 10
593.23629981373
 20
882.910063267718
 30
0.0
 10
592.6809394464631
 20
883.4654236349891
 30
0.0
 10
592.4585808085949
 20
883.798206853801
 30
0.0
 10
592.1580219436519
 20
884.523820141836
 30
0.0
 10
592.0799399736579
 20
884.9163647132159
 30
0.0
 10
592.0799399736579
 20
885.3090637949169
 30
0.0
  0
SPLINE
  5
13DB
330
A
100
AcDbEntity
  8
HIDDEN
  6
HIDDEN
 48
0.05
100
AcDbSpline
210
0.0
220
0.0
230
1.0
 70
    24
 71
     3
 72
    18
 73
    14
 74
     0
 42
0.000000001
 43
0.00000001
 40
0.0
 40
0.0
 40
0.0
 40
0.0
 40
0.0899907167152229
 40
0.178673080762683
 40
0.2665403601173671
 40
0.354099599260692
 40
0.4418631818422072
 40
0.5303399414220391
 40
0.6200265738371946
 40
0.7114000468597901
 40
0.8049115199551998
 40
0.9009820363416212
 40
0.9999999999999999
 40
0.9999999999999999
 40
0.9999999999999999
 40
0.9999999999999999
 10
595.6406001454361
 20
882.309063794914
 30
0.0
 10
595.607632700865
 20
882.309063794914
 30
0.0
 10
595.542177117205
 20
882.309063794914
 30
0.0
 10
595.454289671919
 20
882.309063794914
 30
0.0
 10
595.375195656668
 20
882.309063794914
 30
0.0
 10
595.305538031881
 20
882.309063794914
 30
0.0
 10
595.2451575106397
 20
882.309063794914
 30
0.0
 10
595.194098734014
 20
882.309063794914
 30
0.0
 10
595.15236220936
 20
882.309063794914
 30
0.0
 10
595.119895187262
 20
882.309063794914
 30
0.0
 10
595.096887985158
 20
882.309063794914
 30
0.0
 10
595.082562259513
 20
882.309063794914
 30
0.0
 10
595.0808228288643
 20
882.309063794914
 30
0.0
 10
595.0799399736552
 20
882.309063794914
 30
0.0
  0
SPLINE
  5
13DC
330
A
100
AcDbEntity
  8
HIDDEN
  6
HIDDEN
 48
0.05
100
AcDbSpline
210
0.0
220
0.0
230
1.0
 70
    24
 71
     3
 72
    17
 73
    13
 74
     0
 42
0.000000001
 43
0.00000001
 40
0.0
 40
0.0
 40
0.0
 40
0.0
 40
0.1087529157332477
 40
0.2139847941175787
 40
0.3162192408300483
 40
0.4160270475357699
 40
0.514021418714473
 40
0.6108500178188154
 40
0.7071840239889919
 40
0.8037049346953584
 40
0.9010903236450092
 40
1.0
 40
1.0
 40
1.0
 40
1.0
 10
592.0799399736579
 20
885.3090637949169
 30
0.0
 10
592.0799399736579
 20
885.310126111166
 30
0.0
 10
592.0799399736579
 20
885.312216349605
 30
0.0
 10
592.0799399736579
 20
885.329532443106
 30
0.0
 10
592.0799399736579
 20
885.3573707533731
 30
0.0
 10
592.0799399736579
 20
885.3966702425239
 30
0.0
 10
592.0799399736579
 20
885.4471995545321
 30
0.0
 10
592.0799399736579
 20
885.509039835219
 30
0.0
 10
592.0799399736579
 20
885.5821183421831
 30
0.0
 10
592.0799399736579
 20
885.6666321450471
 30
0.0
 10
592.0799399736579
 20
885.761800553101
 30
0.0
 10
592.0799399736579
 20
885.833563741591
 30
0.0
 10
592.0799399736579
 20
885.869723966691
 30
0.0
  0
CIRCLE
  5
13E1
330
A
100
AcDbEntity
  8
HIDDEN
  6
HIDDEN
 48
0.05
370
     0
100
AcDbCircle
 10
727.0799399736579
 20
1017.309063794914
 30
0.0
 40
26.5
  0
POLYLINE
  5
13E2
330
A
100
AcDbEntity
  8
HIDDEN
  6
HIDDEN
 48
0.05
100
AcDb2dPolyline
 66
     1
 10
0.0
 20
0.0
 30
0.0
  0
VERTEX
  5
1630
330
13E2
100
AcDbEntity
  8
HIDDEN
  6
HIDDEN
 48
0.05
100
AcDbVertex
100
AcDb2dVertex
 10
725.1457278711378
 20
1122.012846062504
 30
0.0
  0
VERTEX
  5
1631
330
13E2
100
AcDbEntity
  8
HIDDEN
  6
HIDDEN
 48
0.05
100
AcDbVertex
100
AcDb2dVertex
 10
723.593865181841
 20
1123.705912414165
 30
0.0
  0
VERTEX
  5
1632
330
13E2
100
AcDbEntity
  8
HIDDEN
  6
HIDDEN
 48
0.05
100
AcDbVertex
100
AcDb2dVertex
 10
721.7602839661681
 20
1125.116571441097
 30
0.0
  0
SEQEND
  5
1661
330
13E2
100
AcDbEntity
  8
HIDDEN
  6
HIDDEN
 48
0.05
  0
POLYLINE
  5
1418
330
A
100
AcDbEntity
  8
HIDDEN
  6
HIDDEN
 48
0.05
100
AcDb2dPolyline
 66
     1
 10
0.0
 20
0.0
 30
0.0
  0
VERTEX
  5
1419
330
1418
100
AcDbEntity
  8
HIDDEN
  6
HIDDEN
 48
0.05
100
AcDbVertex
100
AcDb2dVertex
 10
725.1457278711378
 20
1122.012846062504
 30
0.0
  0
VERTEX
  5
141A
330
1418
100
AcDbEntity
  8
HIDDEN
  6
HIDDEN
 48
0.05
100
AcDbVertex
100
AcDb2dVertex
 10
829.6756995265509
 20
1017.483563205442
 30
0.0
  0
SEQEND
  5
141B
330
1418
100
AcDbEntity
  8
HIDDEN
  6
HIDDEN
 48
0.05
  0
DIMENSION
  5
14C6
330
A
100
AcDbEntity
  8
DIM
  6
Continuous
100
AcDbDimension
  2
*D14
 10
915.4455034278167
 20
1132.309063794914
 30
0.0
 11
915.4455034278167
 21
1142.309063794914
 31
0.0
 70
   160
 71
     5
 42
20.0
 73
     0
 74
     0
 75
     0
  3
tfrom線あり
100
AcDbAlignedDimension
 13
858.519279801877
 23
1152.309063794914
 33
0.0
 14
857.0799399736579
 24
1132.309063794914
 34
0.0
 50
90.0
100
AcDbRotatedDimension
1001
ACAD
1000
DSTYLE
1002
{
1070
   172
1070
     1
1002
}
  0
DIMENSION
  5
14C9
330
A
100
AcDbEntity
  8
DIM
  6
Continuous
100
AcDbDimension
  2
*D15
 10
915.4455034278167
 20
967.309063794914
 30
0.0
 11
899.4455034278167
 21
1049.809063794914
 31
0.0
 70
    32
 71
     5
 42
165.0
 73
     0
 74
     0
 75
     0
  3
tfrom線あり
100
AcDbAlignedDimension
 13
842.0799399736579
 23
1132.309063794914
 33
0.0
 14
842.0799399736579
 24
967.309063794914
 34
0.0
 50
90.0
100
AcDbRotatedDimension
  0
DIMENSION
  5
14CA
330
A
100
AcDbEntity
  8
DIM
  6
Continuous
100
AcDbDimension
  2
*D16
 10
677.0799399736579
 20
1187.904389069786
 30
0.0
 11
759.5799399736579
 21
1203.904389069786
 31
0.0
 70
    32
 71
     5
 42
165.0
 73
     0
 74
     0
 75
     0
  3
tfrom線あり
100
AcDbAlignedDimension
 13
842.0799399736579
 23
1132.309063794914
 33
0.0
 14
677.0799399736579
 24
1132.309063794914
 34
0.0
100
AcDbRotatedDimension
  0
LINE
  5
14CB
102
{ACAD_REACTORS
330
14D0
102
}
330
A
100
AcDbEntity
  8
MODEL
  6
Continuous
100
AcDbLine
 10
842.0799399736579
 20
967.309063794914
 30
0.0
 11
677.0799399736579
 21
967.309063794914
 31
0.0
  0
DIMENSION
  5
14CC
330
A
100
AcDbEntity
  8
DIM
  6
Continuous
100
AcDbDimension
  2
*D17
 10
862.0799399736579
 20
1187.904389069786
 30
0.0
 11
852.0799399736579
 21
1187.904389069786
 31
0.0
 70
   160
 71
     5
 42
20.0
 73
     0
 74
     0
 75
     0
  3
tfrom線あり
100
AcDbAlignedDimension
 13
842.0799399736579
 23
1132.309063794914
 33
0.0
 14
862.0799399736579
 24
1149.30906379491
 34
0.0
100
AcDbRotatedDimension
  0
LINE
  5
14CD
102
{ACAD_REACTORS
330
14D0
102
}
330
A
100
AcDbEntity
  8
MODEL
  6
Continuous
100
AcDbLine
 10
842.0799399736579
 20
967.309063794914
 30
0.0
 11
842.0799399736579
 21
1132.309063794914
 31
0.0
  0
LINE
  5
14CE
102
{ACAD_REACTORS
330
14D0
102
}
330
A
100
AcDbEntity
  8
MODEL
  6
Continuous
100
AcDbLine
 10
842.0799399736579
 20
1132.309063794914
 30
0.0
 11
677.0799399736579
 21
1132.309063794914
 31
0.0
  0
LINE
  5
14CF
102
{ACAD_REACTORS
330
14D0
102
}
330
A
100
AcDbEntity
  8
MODEL
  6
Continuous
100
AcDbLine
 10
677.0799399736579
 20
1132.309063794914
 30
0.0
 11
677.0799399736579
 21
967.309063794914
 31
0.0
  0
HATCH
  5
14D0
330
A
100
AcDbEntity
  8
MODEL
  6
Continuous
100
AcDbHatch
 10
0.0
 20
0.0
 30
0.0
210
0.0
220
0.0
230
1.0
  2
ANSI31
 70
     0
 71
     1
 91
        1
 92
        1
 93
        4
 72
     1
 10
842.0799399736579
 20
1132.309063794914
 11
677.0799399736579
 21
1132.309063794914
 72
     1
 10
677.0799399736579
 20
1132.309063794914
 11
677.0799399736579
 21
967.309063794914
 72
     1
 10
842.0799399736579
 20
967.309063794914
 11
677.0799399736579
 21
967.309063794914
 72
     1
 10
842.0799399736579
 20
967.309063794914
 11
842.0799399736579
 21
1132.309063794914
 97
        4
330
14CE
330
14CF
330
14CB
330
14CD
 75
     0
 76
     1
 52
0.0
 41
3.0
 77
     0
 78
     1
 53
45.0
 43
-681.71170265044
 44
-1194.280199362982
 45
-6.735192090801863
 46
6.735192090801865
 79
     0
 98
        1
 10
-681.71170265044
 20
-1194.280199362982
1001
ACAD
1010
0.0
1020
0.0
1030
0.0
  0
DIMENSION
  5
14D1
330
A
100
AcDbEntity
  8
DIM
  6
Continuous
100
AcDbDimension
  2
*D18
 10
771.1960680063289
 20
461.2604558944139
 30
0.0
 11
771.1960680063289
 21
589.2157774590729
 31
0.0
 70
   160
  1
80(深さ)
 71
     5
 42
79.66694477025294
 73
     0
 74
     1
 75
     1
  3
tfrom線あり
100
AcDbAlignedDimension
 13
794.3073279881019
 23
540.9274006646668
 33
0.0
 14
771.1960680063289
 24
461.2604558944139
 34
0.0
 50
89.99999999999999
100
AcDbRotatedDimension
1001
ACAD
1000
DSTYLE
1002
{
1070
     3
1000
<>
1070
   172
1070
     1
1070
    75
1070
     1
1070
    76
1070
     1
1002
}
  0
MTEXT
  5
14D2
330
A
100
AcDbEntity
  8
DIM
390
1D
100
AcDbMText
 10
131.9245336283684
 20
638.6751688723945
 30
0.0
 40
12.0
 41
542.920144539582
 46
13.344
 71
     1
 72
     1
  1
{\C7;壁取付ボルト位置}
  7
ＭＳ ゴシック
 73
     1
 44
0.9822934569727008
1001
ACAD
1000
ACAD_MTEXT_DEFINED_HEIGHT_BEGIN
1070
    46
1040
13.344
1000
ACAD_MTEXT_DEFINED_HEIGHT_END
  0
SPLINE
  5
162F
330
A
100
AcDbEntity
  8
HIDDEN
 48
0.05
100
AcDbSpline
210
0.0
220
0.0
230
1.0
 70
  1064
 71
     3
 72
    42
 73
    38
 74
    36
 42
0.000000001
 43
0.0000000001
 44
0.0
 40
0.0
 40
0.0
 40
0.0
 40
0.0
 40
13.7755092941235
 40
28.668716457204
 40
44.71878882099426
 40
58.43769150302445
 40
71.05173992269155
 40
86.04242780184968
 40
98.65888972133405
 40
115.7838176594099
 40
134.8846306840525
 40
147.7384170851258
 40
166.1962014674983
 40
183.1164256579939
 40
204.9147974041452
 40
229.1229863921874
 40
248.6405216495889
 40
267.1245689994283
 40
285.6917907257227
 40
311.5935084344446
 40
334.4393940960862
 40
355.466979270214
 40
373.1371895399867
 40
389.9221697882007
 40
419.9962972418549
 40
453.7886661985727
 40
480.691219390647
 40
504.4228039296226
 40
519.9668052418317
 40
535.991543118581
 40
544.6472840073945
 40
554.329471644806
 40
567.6027142652281
 40
585.3001566898923
 40
592.9704764760131
 40
604.8546106138906
 40
607.0583421223539
 40
607.0583421223539
 40
607.0583421223539
 40
607.0583421223539
 10
721.7602839661681
 20
1125.116571441097
 30
0.0
 10
718.1031021261006
 20
1127.918085032958
 30
0.0
 10
710.4920071773238
 20
1133.748417480291
 30
0.0
 10
696.5003646218923
 20
1139.433054564222
 30
0.0
 10
681.646429011664
 20
1141.641915215592
 30
0.0
 10
667.4528106812074
 20
1140.653105443276
 30
0.0
 10
654.1056582439634
 20
1136.871122089204
 30
0.0
 10
642.2526695310306
 20
1130.368254729309
 30
0.0
 10
630.6837401937747
 20
1120.805810938118
 30
0.0
 10
621.0970262634604
 20
1107.436452842431
 30
0.0
 10
613.89513548836
 20
1092.719512869564
 30
0.0
 10
607.7864452722456
 20
1077.038073909082
 30
0.0
 10
604.0497643560104
 20
1061.34715465806
 30
0.0
 10
601.5320430801598
 20
1042.414577646445
 30
0.0
 10
602.078620969023
 20
1021.355086207199
 30
0.0
 10
605.831925069353
 20
999.7298475597612
 30
0.0
 10
612.7879972128383
 20
980.1237971564252
 30
0.0
 10
621.2418602172125
 20
963.2087031196772
 30
0.0
 10
633.203499539008
 20
945.9003665573457
 30
0.0
 10
648.6275018895165
 20
929.4090212370445
 30
0.0
 10
667.5115606931392
 20
915.6552378102781
 30
0.0
 10
685.6824588268079
 20
905.9937495558445
 30
0.0
 10
703.1091747983114
 20
899.6402795005483
 30
0.0
 10
724.1257334116874
 20
894.8576892363565
 30
0.0
 10
751.1733760224093
 20
893.2300607811817
 30
0.0
 10
781.3020248273187
 20
898.392698874919
 30
0.0
 10
807.5556630301824
 20
908.8529341336518
 30
0.0
 10
826.3819604002854
 20
920.8280028556759
 30
0.0
 10
838.7100595017075
 20
934.8283416960388
 30
0.0
 10
844.5006143222529
 20
947.0820733999777
 30
0.0
 10
847.7640453834094
 20
958.0871198821848
 30
0.0
 10
849.0809614581915
 20
968.5851096618768
 30
0.0
 10
848.6665155851673
 20
982.2116369276769
 30
0.0
 10
844.9698386300374
 20
994.7598216433302
 30
0.0
 10
839.2271542281179
 20
1005.795068251907
 30
0.0
 10
834.856163155011
 20
1011.629160654696
 30
0.0
 10
831.8404990783638
 20
1015.227601294059
 30
0.0
 10
831.3687658782128
 20
1015.790496853782
 30
0.0
 11
721.7602839661681
 21
1125.116571441097
 31
0.0
 11
710.4750117507028
 21
1133.016399751594
 31
0.0
 11
696.721086238106
 21
1138.729293291331
 31
0.0
 11
680.8511721851078
 21
1141.127344757283
 31
0.0
 11
667.1678485036923
 21
1140.139952318265
 31
0.0
 11
655.0363875115718
 21
1136.684250981291
 31
0.0
 11
641.8465878500788
 21
1129.560354015443
 31
0.0
 11
632.183435755916
 21
1121.448720211401
 31
0.0
 11
621.885900378647
 21
1107.765740929162
 31
0.0
 11
613.2703374916999
 21
1090.718361824343
 31
0.0
 11
608.6961007171503
 21
1078.706027214669
 31
0.0
 11
604.2526625419832
 21
1060.791070851629
 31
0.0
 11
602.1366740015819
 21
1044.003677392443
 31
0.0
 11
602.55959619032
 21
1022.209408705339
 31
0.0
 11
606.8315215294353
 21
998.3811257630498
 31
0.0
 11
613.2807425546835
 21
979.9598953293516
 31
0.0
 11
621.603493053919
 21
963.4555979932461
 31
0.0
 11
632.1131783239096
 21
948.149120992998
 31
0.0
 11
649.8989698385097
 21
929.3192351605907
 31
0.0
 11
668.2964446050728
 21
915.774220805542
 31
0.0
 11
686.8889992047392
 21
905.951988283675
 31
0.0
 11
703.4923184472195
 21
899.9049955508975
 31
0.0
 11
719.8557565201381
 21
896.1668868891956
 31
0.0
 11
749.8777214163987
 21
894.396359886764
 31
0.0
 11
783.194553468941
 21
900.0455104149084
 31
0.0
 11
808.163149365821
 21
910.0613272658045
 31
0.0
 11
827.8285793752777
 21
923.3451131446006
 31
0.0
 11
837.998450025787
 21
935.1005249938669
 31
0.0
 11
845.0517451604519
 21
949.4895225879259
 31
0.0
 11
847.4487572378409
 21
957.806744686387
 31
0.0
 11
848.7195963901481
 21
967.405167749318
 31
0.0
 11
848.2254029838539
 21
980.6692071995672
 31
0.0
 11
843.2884213767857
 21
997.6640793963734
 31
0.0
 11
839.7361468535395
 21
1004.462252042964
 31
0.0
 11
832.7794249051458
 21
1014.097430502121
 31
0.0
 11
831.3687658782128
 21
1015.790496853782
 31
0.0
  0
LINE
  5
1682
330
A
100
AcDbEntity
  8
HIDDEN
 48
0.05
100
AcDbLine
 10
794.1154291294035
 20
461.8303870575369
 30
0.0
 11
747.3085844314741
 21
461.8303870575369
 31
0.0
  0
LINE
  5
1689
330
A
100
AcDbEntity
  8
HIDDEN
 48
0.05
100
AcDbLine
 10
284.5005189120732
 20
461.7457952750668
 30
0.0
 11
328.3163868118778
 21
461.7457952750668
 31
0.0
  0
MTEXT
  5
17CF
102
{ACAD_XDICTIONARY
360
17D0
102
}
330
A
100
AcDbEntity
  8
TEMPLATE
 48
0.05
100
AcDbMText
 10
36.10107227396725
 20
42.78748475256335
 30
0.0
 40
11.0
 41
0.0
 46
11.0
 71
     1
 72
     1
  1
{20180115N}
  7
ＭＳ ゴシック
 73
     1
 44
1.0
1001
ACAD
1000
ACAD_MTEXT_DEFINED_HEIGHT_BEGIN
1070
    46
1040
11.0
1000
ACAD_MTEXT_DEFINED_HEIGHT_END
  0
DIMENSION
  5
17F3
330
A
100
AcDbEntity
  8
DIM
 48
0.05
100
AcDbDimension
  2
*D19
 10
947.8064310713689
 20
502.927400664667
 30
0.0
 11
931.8064310713689
 21
521.927400664667
 31
0.0
 70
    32
 71
     5
 42
37.99999999999984
 73
     0
 74
     0
 75
     0
  3
tfrom線あり
100
AcDbAlignedDimension
 13
902.4599925554357
 23
540.9274006646668
 33
0.0
 14
839.164042232518
 24
502.927400664667
 34
0.0
 50
90.0
100
AcDbRotatedDimension
  0
DIMENSION
  5
1825
330
A
100
AcDbEntity
  8
DIM
 48
0.05
100
AcDbDimension
  2
*D20
 10
483.1748569816437
 20
1099.30906379491
 30
0.0
 11
467.1748569816437
 21
1125.809063794912
 31
0.0
 70
    32
 71
     5
 42
53.00000000000409
 73
     0
 74
     0
 75
     0
  3
tfrom線あり
100
AcDbAlignedDimension
 13
436.4652327835065
 23
1152.309063794914
 33
0.0
 14
405.9652327835065
 24
1099.30906379491
 34
0.0
 50
90.0
100
AcDbRotatedDimension
  0
DIMENSION
  5
1841
102
{ACAD_REACTORS
330
1843
102
}
102
{ACAD_XDICTIONARY
360
1842
102
}
330
A
100
AcDbEntity
  8
DIM
 48
0.05
100
AcDbDimension
  2
*D21
 10
345.8307392634257
 20
1248.632019636771
 30
0.0
 11
292.7668173759842
 21
1219.247861800852
 31
0.0
 70
    33
 71
     5
 42
117.0163841144092
 73
     0
 74
     0
 75
     0
  3
tfrom線あり
100
AcDbAlignedDimension
 13
356.7960065086929
 23
1069.748204633973
 33
0.0
 14
440.5865531270647
 24
1151.430384138474
 34
0.0
  0
DIMENSION
  5
186B
330
A
100
AcDbEntity
  8
DIM
 48
0.05
100
AcDbDimension
  2
*D22
 10
501.4409248104118
 20
925.4137568420415
 30
0.0
 11
434.4366968506725
 21
858.2643423070862
 31
0.0
 70
   161
 71
     5
 42
189.7220117631898
 73
     0
 74
     0
 75
     0
  3
tfrom線あり
100
AcDbAlignedDimension
 13
223.8417376194231
 23
934.3951954803999
 33
0.0
 14
357.8501935389017
 24
1068.694024550311
 34
0.0
  0
LINE
  5
18D6
330
A
100
AcDbEntity
  8
MODEL
  6
CENTER
 48
0.01
100
AcDbLine
 10
-153.198308251359
 20
393.5656092421904
 30
0.0
 11
-200.6064076055237
 21
393.5656092421904
 31
0.0
  0
LINE
  5
18D7
330
A
100
AcDbEntity
  8
MODEL
  6
CENTER
 48
0.01
100
AcDbLine
 10
-176.9023579284413
 20
417.2696589192727
 30
0.0
 11
-176.9023579284413
 21
369.8615595651078
 31
0.0
  0
DIMENSION
  5
18E5
330
A
100
AcDbEntity
  8
DIM
 48
0.05
100
AcDbDimension
  2
*D23
 10
327.4652327835067
 20
389.4118618740868
 30
0.0
 11
306.4652327835067
 21
389.4118618740868
 31
0.0
 70
   160
  1
G1 1/4"
 71
     5
 42
42.0
 73
     0
 74
     0
 75
     0
  3
tfrom線あり
100
AcDbAlignedDimension
 13
285.4652327835067
 23
420.9274006646666
 33
0.0
 14
327.4652327835067
 24
420.9274006646666
 34
0.0
100
AcDbRotatedDimension
1001
ACAD
1000
DSTYLE
1002
{
1070
    77
1070
     2
1002
}
  0
HATCH
  5
18E6
330
A
100
AcDbEntity
  8
HIDDEN
  6
Continuous
 48
0.05
370
     0
100
AcDbHatch
 10
0.0
 20
0.0
 30
0.0
210
0.0
220
0.0
230
1.0
  2
ANSI31
 70
     0
 71
     1
 91
        1
 92
        1
 93
        4
 72
     1
 10
327.4652327835067
 20
433.331639364277
 11
327.4652327835067
 21
420.9274006646666
 72
     1
 10
288.1049155248307
 20
433.331639364277
 11
324.8255500421827
 21
433.331639364277
 72
     1
 10
285.4652327835067
 20
433.331639364277
 11
285.4652327835067
 21
420.9274006646666
 72
     1
 10
285.4652327835067
 20
420.9274006646666
 11
327.4652327835067
 21
420.9274006646666
 97
        4
330
18E9
330
18EB
330
18E8
330
18E7
 75
     0
 76
     1
 52
145.0
 41
0.9999999999999968
 77
     0
 78
     1
 53
189.9999999999993
 43
63.51402846210937
 44
-23.44089671993657
 45
0.5513329640925042
 46
-3.12676461581376
 79
     0
 98
        1
 10
63.51402846210937
 20
-23.44089671993657
1001
ACAD
1010
0.0
1020
0.0
1030
0.0
  0
LINE
  5
18E7
102
{ACAD_REACTORS
330
18E6
102
}
330
A
100
AcDbEntity
  8
HIDDEN
  6
Continuous
 48
0.05
100
AcDbLine
 10
285.4652327835067
 20
420.9274006646666
 30
0.0
 11
327.4652327835067
 21
420.9274006646666
 31
0.0
  0
LINE
  5
18E8
102
{ACAD_REACTORS
330
18E6
102
}
330
A
100
AcDbEntity
  8
HIDDEN
  6
Continuous
 48
0.05
100
AcDbLine
 10
285.4652327835067
 20
433.331639364277
 30
0.0
 11
285.4652327835067
 21
420.9274006646666
 31
0.0
  0
LINE
  5
18E9
102
{ACAD_REACTORS
330
18E6
330
1945
102
}
330
A
100
AcDbEntity
  8
HIDDEN
  6
Continuous
 48
0.05
100
AcDbLine
 10
327.4652327835067
 20
433.331639364277
 30
0.0
 11
327.4652327835067
 21
420.9274006646666
 31
0.0
  0
LINE
  5
18EA
330
A
100
AcDbEntity
  8
HIDDEN
  6
Continuous
 48
0.05
100
AcDbLine
 10
335.6365837712008
 20
433.331639364277
 30
0.0
 11
277.2938817958125
 21
433.331639364277
 31
0.0
  0
LINE
  5
18EB
102
{ACAD_REACTORS
330
18E6
102
}
330
A
100
AcDbEntity
  8
HIDDEN
  6
Continuous
 48
0.05
100
AcDbLine
 10
288.1049155248307
 20
433.331639364277
 30
0.0
 11
324.8255500421827
 21
433.331639364277
 31
0.0
  0
LINE
  5
18EC
330
A
100
AcDbEntity
  8
HIDDEN
  6
Continuous
 48
0.05
100
AcDbLine
 10
277.2938817958125
 20
433.331639364277
 30
0.0
 11
277.2938817958125
 21
440.9274006646666
 31
0.0
  0
LINE
  5
18ED
330
A
100
AcDbEntity
  8
HIDDEN
  6
Continuous
 48
0.05
100
AcDbLine
 10
335.6365837712008
 20
433.331639364277
 30
0.0
 11
335.6365837712008
 21
440.9274006646666
 31
0.0
  0
HATCH
  5
18FB
330
A
100
AcDbEntity
  8
HIDDEN
  6
Continuous
 48
0.05
370
     0
100
AcDbHatch
 10
0.0
 20
0.0
 30
0.0
210
0.0
220
0.0
230
1.0
  2
ANSI31
 70
     0
 71
     1
 91
        1
 92
        1
 93
        4
 72
     1
 10
791.4599925554357
 20
433.331639364277
 11
791.4599925554357
 21
420.9274006646666
 72
     1
 10
752.0996752967599
 20
433.331639364277
 11
788.8203098141119
 21
433.331639364277
 72
     1
 10
749.4599925554357
 20
433.331639364277
 11
749.4599925554357
 21
420.9274006646666
 72
     1
 10
749.4599925554357
 20
420.9274006646666
 11
791.4599925554357
 21
420.9274006646666
 97
        4
330
18FE
330
1900
330
18FD
330
18FC
 75
     0
 76
     1
 52
145.0
 41
0.9999999999999969
 77
     0
 78
     1
 53
189.9999999999994
 43
527.5087882340385
 44
-23.44089671993657
 45
0.5513329640925042
 46
-3.12676461581376
 79
     0
 98
        1
 10
527.5087882340385
 20
-23.44089671993657
1001
ACAD
1010
0.0
1020
0.0
1030
0.0
  0
LINE
  5
18FC
102
{ACAD_REACTORS
330
18FB
102
}
330
A
100
AcDbEntity
  8
HIDDEN
  6
Continuous
 48
0.05
100
AcDbLine
 10
749.4599925554357
 20
420.9274006646666
 30
0.0
 11
791.4599925554357
 21
420.9274006646666
 31
0.0
  0
LINE
  5
18FD
102
{ACAD_REACTORS
330
18FB
102
}
330
A
100
AcDbEntity
  8
HIDDEN
  6
Continuous
 48
0.05
100
AcDbLine
 10
749.4599925554357
 20
433.331639364277
 30
0.0
 11
749.4599925554357
 21
420.9274006646666
 31
0.0
  0
LINE
  5
18FE
102
{ACAD_REACTORS
330
18FB
102
}
330
A
100
AcDbEntity
  8
HIDDEN
  6
Continuous
 48
0.05
100
AcDbLine
 10
791.4599925554357
 20
433.331639364277
 30
0.0
 11
791.4599925554357
 21
420.9274006646666
 31
0.0
  0
LINE
  5
18FF
330
A
100
AcDbEntity
  8
HIDDEN
  6
Continuous
 48
0.05
100
AcDbLine
 10
799.6313435431299
 20
433.331639364277
 30
0.0
 11
741.2886415677417
 21
433.331639364277
 31
0.0
  0
LINE
  5
1900
102
{ACAD_REACTORS
330
18FB
102
}
330
A
100
AcDbEntity
  8
HIDDEN
  6
Continuous
 48
0.05
100
AcDbLine
 10
752.0996752967599
 20
433.331639364277
 30
0.0
 11
788.8203098141119
 21
433.331639364277
 31
0.0
  0
LINE
  5
1901
330
A
100
AcDbEntity
  8
HIDDEN
  6
Continuous
 48
0.05
100
AcDbLine
 10
741.2886415677417
 20
433.331639364277
 30
0.0
 11
741.2886415677417
 21
440.9274006646666
 31
0.0
  0
LINE
  5
1902
330
A
100
AcDbEntity
  8
HIDDEN
  6
Continuous
 48
0.05
100
AcDbLine
 10
799.6313435431299
 20
433.331639364277
 30
0.0
 11
799.6313435431299
 21
440.9274006646666
 31
0.0
  0
LINE
  5
192D
330
A
100
AcDbEntity
  8
MODEL
  6
CENTER
 48
0.01
100
AcDbLine
 10
375.1692824605888
 20
502.927400664667
 30
0.0
 11
327.7611831064241
 21
502.927400664667
 31
0.0
  0
LINE
  5
192E
330
A
100
AcDbEntity
  8
MODEL
  6
CENTER
 48
0.01
100
AcDbLine
 10
351.4652327835065
 20
526.6314503417493
 30
0.0
 11
351.4652327835065
 21
479.2233509875844
 31
0.0
  0
LINE
  5
192F
330
A
100
AcDbEntity
  8
MODEL
  6
CENTER
 48
0.01
100
AcDbLine
 10
839.164042232518
 20
502.927400664667
 30
0.0
 11
791.7559428783533
 21
502.927400664667
 31
0.0
  0
LINE
  5
1930
330
A
100
AcDbEntity
  8
MODEL
  6
CENTER
 48
0.01
100
AcDbLine
 10
815.4599925554357
 20
526.6314503417493
 30
0.0
 11
815.4599925554357
 21
479.2233509875844
 31
0.0
  0
DIMENSION
  5
1943
102
{ACAD_REACTORS
330
1945
102
}
102
{ACAD_XDICTIONARY
360
1944
102
}
330
A
100
AcDbEntity
  8
DIM
 48
0.05
100
AcDbDimension
  2
*D24
 10
508.5360170356719
 20
420.9274006646666
 30
0.0
 11
492.5360170356719
 21
480.9274006646667
 31
0.0
 70
    32
 71
     5
 42
120.0000000000002
 73
     0
 74
     0
 75
     0
  3
tfrom線あり
100
AcDbAlignedDimension
 13
436.4652327835065
 23
540.9274006646668
 33
0.0
 14
327.4652327835067
 24
420.9274006646666
 34
0.0
 50
90.0
100
AcDbRotatedDimension
  0
DIMENSION
  5
1966
330
A
100
AcDbEntity
  8
DIM
 48
0.05
100
AcDbDimension
  2
*D25
 10
249.9150234973733
 20
766.4710421612609
 30
0.0
 11
151.7442128299164
 21
864.6418528287177
 31
0.0
 70
   161
  1
280
 71
     5
 42
277.6689837501568
 73
     0
 74
     0
 75
     0
  3
tfrom線あり
100
AcDbAlignedDimension
 13
207.2675176223518
 23
1116.506778956066
 33
0.0
 14
403.6091389572651
 24
920.1651576211531
 34
0.0
  0
DIMENSION
  5
19F8
330
A
100
AcDbEntity
  8
DIM
 48
0.05
100
AcDbDimension
  2
*D26
 10
351.4652327835065
 20
1203.946697075607
 30
0.0
 11
396.4652327835065
 21
1219.946697075607
 31
0.0
 70
    32
 71
     5
 42
90.0
 73
     0
 74
     0
 75
     0
  3
tfrom線あり
100
AcDbAlignedDimension
 13
441.4652327835065
 23
1148.748403623136
 33
0.0
 14
351.4652327835065
 24
1165.956596415462
 34
0.0
100
AcDbRotatedDimension
  0
LINE
  5
1A0B
330
A
100
AcDbEntity
  8
DIM
  6
CENTER
 48
0.01
100
AcDbLine
 10
343.9652327835066
 20
1161.918984708894
 30
0.0
 11
343.9652327835066
 21
1142.699142880934
 31
0.0
  0
LINE
  5
1A0C
330
A
100
AcDbEntity
  8
DIM
  6
CENTER
 48
0.01
100
AcDbLine
 10
358.9652327835066
 20
1161.918984708894
 30
0.0
 11
358.9652327835066
 21
1142.699142880934
 31
0.0
  0
LINE
  5
1A10
330
A
100
AcDbEntity
  8
DIM
  6
CENTER
 48
0.01
100
AcDbLine
 10
351.4652327835065
 20
1165.956596415462
 30
0.0
 11
351.4652327835065
 21
1138.661531174366
 31
0.0
  0
LINE
  5
1A1D
330
A
100
AcDbEntity
  8
DIM
  6
CENTER
 48
0.01
100
AcDbLine
 10
451.0751536974865
 20
1054.818024748052
 30
0.0
 11
431.8553118695268
 21
1054.818024748052
 31
0.0
  0
LINE
  5
1A1E
330
A
100
AcDbEntity
  8
DIM
  6
CENTER
 48
0.01
100
AcDbLine
 10
455.1127654040545
 20
1062.318024748052
 30
0.0
 11
427.8177001629585
 21
1062.318024748052
 31
0.0
  0
LINE
  5
1A1F
330
A
100
AcDbEntity
  8
DIM
  6
CENTER
 48
0.01
100
AcDbLine
 10
451.0751536974865
 20
1069.818024748052
 30
0.0
 11
431.8553118695268
 21
1069.818024748052
 31
0.0
  0
DIMENSION
  5
1A38
330
A
100
AcDbEntity
  8
DIM
 48
0.05
100
AcDbDimension
  2
*D28
 10
477.3372326019523
 20
502.927400664667
 30
0.0
 11
461.3372326019523
 21
521.927400664667
 31
0.0
 70
    32
 71
     5
 42
37.99999999999984
 73
     0
 74
     0
 75
     0
  3
tfrom線あり
100
AcDbAlignedDimension
 13
437.9045726117256
 23
540.9274006646668
 33
0.0
 14
375.1692824605888
 24
502.927400664667
 34
0.0
 50
90.0
100
AcDbRotatedDimension
  0
VIEWPORT
  5
349
330
B
100
AcDbEntity
 67
     1
  8
0
100
AcDbViewport
 10
202.5
 20
128.5
 30
0.0
 40
486.0
 41
308.4
 68
     1
 69
     1
 12
202.5
 22
128.5
 13
0.0
 23
0.0
 14
0.5
 24
0.5
 15
0.0
 25
0.0
 16
0.0
 26
0.0
 36
1.0
 17
0.0
 27
0.0
 37
0.0
 42
50.0
 43
0.0
 44
0.0
 45
308.4
 50
0.0
 51
0.0
 72
   100
 90
   557152
  1

281
     0
 71
     1
 74
     0
110
0.0
120
0.0
130
0.0
111
1.0
121
0.0
131
0.0
112
0.0
122
1.0
132
0.0
 79
     0
146
0.0
170
     0
 61
     5
348
26C
292
     1
282
     1
141
0.0
142
0.0
 63
   256
  0
VIEWPORT
  5
34A
330
B
100
AcDbEntity
 67
     1
  8
0
100
AcDbViewport
 10
202.5
 20
128.5
 30
0.0
 40
324.0
 41
205.6
 68
     2
 69
     2
 12
986.6781359294573
 22
1427.077061889956
 13
0.0
 23
0.0
 14
0.5
 24
0.5
 15
0.0
 25
0.0
 16
0.0
 26
0.0
 36
1.0
 17
0.0
 27
0.0
 37
0.0
 42
50.0
 43
0.0
 44
0.0
 45
2890.021615685494
 50
0.0
 51
0.0
 72
   100
 90
   557152
  1

281
     0
 71
     1
 74
     0
110
0.0
120
0.0
130
0.0
111
1.0
121
0.0
131
0.0
112
0.0
122
1.0
132
0.0
 79
     0
146
0.0
170
     0
 61
     5
348
26C
292
     1
282
     1
141
0.0
142
0.0
 63
   256
  0
ENDSEC
  0
SECTION
  2
OBJECTS
  0
DICTIONARY
  5
19
330
0
100
AcDbDictionary
281
     1
  3
ACAD_COLOR
350
674
  3
ACAD_DETAILVIEWSTYLE
350
BBF
  3
ACAD_FIELDLIST
350
17CD
  3
ACAD_GROUP
350
1A
  3
ACAD_IMAGE_VARS
350
27B
  3
ACAD_LAYOUT
350
1E
  3
ACAD_MATERIAL
350
263
  3
ACAD_MLEADERSTYLE
350
336
  3
ACAD_MLINESTYLE
350
1B
  3
ACAD_PLOTSETTINGS
350
22
  3
ACAD_PLOTSTYLENAME
350
1F
  3
ACAD_SCALELIST
350
241
  3
ACAD_SECTIONVIEWSTYLE
350
BC0
  3
ACAD_TABLESTYLE
350
278
  3
ACAD_VISUALSTYLE
350
267
  3
ACDB_RECOMPOSE_DATA
350
1A59
  3
AcDbVariableDictionary
350
330
  3
APPDATA
350
27A
  3
DimOffsetDictionary
350
E38
  0
SUN
  5
904
330
15
100
AcDbSun
 90
        1
290
     0
 63
     7
421
 16777215
 40
1.0
291
     1
 91
  2455826
 92
 54000000
292
     0
 70
     2
 71
   256
280
     1
  0
DICTIONARY
  5
2E1
330
2
100
AcDbDictionary
280
     1
281
     1
  3
ACAD_LAYERSTATES
360
2E2
  3
ACLYDICTIONARY
360
DDE
  0
DICTIONARY
  5
17D0
330
17CF
100
AcDbDictionary
280
     1
281
     1
  3
ACAD_FIELD
360
17D1
  0
DICTIONARY
  5
1842
330
1841
100
AcDbDictionary
280
     1
281
     1
  3
ACAD_DIMASSOC
360
1843
  0
DICTIONARY
  5
1944
330
1943
100
AcDbDictionary
280
     1
281
     1
  3
ACAD_DIMASSOC
360
1945
  0
DICTIONARY
  5
674
102
{ACAD_REACTORS
330
19
102
}
330
19
100
AcDbDictionary
281
     1
  0
DICTIONARY
  5
BBF
102
{ACAD_REACTORS
330
19
102
}
330
19
100
AcDbDictionary
281
     1
  0
FIELDLIST
  5
17CD
102
{ACAD_REACTORS
330
19
102
}
330
19
100
AcDbIdSet
 90
        1
330
17D2
100
AcDbFieldList
  0
DICTIONARY
  5
1A
102
{ACAD_REACTORS
330
19
102
}
330
19
100
AcDbDictionary
281
     1
  0
RASTERVARIABLES
  5
27B
102
{ACAD_REACTORS
330
19
102
}
330
19
100
AcDbRasterVariables
 90
        0
 70
     1
 71
     1
 72
     1
  0
DICTIONARY
  5
1E
102
{ACAD_REACTORS
330
19
102
}
330
19
100
AcDbDictionary
281
     1
  3
Layout1
350
21
  3
Model
350
20
  0
DICTIONARY
  5
263
102
{ACAD_REACTORS
330
19
102
}
330
19
100
AcDbDictionary
281
     1
  3
ByBlock
350
19F1
  3
ByLayer
350
264
  3
Global
350
266
  0
DICTIONARY
  5
336
102
{ACAD_REACTORS
330
19
102
}
330
19
100
AcDbDictionary
281
     1
  3
Standard
350
D59
  0
DICTIONARY
  5
1B
102
{ACAD_REACTORS
330
19
102
}
330
19
100
AcDbDictionary
281
     1
  3
Standard
350
1C
  0
DICTIONARY
  5
22
102
{ACAD_REACTORS
330
19
102
}
330
19
100
AcDbDictionary
281
     1
  0
ACDBDICTIONARYWDFLT
  5
1F
102
{ACAD_REACTORS
330
19
102
}
330
19
100
AcDbDictionary
281
     1
  3
Normal
350
1D
100
AcDbDictionaryWithDefault
340
1D
  0
DICTIONARY
  5
241
102
{ACAD_REACTORS
330
19
102
}
330
19
100
AcDbDictionary
281
     1
  3
A0
350
242
  3
A1
350
243
  3
A2
350
244
  3
A3
350
245
  3
A4
350
246
  3
A5
350
247
  3
A6
350
248
  3
A7
350
249
  3
A8
350
24A
  3
A9
350
24B
  3
B0
350
24C
  3
B1
350
24D
  3
B2
350
24E
  3
B3
350
24F
  3
B4
350
250
  3
B5
350
251
  3
B6
350
252
  3
B7
350
253
  3
B8
350
254
  3
B9
350
255
  3
C0
350
256
  3
C1
350
257
  3
C2
350
258
  3
C3
350
259
  3
C4
350
25A
  3
C5
350
25B
  3
C6
350
25C
  3
C7
350
25D
  3
C8
350
25E
  3
C9
350
25F
  3
D0
350
260
  3
D1
350
261
  3
D2
350
262
  0
DICTIONARY
  5
BC0
102
{ACAD_REACTORS
330
19
102
}
330
19
100
AcDbDictionary
281
     1
  0
DICTIONARY
  5
278
102
{ACAD_REACTORS
330
19
102
}
330
19
100
AcDbDictionary
281
     1
  3
Standard
350
279
  0
DICTIONARY
  5
267
102
{ACAD_REACTORS
330
19
102
}
330
19
100
AcDbDictionary
281
     1
  3
2dWireframe
350
26C
  3
3D Hidden
350
26E
  3
3dWireframe
350
26D
  3
Basic
350
26F
  3
Brighten
350
273
  3
ColorChange
350
277
  3
Conceptual
350
271
  3
Dim
350
272
  3
EdgeColorOff
350
8FE
  3
Facepattern
350
276
  3
Flat
350
268
  3
FlatWithEdges
350
269
  3
Gouraud
350
26A
  3
GouraudWithEdges
350
26B
  3
Hidden
350
8FB
  3
JitterOff
350
8FC
  3
Linepattern
350
275
  3
OverhangOff
350
8FD
  3
Realistic
350
270
  3
Shaded
350
903
  3
Shaded with edges
350
902
  3
Shades of Gray
350
8FF
  3
Sketchy
350
900
  3
Thicken
350
274
  3
Wireframe
350
8FA
  3
X-Ray
350
901
  0
XRECORD
  5
1A59
102
{ACAD_REACTORS
330
19
102
}
330
19
100
AcDbXrecord
280
     1
 90
        1
330
279
  0
DICTIONARY
  5
330
102
{ACAD_REACTORS
330
19
102
}
330
19
100
AcDbDictionary
281
     1
  3
CANNOSCALE
350
331
  3
CMLEADERSTYLE
350
D5E
  3
CTABLESTYLE
350
335
  3
HPTRANSPARENCY
350
D52
  3
XCLIPFRAME
350
896
  0
DICTIONARY
  5
27A
102
{ACAD_REACTORS
330
19
102
}
330
19
100
AcDbDictionary
281
     1
  0
DICTIONARY
  5
E38
102
{ACAD_REACTORS
330
19
102
}
330
19
100
AcDbDictionary
281
     1
  3
DIMRAILANGLE
350
E3B
  3
DIMRAILFIRSTOFFSET
350
E39
  3
DIMRAILOFFSET
350
E3A
  3
DIMRAILSENABLED
350
E3C
  0
DICTIONARY
  5
2E2
102
{ACAD_REACTORS
330
2E1
102
}
330
2E1
100
AcDbDictionary
281
     1
  3
ARGON_LAYERP_9
350
7AA
  0
DICTIONARY
  5
DDE
102
{ACAD_REACTORS
330
2E1
102
}
330
2E1
100
AcDbDictionary
281
     1
1001
ACAD
1000
<All
  0
DICTIONARY
  5
17D1
102
{ACAD_REACTORS
330
17D0
102
}
330
17D0
100
AcDbDictionary
280
     1
281
     1
  3
TEXT
360
17D2
  0
DIMASSOC
  5
1843
102
{ACAD_REACTORS
330
1842
102
}
330
1842
100
AcDbDimAssoc
330
1841
 90
        3
 70
     0
 71
     1
  1
AcDbOsnapPointRef
 72
     2
331
12F0
 73
     2
 91
        1
 40
0.4999999999999999
 10
0.0
 20
0.0
 30
0.0
 75
     0
  1
AcDbOsnapPointRef
 72
     2
331
1281
 73
     0
 91
        0
 40
0.4999999999999958
 10
0.0
 20
0.0
 30
0.0
 75
     0
  0
DIMASSOC
  5
1945
102
{ACAD_REACTORS
330
1944
102
}
330
1944
100
AcDbDimAssoc
330
1943
 90
        3
 70
     0
 71
     1
  1
AcDbOsnapPointRef
 72
     1
331
1243
 73
     0
 91
        0
 40
0.0
 10
0.0
 20
0.0
 30
0.0
 75
     0
  1
AcDbOsnapPointRef
 72
     1
331
18E9
 73
     0
 91
        0
 40
0.0
 10
0.0
 20
0.0
 30
0.0
 75
     0
  0
LAYOUT
  5
21
102
{ACAD_REACTORS
330
1E
102
}
330
1E
100
AcDbPlotSettings
  1

  2
none_device
  4
ISO_A3_(420.00_x_297.00_MM)
  6

 40
7.5
 41
20.0
 42
7.5
 43
20.0
 44
420.0
 45
297.0
 46
0.0
 47
0.0
 48
0.0
 49
0.0
140
0.0
141
0.0
142
1.0
143
1.0
 70
     0
 72
     1
 73
     0
 74
     0
  7

 75
     0
 76
     0
 77
     2
 78
   300
147
1.0
148
0.0
149
0.0
100
AcDbLayout
  1
Layout1
 70
     0
 71
     0
 10
-7.5
 20
-20.0
 11
412.5
 21
277.0
 12
0.0
 22
0.0
 32
0.0
 14
0.0
 24
0.0
 34
0.0
 15
0.0
 25
0.0
 35
0.0
146
0.0
 13
0.0
 23
0.0
 33
0.0
 16
0.0
 26
0.0
 36
0.0
 17
0.0
 27
0.0
 37
0.0
 76
     0
330
B
331
349
  0
LAYOUT
  5
20
102
{ACAD_REACTORS
330
1E
102
}
330
1E
100
AcDbPlotSettings
  1

  2
none_device
  4
ISO_A3_(420.00_x_297.00_MM)
  6

 40
7.5
 41
20.0
 42
7.5
 43
20.0
 44
420.0
 45
297.0
 46
0.0
 47
0.0
 48
0.0
 49
0.0
140
0.0
141
0.0
142
1.0
143
1.0
 70
  1024
 72
     1
 73
     0
 74
     0
  7

 75
     0
 76
     0
 77
     2
 78
   300
147
1.0
148
0.0
149
0.0
100
AcDbLayout
  1
Model
 70
     0
 71
     1
 10
0.0
 20
0.0
 11
1050.0
 21
1485.0
 12
0.0
 22
0.0
 32
0.0
 14
-200.6064076055237
 24
0.0
 34
-0.0000000000000142
 15
1050.0
 25
1485.0
 35
0.0000000000000142
146
0.0
 13
0.0
 23
0.0
 33
0.0
 16
0.0
 26
0.0
 36
0.0
 17
0.0
 27
0.0
 37
0.0
 76
     0
330
A
331
15
  0
MATERIAL
  5
19F1
102
{ACAD_REACTORS
330
263
102
}
330
263
100
AcDbMaterial
  1
ByBlock
 72
     1
 94
      127
  0
MATERIAL
  5
264
102
{ACAD_REACTORS
330
263
102
}
330
263
100
AcDbMaterial
  1
ByLayer
 72
     1
 94
      127
  0
MATERIAL
  5
266
102
{ACAD_REACTORS
330
263
102
}
330
263
100
AcDbMaterial
  1
Global
 72
     1
 94
      127
  0
MLEADERSTYLE
  5
D59
102
{ACAD_REACTORS
330
336
102
}
330
336
100
AcDbMLeaderStyle
170
     2
171
     1
172
     0
 90
        2
 40
0.0
 41
0.0
173
     1
 91
-1056964608
340
11
 92
       -2
290
     1
 42
2.0
291
     1
 43
8.0
  3
Standard
341
0
 44
4.0
300

342
17
174
     1
178
     6
175
     1
176
     0
 93
-1056964608
 45
4.0
292
     0
297
     0
 46
4.0
343
0
 94
-1056964608
 47
1.0
 49
1.0
140
1.0
293
     1
141
0.0
294
     1
177
     0
142
1.0
295
     0
296
     0
143
3.75
1001
ACAD_MLEADERVER
1070
     2
  0
MLINESTYLE
  5
1C
102
{ACAD_REACTORS
330
1B
102
}
330
1B
100
AcDbMlineStyle
  2
Standard
 70
     0
  3

 62
     0
 51
90.0
 52
90.0
 71
     2
 49
0.5
 62
   256
  6
BYLAYER
 49
-0.5
 62
   256
  6
BYLAYER
  0
ACDBPLACEHOLDER
  5
1D
102
{ACAD_REACTORS
330
1F
102
}
330
1F
  0
SCALE
  5
242
102
{ACAD_REACTORS
330
241
102
}
330
241
100
AcDbScale
 70
     0
300
1:1
140
1.0
141
1.0
290
     1
  0
SCALE
  5
243
102
{ACAD_REACTORS
330
241
102
}
330
241
100
AcDbScale
 70
     0
300
1:2
140
1.0
141
2.0
290
     0
  0
SCALE
  5
244
102
{ACAD_REACTORS
330
241
102
}
330
241
100
AcDbScale
 70
     0
300
1:4
140
1.0
141
4.0
290
     0
  0
SCALE
  5
245
102
{ACAD_REACTORS
330
241
102
}
330
241
100
AcDbScale
 70
     0
300
1:5
140
1.0
141
5.0
290
     0
  0
SCALE
  5
246
102
{ACAD_REACTORS
330
241
102
}
330
241
100
AcDbScale
 70
     0
300
1:8
140
1.0
141
8.0
290
     0
  0
SCALE
  5
247
102
{ACAD_REACTORS
330
241
102
}
330
241
100
AcDbScale
 70
     0
300
1:10
140
1.0
141
10.0
290
     0
  0
SCALE
  5
248
102
{ACAD_REACTORS
330
241
102
}
330
241
100
AcDbScale
 70
     0
300
1:16
140
1.0
141
16.0
290
     0
  0
SCALE
  5
249
102
{ACAD_REACTORS
330
241
102
}
330
241
100
AcDbScale
 70
     0
300
1:20
140
1.0
141
20.0
290
     0
  0
SCALE
  5
24A
102
{ACAD_REACTORS
330
241
102
}
330
241
100
AcDbScale
 70
     0
300
1:30
140
1.0
141
30.0
290
     0
  0
SCALE
  5
24B
102
{ACAD_REACTORS
330
241
102
}
330
241
100
AcDbScale
 70
     0
300
1:40
140
1.0
141
40.0
290
     0
  0
SCALE
  5
24C
102
{ACAD_REACTORS
330
241
102
}
330
241
100
AcDbScale
 70
     0
300
1:50
140
1.0
141
50.0
290
     0
  0
SCALE
  5
24D
102
{ACAD_REACTORS
330
241
102
}
330
241
100
AcDbScale
 70
     0
300
1:100
140
1.0
141
100.0
290
     0
  0
SCALE
  5
24E
102
{ACAD_REACTORS
330
241
102
}
330
241
100
AcDbScale
 70
     0
300
2:1
140
2.0
141
1.0
290
     0
  0
SCALE
  5
24F
102
{ACAD_REACTORS
330
241
102
}
330
241
100
AcDbScale
 70
     0
300
4:1
140
4.0
141
1.0
290
     0
  0
SCALE
  5
250
102
{ACAD_REACTORS
330
241
102
}
330
241
100
AcDbScale
 70
     0
300
8:1
140
8.0
141
1.0
290
     0
  0
SCALE
  5
251
102
{ACAD_REACTORS
330
241
102
}
330
241
100
AcDbScale
 70
     0
300
10:1
140
10.0
141
1.0
290
     0
  0
SCALE
  5
252
102
{ACAD_REACTORS
330
241
102
}
330
241
100
AcDbScale
 70
     0
300
100:1
140
100.0
141
1.0
290
     0
  0
SCALE
  5
253
102
{ACAD_REACTORS
330
241
102
}
330
241
100
AcDbScale
 70
     0
300
1/128" = 1'-0"
140
0.0078125
141
12.0
290
     0
  0
SCALE
  5
254
102
{ACAD_REACTORS
330
241
102
}
330
241
100
AcDbScale
 70
     0
300
1/64" = 1'-0"
140
0.015625
141
12.0
290
     0
  0
SCALE
  5
255
102
{ACAD_REACTORS
330
241
102
}
330
241
100
AcDbScale
 70
     0
300
1/32" = 1'-0"
140
0.03125
141
12.0
290
     0
  0
SCALE
  5
256
102
{ACAD_REACTORS
330
241
102
}
330
241
100
AcDbScale
 70
     0
300
1/16" = 1'-0"
140
0.0625
141
12.0
290
     0
  0
SCALE
  5
257
102
{ACAD_REACTORS
330
241
102
}
330
241
100
AcDbScale
 70
     0
300
3/32" = 1'-0"
140
0.09375
141
12.0
290
     0
  0
SCALE
  5
258
102
{ACAD_REACTORS
330
241
102
}
330
241
100
AcDbScale
 70
     0
300
1/8" = 1'-0"
140
0.125
141
12.0
290
     0
  0
SCALE
  5
259
102
{ACAD_REACTORS
330
241
102
}
330
241
100
AcDbScale
 70
     0
300
3/16" = 1'-0"
140
0.1875
141
12.0
290
     0
  0
SCALE
  5
25A
102
{ACAD_REACTORS
330
241
102
}
330
241
100
AcDbScale
 70
     0
300
1/4" = 1'-0"
140
0.25
141
12.0
290
     0
  0
SCALE
  5
25B
102
{ACAD_REACTORS
330
241
102
}
330
241
100
AcDbScale
 70
     0
300
3/8" = 1'-0"
140
0.375
141
12.0
290
     0
  0
SCALE
  5
25C
102
{ACAD_REACTORS
330
241
102
}
330
241
100
AcDbScale
 70
     0
300
1/2" = 1'-0"
140
0.5
141
12.0
290
     0
  0
SCALE
  5
25D
102
{ACAD_REACTORS
330
241
102
}
330
241
100
AcDbScale
 70
     0
300
3/4" = 1'-0"
140
0.75
141
12.0
290
     0
  0
SCALE
  5
25E
102
{ACAD_REACTORS
330
241
102
}
330
241
100
AcDbScale
 70
     0
300
1" = 1'-0"
140
1.0
141
12.0
290
     0
  0
SCALE
  5
25F
102
{ACAD_REACTORS
330
241
102
}
330
241
100
AcDbScale
 70
     0
300
1-1/2" = 1'-0"
140
1.5
141
12.0
290
     0
  0
SCALE
  5
260
102
{ACAD_REACTORS
330
241
102
}
330
241
100
AcDbScale
 70
     0
300
3" = 1'-0"
140
3.0
141
12.0
290
     0
  0
SCALE
  5
261
102
{ACAD_REACTORS
330
241
102
}
330
241
100
AcDbScale
 70
     0
300
6" = 1'-0"
140
6.0
141
12.0
290
     0
  0
SCALE
  5
262
102
{ACAD_REACTORS
330
241
102
}
330
241
100
AcDbScale
 70
     0
300
1'-0" = 1'-0"
140
12.0
141
12.0
290
     0
  0
TABLESTYLE
  5
279
102
{ACAD_REACTORS
330
278
102
}
102
{ACAD_XDICTIONARY
360
1A57
102
}
330
278
100
AcDbTableStyle
  3
Standard
 70
     0
 71
     0
 40
0.06
 41
0.06
280
     0
281
     0
  7
Standard
140
4.5
170
     2
 62
     0
 63
   257
283
     0
 90
        4
 91
        0
  1

274
    -2
284
     1
 64
     0
275
    -2
285
     1
 65
     0
276
    -2
286
     1
 66
     0
277
    -2
287
     1
 67
     0
278
    -2
288
     1
 68
     0
279
    -2
289
     1
 69
     0
  7
Standard
140
6.0
170
     5
 62
     0
 63
   257
283
     0
 90
        4
 91
        0
  1

274
    -2
284
     1
 64
     0
275
    -2
285
     1
 65
     0
276
    -2
286
     1
 66
     0
277
    -2
287
     1
 67
     0
278
    -2
288
     1
 68
     0
279
    -2
289
     1
 69
     0
  7
Standard
140
4.5
170
     5
 62
     0
 63
   257
283
     0
 90
        4
 91
        0
  1

274
    -2
284
     1
 64
     0
275
    -2
285
     1
 65
     0
276
    -2
286
     1
 66
     0
277
    -2
287
     1
 67
     0
278
    -2
288
     1
 68
     0
279
    -2
289
     1
 69
     0
  0
VISUALSTYLE
  5
26C
102
{ACAD_REACTORS
330
267
102
}
330
267
100
AcDbVisualStyle
  2
2dWireframe
 70
     4
 71
     0
 72
     2
 73
     0
 90
        0
 40
-0.6
 41
-30.0
 62
     5
 63
     7
421
 16777215
 74
     1
 91
        4
 64
     7
 65
   257
 75
     1
175
     1
 42
1.0
 92
        0
 66
   257
 43
1.0
 76
     1
 77
     6
 78
     2
 67
     7
 79
     5
170
     0
171
     0
290
     0
174
     0
 93
        1
 44
0.0
173
     0
291
     0
 45
0.0
  0
VISUALSTYLE
  5
26E
102
{ACAD_REACTORS
330
267
102
}
330
267
100
AcDbVisualStyle
  2
3D Hidden
 70
     6
 71
     1
 72
     2
 73
     2
 90
        0
 40
-0.6
 41
-30.0
 62
     5
 63
     7
421
 16777215
 74
     2
 91
        2
 64
     7
 65
   257
 75
     2
175
     1
 42
40.0
 92
        0
 66
   257
 43
1.0
 76
     1
 77
     6
 78
     2
 67
     7
 79
     3
170
     0
171
     0
290
     0
174
     0
 93
        1
 44
0.0
173
     0
291
     0
 45
0.0
  0
VISUALSTYLE
  5
26D
102
{ACAD_REACTORS
330
267
102
}
330
267
100
AcDbVisualStyle
  2
3dWireframe
 70
     5
 71
     0
 72
     2
 73
     0
 90
        0
 40
-0.6
 41
-30.0
 62
     5
 63
     7
421
 16777215
 74
     1
 91
        4
 64
     7
 65
   257
 75
     1
175
     1
 42
1.0
 92
        0
 66
   257
 43
1.0
 76
     1
 77
     6
 78
     2
 67
     7
 79
     5
170
     0
171
     0
290
     0
174
     0
 93
        1
 44
0.0
173
     0
291
     0
 45
0.0
  0
VISUALSTYLE
  5
26F
102
{ACAD_REACTORS
330
267
102
}
330
267
100
AcDbVisualStyle
  2
Basic
 70
     7
 71
     1
 72
     0
 73
     1
 90
        0
 40
-0.6
 41
-30.0
 62
     5
 63
     7
421
 16777215
 74
     0
 91
        4
 64
     7
 65
   257
 75
     1
175
     1
 42
1.0
 92
        8
 66
     7
 43
1.0
 76
     1
 77
     6
 78
     2
 67
     7
 79
     5
170
     0
171
     0
290
     0
174
     0
 93
        1
 44
0.0
173
     0
291
     1
 45
0.0
  0
VISUALSTYLE
  5
273
102
{ACAD_REACTORS
330
267
102
}
330
267
100
AcDbVisualStyle
  2
Brighten
 70
    12
 71
     2
 72
     2
 73
     0
 90
        0
 40
-0.6
 41
-30.0
 62
     5
 63
     7
421
 16777215
 74
     1
 91
        4
 64
     7
 65
   257
 75
     1
175
     1
 42
1.0
 92
        8
 66
     7
 43
1.0
 76
     1
 77
     6
 78
     2
 67
     7
 79
     5
170
     0
171
     0
290
     0
174
     0
 93
        1
 44
50.0
173
     0
291
     1
 45
0.0
  0
VISUALSTYLE
  5
277
102
{ACAD_REACTORS
330
267
102
}
330
267
100
AcDbVisualStyle
  2
ColorChange
 70
    16
 71
     2
 72
     2
 73
     3
 90
        0
 40
-0.6
 41
-30.0
 62
     5
 63
     8
421
  8421504
 74
     1
 91
        4
 64
     7
 65
   257
 75
     1
175
     1
 42
1.0
 92
        8
 66
     8
424
  8421504
 43
1.0
 76
     1
 77
     6
 78
     2
 67
     7
 79
     5
170
     0
171
     0
290
     0
174
     0
 93
        1
 44
0.0
173
     0
291
     1
 45
0.0
  0
VISUALSTYLE
  5
271
102
{ACAD_REACTORS
330
267
102
}
330
267
100
AcDbVisualStyle
  2
Conceptual
 70
     9
 71
     3
 72
     2
 73
     0
 90
        0
 40
-0.6
 41
-30.0
 62
     5
 63
     7
421
 16777215
 74
     2
 91
        2
 64
     7
 65
   257
 75
     1
175
     1
 42
40.0
 92
        8
 66
     7
 43
1.0
 76
     1
 77
     6
 78
     2
 67
     7
 79
     3
170
     0
171
     0
290
     0
174
     0
 93
        1
 44
0.0
173
     0
291
     0
 45
0.0
  0
VISUALSTYLE
  5
272
102
{ACAD_REACTORS
330
267
102
}
330
267
100
AcDbVisualStyle
  2
Dim
 70
    11
 71
     2
 72
     2
 73
     0
 90
        0
 40
-0.6
 41
-30.0
 62
     5
 63
     7
421
 16777215
 74
     1
 91
        4
 64
     7
 65
   257
 75
     1
175
     1
 42
1.0
 92
        8
 66
     7
 43
1.0
 76
     1
 77
     6
 78
     2
 67
     7
 79
     5
170
     0
171
     0
290
     0
174
     0
 93
        1
 44
-50.0
173
     0
291
     1
 45
0.0
  0
VISUALSTYLE
  5
8FE
102
{ACAD_REACTORS
330
267
102
}
330
267
100
AcDbVisualStyle
  2
EdgeColorOff
 70
    22
 71
     2
 72
     2
 73
     0
 90
        0
 40
0.6
 41
30.0
 62
     5
 63
     7
421
 16777215
 74
     1
 91
        4
 64
     7
 65
   257
 75
     1
175
     1
 42
1.0
 92
        8
 66
     7
 43
1.0
 76
     1
 77
     6
 78
     2
 67
     7
 79
     5
170
     0
171
     0
290
     0
174
     0
 93
        1
 44
0.0
173
     0
291
     1
 45
0.0
  0
VISUALSTYLE
  5
276
102
{ACAD_REACTORS
330
267
102
}
330
267
100
AcDbVisualStyle
  2
Facepattern
 70
    15
 71
     2
 72
     2
 73
     0
 90
        0
 40
-0.6
 41
-30.0
 62
     5
 63
     7
421
 16777215
 74
     1
 91
        4
 64
     7
 65
   257
 75
     1
175
     1
 42
1.0
 92
        8
 66
     7
 43
1.0
 76
     1
 77
     6
 78
     2
 67
     7
 79
     5
170
     0
171
     0
290
     0
174
     0
 93
        1
 44
0.0
173
     0
291
     1
 45
0.0
  0
VISUALSTYLE
  5
268
102
{ACAD_REACTORS
330
267
102
}
330
267
100
AcDbVisualStyle
  2
Flat
 70
     0
 71
     2
 72
     1
 73
     1
 90
        2
 40
-0.6
 41
30.0
 62
     5
 63
     7
421
 16777215
 74
     0
 91
        4
 64
     7
 65
   257
 75
     1
175
     1
 42
1.0
 92
        8
 66
     7
 43
1.0
 76
     1
 77
     6
 78
     2
 67
     7
 79
     5
170
     0
171
     0
290
     0
174
     0
 93
       13
 44
0.0
173
     0
291
     1
 45
0.0
  0
VISUALSTYLE
  5
269
102
{ACAD_REACTORS
330
267
102
}
330
267
100
AcDbVisualStyle
  2
FlatWithEdges
 70
     1
 71
     2
 72
     1
 73
     1
 90
        2
 40
-0.6
 41
30.0
 62
     5
 63
     7
421
 16777215
 74
     1
 91
        4
 64
     7
 65
   257
 75
     1
175
     1
 42
1.0
 92
        0
 66
   257
 43
1.0
 76
     1
 77
     6
 78
     2
 67
     7
 79
     5
170
     0
171
     0
290
     0
174
     0
 93
       13
 44
0.0
173
     0
291
     1
 45
0.0
  0
VISUALSTYLE
  5
26A
102
{ACAD_REACTORS
330
267
102
}
330
267
100
AcDbVisualStyle
  2
Gouraud
 70
     2
 71
     2
 72
     2
 73
     1
 90
        2
 40
-0.6
 41
30.0
 62
     5
 63
     7
421
 16777215
 74
     0
 91
        4
 64
     7
 65
   257
 75
     1
175
     1
 42
1.0
 92
        0
 66
     7
 43
1.0
 76
     1
 77
     6
 78
     2
 67
     7
 79
     5
170
     0
171
     0
290
     0
174
     0
 93
       13
 44
0.0
173
     0
291
     1
 45
0.0
  0
VISUALSTYLE
  5
26B
102
{ACAD_REACTORS
330
267
102
}
330
267
100
AcDbVisualStyle
  2
GouraudWithEdges
 70
     3
 71
     2
 72
     2
 73
     1
 90
        2
 40
-0.6
 41
30.0
 62
     5
 63
     7
421
 16777215
 74
     1
 91
        4
 64
     7
 65
   257
 75
     1
175
     1
 42
1.0
 92
        0
 66
   257
 43
1.0
 76
     1
 77
     6
 78
     2
 67
     7
 79
     5
170
     0
171
     0
290
     0
174
     0
 93
       13
 44
0.0
173
     0
291
     1
 45
0.0
  0
VISUALSTYLE
  5
8FB
102
{ACAD_REACTORS
330
267
102
}
330
267
100
AcDbVisualStyle
  2
Hidden
 70
     6
 71
     1
 72
     2
 73
     2
 90
        0
 40
0.6
 41
30.0
 62
     5
 63
     7
421
 16777215
 74
     2
 91
        2
 64
     7
 65
   257
 75
     2
175
     1
 42
40.0
 92
        0
 66
   257
 43
1.0
 76
     1
 77
     6
 78
     2
 67
     7
 79
     3
170
     0
171
     0
290
     0
174
     0
 93
        1
 44
0.0
173
     0
291
     0
 45
0.0
  0
VISUALSTYLE
  5
8FC
102
{ACAD_REACTORS
330
267
102
}
330
267
100
AcDbVisualStyle
  2
JitterOff
 70
    20
 71
     2
 72
     2
 73
     0
 90
        0
 40
0.6
 41
30.0
 62
     5
 63
     7
421
 16777215
 74
     1
 91
        4
 64
     7
 65
   257
 75
     1
175
     1
 42
1.0
 92
       10
 66
     7
 43
1.0
 76
     1
 77
     6
 78
     2
 67
     7
 79
     5
170
     0
171
     0
290
     0
174
     0
 93
        1
 44
0.0
173
     0
291
     1
 45
0.0
  0
VISUALSTYLE
  5
275
102
{ACAD_REACTORS
330
267
102
}
330
267
100
AcDbVisualStyle
  2
Linepattern
 70
    14
 71
     2
 72
     2
 73
     0
 90
        0
 40
-0.6
 41
-30.0
 62
     5
 63
     7
421
 16777215
 74
     1
 91
        4
 64
     7
 65
   257
 75
     7
175
     7
 42
1.0
 92
        8
 66
     7
 43
1.0
 76
     1
 77
     6
 78
     2
 67
     7
 79
     5
170
     0
171
     0
290
     0
174
     0
 93
        1
 44
0.0
173
     0
291
     1
 45
0.0
  0
VISUALSTYLE
  5
8FD
102
{ACAD_REACTORS
330
267
102
}
330
267
100
AcDbVisualStyle
  2
OverhangOff
 70
    21
 71
     2
 72
     2
 73
     0
 90
        0
 40
0.6
 41
30.0
 62
     5
 63
     7
421
 16777215
 74
     1
 91
        4
 64
     7
 65
   257
 75
     1
175
     1
 42
1.0
 92
        9
 66
     7
 43
1.0
 76
     1
 77
     6
 78
     2
 67
     7
 79
     5
170
     0
171
     0
290
     0
174
     0
 93
        1
 44
0.0
173
     0
291
     1
 45
0.0
  0
VISUALSTYLE
  5
270
102
{ACAD_REACTORS
330
267
102
}
330
267
100
AcDbVisualStyle
  2
Realistic
 70
     8
 71
     2
 72
     2
 73
     0
 90
        0
 40
-0.6
 41
-30.0
 62
     5
 63
     7
421
 16777215
 74
     1
 91
        0
 64
     7
 65
   257
 75
     1
175
     1
 42
1.0
 92
        8
 66
     8
424
  7895160
 43
1.0
 76
     1
 77
     6
 78
     2
 67
     7
 79
     5
170
     0
171
     0
290
     0
174
     0
 93
       13
 44
0.0
173
     0
291
     0
 45
0.0
  0
VISUALSTYLE
  5
903
102
{ACAD_REACTORS
330
267
102
}
330
267
100
AcDbVisualStyle
  2
Shaded
 70
    27
 71
     2
 72
     2
 73
     1
 90
        2
 40
0.6
 41
30.0
 62
     5
 63
     7
421
 16777215
 74
     0
 91
        4
 64
     7
 65
   257
 75
     1
175
     1
 42
1.0
 92
        8
 66
   257
 43
1.0
 76
     1
 77
     6
 78
     2
 67
     8
425
  7895160
 79
     3
170
     0
171
     0
290
     0
174
     0
 93
        5
 44
0.0
173
     0
291
     0
 45
0.0
  0
VISUALSTYLE
  5
902
102
{ACAD_REACTORS
330
267
102
}
330
267
100
AcDbVisualStyle
  2
Shaded with edges
 70
    26
 71
     2
 72
     2
 73
     1
 90
        2
 40
0.6
 41
30.0
 62
     5
 63
     7
421
 16777215
 74
     1
 91
       10
 64
     7
 65
   257
 75
     2
175
     1
 42
1.0
 92
        8
 66
   257
 43
1.0
 76
     1
 77
     6
 78
     2
 67
     7
 79
     3
170
     0
171
     0
290
     0
174
     0
 93
        5
 44
0.0
173
     0
291
     0
 45
0.0
  0
VISUALSTYLE
  5
8FF
102
{ACAD_REACTORS
330
267
102
}
330
267
100
AcDbVisualStyle
  2
Shades of Gray
 70
    23
 71
     2
 72
     2
 73
     3
 90
        0
 40
0.6
 41
30.0
 62
     5
 63
     7
421
 16777215
 74
     2
 91
        2
 64
     7
 65
     7
 75
     1
175
     1
 42
40.0
 92
        8
 66
     7
 43
1.0
 76
     1
 77
     6
 78
     2
 67
     7
 79
     3
170
     0
171
     0
290
     0
174
     0
 93
        1
 44
0.0
173
     0
291
     0
 45
0.0
  0
VISUALSTYLE
  5
900
102
{ACAD_REACTORS
330
267
102
}
330
267
100
AcDbVisualStyle
  2
Sketchy
 70
    24
 71
     1
 72
     2
 73
     2
 90
        0
 40
0.6
 41
30.0
 62
     5
 63
     7
421
 16777215
 74
     2
 91
        2
 64
     7
 65
     7
 75
     1
175
     1
 42
40.0
 92
       11
 66
     7
 43
1.0
 76
     1
 77
     6
 78
     2
 67
     7
 79
     6
170
     0
171
     0
290
     0
174
     0
 93
        1
 44
0.0
173
     0
291
     0
 45
0.0
  0
VISUALSTYLE
  5
274
102
{ACAD_REACTORS
330
267
102
}
330
267
100
AcDbVisualStyle
  2
Thicken
 70
    13
 71
     2
 72
     2
 73
     0
 90
        0
 40
-0.6
 41
-30.0
 62
     5
 63
     7
421
 16777215
 74
     1
 91
        4
 64
     7
 65
   257
 75
     1
175
     1
 42
1.0
 92
       12
 66
     7
 43
1.0
 76
     1
 77
     6
 78
     2
 67
     7
 79
     5
170
     0
171
     0
290
     0
174
     0
 93
        1
 44
0.0
173
     0
291
     1
 45
0.0
  0
VISUALSTYLE
  5
8FA
102
{ACAD_REACTORS
330
267
102
}
330
267
100
AcDbVisualStyle
  2
Wireframe
 70
     5
 71
     0
 72
     2
 73
     0
 90
        0
 40
0.6
 41
30.0
 62
     5
 63
     7
421
 16777215
 74
     1
 91
        4
 64
     7
 65
   257
 75
     1
175
     1
 42
1.0
 92
        0
 66
   257
 43
1.0
 76
     1
 77
     6
 78
     2
 67
     7
 79
     3
170
     0
171
     0
290
     0
174
     0
 93
        1
 44
0.0
173
     0
291
     0
 45
0.0
  0
VISUALSTYLE
  5
901
102
{ACAD_REACTORS
330
267
102
}
330
267
100
AcDbVisualStyle
  2
X-Ray
 70
    25
 71
     2
 72
     2
 73
     1
 90
        1
 40
0.5
 41
30.0
 62
     5
 63
     7
421
 16777215
 74
     1
 91
        0
 64
     7
 65
   257
 75
     1
175
     1
 42
1.0
 92
        8
 66
     7
 43
1.0
 76
     1
 77
     6
 78
     2
 67
     7
 79
     3
170
     0
171
     0
290
     0
174
     0
 93
       13
 44
0.0
173
     0
291
     0
 45
0.0
  0
DICTIONARYVAR
  5
331
102
{ACAD_REACTORS
330
330
102
}
330
330
100
DictionaryVariables
280
     0
  1
1:1
  0
DICTIONARYVAR
  5
D5E
102
{ACAD_REACTORS
330
330
102
}
330
330
100
DictionaryVariables
280
     0
  1
Standard
  0
DICTIONARYVAR
  5
335
102
{ACAD_REACTORS
330
330
102
}
330
330
100
DictionaryVariables
280
     0
  1
Standard
  0
DICTIONARYVAR
  5
D52
102
{ACAD_REACTORS
330
330
102
}
330
330
100
DictionaryVariables
280
     0
  1
ByLayer
  0
DICTIONARYVAR
  5
896
102
{ACAD_REACTORS
330
330
102
}
330
330
100
DictionaryVariables
280
     0
  1
0
  0
DICTIONARYVAR
  5
E3B
102
{ACAD_REACTORS
330
E38
102
}
330
E38
100
DictionaryVariables
280
     0
  1
0.261799
  0
DICTIONARYVAR
  5
E39
102
{ACAD_REACTORS
330
E38
102
}
330
E38
100
DictionaryVariables
280
     0
  1
0.400000
  0
DICTIONARYVAR
  5
E3A
102
{ACAD_REACTORS
330
E38
102
}
330
E38
100
DictionaryVariables
280
     0
  1
0.250000
  0
DICTIONARYVAR
  5
E3C
102
{ACAD_REACTORS
330
E38
102
}
330
E38
100
DictionaryVariables
280
     0
  1
1
  0
XRECORD
  5
7AA
102
{ACAD_REACTORS
330
2E2
102
}
330
2E2
100
AcDbXrecord
280
     1
 91
    34815
301

290
     0
302
HIDDEN
330
14
 90
        8
 62
     7
370
    -3
331
13
  1
Color_7
440
 33554687
330
4B
 90
        8
 62
     7
370
    20
331
13
  1
Color_7
440
 33554687
330
4C
 90
        8
 62
     3
370
    13
331
13
  1
Color_3
440
 33554687
330
4D
 90
        8
 62
     7
370
    20
331
13
  1
Color_7
440
 33554687
330
667
 90
        8
 62
     7
370
    -3
331
13
  1
Color_7
440
 33554687
330
88C
 90
        8
 62
     8
370
    20
331
D6D
  1
Color_8
440
 33554687
330
D6B
 90
        0
 62
     4
370
    20
331
D6C
  1
Color_4
440
 33554687
330
D8C
 90
        0
 62
     7
370
    -3
331
13
  1
Color_7
440
 33554687
  0
FIELD
  5
17D2
102
{ACAD_REACTORS
330
17D1
102
}
330
17D1
100
AcDbField
  1
_text
  2
{%<\_FldIdx 0>%N}
 90
        1
360
17D3
 97
        0
 91
       63
 92
        0
 94
        8
 95
        2
 96
        0
300

 93
        1
  6
ACFD_FIELDTEXT_CHECKSUM
 93
        2
 90
        2
140
4498.0
 94
        0
300

302

304
ACVALUE_END
  7
ACFD_FIELD_VALUE
 93
        6
 90
        4
  1
{20180115N}
 94
        0
300

302

304
ACVALUE_END
301
{20180115N}
 98
       11
  0
DICTIONARY
  5
1A57
330
279
100
AcDbDictionary
280
     1
281
     1
  3
ACAD_ROUNDTRIP_2008_TABLESTYLE_CELLSTYLEMAP
360
1A58
  0
FIELD
  5
17D3
330
17D2
100
AcDbField
  1
AcVar
  2
\AcVar CreateDate \f "yyyyMMdd"
 90
        0
 97
        0
 91
       63
 92
        0
 94
        8
 95
        2
 96
        0
300

 93
        1
  6
Variable
 93
        2
 90
        4
  1
CreateDate
 94
        0
300

302

304
ACVALUE_END
  7
ACFD_FIELD_VALUE
 93
        6
 90
        8
 92
       16
310
E207010000000F00010024001C000000
 94
        0
300
yyyyMMdd
302

304
ACVALUE_END
301
20180115
 98
        8
  0
CELLSTYLEMAP
  5
1A58
102
{ACAD_REACTORS
330
1A57
102
}
330
1A57
100
AcDbCellStyleMap
 90
        3
300
CELLSTYLE
  1
TABLEFORMAT_BEGIN
 90
        5
170
     1
 91
        0
 92
    32768
 62
   257
 93
        1
300
CONTENTFORMAT
  1
CONTENTFORMAT_BEGIN
 90
        0
 91
        0
 92
        4
 93
        0
300

 40
0.0
140
1.0
 94
        5
 62
     0
340
17
144
6.0
309
CONTENTFORMAT_END
171
     1
301
MARGIN
  1
CELLMARGIN_BEGIN
 40
0.06
 40
0.06
 40
0.06
 40
0.06
 40
0.18
 40
0.18
309
CELLMARGIN_END
 94
        6
 95
        1
302
GRIDFORMAT
  1
GRIDFORMAT_BEGIN
 90
        0
 91
        1
 62
     0
 92
       -2
340
0
 93
        0
 40
0.045
309
GRIDFORMAT_END
 95
        2
302
GRIDFORMAT
  1
GRIDFORMAT_BEGIN
 90
        0
 91
        1
 62
     0
 92
       -2
340
0
 93
        0
 40
0.045
309
GRIDFORMAT_END
 95
        4
302
GRIDFORMAT
  1
GRIDFORMAT_BEGIN
 90
        0
 91
        1
 62
     0
 92
       -2
340
0
 93
        0
 40
0.045
309
GRIDFORMAT_END
 95
        8
302
GRIDFORMAT
  1
GRIDFORMAT_BEGIN
 90
        0
 91
        1
 62
     0
 92
       -2
340
0
 93
        0
 40
0.045
309
GRIDFORMAT_END
 95
       16
302
GRIDFORMAT
  1
GRIDFORMAT_BEGIN
 90
        0
 91
        1
 62
     0
 92
       -2
340
0
 93
        0
 40
0.045
309
GRIDFORMAT_END
 95
       32
302
GRIDFORMAT
  1
GRIDFORMAT_BEGIN
 90
        0
 91
        1
 62
     0
 92
       -2
340
0
 93
        0
 40
0.045
309
GRIDFORMAT_END
309
TABLEFORMAT_END
  1
CELLSTYLE_BEGIN
 90
        1
 91
        1
300
_TITLE
309
CELLSTYLE_END
300
CELLSTYLE
  1
TABLEFORMAT_BEGIN
 90
        5
170
     1
 91
        0
 92
        0
 62
   257
 93
        1
300
CONTENTFORMAT
  1
CONTENTFORMAT_BEGIN
 90
        0
 91
        0
 92
        4
 93
        0
300

 40
0.0
140
1.0
 94
        5
 62
     0
340
17
144
4.5
309
CONTENTFORMAT_END
171
     1
301
MARGIN
  1
CELLMARGIN_BEGIN
 40
0.06
 40
0.06
 40
0.06
 40
0.06
 40
0.18
 40
0.18
309
CELLMARGIN_END
 94
        6
 95
        1
302
GRIDFORMAT
  1
GRIDFORMAT_BEGIN
 90
        0
 91
        1
 62
     0
 92
       -2
340
0
 93
        0
 40
0.045
309
GRIDFORMAT_END
 95
        2
302
GRIDFORMAT
  1
GRIDFORMAT_BEGIN
 90
        0
 91
        1
 62
     0
 92
       -2
340
0
 93
        0
 40
0.045
309
GRIDFORMAT_END
 95
        4
302
GRIDFORMAT
  1
GRIDFORMAT_BEGIN
 90
        0
 91
        1
 62
     0
 92
       -2
340
0
 93
        0
 40
0.045
309
GRIDFORMAT_END
 95
        8
302
GRIDFORMAT
  1
GRIDFORMAT_BEGIN
 90
        0
 91
        1
 62
     0
 92
       -2
340
0
 93
        0
 40
0.045
309
GRIDFORMAT_END
 95
       16
302
GRIDFORMAT
  1
GRIDFORMAT_BEGIN
 90
        0
 91
        1
 62
     0
 92
       -2
340
0
 93
        0
 40
0.045
309
GRIDFORMAT_END
 95
       32
302
GRIDFORMAT
  1
GRIDFORMAT_BEGIN
 90
        0
 91
        1
 62
     0
 92
       -2
340
0
 93
        0
 40
0.045
309
GRIDFORMAT_END
309
TABLEFORMAT_END
  1
CELLSTYLE_BEGIN
 90
        2
 91
        1
300
_HEADER
309
CELLSTYLE_END
300
CELLSTYLE
  1
TABLEFORMAT_BEGIN
 90
        5
170
     1
 91
        0
 92
        0
 62
   257
 93
        1
300
CONTENTFORMAT
  1
CONTENTFORMAT_BEGIN
 90
        0
 91
        0
 92
        4
 93
        0
300

 40
0.0
140
1.0
 94
        2
 62
     0
340
17
144
4.5
309
CONTENTFORMAT_END
171
     1
301
MARGIN
  1
CELLMARGIN_BEGIN
 40
0.06
 40
0.06
 40
0.06
 40
0.06
 40
0.18
 40
0.18
309
CELLMARGIN_END
 94
        6
 95
        1
302
GRIDFORMAT
  1
GRIDFORMAT_BEGIN
 90
        0
 91
        1
 62
     0
 92
       -2
340
0
 93
        0
 40
0.045
309
GRIDFORMAT_END
 95
        2
302
GRIDFORMAT
  1
GRIDFORMAT_BEGIN
 90
        0
 91
        1
 62
     0
 92
       -2
340
0
 93
        0
 40
0.045
309
GRIDFORMAT_END
 95
        4
302
GRIDFORMAT
  1
GRIDFORMAT_BEGIN
 90
        0
 91
        1
 62
     0
 92
       -2
340
0
 93
        0
 40
0.045
309
GRIDFORMAT_END
 95
        8
302
GRIDFORMAT
  1
GRIDFORMAT_BEGIN
 90
        0
 91
        1
 62
     0
 92
       -2
340
0
 93
        0
 40
0.045
309
GRIDFORMAT_END
 95
       16
302
GRIDFORMAT
  1
GRIDFORMAT_BEGIN
 90
        0
 91
        1
 62
     0
 92
       -2
340
0
 93
        0
 40
0.045
309
GRIDFORMAT_END
 95
       32
302
GRIDFORMAT
  1
GRIDFORMAT_BEGIN
 90
        0
 91
        1
 62
     0
 92
       -2
340
0
 93
        0
 40
0.045
309
GRIDFORMAT_END
309
TABLEFORMAT_END
  1
CELLSTYLE_BEGIN
 90
        3
 91
        2
300
_DATA
309
CELLSTYLE_END
  0
ENDSEC
  0
EOF
