  0
SECTION
  2
HEADER
  9
$ACADVER
  1
AC1021
  9
$ACADMAINTVER
 70
    25
  9
$DWGCODEPAGE
  3
ANSI_932
  9
$LASTSAVEDBY
  1
howeNelson
  9
$INSBASE
 10
0.0
 20
0.0
 30
0.0
  9
$EXTMIN
 10
0.0
 20
0.0
 30
0.0
  9
$EXTMAX
 10
1050.0
 20
1485.0
 30
0.0000000000000071
  9
$LIMMIN
 10
0.0
 20
0.0
  9
$LIMMAX
 10
1050.0
 20
1485.0
  9
$ORTHOMODE
 70
     0
  9
$REGENMODE
 70
     1
  9
$FILLMODE
 70
     1
  9
$QTEXTMODE
 70
     0
  9
$MIRRTEXT
 70
     1
  9
$LTSCALE
 40
50.0
  9
$ATTMODE
 70
     1
  9
$TEXTSIZE
 40
2.5
  9
$TRACEWID
 40
1.0
  9
$TEXTSTYLE
  7
ＭＳ ゴシック
  9
$CLAYER
  8
HIDDEN
  9
$CELTYPE
  6
ByLayer
  9
$CECOLOR
 62
   256
  9
$CELTSCALE
 40
0.05
  9
$DISPSILH
 70
     0
  9
$DIMSCALE
 40
1.0
  9
$DIMASZ
 40
3.0
  9
$DIMEXO
 40
15.0
  9
$DIMDLI
 40
0.9999999999999999
  9
$DIMRND
 40
0.0
  9
$DIMDLE
 40
0.0
  9
$DIMEXE
 40
0.0
  9
$DIMTP
 40
0.0
  9
$DIMTM
 40
0.0
  9
$DIMTXT
 40
12.0
  9
$DIMCEN
 40
0.0
  9
$DIMTSZ
 40
0.0
  9
$DIMTOL
 70
     0
  9
$DIMLIM
 70
     0
  9
$DIMTIH
 70
     0
  9
$DIMTOH
 70
     0
  9
$DIMSE1
 70
     0
  9
$DIMSE2
 70
     0
  9
$DIMTAD
 70
     1
  9
$DIMZIN
 70
    11
  9
$DIMBLK
  1
DOT
  9
$DIMASO
 70
     1
  9
$DIMSHO
 70
     1
  9
$DIMPOST
  1
<>
  9
$DIMAPOST
  1
[]
  9
$DIMALT
 70
     0
  9
$DIMALTD
 70
     1
  9
$DIMALTF
 40
1.0
  9
$DIMLFAC
 40
1.0
  9
$DIMTOFL
 70
     0
  9
$DIMTVP
 40
0.0
  9
$DIMTIX
 70
     1
  9
$DIMSOXD
 70
     0
  9
$DIMSAH
 70
     0
  9
$DIMBLK1
  1

  9
$DIMBLK2
  1

  9
$DIMSTYLE
  2
tfrom線あり
  9
$DIMCLRD
 70
     0
  9
$DIMCLRE
 70
     0
  9
$DIMCLRT
 70
     0
  9
$DIMTFAC
 40
1.0
  9
$DIMGAP
 40
10.0
  9
$DIMJUST
 70
     0
  9
$DIMSD1
 70
     0
  9
$DIMSD2
 70
     0
  9
$DIMTOLJ
 70
     1
  9
$DIMTZIN
 70
    11
  9
$DIMALTZ
 70
    11
  9
$DIMALTTZ
 70
    11
  9
$DIMUPT
 70
     0
  9
$DIMDEC
 70
     0
  9
$DIMTDEC
 70
     1
  9
$DIMALTU
 70
     2
  9
$DIMALTTD
 70
     2
  9
$DIMTXSTY
  7
ＭＳ ゴシック
  9
$DIMAUNIT
 70
     0
  9
$DIMADEC
 70
     2
  9
$DIMALTRND
 40
0.0
  9
$DIMAZIN
 70
     0
  9
$DIMDSEP
 70
    46
  9
$DIMATFIT
 70
     0
  9
$DIMFRAC
 70
     2
  9
$DIMLDRBLK
  1
DOT
  9
$DIMLUNIT
 70
     2
  9
$DIMLWD
 70
    -2
  9
$DIMLWE
 70
    -2
  9
$DIMTMOVE
 70
     0
  9
$DIMFXL
 40
1.0
  9
$DIMFXLON
 70
     0
  9
$DIMJOGANG
 40
0.7853981633974483
  9
$DIMTFILL
 70
     0
  9
$DIMTFILLCLR
 70
     0
  9
$DIMARCSYM
 70
     0
  9
$DIMLTYPE
  6

  9
$DIMLTEX1
  6

  9
$DIMLTEX2
  6

  9
$LUNITS
 70
     2
  9
$LUPREC
 70
     0
  9
$SKETCHINC
 40
0.1
  9
$FILLETRAD
 40
0.0
  9
$AUNITS
 70
     0
  9
$AUPREC
 70
     0
  9
$MENU
  1
acad
  9
$ELEVATION
 40
0.0
  9
$PELEVATION
 40
0.0
  9
$THICKNESS
 40
0.0
  9
$LIMCHECK
 70
     0
  9
$CHAMFERA
 40
0.0
  9
$CHAMFERB
 40
0.0
  9
$CHAMFERC
 40
0.0
  9
$CHAMFERD
 40
0.0
  9
$SKPOLY
 70
     0
  9
$TDCREATE
 40
2447893.375
  9
$TDUCREATE
 40
0.0
  9
$TDUPDATE
 40
2457567.613693611
  9
$TDUUPDATE
 40
2457567.238693611
  9
$TDINDWG
 40
0.1349047222
  9
$TDUSRTIMER
 40
2457567.238400741
  9
$USRTIMER
 70
     1
  9
$ANGBASE
 50
0.0
  9
$ANGDIR
 70
     0
  9
$PDMODE
 70
     1
  9
$PDSIZE
 40
-2.0
  9
$PLINEWID
 40
0.0
  9
$SPLFRAME
 70
     0
  9
$SPLINETYPE
 70
     6
  9
$SPLINESEGS
 70
     8
  9
$HANDSEED
  5
15E8
  9
$SURFTAB1
 70
     6
  9
$SURFTAB2
 70
     6
  9
$SURFTYPE
 70
     6
  9
$SURFU
 70
     6
  9
$SURFV
 70
     6
  9
$UCSBASE
  2

  9
$UCSNAME
  2

  9
$UCSORG
 10
0.0
 20
0.0
 30
0.0
  9
$UCSXDIR
 10
1.0
 20
0.0
 30
0.0
  9
$UCSYDIR
 10
0.0
 20
1.0
 30
0.0
  9
$UCSORTHOREF
  2

  9
$UCSORTHOVIEW
 70
     0
  9
$UCSORGTOP
 10
0.0
 20
0.0
 30
0.0
  9
$UCSORGBOTTOM
 10
0.0
 20
0.0
 30
0.0
  9
$UCSORGLEFT
 10
0.0
 20
0.0
 30
0.0
  9
$UCSORGRIGHT
 10
0.0
 20
0.0
 30
0.0
  9
$UCSORGFRONT
 10
0.0
 20
0.0
 30
0.0
  9
$UCSORGBACK
 10
0.0
 20
0.0
 30
0.0
  9
$PUCSBASE
  2

  9
$PUCSNAME
  2

  9
$PUCSORG
 10
0.0
 20
0.0
 30
0.0
  9
$PUCSXDIR
 10
1.0
 20
0.0
 30
0.0
  9
$PUCSYDIR
 10
0.0
 20
1.0
 30
0.0
  9
$PUCSORTHOREF
  2

  9
$PUCSORTHOVIEW
 70
     0
  9
$PUCSORGTOP
 10
0.0
 20
0.0
 30
0.0
  9
$PUCSORGBOTTOM
 10
0.0
 20
0.0
 30
0.0
  9
$PUCSORGLEFT
 10
0.0
 20
0.0
 30
0.0
  9
$PUCSORGRIGHT
 10
0.0
 20
0.0
 30
0.0
  9
$PUCSORGFRONT
 10
0.0
 20
0.0
 30
0.0
  9
$PUCSORGBACK
 10
0.0
 20
0.0
 30
0.0
  9
$USERI1
 70
     0
  9
$USERI2
 70
     0
  9
$USERI3
 70
     0
  9
$USERI4
 70
     0
  9
$USERI5
 70
     0
  9
$USERR1
 40
0.0
  9
$USERR2
 40
0.0
  9
$USERR3
 40
0.0
  9
$USERR4
 40
0.0
  9
$USERR5
 40
0.0
  9
$WORLDVIEW
 70
     1
  9
$SHADEDGE
 70
     3
  9
$SHADEDIF
 70
    70
  9
$TILEMODE
 70
     1
  9
$MAXACTVP
 70
    64
  9
$PINSBASE
 10
0.0
 20
0.0
 30
0.0
  9
$PLIMCHECK
 70
     0
  9
$PEXTMIN
 10
0.0
 20
0.0
 30
0.0
  9
$PEXTMAX
 10
0.0
 20
0.0
 30
0.0
  9
$PLIMMIN
 10
-95.87226993865028
 20
-25.69999999999999
  9
$PLIMMAX
 10
201.1277300613497
 20
184.3
  9
$UNITMODE
 70
     0
  9
$VISRETAIN
 70
     0
  9
$PLINEGEN
 70
     1
  9
$PSLTSCALE
 70
     0
  9
$TREEDEPTH
 70
  3020
  9
$CMLSTYLE
  2
Standard
  9
$CMLJUST
 70
     0
  9
$CMLSCALE
 40
1.0
  9
$PROXYGRAPHICS
 70
     0
  9
$MEASUREMENT
 70
     1
  9
$CELWEIGHT
370
    -1
  9
$ENDCAPS
280
     0
  9
$JOINSTYLE
280
     0
  9
$LWDISPLAY
290
     1
  9
$INSUNITS
 70
     4
  9
$HYPERLINKBASE
  1

  9
$STYLESHEET
  1

  9
$XEDIT
290
     1
  9
$CEPSNTYPE
380
     0
  9
$PSTYLEMODE
290
     1
  9
$FINGERPRINTGUID
  2

  9
$VERSIONGUID
  2

  9
$EXTNAMES
290
     1
  9
$PSVPSCALE
 40
0.0
  9
$OLESTARTUP
290
     0
  9
$SORTENTS
280
   127
  9
$INDEXCTL
280
     0
  9
$HIDETEXT
280
     1
  9
$XCLIPFRAME
290
     0
  9
$HALOGAP
280
     0
  9
$OBSCOLOR
 70
   257
  9
$OBSLTYPE
280
     0
  9
$INTERSECTIONDISPLAY
280
     0
  9
$INTERSECTIONCOLOR
 70
   257
  9
$DIMASSOC
280
     2
  9
$PROJECTNAME
  1

  9
$CAMERADISPLAY
290
     0
  9
$LENSLENGTH
 40
50.0
  9
$CAMERAHEIGHT
 40
0.0
  9
$STEPSPERSEC
 40
2.0
  9
$STEPSIZE
 40
6.0
  9
$3DDWFPREC
 40
2.0
  9
$PSOLWIDTH
 40
0.25
  9
$PSOLHEIGHT
 40
4.0
  9
$LOFTANG1
 40
1.570796326794897
  9
$LOFTANG2
 40
1.570796326794897
  9
$LOFTMAG1
 40
0.0
  9
$LOFTMAG2
 40
0.0
  9
$LOFTPARAM
 70
     7
  9
$LOFTNORMALS
280
     1
  9
$LATITUDE
 40
37.795
  9
$LONGITUDE
 40
-122.394
  9
$NORTHDIRECTION
 40
0.0
  9
$TIMEZONE
 70
 -8000
  9
$LIGHTGLYPHDISPLAY
280
     1
  9
$TILEMODELIGHTSYNCH
280
     1
  9
$SOLIDHIST
280
     1
  9
$SHOWHIST
280
     1
  9
$DWFFRAME
280
     2
  9
$DGNFRAME
280
     2
  9
$REALWORLDSCALE
290
     1
  9
$INTERFERECOLOR
 62
   256
  9
$CSHADOW
280
     0
  9
$SHADOWPLANELOCATION
 40
0.0
  0
ENDSEC
  0
SECTION
  2
CLASSES
  0
CLASS
  1
LWPOLYLINE
  2
AcDbPolyline
  3
ObjectDBX Classes
 90
        0
 91
        1
280
     0
281
     1
  0
CLASS
  1
IMAGE
  2
AcDbRasterImage
  3
ISM
 90
      127
 91
       11
280
     0
281
     1
  0
CLASS
  1
OLE2FRAME
  2
AcDbOle2Frame
  3
ObjectDBX Classes
 90
        0
 91
        1
280
     0
281
     1
  0
CLASS
  1
HATCH
  2
AcDbHatch
  3
ObjectDBX Classes
 90
        0
 91
        1
280
     0
281
     1
  0
CLASS
  1
DICTIONARYVAR
  2
AcDbDictionaryVar
  3
ObjectDBX Classes
 90
        0
 91
       10
280
     0
281
     0
  0
CLASS
  1
RASTERVARIABLES
  2
AcDbRasterVariables
  3
ISM
 90
        0
 91
       10
280
     0
281
     0
  0
CLASS
  1
IMAGEDEF
  2
AcDbRasterImageDef
  3
ISM
 90
        0
 91
       10
280
     0
281
     0
  0
CLASS
  1
IMAGEDEF_REACTOR
  2
AcDbRasterImageDefReactor
  3
ISM
 90
        1
 91
       10
280
     0
281
     0
  0
CLASS
  1
IDBUFFER
  2
AcDbIdBuffer
  3
ObjectDBX Classes
 90
        0
 91
       10
280
     0
281
     0
  0
CLASS
  1
SPATIAL_FILTER
  2
AcDbSpatialFilter
  3
ObjectDBX Classes
 90
        0
 91
       10
280
     0
281
     0
  0
CLASS
  1
XRECORD
  2
AcDbXrecord
  3
ObjectDBX Classes
 90
        0
 91
        1
280
     0
281
     0
  0
CLASS
  1
SORTENTSTABLE
  2
AcDbSortentsTable
  3
ObjectDBX Classes
 90
        0
 91
       10
280
     0
281
     0
  0
CLASS
  1
LAYER_INDEX
  2
AcDbLayerIndex
  3
ObjectDBX Classes
 90
        0
 91
       10
280
     0
281
     0
  0
CLASS
  1
SPATIAL_INDEX
  2
AcDbSpatialIndex
  3
AutoCAD 2000
 90
        0
 91
       10
280
     0
281
     0
  0
CLASS
  1
OBJECT_PTR
  2
CAseDLPNTableRecord
  3
ASE-LPNTableRecord
 90
        1
 91
       10
280
     0
281
     0
  0
CLASS
  1
LAYOUT
  2
AcDbLayout
  3
ObjectDBX Classes
 90
        0
 91
        1
280
     0
281
     0
  0
CLASS
  1
PLOTSETTINGS
  2
AcDbPlotSettings
  3
ObjectDBX Classes
 90
        0
 91
       10
280
     0
281
     0
  0
CLASS
  1
ACDBDICTIONARYWDFLT
  2
AcDbDictionaryWithDefault
  3
ObjectDBX Classes
 90
        0
 91
       10
280
     0
281
     0
  0
CLASS
  1
ACDBPLACEHOLDER
  2
AcDbPlaceHolder
  3
ObjectDBX Classes
 90
        0
 91
        1
280
     0
281
     0
  0
CLASS
  1
SCALE
  2
AcDbScale
  3
ObjectDBX Classes
 90
     1153
 91
       10
280
     0
281
     0
  0
CLASS
  1
MATERIAL
  2
AcDbMaterial
  3
ObjectDBX Classes
 90
     1153
 91
       10
280
     0
281
     0
  0
CLASS
  1
VISUALSTYLE
  2
AcDbVisualStyle
  3
ObjectDBX Classes
 90
     4095
 91
       10
280
     0
281
     0
  0
CLASS
  1
TABLESTYLE
  2
AcDbTableStyle
  3
ObjectDBX Classes
 90
     4095
 91
       10
280
     0
281
     0
  0
CLASS
  1
DIMASSOC
  2
AcDbDimAssoc
  3
"AcDbDimAssoc|Product Desc:     AcDim ARX App For Dimension|Company:          Autodesk, Inc.|WEB Address:      www.autodesk.com"
 90
        0
 91
       10
280
     0
281
     0
  0
CLASS
  1
CELLSTYLEMAP
  2
AcDbCellStyleMap
  3
ObjectDBX Classes
 90
     1152
 91
       10
280
     0
281
     0
  0
CLASS
  1
SUN
  2
AcDbSun
  3
SCENEOE
 90
     1153
 91
       10
280
     0
281
     0
  0
CLASS
  1
MLEADERSTYLE
  2
AcDbMLeaderStyle
  3
ACDB_MLEADERSTYLE_CLASS
 90
     4095
 91
       10
280
     0
281
     0
  0
ENDSEC
  0
SECTION
  2
TABLES
  0
TABLE
  2
VPORT
  5
7
330
0
100
AcDbSymbolTable
 70
     1
  0
VPORT
  5
15
330
7
100
AcDbSymbolTableRecord
100
AcDbViewportTableRecord
  2
*ACTIVE
 70
     0
 10
0.0
 20
0.0
 11
1.0
 21
1.0
 12
616.0201356708978
 22
668.901285469834
 13
0.0
 23
0.0
 14
1.0
 24
1.0
 15
0.0
 25
0.0
 16
0.0
 26
0.0
 36
1.0
 17
-91.02013567089784
 27
73.59871453016603
 37
-46.86809886248109
 40
1514.7
 41
2.224
 42
50.0
 43
0.0
 44
0.0
 50
0.0
 51
0.0
 71
    16
 72
  2000
 73
     1
 74
     1
 75
     0
 76
     0
 77
     0
 78
     0
281
     0
 65
     1
110
0.0
120
0.0
130
0.0
111
1.0
121
0.0
131
0.0
112
0.0
122
1.0
132
0.0
 79
     0
146
0.0
348
26C
 60
     3
 61
     5
292
     1
282
     1
141
0.0
142
0.0
 63
   256
361
904
  0
ENDTAB
  0
TABLE
  2
LTYPE
  5
4
330
0
100
AcDbSymbolTable
 70
     3
  0
LTYPE
  5
11
330
4
100
AcDbSymbolTableRecord
100
AcDbLinetypeTableRecord
  2
ByBlock
 70
     0
  3

 72
    65
 73
     0
 40
0.0
  0
LTYPE
  5
12
330
4
100
AcDbSymbolTableRecord
100
AcDbLinetypeTableRecord
  2
ByLayer
 70
     0
  3

 72
    65
 73
     0
 40
0.0
  0
LTYPE
  5
13
330
4
100
AcDbSymbolTableRecord
100
AcDbLinetypeTableRecord
  2
Continuous
 70
     0
  3
Solid line
 72
    65
 73
     0
 40
0.0
  0
LTYPE
  5
D6C
330
4
100
AcDbSymbolTableRecord
100
AcDbLinetypeTableRecord
  2
BORDER
 70
     0
  3
Border __  __  . __  __  . __  __  . __  __  . 
 72
    65
 73
     6
 40
44.45
 49
12.7
 74
     0
 49
-6.35
 74
     0
 49
12.7
 74
     0
 49
-6.35
 74
     0
 49
0.0
 74
     0
 49
-6.35
 74
     0
  0
LTYPE
  5
D6D
330
4
100
AcDbSymbolTableRecord
100
AcDbLinetypeTableRecord
  2
HIDDEN
 70
     0
  3
Hidden _ _ _ _ _ _ _ _ _ _ _ _ _ _ _ _ _ _ _ _ 
 72
    65
 73
     2
 40
9.524999999999999
 49
6.35
 74
     0
 49
-3.175
 74
     0
  0
ENDTAB
  0
TABLE
  2
LAYER
  5
2
102
{ACAD_XDICTIONARY
360
2E1
102
}
330
0
100
AcDbSymbolTable
 70
     8
  0
LAYER
  5
14
330
2
100
AcDbSymbolTableRecord
100
AcDbLayerTableRecord
  2
0
 70
     0
 62
     7
  6
Continuous
370
    -3
390
1D
347
266
  0
LAYER
  5
4B
330
2
100
AcDbSymbolTableRecord
100
AcDbLayerTableRecord
  2
TEMPLATE
 70
     0
 62
     7
  6
Continuous
370
    20
390
1D
347
266
  0
LAYER
  5
4C
330
2
100
AcDbSymbolTableRecord
100
AcDbLayerTableRecord
  2
DIM
 70
     0
 62
     3
  6
Continuous
370
    13
390
1D
347
266
  0
LAYER
  5
4D
330
2
100
AcDbSymbolTableRecord
100
AcDbLayerTableRecord
  2
MODEL
 70
     0
 62
     7
  6
Continuous
370
    20
390
1D
347
266
  0
LAYER
  5
667
330
2
100
AcDbSymbolTableRecord
100
AcDbLayerTableRecord
  2
LOGO
 70
     0
 62
     7
  6
Continuous
370
    -3
390
1D
347
266
  0
LAYER
  5
88C
330
2
100
AcDbSymbolTableRecord
100
AcDbLayerTableRecord
  2
HIDDEN
 70
     0
 62
     8
  6
HIDDEN
370
    20
390
1D
347
266
1001
AcAecLayerStandard
1000

1000

  0
LAYER
  5
D6B
330
2
100
AcDbSymbolTableRecord
100
AcDbLayerTableRecord
  2
BORDER
 70
     0
 62
     4
  6
BORDER
290
     0
370
    20
390
1D
347
266
1001
AcAecLayerStandard
1000

1000

  0
LAYER
  5
D8C
330
2
100
AcDbSymbolTableRecord
100
AcDbLayerTableRecord
  2
Defpoints
 70
     0
 62
     7
  6
Continuous
290
     0
370
    -3
390
1D
347
266
  0
ENDTAB
  0
TABLE
  2
STYLE
  5
3
330
0
100
AcDbSymbolTable
 70
     2
  0
STYLE
  5
17
330
3
100
AcDbSymbolTableRecord
100
AcDbTextStyleTableRecord
  2
Standard
 70
     0
 40
0.0
 41
1.0
 50
0.0
 71
     0
 42
2.5
  3
txt
  4
BIGFONT.SHX
  0
STYLE
  5
39
330
3
100
AcDbSymbolTableRecord
100
AcDbTextStyleTableRecord
  2
ＭＳ ゴシック
 70
     0
 40
0.0
 41
1.0
 50
0.0
 71
     0
 42
2.5
  3
msgothic.ttc
  4
ＭＳ ゴシック
1001
ACAD
1000
ＭＳ ゴシック
1071
        0
  0
ENDTAB
  0
TABLE
  2
VIEW
  5
5
330
0
100
AcDbSymbolTable
 70
     0
  0
ENDTAB
  0
TABLE
  2
UCS
  5
6
330
0
100
AcDbSymbolTable
 70
     0
  0
ENDTAB
  0
TABLE
  2
APPID
  5
8
330
0
100
AcDbSymbolTable
 70
     3
  0
APPID
  5
16
330
8
100
AcDbSymbolTableRecord
100
AcDbRegAppTableRecord
  2
ACAD
 70
     0
  0
APPID
  5
7AC
330
8
100
AcDbSymbolTableRecord
100
AcDbRegAppTableRecord
  2
AcAecLayerStandard
 70
     0
  0
APPID
  5
E29
330
8
100
AcDbSymbolTableRecord
100
AcDbRegAppTableRecord
  2
ACAD_MLEADERVER
 70
     0
  0
ENDTAB
  0
TABLE
  2
DIMSTYLE
  5
9
330
0
100
AcDbSymbolTable
 70
     2
100
AcDbDimStyleTable
  0
DIMSTYLE
105
18
330
9
100
AcDbSymbolTableRecord
100
AcDbDimStyleTableRecord
  2
Standard
 70
     0
178
     0
340
17
  0
DIMSTYLE
105
57
102
{ACAD_REACTORS
330
11D7
330
11D8
330
13BB
330
13D0
330
13D3
330
13D6
330
13D9
330
13DA
330
13DB
330
13DE
330
13E1
330
14F2
102
}
330
9
100
AcDbSymbolTableRecord
100
AcDbDimStyleTableRecord
  2
tfrom線あり
 70
     0
  3
<>
  4
[]
 41
3.0
 42
15.0
 43
0.9999999999999999
 44
0.0
 73
     0
 74
     0
 77
     1
 78
    11
140
12.0
141
0.0
143
1.0
147
10.0
171
     1
174
     1
178
     0
179
     2
271
     0
272
     1
276
     2
284
    11
285
    11
286
    11
289
     0
340
39
341
4E
342
4E
  0
ENDTAB
  0
TABLE
  2
BLOCK_RECORD
  5
1
330
0
100
AcDbSymbolTable
 70
    18
  0
BLOCK_RECORD
  5
A
330
1
100
AcDbSymbolTableRecord
100
AcDbBlockTableRecord
  2
*MODEL_SPACE
340
20
 70
     0
280
     1
281
     0
  0
BLOCK_RECORD
  5
B
330
1
100
AcDbSymbolTableRecord
100
AcDbBlockTableRecord
  2
*PAPER_SPACE
340
21
 70
     0
280
     1
281
     0
  0
BLOCK_RECORD
  5
4E
330
1
100
AcDbSymbolTableRecord
100
AcDbBlockTableRecord
  2
_DOT
340
0
102
{BLKREFS
331
13E8
331
13E9
331
13F4
331
13F5
331
1400
331
1401
331
140C
331
140D
331
1418
331
1419
331
1424
331
1425
331
1430
331
1431
331
143C
331
143D
331
1448
331
1449
331
1454
331
1455
331
145F
331
1460
331
14FB
331
14FC
102
}
 70
     0
280
     1
281
     0
  0
BLOCK_RECORD
  5
68A
330
1
100
AcDbSymbolTableRecord
100
AcDbBlockTableRecord
  2
名称未設定-1
340
0
102
{BLKREFS
331
6B5
102
}
 70
     1
280
     1
281
     0
  0
BLOCK_RECORD
  5
68D
330
1
100
AcDbSymbolTableRecord
100
AcDbBlockTableRecord
  2
block 2
340
0
102
{BLKREFS
331
68C
331
118B
102
}
 70
     0
280
     1
281
     0
  0
BLOCK_RECORD
  5
690
330
1
100
AcDbSymbolTableRecord
100
AcDbBlockTableRecord
  2
block 3
340
0
102
{BLKREFS
331
68F
102
}
 70
     0
280
     1
281
     0
  0
BLOCK_RECORD
  5
693
330
1
100
AcDbSymbolTableRecord
100
AcDbBlockTableRecord
  2
block 4
340
0
102
{BLKREFS
331
692
102
}
 70
     0
280
     1
281
     0
  0
BLOCK_RECORD
  5
6A2
330
1
100
AcDbSymbolTableRecord
100
AcDbBlockTableRecord
  2
block 5
340
0
102
{BLKREFS
331
6A1
102
}
 70
     0
280
     1
281
     0
  0
BLOCK_RECORD
  5
13E2
330
1
100
AcDbSymbolTableRecord
100
AcDbBlockTableRecord
  2
*D6
340
0
 70
     0
280
     1
281
     0
  0
BLOCK_RECORD
  5
13EE
330
1
100
AcDbSymbolTableRecord
100
AcDbBlockTableRecord
  2
*D7
340
0
 70
     0
280
     1
281
     0
  0
BLOCK_RECORD
  5
13FA
330
1
100
AcDbSymbolTableRecord
100
AcDbBlockTableRecord
  2
*D8
340
0
 70
     0
280
     1
281
     0
  0
BLOCK_RECORD
  5
1406
330
1
100
AcDbSymbolTableRecord
100
AcDbBlockTableRecord
  2
*D9
340
0
 70
     0
280
     1
281
     0
  0
BLOCK_RECORD
  5
1412
330
1
100
AcDbSymbolTableRecord
100
AcDbBlockTableRecord
  2
*D10
340
0
 70
     0
280
     1
281
     0
  0
BLOCK_RECORD
  5
141E
330
1
100
AcDbSymbolTableRecord
100
AcDbBlockTableRecord
  2
*D11
340
0
 70
     0
280
     1
281
     0
  0
BLOCK_RECORD
  5
142A
330
1
100
AcDbSymbolTableRecord
100
AcDbBlockTableRecord
  2
*D12
340
0
 70
     0
280
     1
281
     0
  0
BLOCK_RECORD
  5
1436
330
1
100
AcDbSymbolTableRecord
100
AcDbBlockTableRecord
  2
*D13
340
0
 70
     0
280
     1
281
     0
  0
BLOCK_RECORD
  5
1442
330
1
100
AcDbSymbolTableRecord
100
AcDbBlockTableRecord
  2
*D14
340
0
 70
     0
280
     1
281
     0
  0
BLOCK_RECORD
  5
144E
330
1
100
AcDbSymbolTableRecord
100
AcDbBlockTableRecord
  2
*D15
340
0
 70
     0
280
     1
281
     0
  0
BLOCK_RECORD
  5
145A
330
1
100
AcDbSymbolTableRecord
100
AcDbBlockTableRecord
  2
*D16
340
0
 70
     0
280
     1
281
     0
  0
BLOCK_RECORD
  5
14F5
330
1
100
AcDbSymbolTableRecord
100
AcDbBlockTableRecord
  2
*D17
340
0
 70
     0
280
     1
281
     0
  0
ENDTAB
  0
ENDSEC
  0
SECTION
  2
BLOCKS
  0
BLOCK
  5
D
330
A
100
AcDbEntity
  8
0
390
1D
100
AcDbBlockBegin
  2
*MODEL_SPACE
 70
     0
 10
0.0
 20
0.0
 30
0.0
  3
*MODEL_SPACE
  1
*MODEL_SPACE
  0
ENDBLK
  5
E
330
A
100
AcDbEntity
  8
0
390
1D
100
AcDbBlockEnd
  0
BLOCK
  5
F
330
B
100
AcDbEntity
 67
     1
  8
0
390
1D
100
AcDbBlockBegin
  2
*PAPER_SPACE
 70
     0
 10
0.0
 20
0.0
 30
0.0
  3
*PAPER_SPACE
  1
*PAPER_SPACE
  0
ENDBLK
  5
10
330
B
100
AcDbEntity
 67
     1
  8
0
390
1D
100
AcDbBlockEnd
  0
BLOCK
  5
148C
330
4E
100
AcDbEntity
  8
0
390
1D
100
AcDbBlockBegin
  2
_DOT
 70
     0
 10
0.0
 20
0.0
 30
0.0
  3
_DOT
  1
_DOT
  0
POLYLINE
  5
148E
330
4E
100
AcDbEntity
  8
0
  6
ByBlock
 62
     0
370
    -2
390
1D
100
AcDb2dPolyline
 66
     1
 10
0.0
 20
0.0
 30
0.0
 70
     1
 40
0.5
 41
0.5
  0
VERTEX
  5
148F
330
148E
100
AcDbEntity
  8
0
  6
ByBlock
 62
     0
370
    -2
390
1D
100
AcDbVertex
100
AcDb2dVertex
 10
-0.25
 20
0.0
 30
0.0
 42
1.0
  0
VERTEX
  5
1490
330
148E
100
AcDbEntity
  8
0
  6
ByBlock
 62
     0
370
    -2
390
1D
100
AcDbVertex
100
AcDb2dVertex
 10
0.25
 20
0.0
 30
0.0
 42
1.0
  0
SEQEND
  5
1491
330
148E
100
AcDbEntity
  8
0
390
1D
  0
LINE
  5
1492
330
4E
100
AcDbEntity
  8
0
  6
ByBlock
 62
     0
370
    -2
390
1D
100
AcDbLine
 10
-0.5
 20
0.0
 30
0.0
 11
-1.0
 21
0.0
 31
0.0
  0
ENDBLK
  5
1493
330
4E
100
AcDbEntity
  8
0
390
1D
100
AcDbBlockEnd
  0
BLOCK
  5
68B
330
68A
100
AcDbEntity
  8
0
100
AcDbBlockBegin
  2
名称未設定-1
 70
     0
 10
0.0
 20
0.0
 30
0.0
  3
名称未設定-1
  1
名称未設定-1
  0
INSERT
  5
68F
330
68A
100
AcDbEntity
  8
LOGO
100
AcDbBlockReference
  2
block 3
 10
0.0
 20
0.0
 30
0.0
  0
ENDBLK
  5
6B1
330
68A
100
AcDbEntity
  8
0
100
AcDbBlockEnd
  0
BLOCK
  5
68E
330
68D
100
AcDbEntity
  8
0
100
AcDbBlockBegin
  2
block 2
 70
     0
 10
0.0
 20
0.0
 30
0.0
  3
block 2
  1
block 2
  0
ENDBLK
  5
6B0
330
68D
100
AcDbEntity
  8
0
100
AcDbBlockEnd
  0
BLOCK
  5
691
330
690
100
AcDbEntity
  8
0
100
AcDbBlockBegin
  2
block 3
 70
     0
 10
0.0
 20
0.0
 30
0.0
  3
block 3
  1
block 3
  0
INSERT
  5
692
330
690
100
AcDbEntity
  8
LOGO
100
AcDbBlockReference
  2
block 4
 10
0.0
 20
0.0
 30
0.0
  0
INSERT
  5
6A1
330
690
100
AcDbEntity
  8
LOGO
100
AcDbBlockReference
  2
block 5
 10
0.0
 20
0.0
 30
0.0
  0
ENDBLK
  5
6AF
330
690
100
AcDbEntity
  8
0
100
AcDbBlockEnd
  0
BLOCK
  5
694
330
693
100
AcDbEntity
  8
0
100
AcDbBlockBegin
  2
block 4
 70
     0
 10
0.0
 20
0.0
 30
0.0
  3
block 4
  1
block 4
  0
POLYLINE
  5
695
330
693
100
AcDbEntity
  8
LOGO
370
     0
100
AcDb2dPolyline
 66
     1
 10
0.0
 20
0.0
 30
0.0
  0
VERTEX
  5
696
330
695
100
AcDbEntity
  8
LOGO
370
     0
100
AcDbVertex
100
AcDb2dVertex
 10
83.79545727667795
 20
167.6444858234922
 30
0.0
  0
VERTEX
  5
697
330
695
100
AcDbEntity
  8
LOGO
370
     0
100
AcDbVertex
100
AcDb2dVertex
 10
83.79545727667795
 20
159.7968976406313
 30
0.0
  0
VERTEX
  5
698
330
695
100
AcDbEntity
  8
LOGO
370
     0
100
AcDbVertex
100
AcDb2dVertex
 10
71.3631329975216
 20
159.7968976406313
 30
0.0
  0
VERTEX
  5
699
330
695
100
AcDbEntity
  8
LOGO
370
     0
100
AcDbVertex
100
AcDb2dVertex
 10
71.3631329975216
 20
127.8027915271048
 30
0.0
  0
VERTEX
  5
69A
330
695
100
AcDbEntity
  8
LOGO
370
     0
100
AcDbVertex
100
AcDb2dVertex
 10
60.43011526263018
 20
127.8027915271048
 30
0.0
  0
VERTEX
  5
69B
330
695
100
AcDbEntity
  8
LOGO
370
     0
100
AcDbVertex
100
AcDb2dVertex
 10
60.43011526263018
 20
159.7968976406313
 30
0.0
  0
VERTEX
  5
69C
330
695
100
AcDbEntity
  8
LOGO
370
     0
100
AcDbVertex
100
AcDb2dVertex
 10
48.21793273020759
 20
159.7968976406313
 30
0.0
  0
VERTEX
  5
69D
330
695
100
AcDbEntity
  8
LOGO
370
     0
100
AcDbVertex
100
AcDb2dVertex
 10
48.21793273020759
 20
167.6444858234922
 30
0.0
  0
VERTEX
  5
69E
330
695
100
AcDbEntity
  8
LOGO
370
     0
100
AcDbVertex
100
AcDb2dVertex
 10
83.79545727667795
 20
167.6444858234922
 30
0.0
  0
SEQEND
  5
69F
330
695
100
AcDbEntity
  8
LOGO
370
     0
  0
HATCH
  5
6A0
330
693
100
AcDbEntity
  8
LOGO
 62
   250
420
  2234388
100
AcDbHatch
 10
0.0
 20
0.0
 30
0.0
210
0.0
220
0.0
230
1.0
  2
SOLID
 70
     1
 71
     0
 91
        1
 92
        1
 93
        8
 72
     1
 10
83.79545727667795
 20
167.6444858234922
 11
83.79545727667795
 21
159.7968976406313
 72
     1
 10
83.79545727667795
 20
159.7968976406313
 11
71.3631329975216
 21
159.7968976406313
 72
     1
 10
71.3631329975216
 20
159.7968976406313
 11
71.3631329975216
 21
127.8027915271048
 72
     1
 10
71.3631329975216
 20
127.8027915271048
 11
60.43011526263018
 21
127.8027915271048
 72
     1
 10
60.43011526263018
 20
127.8027915271048
 11
60.43011526263018
 21
159.7968976406313
 72
     1
 10
60.43011526263018
 20
159.7968976406313
 11
48.21793273020759
 21
159.7968976406313
 72
     1
 10
48.21793273020759
 20
159.7968976406313
 11
48.21793273020759
 21
167.6444858234922
 72
     1
 10
48.21793273020759
 20
167.6444858234922
 11
83.79545727667795
 21
167.6444858234922
 97
        0
 75
     2
 76
     1
 98
        0
  0
ENDBLK
  5
6AE
330
693
100
AcDbEntity
  8
0
100
AcDbBlockEnd
  0
BLOCK
  5
6A3
330
6A2
100
AcDbEntity
  8
0
100
AcDbBlockBegin
  2
block 5
 70
     0
 10
0.0
 20
0.0
 30
0.0
  3
block 5
  1
block 5
  0
SPLINE
  5
6A4
330
6A2
100
AcDbEntity
  8
LOGO
370
     0
100
AcDbSpline
210
0.0
220
0.0
230
1.0
 70
    11
 71
     3
 72
    56
 73
    52
 74
     0
 42
0.000000001
 43
0.0000000001
 40
0.0
 40
0.0
 40
0.0
 40
0.0
 40
1.0
 40
1.0
 40
1.0
 40
2.0
 40
2.0
 40
2.0
 40
3.0
 40
3.0
 40
3.0
 40
4.0
 40
4.0
 40
4.0
 40
5.0
 40
5.0
 40
5.0
 40
6.0
 40
6.0
 40
6.0
 40
7.0
 40
7.0
 40
7.0
 40
8.0
 40
8.0
 40
8.0
 40
9.0
 40
9.0
 40
9.0
 40
10.0
 40
10.0
 40
10.0
 40
11.0
 40
11.0
 40
11.0
 40
12.0
 40
12.0
 40
12.0
 40
13.0
 40
13.0
 40
13.0
 40
14.0
 40
14.0
 40
14.0
 40
15.0
 40
15.0
 40
15.0
 40
16.0
 40
16.0
 40
16.0
 40
17.0
 40
17.0
 40
17.0
 40
17.0
 10
100.4504378777679
 20
166.69157178364
 30
0.0
 10
101.9848844191641
 20
167.1313385124438
 30
0.0
 10
103.9637485713373
 20
166.7649523658846
 30
0.0
 10
103.9637485713373
 20
166.7649523658846
 30
0.0
 10
103.9637485713373
 20
166.7649523658846
 30
0.0
 10
103.0132460999156
 20
163.911205638077
 30
0.0
 10
103.0132460999156
 20
163.911205638077
 30
0.0
 10
103.0132460999156
 20
163.911205638077
 30
0.0
 10
101.0674548862189
 20
164.3601018759394
 30
0.0
 10
99.57090442016032
 20
163.1805004036133
 30
0.0
 10
98.40508333886608
 20
162.258247733807
 30
0.0
 10
97.65301849830304
 20
159.804132345923
 30
0.0
 10
97.3598406791005
 20
158.8699940888517
 30
0.0
 10
97.3598406791005
 20
158.8699940888517
 30
0.0
 10
96.07137411762282
 20
154.9119212747295
 30
0.0
 10
96.07137411762282
 20
154.9119212747295
 30
0.0
 10
96.07137411762282
 20
154.9119212747295
 30
0.0
 10
100.3012651448482
 20
154.9119212747295
 30
0.0
 10
100.3012651448482
 20
154.9119212747295
 30
0.0
 10
100.3012651448482
 20
154.9119212747295
 30
0.0
 10
99.64152892419852
 20
152.4199098115079
 30
0.0
 10
99.64152892419852
 20
152.4199098115079
 30
0.0
 10
99.64152892419852
 20
152.4199098115079
 30
0.0
 10
95.38097652692731
 20
152.4199098115079
 30
0.0
 10
95.38097652692731
 20
152.4199098115079
 30
0.0
 10
95.38097652692731
 20
152.4199098115079
 30
0.0
 10
87.75353009080013
 20
127.8027915271048
 30
0.0
 10
87.75353009080013
 20
127.8027915271048
 30
0.0
 10
87.75353009080013
 20
127.8027915271048
 30
0.0
 10
85.36538832498108
 20
127.8027915271048
 30
0.0
 10
85.36538832498108
 20
127.8027915271048
 30
0.0
 10
85.36538832498108
 20
127.8027915271048
 30
0.0
 10
93.00006946639998
 20
152.4199098115079
 30
0.0
 10
93.00006946639998
 20
152.4199098115079
 30
0.0
 10
93.00006946639998
 20
152.4199098115079
 30
0.0
 10
89.85297266450198
 20
152.4199098115079
 30
0.0
 10
89.85297266450198
 20
152.4199098115079
 30
0.0
 10
89.85297266450198
 20
152.4199098115079
 30
0.0
 10
90.51270888515164
 20
154.9119212747295
 30
0.0
 10
90.51270888515164
 20
154.9119212747295
 30
0.0
 10
90.51270888515164
 20
154.9119212747295
 30
0.0
 10
93.6904670570955
 20
154.9119212747295
 30
0.0
 10
93.6904670570955
 20
154.9119212747295
 30
0.0
 10
93.6904670570955
 20
154.9119212747295
 30
0.0
 10
94.81598049462158
 20
158.3616699146644
 30
0.0
 10
94.81598049462158
 20
158.3616699146644
 30
0.0
 10
95.7237637538445
 20
161.2605474231013
 30
0.0
 10
96.4968436907311
 20
162.8139420021662
 30
0.0
 10
97.15657991138076
 20
163.9844139654337
 30
0.0
 10
97.81183750494507
 20
165.1523021053827
 30
0.0
 10
99.1047826935081
 20
166.3084769129547
 30
0.0
 10
100.4504378777679
 20
166.69157178364
 30
0.0
  0
HATCH
  5
6A5
330
6A2
100
AcDbEntity
  8
LOGO
 62
   250
420
  2234388
100
AcDbHatch
 10
0.0
 20
0.0
 30
0.0
210
0.0
220
0.0
230
1.0
  2
SOLID
 70
     1
 71
     0
 91
        1
 92
        1
 93
        1
 72
     4
 94
        3
 73
     0
 74
     1
 95
       56
 96
       52
 40
0.0
 40
0.0
 40
0.0
 40
0.0
 40
1.0
 40
1.0
 40
1.0
 40
2.0
 40
2.0
 40
2.0
 40
3.0
 40
3.0
 40
3.0
 40
4.0
 40
4.0
 40
4.0
 40
5.0
 40
5.0
 40
5.0
 40
6.0
 40
6.0
 40
6.0
 40
7.0
 40
7.0
 40
7.0
 40
8.0
 40
8.0
 40
8.0
 40
9.0
 40
9.0
 40
9.0
 40
10.0
 40
10.0
 40
10.0
 40
11.0
 40
11.0
 40
11.0
 40
12.0
 40
12.0
 40
12.0
 40
13.0
 40
13.0
 40
13.0
 40
14.0
 40
14.0
 40
14.0
 40
15.0
 40
15.0
 40
15.0
 40
16.0
 40
16.0
 40
16.0
 40
17.0
 40
17.0
 40
17.0
 40
17.0
 10
100.4504378777679
 20
166.69157178364
 10
101.9848844191641
 20
167.1313385124438
 10
103.9637485713373
 20
166.7649523658846
 10
103.9637485713373
 20
166.7649523658846
 10
103.9637485713373
 20
166.7649523658846
 10
103.0132460999156
 20
163.911205638077
 10
103.0132460999156
 20
163.911205638077
 10
103.0132460999156
 20
163.911205638077
 10
101.0674548862189
 20
164.3601018759394
 10
99.57090442016032
 20
163.1805004036133
 10
98.40508333886608
 20
162.258247733807
 10
97.65301849830304
 20
159.804132345923
 10
97.3598406791005
 20
158.8699940888517
 10
97.3598406791005
 20
158.8699940888517
 10
96.07137411762282
 20
154.9119212747295
 10
96.07137411762282
 20
154.9119212747295
 10
96.07137411762282
 20
154.9119212747295
 10
100.3012651448482
 20
154.9119212747295
 10
100.3012651448482
 20
154.9119212747295
 10
100.3012651448482
 20
154.9119212747295
 10
99.64152892419852
 20
152.4199098115079
 10
99.64152892419852
 20
152.4199098115079
 10
99.64152892419852
 20
152.4199098115079
 10
95.38097652692731
 20
152.4199098115079
 10
95.38097652692731
 20
152.4199098115079
 10
95.38097652692731
 20
152.4199098115079
 10
87.75353009080013
 20
127.8027915271048
 10
87.75353009080013
 20
127.8027915271048
 10
87.75353009080013
 20
127.8027915271048
 10
85.36538832498108
 20
127.8027915271048
 10
85.36538832498108
 20
127.8027915271048
 10
85.36538832498108
 20
127.8027915271048
 10
93.00006946639998
 20
152.4199098115079
 10
93.00006946639998
 20
152.4199098115079
 10
93.00006946639998
 20
152.4199098115079
 10
89.85297266450198
 20
152.4199098115079
 10
89.85297266450198
 20
152.4199098115079
 10
89.85297266450198
 20
152.4199098115079
 10
90.51270888515164
 20
154.9119212747295
 10
90.51270888515164
 20
154.9119212747295
 10
90.51270888515164
 20
154.9119212747295
 10
93.6904670570955
 20
154.9119212747295
 10
93.6904670570955
 20
154.9119212747295
 10
93.6904670570955
 20
154.9119212747295
 10
94.81598049462158
 20
158.3616699146644
 10
94.81598049462158
 20
158.3616699146644
 10
95.7237637538445
 20
161.2605474231013
 10
96.4968436907311
 20
162.8139420021662
 10
97.15657991138076
 20
163.9844139654337
 10
97.81183750494507
 20
165.1523021053827
 10
99.1047826935081
 20
166.3084769129547
 10
100.4504378777679
 20
166.69157178364
 97
        0
 75
     2
 76
     1
 98
        0
  0
SPLINE
  5
6A6
330
6A2
100
AcDbEntity
  8
LOGO
370
     0
100
AcDbSpline
210
0.0
220
0.0
230
1.0
 70
    11
 71
     3
 72
    38
 73
    34
 74
     0
 42
0.000000001
 43
0.0000000001
 40
0.0
 40
0.0
 40
0.0
 40
0.0
 40
1.0
 40
1.0
 40
1.0
 40
2.0
 40
2.0
 40
2.0
 40
3.0
 40
3.0
 40
3.0
 40
4.0
 40
4.0
 40
4.0
 40
5.0
 40
5.0
 40
5.0
 40
6.0
 40
6.0
 40
6.0
 40
7.0
 40
7.0
 40
7.0
 40
8.0
 40
8.0
 40
8.0
 40
9.0
 40
9.0
 40
9.0
 40
10.0
 40
10.0
 40
10.0
 40
11.0
 40
11.0
 40
11.0
 40
11.0
 10
126.377554584636
 20
154.8151140277308
 30
0.0
 10
126.377554584636
 20
154.8151140277308
 30
0.0
 10
128.8311532078563
 20
154.8151140277308
 30
0.0
 10
128.8311532078563
 20
154.8151140277308
 30
0.0
 10
128.8311532078563
 20
154.8151140277308
 30
0.0
 10
127.7345785914971
 20
151.3062819612468
 30
0.0
 10
127.7345785914971
 20
151.3062819612468
 30
0.0
 10
128.571392836906
 20
152.2922689395754
 30
0.0
 10
129.8860421413442
 20
153.604506675583
 30
0.0
 10
131.0163787157314
 20
154.2664822097754
 30
0.0
 10
132.7044766171327
 20
155.2500576196734
 30
0.0
 10
133.6642808525008
 20
155.3847609420097
 30
0.0
 10
134.7284715499351
 20
155.3565111403944
 30
0.0
 10
134.7284715499351
 20
155.3565111403944
 30
0.0
 10
133.6877075172549
 20
152.0345756272799
 30
0.0
 10
133.6877075172549
 20
152.0345756272799
 30
0.0
 10
133.011434827367
 20
152.3184516825359
 30
0.0
 10
130.930940291334
 20
151.7768823149844
 30
0.0
 10
129.739280976855
 20
150.9162968950455
 30
0.0
 10
128.66613302525
 20
150.1454562717016
 30
0.0
 10
127.9192358313239
 20
149.4857200510519
 30
0.0
 10
127.0393578639405
 20
147.8282835196966
 30
0.0
 10
126.164647543194
 20
146.1699857139017
 30
0.0
 10
125.4742499524985
 20
143.5262176944419
 30
0.0
 10
124.2822461282437
 20
139.6959580071401
 30
0.0
 10
124.2822461282437
 20
139.6959580071401
 30
0.0
 10
120.5753209406769
 20
127.8027915271048
 30
0.0
 10
120.5753209406769
 20
127.8027915271048
 30
0.0
 10
120.5753209406769
 20
127.8027915271048
 30
0.0
 10
118.1964809388044
 20
127.8027915271048
 30
0.0
 10
118.1964809388044
 20
127.8027915271048
 30
0.0
 10
118.1964809388044
 20
127.8027915271048
 30
0.0
 10
126.377554584636
 20
154.8151140277308
 30
0.0
 10
126.377554584636
 20
154.8151140277308
 30
0.0
  0
HATCH
  5
6A7
330
6A2
100
AcDbEntity
  8
LOGO
 62
   250
420
  2234388
100
AcDbHatch
 10
0.0
 20
0.0
 30
0.0
210
0.0
220
0.0
230
1.0
  2
SOLID
 70
     1
 71
     0
 91
        1
 92
        1
 93
        1
 72
     4
 94
        3
 73
     0
 74
     1
 95
       38
 96
       34
 40
0.0
 40
0.0
 40
0.0
 40
0.0
 40
1.0
 40
1.0
 40
1.0
 40
2.0
 40
2.0
 40
2.0
 40
3.0
 40
3.0
 40
3.0
 40
4.0
 40
4.0
 40
4.0
 40
5.0
 40
5.0
 40
5.0
 40
6.0
 40
6.0
 40
6.0
 40
7.0
 40
7.0
 40
7.0
 40
8.0
 40
8.0
 40
8.0
 40
9.0
 40
9.0
 40
9.0
 40
10.0
 40
10.0
 40
10.0
 40
11.0
 40
11.0
 40
11.0
 40
11.0
 10
126.377554584636
 20
154.8151140277308
 10
126.377554584636
 20
154.8151140277308
 10
128.8311532078563
 20
154.8151140277308
 10
128.8311532078563
 20
154.8151140277308
 10
128.8311532078563
 20
154.8151140277308
 10
127.7345785914971
 20
151.3062819612468
 10
127.7345785914971
 20
151.3062819612468
 10
128.571392836906
 20
152.2922689395754
 10
129.8860421413442
 20
153.604506675583
 10
131.0163787157314
 20
154.2664822097754
 10
132.7044766171327
 20
155.2500576196734
 10
133.6642808525008
 20
155.3847609420097
 10
134.7284715499351
 20
155.3565111403944
 10
134.7284715499351
 20
155.3565111403944
 10
133.6877075172549
 20
152.0345756272799
 10
133.6877075172549
 20
152.0345756272799
 10
133.011434827367
 20
152.3184516825359
 10
130.930940291334
 20
151.7768823149844
 10
129.739280976855
 20
150.9162968950455
 10
128.66613302525
 20
150.1454562717016
 10
127.9192358313239
 20
149.4857200510519
 10
127.0393578639405
 20
147.8282835196966
 10
126.164647543194
 20
146.1699857139017
 10
125.4742499524985
 20
143.5262176944419
 10
124.2822461282437
 20
139.6959580071401
 10
124.2822461282437
 20
139.6959580071401
 10
120.5753209406769
 20
127.8027915271048
 10
120.5753209406769
 20
127.8027915271048
 10
120.5753209406769
 20
127.8027915271048
 10
118.1964809388044
 20
127.8027915271048
 10
118.1964809388044
 20
127.8027915271048
 10
118.1964809388044
 20
127.8027915271048
 10
126.377554584636
 20
154.8151140277308
 10
126.377554584636
 20
154.8151140277308
 97
        0
 75
     2
 76
     1
 98
        0
  0
SPLINE
  5
6A8
330
6A2
100
AcDbEntity
  8
LOGO
370
     0
100
AcDbSpline
210
0.0
220
0.0
230
1.0
 70
    11
 71
     3
 72
   104
 73
   100
 74
     0
 42
0.000000001
 43
0.0000000001
 40
0.0
 40
0.0
 40
0.0
 40
0.0
 40
1.0
 40
1.0
 40
1.0
 40
2.0
 40
2.0
 40
2.0
 40
3.0
 40
3.0
 40
3.0
 40
4.0
 40
4.0
 40
4.0
 40
5.0
 40
5.0
 40
5.0
 40
6.0
 40
6.0
 40
6.0
 40
7.0
 40
7.0
 40
7.0
 40
8.0
 40
8.0
 40
8.0
 40
9.0
 40
9.0
 40
9.0
 40
10.0
 40
10.0
 40
10.0
 40
11.0
 40
11.0
 40
11.0
 40
12.0
 40
12.0
 40
12.0
 40
13.0
 40
13.0
 40
13.0
 40
14.0
 40
14.0
 40
14.0
 40
15.0
 40
15.0
 40
15.0
 40
16.0
 40
16.0
 40
16.0
 40
17.0
 40
17.0
 40
17.0
 40
18.0
 40
18.0
 40
18.0
 40
19.0
 40
19.0
 40
19.0
 40
20.0
 40
20.0
 40
20.0
 40
21.0
 40
21.0
 40
21.0
 40
22.0
 40
22.0
 40
22.0
 40
23.0
 40
23.0
 40
23.0
 40
24.0
 40
24.0
 40
24.0
 40
25.0
 40
25.0
 40
25.0
 40
26.0
 40
26.0
 40
26.0
 40
27.0
 40
27.0
 40
27.0
 40
28.0
 40
28.0
 40
28.0
 40
29.0
 40
29.0
 40
29.0
 40
30.0
 40
30.0
 40
30.0
 40
31.0
 40
31.0
 40
31.0
 40
32.0
 40
32.0
 40
32.0
 40
33.0
 40
33.0
 40
33.0
 40
33.0
 10
139.8926730891197
 20
154.8294111834263
 30
0.0
 10
139.8926730891197
 20
154.8294111834263
 30
0.0
 10
142.0344903652445
 20
154.8294111834263
 30
0.0
 10
142.0344903652445
 20
154.8294111834263
 30
0.0
 10
142.0344903652445
 20
154.8294111834263
 30
0.0
 10
140.9516961399171
 20
151.3157559800812
 30
0.0
 10
140.9516961399171
 20
151.3157559800812
 30
0.0
 10
141.8928968473923
 20
152.7887075264977
 30
0.0
 10
142.7341897198865
 20
153.4484437471474
 30
0.0
 10
143.8552245303272
 20
154.2926649527359
 30
0.0
 10
144.9803934580775
 20
155.1296514530327
 30
0.0
 10
146.3139908001845
 20
155.3044901642492
 30
0.0
 10
147.241066606852
 20
155.3044901642492
 30
0.0
 10
148.3855280820469
 20
155.3044901642492
 30
0.0
 10
149.4969166187653
 20
155.0752189084569
 30
0.0
 10
150.0784491203092
 20
153.8172414621372
 30
0.0
 10
150.5228667310863
 20
152.833838307127
 30
0.0
 10
150.5414702589793
 20
152.7201500811143
 30
0.0
 10
150.4140016419347
 20
150.7765981809602
 30
0.0
 10
151.5818897818837
 20
152.7699317437168
 30
0.0
 10
152.4424752018226
 20
153.6256940267945
 30
0.0
 10
153.9038856707499
 20
154.4507949398263
 30
0.0
 10
155.4455669174378
 20
155.3044901642492
 30
0.0
 10
156.339225275853
 20
155.3659851592288
 30
0.0
 10
157.3748216618963
 20
155.2147453676543
 30
0.0
 10
158.911679771723
 20
154.9877134254046
 30
0.0
 10
159.8859534176746
 20
154.4390816074493
 30
0.0
 10
160.3965169054045
 20
152.7816450760939
 30
0.0
 10
160.9070803931344
 20
151.1219692311958
 30
0.0
 10
160.6328506116007
 20
150.2303779314354
 30
0.0
 10
159.9992971339115
 20
147.597634224801
 30
0.0
 10
159.7105979417943
 20
146.4014962832367
 30
0.0
 10
159.2947746424084
 20
144.9400858143094
 30
0.0
 10
158.7463150793409
 20
143.2092687007094
 30
0.0
 10
158.7463150793409
 20
143.2092687007094
 30
0.0
 10
153.9038856707499
 20
127.8027915271048
 30
0.0
 10
153.9038856707499
 20
127.8027915271048
 30
0.0
 10
153.9038856707499
 20
127.8027915271048
 30
0.0
 10
151.3882752878863
 20
127.8027915271048
 30
0.0
 10
151.3882752878863
 20
127.8027915271048
 30
0.0
 10
151.3882752878863
 20
127.8027915271048
 30
0.0
 10
155.6250565106276
 20
141.2751908193897
 30
0.0
 10
155.6250565106276
 20
141.2751908193897
 30
0.0
 10
156.5094131050963
 20
144.0936252951782
 30
0.0
 10
157.109893644309
 20
146.1506931664571
 30
0.0
 10
157.4220195011804
 20
147.4415712963654
 30
0.0
 10
157.8095929989511
 20
149.0530157726519
 30
0.0
 10
157.9656559273867
 20
149.5826995529385
 30
0.0
 10
157.7816877071116
 20
150.7529992613181
 30
0.0
 10
157.6111553680925
 20
151.8430281919372
 30
0.0
 10
157.0582171779396
 20
152.5547853887321
 30
0.0
 10
156.1170164704645
 20
152.5547853887321
 30
0.0
 10
155.1096698860365
 20
152.5547853887321
 30
0.0
 10
154.2962823053817
 20
152.4412694176073
 30
0.0
 10
153.156643967048
 20
151.2945686288697
 30
0.0
 10
152.0170056287143
 20
150.1476955852443
 30
0.0
 10
151.076149431015
 20
148.7930831468137
 30
0.0
 10
150.3337308641742
 20
147.2290087646991
 30
0.0
 10
149.5957909244188
 20
145.6683794803425
 30
0.0
 10
148.8530278478023
 20
143.6822806228776
 30
0.0
 10
148.0964843801539
 20
141.2751908193897
 30
0.0
 10
148.0964843801539
 20
141.2751908193897
 30
0.0
 10
143.8552245303272
 20
127.8027915271048
 30
0.0
 10
143.8552245303272
 20
127.8027915271048
 30
0.0
 10
143.8552245303272
 20
127.8027915271048
 30
0.0
 10
141.486030802177
 20
127.8027915271048
 30
0.0
 10
141.486030802177
 20
127.8027915271048
 30
0.0
 10
141.486030802177
 20
127.8027915271048
 30
0.0
 10
146.3329388378533
 20
143.2092687007094
 30
0.0
 10
146.3329388378533
 20
143.2092687007094
 30
0.0
 10
146.8483254624444
 20
144.8408669988801
 30
0.0
 10
147.2314203331297
 20
146.1837661049335
 30
0.0
 10
147.4867020769946
 20
147.224185627838
 30
0.0
 10
147.9169947869641
 20
149.0197705792876
 30
0.0
 10
148.0306830129768
 20
150.2400242051577
 30
0.0
 10
147.709255392159
 20
151.3157559800812
 30
0.0
 10
147.3874832615654
 20
152.3916600098926
 30
0.0
 10
146.8245542879144
 20
152.6683013598569
 30
0.0
 10
145.8840425999909
 20
152.6683013598569
 30
0.0
 10
145.0989048209514
 20
152.6683013598569
 30
0.0
 10
144.3282364524954
 20
152.3275811915945
 30
0.0
 10
143.4531816219731
 20
151.6538923250251
 30
0.0
 10
142.34627171234
 20
150.8074318058939
 30
0.0
 10
141.901854101563
 20
150.1097995099067
 30
0.0
 10
141.3578731655808
 20
149.289521733736
 30
0.0
 10
140.6299240093235
 20
148.192602607601
 30
0.0
 10
140.2850697237515
 20
147.455696197173
 30
0.0
 10
139.6652966370942
 20
145.8385673095858
 30
0.0
 10
139.0506911970739
 20
144.2214384219986
 30
0.0
 10
138.463991048893
 20
142.3252566160164
 30
0.0
 10
138.0571250036777
 20
141.0154304484394
 30
0.0
 10
138.0571250036777
 20
141.0154304484394
 30
0.0
 10
133.9009590684727
 20
127.8027915271048
 30
0.0
 10
133.9009590684727
 20
127.8027915271048
 30
0.0
 10
133.9009590684727
 20
127.8027915271048
 30
0.0
 10
131.4180771143097
 20
127.8027915271048
 30
0.0
 10
131.4180771143097
 20
127.8027915271048
 30
0.0
 10
131.4180771143097
 20
127.8027915271048
 30
0.0
 10
139.8926730891197
 20
154.8294111834263
 30
0.0
 10
139.8926730891197
 20
154.8294111834263
 30
0.0
  0
HATCH
  5
6A9
330
6A2
100
AcDbEntity
  8
LOGO
 62
   250
420
  2234388
100
AcDbHatch
 10
0.0
 20
0.0
 30
0.0
210
0.0
220
0.0
230
1.0
  2
SOLID
 70
     1
 71
     0
 91
        1
 92
        1
 93
        1
 72
     4
 94
        3
 73
     0
 74
     1
 95
      104
 96
      100
 40
0.0
 40
0.0
 40
0.0
 40
0.0
 40
1.0
 40
1.0
 40
1.0
 40
2.0
 40
2.0
 40
2.0
 40
3.0
 40
3.0
 40
3.0
 40
4.0
 40
4.0
 40
4.0
 40
5.0
 40
5.0
 40
5.0
 40
6.0
 40
6.0
 40
6.0
 40
7.0
 40
7.0
 40
7.0
 40
8.0
 40
8.0
 40
8.0
 40
9.0
 40
9.0
 40
9.0
 40
10.0
 40
10.0
 40
10.0
 40
11.0
 40
11.0
 40
11.0
 40
12.0
 40
12.0
 40
12.0
 40
13.0
 40
13.0
 40
13.0
 40
14.0
 40
14.0
 40
14.0
 40
15.0
 40
15.0
 40
15.0
 40
16.0
 40
16.0
 40
16.0
 40
17.0
 40
17.0
 40
17.0
 40
18.0
 40
18.0
 40
18.0
 40
19.0
 40
19.0
 40
19.0
 40
20.0
 40
20.0
 40
20.0
 40
21.0
 40
21.0
 40
21.0
 40
22.0
 40
22.0
 40
22.0
 40
23.0
 40
23.0
 40
23.0
 40
24.0
 40
24.0
 40
24.0
 40
25.0
 40
25.0
 40
25.0
 40
26.0
 40
26.0
 40
26.0
 40
27.0
 40
27.0
 40
27.0
 40
28.0
 40
28.0
 40
28.0
 40
29.0
 40
29.0
 40
29.0
 40
30.0
 40
30.0
 40
30.0
 40
31.0
 40
31.0
 40
31.0
 40
32.0
 40
32.0
 40
32.0
 40
33.0
 40
33.0
 40
33.0
 40
33.0
 10
139.8926730891197
 20
154.8294111834263
 10
139.8926730891197
 20
154.8294111834263
 10
142.0344903652445
 20
154.8294111834263
 10
142.0344903652445
 20
154.8294111834263
 10
142.0344903652445
 20
154.8294111834263
 10
140.9516961399171
 20
151.3157559800812
 10
140.9516961399171
 20
151.3157559800812
 10
141.8928968473923
 20
152.7887075264977
 10
142.7341897198865
 20
153.4484437471474
 10
143.8552245303272
 20
154.2926649527359
 10
144.9803934580775
 20
155.1296514530327
 10
146.3139908001845
 20
155.3044901642492
 10
147.241066606852
 20
155.3044901642492
 10
148.3855280820469
 20
155.3044901642492
 10
149.4969166187653
 20
155.0752189084569
 10
150.0784491203092
 20
153.8172414621372
 10
150.5228667310863
 20
152.833838307127
 10
150.5414702589793
 20
152.7201500811143
 10
150.4140016419347
 20
150.7765981809602
 10
151.5818897818837
 20
152.7699317437168
 10
152.4424752018226
 20
153.6256940267945
 10
153.9038856707499
 20
154.4507949398263
 10
155.4455669174378
 20
155.3044901642492
 10
156.339225275853
 20
155.3659851592288
 10
157.3748216618963
 20
155.2147453676543
 10
158.911679771723
 20
154.9877134254046
 10
159.8859534176746
 20
154.4390816074493
 10
160.3965169054045
 20
152.7816450760939
 10
160.9070803931344
 20
151.1219692311958
 10
160.6328506116007
 20
150.2303779314354
 10
159.9992971339115
 20
147.597634224801
 10
159.7105979417943
 20
146.4014962832367
 10
159.2947746424084
 20
144.9400858143094
 10
158.7463150793409
 20
143.2092687007094
 10
158.7463150793409
 20
143.2092687007094
 10
153.9038856707499
 20
127.8027915271048
 10
153.9038856707499
 20
127.8027915271048
 10
153.9038856707499
 20
127.8027915271048
 10
151.3882752878863
 20
127.8027915271048
 10
151.3882752878863
 20
127.8027915271048
 10
151.3882752878863
 20
127.8027915271048
 10
155.6250565106276
 20
141.2751908193897
 10
155.6250565106276
 20
141.2751908193897
 10
156.5094131050963
 20
144.0936252951782
 10
157.109893644309
 20
146.1506931664571
 10
157.4220195011804
 20
147.4415712963654
 10
157.8095929989511
 20
149.0530157726519
 10
157.9656559273867
 20
149.5826995529385
 10
157.7816877071116
 20
150.7529992613181
 10
157.6111553680925
 20
151.8430281919372
 10
157.0582171779396
 20
152.5547853887321
 10
156.1170164704645
 20
152.5547853887321
 10
155.1096698860365
 20
152.5547853887321
 10
154.2962823053817
 20
152.4412694176073
 10
153.156643967048
 20
151.2945686288697
 10
152.0170056287143
 20
150.1476955852443
 10
151.076149431015
 20
148.7930831468137
 10
150.3337308641742
 20
147.2290087646991
 10
149.5957909244188
 20
145.6683794803425
 10
148.8530278478023
 20
143.6822806228776
 10
148.0964843801539
 20
141.2751908193897
 10
148.0964843801539
 20
141.2751908193897
 10
143.8552245303272
 20
127.8027915271048
 10
143.8552245303272
 20
127.8027915271048
 10
143.8552245303272
 20
127.8027915271048
 10
141.486030802177
 20
127.8027915271048
 10
141.486030802177
 20
127.8027915271048
 10
141.486030802177
 20
127.8027915271048
 10
146.3329388378533
 20
143.2092687007094
 10
146.3329388378533
 20
143.2092687007094
 10
146.8483254624444
 20
144.8408669988801
 10
147.2314203331297
 20
146.1837661049335
 10
147.4867020769946
 20
147.224185627838
 10
147.9169947869641
 20
149.0197705792876
 10
148.0306830129768
 20
150.2400242051577
 10
147.709255392159
 20
151.3157559800812
 10
147.3874832615654
 20
152.3916600098926
 10
146.8245542879144
 20
152.6683013598569
 10
145.8840425999909
 20
152.6683013598569
 10
145.0989048209514
 20
152.6683013598569
 10
144.3282364524954
 20
152.3275811915945
 10
143.4531816219731
 20
151.6538923250251
 10
142.34627171234
 20
150.8074318058939
 10
141.901854101563
 20
150.1097995099067
 10
141.3578731655808
 20
149.289521733736
 10
140.6299240093235
 20
148.192602607601
 10
140.2850697237515
 20
147.455696197173
 10
139.6652966370942
 20
145.8385673095858
 10
139.0506911970739
 20
144.2214384219986
 10
138.463991048893
 20
142.3252566160164
 10
138.0571250036777
 20
141.0154304484394
 10
138.0571250036777
 20
141.0154304484394
 10
133.9009590684727
 20
127.8027915271048
 10
133.9009590684727
 20
127.8027915271048
 10
133.9009590684727
 20
127.8027915271048
 10
131.4180771143097
 20
127.8027915271048
 10
131.4180771143097
 20
127.8027915271048
 10
131.4180771143097
 20
127.8027915271048
 10
139.8926730891197
 20
154.8294111834263
 10
139.8926730891197
 20
154.8294111834263
 97
        0
 75
     2
 76
     1
 98
        0
  0
SPLINE
  5
6AA
330
6A2
100
AcDbEntity
  8
LOGO
370
     0
100
AcDbSpline
210
0.0
220
0.0
230
1.0
 70
    11
 71
     3
 72
    29
 73
    25
 74
     0
 42
0.000000001
 43
0.0000000001
 40
0.0
 40
0.0
 40
0.0
 40
0.0
 40
1.0
 40
1.0
 40
1.0
 40
2.0
 40
2.0
 40
2.0
 40
3.0
 40
3.0
 40
3.0
 40
4.0
 40
4.0
 40
4.0
 40
5.0
 40
5.0
 40
5.0
 40
6.0
 40
6.0
 40
6.0
 40
7.0
 40
7.0
 40
7.0
 40
8.0
 40
8.0
 40
8.0
 40
8.0
 10
101.6420971922469
 20
132.8388354296931
 30
0.0
 10
101.630039350094
 20
134.7164137077823
 30
0.0
 10
102.2236296937908
 20
138.0598810818841
 30
0.0
 10
103.7487744712405
 20
142.5378191476827
 30
0.0
 10
105.819967243327
 20
148.5896501242061
 30
0.0
 10
107.0602024361932
 20
150.8074318058939
 30
0.0
 10
108.1522984254671
 20
151.8833358357054
 30
0.0
 10
109.741177511439
 20
153.4532668840085
 30
0.0
 10
111.8740375333931
 20
153.5290590346837
 30
0.0
 10
112.5075910110823
 20
153.4532668840085
 30
0.0
 10
113.4012493694975
 20
153.3490526768302
 30
0.0
 10
114.6683563248758
 20
152.7580461564518
 30
0.0
 10
114.7493161221879
 20
150.7838328862519
 30
0.0
 10
114.8106388622796
 20
149.0909118479895
 30
0.0
 10
114.3186789024427
 20
145.9191825971221
 30
0.0
 10
112.6164561002338
 20
140.9489400617108
 30
0.0
 10
110.6444821435766
 20
135.1746117095912
 30
0.0
 10
109.4669477299053
 20
132.8960240524753
 30
0.0
 10
108.5212683953448
 20
131.9072809959403
 30
0.0
 10
106.7346406980658
 20
130.0538184021569
 30
0.0
 10
104.8222669326213
 20
130.2336525051225
 30
0.0
 10
104.5408024457958
 20
130.2336525051225
 30
0.0
 10
104.1721769856939
 20
130.2336525051225
 30
0.0
 10
101.6465758193322
 20
130.6305277668397
 30
0.0
 10
101.6420971922469
 20
132.8388354296931
 30
0.0
  0
SPLINE
  5
6AB
330
6A2
100
AcDbEntity
  8
LOGO
370
     0
100
AcDbSpline
210
0.0
220
0.0
230
1.0
 70
    11
 71
     3
 72
    32
 73
    28
 74
     0
 42
0.000000001
 43
0.0000000001
 40
0.0
 40
0.0
 40
0.0
 40
0.0
 40
1.0
 40
1.0
 40
1.0
 40
2.0
 40
2.0
 40
2.0
 40
3.0
 40
3.0
 40
3.0
 40
4.0
 40
4.0
 40
4.0
 40
5.0
 40
5.0
 40
5.0
 40
6.0
 40
6.0
 40
6.0
 40
7.0
 40
7.0
 40
7.0
 40
8.0
 40
8.0
 40
8.0
 40
9.0
 40
9.0
 40
9.0
 40
9.0
 10
106.2595617172429
 20
153.4105476718098
 30
0.0
 10
104.8222669326213
 20
151.5474388043041
 30
0.0
 10
103.7177685914188
 20
149.8758773721411
 30
0.0
 10
101.9232171692965
 20
144.6141795664062
 30
0.0
 10
100.2754269116635
 20
139.7999999594306
 30
0.0
 10
99.22777268346732
 20
136.3052927937542
 30
0.0
 10
99.06964269637689
 20
132.039572749846
 30
0.0
 10
98.94665270641765
 20
128.8673267343149
 30
0.0
 10
100.8807305877373
 20
127.8027915271048
 30
0.0
 10
103.7129454545577
 20
127.8027915271048
 30
0.0
 10
104.9352661390825
 20
127.8027915271048
 30
0.0
 10
108.0151835347002
 20
127.8827177950895
 30
0.0
 10
110.2045431598849
 20
130.5926316915021
 30
0.0
 10
111.7417457794874
 20
132.4984597712065
 30
0.0
 10
113.155269389579
 20
134.475256864725
 30
0.0
 10
115.0562743324223
 20
140.9489400617108
 30
0.0
 10
116.6361961642235
 20
146.3680788349845
 30
0.0
 10
117.7282921534974
 20
149.8639917848761
 30
0.0
 10
117.6480213757369
 20
151.8595646611754
 30
0.0
 10
117.6480213757369
 20
151.8595646611754
 30
0.0
 10
117.6480213757369
 20
151.8595646611754
 30
0.0
 10
117.6480213757369
 20
151.8595646611754
 30
0.0
 10
117.13229024137
 20
155.18150017429
 30
0.0
 10
114.7162431837115
 20
155.886194920681
 30
0.0
 10
113.3351034925446
 20
155.886194920681
 30
0.0
 10
111.9829026225447
 20
155.886194920681
 30
0.0
 10
108.3414342923792
 20
156.1251124501957
 30
0.0
 10
106.2595617172429
 20
153.4105476718098
 30
0.0
  0
HATCH
  5
6AC
330
6A2
100
AcDbEntity
  8
LOGO
 62
   250
420
  2234388
100
AcDbHatch
 10
0.0
 20
0.0
 30
0.0
210
0.0
220
0.0
230
1.0
  2
SOLID
 70
     1
 71
     0
 91
        2
 92
        1
 93
        1
 72
     4
 94
        3
 73
     0
 74
     1
 95
       29
 96
       25
 40
0.0
 40
0.0
 40
0.0
 40
0.0
 40
1.0
 40
1.0
 40
1.0
 40
2.0
 40
2.0
 40
2.0
 40
3.0
 40
3.0
 40
3.0
 40
4.0
 40
4.0
 40
4.0
 40
5.0
 40
5.0
 40
5.0
 40
6.0
 40
6.0
 40
6.0
 40
7.0
 40
7.0
 40
7.0
 40
8.0
 40
8.0
 40
8.0
 40
8.0
 10
101.6420971922469
 20
132.8388354296931
 10
101.630039350094
 20
134.7164137077823
 10
102.2236296937908
 20
138.0598810818841
 10
103.7487744712405
 20
142.5378191476827
 10
105.819967243327
 20
148.5896501242061
 10
107.0602024361932
 20
150.8074318058939
 10
108.1522984254671
 20
151.8833358357054
 10
109.741177511439
 20
153.4532668840085
 10
111.8740375333931
 20
153.5290590346837
 10
112.5075910110823
 20
153.4532668840085
 10
113.4012493694975
 20
153.3490526768302
 10
114.6683563248758
 20
152.7580461564518
 10
114.7493161221879
 20
150.7838328862519
 10
114.8106388622796
 20
149.0909118479895
 10
114.3186789024427
 20
145.9191825971221
 10
112.6164561002338
 20
140.9489400617108
 10
110.6444821435766
 20
135.1746117095912
 10
109.4669477299053
 20
132.8960240524753
 10
108.5212683953448
 20
131.9072809959403
 10
106.7346406980658
 20
130.0538184021569
 10
104.8222669326213
 20
130.2336525051225
 10
104.5408024457958
 20
130.2336525051225
 10
104.1721769856939
 20
130.2336525051225
 10
101.6465758193322
 20
130.6305277668397
 10
101.6420971922469
 20
132.8388354296931
 97
        0
 92
        1
 93
        1
 72
     4
 94
        3
 73
     0
 74
     1
 95
       32
 96
       28
 40
0.0
 40
0.0
 40
0.0
 40
0.0
 40
1.0
 40
1.0
 40
1.0
 40
2.0
 40
2.0
 40
2.0
 40
3.0
 40
3.0
 40
3.0
 40
4.0
 40
4.0
 40
4.0
 40
5.0
 40
5.0
 40
5.0
 40
6.0
 40
6.0
 40
6.0
 40
7.0
 40
7.0
 40
7.0
 40
8.0
 40
8.0
 40
8.0
 40
9.0
 40
9.0
 40
9.0
 40
9.0
 10
106.2595617172429
 20
153.4105476718098
 10
104.8222669326213
 20
151.5474388043041
 10
103.7177685914188
 20
149.8758773721411
 10
101.9232171692965
 20
144.6141795664062
 10
100.2754269116635
 20
139.7999999594306
 10
99.22777268346732
 20
136.3052927937542
 10
99.06964269637689
 20
132.039572749846
 10
98.94665270641765
 20
128.8673267343149
 10
100.8807305877373
 20
127.8027915271048
 10
103.7129454545577
 20
127.8027915271048
 10
104.9352661390825
 20
127.8027915271048
 10
108.0151835347002
 20
127.8827177950895
 10
110.2045431598849
 20
130.5926316915021
 10
111.7417457794874
 20
132.4984597712065
 10
113.155269389579
 20
134.475256864725
 10
115.0562743324223
 20
140.9489400617108
 10
116.6361961642235
 20
146.3680788349845
 10
117.7282921534974
 20
149.8639917848761
 10
117.6480213757369
 20
151.8595646611754
 10
117.6480213757369
 20
151.8595646611754
 10
117.6480213757369
 20
151.8595646611754
 10
117.6480213757369
 20
151.8595646611754
 10
117.13229024137
 20
155.18150017429
 10
114.7162431837115
 20
155.886194920681
 10
113.3351034925446
 20
155.886194920681
 10
111.9829026225447
 20
155.886194920681
 10
108.3414342923792
 20
156.1251124501957
 10
106.2595617172429
 20
153.4105476718098
 97
        0
 75
     2
 76
     1
 98
        0
  0
ENDBLK
  5
6AD
330
6A2
100
AcDbEntity
  8
0
100
AcDbBlockEnd
  0
BLOCK
  5
13E3
330
13E2
100
AcDbEntity
  8
0
100
AcDbBlockBegin
  2
*D6
 70
     1
 10
0.0
 20
0.0
 30
0.0
  3
*D6
  1
*D20
  0
LINE
  5
13E5
330
13E2
100
AcDbEntity
  8
DIM
 62
     0
370
    -2
100
AcDbLine
 10
418.8402266790426
 20
701.682516400082
 30
0.0
 11
457.6815718631176
 21
701.682516400082
 31
0.0
  0
LINE
  5
13E6
330
13E2
100
AcDbEntity
  8
DIM
 62
     0
370
    -2
100
AcDbLine
 10
351.1829871623338
 20
421.682516400082
 30
0.0
 11
457.6815718631176
 21
421.682516400082
 31
0.0
  0
LINE
  5
13E7
330
13E2
100
AcDbEntity
  8
DIM
 62
     0
370
    -2
100
AcDbLine
 10
457.6815718631176
 20
698.682516400082
 30
0.0
 11
457.6815718631176
 21
424.682516400082
 31
0.0
  0
INSERT
  5
13E8
330
13E2
100
AcDbEntity
  8
DIM
 62
     0
370
    -2
100
AcDbBlockReference
  2
_DOT
 10
457.6815718631176
 20
701.682516400082
 30
0.0
 41
3.0
 42
3.0
 43
3.0
 50
90.0
  0
INSERT
  5
13E9
330
13E2
100
AcDbEntity
  8
DIM
 62
     0
370
    -2
100
AcDbBlockReference
  2
_DOT
 10
457.6815718631176
 20
421.682516400082
 30
0.0
 41
3.0
 42
3.0
 43
3.0
 50
270.0
  0
MTEXT
  5
13EA
330
13E2
100
AcDbEntity
  8
DIM
  6
HIDDEN
 62
     0
 48
0.05
100
AcDbMText
 10
441.6815718631176
 20
561.682516400082
 30
0.0
 40
12.0
 41
0.0
 46
0.0
 71
     5
 72
     1
  1
\A1;280
  7
ＭＳ ゴシック
 11
0.0
 21
1.0
 31
0.0
 73
     1
 44
1.0
  0
POINT
  5
13EB
330
13E2
100
AcDbEntity
  8
Defpoints
 62
     0
100
AcDbPoint
 10
403.8402266790426
 20
701.682516400082
 30
0.0
  0
POINT
  5
13EC
330
13E2
100
AcDbEntity
  8
Defpoints
 62
     0
100
AcDbPoint
 10
336.1829871623338
 20
421.682516400082
 30
0.0
  0
POINT
  5
13ED
330
13E2
100
AcDbEntity
  8
Defpoints
 62
     0
100
AcDbPoint
 10
457.6815718631176
 20
421.682516400082
 30
0.0
  0
ENDBLK
  5
13E4
330
13E2
100
AcDbEntity
  8
0
100
AcDbBlockEnd
  0
BLOCK
  5
13EF
330
13EE
100
AcDbEntity
  8
0
100
AcDbBlockBegin
  2
*D7
 70
     1
 10
0.0
 20
0.0
 30
0.0
  3
*D7
  1
*D21
  0
LINE
  5
13F1
330
13EE
100
AcDbEntity
  8
DIM
 62
     0
370
    -2
100
AcDbLine
 10
233.8384372564276
 20
683.595988067199
 30
0.0
 11
233.8384372564276
 21
736.361384583674
 31
0.0
  0
LINE
  5
13F2
330
13EE
100
AcDbEntity
  8
DIM
 62
     0
370
    -2
100
AcDbLine
 10
303.8384372564276
 20
683.595988067199
 30
0.0
 11
303.8384372564276
 21
736.361384583674
 31
0.0
  0
LINE
  5
13F3
330
13EE
100
AcDbEntity
  8
DIM
 62
     0
370
    -2
100
AcDbLine
 10
236.8384372564276
 20
736.361384583674
 30
0.0
 11
300.8384372564276
 21
736.361384583674
 31
0.0
  0
INSERT
  5
13F4
330
13EE
100
AcDbEntity
  8
DIM
 62
     0
370
    -2
100
AcDbBlockReference
  2
_DOT
 10
233.8384372564276
 20
736.361384583674
 30
0.0
 41
3.0
 42
3.0
 43
3.0
 50
180.0
  0
INSERT
  5
13F5
330
13EE
100
AcDbEntity
  8
DIM
 62
     0
370
    -2
100
AcDbBlockReference
  2
_DOT
 10
303.8384372564276
 20
736.361384583674
 30
0.0
 41
3.0
 42
3.0
 43
3.0
  0
MTEXT
  5
13F6
330
13EE
100
AcDbEntity
  8
DIM
  6
HIDDEN
 62
     0
 48
0.05
100
AcDbMText
 10
268.8384372564276
 20
752.361384583674
 30
0.0
 40
12.0
 41
0.0
 46
0.0
 71
     5
 72
     1
  1
\A1;70
  7
ＭＳ ゴシック
 73
     1
 44
1.0
  0
POINT
  5
13F7
330
13EE
100
AcDbEntity
  8
Defpoints
 62
     0
100
AcDbPoint
 10
233.8384372564276
 20
668.595988067199
 30
0.0
  0
POINT
  5
13F8
330
13EE
100
AcDbEntity
  8
Defpoints
 62
     0
100
AcDbPoint
 10
303.8384372564276
 20
668.595988067199
 30
0.0
  0
POINT
  5
13F9
330
13EE
100
AcDbEntity
  8
Defpoints
 62
     0
100
AcDbPoint
 10
303.8384372564276
 20
736.361384583674
 30
0.0
  0
ENDBLK
  5
13F0
330
13EE
100
AcDbEntity
  8
0
100
AcDbBlockEnd
  0
BLOCK
  5
13FB
330
13FA
100
AcDbEntity
  8
0
100
AcDbBlockBegin
  2
*D8
 70
     1
 10
0.0
 20
0.0
 30
0.0
  3
*D8
  1
*D22
  0
LINE
  5
13FD
330
13FA
100
AcDbEntity
  8
DIM
  6
Continuous
 62
     0
370
    -2
100
AcDbLine
 10
693.1416610721551
 20
385.779217605251
 30
0.0
 11
693.1416610721551
 21
339.4944542718371
 31
0.0
  0
LINE
  5
13FE
330
13FA
100
AcDbEntity
  8
DIM
  6
Continuous
 62
     0
370
    -2
100
AcDbLine
 10
873.1416610721551
 20
429.150451073097
 30
0.0
 11
873.1416610721551
 21
339.4944542718371
 31
0.0
  0
LINE
  5
13FF
330
13FA
100
AcDbEntity
  8
DIM
  6
Continuous
 62
     0
370
    -2
100
AcDbLine
 10
696.1416610721551
 20
339.4944542718371
 30
0.0
 11
870.1416610721551
 21
339.4944542718371
 31
0.0
  0
INSERT
  5
1400
330
13FA
100
AcDbEntity
  8
DIM
 62
     0
370
    -2
100
AcDbBlockReference
  2
_DOT
 10
693.1416610721551
 20
339.4944542718371
 30
0.0
 41
3.0
 42
3.0
 43
3.0
 50
180.0
  0
INSERT
  5
1401
330
13FA
100
AcDbEntity
  8
DIM
 62
     0
370
    -2
100
AcDbBlockReference
  2
_DOT
 10
873.1416610721551
 20
339.4944542718371
 30
0.0
 41
3.0
 42
3.0
 43
3.0
  0
MTEXT
  5
1402
330
13FA
100
AcDbEntity
  8
DIM
  6
HIDDEN
 62
     0
 48
0.05
100
AcDbMText
 10
783.1416610721551
 20
355.4944542718371
 30
0.0
 40
12.0
 41
0.0
 46
0.0
 71
     5
 72
     1
  1
\A1;180
  7
ＭＳ ゴシック
 73
     1
 44
1.0
  0
POINT
  5
1403
330
13FA
100
AcDbEntity
  8
Defpoints
 62
     0
100
AcDbPoint
 10
693.1416610721551
 20
400.779217605251
 30
0.0
  0
POINT
  5
1404
330
13FA
100
AcDbEntity
  8
Defpoints
 62
     0
100
AcDbPoint
 10
873.1416610721551
 20
444.150451073097
 30
0.0
  0
POINT
  5
1405
330
13FA
100
AcDbEntity
  8
Defpoints
 62
     0
100
AcDbPoint
 10
873.1416610721551
 20
339.4944542718371
 30
0.0
  0
ENDBLK
  5
13FC
330
13FA
100
AcDbEntity
  8
0
100
AcDbBlockEnd
  0
BLOCK
  5
1407
330
1406
100
AcDbEntity
  8
0
100
AcDbBlockBegin
  2
*D9
 70
     1
 10
0.0
 20
0.0
 30
0.0
  3
*D9
  1
*D23
  0
LINE
  5
1409
330
1406
100
AcDbEntity
  8
DIM
  6
Continuous
 62
     0
370
    -2
100
AcDbLine
 10
873.6131243431689
 20
716.682516400082
 30
0.0
 11
873.6131243431689
 21
747.6664341463563
 31
0.0
  0
LINE
  5
140A
330
1406
100
AcDbEntity
  8
DIM
  6
Continuous
 62
     0
370
    -2
100
AcDbLine
 10
838.6131243431689
 20
716.682516400082
 30
0.0
 11
838.6131243431689
 21
747.6664341463563
 31
0.0
  0
LINE
  5
140B
330
1406
100
AcDbEntity
  8
DIM
  6
Continuous
 62
     0
370
    -2
100
AcDbLine
 10
870.6131243431689
 20
747.6664341463563
 30
0.0
 11
841.6131243431689
 21
747.6664341463563
 31
0.0
  0
INSERT
  5
140C
330
1406
100
AcDbEntity
  8
DIM
 62
     0
370
    -2
100
AcDbBlockReference
  2
_DOT
 10
873.6131243431689
 20
747.6664341463563
 30
0.0
 41
3.0
 42
3.0
 43
3.0
  0
INSERT
  5
140D
330
1406
100
AcDbEntity
  8
DIM
 62
     0
370
    -2
100
AcDbBlockReference
  2
_DOT
 10
838.6131243431689
 20
747.6664341463563
 30
0.0
 41
3.0
 42
3.0
 43
3.0
 50
180.0
  0
MTEXT
  5
140E
330
1406
100
AcDbEntity
  8
DIM
  6
HIDDEN
 62
     0
 48
0.05
100
AcDbMText
 10
856.1131243431689
 20
763.6664341463563
 30
0.0
 40
12.0
 41
0.0
 46
0.0
 71
     5
 72
     1
  1
\A1;35
  7
ＭＳ ゴシック
 73
     1
 44
1.0
  0
POINT
  5
140F
330
1406
100
AcDbEntity
  8
Defpoints
 62
     0
100
AcDbPoint
 10
873.6131243431689
 20
701.682516400082
 30
0.0
  0
POINT
  5
1410
330
1406
100
AcDbEntity
  8
Defpoints
 62
     0
100
AcDbPoint
 10
838.6131243431689
 20
701.682516400082
 30
0.0
  0
POINT
  5
1411
330
1406
100
AcDbEntity
  8
Defpoints
 62
     0
100
AcDbPoint
 10
838.6131243431689
 20
747.6664341463563
 30
0.0
  0
ENDBLK
  5
1408
330
1406
100
AcDbEntity
  8
0
100
AcDbBlockEnd
  0
BLOCK
  5
1413
330
1412
100
AcDbEntity
  8
0
100
AcDbBlockBegin
  2
*D10
 70
     1
 10
0.0
 20
0.0
 30
0.0
  3
*D10
  1
*D24
  0
LINE
  5
1415
330
1412
100
AcDbEntity
  8
DIM
  6
Continuous
 62
     0
370
    -2
100
AcDbLine
 10
888.6131243431689
 20
701.682516400082
 30
0.0
 11
923.0516761010192
 21
701.682516400082
 31
0.0
  0
LINE
  5
1416
330
1412
100
AcDbEntity
  8
DIM
  6
Continuous
 62
     0
370
    -2
100
AcDbLine
 10
888.6131243432335
 20
571.6825164003258
 30
0.0
 11
923.0516761010192
 21
571.6825164003258
 31
0.0
  0
LINE
  5
1417
330
1412
100
AcDbEntity
  8
DIM
  6
Continuous
 62
     0
370
    -2
100
AcDbLine
 10
923.0516761010192
 20
698.682516400082
 30
0.0
 11
923.0516761010192
 21
574.6825164003258
 31
0.0
  0
INSERT
  5
1418
330
1412
100
AcDbEntity
  8
DIM
 62
     0
370
    -2
100
AcDbBlockReference
  2
_DOT
 10
923.0516761010192
 20
701.682516400082
 30
0.0
 41
3.0
 42
3.0
 43
3.0
 50
90.0
  0
INSERT
  5
1419
330
1412
100
AcDbEntity
  8
DIM
 62
     0
370
    -2
100
AcDbBlockReference
  2
_DOT
 10
923.0516761010192
 20
571.6825164003258
 30
0.0
 41
3.0
 42
3.0
 43
3.0
 50
270.0
  0
MTEXT
  5
141A
330
1412
100
AcDbEntity
  8
DIM
  6
HIDDEN
 62
     0
 48
0.05
100
AcDbMText
 10
907.0516761010192
 20
636.6825164002039
 30
0.0
 40
12.0
 41
0.0
 46
0.0
 71
     5
 72
     1
  1
\A1;130
  7
ＭＳ ゴシック
 11
0.0
 21
1.0
 31
0.0
 73
     1
 44
1.0
  0
POINT
  5
141B
330
1412
100
AcDbEntity
  8
Defpoints
 62
     0
100
AcDbPoint
 10
873.6131243431689
 20
701.682516400082
 30
0.0
  0
POINT
  5
141C
330
1412
100
AcDbEntity
  8
Defpoints
 62
     0
100
AcDbPoint
 10
873.6131243432335
 20
571.6825164003258
 30
0.0
  0
POINT
  5
141D
330
1412
100
AcDbEntity
  8
Defpoints
 62
     0
100
AcDbPoint
 10
923.0516761010192
 20
571.6825164003258
 30
0.0
  0
ENDBLK
  5
1414
330
1412
100
AcDbEntity
  8
0
100
AcDbBlockEnd
  0
BLOCK
  5
141F
330
141E
100
AcDbEntity
  8
0
100
AcDbBlockBegin
  2
*D11
 70
     1
 10
0.0
 20
0.0
 30
0.0
  3
*D11
  1
*D25
  0
LINE
  5
1421
330
141E
100
AcDbEntity
  8
DIM
  6
Continuous
 62
     0
370
    -2
100
AcDbLine
 10
118.8402343662665
 20
701.682516400082
 30
0.0
 11
87.87874074941487
 21
701.682516400082
 31
0.0
  0
LINE
  5
1422
330
141E
100
AcDbEntity
  8
DIM
  6
Continuous
 62
     0
370
    -2
100
AcDbLine
 10
119.9920257552342
 20
661.682516400082
 30
0.0
 11
87.87874074941487
 21
661.682516400082
 31
0.0
  0
LINE
  5
1423
330
141E
100
AcDbEntity
  8
DIM
  6
Continuous
 62
     0
370
    -2
100
AcDbLine
 10
87.87874074941487
 20
698.682516400082
 30
0.0
 11
87.87874074941487
 21
664.682516400082
 31
0.0
  0
INSERT
  5
1424
330
141E
100
AcDbEntity
  8
DIM
 62
     0
370
    -2
100
AcDbBlockReference
  2
_DOT
 10
87.87874074941487
 20
701.682516400082
 30
0.0
 41
3.0
 42
3.0
 43
3.0
 50
90.0
  0
INSERT
  5
1425
330
141E
100
AcDbEntity
  8
DIM
 62
     0
370
    -2
100
AcDbBlockReference
  2
_DOT
 10
87.87874074941487
 20
661.682516400082
 30
0.0
 41
3.0
 42
3.0
 43
3.0
 50
270.0
  0
MTEXT
  5
1426
330
141E
100
AcDbEntity
  8
DIM
  6
HIDDEN
 62
     0
 48
0.05
100
AcDbMText
 10
71.87874074941487
 20
681.682516400082
 30
0.0
 40
12.0
 41
0.0
 46
0.0
 71
     5
 72
     1
  1
\A1;40
  7
ＭＳ ゴシック
 11
0.0
 21
1.0
 31
0.0
 73
     1
 44
1.0
  0
POINT
  5
1427
330
141E
100
AcDbEntity
  8
Defpoints
 62
     0
100
AcDbPoint
 10
133.8402343662665
 20
701.682516400082
 30
0.0
  0
POINT
  5
1428
330
141E
100
AcDbEntity
  8
Defpoints
 62
     0
100
AcDbPoint
 10
134.9920257552342
 20
661.682516400082
 30
0.0
  0
POINT
  5
1429
330
141E
100
AcDbEntity
  8
Defpoints
 62
     0
100
AcDbPoint
 10
87.87874074941487
 20
661.682516400082
 30
0.0
  0
ENDBLK
  5
1420
330
141E
100
AcDbEntity
  8
0
100
AcDbBlockEnd
  0
BLOCK
  5
142B
330
142A
100
AcDbEntity
  8
0
100
AcDbBlockBegin
  2
*D12
 70
     1
 10
0.0
 20
0.0
 30
0.0
  3
*D12
  1
*D26
  0
LINE
  5
142D
330
142A
100
AcDbEntity
  8
DIM
  6
Continuous
 62
     0
370
    -2
100
AcDbLine
 10
133.8402306122512
 20
1145.440574461225
 30
0.0
 11
133.8402306122512
 21
1334.039995065307
 31
0.0
  0
LINE
  5
142E
330
142A
100
AcDbEntity
  8
DIM
  6
Continuous
 62
     0
370
    -2
100
AcDbLine
 10
403.8402306122512
 20
1140.375912257144
 30
0.0
 11
403.8402306122512
 21
1334.039995065307
 31
0.0
  0
LINE
  5
142F
330
142A
100
AcDbEntity
  8
DIM
  6
Continuous
 62
     0
370
    -2
100
AcDbLine
 10
136.8402306122512
 20
1334.039995065307
 30
0.0
 11
400.8402306122512
 21
1334.039995065307
 31
0.0
  0
INSERT
  5
1430
330
142A
100
AcDbEntity
  8
DIM
 62
     0
370
    -2
100
AcDbBlockReference
  2
_DOT
 10
133.8402306122512
 20
1334.039995065307
 30
0.0
 41
3.0
 42
3.0
 43
3.0
 50
180.0
  0
INSERT
  5
1431
330
142A
100
AcDbEntity
  8
DIM
 62
     0
370
    -2
100
AcDbBlockReference
  2
_DOT
 10
403.8402306122512
 20
1334.039995065307
 30
0.0
 41
3.0
 42
3.0
 43
3.0
  0
MTEXT
  5
1432
330
142A
100
AcDbEntity
  8
DIM
  6
HIDDEN
 62
     0
 48
0.05
100
AcDbMText
 10
268.8402306122512
 20
1350.039995065307
 30
0.0
 40
12.0
 41
0.0
 46
0.0
 71
     5
 72
     1
  1
\A1;270
  7
ＭＳ ゴシック
 73
     1
 44
1.0
  0
POINT
  5
1433
330
142A
100
AcDbEntity
  8
Defpoints
 62
     0
100
AcDbPoint
 10
133.8402306122512
 20
1130.440574461225
 30
0.0
  0
POINT
  5
1434
330
142A
100
AcDbEntity
  8
Defpoints
 62
     0
100
AcDbPoint
 10
403.8402306122512
 20
1125.375912257144
 30
0.0
  0
POINT
  5
1435
330
142A
100
AcDbEntity
  8
Defpoints
 62
     0
100
AcDbPoint
 10
403.8402306122512
 20
1334.039995065307
 30
0.0
  0
ENDBLK
  5
142C
330
142A
100
AcDbEntity
  8
0
100
AcDbBlockEnd
  0
BLOCK
  5
1437
330
1436
100
AcDbEntity
  8
0
100
AcDbBlockBegin
  2
*D13
 70
     1
 10
0.0
 20
0.0
 30
0.0
  3
*D13
  1
*D27
  0
LINE
  5
1439
330
1436
100
AcDbEntity
  8
DIM
  6
Continuous
 62
     0
370
    -2
100
AcDbLine
 10
375.2857436182203
 20
1254.49665546647
 30
0.0
 11
470.9847889360049
 21
1254.49665546647
 31
0.0
  0
LINE
  5
143A
330
1436
100
AcDbEntity
  8
DIM
  6
Continuous
 62
     0
370
    -2
100
AcDbLine
 10
340.3329198829219
 20
939.4966554664695
 30
0.0
 11
470.9847889360049
 21
939.4966554664695
 31
0.0
  0
LINE
  5
143B
330
1436
100
AcDbEntity
  8
DIM
  6
Continuous
 62
     0
370
    -2
100
AcDbLine
 10
470.9847889360049
 20
1251.49665546647
 30
0.0
 11
470.9847889360049
 21
942.4966554664695
 31
0.0
  0
INSERT
  5
143C
330
1436
100
AcDbEntity
  8
DIM
 62
     0
370
    -2
100
AcDbBlockReference
  2
_DOT
 10
470.9847889360049
 20
1254.49665546647
 30
0.0
 41
3.0
 42
3.0
 43
3.0
 50
90.0
  0
INSERT
  5
143D
330
1436
100
AcDbEntity
  8
DIM
 62
     0
370
    -2
100
AcDbBlockReference
  2
_DOT
 10
470.9847889360049
 20
939.4966554664695
 30
0.0
 41
3.0
 42
3.0
 43
3.0
 50
270.0
  0
MTEXT
  5
143E
330
1436
100
AcDbEntity
  8
DIM
  6
HIDDEN
 62
     0
 48
0.05
100
AcDbMText
 10
454.9847889360049
 20
1096.99665546647
 30
0.0
 40
12.0
 41
0.0
 46
0.0
 71
     5
 72
     1
  1
\A1;315
  7
ＭＳ ゴシック
 11
0.0
 21
1.0
 31
0.0
 73
     1
 44
1.0
  0
POINT
  5
143F
330
1436
100
AcDbEntity
  8
Defpoints
 62
     0
100
AcDbPoint
 10
360.2857436182203
 20
1254.49665546647
 30
0.0
  0
POINT
  5
1440
330
1436
100
AcDbEntity
  8
Defpoints
 62
     0
100
AcDbPoint
 10
325.3329198829219
 20
939.4966554664695
 30
0.0
  0
POINT
  5
1441
330
1436
100
AcDbEntity
  8
Defpoints
 62
     0
100
AcDbPoint
 10
470.9847889360049
 20
939.4966554664695
 30
0.0
  0
ENDBLK
  5
1438
330
1436
100
AcDbEntity
  8
0
100
AcDbBlockEnd
  0
BLOCK
  5
1443
330
1442
100
AcDbEntity
  8
0
100
AcDbBlockBegin
  2
*D14
 70
     1
 10
0.0
 20
0.0
 30
0.0
  3
*D14
  1
*D28
  0
LINE
  5
1445
330
1442
100
AcDbEntity
  8
DIM
  6
Continuous
 62
     0
370
    -2
100
AcDbLine
 10
155.6726066337105
 20
1184.49665546647
 30
0.0
 11
98.37035534999882
 21
1184.49665546647
 31
0.0
  0
LINE
  5
1446
330
1442
100
AcDbEntity
  8
DIM
  6
Continuous
 62
     0
370
    -2
100
AcDbLine
 10
155.6726066337105
 20
964.4966554664695
 30
0.0
 11
98.3703553499988
 21
964.4966554664695
 31
0.0
  0
LINE
  5
1447
330
1442
100
AcDbEntity
  8
DIM
  6
Continuous
 62
     0
370
    -2
100
AcDbLine
 10
98.37035534999882
 20
1181.49665546647
 30
0.0
 11
98.3703553499988
 21
967.4966554664695
 31
0.0
  0
INSERT
  5
1448
330
1442
100
AcDbEntity
  8
DIM
 62
     0
370
    -2
100
AcDbBlockReference
  2
_DOT
 10
98.37035534999882
 20
1184.49665546647
 30
0.0
 41
3.0
 42
3.0
 43
3.0
 50
90.0
  0
INSERT
  5
1449
330
1442
100
AcDbEntity
  8
DIM
 62
     0
370
    -2
100
AcDbBlockReference
  2
_DOT
 10
98.3703553499988
 20
964.4966554664695
 30
0.0
 41
3.0
 42
3.0
 43
3.0
 50
270.0
  0
MTEXT
  5
144A
330
1442
100
AcDbEntity
  8
DIM
 62
     0
 48
0.05
100
AcDbMText
 10
82.37035534999882
 20
1074.49665546647
 30
0.0
 40
12.0
 41
0.0
 46
0.0
 71
     5
 72
     1
  1
\A1;220
  7
ＭＳ ゴシック
 11
6.459479416000897E-17
 21
1.0
 31
0.0
 73
     1
 44
1.0
  0
POINT
  5
144B
330
1442
100
AcDbEntity
  8
Defpoints
 62
     0
100
AcDbPoint
 10
170.6726066337105
 20
1184.49665546647
 30
0.0
  0
POINT
  5
144C
330
1442
100
AcDbEntity
  8
Defpoints
 62
     0
100
AcDbPoint
 10
170.6726066337105
 20
964.4966554664695
 30
0.0
  0
POINT
  5
144D
330
1442
100
AcDbEntity
  8
Defpoints
 62
     0
100
AcDbPoint
 10
98.37035534999882
 20
964.4966554664695
 30
0.0
  0
ENDBLK
  5
1444
330
1442
100
AcDbEntity
  8
0
100
AcDbBlockEnd
  0
BLOCK
  5
144F
330
144E
100
AcDbEntity
  8
0
100
AcDbBlockBegin
  2
*D15
 70
     1
 10
0.0
 20
0.0
 30
0.0
  3
*D15
  1
*D29
  0
LINE
  5
1451
330
144E
100
AcDbEntity
  8
DIM
  6
Continuous
 62
     0
370
    -2
100
AcDbLine
 10
908.2073561195327
 20
489.5292174898532
 30
0.0
 11
979.54436537169
 21
489.5292174898532
 31
0.0
  0
LINE
  5
1452
330
144E
100
AcDbEntity
  8
DIM
  6
Continuous
 62
     0
370
    -2
100
AcDbLine
 10
888.6131243431689
 20
701.682516400082
 30
0.0
 11
979.54436537169
 21
701.682516400082
 31
0.0
  0
LINE
  5
1453
330
144E
100
AcDbEntity
  8
DIM
  6
Continuous
 62
     0
370
    -2
100
AcDbLine
 10
979.54436537169
 20
492.5292174898532
 30
0.0
 11
979.54436537169
 21
698.682516400082
 31
0.0
  0
INSERT
  5
1454
330
144E
100
AcDbEntity
  8
DIM
 62
     0
370
    -2
100
AcDbBlockReference
  2
_DOT
 10
979.54436537169
 20
489.5292174898532
 30
0.0
 41
3.0
 42
3.0
 43
3.0
 50
270.0
  0
INSERT
  5
1455
330
144E
100
AcDbEntity
  8
DIM
 62
     0
370
    -2
100
AcDbBlockReference
  2
_DOT
 10
979.54436537169
 20
701.682516400082
 30
0.0
 41
3.0
 42
3.0
 43
3.0
 50
90.0
  0
MTEXT
  5
1456
330
144E
100
AcDbEntity
  8
DIM
  6
HIDDEN
 62
     0
 48
0.05
100
AcDbMText
 10
963.54436537169
 20
595.6058669449676
 30
0.0
 40
12.0
 41
0.0
 46
0.0
 71
     5
 72
     1
  1
\A1;210～250
  7
ＭＳ ゴシック
 11
0.0
 21
1.0
 31
0.0
 73
     1
 44
1.0
  0
POINT
  5
1457
330
144E
100
AcDbEntity
  8
Defpoints
 62
     0
100
AcDbPoint
 10
893.2073561195327
 20
489.5292174898532
 30
0.0
  0
POINT
  5
1458
330
144E
100
AcDbEntity
  8
Defpoints
 62
     0
100
AcDbPoint
 10
873.6131243431689
 20
701.682516400082
 30
0.0
  0
POINT
  5
1459
330
144E
100
AcDbEntity
  8
Defpoints
 62
     0
100
AcDbPoint
 10
979.54436537169
 20
701.682516400082
 30
0.0
  0
ENDBLK
  5
1450
330
144E
100
AcDbEntity
  8
0
100
AcDbBlockEnd
  0
BLOCK
  5
145B
330
145A
100
AcDbEntity
  8
0
100
AcDbBlockBegin
  2
*D16
 70
     1
 10
0.0
 20
0.0
 30
0.0
  3
*D16
  1
*D30
  0
LINE
  5
145D
330
145A
100
AcDbEntity
  8
DIM
  6
Continuous
 62
     0
370
    -2
100
AcDbLine
 10
693.3998023098777
 20
701.682516400082
 30
0.0
 11
693.3998023098777
 21
812.9525164000821
 31
0.0
  0
LINE
  5
145E
330
145A
100
AcDbEntity
  8
DIM
  6
Continuous
 62
     0
370
    -2
100
AcDbLine
 10
693.3998023098777
 20
698.682516400082
 30
0.0
 11
693.3998023098777
 21
594.682516400082
 31
0.0
  0
INSERT
  5
145F
330
145A
100
AcDbEntity
  8
DIM
 62
     0
370
    -2
100
AcDbBlockReference
  2
_DOT
 10
693.3998023098777
 20
701.682516400082
 30
0.0
 41
3.0
 42
3.0
 43
3.0
 50
90.0
  0
INSERT
  5
1460
330
145A
100
AcDbEntity
  8
DIM
 62
     0
370
    -2
100
AcDbBlockReference
  2
_DOT
 10
693.3998023098777
 20
591.682516400082
 30
0.0
 41
3.0
 42
3.0
 43
3.0
 50
270.0
  0
MTEXT
  5
1461
330
145A
100
AcDbEntity
  8
DIM
  6
HIDDEN
 62
     0
 48
0.05
100
AcDbMText
 10
676.3378023098777
 20
770.4445164000821
 30
0.0
 40
12.0
 41
0.0
 46
0.0
 71
     5
 72
     1
  1
\A1;110(深さ)
  7
ＭＳ ゴシック
 11
0.0
 21
1.0
 31
0.0
 73
     1
 44
1.0
  0
POINT
  5
1462
330
145A
100
AcDbEntity
  8
Defpoints
 62
     0
100
AcDbPoint
 10
715.9015026778409
 20
701.682516400082
 30
0.0
  0
POINT
  5
1463
330
145A
100
AcDbEntity
  8
Defpoints
 62
     0
100
AcDbPoint
 10
715.9015026778409
 20
591.682516400082
 30
0.0
  0
POINT
  5
1464
330
145A
100
AcDbEntity
  8
Defpoints
 62
     0
100
AcDbPoint
 10
693.3998023098777
 20
591.682516400082
 30
0.0
  0
ENDBLK
  5
145C
330
145A
100
AcDbEntity
  8
0
100
AcDbBlockEnd
  0
BLOCK
  5
14F6
330
14F5
100
AcDbEntity
  8
0
100
AcDbBlockBegin
  2
*D17
 70
     1
 10
0.0
 20
0.0
 30
0.0
  3
*D17
  1
*D30
  0
LINE
  5
14F8
330
14F5
100
AcDbEntity
  8
DIM
 62
     0
 48
0.05
370
    -2
100
AcDbLine
 10
188.8402306122512
 20
1269.49665546647
 30
0.0
 11
188.8402306122512
 21
1294.847579596896
 31
0.0
  0
LINE
  5
14F9
330
14F5
100
AcDbEntity
  8
DIM
 62
     0
 48
0.05
370
    -2
100
AcDbLine
 10
348.8402306122512
 20
1269.49665546647
 30
0.0
 11
348.8402306122512
 21
1294.847579596896
 31
0.0
  0
LINE
  5
14FA
330
14F5
100
AcDbEntity
  8
DIM
 62
     0
 48
0.05
370
    -2
100
AcDbLine
 10
191.8402306122512
 20
1294.847579596896
 30
0.0
 11
345.8402306122512
 21
1294.847579596896
 31
0.0
  0
INSERT
  5
14FB
330
14F5
100
AcDbEntity
  8
DIM
 62
     0
370
    -2
100
AcDbBlockReference
  2
_DOT
 10
188.8402306122512
 20
1294.847579596896
 30
0.0
 41
3.0
 42
3.0
 43
3.0
 50
180.0
  0
INSERT
  5
14FC
330
14F5
100
AcDbEntity
  8
DIM
 62
     0
370
    -2
100
AcDbBlockReference
  2
_DOT
 10
348.8402306122512
 20
1294.847579596896
 30
0.0
 41
3.0
 42
3.0
 43
3.0
  0
MTEXT
  5
14FD
330
14F5
100
AcDbEntity
  8
DIM
 62
     0
 48
0.05
100
AcDbMText
 10
268.8402306122512
 20
1310.847579596896
 30
0.0
 40
12.0
 41
0.0
 46
0.0
 71
     5
 72
     1
  1
\A1;160
  7
ＭＳ ゴシック
 73
     1
 44
1.0
  0
POINT
  5
14FE
330
14F5
100
AcDbEntity
  8
Defpoints
 62
     0
100
AcDbPoint
 10
188.8402306122512
 20
1254.49665546647
 30
0.0
  0
POINT
  5
14FF
330
14F5
100
AcDbEntity
  8
Defpoints
 62
     0
100
AcDbPoint
 10
348.8402306122512
 20
1254.49665546647
 30
0.0
  0
POINT
  5
1500
330
14F5
100
AcDbEntity
  8
Defpoints
 62
     0
100
AcDbPoint
 10
348.8402306122512
 20
1294.847579596896
 30
0.0
  0
ENDBLK
  5
14F7
330
14F5
100
AcDbEntity
  8
0
100
AcDbBlockEnd
  0
ENDSEC
  0
SECTION
  2
ENTITIES
  0
MTEXT
  5
177
330
A
100
AcDbEntity
  8
TEMPLATE
390
1D
100
AcDbMText
 10
39.60107227386538
 20
171.8658758157141
 30
0.0
 40
8.144205729166663
 41
0.0
 46
0.0
 71
     1
 72
     1
  1
品名
  7
ＭＳ ゴシック
 73
     1
 44
0.7828267384257843
  0
MTEXT
  5
178
330
A
100
AcDbEntity
  8
TEMPLATE
390
1D
100
AcDbMText
 10
39.60107227386538
 20
129.365875815714
 30
0.0
 40
8.144205729166663
 41
0.0
 46
0.0
 71
     1
 72
     1
  1
仕様
  7
ＭＳ ゴシック
 73
     1
 44
0.7828267384257843
  0
LINE
  5
179
330
A
100
AcDbEntity
  8
TEMPLATE
390
1D
100
AcDbLine
 10
1011.101072273624
 20
133.5733367532142
 30
0.0
 11
36.10107227362437
 21
133.5733367532142
 31
0.0
  0
LWPOLYLINE
  5
17A
330
A
100
AcDbEntity
  8
TEMPLATE
390
1D
100
AcDbPolyline
 90
        5
 70
   128
 43
0.0
 10
1011.101072273624
 20
1448.573336753213
 10
36.10107227362437
 20
1448.573336753213
 10
36.10107227362437
 20
48.57333675321413
 10
1011.101072273624
 20
48.57333675321413
 10
1011.101072273624
 20
1448.573336753213
  0
LINE
  5
17B
330
A
100
AcDbEntity
  8
TEMPLATE
390
1D
100
AcDbLine
 10
1011.101072273624
 20
176.0733367532141
 30
0.0
 11
36.10107227362437
 21
176.0733367532141
 31
0.0
  0
LINE
  5
17C
330
A
100
AcDbEntity
  8
TEMPLATE
390
1D
100
AcDbLine
 10
1011.101072273866
 20
91.07333675321412
 30
0.0
 11
634.601072273865
 21
91.07333675321412
 31
0.0
  0
MTEXT
  5
17D
330
A
100
AcDbEntity
  8
TEMPLATE
390
1D
100
AcDbMText
 10
36.10107227396725
 20
42.64642572478557
 30
0.0
 40
10.85894097222222
 41
0.0
 46
10.85894097222222
 71
     1
 72
     1
  1
{20160518}
  7
ＭＳ ゴシック
 73
     1
 44
0.7828267384257843
1001
ACAD
1000
ACAD_MTEXT_DEFINED_HEIGHT_BEGIN
1070
    46
1040
10.85894097222222
1000
ACAD_MTEXT_DEFINED_HEIGHT_END
  0
MTEXT
  5
17E
330
A
100
AcDbEntity
  8
TEMPLATE
390
1D
100
AcDbMText
 10
649.5367753999956
 20
76.11813951656006
 30
0.0
 40
12.21630859375
 41
0.0
 46
0.0
 71
     1
 72
     1
  1
大洋金物株式会社 ティーフォルム事業部
  7
ＭＳ ゴシック
 73
     1
 44
0.7828267384257843
  0
MTEXT
  5
180
330
A
100
AcDbEntity
  8
TEMPLATE
390
1D
100
AcDbMText
 10
915.601072273995
 20
115.0746453469641
 30
0.0
 40
12.21630859375
 41
0.0
 46
12.21630859375
 71
     1
 72
     1
  1
{1:5}
  7
ＭＳ ゴシック
 73
     1
 44
0.7828267384257843
1001
ACAD
1000
ACAD_MTEXT_DEFINED_HEIGHT_BEGIN
1070
    46
1040
12.21630859375
1000
ACAD_MTEXT_DEFINED_HEIGHT_END
  0
MTEXT
  5
181
330
A
100
AcDbEntity
  8
TEMPLATE
390
1D
100
AcDbMText
 10
889.101072273995
 20
129.365875815714
 30
0.0
 40
8.144205729166663
 41
0.0
 46
0.0
 71
     1
 72
     1
  1
縮尺
  7
ＭＳ ゴシック
 73
     1
 44
0.7828267384257843
  0
LINE
  5
182
330
A
100
AcDbEntity
  8
TEMPLATE
390
1D
100
AcDbLine
 10
885.601072273995
 20
91.07333675321412
 30
0.0
 11
885.601072273995
 21
133.5733367532142
 31
0.0
  0
MTEXT
  5
183
330
A
100
AcDbEntity
  8
TEMPLATE
390
1D
100
AcDbMText
 10
763.601072273995
 20
129.365875815714
 30
0.0
 40
8.144205729166663
 41
0.0
 46
0.0
 71
     1
 72
     1
  1
容量
  7
ＭＳ ゴシック
 73
     1
 44
0.7828267384257843
  0
LINE
  5
184
330
A
100
AcDbEntity
  8
TEMPLATE
390
1D
100
AcDbLine
 10
760.101072273995
 20
91.07333675321412
 30
0.0
 11
760.101072273995
 21
133.5733367532142
 31
0.0
  0
MTEXT
  5
185
330
A
100
AcDbEntity
  8
TEMPLATE
390
1D
100
AcDbMText
 10
638.101072273995
 20
171.8658758157141
 30
0.0
 40
8.144205729166663
 41
0.0
 46
0.0
 71
     1
 72
     1
  1
品番
  7
ＭＳ ゴシック
 73
     1
 44
0.7828267384257843
  0
MTEXT
  5
186
330
A
100
AcDbEntity
  8
TEMPLATE
390
1D
100
AcDbMText
 10
638.101072273995
 20
129.365875815714
 30
0.0
 40
8.144205729166663
 41
0.0
 46
0.0
 71
     1
 72
     1
  1
重量
  7
ＭＳ ゴシック
 73
     1
 44
0.7828267384257843
  0
MTEXT
  5
187
330
A
100
AcDbEntity
  8
TEMPLATE
390
1D
100
AcDbMText
 10
664.601072273995
 20
157.5746453469641
 30
0.0
 40
12.21630859375
 41
0.0
 46
12.21630859375
 71
     1
 72
     1
  1
{BRS70-0410}
  7
ＭＳ ゴシック
 73
     1
 44
0.7828267384257843
1001
ACAD
1000
ACAD_MTEXT_DEFINED_HEIGHT_BEGIN
1070
    46
1040
12.21630859375
1000
ACAD_MTEXT_DEFINED_HEIGHT_END
  0
LINE
  5
188
330
A
100
AcDbEntity
  8
TEMPLATE
390
1D
100
AcDbLine
 10
634.601072273995
 20
48.57333675321413
 30
0.0
 11
634.601072273995
 21
176.0733367532141
 31
0.0
  0
MTEXT
  5
189
330
A
100
AcDbEntity
  8
TEMPLATE
390
1D
100
AcDbMText
 10
66.10107227386537
 20
157.5746453469641
 30
0.0
 40
12.21630859375
 41
0.0
 46
13.76777978515625
 71
     1
 72
     1
  1
{手洗器　-CLOU, Flush-}
  7
ＭＳ ゴシック
 73
     1
 44
0.7828267384257843
1001
ACAD
1000
ACAD_MTEXT_DEFINED_HEIGHT_BEGIN
1070
    46
1040
13.76777978515625
1000
ACAD_MTEXT_DEFINED_HEIGHT_END
  0
INSERT
  5
6B5
330
A
100
AcDbEntity
  8
TEMPLATE
100
AcDbBlockReference
  2
名称未設定-1
 10
935.3753740442249
 20
12.97338287832691
 30
0.0
 41
0.3809999999999999
 42
0.3809999999999999
 43
0.3809999999999999
  0
MTEXT
  5
7D9
330
A
100
AcDbEntity
  8
TEMPLATE
390
1D
100
AcDbMText
 10
62.62717263801819
 20
113.4059880146976
 30
0.0
 40
12.21630859375
 41
0.0
 46
31.52345361328125
 71
     1
 72
     1
  1
{壁掛け/オーバーフローなし/ボトルトラップ、壁取付ボルト付属/\P陶器}
  7
ＭＳ ゴシック
 73
     1
 44
0.8840641112754306
1001
ACAD
1000
ACAD_MTEXT_DEFINED_HEIGHT_BEGIN
1070
    46
1040
31.52345361328125
1000
ACAD_MTEXT_DEFINED_HEIGHT_END
  0
INSERT
  5
68C
330
A
100
AcDbEntity
  8
TEMPLATE
100
AcDbBlockReference
  2
block 2
 10
919.2743017702577
 20
8.373076514336368
 30
0.0
 41
0.3809999999999999
 42
0.3809999999999999
 43
0.3809999999999999
  0
MTEXT
  5
D60
330
A
100
AcDbEntity
  8
TEMPLATE
390
1D
100
AcDbMText
 10
664.601072273865
 20
115.0746453469641
 30
0.0
 40
12.21630859375
 41
0.0
 46
14.1953505859375
 71
     1
 72
     1
  1
{7kg}
  7
ＭＳ ゴシック
 73
     1
 44
0.7828267384257843
1001
ACAD
1000
ACAD_MTEXT_DEFINED_HEIGHT_BEGIN
1070
    46
1040
14.1953505859375
1000
ACAD_MTEXT_DEFINED_HEIGHT_END
  0
LWPOLYLINE
  5
D69
330
A
100
AcDbEntity
  8
BORDER
 48
0.05
100
AcDbPolyline
 90
        4
 70
     1
 43
0.0
 10
0.0
 20
0.0
 10
0.0
 20
1485.0
 10
1050.0
 20
1485.0
 10
1050.0
 20
0.0
  0
INSERT
  5
118B
330
A
100
AcDbEntity
  8
TEMPLATE
100
AcDbBlockReference
  2
block 2
 10
2032.710963577838
 20
24.43532141229603
 30
0.0
 41
0.3809999999999999
 42
0.3809999999999999
 43
0.3809999999999999
  0
SPLINE
  5
118E
330
A
100
AcDbEntity
  8
MODEL
100
AcDbSpline
210
0.0
220
0.0
230
1.0
 70
     8
 71
     3
 72
    36
 73
    32
 74
     0
 42
0.000000001
 43
0.00000001
 40
0.0
 40
0.0
 40
0.0
 40
0.0
 40
0.0679298472714253
 40
0.1326685028032926
 40
0.1942035969230438
 40
0.252540223033166
 40
0.3076995852452865
 40
0.3588159080488172
 40
0.4069479711413637
 40
0.4521523082281382
 40
0.4944943232718541
 40
0.541270193909068
 40
0.5842256816261157
 40
0.6235014493999919
 40
0.6592424983254673
 40
0.6915949386550502
 40
0.7207030058465437
 40
0.7500190936068912
 40
0.7755201328050672
 40
0.7973854695610467
 40
0.8168499131740402
 40
0.8370384318118365
 40
0.8580787854290133
 40
0.8726611072166235
 40
0.8875732464567769
 40
0.9027917934888372
 40
0.9182923795450464
 40
0.9348750778929206
 40
0.9542562775268957
 40
0.9766153569922237
 40
1.0
 40
1.0
 40
1.0
 40
1.0
 10
133.8402345454588
 20
701.682516400082
 30
0.0
 10
133.8929727882633
 20
695.1386255043708
 30
0.0
 10
133.9959717496158
 20
682.3582610178619
 30
0.0
 10
134.8038184714887
 20
663.6645265528259
 30
0.0
 10
136.0114950977868
 20
645.9204486850381
 30
0.0
 10
137.6014664880267
 20
629.1327445897418
 30
0.0
 10
139.4935842853365
 20
613.3872233403658
 30
0.0
 10
141.6304216224298
 20
598.665854742902
 30
0.0
 10
143.9564112511353
 20
584.9450953180772
 30
0.0
 10
146.4413630198023
 20
572.1122887221632
 30
0.0
 10
149.1920714431972
 20
559.4675867687461
 30
0.0
 10
152.2006979204662
 20
547.1041332696682
 30
0.0
 10
155.4551801868429
 20
535.1090709962791
 30
0.0
 10
158.7112617615485
 20
524.2199272993189
 30
0.0
 10
161.920830429538
 20
514.3865334935158
 30
0.0
 10
165.0405916113805
 20
505.557220402598
 30
0.0
 10
168.144954511291
 20
497.3816162726089
 30
0.0
 10
171.1919696178875
 20
489.8926076059929
 30
0.0
 10
174.1366682820144
 20
483.1177579016598
 30
0.0
 10
176.8305878880119
 20
477.270778875727
 30
0.0
 10
179.4179150222908
 20
471.93974839882
 30
0.0
 10
182.077165868991
 20
466.7323256406689
 30
0.0
 10
184.6290222438902
 20
461.9995811299432
 30
0.0
 10
187.0272157861245
 20
457.7631707435448
 30
0.0
 10
189.2157427446427
 20
454.0534972700461
 30
0.0
 10
191.5212917833478
 20
450.3113443171842
 30
0.0
 10
193.990722950176
 20
446.4826761749268
 30
0.0
 10
196.770540021017
 20
442.378645227438
 30
0.0
 10
200.0419813934486
 20
437.8307742508791
 30
0.0
 10
203.8407921329263
 20
432.8749365870481
 30
0.0
 10
206.6871903230485
 20
429.552837678877
 30
0.0
 10
208.1422972084465
 20
427.854547885132
 30
0.0
  0
LINE
  5
1191
330
A
100
AcDbEntity
  8
MODEL
100
AcDbLine
 10
348.8402306122507
 20
701.682516400082
 30
0.0
 11
358.8402306122507
 21
701.682516400082
 31
0.0
  0
CIRCLE
  5
1196
330
A
100
AcDbEntity
  8
HIDDEN
  6
HIDDEN
 48
0.05
100
AcDbCircle
 10
233.8402306122507
 20
661.682516400082
 30
0.0
 40
7.5
  0
CIRCLE
  5
1197
330
A
100
AcDbEntity
  8
HIDDEN
  6
HIDDEN
 48
0.05
100
AcDbCircle
 10
303.8402306122507
 20
661.682516400082
 30
0.0
 40
7.5
  0
LINE
  5
1198
330
A
100
AcDbEntity
  8
MODEL
100
AcDbLine
 10
188.8402306122507
 20
701.682516400082
 30
0.0
 11
348.8402306122507
 21
701.682516400082
 31
0.0
  0
LINE
  5
119B
330
A
100
AcDbEntity
  8
MODEL
100
AcDbLine
 10
178.8402306122507
 20
701.682516400082
 30
0.0
 11
188.8402306122507
 21
701.682516400082
 31
0.0
  0
SPLINE
  5
11A7
330
A
100
AcDbEntity
  8
MODEL
 48
0.05
100
AcDbSpline
210
0.0
220
0.0
230
1.0
 70
     8
 71
     3
 72
    26
 73
    22
 74
     0
 42
0.000000001
 43
0.00000001
 40
0.7441158305550136
 40
0.7441158305550136
 40
0.7441158305550136
 40
0.7441158305550136
 40
0.7500000000000069
 40
0.7500000000000069
 40
0.7656250000000067
 40
0.7656250000000067
 40
0.7734375000000064
 40
0.7734375000000064
 40
0.7812500000000062
 40
0.7812500000000062
 40
0.8125000000000053
 40
0.8125000000000053
 40
0.8437500000000044
 40
0.8437500000000044
 40
0.859375000000004
 40
0.859375000000004
 40
0.8750000000000036
 40
0.8750000000000036
 40
0.9375000000000018
 40
0.9375000000000018
 40
1.0
 40
1.0
 40
1.0
 40
1.0
 10
207.1659774398301
 20
429.0910862991248
 30
0.0
 10
207.2546598614171
 20
428.970135619532
 30
0.0
 10
207.3437918844633
 20
428.8506728296224
 30
0.0
 10
207.6711704972322
 20
428.419398539254
 30
0.0
 10
207.9119244237727
 20
428.1165468832678
 30
0.0
 10
208.2758968184344
 20
427.6777217630029
 30
0.0
 10
208.3976868343152
 20
427.5340220412781
 30
0.0
 10
208.6418385861534
 20
427.2517382004389
 30
0.0
 10
208.7631406308128
 20
427.1130686842789
 30
0.0
 10
209.3885038641956
 20
426.4339267551281
 30
0.0
 10
209.9428506398172
 20
425.9354532933598
 30
0.0
 10
211.155355672242
 20
425.0246298131478
 30
0.0
 10
211.8135323459419
 20
424.6122964936999
 30
0.0
 10
212.8805375912189
 20
424.0564994158581
 30
0.0
 10
213.2502025758795
 20
423.881439739444
 30
0.0
 10
214.0116451091517
 20
423.554263612763
 30
0.0
 10
214.4038444000244
 20
423.4018745709709
 30
0.0
 10
216.4237798099339
 20
422.6935287214528
 30
0.0
 10
218.226025312134
 20
422.298332115859
 30
0.0
 10
222.2808716088684
 20
421.792643678009
 30
0.0
 10
224.534744923475
 20
421.682516400082
 30
0.0
 10
227.0721105162584
 20
421.682516400082
 30
0.0
  0
LINE
  5
11A9
330
A
100
AcDbEntity
  8
MODEL
100
AcDbLine
 10
358.8402306122507
 20
701.682516400082
 30
0.0
 11
403.8402263714515
 21
701.682516400082
 31
0.0
  0
LINE
  5
11AA
102
{ACAD_REACTORS
330
13D8
102
}
330
A
100
AcDbEntity
  8
MODEL
100
AcDbLine
 10
133.8402343662665
 20
701.682516400082
 30
0.0
 11
178.8402306122507
 21
701.682516400082
 31
0.0
  0
LINE
  5
11B3
330
A
100
AcDbEntity
  8
MODEL
100
AcDbLine
 10
227.0720763291674
 20
421.682516400082
 30
0.0
 11
241.5532545959568
 21
421.682516400082
 31
0.0
  0
LINE
  5
11B5
330
A
100
AcDbEntity
  8
MODEL
100
AcDbLine
 10
296.1272066285446
 20
421.682516400082
 30
0.0
 11
310.6083784737193
 21
421.682516400082
 31
0.0
  0
LINE
  5
11BC
330
A
100
AcDbEntity
  8
MODEL
100
AcDbLine
 10
296.1272066285446
 20
421.682516400082
 30
0.0
 11
241.5532545959568
 21
421.682516400082
 31
0.0
  0
CIRCLE
  5
11BD
330
A
100
AcDbEntity
  8
MODEL
100
AcDbCircle
 10
268.8402306122512
 20
1074.49665546647
 30
0.0
 40
110.0
  0
LINE
  5
11BE
102
{ACAD_REACTORS
330
14F4
102
}
330
A
100
AcDbEntity
  8
MODEL
100
AcDbLine
 10
348.8402306122512
 20
1254.49665546647
 30
0.0
 11
188.8402306122512
 21
1254.49665546647
 31
0.0
  0
LINE
  5
11BF
330
A
100
AcDbEntity
  8
MODEL
100
AcDbLine
 10
358.8402306122512
 20
1175.119714453959
 30
0.0
 11
348.8402306122512
 21
1254.49665546647
 31
0.0
  0
ARC
  5
11C0
330
A
100
AcDbEntity
  8
MODEL
100
AcDbCircle
 10
268.8402306122512
 20
1074.49665546647
 30
0.0
 40
135.0
100
AcDbArc
 50
131.8103148957784
 51
48.18968510422274
  0
LINE
  5
11C1
102
{ACAD_REACTORS
330
14F4
102
}
330
A
100
AcDbEntity
  8
MODEL
100
AcDbLine
 10
188.8402306122512
 20
1254.49665546647
 30
0.0
 11
178.8402306122512
 21
1175.119714453959
 31
0.0
  0
CIRCLE
  5
11C2
330
A
100
AcDbEntity
  8
MODEL
100
AcDbCircle
 10
268.8402306122512
 20
1219.49665546647
 30
0.0
 40
17.5
  0
CIRCLE
  5
11C3
330
A
100
AcDbEntity
  8
MODEL
100
AcDbCircle
 10
268.8402306122512
 20
1074.49665546647
 30
0.0
 40
6.999999999999886
  0
CIRCLE
  5
11C4
330
A
100
AcDbEntity
  8
MODEL
100
AcDbCircle
 10
268.8402306122512
 20
1074.49665546647
 30
0.0
 40
4.000000000000341
  0
SPLINE
  5
11C5
330
A
100
AcDbEntity
  8
MODEL
100
AcDbSpline
210
0.0
220
0.0
230
1.0
 70
     8
 71
     3
 72
    24
 73
    20
 74
     0
 42
0.000000001
 43
0.00000001
 40
0.0
 40
0.0
 40
0.0
 40
0.0
 40
0.0759651502765611
 40
0.1499435726718383
 40
0.2218162471304113
 40
0.2914744744141605
 40
0.3588208113682859
 40
0.4226316446228701
 40
0.4840611604389279
 40
0.5430530315289657
 40
0.5995641004787406
 40
0.660732223404233
 40
0.7186391879514561
 40
0.7732906987798993
 40
0.8247202185410528
 40
0.87299125617065
 40
0.9182001106627413
 40
0.9604790766428493
 40
1.0
 40
1.0
 40
1.0
 40
1.0
 10
558.6131243431689
 20
701.682516400082
 30
0.0
 10
558.6830002421646
 20
694.1546996668708
 30
0.0
 10
558.8209245653795
 20
679.29594231185
 30
0.0
 10
559.9216300465357
 20
657.3377546630818
 30
0.0
 10
561.6237971138569
 20
636.0477838175411
 30
0.0
 10
563.9459088606839
 20
615.476676758421
 30
0.0
 10
566.813223519285
 20
595.7818245289109
 30
0.0
 10
570.1780450803078
 20
576.9936868267232
 30
0.0
 10
573.9898465254025
 20
559.1367790183449
 30
0.0
 10
578.2348114067447
 20
542.1222853078639
 30
0.0
 10
583.0753229219288
 20
525.2943492826621
 30
0.0
 10
588.54703620334
 20
508.7721374349399
 30
0.0
 10
594.6930650142256
 20
492.6852582632469
 30
0.0
 10
601.2238566994367
 20
477.7979029829421
 30
0.0
 10
608.1008120514041
 20
464.1281716050021
 30
0.0
 10
615.278851272468
 20
451.6801452651762
 30
0.0
 10
622.7452512938128
 20
440.4822888950639
 30
0.0
 10
630.3880480271498
 20
430.4590728981079
 30
0.0
 10
635.9337604032719
 20
424.5415280485781
 30
0.0
 10
638.6131243431689
 20
421.682516400082
 30
0.0
  0
LINE
  5
11C6
330
A
100
AcDbEntity
  8
MODEL
100
AcDbLine
 10
778.6131243431689
 20
543.6825164000861
 30
0.0
 11
794.236183330652
 21
701.682516400082
 31
0.0
  0
SPLINE
  5
11C7
330
A
100
AcDbEntity
  8
MODEL
100
AcDbSpline
210
0.0
220
0.0
230
1.0
 70
    24
 71
     3
 72
     8
 73
     4
 74
     0
 42
0.000000001
 43
0.00000001
 40
0.55366736671251
 40
0.55366736671251
 40
0.55366736671251
 40
0.55366736671251
 40
0.6023045513830707
 40
0.6023045513830707
 40
0.6023045513830707
 40
0.6023045513830707
 10
778.6131243431689
 20
543.682516400082
 30
0.0
 10
778.1556525524668
 20
539.0559869229019
 30
0.0
 10
777.699444205037
 20
534.4422349711881
 30
0.0
 10
777.2477847131038
 20
529.874486761159
 30
0.0
  0
SPLINE
  5
11C8
330
A
100
AcDbEntity
  8
MODEL
100
AcDbSpline
210
0.0
220
0.0
230
1.0
 70
     8
 71
     3
 72
    63
 73
    59
 74
     0
 42
0.000000001
 43
0.00000001
 40
0.0
 40
0.0
 40
0.0
 40
0.0
 40
0.0624999999999998
 40
0.0624999999999998
 40
0.0937499999999999
 40
0.0937499999999999
 40
0.1015625
 40
0.1015625
 40
0.1093750000000001
 40
0.1250000000000004
 40
0.1250000000000004
 40
0.1875000000000011
 40
0.1875000000000011
 40
0.2187500000000016
 40
0.2187500000000016
 40
0.2500000000000021
 40
0.2500000000000021
 40
0.3125000000000029
 40
0.3125000000000029
 40
0.3750000000000039
 40
0.3750000000000039
 40
0.4375000000000049
 40
0.4375000000000049
 40
0.4687500000000052
 40
0.4687500000000052
 40
0.5000000000000056
 40
0.5000000000000056
 40
0.5625000000000063
 40
0.5625000000000063
 40
0.625000000000007
 40
0.625000000000007
 40
0.6562500000000072
 40
0.6562500000000072
 40
0.6718750000000072
 40
0.6718750000000072
 40
0.6875000000000071
 40
0.6875000000000071
 40
0.718750000000007
 40
0.718750000000007
 40
0.7500000000000069
 40
0.7500000000000069
 40
0.7656250000000067
 40
0.7656250000000067
 40
0.7734375000000064
 40
0.7734375000000064
 40
0.7812500000000062
 40
0.7812500000000062
 40
0.8125000000000053
 40
0.8125000000000053
 40
0.8437500000000044
 40
0.8437500000000044
 40
0.859375000000004
 40
0.859375000000004
 40
0.8750000000000036
 40
0.8750000000000036
 40
0.9375000000000018
 40
0.9375000000000018
 40
1.0
 40
1.0
 40
1.0
 40
1.0
 10
777.2477847131038
 20
529.874486761159
 30
0.0
 10
776.8691266128606
 20
526.0450203368291
 30
0.0
 10
776.3126596709496
 20
522.2946079121889
 30
0.0
 10
775.2343553685807
 20
516.7876905743819
 30
0.0
 10
774.8342539966568
 20
514.9718589997342
 30
0.0
 10
774.2852241787139
 20
512.726854159946
 30
0.0
 10
774.1730010811168
 20
512.2791940836851
 30
0.0
 10
773.9432049109039
 20
511.3844498252311
 30
0.0
 10
773.5906486718907
 20
510.0438840724219
 30
0.0
 10
773.2144774603387
 20
508.7080490037029
 30
0.0
 10
771.9079064558489
 20
504.266120126731
 30
0.0
 10
770.6944173659956
 20
500.7473273003579
 30
0.0
 10
768.6147535197176
 20
495.5275547621809
 30
0.0
 10
767.8782342019938
 20
493.7973628196978
 30
0.0
 10
766.316613355443
 20
490.3575125041698
 30
0.0
 10
765.4965042930878
 20
488.6589809803249
 30
0.0
 10
762.9243221788081
 20
483.6362525469031
 30
0.0
 10
761.0588172383448
 20
480.380835539529
 30
0.0
 10
757.0312178514307
 20
474.0570632182698
 30
0.0
 10
754.8691028546189
 20
470.9886837879299
 30
0.0
 10
750.2465215626969
 20
465.0444673169309
 30
0.0
 10
747.786057738597
 20
462.1686021678229
 30
0.0
 10
743.8656023156307
 20
458.0073499883929
 30
0.0
 10
742.5282605019327
 20
456.6541549722438
 30
0.0
 10
739.8010623379839
 20
454.022025434499
 30
0.0
 10
738.4100802741038
 20
452.7418953579531
 30
0.0
 10
734.1569383478725
 20
449.0085925250078
 30
0.0
 10
731.2146508099638
 20
446.6622959372639
 30
0.0
 10
725.124356449737
 20
442.256076350337
 30
0.0
 10
721.9763591175458
 20
440.1962042454961
 30
0.0
 10
717.1046620414947
 20
437.3269486275658
 30
0.0
 10
715.4558036400797
 20
436.4073370814822
 30
0.0
 10
712.9454756306898
 20
435.084223397027
 30
0.0
 10
712.1014747687248
 20
434.6520655417648
 30
0.0
 10
710.4085448980275
 20
433.8103398287908
 30
0.0
 10
709.5592283174135
 20
433.4005327865138
 30
0.0
 10
707.0031098697389
 20
432.2039307613359
 30
0.0
 10
705.2881945195138
 20
431.4499596721448
 30
0.0
 10
701.8377549700479
 20
430.027631925574
 30
0.0
 10
700.1022733636298
 20
429.359275944224
 30
0.0
 10
697.4827296999517
 20
428.419398539254
 30
0.0
 10
696.6068054051377
 20
428.1165468832678
 30
0.0
 10
695.288415466496
 20
427.6777217630029
 30
0.0
 10
694.8481993222329
 20
427.5340220412781
 30
0.0
 10
693.9661671147057
 20
427.2517382004389
 30
0.0
 10
693.5240675120829
 20
427.1130686842789
 30
0.0
 10
691.3142273957435
 20
426.4339267551281
 30
0.0
 10
689.5468208814798
 20
425.9354532933598
 30
0.0
 10
686.0128981945616
 20
425.0246298131478
 30
0.0
 10
684.246381688851
 20
424.6122964936999
 30
0.0
 10
681.5984839747996
 20
424.0564994158581
 30
0.0
 10
680.7146901739568
 20
423.881439739444
 30
0.0
 10
678.9609739180758
 20
423.554263612763
 30
0.0
 10
678.0899197560955
 20
423.4018745709709
 30
0.0
 10
673.7648338291567
 20
422.6935287214528
 30
0.0
 10
670.3999735599448
 20
422.298332115859
 30
0.0
 10
663.9131002289821
 20
421.792643678009
 30
0.0
 10
660.7918163513984
 20
421.682516400082
 30
0.0
 10
657.8301543729997
 20
421.682516400082
 30
0.0
  0
LINE
  5
11C9
330
A
100
AcDbEntity
  8
MODEL
100
AcDbLine
 10
638.6131243781367
 20
421.682516400082
 30
0.0
 11
657.8301523153366
 21
421.682516400082
 31
0.0
  0
LINE
  5
11CA
330
A
100
AcDbEntity
  8
MODEL
100
AcDbLine
 10
558.6131243464058
 20
701.682516400082
 30
0.0
 11
794.236183330652
 21
701.682516400082
 31
0.0
  0
LINE
  5
11CB
330
A
100
AcDbEntity
  8
MODEL
100
AcDbLine
 10
873.6131243431689
 20
701.682516400082
 30
0.0
 11
873.6131243431689
 21
571.682516400082
 31
0.0
  0
SPLINE
  5
11CC
102
{ACAD_REACTORS
330
13D5
102
}
330
A
100
AcDbEntity
  8
MODEL
100
AcDbSpline
210
0.0
220
0.0
230
1.0
 70
     8
 71
     3
 72
    12
 73
     8
 74
     0
 42
0.000000001
 43
0.00000001
 40
0.0
 40
0.0
 40
0.0
 40
0.0
 40
0.5000000000000003
 40
0.5000000000000003
 40
0.7500000000000001
 40
0.7500000000000001
 40
1.0
 40
1.0
 40
1.0
 40
1.0
 10
873.6131243432335
 20
571.6825164003258
 30
0.0
 10
857.7829187393238
 20
567.0167715907542
 30
0.0
 10
841.924048843345
 20
562.3425783580301
 30
0.0
 10
818.1529048889586
 20
555.3363464556842
 30
0.0
 10
810.2311540684339
 20
553.0015146348978
 30
0.0
 10
794.4083962231396
 20
548.3379649541798
 30
0.0
 10
786.5063154134939
 20
546.0089306102841
 30
0.0
 10
778.6131243468869
 20
543.6825164011811
 30
0.0
  0
LINE
  5
11CD
102
{ACAD_REACTORS
330
13D2
330
13D5
330
13E0
102
}
330
A
100
AcDbEntity
  8
MODEL
100
AcDbLine
 10
794.236183330652
 20
701.682516400082
 30
0.0
 11
873.6131243431689
 21
701.682516400082
 31
0.0
  0
CIRCLE
  5
11D1
330
A
100
AcDbEntity
  8
MODEL
  6
Continuous
100
AcDbCircle
 10
268.8402306122512
 20
1089.49665546647
 30
0.0
 40
4.000045500076352
  0
CIRCLE
  5
11D2
330
A
100
AcDbEntity
  8
MODEL
  6
Continuous
100
AcDbCircle
 10
281.8306116690214
 20
1081.99665546647
 30
0.0
 40
4.000045500076352
  0
CIRCLE
  5
11D3
330
A
100
AcDbEntity
  8
MODEL
  6
Continuous
100
AcDbCircle
 10
255.8498495554809
 20
1081.99665546647
 30
0.0
 40
4.000045500076352
  0
CIRCLE
  5
11D4
330
A
100
AcDbEntity
  8
MODEL
  6
Continuous
100
AcDbCircle
 10
268.8402306122512
 20
1059.49665546647
 30
0.0
 40
4.000045500076352
  0
CIRCLE
  5
11D5
330
A
100
AcDbEntity
  8
MODEL
  6
Continuous
100
AcDbCircle
 10
281.8306116690214
 20
1066.99665546647
 30
0.0
 40
4.000045500076352
  0
CIRCLE
  5
11D6
330
A
100
AcDbEntity
  8
MODEL
  6
Continuous
100
AcDbCircle
 10
255.8498495554809
 20
1066.99665546647
 30
0.0
 40
4.000045500076352
  0
DIMENSION
  5
11D7
330
A
100
AcDbEntity
  8
DIM
100
AcDbDimension
  2
*D6
 10
457.6815718631176
 20
421.682516400082
 30
0.0
 11
457.6815718631176
 21
561.682516400082
 31
0.0
 70
   160
 71
     5
 42
280.0
 73
     0
 74
     0
 75
     0
  3
tfrom線あり
100
AcDbAlignedDimension
 13
403.8402266790426
 23
701.682516400082
 33
0.0
 14
336.1829871623338
 24
421.682516400082
 34
0.0
 50
90.0
100
AcDbRotatedDimension
  0
DIMENSION
  5
11D8
330
A
100
AcDbEntity
  8
DIM
100
AcDbDimension
  2
*D7
 10
303.8384372564276
 20
736.361384583674
 30
0.0
 11
268.8384372564276
 21
736.361384583674
 31
0.0
 70
   160
 71
     5
 42
70.0
 73
     0
 74
     0
 75
     0
  3
tfrom線あり
100
AcDbAlignedDimension
 13
233.8384372564276
 23
668.595988067199
 33
0.0
 14
303.8384372564276
 24
668.595988067199
 34
0.0
100
AcDbRotatedDimension
  0
MTEXT
  5
11D9
330
A
100
AcDbEntity
  8
DIM
390
1D
100
AcDbMText
 10
338.2024787328342
 20
798.7430045852996
 30
0.0
 40
12.0
 41
949.7161250932044
 46
26.808
 71
     1
 72
     1
  1
{\C7;壁取付ボルト位置(2ヶ所)}
  7
ＭＳ ゴシック
 73
     1
 44
0.9822934569727008
1001
ACAD
1000
ACAD_MTEXT_DEFINED_HEIGHT_BEGIN
1070
    46
1040
26.808
1000
ACAD_MTEXT_DEFINED_HEIGHT_END
  0
LINE
  5
11DA
330
A
100
AcDbEntity
  8
DIM
100
AcDbLine
 10
384.6888315654646
 20
775.5413184488389
 30
0.0
 11
309.2987211794848
 21
669.9105291646779
 31
0.0
  0
LINE
  5
11DB
330
A
100
AcDbEntity
  8
HIDDEN
  6
HIDDEN
 48
0.05
100
AcDbLine
 10
248.2810487070701
 20
516.979217310382
 30
0.0
 11
247.8402313807628
 21
514.4792178319221
 31
0.0
  0
LINE
  5
11DC
330
A
100
AcDbEntity
  8
HIDDEN
  6
HIDDEN
 48
0.05
100
AcDbLine
 10
252.3402311870477
 20
517.779215951396
 30
0.0
 11
248.2810487070701
 21
516.979217310382
 31
0.0
  0
LINE
  5
11DD
330
A
100
AcDbEntity
  8
HIDDEN
  6
HIDDEN
 48
0.05
100
AcDbLine
 10
289.8520604738615
 20
546.9052911521821
 30
0.0
 11
289.8520604738615
 21
549.6052921535402
 31
0.0
  0
LINE
  5
11DE
330
A
100
AcDbEntity
  8
HIDDEN
  6
HIDDEN
 48
0.05
100
AcDbLine
 10
247.0520605364463
 20
549.6052921535402
 30
0.0
 11
247.0520605364463
 21
546.9052911521821
 31
0.0
  0
LINE
  5
11DF
330
A
100
AcDbEntity
  8
HIDDEN
  6
HIDDEN
 48
0.05
100
AcDbLine
 10
247.4520598569534
 20
542.905290496531
 30
0.0
 11
247.8928771832607
 21
540.405289155427
 31
0.0
  0
LINE
  5
11E0
330
A
100
AcDbEntity
  8
HIDDEN
  6
HIDDEN
 48
0.05
100
AcDbLine
 10
289.0112438270471
 20
540.405289155427
 30
0.0
 11
289.4520611533544
 21
542.905290496531
 31
0.0
  0
LINE
  5
11E1
330
A
100
AcDbEntity
  8
HIDDEN
  6
HIDDEN
 48
0.05
100
AcDbLine
 10
247.8928771832607
 20
540.405289155427
 30
0.0
 11
251.9520596632383
 21
539.6052905144129
 31
0.0
  0
LINE
  5
11E2
330
A
100
AcDbEntity
  8
HIDDEN
  6
HIDDEN
 48
0.05
100
AcDbLine
 10
284.9520604157469
 20
539.6052905144129
 30
0.0
 11
289.0112438270471
 21
540.405289155427
 31
0.0
  0
LINE
  5
11E3
330
A
100
AcDbEntity
  8
HIDDEN
  6
HIDDEN
 48
0.05
100
AcDbLine
 10
252.4520606765172
 20
539.6052905144129
 30
0.0
 11
252.4520606765172
 21
517.5948171833811
 31
0.0
  0
LINE
  5
11E4
330
A
100
AcDbEntity
  8
HIDDEN
  6
HIDDEN
 48
0.05
100
AcDbLine
 10
284.4520603337905
 20
518.0339674930669
 30
0.0
 11
284.4520603337905
 21
539.6052905144129
 31
0.0
  0
ARC
  5
11E5
330
A
100
AcDbEntity
  8
MODEL
 48
0.05
100
AcDbCircle
 10
248.452060554303
 20
414.6205617387418
 30
0.0
 40
5.0
100
AcDbArc
 50
180.0
 51
222.3026996189062
  0
ARC
  5
11E6
330
A
100
AcDbEntity
  8
MODEL
 48
0.05
100
AcDbCircle
 10
288.452060554303
 20
414.6205617387418
 30
0.0
 40
5.000000000000568
100
AcDbArc
 50
317.6973003811489
 51
0.0
  0
LINE
  5
11E7
330
A
100
AcDbEntity
  8
HIDDEN
  6
HIDDEN
 48
0.05
100
AcDbLine
 10
243.4520610639474
 20
463.7792182759772
 30
0.0
 11
243.4520610639474
 21
421.682516400082
 31
0.0
  0
LINE
  5
11E8
330
A
100
AcDbEntity
  8
HIDDEN
  6
HIDDEN
 48
0.05
100
AcDbLine
 10
293.4520599463604
 20
421.682516400082
 30
0.0
 11
293.4520599463604
 21
463.7792182759772
 31
0.0
  0
ARC
  5
11E9
330
A
100
AcDbEntity
  8
MODEL
 48
0.05
100
AcDbCircle
 10
268.452060554303
 20
432.8208841565211
 30
0.0
 40
32.04166666666646
100
AcDbArc
 50
222.3026996188598
 51
317.6973003811486
  0
LINE
  5
11EA
330
A
100
AcDbEntity
  8
HIDDEN
  6
HIDDEN
 48
0.05
100
AcDbLine
 10
246.8631883183143
 20
508.5180630602531
 30
0.0
 11
239.8402300694606
 21
463.7792182759772
 31
0.0
  0
CIRCLE
  5
11EB
330
A
100
AcDbEntity
  8
HIDDEN
  6
HIDDEN
 48
0.05
100
AcDbCircle
 10
268.8402306122543
 20
489.5292174898532
 30
0.0
 40
13.76470588235293
  0
CIRCLE
  5
11EC
330
A
100
AcDbEntity
  8
HIDDEN
  6
HIDDEN
 48
0.05
100
AcDbCircle
 10
268.8402306122543
 20
489.5292174898532
 30
0.0
 40
32.4999999999994
  0
LINE
  5
11ED
330
A
100
AcDbEntity
  8
HIDDEN
  6
HIDDEN
 48
0.05
100
AcDbLine
 10
248.2810487070701
 20
516.979217310382
 30
0.0
 11
251.4405903437755
 21
516.979217310382
 31
0.0
  0
LINE
  5
11EE
330
A
100
AcDbEntity
  8
HIDDEN
  6
HIDDEN
 48
0.05
100
AcDbLine
 10
252.3402311870477
 20
517.779215951396
 30
0.0
 11
252.7720165470264
 21
517.779215951396
 31
0.0
  0
LINE
  5
11EF
330
A
100
AcDbEntity
  8
HIDDEN
  6
HIDDEN
 48
0.05
100
AcDbLine
 10
246.8631883183143
 20
508.5180630602531
 30
0.0
 11
246.8631883183143
 21
514.4792178319221
 31
0.0
  0
LINE
  5
11F0
330
A
100
AcDbEntity
  8
HIDDEN
  6
HIDDEN
 48
0.05
100
AcDbLine
 10
246.8631883183143
 20
514.4792178319221
 30
0.0
 11
248.0136254416866
 21
514.4792178319221
 31
0.0
  0
LINE
  5
11F1
330
A
100
AcDbEntity
  8
HIDDEN
  6
HIDDEN
 48
0.05
100
AcDbLine
 10
289.8520604738615
 20
549.6052921535402
 30
0.0
 11
247.0520605364463
 21
549.6052921535402
 31
0.0
  0
LINE
  5
11F2
330
A
100
AcDbEntity
  8
HIDDEN
  6
HIDDEN
 48
0.05
100
AcDbLine
 10
289.0112438270471
 20
540.405289155427
 30
0.0
 11
247.8928771832607
 21
540.405289155427
 31
0.0
  0
LINE
  5
11F3
330
A
100
AcDbEntity
  8
HIDDEN
  6
HIDDEN
 48
0.05
100
AcDbLine
 10
284.9520604157469
 20
539.6052905144129
 30
0.0
 11
251.9520596632383
 21
539.6052905144129
 31
0.0
  0
LINE
  5
11F4
330
A
100
AcDbEntity
  8
HIDDEN
  6
HIDDEN
 48
0.05
100
AcDbLine
 10
246.4750652232788
 20
546.9052911521821
 30
0.0
 11
246.4750652232788
 21
542.905290496531
 31
0.0
  0
LINE
  5
11F5
330
A
100
AcDbEntity
  8
HIDDEN
  6
HIDDEN
 48
0.05
100
AcDbLine
 10
290.429055787029
 20
546.9052911521821
 30
0.0
 11
290.429055787029
 21
542.905290496531
 31
0.0
  0
LINE
  5
11F6
330
A
100
AcDbEntity
  8
HIDDEN
  6
HIDDEN
 48
0.05
100
AcDbLine
 10
239.8402300694606
 20
463.7792182759772
 30
0.0
 11
249.0112745234392
 21
463.7792182759772
 31
0.0
  0
LINE
  5
11F7
330
A
100
AcDbEntity
  8
HIDDEN
  6
HIDDEN
 48
0.05
100
AcDbLine
 10
288.6691858091972
 20
463.7792182759772
 30
0.0
 11
297.8402302631757
 21
463.7792182759772
 31
0.0
  0
LINE
  5
11F8
330
A
100
AcDbEntity
  8
HIDDEN
  6
HIDDEN
 48
0.05
100
AcDbLine
 10
743.9454810531558
 20
474.0292177431729
 30
0.0
 11
756.9414214371407
 21
474.0292177431729
 31
0.0
  0
LINE
  5
11F9
330
A
100
AcDbEntity
  8
HIDDEN
  6
HIDDEN
 48
0.05
100
AcDbLine
 10
772.0953893379658
 20
505.029218167856
 30
0.0
 11
743.9454810531558
 21
505.029218167856
 31
0.0
  0
LINE
  5
11FA
330
A
100
AcDbEntity
  8
HIDDEN
  6
HIDDEN
 48
0.05
100
AcDbLine
 10
675.5454817624511
 20
510.4792172916682
 30
0.0
 11
675.5454817624511
 21
507.7792181529549
 31
0.0
  0
LINE
  5
11FB
330
A
100
AcDbEntity
  8
HIDDEN
  6
HIDDEN
 48
0.05
100
AcDbLine
 10
718.3454816998658
 20
507.7792181529549
 30
0.0
 11
718.3454816998658
 21
510.4792172916682
 31
0.0
  0
LINE
  5
11FC
330
A
100
AcDbEntity
  8
HIDDEN
  6
HIDDEN
 48
0.05
100
AcDbLine
 10
717.945480516714
 20
514.4792179473188
 30
0.0
 11
717.5046631904067
 21
516.9792174257782
 31
0.0
  0
LINE
  5
11FD
330
A
100
AcDbEntity
  8
HIDDEN
  6
HIDDEN
 48
0.05
100
AcDbLine
 10
676.3862984092646
 20
516.9792174257782
 30
0.0
 11
676.1747056456027
 21
515.779219464257
 31
0.0
  0
LINE
  5
11FE
330
A
100
AcDbEntity
  8
HIDDEN
  6
HIDDEN
 48
0.05
100
AcDbLine
 10
717.5046631904067
 20
516.9792174257782
 30
0.0
 11
713.4454807104287
 21
517.7792160667918
 31
0.0
  0
LINE
  5
11FF
330
A
100
AcDbEntity
  8
HIDDEN
  6
HIDDEN
 48
0.05
100
AcDbLine
 10
677.1416606219225
 20
517.1280874766849
 30
0.0
 11
676.3862984092646
 21
516.9792174257782
 31
0.0
  0
LINE
  5
1200
330
A
100
AcDbEntity
  8
HIDDEN
  6
HIDDEN
 48
0.05
100
AcDbLine
 10
714.5416613505897
 20
546.9052912675788
 30
0.0
 11
714.5416613505897
 21
549.6052922689369
 31
0.0
  0
LINE
  5
1201
330
A
100
AcDbEntity
  8
HIDDEN
  6
HIDDEN
 48
0.05
100
AcDbLine
 10
671.7416604818516
 20
549.6052922689369
 30
0.0
 11
671.7416604818516
 21
546.9052912675788
 31
0.0
  0
LINE
  5
1202
330
A
100
AcDbEntity
  8
HIDDEN
  6
HIDDEN
 48
0.05
100
AcDbLine
 10
672.1416616650038
 20
542.9052906119282
 30
0.0
 11
672.582478991312
 21
540.4052892708228
 31
0.0
  0
LINE
  5
1203
330
A
100
AcDbEntity
  8
HIDDEN
  6
HIDDEN
 48
0.05
100
AcDbLine
 10
713.7008437724528
 20
540.4052892708228
 30
0.0
 11
714.1416610987596
 21
542.9052906119282
 31
0.0
  0
LINE
  5
1204
330
A
100
AcDbEntity
  8
HIDDEN
  6
HIDDEN
 48
0.05
100
AcDbLine
 10
672.582478991312
 20
540.4052892708228
 30
0.0
 11
676.6416614712887
 21
539.6052906298091
 31
0.0
  0
LINE
  5
1205
330
A
100
AcDbEntity
  8
HIDDEN
  6
HIDDEN
 48
0.05
100
AcDbLine
 10
709.6416612924747
 20
539.6052906298091
 30
0.0
 11
713.7008437724528
 21
540.4052892708228
 31
0.0
  0
LINE
  5
1206
330
A
100
AcDbEntity
  8
HIDDEN
  6
HIDDEN
 48
0.05
100
AcDbLine
 10
736.6454804153857
 20
510.9292174585612
 30
0.0
 11
733.9454794140281
 21
510.9292174585612
 31
0.0
  0
LINE
  5
1207
330
A
100
AcDbEntity
  8
HIDDEN
  6
HIDDEN
 48
0.05
100
AcDbLine
 10
733.9454794140281
 20
468.1292175211461
 30
0.0
 11
736.6454804153857
 21
468.1292175211461
 31
0.0
  0
LINE
  5
1208
330
A
100
AcDbEntity
  8
HIDDEN
  6
HIDDEN
 48
0.05
100
AcDbLine
 10
740.6454810710368
 20
468.5292177729748
 30
0.0
 11
743.1454824121417
 21
468.970035099283
 31
0.0
  0
LINE
  5
1209
330
A
100
AcDbEntity
  8
HIDDEN
  6
HIDDEN
 48
0.05
100
AcDbLine
 10
743.1454824121417
 20
510.0884008117469
 30
0.0
 11
740.6454810710368
 21
510.5292181380541
 31
0.0
  0
LINE
  5
120A
330
A
100
AcDbEntity
  8
HIDDEN
  6
HIDDEN
 48
0.05
100
AcDbLine
 10
743.1454824121417
 20
468.970035099283
 30
0.0
 11
743.9454810531558
 21
473.0292175792601
 31
0.0
  0
LINE
  5
120B
330
A
100
AcDbEntity
  8
HIDDEN
  6
HIDDEN
 48
0.05
100
AcDbLine
 10
743.9454810531558
 20
506.0292183317688
 30
0.0
 11
743.1454824121417
 21
510.0884008117469
 31
0.0
  0
LINE
  5
120C
330
A
100
AcDbEntity
  8
HIDDEN
  6
HIDDEN
 48
0.05
100
AcDbLine
 10
677.1416606219225
 20
539.6052906298091
 30
0.0
 11
677.1416606219225
 21
517.1280874766849
 31
0.0
  0
LINE
  5
120D
330
A
100
AcDbEntity
  8
HIDDEN
  6
HIDDEN
 48
0.05
100
AcDbLine
 10
709.1416612105188
 20
516.9792174257782
 30
0.0
 11
709.1416612105188
 21
539.6052906298091
 31
0.0
  0
LINE
  5
120E
330
A
100
AcDbEntity
  8
HIDDEN
  6
HIDDEN
 48
0.05
100
AcDbLine
 10
673.6416609795508
 20
515.779219464257
 30
0.0
 11
674.9684380205088
 21
512.1305807389758
 31
0.0
  0
LINE
  5
120F
330
A
100
AcDbEntity
  8
HIDDEN
  6
HIDDEN
 48
0.05
100
AcDbLine
 10
675.6416613073768
 20
507.7792181529549
 30
0.0
 11
675.6416613073768
 21
506.7792179890421
 31
0.0
  0
ARC
  5
1210
330
A
100
AcDbEntity
  8
MODEL
  6
HIDDEN
 48
0.05
100
AcDbCircle
 10
673.1416610721515
 20
414.6205618541389
 30
0.0
 40
5.0
100
AcDbArc
 50
180.0
 51
222.3026996189076
  0
ARC
  5
1211
330
A
100
AcDbEntity
  8
MODEL
  6
HIDDEN
 48
0.05
100
AcDbCircle
 10
713.1416610721515
 20
414.6205618541389
 30
0.0
 40
5.0
100
AcDbArc
 50
317.6973003811473
 51
0.0
  0
LINE
  5
1212
330
A
100
AcDbEntity
  8
HIDDEN
  6
HIDDEN
 48
0.05
100
AcDbLine
 10
668.1416610093527
 20
463.7792183913739
 30
0.0
 11
668.1416610093527
 21
422.1263717225029
 31
0.0
  0
LINE
  5
1213
330
A
100
AcDbEntity
  8
HIDDEN
  6
HIDDEN
 48
0.05
100
AcDbLine
 10
718.1416617544107
 20
437.9399397803718
 30
0.0
 11
718.1416617544107
 21
463.7792183913739
 31
0.0
  0
ARC
  5
1214
330
A
100
AcDbEntity
  8
MODEL
 48
0.05
100
AcDbCircle
 10
693.1416610721515
 20
432.8208842719182
 30
0.0
 40
32.04166666666646
100
AcDbArc
 50
222.3026996188602
 51
317.6973003811488
  0
LINE
  5
1215
330
A
100
AcDbEntity
  8
HIDDEN
  6
HIDDEN
 48
0.05
100
AcDbLine
 10
669.6416603238997
 20
475.2792174824031
 30
0.0
 11
669.6416603238997
 21
474.5669363894008
 31
0.0
  0
LINE
  5
1216
330
A
100
AcDbEntity
  8
HIDDEN
  6
HIDDEN
 48
0.05
100
AcDbLine
 10
669.7743085982017
 20
475.411864825383
 30
0.0
 11
669.6416603238997
 21
475.2792174824031
 31
0.0
  0
LINE
  5
1217
330
A
100
AcDbEntity
  8
HIDDEN
  6
HIDDEN
 48
0.05
100
AcDbLine
 10
725.9454818280158
 20
463.7792183913739
 30
0.0
 11
724.604366144699
 21
472.3226119660289
 31
0.0
  0
LINE
  5
1218
330
A
100
AcDbEntity
  8
HIDDEN
  6
HIDDEN
 48
0.05
100
AcDbLine
 10
674.6954804124059
 20
506.7792179890421
 30
0.0
 11
669.7710191668691
 21
475.408576325372
 31
0.0
  0
LINE
  5
1219
330
A
100
AcDbEntity
  8
HIDDEN
  6
HIDDEN
 48
0.05
100
AcDbLine
 10
669.6416603238997
 20
474.584513240352
 30
0.0
 11
668.1416610093527
 21
463.7792183913739
 31
0.0
  0
LINE
  5
121A
330
A
100
AcDbEntity
  8
HIDDEN
  6
HIDDEN
 48
0.05
100
AcDbLine
 10
717.9004808725538
 20
506.7792179890421
 30
0.0
 11
717.9004808725538
 21
507.029399172261
 31
0.0
  0
SPLINE
  5
121B
330
A
100
AcDbEntity
  8
HIDDEN
  6
HIDDEN
 48
0.05
100
AcDbSpline
210
0.0
220
0.0
230
1.0
 70
     8
 71
     3
 72
     9
 73
     5
 74
     0
 42
0.000000001
 43
0.00000001
 40
0.0
 40
0.0
 40
0.0
 40
0.0
 40
0.5000064297323661
 40
1.0
 40
1.0
 40
1.0
 40
1.0
 10
717.8896551789455
 20
507.0416460641168
 30
0.0
 10
717.6812403413876
 20
507.162038135335
 30
0.0
 10
717.2644160263978
 20
507.4028191814509
 30
0.0
 10
716.8475961201791
 20
507.6436076540122
 30
0.0
 10
716.6391888471069
 20
507.7640003420861
 30
0.0
  0
LINE
  5
121C
330
A
100
AcDbEntity
  8
HIDDEN
  6
HIDDEN
 48
0.05
100
AcDbLine
 10
733.9454794140281
 20
506.7792179890421
 30
0.0
 11
719.1954811872658
 21
506.7792179890421
 31
0.0
  0
LINE
  5
121D
330
A
100
AcDbEntity
  8
HIDDEN
  6
HIDDEN
 48
0.05
100
AcDbLine
 10
724.5802784176287
 20
472.2792179219869
 30
0.0
 11
733.9454794140281
 21
472.2792179219869
 31
0.0
  0
LINE
  5
121E
330
A
100
AcDbEntity
  8
HIDDEN
  6
HIDDEN
 48
0.05
100
AcDbLine
 10
676.4874586673197
 20
507.7792181529549
 30
0.0
 11
718.3454816998658
 21
507.7792181529549
 31
0.0
  0
LINE
  5
121F
330
A
100
AcDbEntity
  8
HIDDEN
  6
HIDDEN
 48
0.05
100
AcDbLine
 10
675.5454817624511
 20
507.7792181529549
 30
0.0
 11
676.4874586673197
 21
507.7792181529549
 31
0.0
  0
LINE
  5
1220
330
A
100
AcDbEntity
  8
HIDDEN
  6
HIDDEN
 48
0.05
100
AcDbLine
 10
677.2912645550189
 20
516.9792174257782
 30
0.0
 11
717.5046631904067
 21
516.9792174257782
 31
0.0
  0
LINE
  5
1221
330
A
100
AcDbEntity
  8
HIDDEN
  6
HIDDEN
 48
0.05
100
AcDbLine
 10
676.3862984092646
 20
516.9792174257782
 30
0.0
 11
677.2912645550189
 21
516.9792174257782
 31
0.0
  0
LINE
  5
1222
330
A
100
AcDbEntity
  8
HIDDEN
  6
HIDDEN
 48
0.05
100
AcDbLine
 10
709.1416612105188
 20
517.7792160667918
 30
0.0
 11
713.4454807104287
 21
517.7792160667918
 31
0.0
  0
LINE
  5
1223
330
A
100
AcDbEntity
  8
HIDDEN
  6
HIDDEN
 48
0.05
100
AcDbLine
 10
674.1143885625627
 20
514.4792179473188
 30
0.0
 11
718.9225235791616
 21
514.4792179473188
 31
0.0
  0
LINE
  5
1224
330
A
100
AcDbEntity
  8
HIDDEN
  6
HIDDEN
 48
0.05
100
AcDbLine
 10
674.9684380205088
 20
510.4792172916682
 30
0.0
 11
718.9152108343058
 21
510.4792172916682
 31
0.0
  0
LINE
  5
1225
330
A
100
AcDbEntity
  8
HIDDEN
  6
HIDDEN
 48
0.05
100
AcDbLine
 10
674.9684380205088
 20
510.4792172916682
 30
0.0
 11
674.9684380205088
 21
512.1305807389758
 31
0.0
  0
LINE
  5
1226
330
A
100
AcDbEntity
  8
HIDDEN
  6
HIDDEN
 48
0.05
100
AcDbLine
 10
718.9225235791616
 20
510.4792172916682
 30
0.0
 11
718.9225235791616
 21
514.4792179473188
 31
0.0
  0
LINE
  5
1227
330
A
100
AcDbEntity
  8
HIDDEN
  6
HIDDEN
 48
0.05
100
AcDbLine
 10
718.9152108343058
 20
510.4792172916682
 30
0.0
 11
718.9225235791616
 21
510.4792172916682
 31
0.0
  0
LINE
  5
1228
330
A
100
AcDbEntity
  8
HIDDEN
  6
HIDDEN
 48
0.05
100
AcDbLine
 10
672.6845873357468
 20
549.6052922689369
 30
0.0
 11
671.7416604818516
 21
549.6052922689369
 31
0.0
  0
LINE
  5
1229
330
A
100
AcDbEntity
  8
HIDDEN
  6
HIDDEN
 48
0.05
100
AcDbLine
 10
714.5416613505897
 20
549.6052922689369
 30
0.0
 11
672.6845873357468
 21
549.6052922689369
 31
0.0
  0
LINE
  5
122A
330
A
100
AcDbEntity
  8
HIDDEN
  6
HIDDEN
 48
0.05
100
AcDbLine
 10
673.4883559705438
 20
540.4052892708228
 30
0.0
 11
672.582478991312
 21
540.4052892708228
 31
0.0
  0
LINE
  5
122B
330
A
100
AcDbEntity
  8
HIDDEN
  6
HIDDEN
 48
0.05
100
AcDbLine
 10
713.7008437724528
 20
540.4052892708228
 30
0.0
 11
673.4883559705438
 21
540.4052892708228
 31
0.0
  0
LINE
  5
122C
330
A
100
AcDbEntity
  8
HIDDEN
  6
HIDDEN
 48
0.05
100
AcDbLine
 10
677.368683538002
 20
539.6052906298091
 30
0.0
 11
676.6416614712887
 21
539.6052906298091
 31
0.0
  0
LINE
  5
122D
330
A
100
AcDbEntity
  8
HIDDEN
  6
HIDDEN
 48
0.05
100
AcDbLine
 10
709.6416612924747
 20
539.6052906298091
 30
0.0
 11
677.368683538002
 21
539.6052906298091
 31
0.0
  0
LINE
  5
122E
330
A
100
AcDbEntity
  8
HIDDEN
  6
HIDDEN
 48
0.05
100
AcDbLine
 10
693.4568684385838
 20
542.9052906119282
 30
0.0
 11
692.9809504957618
 21
542.9052906119282
 31
0.0
  0
LINE
  5
122F
330
A
100
AcDbEntity
  8
HIDDEN
  6
HIDDEN
 48
0.05
100
AcDbLine
 10
692.4979456538078
 20
542.9052906119282
 30
0.0
 11
692.0433126227679
 21
542.9052906119282
 31
0.0
  0
LINE
  5
1230
330
A
100
AcDbEntity
  8
HIDDEN
  6
HIDDEN
 48
0.05
100
AcDbLine
 10
694.4151914516208
 20
542.9052906119282
 30
0.0
 11
693.9188938425598
 21
542.9052906119282
 31
0.0
  0
LINE
  5
1231
330
A
100
AcDbEntity
  8
HIDDEN
  6
HIDDEN
 48
0.05
100
AcDbLine
 10
691.5402475582175
 20
542.9052906119282
 30
0.0
 11
691.1077655689539
 21
542.9052906119282
 31
0.0
  0
LINE
  5
1232
330
A
100
AcDbEntity
  8
HIDDEN
  6
HIDDEN
 48
0.05
100
AcDbLine
 10
693.9188938425598
 20
542.9052906119282
 30
0.0
 11
693.4568684385838
 21
542.9052906119282
 31
0.0
  0
LINE
  5
1233
330
A
100
AcDbEntity
  8
HIDDEN
  6
HIDDEN
 48
0.05
100
AcDbLine
 10
695.3710906976578
 20
542.9052906119282
 30
0.0
 11
694.8553577834489
 21
542.9052906119282
 31
0.0
  0
LINE
  5
1234
330
A
100
AcDbEntity
  8
HIDDEN
  6
HIDDEN
 48
0.05
100
AcDbLine
 10
692.9809504957618
 20
542.9052906119282
 30
0.0
 11
692.4979456538078
 21
542.9052906119282
 31
0.0
  0
LINE
  5
1235
330
A
100
AcDbEntity
  8
HIDDEN
  6
HIDDEN
 48
0.05
100
AcDbLine
 10
694.8553577834489
 20
542.9052906119282
 30
0.0
 11
694.4151914516208
 21
542.9052906119282
 31
0.0
  0
LINE
  5
1236
330
A
100
AcDbEntity
  8
HIDDEN
  6
HIDDEN
 48
0.05
100
AcDbLine
 10
692.0433126227679
 20
542.9052906119282
 30
0.0
 11
691.5402475582175
 21
542.9052906119282
 31
0.0
  0
LINE
  5
1237
330
A
100
AcDbEntity
  8
HIDDEN
  6
HIDDEN
 48
0.05
100
AcDbLine
 10
690.5855981470756
 20
542.9052906119282
 30
0.0
 11
690.1760909544048
 21
542.9052906119282
 31
0.0
  0
LINE
  5
1238
330
A
100
AcDbEntity
  8
HIDDEN
  6
HIDDEN
 48
0.05
100
AcDbLine
 10
695.7885599998497
 20
542.9052906119282
 30
0.0
 11
695.3710906976578
 21
542.9052906119282
 31
0.0
  0
LINE
  5
1239
330
A
100
AcDbEntity
  8
HIDDEN
  6
HIDDEN
 48
0.05
100
AcDbLine
 10
696.3227454410605
 20
542.9052906119282
 30
0.0
 11
695.7885599998497
 21
542.9052906119282
 31
0.0
  0
LINE
  5
123A
330
A
100
AcDbEntity
  8
HIDDEN
  6
HIDDEN
 48
0.05
100
AcDbLine
 10
691.1077655689539
 20
542.9052906119282
 30
0.0
 11
690.5855981470756
 21
542.9052906119282
 31
0.0
  0
LINE
  5
123B
330
A
100
AcDbEntity
  8
HIDDEN
  6
HIDDEN
 48
0.05
100
AcDbLine
 10
689.635814896387
 20
542.9052906119282
 30
0.0
 11
689.2500601546587
 21
542.9052906119282
 31
0.0
  0
LINE
  5
123C
330
A
100
AcDbEntity
  8
HIDDEN
  6
HIDDEN
 48
0.05
100
AcDbLine
 10
696.7167232954619
 20
542.9052906119282
 30
0.0
 11
696.3227454410605
 21
542.9052906119282
 31
0.0
  0
LINE
  5
123D
330
A
100
AcDbEntity
  8
HIDDEN
  6
HIDDEN
 48
0.05
100
AcDbLine
 10
697.2683451907458
 20
542.9052906119282
 30
0.0
 11
696.7167232954619
 21
542.9052906119282
 31
0.0
  0
LINE
  5
123E
330
A
100
AcDbEntity
  8
HIDDEN
  6
HIDDEN
 48
0.05
100
AcDbLine
 10
690.1760909544048
 20
542.9052906119282
 30
0.0
 11
689.635814896387
 21
542.9052906119282
 31
0.0
  0
LINE
  5
123F
330
A
100
AcDbEntity
  8
HIDDEN
  6
HIDDEN
 48
0.05
100
AcDbLine
 10
697.6380815334358
 20
542.9052906119282
 30
0.0
 11
697.2683451907458
 21
542.9052906119282
 31
0.0
  0
LINE
  5
1240
330
A
100
AcDbEntity
  8
HIDDEN
  6
HIDDEN
 48
0.05
100
AcDbLine
 10
688.6927045719438
 20
542.9052906119282
 30
0.0
 11
688.3314380259928
 21
542.9052906119282
 31
0.0
  0
LINE
  5
1241
330
A
100
AcDbEntity
  8
HIDDEN
  6
HIDDEN
 48
0.05
100
AcDbLine
 10
689.2500601546587
 20
542.9052906119282
 30
0.0
 11
688.6927045719438
 21
542.9052906119282
 31
0.0
  0
LINE
  5
1242
330
A
100
AcDbEntity
  8
HIDDEN
  6
HIDDEN
 48
0.05
100
AcDbLine
 10
698.2060893509276
 20
542.9052906119282
 30
0.0
 11
697.6380815334358
 21
542.9052906119282
 31
0.0
  0
LINE
  5
1243
330
A
100
AcDbEntity
  8
HIDDEN
  6
HIDDEN
 48
0.05
100
AcDbLine
 10
698.5508803930809
 20
542.9052906119282
 30
0.0
 11
698.2060893509276
 21
542.9052906119282
 31
0.0
  0
LINE
  5
1244
330
A
100
AcDbEntity
  8
HIDDEN
  6
HIDDEN
 48
0.05
100
AcDbLine
 10
687.7580627636728
 20
542.9052906119282
 30
0.0
 11
687.4219726608806
 21
542.9052906119282
 31
0.0
  0
LINE
  5
1245
330
A
100
AcDbEntity
  8
HIDDEN
  6
HIDDEN
 48
0.05
100
AcDbLine
 10
688.3314380259928
 20
542.9052906119282
 30
0.0
 11
687.7580627636728
 21
542.9052906119282
 31
0.0
  0
LINE
  5
1246
330
A
100
AcDbEntity
  8
HIDDEN
  6
HIDDEN
 48
0.05
100
AcDbLine
 10
699.1341932165176
 20
542.9052906119282
 30
0.0
 11
698.5508803930809
 21
542.9052906119282
 31
0.0
  0
LINE
  5
1247
330
A
100
AcDbEntity
  8
HIDDEN
  6
HIDDEN
 48
0.05
100
AcDbLine
 10
699.4533825794449
 20
542.9052906119282
 30
0.0
 11
699.1341932165176
 21
542.9052906119282
 31
0.0
  0
LINE
  5
1248
330
A
100
AcDbEntity
  8
HIDDEN
  6
HIDDEN
 48
0.05
100
AcDbLine
 10
686.8336701603346
 20
542.9052906119282
 30
0.0
 11
686.5233944566669
 21
542.9052906119282
 31
0.0
  0
LINE
  5
1249
330
A
100
AcDbEntity
  8
HIDDEN
  6
HIDDEN
 48
0.05
100
AcDbLine
 10
687.4219726608806
 20
542.9052906119282
 30
0.0
 11
686.8336701603346
 21
542.9052906119282
 31
0.0
  0
LINE
  5
124A
330
A
100
AcDbEntity
  8
HIDDEN
  6
HIDDEN
 48
0.05
100
AcDbLine
 10
700.0508898939677
 20
542.9052906119282
 30
0.0
 11
699.4533825794449
 21
542.9052906119282
 31
0.0
  0
LINE
  5
124B
330
A
100
AcDbEntity
  8
HIDDEN
  6
HIDDEN
 48
0.05
100
AcDbLine
 10
700.343870006104
 20
542.9052906119282
 30
0.0
 11
700.0508898939677
 21
542.9052906119282
 31
0.0
  0
LINE
  5
124C
330
A
100
AcDbEntity
  8
HIDDEN
  6
HIDDEN
 48
0.05
100
AcDbLine
 10
685.9212841676288
 20
542.9052906119282
 30
0.0
 11
685.6374151842408
 21
542.9052906119282
 31
0.0
  0
LINE
  5
124D
330
A
100
AcDbEntity
  8
HIDDEN
  6
HIDDEN
 48
0.05
100
AcDbLine
 10
686.5233944566669
 20
542.9052906119282
 30
0.0
 11
685.9212841676288
 21
542.9052906119282
 31
0.0
  0
LINE
  5
124E
330
A
100
AcDbEntity
  8
HIDDEN
  6
HIDDEN
 48
0.05
100
AcDbLine
 10
700.9544344922267
 20
542.9052906119282
 30
0.0
 11
700.343870006104
 21
542.9052906119282
 31
0.0
  0
LINE
  5
124F
330
A
100
AcDbEntity
  8
HIDDEN
  6
HIDDEN
 48
0.05
100
AcDbLine
 10
701.2206476950757
 20
542.9052906119282
 30
0.0
 11
700.9544344922267
 21
542.9052906119282
 31
0.0
  0
LINE
  5
1250
330
A
100
AcDbEntity
  8
HIDDEN
  6
HIDDEN
 48
0.05
100
AcDbLine
 10
685.02264263348
 20
542.9052906119282
 30
0.0
 11
684.7657196061425
 21
542.9052906119282
 31
0.0
  0
LINE
  5
1251
330
A
100
AcDbEntity
  8
HIDDEN
  6
HIDDEN
 48
0.05
100
AcDbLine
 10
685.6374151842408
 20
542.9052906119282
 30
0.0
 11
685.02264263348
 21
542.9052906119282
 31
0.0
  0
LINE
  5
1252
330
A
100
AcDbEntity
  8
HIDDEN
  6
HIDDEN
 48
0.05
100
AcDbLine
 10
701.8431069167079
 20
542.9052906119282
 30
0.0
 11
701.2206476950757
 21
542.9052906119282
 31
0.0
  0
LINE
  5
1253
330
A
100
AcDbEntity
  8
HIDDEN
  6
HIDDEN
 48
0.05
100
AcDbLine
 10
702.0820463379584
 20
542.9052906119282
 30
0.0
 11
701.8431069167079
 21
542.9052906119282
 31
0.0
  0
LINE
  5
1254
330
A
100
AcDbEntity
  8
HIDDEN
  6
HIDDEN
 48
0.05
100
AcDbLine
 10
684.1394563974561
 20
542.9052906119282
 30
0.0
 11
683.9099692018451
 21
542.9052906119282
 31
0.0
  0
LINE
  5
1255
330
A
100
AcDbEntity
  8
HIDDEN
  6
HIDDEN
 48
0.05
100
AcDbLine
 10
684.7657196061425
 20
542.9052906119282
 30
0.0
 11
684.1394563974561
 21
542.9052906119282
 31
0.0
  0
LINE
  5
1256
330
A
100
AcDbEntity
  8
HIDDEN
  6
HIDDEN
 48
0.05
100
AcDbLine
 10
702.7152157691978
 20
542.9052906119282
 30
0.0
 11
702.0820463379584
 21
542.9052906119282
 31
0.0
  0
LINE
  5
1257
330
A
100
AcDbEntity
  8
HIDDEN
  6
HIDDEN
 48
0.05
100
AcDbLine
 10
702.9264266906046
 20
542.9052906119282
 30
0.0
 11
702.7152157691978
 21
542.9052906119282
 31
0.0
  0
LINE
  5
1258
330
A
100
AcDbEntity
  8
HIDDEN
  6
HIDDEN
 48
0.05
100
AcDbLine
 10
683.2734064968047
 20
542.9052906119282
 30
0.0
 11
683.0717919232068
 21
542.9052906119282
 31
0.0
  0
LINE
  5
1259
330
A
100
AcDbEntity
  8
HIDDEN
  6
HIDDEN
 48
0.05
100
AcDbLine
 10
683.9099692018451
 20
542.9052906119282
 30
0.0
 11
683.2734064968047
 21
542.9052906119282
 31
0.0
  0
LINE
  5
125A
330
A
100
AcDbEntity
  8
HIDDEN
  6
HIDDEN
 48
0.05
100
AcDbLine
 10
703.5691009672098
 20
542.9052906119282
 30
0.0
 11
702.9264266906046
 21
542.9052906119282
 31
0.0
  0
LINE
  5
125B
330
A
100
AcDbEntity
  8
HIDDEN
  6
HIDDEN
 48
0.05
100
AcDbLine
 10
703.7521812902507
 20
542.9052906119282
 30
0.0
 11
703.5691009672098
 21
542.9052906119282
 31
0.0
  0
LINE
  5
125C
330
A
100
AcDbEntity
  8
HIDDEN
  6
HIDDEN
 48
0.05
100
AcDbLine
 10
683.0717919232068
 20
542.9052906119282
 30
0.0
 11
682.4261413724837
 21
542.9052906119282
 31
0.0
  0
LINE
  5
125D
330
A
100
AcDbEntity
  8
HIDDEN
  6
HIDDEN
 48
0.05
100
AcDbLine
 10
682.4261413724837
 20
542.9052906119282
 30
0.0
 11
682.2527812631549
 21
542.9052906119282
 31
0.0
  0
LINE
  5
125E
330
A
100
AcDbEntity
  8
HIDDEN
  6
HIDDEN
 48
0.05
100
AcDbLine
 10
704.4031366543588
 20
542.9052906119282
 30
0.0
 11
703.7521812902507
 21
542.9052906119282
 31
0.0
  0
LINE
  5
125F
330
A
100
AcDbEntity
  8
HIDDEN
  6
HIDDEN
 48
0.05
100
AcDbLine
 10
704.5577380643897
 20
542.9052906119282
 30
0.0
 11
704.4031366543588
 21
542.9052906119282
 31
0.0
  0
LINE
  5
1260
330
A
100
AcDbEntity
  8
HIDDEN
  6
HIDDEN
 48
0.05
100
AcDbLine
 10
682.2527812631549
 20
542.9052906119282
 30
0.0
 11
681.5992740751915
 21
542.9052906119282
 31
0.0
  0
LINE
  5
1261
330
A
100
AcDbEntity
  8
HIDDEN
  6
HIDDEN
 48
0.05
100
AcDbLine
 10
681.5992740751915
 20
542.9052906119282
 30
0.0
 11
681.4544999809675
 21
542.9052906119282
 31
0.0
  0
LINE
  5
1262
330
A
100
AcDbEntity
  8
HIDDEN
  6
HIDDEN
 48
0.05
100
AcDbLine
 10
705.2157356241457
 20
542.9052906119282
 30
0.0
 11
704.5577380643897
 21
542.9052906119282
 31
0.0
  0
LINE
  5
1263
330
A
100
AcDbEntity
  8
HIDDEN
  6
HIDDEN
 48
0.05
100
AcDbLine
 10
705.3415633575739
 20
542.9052906119282
 30
0.0
 11
705.2157356241457
 21
542.9052906119282
 31
0.0
  0
LINE
  5
1264
330
A
100
AcDbEntity
  8
HIDDEN
  6
HIDDEN
 48
0.05
100
AcDbLine
 10
681.4544999809675
 20
542.9052906119282
 30
0.0
 11
680.7943766774358
 21
542.9052906119282
 31
0.0
  0
LINE
  5
1265
330
A
100
AcDbEntity
  8
HIDDEN
  6
HIDDEN
 48
0.05
100
AcDbLine
 10
680.7943766774358
 20
542.9052906119282
 30
0.0
 11
680.6784661324439
 21
542.9052906119282
 31
0.0
  0
LINE
  5
1266
330
A
100
AcDbEntity
  8
HIDDEN
  6
HIDDEN
 48
0.05
100
AcDbLine
 10
706.0053509497754
 20
542.9052906119282
 30
0.0
 11
705.3415633575739
 21
542.9052906119282
 31
0.0
  0
LINE
  5
1267
330
A
100
AcDbEntity
  8
HIDDEN
  6
HIDDEN
 48
0.05
100
AcDbLine
 10
706.1021656566979
 20
542.9052906119282
 30
0.0
 11
706.0053509497754
 21
542.9052906119282
 31
0.0
  0
LINE
  5
1268
330
A
100
AcDbEntity
  8
HIDDEN
  6
HIDDEN
 48
0.05
100
AcDbLine
 10
680.6784661324439
 20
542.9052906119282
 30
0.0
 11
680.0129839988165
 21
542.9052906119282
 31
0.0
  0
LINE
  5
1269
330
A
100
AcDbEntity
  8
HIDDEN
  6
HIDDEN
 48
0.05
100
AcDbLine
 10
680.0129839988165
 20
542.9052906119282
 30
0.0
 11
679.9261549325408
 21
542.9052906119282
 31
0.0
  0
LINE
  5
126A
330
A
100
AcDbEntity
  8
HIDDEN
  6
HIDDEN
 48
0.05
100
AcDbLine
 10
706.770479476613
 20
542.9052906119282
 30
0.0
 11
706.1021656566979
 21
542.9052906119282
 31
0.0
  0
LINE
  5
126B
330
A
100
AcDbEntity
  8
HIDDEN
  6
HIDDEN
 48
0.05
100
AcDbLine
 10
706.8380972208195
 20
542.9052906119282
 30
0.0
 11
706.770479476613
 21
542.9052906119282
 31
0.0
  0
LINE
  5
126C
330
A
100
AcDbEntity
  8
HIDDEN
  6
HIDDEN
 48
0.05
100
AcDbLine
 10
679.9261549325408
 20
542.9052906119282
 30
0.0
 11
679.2565842928109
 21
542.9052906119282
 31
0.0
  0
LINE
  5
126D
330
A
100
AcDbEntity
  8
HIDDEN
  6
HIDDEN
 48
0.05
100
AcDbLine
 10
679.2565842928109
 20
542.9052906119282
 30
0.0
 11
679.199002480668
 21
542.9052906119282
 31
0.0
  0
LINE
  5
126E
330
A
100
AcDbEntity
  8
HIDDEN
  6
HIDDEN
 48
0.05
100
AcDbLine
 10
707.5096646161498
 20
542.9052906119282
 30
0.0
 11
706.8380972208195
 21
542.9052906119282
 31
0.0
  0
LINE
  5
126F
330
A
100
AcDbEntity
  8
HIDDEN
  6
HIDDEN
 48
0.05
100
AcDbLine
 10
707.5479559438047
 20
542.9052906119282
 30
0.0
 11
707.5096646161498
 21
542.9052906119282
 31
0.0
  0
LINE
  5
1270
330
A
100
AcDbEntity
  8
HIDDEN
  6
HIDDEN
 48
0.05
100
AcDbLine
 10
679.199002480668
 20
542.9052906119282
 30
0.0
 11
678.5266136588268
 21
542.9052906119282
 31
0.0
  0
LINE
  5
1271
330
A
100
AcDbEntity
  8
HIDDEN
  6
HIDDEN
 48
0.05
100
AcDbLine
 10
678.5266136588268
 20
542.9052906119282
 30
0.0
 11
678.4983889968805
 21
542.9052906119282
 31
0.0
  0
LINE
  5
1272
330
A
100
AcDbEntity
  8
HIDDEN
  6
HIDDEN
 48
0.05
100
AcDbLine
 10
708.221499605638
 20
542.9052906119282
 30
0.0
 11
707.5479559438047
 21
542.9052906119282
 31
0.0
  0
LINE
  5
1273
330
A
100
AcDbEntity
  8
HIDDEN
  6
HIDDEN
 48
0.05
100
AcDbLine
 10
708.230392804903
 20
542.9052906119282
 30
0.0
 11
708.221499605638
 21
542.9052906119282
 31
0.0
  0
LINE
  5
1274
330
A
100
AcDbEntity
  8
HIDDEN
  6
HIDDEN
 48
0.05
100
AcDbLine
 10
678.4983889968805
 20
542.9052906119282
 30
0.0
 11
677.824463492793
 21
542.9052906119282
 31
0.0
  0
LINE
  5
1275
330
A
100
AcDbEntity
  8
HIDDEN
  6
HIDDEN
 48
0.05
100
AcDbLine
 10
708.9046293707308
 20
542.9052906119282
 30
0.0
 11
708.230392804903
 21
542.9052906119282
 31
0.0
  0
LINE
  5
1276
330
A
100
AcDbEntity
  8
HIDDEN
  6
HIDDEN
 48
0.05
100
AcDbLine
 10
677.824463492793
 20
542.9052906119282
 30
0.0
 11
677.1514711739235
 21
542.9052906119282
 31
0.0
  0
LINE
  5
1277
330
A
100
AcDbEntity
  8
HIDDEN
  6
HIDDEN
 48
0.05
100
AcDbLine
 10
709.5577528537931
 20
542.9052906119282
 30
0.0
 11
708.9046293707308
 21
542.9052906119282
 31
0.0
  0
LINE
  5
1278
330
A
100
AcDbEntity
  8
HIDDEN
  6
HIDDEN
 48
0.05
100
AcDbLine
 10
677.1514711739235
 20
542.9052906119282
 30
0.0
 11
676.5089163394389
 21
542.9052906119282
 31
0.0
  0
LINE
  5
1279
330
A
100
AcDbEntity
  8
HIDDEN
  6
HIDDEN
 48
0.05
100
AcDbLine
 10
710.1796276705088
 20
542.9052906119282
 30
0.0
 11
709.5577528537931
 21
542.9052906119282
 31
0.0
  0
LINE
  5
127A
330
A
100
AcDbEntity
  8
HIDDEN
  6
HIDDEN
 48
0.05
100
AcDbLine
 10
676.5089163394389
 20
542.9052906119282
 30
0.0
 11
675.8980246098461
 21
542.9052906119282
 31
0.0
  0
LINE
  5
127B
330
A
100
AcDbEntity
  8
HIDDEN
  6
HIDDEN
 48
0.05
100
AcDbLine
 10
710.7690701098861
 20
542.9052906119282
 30
0.0
 11
710.1796276705088
 21
542.9052906119282
 31
0.0
  0
LINE
  5
127C
330
A
100
AcDbEntity
  8
HIDDEN
  6
HIDDEN
 48
0.05
100
AcDbLine
 10
675.8980246098461
 20
542.9052906119282
 30
0.0
 11
675.3199564130716
 21
542.9052906119282
 31
0.0
  0
LINE
  5
127D
330
A
100
AcDbEntity
  8
HIDDEN
  6
HIDDEN
 48
0.05
100
AcDbLine
 10
711.3249579282217
 20
542.9052906119282
 30
0.0
 11
710.7690701098861
 21
542.9052906119282
 31
0.0
  0
LINE
  5
127E
330
A
100
AcDbEntity
  8
HIDDEN
  6
HIDDEN
 48
0.05
100
AcDbLine
 10
675.3199564130716
 20
542.9052906119282
 30
0.0
 11
674.775812572402
 21
542.9052906119282
 31
0.0
  0
LINE
  5
127F
330
A
100
AcDbEntity
  8
HIDDEN
  6
HIDDEN
 48
0.05
100
AcDbLine
 10
711.8462322117509
 20
542.9052906119282
 30
0.0
 11
711.3249579282217
 21
542.9052906119282
 31
0.0
  0
LINE
  5
1280
330
A
100
AcDbEntity
  8
HIDDEN
  6
HIDDEN
 48
0.05
100
AcDbLine
 10
674.775812572402
 20
542.9052906119282
 30
0.0
 11
674.2666287185368
 21
542.9052906119282
 31
0.0
  0
LINE
  5
1281
330
A
100
AcDbEntity
  8
HIDDEN
  6
HIDDEN
 48
0.05
100
AcDbLine
 10
712.3319011019287
 20
542.9052906119282
 30
0.0
 11
711.8462322117509
 21
542.9052906119282
 31
0.0
  0
LINE
  5
1282
330
A
100
AcDbEntity
  8
HIDDEN
  6
HIDDEN
 48
0.05
100
AcDbLine
 10
674.2666287185368
 20
542.9052906119282
 30
0.0
 11
673.7933734269557
 21
542.9052906119282
 31
0.0
  0
LINE
  5
1283
330
A
100
AcDbEntity
  8
HIDDEN
  6
HIDDEN
 48
0.05
100
AcDbLine
 10
712.7810407267627
 20
542.9052906119282
 30
0.0
 11
712.3319011019287
 21
542.9052906119282
 31
0.0
  0
LINE
  5
1284
330
A
100
AcDbEntity
  8
HIDDEN
  6
HIDDEN
 48
0.05
100
AcDbLine
 10
673.7933734269557
 20
542.9052906119282
 30
0.0
 11
673.356951943201
 21
542.9052906119282
 31
0.0
  0
LINE
  5
1285
330
A
100
AcDbEntity
  8
HIDDEN
  6
HIDDEN
 48
0.05
100
AcDbLine
 10
713.1927961321287
 20
542.9052906119282
 30
0.0
 11
712.7810407267627
 21
542.9052906119282
 31
0.0
  0
LINE
  5
1286
330
A
100
AcDbEntity
  8
HIDDEN
  6
HIDDEN
 48
0.05
100
AcDbLine
 10
673.356951943201
 20
542.9052906119282
 30
0.0
 11
672.958189419073
 21
542.9052906119282
 31
0.0
  0
LINE
  5
1287
330
A
100
AcDbEntity
  8
HIDDEN
  6
HIDDEN
 48
0.05
100
AcDbLine
 10
713.566382213098
 20
542.9052906119282
 30
0.0
 11
713.1927961321287
 21
542.9052906119282
 31
0.0
  0
LINE
  5
1288
330
A
100
AcDbEntity
  8
HIDDEN
  6
HIDDEN
 48
0.05
100
AcDbLine
 10
672.958189419073
 20
542.9052906119282
 30
0.0
 11
672.5978476764378
 21
542.9052906119282
 31
0.0
  0
LINE
  5
1289
330
A
100
AcDbEntity
  8
HIDDEN
  6
HIDDEN
 48
0.05
100
AcDbLine
 10
713.9010893018656
 20
542.9052906119282
 30
0.0
 11
713.566382213098
 21
542.9052906119282
 31
0.0
  0
LINE
  5
128A
330
A
100
AcDbEntity
  8
HIDDEN
  6
HIDDEN
 48
0.05
100
AcDbLine
 10
672.5978476764378
 20
542.9052906119282
 30
0.0
 11
672.2766121687107
 21
542.9052906119282
 31
0.0
  0
LINE
  5
128B
330
A
100
AcDbEntity
  8
HIDDEN
  6
HIDDEN
 48
0.05
100
AcDbLine
 10
714.1962794424705
 20
542.9052906119282
 30
0.0
 11
713.9010893018656
 21
542.9052906119282
 31
0.0
  0
LINE
  5
128C
330
A
100
AcDbEntity
  8
HIDDEN
  6
HIDDEN
 48
0.05
100
AcDbLine
 10
672.2766121687107
 20
542.9052906119282
 30
0.0
 11
671.9950957061467
 21
542.9052906119282
 31
0.0
  0
LINE
  5
128D
330
A
100
AcDbEntity
  8
HIDDEN
  6
HIDDEN
 48
0.05
100
AcDbLine
 10
714.4513910473995
 20
542.9052906119282
 30
0.0
 11
714.1962794424705
 21
542.9052906119282
 31
0.0
  0
LINE
  5
128E
330
A
100
AcDbEntity
  8
HIDDEN
  6
HIDDEN
 48
0.05
100
AcDbLine
 10
671.9950957061467
 20
542.9052906119282
 30
0.0
 11
671.7538310052566
 21
542.9052906119282
 31
0.0
  0
LINE
  5
128F
330
A
100
AcDbEntity
  8
HIDDEN
  6
HIDDEN
 48
0.05
100
AcDbLine
 10
714.6659379662685
 20
542.9052906119282
 30
0.0
 11
714.4513910473995
 21
542.9052906119282
 31
0.0
  0
LINE
  5
1290
330
A
100
AcDbEntity
  8
HIDDEN
  6
HIDDEN
 48
0.05
100
AcDbLine
 10
671.7538310052566
 20
546.9052912675788
 30
0.0
 11
671.5532800020399
 21
546.9052912675788
 31
0.0
  0
LINE
  5
1291
330
A
100
AcDbEntity
  8
HIDDEN
  6
HIDDEN
 48
0.05
100
AcDbLine
 10
671.7538310052566
 20
542.9052906119282
 30
0.0
 11
671.5532800020399
 21
542.9052906119282
 31
0.0
  0
LINE
  5
1292
330
A
100
AcDbEntity
  8
HIDDEN
  6
HIDDEN
 48
0.05
100
AcDbLine
 10
714.8395122797908
 20
542.9052906119282
 30
0.0
 11
714.6659379662685
 21
542.9052906119282
 31
0.0
  0
LINE
  5
1293
330
A
100
AcDbEntity
  8
HIDDEN
  6
HIDDEN
 48
0.05
100
AcDbLine
 10
671.5532800020399
 20
546.9052912675788
 30
0.0
 11
671.3938245387487
 21
546.9052912675788
 31
0.0
  0
LINE
  5
1294
330
A
100
AcDbEntity
  8
HIDDEN
  6
HIDDEN
 48
0.05
100
AcDbLine
 10
671.5532800020399
 20
542.9052906119282
 30
0.0
 11
671.3938245387487
 21
542.9052906119282
 31
0.0
  0
LINE
  5
1295
330
A
100
AcDbEntity
  8
HIDDEN
  6
HIDDEN
 48
0.05
100
AcDbLine
 10
714.9717833684497
 20
542.9052906119282
 30
0.0
 11
714.8395122797908
 21
542.9052906119282
 31
0.0
  0
LINE
  5
1296
330
A
100
AcDbEntity
  8
HIDDEN
  6
HIDDEN
 48
0.05
100
AcDbLine
 10
671.3938245387487
 20
546.9052912675788
 30
0.0
 11
671.2757663639011
 21
546.9052912675788
 31
0.0
  0
LINE
  5
1297
330
A
100
AcDbEntity
  8
HIDDEN
  6
HIDDEN
 48
0.05
100
AcDbLine
 10
671.3938245387487
 20
542.9052906119282
 30
0.0
 11
671.2757663639011
 21
542.9052906119282
 31
0.0
  0
LINE
  5
1298
330
A
100
AcDbEntity
  8
HIDDEN
  6
HIDDEN
 48
0.05
100
AcDbLine
 10
715.0625007064757
 20
542.9052906119282
 30
0.0
 11
714.9717833684497
 21
542.9052906119282
 31
0.0
  0
LINE
  5
1299
330
A
100
AcDbEntity
  8
HIDDEN
  6
HIDDEN
 48
0.05
100
AcDbLine
 10
671.2757663639011
 20
546.9052912675788
 30
0.0
 11
671.1993308575568
 21
546.9052912675788
 31
0.0
  0
LINE
  5
129A
330
A
100
AcDbEntity
  8
HIDDEN
  6
HIDDEN
 48
0.05
100
AcDbLine
 10
671.2757663639011
 20
542.9052906119282
 30
0.0
 11
671.1993308575568
 21
542.9052906119282
 31
0.0
  0
LINE
  5
129B
330
A
100
AcDbEntity
  8
HIDDEN
  6
HIDDEN
 48
0.05
100
AcDbLine
 10
715.1114882739009
 20
542.9052906119282
 30
0.0
 11
715.0625007064757
 21
542.9052906119282
 31
0.0
  0
LINE
  5
129C
330
A
100
AcDbEntity
  8
HIDDEN
  6
HIDDEN
 48
0.05
100
AcDbLine
 10
671.1646651686849
 20
546.9052912675788
 30
0.0
 11
671.1646651686849
 21
542.9052906119282
 31
0.0
  0
LINE
  5
129D
330
A
100
AcDbEntity
  8
HIDDEN
  6
HIDDEN
 48
0.05
100
AcDbLine
 10
671.1993308575568
 20
546.9052912675788
 30
0.0
 11
671.1646651686849
 21
546.9052912675788
 31
0.0
  0
LINE
  5
129E
330
A
100
AcDbEntity
  8
HIDDEN
  6
HIDDEN
 48
0.05
100
AcDbLine
 10
671.1993308575568
 20
542.9052906119282
 30
0.0
 11
671.1646651686849
 21
542.9052906119282
 31
0.0
  0
LINE
  5
129F
330
A
100
AcDbEntity
  8
HIDDEN
  6
HIDDEN
 48
0.05
100
AcDbLine
 10
715.1186575950799
 20
546.9052912675788
 30
0.0
 11
715.1186575950799
 21
542.9052906119282
 31
0.0
  0
LINE
  5
12A0
330
A
100
AcDbEntity
  8
HIDDEN
  6
HIDDEN
 48
0.05
100
AcDbLine
 10
715.1186575950799
 20
546.9052912675788
 30
0.0
 11
671.7538310052566
 21
546.9052912675788
 31
0.0
  0
LINE
  5
12A1
330
A
100
AcDbEntity
  8
HIDDEN
  6
HIDDEN
 48
0.05
100
AcDbLine
 10
715.1186575950799
 20
542.9052906119282
 30
0.0
 11
715.1114882739009
 21
542.9052906119282
 31
0.0
  0
LINE
  5
12A2
330
A
100
AcDbEntity
  8
HIDDEN
  6
HIDDEN
 48
0.05
100
AcDbLine
 10
733.9454794140281
 20
510.9292174585612
 30
0.0
 11
733.9454794140281
 21
468.1292175211461
 31
0.0
  0
LINE
  5
12A3
330
A
100
AcDbEntity
  8
HIDDEN
  6
HIDDEN
 48
0.05
100
AcDbLine
 10
743.1454824121417
 20
510.0884008117469
 30
0.0
 11
743.1454824121417
 21
468.970035099283
 31
0.0
  0
LINE
  5
12A4
330
A
100
AcDbEntity
  8
HIDDEN
  6
HIDDEN
 48
0.05
100
AcDbLine
 10
740.6454810710368
 20
490.210038506284
 30
0.0
 11
740.6454810710368
 21
489.7458147153698
 31
0.0
  0
LINE
  5
12A5
330
A
100
AcDbEntity
  8
HIDDEN
  6
HIDDEN
 48
0.05
100
AcDbLine
 10
736.6454804153857
 20
490.210038506284
 30
0.0
 11
736.6454804153857
 21
489.7458147153698
 31
0.0
  0
LINE
  5
12A6
330
A
100
AcDbEntity
  8
HIDDEN
  6
HIDDEN
 48
0.05
100
AcDbLine
 10
740.6454810710368
 20
489.2720444024048
 30
0.0
 11
740.6454810710368
 21
488.7869333744488
 31
0.0
  0
LINE
  5
12A7
330
A
100
AcDbEntity
  8
HIDDEN
  6
HIDDEN
 48
0.05
100
AcDbLine
 10
736.6454804153857
 20
489.2720444024048
 30
0.0
 11
736.6454804153857
 21
488.7869333744488
 31
0.0
  0
LINE
  5
12A8
330
A
100
AcDbEntity
  8
HIDDEN
  6
HIDDEN
 48
0.05
100
AcDbLine
 10
740.6454810710368
 20
489.7458147153698
 30
0.0
 11
740.6454810710368
 21
489.2720444024048
 31
0.0
  0
LINE
  5
12A9
330
A
100
AcDbEntity
  8
HIDDEN
  6
HIDDEN
 48
0.05
100
AcDbLine
 10
736.6454804153857
 20
489.7458147153698
 30
0.0
 11
736.6454804153857
 21
489.2720444024048
 31
0.0
  0
LINE
  5
12AA
330
A
100
AcDbEntity
  8
HIDDEN
  6
HIDDEN
 48
0.05
100
AcDbLine
 10
740.6454810710368
 20
491.1467371404619
 30
0.0
 11
740.6454810710368
 21
490.7042839460519
 31
0.0
  0
LINE
  5
12AB
330
A
100
AcDbEntity
  8
HIDDEN
  6
HIDDEN
 48
0.05
100
AcDbLine
 10
736.6454804153857
 20
491.1467371404619
 30
0.0
 11
736.6454804153857
 21
490.7042839460519
 31
0.0
  0
LINE
  5
12AC
330
A
100
AcDbEntity
  8
HIDDEN
  6
HIDDEN
 48
0.05
100
AcDbLine
 10
740.6454810710368
 20
488.7869333744488
 30
0.0
 11
740.6454810710368
 21
488.3345392428778
 31
0.0
  0
LINE
  5
12AD
330
A
100
AcDbEntity
  8
HIDDEN
  6
HIDDEN
 48
0.05
100
AcDbLine
 10
736.6454804153857
 20
488.7869333744488
 30
0.0
 11
736.6454804153857
 21
488.3345392428778
 31
0.0
  0
LINE
  5
12AE
330
A
100
AcDbEntity
  8
HIDDEN
  6
HIDDEN
 48
0.05
100
AcDbLine
 10
740.6454810710368
 20
490.7042839460519
 30
0.0
 11
740.6454810710368
 21
490.210038506284
 31
0.0
  0
LINE
  5
12AF
330
A
100
AcDbEntity
  8
HIDDEN
  6
HIDDEN
 48
0.05
100
AcDbLine
 10
736.6454804153857
 20
490.7042839460519
 30
0.0
 11
736.6454804153857
 21
490.210038506284
 31
0.0
  0
LINE
  5
12B0
330
A
100
AcDbEntity
  8
HIDDEN
  6
HIDDEN
 48
0.05
100
AcDbLine
 10
740.6454810710368
 20
488.3345392428778
 30
0.0
 11
740.6454810710368
 21
487.8294650827052
 31
0.0
  0
LINE
  5
12B1
330
A
100
AcDbEntity
  8
HIDDEN
  6
HIDDEN
 48
0.05
100
AcDbLine
 10
736.6454804153857
 20
488.3345392428778
 30
0.0
 11
736.6454804153857
 21
487.8294650827052
 31
0.0
  0
LINE
  5
12B2
330
A
100
AcDbEntity
  8
HIDDEN
  6
HIDDEN
 48
0.05
100
AcDbLine
 10
740.6454810710368
 20
487.8294650827052
 30
0.0
 11
740.6454810710368
 21
487.3993083730788
 31
0.0
  0
LINE
  5
12B3
330
A
100
AcDbEntity
  8
HIDDEN
  6
HIDDEN
 48
0.05
100
AcDbLine
 10
736.6454804153857
 20
487.8294650827052
 30
0.0
 11
736.6454804153857
 21
487.3993083730788
 31
0.0
  0
LINE
  5
12B4
330
A
100
AcDbEntity
  8
HIDDEN
  6
HIDDEN
 48
0.05
100
AcDbLine
 10
740.6454810710368
 20
492.0803568222068
 30
0.0
 11
740.6454810710368
 21
491.6605161399089
 31
0.0
  0
LINE
  5
12B5
330
A
100
AcDbEntity
  8
HIDDEN
  6
HIDDEN
 48
0.05
100
AcDbLine
 10
736.6454804153857
 20
492.0803568222068
 30
0.0
 11
736.6454804153857
 21
491.6605161399089
 31
0.0
  0
LINE
  5
12B6
330
A
100
AcDbEntity
  8
HIDDEN
  6
HIDDEN
 48
0.05
100
AcDbLine
 10
740.6454810710368
 20
491.6605161399089
 30
0.0
 11
740.6454810710368
 21
491.1467371404619
 31
0.0
  0
LINE
  5
12B7
330
A
100
AcDbEntity
  8
HIDDEN
  6
HIDDEN
 48
0.05
100
AcDbLine
 10
736.6454804153857
 20
491.6605161399089
 30
0.0
 11
736.6454804153857
 21
491.1467371404619
 31
0.0
  0
LINE
  5
12B8
330
A
100
AcDbEntity
  8
HIDDEN
  6
HIDDEN
 48
0.05
100
AcDbLine
 10
740.6454810710368
 20
487.3993083730788
 30
0.0
 11
740.6454810710368
 21
486.875232438415
 31
0.0
  0
LINE
  5
12B9
330
A
100
AcDbEntity
  8
HIDDEN
  6
HIDDEN
 48
0.05
100
AcDbLine
 10
736.6454804153857
 20
487.3993083730788
 30
0.0
 11
736.6454804153857
 21
486.875232438415
 31
0.0
  0
LINE
  5
12BA
330
A
100
AcDbEntity
  8
HIDDEN
  6
HIDDEN
 48
0.05
100
AcDbLine
 10
740.6454810710368
 20
486.875232438415
 30
0.0
 11
740.6454810710368
 21
486.4681320161071
 31
0.0
  0
LINE
  5
12BB
330
A
100
AcDbEntity
  8
HIDDEN
  6
HIDDEN
 48
0.05
100
AcDbLine
 10
736.6454804153857
 20
486.875232438415
 30
0.0
 11
736.6454804153857
 21
486.4681320161071
 31
0.0
  0
LINE
  5
12BC
330
A
100
AcDbEntity
  8
HIDDEN
  6
HIDDEN
 48
0.05
100
AcDbLine
 10
740.6454810710368
 20
493.0091201223881
 30
0.0
 11
740.6454810710368
 21
492.6126914926322
 31
0.0
  0
LINE
  5
12BD
330
A
100
AcDbEntity
  8
HIDDEN
  6
HIDDEN
 48
0.05
100
AcDbLine
 10
736.6454804153857
 20
493.0091201223881
 30
0.0
 11
736.6454804153857
 21
492.6126914926322
 31
0.0
  0
LINE
  5
12BE
330
A
100
AcDbEntity
  8
HIDDEN
  6
HIDDEN
 48
0.05
100
AcDbLine
 10
740.6454810710368
 20
492.6126914926322
 30
0.0
 11
740.6454810710368
 21
492.0803568222068
 31
0.0
  0
LINE
  5
12BF
330
A
100
AcDbEntity
  8
HIDDEN
  6
HIDDEN
 48
0.05
100
AcDbLine
 10
736.6454804153857
 20
492.6126914926322
 30
0.0
 11
736.6454804153857
 21
492.0803568222068
 31
0.0
  0
LINE
  5
12C0
330
A
100
AcDbEntity
  8
HIDDEN
  6
HIDDEN
 48
0.05
100
AcDbLine
 10
740.6454810710368
 20
486.4681320161071
 30
0.0
 11
740.6454810710368
 21
485.9260517534308
 31
0.0
  0
LINE
  5
12C1
330
A
100
AcDbEntity
  8
HIDDEN
  6
HIDDEN
 48
0.05
100
AcDbLine
 10
736.6454804153857
 20
486.4681320161071
 30
0.0
 11
736.6454804153857
 21
485.9260517534308
 31
0.0
  0
LINE
  5
12C2
330
A
100
AcDbEntity
  8
HIDDEN
  6
HIDDEN
 48
0.05
100
AcDbLine
 10
740.6454810710368
 20
485.9260517534308
 30
0.0
 11
740.6454810710368
 21
485.5427825952388
 31
0.0
  0
LINE
  5
12C3
330
A
100
AcDbEntity
  8
HIDDEN
  6
HIDDEN
 48
0.05
100
AcDbLine
 10
736.6454804153857
 20
485.9260517534308
 30
0.0
 11
736.6454804153857
 21
485.5427825952388
 31
0.0
  0
LINE
  5
12C4
330
A
100
AcDbEntity
  8
HIDDEN
  6
HIDDEN
 48
0.05
100
AcDbLine
 10
743.9454810531558
 20
506.0292183317688
 30
0.0
 11
743.9454810531558
 21
473.0292175792601
 31
0.0
  0
LINE
  5
12C5
330
A
100
AcDbEntity
  8
HIDDEN
  6
HIDDEN
 48
0.05
100
AcDbLine
 10
740.6454810710368
 20
493.9312589250949
 30
0.0
 11
740.6454810710368
 21
493.558996253505
 31
0.0
  0
LINE
  5
12C6
330
A
100
AcDbEntity
  8
HIDDEN
  6
HIDDEN
 48
0.05
100
AcDbLine
 10
736.6454804153857
 20
493.9312589250949
 30
0.0
 11
736.6454804153857
 21
493.558996253505
 31
0.0
  0
LINE
  5
12C7
330
A
100
AcDbEntity
  8
HIDDEN
  6
HIDDEN
 48
0.05
100
AcDbLine
 10
740.6454810710368
 20
493.558996253505
 30
0.0
 11
740.6454810710368
 21
493.0091201223881
 31
0.0
  0
LINE
  5
12C8
330
A
100
AcDbEntity
  8
HIDDEN
  6
HIDDEN
 48
0.05
100
AcDbLine
 10
736.6454804153857
 20
493.558996253505
 30
0.0
 11
736.6454804153857
 21
493.0091201223881
 31
0.0
  0
LINE
  5
12C9
330
A
100
AcDbEntity
  8
HIDDEN
  6
HIDDEN
 48
0.05
100
AcDbLine
 10
740.6454810710368
 20
485.5427825952388
 30
0.0
 11
740.6454810710368
 21
484.983729909964
 31
0.0
  0
LINE
  5
12CA
330
A
100
AcDbEntity
  8
HIDDEN
  6
HIDDEN
 48
0.05
100
AcDbLine
 10
736.6454804153857
 20
485.5427825952388
 30
0.0
 11
736.6454804153857
 21
484.983729909964
 31
0.0
  0
LINE
  5
12CB
330
A
100
AcDbEntity
  8
HIDDEN
  6
HIDDEN
 48
0.05
100
AcDbLine
 10
740.6454810710368
 20
484.983729909964
 30
0.0
 11
740.6454810710368
 21
484.625021474294
 31
0.0
  0
LINE
  5
12CC
330
A
100
AcDbEntity
  8
HIDDEN
  6
HIDDEN
 48
0.05
100
AcDbLine
 10
736.6454804153857
 20
484.983729909964
 30
0.0
 11
736.6454804153857
 21
484.625021474294
 31
0.0
  0
LINE
  5
12CD
330
A
100
AcDbEntity
  8
HIDDEN
  6
HIDDEN
 48
0.05
100
AcDbLine
 10
740.6454810710368
 20
494.8450186185978
 30
0.0
 11
740.6454810710368
 21
494.4976315729768
 31
0.0
  0
LINE
  5
12CE
330
A
100
AcDbEntity
  8
HIDDEN
  6
HIDDEN
 48
0.05
100
AcDbLine
 10
736.6454804153857
 20
494.8450186185978
 30
0.0
 11
736.6454804153857
 21
494.4976315729768
 31
0.0
  0
LINE
  5
12CF
330
A
100
AcDbEntity
  8
HIDDEN
  6
HIDDEN
 48
0.05
100
AcDbLine
 10
740.6454810710368
 20
494.4976315729768
 30
0.0
 11
740.6454810710368
 21
493.9312589250949
 31
0.0
  0
LINE
  5
12D0
330
A
100
AcDbEntity
  8
HIDDEN
  6
HIDDEN
 48
0.05
100
AcDbLine
 10
736.6454804153857
 20
494.4976315729768
 30
0.0
 11
736.6454804153857
 21
493.9312589250949
 31
0.0
  0
LINE
  5
12D1
330
A
100
AcDbEntity
  8
HIDDEN
  6
HIDDEN
 48
0.05
100
AcDbLine
 10
740.6454810710368
 20
484.625021474294
 30
0.0
 11
740.6454810710368
 21
484.0500605625311
 31
0.0
  0
LINE
  5
12D2
330
A
100
AcDbEntity
  8
HIDDEN
  6
HIDDEN
 48
0.05
100
AcDbLine
 10
736.6454804153857
 20
484.625021474294
 30
0.0
 11
736.6454804153857
 21
484.0500605625311
 31
0.0
  0
LINE
  5
12D3
330
A
100
AcDbEntity
  8
HIDDEN
  6
HIDDEN
 48
0.05
100
AcDbLine
 10
740.6454810710368
 20
484.0500605625311
 30
0.0
 11
740.6454810710368
 21
483.7165958144219
 31
0.0
  0
LINE
  5
12D4
330
A
100
AcDbEntity
  8
HIDDEN
  6
HIDDEN
 48
0.05
100
AcDbLine
 10
736.6454804153857
 20
484.0500605625311
 30
0.0
 11
736.6454804153857
 21
483.7165958144219
 31
0.0
  0
LINE
  5
12D5
330
A
100
AcDbEntity
  8
HIDDEN
  6
HIDDEN
 48
0.05
100
AcDbLine
 10
740.6454810710368
 20
495.7486594923289
 30
0.0
 11
740.6454810710368
 21
495.42680838038
 31
0.0
  0
LINE
  5
12D6
330
A
100
AcDbEntity
  8
HIDDEN
  6
HIDDEN
 48
0.05
100
AcDbLine
 10
736.6454804153857
 20
495.7486594923289
 30
0.0
 11
736.6454804153857
 21
495.42680838038
 31
0.0
  0
LINE
  5
12D7
330
A
100
AcDbEntity
  8
HIDDEN
  6
HIDDEN
 48
0.05
100
AcDbLine
 10
740.6454810710368
 20
495.42680838038
 30
0.0
 11
740.6454810710368
 21
494.8450186185978
 31
0.0
  0
LINE
  5
12D8
330
A
100
AcDbEntity
  8
HIDDEN
  6
HIDDEN
 48
0.05
100
AcDbLine
 10
736.6454804153857
 20
495.42680838038
 30
0.0
 11
736.6454804153857
 21
494.8450186185978
 31
0.0
  0
LINE
  5
12D9
330
A
100
AcDbEntity
  8
HIDDEN
  6
HIDDEN
 48
0.05
100
AcDbLine
 10
740.6454810710368
 20
483.7165958144219
 30
0.0
 11
740.6454810710368
 21
483.1268211257161
 31
0.0
  0
LINE
  5
12DA
330
A
100
AcDbEntity
  8
HIDDEN
  6
HIDDEN
 48
0.05
100
AcDbLine
 10
736.6454804153857
 20
483.7165958144219
 30
0.0
 11
736.6454804153857
 21
483.1268211257161
 31
0.0
  0
LINE
  5
12DB
330
A
100
AcDbEntity
  8
HIDDEN
  6
HIDDEN
 48
0.05
100
AcDbLine
 10
740.6454810710368
 20
483.1268211257161
 30
0.0
 11
740.6454810710368
 21
482.8192348488119
 31
0.0
  0
LINE
  5
12DC
330
A
100
AcDbEntity
  8
HIDDEN
  6
HIDDEN
 48
0.05
100
AcDbLine
 10
736.6454804153857
 20
483.1268211257161
 30
0.0
 11
736.6454804153857
 21
482.8192348488119
 31
0.0
  0
LINE
  5
12DD
330
A
100
AcDbEntity
  8
HIDDEN
  6
HIDDEN
 48
0.05
100
AcDbLine
 10
740.6454810710368
 20
496.640460462168
 30
0.0
 11
740.6454810710368
 21
496.3447590254691
 31
0.0
  0
LINE
  5
12DE
330
A
100
AcDbEntity
  8
HIDDEN
  6
HIDDEN
 48
0.05
100
AcDbLine
 10
736.6454804153857
 20
496.640460462168
 30
0.0
 11
736.6454804153857
 21
496.3447590254691
 31
0.0
  0
LINE
  5
12DF
330
A
100
AcDbEntity
  8
HIDDEN
  6
HIDDEN
 48
0.05
100
AcDbLine
 10
740.6454810710368
 20
496.3447590254691
 30
0.0
 11
740.6454810710368
 21
495.7486594923289
 31
0.0
  0
LINE
  5
12E0
330
A
100
AcDbEntity
  8
HIDDEN
  6
HIDDEN
 48
0.05
100
AcDbLine
 10
736.6454804153857
 20
496.3447590254691
 30
0.0
 11
736.6454804153857
 21
495.7486594923289
 31
0.0
  0
LINE
  5
12E1
330
A
100
AcDbEntity
  8
HIDDEN
  6
HIDDEN
 48
0.05
100
AcDbLine
 10
740.6454810710368
 20
482.8192348488119
 30
0.0
 11
740.6454810710368
 21
482.2157690197669
 31
0.0
  0
LINE
  5
12E2
330
A
100
AcDbEntity
  8
HIDDEN
  6
HIDDEN
 48
0.05
100
AcDbLine
 10
736.6454804153857
 20
482.8192348488119
 30
0.0
 11
736.6454804153857
 21
482.2157690197669
 31
0.0
  0
LINE
  5
12E3
330
A
100
AcDbEntity
  8
HIDDEN
  6
HIDDEN
 48
0.05
100
AcDbLine
 10
740.6454810710368
 20
482.2157690197669
 30
0.0
 11
740.6454810710368
 21
481.934646739483
 31
0.0
  0
LINE
  5
12E4
330
A
100
AcDbEntity
  8
HIDDEN
  6
HIDDEN
 48
0.05
100
AcDbLine
 10
736.6454804153857
 20
482.2157690197669
 30
0.0
 11
736.6454804153857
 21
481.934646739483
 31
0.0
  0
LINE
  5
12E5
330
A
100
AcDbEntity
  8
HIDDEN
  6
HIDDEN
 48
0.05
100
AcDbLine
 10
740.6454810710368
 20
497.5187255897072
 30
0.0
 11
740.6454810710368
 21
497.2497354157708
 31
0.0
  0
LINE
  5
12E6
330
A
100
AcDbEntity
  8
HIDDEN
  6
HIDDEN
 48
0.05
100
AcDbLine
 10
736.6454804153857
 20
497.5187255897072
 30
0.0
 11
736.6454804153857
 21
497.2497354157708
 31
0.0
  0
LINE
  5
12E7
330
A
100
AcDbEntity
  8
HIDDEN
  6
HIDDEN
 48
0.05
100
AcDbLine
 10
740.6454810710368
 20
497.2497354157708
 30
0.0
 11
740.6454810710368
 21
496.640460462168
 31
0.0
  0
LINE
  5
12E8
330
A
100
AcDbEntity
  8
HIDDEN
  6
HIDDEN
 48
0.05
100
AcDbLine
 10
736.6454804153857
 20
497.2497354157708
 30
0.0
 11
736.6454804153857
 21
496.640460462168
 31
0.0
  0
LINE
  5
12E9
330
A
100
AcDbEntity
  8
HIDDEN
  6
HIDDEN
 48
0.05
100
AcDbLine
 10
740.6454810710368
 20
481.934646739483
 30
0.0
 11
740.6454810710368
 21
481.318638556495
 31
0.0
  0
LINE
  5
12EA
330
A
100
AcDbEntity
  8
HIDDEN
  6
HIDDEN
 48
0.05
100
AcDbLine
 10
736.6454804153857
 20
481.934646739483
 30
0.0
 11
736.6454804153857
 21
481.318638556495
 31
0.0
  0
LINE
  5
12EB
330
A
100
AcDbEntity
  8
HIDDEN
  6
HIDDEN
 48
0.05
100
AcDbLine
 10
740.6454810710368
 20
481.318638556495
 30
0.0
 11
740.6454810710368
 21
481.0645153176479
 31
0.0
  0
LINE
  5
12EC
330
A
100
AcDbEntity
  8
HIDDEN
  6
HIDDEN
 48
0.05
100
AcDbLine
 10
736.6454804153857
 20
481.318638556495
 30
0.0
 11
736.6454804153857
 21
481.0645153176479
 31
0.0
  0
LINE
  5
12ED
330
A
100
AcDbEntity
  8
HIDDEN
  6
HIDDEN
 48
0.05
100
AcDbLine
 10
740.6454810710368
 20
498.3817822196029
 30
0.0
 11
740.6454810710368
 21
498.1400164671691
 31
0.0
  0
LINE
  5
12EE
330
A
100
AcDbEntity
  8
HIDDEN
  6
HIDDEN
 48
0.05
100
AcDbLine
 10
736.6454804153857
 20
498.3817822196029
 30
0.0
 11
736.6454804153857
 21
498.1400164671691
 31
0.0
  0
LINE
  5
12EF
330
A
100
AcDbEntity
  8
HIDDEN
  6
HIDDEN
 48
0.05
100
AcDbLine
 10
740.6454810710368
 20
498.1400164671691
 30
0.0
 11
740.6454810710368
 21
497.5187255897072
 31
0.0
  0
LINE
  5
12F0
330
A
100
AcDbEntity
  8
HIDDEN
  6
HIDDEN
 48
0.05
100
AcDbLine
 10
736.6454804153857
 20
498.1400164671691
 30
0.0
 11
736.6454804153857
 21
497.5187255897072
 31
0.0
  0
LINE
  5
12F1
330
A
100
AcDbEntity
  8
HIDDEN
  6
HIDDEN
 48
0.05
100
AcDbLine
 10
740.6454810710368
 20
481.0645153176479
 30
0.0
 11
740.6454810710368
 21
480.4371373158392
 31
0.0
  0
LINE
  5
12F2
330
A
100
AcDbEntity
  8
HIDDEN
  6
HIDDEN
 48
0.05
100
AcDbLine
 10
736.6454804153857
 20
481.0645153176479
 30
0.0
 11
736.6454804153857
 21
480.4371373158392
 31
0.0
  0
LINE
  5
12F3
330
A
100
AcDbEntity
  8
HIDDEN
  6
HIDDEN
 48
0.05
100
AcDbLine
 10
740.6454810710368
 20
480.4371373158392
 30
0.0
 11
740.6454810710368
 21
480.210496707678
 31
0.0
  0
LINE
  5
12F4
330
A
100
AcDbEntity
  8
HIDDEN
  6
HIDDEN
 48
0.05
100
AcDbLine
 10
736.6454804153857
 20
480.4371373158392
 30
0.0
 11
736.6454804153857
 21
480.210496707678
 31
0.0
  0
LINE
  5
12F5
330
A
100
AcDbEntity
  8
HIDDEN
  6
HIDDEN
 48
0.05
100
AcDbLine
 10
740.6454810710368
 20
499.2279865675118
 30
0.0
 11
740.6454810710368
 21
499.0139053099301
 31
0.0
  0
LINE
  5
12F6
330
A
100
AcDbEntity
  8
HIDDEN
  6
HIDDEN
 48
0.05
100
AcDbLine
 10
736.6454804153857
 20
499.2279865675118
 30
0.0
 11
736.6454804153857
 21
499.0139053099301
 31
0.0
  0
LINE
  5
12F7
330
A
100
AcDbEntity
  8
HIDDEN
  6
HIDDEN
 48
0.05
100
AcDbLine
 10
740.6454810710368
 20
499.0139053099301
 30
0.0
 11
740.6454810710368
 21
498.3817822196029
 31
0.0
  0
LINE
  5
12F8
330
A
100
AcDbEntity
  8
HIDDEN
  6
HIDDEN
 48
0.05
100
AcDbLine
 10
736.6454804153857
 20
499.0139053099301
 30
0.0
 11
736.6454804153857
 21
498.3817822196029
 31
0.0
  0
LINE
  5
12F9
330
A
100
AcDbEntity
  8
HIDDEN
  6
HIDDEN
 48
0.05
100
AcDbLine
 10
740.6454810710368
 20
480.210496707678
 30
0.0
 11
740.6454810710368
 21
479.5729433082488
 31
0.0
  0
LINE
  5
12FA
330
A
100
AcDbEntity
  8
HIDDEN
  6
HIDDEN
 48
0.05
100
AcDbLine
 10
736.6454804153857
 20
480.210496707678
 30
0.0
 11
736.6454804153857
 21
479.5729433082488
 31
0.0
  0
LINE
  5
12FB
330
A
100
AcDbEntity
  8
HIDDEN
  6
HIDDEN
 48
0.05
100
AcDbLine
 10
740.6454810710368
 20
479.5729433082488
 30
0.0
 11
740.6454810710368
 21
479.3742172316161
 31
0.0
  0
LINE
  5
12FC
330
A
100
AcDbEntity
  8
HIDDEN
  6
HIDDEN
 48
0.05
100
AcDbLine
 10
736.6454804153857
 20
479.5729433082488
 30
0.0
 11
736.6454804153857
 21
479.3742172316161
 31
0.0
  0
LINE
  5
12FD
330
A
100
AcDbEntity
  8
HIDDEN
  6
HIDDEN
 48
0.05
100
AcDbLine
 10
740.6454810710368
 20
500.0557302393458
 30
0.0
 11
740.6454810710368
 21
499.8697395332601
 31
0.0
  0
LINE
  5
12FE
330
A
100
AcDbEntity
  8
HIDDEN
  6
HIDDEN
 48
0.05
100
AcDbLine
 10
736.6454804153857
 20
500.0557302393458
 30
0.0
 11
736.6454804153857
 21
499.8697395332601
 31
0.0
  0
LINE
  5
12FF
330
A
100
AcDbEntity
  8
HIDDEN
  6
HIDDEN
 48
0.05
100
AcDbLine
 10
740.6454810710368
 20
499.8697395332601
 30
0.0
 11
740.6454810710368
 21
499.2279865675118
 31
0.0
  0
LINE
  5
1300
330
A
100
AcDbEntity
  8
HIDDEN
  6
HIDDEN
 48
0.05
100
AcDbLine
 10
736.6454804153857
 20
499.8697395332601
 30
0.0
 11
736.6454804153857
 21
499.2279865675118
 31
0.0
  0
LINE
  5
1301
330
A
100
AcDbEntity
  8
HIDDEN
  6
HIDDEN
 48
0.05
100
AcDbLine
 10
740.6454810710368
 20
479.3742172316161
 30
0.0
 11
740.6454810710368
 21
478.7277019478829
 31
0.0
  0
LINE
  5
1302
330
A
100
AcDbEntity
  8
HIDDEN
  6
HIDDEN
 48
0.05
100
AcDbLine
 10
736.6454804153857
 20
479.3742172316161
 30
0.0
 11
736.6454804153857
 21
478.7277019478829
 31
0.0
  0
LINE
  5
1303
330
A
100
AcDbEntity
  8
HIDDEN
  6
HIDDEN
 48
0.05
100
AcDbLine
 10
740.6454810710368
 20
478.7277019478829
 30
0.0
 11
740.6454810710368
 21
478.5572680540831
 31
0.0
  0
LINE
  5
1304
330
A
100
AcDbEntity
  8
HIDDEN
  6
HIDDEN
 48
0.05
100
AcDbLine
 10
736.6454804153857
 20
478.7277019478829
 30
0.0
 11
736.6454804153857
 21
478.5572680540831
 31
0.0
  0
LINE
  5
1305
330
A
100
AcDbEntity
  8
HIDDEN
  6
HIDDEN
 48
0.05
100
AcDbLine
 10
740.6454810710368
 20
500.8634346433428
 30
0.0
 11
740.6454810710368
 21
500.7058902539761
 31
0.0
  0
LINE
  5
1306
330
A
100
AcDbEntity
  8
HIDDEN
  6
HIDDEN
 48
0.05
100
AcDbLine
 10
736.6454804153857
 20
500.8634346433428
 30
0.0
 11
736.6454804153857
 21
500.7058902539761
 31
0.0
  0
LINE
  5
1307
330
A
100
AcDbEntity
  8
HIDDEN
  6
HIDDEN
 48
0.05
100
AcDbLine
 10
740.6454810710368
 20
500.7058902539761
 30
0.0
 11
740.6454810710368
 21
500.0557302393458
 31
0.0
  0
LINE
  5
1308
330
A
100
AcDbEntity
  8
HIDDEN
  6
HIDDEN
 48
0.05
100
AcDbLine
 10
736.6454804153857
 20
500.7058902539761
 30
0.0
 11
736.6454804153857
 21
500.0557302393458
 31
0.0
  0
LINE
  5
1309
330
A
100
AcDbEntity
  8
HIDDEN
  6
HIDDEN
 48
0.05
100
AcDbLine
 10
740.6454810710368
 20
478.5572680540831
 30
0.0
 11
740.6454810710368
 21
477.9030213959959
 31
0.0
  0
LINE
  5
130A
330
A
100
AcDbEntity
  8
HIDDEN
  6
HIDDEN
 48
0.05
100
AcDbLine
 10
736.6454804153857
 20
478.5572680540831
 30
0.0
 11
736.6454804153857
 21
477.9030213959959
 31
0.0
  0
LINE
  5
130B
330
A
100
AcDbEntity
  8
HIDDEN
  6
HIDDEN
 48
0.05
100
AcDbLine
 10
740.6454810710368
 20
477.9030213959959
 30
0.0
 11
740.6454810710368
 21
477.7612047166081
 31
0.0
  0
LINE
  5
130C
330
A
100
AcDbEntity
  8
HIDDEN
  6
HIDDEN
 48
0.05
100
AcDbLine
 10
736.6454804153857
 20
477.9030213959959
 30
0.0
 11
736.6454804153857
 21
477.7612047166081
 31
0.0
  0
LINE
  5
130D
330
A
100
AcDbEntity
  8
HIDDEN
  6
HIDDEN
 48
0.05
100
AcDbLine
 10
740.6454810710368
 20
501.6495640285762
 30
0.0
 11
740.6454810710368
 21
501.5207658417971
 31
0.0
  0
LINE
  5
130E
330
A
100
AcDbEntity
  8
HIDDEN
  6
HIDDEN
 48
0.05
100
AcDbLine
 10
736.6454804153857
 20
501.6495640285762
 30
0.0
 11
736.6454804153857
 21
501.5207658417971
 31
0.0
  0
LINE
  5
130F
330
A
100
AcDbEntity
  8
HIDDEN
  6
HIDDEN
 48
0.05
100
AcDbLine
 10
740.6454810710368
 20
501.5207658417971
 30
0.0
 11
740.6454810710368
 21
500.8634346433428
 31
0.0
  0
LINE
  5
1310
330
A
100
AcDbEntity
  8
HIDDEN
  6
HIDDEN
 48
0.05
100
AcDbLine
 10
736.6454804153857
 20
501.5207658417971
 30
0.0
 11
736.6454804153857
 21
500.8634346433428
 31
0.0
  0
LINE
  5
1311
330
A
100
AcDbEntity
  8
HIDDEN
  6
HIDDEN
 48
0.05
100
AcDbLine
 10
740.6454810710368
 20
477.7612047166081
 30
0.0
 11
740.6454810710368
 21
477.1004723281112
 31
0.0
  0
LINE
  5
1312
330
A
100
AcDbEntity
  8
HIDDEN
  6
HIDDEN
 48
0.05
100
AcDbLine
 10
736.6454804153857
 20
477.7612047166081
 30
0.0
 11
736.6454804153857
 21
477.1004723281112
 31
0.0
  0
LINE
  5
1313
330
A
100
AcDbEntity
  8
HIDDEN
  6
HIDDEN
 48
0.05
100
AcDbLine
 10
740.6454810710368
 20
477.1004723281112
 30
0.0
 11
740.6454810710368
 21
476.9875424810198
 31
0.0
  0
LINE
  5
1314
330
A
100
AcDbEntity
  8
HIDDEN
  6
HIDDEN
 48
0.05
100
AcDbLine
 10
736.6454804153857
 20
477.1004723281112
 30
0.0
 11
736.6454804153857
 21
476.9875424810198
 31
0.0
  0
LINE
  5
1315
330
A
100
AcDbEntity
  8
HIDDEN
  6
HIDDEN
 48
0.05
100
AcDbLine
 10
740.6454810710368
 20
502.4126226909898
 30
0.0
 11
740.6454810710368
 21
502.3128147133139
 31
0.0
  0
LINE
  5
1316
330
A
100
AcDbEntity
  8
HIDDEN
  6
HIDDEN
 48
0.05
100
AcDbLine
 10
736.6454804153857
 20
502.4126226909898
 30
0.0
 11
736.6454804153857
 21
502.3128147133139
 31
0.0
  0
LINE
  5
1317
330
A
100
AcDbEntity
  8
HIDDEN
  6
HIDDEN
 48
0.05
100
AcDbLine
 10
740.6454810710368
 20
502.3128147133139
 30
0.0
 11
740.6454810710368
 21
501.6495640285762
 31
0.0
  0
LINE
  5
1318
330
A
100
AcDbEntity
  8
HIDDEN
  6
HIDDEN
 48
0.05
100
AcDbLine
 10
736.6454804153857
 20
502.3128147133139
 30
0.0
 11
736.6454804153857
 21
501.6495640285762
 31
0.0
  0
LINE
  5
1319
330
A
100
AcDbEntity
  8
HIDDEN
  6
HIDDEN
 48
0.05
100
AcDbLine
 10
740.6454810710368
 20
476.9875424810198
 30
0.0
 11
740.6454810710368
 21
476.3215821132508
 31
0.0
  0
LINE
  5
131A
330
A
100
AcDbEntity
  8
HIDDEN
  6
HIDDEN
 48
0.05
100
AcDbLine
 10
736.6454804153857
 20
476.9875424810198
 30
0.0
 11
736.6454804153857
 21
476.3215821132508
 31
0.0
  0
LINE
  5
131B
330
A
100
AcDbEntity
  8
HIDDEN
  6
HIDDEN
 48
0.05
100
AcDbLine
 10
740.6454810710368
 20
476.3215821132508
 30
0.0
 11
740.6454810710368
 21
476.2377537683101
 31
0.0
  0
LINE
  5
131C
330
A
100
AcDbEntity
  8
HIDDEN
  6
HIDDEN
 48
0.05
100
AcDbLine
 10
736.6454804153857
 20
476.3215821132508
 30
0.0
 11
736.6454804153857
 21
476.2377537683101
 31
0.0
  0
LINE
  5
131D
330
A
100
AcDbEntity
  8
HIDDEN
  6
HIDDEN
 48
0.05
100
AcDbLine
 10
740.6454810710368
 20
503.1511559047249
 30
0.0
 11
740.6454810710368
 21
503.0805299886019
 31
0.0
  0
LINE
  5
131E
330
A
100
AcDbEntity
  8
HIDDEN
  6
HIDDEN
 48
0.05
100
AcDbLine
 10
736.6454804153857
 20
503.1511559047249
 30
0.0
 11
736.6454804153857
 21
503.0805299886019
 31
0.0
  0
LINE
  5
131F
330
A
100
AcDbEntity
  8
HIDDEN
  6
HIDDEN
 48
0.05
100
AcDbLine
 10
740.6454810710368
 20
503.0805299886019
 30
0.0
 11
740.6454810710368
 21
502.4126226909898
 31
0.0
  0
LINE
  5
1320
330
A
100
AcDbEntity
  8
HIDDEN
  6
HIDDEN
 48
0.05
100
AcDbLine
 10
736.6454804153857
 20
503.0805299886019
 30
0.0
 11
736.6454804153857
 21
502.4126226909898
 31
0.0
  0
LINE
  5
1321
330
A
100
AcDbEntity
  8
HIDDEN
  6
HIDDEN
 48
0.05
100
AcDbLine
 10
740.6454810710368
 20
476.2377537683101
 30
0.0
 11
740.6454810710368
 21
475.5678334169529
 31
0.0
  0
LINE
  5
1322
330
A
100
AcDbEntity
  8
HIDDEN
  6
HIDDEN
 48
0.05
100
AcDbLine
 10
736.6454804153857
 20
476.2377537683101
 30
0.0
 11
736.6454804153857
 21
475.5678334169529
 31
0.0
  0
LINE
  5
1323
330
A
100
AcDbEntity
  8
HIDDEN
  6
HIDDEN
 48
0.05
100
AcDbLine
 10
740.6454810710368
 20
475.5678334169529
 30
0.0
 11
740.6454810710368
 21
475.5132662959841
 31
0.0
  0
LINE
  5
1324
330
A
100
AcDbEntity
  8
HIDDEN
  6
HIDDEN
 48
0.05
100
AcDbLine
 10
736.6454804153857
 20
475.5678334169529
 30
0.0
 11
736.6454804153857
 21
475.5132662959841
 31
0.0
  0
LINE
  5
1325
330
A
100
AcDbEntity
  8
HIDDEN
  6
HIDDEN
 48
0.05
100
AcDbLine
 10
740.6454810710368
 20
503.8637592353371
 30
0.0
 11
740.6454810710368
 21
503.8224476285718
 31
0.0
  0
LINE
  5
1326
330
A
100
AcDbEntity
  8
HIDDEN
  6
HIDDEN
 48
0.05
100
AcDbLine
 10
736.6454804153857
 20
503.8637592353371
 30
0.0
 11
736.6454804153857
 21
503.8224476285718
 31
0.0
  0
LINE
  5
1327
330
A
100
AcDbEntity
  8
HIDDEN
  6
HIDDEN
 48
0.05
100
AcDbLine
 10
740.6454810710368
 20
503.8224476285718
 30
0.0
 11
740.6454810710368
 21
503.1511559047249
 31
0.0
  0
LINE
  5
1328
330
A
100
AcDbEntity
  8
HIDDEN
  6
HIDDEN
 48
0.05
100
AcDbLine
 10
736.6454804153857
 20
503.8224476285718
 30
0.0
 11
736.6454804153857
 21
503.1511559047249
 31
0.0
  0
LINE
  5
1329
330
A
100
AcDbEntity
  8
HIDDEN
  6
HIDDEN
 48
0.05
100
AcDbLine
 10
740.6454810710368
 20
475.5132662959841
 30
0.0
 11
740.6454810710368
 21
474.8406604759839
 31
0.0
  0
LINE
  5
132A
330
A
100
AcDbEntity
  8
HIDDEN
  6
HIDDEN
 48
0.05
100
AcDbLine
 10
736.6454804153857
 20
475.5132662959841
 30
0.0
 11
736.6454804153857
 21
474.8406604759839
 31
0.0
  0
LINE
  5
132B
330
A
100
AcDbEntity
  8
HIDDEN
  6
HIDDEN
 48
0.05
100
AcDbLine
 10
740.6454810710368
 20
474.8406604759839
 30
0.0
 11
740.6454810710368
 21
474.8154588871148
 31
0.0
  0
LINE
  5
132C
330
A
100
AcDbEntity
  8
HIDDEN
  6
HIDDEN
 48
0.05
100
AcDbLine
 10
736.6454804153857
 20
474.8406604759839
 30
0.0
 11
736.6454804153857
 21
474.8154588871148
 31
0.0
  0
LINE
  5
132D
330
A
100
AcDbEntity
  8
HIDDEN
  6
HIDDEN
 48
0.05
100
AcDbLine
 10
740.6454810710368
 20
504.5371594734938
 30
0.0
 11
740.6454810710368
 21
503.8637592353371
 31
0.0
  0
LINE
  5
132E
330
A
100
AcDbEntity
  8
HIDDEN
  6
HIDDEN
 48
0.05
100
AcDbLine
 10
736.6454804153857
 20
504.5371594734938
 30
0.0
 11
736.6454804153857
 21
503.8637592353371
 31
0.0
  0
LINE
  5
132F
330
A
100
AcDbEntity
  8
HIDDEN
  6
HIDDEN
 48
0.05
100
AcDbLine
 10
740.6454810710368
 20
504.5490766771582
 30
0.0
 11
740.6454810710368
 21
504.5371594734938
 31
0.0
  0
LINE
  5
1330
330
A
100
AcDbEntity
  8
HIDDEN
  6
HIDDEN
 48
0.05
100
AcDbLine
 10
736.6454804153857
 20
504.5490766771582
 30
0.0
 11
736.6454804153857
 21
504.5371594734938
 31
0.0
  0
LINE
  5
1331
330
A
100
AcDbEntity
  8
HIDDEN
  6
HIDDEN
 48
0.05
100
AcDbLine
 10
740.6454810710368
 20
474.8154588871148
 30
0.0
 11
740.6454810710368
 21
474.1414486326721
 31
0.0
  0
LINE
  5
1332
330
A
100
AcDbEntity
  8
HIDDEN
  6
HIDDEN
 48
0.05
100
AcDbLine
 10
736.6454804153857
 20
474.8154588871148
 30
0.0
 11
736.6454804153857
 21
474.1414486326721
 31
0.0
  0
LINE
  5
1333
330
A
100
AcDbEntity
  8
HIDDEN
  6
HIDDEN
 48
0.05
100
AcDbLine
 10
740.6454810710368
 20
505.223302067116
 30
0.0
 11
740.6454810710368
 21
504.5490766771582
 31
0.0
  0
LINE
  5
1334
330
A
100
AcDbEntity
  8
HIDDEN
  6
HIDDEN
 48
0.05
100
AcDbLine
 10
736.6454804153857
 20
505.223302067116
 30
0.0
 11
736.6454804153857
 21
504.5490766771582
 31
0.0
  0
LINE
  5
1335
330
A
100
AcDbEntity
  8
HIDDEN
  6
HIDDEN
 48
0.05
100
AcDbLine
 10
740.6454810710368
 20
474.1414486326721
 30
0.0
 11
740.6454810710368
 21
473.471527815655
 31
0.0
  0
LINE
  5
1336
330
A
100
AcDbEntity
  8
HIDDEN
  6
HIDDEN
 48
0.05
100
AcDbLine
 10
736.6454804153857
 20
474.1414486326721
 30
0.0
 11
736.6454804153857
 21
473.471527815655
 31
0.0
  0
LINE
  5
1337
330
A
100
AcDbEntity
  8
HIDDEN
  6
HIDDEN
 48
0.05
100
AcDbLine
 10
740.6454810710368
 20
505.8795696951888
 30
0.0
 11
740.6454810710368
 21
505.223302067116
 31
0.0
  0
LINE
  5
1338
330
A
100
AcDbEntity
  8
HIDDEN
  6
HIDDEN
 48
0.05
100
AcDbLine
 10
736.6454804153857
 20
505.8795696951888
 30
0.0
 11
736.6454804153857
 21
505.223302067116
 31
0.0
  0
LINE
  5
1339
330
A
100
AcDbEntity
  8
HIDDEN
  6
HIDDEN
 48
0.05
100
AcDbLine
 10
740.6454810710368
 20
473.471527815655
 30
0.0
 11
740.6454810710368
 21
472.8321739368589
 31
0.0
  0
LINE
  5
133A
330
A
100
AcDbEntity
  8
HIDDEN
  6
HIDDEN
 48
0.05
100
AcDbLine
 10
736.6454804153857
 20
473.471527815655
 30
0.0
 11
736.6454804153857
 21
472.8321739368589
 31
0.0
  0
LINE
  5
133B
330
A
100
AcDbEntity
  8
HIDDEN
  6
HIDDEN
 48
0.05
100
AcDbLine
 10
740.6454810710368
 20
506.5047125228189
 30
0.0
 11
740.6454810710368
 21
505.8795696951888
 31
0.0
  0
LINE
  5
133C
330
A
100
AcDbEntity
  8
HIDDEN
  6
HIDDEN
 48
0.05
100
AcDbLine
 10
736.6454804153857
 20
506.5047125228189
 30
0.0
 11
736.6454804153857
 21
505.8795696951888
 31
0.0
  0
LINE
  5
133D
330
A
100
AcDbEntity
  8
HIDDEN
  6
HIDDEN
 48
0.05
100
AcDbLine
 10
740.6454810710368
 20
472.8321739368589
 30
0.0
 11
740.6454810710368
 21
472.2246042348888
 31
0.0
  0
LINE
  5
133E
330
A
100
AcDbEntity
  8
HIDDEN
  6
HIDDEN
 48
0.05
100
AcDbLine
 10
736.6454804153857
 20
472.8321739368589
 30
0.0
 11
736.6454804153857
 21
472.2246042348888
 31
0.0
  0
LINE
  5
133F
330
A
100
AcDbEntity
  8
HIDDEN
  6
HIDDEN
 48
0.05
100
AcDbLine
 10
740.6454810710368
 20
507.0975440450461
 30
0.0
 11
740.6454810710368
 21
506.5047125228189
 31
0.0
  0
LINE
  5
1340
330
A
100
AcDbEntity
  8
HIDDEN
  6
HIDDEN
 48
0.05
100
AcDbLine
 10
736.6454804153857
 20
507.0975440450461
 30
0.0
 11
736.6454804153857
 21
506.5047125228189
 31
0.0
  0
LINE
  5
1341
330
A
100
AcDbEntity
  8
HIDDEN
  6
HIDDEN
 48
0.05
100
AcDbLine
 10
740.6454810710368
 20
472.2246042348888
 30
0.0
 11
740.6454810710368
 21
471.6499744810608
 31
0.0
  0
LINE
  5
1342
330
A
100
AcDbEntity
  8
HIDDEN
  6
HIDDEN
 48
0.05
100
AcDbLine
 10
736.6454804153857
 20
472.2246042348888
 30
0.0
 11
736.6454804153857
 21
471.6499744810608
 31
0.0
  0
LINE
  5
1343
330
A
100
AcDbEntity
  8
HIDDEN
  6
HIDDEN
 48
0.05
100
AcDbLine
 10
740.6454810710368
 20
507.656931773618
 30
0.0
 11
740.6454810710368
 21
507.0975440450461
 31
0.0
  0
LINE
  5
1344
330
A
100
AcDbEntity
  8
HIDDEN
  6
HIDDEN
 48
0.05
100
AcDbLine
 10
736.6454804153857
 20
507.656931773618
 30
0.0
 11
736.6454804153857
 21
507.0975440450461
 31
0.0
  0
LINE
  5
1345
330
A
100
AcDbEntity
  8
HIDDEN
  6
HIDDEN
 48
0.05
100
AcDbLine
 10
740.6454810710368
 20
471.6499744810608
 30
0.0
 11
740.6454810710368
 21
471.1093789793999
 31
0.0
  0
LINE
  5
1346
330
A
100
AcDbEntity
  8
HIDDEN
  6
HIDDEN
 48
0.05
100
AcDbLine
 10
736.6454804153857
 20
471.6499744810608
 30
0.0
 11
736.6454804153857
 21
471.1093789793999
 31
0.0
  0
LINE
  5
1347
330
A
100
AcDbEntity
  8
HIDDEN
  6
HIDDEN
 48
0.05
100
AcDbLine
 10
740.6454810710368
 20
508.1818121381548
 30
0.0
 11
740.6454810710368
 21
507.656931773618
 31
0.0
  0
LINE
  5
1348
330
A
100
AcDbEntity
  8
HIDDEN
  6
HIDDEN
 48
0.05
100
AcDbLine
 10
736.6454804153857
 20
508.1818121381548
 30
0.0
 11
736.6454804153857
 21
507.656931773618
 31
0.0
  0
LINE
  5
1349
330
A
100
AcDbEntity
  8
HIDDEN
  6
HIDDEN
 48
0.05
100
AcDbLine
 10
740.6454810710368
 20
471.1093789793999
 30
0.0
 11
740.6454810710368
 21
470.6038459100268
 31
0.0
  0
LINE
  5
134A
330
A
100
AcDbEntity
  8
HIDDEN
  6
HIDDEN
 48
0.05
100
AcDbLine
 10
736.6454804153857
 20
471.1093789793999
 30
0.0
 11
736.6454804153857
 21
470.6038459100268
 31
0.0
  0
LINE
  5
134B
330
A
100
AcDbEntity
  8
HIDDEN
  6
HIDDEN
 48
0.05
100
AcDbLine
 10
740.6454810710368
 20
508.6711867608578
 30
0.0
 11
740.6454810710368
 21
508.1818121381548
 31
0.0
  0
LINE
  5
134C
330
A
100
AcDbEntity
  8
HIDDEN
  6
HIDDEN
 48
0.05
100
AcDbLine
 10
736.6454804153857
 20
508.6711867608578
 30
0.0
 11
736.6454804153857
 21
508.1818121381548
 31
0.0
  0
LINE
  5
134D
330
A
100
AcDbEntity
  8
HIDDEN
  6
HIDDEN
 48
0.05
100
AcDbLine
 10
740.6454810710368
 20
470.6038459100268
 30
0.0
 11
740.6454810710368
 21
470.134339191809
 31
0.0
  0
LINE
  5
134E
330
A
100
AcDbEntity
  8
HIDDEN
  6
HIDDEN
 48
0.05
100
AcDbLine
 10
736.6454804153857
 20
470.6038459100268
 30
0.0
 11
736.6454804153857
 21
470.134339191809
 31
0.0
  0
LINE
  5
134F
330
A
100
AcDbEntity
  8
HIDDEN
  6
HIDDEN
 48
0.05
100
AcDbLine
 10
740.6454810710368
 20
509.124122456506
 30
0.0
 11
740.6454810710368
 21
508.6711867608578
 31
0.0
  0
LINE
  5
1350
330
A
100
AcDbEntity
  8
HIDDEN
  6
HIDDEN
 48
0.05
100
AcDbLine
 10
736.6454804153857
 20
509.124122456506
 30
0.0
 11
736.6454804153857
 21
508.6711867608578
 31
0.0
  0
LINE
  5
1351
330
A
100
AcDbEntity
  8
HIDDEN
  6
HIDDEN
 48
0.05
100
AcDbLine
 10
740.6454810710368
 20
470.134339191809
 30
0.0
 11
740.6454810710368
 21
469.701751963094
 31
0.0
  0
LINE
  5
1352
330
A
100
AcDbEntity
  8
HIDDEN
  6
HIDDEN
 48
0.05
100
AcDbLine
 10
736.6454804153857
 20
470.134339191809
 30
0.0
 11
736.6454804153857
 21
469.701751963094
 31
0.0
  0
LINE
  5
1353
330
A
100
AcDbEntity
  8
HIDDEN
  6
HIDDEN
 48
0.05
100
AcDbLine
 10
740.6454810710368
 20
509.5397586830409
 30
0.0
 11
740.6454810710368
 21
509.124122456506
 31
0.0
  0
LINE
  5
1354
330
A
100
AcDbEntity
  8
HIDDEN
  6
HIDDEN
 48
0.05
100
AcDbLine
 10
736.6454804153857
 20
509.5397586830409
 30
0.0
 11
736.6454804153857
 21
509.124122456506
 31
0.0
  0
LINE
  5
1355
330
A
100
AcDbEntity
  8
HIDDEN
  6
HIDDEN
 48
0.05
100
AcDbLine
 10
740.6454810710368
 20
469.701751963094
 30
0.0
 11
740.6454810710368
 21
469.3069065817149
 31
0.0
  0
LINE
  5
1356
330
A
100
AcDbEntity
  8
HIDDEN
  6
HIDDEN
 48
0.05
100
AcDbLine
 10
736.6454804153857
 20
469.701751963094
 30
0.0
 11
736.6454804153857
 21
469.3069065817149
 31
0.0
  0
LINE
  5
1357
330
A
100
AcDbEntity
  8
HIDDEN
  6
HIDDEN
 48
0.05
100
AcDbLine
 10
740.6454810710368
 20
509.9173038162739
 30
0.0
 11
740.6454810710368
 21
509.5397586830409
 31
0.0
  0
LINE
  5
1358
330
A
100
AcDbEntity
  8
HIDDEN
  6
HIDDEN
 48
0.05
100
AcDbLine
 10
736.6454804153857
 20
509.9173038162739
 30
0.0
 11
736.6454804153857
 21
509.5397586830409
 31
0.0
  0
LINE
  5
1359
330
A
100
AcDbEntity
  8
HIDDEN
  6
HIDDEN
 48
0.05
100
AcDbLine
 10
740.6454810710368
 20
469.3069065817149
 30
0.0
 11
740.6454810710368
 21
468.9505564876349
 31
0.0
  0
LINE
  5
135A
330
A
100
AcDbEntity
  8
HIDDEN
  6
HIDDEN
 48
0.05
100
AcDbLine
 10
736.6454804153857
 20
469.3069065817149
 30
0.0
 11
736.6454804153857
 21
468.9505564876349
 31
0.0
  0
LINE
  5
135B
330
A
100
AcDbEntity
  8
HIDDEN
  6
HIDDEN
 48
0.05
100
AcDbLine
 10
740.6454810710368
 20
510.2560407378219
 30
0.0
 11
740.6454810710368
 21
509.9173038162739
 31
0.0
  0
LINE
  5
135C
330
A
100
AcDbEntity
  8
HIDDEN
  6
HIDDEN
 48
0.05
100
AcDbLine
 10
736.6454804153857
 20
510.2560407378219
 30
0.0
 11
736.6454804153857
 21
509.9173038162739
 31
0.0
  0
LINE
  5
135D
330
A
100
AcDbEntity
  8
HIDDEN
  6
HIDDEN
 48
0.05
100
AcDbLine
 10
740.6454810710368
 20
468.9505564876349
 30
0.0
 11
740.6454810710368
 21
468.6333787523658
 31
0.0
  0
LINE
  5
135E
330
A
100
AcDbEntity
  8
HIDDEN
  6
HIDDEN
 48
0.05
100
AcDbLine
 10
736.6454804153857
 20
468.9505564876349
 30
0.0
 11
736.6454804153857
 21
468.6333787523658
 31
0.0
  0
LINE
  5
135F
330
A
100
AcDbEntity
  8
HIDDEN
  6
HIDDEN
 48
0.05
100
AcDbLine
 10
740.6454810710368
 20
510.555321247175
 30
0.0
 11
740.6454810710368
 21
510.2560407378219
 31
0.0
  0
LINE
  5
1360
330
A
100
AcDbEntity
  8
HIDDEN
  6
HIDDEN
 48
0.05
100
AcDbLine
 10
736.6454804153857
 20
510.555321247175
 30
0.0
 11
736.6454804153857
 21
510.2560407378219
 31
0.0
  0
LINE
  5
1361
330
A
100
AcDbEntity
  8
HIDDEN
  6
HIDDEN
 48
0.05
100
AcDbLine
 10
740.6454810710368
 20
468.6333787523658
 30
0.0
 11
740.6454810710368
 21
468.355976872936
 31
0.0
  0
LINE
  5
1362
330
A
100
AcDbEntity
  8
HIDDEN
  6
HIDDEN
 48
0.05
100
AcDbLine
 10
736.6454804153857
 20
468.6333787523658
 30
0.0
 11
736.6454804153857
 21
468.355976872936
 31
0.0
  0
LINE
  5
1363
330
A
100
AcDbEntity
  8
HIDDEN
  6
HIDDEN
 48
0.05
100
AcDbLine
 10
740.6454810710368
 20
510.814577237561
 30
0.0
 11
740.6454810710368
 21
510.555321247175
 31
0.0
  0
LINE
  5
1364
330
A
100
AcDbEntity
  8
HIDDEN
  6
HIDDEN
 48
0.05
100
AcDbLine
 10
736.6454804153857
 20
510.814577237561
 30
0.0
 11
736.6454804153857
 21
510.555321247175
 31
0.0
  0
LINE
  5
1365
330
A
100
AcDbEntity
  8
HIDDEN
  6
HIDDEN
 48
0.05
100
AcDbLine
 10
740.6454810710368
 20
468.355976872936
 30
0.0
 11
740.6454810710368
 21
468.1188798405678
 31
0.0
  0
LINE
  5
1366
330
A
100
AcDbEntity
  8
HIDDEN
  6
HIDDEN
 48
0.05
100
AcDbLine
 10
736.6454804153857
 20
468.355976872936
 30
0.0
 11
736.6454804153857
 21
468.1188798405678
 31
0.0
  0
LINE
  5
1367
330
A
100
AcDbEntity
  8
HIDDEN
  6
HIDDEN
 48
0.05
100
AcDbLine
 10
740.6454810710368
 20
511.0333151080158
 30
0.0
 11
740.6454810710368
 21
510.814577237561
 31
0.0
  0
LINE
  5
1368
330
A
100
AcDbEntity
  8
HIDDEN
  6
HIDDEN
 48
0.05
100
AcDbLine
 10
736.6454804153857
 20
511.0333151080158
 30
0.0
 11
736.6454804153857
 21
510.814577237561
 31
0.0
  0
LINE
  5
1369
330
A
100
AcDbEntity
  8
HIDDEN
  6
HIDDEN
 48
0.05
100
AcDbLine
 10
740.6454810710368
 20
468.1188798405678
 30
0.0
 11
740.6454810710368
 21
467.922538415387
 31
0.0
  0
LINE
  5
136A
330
A
100
AcDbEntity
  8
HIDDEN
  6
HIDDEN
 48
0.05
100
AcDbLine
 10
736.6454804153857
 20
468.1188798405678
 30
0.0
 11
736.6454804153857
 21
467.922538415387
 31
0.0
  0
LINE
  5
136B
330
A
100
AcDbEntity
  8
HIDDEN
  6
HIDDEN
 48
0.05
100
AcDbLine
 10
740.6454810710368
 20
511.2111194886711
 30
0.0
 11
740.6454810710368
 21
511.0333151080158
 31
0.0
  0
LINE
  5
136C
330
A
100
AcDbEntity
  8
HIDDEN
  6
HIDDEN
 48
0.05
100
AcDbLine
 10
736.6454804153857
 20
511.2111194886711
 30
0.0
 11
736.6454804153857
 21
511.0333151080158
 31
0.0
  0
LINE
  5
136D
330
A
100
AcDbEntity
  8
HIDDEN
  6
HIDDEN
 48
0.05
100
AcDbLine
 10
740.6454810710368
 20
467.922538415387
 30
0.0
 11
740.6454810710368
 21
467.7673260577471
 31
0.0
  0
LINE
  5
136E
330
A
100
AcDbEntity
  8
HIDDEN
  6
HIDDEN
 48
0.05
100
AcDbLine
 10
736.6454804153857
 20
467.922538415387
 30
0.0
 11
736.6454804153857
 21
467.7673260577471
 31
0.0
  0
LINE
  5
136F
330
A
100
AcDbEntity
  8
HIDDEN
  6
HIDDEN
 48
0.05
100
AcDbLine
 10
740.6454810710368
 20
511.3476513781102
 30
0.0
 11
740.6454810710368
 21
511.2111194886711
 31
0.0
  0
LINE
  5
1370
330
A
100
AcDbEntity
  8
HIDDEN
  6
HIDDEN
 48
0.05
100
AcDbLine
 10
736.6454804153857
 20
511.3476513781102
 30
0.0
 11
736.6454804153857
 21
511.2111194886711
 31
0.0
  0
LINE
  5
1371
330
A
100
AcDbEntity
  8
HIDDEN
  6
HIDDEN
 48
0.05
100
AcDbLine
 10
740.6454810710368
 20
467.7673260577471
 30
0.0
 11
740.6454810710368
 21
467.6535407908709
 31
0.0
  0
LINE
  5
1372
330
A
100
AcDbEntity
  8
HIDDEN
  6
HIDDEN
 48
0.05
100
AcDbLine
 10
736.6454804153857
 20
467.7673260577471
 30
0.0
 11
736.6454804153857
 21
467.6535407908709
 31
0.0
  0
LINE
  5
1373
330
A
100
AcDbEntity
  8
HIDDEN
  6
HIDDEN
 48
0.05
100
AcDbLine
 10
740.6454810710368
 20
511.4426500060108
 30
0.0
 11
740.6454810710368
 21
511.3476513781102
 31
0.0
  0
LINE
  5
1374
330
A
100
AcDbEntity
  8
HIDDEN
  6
HIDDEN
 48
0.05
100
AcDbLine
 10
736.6454804153857
 20
511.4426500060108
 30
0.0
 11
736.6454804153857
 21
511.3476513781102
 31
0.0
  0
LINE
  5
1375
330
A
100
AcDbEntity
  8
HIDDEN
  6
HIDDEN
 48
0.05
100
AcDbLine
 10
740.6454810710368
 20
467.6535407908709
 30
0.0
 11
740.6454810710368
 21
467.5813949563048
 31
0.0
  0
LINE
  5
1376
330
A
100
AcDbEntity
  8
HIDDEN
  6
HIDDEN
 48
0.05
100
AcDbLine
 10
736.6454804153857
 20
467.6535407908709
 30
0.0
 11
736.6454804153857
 21
467.5813949563048
 31
0.0
  0
LINE
  5
1377
330
A
100
AcDbEntity
  8
HIDDEN
  6
HIDDEN
 48
0.05
100
AcDbLine
 10
740.6454810710368
 20
511.49593655844
 30
0.0
 11
740.6454810710368
 21
511.4426500060108
 31
0.0
  0
LINE
  5
1378
330
A
100
AcDbEntity
  8
HIDDEN
  6
HIDDEN
 48
0.05
100
AcDbLine
 10
736.6454804153857
 20
511.49593655844
 30
0.0
 11
736.6454804153857
 21
511.4426500060108
 31
0.0
  0
LINE
  5
1379
330
A
100
AcDbEntity
  8
HIDDEN
  6
HIDDEN
 48
0.05
100
AcDbLine
 10
736.6454804153857
 20
467.5510282524378
 30
0.0
 11
740.6454810710368
 21
467.5510282524378
 31
0.0
  0
LINE
  5
137A
330
A
100
AcDbEntity
  8
HIDDEN
  6
HIDDEN
 48
0.05
100
AcDbLine
 10
740.6454810710368
 20
467.5813949563048
 30
0.0
 11
740.6454810710368
 21
467.5510282524378
 31
0.0
  0
LINE
  5
137B
330
A
100
AcDbEntity
  8
HIDDEN
  6
HIDDEN
 48
0.05
100
AcDbLine
 10
736.6454804153857
 20
467.5813949563048
 30
0.0
 11
736.6454804153857
 21
467.5510282524378
 31
0.0
  0
LINE
  5
137C
330
A
100
AcDbEntity
  8
HIDDEN
  6
HIDDEN
 48
0.05
100
AcDbLine
 10
736.6454804153857
 20
511.507406727269
 30
0.0
 11
740.6454810710368
 21
511.507406727269
 31
0.0
  0
LINE
  5
137D
330
A
100
AcDbEntity
  8
HIDDEN
  6
HIDDEN
 48
0.05
100
AcDbLine
 10
740.6454810710368
 20
511.507406727269
 30
0.0
 11
740.6454810710368
 21
511.49593655844
 31
0.0
  0
LINE
  5
137E
330
A
100
AcDbEntity
  8
HIDDEN
  6
HIDDEN
 48
0.05
100
AcDbLine
 10
736.6454804153857
 20
511.507406727269
 30
0.0
 11
736.6454804153857
 21
511.49593655844
 31
0.0
  0
LINE
  5
137F
330
A
100
AcDbEntity
  8
HIDDEN
  6
HIDDEN
 48
0.05
100
AcDbLine
 10
673.6416609795508
 20
515.779219464257
 30
0.0
 11
676.1747056456027
 21
515.779219464257
 31
0.0
  0
LINE
  5
1380
330
A
100
AcDbEntity
  8
HIDDEN
  6
HIDDEN
 48
0.05
100
AcDbLine
 10
668.1416610093527
 20
463.7792183913739
 30
0.0
 11
725.9454818280158
 21
463.7792183913739
 31
0.0
  0
LINE
  5
1381
330
A
100
AcDbEntity
  8
HIDDEN
  6
HIDDEN
 48
0.05
100
AcDbLine
 10
674.6954804124059
 20
506.7792179890421
 30
0.0
 11
719.1954811872658
 21
506.7792179890421
 31
0.0
  0
LWPOLYLINE
  5
1382
330
A
100
AcDbEntity
  8
HIDDEN
  6
HIDDEN
 48
0.05
100
AcDbPolyline
 90
       23
 70
   128
 43
0.0
 10
724.5802746923389
 20
472.318830796376
 10
724.56431182341
 20
472.3392994039209
 10
724.2719249637537
 20
472.71573998858
 10
723.7796502025537
 20
473.3561108716281
 10
723.0888975621881
 20
474.270001881614
 10
722.1620155336075
 20
475.5288435973671
 10
721.083273908657
 20
477.0514740504768
 10
719.7074925364666
 20
479.1133789241758
 10
718.2705791504798
 20
481.4811855450721
 10
716.7323304177937
 20
484.4524790079781
 10
715.4239116074257
 20
487.8434644908161
 10
714.8994037719187
 20
489.9317965738919
 10
714.6066192375235
 20
492.1172772430332
 10
714.5843829797329
 20
494.2248257704518
 10
714.8144401447587
 20
496.3079382561591
 10
715.3541890741997
 20
498.6294227548392
 10
716.0933071585121
 20
500.7645412244351
 10
716.9013449759898
 20
502.6140770771049
 10
717.7024295391259
 20
504.1972136952431
 10
718.4605056257658
 20
505.554277346328
 10
718.9959434630098
 20
506.454007596567
 10
719.1954811872658
 20
506.7792179890421
 10
719.1954811872658
 20
506.7792179890421
  0
LINE
  5
1383
330
A
100
AcDbEntity
  8
HIDDEN
  6
HIDDEN
 48
0.05
100
AcDbLine
 10
284.340229873545
 20
1121.49665550912
 30
0.0
 11
284.340229873545
 21
1211.372615652442
 31
0.0
  0
LINE
  5
1384
330
A
100
AcDbEntity
  8
MODEL
 48
0.05
100
AcDbLine
 10
284.3402298735452
 20
1254.49665546647
 30
0.0
 11
284.3402298735452
 21
1272.062352898033
 31
0.0
  0
LINE
  5
1385
330
A
100
AcDbEntity
  8
MODEL
 48
0.05
100
AcDbLine
 10
253.3402303801847
 20
1272.062352898033
 30
0.0
 11
253.3402303801847
 21
1254.49665546647
 31
0.0
  0
LINE
  5
1386
330
A
100
AcDbEntity
  8
HIDDEN
  6
HIDDEN
 48
0.05
100
AcDbLine
 10
253.3402303801845
 20
1245.496652128609
 30
0.0
 11
253.3402303801845
 21
1227.620693428342
 31
0.0
  0
ARC
  5
1387
330
A
100
AcDbEntity
  8
MODEL
 48
0.05
100
AcDbCircle
 10
281.5068972789156
 20
1272.062364180265
 30
0.0
 40
2.833333333333298
100
AcDbArc
 50
0.0
 51
61.92751306410729
  0
ARC
  5
1388
330
A
100
AcDbEntity
  8
MODEL
 48
0.05
100
AcDbCircle
 10
256.1735639455799
 20
1272.062364180265
 30
0.0
 40
2.833333333333298
100
AcDbArc
 50
118.0724869358922
 51
180.0
  0
ARC
  5
1389
330
A
100
AcDbEntity
  8
HIDDEN
  6
HIDDEN
 48
0.05
100
AcDbCircle
 10
294.9383672486435
 20
1254.496662427934
 30
0.0
 40
6.40186336360614
100
AcDbArc
 50
287.2822846146095
 51
0.0
  0
ARC
  5
138A
330
A
100
AcDbEntity
  8
HIDDEN
  6
HIDDEN
 48
0.05
100
AcDbCircle
 10
242.7420939758592
 20
1254.496662427934
 30
0.0
 40
6.40186336360614
100
AcDbArc
 50
180.0
 51
252.7177153853887
  0
ARC
  5
138B
330
A
100
AcDbEntity
  8
HIDDEN
  6
HIDDEN
 48
0.05
100
AcDbCircle
 10
268.8402306122514
 20
1338.37947214272
 30
0.0
 40
94.25081612650857
100
AcDbArc
 50
279.7738538074916
 51
287.2822846145863
  0
ARC
  5
138C
330
A
100
AcDbEntity
  8
HIDDEN
  6
HIDDEN
 48
0.05
100
AcDbCircle
 10
268.8402306122514
 20
1338.37947214272
 30
0.0
 40
94.25081612650857
100
AcDbArc
 50
252.7177153854128
 51
260.2261461925034
  0
LINE
  5
138D
330
A
100
AcDbEntity
  8
HIDDEN
  6
HIDDEN
 48
0.05
100
AcDbLine
 10
247.4402310894798
 20
1114.196654871351
 30
0.0
 11
247.4402310894798
 21
1111.496653869993
 31
0.0
  0
LINE
  5
138E
330
A
100
AcDbEntity
  8
HIDDEN
  6
HIDDEN
 48
0.05
100
AcDbLine
 10
290.2402310268949
 20
1111.496653869993
 30
0.0
 11
290.2402310268949
 21
1114.196654871351
 31
0.0
  0
LINE
  5
138F
330
A
100
AcDbEntity
  8
HIDDEN
  6
HIDDEN
 48
0.05
100
AcDbLine
 10
289.8402298437427
 20
1118.196655527003
 30
0.0
 11
289.3994125174354
 21
1120.696656868107
 31
0.0
  0
LINE
  5
1390
330
A
100
AcDbEntity
  8
HIDDEN
  6
HIDDEN
 48
0.05
100
AcDbLine
 10
248.2810477362941
 20
1120.696656868107
 30
0.0
 11
247.8402304099868
 21
1118.196655527003
 31
0.0
  0
LINE
  5
1391
330
A
100
AcDbEntity
  8
HIDDEN
  6
HIDDEN
 48
0.05
100
AcDbLine
 10
289.3994125174354
 20
1120.696656868107
 30
0.0
 11
285.3402300374578
 21
1121.49665550912
 31
0.0
  0
LINE
  5
1392
330
A
100
AcDbEntity
  8
HIDDEN
  6
HIDDEN
 48
0.05
100
AcDbLine
 10
252.3402302162717
 20
1121.49665550912
 30
0.0
 11
248.2810477362941
 21
1120.696656868107
 31
0.0
  0
LINE
  5
1393
330
A
100
AcDbEntity
  8
HIDDEN
  6
HIDDEN
 48
0.05
100
AcDbLine
 10
251.5902305589984
 20
1111.496653869993
 30
0.0
 11
251.5902305589984
 21
1092.539372384794
 31
0.0
  0
LINE
  5
1394
330
A
100
AcDbEntity
  8
HIDDEN
  6
HIDDEN
 48
0.05
100
AcDbLine
 10
286.0902296947311
 20
1092.554362021632
 30
0.0
 11
286.0902296947311
 21
1111.496653869993
 31
0.0
  0
LINE
  5
1395
330
A
100
AcDbEntity
  8
MODEL
 48
0.05
100
AcDbLine
 10
282.8402305589987
 20
1274.562350513849
 30
0.0
 11
254.8402306260539
 21
1274.562350513849
 31
0.0
  0
LINE
  5
1396
330
A
100
AcDbEntity
  8
MODEL
  6
HIDDEN
 48
0.05
100
AcDbLine
 10
301.3402307974172
 20
1254.49665546647
 30
0.0
 11
236.3402313189579
 21
1254.49665546647
 31
0.0
  0
LINE
  5
1397
330
A
100
AcDbEntity
  8
HIDDEN
  6
HIDDEN
 48
0.05
100
AcDbLine
 10
284.8402308868242
 20
1245.496652128609
 30
0.0
 11
252.8402302982283
 21
1245.496652128609
 31
0.0
  0
LINE
  5
1398
330
A
100
AcDbEntity
  8
HIDDEN
  6
HIDDEN
 48
0.05
100
AcDbLine
 10
247.4402310894798
 20
1111.496653869993
 30
0.0
 11
290.2402310268949
 21
1111.496653869993
 31
0.0
  0
LINE
  5
1399
330
A
100
AcDbEntity
  8
HIDDEN
  6
HIDDEN
 48
0.05
100
AcDbLine
 10
248.2810477362941
 20
1120.696656868107
 30
0.0
 11
289.3994125174354
 21
1120.696656868107
 31
0.0
  0
LINE
  5
139A
330
A
100
AcDbEntity
  8
HIDDEN
  6
HIDDEN
 48
0.05
100
AcDbLine
 10
252.3402302162717
 20
1121.49665550912
 30
0.0
 11
285.3402300374578
 21
1121.49665550912
 31
0.0
  0
LINE
  5
139B
330
A
100
AcDbEntity
  8
HIDDEN
  6
HIDDEN
 48
0.05
100
AcDbLine
 10
290.8184202956031
 20
1114.196654871351
 30
0.0
 11
290.8184202956031
 21
1118.196655527003
 31
0.0
  0
LINE
  5
139C
330
A
100
AcDbEntity
  8
HIDDEN
  6
HIDDEN
 48
0.05
100
AcDbLine
 10
246.8620418207715
 20
1114.196654871351
 30
0.0
 11
246.8620418207715
 21
1118.196655527003
 31
0.0
  0
SPLINE
  5
13A0
330
A
100
AcDbEntity
  8
HIDDEN
  6
HIDDEN
 48
0.05
100
AcDbSpline
210
0.0
220
0.0
230
1.0
 70
     8
 71
     3
 72
    18
 73
    14
 74
     0
 42
0.000000001
 43
0.00000001
 40
0.0
 40
0.0
 40
0.0
 40
0.0
 40
0.0799578813922843
 40
0.1699803577987625
 40
0.2600474673153528
 40
0.3550514113074766
 40
0.4500981304375851
 40
0.5592970063083919
 40
0.6684167562632487
 40
0.7519431611127794
 40
0.8353774846357228
 40
0.919348735839979
 40
1.0
 40
1.0
 40
1.0
 40
1.0
 10
268.840230592526
 20
1096.746655643232
 30
0.0
 10
268.1024976069962
 20
1096.729647844816
 30
0.0
 10
266.5341704495509
 20
1096.693491413336
 30
0.0
 10
264.1926160801008
 20
1096.388105496263
 30
0.0
 10
261.8403126762055
 20
1095.896356640981
 30
0.0
 10
259.6274302446104
 20
1095.235118408801
 30
0.0
 10
257.4931299307641
 20
1094.433898567477
 30
0.0
 10
255.5485704939706
 20
1093.560457565375
 30
0.0
 10
253.9968256730713
 20
1092.808027724612
 30
0.0
 10
252.880388584264
 20
1092.30827932325
 30
0.0
 10
252.1325737958828
 20
1092.078731288717
 30
0.0
 10
251.6730982259319
 20
1092.129856213055
 30
0.0
 10
251.6214491272763
 20
1092.404714709567
 30
0.0
 10
251.5961453886698
 20
1092.539372384794
 30
0.0
  0
SPLINE
  5
13A1
330
A
100
AcDbEntity
  8
HIDDEN
  6
HIDDEN
 48
0.05
100
AcDbSpline
210
0.0
220
0.0
230
1.0
 70
     8
 71
     3
 72
    18
 73
    14
 74
     0
 42
0.000000001
 43
0.00000001
 40
0.0
 40
0.0
 40
0.0
 40
0.0
 40
0.0161063654012893
 40
0.095050921481519
 40
0.1741802181868399
 40
0.2533632567324847
 40
0.3513186638715555
 40
0.4493950010132903
 40
0.5494755613295124
 40
0.6495424352853703
 40
0.7641553323819953
 40
0.8786449285756031
 40
0.9999999999999999
 40
0.9999999999999999
 40
0.9999999999999999
 40
0.9999999999999999
 10
286.0681349979709
 20
1092.554362021632
 30
0.0
 10
286.07462790831
 20
1092.517278610843
 30
0.0
 10
286.112945498629
 20
1092.298432690023
 30
0.0
 10
285.9282273851927
 20
1092.122192991382
 30
0.0
 10
285.4753615358709
 20
1092.095242244079
 30
0.0
 10
284.6841597075395
 20
1092.350989261222
 30
0.0
 10
283.5263867663957
 20
1092.885027287992
 30
0.0
 10
281.9666852366422
 20
1093.638768569363
 30
0.0
 10
280.1028030679804
 20
1094.464325758852
 30
0.0
 10
277.8563249687281
 20
1095.313145232734
 30
0.0
 10
275.2121315170584
 20
1096.057457507932
 30
0.0
 10
272.1400515870987
 20
1096.631473159622
 30
0.0
 10
269.9613120735953
 20
1096.707523535901
 30
0.0
 10
268.840230592526
 20
1096.746655643232
 30
0.0
  0
LINE
  5
13A2
330
A
100
AcDbEntity
  8
HIDDEN
  6
HIDDEN
 48
0.05
100
AcDbLine
 10
289.3994125174386
 20
516.979217310382
 30
0.0
 11
289.8402298437459
 21
514.4792178319221
 31
0.0
  0
LINE
  5
13A3
330
A
100
AcDbEntity
  8
HIDDEN
  6
HIDDEN
 48
0.05
100
AcDbLine
 10
285.340230037461
 20
517.779215951396
 30
0.0
 11
289.3994125174386
 21
516.979217310382
 31
0.0
  0
LINE
  5
13A4
330
A
100
AcDbEntity
  8
HIDDEN
  6
HIDDEN
 48
0.05
100
AcDbLine
 10
289.3994125174386
 20
516.979217310382
 30
0.0
 11
286.2398708807332
 21
516.979217310382
 31
0.0
  0
LINE
  5
13A5
330
A
100
AcDbEntity
  8
HIDDEN
  6
HIDDEN
 48
0.05
100
AcDbLine
 10
285.340230037461
 20
517.779215951396
 30
0.0
 11
284.9084446774823
 21
517.779215951396
 31
0.0
  0
LINE
  5
13A6
330
A
100
AcDbEntity
  8
HIDDEN
  6
HIDDEN
 48
0.05
100
AcDbLine
 10
290.8172729061944
 20
514.4792178319221
 30
0.0
 11
289.6668357828221
 21
514.4792178319221
 31
0.0
  0
LINE
  5
13A7
330
A
100
AcDbEntity
  8
HIDDEN
  6
HIDDEN
 48
0.05
100
AcDbLine
 10
290.8172729061944
 20
508.5180630602531
 30
0.0
 11
290.8172729061944
 21
514.4792178319221
 31
0.0
  0
LINE
  5
13A8
330
A
100
AcDbEntity
  8
HIDDEN
  6
HIDDEN
 48
0.05
100
AcDbLine
 10
290.8172729061944
 20
508.5180630602531
 30
0.0
 11
297.8402311550481
 21
463.7792182759772
 31
0.0
  0
LINE
  5
13A9
330
A
100
AcDbEntity
  8
MODEL
  6
Continuous
 48
0.05
100
AcDbLine
 10
756.9414214371407
 20
474.0292177431729
 30
0.0
 11
864.141657734295
 21
474.0292177431729
 31
0.0
  0
LINE
  5
13AA
330
A
100
AcDbEntity
  8
MODEL
  6
Continuous
 48
0.05
100
AcDbLine
 10
873.1416610721551
 20
474.0292177431729
 30
0.0
 11
890.7073585037185
 21
474.0292177431729
 31
0.0
  0
LINE
  5
13AB
330
A
100
AcDbEntity
  8
MODEL
  6
Continuous
 48
0.05
100
AcDbLine
 10
890.7073585037185
 20
505.029218167856
 30
0.0
 11
873.1416610721551
 21
505.029218167856
 31
0.0
  0
LINE
  5
13AC
330
A
100
AcDbEntity
  8
MODEL
  6
Continuous
 48
0.05
100
AcDbLine
 10
864.141657734295
 20
505.029218167856
 30
0.0
 11
772.0953893379658
 21
505.029218167856
 31
0.0
  0
ARC
  5
13AD
330
A
100
AcDbEntity
  8
MODEL
  6
Continuous
100
AcDbCircle
 10
890.7073697859566
 20
476.862550938582
 30
0.0
 40
2.833333333333599
100
AcDbArc
 50
270.0
 51
331.9275130641691
  0
ARC
  5
13AE
330
A
100
AcDbEntity
  8
MODEL
  6
Continuous
100
AcDbCircle
 10
890.7073697859566
 20
502.1958842719182
 30
0.0
 40
2.833333333333599
100
AcDbArc
 50
28.07248693583085
 51
90.0
  0
ARC
  5
13AF
330
A
100
AcDbEntity
  8
MODEL
  6
Continuous
 48
0.05
100
AcDbCircle
 10
873.1416680336308
 20
463.4310809688541
 30
0.0
 40
6.401863363605886
100
AcDbArc
 50
197.2822846145533
 51
270.0
  0
ARC
  5
13B0
330
A
100
AcDbEntity
  8
MODEL
  6
Continuous
 48
0.05
100
AcDbCircle
 10
873.1416680336308
 20
515.6273542416461
 30
0.0
 40
6.40186336360614
100
AcDbArc
 50
90.0
 51
162.717715385452
  0
ARC
  5
13B1
330
A
100
AcDbEntity
  8
MODEL
  6
Continuous
 48
0.05
100
AcDbCircle
 10
957.0244777484088
 20
489.5292176052499
 30
0.0
 40
94.25081612650841
100
AcDbArc
 50
189.7738538074961
 51
197.2822846145857
  0
ARC
  5
13B2
330
A
100
AcDbEntity
  8
MODEL
  6
Continuous
 48
0.05
100
AcDbCircle
 10
957.0244777484088
 20
489.5292176052499
 30
0.0
 40
94.25081612650874
100
AcDbArc
 50
162.7177153854141
 51
170.2261461925039
  0
LINE
  5
13B3
330
A
100
AcDbEntity
  8
MODEL
  6
Continuous
100
AcDbLine
 10
893.2073561195327
 20
489.5292174898532
 30
0.0
 11
893.2073561195327
 21
503.5292169906638
 31
0.0
  0
LINE
  5
13B4
102
{ACAD_REACTORS
330
13E0
102
}
330
A
100
AcDbEntity
  8
MODEL
  6
Continuous
100
AcDbLine
 10
893.2073561195327
 20
475.5292179890421
 30
0.0
 11
893.2073561195327
 21
489.5292174898532
 31
0.0
  0
LINE
  5
13B5
330
A
100
AcDbEntity
  8
MODEL
  6
Continuous
 48
0.05
100
AcDbLine
 10
873.1416610721551
 20
459.0155406751178
 30
0.0
 11
873.1416610721551
 21
522.0292172290829
 31
0.0
  0
LINE
  5
13B6
330
A
100
AcDbEntity
  8
MODEL
  6
Continuous
 48
0.05
100
AcDbLine
 10
873.1416610721551
 20
457.029217750624
 30
0.0
 11
873.1416610721551
 21
459.0155406751178
 31
0.0
  0
LINE
  5
13B7
330
A
100
AcDbEntity
  8
MODEL
  6
Continuous
 48
0.05
100
AcDbLine
 10
864.141657734295
 20
474.5070989139822
 30
0.0
 11
864.141657734295
 21
505.5292173184898
 31
0.0
  0
LINE
  5
13B8
330
A
100
AcDbEntity
  8
MODEL
  6
Continuous
 48
0.05
100
AcDbLine
 10
864.141657734295
 20
473.529217661217
 30
0.0
 11
864.141657734295
 21
474.5070989139822
 31
0.0
  0
LINE
  5
13B9
330
A
100
AcDbEntity
  8
MODEL
 48
0.05
100
AcDbLine
 10
668.1416610093527
 20
422.1263717225029
 30
0.0
 11
668.1416610093527
 21
414.6205595590618
 31
0.0
  0
LINE
  5
13BA
330
A
100
AcDbEntity
  8
MODEL
 48
0.05
100
AcDbLine
 10
718.1416617544107
 20
414.6205595590618
 30
0.0
 11
718.1416617544107
 21
437.9399397803718
 31
0.0
  0
DIMENSION
  5
13BB
330
A
100
AcDbEntity
  8
DIM
  6
Continuous
100
AcDbDimension
  2
*D8
 10
873.1416610721551
 20
339.4944542718371
 30
0.0
 11
783.1416610721551
 21
355.4944542718371
 31
0.0
 70
    32
 71
     5
 42
180.0
 73
     0
 74
     0
 75
     0
  3
tfrom線あり
100
AcDbAlignedDimension
 13
693.1416610721551
 23
400.779217605251
 33
0.0
 14
873.1416610721551
 24
444.150451073097
 34
0.0
100
AcDbRotatedDimension
  0
LINE
  5
13BC
330
A
100
AcDbEntity
  8
HIDDEN
  6
HIDDEN
 48
0.05
100
AcDbLine
 10
246.4750652232788
 20
542.905290496531
 30
0.0
 11
290.429055787029
 21
542.905290496531
 31
0.0
  0
LINE
  5
13BD
330
A
100
AcDbEntity
  8
HIDDEN
  6
HIDDEN
 48
0.05
100
AcDbLine
 10
290.429055787029
 20
546.9052911521821
 30
0.0
 11
246.4750652232788
 21
546.9052911521821
 31
0.0
  0
LINE
  5
13BE
330
A
100
AcDbEntity
  8
MODEL
100
AcDbLine
 10
293.4520605543034
 20
414.6205617387418
 30
0.0
 11
293.4520599463604
 21
421.682516400082
 31
0.0
  0
LINE
  5
13BF
330
A
100
AcDbEntity
  8
MODEL
100
AcDbLine
 10
243.452060554303
 20
414.6205617387418
 30
0.0
 11
243.4520610639474
 21
421.682516400082
 31
0.0
  0
LINE
  5
13C0
330
A
100
AcDbEntity
  8
HIDDEN
  6
HIDDEN
 48
0.05
100
AcDbLine
 10
284.340229873545
 20
1227.620695280497
 30
0.0
 11
284.340229873545
 21
1245.496652128609
 31
0.0
  0
LINE
  5
13C1
330
A
100
AcDbEntity
  8
HIDDEN
  6
HIDDEN
 48
0.05
100
AcDbLine
 10
253.3402303801845
 20
1211.372617504597
 30
0.0
 11
253.3402303801845
 21
1121.49665550912
 31
0.0
  0
LINE
  5
13C2
330
A
100
AcDbEntity
  8
HIDDEN
100
AcDbLine
 10
253.3402303801845
 20
1211.372617504597
 30
0.0
 11
253.3402303801845
 21
1227.620693428342
 31
0.0
  0
LINE
  5
13C3
330
A
100
AcDbEntity
  8
HIDDEN
100
AcDbLine
 10
284.340229873545
 20
1211.372615652442
 30
0.0
 11
284.340229873545
 21
1227.620695280497
 31
0.0
  0
LINE
  5
13C4
330
A
100
AcDbEntity
  8
HIDDEN
  6
HIDDEN
 48
0.05
100
AcDbLine
 10
246.8620418207715
 20
1114.196654871351
 30
0.0
 11
290.8184202956031
 21
1114.196654871351
 31
0.0
  0
LINE
  5
13C5
330
A
100
AcDbEntity
  8
HIDDEN
  6
HIDDEN
 48
0.05
100
AcDbLine
 10
290.8184202956031
 20
1118.196655527003
 30
0.0
 11
246.8620418207715
 21
1118.196655527003
 31
0.0
  0
ARC
  5
13C6
330
A
100
AcDbEntity
  8
HIDDEN
  6
HIDDEN
 48
0.05
100
AcDbCircle
 10
693.6131243431689
 20
701.682516400082
 30
0.0
 40
110.0
100
AcDbArc
 50
180.0
 51
0.0
  0
LINE
  5
13C7
330
A
100
AcDbEntity
  8
HIDDEN
  6
HIDDEN
 48
0.05
100
AcDbLine
 10
677.1416606219225
 20
571.682516400082
 30
0.0
 11
677.1416606219225
 21
592.9227311719028
 31
0.0
  0
LINE
  5
13C8
330
A
100
AcDbEntity
  8
HIDDEN
  6
HIDDEN
 48
0.05
100
AcDbLine
 10
709.1416612105188
 20
571.682516400082
 30
0.0
 11
709.1416612105188
 21
592.7841025330322
 31
0.0
  0
LINE
  5
13CA
330
A
100
AcDbEntity
  8
HIDDEN
  6
HIDDEN
 48
0.05
100
AcDbLine
 10
677.1416606219225
 20
581.7749492526182
 30
0.0
 11
709.1416612105188
 21
581.7749492526182
 31
0.0
  0
ARC
  5
13CB
330
A
100
AcDbEntity
  8
HIDDEN
  6
HIDDEN
 48
0.05
100
AcDbCircle
 10
269.3116940421705
 20
701.682516400082
 30
0.0
 40
110.0
100
AcDbArc
 50
180.0
 51
0.0
  0
LINE
  5
13CC
330
A
100
AcDbEntity
  8
HIDDEN
  6
HIDDEN
 48
0.05
100
AcDbLine
 10
252.840230320925
 20
581.7749492526182
 30
0.0
 11
284.8402309095209
 21
581.7749492526182
 31
0.0
  0
LINE
  5
13CD
330
A
100
AcDbEntity
  8
HIDDEN
  6
HIDDEN
 48
0.05
100
AcDbLine
 10
284.8402309095209
 20
571.682516400082
 30
0.0
 11
284.8402309095209
 21
592.7841025330322
 31
0.0
  0
LINE
  5
13CE
330
A
100
AcDbEntity
  8
HIDDEN
  6
HIDDEN
 48
0.05
100
AcDbLine
 10
252.840230320925
 20
571.682516400082
 30
0.0
 11
252.840230320925
 21
592.9227311719028
 31
0.0
  0
LINE
  5
13CF
330
A
100
AcDbEntity
  8
HIDDEN
  6
HIDDEN
 48
0.05
100
AcDbLine
 10
297.5401181759694
 20
571.682516400082
 30
0.0
 11
240.1403430544765
 21
571.682516400082
 31
0.0
  0
DIMENSION
  5
13D0
102
{ACAD_REACTORS
330
13D2
102
}
102
{ACAD_XDICTIONARY
360
13D1
102
}
330
A
100
AcDbEntity
  8
DIM
  6
Continuous
100
AcDbDimension
  2
*D9
 10
838.6131243431689
 20
747.6664341463563
 30
0.0
 11
856.1131243431689
 21
747.6664341463563
 31
0.0
 70
   160
 71
     5
 42
35.0
 73
     0
 74
     0
 75
     0
  3
tfrom線あり
100
AcDbAlignedDimension
 13
873.6131243431689
 23
701.682516400082
 33
0.0
 14
838.6131243431689
 24
701.682516400082
 34
0.0
100
AcDbRotatedDimension
  0
DIMENSION
  5
13D3
102
{ACAD_REACTORS
330
13D5
102
}
102
{ACAD_XDICTIONARY
360
13D4
102
}
330
A
100
AcDbEntity
  8
DIM
  6
Continuous
100
AcDbDimension
  2
*D10
 10
923.0516761010192
 20
571.6825164003258
 30
0.0
 11
907.0516761010192
 21
636.6825164002039
 31
0.0
 70
    32
 71
     5
 42
129.9999999997563
 73
     0
 74
     0
 75
     0
  3
tfrom線あり
100
AcDbAlignedDimension
 13
873.6131243431689
 23
701.682516400082
 33
0.0
 14
873.6131243432335
 24
571.6825164003258
 34
0.0
 50
90.0
100
AcDbRotatedDimension
  0
DIMENSION
  5
13D6
102
{ACAD_REACTORS
330
13D8
102
}
102
{ACAD_XDICTIONARY
360
13D7
102
}
330
A
100
AcDbEntity
  8
DIM
  6
Continuous
100
AcDbDimension
  2
*D11
 10
87.87874074941487
 20
661.682516400082
 30
0.0
 11
87.87874074941487
 21
681.682516400082
 31
0.0
 70
   160
 71
     5
 42
40.0
 73
     0
 74
     0
 75
     0
  3
tfrom線あり
100
AcDbAlignedDimension
 13
133.8402343662665
 23
701.682516400082
 33
0.0
 14
134.9920257552342
 24
661.682516400082
 34
0.0
 50
90.0
100
AcDbRotatedDimension
  0
DIMENSION
  5
13D9
330
A
100
AcDbEntity
  8
DIM
  6
Continuous
100
AcDbDimension
  2
*D12
 10
403.8402306122512
 20
1334.039995065307
 30
0.0
 11
268.8402306122512
 21
1334.039995065307
 31
0.0
 70
   160
 71
     5
 42
270.0
 73
     0
 74
     0
 75
     0
  3
tfrom線あり
100
AcDbAlignedDimension
 13
133.8402306122512
 23
1130.440574461225
 33
0.0
 14
403.8402306122512
 24
1125.375912257144
 34
0.0
100
AcDbRotatedDimension
  0
DIMENSION
  5
13DA
330
A
100
AcDbEntity
  8
DIM
  6
Continuous
100
AcDbDimension
  2
*D13
 10
470.9847889360049
 20
939.4966554664695
 30
0.0
 11
470.9847889360049
 21
1096.99665546647
 31
0.0
 70
   160
 71
     5
 42
315.0
 73
     0
 74
     0
 75
     0
  3
tfrom線あり
100
AcDbAlignedDimension
 13
360.2857436182203
 23
1254.49665546647
 33
0.0
 14
325.3329198829219
 24
939.4966554664695
 34
0.0
 50
90.0
100
AcDbRotatedDimension
  0
DIMENSION
  5
13DB
330
A
100
AcDbEntity
  8
DIM
  6
Continuous
100
AcDbDimension
  2
*D14
 10
98.3703553499988
 20
964.4966554664695
 30
0.0
 11
98.37035534999882
 21
1074.49665546647
 31
0.0
 70
   160
 71
     5
 42
220.0000000000005
 73
     0
 74
     0
 75
     0
  3
tfrom線あり
100
AcDbAlignedDimension
 13
170.6726066337105
 23
1184.49665546647
 33
0.0
 14
170.6726066337105
 24
964.4966554664695
 34
0.0
 50
90.0
100
AcDbRotatedDimension
1001
ACAD
1000
DSTYLE
1002
{
1070
     3
1000
<>
1002
}
  0
LINE
  5
13DC
330
A
100
AcDbEntity
  8
DIM
  6
Continuous
100
AcDbLine
 10
275.5557616305084
 20
1235.321095829457
 30
0.0
 11
321.2310935438722
 21
1300.283149910632
 31
0.0
  0
MTEXT
  5
13DD
330
A
100
AcDbEntity
  8
DIM
390
1D
100
AcDbMText
 10
324.7333713626663
 20
1315.471383733973
 30
0.0
 40
12.0
 41
949.7161250932044
 46
27.888
 71
     1
 72
     1
  1
{\C7;φ35}
  7
ＭＳ ゴシック
 73
     1
 44
0.9822934569727008
1001
ACAD
1000
ACAD_MTEXT_DEFINED_HEIGHT_BEGIN
1070
    46
1040
27.888
1000
ACAD_MTEXT_DEFINED_HEIGHT_END
  0
DIMENSION
  5
13DE
102
{ACAD_REACTORS
330
13E0
102
}
102
{ACAD_XDICTIONARY
360
13DF
102
}
330
A
100
AcDbEntity
  8
DIM
  6
Continuous
100
AcDbDimension
  2
*D15
 10
979.54436537169
 20
701.682516400082
 30
0.0
 11
979.54436537169
 21
595.6058669449676
 31
0.0
 70
   160
  1
210～250
 71
     5
 42
212.1532989102288
 73
     0
 74
     0
 75
     0
  3
tfrom線あり
100
AcDbAlignedDimension
 13
893.2073561195327
 23
489.5292174898532
 33
0.0
 14
873.6131243431689
 24
701.682516400082
 34
0.0
 50
90.0
100
AcDbRotatedDimension
  0
DIMENSION
  5
13E1
330
A
100
AcDbEntity
  8
DIM
  6
Continuous
100
AcDbDimension
  2
*D16
 10
693.3998023098777
 20
591.682516400082
 30
0.0
 11
693.3998023098777
 21
770.4445164000821
 31
0.0
 70
   160
  1
110(深さ)
 71
     5
 42
110.0
 73
     0
 74
     1
 75
     1
  3
tfrom線あり
100
AcDbAlignedDimension
 13
715.9015026778409
 23
701.682516400082
 33
0.0
 14
715.9015026778409
 24
591.682516400082
 34
0.0
 50
89.99999999999999
100
AcDbRotatedDimension
1001
ACAD
1000
DSTYLE
1002
{
1070
     3
1000
<>
1070
   172
1070
     1
1070
    75
1070
     1
1070
    76
1070
     1
1002
}
  0
MTEXT
  5
146E
330
A
100
AcDbEntity
  8
TEMPLATE
390
1D
100
AcDbMText
 10
664.601072273995
 20
199.9685812070225
 30
0.0
 40
12.21630859375
 41
0.0
 46
13.64561669921875
 71
     1
 72
     1
  1
{BRS70-0410-003(ブラック)}
  7
ＭＳ ゴシック
 73
     1
 44
0.7828267384257843
1001
ACAD
1000
ACAD_MTEXT_DEFINED_HEIGHT_BEGIN
1070
    46
1040
13.64561669921875
1000
ACAD_MTEXT_DEFINED_HEIGHT_END
  0
MTEXT
  5
146F
330
A
100
AcDbEntity
  8
TEMPLATE
390
1D
100
AcDbMText
 10
664.601072273995
 20
218.3392867463811
 30
0.0
 40
12.21630859375
 41
0.0
 46
13.64561669921875
 71
     1
 72
     1
  1
{BRS70-0410-002(プラチナ/ホワイト)}
  7
ＭＳ ゴシック
 73
     1
 44
0.7828267384257843
1001
ACAD
1000
ACAD_MTEXT_DEFINED_HEIGHT_BEGIN
1070
    46
1040
13.64561669921875
1000
ACAD_MTEXT_DEFINED_HEIGHT_END
  0
MTEXT
  5
1470
330
A
100
AcDbEntity
  8
TEMPLATE
390
1D
100
AcDbMText
 10
664.601072273995
 20
236.7099922857397
 30
0.0
 40
12.21630859375
 41
0.0
 46
13.64561669921875
 71
     1
 72
     1
  1
{BRS70-0410-001(ホワイト)}
  7
ＭＳ ゴシック
 73
     1
 44
0.7828267384257843
1001
ACAD
1000
ACAD_MTEXT_DEFINED_HEIGHT_BEGIN
1070
    46
1040
13.64561669921875
1000
ACAD_MTEXT_DEFINED_HEIGHT_END
  0
ELLIPSE
  5
14D5
330
A
100
AcDbEntity
  8
HIDDEN
  6
HIDDEN
 48
0.05
100
AcDbEllipse
 10
268.8402306122512
 20
1074.49665546647
 30
0.0
 11
0.0
 21
-29.00000000000006
 31
0.0
210
0.0
220
0.0
230
1.0
 40
1.0
 41
-2.50454150377926
 42
2.504541545422333
  0
DIMENSION
  5
14F2
102
{ACAD_REACTORS
330
14F4
102
}
102
{ACAD_XDICTIONARY
360
14F3
102
}
330
A
100
AcDbEntity
  8
DIM
 48
0.05
100
AcDbDimension
  2
*D17
 10
348.8402306122512
 20
1294.847579596896
 30
0.0
 11
268.8402306122512
 21
1310.847579596896
 31
0.0
 70
    32
 71
     5
 42
160.0
 73
     0
 74
     0
 75
     0
  3
tfrom線あり
100
AcDbAlignedDimension
 13
188.8402306122512
 23
1254.49665546647
 33
0.0
 14
348.8402306122512
 24
1254.49665546647
 34
0.0
100
AcDbRotatedDimension
  0
LINE
  5
1512
330
A
100
AcDbEntity
  8
HIDDEN
 48
0.05
100
AcDbLine
 10
821.1131243431689
 20
701.682516400082
 30
0.0
 11
821.1131243431689
 21
684.6385975379889
 31
0.0
  0
LINE
  5
1513
330
A
100
AcDbEntity
  8
HIDDEN
 48
0.05
100
AcDbLine
 10
856.1131243431689
 20
701.682516400082
 30
0.0
 11
856.1131243431689
 21
684.6385975379889
 31
0.0
  0
LINE
  5
1558
330
A
100
AcDbEntity
  8
HIDDEN
  6
Continuous
 48
0.05
100
AcDbLine
 10
664.4417733554743
 20
571.682516400082
 30
0.0
 11
664.4417733554739
 21
581.6767353258409
 31
0.0
  0
ARC
  5
155F
330
A
100
AcDbEntity
  8
HIDDEN
 48
0.05
100
AcDbCircle
 10
674.7602143541548
 20
667.9509715775428
 30
0.0
 40
86.8890906009363
100
AcDbArc
 50
234.6366110313292
 51
263.1797929043887
  0
LINE
  5
1562
330
A
100
AcDbEntity
  8
HIDDEN
 48
0.05
100
AcDbLine
 10
675.2528070844921
 20
563.8547786063867
 30
0.0
 11
675.2528070844921
 21
549.6052922689369
 31
0.0
  0
LINE
  5
1563
330
A
100
AcDbEntity
  8
HIDDEN
 48
0.05
100
AcDbLine
 10
711.9734416018443
 20
563.8547786063867
 30
0.0
 11
711.9734416018443
 21
549.6052922689369
 31
0.0
  0
ARC
  5
1567
330
A
100
AcDbEntity
  8
HIDDEN
 48
0.05
100
AcDbCircle
 10
712.0393902656007
 20
667.9509715775428
 30
0.0
 40
86.8890906009363
100
AcDbArc
 50
276.8202070956114
 51
305.3633889686707
  0
LINE
  5
1568
330
A
100
AcDbEntity
  8
HIDDEN
  6
Continuous
 48
0.05
100
AcDbLine
 10
721.8415484769672
 20
571.682516400082
 30
0.0
 11
721.8415484769674
 21
581.6767353258409
 31
0.0
  0
LINE
  5
1569
330
A
100
AcDbEntity
  8
HIDDEN
 48
0.05
100
AcDbLine
 10
664.4417733554743
 20
571.682516400082
 30
0.0
 11
721.8415484769672
 21
571.682516400082
 31
0.0
  0
LINE
  5
156D
330
A
100
AcDbEntity
  8
HIDDEN
 48
0.05
100
AcDbLine
 10
668.4230979059266
 20
571.682516400082
 30
0.0
 11
668.4230979059266
 21
563.8547786063867
 31
0.0
  0
LINE
  5
1570
330
A
100
AcDbEntity
  8
HIDDEN
 48
0.05
100
AcDbLine
 10
717.8602239265147
 20
563.8547786063867
 30
0.0
 11
668.4230979059266
 21
563.8547786063867
 31
0.0
  0
LINE
  5
1571
330
A
100
AcDbEntity
  8
HIDDEN
 48
0.05
100
AcDbLine
 10
717.8602239265147
 20
571.682516400082
 30
0.0
 11
717.8602239265147
 21
563.8547786063867
 31
0.0
  0
LINE
  5
15A4
330
A
100
AcDbEntity
  8
HIDDEN
  6
Continuous
 48
0.05
100
AcDbLine
 10
240.1403430544765
 20
571.682516400082
 30
0.0
 11
240.140343054476
 21
581.6767353258409
 31
0.0
  0
LINE
  5
15A6
330
A
100
AcDbEntity
  8
HIDDEN
 48
0.05
100
AcDbLine
 10
244.1216676049288
 20
571.682516400082
 30
0.0
 11
244.1216676049288
 21
563.8547786063867
 31
0.0
  0
LINE
  5
15A7
330
A
100
AcDbEntity
  8
HIDDEN
 48
0.05
100
AcDbLine
 10
293.5587936255168
 20
563.8547786063867
 30
0.0
 11
244.1216676049288
 21
563.8547786063867
 31
0.0
  0
LINE
  5
15A8
330
A
100
AcDbEntity
  8
HIDDEN
 48
0.05
100
AcDbLine
 10
293.5587936255168
 20
571.682516400082
 30
0.0
 11
293.5587936255168
 21
563.8547786063867
 31
0.0
  0
LINE
  5
15A9
330
A
100
AcDbEntity
  8
HIDDEN
 48
0.05
100
AcDbLine
 10
250.9513767834943
 20
563.8547786063867
 30
0.0
 11
250.9513767834943
 21
549.6052922689369
 31
0.0
  0
LINE
  5
15AA
330
A
100
AcDbEntity
  8
HIDDEN
 48
0.05
100
AcDbLine
 10
287.6720113008465
 20
563.8547786063867
 30
0.0
 11
287.6720113008465
 21
549.6052922689369
 31
0.0
  0
LINE
  5
15AB
330
A
100
AcDbEntity
  8
HIDDEN
  6
Continuous
 48
0.05
100
AcDbLine
 10
297.5401181759694
 20
571.682516400082
 30
0.0
 11
297.5401181759696
 21
581.6767353258409
 31
0.0
  0
ARC
  5
15AC
330
A
100
AcDbEntity
  8
HIDDEN
 48
0.05
100
AcDbCircle
 10
250.4587840531569
 20
667.9509715775428
 30
0.0
 40
86.8890906009363
100
AcDbArc
 50
234.6366110313292
 51
263.1797929043886
  0
ARC
  5
15AD
330
A
100
AcDbEntity
  8
HIDDEN
 48
0.05
100
AcDbCircle
 10
287.7379599646029
 20
667.9509715775428
 30
0.0
 40
86.8890906009363
100
AcDbArc
 50
276.8202070956114
 51
305.3633889686707
  0
SPLINE
  5
15CB
330
A
100
AcDbEntity
  8
MODEL
 48
0.05
100
AcDbSpline
210
0.0
220
0.0
230
1.0
 70
     8
 71
     3
 72
    26
 73
    22
 74
     0
 42
0.000000001
 43
0.00000001
 40
0.7441158305550136
 40
0.7441158305550136
 40
0.7441158305550136
 40
0.7441158305550136
 40
0.7500000000000069
 40
0.7500000000000069
 40
0.7656250000000067
 40
0.7656250000000067
 40
0.7734375000000064
 40
0.7734375000000064
 40
0.7812500000000062
 40
0.7812500000000062
 40
0.8125000000000053
 40
0.8125000000000053
 40
0.8437500000000044
 40
0.8437500000000044
 40
0.859375000000004
 40
0.859375000000004
 40
0.8750000000000036
 40
0.8750000000000036
 40
0.9375000000000018
 40
0.9375000000000018
 40
1.0
 40
1.0
 40
1.0
 40
1.0
 10
330.5144837846713
 20
429.0910862991248
 30
0.0
 10
330.4258013630843
 20
428.970135619532
 30
0.0
 10
330.3366693400382
 20
428.8506728296224
 30
0.0
 10
330.0092907272692
 20
428.419398539254
 30
0.0
 10
329.7685368007287
 20
428.1165468832678
 30
0.0
 10
329.404564406067
 20
427.6777217630029
 30
0.0
 10
329.2827743901862
 20
427.5340220412781
 30
0.0
 10
329.038622638348
 20
427.2517382004389
 30
0.0
 10
328.9173205936886
 20
427.1130686842789
 30
0.0
 10
328.2919573603058
 20
426.4339267551281
 30
0.0
 10
327.7376105846842
 20
425.9354532933598
 30
0.0
 10
326.5251055522594
 20
425.0246298131478
 30
0.0
 10
325.8669288785595
 20
424.6122964936999
 30
0.0
 10
324.7999236332825
 20
424.0564994158581
 30
0.0
 10
324.4302586486219
 20
423.881439739444
 30
0.0
 10
323.6688161153497
 20
423.554263612763
 30
0.0
 10
323.276616824477
 20
423.4018745709709
 30
0.0
 10
321.2566814145675
 20
422.6935287214528
 30
0.0
 10
319.4544359123674
 20
422.298332115859
 30
0.0
 10
315.399589615633
 20
421.792643678009
 30
0.0
 10
313.1457163010264
 20
421.682516400082
 30
0.0
 10
310.6083507082431
 20
421.682516400082
 30
0.0
  0
SPLINE
  5
15CC
330
A
100
AcDbEntity
  8
MODEL
100
AcDbSpline
210
0.0
220
0.0
230
1.0
 70
     8
 71
     3
 72
    36
 73
    32
 74
     0
 42
0.000000001
 43
0.00000001
 40
0.0
 40
0.0
 40
0.0
 40
0.0
 40
0.0679298472714253
 40
0.1326685028032926
 40
0.1942035969230438
 40
0.252540223033166
 40
0.3076995852452865
 40
0.3588159080488172
 40
0.4069479711413637
 40
0.4521523082281382
 40
0.4944943232718541
 40
0.541270193909068
 40
0.5842256816261157
 40
0.6235014493999919
 40
0.6592424983254673
 40
0.6915949386550502
 40
0.7207030058465437
 40
0.7500190936068912
 40
0.7755201328050672
 40
0.7973854695610467
 40
0.8168499131740402
 40
0.8370384318118365
 40
0.8580787854290133
 40
0.8726611072166235
 40
0.8875732464567769
 40
0.9027917934888372
 40
0.9182923795450464
 40
0.9348750778929206
 40
0.9542562775268957
 40
0.9766153569922237
 40
1.0
 40
1.0
 40
1.0
 40
1.0
 10
403.8402266790426
 20
701.682516400082
 30
0.0
 10
403.7874884362381
 20
695.1386255043708
 30
0.0
 10
403.6844894748856
 20
682.3582610178619
 30
0.0
 10
402.8766427530127
 20
663.6645265528259
 30
0.0
 10
401.6689661267146
 20
645.9204486850381
 30
0.0
 10
400.0789947364747
 20
629.1327445897418
 30
0.0
 10
398.1868769391649
 20
613.3872233403658
 30
0.0
 10
396.0500396020716
 20
598.665854742902
 30
0.0
 10
393.7240499733661
 20
584.9450953180772
 30
0.0
 10
391.2390982046991
 20
572.1122887221632
 30
0.0
 10
388.4883897813042
 20
559.4675867687461
 30
0.0
 10
385.4797633040352
 20
547.1041332696682
 30
0.0
 10
382.2252810376585
 20
535.1090709962791
 30
0.0
 10
378.9691994629529
 20
524.2199272993189
 30
0.0
 10
375.7596307949634
 20
514.3865334935158
 30
0.0
 10
372.6398696131209
 20
505.557220402598
 30
0.0
 10
369.5355067132105
 20
497.3816162726089
 30
0.0
 10
366.4884916066139
 20
489.8926076059929
 30
0.0
 10
363.543792942487
 20
483.1177579016598
 30
0.0
 10
360.8498733364895
 20
477.270778875727
 30
0.0
 10
358.2625462022106
 20
471.93974839882
 30
0.0
 10
355.6032953555105
 20
466.7323256406689
 30
0.0
 10
353.0514389806112
 20
461.9995811299432
 30
0.0
 10
350.6532454383769
 20
457.7631707435448
 30
0.0
 10
348.4647184798587
 20
454.0534972700461
 30
0.0
 10
346.1591694411536
 20
450.3113443171842
 30
0.0
 10
343.6897382743254
 20
446.4826761749268
 30
0.0
 10
340.9099212034844
 20
442.378645227438
 30
0.0
 10
337.6384798310528
 20
437.8307742508791
 30
0.0
 10
333.8396690915751
 20
432.8749365870481
 30
0.0
 10
330.9932709014529
 20
429.552837678877
 30
0.0
 10
329.5381640160549
 20
427.854547885132
 30
0.0
  0
VIEWPORT
  5
349
330
B
100
AcDbEntity
 67
     1
  8
0
100
AcDbViewport
 10
202.5
 20
128.5
 30
0.0
 40
486.0
 41
308.4
 68
     1
 69
     1
 12
202.5
 22
128.5
 13
0.0
 23
0.0
 14
0.5
 24
0.5
 15
0.0
 25
0.0
 16
0.0
 26
0.0
 36
1.0
 17
0.0
 27
0.0
 37
0.0
 42
50.0
 43
0.0
 44
0.0
 45
308.4
 50
0.0
 51
0.0
 72
   100
 90
   557152
  1

281
     0
 71
     1
 74
     0
110
0.0
120
0.0
130
0.0
111
1.0
121
0.0
131
0.0
112
0.0
122
1.0
132
0.0
 79
     0
146
0.0
170
     0
 61
     5
348
26C
292
     1
282
     1
141
0.0
142
0.0
 63
   256
  0
VIEWPORT
  5
34A
330
B
100
AcDbEntity
 67
     1
  8
0
100
AcDbViewport
 10
202.5
 20
128.5
 30
0.0
 40
324.0
 41
205.6
 68
     2
 69
     2
 12
986.6781359294573
 22
1427.077061889956
 13
0.0
 23
0.0
 14
0.5
 24
0.5
 15
0.0
 25
0.0
 16
0.0
 26
0.0
 36
1.0
 17
0.0
 27
0.0
 37
0.0
 42
50.0
 43
0.0
 44
0.0
 45
2890.021615685494
 50
0.0
 51
0.0
 72
   100
 90
   557152
  1

281
     0
 71
     1
 74
     0
110
0.0
120
0.0
130
0.0
111
1.0
121
0.0
131
0.0
112
0.0
122
1.0
132
0.0
 79
     0
146
0.0
170
     0
 61
     5
348
26C
292
     1
282
     1
141
0.0
142
0.0
 63
   256
  0
ENDSEC
  0
SECTION
  2
OBJECTS
  0
DICTIONARY
  5
19
330
0
100
AcDbDictionary
281
     1
  3
ACAD_COLOR
350
674
  3
ACAD_DETAILVIEWSTYLE
350
BBF
  3
ACAD_GROUP
350
1A
  3
ACAD_IMAGE_VARS
350
27B
  3
ACAD_LAYOUT
350
1E
  3
ACAD_MATERIAL
350
263
  3
ACAD_MLEADERSTYLE
350
336
  3
ACAD_MLINESTYLE
350
1B
  3
ACAD_PLOTSETTINGS
350
22
  3
ACAD_PLOTSTYLENAME
350
1F
  3
ACAD_SCALELIST
350
241
  3
ACAD_SECTIONVIEWSTYLE
350
BC0
  3
ACAD_TABLESTYLE
350
278
  3
ACAD_VISUALSTYLE
350
267
  3
ACDB_RECOMPOSE_DATA
350
15E7
  3
AcDbVariableDictionary
350
330
  3
APPDATA
350
27A
  3
DimOffsetDictionary
350
1494
  0
SUN
  5
904
330
15
100
AcDbSun
 90
        1
290
     0
 63
     7
421
 16777215
 40
1.0
291
     1
 91
  2455826
 92
 54000000
292
     0
 70
     2
 71
   256
280
     1
  0
DICTIONARY
  5
2E1
330
2
100
AcDbDictionary
280
     1
281
     1
  3
ACAD_LAYERSTATES
360
2E2
  3
ACLYDICTIONARY
360
DDE
  0
DICTIONARY
  5
13D1
330
13D0
100
AcDbDictionary
280
     1
281
     1
  3
ACAD_DIMASSOC
360
13D2
  0
DICTIONARY
  5
13D4
330
13D3
100
AcDbDictionary
280
     1
281
     1
  3
ACAD_DIMASSOC
360
13D5
  0
DICTIONARY
  5
13D7
330
13D6
100
AcDbDictionary
280
     1
281
     1
  3
ACAD_DIMASSOC
360
13D8
  0
DICTIONARY
  5
13DF
330
13DE
100
AcDbDictionary
280
     1
281
     1
  3
ACAD_DIMASSOC
360
13E0
  0
DICTIONARY
  5
14F3
330
14F2
100
AcDbDictionary
280
     1
281
     1
  3
ACAD_DIMASSOC
360
14F4
  0
DICTIONARY
  5
674
102
{ACAD_REACTORS
330
19
102
}
330
19
100
AcDbDictionary
281
     1
  0
DICTIONARY
  5
BBF
102
{ACAD_REACTORS
330
19
102
}
330
19
100
AcDbDictionary
281
     1
  0
DICTIONARY
  5
1A
102
{ACAD_REACTORS
330
19
102
}
330
19
100
AcDbDictionary
281
     1
  0
RASTERVARIABLES
  5
27B
102
{ACAD_REACTORS
330
19
102
}
330
19
100
AcDbRasterVariables
 90
        0
 70
     1
 71
     1
 72
     1
  0
DICTIONARY
  5
1E
102
{ACAD_REACTORS
330
19
102
}
330
19
100
AcDbDictionary
281
     1
  3
Layout1
350
21
  3
Model
350
20
  0
DICTIONARY
  5
263
102
{ACAD_REACTORS
330
19
102
}
330
19
100
AcDbDictionary
281
     1
  3
ByBlock
350
15CA
  3
ByLayer
350
264
  3
Global
350
266
  0
DICTIONARY
  5
336
102
{ACAD_REACTORS
330
19
102
}
330
19
100
AcDbDictionary
281
     1
  3
Standard
350
D59
  0
DICTIONARY
  5
1B
102
{ACAD_REACTORS
330
19
102
}
330
19
100
AcDbDictionary
281
     1
  3
Standard
350
1C
  0
DICTIONARY
  5
22
102
{ACAD_REACTORS
330
19
102
}
330
19
100
AcDbDictionary
281
     1
  0
ACDBDICTIONARYWDFLT
  5
1F
102
{ACAD_REACTORS
330
19
102
}
330
19
100
AcDbDictionary
281
     1
  3
Normal
350
1D
100
AcDbDictionaryWithDefault
340
1D
  0
DICTIONARY
  5
241
102
{ACAD_REACTORS
330
19
102
}
330
19
100
AcDbDictionary
281
     1
  3
A0
350
242
  3
A1
350
243
  3
A2
350
244
  3
A3
350
245
  3
A4
350
246
  3
A5
350
247
  3
A6
350
248
  3
A7
350
249
  3
A8
350
24A
  3
A9
350
24B
  3
B0
350
24C
  3
B1
350
24D
  3
B2
350
24E
  3
B3
350
24F
  3
B4
350
250
  3
B5
350
251
  3
B6
350
252
  3
B7
350
253
  3
B8
350
254
  3
B9
350
255
  3
C0
350
256
  3
C1
350
257
  3
C2
350
258
  3
C3
350
259
  3
C4
350
25A
  3
C5
350
25B
  3
C6
350
25C
  3
C7
350
25D
  3
C8
350
25E
  3
C9
350
25F
  3
D0
350
260
  3
D1
350
261
  3
D2
350
262
  0
DICTIONARY
  5
BC0
102
{ACAD_REACTORS
330
19
102
}
330
19
100
AcDbDictionary
281
     1
  0
DICTIONARY
  5
278
102
{ACAD_REACTORS
330
19
102
}
330
19
100
AcDbDictionary
281
     1
  3
Standard
350
279
  0
DICTIONARY
  5
267
102
{ACAD_REACTORS
330
19
102
}
330
19
100
AcDbDictionary
281
     1
  3
2dWireframe
350
26C
  3
3D Hidden
350
26E
  3
3dWireframe
350
26D
  3
Basic
350
26F
  3
Brighten
350
273
  3
ColorChange
350
277
  3
Conceptual
350
271
  3
Dim
350
272
  3
EdgeColorOff
350
8FE
  3
Facepattern
350
276
  3
Flat
350
268
  3
FlatWithEdges
350
269
  3
Gouraud
350
26A
  3
GouraudWithEdges
350
26B
  3
Hidden
350
8FB
  3
JitterOff
350
8FC
  3
Linepattern
350
275
  3
OverhangOff
350
8FD
  3
Realistic
350
270
  3
Shaded
350
903
  3
Shaded with edges
350
902
  3
Shades of Gray
350
8FF
  3
Sketchy
350
900
  3
Thicken
350
274
  3
Wireframe
350
8FA
  3
X-Ray
350
901
  0
XRECORD
  5
15E7
102
{ACAD_REACTORS
330
19
102
}
330
19
100
AcDbXrecord
280
     1
 90
        1
330
279
  0
DICTIONARY
  5
330
102
{ACAD_REACTORS
330
19
102
}
330
19
100
AcDbDictionary
281
     1
  3
CANNOSCALE
350
331
  3
CMLEADERSTYLE
350
D5E
  3
CTABLESTYLE
350
335
  3
HPTRANSPARENCY
350
D52
  3
XCLIPFRAME
350
896
  0
DICTIONARY
  5
27A
102
{ACAD_REACTORS
330
19
102
}
330
19
100
AcDbDictionary
281
     1
  0
DICTIONARY
  5
1494
102
{ACAD_REACTORS
330
19
102
}
330
19
100
AcDbDictionary
281
     1
  3
DIMRAILANGLE
350
1497
  3
DIMRAILFIRSTOFFSET
350
1495
  3
DIMRAILOFFSET
350
1496
  3
DIMRAILSENABLED
350
1498
  0
DICTIONARY
  5
2E2
102
{ACAD_REACTORS
330
2E1
102
}
330
2E1
100
AcDbDictionary
281
     1
  3
ARGON_LAYERP_9
350
7AA
  0
DICTIONARY
  5
DDE
102
{ACAD_REACTORS
330
2E1
102
}
330
2E1
100
AcDbDictionary
281
     1
1001
ACAD
1000
<All
  0
DIMASSOC
  5
13D2
102
{ACAD_REACTORS
330
13D1
102
}
330
13D1
100
AcDbDimAssoc
330
13D0
 90
        3
 70
     0
 71
     1
  1
AcDbOsnapPointRef
 72
     1
331
11CD
 73
     0
 91
        0
 40
0.0
 10
0.0
 20
0.0
 30
0.0
 75
     0
  1
AcDbOsnapPointRef
 72
     1
331
11CD
 73
     0
 91
        0
 40
0.0
 10
0.0
 20
0.0
 30
0.0
 75
     0
  0
DIMASSOC
  5
13D5
102
{ACAD_REACTORS
330
13D4
102
}
330
13D4
100
AcDbDimAssoc
330
13D3
 90
        3
 70
     0
 71
     1
  1
AcDbOsnapPointRef
 72
     1
331
11CD
 73
     0
 91
        0
 40
0.0
 10
0.0
 20
0.0
 30
0.0
 75
     0
  1
AcDbOsnapPointRef
 72
    13
331
11CC
 73
     0
 91
        0
 40
0.0
 10
0.0
 20
0.0
 30
0.0
 75
     0
  0
DIMASSOC
  5
13D8
102
{ACAD_REACTORS
330
13D7
102
}
330
13D7
100
AcDbDimAssoc
330
13D6
 90
        1
 70
     0
 71
     1
  1
AcDbOsnapPointRef
 72
    13
331
11AA
 73
     0
 91
        0
 40
0.0
 10
0.0
 20
0.0
 30
0.0
 75
     0
  0
DIMASSOC
  5
13E0
102
{ACAD_REACTORS
330
13DF
102
}
330
13DF
100
AcDbDimAssoc
330
13DE
 90
        3
 70
     0
 71
     1
  1
AcDbOsnapPointRef
 72
     1
331
13B4
 73
     0
 91
        0
 40
0.0
 10
0.0
 20
0.0
 30
0.0
 75
     0
  1
AcDbOsnapPointRef
 72
     1
331
11CD
 73
     0
 91
        0
 40
0.0
 10
0.0
 20
0.0
 30
0.0
 75
     0
  0
DIMASSOC
  5
14F4
102
{ACAD_REACTORS
330
14F3
102
}
330
14F3
100
AcDbDimAssoc
330
14F2
 90
        3
 70
     0
 71
     1
  1
AcDbOsnapPointRef
 72
    13
331
11C1
 73
     0
 91
        0
 40
0.0
 10
0.0
 20
0.0
 30
0.0
 75
     0
  1
AcDbOsnapPointRef
 72
    13
331
11BE
 73
     0
 91
        0
 40
0.0
 10
0.0
 20
0.0
 30
0.0
 75
     0
  0
LAYOUT
  5
21
102
{ACAD_REACTORS
330
1E
102
}
330
1E
100
AcDbPlotSettings
  1

  2
none_device
  4
ISO_A3_(420.00_x_297.00_MM)
  6

 40
7.5
 41
20.0
 42
7.5
 43
20.0
 44
420.0
 45
297.0
 46
0.0
 47
0.0
 48
0.0
 49
0.0
140
0.0
141
0.0
142
1.0
143
1.0
 70
     0
 72
     1
 73
     0
 74
     0
  7

 75
     0
 76
     0
 77
     2
 78
   300
147
1.0
148
0.0
149
0.0
100
AcDbLayout
  1
Layout1
 70
     0
 71
     0
 10
-7.5
 20
-20.0
 11
412.5
 21
277.0
 12
0.0
 22
0.0
 32
0.0
 14
0.0
 24
0.0
 34
0.0
 15
0.0
 25
0.0
 35
0.0
146
0.0
 13
0.0
 23
0.0
 33
0.0
 16
0.0
 26
0.0
 36
0.0
 17
0.0
 27
0.0
 37
0.0
 76
     0
330
B
331
349
  0
LAYOUT
  5
20
102
{ACAD_REACTORS
330
1E
102
}
330
1E
100
AcDbPlotSettings
  1

  2
none_device
  4
ISO_A3_(420.00_x_297.00_MM)
  6

 40
7.5
 41
20.0
 42
7.5
 43
20.0
 44
420.0
 45
297.0
 46
0.0
 47
0.0
 48
0.0
 49
0.0
140
0.0
141
0.0
142
1.0
143
1.0
 70
  1024
 72
     1
 73
     0
 74
     0
  7

 75
     0
 76
     0
 77
     2
 78
   300
147
1.0
148
0.0
149
0.0
100
AcDbLayout
  1
Model
 70
     0
 71
     1
 10
0.0
 20
0.0
 11
1050.0
 21
1485.0
 12
0.0
 22
0.0
 32
0.0
 14
0.0
 24
0.0
 34
0.0
 15
1050.0
 25
1485.0
 35
0.0000000000000071
146
0.0
 13
0.0
 23
0.0
 33
0.0
 16
0.0
 26
0.0
 36
0.0
 17
0.0
 27
0.0
 37
0.0
 76
     0
330
A
331
15
  0
MATERIAL
  5
15CA
102
{ACAD_REACTORS
330
263
102
}
330
263
100
AcDbMaterial
  1
ByBlock
 72
     1
 94
      127
  0
MATERIAL
  5
264
102
{ACAD_REACTORS
330
263
102
}
330
263
100
AcDbMaterial
  1
ByLayer
 72
     1
 94
      127
  0
MATERIAL
  5
266
102
{ACAD_REACTORS
330
263
102
}
330
263
100
AcDbMaterial
  1
Global
 72
     1
 94
      127
  0
MLEADERSTYLE
  5
D59
102
{ACAD_REACTORS
330
336
102
}
330
336
100
AcDbMLeaderStyle
170
     2
171
     1
172
     0
 90
        2
 40
0.0
 41
0.0
173
     1
 91
-1056964608
340
11
 92
       -2
290
     1
 42
2.0
291
     1
 43
8.0
  3
Standard
341
0
 44
4.0
300

342
17
174
     1
178
     6
175
     1
176
     0
 93
-1056964608
 45
4.0
292
     0
297
     0
 46
4.0
343
0
 94
-1056964608
 47
1.0
 49
1.0
140
1.0
293
     1
141
0.0
294
     1
177
     0
142
1.0
295
     0
296
     0
143
3.75
1001
ACAD_MLEADERVER
1070
     2
  0
MLINESTYLE
  5
1C
102
{ACAD_REACTORS
330
1B
102
}
330
1B
100
AcDbMlineStyle
  2
Standard
 70
     0
  3

 62
     0
 51
90.0
 52
90.0
 71
     2
 49
0.5
 62
   256
  6
BYLAYER
 49
-0.5
 62
   256
  6
BYLAYER
  0
ACDBPLACEHOLDER
  5
1D
102
{ACAD_REACTORS
330
1F
102
}
330
1F
  0
SCALE
  5
242
102
{ACAD_REACTORS
330
241
102
}
330
241
100
AcDbScale
 70
     0
300
1:1
140
1.0
141
1.0
290
     1
  0
SCALE
  5
243
102
{ACAD_REACTORS
330
241
102
}
330
241
100
AcDbScale
 70
     0
300
1:2
140
1.0
141
2.0
290
     0
  0
SCALE
  5
244
102
{ACAD_REACTORS
330
241
102
}
330
241
100
AcDbScale
 70
     0
300
1:4
140
1.0
141
4.0
290
     0
  0
SCALE
  5
245
102
{ACAD_REACTORS
330
241
102
}
330
241
100
AcDbScale
 70
     0
300
1:5
140
1.0
141
5.0
290
     0
  0
SCALE
  5
246
102
{ACAD_REACTORS
330
241
102
}
330
241
100
AcDbScale
 70
     0
300
1:8
140
1.0
141
8.0
290
     0
  0
SCALE
  5
247
102
{ACAD_REACTORS
330
241
102
}
330
241
100
AcDbScale
 70
     0
300
1:10
140
1.0
141
10.0
290
     0
  0
SCALE
  5
248
102
{ACAD_REACTORS
330
241
102
}
330
241
100
AcDbScale
 70
     0
300
1:16
140
1.0
141
16.0
290
     0
  0
SCALE
  5
249
102
{ACAD_REACTORS
330
241
102
}
330
241
100
AcDbScale
 70
     0
300
1:20
140
1.0
141
20.0
290
     0
  0
SCALE
  5
24A
102
{ACAD_REACTORS
330
241
102
}
330
241
100
AcDbScale
 70
     0
300
1:30
140
1.0
141
30.0
290
     0
  0
SCALE
  5
24B
102
{ACAD_REACTORS
330
241
102
}
330
241
100
AcDbScale
 70
     0
300
1:40
140
1.0
141
40.0
290
     0
  0
SCALE
  5
24C
102
{ACAD_REACTORS
330
241
102
}
330
241
100
AcDbScale
 70
     0
300
1:50
140
1.0
141
50.0
290
     0
  0
SCALE
  5
24D
102
{ACAD_REACTORS
330
241
102
}
330
241
100
AcDbScale
 70
     0
300
1:100
140
1.0
141
100.0
290
     0
  0
SCALE
  5
24E
102
{ACAD_REACTORS
330
241
102
}
330
241
100
AcDbScale
 70
     0
300
2:1
140
2.0
141
1.0
290
     0
  0
SCALE
  5
24F
102
{ACAD_REACTORS
330
241
102
}
330
241
100
AcDbScale
 70
     0
300
4:1
140
4.0
141
1.0
290
     0
  0
SCALE
  5
250
102
{ACAD_REACTORS
330
241
102
}
330
241
100
AcDbScale
 70
     0
300
8:1
140
8.0
141
1.0
290
     0
  0
SCALE
  5
251
102
{ACAD_REACTORS
330
241
102
}
330
241
100
AcDbScale
 70
     0
300
10:1
140
10.0
141
1.0
290
     0
  0
SCALE
  5
252
102
{ACAD_REACTORS
330
241
102
}
330
241
100
AcDbScale
 70
     0
300
100:1
140
100.0
141
1.0
290
     0
  0
SCALE
  5
253
102
{ACAD_REACTORS
330
241
102
}
330
241
100
AcDbScale
 70
     0
300
1/128" = 1'-0"
140
0.0078125
141
12.0
290
     0
  0
SCALE
  5
254
102
{ACAD_REACTORS
330
241
102
}
330
241
100
AcDbScale
 70
     0
300
1/64" = 1'-0"
140
0.015625
141
12.0
290
     0
  0
SCALE
  5
255
102
{ACAD_REACTORS
330
241
102
}
330
241
100
AcDbScale
 70
     0
300
1/32" = 1'-0"
140
0.03125
141
12.0
290
     0
  0
SCALE
  5
256
102
{ACAD_REACTORS
330
241
102
}
330
241
100
AcDbScale
 70
     0
300
1/16" = 1'-0"
140
0.0625
141
12.0
290
     0
  0
SCALE
  5
257
102
{ACAD_REACTORS
330
241
102
}
330
241
100
AcDbScale
 70
     0
300
3/32" = 1'-0"
140
0.09375
141
12.0
290
     0
  0
SCALE
  5
258
102
{ACAD_REACTORS
330
241
102
}
330
241
100
AcDbScale
 70
     0
300
1/8" = 1'-0"
140
0.125
141
12.0
290
     0
  0
SCALE
  5
259
102
{ACAD_REACTORS
330
241
102
}
330
241
100
AcDbScale
 70
     0
300
3/16" = 1'-0"
140
0.1875
141
12.0
290
     0
  0
SCALE
  5
25A
102
{ACAD_REACTORS
330
241
102
}
330
241
100
AcDbScale
 70
     0
300
1/4" = 1'-0"
140
0.25
141
12.0
290
     0
  0
SCALE
  5
25B
102
{ACAD_REACTORS
330
241
102
}
330
241
100
AcDbScale
 70
     0
300
3/8" = 1'-0"
140
0.375
141
12.0
290
     0
  0
SCALE
  5
25C
102
{ACAD_REACTORS
330
241
102
}
330
241
100
AcDbScale
 70
     0
300
1/2" = 1'-0"
140
0.5
141
12.0
290
     0
  0
SCALE
  5
25D
102
{ACAD_REACTORS
330
241
102
}
330
241
100
AcDbScale
 70
     0
300
3/4" = 1'-0"
140
0.75
141
12.0
290
     0
  0
SCALE
  5
25E
102
{ACAD_REACTORS
330
241
102
}
330
241
100
AcDbScale
 70
     0
300
1" = 1'-0"
140
1.0
141
12.0
290
     0
  0
SCALE
  5
25F
102
{ACAD_REACTORS
330
241
102
}
330
241
100
AcDbScale
 70
     0
300
1-1/2" = 1'-0"
140
1.5
141
12.0
290
     0
  0
SCALE
  5
260
102
{ACAD_REACTORS
330
241
102
}
330
241
100
AcDbScale
 70
     0
300
3" = 1'-0"
140
3.0
141
12.0
290
     0
  0
SCALE
  5
261
102
{ACAD_REACTORS
330
241
102
}
330
241
100
AcDbScale
 70
     0
300
6" = 1'-0"
140
6.0
141
12.0
290
     0
  0
SCALE
  5
262
102
{ACAD_REACTORS
330
241
102
}
330
241
100
AcDbScale
 70
     0
300
1'-0" = 1'-0"
140
12.0
141
12.0
290
     0
  0
TABLESTYLE
  5
279
102
{ACAD_REACTORS
330
278
102
}
102
{ACAD_XDICTIONARY
360
15E5
102
}
330
278
100
AcDbTableStyle
  3
Standard
 70
     0
 71
     0
 40
0.06
 41
0.06
280
     0
281
     0
  7
Standard
140
4.5
170
     2
 62
     0
 63
   257
283
     0
 90
        4
 91
        0
  1

274
    -2
284
     1
 64
     0
275
    -2
285
     1
 65
     0
276
    -2
286
     1
 66
     0
277
    -2
287
     1
 67
     0
278
    -2
288
     1
 68
     0
279
    -2
289
     1
 69
     0
  7
Standard
140
6.0
170
     5
 62
     0
 63
   257
283
     0
 90
        4
 91
        0
  1

274
    -2
284
     1
 64
     0
275
    -2
285
     1
 65
     0
276
    -2
286
     1
 66
     0
277
    -2
287
     1
 67
     0
278
    -2
288
     1
 68
     0
279
    -2
289
     1
 69
     0
  7
Standard
140
4.5
170
     5
 62
     0
 63
   257
283
     0
 90
        4
 91
        0
  1

274
    -2
284
     1
 64
     0
275
    -2
285
     1
 65
     0
276
    -2
286
     1
 66
     0
277
    -2
287
     1
 67
     0
278
    -2
288
     1
 68
     0
279
    -2
289
     1
 69
     0
  0
VISUALSTYLE
  5
26C
102
{ACAD_REACTORS
330
267
102
}
330
267
100
AcDbVisualStyle
  2
2dWireframe
 70
     4
 71
     0
 72
     2
 73
     0
 90
        0
 40
-0.6
 41
-30.0
 62
     5
 63
     7
421
 16777215
 74
     1
 91
        4
 64
     7
 65
   257
 75
     1
175
     1
 42
1.0
 92
        0
 66
   257
 43
1.0
 76
     1
 77
     6
 78
     2
 67
     7
 79
     5
170
     0
171
     0
290
     0
174
     0
 93
        1
 44
0.0
173
     0
291
     0
 45
0.0
  0
VISUALSTYLE
  5
26E
102
{ACAD_REACTORS
330
267
102
}
330
267
100
AcDbVisualStyle
  2
3D Hidden
 70
     6
 71
     1
 72
     2
 73
     2
 90
        0
 40
-0.6
 41
-30.0
 62
     5
 63
     7
421
 16777215
 74
     2
 91
        2
 64
     7
 65
   257
 75
     2
175
     1
 42
40.0
 92
        0
 66
   257
 43
1.0
 76
     1
 77
     6
 78
     2
 67
     7
 79
     3
170
     0
171
     0
290
     0
174
     0
 93
        1
 44
0.0
173
     0
291
     0
 45
0.0
  0
VISUALSTYLE
  5
26D
102
{ACAD_REACTORS
330
267
102
}
330
267
100
AcDbVisualStyle
  2
3dWireframe
 70
     5
 71
     0
 72
     2
 73
     0
 90
        0
 40
-0.6
 41
-30.0
 62
     5
 63
     7
421
 16777215
 74
     1
 91
        4
 64
     7
 65
   257
 75
     1
175
     1
 42
1.0
 92
        0
 66
   257
 43
1.0
 76
     1
 77
     6
 78
     2
 67
     7
 79
     5
170
     0
171
     0
290
     0
174
     0
 93
        1
 44
0.0
173
     0
291
     0
 45
0.0
  0
VISUALSTYLE
  5
26F
102
{ACAD_REACTORS
330
267
102
}
330
267
100
AcDbVisualStyle
  2
Basic
 70
     7
 71
     1
 72
     0
 73
     1
 90
        0
 40
-0.6
 41
-30.0
 62
     5
 63
     7
421
 16777215
 74
     0
 91
        4
 64
     7
 65
   257
 75
     1
175
     1
 42
1.0
 92
        8
 66
     7
 43
1.0
 76
     1
 77
     6
 78
     2
 67
     7
 79
     5
170
     0
171
     0
290
     0
174
     0
 93
        1
 44
0.0
173
     0
291
     1
 45
0.0
  0
VISUALSTYLE
  5
273
102
{ACAD_REACTORS
330
267
102
}
330
267
100
AcDbVisualStyle
  2
Brighten
 70
    12
 71
     2
 72
     2
 73
     0
 90
        0
 40
-0.6
 41
-30.0
 62
     5
 63
     7
421
 16777215
 74
     1
 91
        4
 64
     7
 65
   257
 75
     1
175
     1
 42
1.0
 92
        8
 66
     7
 43
1.0
 76
     1
 77
     6
 78
     2
 67
     7
 79
     5
170
     0
171
     0
290
     0
174
     0
 93
        1
 44
50.0
173
     0
291
     1
 45
0.0
  0
VISUALSTYLE
  5
277
102
{ACAD_REACTORS
330
267
102
}
330
267
100
AcDbVisualStyle
  2
ColorChange
 70
    16
 71
     2
 72
     2
 73
     3
 90
        0
 40
-0.6
 41
-30.0
 62
     5
 63
     8
421
  8421504
 74
     1
 91
        4
 64
     7
 65
   257
 75
     1
175
     1
 42
1.0
 92
        8
 66
     8
424
  8421504
 43
1.0
 76
     1
 77
     6
 78
     2
 67
     7
 79
     5
170
     0
171
     0
290
     0
174
     0
 93
        1
 44
0.0
173
     0
291
     1
 45
0.0
  0
VISUALSTYLE
  5
271
102
{ACAD_REACTORS
330
267
102
}
330
267
100
AcDbVisualStyle
  2
Conceptual
 70
     9
 71
     3
 72
     2
 73
     0
 90
        0
 40
-0.6
 41
-30.0
 62
     5
 63
     7
421
 16777215
 74
     2
 91
        2
 64
     7
 65
   257
 75
     1
175
     1
 42
40.0
 92
        8
 66
     7
 43
1.0
 76
     1
 77
     6
 78
     2
 67
     7
 79
     3
170
     0
171
     0
290
     0
174
     0
 93
        1
 44
0.0
173
     0
291
     0
 45
0.0
  0
VISUALSTYLE
  5
272
102
{ACAD_REACTORS
330
267
102
}
330
267
100
AcDbVisualStyle
  2
Dim
 70
    11
 71
     2
 72
     2
 73
     0
 90
        0
 40
-0.6
 41
-30.0
 62
     5
 63
     7
421
 16777215
 74
     1
 91
        4
 64
     7
 65
   257
 75
     1
175
     1
 42
1.0
 92
        8
 66
     7
 43
1.0
 76
     1
 77
     6
 78
     2
 67
     7
 79
     5
170
     0
171
     0
290
     0
174
     0
 93
        1
 44
-50.0
173
     0
291
     1
 45
0.0
  0
VISUALSTYLE
  5
8FE
102
{ACAD_REACTORS
330
267
102
}
330
267
100
AcDbVisualStyle
  2
EdgeColorOff
 70
    22
 71
     2
 72
     2
 73
     0
 90
        0
 40
0.6
 41
30.0
 62
     5
 63
     7
421
 16777215
 74
     1
 91
        4
 64
     7
 65
   257
 75
     1
175
     1
 42
1.0
 92
        8
 66
     7
 43
1.0
 76
     1
 77
     6
 78
     2
 67
     7
 79
     5
170
     0
171
     0
290
     0
174
     0
 93
        1
 44
0.0
173
     0
291
     1
 45
0.0
  0
VISUALSTYLE
  5
276
102
{ACAD_REACTORS
330
267
102
}
330
267
100
AcDbVisualStyle
  2
Facepattern
 70
    15
 71
     2
 72
     2
 73
     0
 90
        0
 40
-0.6
 41
-30.0
 62
     5
 63
     7
421
 16777215
 74
     1
 91
        4
 64
     7
 65
   257
 75
     1
175
     1
 42
1.0
 92
        8
 66
     7
 43
1.0
 76
     1
 77
     6
 78
     2
 67
     7
 79
     5
170
     0
171
     0
290
     0
174
     0
 93
        1
 44
0.0
173
     0
291
     1
 45
0.0
  0
VISUALSTYLE
  5
268
102
{ACAD_REACTORS
330
267
102
}
330
267
100
AcDbVisualStyle
  2
Flat
 70
     0
 71
     2
 72
     1
 73
     1
 90
        2
 40
-0.6
 41
30.0
 62
     5
 63
     7
421
 16777215
 74
     0
 91
        4
 64
     7
 65
   257
 75
     1
175
     1
 42
1.0
 92
        8
 66
     7
 43
1.0
 76
     1
 77
     6
 78
     2
 67
     7
 79
     5
170
     0
171
     0
290
     0
174
     0
 93
       13
 44
0.0
173
     0
291
     1
 45
0.0
  0
VISUALSTYLE
  5
269
102
{ACAD_REACTORS
330
267
102
}
330
267
100
AcDbVisualStyle
  2
FlatWithEdges
 70
     1
 71
     2
 72
     1
 73
     1
 90
        2
 40
-0.6
 41
30.0
 62
     5
 63
     7
421
 16777215
 74
     1
 91
        4
 64
     7
 65
   257
 75
     1
175
     1
 42
1.0
 92
        0
 66
   257
 43
1.0
 76
     1
 77
     6
 78
     2
 67
     7
 79
     5
170
     0
171
     0
290
     0
174
     0
 93
       13
 44
0.0
173
     0
291
     1
 45
0.0
  0
VISUALSTYLE
  5
26A
102
{ACAD_REACTORS
330
267
102
}
330
267
100
AcDbVisualStyle
  2
Gouraud
 70
     2
 71
     2
 72
     2
 73
     1
 90
        2
 40
-0.6
 41
30.0
 62
     5
 63
     7
421
 16777215
 74
     0
 91
        4
 64
     7
 65
   257
 75
     1
175
     1
 42
1.0
 92
        0
 66
     7
 43
1.0
 76
     1
 77
     6
 78
     2
 67
     7
 79
     5
170
     0
171
     0
290
     0
174
     0
 93
       13
 44
0.0
173
     0
291
     1
 45
0.0
  0
VISUALSTYLE
  5
26B
102
{ACAD_REACTORS
330
267
102
}
330
267
100
AcDbVisualStyle
  2
GouraudWithEdges
 70
     3
 71
     2
 72
     2
 73
     1
 90
        2
 40
-0.6
 41
30.0
 62
     5
 63
     7
421
 16777215
 74
     1
 91
        4
 64
     7
 65
   257
 75
     1
175
     1
 42
1.0
 92
        0
 66
   257
 43
1.0
 76
     1
 77
     6
 78
     2
 67
     7
 79
     5
170
     0
171
     0
290
     0
174
     0
 93
       13
 44
0.0
173
     0
291
     1
 45
0.0
  0
VISUALSTYLE
  5
8FB
102
{ACAD_REACTORS
330
267
102
}
330
267
100
AcDbVisualStyle
  2
Hidden
 70
     6
 71
     1
 72
     2
 73
     2
 90
        0
 40
0.6
 41
30.0
 62
     5
 63
     7
421
 16777215
 74
     2
 91
        2
 64
     7
 65
   257
 75
     2
175
     1
 42
40.0
 92
        0
 66
   257
 43
1.0
 76
     1
 77
     6
 78
     2
 67
     7
 79
     3
170
     0
171
     0
290
     0
174
     0
 93
        1
 44
0.0
173
     0
291
     0
 45
0.0
  0
VISUALSTYLE
  5
8FC
102
{ACAD_REACTORS
330
267
102
}
330
267
100
AcDbVisualStyle
  2
JitterOff
 70
    20
 71
     2
 72
     2
 73
     0
 90
        0
 40
0.6
 41
30.0
 62
     5
 63
     7
421
 16777215
 74
     1
 91
        4
 64
     7
 65
   257
 75
     1
175
     1
 42
1.0
 92
       10
 66
     7
 43
1.0
 76
     1
 77
     6
 78
     2
 67
     7
 79
     5
170
     0
171
     0
290
     0
174
     0
 93
        1
 44
0.0
173
     0
291
     1
 45
0.0
  0
VISUALSTYLE
  5
275
102
{ACAD_REACTORS
330
267
102
}
330
267
100
AcDbVisualStyle
  2
Linepattern
 70
    14
 71
     2
 72
     2
 73
     0
 90
        0
 40
-0.6
 41
-30.0
 62
     5
 63
     7
421
 16777215
 74
     1
 91
        4
 64
     7
 65
   257
 75
     7
175
     7
 42
1.0
 92
        8
 66
     7
 43
1.0
 76
     1
 77
     6
 78
     2
 67
     7
 79
     5
170
     0
171
     0
290
     0
174
     0
 93
        1
 44
0.0
173
     0
291
     1
 45
0.0
  0
VISUALSTYLE
  5
8FD
102
{ACAD_REACTORS
330
267
102
}
330
267
100
AcDbVisualStyle
  2
OverhangOff
 70
    21
 71
     2
 72
     2
 73
     0
 90
        0
 40
0.6
 41
30.0
 62
     5
 63
     7
421
 16777215
 74
     1
 91
        4
 64
     7
 65
   257
 75
     1
175
     1
 42
1.0
 92
        9
 66
     7
 43
1.0
 76
     1
 77
     6
 78
     2
 67
     7
 79
     5
170
     0
171
     0
290
     0
174
     0
 93
        1
 44
0.0
173
     0
291
     1
 45
0.0
  0
VISUALSTYLE
  5
270
102
{ACAD_REACTORS
330
267
102
}
330
267
100
AcDbVisualStyle
  2
Realistic
 70
     8
 71
     2
 72
     2
 73
     0
 90
        0
 40
-0.6
 41
-30.0
 62
     5
 63
     7
421
 16777215
 74
     1
 91
        0
 64
     7
 65
   257
 75
     1
175
     1
 42
1.0
 92
        8
 66
     8
424
  7895160
 43
1.0
 76
     1
 77
     6
 78
     2
 67
     7
 79
     5
170
     0
171
     0
290
     0
174
     0
 93
       13
 44
0.0
173
     0
291
     0
 45
0.0
  0
VISUALSTYLE
  5
903
102
{ACAD_REACTORS
330
267
102
}
330
267
100
AcDbVisualStyle
  2
Shaded
 70
    27
 71
     2
 72
     2
 73
     1
 90
        2
 40
0.6
 41
30.0
 62
     5
 63
     7
421
 16777215
 74
     0
 91
        4
 64
     7
 65
   257
 75
     1
175
     1
 42
1.0
 92
        8
 66
   257
 43
1.0
 76
     1
 77
     6
 78
     2
 67
     8
425
  7895160
 79
     3
170
     0
171
     0
290
     0
174
     0
 93
        5
 44
0.0
173
     0
291
     0
 45
0.0
  0
VISUALSTYLE
  5
902
102
{ACAD_REACTORS
330
267
102
}
330
267
100
AcDbVisualStyle
  2
Shaded with edges
 70
    26
 71
     2
 72
     2
 73
     1
 90
        2
 40
0.6
 41
30.0
 62
     5
 63
     7
421
 16777215
 74
     1
 91
       10
 64
     7
 65
   257
 75
     2
175
     1
 42
1.0
 92
        8
 66
   257
 43
1.0
 76
     1
 77
     6
 78
     2
 67
     7
 79
     3
170
     0
171
     0
290
     0
174
     0
 93
        5
 44
0.0
173
     0
291
     0
 45
0.0
  0
VISUALSTYLE
  5
8FF
102
{ACAD_REACTORS
330
267
102
}
330
267
100
AcDbVisualStyle
  2
Shades of Gray
 70
    23
 71
     2
 72
     2
 73
     3
 90
        0
 40
0.6
 41
30.0
 62
     5
 63
     7
421
 16777215
 74
     2
 91
        2
 64
     7
 65
     7
 75
     1
175
     1
 42
40.0
 92
        8
 66
     7
 43
1.0
 76
     1
 77
     6
 78
     2
 67
     7
 79
     3
170
     0
171
     0
290
     0
174
     0
 93
        1
 44
0.0
173
     0
291
     0
 45
0.0
  0
VISUALSTYLE
  5
900
102
{ACAD_REACTORS
330
267
102
}
330
267
100
AcDbVisualStyle
  2
Sketchy
 70
    24
 71
     1
 72
     2
 73
     2
 90
        0
 40
0.6
 41
30.0
 62
     5
 63
     7
421
 16777215
 74
     2
 91
        2
 64
     7
 65
     7
 75
     1
175
     1
 42
40.0
 92
       11
 66
     7
 43
1.0
 76
     1
 77
     6
 78
     2
 67
     7
 79
     6
170
     0
171
     0
290
     0
174
     0
 93
        1
 44
0.0
173
     0
291
     0
 45
0.0
  0
VISUALSTYLE
  5
274
102
{ACAD_REACTORS
330
267
102
}
330
267
100
AcDbVisualStyle
  2
Thicken
 70
    13
 71
     2
 72
     2
 73
     0
 90
        0
 40
-0.6
 41
-30.0
 62
     5
 63
     7
421
 16777215
 74
     1
 91
        4
 64
     7
 65
   257
 75
     1
175
     1
 42
1.0
 92
       12
 66
     7
 43
1.0
 76
     1
 77
     6
 78
     2
 67
     7
 79
     5
170
     0
171
     0
290
     0
174
     0
 93
        1
 44
0.0
173
     0
291
     1
 45
0.0
  0
VISUALSTYLE
  5
8FA
102
{ACAD_REACTORS
330
267
102
}
330
267
100
AcDbVisualStyle
  2
Wireframe
 70
     5
 71
     0
 72
     2
 73
     0
 90
        0
 40
0.6
 41
30.0
 62
     5
 63
     7
421
 16777215
 74
     1
 91
        4
 64
     7
 65
   257
 75
     1
175
     1
 42
1.0
 92
        0
 66
   257
 43
1.0
 76
     1
 77
     6
 78
     2
 67
     7
 79
     3
170
     0
171
     0
290
     0
174
     0
 93
        1
 44
0.0
173
     0
291
     0
 45
0.0
  0
VISUALSTYLE
  5
901
102
{ACAD_REACTORS
330
267
102
}
330
267
100
AcDbVisualStyle
  2
X-Ray
 70
    25
 71
     2
 72
     2
 73
     1
 90
        1
 40
0.5
 41
30.0
 62
     5
 63
     7
421
 16777215
 74
     1
 91
        0
 64
     7
 65
   257
 75
     1
175
     1
 42
1.0
 92
        8
 66
     7
 43
1.0
 76
     1
 77
     6
 78
     2
 67
     7
 79
     3
170
     0
171
     0
290
     0
174
     0
 93
       13
 44
0.0
173
     0
291
     0
 45
0.0
  0
DICTIONARYVAR
  5
331
102
{ACAD_REACTORS
330
330
102
}
330
330
100
DictionaryVariables
280
     0
  1
1:1
  0
DICTIONARYVAR
  5
D5E
102
{ACAD_REACTORS
330
330
102
}
330
330
100
DictionaryVariables
280
     0
  1
Standard
  0
DICTIONARYVAR
  5
335
102
{ACAD_REACTORS
330
330
102
}
330
330
100
DictionaryVariables
280
     0
  1
Standard
  0
DICTIONARYVAR
  5
D52
102
{ACAD_REACTORS
330
330
102
}
330
330
100
DictionaryVariables
280
     0
  1
ByLayer
  0
DICTIONARYVAR
  5
896
102
{ACAD_REACTORS
330
330
102
}
330
330
100
DictionaryVariables
280
     0
  1
0
  0
DICTIONARYVAR
  5
1497
102
{ACAD_REACTORS
330
1494
102
}
330
1494
100
DictionaryVariables
280
     0
  1
0.261799
  0
DICTIONARYVAR
  5
1495
102
{ACAD_REACTORS
330
1494
102
}
330
1494
100
DictionaryVariables
280
     0
  1
0.400000
  0
DICTIONARYVAR
  5
1496
102
{ACAD_REACTORS
330
1494
102
}
330
1494
100
DictionaryVariables
280
     0
  1
0.250000
  0
DICTIONARYVAR
  5
1498
102
{ACAD_REACTORS
330
1494
102
}
330
1494
100
DictionaryVariables
280
     0
  1
1
  0
XRECORD
  5
7AA
102
{ACAD_REACTORS
330
2E2
102
}
330
2E2
100
AcDbXrecord
280
     1
 91
    34815
301

290
     0
302
HIDDEN
330
14
 90
        8
 62
     7
370
    -3
331
13
  1
Color_7
440
 33554687
330
4B
 90
        8
 62
     7
370
    20
331
13
  1
Color_7
440
 33554687
330
4C
 90
        8
 62
     3
370
    13
331
13
  1
Color_3
440
 33554687
330
4D
 90
        8
 62
     7
370
    20
331
13
  1
Color_7
440
 33554687
330
667
 90
        8
 62
     7
370
    -3
331
13
  1
Color_7
440
 33554687
330
88C
 90
        8
 62
     8
370
    20
331
D6D
  1
Color_8
440
 33554687
330
D6B
 90
        0
 62
     4
370
    20
331
D6C
  1
Color_4
440
 33554687
330
D8C
 90
        0
 62
     7
370
    -3
331
13
  1
Color_7
440
 33554687
  0
DICTIONARY
  5
15E5
330
279
100
AcDbDictionary
280
     1
281
     1
  3
ACAD_ROUNDTRIP_2008_TABLESTYLE_CELLSTYLEMAP
360
15E6
  0
CELLSTYLEMAP
  5
15E6
102
{ACAD_REACTORS
330
15E5
102
}
330
15E5
100
AcDbCellStyleMap
 90
        3
300
CELLSTYLE
  1
TABLEFORMAT_BEGIN
 90
        5
170
     1
 91
        0
 92
    32768
 62
   257
 93
        1
300
CONTENTFORMAT
  1
CONTENTFORMAT_BEGIN
 90
        0
 91
        0
 92
        4
 93
        0
300

 40
0.0
140
1.0
 94
        5
 62
     0
340
17
144
6.0
309
CONTENTFORMAT_END
171
     1
301
MARGIN
  1
CELLMARGIN_BEGIN
 40
0.06
 40
0.06
 40
0.06
 40
0.06
 40
0.18
 40
0.18
309
CELLMARGIN_END
 94
        6
 95
        1
302
GRIDFORMAT
  1
GRIDFORMAT_BEGIN
 90
        0
 91
        1
 62
     0
 92
       -2
340
0
 93
        0
 40
0.045
309
GRIDFORMAT_END
 95
        2
302
GRIDFORMAT
  1
GRIDFORMAT_BEGIN
 90
        0
 91
        1
 62
     0
 92
       -2
340
0
 93
        0
 40
0.045
309
GRIDFORMAT_END
 95
        4
302
GRIDFORMAT
  1
GRIDFORMAT_BEGIN
 90
        0
 91
        1
 62
     0
 92
       -2
340
0
 93
        0
 40
0.045
309
GRIDFORMAT_END
 95
        8
302
GRIDFORMAT
  1
GRIDFORMAT_BEGIN
 90
        0
 91
        1
 62
     0
 92
       -2
340
0
 93
        0
 40
0.045
309
GRIDFORMAT_END
 95
       16
302
GRIDFORMAT
  1
GRIDFORMAT_BEGIN
 90
        0
 91
        1
 62
     0
 92
       -2
340
0
 93
        0
 40
0.045
309
GRIDFORMAT_END
 95
       32
302
GRIDFORMAT
  1
GRIDFORMAT_BEGIN
 90
        0
 91
        1
 62
     0
 92
       -2
340
0
 93
        0
 40
0.045
309
GRIDFORMAT_END
309
TABLEFORMAT_END
  1
CELLSTYLE_BEGIN
 90
        1
 91
        1
300
_TITLE
309
CELLSTYLE_END
300
CELLSTYLE
  1
TABLEFORMAT_BEGIN
 90
        5
170
     1
 91
        0
 92
        0
 62
   257
 93
        1
300
CONTENTFORMAT
  1
CONTENTFORMAT_BEGIN
 90
        0
 91
        0
 92
        4
 93
        0
300

 40
0.0
140
1.0
 94
        5
 62
     0
340
17
144
4.5
309
CONTENTFORMAT_END
171
     1
301
MARGIN
  1
CELLMARGIN_BEGIN
 40
0.06
 40
0.06
 40
0.06
 40
0.06
 40
0.18
 40
0.18
309
CELLMARGIN_END
 94
        6
 95
        1
302
GRIDFORMAT
  1
GRIDFORMAT_BEGIN
 90
        0
 91
        1
 62
     0
 92
       -2
340
0
 93
        0
 40
0.045
309
GRIDFORMAT_END
 95
        2
302
GRIDFORMAT
  1
GRIDFORMAT_BEGIN
 90
        0
 91
        1
 62
     0
 92
       -2
340
0
 93
        0
 40
0.045
309
GRIDFORMAT_END
 95
        4
302
GRIDFORMAT
  1
GRIDFORMAT_BEGIN
 90
        0
 91
        1
 62
     0
 92
       -2
340
0
 93
        0
 40
0.045
309
GRIDFORMAT_END
 95
        8
302
GRIDFORMAT
  1
GRIDFORMAT_BEGIN
 90
        0
 91
        1
 62
     0
 92
       -2
340
0
 93
        0
 40
0.045
309
GRIDFORMAT_END
 95
       16
302
GRIDFORMAT
  1
GRIDFORMAT_BEGIN
 90
        0
 91
        1
 62
     0
 92
       -2
340
0
 93
        0
 40
0.045
309
GRIDFORMAT_END
 95
       32
302
GRIDFORMAT
  1
GRIDFORMAT_BEGIN
 90
        0
 91
        1
 62
     0
 92
       -2
340
0
 93
        0
 40
0.045
309
GRIDFORMAT_END
309
TABLEFORMAT_END
  1
CELLSTYLE_BEGIN
 90
        2
 91
        1
300
_HEADER
309
CELLSTYLE_END
300
CELLSTYLE
  1
TABLEFORMAT_BEGIN
 90
        5
170
     1
 91
        0
 92
        0
 62
   257
 93
        1
300
CONTENTFORMAT
  1
CONTENTFORMAT_BEGIN
 90
        0
 91
        0
 92
        4
 93
        0
300

 40
0.0
140
1.0
 94
        2
 62
     0
340
17
144
4.5
309
CONTENTFORMAT_END
171
     1
301
MARGIN
  1
CELLMARGIN_BEGIN
 40
0.06
 40
0.06
 40
0.06
 40
0.06
 40
0.18
 40
0.18
309
CELLMARGIN_END
 94
        6
 95
        1
302
GRIDFORMAT
  1
GRIDFORMAT_BEGIN
 90
        0
 91
        1
 62
     0
 92
       -2
340
0
 93
        0
 40
0.045
309
GRIDFORMAT_END
 95
        2
302
GRIDFORMAT
  1
GRIDFORMAT_BEGIN
 90
        0
 91
        1
 62
     0
 92
       -2
340
0
 93
        0
 40
0.045
309
GRIDFORMAT_END
 95
        4
302
GRIDFORMAT
  1
GRIDFORMAT_BEGIN
 90
        0
 91
        1
 62
     0
 92
       -2
340
0
 93
        0
 40
0.045
309
GRIDFORMAT_END
 95
        8
302
GRIDFORMAT
  1
GRIDFORMAT_BEGIN
 90
        0
 91
        1
 62
     0
 92
       -2
340
0
 93
        0
 40
0.045
309
GRIDFORMAT_END
 95
       16
302
GRIDFORMAT
  1
GRIDFORMAT_BEGIN
 90
        0
 91
        1
 62
     0
 92
       -2
340
0
 93
        0
 40
0.045
309
GRIDFORMAT_END
 95
       32
302
GRIDFORMAT
  1
GRIDFORMAT_BEGIN
 90
        0
 91
        1
 62
     0
 92
       -2
340
0
 93
        0
 40
0.045
309
GRIDFORMAT_END
309
TABLEFORMAT_END
  1
CELLSTYLE_BEGIN
 90
        3
 91
        2
300
_DATA
309
CELLSTYLE_END
  0
ENDSEC
  0
EOF
