  0
SECTION
  2
HEADER
  9
$ACADVER
  1
AC1021
  9
$ACADMAINTVER
 70
    25
  9
$DWGCODEPAGE
  3
ANSI_932
  9
$LASTSAVEDBY
  1
howeNelson
  9
$INSBASE
 10
0.0
 20
0.0
 30
0.0
  9
$EXTMIN
 10
0.0
 20
0.0
 30
0.0
  9
$EXTMAX
 10
1050.0
 20
1485.0
 30
0.0000000000000142
  9
$LIMMIN
 10
0.0
 20
0.0
  9
$LIMMAX
 10
1050.0
 20
1485.0
  9
$ORTHOMODE
 70
     0
  9
$REGENMODE
 70
     1
  9
$FILLMODE
 70
     1
  9
$QTEXTMODE
 70
     0
  9
$MIRRTEXT
 70
     1
  9
$LTSCALE
 40
1.0
  9
$ATTMODE
 70
     1
  9
$TEXTSIZE
 40
2.5
  9
$TRACEWID
 40
1.0
  9
$TEXTSTYLE
  7
ＭＳ ゴシック
  9
$CLAYER
  8
DIM
  9
$CELTYPE
  6
ByLayer
  9
$CECOLOR
 62
   256
  9
$CELTSCALE
 40
0.05
  9
$DISPSILH
 70
     0
  9
$DIMSCALE
 40
1.0
  9
$DIMASZ
 40
3.0
  9
$DIMEXO
 40
10.0
  9
$DIMDLI
 40
0.9999999999999999
  9
$DIMRND
 40
0.0
  9
$DIMDLE
 40
0.0
  9
$DIMEXE
 40
0.0
  9
$DIMTP
 40
0.0
  9
$DIMTM
 40
0.0
  9
$DIMTXT
 40
12.0
  9
$DIMCEN
 40
0.0
  9
$DIMTSZ
 40
0.0
  9
$DIMTOL
 70
     0
  9
$DIMLIM
 70
     0
  9
$DIMTIH
 70
     0
  9
$DIMTOH
 70
     0
  9
$DIMSE1
 70
     0
  9
$DIMSE2
 70
     0
  9
$DIMTAD
 70
     1
  9
$DIMZIN
 70
    11
  9
$DIMBLK
  1
DOT
  9
$DIMASO
 70
     1
  9
$DIMSHO
 70
     1
  9
$DIMPOST
  1
<>
  9
$DIMAPOST
  1
[]
  9
$DIMALT
 70
     0
  9
$DIMALTD
 70
     1
  9
$DIMALTF
 40
1.0
  9
$DIMLFAC
 40
1.0
  9
$DIMTOFL
 70
     0
  9
$DIMTVP
 40
0.0
  9
$DIMTIX
 70
     1
  9
$DIMSOXD
 70
     0
  9
$DIMSAH
 70
     0
  9
$DIMBLK1
  1

  9
$DIMBLK2
  1

  9
$DIMSTYLE
  2
tfrom線あり
  9
$DIMCLRD
 70
     0
  9
$DIMCLRE
 70
     0
  9
$DIMCLRT
 70
     0
  9
$DIMTFAC
 40
1.0
  9
$DIMGAP
 40
10.0
  9
$DIMJUST
 70
     0
  9
$DIMSD1
 70
     0
  9
$DIMSD2
 70
     0
  9
$DIMTOLJ
 70
     1
  9
$DIMTZIN
 70
    11
  9
$DIMALTZ
 70
    11
  9
$DIMALTTZ
 70
    11
  9
$DIMUPT
 70
     0
  9
$DIMDEC
 70
     0
  9
$DIMTDEC
 70
     1
  9
$DIMALTU
 70
     2
  9
$DIMALTTD
 70
     2
  9
$DIMTXSTY
  7
ＭＳ ゴシック
  9
$DIMAUNIT
 70
     0
  9
$DIMADEC
 70
     2
  9
$DIMALTRND
 40
0.0
  9
$DIMAZIN
 70
     0
  9
$DIMDSEP
 70
    46
  9
$DIMATFIT
 70
     0
  9
$DIMFRAC
 70
     2
  9
$DIMLDRBLK
  1
DOT
  9
$DIMLUNIT
 70
     2
  9
$DIMLWD
 70
    -2
  9
$DIMLWE
 70
    -2
  9
$DIMTMOVE
 70
     0
  9
$DIMFXL
 40
1.0
  9
$DIMFXLON
 70
     0
  9
$DIMJOGANG
 40
0.7853981633974483
  9
$DIMTFILL
 70
     0
  9
$DIMTFILLCLR
 70
     0
  9
$DIMARCSYM
 70
     0
  9
$DIMLTYPE
  6

  9
$DIMLTEX1
  6

  9
$DIMLTEX2
  6

  9
$LUNITS
 70
     2
  9
$LUPREC
 70
     0
  9
$SKETCHINC
 40
0.1
  9
$FILLETRAD
 40
0.0
  9
$AUNITS
 70
     0
  9
$AUPREC
 70
     0
  9
$MENU
  1
acad
  9
$ELEVATION
 40
0.0
  9
$PELEVATION
 40
0.0
  9
$THICKNESS
 40
0.0
  9
$LIMCHECK
 70
     0
  9
$CHAMFERA
 40
0.0
  9
$CHAMFERB
 40
0.0
  9
$CHAMFERC
 40
0.0
  9
$CHAMFERD
 40
0.0
  9
$SKPOLY
 70
     0
  9
$TDCREATE
 40
2447893.375
  9
$TDUCREATE
 40
0.0
  9
$TDUPDATE
 40
2458072.634894433
  9
$TDUUPDATE
 40
2458072.259894433
  9
$TDINDWG
 40
0.008865706
  9
$TDUSRTIMER
 40
2458072.259185162
  9
$USRTIMER
 70
     1
  9
$ANGBASE
 50
0.0
  9
$ANGDIR
 70
     0
  9
$PDMODE
 70
     1
  9
$PDSIZE
 40
-2.0
  9
$PLINEWID
 40
0.0
  9
$SPLFRAME
 70
     0
  9
$SPLINETYPE
 70
     6
  9
$SPLINESEGS
 70
     8
  9
$HANDSEED
  5
1A9E
  9
$SURFTAB1
 70
     6
  9
$SURFTAB2
 70
     6
  9
$SURFTYPE
 70
     6
  9
$SURFU
 70
     6
  9
$SURFV
 70
     6
  9
$UCSBASE
  2

  9
$UCSNAME
  2

  9
$UCSORG
 10
0.0
 20
0.0
 30
0.0
  9
$UCSXDIR
 10
1.0
 20
0.0
 30
0.0
  9
$UCSYDIR
 10
0.0
 20
1.0
 30
0.0
  9
$UCSORTHOREF
  2

  9
$UCSORTHOVIEW
 70
     0
  9
$UCSORGTOP
 10
0.0
 20
0.0
 30
0.0
  9
$UCSORGBOTTOM
 10
0.0
 20
0.0
 30
0.0
  9
$UCSORGLEFT
 10
0.0
 20
0.0
 30
0.0
  9
$UCSORGRIGHT
 10
0.0
 20
0.0
 30
0.0
  9
$UCSORGFRONT
 10
0.0
 20
0.0
 30
0.0
  9
$UCSORGBACK
 10
0.0
 20
0.0
 30
0.0
  9
$PUCSBASE
  2

  9
$PUCSNAME
  2

  9
$PUCSORG
 10
0.0
 20
0.0
 30
0.0
  9
$PUCSXDIR
 10
1.0
 20
0.0
 30
0.0
  9
$PUCSYDIR
 10
0.0
 20
1.0
 30
0.0
  9
$PUCSORTHOREF
  2

  9
$PUCSORTHOVIEW
 70
     0
  9
$PUCSORGTOP
 10
0.0
 20
0.0
 30
0.0
  9
$PUCSORGBOTTOM
 10
0.0
 20
0.0
 30
0.0
  9
$PUCSORGLEFT
 10
0.0
 20
0.0
 30
0.0
  9
$PUCSORGRIGHT
 10
0.0
 20
0.0
 30
0.0
  9
$PUCSORGFRONT
 10
0.0
 20
0.0
 30
0.0
  9
$PUCSORGBACK
 10
0.0
 20
0.0
 30
0.0
  9
$USERI1
 70
     0
  9
$USERI2
 70
     0
  9
$USERI3
 70
     0
  9
$USERI4
 70
     0
  9
$USERI5
 70
     0
  9
$USERR1
 40
0.0
  9
$USERR2
 40
0.0
  9
$USERR3
 40
0.0
  9
$USERR4
 40
0.0
  9
$USERR5
 40
0.0
  9
$WORLDVIEW
 70
     1
  9
$SHADEDGE
 70
     3
  9
$SHADEDIF
 70
    70
  9
$TILEMODE
 70
     1
  9
$MAXACTVP
 70
    64
  9
$PINSBASE
 10
0.0
 20
0.0
 30
0.0
  9
$PLIMCHECK
 70
     0
  9
$PEXTMIN
 10
0.0
 20
0.0
 30
0.0
  9
$PEXTMAX
 10
0.0
 20
0.0
 30
0.0
  9
$PLIMMIN
 10
-7.5
 20
-20.0
  9
$PLIMMAX
 10
412.5
 20
277.0
  9
$UNITMODE
 70
     0
  9
$VISRETAIN
 70
     0
  9
$PLINEGEN
 70
     1
  9
$PSLTSCALE
 70
     0
  9
$TREEDEPTH
 70
  3020
  9
$CMLSTYLE
  2
Standard
  9
$CMLJUST
 70
     0
  9
$CMLSCALE
 40
1.0
  9
$PROXYGRAPHICS
 70
     0
  9
$MEASUREMENT
 70
     1
  9
$CELWEIGHT
370
    -1
  9
$ENDCAPS
280
     0
  9
$JOINSTYLE
280
     0
  9
$LWDISPLAY
290
     1
  9
$INSUNITS
 70
     4
  9
$HYPERLINKBASE
  1

  9
$STYLESHEET
  1

  9
$XEDIT
290
     1
  9
$CEPSNTYPE
380
     0
  9
$PSTYLEMODE
290
     1
  9
$FINGERPRINTGUID
  2

  9
$VERSIONGUID
  2

  9
$EXTNAMES
290
     1
  9
$PSVPSCALE
 40
0.0
  9
$OLESTARTUP
290
     0
  9
$SORTENTS
280
   127
  9
$INDEXCTL
280
     0
  9
$HIDETEXT
280
     1
  9
$XCLIPFRAME
290
     0
  9
$HALOGAP
280
     0
  9
$OBSCOLOR
 70
   257
  9
$OBSLTYPE
280
     0
  9
$INTERSECTIONDISPLAY
280
     0
  9
$INTERSECTIONCOLOR
 70
   257
  9
$DIMASSOC
280
     2
  9
$PROJECTNAME
  1

  9
$CAMERADISPLAY
290
     0
  9
$LENSLENGTH
 40
50.0
  9
$CAMERAHEIGHT
 40
0.0
  9
$STEPSPERSEC
 40
2.0
  9
$STEPSIZE
 40
6.0
  9
$3DDWFPREC
 40
2.0
  9
$PSOLWIDTH
 40
0.25
  9
$PSOLHEIGHT
 40
4.0
  9
$LOFTANG1
 40
1.570796326794897
  9
$LOFTANG2
 40
1.570796326794897
  9
$LOFTMAG1
 40
0.0
  9
$LOFTMAG2
 40
0.0
  9
$LOFTPARAM
 70
     7
  9
$LOFTNORMALS
280
     1
  9
$LATITUDE
 40
37.795
  9
$LONGITUDE
 40
-122.394
  9
$NORTHDIRECTION
 40
0.0
  9
$TIMEZONE
 70
 -8000
  9
$LIGHTGLYPHDISPLAY
280
     1
  9
$TILEMODELIGHTSYNCH
280
     1
  9
$SOLIDHIST
280
     1
  9
$SHOWHIST
280
     1
  9
$DWFFRAME
280
     2
  9
$DGNFRAME
280
     2
  9
$REALWORLDSCALE
290
     1
  9
$INTERFERECOLOR
 62
   256
  9
$CSHADOW
280
     0
  9
$SHADOWPLANELOCATION
 40
0.0
  0
ENDSEC
  0
SECTION
  2
CLASSES
  0
CLASS
  1
LWPOLYLINE
  2
AcDbPolyline
  3
ObjectDBX Classes
 90
        0
 91
        1
280
     0
281
     1
  0
CLASS
  1
IMAGE
  2
AcDbRasterImage
  3
ISM
 90
      127
 91
        5
280
     0
281
     1
  0
CLASS
  1
OLE2FRAME
  2
AcDbOle2Frame
  3
ObjectDBX Classes
 90
        0
 91
        1
280
     0
281
     1
  0
CLASS
  1
HATCH
  2
AcDbHatch
  3
ObjectDBX Classes
 90
        0
 91
        1
280
     0
281
     1
  0
CLASS
  1
DICTIONARYVAR
  2
AcDbDictionaryVar
  3
ObjectDBX Classes
 90
        0
 91
        4
280
     0
281
     0
  0
CLASS
  1
RASTERVARIABLES
  2
AcDbRasterVariables
  3
ISM
 90
        0
 91
        4
280
     0
281
     0
  0
CLASS
  1
IMAGEDEF
  2
AcDbRasterImageDef
  3
ISM
 90
        0
 91
        4
280
     0
281
     0
  0
CLASS
  1
IMAGEDEF_REACTOR
  2
AcDbRasterImageDefReactor
  3
ISM
 90
        1
 91
        4
280
     0
281
     0
  0
CLASS
  1
IDBUFFER
  2
AcDbIdBuffer
  3
ObjectDBX Classes
 90
        0
 91
        4
280
     0
281
     0
  0
CLASS
  1
SPATIAL_FILTER
  2
AcDbSpatialFilter
  3
ObjectDBX Classes
 90
        0
 91
        4
280
     0
281
     0
  0
CLASS
  1
XRECORD
  2
AcDbXrecord
  3
ObjectDBX Classes
 90
        0
 91
        1
280
     0
281
     0
  0
CLASS
  1
SORTENTSTABLE
  2
AcDbSortentsTable
  3
ObjectDBX Classes
 90
        0
 91
        4
280
     0
281
     0
  0
CLASS
  1
LAYER_INDEX
  2
AcDbLayerIndex
  3
ObjectDBX Classes
 90
        0
 91
        4
280
     0
281
     0
  0
CLASS
  1
SPATIAL_INDEX
  2
AcDbSpatialIndex
  3
AutoCAD 2000
 90
        0
 91
        4
280
     0
281
     0
  0
CLASS
  1
OBJECT_PTR
  2
CAseDLPNTableRecord
  3
ASE-LPNTableRecord
 90
        1
 91
        4
280
     0
281
     0
  0
CLASS
  1
LAYOUT
  2
AcDbLayout
  3
ObjectDBX Classes
 90
        0
 91
        1
280
     0
281
     0
  0
CLASS
  1
PLOTSETTINGS
  2
AcDbPlotSettings
  3
ObjectDBX Classes
 90
        0
 91
        4
280
     0
281
     0
  0
CLASS
  1
ACDBDICTIONARYWDFLT
  2
AcDbDictionaryWithDefault
  3
ObjectDBX Classes
 90
        0
 91
        4
280
     0
281
     0
  0
CLASS
  1
ACDBPLACEHOLDER
  2
AcDbPlaceHolder
  3
ObjectDBX Classes
 90
        0
 91
        1
280
     0
281
     0
  0
CLASS
  1
SCALE
  2
AcDbScale
  3
ObjectDBX Classes
 90
     1153
 91
        4
280
     0
281
     0
  0
CLASS
  1
MATERIAL
  2
AcDbMaterial
  3
ObjectDBX Classes
 90
     1153
 91
        4
280
     0
281
     0
  0
CLASS
  1
VISUALSTYLE
  2
AcDbVisualStyle
  3
ObjectDBX Classes
 90
     4095
 91
        4
280
     0
281
     0
  0
CLASS
  1
TABLESTYLE
  2
AcDbTableStyle
  3
ObjectDBX Classes
 90
     4095
 91
        4
280
     0
281
     0
  0
CLASS
  1
DIMASSOC
  2
AcDbDimAssoc
  3
"AcDbDimAssoc|Product Desc:     AcDim ARX App For Dimension|Company:          Autodesk, Inc.|WEB Address:      www.autodesk.com"
 90
        0
 91
        4
280
     0
281
     0
  0
CLASS
  1
CELLSTYLEMAP
  2
AcDbCellStyleMap
  3
ObjectDBX Classes
 90
     1152
 91
        4
280
     0
281
     0
  0
CLASS
  1
SUN
  2
AcDbSun
  3
SCENEOE
 90
     1153
 91
        4
280
     0
281
     0
  0
CLASS
  1
MLEADERSTYLE
  2
AcDbMLeaderStyle
  3
ACDB_MLEADERSTYLE_CLASS
 90
     4095
 91
        4
280
     0
281
     0
  0
CLASS
  1
FIELD
  2
AcDbField
  3
ObjectDBX Classes
 90
     1152
 91
        4
280
     0
281
     0
  0
CLASS
  1
FIELDLIST
  2
AcDbFieldList
  3
ObjectDBX Classes
 90
     1152
 91
        4
280
     0
281
     0
  0
ENDSEC
  0
SECTION
  2
TABLES
  0
TABLE
  2
VPORT
  5
7
330
0
100
AcDbSymbolTable
 70
     1
  0
VPORT
  5
15
330
7
100
AcDbSymbolTableRecord
100
AcDbViewportTableRecord
  2
*ACTIVE
 70
     0
 10
0.0
 20
0.0
 11
1.0
 21
1.0
 12
616.020135670899
 22
668.901285469834
 13
0.0
 23
0.0
 14
1.0
 24
1.0
 15
0.0
 25
0.0
 16
0.0
 26
0.0
 36
1.0
 17
-91.02013567089898
 27
73.59871453016603
 37
-46.86809886248109
 40
1514.7
 41
2.178082191780822
 42
50.0
 43
0.0
 44
0.0
 50
0.0
 51
0.0
 71
    16
 72
  2000
 73
     1
 74
     1
 75
     0
 76
     0
 77
     0
 78
     0
281
     0
 65
     1
110
0.0
120
0.0
130
0.0
111
1.0
121
0.0
131
0.0
112
0.0
122
1.0
132
0.0
 79
     0
146
0.0
348
26C
 60
     3
 61
     5
292
     1
282
     1
141
0.0
142
0.0
 63
   256
361
904
  0
ENDTAB
  0
TABLE
  2
LTYPE
  5
4
330
0
100
AcDbSymbolTable
 70
    22
  0
LTYPE
  5
11
330
4
100
AcDbSymbolTableRecord
100
AcDbLinetypeTableRecord
  2
ByBlock
 70
     0
  3

 72
    65
 73
     0
 40
0.0
  0
LTYPE
  5
12
330
4
100
AcDbSymbolTableRecord
100
AcDbLinetypeTableRecord
  2
ByLayer
 70
     0
  3

 72
    65
 73
     0
 40
0.0
  0
LTYPE
  5
13
330
4
100
AcDbSymbolTableRecord
100
AcDbLinetypeTableRecord
  2
Continuous
 70
     0
  3
Solid line
 72
    65
 73
     0
 40
0.0
  0
LTYPE
  5
3A
330
4
100
AcDbSymbolTableRecord
100
AcDbLinetypeTableRecord
  2
STYLE_01
 70
     0
  3

 72
    65
 73
     2
 40
0.2460629921259842
 49
0.1230314960629921
 74
     0
 49
-0.1230314960629921
 74
     0
  0
LTYPE
  5
3B
330
4
100
AcDbSymbolTableRecord
100
AcDbLinetypeTableRecord
  2
STYLE_02
 70
     0
  3

 72
    65
 73
     2
 40
0.6944250000000001
 49
0.48607
 74
     0
 49
-0.2083550000000001
 74
     0
  0
LTYPE
  5
3C
330
4
100
AcDbSymbolTableRecord
100
AcDbLinetypeTableRecord
  2
STYLE_03
 70
     0
  3

 72
    65
 73
     2
 40
1.25
 49
1.04164
 74
     0
 49
-0.2083599999999999
 74
     0
  0
LTYPE
  5
3D
330
4
100
AcDbSymbolTableRecord
100
AcDbLinetypeTableRecord
  2
STYLE_04
 70
     0
  3

 72
    65
 73
     2
 40
1.52771
 49
1.319425
 74
     0
 49
-0.208285
 74
     0
  0
LTYPE
  5
3E
330
4
100
AcDbSymbolTableRecord
100
AcDbLinetypeTableRecord
  2
STYLE_05
 70
     0
  3

 72
    65
 73
     2
 40
0.20828
 49
0.069425
 74
     0
 49
-0.138855
 74
     0
  0
LTYPE
  5
3F
330
4
100
AcDbSymbolTableRecord
100
AcDbLinetypeTableRecord
  2
STYLE_06
 70
     0
  3

 72
    65
 73
     4
 40
1.04164
 49
0.625
 74
     0
 49
-0.20828
 74
     0
 49
0.06943
 74
     0
 49
-0.13893
 74
     0
  0
LTYPE
  5
40
330
4
100
AcDbSymbolTableRecord
100
AcDbLinetypeTableRecord
  2
STYLE_07
 70
     0
  3

 72
    65
 73
     6
 40
1.875
 49
0.625
 74
     0
 49
-0.20828
 74
     0
 49
0.6250000000000001
 74
     0
 49
-0.2083599999999999
 74
     0
 49
0.06943
 74
     0
 49
-0.1389299999999999
 74
     0
  0
LTYPE
  5
41
330
4
100
AcDbSymbolTableRecord
100
AcDbLinetypeTableRecord
  2
STYLE_08
 70
     0
  3

 72
    65
 73
     6
 40
1.25
 49
0.625
 74
     0
 49
-0.20828
 74
     0
 49
0.06943
 74
     0
 49
-0.13893
 74
     0
 49
0.0694299999999999
 74
     0
 49
-0.13893
 74
     0
  0
LTYPE
  5
42
330
4
100
AcDbSymbolTableRecord
100
AcDbLinetypeTableRecord
  2
STYLE_09
 70
     0
  3

 72
    65
 73
     4
 40
5.0
 49
3.75
 74
     0
 49
-0.2777849999999998
 74
     0
 49
0.6944300000000003
 74
     0
 49
-0.2777849999999998
 74
     0
  0
LTYPE
  5
43
330
4
100
AcDbSymbolTableRecord
100
AcDbLinetypeTableRecord
  2
STYLE_10
 70
     0
  3

 72
    65
 73
     6
 40
5.9375
 49
3.75
 74
     0
 49
-0.2777849999999998
 74
     0
 49
0.6944300000000003
 74
     0
 49
-0.2777849999999998
 74
     0
 49
0.625
 74
     0
 49
-0.3125
 74
     0
  0
LTYPE
  5
44
330
4
100
AcDbSymbolTableRecord
100
AcDbLinetypeTableRecord
  2
STYLE_11
 70
     0
  3

 72
    65
 73
     2
 40
0.0694444881889764
 49
0.0347222440944882
 74
     0
 49
-0.0347222440944882
 74
     0
  0
LTYPE
  5
45
330
4
100
AcDbSymbolTableRecord
100
AcDbLinetypeTableRecord
  2
STYLE_12
 70
     0
  3

 72
    65
 73
     2
 40
0.3937007874015748
 49
0.1968503937007874
 74
     0
 49
-0.1968503937007874
 74
     0
  0
LTYPE
  5
46
330
4
100
AcDbSymbolTableRecord
100
AcDbLinetypeTableRecord
  2
STYLE_13
 70
     0
  3

 72
    65
 73
     2
 40
0.5905511811023622
 49
0.2952755905511811
 74
     0
 49
-0.2952755905511811
 74
     0
  0
LTYPE
  5
47
330
4
100
AcDbSymbolTableRecord
100
AcDbLinetypeTableRecord
  2
STYLE_14
 70
     0
  3

 72
    65
 73
     2
 40
1.968503937007874
 49
0.9842519685039369
 74
     0
 49
-0.9842519685039369
 74
     0
  0
LTYPE
  5
48
330
4
100
AcDbSymbolTableRecord
100
AcDbLinetypeTableRecord
  2
STYLE_15
 70
     0
  3

 72
    65
 73
     2
 40
0.1875
 49
0.125
 74
     0
 49
-0.0625
 74
     0
  0
LTYPE
  5
49
330
4
100
AcDbSymbolTableRecord
100
AcDbLinetypeTableRecord
  2
STYLE_16
 70
     0
  3

 72
    65
 73
     2
 40
0.3690944881889764
 49
0.2460629921259843
 74
     0
 49
-0.1230314960629922
 74
     0
  0
LTYPE
  5
908
330
4
100
AcDbSymbolTableRecord
100
AcDbLinetypeTableRecord
  2
AI-LINETYPE-1
 70
     0
  3
Adobe Illustrator Linetype No. 1
 72
    65
 73
     4
 40
2.116668062491661
 49
1.058334031245831
 74
     0
 49
-0.3527780104152769
 74
     0
 49
0.3527780104152769
 74
     0
 49
-0.3527780104152769
 74
     0
  0
LTYPE
  5
909
330
4
100
AcDbSymbolTableRecord
100
AcDbLinetypeTableRecord
  2
AI-LINETYPE-2
 70
     0
  3
Adobe Illustrator Linetype No. 2
 72
    65
 73
     4
 40
2.116668062491661
 49
1.058334031245831
 74
     0
 49
-0.3527780104152769
 74
     0
 49
0.3527780104152769
 74
     0
 49
-0.3527780104152769
 74
     0
  0
LTYPE
  5
D6C
330
4
100
AcDbSymbolTableRecord
100
AcDbLinetypeTableRecord
  2
BORDER
 70
     0
  3
Border __  __  . __  __  . __  __  . __  __  . 
 72
    65
 73
     6
 40
44.45
 49
12.7
 74
     0
 49
-6.35
 74
     0
 49
12.7
 74
     0
 49
-6.35
 74
     0
 49
0.0
 74
     0
 49
-6.35
 74
     0
  0
LTYPE
  5
D6D
330
4
100
AcDbSymbolTableRecord
100
AcDbLinetypeTableRecord
  2
HIDDEN
 70
     0
  3
Hidden _ _ _ _ _ _ _ _ _ _ _ _ _ _ _ _ _ _ _ _ 
 72
    65
 73
     2
 40
9.524999999999999
 49
6.35
 74
     0
 49
-3.175
 74
     0
  0
LTYPE
  5
12FF
330
4
100
AcDbSymbolTableRecord
100
AcDbLinetypeTableRecord
  2
CENTER
 70
     0
  3
 Center _____  _  _____  _  _____  _  _____  _ 
 72
    65
 73
     4
 40
50.8
 49
31.75
 74
     0
 49
-6.35
 74
     0
 49
6.35
 74
     0
 49
-6.35
 74
     0
  0
ENDTAB
  0
TABLE
  2
LAYER
  5
2
102
{ACAD_XDICTIONARY
360
2E1
102
}
330
0
100
AcDbSymbolTable
 70
     9
  0
LAYER
  5
14
330
2
100
AcDbSymbolTableRecord
100
AcDbLayerTableRecord
  2
0
 70
     0
 62
     7
  6
Continuous
370
    -3
390
1D
347
266
  0
LAYER
  5
4B
330
2
100
AcDbSymbolTableRecord
100
AcDbLayerTableRecord
  2
TEMPLATE
 70
     0
 62
     7
  6
Continuous
370
    20
390
1D
347
266
  0
LAYER
  5
4C
330
2
100
AcDbSymbolTableRecord
100
AcDbLayerTableRecord
  2
DIM
 70
     0
 62
     3
  6
Continuous
370
    13
390
1D
347
266
  0
LAYER
  5
4D
330
2
100
AcDbSymbolTableRecord
100
AcDbLayerTableRecord
  2
MODEL
 70
     0
 62
     7
  6
Continuous
370
    20
390
1D
347
266
  0
LAYER
  5
667
330
2
100
AcDbSymbolTableRecord
100
AcDbLayerTableRecord
  2
LOGO
 70
     0
 62
     7
  6
Continuous
370
    -3
390
1D
347
266
  0
LAYER
  5
88C
330
2
100
AcDbSymbolTableRecord
100
AcDbLayerTableRecord
  2
HIDDEN
 70
     0
 62
     8
  6
HIDDEN
370
    20
390
1D
347
266
1001
AcAecLayerStandard
1000

1000

  0
LAYER
  5
D6B
330
2
100
AcDbSymbolTableRecord
100
AcDbLayerTableRecord
  2
BORDER
 70
     0
 62
     4
  6
BORDER
290
     0
370
    20
390
1D
347
266
1001
AcAecLayerStandard
1000

1000

  0
LAYER
  5
D8C
330
2
100
AcDbSymbolTableRecord
100
AcDbLayerTableRecord
  2
Defpoints
 70
     0
 62
     7
  6
Continuous
290
     0
370
    -3
390
1D
347
266
  0
LAYER
  5
E69
330
2
100
AcDbSymbolTableRecord
100
AcDbLayerTableRecord
  2
PRINT BORDER
 70
     0
 62
     4
  6
BORDER
290
     0
370
    20
390
1D
347
266
1001
AcAecLayerStandard
1000

1000

  0
ENDTAB
  0
TABLE
  2
STYLE
  5
3
330
0
100
AcDbSymbolTable
 70
     4
  0
STYLE
  5
17
330
3
100
AcDbSymbolTableRecord
100
AcDbTextStyleTableRecord
  2
Standard
 70
     0
 40
0.0
 41
1.0
 50
0.0
 71
     0
 42
2.5
  3
txt
  4
BIGFONT.SHX
  0
STYLE
  5
39
330
3
100
AcDbSymbolTableRecord
100
AcDbTextStyleTableRecord
  2
ＭＳ ゴシック
 70
     0
 40
0.0
 41
1.0
 50
0.0
 71
     0
 42
2.5
  3
msgothic.ttc
  4
ＭＳ ゴシック
1001
ACAD
1000
ＭＳ ゴシック
1071
        0
  0
STYLE
  5
384
330
3
100
AcDbSymbolTableRecord
100
AcDbTextStyleTableRecord
  2
ARIAL
 70
     0
 40
0.0
 41
1.0
 50
0.0
 71
     0
 42
12.0
  3
ARIAL.TTF
  4

1001
ACAD
1000
Arial
1071
       34
  0
STYLE
  5
385
330
3
100
AcDbSymbolTableRecord
100
AcDbTextStyleTableRecord
  2
ROMANS
 70
     0
 40
0.0
 41
1.0
 50
0.0
 71
     0
 42
5.0
  3
romans.shx
  4

  0
ENDTAB
  0
TABLE
  2
VIEW
  5
5
330
0
100
AcDbSymbolTable
 70
     0
  0
ENDTAB
  0
TABLE
  2
UCS
  5
6
330
0
100
AcDbSymbolTable
 70
     0
  0
ENDTAB
  0
TABLE
  2
APPID
  5
8
330
0
100
AcDbSymbolTable
 70
     3
  0
APPID
  5
16
330
8
100
AcDbSymbolTableRecord
100
AcDbRegAppTableRecord
  2
ACAD
 70
     0
  0
APPID
  5
7AC
330
8
100
AcDbSymbolTableRecord
100
AcDbRegAppTableRecord
  2
AcAecLayerStandard
 70
     0
  0
APPID
  5
E29
330
8
100
AcDbSymbolTableRecord
100
AcDbRegAppTableRecord
  2
ACAD_MLEADERVER
 70
     0
  0
ENDTAB
  0
TABLE
  2
DIMSTYLE
  5
9
330
0
100
AcDbSymbolTable
 70
     6
100
AcDbDimStyleTable
  0
DIMSTYLE
105
18
330
9
100
AcDbSymbolTableRecord
100
AcDbDimStyleTableRecord
  2
Standard
 70
     0
178
     0
340
17
  0
DIMSTYLE
105
56
330
9
100
AcDbSymbolTableRecord
100
AcDbDimStyleTableRecord
  2
tform線あり
 70
     0
  3
<>
  4
[]
 41
9.999389648437498
 42
25.0
 43
0.9999999999999999
 44
0.0
 73
     0
 74
     0
 77
     1
 78
    11
140
24.4326171875
141
0.0
143
1.0
146
0.8
147
0.4999999999999999
171
     1
172
     1
174
     1
178
     0
179
     2
271
     1
272
     1
276
     2
284
    11
285
    11
286
    11
289
     0
340
39
341
4E
342
4E
  0
DIMSTYLE
105
57
102
{ACAD_REACTORS
330
1514
330
1523
330
1532
330
1541
330
15DB
330
15DE
330
15E1
330
160D
330
1666
330
1678
330
167D
330
177C
330
17A6
330
17FE
330
183D
330
186A
330
186B
330
190F
330
1913
330
19DA
330
19E7
330
1A00
102
}
330
9
100
AcDbSymbolTableRecord
100
AcDbDimStyleTableRecord
  2
tfrom線あり
 70
     0
  3
<>
  4
[]
 41
3.0
 42
10.0
 43
0.9999999999999999
 44
0.0
 73
     0
 74
     0
 77
     1
 78
    11
140
12.0
141
0.0
143
1.0
147
10.0
171
     1
174
     1
178
     0
179
     2
271
     0
272
     1
276
     2
284
    11
285
    11
286
    11
289
     0
340
39
341
4E
342
4E
  0
DIMSTYLE
105
5C
330
9
100
AcDbSymbolTableRecord
100
AcDbDimStyleTableRecord
  2
JIS
 70
     0
  3
<>
  4
[]
 41
9.0
 42
0.0
 43
6.99999999999994
 44
19.9999999999962
 73
     0
 74
     0
 77
     1
 78
    11
140
24.4326171875
141
0.0
143
1.0
147
10.0
171
     1
174
     1
178
     0
179
     2
271
     1
272
     1
276
     2
284
    11
285
    11
286
    11
289
     0
340
39
341
4E
342
4E
  0
DIMSTYLE
105
383
330
9
100
AcDbSymbolTableRecord
100
AcDbDimStyleTableRecord
  2
ARIAL
 70
     0
 41
10.0
 42
3.0
 43
0.5
 44
3.0
 73
     0
 74
     0
 77
     1
 78
     8
140
12.0
141
0.0
146
0.5
147
4.0
171
     1
172
     1
178
     0
271
     1
289
     0
340
384
  0
DIMSTYLE
105
145C
330
9
100
AcDbSymbolTableRecord
100
AcDbDimStyleTableRecord
  2
ISO-25
 70
     0
 41
2.5
 42
0.625
 43
3.75
 44
1.25
 73
     0
 74
     0
 77
     1
 78
     8
140
2.5
141
2.5
143
0.03937007874016
147
0.625
171
     3
172
     1
178
     0
271
     2
272
     2
274
     3
283
     0
284
     8
340
17
  0
ENDTAB
  0
TABLE
  2
BLOCK_RECORD
  5
1
330
0
100
AcDbSymbolTable
 70
    91
  0
BLOCK_RECORD
  5
A
330
1
100
AcDbSymbolTableRecord
100
AcDbBlockTableRecord
  2
*MODEL_SPACE
340
20
 70
     0
280
     1
281
     0
  0
BLOCK_RECORD
  5
B
330
1
100
AcDbSymbolTableRecord
100
AcDbBlockTableRecord
  2
*PAPER_SPACE
340
21
 70
     0
280
     1
281
     0
  0
BLOCK_RECORD
  5
4E
330
1
100
AcDbSymbolTableRecord
100
AcDbBlockTableRecord
  2
_DOT
340
0
102
{BLKREFS
331
D96
331
D97
331
DA5
331
DA6
331
E53
331
E54
331
F09
331
F0A
331
F57
331
F58
331
F66
331
F67
331
F79
331
F7A
331
F8A
331
F8B
331
F99
331
F9A
331
FA6
331
FA7
331
FB3
331
FB4
331
FC0
331
FC1
331
FCD
331
FCE
331
FDA
331
FDB
331
FE9
331
FEA
331
1002
331
1003
331
1011
331
1012
331
101E
331
101F
331
102B
331
102C
331
10F2
331
10F3
331
10FE
331
10FF
331
110A
331
110B
331
1116
331
1117
331
1123
331
1124
331
112F
331
1130
331
113B
331
113C
331
1147
331
1148
331
1153
331
1154
331
115F
331
1160
331
116B
331
116C
331
1177
331
1178
331
1183
331
1184
331
118F
331
1190
331
119B
331
119C
331
11A7
331
11A8
331
12E6
331
12E7
331
1372
331
1373
331
13AB
331
13AC
331
13C2
331
13C3
331
13FD
331
13FE
331
150E
331
150F
331
151D
331
151E
331
152C
331
152D
331
153B
331
153C
331
154A
331
154B
331
1598
331
1599
331
15A4
331
15A5
331
15B0
331
15B1
331
15BC
331
15BD
331
15C8
331
15C9
331
15EF
331
15F0
331
15FB
331
15FC
331
1607
331
1608
331
1616
331
1617
331
1640
331
1641
331
169B
331
169C
331
16A7
331
16A8
331
16B3
331
16B4
331
16BF
331
16C0
331
16CB
331
16CC
331
16D7
331
16D8
331
16E3
331
16E4
331
16F6
331
16F7
331
1705
331
1706
331
1770
331
1771
331
1785
331
1786
331
17A0
331
17A1
331
17AD
331
17AE
331
1806
331
1807
331
1831
331
1832
331
1846
331
1847
331
1872
331
1873
331
187E
331
187F
331
191A
331
191B
331
1926
331
1927
331
1A31
331
1A32
331
1A3D
331
1A3E
331
1A49
331
1A4A
331
1A70
331
1A6F
331
1A80
331
1A7F
102
}
 70
     0
280
     1
281
     0
  0
BLOCK_RECORD
  5
68A
330
1
100
AcDbSymbolTableRecord
100
AcDbBlockTableRecord
  2
名称未設定-1
340
0
102
{BLKREFS
331
6B5
102
}
 70
     1
280
     1
281
     0
  0
BLOCK_RECORD
  5
68D
330
1
100
AcDbSymbolTableRecord
100
AcDbBlockTableRecord
  2
block 2
340
0
102
{BLKREFS
331
68C
331
104A
102
}
 70
     0
280
     1
281
     0
  0
BLOCK_RECORD
  5
690
330
1
100
AcDbSymbolTableRecord
100
AcDbBlockTableRecord
  2
block 3
340
0
102
{BLKREFS
331
68F
102
}
 70
     0
280
     1
281
     0
  0
BLOCK_RECORD
  5
693
330
1
100
AcDbSymbolTableRecord
100
AcDbBlockTableRecord
  2
block 4
340
0
102
{BLKREFS
331
692
102
}
 70
     0
280
     1
281
     0
  0
BLOCK_RECORD
  5
6A2
330
1
100
AcDbSymbolTableRecord
100
AcDbBlockTableRecord
  2
block 5
340
0
102
{BLKREFS
331
6A1
102
}
 70
     0
280
     1
281
     0
  0
BLOCK_RECORD
  5
D90
330
1
100
AcDbSymbolTableRecord
100
AcDbBlockTableRecord
  2
*D6
340
0
 70
     0
280
     1
281
     0
  0
BLOCK_RECORD
  5
D9F
330
1
100
AcDbSymbolTableRecord
100
AcDbBlockTableRecord
  2
*D7
340
0
 70
     0
280
     1
281
     0
  0
BLOCK_RECORD
  5
E4D
330
1
100
AcDbSymbolTableRecord
100
AcDbBlockTableRecord
  2
*D8
340
0
 70
     0
280
     1
281
     0
  0
BLOCK_RECORD
  5
F05
330
1
100
AcDbSymbolTableRecord
100
AcDbBlockTableRecord
  2
*D9
340
0
 70
     0
280
     1
281
     0
  0
BLOCK_RECORD
  5
F52
330
1
100
AcDbSymbolTableRecord
100
AcDbBlockTableRecord
  2
*D10
340
0
 70
     0
280
     1
281
     0
  0
BLOCK_RECORD
  5
F61
330
1
100
AcDbSymbolTableRecord
100
AcDbBlockTableRecord
  2
*D11
340
0
 70
     0
280
     1
281
     0
  0
BLOCK_RECORD
  5
F73
330
1
100
AcDbSymbolTableRecord
100
AcDbBlockTableRecord
  2
*D12
340
0
 70
     0
280
     1
281
     0
  0
BLOCK_RECORD
  5
F85
330
1
100
AcDbSymbolTableRecord
100
AcDbBlockTableRecord
  2
*D13
340
0
 70
     0
280
     1
281
     0
  0
BLOCK_RECORD
  5
F94
330
1
100
AcDbSymbolTableRecord
100
AcDbBlockTableRecord
  2
*D14
340
0
 70
     0
280
     1
281
     0
  0
BLOCK_RECORD
  5
FA1
330
1
100
AcDbSymbolTableRecord
100
AcDbBlockTableRecord
  2
*D15
340
0
 70
     0
280
     1
281
     0
  0
BLOCK_RECORD
  5
FAE
330
1
100
AcDbSymbolTableRecord
100
AcDbBlockTableRecord
  2
*D16
340
0
 70
     0
280
     1
281
     0
  0
BLOCK_RECORD
  5
FBB
330
1
100
AcDbSymbolTableRecord
100
AcDbBlockTableRecord
  2
*D17
340
0
 70
     0
280
     1
281
     0
  0
BLOCK_RECORD
  5
FC8
330
1
100
AcDbSymbolTableRecord
100
AcDbBlockTableRecord
  2
*D18
340
0
 70
     0
280
     1
281
     0
  0
BLOCK_RECORD
  5
FD5
330
1
100
AcDbSymbolTableRecord
100
AcDbBlockTableRecord
  2
*D19
340
0
 70
     0
280
     1
281
     0
  0
BLOCK_RECORD
  5
FE4
330
1
100
AcDbSymbolTableRecord
100
AcDbBlockTableRecord
  2
*D20
340
0
 70
     0
280
     1
281
     0
  0
BLOCK_RECORD
  5
FFD
330
1
100
AcDbSymbolTableRecord
100
AcDbBlockTableRecord
  2
*D21
340
0
 70
     0
280
     1
281
     0
  0
BLOCK_RECORD
  5
100C
330
1
100
AcDbSymbolTableRecord
100
AcDbBlockTableRecord
  2
*D22
340
0
 70
     0
280
     1
281
     0
  0
BLOCK_RECORD
  5
1019
330
1
100
AcDbSymbolTableRecord
100
AcDbBlockTableRecord
  2
*D23
340
0
 70
     0
280
     1
281
     0
  0
BLOCK_RECORD
  5
1026
330
1
100
AcDbSymbolTableRecord
100
AcDbBlockTableRecord
  2
*D24
340
0
 70
     0
280
     1
281
     0
  0
BLOCK_RECORD
  5
10ED
330
1
100
AcDbSymbolTableRecord
100
AcDbBlockTableRecord
  2
*D25
340
0
 70
     0
280
     1
281
     0
  0
BLOCK_RECORD
  5
10F8
330
1
100
AcDbSymbolTableRecord
100
AcDbBlockTableRecord
  2
*D26
340
0
 70
     0
280
     1
281
     0
  0
BLOCK_RECORD
  5
1104
330
1
100
AcDbSymbolTableRecord
100
AcDbBlockTableRecord
  2
*D27
340
0
 70
     0
280
     1
281
     0
  0
BLOCK_RECORD
  5
1110
330
1
100
AcDbSymbolTableRecord
100
AcDbBlockTableRecord
  2
*D28
340
0
 70
     0
280
     1
281
     0
  0
BLOCK_RECORD
  5
111D
330
1
100
AcDbSymbolTableRecord
100
AcDbBlockTableRecord
  2
*D29
340
0
 70
     0
280
     1
281
     0
  0
BLOCK_RECORD
  5
1129
330
1
100
AcDbSymbolTableRecord
100
AcDbBlockTableRecord
  2
*D30
340
0
 70
     0
280
     1
281
     0
  0
BLOCK_RECORD
  5
1135
330
1
100
AcDbSymbolTableRecord
100
AcDbBlockTableRecord
  2
*D31
340
0
 70
     0
280
     1
281
     0
  0
BLOCK_RECORD
  5
1141
330
1
100
AcDbSymbolTableRecord
100
AcDbBlockTableRecord
  2
*D32
340
0
 70
     0
280
     1
281
     0
  0
BLOCK_RECORD
  5
114D
330
1
100
AcDbSymbolTableRecord
100
AcDbBlockTableRecord
  2
*D33
340
0
 70
     0
280
     1
281
     0
  0
BLOCK_RECORD
  5
1159
330
1
100
AcDbSymbolTableRecord
100
AcDbBlockTableRecord
  2
*D34
340
0
 70
     0
280
     1
281
     0
  0
BLOCK_RECORD
  5
1165
330
1
100
AcDbSymbolTableRecord
100
AcDbBlockTableRecord
  2
*D35
340
0
 70
     0
280
     1
281
     0
  0
BLOCK_RECORD
  5
1171
330
1
100
AcDbSymbolTableRecord
100
AcDbBlockTableRecord
  2
*D36
340
0
 70
     0
280
     1
281
     0
  0
BLOCK_RECORD
  5
117D
330
1
100
AcDbSymbolTableRecord
100
AcDbBlockTableRecord
  2
*D37
340
0
 70
     0
280
     1
281
     0
  0
BLOCK_RECORD
  5
1189
330
1
100
AcDbSymbolTableRecord
100
AcDbBlockTableRecord
  2
*D38
340
0
 70
     0
280
     1
281
     0
  0
BLOCK_RECORD
  5
1195
330
1
100
AcDbSymbolTableRecord
100
AcDbBlockTableRecord
  2
*D39
340
0
 70
     0
280
     1
281
     0
  0
BLOCK_RECORD
  5
11A1
330
1
100
AcDbSymbolTableRecord
100
AcDbBlockTableRecord
  2
*D40
340
0
 70
     0
280
     1
281
     0
  0
BLOCK_RECORD
  5
12E0
330
1
100
AcDbSymbolTableRecord
100
AcDbBlockTableRecord
  2
*D41
340
0
 70
     0
280
     1
281
     0
  0
BLOCK_RECORD
  5
136D
330
1
100
AcDbSymbolTableRecord
100
AcDbBlockTableRecord
  2
*D42
340
0
 70
     0
280
     1
281
     0
  0
BLOCK_RECORD
  5
13A5
330
1
100
AcDbSymbolTableRecord
100
AcDbBlockTableRecord
  2
*D43
340
0
 70
     0
280
     1
281
     0
  0
BLOCK_RECORD
  5
13BC
330
1
100
AcDbSymbolTableRecord
100
AcDbBlockTableRecord
  2
*D44
340
0
 70
     0
280
     1
281
     0
  0
BLOCK_RECORD
  5
13F6
330
1
100
AcDbSymbolTableRecord
100
AcDbBlockTableRecord
  2
*D45
340
0
 70
     0
280
     1
281
     0
  0
BLOCK_RECORD
  5
14AE
330
1
100
AcDbSymbolTableRecord
100
AcDbBlockTableRecord
  2
SW_CENTERMARKSYMBOL_0
340
0
 70
     0
280
     1
281
     0
  0
BLOCK_RECORD
  5
1508
330
1
100
AcDbSymbolTableRecord
100
AcDbBlockTableRecord
  2
*D47
340
0
 70
     0
280
     1
281
     0
  0
BLOCK_RECORD
  5
1517
330
1
100
AcDbSymbolTableRecord
100
AcDbBlockTableRecord
  2
*D48
340
0
 70
     0
280
     1
281
     0
  0
BLOCK_RECORD
  5
1526
330
1
100
AcDbSymbolTableRecord
100
AcDbBlockTableRecord
  2
*D49
340
0
 70
     0
280
     1
281
     0
  0
BLOCK_RECORD
  5
1535
330
1
100
AcDbSymbolTableRecord
100
AcDbBlockTableRecord
  2
*D50
340
0
 70
     0
280
     1
281
     0
  0
BLOCK_RECORD
  5
1544
330
1
100
AcDbSymbolTableRecord
100
AcDbBlockTableRecord
  2
*D51
340
0
 70
     0
280
     1
281
     0
  0
BLOCK_RECORD
  5
1592
330
1
100
AcDbSymbolTableRecord
100
AcDbBlockTableRecord
  2
*D52
340
0
 70
     0
280
     1
281
     0
  0
BLOCK_RECORD
  5
159E
330
1
100
AcDbSymbolTableRecord
100
AcDbBlockTableRecord
  2
*D53
340
0
 70
     0
280
     1
281
     0
  0
BLOCK_RECORD
  5
15AA
330
1
100
AcDbSymbolTableRecord
100
AcDbBlockTableRecord
  2
*D54
340
0
 70
     0
280
     1
281
     0
  0
BLOCK_RECORD
  5
15B6
330
1
100
AcDbSymbolTableRecord
100
AcDbBlockTableRecord
  2
*D55
340
0
 70
     0
280
     1
281
     0
  0
BLOCK_RECORD
  5
15C2
330
1
100
AcDbSymbolTableRecord
100
AcDbBlockTableRecord
  2
*D56
340
0
 70
     0
280
     1
281
     0
  0
BLOCK_RECORD
  5
15E9
330
1
100
AcDbSymbolTableRecord
100
AcDbBlockTableRecord
  2
*D57
340
0
 70
     0
280
     1
281
     0
  0
BLOCK_RECORD
  5
15F5
330
1
100
AcDbSymbolTableRecord
100
AcDbBlockTableRecord
  2
*D58
340
0
 70
     0
280
     1
281
     0
  0
BLOCK_RECORD
  5
1601
330
1
100
AcDbSymbolTableRecord
100
AcDbBlockTableRecord
  2
*D59
340
0
 70
     0
280
     1
281
     0
  0
BLOCK_RECORD
  5
1610
330
1
100
AcDbSymbolTableRecord
100
AcDbBlockTableRecord
  2
*D60
340
0
 70
     0
280
     1
281
     0
  0
BLOCK_RECORD
  5
163A
330
1
100
AcDbSymbolTableRecord
100
AcDbBlockTableRecord
  2
*D61
340
0
 70
     0
280
     1
281
     0
  0
BLOCK_RECORD
  5
1695
330
1
100
AcDbSymbolTableRecord
100
AcDbBlockTableRecord
  2
*D62
340
0
 70
     0
280
     1
281
     0
  0
BLOCK_RECORD
  5
16A1
330
1
100
AcDbSymbolTableRecord
100
AcDbBlockTableRecord
  2
*D63
340
0
 70
     0
280
     1
281
     0
  0
BLOCK_RECORD
  5
16AD
330
1
100
AcDbSymbolTableRecord
100
AcDbBlockTableRecord
  2
*D64
340
0
 70
     0
280
     1
281
     0
  0
BLOCK_RECORD
  5
16B9
330
1
100
AcDbSymbolTableRecord
100
AcDbBlockTableRecord
  2
*D65
340
0
 70
     0
280
     1
281
     0
  0
BLOCK_RECORD
  5
16C5
330
1
100
AcDbSymbolTableRecord
100
AcDbBlockTableRecord
  2
*D66
340
0
 70
     0
280
     1
281
     0
  0
BLOCK_RECORD
  5
16D1
330
1
100
AcDbSymbolTableRecord
100
AcDbBlockTableRecord
  2
*D67
340
0
 70
     0
280
     1
281
     0
  0
BLOCK_RECORD
  5
16DD
330
1
100
AcDbSymbolTableRecord
100
AcDbBlockTableRecord
  2
*D68
340
0
 70
     0
280
     1
281
     0
  0
BLOCK_RECORD
  5
16F0
330
1
100
AcDbSymbolTableRecord
100
AcDbBlockTableRecord
  2
*D69
340
0
 70
     0
280
     1
281
     0
  0
BLOCK_RECORD
  5
16FF
330
1
100
AcDbSymbolTableRecord
100
AcDbBlockTableRecord
  2
*D70
340
0
 70
     0
280
     1
281
     0
  0
BLOCK_RECORD
  5
176B
330
1
100
AcDbSymbolTableRecord
100
AcDbBlockTableRecord
  2
*D71
340
0
 70
     0
280
     1
281
     0
  0
BLOCK_RECORD
  5
177F
330
1
100
AcDbSymbolTableRecord
100
AcDbBlockTableRecord
  2
*D72
340
0
 70
     0
280
     1
281
     0
  0
BLOCK_RECORD
  5
179A
330
1
100
AcDbSymbolTableRecord
100
AcDbBlockTableRecord
  2
*D73
340
0
 70
     0
280
     1
281
     0
  0
BLOCK_RECORD
  5
17A7
330
1
100
AcDbSymbolTableRecord
100
AcDbBlockTableRecord
  2
*D74
340
0
 70
     0
280
     1
281
     0
  0
BLOCK_RECORD
  5
1801
330
1
100
AcDbSymbolTableRecord
100
AcDbBlockTableRecord
  2
*D75
340
0
 70
     0
280
     1
281
     0
  0
BLOCK_RECORD
  5
182B
330
1
100
AcDbSymbolTableRecord
100
AcDbBlockTableRecord
  2
*D76
340
0
 70
     0
280
     1
281
     0
  0
BLOCK_RECORD
  5
1840
330
1
100
AcDbSymbolTableRecord
100
AcDbBlockTableRecord
  2
*D77
340
0
 70
     0
280
     1
281
     0
  0
BLOCK_RECORD
  5
186C
330
1
100
AcDbSymbolTableRecord
100
AcDbBlockTableRecord
  2
*D78
340
0
 70
     0
280
     1
281
     0
  0
BLOCK_RECORD
  5
1878
330
1
100
AcDbSymbolTableRecord
100
AcDbBlockTableRecord
  2
*D79
340
0
 70
     0
280
     1
281
     0
  0
BLOCK_RECORD
  5
1914
330
1
100
AcDbSymbolTableRecord
100
AcDbBlockTableRecord
  2
*D80
340
0
 70
     0
280
     1
281
     0
  0
BLOCK_RECORD
  5
1920
330
1
100
AcDbSymbolTableRecord
100
AcDbBlockTableRecord
  2
*D81
340
0
 70
     0
280
     1
281
     0
  0
BLOCK_RECORD
  5
19DB
330
1
100
AcDbSymbolTableRecord
100
AcDbBlockTableRecord
  2
*D83
340
0
 70
     0
280
     1
281
     0
  0
BLOCK_RECORD
  5
19E8
330
1
100
AcDbSymbolTableRecord
100
AcDbBlockTableRecord
  2
*D84
340
0
 70
     0
280
     1
281
     0
  0
BLOCK_RECORD
  5
1A03
330
1
100
AcDbSymbolTableRecord
100
AcDbBlockTableRecord
  2
*D85
340
0
 70
     0
280
     1
281
     0
  0
BLOCK_RECORD
  5
1A2B
330
1
100
AcDbSymbolTableRecord
100
AcDbBlockTableRecord
  2
*D86
340
0
 70
     0
280
     1
281
     0
  0
BLOCK_RECORD
  5
1A37
330
1
100
AcDbSymbolTableRecord
100
AcDbBlockTableRecord
  2
*D87
340
0
 70
     0
280
     1
281
     0
  0
BLOCK_RECORD
  5
1A43
330
1
100
AcDbSymbolTableRecord
100
AcDbBlockTableRecord
  2
*D88
340
0
 70
     0
280
     1
281
     0
  0
BLOCK_RECORD
  5
1A68
330
1
100
AcDbSymbolTableRecord
100
AcDbBlockTableRecord
  2
*D89
340
0
 70
     0
280
     1
281
     0
  0
BLOCK_RECORD
  5
1A78
330
1
100
AcDbSymbolTableRecord
100
AcDbBlockTableRecord
  2
*D90
340
0
 70
     0
280
     1
281
     0
  0
ENDTAB
  0
ENDSEC
  0
SECTION
  2
BLOCKS
  0
BLOCK
  5
D
330
A
100
AcDbEntity
  8
0
390
1D
100
AcDbBlockBegin
  2
*MODEL_SPACE
 70
     0
 10
0.0
 20
0.0
 30
0.0
  3
*MODEL_SPACE
  1
*MODEL_SPACE
  0
ENDBLK
  5
E
330
A
100
AcDbEntity
  8
0
390
1D
100
AcDbBlockEnd
  0
BLOCK
  5
F
330
B
100
AcDbEntity
 67
     1
  8
0
390
1D
100
AcDbBlockBegin
  2
*PAPER_SPACE
 70
     0
 10
0.0
 20
0.0
 30
0.0
  3
*PAPER_SPACE
  1
*PAPER_SPACE
  0
ENDBLK
  5
10
330
B
100
AcDbEntity
 67
     1
  8
0
390
1D
100
AcDbBlockEnd
  0
BLOCK
  5
E30
330
4E
100
AcDbEntity
  8
0
390
1D
100
AcDbBlockBegin
  2
_DOT
 70
     0
 10
0.0
 20
0.0
 30
0.0
  3
_DOT
  1
_DOT
  0
POLYLINE
  5
E32
330
4E
100
AcDbEntity
  8
0
  6
ByBlock
 62
     0
370
    -2
390
1D
100
AcDb2dPolyline
 66
     1
 10
0.0
 20
0.0
 30
0.0
 70
     1
 40
0.5
 41
0.5
  0
VERTEX
  5
E33
330
E32
100
AcDbEntity
  8
0
  6
ByBlock
 62
     0
370
    -2
390
1D
100
AcDbVertex
100
AcDb2dVertex
 10
-0.25
 20
0.0
 30
0.0
 42
1.0
  0
VERTEX
  5
E34
330
E32
100
AcDbEntity
  8
0
  6
ByBlock
 62
     0
370
    -2
390
1D
100
AcDbVertex
100
AcDb2dVertex
 10
0.25
 20
0.0
 30
0.0
 42
1.0
  0
SEQEND
  5
E35
330
E32
100
AcDbEntity
  8
0
390
1D
  0
LINE
  5
E36
330
4E
100
AcDbEntity
  8
0
  6
ByBlock
 62
     0
370
    -2
390
1D
100
AcDbLine
 10
-0.5
 20
0.0
 30
0.0
 11
-1.0
 21
0.0
 31
0.0
  0
ENDBLK
  5
E37
330
4E
100
AcDbEntity
  8
0
390
1D
100
AcDbBlockEnd
  0
BLOCK
  5
68B
330
68A
100
AcDbEntity
  8
0
100
AcDbBlockBegin
  2
名称未設定-1
 70
     0
 10
0.0
 20
0.0
 30
0.0
  3
名称未設定-1
  1
名称未設定-1
  0
INSERT
  5
68F
330
68A
100
AcDbEntity
  8
LOGO
100
AcDbBlockReference
  2
block 3
 10
0.0
 20
0.0
 30
0.0
  0
ENDBLK
  5
6B1
330
68A
100
AcDbEntity
  8
0
100
AcDbBlockEnd
  0
BLOCK
  5
68E
330
68D
100
AcDbEntity
  8
0
100
AcDbBlockBegin
  2
block 2
 70
     0
 10
0.0
 20
0.0
 30
0.0
  3
block 2
  1
block 2
  0
ENDBLK
  5
6B0
330
68D
100
AcDbEntity
  8
0
100
AcDbBlockEnd
  0
BLOCK
  5
691
330
690
100
AcDbEntity
  8
0
100
AcDbBlockBegin
  2
block 3
 70
     0
 10
0.0
 20
0.0
 30
0.0
  3
block 3
  1
block 3
  0
INSERT
  5
692
330
690
100
AcDbEntity
  8
LOGO
100
AcDbBlockReference
  2
block 4
 10
0.0
 20
0.0
 30
0.0
  0
INSERT
  5
6A1
330
690
100
AcDbEntity
  8
LOGO
100
AcDbBlockReference
  2
block 5
 10
0.0
 20
0.0
 30
0.0
  0
ENDBLK
  5
6AF
330
690
100
AcDbEntity
  8
0
100
AcDbBlockEnd
  0
BLOCK
  5
694
330
693
100
AcDbEntity
  8
0
100
AcDbBlockBegin
  2
block 4
 70
     0
 10
0.0
 20
0.0
 30
0.0
  3
block 4
  1
block 4
  0
POLYLINE
  5
695
330
693
100
AcDbEntity
  8
LOGO
370
     0
100
AcDb2dPolyline
 66
     1
 10
0.0
 20
0.0
 30
0.0
  0
VERTEX
  5
696
330
695
100
AcDbEntity
  8
LOGO
370
     0
100
AcDbVertex
100
AcDb2dVertex
 10
83.79545727667795
 20
167.6444858234922
 30
0.0
  0
VERTEX
  5
697
330
695
100
AcDbEntity
  8
LOGO
370
     0
100
AcDbVertex
100
AcDb2dVertex
 10
83.79545727667795
 20
159.7968976406313
 30
0.0
  0
VERTEX
  5
698
330
695
100
AcDbEntity
  8
LOGO
370
     0
100
AcDbVertex
100
AcDb2dVertex
 10
71.3631329975216
 20
159.7968976406313
 30
0.0
  0
VERTEX
  5
699
330
695
100
AcDbEntity
  8
LOGO
370
     0
100
AcDbVertex
100
AcDb2dVertex
 10
71.3631329975216
 20
127.8027915271048
 30
0.0
  0
VERTEX
  5
69A
330
695
100
AcDbEntity
  8
LOGO
370
     0
100
AcDbVertex
100
AcDb2dVertex
 10
60.43011526263018
 20
127.8027915271048
 30
0.0
  0
VERTEX
  5
69B
330
695
100
AcDbEntity
  8
LOGO
370
     0
100
AcDbVertex
100
AcDb2dVertex
 10
60.43011526263018
 20
159.7968976406313
 30
0.0
  0
VERTEX
  5
69C
330
695
100
AcDbEntity
  8
LOGO
370
     0
100
AcDbVertex
100
AcDb2dVertex
 10
48.21793273020759
 20
159.7968976406313
 30
0.0
  0
VERTEX
  5
69D
330
695
100
AcDbEntity
  8
LOGO
370
     0
100
AcDbVertex
100
AcDb2dVertex
 10
48.21793273020759
 20
167.6444858234922
 30
0.0
  0
VERTEX
  5
69E
330
695
100
AcDbEntity
  8
LOGO
370
     0
100
AcDbVertex
100
AcDb2dVertex
 10
83.79545727667795
 20
167.6444858234922
 30
0.0
  0
SEQEND
  5
69F
330
695
100
AcDbEntity
  8
LOGO
370
     0
  0
HATCH
  5
6A0
330
693
100
AcDbEntity
  8
LOGO
 62
   250
420
  2234388
100
AcDbHatch
 10
0.0
 20
0.0
 30
0.0
210
0.0
220
0.0
230
1.0
  2
SOLID
 70
     1
 71
     0
 91
        1
 92
        1
 93
        8
 72
     1
 10
83.79545727667795
 20
167.6444858234922
 11
83.79545727667795
 21
159.7968976406313
 72
     1
 10
83.79545727667795
 20
159.7968976406313
 11
71.3631329975216
 21
159.7968976406313
 72
     1
 10
71.3631329975216
 20
159.7968976406313
 11
71.3631329975216
 21
127.8027915271048
 72
     1
 10
71.3631329975216
 20
127.8027915271048
 11
60.43011526263018
 21
127.8027915271048
 72
     1
 10
60.43011526263018
 20
127.8027915271048
 11
60.43011526263018
 21
159.7968976406313
 72
     1
 10
60.43011526263018
 20
159.7968976406313
 11
48.21793273020759
 21
159.7968976406313
 72
     1
 10
48.21793273020759
 20
159.7968976406313
 11
48.21793273020759
 21
167.6444858234922
 72
     1
 10
48.21793273020759
 20
167.6444858234922
 11
83.79545727667795
 21
167.6444858234922
 97
        0
 75
     2
 76
     1
 98
        0
  0
ENDBLK
  5
6AE
330
693
100
AcDbEntity
  8
0
100
AcDbBlockEnd
  0
BLOCK
  5
6A3
330
6A2
100
AcDbEntity
  8
0
100
AcDbBlockBegin
  2
block 5
 70
     0
 10
0.0
 20
0.0
 30
0.0
  3
block 5
  1
block 5
  0
SPLINE
  5
6A4
330
6A2
100
AcDbEntity
  8
LOGO
370
     0
100
AcDbSpline
210
0.0
220
0.0
230
1.0
 70
    11
 71
     3
 72
    56
 73
    52
 74
     0
 42
0.000000001
 43
0.0000000001
 40
0.0
 40
0.0
 40
0.0
 40
0.0
 40
1.0
 40
1.0
 40
1.0
 40
2.0
 40
2.0
 40
2.0
 40
3.0
 40
3.0
 40
3.0
 40
4.0
 40
4.0
 40
4.0
 40
5.0
 40
5.0
 40
5.0
 40
6.0
 40
6.0
 40
6.0
 40
7.0
 40
7.0
 40
7.0
 40
8.0
 40
8.0
 40
8.0
 40
9.0
 40
9.0
 40
9.0
 40
10.0
 40
10.0
 40
10.0
 40
11.0
 40
11.0
 40
11.0
 40
12.0
 40
12.0
 40
12.0
 40
13.0
 40
13.0
 40
13.0
 40
14.0
 40
14.0
 40
14.0
 40
15.0
 40
15.0
 40
15.0
 40
16.0
 40
16.0
 40
16.0
 40
17.0
 40
17.0
 40
17.0
 40
17.0
 10
100.4504378777679
 20
166.69157178364
 30
0.0
 10
101.9848844191641
 20
167.1313385124438
 30
0.0
 10
103.9637485713373
 20
166.7649523658846
 30
0.0
 10
103.9637485713373
 20
166.7649523658846
 30
0.0
 10
103.9637485713373
 20
166.7649523658846
 30
0.0
 10
103.0132460999156
 20
163.911205638077
 30
0.0
 10
103.0132460999156
 20
163.911205638077
 30
0.0
 10
103.0132460999156
 20
163.911205638077
 30
0.0
 10
101.0674548862189
 20
164.3601018759394
 30
0.0
 10
99.57090442016032
 20
163.1805004036133
 30
0.0
 10
98.40508333886608
 20
162.258247733807
 30
0.0
 10
97.65301849830304
 20
159.804132345923
 30
0.0
 10
97.3598406791005
 20
158.8699940888517
 30
0.0
 10
97.3598406791005
 20
158.8699940888517
 30
0.0
 10
96.07137411762282
 20
154.9119212747295
 30
0.0
 10
96.07137411762282
 20
154.9119212747295
 30
0.0
 10
96.07137411762282
 20
154.9119212747295
 30
0.0
 10
100.3012651448482
 20
154.9119212747295
 30
0.0
 10
100.3012651448482
 20
154.9119212747295
 30
0.0
 10
100.3012651448482
 20
154.9119212747295
 30
0.0
 10
99.64152892419852
 20
152.4199098115079
 30
0.0
 10
99.64152892419852
 20
152.4199098115079
 30
0.0
 10
99.64152892419852
 20
152.4199098115079
 30
0.0
 10
95.38097652692731
 20
152.4199098115079
 30
0.0
 10
95.38097652692731
 20
152.4199098115079
 30
0.0
 10
95.38097652692731
 20
152.4199098115079
 30
0.0
 10
87.75353009080013
 20
127.8027915271048
 30
0.0
 10
87.75353009080013
 20
127.8027915271048
 30
0.0
 10
87.75353009080013
 20
127.8027915271048
 30
0.0
 10
85.36538832498108
 20
127.8027915271048
 30
0.0
 10
85.36538832498108
 20
127.8027915271048
 30
0.0
 10
85.36538832498108
 20
127.8027915271048
 30
0.0
 10
93.00006946639998
 20
152.4199098115079
 30
0.0
 10
93.00006946639998
 20
152.4199098115079
 30
0.0
 10
93.00006946639998
 20
152.4199098115079
 30
0.0
 10
89.85297266450198
 20
152.4199098115079
 30
0.0
 10
89.85297266450198
 20
152.4199098115079
 30
0.0
 10
89.85297266450198
 20
152.4199098115079
 30
0.0
 10
90.51270888515164
 20
154.9119212747295
 30
0.0
 10
90.51270888515164
 20
154.9119212747295
 30
0.0
 10
90.51270888515164
 20
154.9119212747295
 30
0.0
 10
93.6904670570955
 20
154.9119212747295
 30
0.0
 10
93.6904670570955
 20
154.9119212747295
 30
0.0
 10
93.6904670570955
 20
154.9119212747295
 30
0.0
 10
94.81598049462158
 20
158.3616699146644
 30
0.0
 10
94.81598049462158
 20
158.3616699146644
 30
0.0
 10
95.7237637538445
 20
161.2605474231013
 30
0.0
 10
96.4968436907311
 20
162.8139420021662
 30
0.0
 10
97.15657991138076
 20
163.9844139654337
 30
0.0
 10
97.81183750494507
 20
165.1523021053827
 30
0.0
 10
99.1047826935081
 20
166.3084769129547
 30
0.0
 10
100.4504378777679
 20
166.69157178364
 30
0.0
  0
HATCH
  5
6A5
330
6A2
100
AcDbEntity
  8
LOGO
 62
   250
420
  2234388
100
AcDbHatch
 10
0.0
 20
0.0
 30
0.0
210
0.0
220
0.0
230
1.0
  2
SOLID
 70
     1
 71
     0
 91
        1
 92
        1
 93
        1
 72
     4
 94
        3
 73
     0
 74
     1
 95
       56
 96
       52
 40
0.0
 40
0.0
 40
0.0
 40
0.0
 40
1.0
 40
1.0
 40
1.0
 40
2.0
 40
2.0
 40
2.0
 40
3.0
 40
3.0
 40
3.0
 40
4.0
 40
4.0
 40
4.0
 40
5.0
 40
5.0
 40
5.0
 40
6.0
 40
6.0
 40
6.0
 40
7.0
 40
7.0
 40
7.0
 40
8.0
 40
8.0
 40
8.0
 40
9.0
 40
9.0
 40
9.0
 40
10.0
 40
10.0
 40
10.0
 40
11.0
 40
11.0
 40
11.0
 40
12.0
 40
12.0
 40
12.0
 40
13.0
 40
13.0
 40
13.0
 40
14.0
 40
14.0
 40
14.0
 40
15.0
 40
15.0
 40
15.0
 40
16.0
 40
16.0
 40
16.0
 40
17.0
 40
17.0
 40
17.0
 40
17.0
 10
100.4504378777679
 20
166.69157178364
 10
101.9848844191641
 20
167.1313385124438
 10
103.9637485713373
 20
166.7649523658846
 10
103.9637485713373
 20
166.7649523658846
 10
103.9637485713373
 20
166.7649523658846
 10
103.0132460999156
 20
163.911205638077
 10
103.0132460999156
 20
163.911205638077
 10
103.0132460999156
 20
163.911205638077
 10
101.0674548862189
 20
164.3601018759394
 10
99.57090442016032
 20
163.1805004036133
 10
98.40508333886608
 20
162.258247733807
 10
97.65301849830304
 20
159.804132345923
 10
97.3598406791005
 20
158.8699940888517
 10
97.3598406791005
 20
158.8699940888517
 10
96.07137411762282
 20
154.9119212747295
 10
96.07137411762282
 20
154.9119212747295
 10
96.07137411762282
 20
154.9119212747295
 10
100.3012651448482
 20
154.9119212747295
 10
100.3012651448482
 20
154.9119212747295
 10
100.3012651448482
 20
154.9119212747295
 10
99.64152892419852
 20
152.4199098115079
 10
99.64152892419852
 20
152.4199098115079
 10
99.64152892419852
 20
152.4199098115079
 10
95.38097652692731
 20
152.4199098115079
 10
95.38097652692731
 20
152.4199098115079
 10
95.38097652692731
 20
152.4199098115079
 10
87.75353009080013
 20
127.8027915271048
 10
87.75353009080013
 20
127.8027915271048
 10
87.75353009080013
 20
127.8027915271048
 10
85.36538832498108
 20
127.8027915271048
 10
85.36538832498108
 20
127.8027915271048
 10
85.36538832498108
 20
127.8027915271048
 10
93.00006946639998
 20
152.4199098115079
 10
93.00006946639998
 20
152.4199098115079
 10
93.00006946639998
 20
152.4199098115079
 10
89.85297266450198
 20
152.4199098115079
 10
89.85297266450198
 20
152.4199098115079
 10
89.85297266450198
 20
152.4199098115079
 10
90.51270888515164
 20
154.9119212747295
 10
90.51270888515164
 20
154.9119212747295
 10
90.51270888515164
 20
154.9119212747295
 10
93.6904670570955
 20
154.9119212747295
 10
93.6904670570955
 20
154.9119212747295
 10
93.6904670570955
 20
154.9119212747295
 10
94.81598049462158
 20
158.3616699146644
 10
94.81598049462158
 20
158.3616699146644
 10
95.7237637538445
 20
161.2605474231013
 10
96.4968436907311
 20
162.8139420021662
 10
97.15657991138076
 20
163.9844139654337
 10
97.81183750494507
 20
165.1523021053827
 10
99.1047826935081
 20
166.3084769129547
 10
100.4504378777679
 20
166.69157178364
 97
        0
 75
     2
 76
     1
 98
        0
  0
SPLINE
  5
6A6
330
6A2
100
AcDbEntity
  8
LOGO
370
     0
100
AcDbSpline
210
0.0
220
0.0
230
1.0
 70
    11
 71
     3
 72
    38
 73
    34
 74
     0
 42
0.000000001
 43
0.0000000001
 40
0.0
 40
0.0
 40
0.0
 40
0.0
 40
1.0
 40
1.0
 40
1.0
 40
2.0
 40
2.0
 40
2.0
 40
3.0
 40
3.0
 40
3.0
 40
4.0
 40
4.0
 40
4.0
 40
5.0
 40
5.0
 40
5.0
 40
6.0
 40
6.0
 40
6.0
 40
7.0
 40
7.0
 40
7.0
 40
8.0
 40
8.0
 40
8.0
 40
9.0
 40
9.0
 40
9.0
 40
10.0
 40
10.0
 40
10.0
 40
11.0
 40
11.0
 40
11.0
 40
11.0
 10
126.377554584636
 20
154.8151140277308
 30
0.0
 10
126.377554584636
 20
154.8151140277308
 30
0.0
 10
128.8311532078563
 20
154.8151140277308
 30
0.0
 10
128.8311532078563
 20
154.8151140277308
 30
0.0
 10
128.8311532078563
 20
154.8151140277308
 30
0.0
 10
127.7345785914971
 20
151.3062819612468
 30
0.0
 10
127.7345785914971
 20
151.3062819612468
 30
0.0
 10
128.571392836906
 20
152.2922689395754
 30
0.0
 10
129.8860421413442
 20
153.604506675583
 30
0.0
 10
131.0163787157314
 20
154.2664822097754
 30
0.0
 10
132.7044766171327
 20
155.2500576196734
 30
0.0
 10
133.6642808525008
 20
155.3847609420097
 30
0.0
 10
134.7284715499351
 20
155.3565111403944
 30
0.0
 10
134.7284715499351
 20
155.3565111403944
 30
0.0
 10
133.6877075172549
 20
152.0345756272799
 30
0.0
 10
133.6877075172549
 20
152.0345756272799
 30
0.0
 10
133.011434827367
 20
152.3184516825359
 30
0.0
 10
130.930940291334
 20
151.7768823149844
 30
0.0
 10
129.739280976855
 20
150.9162968950455
 30
0.0
 10
128.66613302525
 20
150.1454562717016
 30
0.0
 10
127.9192358313239
 20
149.4857200510519
 30
0.0
 10
127.0393578639405
 20
147.8282835196966
 30
0.0
 10
126.164647543194
 20
146.1699857139017
 30
0.0
 10
125.4742499524985
 20
143.5262176944419
 30
0.0
 10
124.2822461282437
 20
139.6959580071401
 30
0.0
 10
124.2822461282437
 20
139.6959580071401
 30
0.0
 10
120.5753209406769
 20
127.8027915271048
 30
0.0
 10
120.5753209406769
 20
127.8027915271048
 30
0.0
 10
120.5753209406769
 20
127.8027915271048
 30
0.0
 10
118.1964809388044
 20
127.8027915271048
 30
0.0
 10
118.1964809388044
 20
127.8027915271048
 30
0.0
 10
118.1964809388044
 20
127.8027915271048
 30
0.0
 10
126.377554584636
 20
154.8151140277308
 30
0.0
 10
126.377554584636
 20
154.8151140277308
 30
0.0
  0
HATCH
  5
6A7
330
6A2
100
AcDbEntity
  8
LOGO
 62
   250
420
  2234388
100
AcDbHatch
 10
0.0
 20
0.0
 30
0.0
210
0.0
220
0.0
230
1.0
  2
SOLID
 70
     1
 71
     0
 91
        1
 92
        1
 93
        1
 72
     4
 94
        3
 73
     0
 74
     1
 95
       38
 96
       34
 40
0.0
 40
0.0
 40
0.0
 40
0.0
 40
1.0
 40
1.0
 40
1.0
 40
2.0
 40
2.0
 40
2.0
 40
3.0
 40
3.0
 40
3.0
 40
4.0
 40
4.0
 40
4.0
 40
5.0
 40
5.0
 40
5.0
 40
6.0
 40
6.0
 40
6.0
 40
7.0
 40
7.0
 40
7.0
 40
8.0
 40
8.0
 40
8.0
 40
9.0
 40
9.0
 40
9.0
 40
10.0
 40
10.0
 40
10.0
 40
11.0
 40
11.0
 40
11.0
 40
11.0
 10
126.377554584636
 20
154.8151140277308
 10
126.377554584636
 20
154.8151140277308
 10
128.8311532078563
 20
154.8151140277308
 10
128.8311532078563
 20
154.8151140277308
 10
128.8311532078563
 20
154.8151140277308
 10
127.7345785914971
 20
151.3062819612468
 10
127.7345785914971
 20
151.3062819612468
 10
128.571392836906
 20
152.2922689395754
 10
129.8860421413442
 20
153.604506675583
 10
131.0163787157314
 20
154.2664822097754
 10
132.7044766171327
 20
155.2500576196734
 10
133.6642808525008
 20
155.3847609420097
 10
134.7284715499351
 20
155.3565111403944
 10
134.7284715499351
 20
155.3565111403944
 10
133.6877075172549
 20
152.0345756272799
 10
133.6877075172549
 20
152.0345756272799
 10
133.011434827367
 20
152.3184516825359
 10
130.930940291334
 20
151.7768823149844
 10
129.739280976855
 20
150.9162968950455
 10
128.66613302525
 20
150.1454562717016
 10
127.9192358313239
 20
149.4857200510519
 10
127.0393578639405
 20
147.8282835196966
 10
126.164647543194
 20
146.1699857139017
 10
125.4742499524985
 20
143.5262176944419
 10
124.2822461282437
 20
139.6959580071401
 10
124.2822461282437
 20
139.6959580071401
 10
120.5753209406769
 20
127.8027915271048
 10
120.5753209406769
 20
127.8027915271048
 10
120.5753209406769
 20
127.8027915271048
 10
118.1964809388044
 20
127.8027915271048
 10
118.1964809388044
 20
127.8027915271048
 10
118.1964809388044
 20
127.8027915271048
 10
126.377554584636
 20
154.8151140277308
 10
126.377554584636
 20
154.8151140277308
 97
        0
 75
     2
 76
     1
 98
        0
  0
SPLINE
  5
6A8
330
6A2
100
AcDbEntity
  8
LOGO
370
     0
100
AcDbSpline
210
0.0
220
0.0
230
1.0
 70
    11
 71
     3
 72
   104
 73
   100
 74
     0
 42
0.000000001
 43
0.0000000001
 40
0.0
 40
0.0
 40
0.0
 40
0.0
 40
1.0
 40
1.0
 40
1.0
 40
2.0
 40
2.0
 40
2.0
 40
3.0
 40
3.0
 40
3.0
 40
4.0
 40
4.0
 40
4.0
 40
5.0
 40
5.0
 40
5.0
 40
6.0
 40
6.0
 40
6.0
 40
7.0
 40
7.0
 40
7.0
 40
8.0
 40
8.0
 40
8.0
 40
9.0
 40
9.0
 40
9.0
 40
10.0
 40
10.0
 40
10.0
 40
11.0
 40
11.0
 40
11.0
 40
12.0
 40
12.0
 40
12.0
 40
13.0
 40
13.0
 40
13.0
 40
14.0
 40
14.0
 40
14.0
 40
15.0
 40
15.0
 40
15.0
 40
16.0
 40
16.0
 40
16.0
 40
17.0
 40
17.0
 40
17.0
 40
18.0
 40
18.0
 40
18.0
 40
19.0
 40
19.0
 40
19.0
 40
20.0
 40
20.0
 40
20.0
 40
21.0
 40
21.0
 40
21.0
 40
22.0
 40
22.0
 40
22.0
 40
23.0
 40
23.0
 40
23.0
 40
24.0
 40
24.0
 40
24.0
 40
25.0
 40
25.0
 40
25.0
 40
26.0
 40
26.0
 40
26.0
 40
27.0
 40
27.0
 40
27.0
 40
28.0
 40
28.0
 40
28.0
 40
29.0
 40
29.0
 40
29.0
 40
30.0
 40
30.0
 40
30.0
 40
31.0
 40
31.0
 40
31.0
 40
32.0
 40
32.0
 40
32.0
 40
33.0
 40
33.0
 40
33.0
 40
33.0
 10
139.8926730891197
 20
154.8294111834263
 30
0.0
 10
139.8926730891197
 20
154.8294111834263
 30
0.0
 10
142.0344903652445
 20
154.8294111834263
 30
0.0
 10
142.0344903652445
 20
154.8294111834263
 30
0.0
 10
142.0344903652445
 20
154.8294111834263
 30
0.0
 10
140.9516961399171
 20
151.3157559800812
 30
0.0
 10
140.9516961399171
 20
151.3157559800812
 30
0.0
 10
141.8928968473923
 20
152.7887075264977
 30
0.0
 10
142.7341897198865
 20
153.4484437471474
 30
0.0
 10
143.8552245303272
 20
154.2926649527359
 30
0.0
 10
144.9803934580775
 20
155.1296514530327
 30
0.0
 10
146.3139908001845
 20
155.3044901642492
 30
0.0
 10
147.241066606852
 20
155.3044901642492
 30
0.0
 10
148.3855280820469
 20
155.3044901642492
 30
0.0
 10
149.4969166187653
 20
155.0752189084569
 30
0.0
 10
150.0784491203092
 20
153.8172414621372
 30
0.0
 10
150.5228667310863
 20
152.833838307127
 30
0.0
 10
150.5414702589793
 20
152.7201500811143
 30
0.0
 10
150.4140016419347
 20
150.7765981809602
 30
0.0
 10
151.5818897818837
 20
152.7699317437168
 30
0.0
 10
152.4424752018226
 20
153.6256940267945
 30
0.0
 10
153.9038856707499
 20
154.4507949398263
 30
0.0
 10
155.4455669174378
 20
155.3044901642492
 30
0.0
 10
156.339225275853
 20
155.3659851592288
 30
0.0
 10
157.3748216618963
 20
155.2147453676543
 30
0.0
 10
158.911679771723
 20
154.9877134254046
 30
0.0
 10
159.8859534176746
 20
154.4390816074493
 30
0.0
 10
160.3965169054045
 20
152.7816450760939
 30
0.0
 10
160.9070803931344
 20
151.1219692311958
 30
0.0
 10
160.6328506116007
 20
150.2303779314354
 30
0.0
 10
159.9992971339115
 20
147.597634224801
 30
0.0
 10
159.7105979417943
 20
146.4014962832367
 30
0.0
 10
159.2947746424084
 20
144.9400858143094
 30
0.0
 10
158.7463150793409
 20
143.2092687007094
 30
0.0
 10
158.7463150793409
 20
143.2092687007094
 30
0.0
 10
153.9038856707499
 20
127.8027915271048
 30
0.0
 10
153.9038856707499
 20
127.8027915271048
 30
0.0
 10
153.9038856707499
 20
127.8027915271048
 30
0.0
 10
151.3882752878863
 20
127.8027915271048
 30
0.0
 10
151.3882752878863
 20
127.8027915271048
 30
0.0
 10
151.3882752878863
 20
127.8027915271048
 30
0.0
 10
155.6250565106276
 20
141.2751908193897
 30
0.0
 10
155.6250565106276
 20
141.2751908193897
 30
0.0
 10
156.5094131050963
 20
144.0936252951782
 30
0.0
 10
157.109893644309
 20
146.1506931664571
 30
0.0
 10
157.4220195011804
 20
147.4415712963654
 30
0.0
 10
157.8095929989511
 20
149.0530157726519
 30
0.0
 10
157.9656559273867
 20
149.5826995529385
 30
0.0
 10
157.7816877071116
 20
150.7529992613181
 30
0.0
 10
157.6111553680925
 20
151.8430281919372
 30
0.0
 10
157.0582171779396
 20
152.5547853887321
 30
0.0
 10
156.1170164704645
 20
152.5547853887321
 30
0.0
 10
155.1096698860365
 20
152.5547853887321
 30
0.0
 10
154.2962823053817
 20
152.4412694176073
 30
0.0
 10
153.156643967048
 20
151.2945686288697
 30
0.0
 10
152.0170056287143
 20
150.1476955852443
 30
0.0
 10
151.076149431015
 20
148.7930831468137
 30
0.0
 10
150.3337308641742
 20
147.2290087646991
 30
0.0
 10
149.5957909244188
 20
145.6683794803425
 30
0.0
 10
148.8530278478023
 20
143.6822806228776
 30
0.0
 10
148.0964843801539
 20
141.2751908193897
 30
0.0
 10
148.0964843801539
 20
141.2751908193897
 30
0.0
 10
143.8552245303272
 20
127.8027915271048
 30
0.0
 10
143.8552245303272
 20
127.8027915271048
 30
0.0
 10
143.8552245303272
 20
127.8027915271048
 30
0.0
 10
141.486030802177
 20
127.8027915271048
 30
0.0
 10
141.486030802177
 20
127.8027915271048
 30
0.0
 10
141.486030802177
 20
127.8027915271048
 30
0.0
 10
146.3329388378533
 20
143.2092687007094
 30
0.0
 10
146.3329388378533
 20
143.2092687007094
 30
0.0
 10
146.8483254624444
 20
144.8408669988801
 30
0.0
 10
147.2314203331297
 20
146.1837661049335
 30
0.0
 10
147.4867020769946
 20
147.224185627838
 30
0.0
 10
147.9169947869641
 20
149.0197705792876
 30
0.0
 10
148.0306830129768
 20
150.2400242051577
 30
0.0
 10
147.709255392159
 20
151.3157559800812
 30
0.0
 10
147.3874832615654
 20
152.3916600098926
 30
0.0
 10
146.8245542879144
 20
152.6683013598569
 30
0.0
 10
145.8840425999909
 20
152.6683013598569
 30
0.0
 10
145.0989048209514
 20
152.6683013598569
 30
0.0
 10
144.3282364524954
 20
152.3275811915945
 30
0.0
 10
143.4531816219731
 20
151.6538923250251
 30
0.0
 10
142.34627171234
 20
150.8074318058939
 30
0.0
 10
141.901854101563
 20
150.1097995099067
 30
0.0
 10
141.3578731655808
 20
149.289521733736
 30
0.0
 10
140.6299240093235
 20
148.192602607601
 30
0.0
 10
140.2850697237515
 20
147.455696197173
 30
0.0
 10
139.6652966370942
 20
145.8385673095858
 30
0.0
 10
139.0506911970739
 20
144.2214384219986
 30
0.0
 10
138.463991048893
 20
142.3252566160164
 30
0.0
 10
138.0571250036777
 20
141.0154304484394
 30
0.0
 10
138.0571250036777
 20
141.0154304484394
 30
0.0
 10
133.9009590684727
 20
127.8027915271048
 30
0.0
 10
133.9009590684727
 20
127.8027915271048
 30
0.0
 10
133.9009590684727
 20
127.8027915271048
 30
0.0
 10
131.4180771143097
 20
127.8027915271048
 30
0.0
 10
131.4180771143097
 20
127.8027915271048
 30
0.0
 10
131.4180771143097
 20
127.8027915271048
 30
0.0
 10
139.8926730891197
 20
154.8294111834263
 30
0.0
 10
139.8926730891197
 20
154.8294111834263
 30
0.0
  0
HATCH
  5
6A9
330
6A2
100
AcDbEntity
  8
LOGO
 62
   250
420
  2234388
100
AcDbHatch
 10
0.0
 20
0.0
 30
0.0
210
0.0
220
0.0
230
1.0
  2
SOLID
 70
     1
 71
     0
 91
        1
 92
        1
 93
        1
 72
     4
 94
        3
 73
     0
 74
     1
 95
      104
 96
      100
 40
0.0
 40
0.0
 40
0.0
 40
0.0
 40
1.0
 40
1.0
 40
1.0
 40
2.0
 40
2.0
 40
2.0
 40
3.0
 40
3.0
 40
3.0
 40
4.0
 40
4.0
 40
4.0
 40
5.0
 40
5.0
 40
5.0
 40
6.0
 40
6.0
 40
6.0
 40
7.0
 40
7.0
 40
7.0
 40
8.0
 40
8.0
 40
8.0
 40
9.0
 40
9.0
 40
9.0
 40
10.0
 40
10.0
 40
10.0
 40
11.0
 40
11.0
 40
11.0
 40
12.0
 40
12.0
 40
12.0
 40
13.0
 40
13.0
 40
13.0
 40
14.0
 40
14.0
 40
14.0
 40
15.0
 40
15.0
 40
15.0
 40
16.0
 40
16.0
 40
16.0
 40
17.0
 40
17.0
 40
17.0
 40
18.0
 40
18.0
 40
18.0
 40
19.0
 40
19.0
 40
19.0
 40
20.0
 40
20.0
 40
20.0
 40
21.0
 40
21.0
 40
21.0
 40
22.0
 40
22.0
 40
22.0
 40
23.0
 40
23.0
 40
23.0
 40
24.0
 40
24.0
 40
24.0
 40
25.0
 40
25.0
 40
25.0
 40
26.0
 40
26.0
 40
26.0
 40
27.0
 40
27.0
 40
27.0
 40
28.0
 40
28.0
 40
28.0
 40
29.0
 40
29.0
 40
29.0
 40
30.0
 40
30.0
 40
30.0
 40
31.0
 40
31.0
 40
31.0
 40
32.0
 40
32.0
 40
32.0
 40
33.0
 40
33.0
 40
33.0
 40
33.0
 10
139.8926730891197
 20
154.8294111834263
 10
139.8926730891197
 20
154.8294111834263
 10
142.0344903652445
 20
154.8294111834263
 10
142.0344903652445
 20
154.8294111834263
 10
142.0344903652445
 20
154.8294111834263
 10
140.9516961399171
 20
151.3157559800812
 10
140.9516961399171
 20
151.3157559800812
 10
141.8928968473923
 20
152.7887075264977
 10
142.7341897198865
 20
153.4484437471474
 10
143.8552245303272
 20
154.2926649527359
 10
144.9803934580775
 20
155.1296514530327
 10
146.3139908001845
 20
155.3044901642492
 10
147.241066606852
 20
155.3044901642492
 10
148.3855280820469
 20
155.3044901642492
 10
149.4969166187653
 20
155.0752189084569
 10
150.0784491203092
 20
153.8172414621372
 10
150.5228667310863
 20
152.833838307127
 10
150.5414702589793
 20
152.7201500811143
 10
150.4140016419347
 20
150.7765981809602
 10
151.5818897818837
 20
152.7699317437168
 10
152.4424752018226
 20
153.6256940267945
 10
153.9038856707499
 20
154.4507949398263
 10
155.4455669174378
 20
155.3044901642492
 10
156.339225275853
 20
155.3659851592288
 10
157.3748216618963
 20
155.2147453676543
 10
158.911679771723
 20
154.9877134254046
 10
159.8859534176746
 20
154.4390816074493
 10
160.3965169054045
 20
152.7816450760939
 10
160.9070803931344
 20
151.1219692311958
 10
160.6328506116007
 20
150.2303779314354
 10
159.9992971339115
 20
147.597634224801
 10
159.7105979417943
 20
146.4014962832367
 10
159.2947746424084
 20
144.9400858143094
 10
158.7463150793409
 20
143.2092687007094
 10
158.7463150793409
 20
143.2092687007094
 10
153.9038856707499
 20
127.8027915271048
 10
153.9038856707499
 20
127.8027915271048
 10
153.9038856707499
 20
127.8027915271048
 10
151.3882752878863
 20
127.8027915271048
 10
151.3882752878863
 20
127.8027915271048
 10
151.3882752878863
 20
127.8027915271048
 10
155.6250565106276
 20
141.2751908193897
 10
155.6250565106276
 20
141.2751908193897
 10
156.5094131050963
 20
144.0936252951782
 10
157.109893644309
 20
146.1506931664571
 10
157.4220195011804
 20
147.4415712963654
 10
157.8095929989511
 20
149.0530157726519
 10
157.9656559273867
 20
149.5826995529385
 10
157.7816877071116
 20
150.7529992613181
 10
157.6111553680925
 20
151.8430281919372
 10
157.0582171779396
 20
152.5547853887321
 10
156.1170164704645
 20
152.5547853887321
 10
155.1096698860365
 20
152.5547853887321
 10
154.2962823053817
 20
152.4412694176073
 10
153.156643967048
 20
151.2945686288697
 10
152.0170056287143
 20
150.1476955852443
 10
151.076149431015
 20
148.7930831468137
 10
150.3337308641742
 20
147.2290087646991
 10
149.5957909244188
 20
145.6683794803425
 10
148.8530278478023
 20
143.6822806228776
 10
148.0964843801539
 20
141.2751908193897
 10
148.0964843801539
 20
141.2751908193897
 10
143.8552245303272
 20
127.8027915271048
 10
143.8552245303272
 20
127.8027915271048
 10
143.8552245303272
 20
127.8027915271048
 10
141.486030802177
 20
127.8027915271048
 10
141.486030802177
 20
127.8027915271048
 10
141.486030802177
 20
127.8027915271048
 10
146.3329388378533
 20
143.2092687007094
 10
146.3329388378533
 20
143.2092687007094
 10
146.8483254624444
 20
144.8408669988801
 10
147.2314203331297
 20
146.1837661049335
 10
147.4867020769946
 20
147.224185627838
 10
147.9169947869641
 20
149.0197705792876
 10
148.0306830129768
 20
150.2400242051577
 10
147.709255392159
 20
151.3157559800812
 10
147.3874832615654
 20
152.3916600098926
 10
146.8245542879144
 20
152.6683013598569
 10
145.8840425999909
 20
152.6683013598569
 10
145.0989048209514
 20
152.6683013598569
 10
144.3282364524954
 20
152.3275811915945
 10
143.4531816219731
 20
151.6538923250251
 10
142.34627171234
 20
150.8074318058939
 10
141.901854101563
 20
150.1097995099067
 10
141.3578731655808
 20
149.289521733736
 10
140.6299240093235
 20
148.192602607601
 10
140.2850697237515
 20
147.455696197173
 10
139.6652966370942
 20
145.8385673095858
 10
139.0506911970739
 20
144.2214384219986
 10
138.463991048893
 20
142.3252566160164
 10
138.0571250036777
 20
141.0154304484394
 10
138.0571250036777
 20
141.0154304484394
 10
133.9009590684727
 20
127.8027915271048
 10
133.9009590684727
 20
127.8027915271048
 10
133.9009590684727
 20
127.8027915271048
 10
131.4180771143097
 20
127.8027915271048
 10
131.4180771143097
 20
127.8027915271048
 10
131.4180771143097
 20
127.8027915271048
 10
139.8926730891197
 20
154.8294111834263
 10
139.8926730891197
 20
154.8294111834263
 97
        0
 75
     2
 76
     1
 98
        0
  0
SPLINE
  5
6AA
330
6A2
100
AcDbEntity
  8
LOGO
370
     0
100
AcDbSpline
210
0.0
220
0.0
230
1.0
 70
    11
 71
     3
 72
    29
 73
    25
 74
     0
 42
0.000000001
 43
0.0000000001
 40
0.0
 40
0.0
 40
0.0
 40
0.0
 40
1.0
 40
1.0
 40
1.0
 40
2.0
 40
2.0
 40
2.0
 40
3.0
 40
3.0
 40
3.0
 40
4.0
 40
4.0
 40
4.0
 40
5.0
 40
5.0
 40
5.0
 40
6.0
 40
6.0
 40
6.0
 40
7.0
 40
7.0
 40
7.0
 40
8.0
 40
8.0
 40
8.0
 40
8.0
 10
101.6420971922469
 20
132.8388354296931
 30
0.0
 10
101.630039350094
 20
134.7164137077823
 30
0.0
 10
102.2236296937908
 20
138.0598810818841
 30
0.0
 10
103.7487744712405
 20
142.5378191476827
 30
0.0
 10
105.819967243327
 20
148.5896501242061
 30
0.0
 10
107.0602024361932
 20
150.8074318058939
 30
0.0
 10
108.1522984254671
 20
151.8833358357054
 30
0.0
 10
109.741177511439
 20
153.4532668840085
 30
0.0
 10
111.8740375333931
 20
153.5290590346837
 30
0.0
 10
112.5075910110823
 20
153.4532668840085
 30
0.0
 10
113.4012493694975
 20
153.3490526768302
 30
0.0
 10
114.6683563248758
 20
152.7580461564518
 30
0.0
 10
114.7493161221879
 20
150.7838328862519
 30
0.0
 10
114.8106388622796
 20
149.0909118479895
 30
0.0
 10
114.3186789024427
 20
145.9191825971221
 30
0.0
 10
112.6164561002338
 20
140.9489400617108
 30
0.0
 10
110.6444821435766
 20
135.1746117095912
 30
0.0
 10
109.4669477299053
 20
132.8960240524753
 30
0.0
 10
108.5212683953448
 20
131.9072809959403
 30
0.0
 10
106.7346406980658
 20
130.0538184021569
 30
0.0
 10
104.8222669326213
 20
130.2336525051225
 30
0.0
 10
104.5408024457958
 20
130.2336525051225
 30
0.0
 10
104.1721769856939
 20
130.2336525051225
 30
0.0
 10
101.6465758193322
 20
130.6305277668397
 30
0.0
 10
101.6420971922469
 20
132.8388354296931
 30
0.0
  0
SPLINE
  5
6AB
330
6A2
100
AcDbEntity
  8
LOGO
370
     0
100
AcDbSpline
210
0.0
220
0.0
230
1.0
 70
    11
 71
     3
 72
    32
 73
    28
 74
     0
 42
0.000000001
 43
0.0000000001
 40
0.0
 40
0.0
 40
0.0
 40
0.0
 40
1.0
 40
1.0
 40
1.0
 40
2.0
 40
2.0
 40
2.0
 40
3.0
 40
3.0
 40
3.0
 40
4.0
 40
4.0
 40
4.0
 40
5.0
 40
5.0
 40
5.0
 40
6.0
 40
6.0
 40
6.0
 40
7.0
 40
7.0
 40
7.0
 40
8.0
 40
8.0
 40
8.0
 40
9.0
 40
9.0
 40
9.0
 40
9.0
 10
106.2595617172429
 20
153.4105476718098
 30
0.0
 10
104.8222669326213
 20
151.5474388043041
 30
0.0
 10
103.7177685914188
 20
149.8758773721411
 30
0.0
 10
101.9232171692965
 20
144.6141795664062
 30
0.0
 10
100.2754269116635
 20
139.7999999594306
 30
0.0
 10
99.22777268346732
 20
136.3052927937542
 30
0.0
 10
99.06964269637689
 20
132.039572749846
 30
0.0
 10
98.94665270641765
 20
128.8673267343149
 30
0.0
 10
100.8807305877373
 20
127.8027915271048
 30
0.0
 10
103.7129454545577
 20
127.8027915271048
 30
0.0
 10
104.9352661390825
 20
127.8027915271048
 30
0.0
 10
108.0151835347002
 20
127.8827177950895
 30
0.0
 10
110.2045431598849
 20
130.5926316915021
 30
0.0
 10
111.7417457794874
 20
132.4984597712065
 30
0.0
 10
113.155269389579
 20
134.475256864725
 30
0.0
 10
115.0562743324223
 20
140.9489400617108
 30
0.0
 10
116.6361961642235
 20
146.3680788349845
 30
0.0
 10
117.7282921534974
 20
149.8639917848761
 30
0.0
 10
117.6480213757369
 20
151.8595646611754
 30
0.0
 10
117.6480213757369
 20
151.8595646611754
 30
0.0
 10
117.6480213757369
 20
151.8595646611754
 30
0.0
 10
117.6480213757369
 20
151.8595646611754
 30
0.0
 10
117.13229024137
 20
155.18150017429
 30
0.0
 10
114.7162431837115
 20
155.886194920681
 30
0.0
 10
113.3351034925446
 20
155.886194920681
 30
0.0
 10
111.9829026225447
 20
155.886194920681
 30
0.0
 10
108.3414342923792
 20
156.1251124501957
 30
0.0
 10
106.2595617172429
 20
153.4105476718098
 30
0.0
  0
HATCH
  5
6AC
330
6A2
100
AcDbEntity
  8
LOGO
 62
   250
420
  2234388
100
AcDbHatch
 10
0.0
 20
0.0
 30
0.0
210
0.0
220
0.0
230
1.0
  2
SOLID
 70
     1
 71
     0
 91
        2
 92
        1
 93
        1
 72
     4
 94
        3
 73
     0
 74
     1
 95
       29
 96
       25
 40
0.0
 40
0.0
 40
0.0
 40
0.0
 40
1.0
 40
1.0
 40
1.0
 40
2.0
 40
2.0
 40
2.0
 40
3.0
 40
3.0
 40
3.0
 40
4.0
 40
4.0
 40
4.0
 40
5.0
 40
5.0
 40
5.0
 40
6.0
 40
6.0
 40
6.0
 40
7.0
 40
7.0
 40
7.0
 40
8.0
 40
8.0
 40
8.0
 40
8.0
 10
101.6420971922469
 20
132.8388354296931
 10
101.630039350094
 20
134.7164137077823
 10
102.2236296937908
 20
138.0598810818841
 10
103.7487744712405
 20
142.5378191476827
 10
105.819967243327
 20
148.5896501242061
 10
107.0602024361932
 20
150.8074318058939
 10
108.1522984254671
 20
151.8833358357054
 10
109.741177511439
 20
153.4532668840085
 10
111.8740375333931
 20
153.5290590346837
 10
112.5075910110823
 20
153.4532668840085
 10
113.4012493694975
 20
153.3490526768302
 10
114.6683563248758
 20
152.7580461564518
 10
114.7493161221879
 20
150.7838328862519
 10
114.8106388622796
 20
149.0909118479895
 10
114.3186789024427
 20
145.9191825971221
 10
112.6164561002338
 20
140.9489400617108
 10
110.6444821435766
 20
135.1746117095912
 10
109.4669477299053
 20
132.8960240524753
 10
108.5212683953448
 20
131.9072809959403
 10
106.7346406980658
 20
130.0538184021569
 10
104.8222669326213
 20
130.2336525051225
 10
104.5408024457958
 20
130.2336525051225
 10
104.1721769856939
 20
130.2336525051225
 10
101.6465758193322
 20
130.6305277668397
 10
101.6420971922469
 20
132.8388354296931
 97
        0
 92
        1
 93
        1
 72
     4
 94
        3
 73
     0
 74
     1
 95
       32
 96
       28
 40
0.0
 40
0.0
 40
0.0
 40
0.0
 40
1.0
 40
1.0
 40
1.0
 40
2.0
 40
2.0
 40
2.0
 40
3.0
 40
3.0
 40
3.0
 40
4.0
 40
4.0
 40
4.0
 40
5.0
 40
5.0
 40
5.0
 40
6.0
 40
6.0
 40
6.0
 40
7.0
 40
7.0
 40
7.0
 40
8.0
 40
8.0
 40
8.0
 40
9.0
 40
9.0
 40
9.0
 40
9.0
 10
106.2595617172429
 20
153.4105476718098
 10
104.8222669326213
 20
151.5474388043041
 10
103.7177685914188
 20
149.8758773721411
 10
101.9232171692965
 20
144.6141795664062
 10
100.2754269116635
 20
139.7999999594306
 10
99.22777268346732
 20
136.3052927937542
 10
99.06964269637689
 20
132.039572749846
 10
98.94665270641765
 20
128.8673267343149
 10
100.8807305877373
 20
127.8027915271048
 10
103.7129454545577
 20
127.8027915271048
 10
104.9352661390825
 20
127.8027915271048
 10
108.0151835347002
 20
127.8827177950895
 10
110.2045431598849
 20
130.5926316915021
 10
111.7417457794874
 20
132.4984597712065
 10
113.155269389579
 20
134.475256864725
 10
115.0562743324223
 20
140.9489400617108
 10
116.6361961642235
 20
146.3680788349845
 10
117.7282921534974
 20
149.8639917848761
 10
117.6480213757369
 20
151.8595646611754
 10
117.6480213757369
 20
151.8595646611754
 10
117.6480213757369
 20
151.8595646611754
 10
117.6480213757369
 20
151.8595646611754
 10
117.13229024137
 20
155.18150017429
 10
114.7162431837115
 20
155.886194920681
 10
113.3351034925446
 20
155.886194920681
 10
111.9829026225447
 20
155.886194920681
 10
108.3414342923792
 20
156.1251124501957
 10
106.2595617172429
 20
153.4105476718098
 97
        0
 75
     2
 76
     1
 98
        0
  0
ENDBLK
  5
6AD
330
6A2
100
AcDbEntity
  8
0
100
AcDbBlockEnd
  0
BLOCK
  5
D91
330
D90
100
AcDbEntity
  8
0
100
AcDbBlockBegin
  2
*D6
 70
     1
 10
0.0
 20
0.0
 30
0.0
  3
*D6
  1
*D6
  0
LINE
  5
D93
330
D90
100
AcDbEntity
  8
DIM
 62
     0
370
    -2
100
AcDbLine
 10
194.9013848396499
 20
991.8781341107873
 30
0.0
 11
194.9013848396499
 21
940.5413793571681
 31
0.0
  0
LINE
  5
D94
330
D90
100
AcDbEntity
  8
DIM
 62
     0
370
    -2
100
AcDbLine
 10
521.6879737609329
 20
991.8781341107873
 30
0.0
 11
521.6879737609329
 21
940.5413793571681
 31
0.0
  0
LINE
  5
D95
330
D90
100
AcDbEntity
  8
DIM
 62
     0
370
    -2
100
AcDbLine
 10
200.9013848396499
 20
940.5413793571681
 30
0.0
 11
515.6879737609329
 21
940.5413793571681
 31
0.0
  0
INSERT
  5
D96
330
D90
100
AcDbEntity
  8
DIM
 62
     0
370
    -2
100
AcDbBlockReference
  2
_DOT
 10
194.9013848396499
 20
940.5413793571681
 30
0.0
 41
6.0
 42
6.0
 43
6.0
 50
180.0
  0
INSERT
  5
D97
330
D90
100
AcDbEntity
  8
DIM
 62
     0
370
    -2
100
AcDbBlockReference
  2
_DOT
 10
521.6879737609329
 20
940.5413793571681
 30
0.0
 41
6.0
 42
6.0
 43
6.0
  0
MTEXT
  5
D98
330
D90
100
AcDbEntity
  8
DIM
 62
     0
100
AcDbMText
 10
358.2946793002914
 20
956.5413793571681
 30
0.0
 40
12.0
 41
0.0
 46
0.0
 71
     5
 72
     1
  1
\A1;327
  7
ＭＳ ゴシック
 73
     1
 44
1.0
  0
POINT
  5
D99
330
D90
100
AcDbEntity
  8
Defpoints
 62
     0
100
AcDbPoint
 10
194.9013848396499
 20
1011.878134110787
 30
0.0
  0
POINT
  5
D9A
330
D90
100
AcDbEntity
  8
Defpoints
 62
     0
100
AcDbPoint
 10
521.6879737609329
 20
1011.878134110787
 30
0.0
  0
POINT
  5
D9B
330
D90
100
AcDbEntity
  8
Defpoints
 62
     0
100
AcDbPoint
 10
521.6879737609329
 20
940.5413793571681
 30
0.0
  0
ENDBLK
  5
D92
330
D90
100
AcDbEntity
  8
0
100
AcDbBlockEnd
  0
BLOCK
  5
DA0
330
D9F
100
AcDbEntity
  8
0
100
AcDbBlockBegin
  2
*D7
 70
     1
 10
0.0
 20
0.0
 30
0.0
  3
*D7
  1
*D7
  0
LINE
  5
DA2
330
D9F
100
AcDbEntity
  8
DIM
 62
     0
370
    -2
100
AcDbLine
 10
541.6879737609329
 20
1259.176093294461
 30
0.0
 11
592.27223683134
 21
1259.176093294461
 31
0.0
  0
LINE
  5
DA3
330
D9F
100
AcDbEntity
  8
DIM
 62
     0
370
    -2
100
AcDbLine
 10
541.6879737609329
 20
1011.878134110787
 30
0.0
 11
592.27223683134
 21
1011.878134110787
 31
0.0
  0
LINE
  5
DA4
330
D9F
100
AcDbEntity
  8
DIM
 62
     0
370
    -2
100
AcDbLine
 10
592.27223683134
 20
1253.176093294461
 30
0.0
 11
592.27223683134
 21
1017.878134110787
 31
0.0
  0
INSERT
  5
DA5
330
D9F
100
AcDbEntity
  8
DIM
 62
     0
370
    -2
100
AcDbBlockReference
  2
_DOT
 10
592.27223683134
 20
1259.176093294461
 30
0.0
 41
6.0
 42
6.0
 43
6.0
 50
90.0
  0
INSERT
  5
DA6
330
D9F
100
AcDbEntity
  8
DIM
 62
     0
370
    -2
100
AcDbBlockReference
  2
_DOT
 10
592.27223683134
 20
1011.878134110787
 30
0.0
 41
6.0
 42
6.0
 43
6.0
 50
270.0
  0
MTEXT
  5
DA7
330
D9F
100
AcDbEntity
  8
DIM
 62
     0
100
AcDbMText
 10
576.27223683134
 20
1135.527113702624
 30
0.0
 40
12.0
 41
0.0
 46
0.0
 71
     5
 72
     1
  1
\A1;247
  7
ＭＳ ゴシック
 11
0.0
 21
1.0
 31
0.0
 73
     1
 44
1.0
  0
POINT
  5
DA8
330
D9F
100
AcDbEntity
  8
Defpoints
 62
     0
100
AcDbPoint
 10
521.6879737609329
 20
1259.176093294461
 30
0.0
  0
POINT
  5
DA9
330
D9F
100
AcDbEntity
  8
Defpoints
 62
     0
100
AcDbPoint
 10
521.6879737609329
 20
1011.878134110787
 30
0.0
  0
POINT
  5
DAA
330
D9F
100
AcDbEntity
  8
Defpoints
 62
     0
100
AcDbPoint
 10
592.27223683134
 20
1011.878134110787
 30
0.0
  0
ENDBLK
  5
DA1
330
D9F
100
AcDbEntity
  8
0
100
AcDbBlockEnd
  0
BLOCK
  5
E4E
330
E4D
100
AcDbEntity
  8
0
100
AcDbBlockBegin
  2
*D8
 70
     1
 10
0.0
 20
0.0
 30
0.0
  3
*D8
  1
*D8
  0
LINE
  5
E50
330
E4D
100
AcDbEntity
  8
HIDDEN
  6
HIDDEN
 62
     0
 48
0.05
370
    -2
100
AcDbLine
 10
322.9663994169097
 20
836.4046647230323
 30
0.0
 11
322.9663994169097
 21
978.7578717201168
 31
0.0
  0
LINE
  5
E51
330
E4D
100
AcDbEntity
  8
HIDDEN
  6
HIDDEN
 62
     0
 48
0.05
370
    -2
100
AcDbLine
 10
640.9209183673471
 20
836.4046647230323
 30
0.0
 11
640.9209183673471
 21
978.7578717201168
 31
0.0
  0
LINE
  5
E52
330
E4D
100
AcDbEntity
  8
HIDDEN
  6
HIDDEN
 62
     0
 48
0.05
370
    -2
100
AcDbLine
 10
325.9663994169097
 20
978.7578717201168
 30
0.0
 11
637.9209183673471
 21
978.7578717201168
 31
0.0
  0
INSERT
  5
E53
330
E4D
100
AcDbEntity
  8
HIDDEN
 62
     0
370
    -2
100
AcDbBlockReference
  2
_DOT
 10
322.9663994169097
 20
978.7578717201168
 30
0.0
 41
3.0
 42
3.0
 43
3.0
 50
180.0
  0
INSERT
  5
E54
330
E4D
100
AcDbEntity
  8
HIDDEN
 62
     0
370
    -2
100
AcDbBlockReference
  2
_DOT
 10
640.9209183673471
 20
978.7578717201168
 30
0.0
 41
3.0
 42
3.0
 43
3.0
  0
MTEXT
  5
E55
330
E4D
100
AcDbEntity
  8
HIDDEN
  6
HIDDEN
 62
     0
 48
0.05
100
AcDbMText
 10
481.9436588921284
 20
994.7578717201168
 30
0.0
 40
12.0
 41
0.0
 46
0.0
 71
     5
 72
     1
  1
\A1;318
  7
ＭＳ ゴシック
 73
     1
 44
1.0
  0
POINT
  5
E56
330
E4D
100
AcDbEntity
  8
Defpoints
 62
     0
100
AcDbPoint
 10
322.9663994169097
 20
826.4046647230323
 30
0.0
  0
POINT
  5
E57
330
E4D
100
AcDbEntity
  8
Defpoints
 62
     0
100
AcDbPoint
 10
640.9209183673471
 20
826.4046647230323
 30
0.0
  0
POINT
  5
E58
330
E4D
100
AcDbEntity
  8
Defpoints
 62
     0
100
AcDbPoint
 10
640.9209183673471
 20
978.7578717201168
 30
0.0
  0
ENDBLK
  5
E4F
330
E4D
100
AcDbEntity
  8
0
100
AcDbBlockEnd
  0
BLOCK
  5
F06
330
F05
100
AcDbEntity
  8
0
100
AcDbBlockBegin
  2
*D9
 70
     1
 10
0.0
 20
0.0
 30
0.0
  3
*D9
  1
*D141
  0
LINE
  5
F07
330
F05
100
AcDbEntity
  8
DIM
  6
Continuous
 62
     0
370
    -2
100
AcDbLine
 10
1448.56022934476
 20
1077.090453293982
 30
0.0
 11
1448.56022934476
 21
1203.742453293982
 31
0.0
  0
LINE
  5
F08
330
F05
100
AcDbEntity
  8
DIM
  6
Continuous
 62
     0
370
    -2
100
AcDbLine
 10
1448.56022934476
 20
1074.090453293982
 30
0.0
 11
1448.56022934476
 21
1004.488599905444
 31
0.0
  0
INSERT
  5
F09
330
F05
100
AcDbEntity
  8
DIM
 62
     0
370
    -2
100
AcDbBlockReference
  2
_DOT
 10
1448.56022934476
 20
1077.090453293982
 30
0.0
 41
3.0
 42
3.0
 43
3.0
 50
90.0
  0
INSERT
  5
F0A
330
F05
100
AcDbEntity
  8
DIM
 62
     0
370
    -2
100
AcDbBlockReference
  2
_DOT
 10
1448.56022934476
 20
1001.488599905444
 30
0.0
 41
3.0
 42
3.0
 43
3.0
 50
270.0
  0
MTEXT
  5
F0B
330
F05
100
AcDbEntity
  8
DIM
 62
     0
 48
0.05
100
AcDbMText
 10
1431.49822934476
 20
1164.858453293982
 30
0.0
 40
12.0
 41
0.0
 46
0.0
 71
     5
 72
     1
  1
\A1;75(深さ)
  7
ＭＳ ゴシック
 11
0.0
 21
1.0
 31
0.0
 73
     1
 44
1.0
  0
POINT
  5
F0C
330
F05
100
AcDbEntity
  8
Defpoints
 62
     0
100
AcDbPoint
 10
1471.671489326533
 20
1077.090453293982
 30
0.0
  0
POINT
  5
F0D
330
F05
100
AcDbEntity
  8
Defpoints
 62
     0
100
AcDbPoint
 10
1448.56022934476
 20
1001.488599905444
 30
0.0
  0
POINT
  5
F0E
330
F05
100
AcDbEntity
  8
Defpoints
 62
     0
100
AcDbPoint
 10
1448.56022934476
 20
1001.488599905444
 30
0.0
  0
ENDBLK
  5
F0F
330
F05
100
AcDbEntity
  8
0
100
AcDbBlockEnd
  0
BLOCK
  5
F53
330
F52
100
AcDbEntity
  8
0
100
AcDbBlockBegin
  2
*D10
 70
     1
 10
0.0
 20
0.0
 30
0.0
  3
*D10
  1
*D145
  0
LINE
  5
F54
330
F52
100
AcDbEntity
  8
DIM
  6
Continuous
 62
     0
370
    -2
100
AcDbLine
 10
1467.244907837198
 20
1959.395394639839
 30
0.0
 11
1617.583641015255
 21
1959.395394639839
 31
0.0
  0
LINE
  5
F55
330
F52
100
AcDbEntity
  8
DIM
  6
Continuous
 62
     0
370
    -2
100
AcDbLine
 10
1467.244907837198
 20
2124.395394639839
 30
0.0
 11
1617.583641015255
 21
2124.395394639839
 31
0.0
  0
LINE
  5
F56
330
F52
100
AcDbEntity
  8
DIM
  6
Continuous
 62
     0
370
    -2
100
AcDbLine
 10
1617.583641015255
 20
1962.395394639839
 30
0.0
 11
1617.583641015255
 21
2121.395394639839
 31
0.0
  0
INSERT
  5
F57
330
F52
100
AcDbEntity
  8
DIM
 62
     0
370
    -2
100
AcDbBlockReference
  2
_DOT
 10
1617.583641015255
 20
1959.395394639839
 30
0.0
 41
3.0
 42
3.0
 43
3.0
 50
270.0
  0
INSERT
  5
F58
330
F52
100
AcDbEntity
  8
DIM
 62
     0
370
    -2
100
AcDbBlockReference
  2
_DOT
 10
1617.583641015255
 20
2124.395394639839
 30
0.0
 41
3.0
 42
3.0
 43
3.0
 50
90.0
  0
MTEXT
  5
F59
330
F52
100
AcDbEntity
  8
DIM
 62
     0
 48
0.05
100
AcDbMText
 10
1601.583641015255
 20
2041.895394639839
 30
0.0
 40
12.0
 41
0.0
 46
0.0
 71
     5
 72
     1
  1
\A1;165
  7
ＭＳ ゴシック
 11
0.0
 21
1.0
 31
0.0
 73
     1
 44
1.0
  0
POINT
  5
F5A
330
F52
100
AcDbEntity
  8
Defpoints
 62
     0
100
AcDbPoint
 10
1457.244907837198
 20
1959.395394639839
 30
0.0
  0
POINT
  5
F5B
330
F52
100
AcDbEntity
  8
Defpoints
 62
     0
100
AcDbPoint
 10
1457.244907837198
 20
2124.395394639839
 30
0.0
  0
POINT
  5
F5C
330
F52
100
AcDbEntity
  8
Defpoints
 62
     0
100
AcDbPoint
 10
1617.583641015255
 20
2124.395394639839
 30
0.0
  0
ENDBLK
  5
F5D
330
F52
100
AcDbEntity
  8
0
100
AcDbBlockEnd
  0
BLOCK
  5
F62
330
F61
100
AcDbEntity
  8
0
100
AcDbBlockBegin
  2
*D11
 70
     1
 10
0.0
 20
0.0
 30
0.0
  3
*D11
  1
*D146
  0
LINE
  5
F63
330
F61
100
AcDbEntity
  8
DIM
  6
Continuous
 62
     0
370
    -2
100
AcDbLine
 10
1357.244907837198
 20
1949.395394639839
 30
0.0
 11
1357.244907837198
 21
1789.071925503803
 31
0.0
  0
LINE
  5
F64
330
F61
100
AcDbEntity
  8
DIM
  6
Continuous
 62
     0
370
    -2
100
AcDbLine
 10
1457.244907837198
 20
1949.395394639839
 30
0.0
 11
1457.244907837198
 21
1789.071925503803
 31
0.0
  0
LINE
  5
F65
330
F61
100
AcDbEntity
  8
DIM
  6
Continuous
 62
     0
370
    -2
100
AcDbLine
 10
1360.244907837198
 20
1789.071925503803
 30
0.0
 11
1454.244907837198
 21
1789.071925503803
 31
0.0
  0
INSERT
  5
F66
330
F61
100
AcDbEntity
  8
DIM
 62
     0
370
    -2
100
AcDbBlockReference
  2
_DOT
 10
1357.244907837198
 20
1789.071925503803
 30
0.0
 41
3.0
 42
3.0
 43
3.0
 50
180.0
  0
INSERT
  5
F67
330
F61
100
AcDbEntity
  8
DIM
 62
     0
370
    -2
100
AcDbBlockReference
  2
_DOT
 10
1457.244907837198
 20
1789.071925503803
 30
0.0
 41
3.0
 42
3.0
 43
3.0
  0
MTEXT
  5
F68
330
F61
100
AcDbEntity
  8
DIM
 62
     0
 48
0.05
100
AcDbMText
 10
1407.244907837198
 20
1805.071925503803
 30
0.0
 40
12.0
 41
0.0
 46
0.0
 71
     5
 72
     1
  1
\A1;100
  7
ＭＳ ゴシック
 73
     1
 44
1.0
  0
POINT
  5
F69
330
F61
100
AcDbEntity
  8
Defpoints
 62
     0
100
AcDbPoint
 10
1357.244907837198
 20
1959.395394639839
 30
0.0
  0
POINT
  5
F6A
330
F61
100
AcDbEntity
  8
Defpoints
 62
     0
100
AcDbPoint
 10
1457.244907837198
 20
1959.395394639839
 30
0.0
  0
POINT
  5
F6B
330
F61
100
AcDbEntity
  8
Defpoints
 62
     0
100
AcDbPoint
 10
1457.244907837198
 20
1789.071925503803
 30
0.0
  0
ENDBLK
  5
F6C
330
F61
100
AcDbEntity
  8
0
100
AcDbBlockEnd
  0
BLOCK
  5
F74
330
F73
100
AcDbEntity
  8
0
100
AcDbBlockBegin
  2
*D12
 70
     1
 10
0.0
 20
0.0
 30
0.0
  3
*D12
  1
*D149
  0
LINE
  5
F75
330
F73
100
AcDbEntity
  8
DIM
  6
Continuous
 62
     0
370
    -2
100
AcDbLine
 10
1467.244907837198
 20
2124.395394639839
 30
0.0
 11
1617.583641015255
 21
2124.395394639839
 31
0.0
  0
LINE
  5
F76
330
F73
100
AcDbEntity
  8
DIM
  6
Continuous
 62
     0
370
    -2
100
AcDbLine
 10
1467.244907837198
 20
2139.395394639839
 30
0.0
 11
1617.583641015255
 21
2139.395394639839
 31
0.0
  0
LINE
  5
F77
330
F73
100
AcDbEntity
  8
DIM
  6
Continuous
 62
     0
370
    -2
100
AcDbLine
 10
1617.583641015255
 20
2139.395394639839
 30
0.0
 11
1617.583641015255
 21
2199.123394639839
 31
0.0
  0
LINE
  5
F78
330
F73
100
AcDbEntity
  8
DIM
  6
Continuous
 62
     0
370
    -2
100
AcDbLine
 10
1617.583641015255
 20
2127.395394639839
 30
0.0
 11
1617.583641015255
 21
2136.395394639839
 31
0.0
  0
INSERT
  5
F79
330
F73
100
AcDbEntity
  8
DIM
 62
     0
370
    -2
100
AcDbBlockReference
  2
_DOT
 10
1617.583641015255
 20
2124.395394639839
 30
0.0
 41
3.0
 42
3.0
 43
3.0
 50
270.0
  0
INSERT
  5
F7A
330
F73
100
AcDbEntity
  8
DIM
 62
     0
370
    -2
100
AcDbBlockReference
  2
_DOT
 10
1617.583641015255
 20
2139.395394639839
 30
0.0
 41
3.0
 42
3.0
 43
3.0
 50
90.0
  0
MTEXT
  5
F7B
330
F73
100
AcDbEntity
  8
DIM
 62
     0
 48
0.05
100
AcDbMText
 10
1601.583641015255
 20
2182.547394639839
 30
0.0
 40
12.0
 41
0.0
 46
0.0
 71
     5
 72
     1
  1
\A1;15
  7
ＭＳ ゴシック
 11
0.0
 21
1.0
 31
0.0
 73
     1
 44
1.0
  0
POINT
  5
F7C
330
F73
100
AcDbEntity
  8
Defpoints
 62
     0
100
AcDbPoint
 10
1457.244907837198
 20
2124.395394639839
 30
0.0
  0
POINT
  5
F7D
330
F73
100
AcDbEntity
  8
Defpoints
 62
     0
100
AcDbPoint
 10
1457.244907837198
 20
2139.395394639839
 30
0.0
  0
POINT
  5
F7E
330
F73
100
AcDbEntity
  8
Defpoints
 62
     0
100
AcDbPoint
 10
1617.583641015255
 20
2139.395394639839
 30
0.0
  0
ENDBLK
  5
F7F
330
F73
100
AcDbEntity
  8
0
100
AcDbBlockEnd
  0
BLOCK
  5
F86
330
F85
100
AcDbEntity
  8
0
100
AcDbBlockBegin
  2
*D13
 70
     1
 10
0.0
 20
0.0
 30
0.0
  3
*D13
  1
*D152
  0
LINE
  5
F87
330
F85
100
AcDbEntity
  8
DIM
  6
Continuous
 62
     0
370
    -2
100
AcDbLine
 10
528.3625009477164
 20
2149.395394639839
 30
0.0
 11
528.3625009477164
 21
2233.454839079049
 31
0.0
  0
LINE
  5
F88
330
F85
100
AcDbEntity
  8
DIM
  6
Continuous
 62
     0
370
    -2
100
AcDbLine
 10
808.3625009477164
 20
2149.395394639839
 30
0.0
 11
808.3625009477164
 21
2233.454839079049
 31
0.0
  0
LINE
  5
F89
330
F85
100
AcDbEntity
  8
DIM
  6
Continuous
 62
     0
370
    -2
100
AcDbLine
 10
531.3625009477164
 20
2233.454839079049
 30
0.0
 11
805.3625009477164
 21
2233.454839079049
 31
0.0
  0
INSERT
  5
F8A
330
F85
100
AcDbEntity
  8
DIM
 62
     0
370
    -2
100
AcDbBlockReference
  2
_DOT
 10
528.3625009477164
 20
2233.454839079049
 30
0.0
 41
3.0
 42
3.0
 43
3.0
 50
180.0
  0
INSERT
  5
F8B
330
F85
100
AcDbEntity
  8
DIM
 62
     0
370
    -2
100
AcDbBlockReference
  2
_DOT
 10
808.3625009477164
 20
2233.454839079049
 30
0.0
 41
3.0
 42
3.0
 43
3.0
  0
MTEXT
  5
F8C
330
F85
100
AcDbEntity
  8
DIM
 62
     0
 48
0.05
100
AcDbMText
 10
668.3625009477164
 20
2249.454839079049
 30
0.0
 40
12.0
 41
0.0
 46
0.0
 71
     5
 72
     1
  1
\A1;280
  7
ＭＳ ゴシック
 73
     1
 44
1.0
  0
POINT
  5
F8D
330
F85
100
AcDbEntity
  8
Defpoints
 62
     0
100
AcDbPoint
 10
528.3625009477164
 20
2139.395394639839
 30
0.0
  0
POINT
  5
F8E
330
F85
100
AcDbEntity
  8
Defpoints
 62
     0
100
AcDbPoint
 10
808.3625009477164
 20
2139.395394639839
 30
0.0
  0
POINT
  5
F8F
330
F85
100
AcDbEntity
  8
Defpoints
 62
     0
100
AcDbPoint
 10
808.3625009477164
 20
2233.454839079049
 30
0.0
  0
ENDBLK
  5
F90
330
F85
100
AcDbEntity
  8
0
100
AcDbBlockEnd
  0
BLOCK
  5
F95
330
F94
100
AcDbEntity
  8
0
100
AcDbBlockBegin
  2
*D14
 70
     1
 10
0.0
 20
0.0
 30
0.0
  3
*D14
  1
*D153
  0
LINE
  5
F96
330
F94
100
AcDbEntity
  8
DIM
  6
Continuous
 62
     0
370
    -2
100
AcDbLine
 10
818.3625009477164
 20
2139.395394639839
 30
0.0
 11
943.0573581501604
 21
2139.395394639839
 31
0.0
  0
LINE
  5
F97
330
F94
100
AcDbEntity
  8
DIM
  6
Continuous
 62
     0
370
    -2
100
AcDbLine
 10
818.3625009477164
 20
1869.395394639839
 30
0.0
 11
943.0573581501604
 21
1869.395394639839
 31
0.0
  0
LINE
  5
F98
330
F94
100
AcDbEntity
  8
DIM
  6
Continuous
 62
     0
370
    -2
100
AcDbLine
 10
943.0573581501604
 20
2136.395394639839
 30
0.0
 11
943.0573581501604
 21
1872.395394639839
 31
0.0
  0
INSERT
  5
F99
330
F94
100
AcDbEntity
  8
DIM
 62
     0
370
    -2
100
AcDbBlockReference
  2
_DOT
 10
943.0573581501604
 20
2139.395394639839
 30
0.0
 41
3.0
 42
3.0
 43
3.0
 50
90.0
  0
INSERT
  5
F9A
330
F94
100
AcDbEntity
  8
DIM
 62
     0
370
    -2
100
AcDbBlockReference
  2
_DOT
 10
943.0573581501604
 20
1869.395394639839
 30
0.0
 41
3.0
 42
3.0
 43
3.0
 50
270.0
  0
MTEXT
  5
F9B
330
F94
100
AcDbEntity
  8
DIM
 62
     0
 48
0.05
100
AcDbMText
 10
927.0573581501604
 20
2004.395394639839
 30
0.0
 40
12.0
 41
0.0
 46
0.0
 71
     5
 72
     1
  1
\A1;270
  7
ＭＳ ゴシック
 11
0.0
 21
1.0
 31
0.0
 73
     1
 44
1.0
  0
POINT
  5
F9C
330
F94
100
AcDbEntity
  8
Defpoints
 62
     0
100
AcDbPoint
 10
808.3625009477164
 20
2139.395394639839
 30
0.0
  0
POINT
  5
F9D
330
F94
100
AcDbEntity
  8
Defpoints
 62
     0
100
AcDbPoint
 10
808.3625009477164
 20
1869.395394639839
 30
0.0
  0
POINT
  5
F9E
330
F94
100
AcDbEntity
  8
Defpoints
 62
     0
100
AcDbPoint
 10
943.0573581501604
 20
1869.395394639839
 30
0.0
  0
ENDBLK
  5
F9F
330
F94
100
AcDbEntity
  8
0
100
AcDbBlockEnd
  0
BLOCK
  5
FA2
330
FA1
100
AcDbEntity
  8
0
100
AcDbBlockBegin
  2
*D15
 70
     1
 10
0.0
 20
0.0
 30
0.0
  3
*D15
  1
*D155
  0
LINE
  5
FA3
330
FA1
100
AcDbEntity
  8
DIM
  6
Continuous
 62
     0
370
    -2
100
AcDbLine
 10
548.3625009477164
 20
1863.614156196345
 30
0.0
 11
548.3625009477164
 21
1767.203892626843
 31
0.0
  0
LINE
  5
FA4
330
FA1
100
AcDbEntity
  8
DIM
  6
Continuous
 62
     0
370
    -2
100
AcDbLine
 10
788.3625009477164
 20
1863.614156310718
 30
0.0
 11
788.3625009477164
 21
1767.203892626843
 31
0.0
  0
LINE
  5
FA5
330
FA1
100
AcDbEntity
  8
DIM
  6
Continuous
 62
     0
370
    -2
100
AcDbLine
 10
551.3625009477164
 20
1767.203892626843
 30
0.0
 11
785.3625009477164
 21
1767.203892626843
 31
0.0
  0
INSERT
  5
FA6
330
FA1
100
AcDbEntity
  8
DIM
 62
     0
370
    -2
100
AcDbBlockReference
  2
_DOT
 10
548.3625009477164
 20
1767.203892626843
 30
0.0
 41
3.0
 42
3.0
 43
3.0
 50
180.0
  0
INSERT
  5
FA7
330
FA1
100
AcDbEntity
  8
DIM
 62
     0
370
    -2
100
AcDbBlockReference
  2
_DOT
 10
788.3625009477164
 20
1767.203892626843
 30
0.0
 41
3.0
 42
3.0
 43
3.0
  0
MTEXT
  5
FA8
330
FA1
100
AcDbEntity
  8
DIM
 62
     0
 48
0.05
100
AcDbMText
 10
668.3625009477164
 20
1783.203892626843
 30
0.0
 40
12.0
 41
0.0
 46
0.0
 71
     5
 72
     1
  1
\A1;240
  7
ＭＳ ゴシック
 73
     1
 44
1.0
  0
POINT
  5
FA9
330
FA1
100
AcDbEntity
  8
Defpoints
 62
     0
100
AcDbPoint
 10
548.3625009477164
 20
1873.614156196345
 30
0.0
  0
POINT
  5
FAA
330
FA1
100
AcDbEntity
  8
Defpoints
 62
     0
100
AcDbPoint
 10
788.3625009477164
 20
1873.614156310718
 30
0.0
  0
POINT
  5
FAB
330
FA1
100
AcDbEntity
  8
Defpoints
 62
     0
100
AcDbPoint
 10
788.3625009477164
 20
1767.203892626843
 30
0.0
  0
ENDBLK
  5
FAC
330
FA1
100
AcDbEntity
  8
0
100
AcDbBlockEnd
  0
BLOCK
  5
FAF
330
FAE
100
AcDbEntity
  8
0
100
AcDbBlockBegin
  2
*D16
 70
     1
 10
0.0
 20
0.0
 30
0.0
  3
*D16
  1
*D156
  0
LINE
  5
FB0
330
FAE
100
AcDbEntity
  8
DIM
  6
Continuous
 62
     0
370
    -2
100
AcDbLine
 10
519.7737366072784
 20
2059.395394639839
 30
0.0
 11
430.3828704682785
 21
2059.395394639839
 31
0.0
  0
LINE
  5
FB1
330
FAE
100
AcDbEntity
  8
DIM
  6
Continuous
 62
     0
370
    -2
100
AcDbLine
 10
519.7737366072784
 20
1889.395394639839
 30
0.0
 11
430.3828704682785
 21
1889.395394639839
 31
0.0
  0
LINE
  5
FB2
330
FAE
100
AcDbEntity
  8
DIM
  6
Continuous
 62
     0
370
    -2
100
AcDbLine
 10
430.3828704682785
 20
2056.395394639839
 30
0.0
 11
430.3828704682785
 21
1892.395394639839
 31
0.0
  0
INSERT
  5
FB3
330
FAE
100
AcDbEntity
  8
DIM
 62
     0
370
    -2
100
AcDbBlockReference
  2
_DOT
 10
430.3828704682785
 20
2059.395394639839
 30
0.0
 41
3.0
 42
3.0
 43
3.0
 50
90.0
  0
INSERT
  5
FB4
330
FAE
100
AcDbEntity
  8
DIM
 62
     0
370
    -2
100
AcDbBlockReference
  2
_DOT
 10
430.3828704682785
 20
1889.395394639839
 30
0.0
 41
3.0
 42
3.0
 43
3.0
 50
270.0
  0
MTEXT
  5
FB5
330
FAE
100
AcDbEntity
  8
DIM
 62
     0
 48
0.05
100
AcDbMText
 10
414.3828704682785
 20
1974.395394639839
 30
0.0
 40
12.0
 41
0.0
 46
0.0
 71
     5
 72
     1
  1
\A1;170
  7
ＭＳ ゴシック
 11
0.0
 21
1.0
 31
0.0
 73
     1
 44
1.0
  0
POINT
  5
FB6
330
FAE
100
AcDbEntity
  8
Defpoints
 62
     0
100
AcDbPoint
 10
529.7737366072784
 20
2059.395394639839
 30
0.0
  0
POINT
  5
FB7
330
FAE
100
AcDbEntity
  8
Defpoints
 62
     0
100
AcDbPoint
 10
529.7737366072784
 20
1889.395394639839
 30
0.0
  0
POINT
  5
FB8
330
FAE
100
AcDbEntity
  8
Defpoints
 62
     0
100
AcDbPoint
 10
430.3828704682785
 20
1889.395394639839
 30
0.0
  0
ENDBLK
  5
FB9
330
FAE
100
AcDbEntity
  8
0
100
AcDbBlockEnd
  0
BLOCK
  5
FBC
330
FBB
100
AcDbEntity
  8
0
100
AcDbBlockBegin
  2
*D17
 70
     1
 10
0.0
 20
0.0
 30
0.0
  3
*D17
  1
*D157
  0
LINE
  5
FBD
330
FBB
100
AcDbEntity
  8
DIM
  6
Continuous
 62
     0
370
    -2
100
AcDbLine
 10
1568.564717193186
 20
977.0904532939817
 30
0.0
 11
1568.564717193186
 21
890.2354896300342
 31
0.0
  0
LINE
  5
FBE
330
FBB
100
AcDbEntity
  8
DIM
  6
Continuous
 62
     0
370
    -2
100
AcDbLine
 10
1448.564717193186
 20
977.0904532939817
 30
0.0
 11
1448.564717193186
 21
890.2354896300342
 31
0.0
  0
LINE
  5
FBF
330
FBB
100
AcDbEntity
  8
DIM
  6
Continuous
 62
     0
370
    -2
100
AcDbLine
 10
1565.564717193186
 20
890.2354896300342
 30
0.0
 11
1451.564717193186
 21
890.2354896300342
 31
0.0
  0
INSERT
  5
FC0
330
FBB
100
AcDbEntity
  8
DIM
 62
     0
370
    -2
100
AcDbBlockReference
  2
_DOT
 10
1568.564717193186
 20
890.2354896300342
 30
0.0
 41
3.0
 42
3.0
 43
3.0
  0
INSERT
  5
FC1
330
FBB
100
AcDbEntity
  8
DIM
 62
     0
370
    -2
100
AcDbBlockReference
  2
_DOT
 10
1448.564717193186
 20
890.2354896300342
 30
0.0
 41
3.0
 42
3.0
 43
3.0
 50
180.0
  0
MTEXT
  5
FC2
330
FBB
100
AcDbEntity
  8
DIM
 62
     0
 48
0.05
100
AcDbMText
 10
1508.564717193186
 20
906.2354896300342
 30
0.0
 40
12.0
 41
0.0
 46
0.0
 71
     5
 72
     1
  1
\A1;120
  7
ＭＳ ゴシック
 73
     1
 44
1.0
  0
POINT
  5
FC3
330
FBB
100
AcDbEntity
  8
Defpoints
 62
     0
100
AcDbPoint
 10
1568.564717193186
 20
987.0904532939817
 30
0.0
  0
POINT
  5
FC4
330
FBB
100
AcDbEntity
  8
Defpoints
 62
     0
100
AcDbPoint
 10
1448.564717193186
 20
987.0904532939817
 30
0.0
  0
POINT
  5
FC5
330
FBB
100
AcDbEntity
  8
Defpoints
 62
     0
100
AcDbPoint
 10
1448.564717193186
 20
890.2354896300342
 30
0.0
  0
ENDBLK
  5
FC6
330
FBB
100
AcDbEntity
  8
0
100
AcDbBlockEnd
  0
BLOCK
  5
FC9
330
FC8
100
AcDbEntity
  8
0
100
AcDbBlockBegin
  2
*D18
 70
     1
 10
0.0
 20
0.0
 30
0.0
  3
*D18
  1
*D158
  0
LINE
  5
FCA
330
FC8
100
AcDbEntity
  8
DIM
  6
Continuous
 62
     0
370
    -2
100
AcDbLine
 10
1568.564717193186
 20
1087.090453293982
 30
0.0
 11
1568.564717193186
 21
1170.031259957072
 31
0.0
  0
LINE
  5
FCB
330
FC8
100
AcDbEntity
  8
DIM
  6
Continuous
 62
     0
370
    -2
100
AcDbLine
 10
1523.564717193186
 20
1087.090453293982
 30
0.0
 11
1523.564717193186
 21
1170.031259957072
 31
0.0
  0
LINE
  5
FCC
330
FC8
100
AcDbEntity
  8
DIM
  6
Continuous
 62
     0
370
    -2
100
AcDbLine
 10
1565.564717193186
 20
1170.031259957072
 30
0.0
 11
1526.564717193186
 21
1170.031259957072
 31
0.0
  0
INSERT
  5
FCD
330
FC8
100
AcDbEntity
  8
DIM
 62
     0
370
    -2
100
AcDbBlockReference
  2
_DOT
 10
1568.564717193186
 20
1170.031259957072
 30
0.0
 41
3.0
 42
3.0
 43
3.0
  0
INSERT
  5
FCE
330
FC8
100
AcDbEntity
  8
DIM
 62
     0
370
    -2
100
AcDbBlockReference
  2
_DOT
 10
1523.564717193186
 20
1170.031259957072
 30
0.0
 41
3.0
 42
3.0
 43
3.0
 50
180.0
  0
MTEXT
  5
FCF
330
FC8
100
AcDbEntity
  8
DIM
 62
     0
 48
0.05
100
AcDbMText
 10
1546.064717193186
 20
1186.031259957072
 30
0.0
 40
12.0
 41
0.0
 46
0.0
 71
     5
 72
     1
  1
\A1;45
  7
ＭＳ ゴシック
 73
     1
 44
1.0
  0
POINT
  5
FD0
330
FC8
100
AcDbEntity
  8
Defpoints
 62
     0
100
AcDbPoint
 10
1568.564717193186
 20
1077.090453293982
 30
0.0
  0
POINT
  5
FD1
330
FC8
100
AcDbEntity
  8
Defpoints
 62
     0
100
AcDbPoint
 10
1523.564717193186
 20
1077.090453293982
 30
0.0
  0
POINT
  5
FD2
330
FC8
100
AcDbEntity
  8
Defpoints
 62
     0
100
AcDbPoint
 10
1523.564717193186
 20
1170.031259957072
 30
0.0
  0
ENDBLK
  5
FD3
330
FC8
100
AcDbEntity
  8
0
100
AcDbBlockEnd
  0
BLOCK
  5
FD6
330
FD5
100
AcDbEntity
  8
0
100
AcDbBlockBegin
  2
*D19
 70
     1
 10
0.0
 20
0.0
 30
0.0
  3
*D19
  1
*D159
  0
LINE
  5
FD7
330
FD5
100
AcDbEntity
  8
DIM
  6
Continuous
 62
     0
370
    -2
100
AcDbLine
 10
525.0132733540179
 20
2139.395394639839
 30
0.0
 11
430.3828704682785
 21
2139.395394639839
 31
0.0
  0
LINE
  5
FD8
330
FD5
100
AcDbEntity
  8
DIM
  6
Continuous
 62
     0
370
    -2
100
AcDbLine
 10
525.0132733540179
 20
2059.395394639839
 30
0.0
 11
430.3828704682785
 21
2059.395394639839
 31
0.0
  0
LINE
  5
FD9
330
FD5
100
AcDbEntity
  8
DIM
  6
Continuous
 62
     0
370
    -2
100
AcDbLine
 10
430.3828704682785
 20
2136.395394639839
 30
0.0
 11
430.3828704682785
 21
2062.395394639839
 31
0.0
  0
INSERT
  5
FDA
330
FD5
100
AcDbEntity
  8
DIM
 62
     0
370
    -2
100
AcDbBlockReference
  2
_DOT
 10
430.3828704682785
 20
2139.395394639839
 30
0.0
 41
3.0
 42
3.0
 43
3.0
 50
90.0
  0
INSERT
  5
FDB
330
FD5
100
AcDbEntity
  8
DIM
 62
     0
370
    -2
100
AcDbBlockReference
  2
_DOT
 10
430.3828704682785
 20
2059.395394639839
 30
0.0
 41
3.0
 42
3.0
 43
3.0
 50
270.0
  0
MTEXT
  5
FDC
330
FD5
100
AcDbEntity
  8
DIM
 62
     0
 48
0.05
100
AcDbMText
 10
414.3828704682785
 20
2099.395394639839
 30
0.0
 40
12.0
 41
0.0
 46
0.0
 71
     5
 72
     1
  1
\A1;80
  7
ＭＳ ゴシック
 11
0.0
 21
1.0
 31
0.0
 73
     1
 44
1.0
  0
POINT
  5
FDD
330
FD5
100
AcDbEntity
  8
Defpoints
 62
     0
100
AcDbPoint
 10
535.0132733540179
 20
2139.395394639839
 30
0.0
  0
POINT
  5
FDE
330
FD5
100
AcDbEntity
  8
Defpoints
 62
     0
100
AcDbPoint
 10
535.0132733540179
 20
2059.395394639839
 30
0.0
  0
POINT
  5
FDF
330
FD5
100
AcDbEntity
  8
Defpoints
 62
     0
100
AcDbPoint
 10
430.3828704682785
 20
2059.395394639839
 30
0.0
  0
ENDBLK
  5
FE0
330
FD5
100
AcDbEntity
  8
0
100
AcDbBlockEnd
  0
BLOCK
  5
FE5
330
FE4
100
AcDbEntity
  8
0
100
AcDbBlockBegin
  2
*D20
 70
     1
 10
0.0
 20
0.0
 30
0.0
  3
*D20
  1
*D160
  0
LINE
  5
FE6
330
FE4
100
AcDbEntity
  8
DIM
  6
Continuous
 62
     0
370
    -2
100
AcDbLine
 10
1288.564717193186
 20
1077.090453293982
 30
0.0
 11
1220.336957394863
 21
1077.090453293982
 31
0.0
  0
LINE
  5
FE7
330
FE4
100
AcDbEntity
  8
DIM
  6
Continuous
 62
     0
370
    -2
100
AcDbLine
 10
1288.564717193186
 20
987.0904532939817
 30
0.0
 11
1220.336957394863
 21
987.0904532939817
 31
0.0
  0
LINE
  5
FE8
330
FE4
100
AcDbEntity
  8
DIM
  6
Continuous
 62
     0
370
    -2
100
AcDbLine
 10
1220.336957394863
 20
1074.090453293982
 30
0.0
 11
1220.336957394863
 21
990.0904532939817
 31
0.0
  0
INSERT
  5
FE9
330
FE4
100
AcDbEntity
  8
DIM
 62
     0
370
    -2
100
AcDbBlockReference
  2
_DOT
 10
1220.336957394863
 20
1077.090453293982
 30
0.0
 41
3.0
 42
3.0
 43
3.0
 50
90.0
  0
INSERT
  5
FEA
330
FE4
100
AcDbEntity
  8
DIM
 62
     0
370
    -2
100
AcDbBlockReference
  2
_DOT
 10
1220.336957394863
 20
987.0904532939817
 30
0.0
 41
3.0
 42
3.0
 43
3.0
 50
270.0
  0
MTEXT
  5
FEB
330
FE4
100
AcDbEntity
  8
DIM
 62
     0
 48
0.05
100
AcDbMText
 10
1204.336957394863
 20
1032.090453293982
 30
0.0
 40
12.0
 41
0.0
 46
0.0
 71
     5
 72
     1
  1
\A1;90
  7
ＭＳ ゴシック
 11
0.0
 21
1.0
 31
0.0
 73
     1
 44
1.0
  0
POINT
  5
FEC
330
FE4
100
AcDbEntity
  8
Defpoints
 62
     0
100
AcDbPoint
 10
1298.564717193186
 20
1077.090453293982
 30
0.0
  0
POINT
  5
FED
330
FE4
100
AcDbEntity
  8
Defpoints
 62
     0
100
AcDbPoint
 10
1298.564717193186
 20
987.0904532939817
 30
0.0
  0
POINT
  5
FEE
330
FE4
100
AcDbEntity
  8
Defpoints
 62
     0
100
AcDbPoint
 10
1220.336957394863
 20
987.0904532939817
 30
0.0
  0
ENDBLK
  5
FEF
330
FE4
100
AcDbEntity
  8
0
100
AcDbBlockEnd
  0
BLOCK
  5
FFE
330
FFD
100
AcDbEntity
  8
0
100
AcDbBlockBegin
  2
*D21
 70
     1
 10
0.0
 20
0.0
 30
0.0
  3
*D21
  1
*D153
  0
LINE
  5
FFF
330
FFD
100
AcDbEntity
  8
DIM
  6
Continuous
 62
     0
370
    -2
100
AcDbLine
 10
528.3625009477164
 20
1087.090453293982
 30
0.0
 11
528.3625009477164
 21
1136.059191016741
 31
0.0
  0
LINE
  5
1000
330
FFD
100
AcDbEntity
  8
DIM
  6
Continuous
 62
     0
370
    -2
100
AcDbLine
 10
568.5369402446107
 20
1087.090453293982
 30
0.0
 11
568.5369402446107
 21
1136.059191016741
 31
0.0
  0
LINE
  5
1001
330
FFD
100
AcDbEntity
  8
DIM
  6
Continuous
 62
     0
370
    -2
100
AcDbLine
 10
531.3625009477164
 20
1136.059191016741
 30
0.0
 11
565.5369402446107
 21
1136.059191016741
 31
0.0
  0
INSERT
  5
1002
330
FFD
100
AcDbEntity
  8
DIM
 62
     0
370
    -2
100
AcDbBlockReference
  2
_DOT
 10
528.3625009477164
 20
1136.059191016741
 30
0.0
 41
3.0
 42
3.0
 43
3.0
 50
180.0
  0
INSERT
  5
1003
330
FFD
100
AcDbEntity
  8
DIM
 62
     0
370
    -2
100
AcDbBlockReference
  2
_DOT
 10
568.5369402446107
 20
1136.059191016741
 30
0.0
 41
3.0
 42
3.0
 43
3.0
  0
MTEXT
  5
1004
330
FFD
100
AcDbEntity
  8
DIM
 62
     0
 48
0.05
100
AcDbMText
 10
548.4497205961636
 20
1152.059191016741
 30
0.0
 40
12.0
 41
0.0
 46
0.0
 71
     5
 72
     1
  1
\A1;40
  7
ＭＳ ゴシック
 73
     1
 44
1.0
  0
POINT
  5
1005
330
FFD
100
AcDbEntity
  8
Defpoints
 62
     0
100
AcDbPoint
 10
528.3625009477164
 20
1077.090453293982
 30
0.0
  0
POINT
  5
1006
330
FFD
100
AcDbEntity
  8
Defpoints
 62
     0
100
AcDbPoint
 10
568.5369402446107
 20
1077.090453293982
 30
0.0
  0
POINT
  5
1007
330
FFD
100
AcDbEntity
  8
Defpoints
 62
     0
100
AcDbPoint
 10
568.5369402446107
 20
1136.059191016741
 30
0.0
  0
ENDBLK
  5
1008
330
FFD
100
AcDbEntity
  8
0
100
AcDbBlockEnd
  0
BLOCK
  5
100D
330
100C
100
AcDbEntity
  8
0
100
AcDbBlockBegin
  2
*D22
 70
     1
 10
0.0
 20
0.0
 30
0.0
  3
*D22
  1
*D154
  0
LINE
  5
100E
330
100C
100
AcDbEntity
  8
DIM
  6
Continuous
 62
     0
370
    -2
100
AcDbLine
 10
516.0369402446107
 20
1047.090453293982
 30
0.0
 11
460.4197949721854
 21
1047.090453293982
 31
0.0
  0
LINE
  5
100F
330
100C
100
AcDbEntity
  8
DIM
  6
Continuous
 62
     0
370
    -2
100
AcDbLine
 10
518.3625009477164
 20
1077.090453293982
 30
0.0
 11
460.4197949721854
 21
1077.090453293982
 31
0.0
  0
LINE
  5
1010
330
100C
100
AcDbEntity
  8
DIM
  6
Continuous
 62
     0
370
    -2
100
AcDbLine
 10
460.4197949721854
 20
1050.090453293982
 30
0.0
 11
460.4197949721854
 21
1074.090453293982
 31
0.0
  0
INSERT
  5
1011
330
100C
100
AcDbEntity
  8
DIM
 62
     0
370
    -2
100
AcDbBlockReference
  2
_DOT
 10
460.4197949721854
 20
1047.090453293982
 30
0.0
 41
3.0
 42
3.0
 43
3.0
 50
270.0
  0
INSERT
  5
1012
330
100C
100
AcDbEntity
  8
DIM
 62
     0
370
    -2
100
AcDbBlockReference
  2
_DOT
 10
460.4197949721854
 20
1077.090453293982
 30
0.0
 41
3.0
 42
3.0
 43
3.0
 50
90.0
  0
MTEXT
  5
1013
330
100C
100
AcDbEntity
  8
DIM
 62
     0
 48
0.05
100
AcDbMText
 10
444.4197949721854
 20
1062.090453293982
 30
0.0
 40
12.0
 41
0.0
 46
0.0
 71
     5
 72
     1
  1
\A1;30
  7
ＭＳ ゴシック
 11
0.0
 21
1.0
 31
0.0
 73
     1
 44
1.0
  0
POINT
  5
1014
330
100C
100
AcDbEntity
  8
Defpoints
 62
     0
100
AcDbPoint
 10
526.0369402446107
 20
1047.090453293982
 30
0.0
  0
POINT
  5
1015
330
100C
100
AcDbEntity
  8
Defpoints
 62
     0
100
AcDbPoint
 10
528.3625009477164
 20
1077.090453293982
 30
0.0
  0
POINT
  5
1016
330
100C
100
AcDbEntity
  8
Defpoints
 62
     0
100
AcDbPoint
 10
460.4197949721854
 20
1077.090453293982
 30
0.0
  0
ENDBLK
  5
1017
330
100C
100
AcDbEntity
  8
0
100
AcDbBlockEnd
  0
BLOCK
  5
101A
330
1019
100
AcDbEntity
  8
0
100
AcDbBlockBegin
  2
*D23
 70
     1
 10
0.0
 20
0.0
 30
0.0
  3
*D23
  1
*D156
  0
LINE
  5
101B
330
1019
100
AcDbEntity
  8
DIM
  6
Continuous
 62
     0
370
    -2
100
AcDbLine
 10
808.3625009477164
 20
1087.090453293982
 30
0.0
 11
808.3625009477164
 21
1136.059191016741
 31
0.0
  0
LINE
  5
101C
330
1019
100
AcDbEntity
  8
DIM
  6
Continuous
 62
     0
370
    -2
100
AcDbLine
 10
768.1880616508221
 20
1087.090453293982
 30
0.0
 11
768.1880616508221
 21
1136.059191016741
 31
0.0
  0
LINE
  5
101D
330
1019
100
AcDbEntity
  8
DIM
  6
Continuous
 62
     0
370
    -2
100
AcDbLine
 10
805.3625009477164
 20
1136.059191016741
 30
0.0
 11
771.1880616508221
 21
1136.059191016741
 31
0.0
  0
INSERT
  5
101E
330
1019
100
AcDbEntity
  8
DIM
 62
     0
370
    -2
100
AcDbBlockReference
  2
_DOT
 10
808.3625009477164
 20
1136.059191016741
 30
0.0
 41
3.0
 42
3.0
 43
3.0
  0
INSERT
  5
101F
330
1019
100
AcDbEntity
  8
DIM
 62
     0
370
    -2
100
AcDbBlockReference
  2
_DOT
 10
768.1880616508221
 20
1136.059191016741
 30
0.0
 41
3.0
 42
3.0
 43
3.0
 50
180.0
  0
MTEXT
  5
1020
330
1019
100
AcDbEntity
  8
DIM
 62
     0
 48
0.05
100
AcDbMText
 10
788.2752812992692
 20
1152.059191016741
 30
0.0
 40
12.0
 41
0.0
 46
0.0
 71
     5
 72
     1
  1
\A1;40
  7
ＭＳ ゴシック
 73
     1
 44
1.0
  0
POINT
  5
1021
330
1019
100
AcDbEntity
  8
Defpoints
 62
     0
100
AcDbPoint
 10
808.3625009477164
 20
1077.090453293982
 30
0.0
  0
POINT
  5
1022
330
1019
100
AcDbEntity
  8
Defpoints
 62
     0
100
AcDbPoint
 10
768.1880616508221
 20
1077.090453293982
 30
0.0
  0
POINT
  5
1023
330
1019
100
AcDbEntity
  8
Defpoints
 62
     0
100
AcDbPoint
 10
768.1880616508221
 20
1136.059191016741
 30
0.0
  0
ENDBLK
  5
1024
330
1019
100
AcDbEntity
  8
0
100
AcDbBlockEnd
  0
BLOCK
  5
1027
330
1026
100
AcDbEntity
  8
0
100
AcDbBlockBegin
  2
*D24
 70
     1
 10
0.0
 20
0.0
 30
0.0
  3
*D24
  1
*D157
  0
LINE
  5
1028
330
1026
100
AcDbEntity
  8
DIM
  6
Continuous
 62
     0
370
    -2
100
AcDbLine
 10
818.3625009477164
 20
1077.090453293982
 30
0.0
 11
897.2941195370731
 21
1077.090453293982
 31
0.0
  0
LINE
  5
1029
330
1026
100
AcDbEntity
  8
DIM
  6
Continuous
 62
     0
370
    -2
100
AcDbLine
 10
818.3625009477164
 20
1040.090453293982
 30
0.0
 11
897.2941195370731
 21
1040.090453293982
 31
0.0
  0
LINE
  5
102A
330
1026
100
AcDbEntity
  8
DIM
  6
Continuous
 62
     0
370
    -2
100
AcDbLine
 10
897.2941195370731
 20
1074.090453293982
 30
0.0
 11
897.2941195370731
 21
1043.090453293982
 31
0.0
  0
INSERT
  5
102B
330
1026
100
AcDbEntity
  8
DIM
 62
     0
370
    -2
100
AcDbBlockReference
  2
_DOT
 10
897.2941195370731
 20
1077.090453293982
 30
0.0
 41
3.0
 42
3.0
 43
3.0
 50
90.0
  0
INSERT
  5
102C
330
1026
100
AcDbEntity
  8
DIM
 62
     0
370
    -2
100
AcDbBlockReference
  2
_DOT
 10
897.2941195370731
 20
1040.090453293982
 30
0.0
 41
3.0
 42
3.0
 43
3.0
 50
270.0
  0
MTEXT
  5
102D
330
1026
100
AcDbEntity
  8
DIM
 62
     0
 48
0.05
100
AcDbMText
 10
881.2941195370731
 20
1058.590453293982
 30
0.0
 40
12.0
 41
0.0
 46
0.0
 71
     5
 72
     1
  1
\A1;37
  7
ＭＳ ゴシック
 11
0.0
 21
1.0
 31
0.0
 73
     1
 44
1.0
  0
POINT
  5
102E
330
1026
100
AcDbEntity
  8
Defpoints
 62
     0
100
AcDbPoint
 10
808.3625009477164
 20
1077.090453293982
 30
0.0
  0
POINT
  5
102F
330
1026
100
AcDbEntity
  8
Defpoints
 62
     0
100
AcDbPoint
 10
808.3625009477164
 20
1040.090453293982
 30
0.0
  0
POINT
  5
1030
330
1026
100
AcDbEntity
  8
Defpoints
 62
     0
100
AcDbPoint
 10
897.2941195370731
 20
1040.090453293982
 30
0.0
  0
ENDBLK
  5
1031
330
1026
100
AcDbEntity
  8
0
100
AcDbBlockEnd
  0
BLOCK
  5
10EE
330
10ED
100
AcDbEntity
  8
0
100
AcDbBlockBegin
  2
*D25
 70
     1
 10
0.0
 20
0.0
 30
0.0
  3
*D25
  1
*D26
  0
LINE
  5
10F0
330
10ED
100
AcDbEntity
  8
DIM
  6
Continuous
 62
     0
370
    -2
100
AcDbLine
 10
-401.4307655928649
 20
499.101569327267
 30
0.0
 11
-401.4307655928649
 21
582.8695693272671
 31
0.0
  0
LINE
  5
10F1
330
10ED
100
AcDbEntity
  8
DIM
  6
Continuous
 62
     0
370
    -2
100
AcDbLine
 10
-401.4307655928649
 20
496.101569327267
 30
0.0
 11
-401.4307655928649
 21
426.4997159387292
 31
0.0
  0
INSERT
  5
10F2
330
10ED
100
AcDbEntity
  8
DIM
 62
     0
370
    -2
100
AcDbBlockReference
  2
_DOT
 10
-401.4307655928649
 20
499.101569327267
 30
0.0
 41
3.0
 42
3.0
 43
3.0
 50
90.0
  0
INSERT
  5
10F3
330
10ED
100
AcDbEntity
  8
DIM
 62
     0
370
    -2
100
AcDbBlockReference
  2
_DOT
 10
-401.4307655928649
 20
423.4997159387292
 30
0.0
 41
3.0
 42
3.0
 43
3.0
 50
270.0
  0
MTEXT
  5
10F4
330
10ED
100
AcDbEntity
  8
DIM
 62
     0
 48
0.05
100
AcDbMText
 10
-418.4927655928649
 20
543.9855693272671
 30
0.0
 40
12.0
 41
0.0
 46
0.0
 71
     5
 72
     1
  1
\A1;75(深さ)
  7
ＭＳ ゴシック
 11
0.0
 21
1.0
 31
0.0
 73
     1
 44
1.0
  0
POINT
  5
10F5
330
10ED
100
AcDbEntity
  8
Defpoints
 62
     0
100
AcDbPoint
 10
-378.3195056110924
 20
499.101569327267
 30
0.0
  0
POINT
  5
10F6
330
10ED
100
AcDbEntity
  8
Defpoints
 62
     0
100
AcDbPoint
 10
-401.4307655928649
 20
423.4997159387292
 30
0.0
  0
POINT
  5
10F7
330
10ED
100
AcDbEntity
  8
Defpoints
 62
     0
100
AcDbPoint
 10
-401.4307655928649
 20
423.4997159387292
 30
0.0
  0
ENDBLK
  5
10EF
330
10ED
100
AcDbEntity
  8
0
100
AcDbBlockEnd
  0
BLOCK
  5
10F9
330
10F8
100
AcDbEntity
  8
0
100
AcDbBlockBegin
  2
*D26
 70
     1
 10
0.0
 20
0.0
 30
0.0
  3
*D26
  1
*D27
  0
LINE
  5
10FB
330
10F8
100
AcDbEntity
  8
DIM
  6
Continuous
 62
     0
370
    -2
100
AcDbLine
 10
-382.7460871004271
 20
1002.192651407002
 30
0.0
 11
-264.3379253372857
 21
1002.192651407002
 31
0.0
  0
LINE
  5
10FC
330
10F8
100
AcDbEntity
  8
DIM
  6
Continuous
 62
     0
370
    -2
100
AcDbLine
 10
-382.7460871004271
 20
1167.192651407002
 30
0.0
 11
-264.3379253372857
 21
1167.192651407002
 31
0.0
  0
LINE
  5
10FD
330
10F8
100
AcDbEntity
  8
DIM
  6
Continuous
 62
     0
370
    -2
100
AcDbLine
 10
-264.3379253372857
 20
1005.192651407002
 30
0.0
 11
-264.3379253372857
 21
1164.192651407002
 31
0.0
  0
INSERT
  5
10FE
330
10F8
100
AcDbEntity
  8
DIM
 62
     0
370
    -2
100
AcDbBlockReference
  2
_DOT
 10
-264.3379253372857
 20
1002.192651407002
 30
0.0
 41
3.0
 42
3.0
 43
3.0
 50
270.0
  0
INSERT
  5
10FF
330
10F8
100
AcDbEntity
  8
DIM
 62
     0
370
    -2
100
AcDbBlockReference
  2
_DOT
 10
-264.3379253372857
 20
1167.192651407002
 30
0.0
 41
3.0
 42
3.0
 43
3.0
 50
90.0
  0
MTEXT
  5
1100
330
10F8
100
AcDbEntity
  8
DIM
 62
     0
 48
0.05
100
AcDbMText
 10
-280.3379253372857
 20
1084.692651407002
 30
0.0
 40
12.0
 41
0.0
 46
0.0
 71
     5
 72
     1
  1
\A1;165
  7
ＭＳ ゴシック
 11
0.0
 21
1.0
 31
0.0
 73
     1
 44
1.0
  0
POINT
  5
1101
330
10F8
100
AcDbEntity
  8
Defpoints
 62
     0
100
AcDbPoint
 10
-392.7460871004271
 20
1002.192651407002
 30
0.0
  0
POINT
  5
1102
330
10F8
100
AcDbEntity
  8
Defpoints
 62
     0
100
AcDbPoint
 10
-392.7460871004271
 20
1167.192651407002
 30
0.0
  0
POINT
  5
1103
330
10F8
100
AcDbEntity
  8
Defpoints
 62
     0
100
AcDbPoint
 10
-264.3379253372857
 20
1167.192651407002
 30
0.0
  0
ENDBLK
  5
10FA
330
10F8
100
AcDbEntity
  8
0
100
AcDbBlockEnd
  0
BLOCK
  5
1105
330
1104
100
AcDbEntity
  8
0
100
AcDbBlockBegin
  2
*D27
 70
     1
 10
0.0
 20
0.0
 30
0.0
  3
*D27
  1
*D28
  0
LINE
  5
1107
330
1104
100
AcDbEntity
  8
DIM
  6
Continuous
 62
     0
370
    -2
100
AcDbLine
 10
-492.7460871004271
 20
992.192651407002
 30
0.0
 11
-492.7460871004271
 21
877.8697313906355
 31
0.0
  0
LINE
  5
1108
330
1104
100
AcDbEntity
  8
DIM
  6
Continuous
 62
     0
370
    -2
100
AcDbLine
 10
-392.7460871004271
 20
992.192651407002
 30
0.0
 11
-392.7460871004271
 21
877.8697313906355
 31
0.0
  0
LINE
  5
1109
330
1104
100
AcDbEntity
  8
DIM
  6
Continuous
 62
     0
370
    -2
100
AcDbLine
 10
-489.7460871004271
 20
877.8697313906355
 30
0.0
 11
-395.7460871004271
 21
877.8697313906355
 31
0.0
  0
INSERT
  5
110A
330
1104
100
AcDbEntity
  8
DIM
 62
     0
370
    -2
100
AcDbBlockReference
  2
_DOT
 10
-492.7460871004271
 20
877.8697313906355
 30
0.0
 41
3.0
 42
3.0
 43
3.0
 50
180.0
  0
INSERT
  5
110B
330
1104
100
AcDbEntity
  8
DIM
 62
     0
370
    -2
100
AcDbBlockReference
  2
_DOT
 10
-392.7460871004271
 20
877.8697313906355
 30
0.0
 41
3.0
 42
3.0
 43
3.0
  0
MTEXT
  5
110C
330
1104
100
AcDbEntity
  8
DIM
 62
     0
 48
0.05
100
AcDbMText
 10
-442.7460871004271
 20
893.8697313906355
 30
0.0
 40
12.0
 41
0.0
 46
0.0
 71
     5
 72
     1
  1
\A1;100
  7
ＭＳ ゴシック
 73
     1
 44
1.0
  0
POINT
  5
110D
330
1104
100
AcDbEntity
  8
Defpoints
 62
     0
100
AcDbPoint
 10
-492.7460871004271
 20
1002.192651407002
 30
0.0
  0
POINT
  5
110E
330
1104
100
AcDbEntity
  8
Defpoints
 62
     0
100
AcDbPoint
 10
-392.7460871004271
 20
1002.192651407002
 30
0.0
  0
POINT
  5
110F
330
1104
100
AcDbEntity
  8
Defpoints
 62
     0
100
AcDbPoint
 10
-392.7460871004271
 20
877.8697313906355
 30
0.0
  0
ENDBLK
  5
1106
330
1104
100
AcDbEntity
  8
0
100
AcDbBlockEnd
  0
BLOCK
  5
1111
330
1110
100
AcDbEntity
  8
0
100
AcDbBlockBegin
  2
*D28
 70
     1
 10
0.0
 20
0.0
 30
0.0
  3
*D28
  1
*D29
  0
LINE
  5
1113
330
1110
100
AcDbEntity
  8
DIM
  6
Continuous
 62
     0
370
    -2
100
AcDbLine
 10
-382.7460871004271
 20
1167.192651407002
 30
0.0
 11
-264.3379253372857
 21
1167.192651407002
 31
0.0
  0
LINE
  5
1114
330
1110
100
AcDbEntity
  8
DIM
  6
Continuous
 62
     0
370
    -2
100
AcDbLine
 10
-292.7460871004271
 20
1182.192651407002
 30
0.0
 11
-264.3379253372857
 21
1182.192651407002
 31
0.0
  0
LINE
  5
1115
330
1110
100
AcDbEntity
  8
DIM
  6
Continuous
 62
     0
370
    -2
100
AcDbLine
 10
-264.3379253372857
 20
1170.192651407002
 30
0.0
 11
-264.3379253372857
 21
1179.192651407002
 31
0.0
  0
INSERT
  5
1116
330
1110
100
AcDbEntity
  8
DIM
 62
     0
370
    -2
100
AcDbBlockReference
  2
_DOT
 10
-264.3379253372857
 20
1167.192651407002
 30
0.0
 41
3.0
 42
3.0
 43
3.0
 50
270.0
  0
INSERT
  5
1117
330
1110
100
AcDbEntity
  8
DIM
 62
     0
370
    -2
100
AcDbBlockReference
  2
_DOT
 10
-264.3379253372857
 20
1182.192651407002
 30
0.0
 41
3.0
 42
3.0
 43
3.0
 50
90.0
  0
MTEXT
  5
1118
330
1110
100
AcDbEntity
  8
DIM
 62
     0
 48
0.05
100
AcDbMText
 10
-280.3379253372857
 20
1174.692651407002
 30
0.0
 40
12.0
 41
0.0
 46
0.0
 71
     5
 72
     1
  1
\A1;15
  7
ＭＳ ゴシック
 11
0.0
 21
1.0
 31
0.0
 73
     1
 44
1.0
  0
POINT
  5
1119
330
1110
100
AcDbEntity
  8
Defpoints
 62
     0
100
AcDbPoint
 10
-392.7460871004271
 20
1167.192651407002
 30
0.0
  0
POINT
  5
111A
330
1110
100
AcDbEntity
  8
Defpoints
 62
     0
100
AcDbPoint
 10
-302.7460871004271
 20
1182.192651407002
 30
0.0
  0
POINT
  5
111B
330
1110
100
AcDbEntity
  8
Defpoints
 62
     0
100
AcDbPoint
 10
-264.3379253372857
 20
1182.192651407002
 30
0.0
  0
ENDBLK
  5
1112
330
1110
100
AcDbEntity
  8
0
100
AcDbBlockEnd
  0
BLOCK
  5
111E
330
111D
100
AcDbEntity
  8
0
100
AcDbBlockBegin
  2
*D29
 70
     1
 10
0.0
 20
0.0
 30
0.0
  3
*D29
  1
*D30
  0
LINE
  5
1120
330
111D
100
AcDbEntity
  8
DIM
  6
Continuous
 62
     0
370
    -2
100
AcDbLine
 10
-1038.104113230191
 20
1192.192651407002
 30
0.0
 11
-1038.104113230191
 21
1231.718304128746
 31
0.0
  0
LINE
  5
1121
330
111D
100
AcDbEntity
  8
DIM
  6
Continuous
 62
     0
370
    -2
100
AcDbLine
 10
-758.1041132301912
 20
1192.192651407002
 30
0.0
 11
-758.1041132301912
 21
1231.718304128746
 31
0.0
  0
LINE
  5
1122
330
111D
100
AcDbEntity
  8
DIM
  6
Continuous
 62
     0
370
    -2
100
AcDbLine
 10
-1035.104113230191
 20
1231.718304128746
 30
0.0
 11
-761.1041132301912
 21
1231.718304128746
 31
0.0
  0
INSERT
  5
1123
330
111D
100
AcDbEntity
  8
DIM
 62
     0
370
    -2
100
AcDbBlockReference
  2
_DOT
 10
-1038.104113230191
 20
1231.718304128746
 30
0.0
 41
3.0
 42
3.0
 43
3.0
 50
180.0
  0
INSERT
  5
1124
330
111D
100
AcDbEntity
  8
DIM
 62
     0
370
    -2
100
AcDbBlockReference
  2
_DOT
 10
-758.1041132301912
 20
1231.718304128746
 30
0.0
 41
3.0
 42
3.0
 43
3.0
  0
MTEXT
  5
1125
330
111D
100
AcDbEntity
  8
DIM
 62
     0
 48
0.05
100
AcDbMText
 10
-898.1041132301912
 20
1247.718304128746
 30
0.0
 40
12.0
 41
0.0
 46
0.0
 71
     5
 72
     1
  1
\A1;280
  7
ＭＳ ゴシック
 73
     1
 44
1.0
  0
POINT
  5
1126
330
111D
100
AcDbEntity
  8
Defpoints
 62
     0
100
AcDbPoint
 10
-1038.104113230191
 20
1182.192651407002
 30
0.0
  0
POINT
  5
1127
330
111D
100
AcDbEntity
  8
Defpoints
 62
     0
100
AcDbPoint
 10
-758.1041132301912
 20
1182.192651407002
 30
0.0
  0
POINT
  5
1128
330
111D
100
AcDbEntity
  8
Defpoints
 62
     0
100
AcDbPoint
 10
-758.1041132301912
 20
1231.718304128746
 30
0.0
  0
ENDBLK
  5
111F
330
111D
100
AcDbEntity
  8
0
100
AcDbBlockEnd
  0
BLOCK
  5
112A
330
1129
100
AcDbEntity
  8
0
100
AcDbBlockBegin
  2
*D30
 70
     1
 10
0.0
 20
0.0
 30
0.0
  3
*D30
  1
*D31
  0
LINE
  5
112C
330
1129
100
AcDbEntity
  8
DIM
  6
Continuous
 62
     0
370
    -2
100
AcDbLine
 10
-748.1041132301912
 20
1182.192651407002
 30
0.0
 11
-711.050316021024
 21
1182.192651407002
 31
0.0
  0
LINE
  5
112D
330
1129
100
AcDbEntity
  8
DIM
  6
Continuous
 62
     0
370
    -2
100
AcDbLine
 10
-748.1041132301912
 20
912.1926514070017
 30
0.0
 11
-711.050316021024
 21
912.1926514070017
 31
0.0
  0
LINE
  5
112E
330
1129
100
AcDbEntity
  8
DIM
  6
Continuous
 62
     0
370
    -2
100
AcDbLine
 10
-711.050316021024
 20
1179.192651407002
 30
0.0
 11
-711.050316021024
 21
915.1926514070017
 31
0.0
  0
INSERT
  5
112F
330
1129
100
AcDbEntity
  8
DIM
 62
     0
370
    -2
100
AcDbBlockReference
  2
_DOT
 10
-711.050316021024
 20
1182.192651407002
 30
0.0
 41
3.0
 42
3.0
 43
3.0
 50
90.0
  0
INSERT
  5
1130
330
1129
100
AcDbEntity
  8
DIM
 62
     0
370
    -2
100
AcDbBlockReference
  2
_DOT
 10
-711.050316021024
 20
912.1926514070017
 30
0.0
 41
3.0
 42
3.0
 43
3.0
 50
270.0
  0
MTEXT
  5
1131
330
1129
100
AcDbEntity
  8
DIM
 62
     0
 48
0.05
100
AcDbMText
 10
-727.050316021024
 20
1047.192651407002
 30
0.0
 40
12.0
 41
0.0
 46
0.0
 71
     5
 72
     1
  1
\A1;270
  7
ＭＳ ゴシック
 11
0.0
 21
1.0
 31
0.0
 73
     1
 44
1.0
  0
POINT
  5
1132
330
1129
100
AcDbEntity
  8
Defpoints
 62
     0
100
AcDbPoint
 10
-758.1041132301912
 20
1182.192651407002
 30
0.0
  0
POINT
  5
1133
330
1129
100
AcDbEntity
  8
Defpoints
 62
     0
100
AcDbPoint
 10
-758.1041132301912
 20
912.1926514070017
 30
0.0
  0
POINT
  5
1134
330
1129
100
AcDbEntity
  8
Defpoints
 62
     0
100
AcDbPoint
 10
-711.050316021024
 20
912.1926514070017
 30
0.0
  0
ENDBLK
  5
112B
330
1129
100
AcDbEntity
  8
0
100
AcDbBlockEnd
  0
BLOCK
  5
1136
330
1135
100
AcDbEntity
  8
0
100
AcDbBlockBegin
  2
*D31
 70
     1
 10
0.0
 20
0.0
 30
0.0
  3
*D31
  1
*D32
  0
LINE
  5
1138
330
1135
100
AcDbEntity
  8
DIM
  6
Continuous
 62
     0
370
    -2
100
AcDbLine
 10
-1018.104113230191
 20
929.0416565283325
 30
0.0
 11
-1018.104113230191
 21
861.7018542325577
 31
0.0
  0
LINE
  5
1139
330
1135
100
AcDbEntity
  8
DIM
  6
Continuous
 62
     0
370
    -2
100
AcDbLine
 10
-778.1041132301912
 20
929.0416566427056
 30
0.0
 11
-778.1041132301912
 21
861.7018542325577
 31
0.0
  0
LINE
  5
113A
330
1135
100
AcDbEntity
  8
DIM
  6
Continuous
 62
     0
370
    -2
100
AcDbLine
 10
-1015.104113230191
 20
861.7018542325577
 30
0.0
 11
-781.1041132301912
 21
861.7018542325577
 31
0.0
  0
INSERT
  5
113B
330
1135
100
AcDbEntity
  8
DIM
 62
     0
370
    -2
100
AcDbBlockReference
  2
_DOT
 10
-1018.104113230191
 20
861.7018542325577
 30
0.0
 41
3.0
 42
3.0
 43
3.0
 50
180.0
  0
INSERT
  5
113C
330
1135
100
AcDbEntity
  8
DIM
 62
     0
370
    -2
100
AcDbBlockReference
  2
_DOT
 10
-778.1041132301912
 20
861.7018542325577
 30
0.0
 41
3.0
 42
3.0
 43
3.0
  0
MTEXT
  5
113D
330
1135
100
AcDbEntity
  8
DIM
 62
     0
 48
0.05
100
AcDbMText
 10
-898.1041132301912
 20
877.7018542325577
 30
0.0
 40
12.0
 41
0.0
 46
0.0
 71
     5
 72
     1
  1
\A1;240
  7
ＭＳ ゴシック
 73
     1
 44
1.0
  0
POINT
  5
113E
330
1135
100
AcDbEntity
  8
Defpoints
 62
     0
100
AcDbPoint
 10
-1018.104113230191
 20
939.0416565283325
 30
0.0
  0
POINT
  5
113F
330
1135
100
AcDbEntity
  8
Defpoints
 62
     0
100
AcDbPoint
 10
-778.1041132301912
 20
939.0416566427056
 30
0.0
  0
POINT
  5
1140
330
1135
100
AcDbEntity
  8
Defpoints
 62
     0
100
AcDbPoint
 10
-778.1041132301912
 20
861.7018542325577
 30
0.0
  0
ENDBLK
  5
1137
330
1135
100
AcDbEntity
  8
0
100
AcDbBlockEnd
  0
BLOCK
  5
1142
330
1141
100
AcDbEntity
  8
0
100
AcDbBlockBegin
  2
*D32
 70
     1
 10
0.0
 20
0.0
 30
0.0
  3
*D32
  1
*D33
  0
LINE
  5
1144
330
1141
100
AcDbEntity
  8
DIM
  6
Continuous
 62
     0
370
    -2
100
AcDbLine
 10
-1054.303677214265
 20
1102.192651407002
 30
0.0
 11
-1095.012610802916
 21
1102.192651407002
 31
0.0
  0
LINE
  5
1145
330
1141
100
AcDbEntity
  8
DIM
  6
Continuous
 62
     0
370
    -2
100
AcDbLine
 10
-1020.673289084974
 20
932.1926514070017
 30
0.0
 11
-1095.012610802916
 21
932.1926514070017
 31
0.0
  0
LINE
  5
1146
330
1141
100
AcDbEntity
  8
DIM
  6
Continuous
 62
     0
370
    -2
100
AcDbLine
 10
-1095.012610802916
 20
1099.192651407002
 30
0.0
 11
-1095.012610802916
 21
935.1926514070017
 31
0.0
  0
INSERT
  5
1147
330
1141
100
AcDbEntity
  8
DIM
 62
     0
370
    -2
100
AcDbBlockReference
  2
_DOT
 10
-1095.012610802916
 20
1102.192651407002
 30
0.0
 41
3.0
 42
3.0
 43
3.0
 50
90.0
  0
INSERT
  5
1148
330
1141
100
AcDbEntity
  8
DIM
 62
     0
370
    -2
100
AcDbBlockReference
  2
_DOT
 10
-1095.012610802916
 20
932.1926514070017
 30
0.0
 41
3.0
 42
3.0
 43
3.0
 50
270.0
  0
MTEXT
  5
1149
330
1141
100
AcDbEntity
  8
DIM
 62
     0
 48
0.05
100
AcDbMText
 10
-1111.012610802916
 20
1017.192651407002
 30
0.0
 40
12.0
 41
0.0
 46
0.0
 71
     5
 72
     1
  1
\A1;170
  7
ＭＳ ゴシック
 11
0.0
 21
1.0
 31
0.0
 73
     1
 44
1.0
  0
POINT
  5
114A
330
1141
100
AcDbEntity
  8
Defpoints
 62
     0
100
AcDbPoint
 10
-1044.303677214265
 20
1102.192651407002
 30
0.0
  0
POINT
  5
114B
330
1141
100
AcDbEntity
  8
Defpoints
 62
     0
100
AcDbPoint
 10
-1010.673289084974
 20
932.1926514070017
 30
0.0
  0
POINT
  5
114C
330
1141
100
AcDbEntity
  8
Defpoints
 62
     0
100
AcDbPoint
 10
-1095.012610802916
 20
932.1926514070017
 30
0.0
  0
ENDBLK
  5
1143
330
1141
100
AcDbEntity
  8
0
100
AcDbBlockEnd
  0
BLOCK
  5
114E
330
114D
100
AcDbEntity
  8
0
100
AcDbBlockBegin
  2
*D33
 70
     1
 10
0.0
 20
0.0
 30
0.0
  3
*D33
  1
*D34
  0
LINE
  5
1150
330
114D
100
AcDbEntity
  8
DIM
  6
Continuous
 62
     0
370
    -2
100
AcDbLine
 10
-281.4262777444389
 20
399.1015693272668
 30
0.0
 11
-281.4262777444389
 21
328.0078591381873
 31
0.0
  0
LINE
  5
1151
330
114D
100
AcDbEntity
  8
DIM
  6
Continuous
 62
     0
370
    -2
100
AcDbLine
 10
-401.4262777444389
 20
379.1015693272668
 30
0.0
 11
-401.4262777444389
 21
328.0078591381873
 31
0.0
  0
LINE
  5
1152
330
114D
100
AcDbEntity
  8
DIM
  6
Continuous
 62
     0
370
    -2
100
AcDbLine
 10
-284.4262777444389
 20
328.0078591381873
 30
0.0
 11
-398.4262777444389
 21
328.0078591381873
 31
0.0
  0
INSERT
  5
1153
330
114D
100
AcDbEntity
  8
DIM
 62
     0
370
    -2
100
AcDbBlockReference
  2
_DOT
 10
-281.4262777444389
 20
328.0078591381873
 30
0.0
 41
3.0
 42
3.0
 43
3.0
  0
INSERT
  5
1154
330
114D
100
AcDbEntity
  8
DIM
 62
     0
370
    -2
100
AcDbBlockReference
  2
_DOT
 10
-401.4262777444389
 20
328.0078591381873
 30
0.0
 41
3.0
 42
3.0
 43
3.0
 50
180.0
  0
MTEXT
  5
1155
330
114D
100
AcDbEntity
  8
DIM
 62
     0
 48
0.05
100
AcDbMText
 10
-341.4262777444389
 20
344.0078591381873
 30
0.0
 40
12.0
 41
0.0
 46
0.0
 71
     5
 72
     1
  1
\A1;120
  7
ＭＳ ゴシック
 73
     1
 44
1.0
  0
POINT
  5
1156
330
114D
100
AcDbEntity
  8
Defpoints
 62
     0
100
AcDbPoint
 10
-281.4262777444389
 20
409.1015693272668
 30
0.0
  0
POINT
  5
1157
330
114D
100
AcDbEntity
  8
Defpoints
 62
     0
100
AcDbPoint
 10
-401.4262777444389
 20
389.1015693272668
 30
0.0
  0
POINT
  5
1158
330
114D
100
AcDbEntity
  8
Defpoints
 62
     0
100
AcDbPoint
 10
-401.4262777444389
 20
328.0078591381873
 30
0.0
  0
ENDBLK
  5
114F
330
114D
100
AcDbEntity
  8
0
100
AcDbBlockEnd
  0
BLOCK
  5
115A
330
1159
100
AcDbEntity
  8
0
100
AcDbBlockBegin
  2
*D34
 70
     1
 10
0.0
 20
0.0
 30
0.0
  3
*D34
  1
*D35
  0
LINE
  5
115C
330
1159
100
AcDbEntity
  8
DIM
  6
Continuous
 62
     0
370
    -2
100
AcDbLine
 10
-281.4262777444389
 20
509.101569327267
 30
0.0
 11
-281.4262777444389
 21
529.784227098457
 31
0.0
  0
LINE
  5
115D
330
1159
100
AcDbEntity
  8
DIM
  6
Continuous
 62
     0
370
    -2
100
AcDbLine
 10
-326.4262777444389
 20
509.101569327267
 30
0.0
 11
-326.4262777444389
 21
529.784227098457
 31
0.0
  0
LINE
  5
115E
330
1159
100
AcDbEntity
  8
DIM
  6
Continuous
 62
     0
370
    -2
100
AcDbLine
 10
-284.4262777444389
 20
529.784227098457
 30
0.0
 11
-323.4262777444389
 21
529.784227098457
 31
0.0
  0
INSERT
  5
115F
330
1159
100
AcDbEntity
  8
DIM
 62
     0
370
    -2
100
AcDbBlockReference
  2
_DOT
 10
-281.4262777444389
 20
529.784227098457
 30
0.0
 41
3.0
 42
3.0
 43
3.0
  0
INSERT
  5
1160
330
1159
100
AcDbEntity
  8
DIM
 62
     0
370
    -2
100
AcDbBlockReference
  2
_DOT
 10
-326.4262777444389
 20
529.784227098457
 30
0.0
 41
3.0
 42
3.0
 43
3.0
 50
180.0
  0
MTEXT
  5
1161
330
1159
100
AcDbEntity
  8
DIM
 62
     0
 48
0.05
100
AcDbMText
 10
-303.9262777444389
 20
545.784227098457
 30
0.0
 40
12.0
 41
0.0
 46
0.0
 71
     5
 72
     1
  1
\A1;45
  7
ＭＳ ゴシック
 73
     1
 44
1.0
  0
POINT
  5
1162
330
1159
100
AcDbEntity
  8
Defpoints
 62
     0
100
AcDbPoint
 10
-281.4262777444389
 20
499.101569327267
 30
0.0
  0
POINT
  5
1163
330
1159
100
AcDbEntity
  8
Defpoints
 62
     0
100
AcDbPoint
 10
-326.4262777444389
 20
499.101569327267
 30
0.0
  0
POINT
  5
1164
330
1159
100
AcDbEntity
  8
Defpoints
 62
     0
100
AcDbPoint
 10
-326.4262777444389
 20
529.784227098457
 30
0.0
  0
ENDBLK
  5
115B
330
1159
100
AcDbEntity
  8
0
100
AcDbBlockEnd
  0
BLOCK
  5
1166
330
1165
100
AcDbEntity
  8
0
100
AcDbBlockBegin
  2
*D35
 70
     1
 10
0.0
 20
0.0
 30
0.0
  3
*D35
  1
*D36
  0
LINE
  5
1168
330
1165
100
AcDbEntity
  8
DIM
  6
Continuous
 62
     0
370
    -2
100
AcDbLine
 10
-1049.064140467525
 20
1182.192651407002
 30
0.0
 11
-1095.012610802916
 21
1182.192651407002
 31
0.0
  0
LINE
  5
1169
330
1165
100
AcDbEntity
  8
DIM
  6
Continuous
 62
     0
370
    -2
100
AcDbLine
 10
-1021.554606412485
 20
1102.192651407002
 30
0.0
 11
-1095.012610802916
 21
1102.192651407002
 31
0.0
  0
LINE
  5
116A
330
1165
100
AcDbEntity
  8
DIM
  6
Continuous
 62
     0
370
    -2
100
AcDbLine
 10
-1095.012610802916
 20
1179.192651407002
 30
0.0
 11
-1095.012610802916
 21
1105.192651407002
 31
0.0
  0
INSERT
  5
116B
330
1165
100
AcDbEntity
  8
DIM
 62
     0
370
    -2
100
AcDbBlockReference
  2
_DOT
 10
-1095.012610802916
 20
1182.192651407002
 30
0.0
 41
3.0
 42
3.0
 43
3.0
 50
90.0
  0
INSERT
  5
116C
330
1165
100
AcDbEntity
  8
DIM
 62
     0
370
    -2
100
AcDbBlockReference
  2
_DOT
 10
-1095.012610802916
 20
1102.192651407002
 30
0.0
 41
3.0
 42
3.0
 43
3.0
 50
270.0
  0
MTEXT
  5
116D
330
1165
100
AcDbEntity
  8
DIM
 62
     0
 48
0.05
100
AcDbMText
 10
-1111.012610802916
 20
1142.192651407002
 30
0.0
 40
12.0
 41
0.0
 46
0.0
 71
     5
 72
     1
  1
\A1;80
  7
ＭＳ ゴシック
 11
0.0
 21
1.0
 31
0.0
 73
     1
 44
1.0
  0
POINT
  5
116E
330
1165
100
AcDbEntity
  8
Defpoints
 62
     0
100
AcDbPoint
 10
-1039.064140467525
 20
1182.192651407002
 30
0.0
  0
POINT
  5
116F
330
1165
100
AcDbEntity
  8
Defpoints
 62
     0
100
AcDbPoint
 10
-1011.554606412485
 20
1102.192651407002
 30
0.0
  0
POINT
  5
1170
330
1165
100
AcDbEntity
  8
Defpoints
 62
     0
100
AcDbPoint
 10
-1095.012610802916
 20
1102.192651407002
 30
0.0
  0
ENDBLK
  5
1167
330
1165
100
AcDbEntity
  8
0
100
AcDbBlockEnd
  0
BLOCK
  5
1172
330
1171
100
AcDbEntity
  8
0
100
AcDbBlockBegin
  2
*D36
 70
     1
 10
0.0
 20
0.0
 30
0.0
  3
*D36
  1
*D37
  0
LINE
  5
1174
330
1171
100
AcDbEntity
  8
DIM
  6
Continuous
 62
     0
370
    -2
100
AcDbLine
 10
-561.426277744439
 20
499.101569327267
 30
0.0
 11
-596.4762850609625
 21
499.101569327267
 31
0.0
  0
LINE
  5
1175
330
1171
100
AcDbEntity
  8
DIM
  6
Continuous
 62
     0
370
    -2
100
AcDbLine
 10
-561.426277744439
 20
409.1015693272668
 30
0.0
 11
-596.4762850609625
 21
409.1015693272668
 31
0.0
  0
LINE
  5
1176
330
1171
100
AcDbEntity
  8
DIM
  6
Continuous
 62
     0
370
    -2
100
AcDbLine
 10
-596.4762850609625
 20
496.101569327267
 30
0.0
 11
-596.4762850609625
 21
412.1015693272668
 31
0.0
  0
INSERT
  5
1177
330
1171
100
AcDbEntity
  8
DIM
 62
     0
370
    -2
100
AcDbBlockReference
  2
_DOT
 10
-596.4762850609625
 20
499.101569327267
 30
0.0
 41
3.0
 42
3.0
 43
3.0
 50
90.0
  0
INSERT
  5
1178
330
1171
100
AcDbEntity
  8
DIM
 62
     0
370
    -2
100
AcDbBlockReference
  2
_DOT
 10
-596.4762850609625
 20
409.1015693272668
 30
0.0
 41
3.0
 42
3.0
 43
3.0
 50
270.0
  0
MTEXT
  5
1179
330
1171
100
AcDbEntity
  8
DIM
 62
     0
 48
0.05
100
AcDbMText
 10
-612.4762850609625
 20
454.101569327267
 30
0.0
 40
12.0
 41
0.0
 46
0.0
 71
     5
 72
     1
  1
\A1;90
  7
ＭＳ ゴシック
 11
0.0
 21
1.0
 31
0.0
 73
     1
 44
1.0
  0
POINT
  5
117A
330
1171
100
AcDbEntity
  8
Defpoints
 62
     0
100
AcDbPoint
 10
-551.426277744439
 20
499.101569327267
 30
0.0
  0
POINT
  5
117B
330
1171
100
AcDbEntity
  8
Defpoints
 62
     0
100
AcDbPoint
 10
-551.426277744439
 20
409.1015693272668
 30
0.0
  0
POINT
  5
117C
330
1171
100
AcDbEntity
  8
Defpoints
 62
     0
100
AcDbPoint
 10
-596.4762850609625
 20
409.1015693272668
 30
0.0
  0
ENDBLK
  5
1173
330
1171
100
AcDbEntity
  8
0
100
AcDbBlockEnd
  0
BLOCK
  5
117E
330
117D
100
AcDbEntity
  8
0
100
AcDbBlockBegin
  2
*D37
 70
     1
 10
0.0
 20
0.0
 30
0.0
  3
*D37
  1
*D38
  0
LINE
  5
1180
330
117D
100
AcDbEntity
  8
DIM
  6
Continuous
 62
     0
370
    -2
100
AcDbLine
 10
-1038.104113230191
 20
509.101569327267
 30
0.0
 11
-1038.104113230191
 21
532.0882777718232
 31
0.0
  0
LINE
  5
1181
330
117D
100
AcDbEntity
  8
DIM
  6
Continuous
 62
     0
370
    -2
100
AcDbLine
 10
-997.929673933297
 20
502.8056190043495
 30
0.0
 11
-997.929673933297
 21
532.0882777718232
 31
0.0
  0
LINE
  5
1182
330
117D
100
AcDbEntity
  8
DIM
  6
Continuous
 62
     0
370
    -2
100
AcDbLine
 10
-1035.104113230191
 20
532.0882777718232
 30
0.0
 11
-1000.929673933297
 21
532.0882777718232
 31
0.0
  0
INSERT
  5
1183
330
117D
100
AcDbEntity
  8
DIM
 62
     0
370
    -2
100
AcDbBlockReference
  2
_DOT
 10
-1038.104113230191
 20
532.0882777718232
 30
0.0
 41
3.0
 42
3.0
 43
3.0
 50
180.0
  0
INSERT
  5
1184
330
117D
100
AcDbEntity
  8
DIM
 62
     0
370
    -2
100
AcDbBlockReference
  2
_DOT
 10
-997.929673933297
 20
532.0882777718232
 30
0.0
 41
3.0
 42
3.0
 43
3.0
  0
MTEXT
  5
1185
330
117D
100
AcDbEntity
  8
DIM
 62
     0
 48
0.05
100
AcDbMText
 10
-1018.016893581744
 20
548.0882777718232
 30
0.0
 40
12.0
 41
0.0
 46
0.0
 71
     5
 72
     1
  1
\A1;40
  7
ＭＳ ゴシック
 73
     1
 44
1.0
  0
POINT
  5
1186
330
117D
100
AcDbEntity
  8
Defpoints
 62
     0
100
AcDbPoint
 10
-1038.104113230191
 20
499.101569327267
 30
0.0
  0
POINT
  5
1187
330
117D
100
AcDbEntity
  8
Defpoints
 62
     0
100
AcDbPoint
 10
-997.929673933297
 20
492.8056190043495
 30
0.0
  0
POINT
  5
1188
330
117D
100
AcDbEntity
  8
Defpoints
 62
     0
100
AcDbPoint
 10
-997.929673933297
 20
532.0882777718232
 30
0.0
  0
ENDBLK
  5
117F
330
117D
100
AcDbEntity
  8
0
100
AcDbBlockEnd
  0
BLOCK
  5
118A
330
1189
100
AcDbEntity
  8
0
100
AcDbBlockBegin
  2
*D38
 70
     1
 10
0.0
 20
0.0
 30
0.0
  3
*D38
  1
*D39
  0
LINE
  5
118C
330
1189
100
AcDbEntity
  8
DIM
  6
Continuous
 62
     0
370
    -2
100
AcDbLine
 10
-1031.633723610379
 20
469.1015693272672
 30
0.0
 11
-1087.6796526937
 21
469.1015693272672
 31
0.0
  0
LINE
  5
118D
330
1189
100
AcDbEntity
  8
DIM
  6
Continuous
 62
     0
370
    -2
100
AcDbLine
 10
-1048.104113230191
 20
499.101569327267
 30
0.0
 11
-1087.6796526937
 21
499.101569327267
 31
0.0
  0
LINE
  5
118E
330
1189
100
AcDbEntity
  8
DIM
  6
Continuous
 62
     0
370
    -2
100
AcDbLine
 10
-1087.6796526937
 20
472.1015693272672
 30
0.0
 11
-1087.6796526937
 21
496.101569327267
 31
0.0
  0
INSERT
  5
118F
330
1189
100
AcDbEntity
  8
DIM
 62
     0
370
    -2
100
AcDbBlockReference
  2
_DOT
 10
-1087.6796526937
 20
469.1015693272672
 30
0.0
 41
3.0
 42
3.0
 43
3.0
 50
270.0
  0
INSERT
  5
1190
330
1189
100
AcDbEntity
  8
DIM
 62
     0
370
    -2
100
AcDbBlockReference
  2
_DOT
 10
-1087.6796526937
 20
499.101569327267
 30
0.0
 41
3.0
 42
3.0
 43
3.0
 50
90.0
  0
MTEXT
  5
1191
330
1189
100
AcDbEntity
  8
DIM
 62
     0
 48
0.05
100
AcDbMText
 10
-1103.6796526937
 20
484.101569327267
 30
0.0
 40
12.0
 41
0.0
 46
0.0
 71
     5
 72
     1
  1
\A1;30
  7
ＭＳ ゴシック
 11
0.0
 21
1.0
 31
0.0
 73
     1
 44
1.0
  0
POINT
  5
1192
330
1189
100
AcDbEntity
  8
Defpoints
 62
     0
100
AcDbPoint
 10
-1021.633723610379
 20
469.1015693272672
 30
0.0
  0
POINT
  5
1193
330
1189
100
AcDbEntity
  8
Defpoints
 62
     0
100
AcDbPoint
 10
-1038.104113230191
 20
499.101569327267
 30
0.0
  0
POINT
  5
1194
330
1189
100
AcDbEntity
  8
Defpoints
 62
     0
100
AcDbPoint
 10
-1087.6796526937
 20
499.101569327267
 30
0.0
  0
ENDBLK
  5
118B
330
1189
100
AcDbEntity
  8
0
100
AcDbBlockEnd
  0
BLOCK
  5
1196
330
1195
100
AcDbEntity
  8
0
100
AcDbBlockBegin
  2
*D39
 70
     1
 10
0.0
 20
0.0
 30
0.0
  3
*D39
  1
*D40
  0
LINE
  5
1198
330
1195
100
AcDbEntity
  8
DIM
  6
Continuous
 62
     0
370
    -2
100
AcDbLine
 10
-758.1041132301912
 20
509.101569327267
 30
0.0
 11
-758.1041132301912
 21
532.0882777718232
 31
0.0
  0
LINE
  5
1199
330
1195
100
AcDbEntity
  8
DIM
  6
Continuous
 62
     0
370
    -2
100
AcDbLine
 10
-798.2785525270854
 20
495.8056190043494
 30
0.0
 11
-798.2785525270854
 21
532.0882777718232
 31
0.0
  0
LINE
  5
119A
330
1195
100
AcDbEntity
  8
DIM
  6
Continuous
 62
     0
370
    -2
100
AcDbLine
 10
-761.1041132301912
 20
532.0882777718232
 30
0.0
 11
-795.2785525270854
 21
532.0882777718232
 31
0.0
  0
INSERT
  5
119B
330
1195
100
AcDbEntity
  8
DIM
 62
     0
370
    -2
100
AcDbBlockReference
  2
_DOT
 10
-758.1041132301912
 20
532.0882777718232
 30
0.0
 41
3.0
 42
3.0
 43
3.0
  0
INSERT
  5
119C
330
1195
100
AcDbEntity
  8
DIM
 62
     0
370
    -2
100
AcDbBlockReference
  2
_DOT
 10
-798.2785525270854
 20
532.0882777718232
 30
0.0
 41
3.0
 42
3.0
 43
3.0
 50
180.0
  0
MTEXT
  5
119D
330
1195
100
AcDbEntity
  8
DIM
 62
     0
 48
0.05
100
AcDbMText
 10
-778.1913328786384
 20
548.0882777718232
 30
0.0
 40
12.0
 41
0.0
 46
0.0
 71
     5
 72
     1
  1
\A1;40
  7
ＭＳ ゴシック
 73
     1
 44
1.0
  0
POINT
  5
119E
330
1195
100
AcDbEntity
  8
Defpoints
 62
     0
100
AcDbPoint
 10
-758.1041132301912
 20
499.101569327267
 30
0.0
  0
POINT
  5
119F
330
1195
100
AcDbEntity
  8
Defpoints
 62
     0
100
AcDbPoint
 10
-798.2785525270854
 20
485.8056190043494
 30
0.0
  0
POINT
  5
11A0
330
1195
100
AcDbEntity
  8
Defpoints
 62
     0
100
AcDbPoint
 10
-798.2785525270854
 20
532.0882777718232
 30
0.0
  0
ENDBLK
  5
1197
330
1195
100
AcDbEntity
  8
0
100
AcDbBlockEnd
  0
BLOCK
  5
11A2
330
11A1
100
AcDbEntity
  8
0
100
AcDbBlockBegin
  2
*D40
 70
     1
 10
0.0
 20
0.0
 30
0.0
  3
*D40
  1
*D41
  0
LINE
  5
11A4
330
11A1
100
AcDbEntity
  8
DIM
  6
Continuous
 62
     0
370
    -2
100
AcDbLine
 10
-748.1041132301912
 20
499.101569327267
 30
0.0
 11
-714.274795177846
 21
499.101569327267
 31
0.0
  0
LINE
  5
11A5
330
11A1
100
AcDbEntity
  8
DIM
  6
Continuous
 62
     0
370
    -2
100
AcDbLine
 10
-764.574502850003
 20
462.1015693272672
 30
0.0
 11
-714.274795177846
 21
462.1015693272672
 31
0.0
  0
LINE
  5
11A6
330
11A1
100
AcDbEntity
  8
DIM
  6
Continuous
 62
     0
370
    -2
100
AcDbLine
 10
-714.274795177846
 20
496.101569327267
 30
0.0
 11
-714.274795177846
 21
465.1015693272672
 31
0.0
  0
INSERT
  5
11A7
330
11A1
100
AcDbEntity
  8
DIM
 62
     0
370
    -2
100
AcDbBlockReference
  2
_DOT
 10
-714.274795177846
 20
499.101569327267
 30
0.0
 41
3.0
 42
3.0
 43
3.0
 50
90.0
  0
INSERT
  5
11A8
330
11A1
100
AcDbEntity
  8
DIM
 62
     0
370
    -2
100
AcDbBlockReference
  2
_DOT
 10
-714.274795177846
 20
462.1015693272672
 30
0.0
 41
3.0
 42
3.0
 43
3.0
 50
270.0
  0
MTEXT
  5
11A9
330
11A1
100
AcDbEntity
  8
DIM
 62
     0
 48
0.05
100
AcDbMText
 10
-730.274795177846
 20
480.601569327267
 30
0.0
 40
12.0
 41
0.0
 46
0.0
 71
     5
 72
     1
  1
\A1;37
  7
ＭＳ ゴシック
 11
0.0
 21
1.0
 31
0.0
 73
     1
 44
1.0
  0
POINT
  5
11AA
330
11A1
100
AcDbEntity
  8
Defpoints
 62
     0
100
AcDbPoint
 10
-758.1041132301912
 20
499.101569327267
 30
0.0
  0
POINT
  5
11AB
330
11A1
100
AcDbEntity
  8
Defpoints
 62
     0
100
AcDbPoint
 10
-774.574502850003
 20
462.1015693272672
 30
0.0
  0
POINT
  5
11AC
330
11A1
100
AcDbEntity
  8
Defpoints
 62
     0
100
AcDbPoint
 10
-714.274795177846
 20
462.1015693272672
 30
0.0
  0
ENDBLK
  5
11A3
330
11A1
100
AcDbEntity
  8
0
100
AcDbBlockEnd
  0
BLOCK
  5
12E1
330
12E0
100
AcDbEntity
  8
0
100
AcDbBlockBegin
  2
*D41
 70
     1
 10
0.0
 20
0.0
 30
0.0
  3
*D41
  1
*D41
  0
LINE
  5
12E3
330
12E0
100
AcDbEntity
  8
DIM
 62
     0
 48
0.05
370
    -2
100
AcDbLine
 10
-748.1041132301912
 20
499.101569327267
 30
0.0
 11
-670.6433415851454
 21
499.101569327267
 31
0.0
  0
LINE
  5
12E4
330
12E0
100
AcDbEntity
  8
DIM
 62
     0
 48
0.05
370
    -2
100
AcDbLine
 10
-867.1041132301912
 20
389.1015693272668
 30
0.0
 11
-670.6433415851454
 21
389.1015693272668
 31
0.0
  0
LINE
  5
12E5
330
12E0
100
AcDbEntity
  8
DIM
 62
     0
 48
0.05
370
    -2
100
AcDbLine
 10
-670.6433415851454
 20
496.101569327267
 30
0.0
 11
-670.6433415851454
 21
392.1015693272668
 31
0.0
  0
INSERT
  5
12E6
330
12E0
100
AcDbEntity
  8
DIM
 62
     0
370
    -2
100
AcDbBlockReference
  2
_DOT
 10
-670.6433415851454
 20
499.101569327267
 30
0.0
 41
3.0
 42
3.0
 43
3.0
 50
90.0
  0
INSERT
  5
12E7
330
12E0
100
AcDbEntity
  8
DIM
 62
     0
370
    -2
100
AcDbBlockReference
  2
_DOT
 10
-670.6433415851454
 20
389.1015693272668
 30
0.0
 41
3.0
 42
3.0
 43
3.0
 50
270.0
  0
MTEXT
  5
12E8
330
12E0
100
AcDbEntity
  8
DIM
 62
     0
 48
0.05
100
AcDbMText
 10
-686.6433415851454
 20
444.1015693272669
 30
0.0
 40
12.0
 41
0.0
 46
0.0
 71
     5
 72
     1
  1
\A1;110
  7
ＭＳ ゴシック
 11
0.0
 21
1.0
 31
0.0
 73
     1
 44
1.0
  0
POINT
  5
12E9
330
12E0
100
AcDbEntity
  8
Defpoints
 62
     0
100
AcDbPoint
 10
-758.1041132301912
 20
499.101569327267
 30
0.0
  0
POINT
  5
12EA
330
12E0
100
AcDbEntity
  8
Defpoints
 62
     0
100
AcDbPoint
 10
-877.1041132301912
 20
389.1015693272668
 30
0.0
  0
POINT
  5
12EB
330
12E0
100
AcDbEntity
  8
Defpoints
 62
     0
100
AcDbPoint
 10
-670.6433415851454
 20
389.1015693272668
 30
0.0
  0
ENDBLK
  5
12E2
330
12E0
100
AcDbEntity
  8
0
100
AcDbBlockEnd
  0
BLOCK
  5
136E
330
136D
100
AcDbEntity
  8
0
100
AcDbBlockBegin
  2
*D42
 70
     1
 10
0.0
 20
0.0
 30
0.0
  3
*D42
  1
*D69
  0
LINE
  5
136F
330
136D
100
AcDbEntity
  8
DIM
 62
     0
 48
0.05
370
    -2
100
AcDbLine
 10
8.171350987694126
 20
45.64553879057974
 30
0.0
 11
8.171350987694126
 21
24.12999999999994
 31
0.0
  0
LINE
  5
1370
330
136D
100
AcDbEntity
  8
DIM
 62
     0
 48
0.05
370
    -2
100
AcDbLine
 10
50.17135098769415
 20
45.64553879057974
 30
0.0
 11
50.17135098769415
 21
24.12999999999994
 31
0.0
  0
LINE
  5
1371
330
136D
100
AcDbEntity
  8
DIM
 62
     0
 48
0.05
370
    -2
100
AcDbLine
 10
11.17135098769413
 20
24.12999999999994
 30
0.0
 11
47.17135098769415
 21
24.12999999999994
 31
0.0
  0
INSERT
  5
1372
330
136D
100
AcDbEntity
  8
DIM
 62
     0
370
    -2
100
AcDbBlockReference
  2
_DOT
 10
8.171350987694126
 20
24.12999999999994
 30
0.0
 41
3.0
 42
3.0
 43
3.0
 50
180.0
  0
INSERT
  5
1373
330
136D
100
AcDbEntity
  8
DIM
 62
     0
370
    -2
100
AcDbBlockReference
  2
_DOT
 10
50.17135098769415
 20
24.12999999999994
 30
0.0
 41
3.0
 42
3.0
 43
3.0
  0
MTEXT
  5
1374
330
136D
100
AcDbEntity
  8
DIM
 62
     0
 48
0.05
100
AcDbMText
 10
29.17135098769413
 20
6.85199999999994
 30
0.0
 40
12.0
 41
0.0
 46
0.0
 71
     5
 72
     1
  1
\A1;G1 1/4"
  7
ＭＳ ゴシック
 73
     1
 44
1.0
  0
POINT
  5
1375
330
136D
100
AcDbEntity
  8
Defpoints
 62
     0
100
AcDbPoint
 10
8.171350987694126
 20
55.64553879057974
 30
0.0
  0
POINT
  5
1376
330
136D
100
AcDbEntity
  8
Defpoints
 62
     0
100
AcDbPoint
 10
50.17135098769415
 20
55.64553879057974
 30
0.0
  0
POINT
  5
1377
330
136D
100
AcDbEntity
  8
Defpoints
 62
     0
100
AcDbPoint
 10
50.17135098769415
 20
24.12999999999994
 30
0.0
  0
ENDBLK
  5
1378
330
136D
100
AcDbEntity
  8
0
100
AcDbBlockEnd
  0
BLOCK
  5
13A6
330
13A5
100
AcDbEntity
  8
0
100
AcDbBlockBegin
  2
*D43
 70
     1
 10
0.0
 20
0.0
 30
0.0
  3
*D43
  1
*D45
  0
LINE
  5
13A8
330
13A5
100
AcDbEntity
  8
DIM
 62
     0
 48
0.05
370
    -2
100
AcDbLine
 10
-87.11916500989497
 20
290.8703356235479
 30
0.0
 11
-87.11916500989497
 21
269.3547968329681
 31
0.0
  0
LINE
  5
13A9
330
13A5
100
AcDbEntity
  8
DIM
 62
     0
 48
0.05
370
    -2
100
AcDbLine
 10
-45.11916500989497
 20
290.8703356235479
 30
0.0
 11
-45.11916500989497
 21
269.3547968329681
 31
0.0
  0
LINE
  5
13AA
330
13A5
100
AcDbEntity
  8
DIM
 62
     0
 48
0.05
370
    -2
100
AcDbLine
 10
-84.11916500989497
 20
269.3547968329681
 30
0.0
 11
-48.11916500989497
 21
269.3547968329681
 31
0.0
  0
INSERT
  5
13AB
330
13A5
100
AcDbEntity
  8
DIM
 62
     0
370
    -2
100
AcDbBlockReference
  2
_DOT
 10
-87.11916500989497
 20
269.3547968329681
 30
0.0
 41
3.0
 42
3.0
 43
3.0
 50
180.0
  0
INSERT
  5
13AC
330
13A5
100
AcDbEntity
  8
DIM
 62
     0
370
    -2
100
AcDbBlockReference
  2
_DOT
 10
-45.11916500989497
 20
269.3547968329681
 30
0.0
 41
3.0
 42
3.0
 43
3.0
  0
MTEXT
  5
13AD
330
13A5
100
AcDbEntity
  8
DIM
 62
     0
 48
0.05
100
AcDbMText
 10
-66.11916500989497
 20
252.0767968329681
 30
0.0
 40
12.0
 41
0.0
 46
0.0
 71
     5
 72
     1
  1
\A1;G1 1/4"
  7
ＭＳ ゴシック
 73
     1
 44
1.0
  0
POINT
  5
13AE
330
13A5
100
AcDbEntity
  8
Defpoints
 62
     0
100
AcDbPoint
 10
-87.11916500989497
 20
300.8703356235479
 30
0.0
  0
POINT
  5
13AF
330
13A5
100
AcDbEntity
  8
Defpoints
 62
     0
100
AcDbPoint
 10
-45.11916500989497
 20
300.8703356235479
 30
0.0
  0
POINT
  5
13B0
330
13A5
100
AcDbEntity
  8
Defpoints
 62
     0
100
AcDbPoint
 10
-45.11916500989497
 20
269.3547968329681
 30
0.0
  0
ENDBLK
  5
13A7
330
13A5
100
AcDbEntity
  8
0
100
AcDbBlockEnd
  0
BLOCK
  5
13BD
330
13BC
100
AcDbEntity
  8
0
100
AcDbBlockBegin
  2
*D44
 70
     1
 10
0.0
 20
0.0
 30
0.0
  3
*D44
  1
*D46
  0
LINE
  5
13BF
330
13BC
100
AcDbEntity
  8
DIM
 62
     0
 48
0.05
370
    -2
100
AcDbLine
 10
-919.1041132301912
 20
379.1015693272668
 30
0.0
 11
-919.1041132301912
 21
357.586030536687
 31
0.0
  0
LINE
  5
13C0
330
13BC
100
AcDbEntity
  8
DIM
 62
     0
 48
0.05
370
    -2
100
AcDbLine
 10
-877.1041132301912
 20
379.1015693272668
 30
0.0
 11
-877.1041132301912
 21
357.586030536687
 31
0.0
  0
LINE
  5
13C1
330
13BC
100
AcDbEntity
  8
DIM
 62
     0
 48
0.05
370
    -2
100
AcDbLine
 10
-916.1041132301912
 20
357.586030536687
 30
0.0
 11
-880.1041132301912
 21
357.586030536687
 31
0.0
  0
INSERT
  5
13C2
330
13BC
100
AcDbEntity
  8
DIM
 62
     0
370
    -2
100
AcDbBlockReference
  2
_DOT
 10
-919.1041132301912
 20
357.586030536687
 30
0.0
 41
3.0
 42
3.0
 43
3.0
 50
180.0
  0
INSERT
  5
13C3
330
13BC
100
AcDbEntity
  8
DIM
 62
     0
370
    -2
100
AcDbBlockReference
  2
_DOT
 10
-877.1041132301912
 20
357.586030536687
 30
0.0
 41
3.0
 42
3.0
 43
3.0
  0
MTEXT
  5
13C4
330
13BC
100
AcDbEntity
  8
DIM
 62
     0
 48
0.05
100
AcDbMText
 10
-898.1041132301912
 20
340.308030536687
 30
0.0
 40
12.0
 41
0.0
 46
0.0
 71
     5
 72
     1
  1
\A1;G1 1/4"
  7
ＭＳ ゴシック
 73
     1
 44
1.0
  0
POINT
  5
13C5
330
13BC
100
AcDbEntity
  8
Defpoints
 62
     0
100
AcDbPoint
 10
-919.1041132301912
 20
389.1015693272668
 30
0.0
  0
POINT
  5
13C6
330
13BC
100
AcDbEntity
  8
Defpoints
 62
     0
100
AcDbPoint
 10
-877.1041132301912
 20
389.1015693272668
 30
0.0
  0
POINT
  5
13C7
330
13BC
100
AcDbEntity
  8
Defpoints
 62
     0
100
AcDbPoint
 10
-877.1041132301912
 20
357.586030536687
 30
0.0
  0
ENDBLK
  5
13BE
330
13BC
100
AcDbEntity
  8
0
100
AcDbBlockEnd
  0
BLOCK
  5
13F7
330
13F6
100
AcDbEntity
  8
0
100
AcDbBlockBegin
  2
*D45
 70
     1
 10
0.0
 20
0.0
 30
0.0
  3
*D45
  1
*D47
  0
LINE
  5
13F9
330
13F6
100
AcDbEntity
  8
DIM
 62
     0
 48
0.05
370
    -2
100
AcDbLine
 10
284.5893591789629
 20
1147.192651407002
 30
0.0
 11
284.5893591789629
 21
1161.26779357991
 31
0.0
  0
LINE
  5
13FA
330
13F6
100
AcDbEntity
  8
DIM
 62
     0
 48
0.05
370
    -2
100
AcDbLine
 10
314.5893591789629
 20
1147.192651407002
 30
0.0
 11
314.5893591789629
 21
1161.26779357991
 31
0.0
  0
LINE
  5
13FB
330
13F6
100
AcDbEntity
  8
DIM
 62
     0
 48
0.05
370
    -2
100
AcDbLine
 10
281.5893591789629
 20
1161.26779357991
 30
0.0
 11
278.5893591789629
 21
1161.26779357991
 31
0.0
  0
LINE
  5
13FC
330
13F6
100
AcDbEntity
  8
DIM
 62
     0
 48
0.05
370
    -2
100
AcDbLine
 10
317.5893591789629
 20
1161.26779357991
 30
0.0
 11
320.5893591789629
 21
1161.26779357991
 31
0.0
  0
INSERT
  5
13FD
330
13F6
100
AcDbEntity
  8
DIM
 62
     0
370
    -2
100
AcDbBlockReference
  2
_DOT
 10
284.5893591789629
 20
1161.26779357991
 30
0.0
 41
3.0
 42
3.0
 43
3.0
  0
INSERT
  5
13FE
330
13F6
100
AcDbEntity
  8
DIM
 62
     0
370
    -2
100
AcDbBlockReference
  2
_DOT
 10
314.5893591789629
 20
1161.26779357991
 30
0.0
 41
3.0
 42
3.0
 43
3.0
 50
180.0
  0
MTEXT
  5
13FF
330
13F6
100
AcDbEntity
  8
DIM
 62
     0
 48
0.05
100
AcDbMText
 10
299.5893591789629
 20
1177.26779357991
 30
0.0
 40
12.0
 41
0.0
 46
0.0
 71
     5
 72
     1
  1
\A1;30
  7
ＭＳ ゴシック
 73
     1
 44
1.0
  0
POINT
  5
1400
330
13F6
100
AcDbEntity
  8
Defpoints
 62
     0
100
AcDbPoint
 10
284.5893591789629
 20
1137.192651407002
 30
0.0
  0
POINT
  5
1401
330
13F6
100
AcDbEntity
  8
Defpoints
 62
     0
100
AcDbPoint
 10
314.5893591789629
 20
1137.192651407002
 30
0.0
  0
POINT
  5
1402
330
13F6
100
AcDbEntity
  8
Defpoints
 62
     0
100
AcDbPoint
 10
314.5893591789629
 20
1161.26779357991
 30
0.0
  0
ENDBLK
  5
13F8
330
13F6
100
AcDbEntity
  8
0
100
AcDbBlockEnd
  0
BLOCK
  5
14AF
330
14AE
100
AcDbEntity
  8
0
100
AcDbBlockBegin
  2
SW_CENTERMARKSYMBOL_0
 70
     0
 10
0.0
 20
0.0
 30
0.0
  3
SW_CENTERMARKSYMBOL_0
  1
SW_CENTERMARKSYMBOL_0
  0
LINE
  5
14B0
330
14AE
100
AcDbEntity
  8
0
  6
Continuous
 62
     0
100
AcDbLine
 10
0.0
 20
0.0
 30
0.0
 11
0.0
 21
0.1250000000000001
 31
0.0
  0
LINE
  5
14B1
330
14AE
100
AcDbEntity
  8
0
  6
Continuous
 62
     0
100
AcDbLine
 10
0.0
 20
0.0
 30
0.0
 11
-0.1250000000000001
 21
0.0
 31
0.0
  0
LINE
  5
14B2
330
14AE
100
AcDbEntity
  8
0
  6
Continuous
 62
     0
100
AcDbLine
 10
0.0
 20
0.0
 30
0.0
 11
0.0
 21
-0.1250000000000001
 31
0.0
  0
LINE
  5
14B3
330
14AE
100
AcDbEntity
  8
0
  6
Continuous
 62
     0
100
AcDbLine
 10
0.0
 20
0.0
 30
0.0
 11
0.1250000000000001
 21
0.0
 31
0.0
  0
LINE
  5
14B4
330
14AE
100
AcDbEntity
  8
0
  6
Continuous
 62
     0
100
AcDbLine
 10
0.0
 20
0.2500000000000002
 30
0.0
 11
0.0
 21
1.000000000000001
 31
0.0
  0
LINE
  5
14B5
330
14AE
100
AcDbEntity
  8
0
  6
Continuous
 62
     0
100
AcDbLine
 10
-0.2500000000000002
 20
0.0
 30
0.0
 11
-1.000000000000001
 21
0.0
 31
0.0
  0
LINE
  5
14B6
330
14AE
100
AcDbEntity
  8
0
  6
Continuous
 62
     0
100
AcDbLine
 10
0.0
 20
-0.2500000000000002
 30
0.0
 11
0.0
 21
-0.9999999999999991
 31
0.0
  0
LINE
  5
14B7
330
14AE
100
AcDbEntity
  8
0
  6
Continuous
 62
     0
100
AcDbLine
 10
0.2499999999999985
 20
0.0
 30
0.0
 11
0.9999999999999991
 21
0.0
 31
0.0
  0
ENDBLK
  5
14B8
330
14AE
100
AcDbEntity
  8
0
100
AcDbBlockEnd
  0
BLOCK
  5
1509
330
1508
100
AcDbEntity
  8
0
100
AcDbBlockBegin
  2
*D47
 70
     1
 10
0.0
 20
0.0
 30
0.0
  3
*D47
  1
*D48
  0
LINE
  5
150B
330
1508
100
AcDbEntity
  8
DIM
 62
     0
 48
0.05
370
    -2
100
AcDbLine
 10
427.1954450426713
 20
918.563361366625
 30
0.0
 11
474.1434286869003
 21
918.563361366625
 31
0.0
  0
LINE
  5
150C
330
1508
100
AcDbEntity
  8
DIM
 62
     0
 48
0.05
370
    -2
100
AcDbLine
 10
427.1954450426713
 20
1178.563361366625
 30
0.0
 11
474.1434286869003
 21
1178.563361366625
 31
0.0
  0
LINE
  5
150D
330
1508
100
AcDbEntity
  8
DIM
 62
     0
 48
0.05
370
    -2
100
AcDbLine
 10
474.1434286869003
 20
921.563361366625
 30
0.0
 11
474.1434286869003
 21
1175.563361366625
 31
0.0
  0
INSERT
  5
150E
330
1508
100
AcDbEntity
  8
DIM
 62
     0
370
    -2
100
AcDbBlockReference
  2
_DOT
 10
474.1434286869003
 20
918.563361366625
 30
0.0
 41
3.0
 42
3.0
 43
3.0
 50
270.0
  0
INSERT
  5
150F
330
1508
100
AcDbEntity
  8
DIM
 62
     0
370
    -2
100
AcDbBlockReference
  2
_DOT
 10
474.1434286869003
 20
1178.563361366625
 30
0.0
 41
3.0
 42
3.0
 43
3.0
 50
90.0
  0
MTEXT
  5
1510
330
1508
100
AcDbEntity
  8
DIM
 62
     0
 48
0.05
100
AcDbMText
 10
458.1434286869003
 20
1048.563361366625
 30
0.0
 40
12.0
 41
0.0
 46
0.0
 71
     5
 72
     1
  1
\A1;260
  7
ＭＳ ゴシック
 11
0.0
 21
1.0
 31
0.0
 73
     1
 44
1.0
  0
POINT
  5
1511
330
1508
100
AcDbEntity
  8
Defpoints
 62
     0
100
AcDbPoint
 10
417.1954450426713
 20
918.563361366625
 30
0.0
  0
POINT
  5
1512
330
1508
100
AcDbEntity
  8
Defpoints
 62
     0
100
AcDbPoint
 10
417.1954450426713
 20
1178.563361366625
 30
0.0
  0
POINT
  5
1513
330
1508
100
AcDbEntity
  8
Defpoints
 62
     0
100
AcDbPoint
 10
474.1434286869003
 20
1178.563361366625
 30
0.0
  0
ENDBLK
  5
150A
330
1508
100
AcDbEntity
  8
0
100
AcDbBlockEnd
  0
BLOCK
  5
1518
330
1517
100
AcDbEntity
  8
0
100
AcDbBlockBegin
  2
*D48
 70
     1
 10
0.0
 20
0.0
 30
0.0
  3
*D48
  1
*D49
  0
LINE
  5
151A
330
1517
100
AcDbEntity
  8
DIM
 62
     0
 48
0.05
370
    -2
100
AcDbLine
 10
427.1954450426713
 20
918.563361366625
 30
0.0
 11
481.9777213805528
 21
918.563361366625
 31
0.0
  0
LINE
  5
151B
330
1517
100
AcDbEntity
  8
DIM
 62
     0
 48
0.05
370
    -2
100
AcDbLine
 10
422.1954450426713
 20
1188.563361366625
 30
0.0
 11
481.9777213805528
 21
1188.563361366625
 31
0.0
  0
LINE
  5
151C
330
1517
100
AcDbEntity
  8
DIM
 62
     0
 48
0.05
370
    -2
100
AcDbLine
 10
481.9777213805528
 20
921.563361366625
 30
0.0
 11
481.9777213805528
 21
1185.563361366625
 31
0.0
  0
INSERT
  5
151D
330
1517
100
AcDbEntity
  8
DIM
 62
     0
370
    -2
100
AcDbBlockReference
  2
_DOT
 10
481.9777213805528
 20
918.563361366625
 30
0.0
 41
3.0
 42
3.0
 43
3.0
 50
270.0
  0
INSERT
  5
151E
330
1517
100
AcDbEntity
  8
DIM
 62
     0
370
    -2
100
AcDbBlockReference
  2
_DOT
 10
481.9777213805528
 20
1188.563361366625
 30
0.0
 41
3.0
 42
3.0
 43
3.0
 50
90.0
  0
MTEXT
  5
151F
330
1517
100
AcDbEntity
  8
DIM
 62
     0
 48
0.05
100
AcDbMText
 10
465.9777213805528
 20
1053.563361366625
 30
0.0
 40
12.0
 41
0.0
 46
0.0
 71
     5
 72
     1
  1
\A1;270
  7
ＭＳ ゴシック
 11
0.0
 21
1.0
 31
0.0
 73
     1
 44
1.0
  0
POINT
  5
1520
330
1517
100
AcDbEntity
  8
Defpoints
 62
     0
100
AcDbPoint
 10
417.1954450426713
 20
918.563361366625
 30
0.0
  0
POINT
  5
1521
330
1517
100
AcDbEntity
  8
Defpoints
 62
     0
100
AcDbPoint
 10
412.1954450426713
 20
1188.563361366625
 30
0.0
  0
POINT
  5
1522
330
1517
100
AcDbEntity
  8
Defpoints
 62
     0
100
AcDbPoint
 10
481.9777213805528
 20
1188.563361366625
 30
0.0
  0
ENDBLK
  5
1519
330
1517
100
AcDbEntity
  8
0
100
AcDbBlockEnd
  0
BLOCK
  5
1527
330
1526
100
AcDbEntity
  8
0
100
AcDbBlockBegin
  2
*D49
 70
     1
 10
0.0
 20
0.0
 30
0.0
  3
*D49
  1
*D50
  0
LINE
  5
1529
330
1526
100
AcDbEntity
  8
DIM
 62
     0
 48
0.05
370
    -2
100
AcDbLine
 10
152.1954450426713
 20
1188.563361366625
 30
0.0
 11
112.6243742297393
 21
1188.563361366625
 31
0.0
  0
LINE
  5
152A
330
1526
100
AcDbEntity
  8
DIM
 62
     0
 48
0.05
370
    -2
100
AcDbLine
 10
155.2447292742543
 20
1098.563361366625
 30
0.0
 11
112.6243742297393
 21
1098.563361366625
 31
0.0
  0
LINE
  5
152B
330
1526
100
AcDbEntity
  8
DIM
 62
     0
 48
0.05
370
    -2
100
AcDbLine
 10
112.6243742297393
 20
1185.563361366625
 30
0.0
 11
112.6243742297393
 21
1101.563361366625
 31
0.0
  0
INSERT
  5
152C
330
1526
100
AcDbEntity
  8
DIM
 62
     0
370
    -2
100
AcDbBlockReference
  2
_DOT
 10
112.6243742297393
 20
1188.563361366625
 30
0.0
 41
3.0
 42
3.0
 43
3.0
 50
90.0
  0
INSERT
  5
152D
330
1526
100
AcDbEntity
  8
DIM
 62
     0
370
    -2
100
AcDbBlockReference
  2
_DOT
 10
112.6243742297393
 20
1098.563361366625
 30
0.0
 41
3.0
 42
3.0
 43
3.0
 50
270.0
  0
MTEXT
  5
152E
330
1526
100
AcDbEntity
  8
DIM
 62
     0
 48
0.05
100
AcDbMText
 10
96.6243742297393
 20
1143.563361366625
 30
0.0
 40
12.0
 41
0.0
 46
0.0
 71
     5
 72
     1
  1
\A1;90
  7
ＭＳ ゴシック
 11
0.0
 21
1.0
 31
0.0
 73
     1
 44
1.0
  0
POINT
  5
152F
330
1526
100
AcDbEntity
  8
Defpoints
 62
     0
100
AcDbPoint
 10
162.1954450426713
 20
1188.563361366625
 30
0.0
  0
POINT
  5
1530
330
1526
100
AcDbEntity
  8
Defpoints
 62
     0
100
AcDbPoint
 10
165.2447292742543
 20
1098.563361366625
 30
0.0
  0
POINT
  5
1531
330
1526
100
AcDbEntity
  8
Defpoints
 62
     0
100
AcDbPoint
 10
112.6243742297393
 20
1098.563361366625
 30
0.0
  0
ENDBLK
  5
1528
330
1526
100
AcDbEntity
  8
0
100
AcDbBlockEnd
  0
BLOCK
  5
1536
330
1535
100
AcDbEntity
  8
0
100
AcDbBlockBegin
  2
*D50
 70
     1
 10
0.0
 20
0.0
 30
0.0
  3
*D50
  1
*D51
  0
LINE
  5
1538
330
1535
100
AcDbEntity
  8
DIM
 62
     0
 48
0.05
370
    -2
100
AcDbLine
 10
149.1954450426672
 20
1098.563361366625
 30
0.0
 11
112.6243742297393
 21
1098.563361366625
 31
0.0
  0
LINE
  5
1539
330
1535
100
AcDbEntity
  8
DIM
 62
     0
 48
0.05
370
    -2
100
AcDbLine
 10
153.2958272355693
 20
925.563361366625
 30
0.0
 11
112.6243742297393
 21
925.563361366625
 31
0.0
  0
LINE
  5
153A
330
1535
100
AcDbEntity
  8
DIM
 62
     0
 48
0.05
370
    -2
100
AcDbLine
 10
112.6243742297393
 20
1095.563361366625
 30
0.0
 11
112.6243742297393
 21
928.563361366625
 31
0.0
  0
INSERT
  5
153B
330
1535
100
AcDbEntity
  8
DIM
 62
     0
370
    -2
100
AcDbBlockReference
  2
_DOT
 10
112.6243742297393
 20
1098.563361366625
 30
0.0
 41
3.0
 42
3.0
 43
3.0
 50
90.0
  0
INSERT
  5
153C
330
1535
100
AcDbEntity
  8
DIM
 62
     0
370
    -2
100
AcDbBlockReference
  2
_DOT
 10
112.6243742297393
 20
925.563361366625
 30
0.0
 41
3.0
 42
3.0
 43
3.0
 50
270.0
  0
MTEXT
  5
153D
330
1535
100
AcDbEntity
  8
DIM
 62
     0
 48
0.05
100
AcDbMText
 10
96.62437422973932
 20
1012.063361366625
 30
0.0
 40
12.0
 41
0.0
 46
0.0
 71
     5
 72
     1
  1
\A1;173
  7
ＭＳ ゴシック
 11
8.214366887400002E-17
 21
1.0
 31
0.0
 73
     1
 44
1.0
  0
POINT
  5
153E
330
1535
100
AcDbEntity
  8
Defpoints
 62
     0
100
AcDbPoint
 10
159.1954450426672
 20
1098.563361366625
 30
0.0
  0
POINT
  5
153F
330
1535
100
AcDbEntity
  8
Defpoints
 62
     0
100
AcDbPoint
 10
163.2958272355693
 20
925.563361366625
 30
0.0
  0
POINT
  5
1540
330
1535
100
AcDbEntity
  8
Defpoints
 62
     0
100
AcDbPoint
 10
112.6243742297393
 20
925.563361366625
 30
0.0
  0
ENDBLK
  5
1537
330
1535
100
AcDbEntity
  8
0
100
AcDbBlockEnd
  0
BLOCK
  5
1545
330
1544
100
AcDbEntity
  8
0
100
AcDbBlockBegin
  2
*D51
 70
     1
 10
0.0
 20
0.0
 30
0.0
  3
*D51
  1
*D52
  0
LINE
  5
1547
330
1544
100
AcDbEntity
  8
DIM
 62
     0
 48
0.05
370
    -2
100
AcDbLine
 10
154.1954450426672
 20
920.5633613661939
 30
0.0
 11
154.1954450426672
 21
871.7165037601796
 31
0.0
  0
LINE
  5
1548
330
1544
100
AcDbEntity
  8
DIM
 62
     0
 48
0.05
370
    -2
100
AcDbLine
 10
420.1954450426742
 20
920.5633613644168
 30
0.0
 11
420.1954450426742
 21
871.7165037601796
 31
0.0
  0
LINE
  5
1549
330
1544
100
AcDbEntity
  8
DIM
 62
     0
 48
0.05
370
    -2
100
AcDbLine
 10
157.1954450426672
 20
871.7165037601796
 30
0.0
 11
417.1954450426742
 21
871.7165037601796
 31
0.0
  0
INSERT
  5
154A
330
1544
100
AcDbEntity
  8
DIM
 62
     0
370
    -2
100
AcDbBlockReference
  2
_DOT
 10
154.1954450426672
 20
871.7165037601796
 30
0.0
 41
3.0
 42
3.0
 43
3.0
 50
180.0
  0
INSERT
  5
154B
330
1544
100
AcDbEntity
  8
DIM
 62
     0
370
    -2
100
AcDbBlockReference
  2
_DOT
 10
420.1954450426742
 20
871.7165037601796
 30
0.0
 41
3.0
 42
3.0
 43
3.0
  0
MTEXT
  5
154C
330
1544
100
AcDbEntity
  8
DIM
 62
     0
 48
0.05
100
AcDbMText
 10
287.1954450426707
 20
887.7165037601796
 30
0.0
 40
12.0
 41
0.0
 46
0.0
 71
     5
 72
     1
  1
\A1;266
  7
ＭＳ ゴシック
 73
     1
 44
1.0
  0
POINT
  5
154D
330
1544
100
AcDbEntity
  8
Defpoints
 62
     0
100
AcDbPoint
 10
154.1954450426672
 20
930.5633613661939
 30
0.0
  0
POINT
  5
154E
330
1544
100
AcDbEntity
  8
Defpoints
 62
     0
100
AcDbPoint
 10
420.1954450426742
 20
930.5633613644168
 30
0.0
  0
POINT
  5
154F
330
1544
100
AcDbEntity
  8
Defpoints
 62
     0
100
AcDbPoint
 10
420.1954450426742
 20
871.7165037601796
 30
0.0
  0
ENDBLK
  5
1546
330
1544
100
AcDbEntity
  8
0
100
AcDbBlockEnd
  0
BLOCK
  5
1593
330
1592
100
AcDbEntity
  8
0
100
AcDbBlockBegin
  2
*D52
 70
     1
 10
0.0
 20
0.0
 30
0.0
  3
*D52
  1
*D53
  0
LINE
  5
1595
330
1592
100
AcDbEntity
  8
DIM
 62
     0
 48
0.05
370
    -2
100
AcDbLine
 10
1929.532176205046
 20
912.1926514070019
 30
0.0
 11
1976.480159849276
 21
912.1926514070019
 31
0.0
  0
LINE
  5
1596
330
1592
100
AcDbEntity
  8
DIM
 62
     0
 48
0.05
370
    -2
100
AcDbLine
 10
1929.532176205046
 20
1172.192651407002
 30
0.0
 11
1976.480159849276
 21
1172.192651407002
 31
0.0
  0
LINE
  5
1597
330
1592
100
AcDbEntity
  8
DIM
 62
     0
 48
0.05
370
    -2
100
AcDbLine
 10
1976.480159849276
 20
915.1926514070019
 30
0.0
 11
1976.480159849276
 21
1169.192651407002
 31
0.0
  0
INSERT
  5
1598
330
1592
100
AcDbEntity
  8
DIM
 62
     0
370
    -2
100
AcDbBlockReference
  2
_DOT
 10
1976.480159849276
 20
912.1926514070019
 30
0.0
 41
3.0
 42
3.0
 43
3.0
 50
270.0
  0
INSERT
  5
1599
330
1592
100
AcDbEntity
  8
DIM
 62
     0
370
    -2
100
AcDbBlockReference
  2
_DOT
 10
1976.480159849276
 20
1172.192651407002
 30
0.0
 41
3.0
 42
3.0
 43
3.0
 50
90.0
  0
MTEXT
  5
159A
330
1592
100
AcDbEntity
  8
DIM
 62
     0
 48
0.05
100
AcDbMText
 10
1960.480159849276
 20
1042.192651407002
 30
0.0
 40
12.0
 41
0.0
 46
0.0
 71
     5
 72
     1
  1
\A1;260
  7
ＭＳ ゴシック
 11
0.0
 21
1.0
 31
0.0
 73
     1
 44
1.0
  0
POINT
  5
159B
330
1592
100
AcDbEntity
  8
Defpoints
 62
     0
100
AcDbPoint
 10
1919.532176205046
 20
912.1926514070019
 30
0.0
  0
POINT
  5
159C
330
1592
100
AcDbEntity
  8
Defpoints
 62
     0
100
AcDbPoint
 10
1919.532176205046
 20
1172.192651407002
 30
0.0
  0
POINT
  5
159D
330
1592
100
AcDbEntity
  8
Defpoints
 62
     0
100
AcDbPoint
 10
1976.480159849276
 20
1172.192651407002
 30
0.0
  0
ENDBLK
  5
1594
330
1592
100
AcDbEntity
  8
0
100
AcDbBlockEnd
  0
BLOCK
  5
159F
330
159E
100
AcDbEntity
  8
0
100
AcDbBlockBegin
  2
*D53
 70
     1
 10
0.0
 20
0.0
 30
0.0
  3
*D53
  1
*D54
  0
LINE
  5
15A1
330
159E
100
AcDbEntity
  8
DIM
 62
     0
 48
0.05
370
    -2
100
AcDbLine
 10
1929.532176205046
 20
912.1926514070019
 30
0.0
 11
2019.683095425856
 21
912.1926514070019
 31
0.0
  0
LINE
  5
15A2
330
159E
100
AcDbEntity
  8
DIM
 62
     0
 48
0.05
370
    -2
100
AcDbLine
 10
1924.532176205046
 20
1182.192651407002
 30
0.0
 11
2019.683095425856
 21
1182.192651407002
 31
0.0
  0
LINE
  5
15A3
330
159E
100
AcDbEntity
  8
DIM
 62
     0
 48
0.05
370
    -2
100
AcDbLine
 10
2019.683095425856
 20
915.1926514070019
 30
0.0
 11
2019.683095425856
 21
1179.192651407002
 31
0.0
  0
INSERT
  5
15A4
330
159E
100
AcDbEntity
  8
DIM
 62
     0
370
    -2
100
AcDbBlockReference
  2
_DOT
 10
2019.683095425856
 20
912.1926514070019
 30
0.0
 41
3.0
 42
3.0
 43
3.0
 50
270.0
  0
INSERT
  5
15A5
330
159E
100
AcDbEntity
  8
DIM
 62
     0
370
    -2
100
AcDbBlockReference
  2
_DOT
 10
2019.683095425856
 20
1182.192651407002
 30
0.0
 41
3.0
 42
3.0
 43
3.0
 50
90.0
  0
MTEXT
  5
15A6
330
159E
100
AcDbEntity
  8
DIM
 62
     0
 48
0.05
100
AcDbMText
 10
2003.683095425856
 20
1047.192651407002
 30
0.0
 40
12.0
 41
0.0
 46
0.0
 71
     5
 72
     1
  1
\A1;270
  7
ＭＳ ゴシック
 11
0.0
 21
1.0
 31
0.0
 73
     1
 44
1.0
  0
POINT
  5
15A7
330
159E
100
AcDbEntity
  8
Defpoints
 62
     0
100
AcDbPoint
 10
1919.532176205046
 20
912.1926514070019
 30
0.0
  0
POINT
  5
15A8
330
159E
100
AcDbEntity
  8
Defpoints
 62
     0
100
AcDbPoint
 10
1914.532176205046
 20
1182.192651407002
 30
0.0
  0
POINT
  5
15A9
330
159E
100
AcDbEntity
  8
Defpoints
 62
     0
100
AcDbPoint
 10
2019.683095425856
 20
1182.192651407002
 30
0.0
  0
ENDBLK
  5
15A0
330
159E
100
AcDbEntity
  8
0
100
AcDbBlockEnd
  0
BLOCK
  5
15AB
330
15AA
100
AcDbEntity
  8
0
100
AcDbBlockBegin
  2
*D54
 70
     1
 10
0.0
 20
0.0
 30
0.0
  3
*D54
  1
*D55
  0
LINE
  5
15AD
330
15AA
100
AcDbEntity
  8
DIM
 62
     0
 48
0.05
370
    -2
100
AcDbLine
 10
1649.532176205046
 20
1172.192651407002
 30
0.0
 11
1614.961105392114
 21
1172.192651407002
 31
0.0
  0
LINE
  5
15AE
330
15AA
100
AcDbEntity
  8
DIM
 62
     0
 48
0.05
370
    -2
100
AcDbLine
 10
1657.58146043663
 20
1092.192651407002
 30
0.0
 11
1614.961105392114
 21
1092.192651407002
 31
0.0
  0
LINE
  5
15AF
330
15AA
100
AcDbEntity
  8
DIM
 62
     0
 48
0.05
370
    -2
100
AcDbLine
 10
1614.961105392114
 20
1169.192651407002
 30
0.0
 11
1614.961105392114
 21
1095.192651407002
 31
0.0
  0
INSERT
  5
15B0
330
15AA
100
AcDbEntity
  8
DIM
 62
     0
370
    -2
100
AcDbBlockReference
  2
_DOT
 10
1614.961105392114
 20
1172.192651407002
 30
0.0
 41
3.0
 42
3.0
 43
3.0
 50
90.0
  0
INSERT
  5
15B1
330
15AA
100
AcDbEntity
  8
DIM
 62
     0
370
    -2
100
AcDbBlockReference
  2
_DOT
 10
1614.961105392114
 20
1092.192651407002
 30
0.0
 41
3.0
 42
3.0
 43
3.0
 50
270.0
  0
MTEXT
  5
15B2
330
15AA
100
AcDbEntity
  8
DIM
 62
     0
 48
0.05
100
AcDbMText
 10
1598.961105392114
 20
1132.192651407002
 30
0.0
 40
12.0
 41
0.0
 46
0.0
 71
     5
 72
     1
  1
\A1;80
  7
ＭＳ ゴシック
 11
0.0
 21
1.0
 31
0.0
 73
     1
 44
1.0
  0
POINT
  5
15B3
330
15AA
100
AcDbEntity
  8
Defpoints
 62
     0
100
AcDbPoint
 10
1659.532176205046
 20
1172.192651407002
 30
0.0
  0
POINT
  5
15B4
330
15AA
100
AcDbEntity
  8
Defpoints
 62
     0
100
AcDbPoint
 10
1667.58146043663
 20
1092.192651407002
 30
0.0
  0
POINT
  5
15B5
330
15AA
100
AcDbEntity
  8
Defpoints
 62
     0
100
AcDbPoint
 10
1614.961105392114
 20
1092.192651407002
 30
0.0
  0
ENDBLK
  5
15AC
330
15AA
100
AcDbEntity
  8
0
100
AcDbBlockEnd
  0
BLOCK
  5
15B7
330
15B6
100
AcDbEntity
  8
0
100
AcDbBlockBegin
  2
*D55
 70
     1
 10
0.0
 20
0.0
 30
0.0
  3
*D55
  1
*D56
  0
LINE
  5
15B9
330
15B6
100
AcDbEntity
  8
DIM
 62
     0
 48
0.05
370
    -2
100
AcDbLine
 10
1651.532176205043
 20
1092.192651407002
 30
0.0
 11
1614.961105392114
 21
1092.192651407002
 31
0.0
  0
LINE
  5
15BA
330
15B6
100
AcDbEntity
  8
DIM
 62
     0
 48
0.05
370
    -2
100
AcDbLine
 10
1655.632558397944
 20
919.1926514070019
 30
0.0
 11
1614.961105392114
 21
919.1926514070019
 31
0.0
  0
LINE
  5
15BB
330
15B6
100
AcDbEntity
  8
DIM
 62
     0
 48
0.05
370
    -2
100
AcDbLine
 10
1614.961105392114
 20
1089.192651407002
 30
0.0
 11
1614.961105392114
 21
922.1926514070019
 31
0.0
  0
INSERT
  5
15BC
330
15B6
100
AcDbEntity
  8
DIM
 62
     0
370
    -2
100
AcDbBlockReference
  2
_DOT
 10
1614.961105392114
 20
1092.192651407002
 30
0.0
 41
3.0
 42
3.0
 43
3.0
 50
90.0
  0
INSERT
  5
15BD
330
15B6
100
AcDbEntity
  8
DIM
 62
     0
370
    -2
100
AcDbBlockReference
  2
_DOT
 10
1614.961105392114
 20
919.1926514070019
 30
0.0
 41
3.0
 42
3.0
 43
3.0
 50
270.0
  0
MTEXT
  5
15BE
330
15B6
100
AcDbEntity
  8
DIM
 62
     0
 48
0.05
100
AcDbMText
 10
1598.961105392114
 20
1005.692651407002
 30
0.0
 40
12.0
 41
0.0
 46
0.0
 71
     5
 72
     1
  1
\A1;173
  7
ＭＳ ゴシック
 11
0.0
 21
1.0
 31
0.0
 73
     1
 44
1.0
  0
POINT
  5
15BF
330
15B6
100
AcDbEntity
  8
Defpoints
 62
     0
100
AcDbPoint
 10
1661.532176205043
 20
1092.192651407002
 30
0.0
  0
POINT
  5
15C0
330
15B6
100
AcDbEntity
  8
Defpoints
 62
     0
100
AcDbPoint
 10
1665.632558397944
 20
919.1926514070019
 30
0.0
  0
POINT
  5
15C1
330
15B6
100
AcDbEntity
  8
Defpoints
 62
     0
100
AcDbPoint
 10
1614.961105392114
 20
919.1926514070019
 30
0.0
  0
ENDBLK
  5
15B8
330
15B6
100
AcDbEntity
  8
0
100
AcDbBlockEnd
  0
BLOCK
  5
15C3
330
15C2
100
AcDbEntity
  8
0
100
AcDbBlockBegin
  2
*D56
 70
     1
 10
0.0
 20
0.0
 30
0.0
  3
*D56
  1
*D57
  0
LINE
  5
15C5
330
15C2
100
AcDbEntity
  8
DIM
 62
     0
 48
0.05
370
    -2
100
AcDbLine
 10
1656.532176205043
 20
914.1926514065708
 30
0.0
 11
1656.532176205043
 21
865.3457938005565
 31
0.0
  0
LINE
  5
15C6
330
15C2
100
AcDbEntity
  8
DIM
 62
     0
 48
0.05
370
    -2
100
AcDbLine
 10
1922.53217620505
 20
914.1926514047937
 30
0.0
 11
1922.53217620505
 21
865.3457938005565
 31
0.0
  0
LINE
  5
15C7
330
15C2
100
AcDbEntity
  8
DIM
 62
     0
 48
0.05
370
    -2
100
AcDbLine
 10
1659.532176205043
 20
865.3457938005565
 30
0.0
 11
1919.53217620505
 21
865.3457938005565
 31
0.0
  0
INSERT
  5
15C8
330
15C2
100
AcDbEntity
  8
DIM
 62
     0
370
    -2
100
AcDbBlockReference
  2
_DOT
 10
1656.532176205043
 20
865.3457938005565
 30
0.0
 41
3.0
 42
3.0
 43
3.0
 50
180.0
  0
INSERT
  5
15C9
330
15C2
100
AcDbEntity
  8
DIM
 62
     0
370
    -2
100
AcDbBlockReference
  2
_DOT
 10
1922.53217620505
 20
865.3457938005565
 30
0.0
 41
3.0
 42
3.0
 43
3.0
  0
MTEXT
  5
15CA
330
15C2
100
AcDbEntity
  8
DIM
 62
     0
 48
0.05
100
AcDbMText
 10
1789.532176205046
 20
881.3457938005565
 30
0.0
 40
12.0
 41
0.0
 46
0.0
 71
     5
 72
     1
  1
\A1;266
  7
ＭＳ ゴシック
 73
     1
 44
1.0
  0
POINT
  5
15CB
330
15C2
100
AcDbEntity
  8
Defpoints
 62
     0
100
AcDbPoint
 10
1656.532176205043
 20
924.1926514065708
 30
0.0
  0
POINT
  5
15CC
330
15C2
100
AcDbEntity
  8
Defpoints
 62
     0
100
AcDbPoint
 10
1922.53217620505
 20
924.1926514047937
 30
0.0
  0
POINT
  5
15CD
330
15C2
100
AcDbEntity
  8
Defpoints
 62
     0
100
AcDbPoint
 10
1922.53217620505
 20
865.3457938005565
 30
0.0
  0
ENDBLK
  5
15C4
330
15C2
100
AcDbEntity
  8
0
100
AcDbBlockEnd
  0
BLOCK
  5
15EA
330
15E9
100
AcDbEntity
  8
0
100
AcDbBlockBegin
  2
*D57
 70
     1
 10
0.0
 20
0.0
 30
0.0
  3
*D57
  1
*D58
  0
LINE
  5
15EC
330
15E9
100
AcDbEntity
  8
DIM
  6
Continuous
 62
     0
370
    -2
100
AcDbLine
 10
811.1064527864712
 20
998.5633613666251
 30
0.0
 11
929.5146145496133
 21
998.5633613666251
 31
0.0
  0
LINE
  5
15ED
330
15E9
100
AcDbEntity
  8
DIM
  6
Continuous
 62
     0
370
    -2
100
AcDbLine
 10
811.1064527864712
 20
1163.563361366625
 30
0.0
 11
929.5146145496133
 21
1163.563361366625
 31
0.0
  0
LINE
  5
15EE
330
15E9
100
AcDbEntity
  8
DIM
  6
Continuous
 62
     0
370
    -2
100
AcDbLine
 10
929.5146145496133
 20
1001.563361366625
 30
0.0
 11
929.5146145496133
 21
1160.563361366625
 31
0.0
  0
INSERT
  5
15EF
330
15E9
100
AcDbEntity
  8
DIM
 62
     0
370
    -2
100
AcDbBlockReference
  2
_DOT
 10
929.5146145496133
 20
998.5633613666251
 30
0.0
 41
3.0
 42
3.0
 43
3.0
 50
270.0
  0
INSERT
  5
15F0
330
15E9
100
AcDbEntity
  8
DIM
 62
     0
370
    -2
100
AcDbBlockReference
  2
_DOT
 10
929.5146145496133
 20
1163.563361366625
 30
0.0
 41
3.0
 42
3.0
 43
3.0
 50
90.0
  0
MTEXT
  5
15F1
330
15E9
100
AcDbEntity
  8
DIM
 62
     0
 48
0.05
100
AcDbMText
 10
913.5146145496133
 20
1081.063361366625
 30
0.0
 40
12.0
 41
0.0
 46
0.0
 71
     5
 72
     1
  1
\A1;165
  7
ＭＳ ゴシック
 11
0.0
 21
1.0
 31
0.0
 73
     1
 44
1.0
  0
POINT
  5
15F2
330
15E9
100
AcDbEntity
  8
Defpoints
 62
     0
100
AcDbPoint
 10
801.1064527864712
 20
998.5633613666251
 30
0.0
  0
POINT
  5
15F3
330
15E9
100
AcDbEntity
  8
Defpoints
 62
     0
100
AcDbPoint
 10
801.1064527864712
 20
1163.563361366625
 30
0.0
  0
POINT
  5
15F4
330
15E9
100
AcDbEntity
  8
Defpoints
 62
     0
100
AcDbPoint
 10
929.5146145496133
 20
1163.563361366625
 30
0.0
  0
ENDBLK
  5
15EB
330
15E9
100
AcDbEntity
  8
0
100
AcDbBlockEnd
  0
BLOCK
  5
15F6
330
15F5
100
AcDbEntity
  8
0
100
AcDbBlockBegin
  2
*D58
 70
     1
 10
0.0
 20
0.0
 30
0.0
  3
*D58
  1
*D59
  0
LINE
  5
15F8
330
15F5
100
AcDbEntity
  8
DIM
  6
Continuous
 62
     0
370
    -2
100
AcDbLine
 10
811.1064527864712
 20
1163.563361366625
 30
0.0
 11
929.5146145496133
 21
1163.563361366625
 31
0.0
  0
LINE
  5
15F9
330
15F5
100
AcDbEntity
  8
DIM
  6
Continuous
 62
     0
370
    -2
100
AcDbLine
 10
886.1064527864712
 20
1188.563361366625
 30
0.0
 11
929.5146145496133
 21
1188.563361366625
 31
0.0
  0
LINE
  5
15FA
330
15F5
100
AcDbEntity
  8
DIM
  6
Continuous
 62
     0
370
    -2
100
AcDbLine
 10
929.5146145496133
 20
1166.563361366625
 30
0.0
 11
929.5146145496133
 21
1185.563361366625
 31
0.0
  0
INSERT
  5
15FB
330
15F5
100
AcDbEntity
  8
DIM
 62
     0
370
    -2
100
AcDbBlockReference
  2
_DOT
 10
929.5146145496133
 20
1163.563361366625
 30
0.0
 41
3.0
 42
3.0
 43
3.0
 50
270.0
  0
INSERT
  5
15FC
330
15F5
100
AcDbEntity
  8
DIM
 62
     0
370
    -2
100
AcDbBlockReference
  2
_DOT
 10
929.5146145496133
 20
1188.563361366625
 30
0.0
 41
3.0
 42
3.0
 43
3.0
 50
90.0
  0
MTEXT
  5
15FD
330
15F5
100
AcDbEntity
  8
DIM
 62
     0
 48
0.05
100
AcDbMText
 10
913.5146145496133
 20
1176.063361366625
 30
0.0
 40
12.0
 41
0.0
 46
0.0
 71
     5
 72
     1
  1
\A1;25
  7
ＭＳ ゴシック
 11
0.0
 21
1.0
 31
0.0
 73
     1
 44
1.0
  0
POINT
  5
15FE
330
15F5
100
AcDbEntity
  8
Defpoints
 62
     0
100
AcDbPoint
 10
801.1064527864712
 20
1163.563361366625
 30
0.0
  0
POINT
  5
15FF
330
15F5
100
AcDbEntity
  8
Defpoints
 62
     0
100
AcDbPoint
 10
876.1064527864712
 20
1188.563361366625
 30
0.0
  0
POINT
  5
1600
330
15F5
100
AcDbEntity
  8
Defpoints
 62
     0
100
AcDbPoint
 10
929.5146145496133
 20
1188.563361366625
 30
0.0
  0
ENDBLK
  5
15F7
330
15F5
100
AcDbEntity
  8
0
100
AcDbBlockEnd
  0
BLOCK
  5
1602
330
1601
100
AcDbEntity
  8
0
100
AcDbBlockBegin
  2
*D59
 70
     1
 10
0.0
 20
0.0
 30
0.0
  3
*D59
  1
*D60
  0
LINE
  5
1604
330
1601
100
AcDbEntity
  8
DIM
  6
Continuous
 62
     0
370
    -2
100
AcDbLine
 10
701.1064527864712
 20
988.5633613666251
 30
0.0
 11
701.1064527864712
 21
874.2404413502586
 31
0.0
  0
LINE
  5
1605
330
1601
100
AcDbEntity
  8
DIM
  6
Continuous
 62
     0
370
    -2
100
AcDbLine
 10
801.1064527864712
 20
988.5633613666251
 30
0.0
 11
801.1064527864712
 21
874.2404413502586
 31
0.0
  0
LINE
  5
1606
330
1601
100
AcDbEntity
  8
DIM
  6
Continuous
 62
     0
370
    -2
100
AcDbLine
 10
704.1064527864712
 20
874.2404413502586
 30
0.0
 11
798.1064527864712
 21
874.2404413502586
 31
0.0
  0
INSERT
  5
1607
330
1601
100
AcDbEntity
  8
DIM
 62
     0
370
    -2
100
AcDbBlockReference
  2
_DOT
 10
701.1064527864712
 20
874.2404413502586
 30
0.0
 41
3.0
 42
3.0
 43
3.0
 50
180.0
  0
INSERT
  5
1608
330
1601
100
AcDbEntity
  8
DIM
 62
     0
370
    -2
100
AcDbBlockReference
  2
_DOT
 10
801.1064527864712
 20
874.2404413502586
 30
0.0
 41
3.0
 42
3.0
 43
3.0
  0
MTEXT
  5
1609
330
1601
100
AcDbEntity
  8
DIM
 62
     0
 48
0.05
100
AcDbMText
 10
751.1064527864712
 20
890.2404413502586
 30
0.0
 40
12.0
 41
0.0
 46
0.0
 71
     5
 72
     1
  1
\A1;100
  7
ＭＳ ゴシック
 73
     1
 44
1.0
  0
POINT
  5
160A
330
1601
100
AcDbEntity
  8
Defpoints
 62
     0
100
AcDbPoint
 10
701.1064527864712
 20
998.5633613666251
 30
0.0
  0
POINT
  5
160B
330
1601
100
AcDbEntity
  8
Defpoints
 62
     0
100
AcDbPoint
 10
801.1064527864712
 20
998.5633613666251
 30
0.0
  0
POINT
  5
160C
330
1601
100
AcDbEntity
  8
Defpoints
 62
     0
100
AcDbPoint
 10
801.1064527864712
 20
874.2404413502586
 30
0.0
  0
ENDBLK
  5
1603
330
1601
100
AcDbEntity
  8
0
100
AcDbBlockEnd
  0
BLOCK
  5
1611
330
1610
100
AcDbEntity
  8
0
100
AcDbBlockBegin
  2
*D60
 70
     1
 10
0.0
 20
0.0
 30
0.0
  3
*D60
  1
*D61
  0
LINE
  5
1613
330
1610
100
AcDbEntity
  8
DIM
 62
     0
 48
0.05
370
    -2
100
AcDbLine
 10
147.1954450426713
 20
1178.563361366625
 30
0.0
 11
147.1954450426713
 21
1222.428859356879
 31
0.0
  0
LINE
  5
1614
330
1610
100
AcDbEntity
  8
DIM
 62
     0
 48
0.05
370
    -2
100
AcDbLine
 10
427.1954450426713
 20
1178.563361366625
 30
0.0
 11
427.1954450426713
 21
1222.428859356879
 31
0.0
  0
LINE
  5
1615
330
1610
100
AcDbEntity
  8
DIM
 62
     0
 48
0.05
370
    -2
100
AcDbLine
 10
150.1954450426713
 20
1222.428859356879
 30
0.0
 11
424.1954450426713
 21
1222.428859356879
 31
0.0
  0
INSERT
  5
1616
330
1610
100
AcDbEntity
  8
DIM
 62
     0
370
    -2
100
AcDbBlockReference
  2
_DOT
 10
147.1954450426713
 20
1222.428859356879
 30
0.0
 41
3.0
 42
3.0
 43
3.0
 50
180.0
  0
INSERT
  5
1617
330
1610
100
AcDbEntity
  8
DIM
 62
     0
370
    -2
100
AcDbBlockReference
  2
_DOT
 10
427.1954450426713
 20
1222.428859356879
 30
0.0
 41
3.0
 42
3.0
 43
3.0
  0
MTEXT
  5
1618
330
1610
100
AcDbEntity
  8
DIM
 62
     0
 48
0.05
100
AcDbMText
 10
287.1954450426713
 20
1238.428859356879
 30
0.0
 40
12.0
 41
0.0
 46
0.0
 71
     5
 72
     1
  1
\A1;280
  7
ＭＳ ゴシック
 73
     1
 44
1.0
  0
POINT
  5
1619
330
1610
100
AcDbEntity
  8
Defpoints
 62
     0
100
AcDbPoint
 10
147.1954450426713
 20
1168.563361366625
 30
0.0
  0
POINT
  5
161A
330
1610
100
AcDbEntity
  8
Defpoints
 62
     0
100
AcDbPoint
 10
427.1954450426713
 20
1168.563361366625
 30
0.0
  0
POINT
  5
161B
330
1610
100
AcDbEntity
  8
Defpoints
 62
     0
100
AcDbPoint
 10
427.1954450426713
 20
1222.428859356879
 30
0.0
  0
ENDBLK
  5
1612
330
1610
100
AcDbEntity
  8
0
100
AcDbBlockEnd
  0
BLOCK
  5
163B
330
163A
100
AcDbEntity
  8
0
100
AcDbBlockBegin
  2
*D61
 70
     1
 10
0.0
 20
0.0
 30
0.0
  3
*D61
  1
*D62
  0
LINE
  5
163D
330
163A
100
AcDbEntity
  8
DIM
 62
     0
 48
0.05
370
    -2
100
AcDbLine
 10
-172.1710391530428
 20
376.4310814087187
 30
0.0
 11
-172.1710391530428
 21
354.9155426181389
 31
0.0
  0
LINE
  5
163E
330
163A
100
AcDbEntity
  8
DIM
 62
     0
 48
0.05
370
    -2
100
AcDbLine
 10
-130.1710391530428
 20
376.4310814087187
 30
0.0
 11
-130.1710391530428
 21
354.9155426181389
 31
0.0
  0
LINE
  5
163F
330
163A
100
AcDbEntity
  8
DIM
 62
     0
 48
0.05
370
    -2
100
AcDbLine
 10
-169.1710391530428
 20
354.9155426181389
 30
0.0
 11
-133.1710391530428
 21
354.9155426181389
 31
0.0
  0
INSERT
  5
1640
330
163A
100
AcDbEntity
  8
DIM
 62
     0
370
    -2
100
AcDbBlockReference
  2
_DOT
 10
-172.1710391530428
 20
354.9155426181389
 30
0.0
 41
3.0
 42
3.0
 43
3.0
 50
180.0
  0
INSERT
  5
1641
330
163A
100
AcDbEntity
  8
DIM
 62
     0
370
    -2
100
AcDbBlockReference
  2
_DOT
 10
-130.1710391530428
 20
354.9155426181389
 30
0.0
 41
3.0
 42
3.0
 43
3.0
  0
MTEXT
  5
1642
330
163A
100
AcDbEntity
  8
DIM
 62
     0
 48
0.05
100
AcDbMText
 10
-151.1710391530428
 20
337.6375426181389
 30
0.0
 40
12.0
 41
0.0
 46
0.0
 71
     5
 72
     1
  1
\A1;G1 1/4"
  7
ＭＳ ゴシック
 73
     1
 44
1.0
  0
POINT
  5
1643
330
163A
100
AcDbEntity
  8
Defpoints
 62
     0
100
AcDbPoint
 10
-172.1710391530428
 20
386.4310814087187
 30
0.0
  0
POINT
  5
1644
330
163A
100
AcDbEntity
  8
Defpoints
 62
     0
100
AcDbPoint
 10
-130.1710391530428
 20
386.4310814087187
 30
0.0
  0
POINT
  5
1645
330
163A
100
AcDbEntity
  8
Defpoints
 62
     0
100
AcDbPoint
 10
-130.1710391530428
 20
354.9155426181389
 30
0.0
  0
ENDBLK
  5
163C
330
163A
100
AcDbEntity
  8
0
100
AcDbBlockEnd
  0
BLOCK
  5
1696
330
1695
100
AcDbEntity
  8
0
100
AcDbBlockBegin
  2
*D62
 70
     1
 10
0.0
 20
0.0
 30
0.0
  3
*D62
  1
*D63
  0
LINE
  5
1698
330
1695
100
AcDbEntity
  8
DIM
  6
Continuous
 62
     0
370
    -2
100
AcDbLine
 10
629.2235776667274
 20
505.4722792868901
 30
0.0
 11
594.1735703502043
 21
505.4722792868901
 31
0.0
  0
LINE
  5
1699
330
1695
100
AcDbEntity
  8
DIM
  6
Continuous
 62
     0
370
    -2
100
AcDbLine
 10
629.8455790181633
 20
405.4722792868901
 30
0.0
 11
594.1735703502043
 21
405.4722792868901
 31
0.0
  0
LINE
  5
169A
330
1695
100
AcDbEntity
  8
DIM
  6
Continuous
 62
     0
370
    -2
100
AcDbLine
 10
594.1735703502043
 20
502.4722792868901
 30
0.0
 11
594.1735703502043
 21
408.4722792868901
 31
0.0
  0
INSERT
  5
169B
330
1695
100
AcDbEntity
  8
DIM
 62
     0
370
    -2
100
AcDbBlockReference
  2
_DOT
 10
594.1735703502043
 20
505.4722792868901
 30
0.0
 41
3.0
 42
3.0
 43
3.0
 50
90.0
  0
INSERT
  5
169C
330
1695
100
AcDbEntity
  8
DIM
 62
     0
370
    -2
100
AcDbBlockReference
  2
_DOT
 10
594.1735703502043
 20
405.4722792868901
 30
0.0
 41
3.0
 42
3.0
 43
3.0
 50
270.0
  0
MTEXT
  5
169D
330
1695
100
AcDbEntity
  8
DIM
 62
     0
 48
0.05
100
AcDbMText
 10
578.1735703502043
 20
455.4722792868901
 30
0.0
 40
12.0
 41
0.0
 46
0.0
 71
     5
 72
     1
  1
\A1;100
  7
ＭＳ ゴシック
 11
0.0
 21
1.0
 31
0.0
 73
     1
 44
1.0
  0
POINT
  5
169E
330
1695
100
AcDbEntity
  8
Defpoints
 62
     0
100
AcDbPoint
 10
639.2235776667274
 20
505.4722792868901
 30
0.0
  0
POINT
  5
169F
330
1695
100
AcDbEntity
  8
Defpoints
 62
     0
100
AcDbPoint
 10
639.8455790181633
 20
405.4722792868901
 30
0.0
  0
POINT
  5
16A0
330
1695
100
AcDbEntity
  8
Defpoints
 62
     0
100
AcDbPoint
 10
594.1735703502043
 20
405.4722792868901
 30
0.0
  0
ENDBLK
  5
1697
330
1695
100
AcDbEntity
  8
0
100
AcDbBlockEnd
  0
BLOCK
  5
16A2
330
16A1
100
AcDbEntity
  8
0
100
AcDbBlockBegin
  2
*D63
 70
     1
 10
0.0
 20
0.0
 30
0.0
  3
*D63
  1
*D64
  0
LINE
  5
16A4
330
16A1
100
AcDbEntity
  8
DIM
  6
Continuous
 62
     0
 48
2.0
370
    -2
100
AcDbLine
 10
147.1954450426713
 20
515.4722792868902
 30
0.0
 11
147.1954450426713
 21
538.4589877314463
 31
0.0
  0
LINE
  5
16A5
330
16A1
100
AcDbEntity
  8
DIM
  6
Continuous
 62
     0
 48
2.0
370
    -2
100
AcDbLine
 10
197.3698843395653
 20
496.6763289639728
 30
0.0
 11
197.3698843395653
 21
538.4589877314463
 31
0.0
  0
LINE
  5
16A6
330
16A1
100
AcDbEntity
  8
DIM
  6
Continuous
 62
     0
 48
2.0
370
    -2
100
AcDbLine
 10
150.1954450426713
 20
538.4589877314463
 30
0.0
 11
194.3698843395653
 21
538.4589877314463
 31
0.0
  0
INSERT
  5
16A7
330
16A1
100
AcDbEntity
  8
DIM
 62
     0
370
    -2
100
AcDbBlockReference
  2
_DOT
 10
147.1954450426713
 20
538.4589877314463
 30
0.0
 41
3.0
 42
3.0
 43
3.0
 50
180.0
  0
INSERT
  5
16A8
330
16A1
100
AcDbEntity
  8
DIM
 62
     0
370
    -2
100
AcDbBlockReference
  2
_DOT
 10
197.3698843395653
 20
538.4589877314463
 30
0.0
 41
3.0
 42
3.0
 43
3.0
  0
MTEXT
  5
16A9
330
16A1
100
AcDbEntity
  8
DIM
 62
     0
 48
0.05
100
AcDbMText
 10
172.2826646911183
 20
554.4589877314463
 30
0.0
 40
12.0
 41
0.0
 46
0.0
 71
     5
 72
     1
  1
\A1;50
  7
ＭＳ ゴシック
 73
     1
 44
1.0
  0
POINT
  5
16AA
330
16A1
100
AcDbEntity
  8
Defpoints
 62
     0
100
AcDbPoint
 10
147.1954450426713
 20
505.4722792868901
 30
0.0
  0
POINT
  5
16AB
330
16A1
100
AcDbEntity
  8
Defpoints
 62
     0
100
AcDbPoint
 10
197.3698843395653
 20
486.6763289639728
 30
0.0
  0
POINT
  5
16AC
330
16A1
100
AcDbEntity
  8
Defpoints
 62
     0
100
AcDbPoint
 10
197.3698843395653
 20
538.4589877314463
 30
0.0
  0
ENDBLK
  5
16A3
330
16A1
100
AcDbEntity
  8
0
100
AcDbBlockEnd
  0
BLOCK
  5
16AE
330
16AD
100
AcDbEntity
  8
0
100
AcDbBlockBegin
  2
*D64
 70
     1
 10
0.0
 20
0.0
 30
0.0
  3
*D64
  1
*D65
  0
LINE
  5
16B0
330
16AD
100
AcDbEntity
  8
DIM
  6
Continuous
 62
     0
 48
2.0
370
    -2
100
AcDbLine
 10
427.1954450426713
 20
515.4722792868902
 30
0.0
 11
427.1954450426713
 21
538.4589877314463
 31
0.0
  0
LINE
  5
16B1
330
16AD
100
AcDbEntity
  8
DIM
  6
Continuous
 62
     0
 48
2.0
370
    -2
100
AcDbLine
 10
387.0210057457773
 20
502.1763289639725
 30
0.0
 11
387.0210057457773
 21
538.4589877314463
 31
0.0
  0
LINE
  5
16B2
330
16AD
100
AcDbEntity
  8
DIM
  6
Continuous
 62
     0
 48
2.0
370
    -2
100
AcDbLine
 10
424.1954450426713
 20
538.4589877314463
 30
0.0
 11
390.0210057457773
 21
538.4589877314463
 31
0.0
  0
INSERT
  5
16B3
330
16AD
100
AcDbEntity
  8
DIM
 62
     0
370
    -2
100
AcDbBlockReference
  2
_DOT
 10
427.1954450426713
 20
538.4589877314463
 30
0.0
 41
3.0
 42
3.0
 43
3.0
  0
INSERT
  5
16B4
330
16AD
100
AcDbEntity
  8
DIM
 62
     0
370
    -2
100
AcDbBlockReference
  2
_DOT
 10
387.0210057457773
 20
538.4589877314463
 30
0.0
 41
3.0
 42
3.0
 43
3.0
 50
180.0
  0
MTEXT
  5
16B5
330
16AD
100
AcDbEntity
  8
DIM
 62
     0
 48
0.05
100
AcDbMText
 10
407.1082253942243
 20
554.4589877314463
 30
0.0
 40
12.0
 41
0.0
 46
0.0
 71
     5
 72
     1
  1
\A1;40
  7
ＭＳ ゴシック
 73
     1
 44
1.0
  0
POINT
  5
16B6
330
16AD
100
AcDbEntity
  8
Defpoints
 62
     0
100
AcDbPoint
 10
427.1954450426713
 20
505.4722792868901
 30
0.0
  0
POINT
  5
16B7
330
16AD
100
AcDbEntity
  8
Defpoints
 62
     0
100
AcDbPoint
 10
387.0210057457773
 20
492.1763289639725
 30
0.0
  0
POINT
  5
16B8
330
16AD
100
AcDbEntity
  8
Defpoints
 62
     0
100
AcDbPoint
 10
387.0210057457773
 20
538.4589877314463
 30
0.0
  0
ENDBLK
  5
16AF
330
16AD
100
AcDbEntity
  8
0
100
AcDbBlockEnd
  0
BLOCK
  5
16BA
330
16B9
100
AcDbEntity
  8
0
100
AcDbBlockBegin
  2
*D65
 70
     1
 10
0.0
 20
0.0
 30
0.0
  3
*D65
  1
*D66
  0
LINE
  5
16BC
330
16B9
100
AcDbEntity
  8
DIM
  6
Continuous
 62
     0
 48
2.0
370
    -2
100
AcDbLine
 10
437.1954450426713
 20
505.4722792868901
 30
0.0
 11
471.0247630950162
 21
505.4722792868901
 31
0.0
  0
LINE
  5
16BD
330
16B9
100
AcDbEntity
  8
DIM
  6
Continuous
 62
     0
 48
2.0
370
    -2
100
AcDbLine
 10
420.7250554228592
 20
468.4722792868903
 30
0.0
 11
471.0247630950162
 21
468.4722792868903
 31
0.0
  0
LINE
  5
16BE
330
16B9
100
AcDbEntity
  8
DIM
  6
Continuous
 62
     0
 48
2.0
370
    -2
100
AcDbLine
 10
471.0247630950162
 20
502.4722792868901
 30
0.0
 11
471.0247630950162
 21
471.4722792868903
 31
0.0
  0
INSERT
  5
16BF
330
16B9
100
AcDbEntity
  8
DIM
 62
     0
370
    -2
100
AcDbBlockReference
  2
_DOT
 10
471.0247630950162
 20
505.4722792868901
 30
0.0
 41
3.0
 42
3.0
 43
3.0
 50
90.0
  0
INSERT
  5
16C0
330
16B9
100
AcDbEntity
  8
DIM
 62
     0
370
    -2
100
AcDbBlockReference
  2
_DOT
 10
471.0247630950162
 20
468.4722792868903
 30
0.0
 41
3.0
 42
3.0
 43
3.0
 50
270.0
  0
MTEXT
  5
16C1
330
16B9
100
AcDbEntity
  8
DIM
 62
     0
 48
0.05
100
AcDbMText
 10
455.0247630950162
 20
486.9722792868901
 30
0.0
 40
12.0
 41
0.0
 46
0.0
 71
     5
 72
     1
  1
\A1;37
  7
ＭＳ ゴシック
 11
0.0
 21
1.0
 31
0.0
 73
     1
 44
1.0
  0
POINT
  5
16C2
330
16B9
100
AcDbEntity
  8
Defpoints
 62
     0
100
AcDbPoint
 10
427.1954450426713
 20
505.4722792868901
 30
0.0
  0
POINT
  5
16C3
330
16B9
100
AcDbEntity
  8
Defpoints
 62
     0
100
AcDbPoint
 10
410.7250554228592
 20
468.4722792868903
 30
0.0
  0
POINT
  5
16C4
330
16B9
100
AcDbEntity
  8
Defpoints
 62
     0
100
AcDbPoint
 10
471.0247630950162
 20
468.4722792868903
 30
0.0
  0
ENDBLK
  5
16BB
330
16B9
100
AcDbEntity
  8
0
100
AcDbBlockEnd
  0
BLOCK
  5
16C6
330
16C5
100
AcDbEntity
  8
0
100
AcDbBlockBegin
  2
*D66
 70
     1
 10
0.0
 20
0.0
 30
0.0
  3
*D66
  1
*D67
  0
LINE
  5
16C8
330
16C5
100
AcDbEntity
  8
DIM
 62
     0
 48
2.0
370
    -2
100
AcDbLine
 10
437.1954450426713
 20
505.4722792868901
 30
0.0
 11
514.6562166877172
 21
505.4722792868901
 31
0.0
  0
LINE
  5
16C9
330
16C5
100
AcDbEntity
  8
DIM
 62
     0
 48
2.0
370
    -2
100
AcDbLine
 10
318.1954450426713
 20
392.4722792868899
 30
0.0
 11
514.6562166877172
 21
392.4722792868899
 31
0.0
  0
LINE
  5
16CA
330
16C5
100
AcDbEntity
  8
DIM
 62
     0
 48
2.0
370
    -2
100
AcDbLine
 10
514.6562166877172
 20
502.4722792868901
 30
0.0
 11
514.6562166877172
 21
395.4722792868899
 31
0.0
  0
INSERT
  5
16CB
330
16C5
100
AcDbEntity
  8
DIM
 62
     0
370
    -2
100
AcDbBlockReference
  2
_DOT
 10
514.6562166877172
 20
505.4722792868901
 30
0.0
 41
3.0
 42
3.0
 43
3.0
 50
90.0
  0
INSERT
  5
16CC
330
16C5
100
AcDbEntity
  8
DIM
 62
     0
370
    -2
100
AcDbBlockReference
  2
_DOT
 10
514.6562166877172
 20
392.4722792868899
 30
0.0
 41
3.0
 42
3.0
 43
3.0
 50
270.0
  0
MTEXT
  5
16CD
330
16C5
100
AcDbEntity
  8
DIM
 62
     0
 48
0.05
100
AcDbMText
 10
498.6562166877172
 20
448.97227928689
 30
0.0
 40
12.0
 41
0.0
 46
0.0
 71
     5
 72
     1
  1
\A1;113
  7
ＭＳ ゴシック
 11
0.0
 21
1.0
 31
0.0
 73
     1
 44
1.0
  0
POINT
  5
16CE
330
16C5
100
AcDbEntity
  8
Defpoints
 62
     0
100
AcDbPoint
 10
427.1954450426713
 20
505.4722792868901
 30
0.0
  0
POINT
  5
16CF
330
16C5
100
AcDbEntity
  8
Defpoints
 62
     0
100
AcDbPoint
 10
308.1954450426713
 20
392.4722792868899
 30
0.0
  0
POINT
  5
16D0
330
16C5
100
AcDbEntity
  8
Defpoints
 62
     0
100
AcDbPoint
 10
514.6562166877172
 20
392.4722792868899
 30
0.0
  0
ENDBLK
  5
16C7
330
16C5
100
AcDbEntity
  8
0
100
AcDbBlockEnd
  0
BLOCK
  5
16D2
330
16D1
100
AcDbEntity
  8
0
100
AcDbBlockBegin
  2
*D67
 70
     1
 10
0.0
 20
0.0
 30
0.0
  3
*D67
  1
*D68
  0
LINE
  5
16D4
330
16D1
100
AcDbEntity
  8
DIM
 62
     0
 48
2.0
370
    -2
100
AcDbLine
 10
266.1954450426713
 20
381.7105133612404
 30
0.0
 11
266.1954450426713
 21
360.1949745706606
 31
0.0
  0
LINE
  5
16D5
330
16D1
100
AcDbEntity
  8
DIM
 62
     0
 48
2.0
370
    -2
100
AcDbLine
 10
308.1954450426713
 20
381.7105133612404
 30
0.0
 11
308.1954450426713
 21
360.1949745706606
 31
0.0
  0
LINE
  5
16D6
330
16D1
100
AcDbEntity
  8
DIM
 62
     0
 48
2.0
370
    -2
100
AcDbLine
 10
269.1954450426713
 20
360.1949745706606
 30
0.0
 11
305.1954450426713
 21
360.1949745706606
 31
0.0
  0
INSERT
  5
16D7
330
16D1
100
AcDbEntity
  8
DIM
 62
     0
370
    -2
100
AcDbBlockReference
  2
_DOT
 10
266.1954450426713
 20
360.1949745706606
 30
0.0
 41
3.0
 42
3.0
 43
3.0
 50
180.0
  0
INSERT
  5
16D8
330
16D1
100
AcDbEntity
  8
DIM
 62
     0
370
    -2
100
AcDbBlockReference
  2
_DOT
 10
308.1954450426713
 20
360.1949745706606
 30
0.0
 41
3.0
 42
3.0
 43
3.0
  0
MTEXT
  5
16D9
330
16D1
100
AcDbEntity
  8
DIM
 62
     0
 48
0.05
100
AcDbMText
 10
287.1954450426713
 20
342.9169745706606
 30
0.0
 40
12.0
 41
0.0
 46
0.0
 71
     5
 72
     1
  1
\A1;G1 1/4"
  7
ＭＳ ゴシック
 73
     1
 44
1.0
  0
POINT
  5
16DA
330
16D1
100
AcDbEntity
  8
Defpoints
 62
     0
100
AcDbPoint
 10
266.1954450426713
 20
391.7105133612404
 30
0.0
  0
POINT
  5
16DB
330
16D1
100
AcDbEntity
  8
Defpoints
 62
     0
100
AcDbPoint
 10
308.1954450426713
 20
391.7105133612404
 30
0.0
  0
POINT
  5
16DC
330
16D1
100
AcDbEntity
  8
Defpoints
 62
     0
100
AcDbPoint
 10
308.1954450426713
 20
360.1949745706606
 30
0.0
  0
ENDBLK
  5
16D3
330
16D1
100
AcDbEntity
  8
0
100
AcDbBlockEnd
  0
BLOCK
  5
16DE
330
16DD
100
AcDbEntity
  8
0
100
AcDbBlockBegin
  2
*D68
 70
     1
 10
0.0
 20
0.0
 30
0.0
  3
*D68
  1
*D69
  0
LINE
  5
16E0
330
16DD
100
AcDbEntity
  8
DIM
  6
Continuous
 62
     0
 48
2.0
370
    -2
100
AcDbLine
 10
163.6658346624833
 20
462.9722792868904
 30
0.0
 11
112.6243742297393
 21
462.9722792868904
 31
0.0
  0
LINE
  5
16E1
330
16DD
100
AcDbEntity
  8
DIM
  6
Continuous
 62
     0
 48
2.0
370
    -2
100
AcDbLine
 10
137.1954450426713
 20
505.4722792868901
 30
0.0
 11
112.6243742297393
 21
505.4722792868901
 31
0.0
  0
LINE
  5
16E2
330
16DD
100
AcDbEntity
  8
DIM
  6
Continuous
 62
     0
 48
2.0
370
    -2
100
AcDbLine
 10
112.6243742297393
 20
465.9722792868904
 30
0.0
 11
112.6243742297393
 21
502.4722792868901
 31
0.0
  0
INSERT
  5
16E3
330
16DD
100
AcDbEntity
  8
DIM
 62
     0
370
    -2
100
AcDbBlockReference
  2
_DOT
 10
112.6243742297393
 20
462.9722792868904
 30
0.0
 41
3.0
 42
3.0
 43
3.0
 50
270.0
  0
INSERT
  5
16E4
330
16DD
100
AcDbEntity
  8
DIM
 62
     0
370
    -2
100
AcDbBlockReference
  2
_DOT
 10
112.6243742297393
 20
505.4722792868901
 30
0.0
 41
3.0
 42
3.0
 43
3.0
 50
90.0
  0
MTEXT
  5
16E5
330
16DD
100
AcDbEntity
  8
DIM
 62
     0
 48
0.05
100
AcDbMText
 10
96.6243742297393
 20
484.2222792868902
 30
0.0
 40
12.0
 41
0.0
 46
0.0
 71
     5
 72
     1
  1
\A1;42.5
  7
ＭＳ ゴシック
 11
0.0
 21
1.0
 31
0.0
 73
     1
 44
1.0
  0
POINT
  5
16E6
330
16DD
100
AcDbEntity
  8
Defpoints
 62
     0
100
AcDbPoint
 10
173.6658346624833
 20
462.9722792868904
 30
0.0
  0
POINT
  5
16E7
330
16DD
100
AcDbEntity
  8
Defpoints
 62
     0
100
AcDbPoint
 10
147.1954450426713
 20
505.4722792868901
 30
0.0
  0
POINT
  5
16E8
330
16DD
100
AcDbEntity
  8
Defpoints
 62
     0
100
AcDbPoint
 10
112.6243742297393
 20
505.4722792868901
 30
0.0
  0
ENDBLK
  5
16DF
330
16DD
100
AcDbEntity
  8
0
100
AcDbBlockEnd
  0
BLOCK
  5
16F1
330
16F0
100
AcDbEntity
  8
0
100
AcDbBlockBegin
  2
*D69
 70
     1
 10
0.0
 20
0.0
 30
0.0
  3
*D69
  1
*D70
  0
LINE
  5
16F3
330
16F0
100
AcDbEntity
  8
DIM
 62
     0
 48
0.05
370
    -2
100
AcDbLine
 10
1335.621168461246
 20
1172.192651407002
 30
0.0
 11
1364.614600712832
 21
1172.192651407002
 31
0.0
  0
LINE
  5
16F4
330
16F0
100
AcDbEntity
  8
DIM
 62
     0
 48
0.05
370
    -2
100
AcDbLine
 10
1335.621168461246
 20
1132.192651407002
 30
0.0
 11
1364.614600712832
 21
1132.192651407002
 31
0.0
  0
LINE
  5
16F5
330
16F0
100
AcDbEntity
  8
DIM
 62
     0
 48
0.05
370
    -2
100
AcDbLine
 10
1364.614600712832
 20
1169.192651407002
 30
0.0
 11
1364.614600712832
 21
1135.192651407002
 31
0.0
  0
INSERT
  5
16F6
330
16F0
100
AcDbEntity
  8
DIM
 62
     0
370
    -2
100
AcDbBlockReference
  2
_DOT
 10
1364.614600712832
 20
1172.192651407002
 30
0.0
 41
3.0
 42
3.0
 43
3.0
 50
90.0
  0
INSERT
  5
16F7
330
16F0
100
AcDbEntity
  8
DIM
 62
     0
370
    -2
100
AcDbBlockReference
  2
_DOT
 10
1364.614600712832
 20
1132.192651407002
 30
0.0
 41
3.0
 42
3.0
 43
3.0
 50
270.0
  0
MTEXT
  5
16F8
330
16F0
100
AcDbEntity
  8
DIM
 62
     0
 48
0.05
100
AcDbMText
 10
1348.614600712832
 20
1152.192651407002
 30
0.0
 40
12.0
 41
0.0
 46
0.0
 71
     5
 72
     1
  1
\A1;40
  7
ＭＳ ゴシック
 11
0.0
 21
1.0
 31
0.0
 73
     1
 44
1.0
  0
POINT
  5
16F9
330
16F0
100
AcDbEntity
  8
Defpoints
 62
     0
100
AcDbPoint
 10
1325.621168461246
 20
1172.192651407002
 30
0.0
  0
POINT
  5
16FA
330
16F0
100
AcDbEntity
  8
Defpoints
 62
     0
100
AcDbPoint
 10
1325.621168461246
 20
1132.192651407002
 30
0.0
  0
POINT
  5
16FB
330
16F0
100
AcDbEntity
  8
Defpoints
 62
     0
100
AcDbPoint
 10
1364.614600712832
 20
1132.192651407002
 30
0.0
  0
ENDBLK
  5
16F2
330
16F0
100
AcDbEntity
  8
0
100
AcDbBlockEnd
  0
BLOCK
  5
1700
330
16FF
100
AcDbEntity
  8
0
100
AcDbBlockBegin
  2
*D70
 70
     1
 10
0.0
 20
0.0
 30
0.0
  3
*D70
  1
*D71
  0
LINE
  5
1702
330
16FF
100
AcDbEntity
  8
DIM
 62
     0
 48
0.05
370
    -2
100
AcDbLine
 10
1335.621168461246
 20
1182.192651407002
 30
0.0
 11
1389.838936100396
 21
1182.192651407002
 31
0.0
  0
LINE
  5
1703
330
16FF
100
AcDbEntity
  8
DIM
 62
     0
 48
0.05
370
    -2
100
AcDbLine
 10
1335.621168461246
 20
1132.192651407002
 30
0.0
 11
1389.838936100396
 21
1132.192651407002
 31
0.0
  0
LINE
  5
1704
330
16FF
100
AcDbEntity
  8
DIM
 62
     0
 48
0.05
370
    -2
100
AcDbLine
 10
1389.838936100396
 20
1179.192651407002
 30
0.0
 11
1389.838936100396
 21
1135.192651407002
 31
0.0
  0
INSERT
  5
1705
330
16FF
100
AcDbEntity
  8
DIM
 62
     0
370
    -2
100
AcDbBlockReference
  2
_DOT
 10
1389.838936100396
 20
1182.192651407002
 30
0.0
 41
3.0
 42
3.0
 43
3.0
 50
90.0
  0
INSERT
  5
1706
330
16FF
100
AcDbEntity
  8
DIM
 62
     0
370
    -2
100
AcDbBlockReference
  2
_DOT
 10
1389.838936100396
 20
1132.192651407002
 30
0.0
 41
3.0
 42
3.0
 43
3.0
 50
270.0
  0
MTEXT
  5
1707
330
16FF
100
AcDbEntity
  8
DIM
 62
     0
 48
0.05
100
AcDbMText
 10
1373.838936100396
 20
1157.192651407002
 30
0.0
 40
12.0
 41
0.0
 46
0.0
 71
     5
 72
     1
  1
\A1;50
  7
ＭＳ ゴシック
 11
0.0
 21
1.0
 31
0.0
 73
     1
 44
1.0
  0
POINT
  5
1708
330
16FF
100
AcDbEntity
  8
Defpoints
 62
     0
100
AcDbPoint
 10
1325.621168461246
 20
1182.192651407002
 30
0.0
  0
POINT
  5
1709
330
16FF
100
AcDbEntity
  8
Defpoints
 62
     0
100
AcDbPoint
 10
1325.621168461246
 20
1132.192651407002
 30
0.0
  0
POINT
  5
170A
330
16FF
100
AcDbEntity
  8
Defpoints
 62
     0
100
AcDbPoint
 10
1389.838936100396
 20
1132.192651407002
 30
0.0
  0
ENDBLK
  5
1701
330
16FF
100
AcDbEntity
  8
0
100
AcDbBlockEnd
  0
BLOCK
  5
176C
330
176B
100
AcDbEntity
  8
0
100
AcDbBlockBegin
  2
*D71
 70
     1
 10
0.0
 20
0.0
 30
0.0
  3
*D71
  1
*D35
  0
LINE
  5
176D
330
176B
100
AcDbEntity
  8
DIM
  6
Continuous
 62
     0
370
    -2
100
AcDbLine
 10
60.0
 20
18.12708241650017
 30
0.0
 11
60.0
 21
38.80974018769018
 31
0.0
  0
LINE
  5
176E
330
176B
100
AcDbEntity
  8
DIM
  6
Continuous
 62
     0
370
    -2
100
AcDbLine
 10
15.0
 20
18.12708241650017
 30
0.0
 11
15.0
 21
38.80974018769018
 31
0.0
  0
LINE
  5
176F
330
176B
100
AcDbEntity
  8
DIM
  6
Continuous
 62
     0
370
    -2
100
AcDbLine
 10
57.0
 20
38.80974018769018
 30
0.0
 11
18.0
 21
38.80974018769018
 31
0.0
  0
INSERT
  5
1770
330
176B
100
AcDbEntity
  8
DIM
 62
     0
370
    -2
100
AcDbBlockReference
  2
_DOT
 10
60.0
 20
38.80974018769018
 30
0.0
 41
3.0
 42
3.0
 43
3.0
  0
INSERT
  5
1771
330
176B
100
AcDbEntity
  8
DIM
 62
     0
370
    -2
100
AcDbBlockReference
  2
_DOT
 10
15.0
 20
38.80974018769018
 30
0.0
 41
3.0
 42
3.0
 43
3.0
 50
180.0
  0
MTEXT
  5
1772
330
176B
100
AcDbEntity
  8
DIM
 62
     0
 48
0.05
100
AcDbMText
 10
37.5
 20
54.80974018769018
 30
0.0
 40
12.0
 41
0.0
 46
0.0
 71
     5
 72
     1
  1
\A1;45
  7
ＭＳ ゴシック
 73
     1
 44
1.0
  0
POINT
  5
1773
330
176B
100
AcDbEntity
  8
Defpoints
 62
     0
100
AcDbPoint
 10
60.0
 20
8.127082416500173
 30
0.0
  0
POINT
  5
1774
330
176B
100
AcDbEntity
  8
Defpoints
 62
     0
100
AcDbPoint
 10
15.0
 20
8.127082416500173
 30
0.0
  0
POINT
  5
1775
330
176B
100
AcDbEntity
  8
Defpoints
 62
     0
100
AcDbPoint
 10
15.0
 20
38.80974018769018
 30
0.0
  0
ENDBLK
  5
1776
330
176B
100
AcDbEntity
  8
0
100
AcDbBlockEnd
  0
BLOCK
  5
1780
330
177F
100
AcDbEntity
  8
0
100
AcDbBlockBegin
  2
*D72
 70
     1
 10
0.0
 20
0.0
 30
0.0
  3
*D72
  1
*D74
  0
LINE
  5
1782
330
177F
100
AcDbEntity
  8
DIM
  6
Continuous
 62
     0
370
    -2
100
AcDbLine
 10
909.8455790181633
 20
500.7258221374285
 30
0.0
 11
909.8455790181633
 21
536.1549370580801
 31
0.0
  0
LINE
  5
1783
330
177F
100
AcDbEntity
  8
DIM
  6
Continuous
 62
     0
370
    -2
100
AcDbLine
 10
859.8455790181633
 20
515.4722792868902
 30
0.0
 11
859.8455790181633
 21
536.1549370580801
 31
0.0
  0
LINE
  5
1784
330
177F
100
AcDbEntity
  8
DIM
  6
Continuous
 62
     0
370
    -2
100
AcDbLine
 10
906.8455790181633
 20
536.1549370580801
 30
0.0
 11
862.8455790181633
 21
536.1549370580801
 31
0.0
  0
INSERT
  5
1785
330
177F
100
AcDbEntity
  8
DIM
 62
     0
370
    -2
100
AcDbBlockReference
  2
_DOT
 10
909.8455790181633
 20
536.1549370580801
 30
0.0
 41
3.0
 42
3.0
 43
3.0
  0
INSERT
  5
1786
330
177F
100
AcDbEntity
  8
DIM
 62
     0
370
    -2
100
AcDbBlockReference
  2
_DOT
 10
859.8455790181633
 20
536.1549370580801
 30
0.0
 41
3.0
 42
3.0
 43
3.0
 50
180.0
  0
MTEXT
  5
1787
330
177F
100
AcDbEntity
  8
DIM
 62
     0
 48
0.05
100
AcDbMText
 10
884.8455790181633
 20
552.1549370580801
 30
0.0
 40
12.0
 41
0.0
 46
0.0
 71
     5
 72
     1
  1
\A1;50
  7
ＭＳ ゴシック
 73
     1
 44
1.0
  0
POINT
  5
1788
330
177F
100
AcDbEntity
  8
Defpoints
 62
     0
100
AcDbPoint
 10
909.8455790181633
 20
490.7258221374285
 30
0.0
  0
POINT
  5
1789
330
177F
100
AcDbEntity
  8
Defpoints
 62
     0
100
AcDbPoint
 10
859.8455790181633
 20
505.4722792868901
 30
0.0
  0
POINT
  5
178A
330
177F
100
AcDbEntity
  8
Defpoints
 62
     0
100
AcDbPoint
 10
859.8455790181633
 20
536.1549370580801
 30
0.0
  0
ENDBLK
  5
1781
330
177F
100
AcDbEntity
  8
0
100
AcDbBlockEnd
  0
BLOCK
  5
179B
330
179A
100
AcDbEntity
  8
0
100
AcDbBlockBegin
  2
*D73
 70
     1
 10
0.0
 20
0.0
 30
0.0
  3
*D73
  1
*D75
  0
LINE
  5
179D
330
179A
100
AcDbEntity
  8
DIM
 62
     0
 48
0.05
370
    -2
100
AcDbLine
 10
1335.621168461246
 20
1182.192651407002
 30
0.0
 11
1410.190709067135
 21
1182.192651407002
 31
0.0
  0
LINE
  5
179E
330
179A
100
AcDbEntity
  8
DIM
 62
     0
 48
0.05
370
    -2
100
AcDbLine
 10
1335.621168461294
 20
1052.192651407002
 30
0.0
 11
1410.190709067135
 21
1052.192651407002
 31
0.0
  0
LINE
  5
179F
330
179A
100
AcDbEntity
  8
DIM
 62
     0
 48
0.05
370
    -2
100
AcDbLine
 10
1410.190709067135
 20
1179.192651407002
 30
0.0
 11
1410.190709067135
 21
1055.192651407002
 31
0.0
  0
INSERT
  5
17A0
330
179A
100
AcDbEntity
  8
DIM
 62
     0
370
    -2
100
AcDbBlockReference
  2
_DOT
 10
1410.190709067135
 20
1182.192651407002
 30
0.0
 41
3.0
 42
3.0
 43
3.0
 50
90.0
  0
INSERT
  5
17A1
330
179A
100
AcDbEntity
  8
DIM
 62
     0
370
    -2
100
AcDbBlockReference
  2
_DOT
 10
1410.190709067135
 20
1052.192651407002
 30
0.0
 41
3.0
 42
3.0
 43
3.0
 50
270.0
  0
MTEXT
  5
17A2
330
179A
100
AcDbEntity
  8
DIM
 62
     0
 48
0.05
100
AcDbMText
 10
1394.190709067135
 20
1117.192651407002
 30
0.0
 40
12.0
 41
0.0
 46
0.0
 71
     5
 72
     1
  1
\A1;130
  7
ＭＳ ゴシック
 11
0.0
 21
1.0
 31
0.0
 73
     1
 44
1.0
  0
POINT
  5
17A3
330
179A
100
AcDbEntity
  8
Defpoints
 62
     0
100
AcDbPoint
 10
1325.621168461246
 20
1182.192651407002
 30
0.0
  0
POINT
  5
17A4
330
179A
100
AcDbEntity
  8
Defpoints
 62
     0
100
AcDbPoint
 10
1325.621168461294
 20
1052.192651407002
 30
0.0
  0
POINT
  5
17A5
330
179A
100
AcDbEntity
  8
Defpoints
 62
     0
100
AcDbPoint
 10
1410.190709067135
 20
1052.192651407002
 30
0.0
  0
ENDBLK
  5
179C
330
179A
100
AcDbEntity
  8
0
100
AcDbBlockEnd
  0
BLOCK
  5
17A8
330
17A7
100
AcDbEntity
  8
0
100
AcDbBlockBegin
  2
*D74
 70
     1
 10
0.0
 20
0.0
 30
0.0
  3
*D74
  1
*D76
  0
LINE
  5
17AA
330
17A7
100
AcDbEntity
  8
DIM
 62
     0
 48
0.05
370
    -2
100
AcDbLine
 10
909.8455790181633
 20
395.4722792868901
 30
0.0
 11
909.8455790181633
 21
335.9003114810004
 31
0.0
  0
LINE
  5
17AB
330
17A7
100
AcDbEntity
  8
DIM
 62
     0
 48
0.05
370
    -2
100
AcDbLine
 10
779.8455790181633
 20
382.4722792868899
 30
0.0
 11
779.8455790181633
 21
335.9003114810004
 31
0.0
  0
LINE
  5
17AC
330
17A7
100
AcDbEntity
  8
DIM
 62
     0
 48
0.05
370
    -2
100
AcDbLine
 10
906.8455790181633
 20
335.9003114810004
 30
0.0
 11
782.8455790181633
 21
335.9003114810004
 31
0.0
  0
INSERT
  5
17AD
330
17A7
100
AcDbEntity
  8
DIM
 62
     0
370
    -2
100
AcDbBlockReference
  2
_DOT
 10
909.8455790181633
 20
335.9003114810004
 30
0.0
 41
3.0
 42
3.0
 43
3.0
  0
INSERT
  5
17AE
330
17A7
100
AcDbEntity
  8
DIM
 62
     0
370
    -2
100
AcDbBlockReference
  2
_DOT
 10
779.8455790181633
 20
335.9003114810004
 30
0.0
 41
3.0
 42
3.0
 43
3.0
 50
180.0
  0
MTEXT
  5
17AF
330
17A7
100
AcDbEntity
  8
DIM
 62
     0
 48
0.05
100
AcDbMText
 10
844.8455790181633
 20
351.9003114810004
 30
0.0
 40
12.0
 41
0.0
 46
0.0
 71
     5
 72
     1
  1
\A1;130
  7
ＭＳ ゴシック
 73
     1
 44
1.0
  0
POINT
  5
17B0
330
17A7
100
AcDbEntity
  8
Defpoints
 62
     0
100
AcDbPoint
 10
909.8455790181633
 20
405.4722792868901
 30
0.0
  0
POINT
  5
17B1
330
17A7
100
AcDbEntity
  8
Defpoints
 62
     0
100
AcDbPoint
 10
779.8455790181633
 20
392.4722792868899
 30
0.0
  0
POINT
  5
17B2
330
17A7
100
AcDbEntity
  8
Defpoints
 62
     0
100
AcDbPoint
 10
779.8455790181633
 20
335.9003114810004
 30
0.0
  0
ENDBLK
  5
17A9
330
17A7
100
AcDbEntity
  8
0
100
AcDbBlockEnd
  0
BLOCK
  5
1802
330
1801
100
AcDbEntity
  8
0
100
AcDbBlockBegin
  2
*D75
 70
     1
 10
0.0
 20
0.0
 30
0.0
  3
*D75
  1
*D77
  0
LINE
  5
1804
330
1801
100
AcDbEntity
  8
DIM
  6
Continuous
 62
     0
 48
2.0
370
    -2
100
AcDbLine
 10
779.8455790181633
 20
505.4722792868901
 30
0.0
 11
779.8455790181633
 21
589.54027928689
 31
0.0
  0
LINE
  5
1805
330
1801
100
AcDbEntity
  8
DIM
  6
Continuous
 62
     0
 48
2.0
370
    -2
100
AcDbLine
 10
779.8455790181633
 20
502.4722792868901
 30
0.0
 11
779.8455790181633
 21
422.8704258983526
 31
0.0
  0
INSERT
  5
1806
330
1801
100
AcDbEntity
  8
DIM
 62
     0
370
    -2
100
AcDbBlockReference
  2
_DOT
 10
779.8455790181633
 20
505.4722792868901
 30
0.0
 41
3.0
 42
3.0
 43
3.0
 50
90.0
  0
INSERT
  5
1807
330
1801
100
AcDbEntity
  8
DIM
 62
     0
370
    -2
100
AcDbBlockReference
  2
_DOT
 10
779.8455790181633
 20
419.8704258983526
 30
0.0
 41
3.0
 42
3.0
 43
3.0
 50
270.0
  0
MTEXT
  5
1808
330
1801
100
AcDbEntity
  8
DIM
 62
     0
 48
0.05
100
AcDbMText
 10
762.7835790181633
 20
550.50627928689
 30
0.0
 40
12.0
 41
0.0
 46
0.0
 71
     5
 72
     1
  1
\A1;82(深さ)
  7
ＭＳ ゴシック
 11
0.0
 21
1.0
 31
0.0
 73
     1
 44
1.0
  0
POINT
  5
1809
330
1801
100
AcDbEntity
  8
Defpoints
 62
     0
100
AcDbPoint
 10
802.9523511515092
 20
505.4722792868901
 30
0.0
  0
POINT
  5
180A
330
1801
100
AcDbEntity
  8
Defpoints
 62
     0
100
AcDbPoint
 10
779.8410911697372
 20
419.8704258983526
 30
0.0
  0
POINT
  5
180B
330
1801
100
AcDbEntity
  8
Defpoints
 62
     0
100
AcDbPoint
 10
779.8455790181633
 20
419.8704258983526
 30
0.0
  0
ENDBLK
  5
1803
330
1801
100
AcDbEntity
  8
0
100
AcDbBlockEnd
  0
BLOCK
  5
182C
330
182B
100
AcDbEntity
  8
0
100
AcDbBlockBegin
  2
*D76
 70
     1
 10
0.0
 20
0.0
 30
0.0
  3
*D76
  1
*D76
  0
LINE
  5
182E
330
182B
100
AcDbEntity
  8
DIM
 62
     0
 48
0.05
370
    -2
100
AcDbLine
 10
162.1954450426713
 20
1198.563361366625
 30
0.0
 11
162.1954450426713
 21
1212.734313496636
 31
0.0
  0
LINE
  5
182F
330
182B
100
AcDbEntity
  8
DIM
 62
     0
 48
0.05
370
    -2
100
AcDbLine
 10
412.1954450426713
 20
1198.563361366625
 30
0.0
 11
412.1954450426713
 21
1212.734313496636
 31
0.0
  0
LINE
  5
1830
330
182B
100
AcDbEntity
  8
DIM
 62
     0
 48
0.05
370
    -2
100
AcDbLine
 10
165.1954450426713
 20
1212.734313496636
 30
0.0
 11
409.1954450426713
 21
1212.734313496636
 31
0.0
  0
INSERT
  5
1831
330
182B
100
AcDbEntity
  8
DIM
 62
     0
370
    -2
100
AcDbBlockReference
  2
_DOT
 10
162.1954450426713
 20
1212.734313496636
 30
0.0
 41
3.0
 42
3.0
 43
3.0
 50
180.0
  0
INSERT
  5
1832
330
182B
100
AcDbEntity
  8
DIM
 62
     0
370
    -2
100
AcDbBlockReference
  2
_DOT
 10
412.1954450426713
 20
1212.734313496636
 30
0.0
 41
3.0
 42
3.0
 43
3.0
  0
MTEXT
  5
1833
330
182B
100
AcDbEntity
  8
DIM
 62
     0
 48
0.05
100
AcDbMText
 10
287.1954450426713
 20
1228.734313496636
 30
0.0
 40
12.0
 41
0.0
 46
0.0
 71
     5
 72
     1
  1
\A1;250
  7
ＭＳ ゴシック
 73
     1
 44
1.0
  0
POINT
  5
1834
330
182B
100
AcDbEntity
  8
Defpoints
 62
     0
100
AcDbPoint
 10
162.1954450426713
 20
1188.563361366625
 30
0.0
  0
POINT
  5
1835
330
182B
100
AcDbEntity
  8
Defpoints
 62
     0
100
AcDbPoint
 10
412.1954450426713
 20
1188.563361366625
 30
0.0
  0
POINT
  5
1836
330
182B
100
AcDbEntity
  8
Defpoints
 62
     0
100
AcDbPoint
 10
412.1954450426713
 20
1212.734313496636
 30
0.0
  0
ENDBLK
  5
182D
330
182B
100
AcDbEntity
  8
0
100
AcDbBlockEnd
  0
BLOCK
  5
1841
330
1840
100
AcDbEntity
  8
0
100
AcDbBlockBegin
  2
*D77
 70
     1
 10
0.0
 20
0.0
 30
0.0
  3
*D77
  1
*D77
  0
LINE
  5
1843
330
1840
100
AcDbEntity
  8
DIM
 62
     0
 48
0.05
370
    -2
100
AcDbLine
 10
427.1954450426713
 20
395.4722792868901
 30
0.0
 11
427.1954450426713
 21
282.040006869447
 31
0.0
  0
LINE
  5
1844
330
1840
100
AcDbEntity
  8
DIM
 62
     0
 48
0.05
370
    -2
100
AcDbLine
 10
287.1954450426713
 20
321.0710351248315
 30
0.0
 11
287.1954450426713
 21
282.040006869447
 31
0.0
  0
LINE
  5
1845
330
1840
100
AcDbEntity
  8
DIM
 62
     0
 48
0.05
370
    -2
100
AcDbLine
 10
424.1954450426713
 20
282.040006869447
 30
0.0
 11
290.1954450426713
 21
282.040006869447
 31
0.0
  0
INSERT
  5
1846
330
1840
100
AcDbEntity
  8
DIM
 62
     0
370
    -2
100
AcDbBlockReference
  2
_DOT
 10
427.1954450426713
 20
282.040006869447
 30
0.0
 41
3.0
 42
3.0
 43
3.0
  0
INSERT
  5
1847
330
1840
100
AcDbEntity
  8
DIM
 62
     0
370
    -2
100
AcDbBlockReference
  2
_DOT
 10
287.1954450426713
 20
282.040006869447
 30
0.0
 41
3.0
 42
3.0
 43
3.0
 50
180.0
  0
MTEXT
  5
1848
330
1840
100
AcDbEntity
  8
DIM
 62
     0
 48
0.05
100
AcDbMText
 10
357.1954450426713
 20
298.040006869447
 30
0.0
 40
12.0
 41
0.0
 46
0.0
 71
     5
 72
     1
  1
\A1;140
  7
ＭＳ ゴシック
 73
     1
 44
1.0
  0
POINT
  5
1849
330
1840
100
AcDbEntity
  8
Defpoints
 62
     0
100
AcDbPoint
 10
427.1954450426713
 20
405.4722792868901
 30
0.0
  0
POINT
  5
184A
330
1840
100
AcDbEntity
  8
Defpoints
 62
     0
100
AcDbPoint
 10
287.1954450426713
 20
331.0710351248315
 30
0.0
  0
POINT
  5
184B
330
1840
100
AcDbEntity
  8
Defpoints
 62
     0
100
AcDbPoint
 10
287.1954450426713
 20
282.040006869447
 30
0.0
  0
ENDBLK
  5
1842
330
1840
100
AcDbEntity
  8
0
100
AcDbBlockEnd
  0
BLOCK
  5
186D
330
186C
100
AcDbEntity
  8
0
100
AcDbBlockBegin
  2
*D78
 70
     1
 10
0.0
 20
0.0
 30
0.0
  3
*D78
  1
*D78
  0
LINE
  5
186F
330
186C
100
AcDbEntity
  8
DIM
  6
Continuous
 62
     0
 48
2.0
370
    -2
100
AcDbLine
 10
427.1954450426713
 20
515.4722792868902
 30
0.0
 11
427.1954450426713
 21
538.4589877314463
 31
0.0
  0
LINE
  5
1870
330
186C
100
AcDbEntity
  8
DIM
  6
Continuous
 62
     0
 48
2.0
370
    -2
100
AcDbLine
 10
367.0210057457773
 20
492.1763289639728
 30
0.0
 11
367.0210057457773
 21
538.4589877314463
 31
0.0
  0
LINE
  5
1871
330
186C
100
AcDbEntity
  8
DIM
  6
Continuous
 62
     0
 48
2.0
370
    -2
100
AcDbLine
 10
424.1954450426713
 20
538.4589877314463
 30
0.0
 11
370.0210057457773
 21
538.4589877314463
 31
0.0
  0
INSERT
  5
1872
330
186C
100
AcDbEntity
  8
DIM
 62
     0
370
    -2
100
AcDbBlockReference
  2
_DOT
 10
427.1954450426713
 20
538.4589877314463
 30
0.0
 41
3.0
 42
3.0
 43
3.0
  0
INSERT
  5
1873
330
186C
100
AcDbEntity
  8
DIM
 62
     0
370
    -2
100
AcDbBlockReference
  2
_DOT
 10
367.0210057457773
 20
538.4589877314463
 30
0.0
 41
3.0
 42
3.0
 43
3.0
 50
180.0
  0
MTEXT
  5
1874
330
186C
100
AcDbEntity
  8
DIM
 62
     0
 48
0.05
100
AcDbMText
 10
397.1082253942243
 20
554.4589877314463
 30
0.0
 40
12.0
 41
0.0
 46
0.0
 71
     5
 72
     1
  1
\A1;60
  7
ＭＳ ゴシック
 73
     1
 44
1.0
  0
POINT
  5
1875
330
186C
100
AcDbEntity
  8
Defpoints
 62
     0
100
AcDbPoint
 10
427.1954450426713
 20
505.4722792868901
 30
0.0
  0
POINT
  5
1876
330
186C
100
AcDbEntity
  8
Defpoints
 62
     0
100
AcDbPoint
 10
367.0210057457773
 20
482.1763289639728
 30
0.0
  0
POINT
  5
1877
330
186C
100
AcDbEntity
  8
Defpoints
 62
     0
100
AcDbPoint
 10
367.0210057457773
 20
538.4589877314463
 30
0.0
  0
ENDBLK
  5
186E
330
186C
100
AcDbEntity
  8
0
100
AcDbBlockEnd
  0
BLOCK
  5
1879
330
1878
100
AcDbEntity
  8
0
100
AcDbBlockBegin
  2
*D79
 70
     1
 10
0.0
 20
0.0
 30
0.0
  3
*D79
  1
*D79
  0
LINE
  5
187B
330
1878
100
AcDbEntity
  8
DIM
  6
Continuous
 62
     0
 48
2.0
370
    -2
100
AcDbLine
 10
400.7250554228593
 20
458.4722792868904
 30
0.0
 11
461.7665158556032
 21
458.4722792868905
 31
0.0
  0
LINE
  5
187C
330
1878
100
AcDbEntity
  8
DIM
  6
Continuous
 62
     0
 48
2.0
370
    -2
100
AcDbLine
 10
437.1954450426713
 20
505.4722792868901
 30
0.0
 11
461.7665158556032
 21
505.4722792868902
 31
0.0
  0
LINE
  5
187D
330
1878
100
AcDbEntity
  8
DIM
  6
Continuous
 62
     0
 48
2.0
370
    -2
100
AcDbLine
 10
461.7665158556032
 20
461.4722792868905
 30
0.0
 11
461.7665158556032
 21
502.4722792868902
 31
0.0
  0
INSERT
  5
187E
330
1878
100
AcDbEntity
  8
DIM
 62
     0
370
    -2
100
AcDbBlockReference
  2
_DOT
 10
461.7665158556032
 20
458.4722792868905
 30
0.0
 41
3.0
 42
3.0
 43
3.0
 50
270.0
  0
INSERT
  5
187F
330
1878
100
AcDbEntity
  8
DIM
 62
     0
370
    -2
100
AcDbBlockReference
  2
_DOT
 10
461.7665158556032
 20
505.4722792868902
 30
0.0
 41
3.0
 42
3.0
 43
3.0
 50
90.0
  0
MTEXT
  5
1880
330
1878
100
AcDbEntity
  8
DIM
 62
     0
 48
0.05
100
AcDbMText
 10
445.7665158556032
 20
481.9722792868903
 30
0.0
 40
12.0
 41
0.0
 46
0.0
 71
     5
 72
     1
  1
\A1;47
  7
ＭＳ ゴシック
 11
0.0
 21
1.0
 31
0.0
 73
     1
 44
1.0
  0
POINT
  5
1881
330
1878
100
AcDbEntity
  8
Defpoints
 62
     0
100
AcDbPoint
 10
390.7250554228593
 20
458.4722792868904
 30
0.0
  0
POINT
  5
1882
330
1878
100
AcDbEntity
  8
Defpoints
 62
     0
100
AcDbPoint
 10
427.1954450426713
 20
505.4722792868901
 30
0.0
  0
POINT
  5
1883
330
1878
100
AcDbEntity
  8
Defpoints
 62
     0
100
AcDbPoint
 10
461.7665158556032
 20
505.4722792868901
 30
0.0
  0
ENDBLK
  5
187A
330
1878
100
AcDbEntity
  8
0
100
AcDbBlockEnd
  0
BLOCK
  5
1915
330
1914
100
AcDbEntity
  8
0
100
AcDbBlockBegin
  2
*D80
 70
     1
 10
0.0
 20
0.0
 30
0.0
  3
*D80
  1

  0
LINE
  5
1917
330
1914
100
AcDbEntity
  8
DIM
  6
Continuous
 62
     0
 48
2.0
370
    -2
100
AcDbLine
 10
173.6658346624832
 20
458.4722792868904
 30
0.0
 11
112.6243742297394
 21
458.4722792868904
 31
0.0
  0
LINE
  5
1918
330
1914
100
AcDbEntity
  8
DIM
  6
Continuous
 62
     0
 48
2.0
370
    -2
100
AcDbLine
 10
137.1954450426713
 20
505.4722792868901
 30
0.0
 11
112.6243742297394
 21
505.4722792868901
 31
0.0
  0
LINE
  5
1919
330
1914
100
AcDbEntity
  8
DIM
  6
Continuous
 62
     0
 48
2.0
370
    -2
100
AcDbLine
 10
112.6243742297394
 20
461.4722792868904
 30
0.0
 11
112.6243742297394
 21
502.4722792868901
 31
0.0
  0
INSERT
  5
191A
330
1914
100
AcDbEntity
  8
DIM
 62
     0
370
    -2
100
AcDbBlockReference
  2
_DOT
 10
112.6243742297394
 20
458.4722792868904
 30
0.0
 41
3.0
 42
3.0
 43
3.0
 50
270.0
  0
INSERT
  5
191B
330
1914
100
AcDbEntity
  8
DIM
 62
     0
370
    -2
100
AcDbBlockReference
  2
_DOT
 10
112.6243742297394
 20
505.4722792868901
 30
0.0
 41
3.0
 42
3.0
 43
3.0
 50
89.99999999999999
  0
MTEXT
  5
191C
330
1914
100
AcDbEntity
  8
DIM
 62
     0
 48
0.05
100
AcDbMText
 10
96.62437422973937
 20
481.9722792868903
 30
0.0
 40
12.0
 41
0.0
 46
0.0
 71
     5
 72
     1
  1
\A1;47
  7
ＭＳ ゴシック
 11
3.023586109617466E-16
 21
1.0
 31
0.0
 73
     1
 44
1.0
  0
POINT
  5
191D
330
1914
100
AcDbEntity
  8
Defpoints
 62
     0
100
AcDbPoint
 10
183.6658346624832
 20
458.4722792868904
 30
0.0
  0
POINT
  5
191E
330
1914
100
AcDbEntity
  8
Defpoints
 62
     0
100
AcDbPoint
 10
147.1954450426713
 20
505.4722792868901
 30
0.0
  0
POINT
  5
191F
330
1914
100
AcDbEntity
  8
Defpoints
 62
     0
100
AcDbPoint
 10
112.6243742297394
 20
505.4722792868901
 30
0.0
  0
ENDBLK
  5
1916
330
1914
100
AcDbEntity
  8
0
100
AcDbBlockEnd
  0
BLOCK
  5
1921
330
1920
100
AcDbEntity
  8
0
100
AcDbBlockBegin
  2
*D81
 70
     1
 10
0.0
 20
0.0
 30
0.0
  3
*D81
  1

  0
LINE
  5
1923
330
1920
100
AcDbEntity
  8
DIM
  6
Continuous
 62
     0
 48
2.0
370
    -2
100
AcDbLine
 10
147.1954450426713
 20
515.4722792868902
 30
0.0
 11
147.1954450426713
 21
538.4589877314463
 31
0.0
  0
LINE
  5
1924
330
1920
100
AcDbEntity
  8
DIM
  6
Continuous
 62
     0
 48
2.0
370
    -2
100
AcDbLine
 10
207.3698843395653
 20
492.1763289639728
 30
0.0
 11
207.3698843395653
 21
538.4589877314463
 31
0.0
  0
LINE
  5
1925
330
1920
100
AcDbEntity
  8
DIM
  6
Continuous
 62
     0
 48
2.0
370
    -2
100
AcDbLine
 10
150.1954450426713
 20
538.4589877314463
 30
0.0
 11
204.3698843395653
 21
538.4589877314463
 31
0.0
  0
INSERT
  5
1926
330
1920
100
AcDbEntity
  8
DIM
 62
     0
370
    -2
100
AcDbBlockReference
  2
_DOT
 10
147.1954450426713
 20
538.4589877314463
 30
0.0
 41
3.0
 42
3.0
 43
3.0
 50
180.0
  0
INSERT
  5
1927
330
1920
100
AcDbEntity
  8
DIM
 62
     0
370
    -2
100
AcDbBlockReference
  2
_DOT
 10
207.3698843395653
 20
538.4589877314463
 30
0.0
 41
3.0
 42
3.0
 43
3.0
  0
MTEXT
  5
1928
330
1920
100
AcDbEntity
  8
DIM
 62
     0
 48
0.05
100
AcDbMText
 10
177.2826646911183
 20
554.4589877314463
 30
0.0
 40
12.0
 41
0.0
 46
0.0
 71
     5
 72
     1
  1
\A1;60
  7
ＭＳ ゴシック
 73
     1
 44
1.0
  0
POINT
  5
1929
330
1920
100
AcDbEntity
  8
Defpoints
 62
     0
100
AcDbPoint
 10
147.1954450426713
 20
505.4722792868901
 30
0.0
  0
POINT
  5
192A
330
1920
100
AcDbEntity
  8
Defpoints
 62
     0
100
AcDbPoint
 10
207.3698843395653
 20
482.1763289639728
 30
0.0
  0
POINT
  5
192B
330
1920
100
AcDbEntity
  8
Defpoints
 62
     0
100
AcDbPoint
 10
207.3698843395653
 20
538.4589877314463
 30
0.0
  0
ENDBLK
  5
1922
330
1920
100
AcDbEntity
  8
0
100
AcDbBlockEnd
  0
BLOCK
  5
19DC
330
19DB
100
AcDbEntity
  8
0
100
AcDbBlockBegin
  2
*D83
 70
     1
 10
0.0
 20
0.0
 30
0.0
  3
*D83
  1
*D67
  0
LINE
  5
19DD
330
19DB
100
AcDbEntity
  8
DIM
 62
     0
 48
2.0
370
    -2
100
AcDbLine
 10
290.0
 20
224.9322724174431
 30
0.0
 11
367.460771645046
 21
224.9322724174431
 31
0.0
  0
LINE
  5
19DE
330
19DB
100
AcDbEntity
  8
DIM
 62
     0
 48
2.0
370
    -2
100
AcDbLine
 10
171.0
 20
104.9322724174429
 30
0.0
 11
367.460771645046
 21
104.9322724174429
 31
0.0
  0
LINE
  5
19DF
330
19DB
100
AcDbEntity
  8
DIM
 62
     0
 48
2.0
370
    -2
100
AcDbLine
 10
367.460771645046
 20
221.9322724174431
 30
0.0
 11
367.460771645046
 21
107.9322724174429
 31
0.0
  0
INSERT
  5
19E0
330
19DB
100
AcDbEntity
  8
DIM
 62
     0
370
    -2
100
AcDbBlockReference
  2
_DOT
 10
367.460771645046
 20
224.9322724174431
 30
0.0
 41
3.0
 42
3.0
 43
3.0
 50
90.0
  0
INSERT
  5
19E1
330
19DB
100
AcDbEntity
  8
DIM
 62
     0
370
    -2
100
AcDbBlockReference
  2
_DOT
 10
367.460771645046
 20
104.9322724174429
 30
0.0
 41
3.0
 42
3.0
 43
3.0
 50
270.0
  0
MTEXT
  5
19E2
330
19DB
100
AcDbEntity
  8
DIM
 62
     0
 48
0.05
100
AcDbMText
 10
351.460771645046
 20
164.932272417443
 30
0.0
 40
12.0
 41
0.0
 46
0.0
 71
     5
 72
     1
  1
\A1;120
  7
ＭＳ ゴシック
 11
0.0
 21
1.0
 31
0.0
 73
     1
 44
1.0
  0
POINT
  5
19E3
330
19DB
100
AcDbEntity
  8
Defpoints
 62
     0
100
AcDbPoint
 10
280.0
 20
224.9322724174431
 30
0.0
  0
POINT
  5
19E4
330
19DB
100
AcDbEntity
  8
Defpoints
 62
     0
100
AcDbPoint
 10
161.0
 20
104.9322724174429
 30
0.0
  0
POINT
  5
19E5
330
19DB
100
AcDbEntity
  8
Defpoints
 62
     0
100
AcDbPoint
 10
367.460771645046
 20
104.9322724174429
 30
0.0
  0
ENDBLK
  5
19E6
330
19DB
100
AcDbEntity
  8
0
100
AcDbBlockEnd
  0
BLOCK
  5
19E9
330
19E8
100
AcDbEntity
  8
0
100
AcDbBlockBegin
  2
*D84
 70
     1
 10
0.0
 20
0.0
 30
0.0
  3
*D84
  1
*D68
  0
LINE
  5
19EA
330
19E8
100
AcDbEntity
  8
DIM
 62
     0
 48
2.0
370
    -2
100
AcDbLine
 10
119.0
 20
94.9322724174429
 30
0.0
 11
119.0
 21
73.4167336268631
 31
0.0
  0
LINE
  5
19EB
330
19E8
100
AcDbEntity
  8
DIM
 62
     0
 48
2.0
370
    -2
100
AcDbLine
 10
161.0
 20
94.9322724174429
 30
0.0
 11
161.0
 21
73.4167336268631
 31
0.0
  0
LINE
  5
19EC
330
19E8
100
AcDbEntity
  8
DIM
 62
     0
 48
2.0
370
    -2
100
AcDbLine
 10
122.0
 20
73.4167336268631
 30
0.0
 11
158.0
 21
73.4167336268631
 31
0.0
  0
INSERT
  5
19ED
330
19E8
100
AcDbEntity
  8
DIM
 62
     0
370
    -2
100
AcDbBlockReference
  2
_DOT
 10
119.0
 20
73.4167336268631
 30
0.0
 41
3.0
 42
3.0
 43
3.0
 50
180.0
  0
INSERT
  5
19EE
330
19E8
100
AcDbEntity
  8
DIM
 62
     0
370
    -2
100
AcDbBlockReference
  2
_DOT
 10
161.0
 20
73.4167336268631
 30
0.0
 41
3.0
 42
3.0
 43
3.0
  0
MTEXT
  5
19EF
330
19E8
100
AcDbEntity
  8
DIM
 62
     0
 48
0.05
100
AcDbMText
 10
140.0
 20
56.1387336268631
 30
0.0
 40
12.0
 41
0.0
 46
0.0
 71
     5
 72
     1
  1
\A1;G1 1/4"
  7
ＭＳ ゴシック
 73
     1
 44
1.0
  0
POINT
  5
19F0
330
19E8
100
AcDbEntity
  8
Defpoints
 62
     0
100
AcDbPoint
 10
119.0
 20
104.9322724174429
 30
0.0
  0
POINT
  5
19F1
330
19E8
100
AcDbEntity
  8
Defpoints
 62
     0
100
AcDbPoint
 10
161.0
 20
104.9322724174429
 30
0.0
  0
POINT
  5
19F2
330
19E8
100
AcDbEntity
  8
Defpoints
 62
     0
100
AcDbPoint
 10
161.0
 20
73.4167336268631
 30
0.0
  0
ENDBLK
  5
19F3
330
19E8
100
AcDbEntity
  8
0
100
AcDbBlockEnd
  0
BLOCK
  5
1A04
330
1A03
100
AcDbEntity
  8
0
100
AcDbBlockBegin
  2
*D85
 70
     1
 10
0.0
 20
0.0
 30
0.0
  3
*D85
  1
*D77
  0
LINE
  5
1A05
330
1A03
100
AcDbEntity
  8
DIM
 62
     0
 48
0.05
370
    -2
100
AcDbLine
 10
280.0
 20
114.9322724174431
 30
0.0
 11
280.0
 21
1.5
 31
0.0
  0
LINE
  5
1A06
330
1A03
100
AcDbEntity
  8
DIM
 62
     0
 48
0.05
370
    -2
100
AcDbLine
 10
140.0
 20
34.22184317803533
 30
0.0
 11
140.0
 21
1.5
 31
0.0
  0
LINE
  5
1A07
330
1A03
100
AcDbEntity
  8
DIM
 62
     0
 48
0.05
370
    -2
100
AcDbLine
 10
277.0
 20
1.5
 30
0.0
 11
143.0
 21
1.5
 31
0.0
  0
INSERT
  5
1A08
330
1A03
100
AcDbEntity
  8
DIM
 62
     0
370
    -2
100
AcDbBlockReference
  2
_DOT
 10
280.0
 20
1.5
 30
0.0
 41
3.0
 42
3.0
 43
3.0
  0
INSERT
  5
1A09
330
1A03
100
AcDbEntity
  8
DIM
 62
     0
370
    -2
100
AcDbBlockReference
  2
_DOT
 10
140.0
 20
1.5
 30
0.0
 41
3.0
 42
3.0
 43
3.0
 50
180.0
  0
MTEXT
  5
1A0A
330
1A03
100
AcDbEntity
  8
DIM
 62
     0
 48
0.05
100
AcDbMText
 10
210.0
 20
17.5
 30
0.0
 40
12.0
 41
0.0
 46
0.0
 71
     5
 72
     1
  1
\A1;140
  7
ＭＳ ゴシック
 73
     1
 44
1.0
  0
POINT
  5
1A0B
330
1A03
100
AcDbEntity
  8
Defpoints
 62
     0
100
AcDbPoint
 10
280.0
 20
124.9322724174431
 30
0.0
  0
POINT
  5
1A0C
330
1A03
100
AcDbEntity
  8
Defpoints
 62
     0
100
AcDbPoint
 10
140.0
 20
44.22184317803533
 30
0.0
  0
POINT
  5
1A0D
330
1A03
100
AcDbEntity
  8
Defpoints
 62
     0
100
AcDbPoint
 10
140.0
 20
1.5
 30
0.0
  0
ENDBLK
  5
1A0E
330
1A03
100
AcDbEntity
  8
0
100
AcDbBlockEnd
  0
BLOCK
  5
1A2C
330
1A2B
100
AcDbEntity
  8
0
100
AcDbBlockBegin
  2
*D86
 70
     1
 10
0.0
 20
0.0
 30
0.0
  3
*D86
  1

  0
LINE
  5
1A2E
330
1A2B
100
AcDbEntity
  8
DIM
 62
     0
 48
2.0
370
    -2
100
AcDbLine
 10
-162.2927397260273
 20
407.200765568128
 30
0.0
 11
-84.83196808098135
 21
407.200765568128
 31
0.0
  0
LINE
  5
1A2F
330
1A2B
100
AcDbEntity
  8
DIM
 62
     0
 48
2.0
370
    -2
100
AcDbLine
 10
-281.2927397260273
 20
287.2007655681278
 30
0.0
 11
-84.83196808098137
 21
287.2007655681278
 31
0.0
  0
LINE
  5
1A30
330
1A2B
100
AcDbEntity
  8
DIM
 62
     0
 48
2.0
370
    -2
100
AcDbLine
 10
-84.83196808098135
 20
404.200765568128
 30
0.0
 11
-84.83196808098137
 21
290.2007655681278
 31
0.0
  0
INSERT
  5
1A31
330
1A2B
100
AcDbEntity
  8
DIM
 62
     0
370
    -2
100
AcDbBlockReference
  2
_DOT
 10
-84.83196808098135
 20
407.200765568128
 30
0.0
 41
3.0
 42
3.0
 43
3.0
 50
90.0
  0
INSERT
  5
1A32
330
1A2B
100
AcDbEntity
  8
DIM
 62
     0
370
    -2
100
AcDbBlockReference
  2
_DOT
 10
-84.83196808098137
 20
287.2007655681278
 30
0.0
 41
3.0
 42
3.0
 43
3.0
 50
270.0
  0
MTEXT
  5
1A33
330
1A2B
100
AcDbEntity
  8
DIM
 62
     0
 48
0.05
100
AcDbMText
 10
-100.8319680809814
 20
347.2007655681279
 30
0.0
 40
12.0
 41
0.0
 46
0.0
 71
     5
 72
     1
  1
\A1;120
  7
ＭＳ ゴシック
 11
1.184237892933498E-16
 21
1.0
 31
0.0
 73
     1
 44
1.0
  0
POINT
  5
1A34
330
1A2B
100
AcDbEntity
  8
Defpoints
 62
     0
100
AcDbPoint
 10
-172.2927397260273
 20
407.200765568128
 30
0.0
  0
POINT
  5
1A35
330
1A2B
100
AcDbEntity
  8
Defpoints
 62
     0
100
AcDbPoint
 10
-291.2927397260273
 20
287.2007655681278
 30
0.0
  0
POINT
  5
1A36
330
1A2B
100
AcDbEntity
  8
Defpoints
 62
     0
100
AcDbPoint
 10
-84.83196808098137
 20
287.2007655681278
 30
0.0
  0
ENDBLK
  5
1A2D
330
1A2B
100
AcDbEntity
  8
0
100
AcDbBlockEnd
  0
BLOCK
  5
1A38
330
1A37
100
AcDbEntity
  8
0
100
AcDbBlockBegin
  2
*D87
 70
     1
 10
0.0
 20
0.0
 30
0.0
  3
*D87
  1

  0
LINE
  5
1A3A
330
1A37
100
AcDbEntity
  8
DIM
 62
     0
 48
2.0
370
    -2
100
AcDbLine
 10
-333.2927397260273
 20
277.2007655681278
 30
0.0
 11
-333.2927397260273
 21
255.685226777548
 31
0.0
  0
LINE
  5
1A3B
330
1A37
100
AcDbEntity
  8
DIM
 62
     0
 48
2.0
370
    -2
100
AcDbLine
 10
-291.2927397260273
 20
277.2007655681278
 30
0.0
 11
-291.2927397260273
 21
255.685226777548
 31
0.0
  0
LINE
  5
1A3C
330
1A37
100
AcDbEntity
  8
DIM
 62
     0
 48
2.0
370
    -2
100
AcDbLine
 10
-330.2927397260273
 20
255.685226777548
 30
0.0
 11
-294.2927397260273
 21
255.685226777548
 31
0.0
  0
INSERT
  5
1A3D
330
1A37
100
AcDbEntity
  8
DIM
 62
     0
370
    -2
100
AcDbBlockReference
  2
_DOT
 10
-333.2927397260273
 20
255.685226777548
 30
0.0
 41
3.0
 42
3.0
 43
3.0
 50
180.0
  0
INSERT
  5
1A3E
330
1A37
100
AcDbEntity
  8
DIM
 62
     0
370
    -2
100
AcDbBlockReference
  2
_DOT
 10
-291.2927397260273
 20
255.685226777548
 30
0.0
 41
3.0
 42
3.0
 43
3.0
  0
MTEXT
  5
1A3F
330
1A37
100
AcDbEntity
  8
DIM
 62
     0
 48
0.05
100
AcDbMText
 10
-312.2927397260273
 20
238.407226777548
 30
0.0
 40
12.0
 41
0.0
 46
0.0
 71
     5
 72
     1
  1
\A1;G1 1/4"
  7
ＭＳ ゴシック
 73
     1
 44
1.0
  0
POINT
  5
1A40
330
1A37
100
AcDbEntity
  8
Defpoints
 62
     0
100
AcDbPoint
 10
-333.2927397260273
 20
287.2007655681278
 30
0.0
  0
POINT
  5
1A41
330
1A37
100
AcDbEntity
  8
Defpoints
 62
     0
100
AcDbPoint
 10
-291.2927397260273
 20
287.2007655681278
 30
0.0
  0
POINT
  5
1A42
330
1A37
100
AcDbEntity
  8
Defpoints
 62
     0
100
AcDbPoint
 10
-291.2927397260273
 20
255.685226777548
 30
0.0
  0
ENDBLK
  5
1A39
330
1A37
100
AcDbEntity
  8
0
100
AcDbBlockEnd
  0
BLOCK
  5
1A44
330
1A43
100
AcDbEntity
  8
0
100
AcDbBlockBegin
  2
*D88
 70
     1
 10
0.0
 20
0.0
 30
0.0
  3
*D88
  1

  0
LINE
  5
1A46
330
1A43
100
AcDbEntity
  8
DIM
 62
     0
 48
0.05
370
    -2
100
AcDbLine
 10
-172.2927397260273
 20
297.200765568128
 30
0.0
 11
-172.2927397260273
 21
183.7684931506849
 31
0.0
  0
LINE
  5
1A47
330
1A43
100
AcDbEntity
  8
DIM
 62
     0
 48
0.05
370
    -2
100
AcDbLine
 10
-312.2927397260273
 20
216.4903363287202
 30
0.0
 11
-312.2927397260273
 21
183.7684931506849
 31
0.0
  0
LINE
  5
1A48
330
1A43
100
AcDbEntity
  8
DIM
 62
     0
 48
0.05
370
    -2
100
AcDbLine
 10
-175.2927397260273
 20
183.7684931506849
 30
0.0
 11
-309.2927397260273
 21
183.7684931506849
 31
0.0
  0
INSERT
  5
1A49
330
1A43
100
AcDbEntity
  8
DIM
 62
     0
370
    -2
100
AcDbBlockReference
  2
_DOT
 10
-172.2927397260273
 20
183.7684931506849
 30
0.0
 41
3.0
 42
3.0
 43
3.0
  0
INSERT
  5
1A4A
330
1A43
100
AcDbEntity
  8
DIM
 62
     0
370
    -2
100
AcDbBlockReference
  2
_DOT
 10
-312.2927397260273
 20
183.7684931506849
 30
0.0
 41
3.0
 42
3.0
 43
3.0
 50
180.0
  0
MTEXT
  5
1A4B
330
1A43
100
AcDbEntity
  8
DIM
 62
     0
 48
0.05
100
AcDbMText
 10
-242.2927397260273
 20
199.7684931506849
 30
0.0
 40
12.0
 41
0.0
 46
0.0
 71
     5
 72
     1
  1
\A1;140
  7
ＭＳ ゴシック
 73
     1
 44
1.0
  0
POINT
  5
1A4C
330
1A43
100
AcDbEntity
  8
Defpoints
 62
     0
100
AcDbPoint
 10
-172.2927397260273
 20
307.200765568128
 30
0.0
  0
POINT
  5
1A4D
330
1A43
100
AcDbEntity
  8
Defpoints
 62
     0
100
AcDbPoint
 10
-312.2927397260273
 20
226.4903363287202
 30
0.0
  0
POINT
  5
1A4E
330
1A43
100
AcDbEntity
  8
Defpoints
 62
     0
100
AcDbPoint
 10
-312.2927397260273
 20
183.7684931506849
 30
0.0
  0
ENDBLK
  5
1A45
330
1A43
100
AcDbEntity
  8
0
100
AcDbBlockEnd
  0
BLOCK
  5
1A69
330
1A68
100
AcDbEntity
  8
0
100
AcDbBlockBegin
  2
*D89
 70
     1
 10
0.0
 20
0.0
 30
0.0
  3
*D89
  1

  0
LINE
  5
1A6B
330
1A68
100
AcDbEntity
  8
DIM
 62
     0
 48
0.05
370
    -2
100
AcDbLine
 10
318.1954450426713
 20
392.4722792868899
 30
0.0
 11
340.8532931933206
 21
392.4722792868899
 31
0.0
  0
LINE
  5
1A6C
330
1A68
100
AcDbEntity
  8
DIM
 62
     0
 48
0.05
370
    -2
100
AcDbLine
 10
318.1954450426713
 20
405.4722792868901
 30
0.0
 11
340.8532931933206
 21
405.4722792868901
 31
0.0
  0
LINE
  5
1A6D
330
1A68
100
AcDbEntity
  8
DIM
 62
     0
 48
0.05
370
    -2
100
AcDbLine
 10
340.8532931933206
 20
389.4722792868899
 30
0.0
 11
340.8532931933206
 21
386.4722792868899
 31
0.0
  0
LINE
  5
1A6E
330
1A68
100
AcDbEntity
  8
DIM
 62
     0
 48
0.05
370
    -2
100
AcDbLine
 10
340.8532931933206
 20
408.4722792868901
 30
0.0
 11
340.8532931933206
 21
411.4722792868901
 31
0.0
  0
INSERT
  5
1A6F
330
1A68
100
AcDbEntity
  8
DIM
 62
     0
370
    -2
100
AcDbBlockReference
  2
_DOT
 10
340.8532931933206
 20
392.4722792868899
 30
0.0
 41
3.0
 42
3.0
 43
3.0
 50
90.0
  0
INSERT
  5
1A70
330
1A68
100
AcDbEntity
  8
DIM
 62
     0
370
    -2
100
AcDbBlockReference
  2
_DOT
 10
340.8532931933206
 20
405.4722792868901
 30
0.0
 41
3.0
 42
3.0
 43
3.0
 50
270.0
  0
MTEXT
  5
1A71
330
1A68
100
AcDbEntity
  8
DIM
 62
     0
 48
0.05
100
AcDbMText
 10
324.8532931933206
 20
398.97227928689
 30
0.0
 40
12.0
 41
0.0
 46
0.0
 71
     5
 72
     1
  1
\A1;13
  7
ＭＳ ゴシック
 11
0.0
 21
1.0
 31
0.0
 73
     1
 44
1.0
  0
POINT
  5
1A72
330
1A68
100
AcDbEntity
  8
Defpoints
 62
     0
100
AcDbPoint
 10
308.1954450426713
 20
392.4722792868899
 30
0.0
  0
POINT
  5
1A73
330
1A68
100
AcDbEntity
  8
Defpoints
 62
     0
100
AcDbPoint
 10
308.1954450426713
 20
405.4722792868901
 30
0.0
  0
POINT
  5
1A74
330
1A68
100
AcDbEntity
  8
Defpoints
 62
     0
100
AcDbPoint
 10
340.8532931933206
 20
405.4722792868901
 30
0.0
  0
ENDBLK
  5
1A6A
330
1A68
100
AcDbEntity
  8
0
100
AcDbBlockEnd
  0
BLOCK
  5
1A79
330
1A78
100
AcDbEntity
  8
0
100
AcDbBlockBegin
  2
*D90
 70
     1
 10
0.0
 20
0.0
 30
0.0
  3
*D90
  1

  0
LINE
  5
1A7B
330
1A78
100
AcDbEntity
  8
DIM
 62
     0
 48
0.05
370
    -2
100
AcDbLine
 10
320.2191080067781
 20
413.114789096109
 30
0.0
 11
347.4674922676877
 21
413.114789096109
 31
0.0
  0
LINE
  5
1A7C
330
1A78
100
AcDbEntity
  8
DIM
 62
     0
 48
0.05
370
    -2
100
AcDbLine
 10
311.8643302286301
 20
392.4722792868899
 30
0.0
 11
347.4674922676877
 21
392.4722792868899
 31
0.0
  0
LINE
  5
1A7D
330
1A78
100
AcDbEntity
  8
DIM
 62
     0
 48
0.05
370
    -2
100
AcDbLine
 10
347.4674922676877
 20
416.114789096109
 30
0.0
 11
347.4674922676877
 21
419.114789096109
 31
0.0
  0
LINE
  5
1A7E
330
1A78
100
AcDbEntity
  8
DIM
 62
     0
 48
0.05
370
    -2
100
AcDbLine
 10
347.4674922676877
 20
389.4722792868899
 30
0.0
 11
347.4674922676877
 21
386.4722792868899
 31
0.0
  0
INSERT
  5
1A7F
330
1A78
100
AcDbEntity
  8
DIM
 62
     0
370
    -2
100
AcDbBlockReference
  2
_DOT
 10
347.4674922676877
 20
413.114789096109
 30
0.0
 41
3.0
 42
3.0
 43
3.0
 50
270.0
  0
INSERT
  5
1A80
330
1A78
100
AcDbEntity
  8
DIM
 62
     0
370
    -2
100
AcDbBlockReference
  2
_DOT
 10
347.4674922676877
 20
392.4722792868899
 30
0.0
 41
3.0
 42
3.0
 43
3.0
 50
90.0
  0
MTEXT
  5
1A81
330
1A78
100
AcDbEntity
  8
DIM
 62
     0
 48
0.05
100
AcDbMText
 10
331.4674922676877
 20
402.7935341914995
 30
0.0
 40
12.0
 41
0.0
 46
0.0
 71
     5
 72
     1
  1
\A1;21
  7
ＭＳ ゴシック
 11
0.0
 21
1.0
 31
0.0
 73
     1
 44
1.0
  0
POINT
  5
1A82
330
1A78
100
AcDbEntity
  8
Defpoints
 62
     0
100
AcDbPoint
 10
310.2191080067781
 20
413.114789096109
 30
0.0
  0
POINT
  5
1A83
330
1A78
100
AcDbEntity
  8
Defpoints
 62
     0
100
AcDbPoint
 10
301.8643302286301
 20
392.4722792868899
 30
0.0
  0
POINT
  5
1A84
330
1A78
100
AcDbEntity
  8
Defpoints
 62
     0
100
AcDbPoint
 10
347.4674922676877
 20
392.4722792868899
 30
0.0
  0
ENDBLK
  5
1A7A
330
1A78
100
AcDbEntity
  8
0
100
AcDbBlockEnd
  0
ENDSEC
  0
SECTION
  2
ENTITIES
  0
MTEXT
  5
177
330
A
100
AcDbEntity
  8
TEMPLATE
390
1D
100
AcDbMText
 10
39.60107227386538
 20
171.8658758157141
 30
0.0
 40
8.144205729166663
 41
0.0
 46
0.0
 71
     1
 72
     1
  1
品名
  7
ＭＳ ゴシック
 73
     1
 44
0.7828267384257843
  0
MTEXT
  5
178
330
A
100
AcDbEntity
  8
TEMPLATE
390
1D
100
AcDbMText
 10
39.60107227386538
 20
129.365875815714
 30
0.0
 40
8.144205729166663
 41
0.0
 46
0.0
 71
     1
 72
     1
  1
仕様
  7
ＭＳ ゴシック
 73
     1
 44
0.7828267384257843
  0
LINE
  5
179
330
A
100
AcDbEntity
  8
TEMPLATE
390
1D
100
AcDbLine
 10
1011.101072273624
 20
133.5733367532142
 30
0.0
 11
36.10107227362437
 21
133.5733367532142
 31
0.0
  0
LWPOLYLINE
  5
17A
330
A
100
AcDbEntity
  8
TEMPLATE
390
1D
100
AcDbPolyline
 90
        5
 70
   128
 43
0.0
 10
1011.101072273624
 20
1448.573336753213
 10
36.10107227362437
 20
1448.573336753213
 10
36.10107227362437
 20
48.57333675321413
 10
1011.101072273624
 20
48.57333675321413
 10
1011.101072273624
 20
1448.573336753213
  0
LINE
  5
17B
330
A
100
AcDbEntity
  8
TEMPLATE
390
1D
100
AcDbLine
 10
1011.101072273624
 20
176.0733367532141
 30
0.0
 11
36.10107227362437
 21
176.0733367532141
 31
0.0
  0
LINE
  5
17C
330
A
100
AcDbEntity
  8
TEMPLATE
390
1D
100
AcDbLine
 10
1011.101072273866
 20
91.07333675321412
 30
0.0
 11
634.601072273865
 21
91.07333675321412
 31
0.0
  0
MTEXT
  5
17E
330
A
100
AcDbEntity
  8
TEMPLATE
390
1D
100
AcDbMText
 10
649.5367753999956
 20
76.11813951656006
 30
0.0
 40
12.21630859375
 41
0.0
 46
0.0
 71
     1
 72
     1
  1
大洋金物株式会社 ティーフォルム事業部
  7
ＭＳ ゴシック
 73
     1
 44
0.7828267384257843
  0
MTEXT
  5
180
330
A
100
AcDbEntity
  8
TEMPLATE
390
1D
100
AcDbMText
 10
915.601072273995
 20
115.0746453469641
 30
0.0
 40
12.21630859375
 41
0.0
 46
12.21630859375
 71
     1
 72
     1
  1
{1:5}
  7
ＭＳ ゴシック
 73
     1
 44
0.7828267384257843
1001
ACAD
1000
ACAD_MTEXT_DEFINED_HEIGHT_BEGIN
1070
    46
1040
12.21630859375
1000
ACAD_MTEXT_DEFINED_HEIGHT_END
  0
MTEXT
  5
181
330
A
100
AcDbEntity
  8
TEMPLATE
390
1D
100
AcDbMText
 10
889.101072273995
 20
129.365875815714
 30
0.0
 40
8.144205729166663
 41
0.0
 46
0.0
 71
     1
 72
     1
  1
縮尺
  7
ＭＳ ゴシック
 73
     1
 44
0.7828267384257843
  0
LINE
  5
182
330
A
100
AcDbEntity
  8
TEMPLATE
390
1D
100
AcDbLine
 10
885.601072273995
 20
91.07333675321412
 30
0.0
 11
885.601072273995
 21
133.5733367532142
 31
0.0
  0
MTEXT
  5
183
330
A
100
AcDbEntity
  8
TEMPLATE
390
1D
100
AcDbMText
 10
763.601072273995
 20
129.365875815714
 30
0.0
 40
8.144205729166663
 41
0.0
 46
0.0
 71
     1
 72
     1
  1
容量
  7
ＭＳ ゴシック
 73
     1
 44
0.7828267384257843
  0
LINE
  5
184
330
A
100
AcDbEntity
  8
TEMPLATE
390
1D
100
AcDbLine
 10
760.101072273995
 20
91.07333675321412
 30
0.0
 11
760.101072273995
 21
133.5733367532142
 31
0.0
  0
MTEXT
  5
185
330
A
100
AcDbEntity
  8
TEMPLATE
390
1D
100
AcDbMText
 10
638.101072273995
 20
171.8658758157141
 30
0.0
 40
8.144205729166663
 41
0.0
 46
0.0
 71
     1
 72
     1
  1
品番
  7
ＭＳ ゴシック
 73
     1
 44
0.7828267384257843
  0
MTEXT
  5
186
330
A
100
AcDbEntity
  8
TEMPLATE
390
1D
100
AcDbMText
 10
638.101072273995
 20
129.365875815714
 30
0.0
 40
8.144205729166663
 41
0.0
 46
0.0
 71
     1
 72
     1
  1
重量
  7
ＭＳ ゴシック
 73
     1
 44
0.7828267384257843
  0
MTEXT
  5
187
330
A
100
AcDbEntity
  8
TEMPLATE
 62
     1
390
1D
100
AcDbMText
 10
664.601072273995
 20
157.5746453469641
 30
0.0
 40
12.21630859375
 41
0.0
 46
12.21630859375
 71
     1
 72
     1
  1
{\C256;BRS70-0411-001}
  7
ＭＳ ゴシック
 73
     1
 44
0.7828267384257843
1001
ACAD
1000
ACAD_MTEXT_DEFINED_HEIGHT_BEGIN
1070
    46
1040
12.21630859375
1000
ACAD_MTEXT_DEFINED_HEIGHT_END
  0
LINE
  5
188
330
A
100
AcDbEntity
  8
TEMPLATE
390
1D
100
AcDbLine
 10
634.601072273995
 20
48.57333675321413
 30
0.0
 11
634.601072273995
 21
176.0733367532141
 31
0.0
  0
MTEXT
  5
189
330
A
100
AcDbEntity
  8
TEMPLATE
390
1D
100
AcDbMText
 10
66.10107227386537
 20
157.5746453469641
 30
0.0
 40
12.21630859375
 41
0.0
 46
13.76777978515625
 71
     1
 72
     1
  1
{手洗器　-CLOU, New Flush-}
  7
ＭＳ ゴシック
 73
     1
 44
0.7828267384257843
1001
ACAD
1000
ACAD_MTEXT_DEFINED_HEIGHT_BEGIN
1070
    46
1040
13.76777978515625
1000
ACAD_MTEXT_DEFINED_HEIGHT_END
  0
INSERT
  5
6B5
330
A
100
AcDbEntity
  8
TEMPLATE
100
AcDbBlockReference
  2
名称未設定-1
 10
935.3753740442249
 20
12.97338287832691
 30
0.0
 41
0.3809999999999999
 42
0.3809999999999999
 43
0.3809999999999999
  0
MTEXT
  5
7D9
330
A
100
AcDbEntity
  8
TEMPLATE
 62
     1
390
1D
100
AcDbMText
 10
62.62717263801819
 20
113.4059880146976
 30
0.0
 40
12.21630859375
 41
0.0
 46
51.60425878906249
 71
     1
 72
     1
  1
{{\C256;壁掛け、カウンター置き/オーバーフローなし/排水目皿(水溜め不可)、\P壁取付ボルト付属/\P陶器/ホワイト}}
  7
ＭＳ ゴシック
 73
     1
 44
0.8840641112754306
1001
ACAD
1000
ACAD_MTEXT_DEFINED_HEIGHT_BEGIN
1070
    46
1040
51.60425878906249
1000
ACAD_MTEXT_DEFINED_HEIGHT_END
  0
INSERT
  5
68C
330
A
100
AcDbEntity
  8
TEMPLATE
100
AcDbBlockReference
  2
block 2
 10
919.2743017702577
 20
8.373076514336368
 30
0.0
 41
0.3809999999999999
 42
0.3809999999999999
 43
0.3809999999999999
  0
LWPOLYLINE
  5
D69
330
A
100
AcDbEntity
  8
BORDER
100
AcDbPolyline
 90
        4
 70
     1
 43
0.0
 10
0.0
 20
0.0
 10
0.0
 20
1485.0
 10
1050.0
 20
1485.0
 10
1050.0
 20
0.0
  0
INSERT
  5
104A
330
A
100
AcDbEntity
  8
TEMPLATE
100
AcDbBlockReference
  2
block 2
 10
2109.991575822736
 20
17.8112689341617
 30
0.0
 41
0.3809999999999999
 42
0.3809999999999999
 43
0.3809999999999999
  0
LINE
  5
14C7
330
A
100
AcDbEntity
  8
MODEL
 48
2.0
100
AcDbLine
 10
157.1954450426713
 20
505.4722792868901
 30
0.0
 11
417.1954450426713
 21
505.4722792868901
 31
0.0
  0
LINE
  5
14C8
330
A
100
AcDbEntity
  8
MODEL
 48
2.0
100
AcDbLine
 10
157.1954450426713
 20
405.4722792868901
 30
0.0
 11
417.1954450426713
 21
405.4722792868901
 31
0.0
  0
LINE
  5
14C9
330
A
100
AcDbEntity
  8
MODEL
 48
2.0
100
AcDbLine
 10
147.1954450426713
 20
505.4722792868901
 30
0.0
 11
147.1954450426713
 21
405.4722792868901
 31
0.0
  0
LINE
  5
14CA
330
A
100
AcDbEntity
  8
MODEL
 48
2.0
100
AcDbLine
 10
147.1954450426713
 20
505.4722792868901
 30
0.0
 11
157.1954450426713
 21
505.4722792868901
 31
0.0
  0
LINE
  5
14CB
330
A
100
AcDbEntity
  8
MODEL
 48
2.0
100
AcDbLine
 10
147.1954450426713
 20
405.4722792868901
 30
0.0
 11
157.1954450426713
 21
405.4722792868901
 31
0.0
  0
LINE
  5
14CC
102
{ACAD_REACTORS
330
183F
102
}
330
A
100
AcDbEntity
  8
MODEL
 48
2.0
100
AcDbLine
 10
427.1954450426713
 20
505.4722792868901
 30
0.0
 11
427.1954450426713
 21
405.4722792868901
 31
0.0
  0
LINE
  5
14CD
330
A
100
AcDbEntity
  8
MODEL
 48
2.0
100
AcDbLine
 10
417.1954450426713
 20
505.4722792868901
 30
0.0
 11
427.1954450426713
 21
505.4722792868901
 31
0.0
  0
LINE
  5
14CE
330
A
100
AcDbEntity
  8
MODEL
 48
2.0
100
AcDbLine
 10
417.1954450426713
 20
405.4722792868901
 30
0.0
 11
427.1954450426713
 21
405.4722792868901
 31
0.0
  0
LINE
  5
14CF
102
{ACAD_REACTORS
330
1543
102
}
330
A
100
AcDbEntity
  8
MODEL
100
AcDbLine
 10
420.1954450426742
 20
930.5633613644168
 30
0.0
 11
420.1954450426742
 21
1093.563361365119
 31
0.0
  0
ARC
  5
14D0
330
A
100
AcDbEntity
  8
MODEL
100
AcDbCircle
 10
415.1954450426742
 20
930.563361366625
 30
0.0
 40
5.000000000000071
100
AcDbArc
 50
270.0000000144658
 51
359.9999999746953
  0
LINE
  5
14D1
102
{ACAD_REACTORS
330
1534
102
}
330
A
100
AcDbEntity
  8
MODEL
100
AcDbLine
 10
159.1954450424341
 20
925.563361366625
 30
0.0
 11
415.1954450439373
 21
925.563361366625
 31
0.0
  0
ARC
  5
14D2
102
{ACAD_REACTORS
330
1543
102
}
330
A
100
AcDbEntity
  8
MODEL
100
AcDbCircle
 10
159.1954450426672
 20
930.563361366625
 30
0.0
 40
5.000000000000018
100
AcDbArc
 50
180.00000000494
 51
269.9999999973319
  0
LINE
  5
14D3
330
A
100
AcDbEntity
  8
MODEL
100
AcDbLine
 10
154.1954450426672
 20
1093.563361366313
 30
0.0
 11
154.1954450426672
 21
930.5633613661939
 31
0.0
  0
ARC
  5
14D4
102
{ACAD_REACTORS
330
1534
102
}
330
A
100
AcDbEntity
  8
MODEL
100
AcDbCircle
 10
159.1954450426672
 20
1093.563361366625
 30
0.0
 40
5.000000000000018
100
AcDbArc
 50
90.0
 51
180.0000000035748
  0
LINE
  5
14D5
102
{ACAD_REACTORS
330
1525
102
}
330
A
100
AcDbEntity
  8
MODEL
100
AcDbLine
 10
415.1954450426742
 20
1098.563361366625
 30
0.0
 11
159.1954450426672
 21
1098.563361366625
 31
0.0
  0
ARC
  5
14D6
330
A
100
AcDbEntity
  8
MODEL
100
AcDbCircle
 10
415.1954450426742
 20
1093.563361366625
 30
0.0
 40
5.0
100
AcDbArc
 50
359.9999999827411
 51
90.0
  0
ARC
  5
14D7
330
A
100
AcDbEntity
  8
HIDDEN
  6
Continuous
100
AcDbCircle
 10
168.9903056704313
 20
1083.817628112936
 30
0.0
 40
3.000000000000043
100
AcDbArc
 50
90.0
 51
180.0
  0
LINE
  5
14D8
330
A
100
AcDbEntity
  8
HIDDEN
  6
Continuous
100
AcDbLine
 10
165.9903056704313
 20
1083.817628112936
 30
0.0
 11
165.9903056704313
 21
940.362919920105
 31
0.0
  0
ARC
  5
14D9
330
A
100
AcDbEntity
  8
HIDDEN
  6
Continuous
100
AcDbCircle
 10
168.9903056704313
 20
940.362919920105
 30
0.0
 40
2.999999999999989
100
AcDbArc
 50
180.0
 51
270.0
  0
LINE
  5
14DA
330
A
100
AcDbEntity
  8
HIDDEN
  6
Continuous
100
AcDbLine
 10
168.9903056704313
 20
937.362919920105
 30
0.0
 11
405.4005844149103
 21
937.362919920105
 31
0.0
  0
ARC
  5
14DB
330
A
100
AcDbEntity
  8
HIDDEN
  6
Continuous
100
AcDbCircle
 10
405.4005844149103
 20
940.362919920105
 30
0.0
 40
3.000000000000007
100
AcDbArc
 50
270.0
 51
0.0
  0
LINE
  5
14DC
330
A
100
AcDbEntity
  8
HIDDEN
  6
Continuous
100
AcDbLine
 10
408.4005844149103
 20
940.362919920105
 30
0.0
 11
408.4005844149103
 21
1083.817628112936
 31
0.0
  0
ARC
  5
14DD
330
A
100
AcDbEntity
  8
HIDDEN
  6
Continuous
100
AcDbCircle
 10
405.4005844149103
 20
1083.817628112936
 30
0.0
 40
3.000000000000043
100
AcDbArc
 50
0.0
 51
90.0
  0
LINE
  5
14DE
330
A
100
AcDbEntity
  8
HIDDEN
  6
Continuous
100
AcDbLine
 10
405.4005844149103
 20
1086.817628112936
 30
0.0
 11
168.9903056704313
 21
1086.817628112936
 31
0.0
  0
LINE
  5
14DF
330
A
100
AcDbEntity
  8
MODEL
100
AcDbLine
 10
157.1954450426713
 20
918.563361366625
 30
0.0
 11
417.1954450426713
 21
918.563361366625
 31
0.0
  0
ARC
  5
14E0
330
A
100
AcDbEntity
  8
MODEL
100
AcDbCircle
 10
157.1954450426713
 20
928.563361366625
 30
0.0
 40
10.00000000000005
100
AcDbArc
 50
180.0
 51
270.0
  0
LINE
  5
14E1
102
{ACAD_REACTORS
330
160F
102
}
330
A
100
AcDbEntity
  8
MODEL
100
AcDbLine
 10
147.1954450426713
 20
1168.563361366625
 30
0.0
 11
147.1954450426713
 21
928.563361366625
 31
0.0
  0
ARC
  5
14E2
330
A
100
AcDbEntity
  8
MODEL
100
AcDbCircle
 10
157.1954450426713
 20
1168.563361366625
 30
0.0
 40
9.999999999999982
100
AcDbArc
 50
90.0
 51
180.0
  0
LINE
  5
14E3
330
A
100
AcDbEntity
  8
MODEL
100
AcDbLine
 10
417.1954450426713
 20
1178.563361366625
 30
0.0
 11
157.1954450426713
 21
1178.563361366625
 31
0.0
  0
ARC
  5
14E4
102
{ACAD_REACTORS
330
160F
102
}
330
A
100
AcDbEntity
  8
MODEL
100
AcDbCircle
 10
417.1954450426713
 20
1168.563361366625
 30
0.0
 40
10.0
100
AcDbArc
 50
0.0
 51
90.0
  0
LINE
  5
14E5
330
A
100
AcDbEntity
  8
MODEL
100
AcDbLine
 10
427.1954450426713
 20
928.563361366625
 30
0.0
 11
427.1954450426713
 21
1168.563361366625
 31
0.0
  0
ARC
  5
14E6
330
A
100
AcDbEntity
  8
MODEL
100
AcDbCircle
 10
417.1954450426713
 20
928.563361366625
 30
0.0
 40
10.00000000000002
100
AcDbArc
 50
270.0
 51
0.0
  0
CIRCLE
  5
14E7
330
A
100
AcDbEntity
  8
HIDDEN
  6
HIDDEN
 48
2.0
100
AcDbCircle
 10
287.1954450426713
 20
1138.563361366625
 30
0.0
 40
17.49999999999996
  0
LINE
  5
14E8
330
A
100
AcDbEntity
  8
MODEL
100
AcDbLine
 10
162.1954450426713
 20
1188.563361366625
 30
0.0
 11
162.1954450426713
 21
1178.563361366625
 31
0.0
  0
LINE
  5
14E9
102
{ACAD_REACTORS
330
1516
102
}
330
A
100
AcDbEntity
  8
MODEL
100
AcDbLine
 10
162.1954450426713
 20
1188.563361366625
 30
0.0
 11
412.1954450426713
 21
1188.563361366625
 31
0.0
  0
LINE
  5
14EA
330
A
100
AcDbEntity
  8
MODEL
100
AcDbLine
 10
412.1954450426713
 20
1188.563361366625
 30
0.0
 11
412.1954450426713
 21
1178.563361366625
 31
0.0
  0
ARC
  5
14EB
330
A
100
AcDbEntity
  8
MODEL
100
AcDbCircle
 10
269.1954450426672
 20
1058.563361366625
 30
0.0
 40
8.000000000000007
100
AcDbArc
 50
90.0
 51
269.9999999992183
  0
LINE
  5
14EC
330
A
100
AcDbEntity
  8
MODEL
100
AcDbLine
 10
269.1954450425583
 20
1050.563361366625
 30
0.0
 11
305.1954450429762
 21
1050.563361366625
 31
0.0
  0
ARC
  5
14ED
330
A
100
AcDbEntity
  8
MODEL
100
AcDbCircle
 10
305.1954450426742
 20
1058.563361366625
 30
0.0
 40
8.000000000000007
100
AcDbArc
 50
270.0000000021626
 51
90.0
  0
LINE
  5
14EE
330
A
100
AcDbEntity
  8
MODEL
100
AcDbLine
 10
305.1954450426742
 20
1066.563361366625
 30
0.0
 11
269.1954450426672
 21
1066.563361366625
 31
0.0
  0
LINE
  5
14F8
330
A
100
AcDbEntity
  8
MODEL
100
AcDbLine
 10
889.8455790181633
 20
505.4722792868901
 30
0.0
 11
649.8455790181633
 21
505.4722792868901
 31
0.0
  0
LINE
  5
14F9
330
A
100
AcDbEntity
  8
MODEL
100
AcDbLine
 10
889.8455790181633
 20
405.4722792868901
 30
0.0
 11
649.8455790181633
 21
405.4722792868901
 31
0.0
  0
LINE
  5
14FA
330
A
100
AcDbEntity
  8
MODEL
100
AcDbLine
 10
899.8455790181633
 20
505.4722792868901
 30
0.0
 11
899.8455790181633
 21
405.4722792868901
 31
0.0
  0
LINE
  5
14FB
330
A
100
AcDbEntity
  8
MODEL
100
AcDbLine
 10
899.8455790181633
 20
505.4722792868901
 30
0.0
 11
889.8455790181633
 21
505.4722792868901
 31
0.0
  0
LINE
  5
14FC
330
A
100
AcDbEntity
  8
MODEL
100
AcDbLine
 10
899.8455790181633
 20
405.4722792868901
 30
0.0
 11
889.8455790181633
 21
405.4722792868901
 31
0.0
  0
LINE
  5
14FD
330
A
100
AcDbEntity
  8
MODEL
100
AcDbLine
 10
639.8455790181633
 20
505.4722792868901
 30
0.0
 11
639.8455790181633
 21
405.4722792868901
 31
0.0
  0
LINE
  5
14FE
330
A
100
AcDbEntity
  8
MODEL
100
AcDbLine
 10
649.8455790181633
 20
505.4722792868901
 30
0.0
 11
639.8455790181633
 21
505.4722792868901
 31
0.0
  0
LINE
  5
14FF
330
A
100
AcDbEntity
  8
MODEL
100
AcDbLine
 10
649.8455790181633
 20
405.4722792868901
 30
0.0
 11
639.8455790181633
 21
405.4722792868901
 31
0.0
  0
LINE
  5
1500
330
A
100
AcDbEntity
  8
MODEL
100
AcDbLine
 10
909.8455790181633
 20
405.4722792868901
 30
0.0
 11
909.8455790181633
 21
490.4722792868901
 31
0.0
  0
LINE
  5
1501
330
A
100
AcDbEntity
  8
MODEL
100
AcDbLine
 10
909.8455790181633
 20
490.4722792868901
 30
0.0
 11
899.8455790181633
 21
490.4722792868901
 31
0.0
  0
LINE
  5
1502
330
A
100
AcDbEntity
  8
MODEL
100
AcDbLine
 10
909.8455790181633
 20
405.4722792868901
 30
0.0
 11
899.8455790181633
 21
405.4722792868901
 31
0.0
  0
DIMENSION
  5
1514
102
{ACAD_REACTORS
330
1516
102
}
102
{ACAD_XDICTIONARY
360
1515
102
}
330
A
100
AcDbEntity
  8
DIM
 48
0.05
100
AcDbDimension
  2
*D48
 10
481.9777213805528
 20
1188.563361366625
 30
0.0
 11
481.9777213805528
 21
1053.563361366625
 31
0.0
 70
   160
 71
     5
 42
270.0
 73
     0
 74
     0
 75
     0
  3
tfrom線あり
100
AcDbAlignedDimension
 13
417.1954450426713
 23
918.563361366625
 33
0.0
 14
412.1954450426713
 24
1188.563361366625
 34
0.0
 50
90.0
100
AcDbRotatedDimension
  0
DIMENSION
  5
1523
102
{ACAD_REACTORS
330
1525
102
}
102
{ACAD_XDICTIONARY
360
1524
102
}
330
A
100
AcDbEntity
  8
DIM
 48
0.05
100
AcDbDimension
  2
*D49
 10
112.6243742297393
 20
1098.563361366625
 30
0.0
 11
96.6243742297393
 21
1143.563361366625
 31
0.0
 70
    32
 71
     5
 42
90.0
 73
     0
 74
     0
 75
     0
  3
tfrom線あり
100
AcDbAlignedDimension
 13
162.1954450426713
 23
1188.563361366625
 33
0.0
 14
165.2447292742543
 24
1098.563361366625
 34
0.0
 50
90.0
100
AcDbRotatedDimension
  0
DIMENSION
  5
1532
102
{ACAD_REACTORS
330
1534
102
}
102
{ACAD_XDICTIONARY
360
1533
102
}
330
A
100
AcDbEntity
  8
DIM
 48
0.05
100
AcDbDimension
  2
*D50
 10
112.6243742297393
 20
925.563361366625
 30
0.0
 11
96.62437422973932
 21
1012.063361366625
 31
0.0
 70
    32
 71
     5
 42
173.0
 73
     0
 74
     0
 75
     0
  3
tfrom線あり
100
AcDbAlignedDimension
 13
159.1954450426672
 23
1098.563361366625
 33
0.0
 14
163.2958272355693
 24
925.563361366625
 34
0.0
 50
90.0
100
AcDbRotatedDimension
  0
DIMENSION
  5
1541
102
{ACAD_REACTORS
330
1543
102
}
102
{ACAD_XDICTIONARY
360
1542
102
}
330
A
100
AcDbEntity
  8
DIM
 48
0.05
100
AcDbDimension
  2
*D51
 10
420.1954450426742
 20
871.7165037601796
 30
0.0
 11
287.1954450426707
 21
887.7165037601796
 31
0.0
 70
    32
 71
     5
 42
266.000000000007
 73
     0
 74
     0
 75
     0
  3
tfrom線あり
100
AcDbAlignedDimension
 13
154.1954450426672
 23
930.5633613661939
 33
0.0
 14
420.1954450426742
 24
930.5633613644168
 34
0.0
100
AcDbRotatedDimension
  0
MTEXT
  5
1558
330
A
100
AcDbEntity
  8
MODEL
390
1D
100
AcDbMText
 10
594.2655128788142
 20
807.6294120912114
 30
0.0
 40
12.0
 41
949.7161250932047
 46
52.63573827890803
 71
     1
 72
     1
  1
{\C7;※陶器製品には寸法公差がありますので、\P　必ず現物合わせでカウンターに切込を\P　行ってください。}
  7
ＭＳ ゴシック
 73
     1
 44
0.9822934569727008
1001
ACAD
1000
ACAD_MTEXT_DEFINED_HEIGHT_BEGIN
1070
    46
1040
52.63573827890803
1000
ACAD_MTEXT_DEFINED_HEIGHT_END
  0
MTEXT
  5
1559
330
A
100
AcDbEntity
  8
MODEL
390
1D
100
AcDbMText
 10
116.9154699963212
 20
805.7471214387315
 30
0.0
 40
12.0
 41
829.0626663944752
 46
29.52329017633032
 71
     1
 72
     1
  1
{\C7;＝φ30もしくはφ35の水栓取付用穴あけ加工を承ります。\P  必要な場合、ご注文の際にご指示ください。}
  7
ＭＳ ゴシック
 73
     1
 44
0.9822934569727008
1001
ACAD
1000
ACAD_MTEXT_DEFINED_HEIGHT_BEGIN
1070
    46
1040
29.52329017633032
1000
ACAD_MTEXT_DEFINED_HEIGHT_END
  0
CIRCLE
  5
155A
330
A
100
AcDbEntity
  8
MODEL
  6
HIDDEN
390
1D
100
AcDbCircle
 10
104.3398947102212
 20
798.3056482797194
 30
0.0
 40
7.480904845869645
  0
LINE
  5
155B
330
A
100
AcDbEntity
  8
HIDDEN
 48
2.0
100
AcDbLine
 10
884.1064527864753
 20
930.5633613644168
 30
0.0
 11
884.1064527864753
 21
1093.563361365119
 31
0.0
  0
ARC
  5
155C
330
A
100
AcDbEntity
  8
HIDDEN
 48
2.0
100
AcDbCircle
 10
879.1064527864753
 20
930.563361366625
 30
0.0
 40
5.000000000000071
100
AcDbArc
 50
270.0000000144658
 51
359.9999999746953
  0
LINE
  5
155D
330
A
100
AcDbEntity
  8
HIDDEN
 48
2.0
100
AcDbLine
 10
623.1064527862352
 20
925.563361366625
 30
0.0
 11
879.1064527877372
 21
925.563361366625
 31
0.0
  0
ARC
  5
155E
330
A
100
AcDbEntity
  8
HIDDEN
 48
2.0
100
AcDbCircle
 10
623.1064527864683
 20
930.563361366625
 30
0.0
 40
5.000000000000018
100
AcDbArc
 50
180.00000000494
 51
269.9999999973319
  0
LINE
  5
155F
330
A
100
AcDbEntity
  8
HIDDEN
 48
2.0
100
AcDbLine
 10
618.1064527864683
 20
1093.563361366313
 30
0.0
 11
618.1064527864683
 21
930.5633613661939
 31
0.0
  0
ARC
  5
1560
330
A
100
AcDbEntity
  8
HIDDEN
 48
2.0
100
AcDbCircle
 10
623.1064527864683
 20
1093.563361366625
 30
0.0
 40
5.000000000000018
100
AcDbArc
 50
90.0
 51
180.0000000035748
  0
LINE
  5
1561
330
A
100
AcDbEntity
  8
HIDDEN
 48
2.0
100
AcDbLine
 10
879.1064527864753
 20
1098.563361366625
 30
0.0
 11
623.1064527864683
 21
1098.563361366625
 31
0.0
  0
ARC
  5
1562
330
A
100
AcDbEntity
  8
HIDDEN
 48
2.0
100
AcDbCircle
 10
879.1064527864753
 20
1093.563361366625
 30
0.0
 40
5.0
100
AcDbArc
 50
359.9999999827411
 51
90.0
  0
ARC
  5
1563
330
A
100
AcDbEntity
  8
HIDDEN
 48
2.0
100
AcDbCircle
 10
632.9013134142322
 20
1083.817628112936
 30
0.0
 40
3.000000000000043
100
AcDbArc
 50
90.0
 51
180.0
  0
LINE
  5
1564
330
A
100
AcDbEntity
  8
HIDDEN
 48
2.0
100
AcDbLine
 10
629.9013134142322
 20
1083.817628112936
 30
0.0
 11
629.9013134142322
 21
940.362919920105
 31
0.0
  0
ARC
  5
1565
330
A
100
AcDbEntity
  8
HIDDEN
 48
2.0
100
AcDbCircle
 10
632.9013134142322
 20
940.362919920105
 30
0.0
 40
2.999999999999989
100
AcDbArc
 50
180.0
 51
270.0
  0
LINE
  5
1566
330
A
100
AcDbEntity
  8
HIDDEN
 48
2.0
100
AcDbLine
 10
632.9013134142322
 20
937.362919920105
 30
0.0
 11
869.3115921587112
 21
937.362919920105
 31
0.0
  0
ARC
  5
1567
330
A
100
AcDbEntity
  8
HIDDEN
 48
2.0
100
AcDbCircle
 10
869.3115921587112
 20
940.362919920105
 30
0.0
 40
3.000000000000007
100
AcDbArc
 50
270.0
 51
0.0
  0
LINE
  5
1568
330
A
100
AcDbEntity
  8
HIDDEN
 48
2.0
100
AcDbLine
 10
872.3115921587112
 20
940.362919920105
 30
0.0
 11
872.3115921587112
 21
1083.817628112936
 31
0.0
  0
ARC
  5
1569
330
A
100
AcDbEntity
  8
HIDDEN
 48
2.0
100
AcDbCircle
 10
869.3115921587112
 20
1083.817628112936
 30
0.0
 40
3.000000000000043
100
AcDbArc
 50
0.0
 51
90.0
  0
LINE
  5
156A
330
A
100
AcDbEntity
  8
HIDDEN
 48
2.0
100
AcDbLine
 10
869.3115921587112
 20
1086.817628112936
 30
0.0
 11
632.9013134142322
 21
1086.817628112936
 31
0.0
  0
LINE
  5
156B
330
A
100
AcDbEntity
  8
HIDDEN
 48
2.0
100
AcDbLine
 10
621.1064527864712
 20
918.563361366625
 30
0.0
 11
881.1064527864712
 21
918.563361366625
 31
0.0
  0
ARC
  5
156C
330
A
100
AcDbEntity
  8
HIDDEN
 48
2.0
100
AcDbCircle
 10
621.1064527864712
 20
928.563361366625
 30
0.0
 40
10.00000000000005
100
AcDbArc
 50
180.0
 51
270.0
  0
LINE
  5
156D
330
A
100
AcDbEntity
  8
HIDDEN
 48
2.0
100
AcDbLine
 10
611.1064527864712
 20
1168.563361366625
 30
0.0
 11
611.1064527864712
 21
928.563361366625
 31
0.0
  0
ARC
  5
156E
330
A
100
AcDbEntity
  8
HIDDEN
 48
2.0
100
AcDbCircle
 10
621.1064527864712
 20
1168.563361366625
 30
0.0
 40
9.999999999999982
100
AcDbArc
 50
90.0
 51
180.0
  0
LINE
  5
156F
330
A
100
AcDbEntity
  8
HIDDEN
 48
2.0
100
AcDbLine
 10
881.1064527864712
 20
1178.563361366625
 30
0.0
 11
621.1064527864712
 21
1178.563361366625
 31
0.0
  0
ARC
  5
1570
330
A
100
AcDbEntity
  8
HIDDEN
 48
2.0
100
AcDbCircle
 10
881.1064527864712
 20
1168.563361366625
 30
0.0
 40
10.0
100
AcDbArc
 50
0.0
 51
90.0
  0
LINE
  5
1571
330
A
100
AcDbEntity
  8
HIDDEN
 48
2.0
100
AcDbLine
 10
891.1064527864712
 20
928.563361366625
 30
0.0
 11
891.1064527864712
 21
1168.563361366625
 31
0.0
  0
ARC
  5
1572
330
A
100
AcDbEntity
  8
HIDDEN
 48
2.0
100
AcDbCircle
 10
881.1064527864712
 20
928.563361366625
 30
0.0
 40
10.00000000000002
100
AcDbArc
 50
270.0
 51
0.0
  0
CIRCLE
  5
1573
330
A
100
AcDbEntity
  8
HIDDEN
 48
2.0
100
AcDbCircle
 10
751.1064527864712
 20
1138.563361366625
 30
0.0
 40
17.49999999999996
  0
LINE
  5
1574
330
A
100
AcDbEntity
  8
HIDDEN
 48
2.0
100
AcDbLine
 10
626.1064527864712
 20
1188.563361366625
 30
0.0
 11
626.1064527864712
 21
1178.563361366625
 31
0.0
  0
LINE
  5
1575
330
A
100
AcDbEntity
  8
HIDDEN
 48
2.0
100
AcDbLine
 10
626.1064527864712
 20
1188.563361366625
 30
0.0
 11
876.1064527864712
 21
1188.563361366625
 31
0.0
  0
LINE
  5
1576
330
A
100
AcDbEntity
  8
HIDDEN
 48
2.0
100
AcDbLine
 10
876.1064527864712
 20
1188.563361366625
 30
0.0
 11
876.1064527864712
 21
1178.563361366625
 31
0.0
  0
CIRCLE
  5
15CF
330
A
100
AcDbEntity
  8
HIDDEN
 48
2.0
370
     0
100
AcDbCircle
 10
287.1954450427193
 20
1058.563361366625
 30
0.0
 40
26.5
  0
CIRCLE
  5
15D0
330
A
100
AcDbEntity
  8
HIDDEN
 48
2.0
100
AcDbCircle
 10
751.1064527865192
 20
1058.563361366625
 30
0.0
 40
26.5
  0
DIMENSION
  5
15DB
102
{ACAD_REACTORS
330
15DD
102
}
102
{ACAD_XDICTIONARY
360
15DC
102
}
330
A
100
AcDbEntity
  8
DIM
  6
Continuous
100
AcDbDimension
  2
*D57
 10
929.5146145496133
 20
1163.563361366625
 30
0.0
 11
929.5146145496133
 21
1081.063361366625
 31
0.0
 70
   160
 71
     5
 42
164.9999999999999
 73
     0
 74
     0
 75
     0
  3
tfrom線あり
100
AcDbAlignedDimension
 13
801.1064527864712
 23
998.5633613666251
 33
0.0
 14
801.1064527864712
 24
1163.563361366625
 34
0.0
 50
90.0
100
AcDbRotatedDimension
1001
ACAD
1000
DSTYLE
1002
{
1070
   172
1070
     1
1002
}
  0
DIMENSION
  5
15DE
102
{ACAD_REACTORS
330
15E0
102
}
102
{ACAD_XDICTIONARY
360
15DF
102
}
330
A
100
AcDbEntity
  8
DIM
  6
Continuous
100
AcDbDimension
  2
*D58
 10
929.5146145496133
 20
1188.563361366625
 30
0.0
 11
929.5146145496133
 21
1176.063361366625
 31
0.0
 70
   160
 71
     5
 42
25.0
 73
     0
 74
     0
 75
     0
  3
tfrom線あり
100
AcDbAlignedDimension
 13
801.1064527864712
 23
1163.563361366625
 33
0.0
 14
876.1064527864712
 24
1188.563361366625
 34
0.0
 50
90.0
100
AcDbRotatedDimension
1001
ACAD
1000
DSTYLE
1002
{
1070
   172
1070
     1
1002
}
  0
DIMENSION
  5
15E1
102
{ACAD_REACTORS
330
15E3
102
}
102
{ACAD_XDICTIONARY
360
15E2
102
}
330
A
100
AcDbEntity
  8
DIM
  6
Continuous
100
AcDbDimension
  2
*D59
 10
801.1064527864712
 20
874.2404413502586
 30
0.0
 11
751.1064527864712
 21
874.2404413502586
 31
0.0
 70
   160
 71
     5
 42
100.0
 73
     0
 74
     0
 75
     0
  3
tfrom線あり
100
AcDbAlignedDimension
 13
701.1064527864712
 23
998.5633613666251
 33
0.0
 14
801.1064527864712
 24
998.5633613666251
 34
0.0
100
AcDbRotatedDimension
  0
LINE
  5
15E4
102
{ACAD_REACTORS
330
15DD
330
15E3
330
15E7
330
15E0
102
}
330
A
100
AcDbEntity
  8
MODEL
  6
Continuous
100
AcDbLine
 10
801.1064527864712
 20
998.5633613666251
 30
0.0
 11
801.1064527864712
 21
1163.563361366625
 31
0.0
  0
LINE
  5
15E5
102
{ACAD_REACTORS
330
15E7
102
}
330
A
100
AcDbEntity
  8
MODEL
  6
Continuous
100
AcDbLine
 10
801.1064527864712
 20
1163.563361366625
 30
0.0
 11
701.1064527864712
 21
1163.563361366625
 31
0.0
  0
LINE
  5
15E6
102
{ACAD_REACTORS
330
15E3
330
15E7
102
}
330
A
100
AcDbEntity
  8
MODEL
  6
Continuous
100
AcDbLine
 10
701.1064527864712
 20
1163.563361366625
 30
0.0
 11
701.1064527864712
 21
998.5633613666251
 31
0.0
  0
HATCH
  5
15E7
330
A
100
AcDbEntity
  8
MODEL
  6
Continuous
100
AcDbHatch
 10
0.0
 20
0.0
 30
0.0
210
0.0
220
0.0
230
1.0
  2
ANSI31
 70
     0
 71
     1
 91
        1
 92
        1
 93
        4
 72
     1
 10
801.1064527864712
 20
998.5633613666251
 11
801.1064527864712
 21
1163.563361366625
 72
     1
 10
701.1064527864712
 20
998.5633613666251
 11
801.1064527864712
 21
998.5633613666251
 72
     1
 10
701.1064527864712
 20
1163.563361366625
 11
701.1064527864712
 21
998.5633613666251
 72
     1
 10
801.1064527864712
 20
1163.563361366625
 11
701.1064527864712
 21
1163.563361366625
 97
        4
330
15E4
330
15E8
330
15E6
330
15E5
 75
     0
 76
     1
 52
0.0
 41
3.0
 77
     0
 78
     1
 53
45.0
 43
-656.1384550507266
 44
-960.8320332732142
 45
-6.735192090801863
 46
6.735192090801865
 79
     0
 98
        1
 10
-656.1384550507266
 20
-960.8320332732142
1001
ACAD
1010
0.0
1020
0.0
1030
0.0
  0
LINE
  5
15E8
102
{ACAD_REACTORS
330
15E7
102
}
330
A
100
AcDbEntity
  8
MODEL
  6
Continuous
100
AcDbLine
 10
701.1064527864712
 20
998.5633613666251
 30
0.0
 11
801.1064527864712
 21
998.5633613666251
 31
0.0
  0
DIMENSION
  5
160D
102
{ACAD_REACTORS
330
160F
102
}
102
{ACAD_XDICTIONARY
360
160E
102
}
330
A
100
AcDbEntity
  8
DIM
 48
0.05
100
AcDbDimension
  2
*D60
 10
427.1954450426713
 20
1222.428859356879
 30
0.0
 11
287.1954450426713
 21
1222.428859356879
 31
0.0
 70
   160
 71
     5
 42
280.0
 73
     0
 74
     0
 75
     0
  3
tfrom線あり
100
AcDbAlignedDimension
 13
147.1954450426713
 23
1168.563361366625
 33
0.0
 14
427.1954450426713
 24
1168.563361366625
 34
0.0
100
AcDbRotatedDimension
  0
LINE
  5
1659
330
A
100
AcDbEntity
  8
HIDDEN
  6
HIDDEN
 48
2.0
100
AcDbLine
 10
246.2007807861603
 20
421.4694311054168
 30
0.0
 11
165.5101466762433
 21
426.3811523726588
 31
0.0
  0
LINE
  5
165A
330
A
100
AcDbEntity
  8
HIDDEN
  6
HIDDEN
 48
2.0
100
AcDbLine
 10
260.6333722491013
 20
419.6104142004483
 30
0.0
 11
260.6620962221867
 21
413.0680405872797
 31
0.0
  0
ARC
  5
165B
330
A
100
AcDbEntity
  8
HIDDEN
  6
HIDDEN
 48
2.0
100
AcDbCircle
 10
258.8093264803272
 20
419.6862707887292
 30
0.0
 40
1.825622411279926
100
AcDbArc
 50
357.6186127349878
 51
77.6183580648771
  0
LINE
  5
165C
330
A
100
AcDbEntity
  8
HIDDEN
  6
HIDDEN
 48
2.0
100
AcDbLine
 10
313.6333722491013
 20
419.6104142004483
 30
0.0
 11
313.6620962221876
 21
413.0680405872797
 31
0.0
  0
ARC
  5
165D
330
A
100
AcDbEntity
  8
HIDDEN
  6
HIDDEN
 48
2.0
100
AcDbCircle
 10
315.4574180178752
 20
419.6862707887292
 30
0.0
 40
1.825622411279926
100
AcDbArc
 50
102.3816419351229
 51
182.3813872650123
  0
LINE
  5
165E
330
A
100
AcDbEntity
  8
HIDDEN
  6
HIDDEN
 48
2.0
100
AcDbLine
 10
156.1911047983133
 20
503.6039688449361
 30
0.0
 11
160.3356818604063
 21
430.7959089675553
 31
0.0
  0
ARC
  5
165F
330
A
100
AcDbEntity
  8
HIDDEN
  6
HIDDEN
 48
2.0
100
AcDbCircle
 10
166.1312102251443
 20
432.3489224811858
 30
0.0
 40
6.00000000000009
100
AcDbArc
 50
195.0009811345097
 51
269.0850183082126
  0
ARC
  5
1660
330
A
100
AcDbEntity
  8
HIDDEN
  6
HIDDEN
 48
2.0
100
AcDbCircle
 10
154.1954450426672
 20
503.4722792868901
 30
0.0
 40
2.0
100
AcDbArc
 50
3.775359333299022
 51
90.0
  0
LINE
  5
1665
102
{ACAD_REACTORS
330
1A89
102
}
330
A
100
AcDbEntity
  8
HIDDEN
  6
HIDDEN
 48
2.0
100
AcDbLine
 10
258.0240940549774
 20
413.0680405872797
 30
0.0
 11
316.3667960303652
 21
413.0680405872797
 31
0.0
  0
DIMENSION
  5
1666
330
A
100
AcDbEntity
  8
DIM
  6
Continuous
100
AcDbDimension
  2
*D62
 10
594.1735703502043
 20
405.4722792868901
 30
0.0
 11
594.1735703502043
 21
455.4722792868901
 31
0.0
 70
   160
 71
     5
 42
100.0
 73
     0
 74
     0
 75
     0
  3
tfrom線あり
100
AcDbAlignedDimension
 13
639.2235776667274
 23
505.4722792868901
 33
0.0
 14
639.8455790181633
 24
405.4722792868901
 34
0.0
 50
90.0
100
AcDbRotatedDimension
  0
LINE
  5
166A
330
A
100
AcDbEntity
  8
DIM
 48
2.0
100
AcDbLine
 10
287.9555982245233
 20
615.2960987736592
 30
0.0
 11
377.0210057457773
 21
483.2597039869025
 31
0.0
  0
LINE
  5
1677
330
A
100
AcDbEntity
  8
DIM
 48
2.0
100
AcDbLine
 10
287.9555982245233
 20
615.2960987736592
 30
0.0
 11
196.9105377653373
 21
481.4415729190571
 31
0.0
  0
DIMENSION
  5
1678
330
A
100
AcDbEntity
  8
DIM
 48
2.0
100
AcDbDimension
  2
*D66
 10
514.6562166877172
 20
392.4722792868899
 30
0.0
 11
498.6562166877172
 21
448.97227928689
 31
0.0
 70
    32
 71
     5
 42
113.0000000000002
 73
     0
 74
     0
 75
     0
  3
tfrom線あり
100
AcDbAlignedDimension
 13
427.1954450426713
 23
505.4722792868901
 33
0.0
 14
308.1954450426713
 24
392.4722792868899
 34
0.0
 50
90.0
100
AcDbRotatedDimension
  0
DIMENSION
  5
167D
330
A
100
AcDbEntity
  8
DIM
 48
2.0
100
AcDbDimension
  2
*D67
 10
308.1954450426713
 20
360.1949745706606
 30
0.0
 11
287.1954450426713
 21
360.1949745706606
 31
0.0
 70
   160
  1
G1 1/4"
 71
     5
 42
42.0
 73
     0
 74
     0
 75
     0
  3
tfrom線あり
100
AcDbAlignedDimension
 13
266.1954450426713
 23
391.7105133612404
 33
0.0
 14
308.1954450426713
 24
391.7105133612404
 34
0.0
100
AcDbRotatedDimension
1001
ACAD
1000
DSTYLE
1002
{
1070
    77
1070
     2
1002
}
  0
LINE
  5
1686
330
A
100
AcDbEntity
  8
HIDDEN
  6
HIDDEN
 48
2.0
100
AcDbLine
 10
260.6954450426692
 20
426.2636167092694
 30
0.0
 11
313.6954450426692
 21
426.2636167092694
 31
0.0
  0
LINE
  5
1687
330
A
100
AcDbEntity
  8
HIDDEN
  6
HIDDEN
 48
2.0
100
AcDbLine
 10
313.6954450426692
 20
426.2636167092694
 30
0.0
 11
313.6954450426692
 21
424.1393434151463
 31
0.0
  0
LINE
  5
1688
330
A
100
AcDbEntity
  8
HIDDEN
  6
HIDDEN
 48
2.0
100
AcDbLine
 10
313.6954450426692
 20
424.1393434151463
 30
0.0
 11
260.6954450426692
 21
424.1393434151463
 31
0.0
  0
LINE
  5
1689
330
A
100
AcDbEntity
  8
HIDDEN
  6
HIDDEN
 48
2.0
100
AcDbLine
 10
278.4460166321533
 20
424.1393434151463
 30
0.0
 11
282.7727139208753
 21
418.6959558797144
 31
0.0
  0
LINE
  5
168A
330
A
100
AcDbEntity
  8
HIDDEN
  6
HIDDEN
 48
2.0
100
AcDbLine
 10
295.9448734531863
 20
424.1393434151463
 30
0.0
 11
291.6181761644643
 21
418.6959558797144
 31
0.0
  0
LINE
  5
168B
330
A
100
AcDbEntity
  8
HIDDEN
  6
HIDDEN
 48
2.0
100
AcDbLine
 10
282.7727139208753
 20
414.2880636821066
 30
0.0
 11
281.3160693763332
 21
416.4920097809105
 31
0.0
  0
LINE
  5
168C
330
A
100
AcDbEntity
  8
HIDDEN
  6
HIDDEN
 48
2.0
100
AcDbLine
 10
291.6181761644643
 20
414.2880636821066
 30
0.0
 11
293.0748207090062
 21
416.4920097809105
 31
0.0
  0
LINE
  5
168D
330
A
100
AcDbEntity
  8
HIDDEN
  6
HIDDEN
 48
2.0
100
AcDbLine
 10
282.7727139208753
 20
418.6959558797144
 30
0.0
 11
281.3160693763332
 21
416.4920097809105
 31
0.0
  0
LINE
  5
168E
330
A
100
AcDbEntity
  8
HIDDEN
  6
HIDDEN
 48
2.0
100
AcDbLine
 10
291.6181761644643
 20
418.6959558797144
 30
0.0
 11
293.0748207090062
 21
416.4920097809105
 31
0.0
  0
LINE
  5
168F
330
A
100
AcDbEntity
  8
HIDDEN
 48
2.0
100
AcDbLine
 10
289.1376377687252
 20
414.0856177592064
 30
0.0
 11
289.1376377687252
 21
405.4722792868899
 31
0.0
  0
LINE
  5
1690
330
A
100
AcDbEntity
  8
HIDDEN
 48
2.0
100
AcDbLine
 10
285.2532523166142
 20
414.0856177592064
 30
0.0
 11
285.2532523166142
 21
405.4722792868899
 31
0.0
  0
LINE
  5
1691
330
A
100
AcDbEntity
  8
HIDDEN
  6
HIDDEN
 48
2.0
100
AcDbLine
 10
260.6954450426692
 20
424.1393434151463
 30
0.0
 11
260.6954450426692
 21
426.2636167092694
 31
0.0
  0
LINE
  5
16E9
330
A
100
AcDbEntity
  8
HIDDEN
  6
HIDDEN
 48
2.0
100
AcDbLine
 10
418.1997852870281
 20
503.6039688449361
 30
0.0
 11
414.0552082249353
 21
430.7959089675553
 31
0.0
  0
ARC
  5
16EA
330
A
100
AcDbEntity
  8
HIDDEN
  6
HIDDEN
 48
2.0
100
AcDbCircle
 10
420.1954450426742
 20
503.4722792868901
 30
0.0
 40
2.0
100
AcDbArc
 50
90.0
 51
176.224640666701
  0
ARC
  5
16EB
330
A
100
AcDbEntity
  8
HIDDEN
  6
HIDDEN
 48
2.0
100
AcDbCircle
 10
408.2596798601971
 20
432.3489224811858
 30
0.0
 40
6.00000000000009
100
AcDbArc
 50
270.9149816917874
 51
344.9990188654903
  0
LINE
  5
16EC
330
A
100
AcDbEntity
  8
HIDDEN
  6
HIDDEN
 48
2.0
100
AcDbLine
 10
328.1901092991823
 20
421.4694311054168
 30
0.0
 11
408.8807434090982
 21
426.3811523726588
 31
0.0
  0
DIMENSION
  5
177C
330
A
100
AcDbEntity
  8
DIM
  6
Continuous
100
AcDbDimension
  2
*D72
 10
859.8455790181633
 20
536.1549370580801
 30
0.0
 11
884.8455790181633
 21
536.1549370580801
 31
0.0
 70
   160
 71
     5
 42
50.0
 73
     0
 74
     0
 75
     0
  3
tfrom線あり
100
AcDbAlignedDimension
 13
909.8455790181633
 23
490.7258221374285
 33
0.0
 14
859.8455790181633
 24
505.4722792868901
 34
0.0
100
AcDbRotatedDimension
  0
LINE
  5
177D
330
A
100
AcDbEntity
  8
MODEL
 48
0.05
100
AcDbLine
 10
874.8455790181633
 20
505.4722792868901
 30
0.0
 11
874.8455790181633
 21
497.3451968703901
 31
0.0
  0
LINE
  5
177E
330
A
100
AcDbEntity
  8
MODEL
 48
0.05
100
AcDbLine
 10
844.8455790181633
 20
505.4722792868901
 30
0.0
 11
844.8455790181633
 21
497.3451968703901
 31
0.0
  0
DIMENSION
  5
17A6
330
A
100
AcDbEntity
  8
DIM
 48
0.05
100
AcDbDimension
  2
*D74
 10
779.8455790181633
 20
335.9003114810004
 30
0.0
 11
844.8455790181633
 21
351.9003114810004
 31
0.0
 70
    32
 71
     5
 42
130.0
 73
     0
 74
     0
 75
     0
  3
tfrom線あり
100
AcDbAlignedDimension
 13
909.8455790181633
 23
405.4722792868901
 33
0.0
 14
779.8455790181633
 24
392.4722792868899
 34
0.0
100
AcDbRotatedDimension
  0
MTEXT
  5
17C4
330
A
100
AcDbEntity
  8
MODEL
390
1D
100
AcDbMText
 10
202.6377123242803
 20
637.5335130777598
 30
0.0
 40
12.0
 41
949.7161250932045
 46
26.808
 71
     1
 72
     1
  1
{\C7;壁取付ボルト位置(2ヶ所)}
  7
ＭＳ ゴシック
 73
     1
 44
0.9822934569727008
1001
ACAD
1000
ACAD_MTEXT_DEFINED_HEIGHT_BEGIN
1070
    46
1040
26.808
1000
ACAD_MTEXT_DEFINED_HEIGHT_END
  0
LINE
  5
17EB
330
A
100
AcDbEntity
  8
HIDDEN
  6
Continuous
 48
2.0
100
AcDbLine
 10
771.0955790181642
 20
426.2636167092696
 30
0.0
 11
771.0955790181642
 21
424.1393434151464
 31
0.0
  0
LINE
  5
17EC
330
A
100
AcDbEntity
  8
HIDDEN
  6
Continuous
 48
2.0
100
AcDbLine
 10
788.5955790181642
 20
426.2636167092696
 30
0.0
 11
788.5955790181642
 21
424.1393434151464
 31
0.0
  0
LINE
  5
17ED
330
A
100
AcDbEntity
  8
HIDDEN
  6
Continuous
 48
2.0
100
AcDbLine
 10
788.5955790181642
 20
426.2636167092696
 30
0.0
 11
771.0955790181642
 21
426.2636167092696
 31
0.0
  0
LINE
  5
17EE
330
A
100
AcDbEntity
  8
HIDDEN
  6
Continuous
 48
2.0
100
AcDbLine
 10
771.0955790181642
 20
424.1393434151464
 30
0.0
 11
788.5955790181642
 21
424.1393434151464
 31
0.0
  0
LINE
  5
17EF
330
A
100
AcDbEntity
  8
HIDDEN
  6
Continuous
 48
2.0
100
AcDbLine
 10
782.8133054865982
 20
424.1393434151464
 30
0.0
 11
782.8133054865982
 21
409.1709717192393
 31
0.0
  0
LINE
  5
17F0
330
A
100
AcDbEntity
  8
HIDDEN
  6
Continuous
 48
2.0
100
AcDbLine
 10
776.8778525497282
 20
424.1393434151464
 30
0.0
 11
776.8778525497282
 21
409.1709717192393
 31
0.0
  0
LINE
  5
17F1
330
A
100
AcDbEntity
  8
HIDDEN
  6
HIDDEN
 48
2.0
100
AcDbLine
 10
810.6395977596321
 20
425.4872273626144
 30
0.0
 11
819.8455790181633
 21
505.4722792868901
 31
0.0
  0
LINE
  5
17F2
330
A
100
AcDbEntity
  8
HIDDEN
  6
HIDDEN
 48
2.0
100
AcDbLine
 10
782.8133054865982
 20
414.8058113510182
 30
0.0
 11
783.8217127406863
 21
418.3624069450912
 31
0.0
  0
LINE
  5
17F3
330
A
100
AcDbEntity
  8
HIDDEN
  6
HIDDEN
 48
2.0
100
AcDbLine
 10
776.8778525497282
 20
414.8058113510182
 30
0.0
 11
775.8624160999043
 21
418.3871985225864
 31
0.0
  0
LINE
  5
17F4
330
A
100
AcDbEntity
  8
HIDDEN
  6
HIDDEN
 48
2.0
100
AcDbLine
 10
659.1999809939512
 20
425.4990985176455
 30
0.0
 11
773.1059885331522
 21
420.5660516601624
 31
0.0
  0
LINE
  5
17F5
330
A
100
AcDbEntity
  8
HIDDEN
  6
HIDDEN
 48
2.0
100
AcDbLine
 10
786.6118424442832
 20
420.5425299043213
 30
0.0
 11
805.8447433251451
 21
421.1589423319824
 31
0.0
  0
ARC
  5
17F6
330
A
100
AcDbEntity
  8
HIDDEN
  6
HIDDEN
 48
2.0
100
AcDbCircle
 10
805.6845760973642
 20
426.1563763194544
 30
0.0
 40
5.000000000000002
100
AcDbArc
 50
271.8356952721939
 51
352.3090421547625
  0
ARC
  5
17F7
330
A
100
AcDbEntity
  8
HIDDEN
  6
HIDDEN
 48
2.0
100
AcDbCircle
 10
786.7079427809522
 20
417.5440695118381
 30
0.0
 40
2.999999999999999
100
AcDbArc
 50
91.8356952721939
 51
164.1702907108022
  0
ARC
  5
17F8
330
A
100
AcDbEntity
  8
HIDDEN
  6
HIDDEN
 48
2.0
100
AcDbCircle
 10
772.9761860596373
 20
417.5688610893321
 30
0.0
 40
2.999999999999998
100
AcDbArc
 50
15.82970928919676
 51
87.52018122017294
  0
ARC
  5
17F9
330
A
100
AcDbEntity
  8
HIDDEN
  6
Continuous
 48
2.0
100
AcDbCircle
 10
780.8133054865982
 20
409.1709717192393
 30
0.0
 40
2.000000000000001
100
AcDbArc
 50
270.0
 51
0.0
  0
ARC
  5
17FA
330
A
100
AcDbEntity
  8
HIDDEN
  6
Continuous
 48
2.0
100
AcDbCircle
 10
778.8778525497282
 20
409.1709717192393
 30
0.0
 40
2.000000000000001
100
AcDbArc
 50
180.0
 51
270.0
  0
LINE
  5
17FB
330
A
100
AcDbEntity
  8
HIDDEN
  6
HIDDEN
 48
2.0
100
AcDbLine
 10
753.3455790181633
 20
421.4218364266234
 30
0.0
 11
753.3455790181633
 21
413.1147890961092
 31
0.0
  0
LINE
  5
17FC
330
A
100
AcDbEntity
  8
HIDDEN
  6
HIDDEN
 48
2.0
100
AcDbLine
 10
806.3455790181642
 20
421.2002613955764
 30
0.0
 11
806.3455790181642
 21
413.1147890961092
 31
0.0
  0
DIMENSION
  5
17FE
330
A
100
AcDbEntity
  8
DIM
  6
Continuous
 48
2.0
100
AcDbDimension
  2
*D75
 10
779.8455790181633
 20
419.8704258983526
 30
0.0
 11
779.8455790181633
 21
550.50627928689
 31
0.0
 70
   160
  1
82(深さ)
 71
     5
 42
85.6018533885375
 73
     0
 74
     1
 75
     1
  3
tfrom線あり
100
AcDbAlignedDimension
 13
802.9523511515092
 23
505.4722792868901
 33
0.0
 14
779.8410911697372
 24
419.8704258983526
 34
0.0
 50
89.99999999999999
100
AcDbRotatedDimension
1001
ACAD
1000
DSTYLE
1002
{
1070
     3
1000
<>
1070
   172
1070
     1
1070
    75
1070
     1
1070
    76
1070
     1
1002
}
  0
LINE
  5
17FF
330
A
100
AcDbEntity
  8
HIDDEN
  6
HIDDEN
 48
2.0
100
AcDbLine
 10
646.8455790181633
 20
505.4722792868901
 30
0.0
 11
654.6789560194381
 21
430.1086720865334
 31
0.0
  0
ARC
  5
1800
330
A
100
AcDbEntity
  8
HIDDEN
  6
HIDDEN
 48
2.0
100
AcDbCircle
 10
659.6653418004712
 20
430.4773953468584
 30
0.0
 40
5.000000000000001
100
AcDbArc
 50
184.2290964118336
 51
267.5201812201764
  0
MTEXT
  5
1827
330
A
100
AcDbEntity
  8
DIM
390
1D
100
AcDbMText
 10
683.6975319521455
 20
1282.371478632256
 30
0.0
 40
12.0
 41
0.0
 46
0.0
 71
     1
 72
     1
  1
カウンター切込寸法
  7
ＭＳ ゴシック
 73
     1
 44
0.7828267384257843
  0
DIMENSION
  5
183D
102
{ACAD_REACTORS
330
183F
102
}
102
{ACAD_XDICTIONARY
360
183E
102
}
330
A
100
AcDbEntity
  8
DIM
 48
0.05
100
AcDbDimension
  2
*D77
 10
287.1954450426713
 20
282.040006869447
 30
0.0
 11
357.1954450426713
 21
298.040006869447
 31
0.0
 70
    32
 71
     5
 42
140.0
 73
     0
 74
     0
 75
     0
  3
tfrom線あり
100
AcDbAlignedDimension
 13
427.1954450426713
 23
405.4722792868901
 33
0.0
 14
287.1954450426713
 24
331.0710351248315
 34
0.0
100
AcDbRotatedDimension
  0
ARC
  5
1864
330
A
100
AcDbEntity
  8
HIDDEN
  6
HIDDEN
 48
2.0
100
AcDbCircle
 10
372.0210057457773
 20
458.4722792868901
 30
0.0
 40
7.5
100
AcDbArc
 50
270.0
 51
90.0
  0
LINE
  5
1865
330
A
100
AcDbEntity
  8
HIDDEN
  6
HIDDEN
 48
2.0
100
AcDbLine
 10
372.0210057457773
 20
465.9722792868901
 30
0.0
 11
362.0210057457773
 21
465.9722792868902
 31
0.0
  0
ARC
  5
1866
330
A
100
AcDbEntity
  8
HIDDEN
  6
HIDDEN
 48
2.0
100
AcDbCircle
 10
362.0210057457773
 20
458.4722792868902
 30
0.0
 40
7.5
100
AcDbArc
 50
90.0
 51
270.0
  0
LINE
  5
1867
330
A
100
AcDbEntity
  8
HIDDEN
  6
HIDDEN
 48
2.0
100
AcDbLine
 10
362.0210057457773
 20
450.9722792868902
 30
0.0
 11
372.0210057457773
 21
450.9722792868901
 31
0.0
  0
LINE
  5
1868
330
A
100
AcDbEntity
  8
MODEL
  6
CENTER
 48
0.5
100
AcDbLine
 10
343.3169560686954
 20
458.4722792868904
 30
0.0
 11
390.7250554228593
 21
458.4722792868904
 31
0.0
  0
LINE
  5
1869
330
A
100
AcDbEntity
  8
MODEL
  6
CENTER
 48
0.5
100
AcDbLine
 10
367.0210057457773
 20
482.1763289639728
 30
0.0
 11
367.0210057457773
 21
434.7682296098078
 31
0.0
  0
DIMENSION
  5
186A
330
A
100
AcDbEntity
  8
DIM
  6
Continuous
 48
2.0
100
AcDbDimension
  2
*D78
 10
367.0210057457773
 20
538.4589877314463
 30
0.0
 11
397.1082253942243
 21
538.4589877314463
 31
0.0
 70
   160
 71
     5
 42
60.17443929689398
 73
     0
 74
     0
 75
     0
 52
-89.99999999999999
  3
tfrom線あり
100
AcDbAlignedDimension
 13
427.1954450426713
 23
505.4722792868901
 33
0.0
 14
367.0210057457773
 24
482.1763289639728
 34
0.0
 50
180.0
100
AcDbRotatedDimension
  0
DIMENSION
  5
186B
330
A
100
AcDbEntity
  8
DIM
  6
Continuous
 48
2.0
100
AcDbDimension
  2
*D79
 10
461.7665158556032
 20
505.4722792868902
 30
0.0
 11
461.7665158556032
 21
481.9722792868903
 31
0.0
 70
   160
 71
     5
 42
46.9999999999997
 73
     0
 74
     0
 75
     0
 52
-90.0
  3
tfrom線あり
100
AcDbAlignedDimension
 13
390.7250554228593
 23
458.4722792868904
 33
0.0
 14
427.1954450426713
 24
505.4722792868901
 34
0.0
 50
90.00000000000001
100
AcDbRotatedDimension
1001
ACAD
1000
DSTYLE
1002
{
1070
   271
1070
     1
1002
}
  0
ARC
  5
190C
330
A
100
AcDbEntity
  8
HIDDEN
  6
HIDDEN
 48
2.0
100
AcDbCircle
 10
202.3698843395653
 20
458.4722792868901
 30
0.0
 40
7.5
100
AcDbArc
 50
90.0
 51
270.0
  0
LINE
  5
190D
330
A
100
AcDbEntity
  8
HIDDEN
  6
HIDDEN
 48
2.0
100
AcDbLine
 10
212.3698843395653
 20
450.9722792868902
 30
0.0
 11
202.3698843395653
 21
450.9722792868901
 31
0.0
  0
LINE
  5
190E
330
A
100
AcDbEntity
  8
MODEL
  6
CENTER
 48
0.5
100
AcDbLine
 10
231.0739340166472
 20
458.4722792868904
 30
0.0
 11
183.6658346624832
 21
458.4722792868904
 31
0.0
  0
DIMENSION
  5
190F
330
A
100
AcDbEntity
  8
DIM
  6
Continuous
 48
2.0
100
AcDbDimension
  2
*D80
 10
112.6243742297394
 20
505.4722792868901
 30
0.0
 11
112.6243742297394
 21
481.9722792868903
 31
0.0
 70
   160
 71
     5
 42
46.99999999999971
 73
     0
 74
     0
 75
     0
  3
tfrom線あり
100
AcDbAlignedDimension
 13
183.6658346624832
 23
458.4722792868904
 33
0.0
 14
147.1954450426713
 24
505.4722792868901
 34
0.0
 50
89.99999999999999
100
AcDbRotatedDimension
1001
ACAD
1000
DSTYLE
1002
{
1070
   271
1070
     1
1002
}
  0
LINE
  5
1910
330
A
100
AcDbEntity
  8
HIDDEN
  6
HIDDEN
 48
2.0
100
AcDbLine
 10
202.3698843395653
 20
465.9722792868901
 30
0.0
 11
212.3698843395653
 21
465.9722792868902
 31
0.0
  0
ARC
  5
1911
330
A
100
AcDbEntity
  8
HIDDEN
  6
HIDDEN
 48
2.0
100
AcDbCircle
 10
212.3698843395653
 20
458.4722792868902
 30
0.0
 40
7.5
100
AcDbArc
 50
270.0
 51
90.0
  0
LINE
  5
1912
330
A
100
AcDbEntity
  8
MODEL
  6
CENTER
 48
0.5
100
AcDbLine
 10
207.3698843395653
 20
482.1763289639728
 30
0.0
 11
207.3698843395653
 21
434.7682296098078
 31
0.0
  0
DIMENSION
  5
1913
330
A
100
AcDbEntity
  8
DIM
  6
Continuous
 48
2.0
100
AcDbDimension
  2
*D81
 10
207.3698843395653
 20
538.4589877314463
 30
0.0
 11
177.2826646911183
 21
538.4589877314463
 31
0.0
 70
   160
 71
     5
 42
60.17443929689398
 73
     0
 74
     0
 75
     0
  3
tfrom線あり
100
AcDbAlignedDimension
 13
147.1954450426713
 23
505.4722792868901
 33
0.0
 14
207.3698843395653
 24
482.1763289639728
 34
0.0
 50
0.000000000000007
100
AcDbRotatedDimension
  0
MTEXT
  5
1945
330
A
100
AcDbEntity
  8
TEMPLATE
390
1D
100
AcDbMText
 10
790.101072273995
 20
115.0746453469641
 30
0.0
 40
12.21630859375
 41
0.0
 46
12.21630859375
 71
     1
 72
     1
  1
{3L}
  7
ＭＳ ゴシック
 73
     1
 44
0.7828267384257843
1001
ACAD
1000
ACAD_MTEXT_DEFINED_HEIGHT_BEGIN
1070
    46
1040
12.21630859375
1000
ACAD_MTEXT_DEFINED_HEIGHT_END
  0
MTEXT
  5
1946
330
A
100
AcDbEntity
  8
TEMPLATE
390
1D
100
AcDbMText
 10
664.601072273995
 20
115.0746453469641
 30
0.0
 40
12.21630859375
 41
0.0
 46
14.1953505859375
 71
     1
 72
     1
  1
{4kg}
  7
ＭＳ ゴシック
 73
     1
 44
0.7828267384257843
1001
ACAD
1000
ACAD_MTEXT_DEFINED_HEIGHT_BEGIN
1070
    46
1040
14.1953505859375
1000
ACAD_MTEXT_DEFINED_HEIGHT_END
  0
MTEXT
  5
197D
102
{ACAD_XDICTIONARY
360
197F
102
}
330
A
100
AcDbEntity
  8
MODEL
 48
0.05
100
AcDbMText
 10
36.7470398065972
 20
44.16550867568233
 30
0.0
 40
11.0
 41
0.0
 46
11.0
 71
     1
 72
     1
  1
{20171115N}
  7
ＭＳ ゴシック
 73
     1
 44
1.0
1001
ACAD
1000
ACAD_MTEXT_DEFINED_HEIGHT_BEGIN
1070
    46
1040
11.0
1000
ACAD_MTEXT_DEFINED_HEIGHT_END
  0
HATCH
  5
1A5F
102
{ACAD_REACTORS
330
1A89
102
}
330
A
100
AcDbEntity
  8
HIDDEN
  6
Continuous
 48
2.0
370
     0
100
AcDbHatch
 10
0.0
 20
0.0
 30
0.0
210
0.0
220
0.0
230
1.0
  2
ANSI31
 70
     0
 71
     0
 91
        1
 92
        1
 93
        4
 72
     1
 10
308.1954450426713
 20
404.8765179865003
 11
308.1954450426713
 21
392.4722792868899
 72
     1
 10
268.8351277839952
 20
404.8765179865003
 11
305.5557623013472
 21
404.8765179865003
 72
     1
 10
266.1954450426713
 20
404.8765179865003
 11
266.1954450426713
 21
392.4722792868899
 72
     1
 10
266.1954450426713
 20
392.4722792868899
 11
308.1954450426713
 21
392.4722792868899
 97
        0
 75
     0
 76
     1
 52
145.0
 41
0.9999999999999972
 77
     0
 78
     1
 53
189.9999999999995
 43
44.24424072127431
 44
-51.89601809771318
 45
0.5513329640925042
 46
-3.12676461581376
 79
     0
 98
        1
 10
44.24424072127431
 20
-51.89601809771318
1001
ACAD
1010
0.0
1020
0.0
1030
0.0
  0
LINE
  5
1A60
102
{ACAD_REACTORS
330
1A89
102
}
330
A
100
AcDbEntity
  8
HIDDEN
  6
Continuous
 48
2.0
100
AcDbLine
 10
266.1954450426713
 20
392.4722792868899
 30
0.0
 11
308.1954450426713
 21
392.4722792868899
 31
0.0
  0
LINE
  5
1A61
102
{ACAD_REACTORS
330
1A89
102
}
330
A
100
AcDbEntity
  8
HIDDEN
  6
Continuous
 48
2.0
100
AcDbLine
 10
266.1954450426713
 20
405.4722792868901
 30
0.0
 11
266.1954450426713
 21
392.4722792868899
 31
0.0
  0
LINE
  5
1A62
102
{ACAD_REACTORS
330
1A89
102
}
330
A
100
AcDbEntity
  8
HIDDEN
  6
Continuous
 48
2.0
100
AcDbLine
 10
308.1954450426713
 20
405.4722792868901
 30
0.0
 11
308.1954450426713
 21
392.4722792868899
 31
0.0
  0
LINE
  5
1A85
102
{ACAD_REACTORS
330
1A89
102
}
330
A
100
AcDbEntity
  8
HIDDEN
  6
Continuous
 48
0.05
100
AcDbLine
 10
316.3667960303652
 20
405.4722792868901
 30
0.0
 11
316.3667960303652
 21
413.0680405872797
 31
0.0
  0
LINE
  5
1A86
102
{ACAD_REACTORS
330
1A89
102
}
330
A
100
AcDbEntity
  8
HIDDEN
  6
Continuous
 48
0.05
100
AcDbLine
 10
258.0240940549774
 20
405.4722792868901
 30
0.0
 11
258.0240940549774
 21
413.0680405872797
 31
0.0
  0
LINE
  5
1A8A
102
{ACAD_REACTORS
330
1A91
102
}
330
A
100
AcDbEntity
  8
HIDDEN
  6
HIDDEN
 48
2.0
100
AcDbLine
 10
750.6742280304699
 20
413.0680405872797
 30
0.0
 11
809.0169300058577
 21
413.0680405872797
 31
0.0
  0
HATCH
  5
1A8B
102
{ACAD_REACTORS
330
1A91
102
}
330
A
100
AcDbEntity
  8
HIDDEN
  6
Continuous
 48
2.0
370
     0
100
AcDbHatch
 10
0.0
 20
0.0
 30
0.0
210
0.0
220
0.0
230
1.0
  2
ANSI31
 70
     0
 71
     0
 91
        1
 92
        1
 93
        4
 72
     1
 10
800.8455790181638
 20
404.8765179865003
 11
800.8455790181638
 21
392.4722792868899
 72
     1
 10
761.4852617594877
 20
404.8765179865003
 11
798.2058962768397
 21
404.8765179865003
 72
     1
 10
758.8455790181638
 20
404.8765179865003
 11
758.8455790181638
 21
392.4722792868899
 72
     1
 10
758.8455790181638
 20
392.4722792868899
 11
800.8455790181638
 21
392.4722792868899
 97
        0
 75
     0
 76
     1
 52
145.0
 41
0.9999999999999971
 77
     0
 78
     1
 53
189.9999999999995
 43
536.8943746967668
 44
-51.89601809771318
 45
0.5513329640925042
 46
-3.12676461581376
 79
     0
 98
        1
 10
536.8943746967668
 20
-51.89601809771318
1001
ACAD
1010
0.0
1020
0.0
1030
0.0
  0
LINE
  5
1A8C
102
{ACAD_REACTORS
330
1A91
102
}
330
A
100
AcDbEntity
  8
HIDDEN
  6
Continuous
 48
2.0
100
AcDbLine
 10
758.8455790181638
 20
392.4722792868899
 30
0.0
 11
800.8455790181638
 21
392.4722792868899
 31
0.0
  0
LINE
  5
1A8D
102
{ACAD_REACTORS
330
1A91
102
}
330
A
100
AcDbEntity
  8
HIDDEN
  6
Continuous
 48
2.0
100
AcDbLine
 10
758.8455790181638
 20
405.4722792868901
 30
0.0
 11
758.8455790181638
 21
392.4722792868899
 31
0.0
  0
LINE
  5
1A8E
102
{ACAD_REACTORS
330
1A91
102
}
330
A
100
AcDbEntity
  8
HIDDEN
  6
Continuous
 48
2.0
100
AcDbLine
 10
800.8455790181638
 20
405.4722792868901
 30
0.0
 11
800.8455790181638
 21
392.4722792868899
 31
0.0
  0
LINE
  5
1A8F
102
{ACAD_REACTORS
330
1A91
102
}
330
A
100
AcDbEntity
  8
HIDDEN
  6
Continuous
 48
0.05
100
AcDbLine
 10
809.0169300058577
 20
405.4722792868901
 30
0.0
 11
809.0169300058577
 21
413.0680405872797
 31
0.0
  0
LINE
  5
1A90
102
{ACAD_REACTORS
330
1A91
102
}
330
A
100
AcDbEntity
  8
HIDDEN
  6
Continuous
 48
0.05
100
AcDbLine
 10
750.6742280304699
 20
405.4722792868901
 30
0.0
 11
750.6742280304699
 21
413.0680405872797
 31
0.0
  0
VIEWPORT
  5
349
330
B
100
AcDbEntity
 67
     1
  8
0
100
AcDbViewport
 10
202.5
 20
128.5
 30
0.0
 40
486.0
 41
308.4
 68
     1
 69
     1
 12
202.5
 22
128.5
 13
0.0
 23
0.0
 14
0.5
 24
0.5
 15
0.0
 25
0.0
 16
0.0
 26
0.0
 36
1.0
 17
0.0
 27
0.0
 37
0.0
 42
50.0
 43
0.0
 44
0.0
 45
308.4
 50
0.0
 51
0.0
 72
   100
 90
   557152
  1

281
     0
 71
     1
 74
     0
110
0.0
120
0.0
130
0.0
111
1.0
121
0.0
131
0.0
112
0.0
122
1.0
132
0.0
 79
     0
146
0.0
170
     0
 61
     5
348
26C
292
     1
282
     1
141
0.0
142
0.0
 63
   256
  0
VIEWPORT
  5
34A
330
B
100
AcDbEntity
 67
     1
  8
0
100
AcDbViewport
 10
202.5
 20
128.5
 30
0.0
 40
324.0
 41
205.6
 68
     2
 69
     2
 12
986.6781359294573
 22
1427.077061889956
 13
0.0
 23
0.0
 14
0.5
 24
0.5
 15
0.0
 25
0.0
 16
0.0
 26
0.0
 36
1.0
 17
0.0
 27
0.0
 37
0.0
 42
50.0
 43
0.0
 44
0.0
 45
2890.021615685494
 50
0.0
 51
0.0
 72
   100
 90
   557152
  1

281
     0
 71
     1
 74
     0
110
0.0
120
0.0
130
0.0
111
1.0
121
0.0
131
0.0
112
0.0
122
1.0
132
0.0
 79
     0
146
0.0
170
     0
 61
     5
348
26C
292
     1
282
     1
141
0.0
142
0.0
 63
   256
  0
ENDSEC
  0
SECTION
  2
OBJECTS
  0
DICTIONARY
  5
19
330
0
100
AcDbDictionary
281
     1
  3
ACAD_COLOR
350
674
  3
ACAD_DETAILVIEWSTYLE
350
BBF
  3
ACAD_FIELDLIST
350
12BC
  3
ACAD_GROUP
350
1A
  3
ACAD_IMAGE_VARS
350
27B
  3
ACAD_LAYOUT
350
1E
  3
ACAD_MATERIAL
350
263
  3
ACAD_MLEADERSTYLE
350
336
  3
ACAD_MLINESTYLE
350
1B
  3
ACAD_PLOTSETTINGS
350
22
  3
ACAD_PLOTSTYLENAME
350
1F
  3
ACAD_SCALELIST
350
241
  3
ACAD_SECTIONVIEWSTYLE
350
BC0
  3
ACAD_TABLESTYLE
350
278
  3
ACAD_VISUALSTYLE
350
267
  3
ACDB_RECOMPOSE_DATA
350
1A9D
  3
AcDbVariableDictionary
350
330
  3
APPDATA
350
27A
  3
DimOffsetDictionary
350
E38
  0
SUN
  5
904
330
15
100
AcDbSun
 90
        1
290
     0
 63
     7
421
 16777215
 40
1.0
291
     1
 91
  2455826
 92
 54000000
292
     0
 70
     2
 71
   256
280
     1
  0
DICTIONARY
  5
2E1
330
2
100
AcDbDictionary
280
     1
281
     1
  3
ACAD_LAYERSTATES
360
2E2
  3
ACLYDICTIONARY
360
DDE
  0
DICTIONARY
  5
1515
330
1514
100
AcDbDictionary
280
     1
281
     1
  3
ACAD_DIMASSOC
360
1516
  0
DICTIONARY
  5
1524
330
1523
100
AcDbDictionary
280
     1
281
     1
  3
ACAD_DIMASSOC
360
1525
  0
DICTIONARY
  5
1533
330
1532
100
AcDbDictionary
280
     1
281
     1
  3
ACAD_DIMASSOC
360
1534
  0
DICTIONARY
  5
1542
330
1541
100
AcDbDictionary
280
     1
281
     1
  3
ACAD_DIMASSOC
360
1543
  0
DICTIONARY
  5
15DC
330
15DB
100
AcDbDictionary
280
     1
281
     1
  3
ACAD_DIMASSOC
360
15DD
  0
DICTIONARY
  5
15DF
330
15DE
100
AcDbDictionary
280
     1
281
     1
  3
ACAD_DIMASSOC
360
15E0
  0
DICTIONARY
  5
15E2
330
15E1
100
AcDbDictionary
280
     1
281
     1
  3
ACAD_DIMASSOC
360
15E3
  0
DICTIONARY
  5
160E
330
160D
100
AcDbDictionary
280
     1
281
     1
  3
ACAD_DIMASSOC
360
160F
  0
DICTIONARY
  5
183E
330
183D
100
AcDbDictionary
280
     1
281
     1
  3
ACAD_DIMASSOC
360
183F
  0
DICTIONARY
  5
197F
330
197D
100
AcDbDictionary
280
     1
281
     1
  3
ACAD_FIELD
360
1983
  0
DICTIONARY
  5
674
102
{ACAD_REACTORS
330
19
102
}
330
19
100
AcDbDictionary
281
     1
  0
DICTIONARY
  5
BBF
102
{ACAD_REACTORS
330
19
102
}
330
19
100
AcDbDictionary
281
     1
  0
FIELDLIST
  5
12BC
102
{ACAD_REACTORS
330
19
102
}
330
19
100
AcDbIdSet
 90
        2
330
1981
330
197E
100
AcDbFieldList
  0
DICTIONARY
  5
1A
102
{ACAD_REACTORS
330
19
102
}
330
19
100
AcDbDictionary
281
     1
  3
*A2
350
1A5D
  3
*A3
350
1A5E
  3
*A5
350
1A89
  3
*A6
350
1A91
  0
RASTERVARIABLES
  5
27B
102
{ACAD_REACTORS
330
19
102
}
330
19
100
AcDbRasterVariables
 90
        0
 70
     1
 71
     1
 72
     1
  0
DICTIONARY
  5
1E
102
{ACAD_REACTORS
330
19
102
}
330
19
100
AcDbDictionary
281
     1
  3
Layout1
350
21
  3
Model
350
20
  0
DICTIONARY
  5
263
102
{ACAD_REACTORS
330
19
102
}
330
19
100
AcDbDictionary
281
     1
  3
ByBlock
350
265
  3
ByLayer
350
264
  3
Global
350
266
  0
DICTIONARY
  5
336
102
{ACAD_REACTORS
330
19
102
}
330
19
100
AcDbDictionary
281
     1
  3
Standard
350
D59
  0
DICTIONARY
  5
1B
102
{ACAD_REACTORS
330
19
102
}
330
19
100
AcDbDictionary
281
     1
  3
Standard
350
1C
  0
DICTIONARY
  5
22
102
{ACAD_REACTORS
330
19
102
}
330
19
100
AcDbDictionary
281
     1
  0
ACDBDICTIONARYWDFLT
  5
1F
102
{ACAD_REACTORS
330
19
102
}
330
19
100
AcDbDictionary
281
     1
  3
Normal
350
1D
100
AcDbDictionaryWithDefault
340
1D
  0
DICTIONARY
  5
241
102
{ACAD_REACTORS
330
19
102
}
330
19
100
AcDbDictionary
281
     1
  3
A0
350
242
  3
A1
350
243
  3
A2
350
244
  3
A3
350
245
  3
A4
350
246
  3
A5
350
247
  3
A6
350
248
  3
A7
350
249
  3
A8
350
24A
  3
A9
350
24B
  3
B0
350
24C
  3
B1
350
24D
  3
B2
350
24E
  3
B3
350
24F
  3
B4
350
250
  3
B5
350
251
  3
B6
350
252
  3
B7
350
253
  3
B8
350
254
  3
B9
350
255
  3
C0
350
256
  3
C1
350
257
  3
C2
350
258
  3
C3
350
259
  3
C4
350
25A
  3
C5
350
25B
  3
C6
350
25C
  3
C7
350
25D
  3
C8
350
25E
  3
C9
350
25F
  3
D0
350
260
  3
D1
350
261
  3
D2
350
262
  0
DICTIONARY
  5
BC0
102
{ACAD_REACTORS
330
19
102
}
330
19
100
AcDbDictionary
281
     1
  0
DICTIONARY
  5
278
102
{ACAD_REACTORS
330
19
102
}
330
19
100
AcDbDictionary
281
     1
  3
Standard
350
279
  0
DICTIONARY
  5
267
102
{ACAD_REACTORS
330
19
102
}
330
19
100
AcDbDictionary
281
     1
  3
2dWireframe
350
26C
  3
3D Hidden
350
26E
  3
3dWireframe
350
26D
  3
Basic
350
26F
  3
Brighten
350
273
  3
ColorChange
350
277
  3
Conceptual
350
271
  3
Dim
350
272
  3
EdgeColorOff
350
8FE
  3
Facepattern
350
276
  3
Flat
350
268
  3
FlatWithEdges
350
269
  3
Gouraud
350
26A
  3
GouraudWithEdges
350
26B
  3
Hidden
350
8FB
  3
JitterOff
350
8FC
  3
Linepattern
350
275
  3
OverhangOff
350
8FD
  3
Realistic
350
270
  3
Shaded
350
903
  3
Shaded with edges
350
902
  3
Shades of Gray
350
8FF
  3
Sketchy
350
900
  3
Thicken
350
274
  3
Wireframe
350
8FA
  3
X-Ray
350
901
  0
XRECORD
  5
1A9D
102
{ACAD_REACTORS
330
19
102
}
330
19
100
AcDbXrecord
280
     1
 90
        1
330
279
  0
DICTIONARY
  5
330
102
{ACAD_REACTORS
330
19
102
}
330
19
100
AcDbDictionary
281
     1
  3
CANNOSCALE
350
331
  3
CMLEADERSTYLE
350
D5E
  3
CTABLESTYLE
350
335
  3
HPTRANSPARENCY
350
D52
  3
XCLIPFRAME
350
896
  0
DICTIONARY
  5
27A
102
{ACAD_REACTORS
330
19
102
}
330
19
100
AcDbDictionary
281
     1
  0
DICTIONARY
  5
E38
102
{ACAD_REACTORS
330
19
102
}
330
19
100
AcDbDictionary
281
     1
  3
DIMRAILANGLE
350
E3B
  3
DIMRAILFIRSTOFFSET
350
E39
  3
DIMRAILOFFSET
350
E3A
  3
DIMRAILSENABLED
350
E3C
  0
DICTIONARY
  5
2E2
102
{ACAD_REACTORS
330
2E1
102
}
330
2E1
100
AcDbDictionary
281
     1
  0
DICTIONARY
  5
DDE
102
{ACAD_REACTORS
330
2E1
102
}
330
2E1
100
AcDbDictionary
281
     1
1001
ACAD
1000
<All
  0
DIMASSOC
  5
1516
102
{ACAD_REACTORS
330
1515
102
}
330
1515
100
AcDbDimAssoc
330
1514
 90
        2
 70
     0
 71
     1
  1
AcDbOsnapPointRef
 72
     1
331
14E9
 73
     0
 91
        0
 40
0.0
 10
0.0
 20
0.0
 30
0.0
 75
     0
  0
DIMASSOC
  5
1525
102
{ACAD_REACTORS
330
1524
102
}
330
1524
100
AcDbDimAssoc
330
1523
 90
        2
 70
     0
 71
     1
  1
AcDbOsnapPointRef
 72
    10
331
14D5
 73
     0
 91
        0
 40
0.9763699834703636
 10
0.0
 20
0.0
 30
0.0
 75
     0
  0
DIMASSOC
  5
1534
102
{ACAD_REACTORS
330
1533
102
}
330
1533
100
AcDbDimAssoc
330
1532
 90
        3
 70
     0
 71
     1
  1
AcDbOsnapPointRef
 72
    13
331
14D4
 73
     0
 91
        0
 40
0.0
 10
0.0
 20
0.0
 30
0.0
 75
     0
  1
AcDbOsnapPointRef
 72
    10
331
14D1
 73
     0
 91
        0
 40
0.0160171179418366
 10
0.0
 20
0.0
 30
0.0
 75
     0
  0
DIMASSOC
  5
1543
102
{ACAD_REACTORS
330
1542
102
}
330
1542
100
AcDbDimAssoc
330
1541
 90
        3
 70
     0
 71
     1
  1
AcDbOsnapPointRef
 72
    13
331
14D2
 73
     0
 91
        0
 40
0.0
 10
0.0
 20
0.0
 30
0.0
 75
     0
  1
AcDbOsnapPointRef
 72
    13
331
14CF
 73
     0
 91
        0
 40
0.0
 10
0.0
 20
0.0
 30
0.0
 75
     0
  0
DIMASSOC
  5
15DD
102
{ACAD_REACTORS
330
15DC
102
}
330
15DC
100
AcDbDimAssoc
330
15DB
 90
        3
 70
     0
 71
     1
  1
AcDbOsnapPointRef
 72
    13
331
15E4
 73
     0
 91
        0
 40
0.0
 10
0.0
 20
0.0
 30
0.0
 75
     0
  1
AcDbOsnapPointRef
 72
     1
331
15E4
 73
     0
 91
        0
 40
0.0
 10
0.0
 20
0.0
 30
0.0
 75
     0
  0
DIMASSOC
  5
15E0
102
{ACAD_REACTORS
330
15DF
102
}
330
15DF
100
AcDbDimAssoc
330
15DE
 90
        1
 70
     0
 71
     1
  1
AcDbOsnapPointRef
 72
     1
331
15E4
 73
     0
 91
        0
 40
0.0
 10
0.0
 20
0.0
 30
0.0
 75
     0
  0
DIMASSOC
  5
15E3
102
{ACAD_REACTORS
330
15E2
102
}
330
15E2
100
AcDbDimAssoc
330
15E1
 90
        3
 70
     0
 71
     1
  1
AcDbOsnapPointRef
 72
     1
331
15E6
 73
     0
 91
        0
 40
0.0
 10
0.0
 20
0.0
 30
0.0
 75
     0
  1
AcDbOsnapPointRef
 72
    13
331
15E4
 73
     0
 91
        0
 40
0.0
 10
0.0
 20
0.0
 30
0.0
 75
     0
  0
DIMASSOC
  5
160F
102
{ACAD_REACTORS
330
160E
102
}
330
160E
100
AcDbDimAssoc
330
160D
 90
        3
 70
     0
 71
     1
  1
AcDbOsnapPointRef
 72
    13
331
14E1
 73
     0
 91
        0
 40
0.0
 10
0.0
 20
0.0
 30
0.0
 75
     0
  1
AcDbOsnapPointRef
 72
    13
331
14E4
 73
     0
 91
        0
 40
0.0
 10
0.0
 20
0.0
 30
0.0
 75
     0
  0
DIMASSOC
  5
183F
102
{ACAD_REACTORS
330
183E
102
}
330
183E
100
AcDbDimAssoc
330
183D
 90
        1
 70
     0
 71
     1
  1
AcDbOsnapPointRef
 72
     1
331
14CC
 73
     0
 91
        0
 40
0.0
 10
0.0
 20
0.0
 30
0.0
 75
     0
  0
DICTIONARY
  5
1983
102
{ACAD_REACTORS
330
197F
102
}
330
197F
100
AcDbDictionary
280
     1
281
     1
  3
TEXT
360
197E
  0
GROUP
  5
1A5D
102
{ACAD_REACTORS
330
1A
102
}
330
1A
100
AcDbGroup
300

 70
     1
 71
     1
  0
GROUP
  5
1A5E
102
{ACAD_REACTORS
330
1A
102
}
330
1A
100
AcDbGroup
300

 70
     1
 71
     1
  0
GROUP
  5
1A89
102
{ACAD_REACTORS
330
1A
102
}
330
1A
100
AcDbGroup
300

 70
     1
 71
     1
340
1A86
340
1665
340
1A85
340
1A60
340
1A5F
340
1A61
340
1A62
  0
GROUP
  5
1A91
102
{ACAD_REACTORS
330
1A
102
}
330
1A
100
AcDbGroup
300

 70
     1
 71
     1
340
1A8A
340
1A8B
340
1A8C
340
1A8D
340
1A8E
340
1A8F
340
1A90
  0
LAYOUT
  5
21
102
{ACAD_REACTORS
330
1E
102
}
330
1E
100
AcDbPlotSettings
  1

  2
none_device
  4
ISO_A3_(420.00_x_297.00_MM)
  6

 40
7.5
 41
20.0
 42
7.5
 43
20.0
 44
420.0
 45
297.0
 46
0.0
 47
0.0
 48
0.0
 49
0.0
140
0.0
141
0.0
142
1.0
143
1.0
 70
     0
 72
     1
 73
     0
 74
     0
  7

 75
     0
 76
     0
 77
     2
 78
   300
147
1.0
148
0.0
149
0.0
100
AcDbLayout
  1
Layout1
 70
     0
 71
     0
 10
-7.5
 20
-20.0
 11
412.5
 21
277.0
 12
0.0
 22
0.0
 32
0.0
 14
0.0
 24
0.0
 34
0.0
 15
0.0
 25
0.0
 35
0.0
146
0.0
 13
0.0
 23
0.0
 33
0.0
 16
0.0
 26
0.0
 36
0.0
 17
0.0
 27
0.0
 37
0.0
 76
     0
330
B
331
349
  0
LAYOUT
  5
20
102
{ACAD_REACTORS
330
1E
102
}
330
1E
100
AcDbPlotSettings
  1

  2
none_device
  4
ISO_A3_(420.00_x_297.00_MM)
  6

 40
7.5
 41
20.0
 42
7.5
 43
20.0
 44
420.0
 45
297.0
 46
0.0
 47
0.0
 48
0.0
 49
0.0
140
0.0
141
0.0
142
1.0
143
1.0
 70
  1024
 72
     1
 73
     0
 74
     0
  7

 75
     0
 76
     0
 77
     2
 78
   300
147
1.0
148
0.0
149
0.0
100
AcDbLayout
  1
Model
 70
     0
 71
     1
 10
0.0
 20
0.0
 11
1050.0
 21
1485.0
 12
0.0
 22
0.0
 32
0.0
 14
0.0
 24
0.0
 34
0.0
 15
1050.0
 25
1485.0
 35
0.0000000000000142
146
0.0
 13
0.0
 23
0.0
 33
0.0
 16
0.0
 26
0.0
 36
0.0
 17
0.0
 27
0.0
 37
0.0
 76
     0
330
A
331
15
  0
MATERIAL
  5
265
102
{ACAD_REACTORS
330
263
102
}
330
263
100
AcDbMaterial
  1
ByBlock
 72
     1
 94
      127
  0
MATERIAL
  5
264
102
{ACAD_REACTORS
330
263
102
}
330
263
100
AcDbMaterial
  1
ByLayer
 72
     1
 94
      127
  0
MATERIAL
  5
266
102
{ACAD_REACTORS
330
263
102
}
330
263
100
AcDbMaterial
  1
Global
 72
     1
 94
      127
  0
MLEADERSTYLE
  5
D59
102
{ACAD_REACTORS
330
336
102
}
330
336
100
AcDbMLeaderStyle
170
     2
171
     1
172
     0
 90
        2
 40
0.0
 41
0.0
173
     1
 91
-1056964608
340
11
 92
       -2
290
     1
 42
2.0
291
     1
 43
8.0
  3
Standard
341
0
 44
4.0
300

342
17
174
     1
178
     6
175
     1
176
     0
 93
-1056964608
 45
4.0
292
     0
297
     0
 46
4.0
343
0
 94
-1056964608
 47
1.0
 49
1.0
140
1.0
293
     1
141
0.0
294
     1
177
     0
142
1.0
295
     0
296
     0
143
3.75
1001
ACAD_MLEADERVER
1070
     2
  0
MLINESTYLE
  5
1C
102
{ACAD_REACTORS
330
1B
102
}
330
1B
100
AcDbMlineStyle
  2
Standard
 70
     0
  3

 62
     0
 51
90.0
 52
90.0
 71
     2
 49
0.5
 62
   256
  6
BYLAYER
 49
-0.5
 62
   256
  6
BYLAYER
  0
ACDBPLACEHOLDER
  5
1D
102
{ACAD_REACTORS
330
1F
102
}
330
1F
  0
SCALE
  5
242
102
{ACAD_REACTORS
330
241
102
}
330
241
100
AcDbScale
 70
     0
300
1:1
140
1.0
141
1.0
290
     1
  0
SCALE
  5
243
102
{ACAD_REACTORS
330
241
102
}
330
241
100
AcDbScale
 70
     0
300
1:2
140
1.0
141
2.0
290
     0
  0
SCALE
  5
244
102
{ACAD_REACTORS
330
241
102
}
330
241
100
AcDbScale
 70
     0
300
1:4
140
1.0
141
4.0
290
     0
  0
SCALE
  5
245
102
{ACAD_REACTORS
330
241
102
}
330
241
100
AcDbScale
 70
     0
300
1:5
140
1.0
141
5.0
290
     0
  0
SCALE
  5
246
102
{ACAD_REACTORS
330
241
102
}
330
241
100
AcDbScale
 70
     0
300
1:8
140
1.0
141
8.0
290
     0
  0
SCALE
  5
247
102
{ACAD_REACTORS
330
241
102
}
330
241
100
AcDbScale
 70
     0
300
1:10
140
1.0
141
10.0
290
     0
  0
SCALE
  5
248
102
{ACAD_REACTORS
330
241
102
}
330
241
100
AcDbScale
 70
     0
300
1:16
140
1.0
141
16.0
290
     0
  0
SCALE
  5
249
102
{ACAD_REACTORS
330
241
102
}
330
241
100
AcDbScale
 70
     0
300
1:20
140
1.0
141
20.0
290
     0
  0
SCALE
  5
24A
102
{ACAD_REACTORS
330
241
102
}
330
241
100
AcDbScale
 70
     0
300
1:30
140
1.0
141
30.0
290
     0
  0
SCALE
  5
24B
102
{ACAD_REACTORS
330
241
102
}
330
241
100
AcDbScale
 70
     0
300
1:40
140
1.0
141
40.0
290
     0
  0
SCALE
  5
24C
102
{ACAD_REACTORS
330
241
102
}
330
241
100
AcDbScale
 70
     0
300
1:50
140
1.0
141
50.0
290
     0
  0
SCALE
  5
24D
102
{ACAD_REACTORS
330
241
102
}
330
241
100
AcDbScale
 70
     0
300
1:100
140
1.0
141
100.0
290
     0
  0
SCALE
  5
24E
102
{ACAD_REACTORS
330
241
102
}
330
241
100
AcDbScale
 70
     0
300
2:1
140
2.0
141
1.0
290
     0
  0
SCALE
  5
24F
102
{ACAD_REACTORS
330
241
102
}
330
241
100
AcDbScale
 70
     0
300
4:1
140
4.0
141
1.0
290
     0
  0
SCALE
  5
250
102
{ACAD_REACTORS
330
241
102
}
330
241
100
AcDbScale
 70
     0
300
8:1
140
8.0
141
1.0
290
     0
  0
SCALE
  5
251
102
{ACAD_REACTORS
330
241
102
}
330
241
100
AcDbScale
 70
     0
300
10:1
140
10.0
141
1.0
290
     0
  0
SCALE
  5
252
102
{ACAD_REACTORS
330
241
102
}
330
241
100
AcDbScale
 70
     0
300
100:1
140
100.0
141
1.0
290
     0
  0
SCALE
  5
253
102
{ACAD_REACTORS
330
241
102
}
330
241
100
AcDbScale
 70
     0
300
1/128" = 1'-0"
140
0.0078125
141
12.0
290
     0
  0
SCALE
  5
254
102
{ACAD_REACTORS
330
241
102
}
330
241
100
AcDbScale
 70
     0
300
1/64" = 1'-0"
140
0.015625
141
12.0
290
     0
  0
SCALE
  5
255
102
{ACAD_REACTORS
330
241
102
}
330
241
100
AcDbScale
 70
     0
300
1/32" = 1'-0"
140
0.03125
141
12.0
290
     0
  0
SCALE
  5
256
102
{ACAD_REACTORS
330
241
102
}
330
241
100
AcDbScale
 70
     0
300
1/16" = 1'-0"
140
0.0625
141
12.0
290
     0
  0
SCALE
  5
257
102
{ACAD_REACTORS
330
241
102
}
330
241
100
AcDbScale
 70
     0
300
3/32" = 1'-0"
140
0.09375
141
12.0
290
     0
  0
SCALE
  5
258
102
{ACAD_REACTORS
330
241
102
}
330
241
100
AcDbScale
 70
     0
300
1/8" = 1'-0"
140
0.125
141
12.0
290
     0
  0
SCALE
  5
259
102
{ACAD_REACTORS
330
241
102
}
330
241
100
AcDbScale
 70
     0
300
3/16" = 1'-0"
140
0.1875
141
12.0
290
     0
  0
SCALE
  5
25A
102
{ACAD_REACTORS
330
241
102
}
330
241
100
AcDbScale
 70
     0
300
1/4" = 1'-0"
140
0.25
141
12.0
290
     0
  0
SCALE
  5
25B
102
{ACAD_REACTORS
330
241
102
}
330
241
100
AcDbScale
 70
     0
300
3/8" = 1'-0"
140
0.375
141
12.0
290
     0
  0
SCALE
  5
25C
102
{ACAD_REACTORS
330
241
102
}
330
241
100
AcDbScale
 70
     0
300
1/2" = 1'-0"
140
0.5
141
12.0
290
     0
  0
SCALE
  5
25D
102
{ACAD_REACTORS
330
241
102
}
330
241
100
AcDbScale
 70
     0
300
3/4" = 1'-0"
140
0.75
141
12.0
290
     0
  0
SCALE
  5
25E
102
{ACAD_REACTORS
330
241
102
}
330
241
100
AcDbScale
 70
     0
300
1" = 1'-0"
140
1.0
141
12.0
290
     0
  0
SCALE
  5
25F
102
{ACAD_REACTORS
330
241
102
}
330
241
100
AcDbScale
 70
     0
300
1-1/2" = 1'-0"
140
1.5
141
12.0
290
     0
  0
SCALE
  5
260
102
{ACAD_REACTORS
330
241
102
}
330
241
100
AcDbScale
 70
     0
300
3" = 1'-0"
140
3.0
141
12.0
290
     0
  0
SCALE
  5
261
102
{ACAD_REACTORS
330
241
102
}
330
241
100
AcDbScale
 70
     0
300
6" = 1'-0"
140
6.0
141
12.0
290
     0
  0
SCALE
  5
262
102
{ACAD_REACTORS
330
241
102
}
330
241
100
AcDbScale
 70
     0
300
1'-0" = 1'-0"
140
12.0
141
12.0
290
     0
  0
TABLESTYLE
  5
279
102
{ACAD_REACTORS
330
278
102
}
102
{ACAD_XDICTIONARY
360
1A9B
102
}
330
278
100
AcDbTableStyle
  3
Standard
 70
     0
 71
     0
 40
0.06
 41
0.06
280
     0
281
     0
  7
Standard
140
4.5
170
     2
 62
     0
 63
   257
283
     0
 90
        4
 91
        0
  1

274
    -2
284
     1
 64
     0
275
    -2
285
     1
 65
     0
276
    -2
286
     1
 66
     0
277
    -2
287
     1
 67
     0
278
    -2
288
     1
 68
     0
279
    -2
289
     1
 69
     0
  7
Standard
140
6.0
170
     5
 62
     0
 63
   257
283
     0
 90
        4
 91
        0
  1

274
    -2
284
     1
 64
     0
275
    -2
285
     1
 65
     0
276
    -2
286
     1
 66
     0
277
    -2
287
     1
 67
     0
278
    -2
288
     1
 68
     0
279
    -2
289
     1
 69
     0
  7
Standard
140
4.5
170
     5
 62
     0
 63
   257
283
     0
 90
        4
 91
        0
  1

274
    -2
284
     1
 64
     0
275
    -2
285
     1
 65
     0
276
    -2
286
     1
 66
     0
277
    -2
287
     1
 67
     0
278
    -2
288
     1
 68
     0
279
    -2
289
     1
 69
     0
  0
VISUALSTYLE
  5
26C
102
{ACAD_REACTORS
330
267
102
}
330
267
100
AcDbVisualStyle
  2
2dWireframe
 70
     4
 71
     0
 72
     2
 73
     0
 90
        0
 40
-0.6
 41
-30.0
 62
     5
 63
     7
421
 16777215
 74
     1
 91
        4
 64
     7
 65
   257
 75
     1
175
     1
 42
1.0
 92
        0
 66
   257
 43
1.0
 76
     1
 77
     6
 78
     2
 67
     7
 79
     5
170
     0
171
     0
290
     0
174
     0
 93
        1
 44
0.0
173
     0
291
     0
 45
0.0
  0
VISUALSTYLE
  5
26E
102
{ACAD_REACTORS
330
267
102
}
330
267
100
AcDbVisualStyle
  2
3D Hidden
 70
     6
 71
     1
 72
     2
 73
     2
 90
        0
 40
-0.6
 41
-30.0
 62
     5
 63
     7
421
 16777215
 74
     2
 91
        2
 64
     7
 65
   257
 75
     2
175
     1
 42
40.0
 92
        0
 66
   257
 43
1.0
 76
     1
 77
     6
 78
     2
 67
     7
 79
     3
170
     0
171
     0
290
     0
174
     0
 93
        1
 44
0.0
173
     0
291
     0
 45
0.0
  0
VISUALSTYLE
  5
26D
102
{ACAD_REACTORS
330
267
102
}
330
267
100
AcDbVisualStyle
  2
3dWireframe
 70
     5
 71
     0
 72
     2
 73
     0
 90
        0
 40
-0.6
 41
-30.0
 62
     5
 63
     7
421
 16777215
 74
     1
 91
        4
 64
     7
 65
   257
 75
     1
175
     1
 42
1.0
 92
        0
 66
   257
 43
1.0
 76
     1
 77
     6
 78
     2
 67
     7
 79
     5
170
     0
171
     0
290
     0
174
     0
 93
        1
 44
0.0
173
     0
291
     0
 45
0.0
  0
VISUALSTYLE
  5
26F
102
{ACAD_REACTORS
330
267
102
}
330
267
100
AcDbVisualStyle
  2
Basic
 70
     7
 71
     1
 72
     0
 73
     1
 90
        0
 40
-0.6
 41
-30.0
 62
     5
 63
     7
421
 16777215
 74
     0
 91
        4
 64
     7
 65
   257
 75
     1
175
     1
 42
1.0
 92
        8
 66
     7
 43
1.0
 76
     1
 77
     6
 78
     2
 67
     7
 79
     5
170
     0
171
     0
290
     0
174
     0
 93
        1
 44
0.0
173
     0
291
     1
 45
0.0
  0
VISUALSTYLE
  5
273
102
{ACAD_REACTORS
330
267
102
}
330
267
100
AcDbVisualStyle
  2
Brighten
 70
    12
 71
     2
 72
     2
 73
     0
 90
        0
 40
-0.6
 41
-30.0
 62
     5
 63
     7
421
 16777215
 74
     1
 91
        4
 64
     7
 65
   257
 75
     1
175
     1
 42
1.0
 92
        8
 66
     7
 43
1.0
 76
     1
 77
     6
 78
     2
 67
     7
 79
     5
170
     0
171
     0
290
     0
174
     0
 93
        1
 44
50.0
173
     0
291
     1
 45
0.0
  0
VISUALSTYLE
  5
277
102
{ACAD_REACTORS
330
267
102
}
330
267
100
AcDbVisualStyle
  2
ColorChange
 70
    16
 71
     2
 72
     2
 73
     3
 90
        0
 40
-0.6
 41
-30.0
 62
     5
 63
     8
421
  8421504
 74
     1
 91
        4
 64
     7
 65
   257
 75
     1
175
     1
 42
1.0
 92
        8
 66
     8
424
  8421504
 43
1.0
 76
     1
 77
     6
 78
     2
 67
     7
 79
     5
170
     0
171
     0
290
     0
174
     0
 93
        1
 44
0.0
173
     0
291
     1
 45
0.0
  0
VISUALSTYLE
  5
271
102
{ACAD_REACTORS
330
267
102
}
330
267
100
AcDbVisualStyle
  2
Conceptual
 70
     9
 71
     3
 72
     2
 73
     0
 90
        0
 40
-0.6
 41
-30.0
 62
     5
 63
     7
421
 16777215
 74
     2
 91
        2
 64
     7
 65
   257
 75
     1
175
     1
 42
40.0
 92
        8
 66
     7
 43
1.0
 76
     1
 77
     6
 78
     2
 67
     7
 79
     3
170
     0
171
     0
290
     0
174
     0
 93
        1
 44
0.0
173
     0
291
     0
 45
0.0
  0
VISUALSTYLE
  5
272
102
{ACAD_REACTORS
330
267
102
}
330
267
100
AcDbVisualStyle
  2
Dim
 70
    11
 71
     2
 72
     2
 73
     0
 90
        0
 40
-0.6
 41
-30.0
 62
     5
 63
     7
421
 16777215
 74
     1
 91
        4
 64
     7
 65
   257
 75
     1
175
     1
 42
1.0
 92
        8
 66
     7
 43
1.0
 76
     1
 77
     6
 78
     2
 67
     7
 79
     5
170
     0
171
     0
290
     0
174
     0
 93
        1
 44
-50.0
173
     0
291
     1
 45
0.0
  0
VISUALSTYLE
  5
8FE
102
{ACAD_REACTORS
330
267
102
}
330
267
100
AcDbVisualStyle
  2
EdgeColorOff
 70
    22
 71
     2
 72
     2
 73
     0
 90
        0
 40
0.6
 41
30.0
 62
     5
 63
     7
421
 16777215
 74
     1
 91
        4
 64
     7
 65
   257
 75
     1
175
     1
 42
1.0
 92
        8
 66
     7
 43
1.0
 76
     1
 77
     6
 78
     2
 67
     7
 79
     5
170
     0
171
     0
290
     0
174
     0
 93
        1
 44
0.0
173
     0
291
     1
 45
0.0
  0
VISUALSTYLE
  5
276
102
{ACAD_REACTORS
330
267
102
}
330
267
100
AcDbVisualStyle
  2
Facepattern
 70
    15
 71
     2
 72
     2
 73
     0
 90
        0
 40
-0.6
 41
-30.0
 62
     5
 63
     7
421
 16777215
 74
     1
 91
        4
 64
     7
 65
   257
 75
     1
175
     1
 42
1.0
 92
        8
 66
     7
 43
1.0
 76
     1
 77
     6
 78
     2
 67
     7
 79
     5
170
     0
171
     0
290
     0
174
     0
 93
        1
 44
0.0
173
     0
291
     1
 45
0.0
  0
VISUALSTYLE
  5
268
102
{ACAD_REACTORS
330
267
102
}
330
267
100
AcDbVisualStyle
  2
Flat
 70
     0
 71
     2
 72
     1
 73
     1
 90
        2
 40
-0.6
 41
30.0
 62
     5
 63
     7
421
 16777215
 74
     0
 91
        4
 64
     7
 65
   257
 75
     1
175
     1
 42
1.0
 92
        8
 66
     7
 43
1.0
 76
     1
 77
     6
 78
     2
 67
     7
 79
     5
170
     0
171
     0
290
     0
174
     0
 93
       13
 44
0.0
173
     0
291
     1
 45
0.0
  0
VISUALSTYLE
  5
269
102
{ACAD_REACTORS
330
267
102
}
330
267
100
AcDbVisualStyle
  2
FlatWithEdges
 70
     1
 71
     2
 72
     1
 73
     1
 90
        2
 40
-0.6
 41
30.0
 62
     5
 63
     7
421
 16777215
 74
     1
 91
        4
 64
     7
 65
   257
 75
     1
175
     1
 42
1.0
 92
        0
 66
   257
 43
1.0
 76
     1
 77
     6
 78
     2
 67
     7
 79
     5
170
     0
171
     0
290
     0
174
     0
 93
       13
 44
0.0
173
     0
291
     1
 45
0.0
  0
VISUALSTYLE
  5
26A
102
{ACAD_REACTORS
330
267
102
}
330
267
100
AcDbVisualStyle
  2
Gouraud
 70
     2
 71
     2
 72
     2
 73
     1
 90
        2
 40
-0.6
 41
30.0
 62
     5
 63
     7
421
 16777215
 74
     0
 91
        4
 64
     7
 65
   257
 75
     1
175
     1
 42
1.0
 92
        0
 66
     7
 43
1.0
 76
     1
 77
     6
 78
     2
 67
     7
 79
     5
170
     0
171
     0
290
     0
174
     0
 93
       13
 44
0.0
173
     0
291
     1
 45
0.0
  0
VISUALSTYLE
  5
26B
102
{ACAD_REACTORS
330
267
102
}
330
267
100
AcDbVisualStyle
  2
GouraudWithEdges
 70
     3
 71
     2
 72
     2
 73
     1
 90
        2
 40
-0.6
 41
30.0
 62
     5
 63
     7
421
 16777215
 74
     1
 91
        4
 64
     7
 65
   257
 75
     1
175
     1
 42
1.0
 92
        0
 66
   257
 43
1.0
 76
     1
 77
     6
 78
     2
 67
     7
 79
     5
170
     0
171
     0
290
     0
174
     0
 93
       13
 44
0.0
173
     0
291
     1
 45
0.0
  0
VISUALSTYLE
  5
8FB
102
{ACAD_REACTORS
330
267
102
}
330
267
100
AcDbVisualStyle
  2
Hidden
 70
     6
 71
     1
 72
     2
 73
     2
 90
        0
 40
0.6
 41
30.0
 62
     5
 63
     7
421
 16777215
 74
     2
 91
        2
 64
     7
 65
   257
 75
     2
175
     1
 42
40.0
 92
        0
 66
   257
 43
1.0
 76
     1
 77
     6
 78
     2
 67
     7
 79
     3
170
     0
171
     0
290
     0
174
     0
 93
        1
 44
0.0
173
     0
291
     0
 45
0.0
  0
VISUALSTYLE
  5
8FC
102
{ACAD_REACTORS
330
267
102
}
330
267
100
AcDbVisualStyle
  2
JitterOff
 70
    20
 71
     2
 72
     2
 73
     0
 90
        0
 40
0.6
 41
30.0
 62
     5
 63
     7
421
 16777215
 74
     1
 91
        4
 64
     7
 65
   257
 75
     1
175
     1
 42
1.0
 92
       10
 66
     7
 43
1.0
 76
     1
 77
     6
 78
     2
 67
     7
 79
     5
170
     0
171
     0
290
     0
174
     0
 93
        1
 44
0.0
173
     0
291
     1
 45
0.0
  0
VISUALSTYLE
  5
275
102
{ACAD_REACTORS
330
267
102
}
330
267
100
AcDbVisualStyle
  2
Linepattern
 70
    14
 71
     2
 72
     2
 73
     0
 90
        0
 40
-0.6
 41
-30.0
 62
     5
 63
     7
421
 16777215
 74
     1
 91
        4
 64
     7
 65
   257
 75
     7
175
     7
 42
1.0
 92
        8
 66
     7
 43
1.0
 76
     1
 77
     6
 78
     2
 67
     7
 79
     5
170
     0
171
     0
290
     0
174
     0
 93
        1
 44
0.0
173
     0
291
     1
 45
0.0
  0
VISUALSTYLE
  5
8FD
102
{ACAD_REACTORS
330
267
102
}
330
267
100
AcDbVisualStyle
  2
OverhangOff
 70
    21
 71
     2
 72
     2
 73
     0
 90
        0
 40
0.6
 41
30.0
 62
     5
 63
     7
421
 16777215
 74
     1
 91
        4
 64
     7
 65
   257
 75
     1
175
     1
 42
1.0
 92
        9
 66
     7
 43
1.0
 76
     1
 77
     6
 78
     2
 67
     7
 79
     5
170
     0
171
     0
290
     0
174
     0
 93
        1
 44
0.0
173
     0
291
     1
 45
0.0
  0
VISUALSTYLE
  5
270
102
{ACAD_REACTORS
330
267
102
}
330
267
100
AcDbVisualStyle
  2
Realistic
 70
     8
 71
     2
 72
     2
 73
     0
 90
        0
 40
-0.6
 41
-30.0
 62
     5
 63
     7
421
 16777215
 74
     1
 91
        0
 64
     7
 65
   257
 75
     1
175
     1
 42
1.0
 92
        8
 66
     8
424
  7895160
 43
1.0
 76
     1
 77
     6
 78
     2
 67
     7
 79
     5
170
     0
171
     0
290
     0
174
     0
 93
       13
 44
0.0
173
     0
291
     0
 45
0.0
  0
VISUALSTYLE
  5
903
102
{ACAD_REACTORS
330
267
102
}
330
267
100
AcDbVisualStyle
  2
Shaded
 70
    27
 71
     2
 72
     2
 73
     1
 90
        2
 40
0.6
 41
30.0
 62
     5
 63
     7
421
 16777215
 74
     0
 91
        4
 64
     7
 65
   257
 75
     1
175
     1
 42
1.0
 92
        8
 66
   257
 43
1.0
 76
     1
 77
     6
 78
     2
 67
     8
425
  7895160
 79
     3
170
     0
171
     0
290
     0
174
     0
 93
        5
 44
0.0
173
     0
291
     0
 45
0.0
  0
VISUALSTYLE
  5
902
102
{ACAD_REACTORS
330
267
102
}
330
267
100
AcDbVisualStyle
  2
Shaded with edges
 70
    26
 71
     2
 72
     2
 73
     1
 90
        2
 40
0.6
 41
30.0
 62
     5
 63
     7
421
 16777215
 74
     1
 91
       10
 64
     7
 65
   257
 75
     2
175
     1
 42
1.0
 92
        8
 66
   257
 43
1.0
 76
     1
 77
     6
 78
     2
 67
     7
 79
     3
170
     0
171
     0
290
     0
174
     0
 93
        5
 44
0.0
173
     0
291
     0
 45
0.0
  0
VISUALSTYLE
  5
8FF
102
{ACAD_REACTORS
330
267
102
}
330
267
100
AcDbVisualStyle
  2
Shades of Gray
 70
    23
 71
     2
 72
     2
 73
     3
 90
        0
 40
0.6
 41
30.0
 62
     5
 63
     7
421
 16777215
 74
     2
 91
        2
 64
     7
 65
     7
 75
     1
175
     1
 42
40.0
 92
        8
 66
     7
 43
1.0
 76
     1
 77
     6
 78
     2
 67
     7
 79
     3
170
     0
171
     0
290
     0
174
     0
 93
        1
 44
0.0
173
     0
291
     0
 45
0.0
  0
VISUALSTYLE
  5
900
102
{ACAD_REACTORS
330
267
102
}
330
267
100
AcDbVisualStyle
  2
Sketchy
 70
    24
 71
     1
 72
     2
 73
     2
 90
        0
 40
0.6
 41
30.0
 62
     5
 63
     7
421
 16777215
 74
     2
 91
        2
 64
     7
 65
     7
 75
     1
175
     1
 42
40.0
 92
       11
 66
     7
 43
1.0
 76
     1
 77
     6
 78
     2
 67
     7
 79
     6
170
     0
171
     0
290
     0
174
     0
 93
        1
 44
0.0
173
     0
291
     0
 45
0.0
  0
VISUALSTYLE
  5
274
102
{ACAD_REACTORS
330
267
102
}
330
267
100
AcDbVisualStyle
  2
Thicken
 70
    13
 71
     2
 72
     2
 73
     0
 90
        0
 40
-0.6
 41
-30.0
 62
     5
 63
     7
421
 16777215
 74
     1
 91
        4
 64
     7
 65
   257
 75
     1
175
     1
 42
1.0
 92
       12
 66
     7
 43
1.0
 76
     1
 77
     6
 78
     2
 67
     7
 79
     5
170
     0
171
     0
290
     0
174
     0
 93
        1
 44
0.0
173
     0
291
     1
 45
0.0
  0
VISUALSTYLE
  5
8FA
102
{ACAD_REACTORS
330
267
102
}
330
267
100
AcDbVisualStyle
  2
Wireframe
 70
     5
 71
     0
 72
     2
 73
     0
 90
        0
 40
0.6
 41
30.0
 62
     5
 63
     7
421
 16777215
 74
     1
 91
        4
 64
     7
 65
   257
 75
     1
175
     1
 42
1.0
 92
        0
 66
   257
 43
1.0
 76
     1
 77
     6
 78
     2
 67
     7
 79
     3
170
     0
171
     0
290
     0
174
     0
 93
        1
 44
0.0
173
     0
291
     0
 45
0.0
  0
VISUALSTYLE
  5
901
102
{ACAD_REACTORS
330
267
102
}
330
267
100
AcDbVisualStyle
  2
X-Ray
 70
    25
 71
     2
 72
     2
 73
     1
 90
        1
 40
0.5
 41
30.0
 62
     5
 63
     7
421
 16777215
 74
     1
 91
        0
 64
     7
 65
   257
 75
     1
175
     1
 42
1.0
 92
        8
 66
     7
 43
1.0
 76
     1
 77
     6
 78
     2
 67
     7
 79
     3
170
     0
171
     0
290
     0
174
     0
 93
       13
 44
0.0
173
     0
291
     0
 45
0.0
  0
DICTIONARYVAR
  5
331
102
{ACAD_REACTORS
330
330
102
}
330
330
100
DictionaryVariables
280
     0
  1
1:1
  0
DICTIONARYVAR
  5
D5E
102
{ACAD_REACTORS
330
330
102
}
330
330
100
DictionaryVariables
280
     0
  1
Standard
  0
DICTIONARYVAR
  5
335
102
{ACAD_REACTORS
330
330
102
}
330
330
100
DictionaryVariables
280
     0
  1
Standard
  0
DICTIONARYVAR
  5
D52
102
{ACAD_REACTORS
330
330
102
}
330
330
100
DictionaryVariables
280
     0
  1
ByLayer
  0
DICTIONARYVAR
  5
896
102
{ACAD_REACTORS
330
330
102
}
330
330
100
DictionaryVariables
280
     0
  1
0
  0
DICTIONARYVAR
  5
E3B
102
{ACAD_REACTORS
330
E38
102
}
330
E38
100
DictionaryVariables
280
     0
  1
0.261799
  0
DICTIONARYVAR
  5
E39
102
{ACAD_REACTORS
330
E38
102
}
330
E38
100
DictionaryVariables
280
     0
  1
0.400000
  0
DICTIONARYVAR
  5
E3A
102
{ACAD_REACTORS
330
E38
102
}
330
E38
100
DictionaryVariables
280
     0
  1
0.250000
  0
DICTIONARYVAR
  5
E3C
102
{ACAD_REACTORS
330
E38
102
}
330
E38
100
DictionaryVariables
280
     0
  1
1
  0
FIELD
  5
197E
102
{ACAD_REACTORS
330
1983
102
}
330
1983
100
AcDbField
  1
_text
  2
{%<\_FldIdx 0>%N}
 90
        1
360
1981
 97
        0
 91
       63
 92
        0
 94
        8
 95
        2
 96
        0
300

 93
        1
  6
ACFD_FIELDTEXT_CHECKSUM
 93
        2
 90
        2
140
4499.0
 94
        0
300

302

304
ACVALUE_END
  7
ACFD_FIELD_VALUE
 93
        6
 90
        4
  1
{20171115N}
 94
        0
300

302

304
ACVALUE_END
301
{20171115N}
 98
       11
  0
DICTIONARY
  5
1A9B
330
279
100
AcDbDictionary
280
     1
281
     1
  3
ACAD_ROUNDTRIP_2008_TABLESTYLE_CELLSTYLEMAP
360
1A9C
  0
FIELD
  5
1981
330
197E
100
AcDbField
  1
AcVar
  2
\AcVar Date \f "yyyyMMdd"
 90
        0
 97
        0
 91
       63
 92
        0
 94
        8
 95
        2
 96
        0
300

 93
        1
  6
Variable
 93
        2
 90
        4
  1
Date
 94
        0
300

302

304
ACVALUE_END
  7
ACFD_FIELD_VALUE
 93
        6
 90
        8
 92
       16
310
E1070B0000000E000F000E000E000000
 94
        0
300
yyyyMMdd
302

304
ACVALUE_END
301
20171115
 98
        8
  0
CELLSTYLEMAP
  5
1A9C
102
{ACAD_REACTORS
330
1A9B
102
}
330
1A9B
100
AcDbCellStyleMap
 90
        3
300
CELLSTYLE
  1
TABLEFORMAT_BEGIN
 90
        5
170
     1
 91
        0
 92
    32768
 62
   257
 93
        1
300
CONTENTFORMAT
  1
CONTENTFORMAT_BEGIN
 90
        0
 91
        0
 92
        4
 93
        0
300

 40
0.0
140
1.0
 94
        5
 62
     0
340
17
144
6.0
309
CONTENTFORMAT_END
171
     1
301
MARGIN
  1
CELLMARGIN_BEGIN
 40
0.06
 40
0.06
 40
0.06
 40
0.06
 40
0.18
 40
0.18
309
CELLMARGIN_END
 94
        6
 95
        1
302
GRIDFORMAT
  1
GRIDFORMAT_BEGIN
 90
        0
 91
        1
 62
     0
 92
       -2
340
0
 93
        0
 40
0.045
309
GRIDFORMAT_END
 95
        2
302
GRIDFORMAT
  1
GRIDFORMAT_BEGIN
 90
        0
 91
        1
 62
     0
 92
       -2
340
0
 93
        0
 40
0.045
309
GRIDFORMAT_END
 95
        4
302
GRIDFORMAT
  1
GRIDFORMAT_BEGIN
 90
        0
 91
        1
 62
     0
 92
       -2
340
0
 93
        0
 40
0.045
309
GRIDFORMAT_END
 95
        8
302
GRIDFORMAT
  1
GRIDFORMAT_BEGIN
 90
        0
 91
        1
 62
     0
 92
       -2
340
0
 93
        0
 40
0.045
309
GRIDFORMAT_END
 95
       16
302
GRIDFORMAT
  1
GRIDFORMAT_BEGIN
 90
        0
 91
        1
 62
     0
 92
       -2
340
0
 93
        0
 40
0.045
309
GRIDFORMAT_END
 95
       32
302
GRIDFORMAT
  1
GRIDFORMAT_BEGIN
 90
        0
 91
        1
 62
     0
 92
       -2
340
0
 93
        0
 40
0.045
309
GRIDFORMAT_END
309
TABLEFORMAT_END
  1
CELLSTYLE_BEGIN
 90
        1
 91
        1
300
_TITLE
309
CELLSTYLE_END
300
CELLSTYLE
  1
TABLEFORMAT_BEGIN
 90
        5
170
     1
 91
        0
 92
        0
 62
   257
 93
        1
300
CONTENTFORMAT
  1
CONTENTFORMAT_BEGIN
 90
        0
 91
        0
 92
        4
 93
        0
300

 40
0.0
140
1.0
 94
        5
 62
     0
340
17
144
4.5
309
CONTENTFORMAT_END
171
     1
301
MARGIN
  1
CELLMARGIN_BEGIN
 40
0.06
 40
0.06
 40
0.06
 40
0.06
 40
0.18
 40
0.18
309
CELLMARGIN_END
 94
        6
 95
        1
302
GRIDFORMAT
  1
GRIDFORMAT_BEGIN
 90
        0
 91
        1
 62
     0
 92
       -2
340
0
 93
        0
 40
0.045
309
GRIDFORMAT_END
 95
        2
302
GRIDFORMAT
  1
GRIDFORMAT_BEGIN
 90
        0
 91
        1
 62
     0
 92
       -2
340
0
 93
        0
 40
0.045
309
GRIDFORMAT_END
 95
        4
302
GRIDFORMAT
  1
GRIDFORMAT_BEGIN
 90
        0
 91
        1
 62
     0
 92
       -2
340
0
 93
        0
 40
0.045
309
GRIDFORMAT_END
 95
        8
302
GRIDFORMAT
  1
GRIDFORMAT_BEGIN
 90
        0
 91
        1
 62
     0
 92
       -2
340
0
 93
        0
 40
0.045
309
GRIDFORMAT_END
 95
       16
302
GRIDFORMAT
  1
GRIDFORMAT_BEGIN
 90
        0
 91
        1
 62
     0
 92
       -2
340
0
 93
        0
 40
0.045
309
GRIDFORMAT_END
 95
       32
302
GRIDFORMAT
  1
GRIDFORMAT_BEGIN
 90
        0
 91
        1
 62
     0
 92
       -2
340
0
 93
        0
 40
0.045
309
GRIDFORMAT_END
309
TABLEFORMAT_END
  1
CELLSTYLE_BEGIN
 90
        2
 91
        1
300
_HEADER
309
CELLSTYLE_END
300
CELLSTYLE
  1
TABLEFORMAT_BEGIN
 90
        5
170
     1
 91
        0
 92
        0
 62
   257
 93
        1
300
CONTENTFORMAT
  1
CONTENTFORMAT_BEGIN
 90
        0
 91
        0
 92
        4
 93
        0
300

 40
0.0
140
1.0
 94
        2
 62
     0
340
17
144
4.5
309
CONTENTFORMAT_END
171
     1
301
MARGIN
  1
CELLMARGIN_BEGIN
 40
0.06
 40
0.06
 40
0.06
 40
0.06
 40
0.18
 40
0.18
309
CELLMARGIN_END
 94
        6
 95
        1
302
GRIDFORMAT
  1
GRIDFORMAT_BEGIN
 90
        0
 91
        1
 62
     0
 92
       -2
340
0
 93
        0
 40
0.045
309
GRIDFORMAT_END
 95
        2
302
GRIDFORMAT
  1
GRIDFORMAT_BEGIN
 90
        0
 91
        1
 62
     0
 92
       -2
340
0
 93
        0
 40
0.045
309
GRIDFORMAT_END
 95
        4
302
GRIDFORMAT
  1
GRIDFORMAT_BEGIN
 90
        0
 91
        1
 62
     0
 92
       -2
340
0
 93
        0
 40
0.045
309
GRIDFORMAT_END
 95
        8
302
GRIDFORMAT
  1
GRIDFORMAT_BEGIN
 90
        0
 91
        1
 62
     0
 92
       -2
340
0
 93
        0
 40
0.045
309
GRIDFORMAT_END
 95
       16
302
GRIDFORMAT
  1
GRIDFORMAT_BEGIN
 90
        0
 91
        1
 62
     0
 92
       -2
340
0
 93
        0
 40
0.045
309
GRIDFORMAT_END
 95
       32
302
GRIDFORMAT
  1
GRIDFORMAT_BEGIN
 90
        0
 91
        1
 62
     0
 92
       -2
340
0
 93
        0
 40
0.045
309
GRIDFORMAT_END
309
TABLEFORMAT_END
  1
CELLSTYLE_BEGIN
 90
        3
 91
        2
300
_DATA
309
CELLSTYLE_END
  0
ENDSEC
  0
EOF
